  0
SECTION
  2
HEADER
  9
$ACADVER
  1
AC1015
  9
$ACADMAINTVER
 70
    20
  9
$DWGCODEPAGE
  3
ANSI_950
  9
$INSBASE
 10
0.0
 20
0.0
 30
0.0
  9
$EXTMIN
 10
949.4582701835247
 20
887.8803827021652
 30
0.0
  9
$EXTMAX
 10
1242.132851164395
 20
1119.317393464035
 30
184.6336296564843
  9
$LIMMIN
 10
0.0
 20
0.0
  9
$LIMMAX
 10
420.0
 20
297.0
  9
$ORTHOMODE
 70
     1
  9
$REGENMODE
 70
     1
  9
$FILLMODE
 70
     1
  9
$QTEXTMODE
 70
     0
  9
$MIRRTEXT
 70
     1
  9
$LTSCALE
 40
1.0
  9
$ATTMODE
 70
     1
  9
$TEXTSIZE
 40
1.0
  9
$TRACEWID
 40
1.0
  9
$TEXTSTYLE
  7
STANDARD
  9
$CLAYER
  8
0
  9
$CELTYPE
  6
ByLayer
  9
$CECOLOR
 62
   256
  9
$CELTSCALE
 40
1.0
  9
$DISPSILH
 70
     0
  9
$DIMSCALE
 40
1.0
  9
$DIMASZ
 40
2.5
  9
$DIMEXO
 40
1.0
  9
$DIMDLI
 40
10.0
  9
$DIMRND
 40
0.0
  9
$DIMDLE
 40
0.0
  9
$DIMEXE
 40
1.0
  9
$DIMTP
 40
0.1
  9
$DIMTM
 40
0.1
  9
$DIMTXT
 40
3.5
  9
$DIMCEN
 40
0.0
  9
$DIMTSZ
 40
0.0
  9
$DIMTOL
 70
     0
  9
$DIMLIM
 70
     0
  9
$DIMTIH
 70
     0
  9
$DIMTOH
 70
     0
  9
$DIMSE1
 70
     0
  9
$DIMSE2
 70
     0
  9
$DIMTAD
 70
     1
  9
$DIMZIN
 70
     8
  9
$DIMBLK
  1

  9
$DIMASO
 70
     1
  9
$DIMSHO
 70
     1
  9
$DIMPOST
  1

  9
$DIMAPOST
  1
"
  9
$DIMALT
 70
     0
  9
$DIMALTD
 70
     2
  9
$DIMALTF
 40
0.0393701
  9
$DIMLFAC
 40
1.0
  9
$DIMTOFL
 70
     1
  9
$DIMTVP
 40
0.0
  9
$DIMTIX
 70
     0
  9
$DIMSOXD
 70
     0
  9
$DIMSAH
 70
     0
  9
$DIMBLK1
  1

  9
$DIMBLK2
  1

  9
$DIMSTYLE
  2
AM_ISO
  9
$DIMCLRD
 70
   256
  9
$DIMCLRE
 70
   256
  9
$DIMCLRT
 70
     2
  9
$DIMTFAC
 40
0.71
  9
$DIMGAP
 40
1.5
  9
$DIMJUST
 70
     0
  9
$DIMSD1
 70
     0
  9
$DIMSD2
 70
     0
  9
$DIMTOLJ
 70
     0
  9
$DIMTZIN
 70
     8
  9
$DIMALTZ
 70
     0
  9
$DIMALTTZ
 70
     0
  9
$DIMUPT
 70
     0
  9
$DIMDEC
 70
     2
  9
$DIMTDEC
 70
     3
  9
$DIMALTU
 70
     2
  9
$DIMALTTD
 70
     4
  9
$DIMTXSTY
  7
STANDARD
  9
$DIMAUNIT
 70
     0
  9
$DIMADEC
 70
     0
  9
$DIMALTRND
 40
0.0
  9
$DIMAZIN
 70
     2
  9
$DIMDSEP
 70
    46
  9
$DIMATFIT
 70
     3
  9
$DIMFRAC
 70
     0
  9
$DIMLDRBLK
  1

  9
$DIMLUNIT
 70
     2
  9
$DIMLWD
 70
    -1
  9
$DIMLWE
 70
    -1
  9
$DIMTMOVE
 70
     0
  9
$LUNITS
 70
     2
  9
$LUPREC
 70
     2
  9
$SKETCHINC
 40
1.0
  9
$FILLETRAD
 40
2.5
  9
$AUNITS
 70
     0
  9
$AUPREC
 70
     0
  9
$MENU
  1
.
  9
$ELEVATION
 40
0.0
  9
$PELEVATION
 40
0.0
  9
$THICKNESS
 40
0.0
  9
$LIMCHECK
 70
     0
  9
$CHAMFERA
 40
2.5
  9
$CHAMFERB
 40
2.5
  9
$CHAMFERC
 40
20.0
  9
$CHAMFERD
 40
0.0
  9
$SKPOLY
 70
     0
  9
$TDCREATE
 40
2455812.590670926
  9
$TDUCREATE
 40
2455812.257337592
  9
$TDUPDATE
 40
2455812.610036701
  9
$TDUUPDATE
 40
2455812.276703368
  9
$TDINDWG
 40
0.0075679977
  9
$TDUSRTIMER
 40
0.0075679977
  9
$USRTIMER
 70
     1
  9
$ANGBASE
 50
0.0
  9
$ANGDIR
 70
     0
  9
$PDMODE
 70
     0
  9
$PDSIZE
 40
0.0
  9
$PLINEWID
 40
0.0
  9
$SPLFRAME
 70
     0
  9
$SPLINETYPE
 70
     6
  9
$SPLINESEGS
 70
     8
  9
$HANDSEED
  5
808
  9
$SURFTAB1
 70
     6
  9
$SURFTAB2
 70
     6
  9
$SURFTYPE
 70
     6
  9
$SURFU
 70
     6
  9
$SURFV
 70
     6
  9
$UCSBASE
  2

  9
$UCSNAME
  2

  9
$UCSORG
 10
0.0
 20
0.0
 30
0.0
  9
$UCSXDIR
 10
1.0
 20
0.0
 30
0.0
  9
$UCSYDIR
 10
0.0
 20
1.0
 30
0.0
  9
$UCSORTHOREF
  2

  9
$UCSORTHOVIEW
 70
     0
  9
$UCSORGTOP
 10
0.0
 20
0.0
 30
0.0
  9
$UCSORGBOTTOM
 10
0.0
 20
0.0
 30
0.0
  9
$UCSORGLEFT
 10
0.0
 20
0.0
 30
0.0
  9
$UCSORGRIGHT
 10
0.0
 20
0.0
 30
0.0
  9
$UCSORGFRONT
 10
0.0
 20
0.0
 30
0.0
  9
$UCSORGBACK
 10
0.0
 20
0.0
 30
0.0
  9
$PUCSBASE
  2

  9
$PUCSNAME
  2

  9
$PUCSORG
 10
0.0
 20
0.0
 30
0.0
  9
$PUCSXDIR
 10
1.0
 20
0.0
 30
0.0
  9
$PUCSYDIR
 10
0.0
 20
1.0
 30
0.0
  9
$PUCSORTHOREF
  2

  9
$PUCSORTHOVIEW
 70
     0
  9
$PUCSORGTOP
 10
0.0
 20
0.0
 30
0.0
  9
$PUCSORGBOTTOM
 10
0.0
 20
0.0
 30
0.0
  9
$PUCSORGLEFT
 10
0.0
 20
0.0
 30
0.0
  9
$PUCSORGRIGHT
 10
0.0
 20
0.0
 30
0.0
  9
$PUCSORGFRONT
 10
0.0
 20
0.0
 30
0.0
  9
$PUCSORGBACK
 10
0.0
 20
0.0
 30
0.0
  9
$USERI1
 70
     0
  9
$USERI2
 70
     0
  9
$USERI3
 70
     0
  9
$USERI4
 70
     0
  9
$USERI5
 70
     0
  9
$USERR1
 40
0.0
  9
$USERR2
 40
0.0
  9
$USERR3
 40
0.0
  9
$USERR4
 40
0.0
  9
$USERR5
 40
0.0
  9
$WORLDVIEW
 70
     1
  9
$SHADEDGE
 70
     3
  9
$SHADEDIF
 70
    70
  9
$TILEMODE
 70
     1
  9
$MAXACTVP
 70
    64
  9
$PINSBASE
 10
0.0
 20
0.0
 30
0.0
  9
$PLIMCHECK
 70
     0
  9
$PEXTMIN
 10
1.000000000000000E+20
 20
1.000000000000000E+20
 30
1.000000000000000E+20
  9
$PEXTMAX
 10
-1.000000000000000E+20
 20
-1.000000000000000E+20
 30
-1.000000000000000E+20
  9
$PLIMMIN
 10
0.0
 20
0.0
  9
$PLIMMAX
 10
420.0
 20
297.0
  9
$UNITMODE
 70
     0
  9
$VISRETAIN
 70
     1
  9
$PLINEGEN
 70
     0
  9
$PSLTSCALE
 70
     1
  9
$TREEDEPTH
 70
  3020
  9
$CMLSTYLE
  2
Standard
  9
$CMLJUST
 70
     0
  9
$CMLSCALE
 40
20.0
  9
$PROXYGRAPHICS
 70
     1
  9
$MEASUREMENT
 70
     1
  9
$CELWEIGHT
370
    -1
  9
$ENDCAPS
280
     0
  9
$JOINSTYLE
280
     0
  9
$LWDISPLAY
290
     0
  9
$INSUNITS
 70
     4
  9
$HYPERLINKBASE
  1

  9
$STYLESHEET
  1

  9
$XEDIT
290
     1
  9
$CEPSNTYPE
380
     0
  9
$PSTYLEMODE
290
     1
  9
$FINGERPRINTGUID
  2
{44DAA111-ACFE-456C-9E22-4B755CA54927}
  9
$VERSIONGUID
  2
{C1E2B93E-A285-46FA-8DC0-F463F7C148EC}
  9
$EXTNAMES
290
     1
  9
$PSVPSCALE
 40
0.0
  9
$OLESTARTUP
290
     0
  0
ENDSEC
  0
SECTION
  2
CLASSES
  0
CLASS
  1
ACDBDICTIONARYWDFLT
  2
AcDbDictionaryWithDefault
  3
ObjectDBX Classes
 90
        0
280
     0
281
     0
  0
CLASS
  1
ACDBPLACEHOLDER
  2
AcDbPlaceHolder
  3
ObjectDBX Classes
 90
        0
280
     0
281
     0
  0
CLASS
  1
LAYOUT
  2
AcDbLayout
  3
ObjectDBX Classes
 90
        0
280
     0
281
     0
  0
CLASS
  1
ACME_DOCUMENT
  2
AcMeDbDoc
  3
AcMeServices
 90
        0
280
     0
281
     0
  0
CLASS
  1
AMGSETTINGSOBJ
  2
AmgSettingsObj
  3
"AcadM|Product Description: AutoCAD Mechanical 2000|Company: Autodesk"
 90
        0
280
     0
281
     0
  0
CLASS
  1
ACMESCOPE
  2
AcMeScope
  3
AcMeServices
 90
        0
280
     0
281
     0
  0
CLASS
  1
ACMECOMMANDHISTORY
  2
AcMeCommandHistory
  3
AcMeServices
 90
        0
280
     0
281
     0
  0
CLASS
  1
ACIMSYSVARMAN
  2
AcImSysVarManager
  3
AcMeServices
 90
        0
280
     0
281
     0
  0
CLASS
  1
ACIMREALSYSVAR
  2
AcImRealSysVar
  3
AcMeServices
 90
        0
280
     0
281
     0
  0
CLASS
  1
ACIMINTSYSVAR
  2
AcImIntSysVar
  3
AcMeServices
 90
        0
280
     0
281
     0
  0
CLASS
  1
ACMEDRAWINGMAN
  2
AcMeDrawingMan
  3
AcMeServices
 90
        0
280
     0
281
     0
  0
CLASS
  1
ACMEVIEW
  2
AcMeView
  3
AcMeServices
 90
        0
280
     0
281
     0
  0
CLASS
  1
ACDBENTITYCACHE
  2
AcMeEntityCache
  3
AcMeServices
 90
        0
280
     0
281
     0
  0
CLASS
  1
GSMANAGER
  2
AcMeGSManager
  3
AcMeServices
 90
        0
280
     0
281
     0
  0
CLASS
  1
AMDTINTERNALREACTOR
  2
AmdtInternalReactor
  3
AcMeServices
 90
        0
280
     0
281
     0
  0
CLASS
  1
ACMESTATEMGR
  2
AcMeStateMgr
  3
AcMeServices
 90
        0
280
     0
281
     0
  0
CLASS
  1
ACGREFMASTER
  2
AcGrefMaster
  3
AcAttribServices
 90
        0
280
     0
281
     0
  0
CLASS
  1
ACME_DATABASE
  2
AcMeDbDatabase
  3
AcMeServices
 90
        0
280
     0
281
     0
  0
CLASS
  1
ACRFINSADJUSTERMGR
  2
AcRfInsAdjusterMgr
  3
AcMeServices
 90
        0
280
     0
281
     0
  0
CLASS
  1
ACGREFACADMASTER
  2
AcGrefacadMaster
  3
AcGrefServices
 90
        0
280
     0
281
     0
  0
CLASS
  1
AMIMASTER
  2
AmiMaster
  3
AmiServices
 90
        0
280
     0
281
     0
  0
CLASS
  1
ACMDATADICTIONARY
  2
AcmDataDictionary
  3
"AcmSymBB|Product Description: AutoCAD Mechanical 2004 DX|Company: Autodesk"
 90
        0
280
     0
281
     0
  0
CLASS
  1
ACMDATAENTRYBLOCK
  2
AcmDataEntryBlock
  3
"AcmSymBB|Product Description: AutoCAD Mechanical 2004 DX|Company: Autodesk"
 90
    32768
280
     0
281
     0
  0
CLASS
  1
ACIMSTRSYSVAR
  2
AcImStrSysVar
  3
AcMeServices
 90
        0
280
     0
281
     0
  0
CLASS
  1
ACMSTANDARDISO
  2
AcmStandardISO
  3
"Amdt_StdImp|Product Description: AutoCAD Mechanical 2004 DX|Company: Autodesk"
 90
        0
280
     0
281
     0
  0
CLASS
  1
AMGOBJPROPCFG
  2
AmgObjPropCfg
  3
"AmgLay|Product Description: AutoCAD Mechanical 2000|Company: Autodesk"
 90
        1
280
     0
281
     0
  0
CLASS
  1
AMDTEDGESTANDARDISO
  2
AmdtEdgeStdISO
  3
"Amdt_StdImp|Product Description: AutoCAD Mechanical 2004 DX|Company: Autodesk"
 90
    32768
280
     0
281
     0
  0
CLASS
  1
ACMSURFSTANDARDISO
  2
AcmSurfTextStdISO
  3
"Amdt_StdImp|Product Description: AutoCAD Mechanical 2004 DX|Company: Autodesk"
 90
        0
280
     0
281
     0
  0
CLASS
  1
ACMFCFSTANDARDISO
  2
AcmFCFStdISO
  3
"Amdt_StdImp|Product Description: AutoCAD Mechanical 2004 DX|Company: Autodesk"
 90
        0
280
     0
281
     0
  0
CLASS
  1
ACMWELDSTANDARDISO
  2
AcmWeldingStdISO
  3
"Amdt_StdImp|Product Description: AutoCAD Mechanical 2004 DX|Company: Autodesk"
 90
        0
280
     0
281
     0
  0
CLASS
  1
ACMIDSTANDARDISO
  2
AcmIdStdISO
  3
"Amdt_StdImp|Product Description: AutoCAD Mechanical 2004 DX|Company: Autodesk"
 90
        0
280
     0
281
     0
  0
CLASS
  1
ACMDATUMSTANDARDISO
  2
AcmDatumStdISO
  3
"Amdt_StdImp|Product Description: AutoCAD Mechanical 2004 DX|Company: Autodesk"
 90
        0
280
     0
281
     0
  0
CLASS
  1
ACMBOMSTANDARDISO
  2
AcmBOMStdISO
  3
"Amdt_StdImp|Product Description: AutoCAD Mechanical 2004 DX|Company: Autodesk"
 90
        0
280
     0
281
     0
  0
CLASS
  1
ACMDETAILSTANDARDISO
  2
AmdtDetailSymStdISO
  3
"Amdt_StdImp|Product Description: AutoCAD Mechanical 2004 DX|Company: Autodesk"
 90
        0
280
     0
281
     0
  0
CLASS
  1
ACMSECTIONSTANDARDISO
  2
AmdtSectionSymStdISO
  3
"Amdt_StdImp|Product Description: AutoCAD Mechanical 2004 DX|Company: Autodesk"
 90
        0
280
     0
281
     0
  0
CLASS
  1
ACMCENTERLINESTANDARDISO
  2
AmdtCenterLineStdISO
  3
"Amdt_StdImp|Product Description: AutoCAD Mechanical 2004 DX|Company: Autodesk"
 90
        0
280
     0
281
     0
  0
CLASS
  1
ACMNOTESTANDARDISO
  2
AmdtNoteStdISO
  3
"Amdt_StdImp|Product Description: AutoCAD Mechanical 2004 DX|Company: Autodesk"
 90
        0
280
     0
281
     0
  0
CLASS
  1
ACAMGLAYSTD
  2
AcAmgLayStd
  3
"AcAmgLayStd|Product Description: AutoCAD Mechanical 2000|Company: Autodesk"
 90
        0
280
     0
281
     0
  0
CLASS
  1
ACAMGDIMSTD
  2
AcAmgDimStd
  3
"AcAmgDimStd|Product Description: AutoCAD Mechanical 2000|Company: Autodesk"
 90
        0
280
     0
281
     0
  0
CLASS
  1
ACAMGHOLECHARTSTDISO
  2
AcAmgHoleChartStdISO
  3
ACMSYMBB_MODULE_NAME
 90
        0
280
     0
281
     0
  0
CLASS
  1
ACAMGTITLESTD
  2
AcAmgTitleStd
  3
"TITLEAPP"
 90
        0
280
     0
281
     0
  0
CLASS
  1
LAYER_INDEX
  2
AcDbLayerIndex
  3
ObjectDBX Classes
 90
    32768
280
     0
281
     0
  0
CLASS
  1
IDBUFFER
  2
AcDbIdBuffer
  3
ObjectDBX Classes
 90
    32768
280
     0
281
     0
  0
CLASS
  1
DICTIONARYVAR
  2
AcDbDictionaryVar
  3
ObjectDBX Classes
 90
        0
280
     0
281
     0
  0
CLASS
  1
AM_DRAWING_MGR
  2
AcDmDwgMgr
  3
AcMechDwgViewMgmt
 90
        0
280
     0
281
     0
  0
CLASS
  1
AM_DWG_DOCUMENT
  2
AcDmDwgDocument
  3
AcMechDwgViewMgmt
 90
        0
280
     0
281
     0
  0
CLASS
  1
AM_DWG_SHEET
  2
AcDmSheet
  3
AcMechDwgViewMgmt
 90
        0
280
     0
281
     0
  0
CLASS
  1
AM_VIEWDIMPARMAP
  2
AcDmViewDimParMap
  3
AcMechDwgViewMgmt
 90
        0
280
     0
281
     0
  0
CLASS
  1
AM_DWGMGR_NAME
  2
AcDmDwgMgrName
  3
AcMechDwgViewMgmt
 90
        0
280
     0
281
     0
  0
CLASS
  1
AMDTMENUSTATEMGR
  2
AmdtMenuStateMgr
  3
McadcomServices
 90
        0
280
     0
281
     0
  0
CLASS
  1
AMDTMCOMMENUSTATE
  2
AmdtMcomMenuState
  3
McadcomServices
 90
        0
280
     0
281
     0
  0
CLASS
  1
MAPIAMMOUDLE
  2
MApiAmModule
  3
MApiAmServices
 90
        0
280
     0
281
     0
  0
CLASS
  1
AMDTADMENUSTATE
  2
AmdtAdMenuState
  3
DesignerServices
 90
        0
280
     0
281
     0
  0
CLASS
  1
ADAPPL
  2
AcAdAppl
  3
DesignerServices
 90
        0
280
     0
281
     0
  0
CLASS
  1
DEPMGR
  2
AcAdDepMgr
  3
DesignerServices
 90
        0
280
     0
281
     0
  0
CLASS
  1
PARAMMGR
  2
AcAdParamMgr
  3
DesignerServices
 90
        0
280
     0
281
     0
  0
CLASS
  1
PARAMSCOPE
  2
AcAdParamScope
  3
DesignerServices
 90
        0
280
     0
281
     0
  0
CLASS
  1
NAMEDAPPL
  2
AcAdNamedAppl
  3
DesignerServices
 90
        0
280
     0
281
     0
  0
CLASS
  1
AMDTDMMENUSTATE
  2
AmdtDmMenuState
  3
AcMechDwgViewMgmt
 90
        0
280
     0
281
     0
  0
CLASS
  1
AMDTAMMENUSTATE
  2
AmdtAmMenuState
  3
DesignerAssemblies
 90
        0
280
     0
281
     0
  0
CLASS
  1
ACAMPROJECT
  2
AcAmProject
  3
DesignerAssemblies
 90
        0
280
     0
281
     0
  0
CLASS
  1
ACAMGRCOMPDEF
  2
AcAmGrCompDef
  3
DesignerAssemblies
 90
        0
280
     0
281
     0
  0
CLASS
  1
ACCMCONTEXT
  2
AcCmContext
  3
DesignerAssemblies
 90
        0
280
     0
281
     0
  0
CLASS
  1
ACAMCOMPDEF
  2
AcAmCompDef
  3
DesignerAssemblies
 90
        0
280
     0
281
     0
  0
CLASS
  1
ACAMCOMPDEFMGR
  2
AcAmCompDefMgr
  3
DesignerAssemblies
 90
        0
280
     0
281
     0
  0
CLASS
  1
AMCONTEXTMGR
  2
AcAmContextMgr
  3
DesignerAssemblies
 90
        0
280
     0
281
     0
  0
CLASS
  1
ACAMCONTEXTMODELER
  2
AcAmContextModeler
  3
DesignerAssemblies
 90
        0
280
     0
281
     0
  0
CLASS
  1
ACMTHREADLINESTANDARDISO
  2
AmdtThreadLineStdISO
  3
"Amdt_StdImp|Product Description: AutoCAD Mechanical 2004 DX|Company: Autodesk"
 90
        0
280
     0
281
     0
  0
CLASS
  1
CATALOGSTATE
  2
AcAmCatalogState
  3
DesignerAssemblies
 90
        0
280
     0
281
     0
  0
CLASS
  1
ACAMGRCOMPDEFSET
  2
AcAmGrCompDefSet
  3
DesignerAssemblies
 90
        0
280
     0
281
     0
  0
CLASS
  1
AMDTBROWSERDBTAB
  2
AmdtBrowserDbTab
  3
McadcomServices
 90
        0
280
     0
281
     0
  0
CLASS
  1
CBROWSERAPPOBJECT
  2
CBrowserAppObject
  3
McadcomServices
 90
        0
280
     0
281
     0
  0
CLASS
  1
DM_PLACEHOLDER
  2
AcDmSelsetPlaceholder
  3
AcMechDwgViewMgmt
 90
        0
280
     0
281
     0
  0
CLASS
  1
TABLESTYLE
  2
AcDbTableStyle
  3
ObjectDBX Classes
 90
     2047
280
     0
281
     0
  0
CLASS
  1
VAACXREFPANELOBJECT
  2
VaAcXREFPanelObject
  3
VAAC_ADDIN
 90
    32768
280
     0
281
     0
  0
CLASS
  1
VAACIMAGEINVENTORY
  2
VaAcImageInventory
  3
VAAC_ADDIN
 90
    32768
280
     0
281
     0
  0
CLASS
  1
AMDTNOTETEMPLATEDB
  2
AmdtNoteTemplateDB
  3
AMDT_STDIMP_MODULE_NAME
 90
        0
280
     0
281
     0
  0
CLASS
  1
ACMBOM
  2
AcmBom
  3
"AcmSymBB|Product Description: AutoCAD Mechanical 2004 DX|Company: Autodesk"
 90
    32768
280
     0
281
     0
  0
CLASS
  1
AMDTFORMULAUPDATEDISPATCHER
  2
AmdtFormulaUpdateDispatcher
  3
AcMeServices
 90
    32768
280
     0
281
     0
  0
CLASS
  1
ACMPARTLIST
  2
AcmPartList
  3
"AcmSymBB|Product Description: AutoCAD Mechanical 2004 DX|Company: Autodesk"
 90
    33791
280
     0
281
     1
  0
CLASS
  1
ACAMGFILTERDAT
  2
AcAmgFilterDat
  3
"AcadM|Product Description: AutoCAD Mechanical 2000|Company: Autodesk"
 90
    32768
280
     0
281
     0
  0
CLASS
  1
DIMASSOC
  2
AcDbDimAssoc
  3
"AcDbDimAssoc|Product Desc:     AcDim ARX App For Dimension|Company:          Autodesk, Inc.|WEB Address:      www.autodesk.com"
 90
        0
280
     0
281
     0
  0
CLASS
  1
SORTENTSTABLE
  2
AcDbSortentsTable
  3
ObjectDBX Classes
 90
    32768
280
     0
281
     0
  0
CLASS
  1
ACRFATTGENMGR
  2
AcRfAttGeneralMgr
  3
AcAttribServices
 90
        0
280
     0
281
     0
  0
CLASS
  1
AMDTEDGESTANDARDISO13715
  2
AmdtEdgeStdISO13715
  3
"Amdt_StdImp|Product Description: AutoCAD Mechanical 2004 DX|Company: Autodesk"
 90
        0
280
     0
281
     0
  0
ENDSEC
  0
SECTION
  2
TABLES
  0
TABLE
  2
VPORT
  5
8
330
0
100
AcDbSymbolTable
 70
     5
  0
VPORT
  5
7FF
330
8
100
AcDbSymbolTableRecord
100
AcDbViewportTableRecord
  2
*Active
 70
     0
 10
0.0
 20
0.0
 11
1.0
 21
1.0
 12
1095.79556067396
 22
1003.5988880831
 13
0.0
 23
0.0
 14
2.5
 24
2.5
 15
10.0
 25
10.0
 16
0.0
 26
0.0
 36
1.0
 17
0.0
 27
0.0
 37
0.0
 40
241.1423359598591
 41
1.221364221364221
 42
50.0
 43
0.0
 44
0.0
 50
0.0
 51
0.0
 71
     0
 72
   100
 73
     1
 74
     3
 75
     0
 76
     0
 77
     0
 78
     0
281
     0
 65
     1
110
0.0
120
0.0
130
0.0
111
1.0
121
0.0
131
0.0
112
0.0
122
1.0
132
0.0
 79
     0
146
0.0
  0
ENDTAB
  0
TABLE
  2
LTYPE
  5
5
330
0
100
AcDbSymbolTable
 70
    17
  0
LTYPE
  5
14
330
5
100
AcDbSymbolTableRecord
100
AcDbLinetypeTableRecord
  2
ByBlock
 70
     0
  3

 72
    65
 73
     0
 40
0.0
  0
LTYPE
  5
15
330
5
100
AcDbSymbolTableRecord
100
AcDbLinetypeTableRecord
  2
ByLayer
 70
     0
  3

 72
    65
 73
     0
 40
0.0
  0
LTYPE
  5
16
330
5
100
AcDbSymbolTableRecord
100
AcDbLinetypeTableRecord
  2
Continuous
 70
     0
  3
Solid line
 72
    65
 73
     0
 40
0.0
  0
LTYPE
  5
64
330
5
100
AcDbSymbolTableRecord
100
AcDbLinetypeTableRecord
  2
AM_ISO02W050
 70
     0
  3
__ __ __ __ __ __ __ __ __ __ __ __ __ __ __
 72
    65
 73
     2
 40
7.5
 49
6.0
 74
     0
 49
-1.5
 74
     0
  0
LTYPE
  5
65
330
5
100
AcDbSymbolTableRecord
100
AcDbLinetypeTableRecord
  2
AM_ISO08W050
 70
     0
  3
____ . ____ . ____ . ____ . ____ . ____ . ____
 72
    65
 73
     4
 40
18.0
 49
12.0
 74
     0
 49
-1.5
 74
     0
 49
3.0
 74
     0
 49
-1.5
 74
     0
  0
LTYPE
  5
66
330
5
100
AcDbSymbolTableRecord
100
AcDbLinetypeTableRecord
  2
AM_ISO09W050
 70
     0
  3
_____ . . _____ . . _____ . . ____ .. ____
 72
    65
 73
     6
 40
22.5
 49
12.0
 74
     0
 49
-1.5
 74
     0
 49
3.0
 74
     0
 49
-1.5
 74
     0
 49
3.0
 74
     0
 49
-1.5
 74
     0
  0
LTYPE
  5
67
330
5
100
AcDbSymbolTableRecord
100
AcDbLinetypeTableRecord
  2
Amconstr
 70
     0
  3
_______________________
 72
    65
 73
     2
 40
9999.0
 49
9999.0
 74
     0
 49
0.0
 74
     0
  0
LTYPE
  5
68
330
5
100
AcDbSymbolTableRecord
100
AcDbLinetypeTableRecord
  2
AM_ISO08W050x2
 70
     0
  3
__ . __ . __ . __ . __ . __
 72
    65
 73
     4
 40
9.0
 49
6.0
 74
     0
 49
-0.75
 74
     0
 49
1.5
 74
     0
 49
-0.75
 74
     0
  0
LTYPE
  5
69
330
5
100
AcDbSymbolTableRecord
100
AcDbLinetypeTableRecord
  2
AM_ISO02W050x2
 70
     0
  3
 _ _ _ _ _ _ _ _ _ _ _ _
 72
    65
 73
     2
 40
3.75
 49
3.0
 74
     0
 49
-0.75
 74
     0
  0
LTYPE
  5
6C
330
5
100
AcDbSymbolTableRecord
100
AcDbLinetypeTableRecord
  2
Amzigzag
 70
     0
  3
/\/-/\/-/\/-/\/-/\/-/\/
 72
    65
 73
     2
 40
11.0001
 49
0.0001
 74
     4
 75
   135
340
6B
 46
0.04
 50
0.0
 44
0.0
 45
0.0
 49
-11.0
 74
     0
  0
LTYPE
  5
7A
330
5
100
AcDbSymbolTableRecord
100
AcDbLinetypeTableRecord
  2
ACISOWELD
 70
     0
  3
_ _ _ _ _
 72
    65
 73
     2
 40
2.0
 49
2.0
 74
     0
 49
-1.0
 74
     0
  0
LTYPE
  5
7B
330
5
100
AcDbSymbolTableRecord
100
AcDbLinetypeTableRecord
  2
ACISOTGB
 70
     0
  3
__ . . __ . .
 72
    65
 73
     6
 40
9.0
 49
4.0
 74
     0
 49
-1.0
 74
     0
 49
1.0
 74
     0
 49
-1.0
 74
     0
 49
1.0
 74
     0
 49
-1.0
 74
     0
  0
LTYPE
  5
7C
330
5
100
AcDbSymbolTableRecord
100
AcDbLinetypeTableRecord
  2
ACISOTGL
 70
     0
  3
_ _ _ _ _
 72
    65
 73
     2
 40
3.0
 49
2.0
 74
     0
 49
-1.0
 74
     0
  0
LTYPE
  5
7E
330
5
100
AcDbSymbolTableRecord
100
AcDbLinetypeTableRecord
  2
CENTER
 70
     0
  3
__ . __
 72
    65
 73
     4
 40
7.0
 49
4.0
 74
     0
 49
-1.0
 74
     0
 49
1.0
 74
     0
 49
-1.0
 74
     0
  0
LTYPE
  5
D8
330
5
100
AcDbSymbolTableRecord
100
AcDbLinetypeTableRecord
  2
HIDDEN
 70
     0
  3
Hidden __ __ __ __ __ __ __ __ __ __ __ __ __ _
 72
    65
 73
     2
 40
9.524999999999998
 49
6.349999999999999
 74
     0
 49
-3.174999999999999
 74
     0
  0
LTYPE
  5
D9
330
5
100
AcDbSymbolTableRecord
100
AcDbLinetypeTableRecord
  2
PHANTOM2
 70
     0
  3
Phantom (.5x) ___ _ _ ___ _ _ ___ _ _ ___ _ _
 72
    65
 73
     6
 40
31.75
 49
15.875
 74
     0
 49
-3.174999999999999
 74
     0
 49
3.174999999999999
 74
     0
 49
-3.174999999999999
 74
     0
 49
3.174999999999999
 74
     0
 49
-3.174999999999999
 74
     0
  0
LTYPE
  5
29D
330
5
100
AcDbSymbolTableRecord
100
AcDbLinetypeTableRecord
  2
CENTER2
 70
     0
  3
Center (.5x) ___ _ ___ _ ___ _ ___ _ ___ _ ___
 72
    65
 73
     4
 40
28.575
 49
19.05
 74
     0
 49
-3.174999999999998
 74
     0
 49
3.174999999999998
 74
     0
 49
-3.174999999999998
 74
     0
  0
LTYPE
  5
29E
330
5
100
AcDbSymbolTableRecord
100
AcDbLinetypeTableRecord
  2
HIDDEN2
 70
     0
  3
Hidden (.5x) _ _ _ _ _ _ _ _ _ _ _ _ _ _ _ _ _
 72
    65
 73
     2
 40
4.762499999999998
 49
3.174999999999998
 74
     0
 49
-1.587499999999999
 74
     0
  0
LTYPE
  5
29F
330
5
100
AcDbSymbolTableRecord
100
AcDbLinetypeTableRecord
  2
CNSC05
 70
     0
  3
CNS_CENTER05 __________ . __________ . ________
 72
    65
 73
     4
 40
7.0
 49
5.0
 74
     0
 49
-1.0
 74
     0
 49
0.0
 74
     0
 49
-1.0
 74
     0
  0
ENDTAB
  0
TABLE
  2
LAYER
  5
2
102
{ACAD_XDICTIONARY
360
2BC
102
}
330
0
100
AcDbSymbolTable
 70
    10
  0
LAYER
  5
10
330
2
100
AcDbSymbolTableRecord
100
AcDbLayerTableRecord
  2
0
 70
     0
 62
     7
  6
Continuous
370
    -3
390
F
  0
LAYER
  5
2A1
102
{ACAD_XDICTIONARY
360
2A2
102
}
330
2
100
AcDbSymbolTableRecord
100
AcDbLayerTableRecord
  2
DIM
 70
     0
 62
     5
  6
Continuous
370
    -3
390
F
  0
LAYER
  5
2A3
102
{ACAD_XDICTIONARY
360
2A4
102
}
330
2
100
AcDbSymbolTableRecord
100
AcDbLayerTableRecord
  2
CEN
 70
     0
 62
     1
  6
CENTER
370
    -3
390
F
  0
LAYER
  5
2A5
330
2
100
AcDbSymbolTableRecord
100
AcDbLayerTableRecord
  2
Defpoints
 70
     0
 62
     7
  6
Continuous
290
     0
370
    -3
390
F
  0
LAYER
  5
2A6
330
2
100
AcDbSymbolTableRecord
100
AcDbLayerTableRecord
  2
圖層1
 70
     0
 62
     1
  6
CENTER2
370
    -3
390
F
  0
LAYER
  5
2A7
330
2
100
AcDbSymbolTableRecord
100
AcDbLayerTableRecord
  2
圖層3
 70
     0
 62
     3
  6
HIDDEN2
370
    -3
390
F
  0
LAYER
  5
2A8
330
2
100
AcDbSymbolTableRecord
100
AcDbLayerTableRecord
  2
圖層4
 70
     0
 62
     2
  6
Continuous
370
    -3
390
F
  0
LAYER
  5
2A9
102
{ACAD_XDICTIONARY
360
2AA
102
}
330
2
100
AcDbSymbolTableRecord
100
AcDbLayerTableRecord
  2
CENTER05
 70
     0
 62
     1
  6
CNSC05
370
    -3
390
F
  0
LAYER
  5
2AB
102
{ACAD_XDICTIONARY
360
2AC
102
}
330
2
100
AcDbSymbolTableRecord
100
AcDbLayerTableRecord
  2
CENTER25
 70
     0
 62
     1
  6
CENTER
370
    -3
390
F
  0
LAYER
  5
2AD
330
2
100
AcDbSymbolTableRecord
100
AcDbLayerTableRecord
  2
LOGO
 70
     0
 62
     7
  6
Continuous
370
    -3
390
F
  0
ENDTAB
  0
TABLE
  2
STYLE
  5
3
330
0
100
AcDbSymbolTable
 70
     6
  0
STYLE
  5
11
330
3
100
AcDbSymbolTableRecord
100
AcDbTextStyleTableRecord
  2
STANDARD
 70
     0
 40
0.0
 41
1.0
 50
0.0
 71
     0
 42
1.0
  3
ISOCP.SHX
  4
CHINESET.SHX
  0
STYLE
  5
6B
330
3
100
AcDbSymbolTableRecord
100
AcDbTextStyleTableRecord
  2

 70
     1
 40
0.0
 41
1.0
 50
0.0
 71
     0
 42
2.5
  3
ltypeshp.shx
  4

  0
STYLE
  5
6D
330
3
100
AcDbSymbolTableRecord
100
AcDbTextStyleTableRecord
  2
ACISOTS
 70
     0
 40
1.0
 41
1.0
 50
0.0
 71
     0
 42
1.0
  3
isocp.shx
  4
chineset.shx
  0
STYLE
  5
79
330
3
100
AcDbSymbolTableRecord
100
AcDbTextStyleTableRecord
  2
ACISOGDT
 70
     0
 40
0.0
 41
1.0
 50
0.0
 71
     0
 42
2.5
  3
amgdt.shx
  4
chineset.shx
  0
STYLE
  5
2AE
330
3
100
AcDbSymbolTableRecord
100
AcDbTextStyleTableRecord
  2
TNR
 70
     0
 40
5.0
 41
1.0
 50
0.0
 71
     0
 42
2.5
  3
TIMES.TTF
  4

1001
ACAD
1000
Times New Roman
1071
       18
  0
STYLE
  5
2AF
330
3
100
AcDbSymbolTableRecord
100
AcDbTextStyleTableRecord
  2
CHINESET
 70
     0
 40
0.0
 41
1.0
 50
0.0
 71
     0
 42
1.0
  3
simplex
  4
CHINESET.SHX
  0
ENDTAB
  0
TABLE
  2
VIEW
  5
6
330
0
100
AcDbSymbolTable
 70
     0
  0
ENDTAB
  0
TABLE
  2
UCS
  5
7
330
0
100
AcDbSymbolTable
 70
     0
  0
ENDTAB
  0
TABLE
  2
APPID
  5
9
330
0
100
AcDbSymbolTable
 70
    19
  0
APPID
  5
12
330
9
100
AcDbSymbolTableRecord
100
AcDbRegAppTableRecord
  2
ACAD
 70
     0
  0
APPID
  5
46
330
9
100
AcDbSymbolTableRecord
100
AcDbRegAppTableRecord
  2
MCAD_NO_VIS
 70
     0
  0
APPID
  5
47
330
9
100
AcDbSymbolTableRecord
100
AcDbRegAppTableRecord
  2
ACAD_TEMP_GRAPHIC
 70
     0
  0
APPID
  5
58
330
9
100
AcDbSymbolTableRecord
100
AcDbRegAppTableRecord
  2
ACATTRIBSERVICES
 70
     0
  0
APPID
  5
EE
330
9
100
AcDbSymbolTableRecord
100
AcDbRegAppTableRecord
  2
AD_DRAW
 70
     0
  0
APPID
  5
10C
330
9
100
AcDbSymbolTableRecord
100
AcDbRegAppTableRecord
  2
DESIGNERASSEMBLIES
 70
     0
  0
APPID
  5
111
330
9
100
AcDbSymbolTableRecord
100
AcDbRegAppTableRecord
  2
ACADM_DIM_EDIT
 70
     0
  0
APPID
  5
112
330
9
100
AcDbSymbolTableRecord
100
AcDbRegAppTableRecord
  2
AMDT_DM_ADJ
 70
     0
  0
APPID
  5
2B1
330
9
100
AcDbSymbolTableRecord
100
AcDbRegAppTableRecord
  2
ACAD_PSEXT
 70
     0
  0
APPID
  5
2B2
330
9
100
AcDbSymbolTableRecord
100
AcDbRegAppTableRecord
  2
ACAD_DSTYLE_DIMJAG
 70
     0
  0
APPID
  5
2B3
330
9
100
AcDbSymbolTableRecord
100
AcDbRegAppTableRecord
  2
ACAD_DSTYLE_DIMTALN
 70
     0
  0
APPID
  5
2B4
330
9
100
AcDbSymbolTableRecord
100
AcDbRegAppTableRecord
  2
ACAD_DSTYLE_DIMJOGGED_JOGANGLE_SYMBOL
 70
     0
  0
APPID
  5
2B5
330
9
100
AcDbSymbolTableRecord
100
AcDbRegAppTableRecord
  2
GENIUS_GENOBJ-N-CRS_13
 70
     0
  0
APPID
  5
2B6
330
9
100
AcDbSymbolTableRecord
100
AcDbRegAppTableRecord
  2
GENIUS_GENOLIS_13
 70
     0
  0
APPID
  5
2B7
330
9
100
AcDbSymbolTableRecord
100
AcDbRegAppTableRecord
  2
GENIUS_GENOENT_13
 70
     0
  0
APPID
  5
2B8
330
9
100
AcDbSymbolTableRecord
100
AcDbRegAppTableRecord
  2
GENIUS_GENODEF_13
 70
     0
  0
APPID
  5
2B9
330
9
100
AcDbSymbolTableRecord
100
AcDbRegAppTableRecord
  2
GENIUS_GENOREF_13
 70
     0
  0
APPID
  5
2BA
330
9
100
AcDbSymbolTableRecord
100
AcDbRegAppTableRecord
  2
GENIUS_GENREC_14
 70
     0
  0
APPID
  5
2BB
330
9
100
AcDbSymbolTableRecord
100
AcDbRegAppTableRecord
  2
GENIUS_GENOBJ-N-REC_13
 70
     0
  0
ENDTAB
  0
TABLE
  2
DIMSTYLE
  5
A
330
0
100
AcDbSymbolTable
 70
     9
100
AcDbDimStyleTable
 71
     1
340
81
  0
DIMSTYLE
105
27
102
{ACAD_REACTORS
330
4AC
330
4AE
330
4D6
330
4D7
330
4D8
330
4D9
330
4DA
330
4DB
330
50F
330
518
330
576
330
579
102
}
330
A
100
AcDbSymbolTableRecord
100
AcDbDimStyleTableRecord
  2
ISO-25
 70
     0
 41
2.5
 42
0.625
 43
3.75
 44
1.25
 73
     0
 74
     0
 77
     1
 78
     8
140
2.5
141
2.5
143
0.03937007874016
147
0.625
171
     3
172
     1
271
     2
272
     2
274
     3
278
    44
283
     0
284
     8
340
11
  0
DIMSTYLE
105
81
330
A
100
AcDbSymbolTableRecord
100
AcDbDimStyleTableRecord
  2
AM_ISO
 70
     0
  4
"
 41
2.5
 42
1.0
 43
10.0
 44
1.0
 47
0.1
 48
0.1
 73
     0
 74
     0
 77
     1
 78
     8
 79
     2
140
3.5
141
0.0
143
0.0393701
146
0.71
147
1.5
172
     1
176
   256
177
   256
178
     2
271
     2
272
     3
274
     4
283
     0
284
     8
340
11
371
    -1
372
    -1
  0
DIMSTYLE
105
82
330
A
100
AcDbSymbolTableRecord
100
AcDbDimStyleTableRecord
  2
AM_ISO$3
 70
     0
  4
"
 41
2.5
 42
1.0
 43
10.0
 44
1.0
 47
0.1
 48
0.1
 73
     0
 77
     1
 78
     8
 79
     2
140
3.5
141
0.0
143
0.0393701
146
0.71
147
1.5
176
   256
177
   256
178
     2
271
     2
272
     3
274
     4
283
     0
284
     8
288
     1
289
     0
340
11
371
    -1
372
    -1
  0
DIMSTYLE
105
83
330
A
100
AcDbSymbolTableRecord
100
AcDbDimStyleTableRecord
  2
AM_ISO$4
 70
     0
  4
"
 41
2.5
 42
1.0
 43
10.0
 44
1.0
 47
0.1
 48
0.1
 73
     0
 77
     1
 78
     8
 79
     2
140
3.5
141
0.0
143
0.0393701
146
0.71
147
1.5
176
   256
177
   256
178
     2
271
     2
272
     3
274
     4
283
     0
284
     8
288
     1
289
     0
340
11
371
    -1
372
    -1
  0
DIMSTYLE
105
84
330
A
100
AcDbSymbolTableRecord
100
AcDbDimStyleTableRecord
  2
AM_ISO$6
 70
     0
  4
"
 41
2.5
 42
1.0
 43
10.0
 44
1.0
 47
0.1
 48
0.1
 73
     0
 74
     0
 78
     8
 79
     2
140
3.5
141
0.0
143
0.0393701
146
0.71
147
1.5
172
     1
176
   256
177
   256
178
     2
271
     2
272
     3
274
     4
283
     0
284
     8
340
11
371
    -1
372
    -1
  0
DIMSTYLE
105
85
330
A
100
AcDbSymbolTableRecord
100
AcDbDimStyleTableRecord
  2
AM_ISO$7
 70
     0
  4
"
 41
2.5
 42
1.0
 43
10.0
 44
1.0
 47
0.1
 48
0.1
 73
     0
 74
     0
 77
     1
 78
     8
 79
     2
140
5.0
141
0.0
143
0.0393701
146
0.71
147
1.5
172
     1
176
   256
177
   256
178
     2
271
     2
272
     3
274
     4
283
     0
284
     8
340
11
371
    -1
372
    -1
  0
DIMSTYLE
105
86
330
A
100
AcDbSymbolTableRecord
100
AcDbDimStyleTableRecord
  2
AM_ISO$SF
 70
     0
  4
"
 41
2.5
 42
1.0
 43
10.0
 44
1.0
 47
0.1
 48
0.1
 73
     0
 74
     0
 75
     1
 76
     1
 77
     1
 78
     8
 79
     2
140
3.5
141
0.0
143
0.0393701
146
0.71
147
1.5
172
     1
176
   256
177
   256
178
     2
271
     2
272
     3
274
     4
283
     0
284
     8
340
11
371
    -1
372
    -1
  0
DIMSTYLE
105
8B
330
A
100
AcDbSymbolTableRecord
100
AcDbDimStyleTableRecord
  2
AM_ISO$SH
 70
     0
  4
"
 41
2.5
 42
1.0
 43
10.0
 44
1.0
 47
0.1
 48
0.1
 73
     0
 74
     0
 75
     1
 76
     1
 77
     1
 78
     8
 79
     2
140
3.5
141
0.0
143
0.0393701
144
2.0
146
0.71
147
1.5
172
     1
173
     1
176
   256
177
   256
178
     2
271
     2
272
     3
274
     4
283
     0
284
     8
340
11
343
87
371
    -1
372
    -1
  0
DIMSTYLE
105
2B0
102
{ACAD_REACTORS
330
4D5
102
}
330
A
100
AcDbSymbolTableRecord
100
AcDbDimStyleTableRecord
  2
ISO-25C
 70
     0
  3
%%c<>
 41
2.5
 42
0.625
 43
3.75
 44
1.25
 73
     0
 74
     0
 77
     1
 78
     8
140
2.5
141
2.5
143
0.03937007874016
147
0.625
171
     3
172
     1
271
     2
272
     2
274
     3
283
     0
284
     8
340
11
  0
ENDTAB
  0
TABLE
  2
BLOCK_RECORD
  5
1
330
0
100
AcDbSymbolTable
 70
    16
  0
BLOCK_RECORD
  5
1F
102
{ACAD_XDICTIONARY
360
8F
102
}
330
1
100
AcDbSymbolTableRecord
100
AcDbBlockTableRecord
  2
*Model_Space
340
22
  0
BLOCK_RECORD
  5
1B
330
1
100
AcDbSymbolTableRecord
100
AcDbBlockTableRecord
  2
*Paper_Space
340
1E
  0
BLOCK_RECORD
  5
23
330
1
100
AcDbSymbolTableRecord
100
AcDbBlockTableRecord
  2
*Paper_Space0
340
26
  0
BLOCK_RECORD
  5
87
330
1
100
AcDbSymbolTableRecord
100
AcDbBlockTableRecord
  2
GENAXEH
340
0
  0
BLOCK_RECORD
  5
587
330
1
100
AcDbSymbolTableRecord
100
AcDbBlockTableRecord
  2
*D2
340
0
  0
BLOCK_RECORD
  5
593
330
1
100
AcDbSymbolTableRecord
100
AcDbBlockTableRecord
  2
*D3
340
0
  0
BLOCK_RECORD
  5
59F
330
1
100
AcDbSymbolTableRecord
100
AcDbBlockTableRecord
  2
*D4
340
0
  0
BLOCK_RECORD
  5
5AB
330
1
100
AcDbSymbolTableRecord
100
AcDbBlockTableRecord
  2
*D5
340
0
  0
BLOCK_RECORD
  5
5B7
330
1
100
AcDbSymbolTableRecord
100
AcDbBlockTableRecord
  2
*D6
340
0
  0
BLOCK_RECORD
  5
5C3
330
1
100
AcDbSymbolTableRecord
100
AcDbBlockTableRecord
  2
*D7
340
0
  0
BLOCK_RECORD
  5
5CF
330
1
100
AcDbSymbolTableRecord
100
AcDbBlockTableRecord
  2
*D8
340
0
  0
BLOCK_RECORD
  5
5DB
330
1
100
AcDbSymbolTableRecord
100
AcDbBlockTableRecord
  2
*D9
340
0
  0
BLOCK_RECORD
  5
5E7
330
1
100
AcDbSymbolTableRecord
100
AcDbBlockTableRecord
  2
*D10
340
0
  0
BLOCK_RECORD
  5
5F3
330
1
100
AcDbSymbolTableRecord
100
AcDbBlockTableRecord
  2
*D11
340
0
  0
BLOCK_RECORD
  5
5FF
330
1
100
AcDbSymbolTableRecord
100
AcDbBlockTableRecord
  2
*D12
340
0
  0
BLOCK_RECORD
  5
66E
330
1
100
AcDbSymbolTableRecord
100
AcDbBlockTableRecord
  2
*D13
340
0
  0
BLOCK_RECORD
  5
67A
330
1
100
AcDbSymbolTableRecord
100
AcDbBlockTableRecord
  2
*D14
340
0
  0
ENDTAB
  0
ENDSEC
  0
SECTION
  2
BLOCKS
  0
BLOCK
  5
20
330
1F
100
AcDbEntity
  8
0
100
AcDbBlockBegin
  2
*Model_Space
 70
     0
 10
0.0
 20
0.0
 30
0.0
  3
*Model_Space
  1

  0
ENDBLK
  5
21
330
1F
100
AcDbEntity
  8
0
100
AcDbBlockEnd
  0
BLOCK
  5
1C
330
1B
100
AcDbEntity
 67
     1
  8
0
100
AcDbBlockBegin
  2
*Paper_Space
 70
     0
 10
0.0
 20
0.0
 30
0.0
  3
*Paper_Space
  1

  0
ENDBLK
  5
1D
330
1B
100
AcDbEntity
 67
     1
  8
0
100
AcDbBlockEnd
  0
BLOCK
  5
24
330
23
100
AcDbEntity
  8
0
100
AcDbBlockBegin
  2
*Paper_Space0
 70
     0
 10
0.0
 20
0.0
 30
0.0
  3
*Paper_Space0
  1

  0
ENDBLK
  5
25
330
23
100
AcDbEntity
  8
0
100
AcDbBlockEnd
  0
BLOCK
  5
89
330
87
100
AcDbEntity
  8
0
100
AcDbBlockBegin
  2
GENAXEH
 70
     0
 10
0.0
 20
0.0
 30
0.0
  3
GENAXEH
  1

  0
LINE
  5
88
330
87
100
AcDbEntity
  8
0
100
AcDbLine
 10
-1.0
 20
0.0
 30
0.0
 11
1.0
 21
0.0
 31
0.0
  0
ENDBLK
  5
8A
330
87
100
AcDbEntity
  8
0
100
AcDbBlockEnd
  0
BLOCK
  5
591
330
587
100
AcDbEntity
  8
0
100
AcDbBlockBegin
  2
*D2
 70
     1
 10
0.0
 20
0.0
 30
0.0
  3
*D2
  1

  0
LINE
  5
706
330
587
100
AcDbEntity
  8
DIM
 62
     0
370
    -2
100
AcDbLine
 10
1066.138542128334
 20
1025.293391628229
 30
0.0
 11
1073.496621858091
 21
1025.293391628229
 31
0.0
  0
LINE
  5
707
330
587
100
AcDbEntity
  8
DIM
 62
     0
370
    -2
100
AcDbLine
 10
1040.814974022483
 20
1073.293391628229
 30
0.0
 11
1073.496621858091
 21
1073.293391628229
 31
0.0
  0
LINE
  5
708
330
587
100
AcDbEntity
  8
DIM
 62
     0
370
    -2
100
AcDbLine
 10
1072.246621858091
 20
1027.793391628229
 30
0.0
 11
1072.246621858091
 21
1070.793391628229
 31
0.0
  0
SOLID
  5
709
330
587
100
AcDbEntity
  8
DIM
 62
     0
100
AcDbTrace
 10
1071.829955191424
 20
1027.793391628229
 30
0.0
 11
1072.663288524758
 21
1027.793391628229
 31
0.0
 12
1072.246621858091
 22
1025.293391628229
 32
0.0
 13
1072.246621858091
 23
1025.293391628229
 33
0.0
  0
SOLID
  5
70A
330
587
100
AcDbEntity
  8
DIM
 62
     0
100
AcDbTrace
 10
1071.829955191424
 20
1070.793391628229
 30
0.0
 11
1072.663288524758
 21
1070.793391628229
 31
0.0
 12
1072.246621858091
 22
1073.293391628229
 32
0.0
 13
1072.246621858091
 23
1073.293391628229
 33
0.0
  0
MTEXT
  5
70B
330
587
100
AcDbEntity
  8
DIM
 62
     0
100
AcDbMText
 10
1070.371621858091
 20
1049.293391628229
 30
0.0
 40
2.5
 41
0.0
 71
     5
 72
     1
  1
48
 11
0.0000000000000001
 21
1.0
 31
0.0
 73
     1
 44
1.0
1001
ACAD
1000
MTEXTBEGIN
1070
    73
1070
     1
1070
    44
1040
1.0
1070
    74
1070
     0
1000
MTEXTEND
  0
POINT
  5
70C
330
587
100
AcDbEntity
  8
Defpoints
 62
     0
100
AcDbPoint
 10
1065.513542128333
 20
1025.293391628229
 30
0.0
  0
POINT
  5
70D
330
587
100
AcDbEntity
  8
Defpoints
 62
     0
100
AcDbPoint
 10
1040.189974022483
 20
1073.293391628229
 30
0.0
  0
POINT
  5
70E
330
587
100
AcDbEntity
  8
Defpoints
 62
     0
100
AcDbPoint
 10
1072.246621858091
 20
1073.293391628229
 30
0.0
  0
ENDBLK
  5
592
330
587
100
AcDbEntity
  8
0
100
AcDbBlockEnd
  0
BLOCK
  5
59D
330
593
100
AcDbEntity
  8
0
100
AcDbBlockBegin
  2
*D3
 70
     1
 10
0.0
 20
0.0
 30
0.0
  3
*D3
  1

  0
LINE
  5
6F0
330
593
100
AcDbEntity
  8
DIM
 62
     0
370
    -2
100
AcDbLine
 10
1108.200269198909
 20
991.1941034658491
 30
0.0
 11
1132.232087971692
 21
991.1941034658491
 31
0.0
  0
LINE
  5
6F1
330
593
100
AcDbEntity
  8
DIM
 62
     0
370
    -2
100
AcDbLine
 10
1108.200269198909
 20
957.1941034658491
 30
0.0
 11
1132.232087971692
 21
957.1941034658491
 31
0.0
  0
LINE
  5
6F2
330
593
100
AcDbEntity
  8
DIM
 62
     0
370
    -2
100
AcDbLine
 10
1130.982087971692
 20
988.6941034658491
 30
0.0
 11
1130.982087971692
 21
959.6941034658492
 31
0.0
  0
SOLID
  5
6F3
330
593
100
AcDbEntity
  8
DIM
 62
     0
100
AcDbTrace
 10
1130.565421305025
 20
988.6941034658491
 30
0.0
 11
1131.398754638358
 21
988.6941034658491
 31
0.0
 12
1130.982087971692
 22
991.1941034658491
 32
0.0
 13
1130.982087971692
 23
991.1941034658491
 33
0.0
  0
SOLID
  5
6F4
330
593
100
AcDbEntity
  8
DIM
 62
     0
100
AcDbTrace
 10
1130.565421305025
 20
959.6941034658492
 30
0.0
 11
1131.398754638358
 21
959.6941034658492
 31
0.0
 12
1130.982087971692
 22
957.1941034658491
 32
0.0
 13
1130.982087971692
 23
957.1941034658491
 33
0.0
  0
MTEXT
  5
6F5
330
593
100
AcDbEntity
  8
DIM
 62
     0
100
AcDbMText
 10
1129.107087971691
 20
974.1941034658493
 30
0.0
 40
2.5
 41
0.0
 71
     5
 72
     1
  1
34HEX.
 11
0.0000000000000001
 21
1.0
 31
0.0
 73
     1
 44
1.0
1001
ACAD
1000
MTEXTBEGIN
1070
    73
1070
     1
1070
    44
1040
1.0
1070
    74
1070
     0
1000
MTEXTEND
  0
POINT
  5
6F6
330
593
100
AcDbEntity
  8
Defpoints
 62
     0
100
AcDbPoint
 10
1107.57526919891
 20
991.1941034658491
 30
0.0
  0
POINT
  5
6F7
330
593
100
AcDbEntity
  8
Defpoints
 62
     0
100
AcDbPoint
 10
1107.57526919891
 20
957.1941034658491
 30
0.0
  0
POINT
  5
6F8
330
593
100
AcDbEntity
  8
Defpoints
 62
     0
100
AcDbPoint
 10
1130.982087971692
 20
957.1941034658491
 30
0.0
  0
ENDBLK
  5
59E
330
593
100
AcDbEntity
  8
0
100
AcDbBlockEnd
  0
BLOCK
  5
5A9
330
59F
100
AcDbEntity
  8
0
100
AcDbBlockBegin
  2
*D4
 70
     1
 10
0.0
 20
0.0
 30
0.0
  3
*D4
  1

  0
LINE
  5
6F9
330
59F
100
AcDbEntity
  8
DIM
 62
     0
370
    -2
100
AcDbLine
 10
1074.760314622687
 20
986.3191034658491
 30
0.0
 11
1074.760314622687
 21
1001.04063952379
 31
0.0
  0
LINE
  5
6FA
330
59F
100
AcDbEntity
  8
DIM
 62
     0
370
    -2
100
AcDbLine
 10
1120.760314622686
 20
986.3191034658486
 30
0.0
 11
1120.760314622686
 21
1001.04063952379
 31
0.0
  0
LINE
  5
6FB
330
59F
100
AcDbEntity
  8
DIM
 62
     0
370
    -2
100
AcDbLine
 10
1077.260314622687
 20
999.7906395237899
 30
0.0
 11
1118.260314622686
 21
999.7906395237899
 31
0.0
  0
SOLID
  5
6FC
330
59F
100
AcDbEntity
  8
DIM
 62
     0
100
AcDbTrace
 10
1077.260314622687
 20
1000.207306190456
 30
0.0
 11
1077.260314622687
 21
999.3739728571233
 31
0.0
 12
1074.760314622687
 22
999.7906395237899
 32
0.0
 13
1074.760314622687
 23
999.7906395237899
 33
0.0
  0
SOLID
  5
6FD
330
59F
100
AcDbEntity
  8
DIM
 62
     0
100
AcDbTrace
 10
1118.260314622686
 20
1000.207306190456
 30
0.0
 11
1118.260314622686
 21
999.3739728571233
 31
0.0
 12
1120.760314622686
 22
999.7906395237899
 32
0.0
 13
1120.760314622686
 23
999.7906395237899
 33
0.0
  0
MTEXT
  5
6FE
330
59F
100
AcDbEntity
  8
DIM
 62
     0
100
AcDbMText
 10
1097.760314622686
 20
1001.66563952379
 30
0.0
 40
2.5
 41
0.0
 71
     5
 72
     1
  1
%%c46
 73
     1
 44
1.0
1001
ACAD
1000
MTEXTBEGIN
1070
    73
1070
     1
1070
    44
1040
1.0
1070
    74
1070
     0
1000
MTEXTEND
  0
POINT
  5
6FF
330
59F
100
AcDbEntity
  8
Defpoints
 62
     0
100
AcDbPoint
 10
1074.760314622687
 20
985.6941034658492
 30
0.0
  0
POINT
  5
700
330
59F
100
AcDbEntity
  8
Defpoints
 62
     0
100
AcDbPoint
 10
1120.760314622686
 20
985.6941034658486
 30
0.0
  0
POINT
  5
701
330
59F
100
AcDbEntity
  8
Defpoints
 62
     0
100
AcDbPoint
 10
1120.760314622686
 20
999.7906395237899
 30
0.0
  0
ENDBLK
  5
5AA
330
59F
100
AcDbEntity
  8
0
100
AcDbBlockEnd
  0
BLOCK
  5
5B5
330
5AB
100
AcDbEntity
  8
0
100
AcDbBlockBegin
  2
*D5
 70
     1
 10
0.0
 20
0.0
 30
0.0
  3
*D5
  1

  0
LINE
  5
70F
330
5AB
100
AcDbEntity
  8
DIM
 62
     0
370
    -2
100
AcDbLine
 10
1062.56958509455
 20
1049.296796153498
 30
0.0
 11
1067.180311303373
 21
1049.296796153498
 31
0.0
  0
LINE
  5
710
330
5AB
100
AcDbEntity
  8
DIM
 62
     0
370
    -2
100
AcDbLine
 10
1040.813315717765
 20
1025.293391628229
 30
0.0
 11
1067.180311303373
 21
1025.293391628229
 31
0.0
  0
LINE
  5
711
330
5AB
100
AcDbEntity
  8
DIM
 62
     0
370
    -2
100
AcDbLine
 10
1065.930311303373
 20
1046.796796153498
 30
0.0
 11
1065.930311303373
 21
1027.793391628229
 31
0.0
  0
SOLID
  5
712
330
5AB
100
AcDbEntity
  8
DIM
 62
     0
100
AcDbTrace
 10
1065.513644636706
 20
1046.796796153498
 30
0.0
 11
1066.34697797004
 21
1046.796796153498
 31
0.0
 12
1065.930311303373
 22
1049.296796153498
 32
0.0
 13
1065.930311303373
 23
1049.296796153498
 33
0.0
  0
SOLID
  5
713
330
5AB
100
AcDbEntity
  8
DIM
 62
     0
100
AcDbTrace
 10
1065.513644636706
 20
1027.793391628229
 30
0.0
 11
1066.34697797004
 21
1027.793391628229
 31
0.0
 12
1065.930311303373
 22
1025.293391628229
 32
0.0
 13
1065.930311303373
 23
1025.293391628229
 33
0.0
  0
MTEXT
  5
714
330
5AB
100
AcDbEntity
  8
DIM
 62
     0
100
AcDbMText
 10
1064.05506524038
 20
1037.295093890864
 30
0.0
 40
2.5
 41
0.0
 71
     5
 72
     1
  1
24
 11
0.0000000000000001
 21
1.0
 31
0.0
 73
     1
 44
1.0
1001
ACAD
1000
MTEXTBEGIN
1070
    73
1070
     1
1070
    44
1040
1.0
1070
    74
1070
     0
1000
MTEXTEND
  0
POINT
  5
715
330
5AB
100
AcDbEntity
  8
Defpoints
 62
     0
100
AcDbPoint
 10
1061.94458509455
 20
1049.296796153498
 30
0.0
  0
POINT
  5
716
330
5AB
100
AcDbEntity
  8
Defpoints
 62
     0
100
AcDbPoint
 10
1040.188315717765
 20
1025.293391628229
 30
0.0
  0
POINT
  5
717
330
5AB
100
AcDbEntity
  8
Defpoints
 62
     0
100
AcDbPoint
 10
1065.930311303373
 20
1025.293391628229
 30
0.0
  0
ENDBLK
  5
5B6
330
5AB
100
AcDbEntity
  8
0
100
AcDbBlockEnd
  0
BLOCK
  5
5C1
330
5B7
100
AcDbEntity
  8
0
100
AcDbBlockBegin
  2
*D6
 70
     1
 10
0.0
 20
0.0
 30
0.0
  3
*D6
  1

  0
LINE
  5
718
330
5B7
100
AcDbEntity
  8
DIM
 62
     0
370
    -2
100
AcDbLine
 10
1036.016576419551
 20
1080.790636794763
 30
0.0
 11
1078.872652780035
 21
1080.790636794763
 31
0.0
  0
LINE
  5
719
330
5B7
100
AcDbEntity
  8
DIM
 62
     0
370
    -2
100
AcDbLine
 10
1035.979584980068
 20
1017.795234885908
 30
0.0
 11
1078.872652780035
 21
1017.795234885908
 31
0.0
  0
LINE
  5
71A
330
5B7
100
AcDbEntity
  8
DIM
 62
     0
370
    -2
100
AcDbLine
 10
1077.622652780035
 20
1078.290636794763
 30
0.0
 11
1077.622652780035
 21
1020.295234885908
 31
0.0
  0
SOLID
  5
71B
330
5B7
100
AcDbEntity
  8
DIM
 62
     0
100
AcDbTrace
 10
1077.205986113368
 20
1078.290636794763
 30
0.0
 11
1078.039319446701
 21
1078.290636794763
 31
0.0
 12
1077.622652780035
 22
1080.790636794763
 32
0.0
 13
1077.622652780035
 23
1080.790636794763
 33
0.0
  0
SOLID
  5
71C
330
5B7
100
AcDbEntity
  8
DIM
 62
     0
100
AcDbTrace
 10
1077.205986113368
 20
1020.295234885908
 30
0.0
 11
1078.039319446701
 21
1020.295234885908
 31
0.0
 12
1077.622652780035
 22
1017.795234885908
 32
0.0
 13
1077.622652780035
 23
1017.795234885908
 33
0.0
  0
MTEXT
  5
71D
330
5B7
100
AcDbEntity
  8
DIM
 62
     0
100
AcDbMText
 10
1075.747652780035
 20
1049.292935840336
 30
0.0
 40
2.5
 41
0.0
 71
     5
 72
     1
  1
63
 11
0.0000000000000001
 21
1.0
 31
0.0
 73
     1
 44
1.0
1001
ACAD
1000
MTEXTBEGIN
1070
    73
1070
     1
1070
    44
1040
1.0
1070
    74
1070
     0
1000
MTEXTEND
  0
POINT
  5
71E
330
5B7
100
AcDbEntity
  8
Defpoints
 62
     0
100
AcDbPoint
 10
1035.391576419551
 20
1080.790636794763
 30
0.0
  0
POINT
  5
71F
330
5B7
100
AcDbEntity
  8
Defpoints
 62
     0
100
AcDbPoint
 10
1035.354584980068
 20
1017.795234885908
 30
0.0
  0
POINT
  5
720
330
5B7
100
AcDbEntity
  8
Defpoints
 62
     0
100
AcDbPoint
 10
1077.622652780035
 20
1017.795234885908
 30
0.0
  0
ENDBLK
  5
5C2
330
5B7
100
AcDbEntity
  8
0
100
AcDbBlockEnd
  0
BLOCK
  5
5CD
330
5C3
100
AcDbEntity
  8
0
100
AcDbBlockBegin
  2
*D7
 70
     1
 10
0.0
 20
0.0
 30
0.0
  3
*D7
  1

  0
LINE
  5
721
330
5C3
100
AcDbEntity
  8
DIM
 62
     0
370
    -2
100
AcDbLine
 10
1035.189974022483
 20
1078.918391628229
 30
0.0
 11
1035.189974022483
 21
1088.588108911489
 31
0.0
  0
LINE
  5
722
330
5C3
100
AcDbEntity
  8
DIM
 62
     0
370
    -2
100
AcDbLine
 10
1018.188315717763
 20
1081.918391628229
 30
0.0
 11
1018.188315717763
 21
1088.588108911489
 31
0.0
  0
LINE
  5
723
330
5C3
100
AcDbEntity
  8
DIM
 62
     0
370
    -2
100
AcDbLine
 10
1032.689974022482
 20
1087.338108911489
 30
0.0
 11
1020.688315717763
 21
1087.338108911489
 31
0.0
  0
SOLID
  5
724
330
5C3
100
AcDbEntity
  8
DIM
 62
     0
100
AcDbTrace
 10
1032.689974022482
 20
1087.754775578156
 30
0.0
 11
1032.689974022482
 21
1086.921442244822
 31
0.0
 12
1035.189974022483
 22
1087.338108911489
 32
0.0
 13
1035.189974022483
 23
1087.338108911489
 33
0.0
  0
SOLID
  5
725
330
5C3
100
AcDbEntity
  8
DIM
 62
     0
100
AcDbTrace
 10
1020.688315717763
 20
1087.754775578156
 30
0.0
 11
1020.688315717763
 21
1086.921442244822
 31
0.0
 12
1018.188315717763
 22
1087.338108911489
 32
0.0
 13
1018.188315717763
 23
1087.338108911489
 33
0.0
  0
MTEXT
  5
726
330
5C3
100
AcDbEntity
  8
DIM
 62
     0
100
AcDbMText
 10
1026.689144870123
 20
1089.213108911489
 30
0.0
 40
2.5
 41
0.0
 71
     5
 72
     1
  1
17
 73
     1
 44
1.0
1001
ACAD
1000
MTEXTBEGIN
1070
    73
1070
     1
1070
    44
1040
1.0
1070
    74
1070
     0
1000
MTEXTEND
  0
POINT
  5
727
330
5C3
100
AcDbEntity
  8
Defpoints
 62
     0
100
AcDbPoint
 10
1035.189974022483
 20
1078.293391628229
 30
0.0
  0
POINT
  5
728
330
5C3
100
AcDbEntity
  8
Defpoints
 62
     0
100
AcDbPoint
 10
1018.188315717763
 20
1081.293391628229
 30
0.0
  0
POINT
  5
729
330
5C3
100
AcDbEntity
  8
Defpoints
 62
     0
100
AcDbPoint
 10
1018.188315717763
 20
1087.338108911489
 30
0.0
  0
ENDBLK
  5
5CE
330
5C3
100
AcDbEntity
  8
0
100
AcDbBlockEnd
  0
BLOCK
  5
5D9
330
5CF
100
AcDbEntity
  8
0
100
AcDbBlockBegin
  2
*D8
 70
     1
 10
0.0
 20
0.0
 30
0.0
  3
*D8
  1

  0
LINE
  5
72A
330
5CF
100
AcDbEntity
  8
DIM
 62
     0
370
    -2
100
AcDbLine
 10
990.1883157177625
 20
1078.918391628229
 30
0.0
 11
990.1883157177625
 21
1088.588108911489
 31
0.0
  0
LINE
  5
72B
330
5CF
100
AcDbEntity
  8
DIM
 62
     0
370
    -2
100
AcDbLine
 10
1018.188315717763
 20
1082.387141628229
 30
0.0
 11
1018.188315717763
 21
1088.588108911489
 31
0.0
  0
LINE
  5
72C
330
5CF
100
AcDbEntity
  8
DIM
 62
     0
370
    -2
100
AcDbLine
 10
992.6883157177625
 20
1087.338108911489
 30
0.0
 11
1015.688315717763
 21
1087.338108911489
 31
0.0
  0
SOLID
  5
72D
330
5CF
100
AcDbEntity
  8
DIM
 62
     0
100
AcDbTrace
 10
992.6883157177625
 20
1087.754775578156
 30
0.0
 11
992.6883157177625
 21
1086.921442244822
 31
0.0
 12
990.1883157177625
 22
1087.338108911489
 32
0.0
 13
990.1883157177625
 23
1087.338108911489
 33
0.0
  0
SOLID
  5
72E
330
5CF
100
AcDbEntity
  8
DIM
 62
     0
100
AcDbTrace
 10
1015.688315717763
 20
1087.754775578156
 30
0.0
 11
1015.688315717763
 21
1086.921442244822
 31
0.0
 12
1018.188315717763
 22
1087.338108911489
 32
0.0
 13
1018.188315717763
 23
1087.338108911489
 33
0.0
  0
MTEXT
  5
72F
330
5CF
100
AcDbEntity
  8
DIM
 62
     0
100
AcDbMText
 10
1003.92857498395
 20
1089.213354974481
 30
0.0
 40
2.5
 41
0.0
 71
     5
 72
     1
  1
28
 73
     1
 44
1.0
1001
ACAD
1000
MTEXTBEGIN
1070
    73
1070
     1
1070
    44
1040
1.0
1070
    74
1070
     0
1000
MTEXTEND
  0
POINT
  5
730
330
5CF
100
AcDbEntity
  8
Defpoints
 62
     0
100
AcDbPoint
 10
990.1883157177625
 20
1078.293391628229
 30
0.0
  0
POINT
  5
731
330
5CF
100
AcDbEntity
  8
Defpoints
 62
     0
100
AcDbPoint
 10
1018.188315717763
 20
1081.762141628229
 30
0.0
  0
POINT
  5
732
330
5CF
100
AcDbEntity
  8
Defpoints
 62
     0
100
AcDbPoint
 10
1018.188315717763
 20
1087.338108911489
 30
0.0
  0
ENDBLK
  5
5DA
330
5CF
100
AcDbEntity
  8
0
100
AcDbBlockEnd
  0
BLOCK
  5
5E5
330
5DB
100
AcDbEntity
  8
0
100
AcDbBlockBegin
  2
*D9
 70
     1
 10
0.0
 20
0.0
 30
0.0
  3
*D9
  1

  0
LINE
  5
733
330
5DB
100
AcDbEntity
  8
DIM
 62
     0
370
    -2
100
AcDbLine
 10
982.6883157177626
 20
1073.918391628229
 30
0.0
 11
982.6883157177626
 21
1095.219612391695
 31
0.0
  0
LINE
  5
734
330
5DB
100
AcDbEntity
  8
DIM
 62
     0
370
    -2
100
AcDbLine
 10
1018.188315717763
 20
1086.398132747994
 30
0.0
 11
1018.188315717763
 21
1095.219612391695
 31
0.0
  0
LINE
  5
735
330
5DB
100
AcDbEntity
  8
DIM
 62
     0
370
    -2
100
AcDbLine
 10
985.1883157177624
 20
1093.969612391695
 30
0.0
 11
1015.688315717763
 21
1093.969612391695
 31
0.0
  0
SOLID
  5
736
330
5DB
100
AcDbEntity
  8
DIM
 62
     0
100
AcDbTrace
 10
985.1883157177624
 20
1094.386279058362
 30
0.0
 11
985.1883157177624
 21
1093.552945725029
 31
0.0
 12
982.6883157177626
 22
1093.969612391695
 32
0.0
 13
982.6883157177626
 23
1093.969612391695
 33
0.0
  0
SOLID
  5
737
330
5DB
100
AcDbEntity
  8
DIM
 62
     0
100
AcDbTrace
 10
1015.688315717763
 20
1094.386279058362
 30
0.0
 11
1015.688315717763
 21
1093.552945725029
 31
0.0
 12
1018.188315717763
 22
1093.969612391695
 32
0.0
 13
1018.188315717763
 23
1093.969612391695
 33
0.0
  0
MTEXT
  5
738
330
5DB
100
AcDbEntity
  8
DIM
 62
     0
100
AcDbMText
 10
1000.398081777444
 20
1096.032112391695
 30
0.0
 40
2.5
 41
0.0
 71
     5
 72
     1
  1
35,5
 73
     1
 44
1.0
1001
ACAD
1000
MTEXTBEGIN
1070
    73
1070
     1
1070
    44
1040
1.0
1070
    74
1070
     0
1000
MTEXTEND
  0
POINT
  5
739
330
5DB
100
AcDbEntity
  8
Defpoints
 62
     0
100
AcDbPoint
 10
982.6883157177626
 20
1073.293391628229
 30
0.0
  0
POINT
  5
73A
330
5DB
100
AcDbEntity
  8
Defpoints
 62
     0
100
AcDbPoint
 10
1018.188315717763
 20
1085.773132747994
 30
0.0
  0
POINT
  5
73B
330
5DB
100
AcDbEntity
  8
Defpoints
 62
     0
100
AcDbPoint
 10
1018.188315717763
 20
1093.969612391695
 30
0.0
  0
ENDBLK
  5
5E6
330
5DB
100
AcDbEntity
  8
0
100
AcDbBlockEnd
  0
BLOCK
  5
5F1
330
5E7
100
AcDbEntity
  8
0
100
AcDbBlockBegin
  2
*D10
 70
     1
 10
0.0
 20
0.0
 30
0.0
  3
*D10
  1

  0
LINE
  5
73C
330
5E7
100
AcDbEntity
  8
DIM
 62
     0
370
    -2
100
AcDbLine
 10
1018.188315717763
 20
1086.398132747994
 30
0.0
 11
1018.188315717763
 21
1095.219612391695
 31
0.0
  0
LINE
  5
73D
330
5E7
100
AcDbEntity
  8
DIM
 62
     0
370
    -2
100
AcDbLine
 10
1042.688315717763
 20
1073.918391628229
 30
0.0
 11
1042.688315717763
 21
1095.219612391695
 31
0.0
  0
LINE
  5
73E
330
5E7
100
AcDbEntity
  8
DIM
 62
     0
370
    -2
100
AcDbLine
 10
1020.688315717763
 20
1093.969612391695
 30
0.0
 11
1040.188315717763
 21
1093.969612391695
 31
0.0
  0
SOLID
  5
73F
330
5E7
100
AcDbEntity
  8
DIM
 62
     0
100
AcDbTrace
 10
1020.688315717763
 20
1094.386279058362
 30
0.0
 11
1020.688315717763
 21
1093.552945725029
 31
0.0
 12
1018.188315717763
 22
1093.969612391695
 32
0.0
 13
1018.188315717763
 23
1093.969612391695
 33
0.0
  0
SOLID
  5
740
330
5E7
100
AcDbEntity
  8
DIM
 62
     0
100
AcDbTrace
 10
1040.188315717763
 20
1094.386279058362
 30
0.0
 11
1040.188315717763
 21
1093.552945725029
 31
0.0
 12
1042.688315717763
 22
1093.969612391695
 32
0.0
 13
1042.688315717763
 23
1093.969612391695
 33
0.0
  0
MTEXT
  5
741
330
5E7
100
AcDbEntity
  8
DIM
 62
     0
100
AcDbMText
 10
1030.438315717763
 20
1096.032358454688
 30
0.0
 40
2.5
 41
0.0
 71
     5
 72
     1
  1
24,5
 73
     1
 44
1.0
1001
ACAD
1000
MTEXTBEGIN
1070
    73
1070
     1
1070
    44
1040
1.0
1070
    74
1070
     0
1000
MTEXTEND
  0
POINT
  5
742
330
5E7
100
AcDbEntity
  8
Defpoints
 62
     0
100
AcDbPoint
 10
1018.188315717763
 20
1085.773132747994
 30
0.0
  0
POINT
  5
743
330
5E7
100
AcDbEntity
  8
Defpoints
 62
     0
100
AcDbPoint
 10
1042.688315717763
 20
1073.293391628229
 30
0.0
  0
POINT
  5
744
330
5E7
100
AcDbEntity
  8
Defpoints
 62
     0
100
AcDbPoint
 10
1042.688315717763
 20
1093.969612391695
 30
0.0
  0
ENDBLK
  5
5F2
330
5E7
100
AcDbEntity
  8
0
100
AcDbBlockEnd
  0
BLOCK
  5
5FD
330
5F3
100
AcDbEntity
  8
0
100
AcDbBlockBegin
  2
*D11
 70
     1
 10
0.0
 20
0.0
 30
0.0
  3
*D11
  1

  0
LINE
  5
65C
330
5F3
100
AcDbEntity
  8
DIM
 62
     0
370
    -2
100
AcDbLine
 10
980.3272477402623
 20
993.1991034658484
 30
0.0
 11
961.2577412183762
 21
993.1991034658484
 31
0.0
  0
LINE
  5
65D
330
5F3
100
AcDbEntity
  8
DIM
 62
     0
370
    -2
100
AcDbLine
 10
965.9811348136143
 20
974.1991034658495
 30
0.0
 11
961.2577412183762
 21
974.1991034658495
 31
0.0
  0
LINE
  5
65E
330
5F3
100
AcDbEntity
  8
DIM
 62
     0
370
    -2
100
AcDbLine
 10
962.5077412183763
 20
990.6991034658483
 30
0.0
 11
962.5077412183763
 21
976.6991034658495
 31
0.0
  0
SOLID
  5
65F
330
5F3
100
AcDbEntity
  8
DIM
 62
     0
100
AcDbTrace
 10
962.0910745517097
 20
990.6991034658483
 30
0.0
 11
962.924407885043
 21
990.6991034658483
 31
0.0
 12
962.5077412183763
 22
993.1991034658484
 32
0.0
 13
962.5077412183763
 23
993.1991034658484
 33
0.0
  0
SOLID
  5
660
330
5F3
100
AcDbEntity
  8
DIM
 62
     0
100
AcDbTrace
 10
962.0910745517097
 20
976.6991034658495
 30
0.0
 11
962.924407885043
 21
976.6991034658495
 31
0.0
 12
962.5077412183763
 22
974.1991034658495
 32
0.0
 13
962.5077412183763
 23
974.1991034658495
 33
0.0
  0
MTEXT
  5
661
330
5F3
100
AcDbEntity
  8
DIM
 62
     0
100
AcDbMText
 10
960.6327412183761
 20
983.699103465849
 30
0.0
 40
2.5
 41
0.0
 71
     5
 72
     1
  1
19
 11
0.0000000000000001
 21
1.0
 31
0.0
 73
     1
 44
1.0
1001
ACAD
1000
MTEXTBEGIN
1070
    73
1070
     1
1070
    44
1040
1.0
1070
    74
1070
     0
1000
MTEXTEND
  0
POINT
  5
662
330
5F3
100
AcDbEntity
  8
Defpoints
 62
     0
100
AcDbPoint
 10
980.9522477402623
 20
993.1991034658484
 30
0.0
  0
POINT
  5
663
330
5F3
100
AcDbEntity
  8
Defpoints
 62
     0
100
AcDbPoint
 10
966.6061348136144
 20
974.1991034658495
 30
0.0
  0
POINT
  5
664
330
5F3
100
AcDbEntity
  8
Defpoints
 62
     0
100
AcDbPoint
 10
962.5077412183763
 20
974.1991034658495
 30
0.0
  0
ENDBLK
  5
5FE
330
5F3
100
AcDbEntity
  8
0
100
AcDbBlockEnd
  0
BLOCK
  5
609
330
5FF
100
AcDbEntity
  8
0
100
AcDbBlockBegin
  2
*D12
 70
     1
 10
0.0
 20
0.0
 30
0.0
  3
*D12
  1

  0
LINE
  5
763
330
5FF
100
AcDbEntity
  8
DIM
 62
     0
370
    -2
100
AcDbLine
 10
971.1883157177625
 20
958.5741034659966
 30
0.0
 11
971.1883157177625
 21
944.96584530463
 31
0.0
  0
LINE
  5
764
330
5FF
100
AcDbEntity
  8
DIM
 62
     0
370
    -2
100
AcDbLine
 10
1055.188315717763
 20
958.5698397719475
 30
0.0
 11
1055.188315717763
 21
944.96584530463
 31
0.0
  0
LINE
  5
765
330
5FF
100
AcDbEntity
  8
DIM
 62
     0
370
    -2
100
AcDbLine
 10
973.6883157177626
 20
946.2158453046301
 30
0.0
 11
1052.688315717763
 21
946.2158453046301
 31
0.0
  0
SOLID
  5
766
330
5FF
100
AcDbEntity
  8
DIM
 62
     0
100
AcDbTrace
 10
973.6883157177626
 20
946.6325119712967
 30
0.0
 11
973.6883157177626
 21
945.7991786379635
 31
0.0
 12
971.1883157177625
 22
946.2158453046301
 32
0.0
 13
971.1883157177625
 23
946.2158453046301
 33
0.0
  0
SOLID
  5
767
330
5FF
100
AcDbEntity
  8
DIM
 62
     0
100
AcDbTrace
 10
1052.688315717763
 20
946.6325119712967
 30
0.0
 11
1052.688315717763
 21
945.7991786379635
 31
0.0
 12
1055.188315717763
 22
946.2158453046301
 32
0.0
 13
1055.188315717763
 23
946.2158453046301
 33
0.0
  0
MTEXT
  5
768
330
5FF
100
AcDbEntity
  8
DIM
 62
     0
100
AcDbMText
 10
1013.188315717763
 20
948.09084530463
 30
0.0
 40
2.5
 41
0.0
 71
     5
 72
     1
  1
84
 73
     1
 44
1.0
1001
ACAD
1000
MTEXTBEGIN
1070
    73
1070
     1
1070
    44
1040
1.0
1070
    74
1070
     0
1000
MTEXTEND
  0
POINT
  5
769
330
5FF
100
AcDbEntity
  8
Defpoints
 62
     0
100
AcDbPoint
 10
971.1883157177625
 20
959.1991034659965
 30
0.0
  0
POINT
  5
76A
330
5FF
100
AcDbEntity
  8
Defpoints
 62
     0
100
AcDbPoint
 10
1055.188315717763
 20
959.1948397719475
 30
0.0
  0
POINT
  5
76B
330
5FF
100
AcDbEntity
  8
Defpoints
 62
     0
100
AcDbPoint
 10
1055.188315717763
 20
946.2158453046301
 30
0.0
  0
ENDBLK
  5
60A
330
5FF
100
AcDbEntity
  8
0
100
AcDbBlockEnd
  0
BLOCK
  5
678
330
66E
100
AcDbEntity
  8
0
100
AcDbBlockBegin
  2
*D13
 70
     1
 10
0.0
 20
0.0
 30
0.0
  3
*D13
  1

  0
LINE
  5
750
330
66E
100
AcDbEntity
  8
DIM
 62
     0
370
    -2
100
AcDbLine
 10
1175.16353282441
 20
956.5741034658495
 30
0.0
 11
1175.16353282441
 21
944.96584530463
 31
0.0
  0
LINE
  5
751
330
66E
100
AcDbEntity
  8
DIM
 62
     0
370
    -2
100
AcDbLine
 10
1145.76353282441
 20
958.5698397719445
 30
0.0
 11
1145.76353282441
 21
944.96584530463
 31
0.0
  0
LINE
  5
752
330
66E
100
AcDbEntity
  8
DIM
 62
     0
370
    -2
100
AcDbLine
 10
1172.66353282441
 20
946.2158453046301
 30
0.0
 11
1148.26353282441
 21
946.2158453046301
 31
0.0
  0
SOLID
  5
753
330
66E
100
AcDbEntity
  8
DIM
 62
     0
100
AcDbTrace
 10
1172.66353282441
 20
946.6325119712967
 30
0.0
 11
1172.66353282441
 21
945.7991786379635
 31
0.0
 12
1175.16353282441
 22
946.2158453046301
 32
0.0
 13
1175.16353282441
 23
946.2158453046301
 33
0.0
  0
SOLID
  5
754
330
66E
100
AcDbEntity
  8
DIM
 62
     0
100
AcDbTrace
 10
1148.26353282441
 20
946.6325119712967
 30
0.0
 11
1148.26353282441
 21
945.7991786379635
 31
0.0
 12
1145.76353282441
 22
946.2158453046301
 32
0.0
 13
1145.76353282441
 23
946.2158453046301
 33
0.0
  0
MTEXT
  5
755
330
66E
100
AcDbEntity
  8
DIM
 62
     0
100
AcDbMText
 10
1160.46353282441
 20
948.2779871688476
 30
0.0
 40
2.5
 41
0.0
 71
     5
 72
     1
  1
29,4
 73
     1
 44
1.0
1001
ACAD
1000
MTEXTBEGIN
1070
    73
1070
     1
1070
    44
1040
1.0
1070
    74
1070
     0
1000
MTEXTEND
  0
POINT
  5
756
330
66E
100
AcDbEntity
  8
Defpoints
 62
     0
100
AcDbPoint
 10
1175.16353282441
 20
957.1991034658495
 30
0.0
  0
POINT
  5
757
330
66E
100
AcDbEntity
  8
Defpoints
 62
     0
100
AcDbPoint
 10
1145.76353282441
 20
959.1948397719445
 30
0.0
  0
POINT
  5
758
330
66E
100
AcDbEntity
  8
Defpoints
 62
     0
100
AcDbPoint
 10
1145.76353282441
 20
946.2158453046301
 30
0.0
  0
ENDBLK
  5
679
330
66E
100
AcDbEntity
  8
0
100
AcDbBlockEnd
  0
BLOCK
  5
686
330
67A
100
AcDbEntity
  8
0
100
AcDbBlockBegin
  2
*D14
 70
     1
 10
0.0
 20
0.0
 30
0.0
  3
*D14
  1

  0
LINE
  5
745
330
67A
100
AcDbEntity
  8
DIM
 62
     0
370
    -2
100
AcDbLine
 10
1175.78853282441
 20
963.1991034658495
 30
0.0
 11
1187.733470553044
 21
963.1991034658495
 31
0.0
  0
LINE
  5
746
330
67A
100
AcDbEntity
  8
DIM
 62
     0
370
    -2
100
AcDbLine
 10
1175.78853282441
 20
957.1991034658495
 30
0.0
 11
1187.733470553044
 21
957.1991034658495
 31
0.0
  0
LINE
  5
747
330
67A
100
AcDbEntity
  8
DIM
 62
     0
370
    -2
100
AcDbLine
 10
1186.483470553044
 20
965.6991034658494
 30
0.0
 11
1186.483470553044
 21
968.1991034658494
 31
0.0
  0
LINE
  5
748
330
67A
100
AcDbEntity
  8
DIM
 62
     0
370
    -2
100
AcDbLine
 10
1186.483470553044
 20
954.6991034658494
 30
0.0
 11
1186.483470553044
 21
946.2497924422272
 31
0.0
  0
LINE
  5
749
330
67A
100
AcDbEntity
  8
DIM
 62
     0
370
    -2
100
AcDbLine
 10
1186.483470553044
 20
963.1991034658495
 30
0.0
 11
1186.483470553044
 21
957.1991034658495
 31
0.0
  0
SOLID
  5
74A
330
67A
100
AcDbEntity
  8
DIM
 62
     0
100
AcDbTrace
 10
1186.066803886377
 20
965.6991034658494
 30
0.0
 11
1186.900137219711
 21
965.6991034658494
 31
0.0
 12
1186.483470553044
 22
963.1991034658495
 32
0.0
 13
1186.483470553044
 23
963.1991034658495
 33
0.0
  0
SOLID
  5
74B
330
67A
100
AcDbEntity
  8
DIM
 62
     0
100
AcDbTrace
 10
1186.066803886377
 20
954.6991034658494
 30
0.0
 11
1186.900137219711
 21
954.6991034658494
 31
0.0
 12
1186.483470553044
 22
957.1991034658495
 32
0.0
 13
1186.483470553044
 23
957.1991034658495
 33
0.0
  0
MTEXT
  5
74C
330
67A
100
AcDbEntity
  8
DIM
 62
     0
100
AcDbMText
 10
1184.608470553044
 20
947.5116034658494
 30
0.0
 40
2.5
 41
0.0
 71
     5
 72
     1
  1
6
 11
0.0000000000000001
 21
1.0
 31
0.0
 73
     1
 44
1.0
1001
ACAD
1000
MTEXTBEGIN
1070
    73
1070
     1
1070
    44
1040
1.0
1070
    74
1070
     0
1000
MTEXTEND
  0
POINT
  5
74D
330
67A
100
AcDbEntity
  8
Defpoints
 62
     0
100
AcDbPoint
 10
1175.16353282441
 20
963.1991034658495
 30
0.0
  0
POINT
  5
74E
330
67A
100
AcDbEntity
  8
Defpoints
 62
     0
100
AcDbPoint
 10
1175.16353282441
 20
957.1991034658495
 30
0.0
  0
POINT
  5
74F
330
67A
100
AcDbEntity
  8
Defpoints
 62
     0
100
AcDbPoint
 10
1186.483470553044
 20
957.1991034658495
 30
0.0
  0
ENDBLK
  5
687
330
67A
100
AcDbEntity
  8
0
100
AcDbBlockEnd
  0
ENDSEC
  0
SECTION
  2
ENTITIES
  0
TEXT
  5
428
330
1F
100
AcDbEntity
  8
LOGO
 62
     7
100
AcDbText
 10
1013.742331907281
 20
908.9986382559882
 30
0.0
 40
5.634368956264587
  1
訂購代號:
  7
CHINESET
100
AcDbText
  0
TEXT
  5
429
330
1F
100
AcDbEntity
  8
LOGO
 62
     7
100
AcDbText
 10
1013.068430317222
 20
903.7106216696932
 30
0.0
 40
3.756245970843058
  1
Order example:
 41
0.8
  7
CHINESET
100
AcDbText
  0
LINE
  5
42A
330
1F
100
AcDbEntity
  8
LOGO
 62
     4
100
AcDbLine
 10
1070.844803708838
 20
890.2280364339425
 30
0.0
 11
1052.063573854623
 21
890.2280364339425
 31
0.0
  0
LINE
  5
42B
330
1F
100
AcDbEntity
  8
LOGO
 62
     4
100
AcDbLine
 10
1070.844803708838
 20
900.5577128537607
 30
0.0
 11
1052.063573854623
 21
900.5577128537607
 31
0.0
  0
LINE
  5
42C
330
1F
100
AcDbEntity
  8
LOGO
 62
     4
100
AcDbLine
 10
1075.27686631029
 20
904.7834895709591
 30
0.0
 11
1047.876579568582
 21
904.7834895709591
 31
0.0
  0
LINE
  5
42D
330
1F
100
AcDbEntity
  8
LOGO
 62
     4
100
AcDbLine
 10
1075.27686631029
 20
913.2350430053561
 30
0.0
 11
1047.876579568582
 21
913.2350430053561
 31
0.0
  0
TEXT
  5
42E
330
1F
100
AcDbEntity
  8
LOGO
  6
Continuous
 62
     7
100
AcDbText
 10
1052.510745994009
 20
906.6616125563809
 30
0.0
 40
4.695307463553823
  1
MSUS
  7
CHINESET
 72
     1
 11
1061.454188781731
 21
909.0092662881579
 31
0.0
100
AcDbText
 73
     2
  0
LINE
  5
42F
330
1F
100
AcDbEntity
  8
LOGO
 62
     4
100
AcDbLine
 10
1047.876579568582
 20
913.2350430053561
 30
0.0
 11
1047.876579568582
 21
904.7834895709591
 31
0.0
  0
LINE
  5
430
330
1F
100
AcDbEntity
  8
LOGO
 62
     4
100
AcDbLine
 10
1052.063573854623
 20
900.5577128537607
 30
0.0
 11
1052.063573854623
 21
890.2280364339425
 31
0.0
  0
TEXT
  5
431
330
1F
100
AcDbEntity
  8
LOGO
100
AcDbText
 10
1058.276712405463
 20
891.6750098957296
 30
0.0
 40
1.869103750745776
  1
Model
 72
     4
 11
1061.454188781731
 21
892.5756901657193
 31
0.0
100
AcDbText
  0
TEXT
  5
432
330
1F
100
AcDbEntity
  8
LOGO
100
AcDbText
 10
1057.697942810888
 20
895.4889990486172
 30
0.0
 40
3.756245970843058
  1
型式
  7
CHINESET
 72
     4
 11
1061.454188781731
 21
897.2709976292732
 31
0.0
100
AcDbText
  0
LINE
  5
433
330
1F
100
AcDbEntity
  8
LOGO
 62
     4
100
AcDbLine
 10
1061.454188781731
 20
904.7834895709591
 30
0.0
 11
1061.454188781731
 21
900.5577128537607
 31
0.0
  0
LINE
  5
434
330
1F
100
AcDbEntity
  8
LOGO
 62
     4
100
AcDbLine
 10
1075.27686631029
 20
913.2350430053561
 30
0.0
 11
1075.27686631029
 21
904.7834895709591
 31
0.0
  0
LINE
  5
435
330
1F
100
AcDbEntity
  8
LOGO
 62
     4
100
AcDbLine
 10
1070.844803708839
 20
900.5577128537607
 30
0.0
 11
1070.844803708839
 21
890.2280364339425
 31
0.0
  0
LINE
  5
436
330
1F
100
AcDbEntity
  8
LOGO
 62
     4
100
AcDbLine
 10
1011.436328702436
 20
887.8803827021654
 30
0.0
 11
1011.436328702436
 21
916.0522274834889
 31
0.0
  0
TEXT
  5
437
330
1F
100
AcDbEntity
  8
LOGO
  6
Continuous
100
AcDbText
 10
959.5777234638696
 20
893.4146990944354
 30
0.0
 40
4.225776717198477
  1
金器工業股份有限公司
  7
CHINESET
100
AcDbText
  0
TEXT
  5
438
330
1F
100
AcDbEntity
  8
LOGO
  6
Continuous
100
AcDbText
 10
951.8158076630708
 20
889.1880944563141
 30
0.0
 40
2.817184478132318
  1
MINDMAN INDUSTRIAL CO., LTD.
 41
0.85
  7
CHINESET
100
AcDbText
  0
LINE
  5
439
330
1F
100
AcDbEntity
  8
LOGO
 62
     4
100
AcDbLine
 10
1011.436328702436
 20
910.417858527224
 30
0.0
 11
970.1176230231615
 21
910.417858527224
 31
0.0
  0
LINE
  5
43A
330
1F
100
AcDbEntity
  8
LOGO
 62
     4
100
AcDbLine
 10
1011.436328702436
 20
904.7834895709591
 30
0.0
 11
970.1176230231615
 21
904.7834895709591
 31
0.0
  0
LINE
  5
43B
330
1F
100
AcDbEntity
  8
LOGO
 62
     4
100
AcDbLine
 10
1011.436328702436
 20
899.1491206146948
 30
0.0
 11
949.4582701835247
 21
899.1491206146948
 31
0.0
  0
LINE
  5
43C
330
1F
100
AcDbEntity
  8
LOGO
 62
     4
100
AcDbLine
 10
970.1176230231615
 20
899.1491206146948
 30
0.0
 11
970.1176230231615
 21
916.0522274834889
 31
0.0
  0
TEXT
  5
43D
330
1F
100
AcDbEntity
  8
LOGO
100
AcDbText
 10
998.3570081417433
 20
900.5577128537607
 30
0.0
 40
2.817184478132318
  1
mm
  7
CHINESET
 72
     1
 11
1001.844950828955
 21
901.9663050928269
 31
0.0
100
AcDbText
 73
     2
  0
TEXT
  5
43E
330
1F
100
AcDbEntity
  8
LOGO
100
AcDbText
 10
996.8813400817692
 20
911.8264507662901
 30
0.0
 40
2.817184478132318
  1
1 : 1
  7
CHINESET
 72
     1
 11
1001.844950828955
 21
913.2350430053563
 31
0.0
100
AcDbText
 73
     2
  0
LINE
  5
43F
330
1F
100
AcDbEntity
  8
LOGO
 62
     4
100
AcDbLine
 10
992.6550988482206
 20
899.1491206146948
 30
0.0
 11
992.6550988482206
 21
916.0522274834889
 31
0.0
  0
TEXT
  5
440
330
1F
100
AcDbEntity
  8
LOGO
100
AcDbText
 10
972.4405425459794
 20
911.8278371759741
 30
184.6336296564843
 40
2.817184478132318
  1
比例 Scale:
 41
0.9
  7
CHINESET
 72
     4
 11
981.3863609356914
 21
913.2350430053563
 31
184.6336296564843
100
AcDbText
  0
TEXT
  5
441
330
1F
100
AcDbEntity
  8
LOGO
100
AcDbText
 10
972.2783029041584
 20
906.2317100201632
 30
184.6336296564843
 40
2.817184478132318
  1
投影  View:
 41
0.9
  7
CHINESET
 72
     4
 11
981.3863609356914
 21
907.6006740490916
 31
184.6336296564843
100
AcDbText
  0
TEXT
  5
442
330
1F
100
AcDbEntity
  8
LOGO
100
AcDbText
 10
972.5537329937615
 20
900.5577128537607
 30
184.6336296564843
 40
2.817184478132318
  1
單位  Unit:
 41
0.9
  7
CHINESET
 72
     4
 11
981.3863609356914
 21
901.9663050928269
 31
184.6336296564843
100
AcDbText
  0
SOLID
  5
443
330
1F
100
AcDbEntity
  8
LOGO
 62
     5
100
AcDbTrace
 10
952.3811442919591
 20
903.8322888149561
 30
0.0
 11
953.5992209373828
 21
903.8322888149554
 31
0.0
 12
958.6815407338058
 22
915.3830156250085
 32
0.0
 13
959.8996173792299
 23
915.3830156250077
 33
0.0
  0
SOLID
  5
444
330
1F
100
AcDbEntity
  8
LOGO
 62
     5
100
AcDbTrace
 10
954.1032526527317
 20
903.8322888149561
 30
0.0
 11
955.3213292981553
 21
903.8322888149561
 31
0.0
 12
959.8996173792299
 22
914.458957480204
 32
0.0
 13
958.6815407338058
 23
909.9926764469836
 33
0.0
  0
SOLID
  5
445
330
1F
100
AcDbEntity
  8
LOGO
 62
     2
100
AcDbTrace
 10
953.5992209373828
 20
903.8322888149554
 30
0.0
 11
954.1032526527317
 21
903.8322888149561
 31
0.0
 12
959.8996173792299
 22
915.3830156250077
 32
0.0
 13
960.4036490945786
 23
915.3830156250077
 33
0.0
  0
SOLID
  5
446
330
1F
100
AcDbEntity
  8
LOGO
 62
     5
100
AcDbTrace
 10
956.4770405312577
 20
899.6320245203914
 30
0.0
 11
956.8970669607146
 21
899.6320245203914
 31
0.0
 12
958.0798940783083
 22
901.7321566676738
 32
0.0
 13
958.4999205077647
 23
901.7321566676738
 33
0.0
  0
SOLID
  5
447
330
1F
100
AcDbEntity
  8
LOGO
 62
     5
100
AcDbTrace
 10
958.0798940783083
 20
901.7321566676738
 30
0.0
 11
958.4999205077647
 21
901.7321566676738
 31
0.0
 12
958.0798940783083
 22
899.6320245203914
 32
0.0
 13
958.4999205077647
 23
899.6320245203914
 33
0.0
  0
SOLID
  5
448
330
1F
100
AcDbEntity
  8
LOGO
 62
     5
100
AcDbTrace
 10
958.0798940783083
 20
899.6320245203914
 30
0.0
 11
958.4999205077647
 21
899.6320245203914
 31
0.0
 12
959.6827476253604
 22
901.7321566676738
 32
0.0
 13
960.1027740548165
 23
901.7321566676738
 33
0.0
  0
SOLID
  5
449
330
1F
100
AcDbEntity
  8
LOGO
 62
     5
100
AcDbTrace
 10
959.6827476253604
 20
901.7321566676738
 30
0.0
 11
960.1027740548165
 21
901.7321566676738
 31
0.0
 12
959.6827476253604
 22
899.6320245203914
 32
0.0
 13
960.1027740548165
 23
899.6320245203914
 33
0.0
  0
POLYLINE
  5
44A
330
1F
100
AcDbEntity
  8
LOGO
 62
     5
100
AcDb2dPolyline
 66
     1
 10
0.0
 20
0.0
 30
0.0
 40
0.420699548734426
 41
0.420699548734426
  0
VERTEX
  5
44B
330
44A
100
AcDbEntity
  8
LOGO
 62
     5
100
AcDbVertex
100
AcDb2dVertex
 10
967.7131186460373
 20
900.8921038087605
 30
0.0
 42
1.0
  0
VERTEX
  5
44C
330
44A
100
AcDbEntity
  8
LOGO
 62
     5
100
AcDbVertex
100
AcDb2dVertex
 10
966.4510199998344
 20
900.8921038087605
 30
0.0
 42
1.0
  0
SEQEND
  5
44D
330
44A
100
AcDbEntity
  8
LOGO
 62
     5
  0
POLYLINE
  5
44E
330
1F
100
AcDbEntity
  8
LOGO
 62
     5
100
AcDb2dPolyline
 66
     1
 10
0.0
 20
0.0
 30
0.0
 70
     1
  0
VERTEX
  5
44F
330
44E
100
AcDbEntity
  8
LOGO
 62
     5
100
AcDbVertex
100
AcDb2dVertex
 10
964.0719079135926
 20
900.6820905940324
 30
0.0
 42
1.000000057330635
  0
VERTEX
  5
450
330
44E
100
AcDbEntity
  8
LOGO
 62
     5
100
AcDbVertex
100
AcDb2dVertex
 10
965.3319872019613
 20
900.6820905940324
 30
0.0
 42
1.000000057330635
  0
SEQEND
  5
451
330
44E
100
AcDbEntity
  8
LOGO
 62
     5
  0
CIRCLE
  5
452
330
1F
100
AcDbEntity
  8
LOGO
 62
     5
100
AcDbCircle
 10
964.7019475577778
 20
900.6820905940324
 30
0.0
 40
0.6300396441846764
  0
POLYLINE
  5
453
330
1F
100
AcDbEntity
  8
LOGO
 62
     5
100
AcDb2dPolyline
 66
     1
 10
0.0
 20
0.0
 30
0.0
 70
     1
 40
0.420699548734426
 41
0.420699548734426
  0
VERTEX
  5
454
330
453
100
AcDbEntity
  8
LOGO
 62
     5
100
AcDbVertex
100
AcDb2dVertex
 10
963.8605484603084
 20
900.6820905940324
 30
0.0
 42
1.0
  0
VERTEX
  5
455
330
453
100
AcDbEntity
  8
LOGO
 62
     5
100
AcDbVertex
100
AcDb2dVertex
 10
965.5433466552464
 20
900.6820905940324
 30
0.0
 42
1.0
  0
SEQEND
  5
456
330
453
100
AcDbEntity
  8
LOGO
 62
     5
  0
LINE
  5
457
330
1F
100
AcDbEntity
  8
LOGO
100
AcDbLine
 10
967.9221221818474
 20
899.6320245203914
 30
0.0
 11
967.9221221818474
 21
900.8921038087605
 31
0.0
  0
SOLID
  5
458
330
1F
100
AcDbEntity
  8
LOGO
 62
     5
100
AcDbTrace
 10
965.3319451993201
 20
901.7321566676738
 30
0.0
 11
965.7519716287762
 21
901.7321566676738
 31
0.0
 12
965.3319451993201
 22
899.6320245203914
 32
0.0
 13
965.7519716287762
 23
899.6320245203914
 33
0.0
  0
SOLID
  5
459
330
1F
100
AcDbEntity
  8
LOGO
 62
     5
100
AcDbTrace
 10
966.2420164640222
 20
899.6320245203914
 30
0.0
 11
966.6620428934789
 21
899.6320245203914
 31
0.0
 12
966.2420164640222
 22
901.7321566676738
 32
0.0
 13
966.6620428934789
 23
901.7321566676738
 33
0.0
  0
SOLID
  5
45A
330
1F
100
AcDbEntity
  8
LOGO
 62
     5
100
AcDbTrace
 10
967.5020957523924
 20
900.8921038087605
 30
0.0
 11
967.9221221818474
 21
900.8921038087605
 31
0.0
 12
967.5020957523924
 22
899.6320245203914
 32
0.0
 13
967.9221221818474
 23
899.6320245203914
 33
0.0
  0
SOLID
  5
45B
330
1F
100
AcDbEntity
  8
LOGO
 62
     5
100
AcDbTrace
 10
966.2000138210764
 20
914.458957480204
 30
0.0
 11
964.9819371756532
 21
909.9926764469836
 31
0.0
 12
966.2000138210764
 22
903.8322888149554
 32
0.0
 13
964.9819371756532
 23
903.8322888149554
 33
0.0
  0
SOLID
  5
45C
330
1F
100
AcDbEntity
  8
LOGO
 62
     5
100
AcDbTrace
 10
966.7040455364245
 20
903.8322888149554
 30
0.0
 11
967.9221221818474
 21
903.8322888149554
 31
0.0
 12
966.7040455364245
 22
915.3830156250077
 32
0.0
 13
967.9221221818474
 23
915.3830156250085
 33
0.0
  0
SOLID
  5
45D
330
1F
100
AcDbEntity
  8
LOGO
 62
     2
100
AcDbTrace
 10
966.2000138210764
 20
915.3830156250085
 30
0.0
 11
966.7040455364245
 21
915.3830156250077
 31
0.0
 12
966.2000138210764
 22
903.8322888149554
 32
0.0
 13
966.7040455364245
 23
903.8322888149554
 33
0.0
  0
POLYLINE
  5
45E
330
1F
100
AcDbEntity
  8
LOGO
 62
     5
100
AcDb2dPolyline
 66
     1
 10
0.0
 20
0.0
 30
0.0
 40
0.420699548734426
 41
0.420699548734426
  0
VERTEX
  5
45F
330
45E
100
AcDbEntity
  8
LOGO
 62
     5
100
AcDbVertex
100
AcDb2dVertex
 10
961.6927118220669
 20
900.8921038087605
 30
0.0
 42
1.0
  0
VERTEX
  5
460
330
45E
100
AcDbEntity
  8
LOGO
 62
     5
100
AcDbVertex
100
AcDb2dVertex
 10
960.4306131758626
 20
900.8921038087605
 30
0.0
 42
1.0
  0
SEQEND
  5
461
330
45E
100
AcDbEntity
  8
LOGO
 62
     5
  0
POLYLINE
  5
462
330
1F
100
AcDbEntity
  8
LOGO
 62
     5
100
AcDb2dPolyline
 66
     1
 10
0.0
 20
0.0
 30
0.0
 40
0.420699548734426
 41
0.420699548734426
  0
VERTEX
  5
463
330
462
100
AcDbEntity
  8
LOGO
 62
     5
100
AcDbVertex
100
AcDb2dVertex
 10
962.9527911104355
 20
900.8921038087605
 30
0.0
 42
1.0
  0
VERTEX
  5
464
330
462
100
AcDbEntity
  8
LOGO
 62
     5
100
AcDbVertex
100
AcDb2dVertex
 10
961.6906924642321
 20
900.8921038087605
 30
0.0
 42
1.0
  0
SEQEND
  5
465
330
462
100
AcDbEntity
  8
LOGO
 62
     5
  0
POLYLINE
  5
466
330
1F
100
AcDbEntity
  8
LOGO
 62
     5
100
AcDb2dPolyline
 66
     1
 10
0.0
 20
0.0
 30
0.0
 40
0.420699548734426
 41
0.420699548734426
  0
VERTEX
  5
467
330
466
100
AcDbEntity
  8
LOGO
 62
     5
100
AcDbVertex
100
AcDb2dVertex
 10
956.9323842864637
 20
900.8921038087605
 30
0.0
 42
1.0
  0
VERTEX
  5
468
330
466
100
AcDbEntity
  8
LOGO
 62
     5
100
AcDbVertex
100
AcDb2dVertex
 10
955.6702856402605
 20
900.8921038087605
 30
0.0
 42
1.0
  0
SEQEND
  5
469
330
466
100
AcDbEntity
  8
LOGO
 62
     5
  0
SOLID
  5
46A
330
1F
100
AcDbEntity
  8
LOGO
 62
     5
100
AcDbTrace
 10
955.4612821044495
 20
901.7321566676738
 30
0.0
 11
955.8813085339052
 21
901.7321566676738
 31
0.0
 12
955.4612821044495
 22
899.6320245203914
 32
0.0
 13
955.8813085339052
 23
899.6320245203914
 33
0.0
  0
SOLID
  5
46B
330
1F
100
AcDbEntity
  8
LOGO
 62
     5
100
AcDbTrace
 10
956.7213613928192
 20
900.8921038087605
 30
0.0
 11
957.1413878222767
 21
900.8921038087605
 31
0.0
 12
956.7213613928192
 22
899.6320245203914
 32
0.0
 13
957.1413878222767
 23
899.6320245203914
 33
0.0
  0
POLYLINE
  5
46C
330
1F
100
AcDbEntity
  8
LOGO
 62
     5
100
AcDb2dPolyline
 66
     1
 10
0.0
 20
0.0
 30
0.0
 70
     1
 40
0.420699548734426
 41
0.420699548734426
  0
VERTEX
  5
46D
330
46C
100
AcDbEntity
  8
LOGO
 62
     5
100
AcDbVertex
100
AcDb2dVertex
 10
957.8401416363371
 20
900.6820905940324
 30
0.0
 42
1.0
  0
VERTEX
  5
46E
330
46C
100
AcDbEntity
  8
LOGO
 62
     5
100
AcDbVertex
100
AcDb2dVertex
 10
959.5229398312747
 20
900.6820905940324
 30
0.0
 42
1.0
  0
SEQEND
  5
46F
330
46C
100
AcDbEntity
  8
LOGO
 62
     5
  0
SOLID
  5
470
330
1F
100
AcDbEntity
  8
LOGO
 62
     5
100
AcDbTrace
 10
959.3115383753485
 20
902.3621963118586
 30
0.0
 11
959.731564804805
 21
902.3621963118586
 31
0.0
 12
959.3115383753485
 22
899.6320245203914
 32
0.0
 13
959.731564804805
 23
899.6320245203914
 33
0.0
  0
SOLID
  5
471
330
1F
100
AcDbEntity
  8
LOGO
 62
     5
100
AcDbTrace
 10
960.2216096400526
 20
901.7321566676738
 30
0.0
 11
960.6416360695085
 21
901.7321566676738
 31
0.0
 12
960.2216096400526
 22
899.6320245203914
 32
0.0
 13
960.6416360695085
 23
899.6320245203914
 33
0.0
  0
SOLID
  5
472
330
1F
100
AcDbEntity
  8
LOGO
 62
     5
100
AcDbTrace
 10
961.481688928421
 20
900.8921038087605
 30
0.0
 11
961.9017153578775
 21
900.8921038087605
 31
0.0
 12
961.481688928421
 22
899.6320245203914
 32
0.0
 13
961.9017153578775
 23
899.6320245203914
 33
0.0
  0
SOLID
  5
473
330
1F
100
AcDbEntity
  8
LOGO
 62
     5
100
AcDbTrace
 10
962.7417682167898
 20
900.8921038087605
 30
0.0
 11
963.1617946462467
 21
900.8921038087605
 31
0.0
 12
962.7417682167898
 22
899.6320245203911
 32
0.0
 13
963.1617946462467
 23
899.6320245203911
 33
0.0
  0
SOLID
  5
474
330
1F
100
AcDbEntity
  8
LOGO
 62
     5
100
AcDbTrace
 10
954.5512108397458
 20
902.026175168293
 30
0.0
 11
954.971237269204
 21
902.026175168293
 31
0.0
 12
954.5512108397458
 22
902.3621963118586
 32
0.0
 13
954.971237269204
 23
902.3621963118586
 33
0.0
  0
SOLID
  5
475
330
1F
100
AcDbEntity
  8
LOGO
 62
     5
100
AcDbTrace
 10
954.5512108397458
 20
901.7321566676738
 30
0.0
 11
954.971237269204
 21
901.7321566676738
 31
0.0
 12
954.5512108397458
 22
899.6320245203911
 32
0.0
 13
954.971237269204
 23
899.6320245203914
 33
0.0
  0
SOLID
  5
476
330
1F
100
AcDbEntity
  8
LOGO
 62
     5
100
AcDbTrace
 10
958.6815407338058
 20
903.8322888149561
 30
0.0
 11
959.8996173792299
 21
903.8322888149561
 31
0.0
 12
958.6815407338058
 22
909.9926764469836
 32
0.0
 13
959.8996173792299
 23
914.458957480204
 33
0.0
  0
SOLID
  5
477
330
1F
100
AcDbEntity
  8
LOGO
 62
     5
100
AcDbTrace
 10
960.4036490945786
 20
915.3830156250077
 30
0.0
 11
961.621725740002
 21
915.3830156250085
 31
0.0
 12
960.4036490945786
 22
904.7563469597596
 32
0.0
 13
961.621725740002
 23
909.22262799298
 33
0.0
  0
SOLID
  5
478
330
1F
100
AcDbEntity
  8
LOGO
 62
     2
100
AcDbTrace
 10
959.8996173792299
 20
915.3830156250077
 30
0.0
 11
960.4036490945786
 21
915.3830156250077
 31
0.0
 12
959.8996173792299
 22
903.8322888149561
 32
0.0
 13
960.4036490945786
 23
903.8322888149561
 33
0.0
  0
SOLID
  5
479
330
1F
100
AcDbEntity
  8
LOGO
 62
     5
100
AcDbTrace
 10
960.4036490945786
 20
904.7563469597596
 30
0.0
 11
961.621725740002
 21
909.22262799298
 31
0.0
 12
966.2000138210764
 22
915.3830156250085
 32
0.0
 13
964.9819371756532
 23
915.3830156250085
 33
0.0
  0
SOLID
  5
47A
330
1F
100
AcDbEntity
  8
LOGO
 62
     5
100
AcDbTrace
 10
960.4036490945786
 20
903.8322888149561
 30
0.0
 11
961.621725740002
 21
903.8322888149561
 31
0.0
 12
966.2000138210764
 22
914.458957480204
 32
0.0
 13
964.9819371756532
 23
909.9926764469836
 33
0.0
  0
SOLID
  5
47B
330
1F
100
AcDbEntity
  8
LOGO
 62
     2
100
AcDbTrace
 10
959.8996173792299
 20
903.8322888149561
 30
0.0
 11
960.4036490945786
 21
903.8322888149561
 31
0.0
 12
966.2000138210764
 22
915.3830156250085
 32
0.0
 13
966.7040455364245
 23
915.3830156250077
 33
0.0
  0
LWPOLYLINE
  5
47C
330
1F
100
AcDbEntity
  8
LOGO
 62
     4
100
AcDbPolyline
 90
        4
 70
     1
 43
0.0
 10
949.4582701835261
 20
916.0522274834884
 10
1242.132851164395
 20
916.0522274834884
 10
1242.132851164395
 20
887.8803827021652
 10
949.4582701835261
 20
887.8803827021652
1001
GENIUS_GENREC_14
1002
{
1000
PYDIR
1011
949.4582701835261
1021
887.8803827021652
1031
0.0
1002
}
1002
{
1000
PXDIR
1011
1242.132851164395
1021
916.0522274834884
1031
0.0
1002
}
1002
{
1000
PORI
1011
949.4582701835261
1021
916.0522274834884
1031
0.0
1002
}
1002
{
1000
PINS
1011
949.4582701835261
1021
916.0522274834884
1031
0.0
1002
}
1002
{
1000
PINS2
1011
1242.132851164395
1021
887.8803827021652
1031
0.0
1002
}
1002
{
1000
C
1070
     1
1002
}
1001
GENIUS_GENOBJ-N-REC_13
1002
{
1000
OWNER
1000
GEN
1002
}
1001
GENIUS_GENODEF_13
1002
{
1000
HIER
1070
     0
1002
}
1002
{
1000
MANEDIT
1070
     0
1002
}
1002
{
1000
NOSEL
1070
     0
1002
}
1002
{
1000
BEHIND
1070
     0
1002
}
1002
{
1000
OTHER
1070
     0
1002
}
1002
{
1000
REACTOR
1002
}
  0
TEXT
  5
47D
330
1F
100
AcDbEntity
  8
LOGO
100
AcDbText
 10
1012.741628548165
 20
889.3791137252827
 30
0.0
 40
2.817592455320418
  1
01109060
 41
0.7
  7
CHINESET
 72
     1
 11
1019.597770189445
 21
889.3791137252827
 31
0.0
100
AcDbText
  0
LINE
  5
47E
330
1F
100
AcDbEntity
  8
LOGO
 62
     4
100
AcDbLine
 10
1028.341883434357
 20
893.5147516584306
 30
0.0
 11
1028.341883434359
 21
887.8803827021656
 31
0.0
  0
LINE
  5
47F
330
1F
100
AcDbEntity
  8
LOGO
 62
     4
100
AcDbLine
 10
1028.341883434357
 20
893.5147516584306
 30
0.0
 11
1011.436328702436
 21
893.5147516584306
 31
0.0
  0
CIRCLE
  5
480
330
1F
100
AcDbEntity
  8
LOGO
  6
Continuous
100
AcDbCircle
 10
997.8714682773475
 20
907.6067000273059
 30
0.0
 40
1.635723617051456
  0
CIRCLE
  5
481
330
1F
100
AcDbEntity
  8
LOGO
  6
Continuous
100
AcDbCircle
 10
997.8714682773475
 20
907.6067000273059
 30
0.0
 40
0.9583892371730611
  0
LINE
  5
482
330
1F
100
AcDbEntity
  8
LOGO
100
AcDbLine
 10
1008.15054528824
 20
905.9709764102544
 30
0.0
 11
1008.15054528824
 21
909.2424236443578
 31
0.0
  0
LINE
  5
483
330
1F
100
AcDbEntity
  8
LOGO
100
AcDbLine
 10
1003.022645643799
 20
906.648310790133
 30
0.0
 11
1003.022645643799
 21
908.5650892644792
 31
0.0
  0
LINE
  5
484
330
1F
100
AcDbEntity
  8
LOGO
  6
Continuous
100
AcDbLine
 10
1003.022645643799
 20
908.5650892644792
 30
0.0
 11
1008.15054528824
 21
909.2424236443578
 31
0.0
  0
LINE
  5
485
330
1F
100
AcDbEntity
  8
LOGO
  6
Continuous
100
AcDbLine
 10
1003.022645643799
 20
906.648310790133
 30
0.0
 11
1008.15054528824
 21
905.9709764102544
 31
0.0
  0
LINE
  5
486
330
1F
100
AcDbEntity
  8
LOGO
  6
AM_ISO08W050x2
 48
0.3
100
AcDbLine
 10
995.6165987782085
 20
907.6067000273059
 30
0.0
 11
1000.126337776484
 21
907.6067000273059
 31
0.0
1001
GENIUS_GENOREF_13
1005
586
  0
LINE
  5
487
330
1F
100
AcDbEntity
  8
LOGO
  6
AM_ISO08W050x2
 48
0.3
100
AcDbLine
 10
997.8714682773475
 20
905.3518305281684
 30
0.0
 11
997.8714682773475
 21
909.861569526444
 31
0.0
1001
GENIUS_GENOREF_13
1005
585
  0
LINE
  5
488
330
1F
100
AcDbEntity
  8
LOGO
  6
CENTER
 48
0.5
100
AcDbLine
 10
1002.612556201548
 20
907.6067000273059
 30
0.0
 11
1008.666908182568
 21
907.6067000273059
 31
0.0
1001
GENIUS_GENOREF_13
1005
584
  0
LINE
  5
489
330
1F
100
AcDbEntity
  8
LOGO
 62
     4
100
AcDbLine
 10
1104.652630466783
 20
890.2280364339425
 30
0.0
 11
1085.871400612568
 21
890.2280364339425
 31
0.0
  0
LINE
  5
48A
330
1F
100
AcDbEntity
  8
LOGO
 62
     4
100
AcDbLine
 10
1104.652630466783
 20
900.5577128537607
 30
0.0
 11
1085.871400612568
 21
900.5577128537607
 31
0.0
  0
LINE
  5
48B
330
1F
100
AcDbEntity
  8
LOGO
 62
     4
100
AcDbLine
 10
1100.606935572653
 20
904.7834895709591
 30
0.0
 11
1089.111199881563
 21
904.7834895709591
 31
0.0
  0
LINE
  5
48C
330
1F
100
AcDbEntity
  8
LOGO
 62
     4
100
AcDbLine
 10
1100.606935572653
 20
913.2350430053561
 30
0.0
 11
1089.111199881563
 21
913.2350430053561
 31
0.0
  0
TEXT
  5
48D
330
1F
100
AcDbEntity
  8
LOGO
  6
Continuous
 62
     7
100
AcDbText
 10
1090.484078639714
 20
906.6616125563809
 30
0.0
 40
4.695307463553823
  1
20
  7
CHINESET
 72
     1
 11
1094.285041824496
 21
909.0092662881579
 31
0.0
100
AcDbText
 73
     2
  0
LINE
  5
48E
330
1F
100
AcDbEntity
  8
LOGO
 62
     4
100
AcDbLine
 10
1089.111199881563
 20
913.2350430053561
 30
0.0
 11
1089.111199881563
 21
904.7834895709591
 31
0.0
  0
LINE
  5
48F
330
1F
100
AcDbEntity
  8
LOGO
 62
     4
100
AcDbLine
 10
1085.871400612568
 20
900.5577128537607
 30
0.0
 11
1085.871400612568
 21
890.2280364339425
 31
0.0
  0
TEXT
  5
490
330
1F
100
AcDbEntity
  8
LOGO
100
AcDbText
 10
1090.028525037587
 20
891.6411382903465
 30
0.0
 40
1.869103750745776
  1
PIPE SIZE
 72
     4
 11
1095.262015539676
 21
892.5756901657193
 31
0.0
100
AcDbText
  0
TEXT
  5
491
330
1F
100
AcDbEntity
  8
LOGO
100
AcDbText
 10
1087.710396035793
 20
895.3928746438515
 30
0.0
 40
3.756245970843058
  1
配管口徑
  7
CHINESET
 72
     4
 11
1095.262015539676
 21
897.2709976292732
 31
0.0
100
AcDbText
  0
LINE
  5
492
330
1F
100
AcDbEntity
  8
LOGO
 62
     4
100
AcDbLine
 10
1095.262015539676
 20
904.7834895709591
 30
0.0
 11
1095.262015539676
 21
900.5577128537607
 31
0.0
  0
LINE
  5
493
330
1F
100
AcDbEntity
  8
LOGO
 62
     4
100
AcDbLine
 10
1100.606935572653
 20
913.2350430053561
 30
0.0
 11
1100.606935572653
 21
904.7834895709591
 31
0.0
  0
LINE
  5
494
330
1F
100
AcDbEntity
  8
LOGO
 62
     4
100
AcDbLine
 10
1104.652630466783
 20
900.5577128537607
 30
0.0
 11
1104.652630466783
 21
890.2280364339425
 31
0.0
  0
LINE
  5
495
330
1F
100
AcDbEntity
  8
0
100
AcDbLine
 10
1076.102693055964
 20
908.8285833856204
 30
0.0
 11
1080.516731153978
 21
908.8285833856204
 31
0.0
  0
LWPOLYLINE
  5
496
330
1F
100
AcDbEntity
  8
0
 62
     4
100
AcDbPolyline
 90
        4
 70
     1
 43
0.0
 10
949.4582701835261
 20
1119.317393464035
 10
1242.132851164395
 20
1119.317393464035
 10
1242.132851164395
 20
916.0522274834884
 10
949.4582701835261
 20
916.0522274834884
  0
LINE
  5
497
330
1F
100
AcDbEntity
  8
0
100
AcDbLine
 10
990.1883157177625
 20
1080.793391628229
 30
0.0
 11
1035.188315717763
 21
1080.793391628229
 31
0.0
  0
CIRCLE
  5
498
330
1F
100
AcDbEntity
  8
0
100
AcDbCircle
 10
1018.188315717763
 20
1049.296796153498
 30
0.0
 40
8.5
  0
CIRCLE
  5
499
330
1F
100
AcDbEntity
  8
0
100
AcDbCircle
 10
1018.188315717763
 20
1049.296796153498
 30
0.0
 40
11.0
  0
CIRCLE
  5
49A
330
1F
100
AcDbEntity
  8
0
100
AcDbCircle
 10
1018.188315717763
 20
1049.296796153498
 30
0.0
 40
10.0
  0
CIRCLE
  5
49B
330
1F
100
AcDbEntity
  8
0
100
AcDbCircle
 10
1018.188315717763
 20
1049.296796153498
 30
0.0
 40
19.0
  0
LINE
  5
49C
330
1F
100
AcDbEntity
  8
CENTER25
100
AcDbLine
 10
960.2325706031042
 20
1049.296796153498
 30
0.0
 11
1064.382339566873
 21
1049.296796153498
 31
0.0
  0
LINE
  5
49D
330
1F
100
AcDbEntity
  8
0
100
AcDbLine
 10
990.1883157177634
 20
1017.793391628229
 30
0.0
 11
1035.188315717763
 21
1017.793391628229
 31
0.0
  0
LINE
  5
49E
330
1F
100
AcDbEntity
  8
0
100
AcDbLine
 10
982.6883157177634
 20
1025.293391628229
 30
0.0
 11
982.6883157177634
 21
1042.679013350568
 31
0.0
  0
LINE
  5
49F
330
1F
100
AcDbEntity
  8
CENTER25
100
AcDbLine
 10
1018.188315717763
 20
1013.223120845074
 30
0.0
 11
1018.188315717763
 21
1082.230891628229
 31
0.0
  0
LINE
  5
4A0
330
1F
100
AcDbEntity
  8
CENTER05
100
AcDbLine
 10
990.1883157177625
 20
1068.293391628229
 30
0.0
 11
990.1883157177625
 21
1078.293391628229
 31
0.0
  0
ARC
  5
4A1
330
1F
100
AcDbEntity
  8
0
100
AcDbCircle
 10
990.1883157177634
 20
1025.293391628229
 30
0.0
 40
7.5
100
AcDbArc
 50
180.0
 51
270.0
  0
LINE
  5
4A2
330
1F
100
AcDbEntity
  8
0
100
AcDbLine
 10
982.6883157177634
 20
1055.90776990589
 30
0.0
 11
982.6883157177626
 21
1073.293391628229
 31
0.0
  0
LINE
  5
4A3
330
1F
100
AcDbEntity
  8
0
100
AcDbLine
 10
973.1883157177762
 20
1057.382012168863
 30
0.0
 11
982.6883157177626
 21
1057.382012168902
 31
0.0
  0
LINE
  5
4A4
330
1F
100
AcDbEntity
  8
0
100
AcDbLine
 10
973.1883157177616
 20
1041.211580138095
 30
0.0
 11
982.6883157177634
 21
1041.211580138095
 31
0.0
  0
ARC
  5
4A5
330
1F
100
AcDbEntity
  8
0
100
AcDbCircle
 10
990.1883157177634
 20
1049.293391628229
 30
0.0
 40
10.0
100
AcDbArc
 50
138.5903778907302
 51
221.4096221092698
  0
LINE
  5
4A6
330
1F
100
AcDbEntity
  8
0
100
AcDbLine
 10
973.1883157177607
 20
1033.136364122692
 30
0.0
 11
982.6883157177634
 21
1033.136364122692
 31
0.0
  0
LINE
  5
4A7
330
1F
100
AcDbEntity
  8
CENTER05
100
AcDbLine
 10
995.1883157177634
 20
1073.293391628229
 30
0.0
 11
985.1883157177635
 21
1073.293391628229
 31
0.0
  0
ARC
  5
4A8
330
1F
100
AcDbEntity
  8
0
100
AcDbCircle
 10
990.1883157177625
 20
1073.293391628229
 30
0.0
 40
7.5
100
AcDbArc
 50
90.0
 51
180.0
  0
LINE
  5
4A9
330
1F
100
AcDbEntity
  8
0
100
AcDbLine
 10
973.1883157177634
 20
1065.457228184305
 30
0.0
 11
982.6883157177626
 21
1065.457228184305
 31
0.0
  0
LINE
  5
4AA
330
1F
100
AcDbEntity
  8
圖層4
100
AcDbLine
 10
1018.188315717763
 20
1085.773132747994
 30
0.0
 11
1018.188315717763
 21
1089.919739361361
 31
0.0
  0
LINE
  5
4AB
330
1F
100
AcDbEntity
  8
0
100
AcDbLine
 10
1042.688315717763
 20
1073.293391628229
 30
0.0
 11
1042.688315717763
 21
1025.293391628229
 31
0.0
  0
DIMENSION
  5
4AC
330
1F
100
AcDbEntity
  8
DIM
100
AcDbDimension
  2
*D2
 10
1072.246621858091
 20
1073.293391628229
 30
0.0
 11
1070.371621858091
 21
1049.293391628229
 31
0.0
 70
    32
 71
     5
 42
48.0
  3
ISO-25
100
AcDbAlignedDimension
 13
1065.513542128333
 23
1025.293391628229
 33
0.0
 14
1040.189974022483
 24
1073.293391628229
 34
0.0
 50
90.0
100
AcDbRotatedDimension
  0
ARC
  5
4AD
330
1F
100
AcDbEntity
  8
0
100
AcDbCircle
 10
1035.188315717763
 20
1025.293391628229
 30
0.0
 40
7.5
100
AcDbArc
 50
270.0
 51
0.0
  0
DIMENSION
  5
4AE
330
1F
100
AcDbEntity
  8
DIM
100
AcDbDimension
  2
*D3
 10
1130.982087971692
 20
957.1941034658491
 30
0.0
 11
1129.107087971691
 21
974.1941034658493
 31
0.0
 70
    32
  1
34HEX.
 71
     5
 42
34.0
  3
ISO-25
100
AcDbAlignedDimension
 13
1107.57526919891
 23
991.1941034658491
 33
0.0
 14
1107.57526919891
 24
957.1941034658491
 34
0.0
 50
90.0
100
AcDbRotatedDimension
  0
LINE
  5
4AF
330
1F
100
AcDbEntity
  8
圖層3
100
AcDbLine
 10
1112.760314622687
 20
974.1941034658491
 30
0.0
 11
1112.760314622687
 21
982.213341352314
 31
0.0
  0
LINE
  5
4B0
330
1F
100
AcDbEntity
  8
圖層3
100
AcDbLine
 10
1082.760314622687
 20
974.1941034658491
 30
0.0
 11
1082.760314622687
 21
982.2133413523163
 31
0.0
  0
LINE
  5
4B1
330
1F
100
AcDbEntity
  8
0
100
AcDbLine
 10
1117.390223775134
 20
974.1941034658491
 30
0.0
 11
1107.57526919891
 21
991.1941034658491
 31
0.0
  0
LINE
  5
4B2
330
1F
100
AcDbEntity
  8
0
100
AcDbLine
 10
1087.945360046463
 20
991.1941034658491
 30
0.0
 11
1078.13040547024
 21
974.1941034658491
 31
0.0
  0
LINE
  5
4B3
330
1F
100
AcDbEntity
  8
圖層1
100
AcDbLine
 10
1097.760314622687
 20
952.7639886599551
 30
0.0
 11
1097.760314622687
 21
995.2604776863292
 31
0.0
  0
LINE
  5
4B4
330
1F
100
AcDbEntity
  8
0
100
AcDbLine
 10
1107.57526919891
 20
957.1941034658491
 30
0.0
 11
1117.390223775134
 21
974.1941034658491
 31
0.0
  0
LINE
  5
4B5
330
1F
100
AcDbEntity
  8
圖層1
100
AcDbLine
 10
1073.861765428816
 20
974.1941034658491
 30
0.0
 11
1121.950292224998
 21
974.1941034658491
 31
0.0
  0
ARC
  5
4B6
330
1F
100
AcDbEntity
  8
圖層3
100
AcDbCircle
 10
1097.760314622687
 20
974.1941034658491
 30
0.0
 40
15.0
100
AcDbArc
 50
180.0
 51
0.0
  0
LINE
  5
4B7
330
1F
100
AcDbEntity
  8
0
100
AcDbLine
 10
1087.945360046463
 20
957.1941034658491
 30
0.0
 11
1107.57526919891
 21
957.1941034658491
 31
0.0
  0
ARC
  5
4B8
330
1F
100
AcDbEntity
  8
0
100
AcDbCircle
 10
1079.860314622685
 20
961.6991034658486
 30
0.0
 40
1.0
100
AcDbArc
 50
180.0
 51
270.0
  0
LINE
  5
4B9
330
1F
100
AcDbEntity
  8
0
100
AcDbLine
 10
1079.860314622685
 20
960.6991034658486
 30
0.0
 11
1085.921747352953
 21
960.6991034658483
 31
0.0
  0
LINE
  5
4BA
330
1F
100
AcDbEntity
  8
0
100
AcDbLine
 10
1078.13040547024
 20
974.1941034658491
 30
0.0
 11
1087.945360046463
 21
957.1941034658491
 31
0.0
  0
LINE
  5
4BB
330
1F
100
AcDbEntity
  8
0
100
AcDbLine
 10
1078.860314622686
 20
961.6991034658488
 30
0.0
 11
1078.860314622687
 21
972.9298637288998
 31
0.0
  0
LINE
  5
4BC
330
1F
100
AcDbEntity
  8
0
100
AcDbLine
 10
1110.750695679453
 20
985.6941034658492
 30
0.0
 11
1127.760314622687
 21
985.6941034658492
 31
0.0
  0
LINE
  5
4BD
330
1F
100
AcDbEntity
  8
0
100
AcDbLine
 10
1067.024246645186
 20
993.294103465849
 30
0.0
 11
1128.496382600187
 21
993.2941034658487
 31
0.0
  0
ARC
  5
4BE
330
1F
100
AcDbEntity
  8
0
100
AcDbCircle
 10
1069.260314622687
 20
991.2941034658491
 30
0.0
 40
3.0
100
AcDbArc
 50
138.1896851042157
 51
180.0
  0
LINE
  5
4BF
330
1F
100
AcDbEntity
  8
0
100
AcDbLine
 10
1107.57526919891
 20
991.1941034658491
 30
0.0
 11
1087.945360046463
 21
991.1941034658491
 31
0.0
  0
LINE
  5
4C0
330
1F
100
AcDbEntity
  8
0
100
AcDbLine
 10
1067.760314622687
 20
985.6941034658492
 30
0.0
 11
1084.76993356592
 21
985.6941034658492
 31
0.0
  0
ARC
  5
4C1
330
1F
100
AcDbEntity
  8
0
100
AcDbCircle
 10
1067.760314622687
 20
987.194103465849
 30
0.0
 40
1.5
100
AcDbArc
 50
180.0
 51
270.0
  0
LINE
  5
4C2
330
1F
100
AcDbEntity
  8
0
100
AcDbLine
 10
1066.260314622687
 20
987.194103465849
 30
0.0
 11
1066.260314622687
 21
991.2941034658491
 31
0.0
  0
LINE
  5
4C3
330
1F
100
AcDbEntity
  8
0
100
AcDbLine
 10
1129.260314622687
 20
987.194103465849
 30
0.0
 11
1129.260314622687
 21
991.2941034658491
 31
0.0
  0
ARC
  5
4C4
330
1F
100
AcDbEntity
  8
0
100
AcDbCircle
 10
1127.760314622687
 20
987.194103465849
 30
0.0
 40
1.5
100
AcDbArc
 50
270.0
 51
0.0
  0
ARC
  5
4C5
330
1F
100
AcDbEntity
  8
0
100
AcDbCircle
 10
1126.260314622687
 20
991.2941034658491
 30
0.0
 40
3.0
100
AcDbArc
 50
0.0
 51
41.81031489578423
  0
ARC
  5
4C6
330
1F
100
AcDbEntity
  8
0
100
AcDbCircle
 10
1050.091453326143
 20
1061.419620176604
 30
0.0
 40
5.088500279698394
100
AcDbArc
 50
307.4883584605182
 51
52.51164153948186
  0
LINE
  5
4C7
330
1F
100
AcDbEntity
  8
0
100
AcDbLine
 10
1055.188315717763
 20
1063.725177376736
 30
0.0
 11
1055.188315717763
 21
1034.878414930262
 31
0.0
  0
LINE
  5
4C8
330
1F
100
AcDbEntity
  8
0
100
AcDbLine
 10
1053.188315717763
 20
1057.382012168902
 30
0.0
 11
1042.688315717763
 21
1057.382012168902
 31
0.0
  0
LINE
  5
4C9
330
1F
100
AcDbEntity
  8
0
100
AcDbLine
 10
1053.188315717763
 20
1041.211580138096
 30
0.0
 11
1042.688315717763
 21
1041.211580138095
 31
0.0
  0
LINE
  5
4CA
330
1F
100
AcDbEntity
  8
0
100
AcDbLine
 10
1053.188315717762
 20
1033.136364122692
 30
0.0
 11
1042.688315717763
 21
1033.136364122692
 31
0.0
  0
POINT
  5
4CB
330
1F
100
AcDbEntity
  8
Defpoints
  6
ByBlock
 62
     0
100
AcDbPoint
 10
1065.603283039872
 20
1049.296796153498
 30
0.0
  0
LINE
  5
4CC
330
1F
100
AcDbEntity
  8
圖層4
100
AcDbLine
 10
1065.007339566873
 20
1049.296796153498
 30
0.0
 11
1066.853283039872
 21
1049.296796153498
 31
0.0
  0
ARC
  5
4CD
330
1F
100
AcDbEntity
  8
0
100
AcDbCircle
 10
1037.822672113953
 20
1049.296796153498
 30
0.0
 40
17.36299862855037
100
AcDbArc
 50
332.2471969390642
 51
27.75280306093579
  0
LINE
  5
4CE
330
1F
100
AcDbEntity
  8
0
100
AcDbLine
 10
1053.188315717762
 20
1033.136364122692
 30
0.0
 11
1055.188315717763
 21
1034.868414930261
 31
0.0
  0
ARC
  5
4CF
330
1F
100
AcDbEntity
  8
0
100
AcDbCircle
 10
1050.091453326144
 20
1037.173972130394
 30
0.0
 40
5.088500279698203
100
AcDbArc
 50
307.4883584605182
 51
52.51164153946756
  0
LINE
  5
4D0
330
1F
100
AcDbEntity
  8
0
100
AcDbLine
 10
1053.188315717763
 20
1065.457228184305
 30
0.0
 11
1042.688315717763
 21
1065.457228184305
 31
0.0
  0
ARC
  5
4D1
330
1F
100
AcDbEntity
  8
0
100
AcDbCircle
 10
1035.188315717763
 20
1073.293391628229
 30
0.0
 40
7.5
100
AcDbArc
 50
0.0
 51
90.0
  0
LINE
  5
4D2
330
1F
100
AcDbEntity
  8
0
100
AcDbLine
 10
1053.188315717763
 20
1065.457228184305
 30
0.0
 11
1055.188315717763
 21
1063.725177376736
 31
0.0
  0
CIRCLE
  5
4D3
330
1F
100
AcDbEntity
  8
0
100
AcDbCircle
 10
1018.188315717763
 20
1049.296796153498
 30
0.0
 40
22.27999999999997
  0
CIRCLE
  5
4D4
330
1F
100
AcDbEntity
  8
0
100
AcDbCircle
 10
1018.188315717763
 20
1049.296796153498
 30
0.0
 40
20.49999999999998
  0
DIMENSION
  5
4D5
330
1F
100
AcDbEntity
  8
DIM
100
AcDbDimension
  2
*D4
 10
1120.760314622686
 20
999.7906395237899
 30
0.0
 11
1097.760314622686
 21
999.7906395237899
 31
0.0
 70
   160
 71
     5
 42
45.99999999999909
  3
ISO-25C
100
AcDbAlignedDimension
 13
1074.760314622687
 23
985.6941034658492
 33
0.0
 14
1120.760314622686
 24
985.6941034658486
 34
0.0
100
AcDbRotatedDimension
  0
DIMENSION
  5
4D6
330
1F
100
AcDbEntity
  8
DIM
100
AcDbDimension
  2
*D5
 10
1065.930311303373
 20
1025.293391628229
 30
0.0
 11
1064.05506524038
 21
1037.295093890864
 31
0.0
 70
    32
 71
     5
 42
24.00340452526916
  3
ISO-25
100
AcDbAlignedDimension
 13
1061.94458509455
 23
1049.296796153498
 33
0.0
 14
1040.188315717765
 24
1025.293391628229
 34
0.0
 50
90.0
100
AcDbRotatedDimension
  0
DIMENSION
  5
4D7
330
1F
100
AcDbEntity
  8
DIM
100
AcDbDimension
  2
*D6
 10
1077.622652780035
 20
1017.795234885908
 30
0.0
 11
1075.747652780035
 21
1049.292935840336
 31
0.0
 70
    32
 71
     5
 42
62.99540190885455
  3
ISO-25
100
AcDbAlignedDimension
 13
1035.391576419551
 23
1080.790636794763
 33
0.0
 14
1035.354584980068
 24
1017.795234885908
 34
0.0
 50
90.0
100
AcDbRotatedDimension
  0
DIMENSION
  5
4D8
330
1F
100
AcDbEntity
  8
DIM
100
AcDbDimension
  2
*D7
 10
1018.188315717763
 20
1087.338108911489
 30
0.0
 11
1026.689144870123
 21
1089.213108911489
 31
0.0
 70
    32
 71
     5
 42
17.00165830471928
  3
ISO-25
100
AcDbAlignedDimension
 13
1035.189974022483
 23
1078.293391628229
 33
0.0
 14
1018.188315717763
 24
1081.293391628229
 34
0.0
100
AcDbRotatedDimension
  0
DIMENSION
  5
4D9
330
1F
100
AcDbEntity
  8
DIM
100
AcDbDimension
  2
*D8
 10
1018.188315717763
 20
1087.338108911489
 30
0.0
 11
1003.92857498395
 21
1087.338108911489
 31
0.0
 70
   160
 71
     5
 42
28.0000000000008
  3
ISO-25
100
AcDbAlignedDimension
 13
990.1883157177625
 23
1078.293391628229
 33
0.0
 14
1018.188315717763
 24
1081.762141628229
 34
0.0
100
AcDbRotatedDimension
  0
DIMENSION
  5
4DA
330
1F
100
AcDbEntity
  8
DIM
100
AcDbDimension
  2
*D9
 10
1018.188315717763
 20
1093.969612391695
 30
0.0
 11
1000.398081777444
 21
1093.969612391695
 31
0.0
 70
   160
 71
     5
 42
35.5000000000008
  3
ISO-25
100
AcDbAlignedDimension
 13
982.6883157177626
 23
1073.293391628229
 33
0.0
 14
1018.188315717763
 24
1085.773132747994
 34
0.0
100
AcDbRotatedDimension
  0
DIMENSION
  5
4DB
330
1F
100
AcDbEntity
  8
DIM
100
AcDbDimension
  2
*D10
 10
1042.688315717763
 20
1093.969612391695
 30
0.0
 11
1030.438315717763
 21
1096.032358454688
 31
0.0
 70
    32
 71
     5
 42
24.50000000000023
  3
ISO-25
100
AcDbAlignedDimension
 13
1018.188315717763
 23
1085.773132747994
 33
0.0
 14
1042.688315717763
 24
1073.293391628229
 34
0.0
100
AcDbRotatedDimension
  0
LEADER
  5
4DC
330
1F
100
AcDbEntity
  8
DIM
100
AcDbLeader
  3
ISO-25
 73
     0
 74
     0
 75
     1
 76
     3
 10
1040.595508970982
 20
1078.490191325214
 30
0.0
 10
1045.724387007547
 20
1085.062731672849
 30
0.0
 10
1048.224387007547
 20
1085.062731672849
 30
0.0
213
0.0
223
-1.199999999999999
233
0.0
1001
ACAD
1000
DSTYLE
1002
{
1070
   147
1040
0.625
1070
    77
1070
     0
1002
}
  0
MTEXT
  5
4DD
102
{ACAD_REACTORS
330
4DC
102
}
330
1F
100
AcDbEntity
  8
DIM
100
AcDbMText
 10
1048.63781214246
 20
1086.456396546269
 30
0.0
 40
2.399999999999999
 41
0.0
 71
     1
 72
     1
  1
R7.5x4PLS
 73
     1
 44
1.0
1001
ACAD
1000
MTEXTBEGIN
1070
    73
1070
     1
1070
    44
1040
1.0
1070
    74
1070
     0
1000
MTEXTEND
  0
LINE
  5
4DE
330
1F
100
AcDbEntity
  8
0
100
AcDbLine
 10
1082.760314622687
 20
982.2133413523163
 30
0.0
 11
1082.760314622687
 21
985.6941034658492
 31
0.0
  0
LINE
  5
4DF
330
1F
100
AcDbEntity
  8
0
100
AcDbLine
 10
1112.760314622687
 20
982.213341352314
 30
0.0
 11
1112.760314622687
 21
985.6941034658468
 31
0.0
  0
LINE
  5
4E0
330
1F
100
AcDbEntity
  8
0
100
AcDbLine
 10
1029.188315717763
 20
1056.751952364005
 30
0.0
 11
1029.188315717763
 21
1041.841639942992
 31
0.0
  0
LINE
  5
4E1
330
1F
100
AcDbEntity
  8
0
100
AcDbLine
 10
1029.188315717763
 20
1056.751952364005
 30
0.0
 11
1035.664603821275
 21
1056.751952364005
 31
0.0
  0
LINE
  5
4E2
330
1F
100
AcDbEntity
  8
0
100
AcDbLine
 10
1029.188315717763
 20
1041.841639942992
 30
0.0
 11
1035.664603821275
 21
1041.841639942992
 31
0.0
  0
ARC
  5
4E3
330
1F
100
AcDbEntity
  8
0
100
AcDbCircle
 10
1100.471486129473
 20
986.9492642443844
 30
0.0
 40
25.74179031907796
100
AcDbArc
 50
182.7948305610732
 51
212.0369886061581
  0
ARC
  5
4E4
330
1F
100
AcDbEntity
  8
0
100
AcDbCircle
 10
1095.049143115919
 20
986.9492642443793
 30
0.0
 40
25.74179031905781
100
AcDbArc
 50
327.9630113938218
 51
357.2051694389333
  0
ARC
  5
4E5
330
1F
100
AcDbEntity
  8
0
100
AcDbCircle
 10
1018.188315717763
 20
966.6991034658485
 30
0.0
 40
6.0
100
AcDbArc
 50
180.0
 51
0.0
  0
LINE
  5
4E6
330
1F
100
AcDbEntity
  8
CENTER25
100
AcDbLine
 10
966.6061348136144
 20
974.1991034658495
 30
0.0
 11
1061.598697187533
 21
974.1991034658495
 31
0.0
  0
LINE
  5
4E7
330
1F
100
AcDbEntity
  8
0
100
AcDbLine
 10
1041.188315717763
 20
985.599103465849
 30
0.0
 11
981.6883157177626
 21
985.599103465849
 31
0.0
  0
ARC
  5
4E8
330
1F
100
AcDbEntity
  8
0
100
AcDbCircle
 10
981.6883157177626
 20
987.0991034658491
 30
0.0
 40
1.5
100
AcDbArc
 50
180.0
 51
270.0
  0
LINE
  5
4E9
330
1F
100
AcDbEntity
  8
0
100
AcDbLine
 10
994.1883157177626
 20
959.1991034658496
 30
0.0
 11
1025.688315717762
 21
959.1991034658496
 31
0.0
  0
LINE
  5
4EA
330
1F
100
AcDbEntity
  8
0
100
AcDbLine
 10
980.9522477402623
 20
993.1991034658484
 30
0.0
 11
1041.924383695263
 21
993.1991034658492
 31
0.0
  0
ARC
  5
4EB
330
1F
100
AcDbEntity
  8
0
100
AcDbCircle
 10
983.1883157177625
 20
991.1991034658486
 30
0.0
 40
3.0
100
AcDbArc
 50
138.1896851042249
 51
180.0
  0
POINT
  5
4EC
330
1F
100
AcDbEntity
  8
Defpoints
  6
ByBlock
 62
     0
100
AcDbPoint
 10
994.1883157177626
 20
977.699103465849
 30
0.0
  0
LINE
  5
4ED
330
1F
100
AcDbEntity
  8
0
100
AcDbLine
 10
1012.188315717762
 20
966.6991034658485
 30
0.0
 11
1012.188315717761
 21
980.360849734685
 31
0.0
  0
LINE
  5
4EE
330
1F
100
AcDbEntity
  8
0
100
AcDbLine
 10
973.1883157177634
 20
974.1991034658495
 30
0.0
 11
992.1960569620194
 21
974.1991034658495
 31
0.0
  0
ARC
  5
4EF
330
1F
100
AcDbEntity
  8
0
100
AcDbCircle
 10
990.3248711108279
 20
965.6991034658492
 30
0.0
 40
19.12881414880649
100
AcDbArc
 50
153.6178679739076
 51
206.3821320260865
  0
ARC
  5
4F0
330
1F
100
AcDbEntity
  8
0
100
AcDbCircle
 10
990.3248711108471
 20
982.6991034658515
 30
0.0
 40
19.12881414882513
100
AcDbArc
 50
153.6178679739572
 51
206.3821320260428
  0
LINE
  5
4F1
330
1F
100
AcDbEntity
  8
0
100
AcDbLine
 10
994.1883157177626
 20
985.599103465849
 30
0.0
 11
994.1883157177615
 21
959.1913622215576
 31
0.0
  0
LINE
  5
4F2
330
1F
100
AcDbEntity
  8
0
100
AcDbLine
 10
980.1883157177625
 20
991.1991034658486
 30
0.0
 11
980.1883157177625
 21
987.0991034658491
 31
0.0
  0
LINE
  5
4F3
330
1F
100
AcDbEntity
  8
0
100
AcDbLine
 10
980.1883157177616
 20
991.1991034658495
 30
0.0
 11
973.1883157177607
 21
991.1991034658495
 31
0.0
  0
LINE
  5
4F4
330
1F
100
AcDbEntity
  8
0
100
AcDbLine
 10
971.1883157177625
 20
989.1991034658497
 30
0.0
 11
971.1883157177625
 21
959.1991034659965
 31
0.0
  0
LINE
  5
4F5
330
1F
100
AcDbEntity
  8
0
100
AcDbLine
 10
973.1883157177634
 20
957.1991034658495
 30
0.0
 11
992.1960569620203
 21
957.1991034658495
 31
0.0
  0
LINE
  5
4F6
330
1F
100
AcDbEntity
  8
0
100
AcDbLine
 10
984.9861908994361
 20
981.9759739353484
 30
0.0
 11
984.9861908994361
 21
978.3759739353481
 31
0.0
  0
LINE
  5
4F7
330
1F
100
AcDbEntity
  8
0
100
AcDbLine
 10
980.6277146266046
 20
981.9759739353484
 30
0.0
 11
984.9861908994361
 21
981.9759739353484
 31
0.0
  0
LINE
  5
4F8
330
1F
100
AcDbEntity
  8
0
100
AcDbLine
 10
980.6277146266046
 20
978.3759739353481
 30
0.0
 11
984.9861908994361
 21
978.3759739353481
 31
0.0
  0
LINE
  5
4F9
330
1F
100
AcDbEntity
  8
0
100
AcDbLine
 10
980.6277146266046
 20
983.7759739353487
 30
0.0
 11
980.6277146266046
 21
981.9759739353484
 31
0.0
  0
LINE
  5
4FA
330
1F
100
AcDbEntity
  8
0
100
AcDbLine
 10
977.9277146266039
 20
980.1759739353483
 30
0.0
 11
980.6277146266046
 21
983.7759739353487
 31
0.0
  0
LINE
  5
4FB
330
1F
100
AcDbEntity
  8
0
100
AcDbLine
 10
977.9277146266039
 20
980.1759739353483
 30
0.0
 11
980.6277146266046
 21
976.5759739353484
 31
0.0
  0
LINE
  5
4FC
330
1F
100
AcDbEntity
  8
0
100
AcDbLine
 10
980.6277146266046
 20
978.3759739353481
 30
0.0
 11
980.6277146266046
 21
976.5759739353484
 31
0.0
  0
POINT
  5
4FD
330
1F
100
AcDbEntity
  8
Defpoints
  6
ByBlock
 62
     0
100
AcDbPoint
 10
1055.188315717763
 20
958.1991034658495
 30
0.0
  0
LINE
  5
4FE
330
1F
100
AcDbEntity
  8
0
100
AcDbLine
 10
1024.188315717763
 20
966.6991034658485
 30
0.0
 11
1024.188315717763
 21
975.1518028362553
 31
0.0
  0
LINE
  5
4FF
330
1F
100
AcDbEntity
  8
0
100
AcDbLine
 10
1038.680574473506
 20
974.1991034658495
 30
0.0
 11
1053.192579411836
 21
974.1991034658893
 31
0.0
  0
LINE
  5
500
330
1F
100
AcDbEntity
  8
0
100
AcDbLine
 10
1055.188315717763
 20
989.2033671599021
 30
0.0
 11
1055.188315717763
 21
959.1948397719447
 31
0.0
  0
LINE
  5
501
330
1F
100
AcDbEntity
  8
0
100
AcDbLine
 10
1042.688315717763
 20
991.1991034658495
 30
0.0
 11
1042.688315717763
 21
987.0991034658491
 31
0.0
  0
ARC
  5
502
330
1F
100
AcDbEntity
  8
0
100
AcDbCircle
 10
1039.688315717763
 20
991.1991034658495
 30
0.0
 40
3.0
100
AcDbArc
 50
0.0
 51
41.81031489577503
  0
ARC
  5
503
330
1F
100
AcDbEntity
  8
0
100
AcDbCircle
 10
1041.188315717763
 20
987.0991034658491
 30
0.0
 40
1.5
100
AcDbArc
 50
270.0
 51
0.0
  0
LINE
  5
504
330
1F
100
AcDbEntity
  8
0
100
AcDbLine
 10
1036.688315717763
 20
985.599103465849
 30
0.0
 11
1036.688315717762
 21
959.1913622215612
 31
0.0
  0
LINE
  5
505
330
1F
100
AcDbEntity
  8
0
100
AcDbLine
 10
1053.192579411818
 20
991.1991034658493
 30
0.0
 11
1042.688315717763
 21
991.1991034658495
 31
0.0
  0
LINE
  5
506
330
1F
100
AcDbEntity
  8
0
100
AcDbLine
 10
1037.847574909079
 20
957.1991034658495
 30
0.0
 11
1053.192579411815
 21
957.1991034658493
 31
0.0
  0
LINE
  5
507
330
1F
100
AcDbEntity
  8
0
100
AcDbLine
 10
1034.691807750461
 20
985.599103465849
 30
0.0
 11
1034.691807750461
 21
978.1991034658499
 31
0.0
  0
ARC
  5
508
330
1F
100
AcDbEntity
  8
0
100
AcDbCircle
 10
1029.691807750463
 20
978.1991034658499
 30
0.0
 40
5.0
100
AcDbArc
 50
250.7099537808282
 51
0.0
  0
LINE
  5
509
330
1F
100
AcDbEntity
  8
0
100
AcDbLine
 10
1004.691807750461
 20
985.599103465849
 30
0.0
 11
1004.691807750461
 21
985.5804312151981
 31
0.0
  0
LINE
  5
50A
330
1F
100
AcDbEntity
  8
0
100
AcDbLine
 10
1006.385379579584
 20
982.8798302757142
 30
0.0
 11
1028.040055626821
 21
973.4798116840197
 31
0.0
  0
ARC
  5
50B
330
1F
100
AcDbEntity
  8
0
100
AcDbCircle
 10
1007.691807750461
 20
985.5804312151972
 30
0.0
 40
3.0
100
AcDbArc
 50
179.999999999987
 51
244.1844100116036
  0
LINE
  5
50C
330
1F
100
AcDbEntity
  8
0
100
AcDbLine
 10
1037.847574909077
 20
957.1991034658495
 30
0.0
 11
1025.688315717763
 21
957.1991034658495
 31
0.0
  0
LINE
  5
50D
330
1F
100
AcDbEntity
  8
0
100
AcDbLine
 10
1025.688315717763
 20
957.1991034658495
 30
0.0
 11
1025.688315717762
 21
959.1991034658494
 31
0.0
  0
DIMENSION
  5
50F
330
1F
100
AcDbEntity
  8
DIM
100
AcDbDimension
  2
*D11
 10
962.5077412183763
 20
974.1991034658495
 30
0.0
 11
960.6327412183761
 21
983.699103465849
 31
0.0
 70
    32
 71
     5
 42
18.99999999999886
  3
ISO-25
100
AcDbAlignedDimension
 13
980.9522477402623
 23
993.1991034658484
 33
0.0
 14
966.6061348136144
 24
974.1991034658495
 34
0.0
 50
90.0
100
AcDbRotatedDimension
  0
ARC
  5
510
330
1F
100
AcDbEntity
  8
0
100
AcDbCircle
 10
976.2851781094113
 20
1061.419620176589
 30
0.0
 40
5.088500279726558
100
AcDbArc
 50
127.4883584606575
 51
232.5116415388174
  0
LINE
  5
511
330
1F
100
AcDbEntity
  8
0
100
AcDbLine
 10
971.1883157177634
 20
1063.725177376736
 30
0.0
 11
971.1883157177625
 21
1034.878414930261
 31
0.0
  0
ARC
  5
512
330
1F
100
AcDbEntity
  8
0
100
AcDbCircle
 10
988.5539593217208
 20
1049.296796153532
 30
0.0
 40
17.36299862869798
100
AcDbArc
 50
152.2471969394313
 51
207.7528030608105
  0
LINE
  5
513
330
1F
100
AcDbEntity
  8
0
100
AcDbLine
 10
973.1883157177607
 20
1033.136364122692
 30
0.0
 11
971.1883157177625
 21
1034.868414930261
 31
0.0
  0
ARC
  5
514
330
1F
100
AcDbEntity
  8
0
100
AcDbCircle
 10
976.2851781093857
 20
1037.173972130393
 30
0.0
 40
5.088500279701787
100
AcDbArc
 50
127.4883584605741
 51
232.5116415394258
  0
LINE
  5
515
330
1F
100
AcDbEntity
  8
0
100
AcDbLine
 10
973.1883157177625
 20
1065.457228184305
 30
0.0
 11
971.1883157177634
 21
1063.725177376736
 31
0.0
  0
CIRCLE
  5
516
330
1F
100
AcDbEntity
  8
DIM
100
AcDbCircle
 10
1097.760314622686
 20
974.1941034658491
 30
0.0
 40
13.0
  0
CIRCLE
  5
517
330
1F
100
AcDbEntity
  8
0
100
AcDbCircle
 10
1097.760314622687
 20
974.1941034658484
 30
0.0
 40
11.0
  0
DIMENSION
  5
518
330
1F
100
AcDbEntity
  8
DIM
100
AcDbDimension
  2
*D12
 10
1055.188315717763
 20
946.2158453046301
 30
0.0
 11
1013.188315717763
 21
948.09084530463
 31
0.0
 70
    32
 71
     5
 42
84.00000000000103
  3
ISO-25
100
AcDbAlignedDimension
 13
971.1883157177625
 23
959.1991034659965
 33
0.0
 14
1055.188315717763
 24
959.1948397719475
 34
0.0
100
AcDbRotatedDimension
  0
LINE
  5
519
330
1F
100
AcDbEntity
  8
0
100
AcDbLine
 10
971.1883157177625
 20
989.1991034658499
 30
0.0
 11
973.1883157177625
 21
991.1991034658495
 31
0.0
  0
LINE
  5
51A
330
1F
100
AcDbEntity
  8
0
100
AcDbLine
 10
971.1883157178879
 20
959.1991034658706
 30
0.0
 11
973.1883157179053
 21
957.1991034658879
 31
0.0
  0
ARC
  5
51B
330
1F
100
AcDbEntity
  8
0
100
AcDbCircle
 10
975.0595015689549
 20
965.6991034658492
 30
0.0
 40
19.12881414880649
100
AcDbArc
 50
333.6178679739077
 51
26.38213202609234
  0
ARC
  5
51C
330
1F
100
AcDbEntity
  8
0
100
AcDbCircle
 10
975.0595015689368
 20
982.6991034658515
 30
0.0
 40
19.12881414882513
100
AcDbArc
 50
333.6178679739572
 51
8.719877791327093
  0
LINE
  5
51D
330
1F
100
AcDbEntity
  8
0
100
AcDbLine
 10
994.1883157177615
 20
959.1913622215566
 30
0.0
 11
992.1960569620614
 21
957.1991034658896
 31
0.0
  0
ARC
  5
51E
330
1F
100
AcDbEntity
  8
0
100
AcDbCircle
 10
1036.05602401875
 20
965.6991034658492
 30
0.0
 40
19.12881414880649
100
AcDbArc
 50
333.6178679739077
 51
26.38213202609234
  0
ARC
  5
51F
330
1F
100
AcDbEntity
  8
0
100
AcDbCircle
 10
1036.056024018731
 20
982.6991034658515
 30
0.0
 40
19.12881414882513
100
AcDbArc
 50
333.6178679739222
 51
26.38213202607778
  0
LINE
  5
520
330
1F
100
AcDbEntity
  8
0
100
AcDbLine
 10
1055.192579411816
 20
989.1991034658499
 30
0.0
 11
1053.192579411816
 21
991.1991034658495
 31
0.0
  0
LINE
  5
521
330
1F
100
AcDbEntity
  8
0
100
AcDbLine
 10
1055.188315717763
 20
959.1948397719445
 30
0.0
 11
1053.192579411673
 21
957.1991034658879
 31
0.0
  0
ARC
  5
522
330
1F
100
AcDbEntity
  8
0
100
AcDbCircle
 10
1055.817129866571
 20
965.6991034658515
 30
0.0
 40
19.12881414880649
100
AcDbArc
 50
153.6178679738989
 51
206.3821320261011
  0
ARC
  5
523
330
1F
100
AcDbEntity
  8
0
100
AcDbCircle
 10
1055.81712986659
 20
982.6991034658538
 30
0.0
 40
19.12881414882513
100
AcDbArc
 50
171.2801222086803
 51
206.3821320260778
  0
LINE
  5
524
330
1F
100
AcDbEntity
  8
0
100
AcDbLine
 10
1036.688315717762
 20
959.1913622215622
 30
0.0
 11
1038.680574473466
 21
957.199103465891
 31
0.0
  0
LINE
  5
525
330
1F
100
AcDbEntity
  8
CENTER25
100
AcDbLine
 10
1018.188315717763
 20
954.5563074981549
 30
0.0
 11
1018.188315717763
 21
996.2714344306453
 31
0.0
  0
TEXT
  5
526
330
1F
100
AcDbEntity
  8
DIM
100
AcDbText
 10
1171.751029239289
 20
977.608173595374
 30
0.0
 40
6.0
  1
\U+00BE
  7
TNR
100
AcDbText
  0
LINE
  5
527
330
1F
100
AcDbEntity
  8
0
100
AcDbLine
 10
1109.88467027567
 20
987.194103465849
 30
0.0
 11
1129.260314622687
 21
987.194103465849
 31
0.0
  0
LINE
  5
528
330
1F
100
AcDbEntity
  8
0
100
AcDbLine
 10
1066.260314622687
 20
991.2941034658491
 30
0.0
 11
1129.260314622687
 21
991.2941034658492
 31
0.0
  0
LINE
  5
529
330
1F
100
AcDbEntity
  8
0
100
AcDbLine
 10
1066.260314622687
 20
987.194103465849
 30
0.0
 11
1085.635958969703
 21
987.194103465849
 31
0.0
  0
LINE
  5
52A
330
1F
100
AcDbEntity
  8
0
100
AcDbLine
 10
980.1883157177625
 20
991.1991034658486
 30
0.0
 11
1042.688315717763
 21
991.1991034658495
 31
0.0
  0
LINE
  5
52B
330
1F
100
AcDbEntity
  8
0
100
AcDbLine
 10
980.1883157177625
 20
987.0991034658491
 30
0.0
 11
1042.688315717763
 21
987.0991034658491
 31
0.0
  0
LINE
  5
52C
330
1F
100
AcDbEntity
  8
CENTER05
100
AcDbLine
 10
1035.189974022483
 20
1068.293391628229
 30
0.0
 11
1035.189974022483
 21
1078.293391628229
 31
0.0
  0
LINE
  5
52D
330
1F
100
AcDbEntity
  8
CENTER05
100
AcDbLine
 10
1040.189974022483
 20
1073.293391628229
 30
0.0
 11
1030.189974022483
 21
1073.293391628229
 31
0.0
  0
LINE
  5
52E
330
1F
100
AcDbEntity
  8
CENTER05
100
AcDbLine
 10
990.1883157177643
 20
1020.293391628229
 30
0.0
 11
990.1883157177643
 21
1030.293391628229
 31
0.0
  0
LINE
  5
52F
330
1F
100
AcDbEntity
  8
CENTER05
100
AcDbLine
 10
995.1883157177652
 20
1025.293391628229
 30
0.0
 11
985.1883157177653
 21
1025.293391628229
 31
0.0
  0
LINE
  5
530
330
1F
100
AcDbEntity
  8
CENTER05
100
AcDbLine
 10
1035.188315717764
 20
1020.293391628229
 30
0.0
 11
1035.188315717764
 21
1030.293391628229
 31
0.0
  0
LINE
  5
531
330
1F
100
AcDbEntity
  8
CENTER05
100
AcDbLine
 10
1040.188315717765
 20
1025.293391628229
 30
0.0
 11
1030.188315717765
 21
1025.293391628229
 31
0.0
  0
CIRCLE
  5
532
330
1F
100
AcDbEntity
  8
0
100
AcDbCircle
 10
990.1883157177634
 20
1049.293391628229
 30
0.0
 40
2.5
  0
CIRCLE
  5
533
330
1F
100
AcDbEntity
  8
0
100
AcDbCircle
 10
990.1883157177634
 20
1049.293391628229
 30
0.0
 40
3.500001655827166
  0
CIRCLE
  5
534
330
1F
100
AcDbEntity
  8
0
100
AcDbCircle
 10
990.1883157177634
 20
1049.293391628229
 30
0.0
 40
5.000001159079173
  0
LEADER
  5
535
330
1F
100
AcDbEntity
  8
DIM
100
AcDbLeader
  3
ISO-25
 73
     0
 75
     1
 76
     3
 10
991.0145655599084
 20
1022.409416732646
 30
0.0
 10
990.0683352457633
 20
1013.130732128263
 30
0.0
 10
987.5683352457633
 20
1013.130732128263
 30
0.0
213
0.0
223
1.199999999999999
233
0.0
1001
ACAD
1000
DSTYLE
1002
{
1070
   147
1040
0.625
1070
    77
1070
     0
1002
}
  0
MTEXT
  5
536
102
{ACAD_REACTORS
330
535
102
}
330
1F
100
AcDbEntity
  8
DIM
100
AcDbMText
 10
986.9433352457633
 20
1011.930732128263
 30
0.0
 40
2.399999999999999
 41
0.0
 71
     9
 72
     1
  1
M6xP1.0x4PLS THRU
 73
     1
 44
1.0
1001
ACAD
1000
MTEXTBEGIN
1070
    73
1070
     1
1070
    44
1040
1.0
1070
    74
1070
     0
1000
MTEXTEND
  0
LINE
  5
537
330
1F
100
AcDbEntity
  8
0
100
AcDbLine
 10
1086.762276323734
 20
974.4018378510046
 30
0.0
 11
1108.758352921639
 21
974.4018378510046
 31
0.0
  0
LINE
  5
538
330
1F
100
AcDbEntity
  8
CEN
100
AcDbLine
 10
990.1883157177634
 20
1055.989960422728
 30
0.0
 11
990.1883157177634
 21
1042.596822833731
 31
0.0
  0
LINE
  5
539
330
1F
100
AcDbEntity
  8
0
100
AcDbLine
 10
1025.688315717763
 20
957.1991034658495
 30
0.0
 11
1025.688315717763
 21
963.1991034658495
 31
0.0
  0
LINE
  5
53A
330
1F
100
AcDbEntity
  8
0
100
AcDbLine
 10
1025.688315717763
 20
963.1991034658495
 30
0.0
 11
1036.688315717762
 21
963.199103465849
 31
0.0
  0
ARC
  5
53B
330
1F
100
AcDbEntity
  8
0
100
AcDbCircle
 10
1182.763532824409
 20
966.6991034658485
 30
0.0
 40
6.0
100
AcDbArc
 50
180.0
 51
0.0
  0
LINE
  5
53C
330
1F
100
AcDbEntity
  8
CENTER25
100
AcDbLine
 10
1234.345713728559
 20
974.1991034658495
 30
0.0
 11
1139.353151354639
 21
974.1991034658495
 31
0.0
  0
LINE
  5
53D
330
1F
100
AcDbEntity
  8
0
100
AcDbLine
 10
1159.76353282441
 20
985.599103465849
 30
0.0
 11
1219.263532824411
 21
985.599103465849
 31
0.0
  0
ARC
  5
53E
330
1F
100
AcDbEntity
  8
0
100
AcDbCircle
 10
1219.263532824411
 20
987.0991034658491
 30
0.0
 40
1.5
100
AcDbArc
 50
270.0
 51
0.0
  0
LINE
  5
53F
330
1F
100
AcDbEntity
  8
0
100
AcDbLine
 10
1206.763532824411
 20
959.1991034658496
 30
0.0
 11
1175.16353282441
 21
959.1991034658496
 31
0.0
  0
LINE
  5
540
330
1F
100
AcDbEntity
  8
0
100
AcDbLine
 10
1219.999600801911
 20
993.1991034658484
 30
0.0
 11
1159.027464846909
 21
993.1991034658492
 31
0.0
  0
ARC
  5
541
330
1F
100
AcDbEntity
  8
0
100
AcDbCircle
 10
1217.763532824411
 20
991.1991034658486
 30
0.0
 40
3.0
100
AcDbArc
 50
0.0
 51
41.81031489577503
  0
POINT
  5
542
330
1F
100
AcDbEntity
  8
Defpoints
  6
ByBlock
 62
     0
100
AcDbPoint
 10
1206.763532824411
 20
977.699103465849
 30
0.0
 50
180.0
  0
LINE
  5
543
330
1F
100
AcDbEntity
  8
0
100
AcDbLine
 10
1188.763532824411
 20
966.6991034658485
 30
0.0
 11
1188.763532824411
 21
980.360849734685
 31
0.0
  0
LINE
  5
544
330
1F
100
AcDbEntity
  8
0
100
AcDbLine
 10
1227.76353282441
 20
974.1991034658495
 30
0.0
 11
1208.755791580154
 21
974.1991034658495
 31
0.0
  0
ARC
  5
545
330
1F
100
AcDbEntity
  8
0
100
AcDbCircle
 10
1210.626977431345
 20
965.6991034658492
 30
0.0
 40
19.12881414880649
100
AcDbArc
 50
333.6178679739077
 51
26.38213202609234
  0
ARC
  5
546
330
1F
100
AcDbEntity
  8
0
100
AcDbCircle
 10
1210.626977431326
 20
982.6991034658515
 30
0.0
 40
19.12881414882513
100
AcDbArc
 50
333.6178679739572
 51
26.38213202604281
  0
LINE
  5
547
330
1F
100
AcDbEntity
  8
0
100
AcDbLine
 10
1206.763532824411
 20
985.599103465849
 30
0.0
 11
1206.763532824412
 21
959.1913622215576
 31
0.0
  0
LINE
  5
548
330
1F
100
AcDbEntity
  8
0
100
AcDbLine
 10
1220.763532824411
 20
991.1991034658486
 30
0.0
 11
1220.763532824411
 21
987.0991034658491
 31
0.0
  0
LINE
  5
549
330
1F
100
AcDbEntity
  8
0
100
AcDbLine
 10
1220.763532824411
 20
991.1991034658495
 30
0.0
 11
1227.763532824413
 21
991.1991034658495
 31
0.0
  0
LINE
  5
54A
330
1F
100
AcDbEntity
  8
0
100
AcDbLine
 10
1229.76353282441
 20
989.1991034658497
 30
0.0
 11
1229.76353282441
 21
959.1991034659965
 31
0.0
  0
LINE
  5
54B
330
1F
100
AcDbEntity
  8
0
100
AcDbLine
 10
1227.76353282441
 20
957.1991034658495
 30
0.0
 11
1208.755791580153
 21
957.1991034658495
 31
0.0
  0
LINE
  5
54C
330
1F
100
AcDbEntity
  8
0
100
AcDbLine
 10
1215.965657642737
 20
981.9759739353484
 30
0.0
 11
1215.965657642737
 21
978.3759739353481
 31
0.0
  0
LINE
  5
54D
330
1F
100
AcDbEntity
  8
0
100
AcDbLine
 10
1220.324133915569
 20
981.9759739353484
 30
0.0
 11
1215.965657642737
 21
981.9759739353484
 31
0.0
  0
LINE
  5
54E
330
1F
100
AcDbEntity
  8
0
100
AcDbLine
 10
1220.324133915569
 20
978.3759739353481
 30
0.0
 11
1215.965657642737
 21
978.3759739353481
 31
0.0
  0
LINE
  5
54F
330
1F
100
AcDbEntity
  8
0
100
AcDbLine
 10
1220.324133915569
 20
983.7759739353487
 30
0.0
 11
1220.324133915569
 21
981.9759739353484
 31
0.0
  0
LINE
  5
550
330
1F
100
AcDbEntity
  8
0
100
AcDbLine
 10
1223.02413391557
 20
980.1759739353483
 30
0.0
 11
1220.324133915569
 21
983.7759739353487
 31
0.0
  0
LINE
  5
551
330
1F
100
AcDbEntity
  8
0
100
AcDbLine
 10
1223.02413391557
 20
980.1759739353483
 30
0.0
 11
1220.324133915569
 21
976.5759739353484
 31
0.0
  0
LINE
  5
552
330
1F
100
AcDbEntity
  8
0
100
AcDbLine
 10
1220.324133915569
 20
978.3759739353481
 30
0.0
 11
1220.324133915569
 21
976.5759739353484
 31
0.0
  0
POINT
  5
553
330
1F
100
AcDbEntity
  8
Defpoints
  6
ByBlock
 62
     0
100
AcDbPoint
 10
1145.76353282441
 20
958.1991034658495
 30
0.0
 50
180.0
  0
LINE
  5
554
330
1F
100
AcDbEntity
  8
0
100
AcDbLine
 10
1176.76353282441
 20
966.6991034658485
 30
0.0
 11
1176.76353282441
 21
975.1518028362553
 31
0.0
  0
LINE
  5
555
330
1F
100
AcDbEntity
  8
0
100
AcDbLine
 10
1162.271274068667
 20
974.1991034658495
 30
0.0
 11
1147.759269130337
 21
974.1991034658893
 31
0.0
  0
LINE
  5
556
330
1F
100
AcDbEntity
  8
0
100
AcDbLine
 10
1145.76353282441
 20
989.2033671599021
 30
0.0
 11
1145.76353282441
 21
959.1948397719447
 31
0.0
  0
LINE
  5
557
330
1F
100
AcDbEntity
  8
0
100
AcDbLine
 10
1158.26353282441
 20
991.1991034658495
 30
0.0
 11
1158.26353282441
 21
987.0991034658491
 31
0.0
  0
ARC
  5
558
330
1F
100
AcDbEntity
  8
0
100
AcDbCircle
 10
1161.26353282441
 20
991.1991034658495
 30
0.0
 40
3.0
100
AcDbArc
 50
138.1896851042249
 51
180.0
  0
ARC
  5
559
330
1F
100
AcDbEntity
  8
0
100
AcDbCircle
 10
1159.76353282441
 20
987.0991034658491
 30
0.0
 40
1.5
100
AcDbArc
 50
180.0
 51
270.0
  0
LINE
  5
55A
330
1F
100
AcDbEntity
  8
0
100
AcDbLine
 10
1164.26353282441
 20
985.599103465849
 30
0.0
 11
1164.263532824411
 21
959.1913622215612
 31
0.0
  0
LINE
  5
55B
330
1F
100
AcDbEntity
  8
0
100
AcDbLine
 10
1147.759269130355
 20
991.1991034658493
 30
0.0
 11
1158.26353282441
 21
991.1991034658495
 31
0.0
  0
LINE
  5
55C
330
1F
100
AcDbEntity
  8
0
100
AcDbLine
 10
1163.104273633094
 20
957.1991034658495
 30
0.0
 11
1147.759269130358
 21
957.1991034658493
 31
0.0
  0
LINE
  5
55D
330
1F
100
AcDbEntity
  8
0
100
AcDbLine
 10
1166.260040791712
 20
985.599103465849
 30
0.0
 11
1166.260040791712
 21
978.1991034658499
 31
0.0
  0
ARC
  5
55E
330
1F
100
AcDbEntity
  8
0
100
AcDbCircle
 10
1171.26004079171
 20
978.1991034658499
 30
0.0
 40
5.0
100
AcDbArc
 50
180.0
 51
289.2900462191718
  0
LINE
  5
55F
330
1F
100
AcDbEntity
  8
0
100
AcDbLine
 10
1196.260040791712
 20
985.599103465849
 30
0.0
 11
1196.260040791712
 21
985.5804312151981
 31
0.0
  0
LINE
  5
560
330
1F
100
AcDbEntity
  8
0
100
AcDbLine
 10
1194.566468962589
 20
982.8798302757142
 30
0.0
 11
1172.911792915352
 21
973.4798116840197
 31
0.0
  0
ARC
  5
561
330
1F
100
AcDbEntity
  8
0
100
AcDbCircle
 10
1193.260040791712
 20
985.5804312151972
 30
0.0
 40
3.0
100
AcDbArc
 50
295.8155899883964
 51
0.0000000000130276
  0
LINE
  5
562
330
1F
100
AcDbEntity
  8
0
100
AcDbLine
 10
1163.104273633096
 20
957.1991034658495
 30
0.0
 11
1175.16353282441
 21
957.1991034658495
 31
0.0
  0
LINE
  5
563
330
1F
100
AcDbEntity
  8
0
100
AcDbLine
 10
1175.16353282441
 20
957.1991034658495
 30
0.0
 11
1175.16353282441
 21
959.1991034658494
 31
0.0
  0
LINE
  5
564
330
1F
100
AcDbEntity
  8
CENTER05
100
AcDbLine
 10
1196.467421029724
 20
983.699103465849
 30
0.0
 11
1193.876936155389
 21
983.699103465849
 31
0.0
  0
LINE
  5
565
330
1F
100
AcDbEntity
  8
0
100
AcDbLine
 10
1229.76353282441
 20
989.1991034658499
 30
0.0
 11
1227.76353282441
 21
991.1991034658495
 31
0.0
  0
LINE
  5
566
330
1F
100
AcDbEntity
  8
0
100
AcDbLine
 10
1229.763532824285
 20
959.1991034658706
 30
0.0
 11
1227.763532824268
 21
957.1991034658879
 31
0.0
  0
ARC
  5
567
330
1F
100
AcDbEntity
  8
0
100
AcDbCircle
 10
1225.892346973218
 20
965.6991034658492
 30
0.0
 40
19.12881414880649
100
AcDbArc
 50
153.6178679738989
 51
206.3821320260923
  0
ARC
  5
568
330
1F
100
AcDbEntity
  8
0
100
AcDbCircle
 10
1225.892346973237
 20
982.6991034658515
 30
0.0
 40
19.12881414882513
100
AcDbArc
 50
171.2801222086665
 51
206.3821320260428
  0
LINE
  5
569
330
1F
100
AcDbEntity
  8
0
100
AcDbLine
 10
1206.763532824412
 20
959.1913622215566
 30
0.0
 11
1208.755791580112
 21
957.1991034658896
 31
0.0
  0
ARC
  5
56A
330
1F
100
AcDbEntity
  8
0
100
AcDbCircle
 10
1164.895824523423
 20
965.6991034658492
 30
0.0
 40
19.12881414880649
100
AcDbArc
 50
153.6178679738989
 51
206.3821320260923
  0
ARC
  5
56B
330
1F
100
AcDbEntity
  8
0
100
AcDbCircle
 10
1164.895824523442
 20
982.6991034658515
 30
0.0
 40
19.12881414882513
100
AcDbArc
 50
153.6178679739135
 51
206.3821320260778
  0
LINE
  5
56C
330
1F
100
AcDbEntity
  8
0
100
AcDbLine
 10
1145.759269130357
 20
989.1991034658499
 30
0.0
 11
1147.759269130357
 21
991.1991034658495
 31
0.0
  0
LINE
  5
56D
102
{ACAD_REACTORS
330
578
102
}
330
1F
100
AcDbEntity
  8
0
100
AcDbLine
 10
1145.76353282441
 20
959.1948397719445
 30
0.0
 11
1147.7592691305
 21
957.1991034658879
 31
0.0
  0
ARC
  5
56E
330
1F
100
AcDbEntity
  8
0
100
AcDbCircle
 10
1145.134718675601
 20
965.6991034658515
 30
0.0
 40
19.12881414880649
100
AcDbArc
 50
333.6178679738989
 51
26.38213202610107
  0
ARC
  5
56F
330
1F
100
AcDbEntity
  8
0
100
AcDbCircle
 10
1145.134718675583
 20
982.6991034658538
 30
0.0
 40
19.12881414882513
100
AcDbArc
 50
333.617867973928
 51
8.719877791319666
  0
LINE
  5
570
330
1F
100
AcDbEntity
  8
0
100
AcDbLine
 10
1164.263532824411
 20
959.1913622215622
 30
0.0
 11
1162.271274068707
 21
957.199103465891
 31
0.0
  0
LINE
  5
571
330
1F
100
AcDbEntity
  8
CENTER25
100
AcDbLine
 10
1182.763532824409
 20
954.5563074981549
 30
0.0
 11
1182.763532824409
 21
996.2714344306453
 31
0.0
  0
LINE
  5
572
330
1F
100
AcDbEntity
  8
0
100
AcDbLine
 10
1220.763532824411
 20
991.1991034658486
 30
0.0
 11
1158.26353282441
 21
991.1991034658495
 31
0.0
  0
LINE
  5
573
330
1F
100
AcDbEntity
  8
0
100
AcDbLine
 10
1220.763532824411
 20
987.0991034658491
 30
0.0
 11
1158.26353282441
 21
987.0991034658491
 31
0.0
  0
LINE
  5
574
102
{ACAD_REACTORS
330
578
102
}
330
1F
100
AcDbEntity
  8
0
100
AcDbLine
 10
1175.16353282441
 20
957.1991034658495
 30
0.0
 11
1175.16353282441
 21
963.1991034658495
 31
0.0
  0
LINE
  5
575
102
{ACAD_REACTORS
330
57B
102
}
330
1F
100
AcDbEntity
  8
0
100
AcDbLine
 10
1175.16353282441
 20
963.1991034658495
 30
0.0
 11
1164.263532824411
 21
963.199103465849
 31
0.0
  0
DIMENSION
  5
576
102
{ACAD_XDICTIONARY
360
577
102
}
102
{ACAD_REACTORS
330
578
102
}
330
1F
100
AcDbEntity
  8
DIM
100
AcDbDimension
  2
*D13
 10
1145.76353282441
 20
946.2158453046301
 30
0.0
 11
1160.46353282441
 21
946.2158453046301
 31
0.0
 70
   160
 71
     5
 42
29.40000000000009
  3
ISO-25
100
AcDbAlignedDimension
 13
1175.16353282441
 23
957.1991034658495
 33
0.0
 14
1145.76353282441
 24
959.1948397719445
 34
0.0
100
AcDbRotatedDimension
  0
DIMENSION
  5
579
102
{ACAD_XDICTIONARY
360
57A
102
}
102
{ACAD_REACTORS
330
57B
102
}
330
1F
100
AcDbEntity
  8
DIM
100
AcDbDimension
  2
*D14
 10
1186.483470553044
 20
957.1991034658495
 30
0.0
 11
1186.483470553044
 21
947.5116034658494
 31
0.0
 70
   160
 71
     5
 42
6.0
  3
ISO-25
100
AcDbAlignedDimension
 13
1175.16353282441
 23
963.1991034658495
 33
0.0
 14
1175.16353282441
 24
957.1991034658495
 34
0.0
 50
90.0
100
AcDbRotatedDimension
  0
CIRCLE
  5
57C
330
1F
100
AcDbEntity
  8
DIM
100
AcDbCircle
 10
990.1883157177651
 20
1025.293391628229
 30
0.0
 40
3.0
  0
CIRCLE
  5
57D
330
1F
100
AcDbEntity
  8
0
100
AcDbCircle
 10
990.1883157177651
 20
1025.293391628229
 30
0.0
 40
2.5
  0
CIRCLE
  5
57E
330
1F
100
AcDbEntity
  8
DIM
100
AcDbCircle
 10
1035.188315717764
 20
1025.293391628229
 30
0.0
 40
3.0
  0
CIRCLE
  5
57F
330
1F
100
AcDbEntity
  8
0
100
AcDbCircle
 10
1035.188315717764
 20
1025.293391628229
 30
0.0
 40
2.5
  0
CIRCLE
  5
580
330
1F
100
AcDbEntity
  8
DIM
100
AcDbCircle
 10
1035.189974022483
 20
1073.293391628229
 30
0.0
 40
3.0
  0
CIRCLE
  5
581
330
1F
100
AcDbEntity
  8
0
100
AcDbCircle
 10
1035.189974022483
 20
1073.293391628229
 30
0.0
 40
2.5
  0
CIRCLE
  5
582
330
1F
100
AcDbEntity
  8
DIM
100
AcDbCircle
 10
990.1883157177625
 20
1073.293391628229
 30
0.0
 40
3.0
  0
CIRCLE
  5
583
330
1F
100
AcDbEntity
  8
0
100
AcDbCircle
 10
990.1883157177625
 20
1073.293391628229
 30
0.0
 40
2.5
  0
POINT
  5
584
330
1F
100
AcDbEntity
  8
0
 60
     1
100
AcDbPoint
 10
2957.657099339203
 20
297.7139954149121
 30
0.0
1001
GENIUS_GENOBJ-N-CRS_13
1002
{
1000
OWNER
1000
GEN
1002
}
1001
GENIUS_GENOLIS_13
1002
{
1000
ENT
1005
0
1005
0
1005
0
1005
488
1002
}
1001
GENIUS_GENOENT_13
1002
{
1000
MYREF
1005
584
1002
}
1002
{
1000
GRP
1005
0
1002
}
1001
GENIUS_GENODEF_13
1002
{
1000
HIER
1070
    10
1002
}
1002
{
1000
MANEDIT
1070
     1
1002
}
1002
{
1000
NOSEL
1070
     0
1002
}
1002
{
1000
BEHIND
1070
     0
1002
}
1002
{
1000
OTHER
1070
     0
1002
}
1002
{
1000
REACTOR
1002
}
  0
POINT
  5
585
330
1F
100
AcDbEntity
  8
0
 60
     1
100
AcDbPoint
 10
2946.332514116348
 20
306.5895818935484
 30
0.0
1001
GENIUS_GENOBJ-N-CRS_13
1002
{
1000
OWNER
1000
GEN
1002
}
1001
GENIUS_GENOLIS_13
1002
{
1000
ENT
1005
0
1005
0
1005
0
1005
487
1002
}
1001
GENIUS_GENOENT_13
1002
{
1000
MYREF
1005
585
1002
}
1002
{
1000
GRP
1005
0
1002
}
1001
GENIUS_GENODEF_13
1002
{
1000
HIER
1070
    10
1002
}
1002
{
1000
MANEDIT
1070
     1
1002
}
1002
{
1000
NOSEL
1070
     0
1002
}
1002
{
1000
BEHIND
1070
     0
1002
}
1002
{
1000
OTHER
1070
     0
1002
}
1002
{
1000
REACTOR
1002
}
  0
POINT
  5
586
330
1F
100
AcDbEntity
  8
0
 60
     1
100
AcDbPoint
 10
2952.691187814185
 20
297.7139954149121
 30
0.0
1001
GENIUS_GENOBJ-N-CRS_13
1002
{
1000
OWNER
1000
GEN
1002
}
1001
GENIUS_GENOLIS_13
1002
{
1000
ENT
1005
0
1005
0
1005
0
1005
486
1002
}
1001
GENIUS_GENOENT_13
1002
{
1000
MYREF
1005
586
1002
}
1002
{
1000
GRP
1005
0
1002
}
1001
GENIUS_GENODEF_13
1002
{
1000
HIER
1070
    10
1002
}
1002
{
1000
MANEDIT
1070
     1
1002
}
1002
{
1000
NOSEL
1070
     0
1002
}
1002
{
1000
BEHIND
1070
     0
1002
}
1002
{
1000
OTHER
1070
     0
1002
}
1002
{
1000
REACTOR
1002
}
  0
ENDSEC
  0
SECTION
  2
OBJECTS
  0
DICTIONARY
  5
C
330
0
100
AcDbDictionary
281
     1
  3
ACAD_COLOR
350
BE
  3
ACAD_GROUP
350
D
  3
ACAD_LAYOUT
350
1A
  3
ACAD_MATERIAL
350
BD
  3
ACAD_MLINESTYLE
350
17
  3
ACAD_PLOTSETTINGS
350
19
  3
ACAD_PLOTSTYLENAME
350
E
  3
ACAD_TABLESTYLE
350
11A
  3
ACDBHEADERROUNDTRIPXREC
350
801
  3
AcDbVariableDictionary
350
94
  3
AcmDictionary
350
5B
  3
AMG
350
41
  3
AMGSNAPSETTINGS
350
1B8
  3
DWGPROPS
350
800
  0
DICTIONARY
  5
2BC
330
2
100
AcDbDictionary
280
     1
281
     1
  3
ACAD_LAYERFILTERS
360
705
  3
ACAD_LAYERSTATES
360
2BD
  3
ACLYDICTIONARY
360
704
  0
DICTIONARY
  5
2A2
330
2A1
100
AcDbDictionary
280
     1
281
     1
  0
DICTIONARY
  5
2A4
330
2A3
100
AcDbDictionary
280
     1
281
     1
  0
DICTIONARY
  5
2AA
330
2A9
100
AcDbDictionary
280
     1
281
     1
  0
DICTIONARY
  5
2AC
330
2AB
100
AcDbDictionary
280
     1
281
     1
  0
DICTIONARY
  5
8F
330
1F
100
AcDbDictionary
280
     1
281
     1
  0
DICTIONARY
  5
577
330
576
100
AcDbDictionary
280
     1
281
     1
  3
ACAD_DIMASSOC
360
578
  0
DICTIONARY
  5
57A
330
579
100
AcDbDictionary
280
     1
281
     1
  3
ACAD_DIMASSOC
360
57B
  0
DICTIONARY
  5
BE
102
{ACAD_REACTORS
330
C
102
}
330
C
100
AcDbDictionary
281
     1
  0
DICTIONARY
  5
D
102
{ACAD_REACTORS
330
C
102
}
330
C
100
AcDbDictionary
281
     1
  0
DICTIONARY
  5
1A
102
{ACAD_REACTORS
330
C
102
}
330
C
100
AcDbDictionary
281
     1
  3
Model
350
22
  3
配置1
350
1E
  3
配置2
350
26
  0
DICTIONARY
  5
BD
102
{ACAD_REACTORS
330
C
102
}
330
C
100
AcDbDictionary
281
     1
  0
DICTIONARY
  5
17
102
{ACAD_REACTORS
330
C
102
}
330
C
100
AcDbDictionary
281
     1
  3
Standard
350
18
  0
DICTIONARY
  5
19
102
{ACAD_REACTORS
330
C
102
}
330
C
100
AcDbDictionary
281
     1
  0
ACDBDICTIONARYWDFLT
  5
E
102
{ACAD_REACTORS
330
C
102
}
330
C
100
AcDbDictionary
281
     1
  3
Normal
350
F
100
AcDbDictionaryWithDefault
340
F
  0
DICTIONARY
  5
11A
102
{ACAD_REACTORS
330
C
102
}
330
C
100
AcDbDictionary
281
     1
  3
Standard
350
11B
  0
DICTIONARY
  5
801
102
{ACAD_REACTORS
330
C
102
}
330
C
100
AcDbDictionary
281
     1
  0
DICTIONARY
  5
94
102
{ACAD_REACTORS
330
C
102
}
330
C
100
AcDbDictionary
281
     1
  3
CTABLESTYLE
350
138
  3
DIMASSOC
350
96
  3
INDEXCTL
350
95
  3
PROJECTNAME
350
776
  0
DICTIONARY
  5
5B
102
{ACAD_REACTORS
330
C
102
}
330
C
100
AcDbDictionary
281
     1
  3
AcmBOM
350
1B5
  3
AcmStdDictionary
350
61
  3
AMDTSECTSYM_ARROWCOLOR
350
123
  0
DICTIONARY
  5
41
102
{ACAD_REACTORS
330
C
102
}
330
C
100
AcDbDictionary
281
     1
  0
DICTIONARY
  5
1B8
102
{ACAD_REACTORS
330
C
102
}
330
C
100
AcDbDictionary
281
     1
  0
XRECORD
  5
800
102
{ACAD_REACTORS
330
C
102
}
330
C
100
AcDbXrecord
280
     1
  1
DWGPROPS COOKIE
  2

  3

  4

  6

  7

  8

  9

300
AmdtFileType=84
301
=
302
=
303
=
304
=
305
=
306
=
307
=
308
=
309
=
 40
0.0075678240740741
 41
2455812.590670926
 42
2455812.610036701
  1

 90
        1
  0
DICTIONARY
  5
705
102
{ACAD_REACTORS
330
2BC
102
}
330
2BC
100
AcDbDictionary
281
     1
  0
DICTIONARY
  5
2BD
102
{ACAD_REACTORS
330
2BC
102
}
330
2BC
100
AcDbDictionary
281
     1
  0
DICTIONARY
  5
704
102
{ACAD_REACTORS
330
2BC
102
}
330
2BC
100
AcDbDictionary
281
     1
1001
ACAD
1000
<All
  0
DIMASSOC
  5
578
102
{ACAD_REACTORS
330
577
102
}
330
577
100
AcDbDimAssoc
330
576
 90
        3
 70
     0
 71
     0
  1
AcDbOsnapPointRef
 72
    13
331
574
 73
     2
 91
        0
 40
0.0
 10
0.0
 20
0.0
 30
2.000000000000000E+50
 75
     0
  1
AcDbOsnapPointRef
 72
    13
331
56D
 73
     2
 91
        0
 40
0.0
 10
0.0
 20
0.0
 30
2.000000000000000E+50
 75
     0
  0
DIMASSOC
  5
57B
102
{ACAD_REACTORS
330
57A
102
}
330
57A
100
AcDbDimAssoc
330
579
 90
        1
 70
     0
 71
     0
  1
AcDbOsnapPointRef
 72
    13
331
575
 73
     2
 91
        0
 40
0.0
 10
0.0
 20
0.0
 30
2.000000000000000E+50
 75
     0
  0
LAYOUT
  5
22
102
{ACAD_XDICTIONARY
360
804
102
}
102
{ACAD_REACTORS
330
1A
102
}
330
1A
100
AcDbPlotSettings
  1

  2

  4

  6

 40
0.0
 41
0.0
 42
0.0
 43
0.0
 44
0.0
 45
0.0
 46
0.0
 47
0.0
 48
0.0
 49
0.0
140
0.0
141
0.0
142
1.0
143
1.0
 70
  1712
 72
     0
 73
     0
 74
     0
  7

 75
     0
147
1.0
148
0.0
149
0.0
100
AcDbLayout
  1
Model
 70
     1
 71
     0
 10
0.0
 20
0.0
 11
12.0
 21
9.0
 12
0.0
 22
0.0
 32
0.0
 14
0.0
 24
0.0
 34
0.0
 15
0.0
 25
0.0
 35
0.0
146
0.0
 13
0.0
 23
0.0
 33
0.0
 16
1.0
 26
0.0
 36
0.0
 17
0.0
 27
1.0
 37
0.0
 76
     0
330
1F
  0
LAYOUT
  5
1E
102
{ACAD_XDICTIONARY
360
802
102
}
102
{ACAD_REACTORS
330
1A
102
}
330
1A
100
AcDbPlotSettings
  1

  2

  4

  6

 40
0.0
 41
0.0
 42
0.0
 43
0.0
 44
0.0
 45
0.0
 46
0.0
 47
0.0
 48
0.0
 49
0.0
140
0.0
141
0.0
142
1.0
143
1.0
 70
   688
 72
     0
 73
     0
 74
     5
  7

 75
    16
147
1.0
148
0.0
149
0.0
100
AcDbLayout
  1
配置1
 70
     1
 71
     1
 10
0.0
 20
0.0
 11
420.0
 21
297.0
 12
0.0
 22
0.0
 32
0.0
 14
1.000000000000000E+20
 24
1.000000000000000E+20
 34
1.000000000000000E+20
 15
-1.000000000000000E+20
 25
-1.000000000000000E+20
 35
-1.000000000000000E+20
146
0.0
 13
0.0
 23
0.0
 33
0.0
 16
1.0
 26
0.0
 36
0.0
 17
0.0
 27
1.0
 37
0.0
 76
     0
330
1B
  0
LAYOUT
  5
26
102
{ACAD_XDICTIONARY
360
806
102
}
102
{ACAD_REACTORS
330
1A
102
}
330
1A
100
AcDbPlotSettings
  1

  2

  4

  6

 40
0.0
 41
0.0
 42
0.0
 43
0.0
 44
0.0
 45
0.0
 46
0.0
 47
0.0
 48
0.0
 49
0.0
140
0.0
141
0.0
142
1.0
143
1.0
 70
   688
 72
     0
 73
     0
 74
     5
  7

 75
    16
147
1.0
148
0.0
149
0.0
100
AcDbLayout
  1
配置2
 70
     1
 71
     2
 10
0.0
 20
0.0
 11
12.0
 21
9.0
 12
0.0
 22
0.0
 32
0.0
 14
0.0
 24
0.0
 34
0.0
 15
0.0
 25
0.0
 35
0.0
146
0.0
 13
0.0
 23
0.0
 33
0.0
 16
1.0
 26
0.0
 36
0.0
 17
0.0
 27
1.0
 37
0.0
 76
     0
330
23
  0
MLINESTYLE
  5
18
102
{ACAD_REACTORS
330
17
102
}
330
17
100
AcDbMlineStyle
  2
STANDARD
 70
     0
  3

 62
   256
 51
90.0
 52
90.0
 71
     2
 49
0.5
 62
   256
  6
BYLAYER
 49
-0.5
 62
   256
  6
BYLAYER
  0
ACDBPLACEHOLDER
  5
F
102
{ACAD_REACTORS
330
E
102
}
330
E
  0
TABLESTYLE
  5
11B
102
{ACAD_REACTORS
330
11A
102
}
330
11A
100
AcDbTableStyle
  3
Standard
 70
     0
 71
     0
 40
1.5
 41
1.5
280
     0
281
     0
  7
STANDARD
140
4.5
170
     2
 62
     0
 63
     7
283
     0
274
    -2
284
     1
 64
     0
275
    -2
285
     1
 65
     0
276
    -2
286
     1
 66
     0
277
    -2
287
     1
 67
     0
278
    -2
288
     1
 68
     0
279
    -2
289
     1
 69
     0
  7
STANDARD
140
6.0
170
     5
 62
     0
 63
     7
283
     0
274
    -2
284
     1
 64
     0
275
    -2
285
     1
 65
     0
276
    -2
286
     1
 66
     0
277
    -2
287
     1
 67
     0
278
    -2
288
     1
 68
     0
279
    -2
289
     1
 69
     0
  7
STANDARD
140
4.5
170
     5
 62
     0
 63
     7
283
     0
274
    -2
284
     1
 64
     0
275
    -2
285
     1
 65
     0
276
    -2
286
     1
 66
     0
277
    -2
287
     1
 67
     0
278
    -2
288
     1
 68
     0
279
    -2
289
     1
 69
     0
  0
DICTIONARYVAR
  5
138
102
{ACAD_REACTORS
330
94
102
}
330
94
100
DictionaryVariables
280
     0
  1
STANDARD
  0
DICTIONARYVAR
  5
96
102
{ACAD_REACTORS
330
94
102
}
330
94
100
DictionaryVariables
280
     0
  1
2
  0
DICTIONARYVAR
  5
95
102
{ACAD_REACTORS
330
94
102
}
330
94
100
DictionaryVariables
280
     0
  1
0
  0
DICTIONARYVAR
  5
776
102
{ACAD_REACTORS
330
94
102
}
330
94
100
DictionaryVariables
280
     0
  1

  0
DICTIONARY
  5
1B5
102
{ACAD_REACTORS
330
5B
102
}
330
5B
100
AcDbDictionary
281
     1
  0
DICTIONARY
  5
61
102
{ACAD_REACTORS
330
5B
102
}
330
5B
100
AcDbDictionary
281
     1
  0
XRECORD
  5
123
102
{ACAD_REACTORS
330
5B
102
}
330
5B
100
AcDbXrecord
280
     1
 90
-1023410169
  0
DICTIONARY
  5
804
330
22
100
AcDbDictionary
280
     1
281
     1
  3
ACAD_XREC_ROUNDTRIP
360
805
  0
DICTIONARY
  5
802
330
1E
100
AcDbDictionary
280
     1
281
     1
  3
ACAD_XREC_ROUNDTRIP
360
803
  0
DICTIONARY
  5
806
330
26
100
AcDbDictionary
280
     1
281
     1
  3
ACAD_XREC_ROUNDTRIP
360
807
  0
XRECORD
  5
805
102
{ACAD_REACTORS
330
804
102
}
330
804
100
AcDbXrecord
280
     1
102
SHADEPLOT
 70
     0
102
SHADEPLOTRESLEVEL
 70
     2
102
SHADEPLOTCUSTOMDPI
 70
   300
  0
XRECORD
  5
803
102
{ACAD_REACTORS
330
802
102
}
330
802
100
AcDbXrecord
280
     1
102
SHADEPLOT
 70
     0
102
SHADEPLOTRESLEVEL
 70
     2
102
SHADEPLOTCUSTOMDPI
 70
   300
  0
XRECORD
  5
807
102
{ACAD_REACTORS
330
806
102
}
330
806
100
AcDbXrecord
280
     1
102
SHADEPLOT
 70
     0
102
SHADEPLOTRESLEVEL
 70
     2
102
SHADEPLOTCUSTOMDPI
 70
   300
  0
ENDSEC
  0
EOF
