  0
SECTION
  2
HEADER
  9
$ACADVER
  1
AC1015
  9
$ACADMAINTVER
 70
    20
  9
$DWGCODEPAGE
  3
ANSI_950
  9
$INSBASE
 10
0.0
 20
0.0
 30
0.0
  9
$EXTMIN
 10
902.454299818846
 20
876.3857218860847
 30
0.0
  9
$EXTMAX
 10
1195.128880799716
 20
1107.822732647955
 30
184.6336296564843
  9
$LIMMIN
 10
0.0
 20
0.0
  9
$LIMMAX
 10
420.0
 20
297.0
  9
$ORTHOMODE
 70
     0
  9
$REGENMODE
 70
     1
  9
$FILLMODE
 70
     1
  9
$QTEXTMODE
 70
     0
  9
$MIRRTEXT
 70
     1
  9
$LTSCALE
 40
1.0
  9
$ATTMODE
 70
     1
  9
$TEXTSIZE
 40
1.0
  9
$TRACEWID
 40
1.0
  9
$TEXTSTYLE
  7
STANDARD
  9
$CLAYER
  8
0
  9
$CELTYPE
  6
ByLayer
  9
$CECOLOR
 62
   256
  9
$CELTSCALE
 40
1.0
  9
$DISPSILH
 70
     0
  9
$DIMSCALE
 40
1.0
  9
$DIMASZ
 40
2.5
  9
$DIMEXO
 40
1.0
  9
$DIMDLI
 40
7.0
  9
$DIMRND
 40
0.0
  9
$DIMDLE
 40
0.0
  9
$DIMEXE
 40
1.0
  9
$DIMTP
 40
0.1
  9
$DIMTM
 40
0.1
  9
$DIMTXT
 40
3.5
  9
$DIMCEN
 40
0.0
  9
$DIMTSZ
 40
0.0
  9
$DIMTOL
 70
     0
  9
$DIMLIM
 70
     0
  9
$DIMTIH
 70
     0
  9
$DIMTOH
 70
     0
  9
$DIMSE1
 70
     0
  9
$DIMSE2
 70
     0
  9
$DIMTAD
 70
     1
  9
$DIMZIN
 70
     8
  9
$DIMBLK
  1

  9
$DIMASO
 70
     1
  9
$DIMSHO
 70
     1
  9
$DIMPOST
  1

  9
$DIMAPOST
  1
"
  9
$DIMALT
 70
     0
  9
$DIMALTD
 70
     2
  9
$DIMALTF
 40
0.0393701
  9
$DIMLFAC
 40
1.0
  9
$DIMTOFL
 70
     1
  9
$DIMTVP
 40
0.0
  9
$DIMTIX
 70
     0
  9
$DIMSOXD
 70
     0
  9
$DIMSAH
 70
     0
  9
$DIMBLK1
  1

  9
$DIMBLK2
  1

  9
$DIMSTYLE
  2
AM_ISO
  9
$DIMCLRD
 70
   256
  9
$DIMCLRE
 70
   256
  9
$DIMCLRT
 70
     2
  9
$DIMTFAC
 40
0.71
  9
$DIMGAP
 40
1.5
  9
$DIMJUST
 70
     0
  9
$DIMSD1
 70
     0
  9
$DIMSD2
 70
     0
  9
$DIMTOLJ
 70
     0
  9
$DIMTZIN
 70
     8
  9
$DIMALTZ
 70
     0
  9
$DIMALTTZ
 70
     0
  9
$DIMUPT
 70
     0
  9
$DIMDEC
 70
     2
  9
$DIMTDEC
 70
     2
  9
$DIMALTU
 70
     2
  9
$DIMALTTD
 70
     2
  9
$DIMTXSTY
  7
STANDARD
  9
$DIMAUNIT
 70
     0
  9
$DIMADEC
 70
     0
  9
$DIMALTRND
 40
0.0
  9
$DIMAZIN
 70
     2
  9
$DIMDSEP
 70
    46
  9
$DIMATFIT
 70
     3
  9
$DIMFRAC
 70
     0
  9
$DIMLDRBLK
  1

  9
$DIMLUNIT
 70
     2
  9
$DIMLWD
 70
    -1
  9
$DIMLWE
 70
    -1
  9
$DIMTMOVE
 70
     0
  9
$LUNITS
 70
     2
  9
$LUPREC
 70
     2
  9
$SKETCHINC
 40
1.0
  9
$FILLETRAD
 40
2.5
  9
$AUNITS
 70
     0
  9
$AUPREC
 70
     0
  9
$MENU
  1
.
  9
$ELEVATION
 40
0.0
  9
$PELEVATION
 40
0.0
  9
$THICKNESS
 40
0.0
  9
$LIMCHECK
 70
     0
  9
$CHAMFERA
 40
2.5
  9
$CHAMFERB
 40
2.5
  9
$CHAMFERC
 40
20.0
  9
$CHAMFERD
 40
0.0
  9
$SKPOLY
 70
     0
  9
$TDCREATE
 40
2455812.605705834
  9
$TDUCREATE
 40
2455812.272372500
  9
$TDUPDATE
 40
2455812.614133924
  9
$TDUUPDATE
 40
2455812.280800591
  9
$TDINDWG
 40
0.0011038773
  9
$TDUSRTIMER
 40
0.0011038773
  9
$USRTIMER
 70
     1
  9
$ANGBASE
 50
0.0
  9
$ANGDIR
 70
     0
  9
$PDMODE
 70
     0
  9
$PDSIZE
 40
0.0
  9
$PLINEWID
 40
0.0
  9
$SPLFRAME
 70
     0
  9
$SPLINETYPE
 70
     6
  9
$SPLINESEGS
 70
     8
  9
$HANDSEED
  5
787
  9
$SURFTAB1
 70
     6
  9
$SURFTAB2
 70
     6
  9
$SURFTYPE
 70
     6
  9
$SURFU
 70
     6
  9
$SURFV
 70
     6
  9
$UCSBASE
  2

  9
$UCSNAME
  2

  9
$UCSORG
 10
0.0
 20
0.0
 30
0.0
  9
$UCSXDIR
 10
1.0
 20
0.0
 30
0.0
  9
$UCSYDIR
 10
0.0
 20
1.0
 30
0.0
  9
$UCSORTHOREF
  2

  9
$UCSORTHOVIEW
 70
     0
  9
$UCSORGTOP
 10
0.0
 20
0.0
 30
0.0
  9
$UCSORGBOTTOM
 10
0.0
 20
0.0
 30
0.0
  9
$UCSORGLEFT
 10
0.0
 20
0.0
 30
0.0
  9
$UCSORGRIGHT
 10
0.0
 20
0.0
 30
0.0
  9
$UCSORGFRONT
 10
0.0
 20
0.0
 30
0.0
  9
$UCSORGBACK
 10
0.0
 20
0.0
 30
0.0
  9
$PUCSBASE
  2

  9
$PUCSNAME
  2

  9
$PUCSORG
 10
0.0
 20
0.0
 30
0.0
  9
$PUCSXDIR
 10
1.0
 20
0.0
 30
0.0
  9
$PUCSYDIR
 10
0.0
 20
1.0
 30
0.0
  9
$PUCSORTHOREF
  2

  9
$PUCSORTHOVIEW
 70
     0
  9
$PUCSORGTOP
 10
0.0
 20
0.0
 30
0.0
  9
$PUCSORGBOTTOM
 10
0.0
 20
0.0
 30
0.0
  9
$PUCSORGLEFT
 10
0.0
 20
0.0
 30
0.0
  9
$PUCSORGRIGHT
 10
0.0
 20
0.0
 30
0.0
  9
$PUCSORGFRONT
 10
0.0
 20
0.0
 30
0.0
  9
$PUCSORGBACK
 10
0.0
 20
0.0
 30
0.0
  9
$USERI1
 70
     0
  9
$USERI2
 70
     0
  9
$USERI3
 70
     0
  9
$USERI4
 70
     0
  9
$USERI5
 70
     0
  9
$USERR1
 40
0.0
  9
$USERR2
 40
0.0
  9
$USERR3
 40
0.0
  9
$USERR4
 40
0.0
  9
$USERR5
 40
0.0
  9
$WORLDVIEW
 70
     1
  9
$SHADEDGE
 70
     3
  9
$SHADEDIF
 70
    70
  9
$TILEMODE
 70
     1
  9
$MAXACTVP
 70
    64
  9
$PINSBASE
 10
0.0
 20
0.0
 30
0.0
  9
$PLIMCHECK
 70
     0
  9
$PEXTMIN
 10
1.000000000000000E+20
 20
1.000000000000000E+20
 30
1.000000000000000E+20
  9
$PEXTMAX
 10
-1.000000000000000E+20
 20
-1.000000000000000E+20
 30
-1.000000000000000E+20
  9
$PLIMMIN
 10
0.0
 20
0.0
  9
$PLIMMAX
 10
420.0
 20
297.0
  9
$UNITMODE
 70
     0
  9
$VISRETAIN
 70
     1
  9
$PLINEGEN
 70
     0
  9
$PSLTSCALE
 70
     1
  9
$TREEDEPTH
 70
  3020
  9
$CMLSTYLE
  2
Standard
  9
$CMLJUST
 70
     0
  9
$CMLSCALE
 40
20.0
  9
$PROXYGRAPHICS
 70
     1
  9
$MEASUREMENT
 70
     1
  9
$CELWEIGHT
370
    -1
  9
$ENDCAPS
280
     0
  9
$JOINSTYLE
280
     0
  9
$LWDISPLAY
290
     0
  9
$INSUNITS
 70
     4
  9
$HYPERLINKBASE
  1

  9
$STYLESHEET
  1

  9
$XEDIT
290
     1
  9
$CEPSNTYPE
380
     0
  9
$PSTYLEMODE
290
     1
  9
$FINGERPRINTGUID
  2
{42C60736-92AD-4495-BEBB-C6310CD65818}
  9
$VERSIONGUID
  2
{0E9641E4-4D19-4BCE-97C8-1E56846DF3D6}
  9
$EXTNAMES
290
     1
  9
$PSVPSCALE
 40
0.0
  9
$OLESTARTUP
290
     0
  0
ENDSEC
  0
SECTION
  2
CLASSES
  0
CLASS
  1
ACDBDICTIONARYWDFLT
  2
AcDbDictionaryWithDefault
  3
ObjectDBX Classes
 90
        0
280
     0
281
     0
  0
CLASS
  1
ACDBPLACEHOLDER
  2
AcDbPlaceHolder
  3
ObjectDBX Classes
 90
        0
280
     0
281
     0
  0
CLASS
  1
LAYOUT
  2
AcDbLayout
  3
ObjectDBX Classes
 90
        0
280
     0
281
     0
  0
CLASS
  1
ACME_DOCUMENT
  2
AcMeDbDoc
  3
AcMeServices
 90
        0
280
     0
281
     0
  0
CLASS
  1
AMGSETTINGSOBJ
  2
AmgSettingsObj
  3
"AcadM|Product Description: AutoCAD Mechanical 2000|Company: Autodesk"
 90
        0
280
     0
281
     0
  0
CLASS
  1
ACMESCOPE
  2
AcMeScope
  3
AcMeServices
 90
        0
280
     0
281
     0
  0
CLASS
  1
ACMECOMMANDHISTORY
  2
AcMeCommandHistory
  3
AcMeServices
 90
        0
280
     0
281
     0
  0
CLASS
  1
ACIMSYSVARMAN
  2
AcImSysVarManager
  3
AcMeServices
 90
        0
280
     0
281
     0
  0
CLASS
  1
ACIMREALSYSVAR
  2
AcImRealSysVar
  3
AcMeServices
 90
        0
280
     0
281
     0
  0
CLASS
  1
ACIMINTSYSVAR
  2
AcImIntSysVar
  3
AcMeServices
 90
        0
280
     0
281
     0
  0
CLASS
  1
ACMEDRAWINGMAN
  2
AcMeDrawingMan
  3
AcMeServices
 90
        0
280
     0
281
     0
  0
CLASS
  1
ACMEVIEW
  2
AcMeView
  3
AcMeServices
 90
        0
280
     0
281
     0
  0
CLASS
  1
ACDBENTITYCACHE
  2
AcMeEntityCache
  3
AcMeServices
 90
        0
280
     0
281
     0
  0
CLASS
  1
GSMANAGER
  2
AcMeGSManager
  3
AcMeServices
 90
        0
280
     0
281
     0
  0
CLASS
  1
AMDTINTERNALREACTOR
  2
AmdtInternalReactor
  3
AcMeServices
 90
        0
280
     0
281
     0
  0
CLASS
  1
ACMESTATEMGR
  2
AcMeStateMgr
  3
AcMeServices
 90
        0
280
     0
281
     0
  0
CLASS
  1
ACGREFMASTER
  2
AcGrefMaster
  3
AcAttribServices
 90
        0
280
     0
281
     0
  0
CLASS
  1
ACME_DATABASE
  2
AcMeDbDatabase
  3
AcMeServices
 90
        0
280
     0
281
     0
  0
CLASS
  1
ACRFINSADJUSTERMGR
  2
AcRfInsAdjusterMgr
  3
AcMeServices
 90
        0
280
     0
281
     0
  0
CLASS
  1
ACGREFACADMASTER
  2
AcGrefacadMaster
  3
AcGrefServices
 90
        0
280
     0
281
     0
  0
CLASS
  1
AMIMASTER
  2
AmiMaster
  3
AmiServices
 90
        0
280
     0
281
     0
  0
CLASS
  1
ACMDATADICTIONARY
  2
AcmDataDictionary
  3
"AcmSymBB|Product Description: AutoCAD Mechanical 2004 DX|Company: Autodesk"
 90
        0
280
     0
281
     0
  0
CLASS
  1
ACMDATAENTRYBLOCK
  2
AcmDataEntryBlock
  3
"AcmSymBB|Product Description: AutoCAD Mechanical 2004 DX|Company: Autodesk"
 90
    32768
280
     0
281
     0
  0
CLASS
  1
ACIMSTRSYSVAR
  2
AcImStrSysVar
  3
AcMeServices
 90
        0
280
     0
281
     0
  0
CLASS
  1
ACMSTANDARDISO
  2
AcmStandardISO
  3
"Amdt_StdImp|Product Description: AutoCAD Mechanical 2004 DX|Company: Autodesk"
 90
        0
280
     0
281
     0
  0
CLASS
  1
AMGOBJPROPCFG
  2
AmgObjPropCfg
  3
"AmgLay|Product Description: AutoCAD Mechanical 2000|Company: Autodesk"
 90
        1
280
     0
281
     0
  0
CLASS
  1
AMDTEDGESTANDARDISO
  2
AmdtEdgeStdISO
  3
"Amdt_StdImp|Product Description: AutoCAD Mechanical 2004 DX|Company: Autodesk"
 90
    32768
280
     0
281
     0
  0
CLASS
  1
ACMSURFSTANDARDISO
  2
AcmSurfTextStdISO
  3
"Amdt_StdImp|Product Description: AutoCAD Mechanical 2004 DX|Company: Autodesk"
 90
        0
280
     0
281
     0
  0
CLASS
  1
ACMFCFSTANDARDISO
  2
AcmFCFStdISO
  3
"Amdt_StdImp|Product Description: AutoCAD Mechanical 2004 DX|Company: Autodesk"
 90
        0
280
     0
281
     0
  0
CLASS
  1
ACMWELDSTANDARDISO
  2
AcmWeldingStdISO
  3
"Amdt_StdImp|Product Description: AutoCAD Mechanical 2004 DX|Company: Autodesk"
 90
        0
280
     0
281
     0
  0
CLASS
  1
ACMIDSTANDARDISO
  2
AcmIdStdISO
  3
"Amdt_StdImp|Product Description: AutoCAD Mechanical 2004 DX|Company: Autodesk"
 90
        0
280
     0
281
     0
  0
CLASS
  1
ACMDATUMSTANDARDISO
  2
AcmDatumStdISO
  3
"Amdt_StdImp|Product Description: AutoCAD Mechanical 2004 DX|Company: Autodesk"
 90
        0
280
     0
281
     0
  0
CLASS
  1
ACMBOMSTANDARDISO
  2
AcmBOMStdISO
  3
"Amdt_StdImp|Product Description: AutoCAD Mechanical 2004 DX|Company: Autodesk"
 90
        0
280
     0
281
     0
  0
CLASS
  1
ACMDETAILSTANDARDISO
  2
AmdtDetailSymStdISO
  3
"Amdt_StdImp|Product Description: AutoCAD Mechanical 2004 DX|Company: Autodesk"
 90
        0
280
     0
281
     0
  0
CLASS
  1
ACMSECTIONSTANDARDISO
  2
AmdtSectionSymStdISO
  3
"Amdt_StdImp|Product Description: AutoCAD Mechanical 2004 DX|Company: Autodesk"
 90
        0
280
     0
281
     0
  0
CLASS
  1
ACMCENTERLINESTANDARDISO
  2
AmdtCenterLineStdISO
  3
"Amdt_StdImp|Product Description: AutoCAD Mechanical 2004 DX|Company: Autodesk"
 90
        0
280
     0
281
     0
  0
CLASS
  1
ACMNOTESTANDARDISO
  2
AmdtNoteStdISO
  3
"Amdt_StdImp|Product Description: AutoCAD Mechanical 2004 DX|Company: Autodesk"
 90
        0
280
     0
281
     0
  0
CLASS
  1
ACAMGLAYSTD
  2
AcAmgLayStd
  3
"AcAmgLayStd|Product Description: AutoCAD Mechanical 2000|Company: Autodesk"
 90
        0
280
     0
281
     0
  0
CLASS
  1
ACAMGDIMSTD
  2
AcAmgDimStd
  3
"AcAmgDimStd|Product Description: AutoCAD Mechanical 2000|Company: Autodesk"
 90
        0
280
     0
281
     0
  0
CLASS
  1
ACAMGHOLECHARTSTDISO
  2
AcAmgHoleChartStdISO
  3
ACMSYMBB_MODULE_NAME
 90
        0
280
     0
281
     0
  0
CLASS
  1
ACAMGTITLESTD
  2
AcAmgTitleStd
  3
"TITLEAPP"
 90
        0
280
     0
281
     0
  0
CLASS
  1
LAYER_INDEX
  2
AcDbLayerIndex
  3
ObjectDBX Classes
 90
    32768
280
     0
281
     0
  0
CLASS
  1
IDBUFFER
  2
AcDbIdBuffer
  3
ObjectDBX Classes
 90
    32768
280
     0
281
     0
  0
CLASS
  1
DICTIONARYVAR
  2
AcDbDictionaryVar
  3
ObjectDBX Classes
 90
        0
280
     0
281
     0
  0
CLASS
  1
AM_DRAWING_MGR
  2
AcDmDwgMgr
  3
AcMechDwgViewMgmt
 90
        0
280
     0
281
     0
  0
CLASS
  1
AM_DWG_DOCUMENT
  2
AcDmDwgDocument
  3
AcMechDwgViewMgmt
 90
        0
280
     0
281
     0
  0
CLASS
  1
AM_DWG_SHEET
  2
AcDmSheet
  3
AcMechDwgViewMgmt
 90
        0
280
     0
281
     0
  0
CLASS
  1
AM_VIEWDIMPARMAP
  2
AcDmViewDimParMap
  3
AcMechDwgViewMgmt
 90
        0
280
     0
281
     0
  0
CLASS
  1
AM_DWGMGR_NAME
  2
AcDmDwgMgrName
  3
AcMechDwgViewMgmt
 90
        0
280
     0
281
     0
  0
CLASS
  1
AMDTMENUSTATEMGR
  2
AmdtMenuStateMgr
  3
McadcomServices
 90
        0
280
     0
281
     0
  0
CLASS
  1
AMDTMCOMMENUSTATE
  2
AmdtMcomMenuState
  3
McadcomServices
 90
        0
280
     0
281
     0
  0
CLASS
  1
MAPIAMMOUDLE
  2
MApiAmModule
  3
MApiAmServices
 90
        0
280
     0
281
     0
  0
CLASS
  1
AMDTADMENUSTATE
  2
AmdtAdMenuState
  3
DesignerServices
 90
        0
280
     0
281
     0
  0
CLASS
  1
ADAPPL
  2
AcAdAppl
  3
DesignerServices
 90
        0
280
     0
281
     0
  0
CLASS
  1
DEPMGR
  2
AcAdDepMgr
  3
DesignerServices
 90
        0
280
     0
281
     0
  0
CLASS
  1
PARAMMGR
  2
AcAdParamMgr
  3
DesignerServices
 90
        0
280
     0
281
     0
  0
CLASS
  1
PARAMSCOPE
  2
AcAdParamScope
  3
DesignerServices
 90
        0
280
     0
281
     0
  0
CLASS
  1
NAMEDAPPL
  2
AcAdNamedAppl
  3
DesignerServices
 90
        0
280
     0
281
     0
  0
CLASS
  1
AMDTDMMENUSTATE
  2
AmdtDmMenuState
  3
AcMechDwgViewMgmt
 90
        0
280
     0
281
     0
  0
CLASS
  1
AMDTAMMENUSTATE
  2
AmdtAmMenuState
  3
DesignerAssemblies
 90
        0
280
     0
281
     0
  0
CLASS
  1
ACAMPROJECT
  2
AcAmProject
  3
DesignerAssemblies
 90
        0
280
     0
281
     0
  0
CLASS
  1
ACAMGRCOMPDEF
  2
AcAmGrCompDef
  3
DesignerAssemblies
 90
        0
280
     0
281
     0
  0
CLASS
  1
ACCMCONTEXT
  2
AcCmContext
  3
DesignerAssemblies
 90
        0
280
     0
281
     0
  0
CLASS
  1
ACAMCOMPDEF
  2
AcAmCompDef
  3
DesignerAssemblies
 90
        0
280
     0
281
     0
  0
CLASS
  1
ACAMCOMPDEFMGR
  2
AcAmCompDefMgr
  3
DesignerAssemblies
 90
        0
280
     0
281
     0
  0
CLASS
  1
AMCONTEXTMGR
  2
AcAmContextMgr
  3
DesignerAssemblies
 90
        0
280
     0
281
     0
  0
CLASS
  1
ACAMCONTEXTMODELER
  2
AcAmContextModeler
  3
DesignerAssemblies
 90
        0
280
     0
281
     0
  0
CLASS
  1
ACMTHREADLINESTANDARDISO
  2
AmdtThreadLineStdISO
  3
"Amdt_StdImp|Product Description: AutoCAD Mechanical 2004 DX|Company: Autodesk"
 90
        0
280
     0
281
     0
  0
CLASS
  1
CATALOGSTATE
  2
AcAmCatalogState
  3
DesignerAssemblies
 90
        0
280
     0
281
     0
  0
CLASS
  1
ACAMGRCOMPDEFSET
  2
AcAmGrCompDefSet
  3
DesignerAssemblies
 90
        0
280
     0
281
     0
  0
CLASS
  1
AMDTBROWSERDBTAB
  2
AmdtBrowserDbTab
  3
McadcomServices
 90
        0
280
     0
281
     0
  0
CLASS
  1
CBROWSERAPPOBJECT
  2
CBrowserAppObject
  3
McadcomServices
 90
        0
280
     0
281
     0
  0
CLASS
  1
DM_PLACEHOLDER
  2
AcDmSelsetPlaceholder
  3
AcMechDwgViewMgmt
 90
        0
280
     0
281
     0
  0
CLASS
  1
TABLESTYLE
  2
AcDbTableStyle
  3
ObjectDBX Classes
 90
     2047
280
     0
281
     0
  0
CLASS
  1
VAACXREFPANELOBJECT
  2
VaAcXREFPanelObject
  3
VAAC_ADDIN
 90
    32768
280
     0
281
     0
  0
CLASS
  1
VAACIMAGEINVENTORY
  2
VaAcImageInventory
  3
VAAC_ADDIN
 90
    32768
280
     0
281
     0
  0
CLASS
  1
AMDTNOTETEMPLATEDB
  2
AmdtNoteTemplateDB
  3
AMDT_STDIMP_MODULE_NAME
 90
        0
280
     0
281
     0
  0
CLASS
  1
ACMBOM
  2
AcmBom
  3
"AcmSymBB|Product Description: AutoCAD Mechanical 2004 DX|Company: Autodesk"
 90
    32768
280
     0
281
     0
  0
CLASS
  1
AMDTFORMULAUPDATEDISPATCHER
  2
AmdtFormulaUpdateDispatcher
  3
AcMeServices
 90
    32768
280
     0
281
     0
  0
CLASS
  1
ACMPARTLIST
  2
AcmPartList
  3
"AcmSymBB|Product Description: AutoCAD Mechanical 2004 DX|Company: Autodesk"
 90
    33791
280
     0
281
     1
  0
CLASS
  1
ACAMGFILTERDAT
  2
AcAmgFilterDat
  3
"AcadM|Product Description: AutoCAD Mechanical 2000|Company: Autodesk"
 90
    32768
280
     0
281
     0
  0
CLASS
  1
SORTENTSTABLE
  2
AcDbSortentsTable
  3
ObjectDBX Classes
 90
    32768
280
     0
281
     0
  0
CLASS
  1
ACRFATTGENMGR
  2
AcRfAttGeneralMgr
  3
AcAttribServices
 90
        0
280
     0
281
     0
  0
CLASS
  1
AMDTEDGESTANDARDISO13715
  2
AmdtEdgeStdISO13715
  3
"Amdt_StdImp|Product Description: AutoCAD Mechanical 2004 DX|Company: Autodesk"
 90
        0
280
     0
281
     0
  0
ENDSEC
  0
SECTION
  2
TABLES
  0
TABLE
  2
VPORT
  5
8
330
0
100
AcDbSymbolTable
 70
    58
  0
VPORT
  5
77E
330
8
100
AcDbSymbolTableRecord
100
AcDbViewportTableRecord
  2
*Active
 70
     0
 10
0.0
 20
0.0
 11
1.0
 21
1.0
 12
1048.791590309281
 22
992.1042272670199
 13
0.0
 23
0.0
 14
2.5
 24
2.5
 15
10.0
 25
10.0
 16
0.0
 26
0.0
 36
1.0
 17
0.0
 27
0.0
 37
0.0
 40
241.142335959859
 41
1.221364221364221
 42
50.0
 43
0.0
 44
0.0
 50
0.0
 51
0.0
 71
     0
 72
   100
 73
     1
 74
     3
 75
     0
 76
     0
 77
     0
 78
     0
281
     0
 65
     1
110
0.0
120
0.0
130
0.0
111
1.0
121
0.0
131
0.0
112
0.0
122
1.0
132
0.0
 79
     0
146
0.0
  0
ENDTAB
  0
TABLE
  2
LTYPE
  5
5
330
0
100
AcDbSymbolTable
 70
    15
  0
LTYPE
  5
14
330
5
100
AcDbSymbolTableRecord
100
AcDbLinetypeTableRecord
  2
ByBlock
 70
     0
  3

 72
    65
 73
     0
 40
0.0
  0
LTYPE
  5
15
330
5
100
AcDbSymbolTableRecord
100
AcDbLinetypeTableRecord
  2
ByLayer
 70
     0
  3

 72
    65
 73
     0
 40
0.0
  0
LTYPE
  5
16
330
5
100
AcDbSymbolTableRecord
100
AcDbLinetypeTableRecord
  2
Continuous
 70
     0
  3
Solid line
 72
    65
 73
     0
 40
0.0
  0
LTYPE
  5
64
330
5
100
AcDbSymbolTableRecord
100
AcDbLinetypeTableRecord
  2
AM_ISO02W050
 70
     0
  3
__ __ __ __ __ __ __ __ __ __ __ __ __ __ __
 72
    65
 73
     2
 40
7.5
 49
6.0
 74
     0
 49
-1.5
 74
     0
  0
LTYPE
  5
65
330
5
100
AcDbSymbolTableRecord
100
AcDbLinetypeTableRecord
  2
AM_ISO08W050
 70
     0
  3
____ . ____ . ____ . ____ . ____ . ____ . ____
 72
    65
 73
     4
 40
18.0
 49
12.0
 74
     0
 49
-1.5
 74
     0
 49
3.0
 74
     0
 49
-1.5
 74
     0
  0
LTYPE
  5
66
330
5
100
AcDbSymbolTableRecord
100
AcDbLinetypeTableRecord
  2
AM_ISO09W050
 70
     0
  3
_____ . . _____ . . _____ . . ____ .. ____
 72
    65
 73
     6
 40
22.5
 49
12.0
 74
     0
 49
-1.5
 74
     0
 49
3.0
 74
     0
 49
-1.5
 74
     0
 49
3.0
 74
     0
 49
-1.5
 74
     0
  0
LTYPE
  5
67
330
5
100
AcDbSymbolTableRecord
100
AcDbLinetypeTableRecord
  2
Amconstr
 70
     0
  3
_______________________
 72
    65
 73
     2
 40
9999.0
 49
9999.0
 74
     0
 49
0.0
 74
     0
  0
LTYPE
  5
68
330
5
100
AcDbSymbolTableRecord
100
AcDbLinetypeTableRecord
  2
AM_ISO08W050x2
 70
     0
  3
__ . __ . __ . __ . __ . __
 72
    65
 73
     4
 40
9.0
 49
6.0
 74
     0
 49
-0.75
 74
     0
 49
1.5
 74
     0
 49
-0.75
 74
     0
  0
LTYPE
  5
69
330
5
100
AcDbSymbolTableRecord
100
AcDbLinetypeTableRecord
  2
AM_ISO02W050x2
 70
     0
  3
 _ _ _ _ _ _ _ _ _ _ _ _
 72
    65
 73
     2
 40
3.75
 49
3.0
 74
     0
 49
-0.75
 74
     0
  0
LTYPE
  5
6C
330
5
100
AcDbSymbolTableRecord
100
AcDbLinetypeTableRecord
  2
Amzigzag
 70
     0
  3
/\/-/\/-/\/-/\/-/\/-/\/
 72
    65
 73
     2
 40
11.0001
 49
0.0001
 74
     4
 75
   135
340
6B
 46
0.04
 50
0.0
 44
0.0
 45
0.0
 49
-11.0
 74
     0
  0
LTYPE
  5
7A
330
5
100
AcDbSymbolTableRecord
100
AcDbLinetypeTableRecord
  2
ACISOWELD
 70
     0
  3
_ _ _ _ _
 72
    65
 73
     2
 40
2.0
 49
2.0
 74
     0
 49
-1.0
 74
     0
  0
LTYPE
  5
7B
330
5
100
AcDbSymbolTableRecord
100
AcDbLinetypeTableRecord
  2
ACISOTGB
 70
     0
  3
__ . . __ . .
 72
    65
 73
     6
 40
9.0
 49
4.0
 74
     0
 49
-1.0
 74
     0
 49
1.0
 74
     0
 49
-1.0
 74
     0
 49
1.0
 74
     0
 49
-1.0
 74
     0
  0
LTYPE
  5
7C
330
5
100
AcDbSymbolTableRecord
100
AcDbLinetypeTableRecord
  2
ACISOTGL
 70
     0
  3
_ _ _ _ _
 72
    65
 73
     2
 40
3.0
 49
2.0
 74
     0
 49
-1.0
 74
     0
  0
LTYPE
  5
7E
330
5
100
AcDbSymbolTableRecord
100
AcDbLinetypeTableRecord
  2
CENTER
 70
     0
  3
__ . __
 72
    65
 73
     4
 40
7.0
 49
4.0
 74
     0
 49
-1.0
 74
     0
 49
1.0
 74
     0
 49
-1.0
 74
     0
  0
LTYPE
  5
D8
330
5
100
AcDbSymbolTableRecord
100
AcDbLinetypeTableRecord
  2
HIDDEN
 70
     0
  3
Hidden __ __ __ __ __ __ __ __ __ __ __ __ __ _
 72
    65
 73
     2
 40
9.524999999999998
 49
6.349999999999999
 74
     0
 49
-3.174999999999999
 74
     0
  0
LTYPE
  5
D9
330
5
100
AcDbSymbolTableRecord
100
AcDbLinetypeTableRecord
  2
PHANTOM2
 70
     0
  3
Phantom (.5x) ___ _ _ ___ _ _ ___ _ _ ___ _ _
 72
    65
 73
     6
 40
31.75
 49
15.875
 74
     0
 49
-3.174999999999999
 74
     0
 49
3.174999999999999
 74
     0
 49
-3.174999999999999
 74
     0
 49
3.174999999999999
 74
     0
 49
-3.174999999999999
 74
     0
  0
LTYPE
  5
25F
330
5
100
AcDbSymbolTableRecord
100
AcDbLinetypeTableRecord
  2
CENTER2
 70
     0
  3
Center (.5x) ___ _ ___ _ ___ _ ___ _ ___ _ ___
 72
    65
 73
     4
 40
28.575
 49
19.05
 74
     0
 49
-3.174999999999998
 74
     0
 49
3.174999999999998
 74
     0
 49
-3.174999999999998
 74
     0
  0
ENDTAB
  0
TABLE
  2
LAYER
  5
2
102
{ACAD_XDICTIONARY
360
276
102
}
330
0
100
AcDbSymbolTable
 70
     8
  0
LAYER
  5
10
330
2
100
AcDbSymbolTableRecord
100
AcDbLayerTableRecord
  2
0
 70
     0
 62
     7
  6
Continuous
370
    -3
390
F
  0
LAYER
  5
1B0
330
2
100
AcDbSymbolTableRecord
100
AcDbLayerTableRecord
  2
AM_5
 70
     0
 62
     3
  6
Continuous
370
    25
390
F
  0
LAYER
  5
260
102
{ACAD_XDICTIONARY
360
261
102
}
330
2
100
AcDbSymbolTableRecord
100
AcDbLayerTableRecord
  2
DIM
 70
     0
 62
     5
  6
Continuous
370
    -3
390
F
  0
LAYER
  5
262
102
{ACAD_XDICTIONARY
360
263
102
}
330
2
100
AcDbSymbolTableRecord
100
AcDbLayerTableRecord
  2
CEN
 70
     0
 62
     1
  6
CENTER
370
    -3
390
F
  0
LAYER
  5
264
330
2
100
AcDbSymbolTableRecord
100
AcDbLayerTableRecord
  2
Defpoints
 70
     0
 62
     7
  6
Continuous
290
     0
370
    -3
390
F
  0
LAYER
  5
265
102
{ACAD_XDICTIONARY
360
266
102
}
330
2
100
AcDbSymbolTableRecord
100
AcDbLayerTableRecord
  2
TEXT
 70
     0
 62
     3
  6
Continuous
370
    -3
390
F
  0
LAYER
  5
267
330
2
100
AcDbSymbolTableRecord
100
AcDbLayerTableRecord
  2
圖層1
 70
     0
 62
     1
  6
CENTER2
370
    -3
390
F
  0
LAYER
  5
268
330
2
100
AcDbSymbolTableRecord
100
AcDbLayerTableRecord
  2
LOGO
 70
     0
 62
     7
  6
Continuous
370
    -3
390
F
  0
ENDTAB
  0
TABLE
  2
STYLE
  5
3
330
0
100
AcDbSymbolTable
 70
     9
  0
STYLE
  5
11
330
3
100
AcDbSymbolTableRecord
100
AcDbTextStyleTableRecord
  2
STANDARD
 70
     0
 40
0.0
 41
1.0
 50
0.0
 71
     0
 42
1.0
  3
ISOCP.SHX
  4
CHINESET.SHX
  0
STYLE
  5
6B
330
3
100
AcDbSymbolTableRecord
100
AcDbTextStyleTableRecord
  2

 70
     1
 40
0.0
 41
1.0
 50
0.0
 71
     0
 42
2.5
  3
ltypeshp.shx
  4

  0
STYLE
  5
6D
330
3
100
AcDbSymbolTableRecord
100
AcDbTextStyleTableRecord
  2
ACISOTS
 70
     0
 40
1.0
 41
1.0
 50
0.0
 71
     0
 42
1.0
  3
isocp.shx
  4
chineset.shx
  0
STYLE
  5
79
330
3
100
AcDbSymbolTableRecord
100
AcDbTextStyleTableRecord
  2
ACISOGDT
 70
     0
 40
0.0
 41
1.0
 50
0.0
 71
     0
 42
2.5
  3
amgdt.shx
  4
chineset.shx
  0
STYLE
  5
1FA
330
3
100
AcDbSymbolTableRecord
100
AcDbTextStyleTableRecord
  2
USER1
 70
     0
 40
0.0
 41
1.0
 50
0.0
 71
     0
 42
1.0
  3
TXT.SHX
  4

  0
STYLE
  5
1FB
330
3
100
AcDbSymbolTableRecord
100
AcDbTextStyleTableRecord
  2
USER2
 70
     0
 40
0.0
 41
1.0
 50
0.0
 71
     0
 42
1.0
  3
SIMPLEX.SHX
  4

  0
STYLE
  5
1FC
330
3
100
AcDbSymbolTableRecord
100
AcDbTextStyleTableRecord
  2
USER3
 70
     0
 40
0.0
 41
1.0
 50
0.0
 71
     0
 42
1.0
  3
ITALIC.SHX
  4

  0
STYLE
  5
269
330
3
100
AcDbSymbolTableRecord
100
AcDbTextStyleTableRecord
  2
TNR
 70
     0
 40
5.0
 41
1.0
 50
0.0
 71
     0
 42
2.5
  3
TIMES.TTF
  4

1001
ACAD
1000
Times New Roman
1071
       18
  0
STYLE
  5
26A
330
3
100
AcDbSymbolTableRecord
100
AcDbTextStyleTableRecord
  2
CHINESET
 70
     0
 40
0.0
 41
1.0
 50
0.0
 71
     0
 42
1.0
  3
simplex
  4
CHINESET.SHX
  0
ENDTAB
  0
TABLE
  2
VIEW
  5
6
330
0
100
AcDbSymbolTable
 70
     0
  0
ENDTAB
  0
TABLE
  2
UCS
  5
7
330
0
100
AcDbSymbolTable
 70
     0
  0
ENDTAB
  0
TABLE
  2
APPID
  5
9
330
0
100
AcDbSymbolTable
 70
    20
  0
APPID
  5
12
330
9
100
AcDbSymbolTableRecord
100
AcDbRegAppTableRecord
  2
ACAD
 70
     0
  0
APPID
  5
46
330
9
100
AcDbSymbolTableRecord
100
AcDbRegAppTableRecord
  2
MCAD_NO_VIS
 70
     0
  0
APPID
  5
47
330
9
100
AcDbSymbolTableRecord
100
AcDbRegAppTableRecord
  2
ACAD_TEMP_GRAPHIC
 70
     0
  0
APPID
  5
58
330
9
100
AcDbSymbolTableRecord
100
AcDbRegAppTableRecord
  2
ACATTRIBSERVICES
 70
     0
  0
APPID
  5
EE
330
9
100
AcDbSymbolTableRecord
100
AcDbRegAppTableRecord
  2
AD_DRAW
 70
     0
  0
APPID
  5
10C
330
9
100
AcDbSymbolTableRecord
100
AcDbRegAppTableRecord
  2
DESIGNERASSEMBLIES
 70
     0
  0
APPID
  5
111
330
9
100
AcDbSymbolTableRecord
100
AcDbRegAppTableRecord
  2
ACADM_DIM_EDIT
 70
     0
  0
APPID
  5
112
330
9
100
AcDbSymbolTableRecord
100
AcDbRegAppTableRecord
  2
AMDT_DM_ADJ
 70
     0
  0
APPID
  5
26B
330
9
100
AcDbSymbolTableRecord
100
AcDbRegAppTableRecord
  2
ACAD_PSEXT
 70
     0
  0
APPID
  5
26C
330
9
100
AcDbSymbolTableRecord
100
AcDbRegAppTableRecord
  2
ACAD_DSTYLE_DIMJAG
 70
     0
  0
APPID
  5
26D
330
9
100
AcDbSymbolTableRecord
100
AcDbRegAppTableRecord
  2
ACAD_DSTYLE_DIMTALN
 70
     0
  0
APPID
  5
26E
330
9
100
AcDbSymbolTableRecord
100
AcDbRegAppTableRecord
  2
ACAD_DSTYLE_DIMJOGGED_JOGANGLE_SYMBOL
 70
     0
  0
APPID
  5
26F
330
9
100
AcDbSymbolTableRecord
100
AcDbRegAppTableRecord
  2
GENIUS_GENOBJ-N-CRS_13
 70
     0
  0
APPID
  5
270
330
9
100
AcDbSymbolTableRecord
100
AcDbRegAppTableRecord
  2
GENIUS_GENOLIS_13
 70
     0
  0
APPID
  5
271
330
9
100
AcDbSymbolTableRecord
100
AcDbRegAppTableRecord
  2
GENIUS_GENOENT_13
 70
     0
  0
APPID
  5
272
330
9
100
AcDbSymbolTableRecord
100
AcDbRegAppTableRecord
  2
GENIUS_GENODEF_13
 70
     0
  0
APPID
  5
273
330
9
100
AcDbSymbolTableRecord
100
AcDbRegAppTableRecord
  2
GENIUS_GENOREF_13
 70
     0
  0
APPID
  5
274
330
9
100
AcDbSymbolTableRecord
100
AcDbRegAppTableRecord
  2
GENIUS_GENREC_14
 70
     0
  0
APPID
  5
275
330
9
100
AcDbSymbolTableRecord
100
AcDbRegAppTableRecord
  2
GENIUS_GENOBJ-N-REC_13
 70
     0
  0
APPID
  5
668
330
9
100
AcDbSymbolTableRecord
100
AcDbRegAppTableRecord
  2
ACAD_DSTYLE_DIMTEXT_FILL
 70
     0
  0
ENDTAB
  0
TABLE
  2
DIMSTYLE
  5
A
330
0
100
AcDbSymbolTable
 70
     8
100
AcDbDimStyleTable
 71
     1
340
81
  0
DIMSTYLE
105
27
102
{ACAD_REACTORS
330
4FC
330
4FD
330
4FE
330
4FF
330
500
330
501
330
502
330
504
102
}
330
A
100
AcDbSymbolTableRecord
100
AcDbDimStyleTableRecord
  2
ISO-25
 70
     0
 41
2.5
 42
0.625
 43
3.75
 44
1.25
 73
     0
 74
     0
 77
     1
 78
     8
140
2.5
141
2.5
143
0.03937007874016
147
0.625
171
     3
172
     1
271
     2
272
     2
274
     3
278
    44
283
     0
284
     8
340
11
  0
DIMSTYLE
105
81
330
A
100
AcDbSymbolTableRecord
100
AcDbDimStyleTableRecord
  2
AM_ISO
 70
     0
  4
"
 41
2.5
 42
1.0
 43
7.0
 44
1.0
 47
0.1
 48
0.1
 73
     0
 74
     0
 77
     1
 78
     8
 79
     2
140
3.5
141
0.0
143
0.0393701
146
0.71
147
1.5
172
     1
176
   256
177
   256
178
     2
271
     2
272
     2
283
     0
284
     8
340
11
371
    -1
372
    -1
  0
DIMSTYLE
105
82
330
A
100
AcDbSymbolTableRecord
100
AcDbDimStyleTableRecord
  2
AM_ISO$3
 70
     0
  4
"
 41
2.5
 42
1.0
 43
7.0
 44
1.0
 47
0.1
 48
0.1
 73
     0
 77
     1
 78
     8
 79
     2
140
3.5
141
0.0
143
0.0393701
146
0.71
147
1.5
176
   256
177
   256
178
     2
271
     2
272
     2
283
     0
284
     8
288
     1
289
     0
340
11
371
    -1
372
    -1
  0
DIMSTYLE
105
83
330
A
100
AcDbSymbolTableRecord
100
AcDbDimStyleTableRecord
  2
AM_ISO$4
 70
     0
  4
"
 41
2.5
 42
1.0
 43
7.0
 44
1.0
 47
0.1
 48
0.1
 73
     0
 77
     1
 78
     8
 79
     2
140
3.5
141
0.0
143
0.0393701
146
0.71
147
1.5
176
   256
177
   256
178
     2
271
     2
272
     2
283
     0
284
     8
288
     1
289
     0
340
11
371
    -1
372
    -1
  0
DIMSTYLE
105
84
330
A
100
AcDbSymbolTableRecord
100
AcDbDimStyleTableRecord
  2
AM_ISO$6
 70
     0
  4
"
 41
2.5
 42
1.0
 43
7.0
 44
1.0
 47
0.1
 48
0.1
 73
     0
 74
     0
 78
     8
 79
     2
140
3.5
141
0.0
143
0.0393701
146
0.71
147
1.5
172
     1
176
   256
177
   256
178
     2
271
     2
272
     2
283
     0
284
     8
340
11
371
    -1
372
    -1
  0
DIMSTYLE
105
85
330
A
100
AcDbSymbolTableRecord
100
AcDbDimStyleTableRecord
  2
AM_ISO$7
 70
     0
  4
"
 41
2.5
 42
1.0
 43
7.0
 44
1.0
 47
0.1
 48
0.1
 73
     0
 74
     0
 77
     1
 78
     8
 79
     2
140
5.0
141
0.0
143
0.0393701
146
0.71
147
1.5
172
     1
176
   256
177
   256
178
     2
271
     2
272
     2
283
     0
284
     8
340
11
371
    -1
372
    -1
  0
DIMSTYLE
105
86
330
A
100
AcDbSymbolTableRecord
100
AcDbDimStyleTableRecord
  2
AM_ISO$SF
 70
     0
  4
"
 41
2.5
 42
1.0
 43
10.0
 44
1.0
 47
0.1
 48
0.1
 73
     0
 74
     0
 75
     1
 76
     1
 77
     1
 78
     8
 79
     2
140
3.5
141
0.0
143
0.0393701
146
0.71
147
1.5
172
     1
176
   256
177
   256
178
     2
271
     2
272
     3
274
     4
283
     0
284
     8
340
11
371
    -1
372
    -1
  0
DIMSTYLE
105
8B
330
A
100
AcDbSymbolTableRecord
100
AcDbDimStyleTableRecord
  2
AM_ISO$SH
 70
     0
  4
"
 41
2.5
 42
1.0
 43
10.0
 44
1.0
 47
0.1
 48
0.1
 73
     0
 74
     0
 75
     1
 76
     1
 77
     1
 78
     8
 79
     2
140
3.5
141
0.0
143
0.0393701
144
2.0
146
0.71
147
1.5
172
     1
173
     1
176
   256
177
   256
178
     2
271
     2
272
     3
274
     4
283
     0
284
     8
340
11
343
87
371
    -1
372
    -1
  0
ENDTAB
  0
TABLE
  2
BLOCK_RECORD
  5
1
330
0
100
AcDbSymbolTable
 70
    19
  0
BLOCK_RECORD
  5
1F
102
{ACAD_XDICTIONARY
360
8F
102
}
330
1
100
AcDbSymbolTableRecord
100
AcDbBlockTableRecord
  2
*Model_Space
340
22
  0
BLOCK_RECORD
  5
1B
330
1
100
AcDbSymbolTableRecord
100
AcDbBlockTableRecord
  2
*Paper_Space
340
1E
  0
BLOCK_RECORD
  5
23
330
1
100
AcDbSymbolTableRecord
100
AcDbBlockTableRecord
  2
*Paper_Space0
340
26
  0
BLOCK_RECORD
  5
87
330
1
100
AcDbSymbolTableRecord
100
AcDbBlockTableRecord
  2
GENAXEH
340
0
  0
BLOCK_RECORD
  5
510
330
1
100
AcDbSymbolTableRecord
100
AcDbBlockTableRecord
  2
*D10
340
0
  0
BLOCK_RECORD
  5
51C
330
1
100
AcDbSymbolTableRecord
100
AcDbBlockTableRecord
  2
*D11
340
0
  0
BLOCK_RECORD
  5
528
330
1
100
AcDbSymbolTableRecord
100
AcDbBlockTableRecord
  2
*D12
340
0
  0
BLOCK_RECORD
  5
534
330
1
100
AcDbSymbolTableRecord
100
AcDbBlockTableRecord
  2
*D13
340
0
  0
BLOCK_RECORD
  5
540
330
1
100
AcDbSymbolTableRecord
100
AcDbBlockTableRecord
  2
*D14
340
0
  0
BLOCK_RECORD
  5
54C
330
1
100
AcDbSymbolTableRecord
100
AcDbBlockTableRecord
  2
*D15
340
0
  0
BLOCK_RECORD
  5
558
330
1
100
AcDbSymbolTableRecord
100
AcDbBlockTableRecord
  2
*D16
340
0
  0
BLOCK_RECORD
  5
564
330
1
100
AcDbSymbolTableRecord
100
AcDbBlockTableRecord
  2
*D17
340
0
  0
ENDTAB
  0
ENDSEC
  0
SECTION
  2
BLOCKS
  0
BLOCK
  5
20
330
1F
100
AcDbEntity
  8
0
100
AcDbBlockBegin
  2
*Model_Space
 70
     0
 10
0.0
 20
0.0
 30
0.0
  3
*Model_Space
  1

  0
ENDBLK
  5
21
330
1F
100
AcDbEntity
  8
0
100
AcDbBlockEnd
  0
BLOCK
  5
1C
330
1B
100
AcDbEntity
 67
     1
  8
0
100
AcDbBlockBegin
  2
*Paper_Space
 70
     0
 10
0.0
 20
0.0
 30
0.0
  3
*Paper_Space
  1

  0
ENDBLK
  5
1D
330
1B
100
AcDbEntity
 67
     1
  8
0
100
AcDbBlockEnd
  0
BLOCK
  5
24
330
23
100
AcDbEntity
  8
0
100
AcDbBlockBegin
  2
*Paper_Space0
 70
     0
 10
0.0
 20
0.0
 30
0.0
  3
*Paper_Space0
  1

  0
ENDBLK
  5
25
330
23
100
AcDbEntity
  8
0
100
AcDbBlockEnd
  0
BLOCK
  5
89
330
87
100
AcDbEntity
  8
0
100
AcDbBlockBegin
  2
GENAXEH
 70
     0
 10
0.0
 20
0.0
 30
0.0
  3
GENAXEH
  1

  0
LINE
  5
88
330
87
100
AcDbEntity
  8
0
100
AcDbLine
 10
-1.0
 20
0.0
 30
0.0
 11
1.0
 21
0.0
 31
0.0
  0
ENDBLK
  5
8A
330
87
100
AcDbEntity
  8
0
100
AcDbBlockEnd
  0
BLOCK
  5
51A
330
510
100
AcDbEntity
  8
0
100
AcDbBlockBegin
  2
*D10
 70
     1
 10
0.0
 20
0.0
 30
0.0
  3
*D10
  1

  0
LINE
  5
6F9
330
510
100
AcDbEntity
  8
DIM
 62
     0
370
    -2
100
AcDbLine
 10
945.2396785456212
 20
1053.979715245463
 30
0.0
 11
945.2396785456212
 21
1083.848007856454
 31
0.0
  0
LINE
  5
6FA
330
510
100
AcDbEntity
  8
DIM
 62
     0
370
    -2
100
AcDbLine
 10
1002.739678545621
 20
1053.979715245463
 30
0.0
 11
1002.739678545621
 21
1083.848007856454
 31
0.0
  0
LINE
  5
6FB
330
510
100
AcDbEntity
  8
DIM
 62
     0
370
    -2
100
AcDbLine
 10
947.7396785456212
 20
1082.598007856454
 30
0.0
 11
1000.239678545621
 21
1082.598007856454
 31
0.0
  0
SOLID
  5
6FC
330
510
100
AcDbEntity
  8
DIM
 62
     0
100
AcDbTrace
 10
947.7396785456212
 20
1083.014674523121
 30
0.0
 11
947.7396785456212
 21
1082.181341189787
 31
0.0
 12
945.2396785456212
 22
1082.598007856454
 32
0.0
 13
945.2396785456212
 23
1082.598007856454
 33
0.0
  0
SOLID
  5
6FD
330
510
100
AcDbEntity
  8
DIM
 62
     0
100
AcDbTrace
 10
1000.239678545621
 20
1083.014674523121
 30
0.0
 11
1000.239678545621
 21
1082.181341189787
 31
0.0
 12
1002.739678545621
 22
1082.598007856454
 32
0.0
 13
1002.739678545621
 23
1082.598007856454
 33
0.0
  0
MTEXT
  5
6FE
330
510
100
AcDbEntity
  8
DIM
 62
     0
100
AcDbMText
 10
973.9896785456211
 20
1084.660507856454
 30
0.0
 40
2.5
 41
0.0
 71
     5
 72
     1
  1
57,5
 73
     1
 44
1.0
1001
ACAD
1000
MTEXTBEGIN
1070
    73
1070
     1
1070
    44
1040
1.0
1070
    74
1070
     0
1000
MTEXTEND
  0
POINT
  5
6FF
330
510
100
AcDbEntity
  8
Defpoints
 62
     0
100
AcDbPoint
 10
945.2396785456212
 20
1053.354715245463
 30
0.0
  0
POINT
  5
700
330
510
100
AcDbEntity
  8
Defpoints
 62
     0
100
AcDbPoint
 10
1002.739678545621
 20
1053.354715245463
 30
0.0
  0
POINT
  5
701
330
510
100
AcDbEntity
  8
Defpoints
 62
     0
100
AcDbPoint
 10
1002.739678545621
 20
1082.598007856454
 30
0.0
  0
ENDBLK
  5
51B
330
510
100
AcDbEntity
  8
0
100
AcDbBlockEnd
  0
BLOCK
  5
526
330
51C
100
AcDbEntity
  8
0
100
AcDbBlockBegin
  2
*D11
 70
     1
 10
0.0
 20
0.0
 30
0.0
  3
*D11
  1

  0
LINE
  5
75C
330
51C
100
AcDbEntity
  8
DIM
 62
     0
370
    -2
100
AcDbLine
 10
951.6146785456214
 20
1060.354715245463
 30
0.0
 11
913.5578726653861
 21
1060.354715245463
 31
0.0
  0
LINE
  5
75D
330
51C
100
AcDbEntity
  8
DIM
 62
     0
370
    -2
100
AcDbLine
 10
951.6146785456212
 20
1002.854715245462
 30
0.0
 11
913.5578726653861
 21
1002.854715245462
 31
0.0
  0
LINE
  5
75E
330
51C
100
AcDbEntity
  8
DIM
 62
     0
370
    -2
100
AcDbLine
 10
914.807872665386
 20
1057.854715245463
 30
0.0
 11
914.807872665386
 21
1005.354715245463
 31
0.0
  0
SOLID
  5
75F
330
51C
100
AcDbEntity
  8
DIM
 62
     0
100
AcDbTrace
 10
914.3912059987194
 20
1057.854715245463
 30
0.0
 11
915.2245393320527
 21
1057.854715245463
 31
0.0
 12
914.807872665386
 22
1060.354715245463
 32
0.0
 13
914.807872665386
 23
1060.354715245463
 33
0.0
  0
SOLID
  5
760
330
51C
100
AcDbEntity
  8
DIM
 62
     0
100
AcDbTrace
 10
914.3912059987194
 20
1005.354715245463
 30
0.0
 11
915.2245393320527
 21
1005.354715245463
 31
0.0
 12
914.807872665386
 22
1002.854715245462
 32
0.0
 13
914.807872665386
 23
1002.854715245462
 33
0.0
  0
MTEXT
  5
761
330
51C
100
AcDbEntity
  8
DIM
 62
     0
100
AcDbMText
 10
912.7453726653859
 20
1031.604715245463
 30
0.0
 40
2.5
 41
0.0
 71
     5
 72
     1
  1
57,5
 11
0.0000000000000001
 21
1.0
 31
0.0
 73
     1
 44
1.0
1001
ACAD
1000
MTEXTBEGIN
1070
    73
1070
     1
1070
    44
1040
1.0
1070
    74
1070
     0
1000
MTEXTEND
  0
POINT
  5
762
330
51C
100
AcDbEntity
  8
Defpoints
 62
     0
100
AcDbPoint
 10
952.2396785456214
 20
1060.354715245463
 30
0.0
  0
POINT
  5
763
330
51C
100
AcDbEntity
  8
Defpoints
 62
     0
100
AcDbPoint
 10
952.2396785456212
 20
1002.854715245462
 30
0.0
  0
POINT
  5
764
330
51C
100
AcDbEntity
  8
Defpoints
 62
     0
100
AcDbPoint
 10
914.807872665386
 20
1002.854715245462
 30
0.0
  0
ENDBLK
  5
527
330
51C
100
AcDbEntity
  8
0
100
AcDbBlockEnd
  0
BLOCK
  5
532
330
528
100
AcDbEntity
  8
0
100
AcDbBlockBegin
  2
*D12
 70
     1
 10
0.0
 20
0.0
 30
0.0
  3
*D12
  1

  0
LINE
  5
753
330
528
100
AcDbEntity
  8
DIM
 62
     0
370
    -2
100
AcDbLine
 10
947.4490907544147
 20
1053.854715245462
 30
0.0
 11
920.5578726653861
 21
1053.854715245462
 31
0.0
  0
LINE
  5
754
330
528
100
AcDbEntity
  8
DIM
 62
     0
370
    -2
100
AcDbLine
 10
947.4490907544147
 20
1009.354715245462
 30
0.0
 11
920.5578726653861
 21
1009.354715245462
 31
0.0
  0
LINE
  5
755
330
528
100
AcDbEntity
  8
DIM
 62
     0
370
    -2
100
AcDbLine
 10
921.807872665386
 20
1051.354715245462
 30
0.0
 11
921.807872665386
 21
1011.854715245463
 31
0.0
  0
SOLID
  5
756
330
528
100
AcDbEntity
  8
DIM
 62
     0
100
AcDbTrace
 10
921.3912059987194
 20
1051.354715245462
 30
0.0
 11
922.2245393320527
 21
1051.354715245462
 31
0.0
 12
921.807872665386
 22
1053.854715245462
 32
0.0
 13
921.807872665386
 23
1053.854715245462
 33
0.0
  0
SOLID
  5
757
330
528
100
AcDbEntity
  8
DIM
 62
     0
100
AcDbTrace
 10
921.3912059987194
 20
1011.854715245463
 30
0.0
 11
922.2245393320527
 21
1011.854715245463
 31
0.0
 12
921.807872665386
 22
1009.354715245462
 32
0.0
 13
921.807872665386
 23
1009.354715245462
 33
0.0
  0
MTEXT
  5
758
330
528
100
AcDbEntity
  8
DIM
 62
     0
100
AcDbMText
 10
919.745372665386
 20
1031.604715245463
 30
0.0
 40
2.5
 41
0.0
 71
     5
 72
     1
  1
44,5
 11
0.0000000000000001
 21
1.0
 31
0.0
 73
     1
 44
1.0
1001
ACAD
1000
MTEXTBEGIN
1070
    73
1070
     1
1070
    44
1040
1.0
1070
    74
1070
     0
1000
MTEXTEND
  0
POINT
  5
759
330
528
100
AcDbEntity
  8
Defpoints
 62
     0
100
AcDbPoint
 10
948.0740907544147
 20
1053.854715245462
 30
0.0
  0
POINT
  5
75A
330
528
100
AcDbEntity
  8
Defpoints
 62
     0
100
AcDbPoint
 10
948.0740907544147
 20
1009.354715245462
 30
0.0
  0
POINT
  5
75B
330
528
100
AcDbEntity
  8
Defpoints
 62
     0
100
AcDbPoint
 10
921.807872665386
 20
1009.354715245462
 30
0.0
  0
ENDBLK
  5
533
330
528
100
AcDbEntity
  8
0
100
AcDbBlockEnd
  0
BLOCK
  5
53E
330
534
100
AcDbEntity
  8
0
100
AcDbBlockBegin
  2
*D13
 70
     1
 10
0.0
 20
0.0
 30
0.0
  3
*D13
  1

  0
LINE
  5
74A
330
534
100
AcDbEntity
  8
DIM
 62
     0
370
    -2
100
AcDbLine
 10
956.3455584505486
 20
1039.104715245463
 30
0.0
 11
927.557872665386
 21
1039.104715245463
 31
0.0
  0
LINE
  5
74B
330
534
100
AcDbEntity
  8
DIM
 62
     0
370
    -2
100
AcDbLine
 10
956.3455584505486
 20
1024.104715245463
 30
0.0
 11
927.557872665386
 21
1024.104715245463
 31
0.0
  0
LINE
  5
74C
330
534
100
AcDbEntity
  8
DIM
 62
     0
370
    -2
100
AcDbLine
 10
928.8078726653861
 20
1036.604715245463
 30
0.0
 11
928.8078726653861
 21
1026.604715245463
 31
0.0
  0
SOLID
  5
74D
330
534
100
AcDbEntity
  8
DIM
 62
     0
100
AcDbTrace
 10
928.3912059987194
 20
1036.604715245463
 30
0.0
 11
929.2245393320527
 21
1036.604715245463
 31
0.0
 12
928.8078726653861
 22
1039.104715245463
 32
0.0
 13
928.8078726653861
 23
1039.104715245463
 33
0.0
  0
SOLID
  5
74E
330
534
100
AcDbEntity
  8
DIM
 62
     0
100
AcDbTrace
 10
928.3912059987194
 20
1026.604715245463
 30
0.0
 11
929.2245393320527
 21
1026.604715245463
 31
0.0
 12
928.8078726653861
 22
1024.104715245463
 32
0.0
 13
928.8078726653861
 23
1024.104715245463
 33
0.0
  0
MTEXT
  5
74F
330
534
100
AcDbEntity
  8
DIM
 62
     0
100
AcDbMText
 10
926.932872665386
 20
1031.604715245463
 30
0.0
 40
2.5
 41
0.0
 71
     5
 72
     1
  1
15
 11
0.0000000000000001
 21
1.0
 31
0.0
 73
     1
 44
1.0
1001
ACAD
1000
MTEXTBEGIN
1070
    73
1070
     1
1070
    44
1040
1.0
1070
    74
1070
     0
1000
MTEXTEND
  0
POINT
  5
750
330
534
100
AcDbEntity
  8
Defpoints
 62
     0
100
AcDbPoint
 10
956.9705584505486
 20
1039.104715245463
 30
0.0
  0
POINT
  5
751
330
534
100
AcDbEntity
  8
Defpoints
 62
     0
100
AcDbPoint
 10
956.9705584505486
 20
1024.104715245463
 30
0.0
  0
POINT
  5
752
330
534
100
AcDbEntity
  8
Defpoints
 62
     0
100
AcDbPoint
 10
928.8078726653861
 20
1024.104715245463
 30
0.0
  0
ENDBLK
  5
53F
330
534
100
AcDbEntity
  8
0
100
AcDbBlockEnd
  0
BLOCK
  5
54A
330
540
100
AcDbEntity
  8
0
100
AcDbBlockBegin
  2
*D14
 70
     1
 10
0.0
 20
0.0
 30
0.0
  3
*D14
  1

  0
LINE
  5
6F0
330
540
100
AcDbEntity
  8
DIM
 62
     0
370
    -2
100
AcDbLine
 10
951.7396785456208
 20
1058.145303036669
 30
0.0
 11
951.7396785456208
 21
1076.848007856454
 31
0.0
  0
LINE
  5
6F1
330
540
100
AcDbEntity
  8
DIM
 62
     0
370
    -2
100
AcDbLine
 10
996.2396785456217
 20
1058.145303036669
 30
0.0
 11
996.2396785456217
 21
1076.848007856454
 31
0.0
  0
LINE
  5
6F2
330
540
100
AcDbEntity
  8
DIM
 62
     0
370
    -2
100
AcDbLine
 10
954.2396785456208
 20
1075.598007856454
 30
0.0
 11
993.7396785456217
 21
1075.598007856454
 31
0.0
  0
SOLID
  5
6F3
330
540
100
AcDbEntity
  8
DIM
 62
     0
100
AcDbTrace
 10
954.2396785456208
 20
1076.014674523121
 30
0.0
 11
954.2396785456208
 21
1075.181341189787
 31
0.0
 12
951.7396785456208
 22
1075.598007856454
 32
0.0
 13
951.7396785456208
 23
1075.598007856454
 33
0.0
  0
SOLID
  5
6F4
330
540
100
AcDbEntity
  8
DIM
 62
     0
100
AcDbTrace
 10
993.7396785456217
 20
1076.014674523121
 30
0.0
 11
993.7396785456217
 21
1075.181341189787
 31
0.0
 12
996.2396785456217
 22
1075.598007856454
 32
0.0
 13
996.2396785456217
 23
1075.598007856454
 33
0.0
  0
MTEXT
  5
6F5
330
540
100
AcDbEntity
  8
DIM
 62
     0
100
AcDbMText
 10
973.9896785456211
 20
1077.660507856454
 30
0.0
 40
2.5
 41
0.0
 71
     5
 72
     1
  1
44,5
 73
     1
 44
1.0
1001
ACAD
1000
MTEXTBEGIN
1070
    73
1070
     1
1070
    44
1040
1.0
1070
    74
1070
     0
1000
MTEXTEND
  0
POINT
  5
6F6
330
540
100
AcDbEntity
  8
Defpoints
 62
     0
100
AcDbPoint
 10
951.7396785456208
 20
1057.520303036669
 30
0.0
  0
POINT
  5
6F7
330
540
100
AcDbEntity
  8
Defpoints
 62
     0
100
AcDbPoint
 10
996.2396785456217
 20
1057.520303036669
 30
0.0
  0
POINT
  5
6F8
330
540
100
AcDbEntity
  8
Defpoints
 62
     0
100
AcDbPoint
 10
996.2396785456217
 20
1075.598007856454
 30
0.0
  0
ENDBLK
  5
54B
330
540
100
AcDbEntity
  8
0
100
AcDbBlockEnd
  0
BLOCK
  5
556
330
54C
100
AcDbEntity
  8
0
100
AcDbBlockBegin
  2
*D15
 70
     1
 10
0.0
 20
0.0
 30
0.0
  3
*D15
  1

  0
LINE
  5
6E7
330
54C
100
AcDbEntity
  8
DIM
 62
     0
370
    -2
100
AcDbLine
 10
973.9896785456208
 20
1063.863392189281
 30
0.0
 11
973.9896785456208
 21
1069.848007856454
 31
0.0
  0
LINE
  5
6E8
330
54C
100
AcDbEntity
  8
DIM
 62
     0
370
    -2
100
AcDbLine
 10
996.2396785456217
 20
1058.145303036669
 30
0.0
 11
996.2396785456217
 21
1069.848007856454
 31
0.0
  0
LINE
  5
6E9
330
54C
100
AcDbEntity
  8
DIM
 62
     0
370
    -2
100
AcDbLine
 10
976.4896785456208
 20
1068.598007856454
 30
0.0
 11
993.7396785456217
 21
1068.598007856454
 31
0.0
  0
SOLID
  5
6EA
330
54C
100
AcDbEntity
  8
DIM
 62
     0
100
AcDbTrace
 10
976.4896785456208
 20
1069.014674523121
 30
0.0
 11
976.4896785456208
 21
1068.181341189787
 31
0.0
 12
973.9896785456208
 22
1068.598007856454
 32
0.0
 13
973.9896785456208
 23
1068.598007856454
 33
0.0
  0
SOLID
  5
6EB
330
54C
100
AcDbEntity
  8
DIM
 62
     0
100
AcDbTrace
 10
993.7396785456217
 20
1069.014674523121
 30
0.0
 11
993.7396785456217
 21
1068.181341189787
 31
0.0
 12
996.2396785456217
 22
1068.598007856454
 32
0.0
 13
996.2396785456217
 23
1068.598007856454
 33
0.0
  0
MTEXT
  5
6EC
330
54C
100
AcDbEntity
  8
DIM
 62
     0
100
AcDbMText
 10
985.1146785456212
 20
1070.660753919446
 30
0.0
 40
2.5
 41
0.0
 71
     5
 72
     1
  1
22,25
 73
     1
 44
1.0
1001
ACAD
1000
MTEXTBEGIN
1070
    73
1070
     1
1070
    44
1040
1.0
1070
    74
1070
     0
1000
MTEXTEND
  0
POINT
  5
6ED
330
54C
100
AcDbEntity
  8
Defpoints
 62
     0
100
AcDbPoint
 10
973.9896785456208
 20
1063.238392189281
 30
0.0
  0
POINT
  5
6EE
330
54C
100
AcDbEntity
  8
Defpoints
 62
     0
100
AcDbPoint
 10
996.2396785456217
 20
1057.520303036669
 30
0.0
  0
POINT
  5
6EF
330
54C
100
AcDbEntity
  8
Defpoints
 62
     0
100
AcDbPoint
 10
996.2396785456217
 20
1068.598007856454
 30
0.0
  0
ENDBLK
  5
557
330
54C
100
AcDbEntity
  8
0
100
AcDbBlockEnd
  0
BLOCK
  5
562
330
558
100
AcDbEntity
  8
0
100
AcDbBlockBegin
  2
*D16
 70
     1
 10
0.0
 20
0.0
 30
0.0
  3
*D16
  1

  0
LINE
  5
5A6
330
558
100
AcDbEntity
  8
DIM
 62
     0
370
    -2
100
AcDbLine
 10
1050.071127960212
 20
983.2816131612622
 30
0.0
 11
1025.209904130485
 21
983.2816131612622
 31
0.0
  0
LINE
  5
5A7
330
558
100
AcDbEntity
  8
DIM
 62
     0
370
    -2
100
AcDbLine
 10
1050.071127960212
 20
957.2816131612622
 30
0.0
 11
1025.209904130485
 21
957.2816131612622
 31
0.0
  0
LINE
  5
5A8
330
558
100
AcDbEntity
  8
DIM
 62
     0
370
    -2
100
AcDbLine
 10
1026.459904130485
 20
980.7816131612623
 30
0.0
 11
1026.459904130485
 21
959.7816131612622
 31
0.0
  0
SOLID
  5
5A9
330
558
100
AcDbEntity
  8
DIM
 62
     0
100
AcDbTrace
 10
1026.043237463818
 20
980.7816131612623
 30
0.0
 11
1026.876570797152
 21
980.7816131612623
 31
0.0
 12
1026.459904130485
 22
983.2816131612622
 32
0.0
 13
1026.459904130485
 23
983.2816131612622
 33
0.0
  0
SOLID
  5
5AA
330
558
100
AcDbEntity
  8
DIM
 62
     0
100
AcDbTrace
 10
1026.043237463818
 20
959.7816131612622
 30
0.0
 11
1026.876570797152
 21
959.7816131612622
 31
0.0
 12
1026.459904130485
 22
957.2816131612622
 32
0.0
 13
1026.459904130485
 23
957.2816131612622
 33
0.0
  0
MTEXT
  5
5AB
330
558
100
AcDbEntity
  8
DIM
 62
     0
100
AcDbMText
 10
1024.584658067493
 20
970.2816131612623
 30
0.0
 40
2.5
 41
0.0
 71
     5
 72
     1
  1
26HEX.
 11
0.0000000000000001
 21
1.0
 31
0.0
 73
     1
 44
1.0
1001
ACAD
1000
MTEXTBEGIN
1070
    73
1070
     1
1070
    44
1040
1.0
1070
    74
1070
     0
1000
MTEXTEND
  0
POINT
  5
5AC
330
558
100
AcDbEntity
  8
Defpoints
 62
     0
100
AcDbPoint
 10
1050.696127960212
 20
983.2816131612622
 30
0.0
  0
POINT
  5
5AD
330
558
100
AcDbEntity
  8
Defpoints
 62
     0
100
AcDbPoint
 10
1050.696127960212
 20
957.2816131612622
 30
0.0
  0
POINT
  5
5AE
330
558
100
AcDbEntity
  8
Defpoints
 62
     0
100
AcDbPoint
 10
1026.459904130485
 20
957.2816131612622
 30
0.0
  0
ENDBLK
  5
563
330
558
100
AcDbEntity
  8
0
100
AcDbBlockEnd
  0
BLOCK
  5
56E
330
564
100
AcDbEntity
  8
0
100
AcDbBlockBegin
  2
*D17
 70
     1
 10
0.0
 20
0.0
 30
0.0
  3
*D17
  1

  0
LINE
  5
76B
330
564
100
AcDbEntity
  8
DIM
 62
     0
370
    -2
100
AcDbLine
 10
938.9896785456205
 20
960.1836595779719
 30
0.0
 11
938.9896785456205
 21
943.7375234798528
 31
0.0
  0
LINE
  5
76C
330
564
100
AcDbEntity
  8
DIM
 62
     0
370
    -2
100
AcDbLine
 10
1008.989678545621
 20
960.1836595779714
 30
0.0
 11
1008.989678545621
 21
943.7375234798528
 31
0.0
  0
LINE
  5
76D
330
564
100
AcDbEntity
  8
DIM
 62
     0
370
    -2
100
AcDbLine
 10
941.4896785456205
 20
944.9875234798527
 30
0.0
 11
1006.48967854562
 21
944.9875234798527
 31
0.0
  0
SOLID
  5
76E
330
564
100
AcDbEntity
  8
DIM
 62
     0
100
AcDbTrace
 10
941.4896785456205
 20
945.4041901465194
 30
0.0
 11
941.4896785456205
 21
944.5708568131861
 31
0.0
 12
938.9896785456205
 22
944.9875234798527
 32
0.0
 13
938.9896785456205
 23
944.9875234798527
 33
0.0
  0
SOLID
  5
76F
330
564
100
AcDbEntity
  8
DIM
 62
     0
100
AcDbTrace
 10
1006.48967854562
 20
945.4041901465194
 30
0.0
 11
1006.48967854562
 21
944.5708568131861
 31
0.0
 12
1008.989678545621
 22
944.9875234798527
 32
0.0
 13
1008.989678545621
 23
944.9875234798527
 33
0.0
  0
MTEXT
  5
770
330
564
100
AcDbEntity
  8
DIM
 62
     0
100
AcDbMText
 10
973.9896785456206
 20
946.8625234798528
 30
0.0
 40
2.5
 41
0.0
 71
     5
 72
     1
  1
70
 73
     1
 44
1.0
1001
ACAD
1000
MTEXTBEGIN
1070
    73
1070
     1
1070
    44
1040
1.0
1070
    74
1070
     0
1000
MTEXTEND
  0
POINT
  5
771
330
564
100
AcDbEntity
  8
Defpoints
 62
     0
100
AcDbPoint
 10
938.9896785456205
 20
960.8086595779719
 30
0.0
  0
POINT
  5
772
330
564
100
AcDbEntity
  8
Defpoints
 62
     0
100
AcDbPoint
 10
1008.989678545621
 20
960.8086595779713
 30
0.0
  0
POINT
  5
773
330
564
100
AcDbEntity
  8
Defpoints
 62
     0
100
AcDbPoint
 10
1008.989678545621
 20
944.9875234798527
 30
0.0
  0
ENDBLK
  5
56F
330
564
100
AcDbEntity
  8
0
100
AcDbBlockEnd
  0
ENDSEC
  0
SECTION
  2
ENTITIES
  0
TEXT
  5
3C9
330
1F
100
AcDbEntity
  8
LOGO
 62
     7
100
AcDbText
 10
966.7383615426023
 20
897.5039774399075
 30
0.0
 40
5.634368956264587
  1
訂購代號:
  7
CHINESET
100
AcDbText
  0
TEXT
  5
3CA
330
1F
100
AcDbEntity
  8
LOGO
 62
     7
100
AcDbText
 10
966.0644599525427
 20
892.2159608536126
 30
0.0
 40
3.756245970843058
  1
Order example:
 41
0.8
  7
CHINESET
100
AcDbText
  0
LINE
  5
3CB
330
1F
100
AcDbEntity
  8
LOGO
 62
     4
100
AcDbLine
 10
1023.840833344159
 20
878.7333756178618
 30
0.0
 11
1005.059603489944
 21
878.7333756178618
 31
0.0
  0
LINE
  5
3CC
330
1F
100
AcDbEntity
  8
LOGO
 62
     4
100
AcDbLine
 10
1023.840833344159
 20
889.0630520376801
 30
0.0
 11
1005.059603489944
 21
889.0630520376801
 31
0.0
  0
LINE
  5
3CD
330
1F
100
AcDbEntity
  8
LOGO
 62
     4
100
AcDbLine
 10
1028.272895945612
 20
893.2888287548784
 30
0.0
 11
1000.872609203903
 21
893.2888287548784
 31
0.0
  0
LINE
  5
3CE
330
1F
100
AcDbEntity
  8
LOGO
 62
     4
100
AcDbLine
 10
1028.272895945612
 20
901.7403821892756
 30
0.0
 11
1000.872609203903
 21
901.7403821892756
 31
0.0
  0
TEXT
  5
3CF
330
1F
100
AcDbEntity
  8
LOGO
  6
Continuous
 62
     7
100
AcDbText
 10
1004.836017420251
 20
895.1669517403002
 30
0.0
 40
4.695307463553823
  1
MSUW
  7
CHINESET
 72
     1
 11
1014.450218417052
 21
897.5146054720772
 31
0.0
100
AcDbText
 73
     2
  0
LINE
  5
3D0
330
1F
100
AcDbEntity
  8
LOGO
 62
     4
100
AcDbLine
 10
1000.872609203903
 20
901.7403821892756
 30
0.0
 11
1000.872609203903
 21
893.2888287548784
 31
0.0
  0
LINE
  5
3D1
330
1F
100
AcDbEntity
  8
LOGO
 62
     4
100
AcDbLine
 10
1005.059603489944
 20
889.0630520376801
 30
0.0
 11
1005.059603489944
 21
878.7333756178618
 31
0.0
  0
TEXT
  5
3D2
330
1F
100
AcDbEntity
  8
LOGO
100
AcDbText
 10
1011.272742040784
 20
880.1803490796489
 30
0.0
 40
1.869103750745776
  1
Model
 72
     4
 11
1014.450218417052
 21
881.0810293496386
 31
0.0
100
AcDbText
  0
TEXT
  5
3D3
330
1F
100
AcDbEntity
  8
LOGO
100
AcDbText
 10
1010.693972446209
 20
883.9943382325365
 30
0.0
 40
3.756245970843058
  1
型式
  7
CHINESET
 72
     4
 11
1014.450218417052
 21
885.7763368131925
 31
0.0
100
AcDbText
  0
LINE
  5
3D4
330
1F
100
AcDbEntity
  8
LOGO
 62
     4
100
AcDbLine
 10
1014.450218417052
 20
893.2888287548784
 30
0.0
 11
1014.450218417052
 21
889.0630520376801
 31
0.0
  0
LINE
  5
3D5
330
1F
100
AcDbEntity
  8
LOGO
 62
     4
100
AcDbLine
 10
1028.272895945612
 20
901.7403821892756
 30
0.0
 11
1028.272895945612
 21
893.2888287548784
 31
0.0
  0
LINE
  5
3D6
330
1F
100
AcDbEntity
  8
LOGO
 62
     4
100
AcDbLine
 10
1023.840833344159
 20
889.0630520376801
 30
0.0
 11
1023.840833344159
 21
878.7333756178618
 31
0.0
  0
LINE
  5
3D7
330
1F
100
AcDbEntity
  8
LOGO
 62
     4
100
AcDbLine
 10
964.4323583377577
 20
876.3857218860847
 30
0.0
 11
964.4323583377577
 21
904.5575666674082
 31
0.0
  0
TEXT
  5
3D8
330
1F
100
AcDbEntity
  8
LOGO
  6
Continuous
100
AcDbText
 10
912.5737530991905
 20
881.9200382783549
 30
0.0
 40
4.225776717198477
  1
金器工業股份有限公司
  7
CHINESET
100
AcDbText
  0
TEXT
  5
3D9
330
1F
100
AcDbEntity
  8
LOGO
  6
Continuous
100
AcDbText
 10
904.8118372983919
 20
877.6934336402336
 30
0.0
 40
2.817184478132318
  1
MINDMAN INDUSTRIAL CO., LTD.
 41
0.85
  7
CHINESET
100
AcDbText
  0
LINE
  5
3DA
330
1F
100
AcDbEntity
  8
LOGO
 62
     4
100
AcDbLine
 10
964.4323583377577
 20
898.9231977111435
 30
0.0
 11
923.1136526584826
 21
898.9231977111435
 31
0.0
  0
LINE
  5
3DB
330
1F
100
AcDbEntity
  8
LOGO
 62
     4
100
AcDbLine
 10
964.4323583377577
 20
893.2888287548788
 30
0.0
 11
923.1136526584826
 21
893.2888287548788
 31
0.0
  0
LINE
  5
3DC
330
1F
100
AcDbEntity
  8
LOGO
 62
     4
100
AcDbLine
 10
964.4323583377577
 20
887.6544597986141
 30
0.0
 11
902.454299818846
 21
887.6544597986141
 31
0.0
  0
LINE
  5
3DD
330
1F
100
AcDbEntity
  8
LOGO
 62
     4
100
AcDbLine
 10
923.1136526584826
 20
887.6544597986141
 30
0.0
 11
923.1136526584826
 21
904.5575666674082
 31
0.0
  0
TEXT
  5
3DE
330
1F
100
AcDbEntity
  8
LOGO
100
AcDbText
 10
951.3530377770642
 20
889.0630520376802
 30
0.0
 40
2.817184478132318
  1
mm
  7
CHINESET
 72
     1
 11
954.8409804642757
 21
890.4716442767464
 31
0.0
100
AcDbText
 73
     2
  0
TEXT
  5
3DF
330
1F
100
AcDbEntity
  8
LOGO
100
AcDbText
 10
949.8773697170902
 20
900.3317899502095
 30
0.0
 40
2.817184478132318
  1
1 : 1
  7
CHINESET
 72
     1
 11
954.8409804642757
 21
901.7403821892756
 31
0.0
100
AcDbText
 73
     2
  0
LINE
  5
3E0
330
1F
100
AcDbEntity
  8
LOGO
 62
     4
100
AcDbLine
 10
945.6511284835416
 20
887.6544597986141
 30
0.0
 11
945.6511284835416
 21
904.5575666674082
 31
0.0
  0
TEXT
  5
3E1
330
1F
100
AcDbEntity
  8
LOGO
100
AcDbText
 10
925.4365721813003
 20
900.3331763598936
 30
184.6336296564843
 40
2.817184478132318
  1
比例 Scale:
 41
0.9
  7
CHINESET
 72
     4
 11
934.3823905710125
 21
901.7403821892756
 31
184.6336296564843
100
AcDbText
  0
TEXT
  5
3E2
330
1F
100
AcDbEntity
  8
LOGO
100
AcDbText
 10
925.2743325394794
 20
894.7370492040827
 30
184.6336296564843
 40
2.817184478132318
  1
投影  View:
 41
0.9
  7
CHINESET
 72
     4
 11
934.3823905710125
 21
896.1060132330111
 31
184.6336296564843
100
AcDbText
  0
TEXT
  5
3E3
330
1F
100
AcDbEntity
  8
LOGO
100
AcDbText
 10
925.5497626290825
 20
889.0630520376802
 30
184.6336296564843
 40
2.817184478132318
  1
單位  Unit:
 41
0.9
  7
CHINESET
 72
     4
 11
934.3823905710125
 21
890.4716442767464
 31
184.6336296564843
100
AcDbText
  0
SOLID
  5
3E4
330
1F
100
AcDbEntity
  8
LOGO
 62
     5
100
AcDbTrace
 10
905.3771739272804
 20
892.3376279988756
 30
0.0
 11
906.5952505727038
 21
892.3376279988747
 31
0.0
 12
911.6775703691271
 22
903.888354808928
 32
0.0
 13
912.895647014551
 23
903.8883548089271
 33
0.0
  0
SOLID
  5
3E5
330
1F
100
AcDbEntity
  8
LOGO
 62
     5
100
AcDbTrace
 10
907.0992822880528
 20
892.3376279988756
 30
0.0
 11
908.3173589334764
 21
892.3376279988756
 31
0.0
 12
912.895647014551
 22
902.9642966641233
 32
0.0
 13
911.6775703691271
 23
898.4980156309031
 33
0.0
  0
SOLID
  5
3E6
330
1F
100
AcDbEntity
  8
LOGO
 62
     2
100
AcDbTrace
 10
906.5952505727038
 20
892.3376279988747
 30
0.0
 11
907.0992822880528
 21
892.3376279988756
 31
0.0
 12
912.895647014551
 22
903.8883548089271
 32
0.0
 13
913.3996787298997
 23
903.8883548089271
 33
0.0
  0
SOLID
  5
3E7
330
1F
100
AcDbEntity
  8
LOGO
 62
     5
100
AcDbTrace
 10
903.4242983556827
 20
888.1373637043109
 30
0.0
 11
903.8443247851397
 21
888.1373637043109
 31
0.0
 12
905.0271519027333
 22
890.2374958515931
 32
0.0
 13
905.4471783321897
 23
890.2374958515931
 33
0.0
  0
SOLID
  5
3E8
330
1F
100
AcDbEntity
  8
LOGO
 62
     5
100
AcDbTrace
 10
905.0271519027333
 20
890.2374958515931
 30
0.0
 11
905.4471783321897
 21
890.2374958515931
 31
0.0
 12
905.0271519027333
 22
888.1373637043109
 32
0.0
 13
905.4471783321897
 23
888.1373637043109
 33
0.0
  0
SOLID
  5
3E9
330
1F
100
AcDbEntity
  8
LOGO
 62
     5
100
AcDbTrace
 10
905.0271519027333
 20
888.1373637043109
 30
0.0
 11
905.4471783321897
 21
888.1373637043109
 31
0.0
 12
906.6300054497853
 22
890.2374958515931
 32
0.0
 13
907.0500318792415
 23
890.2374958515931
 33
0.0
  0
SOLID
  5
3EA
330
1F
100
AcDbEntity
  8
LOGO
 62
     5
100
AcDbTrace
 10
906.6300054497853
 20
890.2374958515931
 30
0.0
 11
907.0500318792415
 21
890.2374958515931
 31
0.0
 12
906.6300054497853
 22
888.1373637043109
 32
0.0
 13
907.0500318792415
 23
888.1373637043109
 33
0.0
  0
POLYLINE
  5
3EB
330
1F
100
AcDbEntity
  8
LOGO
 62
     5
100
AcDb2dPolyline
 66
     1
 10
0.0
 20
0.0
 30
0.0
 40
0.420699548734426
 41
0.420699548734426
  0
VERTEX
  5
3EC
330
3EB
100
AcDbEntity
  8
LOGO
 62
     5
100
AcDbVertex
100
AcDb2dVertex
 10
920.7091482813584
 20
889.3974429926799
 30
0.0
 42
1.0
  0
VERTEX
  5
3ED
330
3EB
100
AcDbEntity
  8
LOGO
 62
     5
100
AcDbVertex
100
AcDb2dVertex
 10
919.4470496351557
 20
889.3974429926799
 30
0.0
 42
1.0
  0
SEQEND
  5
3EE
330
3EB
100
AcDbEntity
  8
LOGO
 62
     5
  0
POLYLINE
  5
3EF
330
1F
100
AcDbEntity
  8
LOGO
 62
     5
100
AcDb2dPolyline
 66
     1
 10
0.0
 20
0.0
 30
0.0
 70
     1
  0
VERTEX
  5
3F0
330
3EF
100
AcDbEntity
  8
LOGO
 62
     5
100
AcDbVertex
100
AcDb2dVertex
 10
917.0679375489138
 20
889.1874297779519
 30
0.0
 42
1.000000057330635
  0
VERTEX
  5
3F1
330
3EF
100
AcDbEntity
  8
LOGO
 62
     5
100
AcDbVertex
100
AcDb2dVertex
 10
918.3280168372826
 20
889.1874297779519
 30
0.0
 42
1.000000057330635
  0
SEQEND
  5
3F2
330
3EF
100
AcDbEntity
  8
LOGO
 62
     5
  0
CIRCLE
  5
3F3
330
1F
100
AcDbEntity
  8
LOGO
 62
     5
100
AcDbCircle
 10
917.6979771930989
 20
889.1874297779519
 30
0.0
 40
0.6300396441846764
  0
POLYLINE
  5
3F4
330
1F
100
AcDbEntity
  8
LOGO
 62
     5
100
AcDb2dPolyline
 66
     1
 10
0.0
 20
0.0
 30
0.0
 70
     1
 40
0.420699548734426
 41
0.420699548734426
  0
VERTEX
  5
3F5
330
3F4
100
AcDbEntity
  8
LOGO
 62
     5
100
AcDbVertex
100
AcDb2dVertex
 10
916.8565780956296
 20
889.1874297779519
 30
0.0
 42
1.0
  0
VERTEX
  5
3F6
330
3F4
100
AcDbEntity
  8
LOGO
 62
     5
100
AcDbVertex
100
AcDb2dVertex
 10
918.5393762905675
 20
889.1874297779519
 30
0.0
 42
1.0
  0
SEQEND
  5
3F7
330
3F4
100
AcDbEntity
  8
LOGO
 62
     5
  0
LINE
  5
3F8
330
1F
100
AcDbEntity
  8
LOGO
100
AcDbLine
 10
920.9181518171687
 20
888.1373637043109
 30
0.0
 11
920.9181518171687
 21
889.3974429926799
 31
0.0
  0
SOLID
  5
3F9
330
1F
100
AcDbEntity
  8
LOGO
 62
     5
100
AcDbTrace
 10
918.3279748346413
 20
890.2374958515931
 30
0.0
 11
918.7480012640973
 21
890.2374958515931
 31
0.0
 12
918.3279748346413
 22
888.1373637043109
 32
0.0
 13
918.7480012640973
 23
888.1373637043109
 33
0.0
  0
SOLID
  5
3FA
330
1F
100
AcDbEntity
  8
LOGO
 62
     5
100
AcDbTrace
 10
919.2380460993435
 20
888.1373637043109
 30
0.0
 11
919.6580725287999
 21
888.1373637043109
 31
0.0
 12
919.2380460993435
 22
890.2374958515931
 32
0.0
 13
919.6580725287999
 23
890.2374958515931
 33
0.0
  0
SOLID
  5
3FB
330
1F
100
AcDbEntity
  8
LOGO
 62
     5
100
AcDbTrace
 10
920.4981253877136
 20
889.3974429926799
 30
0.0
 11
920.9181518171687
 21
889.3974429926799
 31
0.0
 12
920.4981253877136
 22
888.1373637043109
 32
0.0
 13
920.9181518171687
 23
888.1373637043109
 33
0.0
  0
SOLID
  5
3FC
330
1F
100
AcDbEntity
  8
LOGO
 62
     5
100
AcDbTrace
 10
919.1960434563975
 20
902.9642966641233
 30
0.0
 11
917.9779668109745
 21
898.4980156309031
 31
0.0
 12
919.1960434563975
 22
892.3376279988747
 32
0.0
 13
917.9779668109745
 23
892.3376279988747
 33
0.0
  0
SOLID
  5
3FD
330
1F
100
AcDbEntity
  8
LOGO
 62
     5
100
AcDbTrace
 10
919.7000751717457
 20
892.3376279988747
 30
0.0
 11
920.9181518171687
 21
892.3376279988747
 31
0.0
 12
919.7000751717457
 22
903.8883548089271
 32
0.0
 13
920.9181518171687
 23
903.888354808928
 33
0.0
  0
SOLID
  5
3FE
330
1F
100
AcDbEntity
  8
LOGO
 62
     2
100
AcDbTrace
 10
919.1960434563975
 20
903.888354808928
 30
0.0
 11
919.7000751717457
 21
903.8883548089271
 31
0.0
 12
919.1960434563975
 22
892.3376279988747
 32
0.0
 13
919.7000751717457
 23
892.3376279988747
 33
0.0
  0
POLYLINE
  5
3FF
330
1F
100
AcDbEntity
  8
LOGO
 62
     5
100
AcDb2dPolyline
 66
     1
 10
0.0
 20
0.0
 30
0.0
 40
0.420699548734426
 41
0.420699548734426
  0
VERTEX
  5
400
330
3FF
100
AcDbEntity
  8
LOGO
 62
     5
100
AcDbVertex
100
AcDb2dVertex
 10
914.688741457388
 20
889.3974429926799
 30
0.0
 42
1.0
  0
VERTEX
  5
401
330
3FF
100
AcDbEntity
  8
LOGO
 62
     5
100
AcDbVertex
100
AcDb2dVertex
 10
913.4266428111839
 20
889.3974429926799
 30
0.0
 42
1.0
  0
SEQEND
  5
402
330
3FF
100
AcDbEntity
  8
LOGO
 62
     5
  0
POLYLINE
  5
403
330
1F
100
AcDbEntity
  8
LOGO
 62
     5
100
AcDb2dPolyline
 66
     1
 10
0.0
 20
0.0
 30
0.0
 40
0.420699548734426
 41
0.420699548734426
  0
VERTEX
  5
404
330
403
100
AcDbEntity
  8
LOGO
 62
     5
100
AcDbVertex
100
AcDb2dVertex
 10
915.9488207457567
 20
889.3974429926799
 30
0.0
 42
1.0
  0
VERTEX
  5
405
330
403
100
AcDbEntity
  8
LOGO
 62
     5
100
AcDbVertex
100
AcDb2dVertex
 10
914.6867220995531
 20
889.3974429926799
 30
0.0
 42
1.0
  0
SEQEND
  5
406
330
403
100
AcDbEntity
  8
LOGO
 62
     5
  0
POLYLINE
  5
407
330
1F
100
AcDbEntity
  8
LOGO
 62
     5
100
AcDb2dPolyline
 66
     1
 10
0.0
 20
0.0
 30
0.0
 40
0.420699548734426
 41
0.420699548734426
  0
VERTEX
  5
408
330
407
100
AcDbEntity
  8
LOGO
 62
     5
100
AcDbVertex
100
AcDb2dVertex
 10
909.9284139217848
 20
889.3974429926799
 30
0.0
 42
1.0
  0
VERTEX
  5
409
330
407
100
AcDbEntity
  8
LOGO
 62
     5
100
AcDbVertex
100
AcDb2dVertex
 10
908.6663152755814
 20
889.3974429926799
 30
0.0
 42
1.0
  0
SEQEND
  5
40A
330
407
100
AcDbEntity
  8
LOGO
 62
     5
  0
SOLID
  5
40B
330
1F
100
AcDbEntity
  8
LOGO
 62
     5
100
AcDbTrace
 10
908.4573117397706
 20
890.2374958515931
 30
0.0
 11
908.8773381692263
 21
890.2374958515931
 31
0.0
 12
908.4573117397706
 22
888.1373637043109
 32
0.0
 13
908.8773381692263
 23
888.1373637043109
 33
0.0
  0
SOLID
  5
40C
330
1F
100
AcDbEntity
  8
LOGO
 62
     5
100
AcDbTrace
 10
909.7173910281403
 20
889.3974429926799
 30
0.0
 11
910.1374174575978
 21
889.3974429926799
 31
0.0
 12
909.7173910281403
 22
888.1373637043109
 32
0.0
 13
910.1374174575978
 23
888.1373637043109
 33
0.0
  0
POLYLINE
  5
40D
330
1F
100
AcDbEntity
  8
LOGO
 62
     5
100
AcDb2dPolyline
 66
     1
 10
0.0
 20
0.0
 30
0.0
 70
     1
 40
0.420699548734426
 41
0.420699548734426
  0
VERTEX
  5
40E
330
40D
100
AcDbEntity
  8
LOGO
 62
     5
100
AcDbVertex
100
AcDb2dVertex
 10
910.8361712716583
 20
889.1874297779519
 30
0.0
 42
1.0
  0
VERTEX
  5
40F
330
40D
100
AcDbEntity
  8
LOGO
 62
     5
100
AcDbVertex
100
AcDb2dVertex
 10
912.518969466596
 20
889.1874297779519
 30
0.0
 42
1.0
  0
SEQEND
  5
410
330
40D
100
AcDbEntity
  8
LOGO
 62
     5
  0
SOLID
  5
411
330
1F
100
AcDbEntity
  8
LOGO
 62
     5
100
AcDbTrace
 10
912.3075680106699
 20
890.8675354957781
 30
0.0
 11
912.727594440126
 21
890.8675354957781
 31
0.0
 12
912.3075680106699
 22
888.1373637043109
 32
0.0
 13
912.727594440126
 23
888.1373637043109
 33
0.0
  0
SOLID
  5
412
330
1F
100
AcDbEntity
  8
LOGO
 62
     5
100
AcDbTrace
 10
913.2176392753738
 20
890.2374958515931
 30
0.0
 11
913.63766570483
 21
890.2374958515931
 31
0.0
 12
913.2176392753738
 22
888.1373637043109
 32
0.0
 13
913.63766570483
 23
888.1373637043109
 33
0.0
  0
SOLID
  5
413
330
1F
100
AcDbEntity
  8
LOGO
 62
     5
100
AcDbTrace
 10
914.4777185637421
 20
889.3974429926799
 30
0.0
 11
914.8977449931985
 21
889.3974429926799
 31
0.0
 12
914.4777185637421
 22
888.1373637043109
 32
0.0
 13
914.8977449931985
 23
888.1373637043109
 33
0.0
  0
SOLID
  5
414
330
1F
100
AcDbEntity
  8
LOGO
 62
     5
100
AcDbTrace
 10
915.7377978521108
 20
889.3974429926799
 30
0.0
 11
916.157824281568
 21
889.3974429926799
 31
0.0
 12
915.7377978521108
 22
888.1373637043104
 32
0.0
 13
916.157824281568
 23
888.1373637043104
 33
0.0
  0
SOLID
  5
415
330
1F
100
AcDbEntity
  8
LOGO
 62
     5
100
AcDbTrace
 10
907.5472404750668
 20
890.5315143522125
 30
0.0
 11
907.9672669045253
 21
890.5315143522125
 31
0.0
 12
907.5472404750668
 22
890.8675354957781
 32
0.0
 13
907.9672669045253
 23
890.8675354957781
 33
0.0
  0
SOLID
  5
416
330
1F
100
AcDbEntity
  8
LOGO
 62
     5
100
AcDbTrace
 10
907.5472404750668
 20
890.2374958515931
 30
0.0
 11
907.9672669045253
 21
890.2374958515931
 31
0.0
 12
907.5472404750668
 22
888.1373637043104
 32
0.0
 13
907.9672669045253
 23
888.1373637043109
 33
0.0
  0
SOLID
  5
417
330
1F
100
AcDbEntity
  8
LOGO
 62
     5
100
AcDbTrace
 10
911.6775703691271
 20
892.3376279988756
 30
0.0
 11
912.895647014551
 21
892.3376279988756
 31
0.0
 12
911.6775703691271
 22
898.4980156309031
 32
0.0
 13
912.895647014551
 23
902.9642966641233
 33
0.0
  0
SOLID
  5
418
330
1F
100
AcDbEntity
  8
LOGO
 62
     5
100
AcDbTrace
 10
913.3996787298997
 20
903.8883548089271
 30
0.0
 11
914.6177553753231
 21
903.888354808928
 31
0.0
 12
913.3996787298997
 22
893.2616861436791
 32
0.0
 13
914.6177553753231
 23
897.7279671768995
 33
0.0
  0
SOLID
  5
419
330
1F
100
AcDbEntity
  8
LOGO
 62
     2
100
AcDbTrace
 10
912.895647014551
 20
903.8883548089271
 30
0.0
 11
913.3996787298997
 21
903.8883548089271
 31
0.0
 12
912.895647014551
 22
892.3376279988756
 32
0.0
 13
913.3996787298997
 23
892.3376279988756
 33
0.0
  0
SOLID
  5
41A
330
1F
100
AcDbEntity
  8
LOGO
 62
     5
100
AcDbTrace
 10
913.3996787298997
 20
893.2616861436791
 30
0.0
 11
914.6177553753231
 21
897.7279671768995
 31
0.0
 12
919.1960434563975
 22
903.888354808928
 32
0.0
 13
917.9779668109745
 23
903.888354808928
 33
0.0
  0
SOLID
  5
41B
330
1F
100
AcDbEntity
  8
LOGO
 62
     5
100
AcDbTrace
 10
913.3996787298997
 20
892.3376279988756
 30
0.0
 11
914.6177553753231
 21
892.3376279988756
 31
0.0
 12
919.1960434563975
 22
902.9642966641233
 32
0.0
 13
917.9779668109745
 23
898.4980156309031
 33
0.0
  0
SOLID
  5
41C
330
1F
100
AcDbEntity
  8
LOGO
 62
     2
100
AcDbTrace
 10
912.895647014551
 20
892.3376279988756
 30
0.0
 11
913.3996787298997
 21
892.3376279988756
 31
0.0
 12
919.1960434563975
 22
903.888354808928
 32
0.0
 13
919.7000751717457
 23
903.8883548089271
 33
0.0
  0
LWPOLYLINE
  5
41D
330
1F
100
AcDbEntity
  8
LOGO
 62
     4
100
AcDbPolyline
 90
        4
 70
     1
 43
0.0
 10
902.4542998188472
 20
904.5575666674078
 10
1195.128880799716
 20
904.5575666674078
 10
1195.128880799716
 20
876.3857218860847
 10
902.4542998188472
 20
876.3857218860847
1001
GENIUS_GENREC_14
1002
{
1000
PYDIR
1011
902.4542998188472
1021
876.3857218860847
1031
0.0
1002
}
1002
{
1000
PXDIR
1011
1195.128880799716
1021
904.5575666674078
1031
0.0
1002
}
1002
{
1000
PORI
1011
902.4542998188472
1021
904.5575666674078
1031
0.0
1002
}
1002
{
1000
PINS
1011
902.4542998188472
1021
904.5575666674078
1031
0.0
1002
}
1002
{
1000
PINS2
1011
1195.128880799716
1021
876.3857218860847
1031
0.0
1002
}
1002
{
1000
C
1070
     1
1002
}
1001
GENIUS_GENOBJ-N-REC_13
1002
{
1000
OWNER
1000
GEN
1002
}
1001
GENIUS_GENODEF_13
1002
{
1000
HIER
1070
     0
1002
}
1002
{
1000
MANEDIT
1070
     0
1002
}
1002
{
1000
NOSEL
1070
     0
1002
}
1002
{
1000
BEHIND
1070
     0
1002
}
1002
{
1000
OTHER
1070
     0
1002
}
1002
{
1000
REACTOR
1002
}
  0
TEXT
  5
41E
330
1F
100
AcDbEntity
  8
LOGO
100
AcDbText
 10
965.7376581834862
 20
877.8844529092022
 30
0.0
 40
2.817592455320418
  1
01109060
 41
0.7
  7
CHINESET
 72
     1
 11
972.5937998247658
 21
877.8844529092022
 31
0.0
100
AcDbText
  0
LINE
  5
41F
330
1F
100
AcDbEntity
  8
LOGO
 62
     4
100
AcDbLine
 10
981.3379130696782
 20
882.0200908423501
 30
0.0
 11
981.3379130696803
 21
876.3857218860851
 31
0.0
  0
LINE
  5
420
330
1F
100
AcDbEntity
  8
LOGO
 62
     4
100
AcDbLine
 10
981.3379130696782
 20
882.0200908423501
 30
0.0
 11
964.4323583377577
 21
882.0200908423501
 31
0.0
  0
CIRCLE
  5
421
330
1F
100
AcDbEntity
  8
LOGO
  6
Continuous
100
AcDbCircle
 10
950.8674979126688
 20
896.1120392112254
 30
0.0
 40
1.635723617051456
  0
CIRCLE
  5
422
330
1F
100
AcDbEntity
  8
LOGO
  6
Continuous
100
AcDbCircle
 10
950.8674979126688
 20
896.1120392112254
 30
0.0
 40
0.9583892371730611
  0
LINE
  5
423
330
1F
100
AcDbEntity
  8
LOGO
100
AcDbLine
 10
961.1465749235618
 20
894.4763155941737
 30
0.0
 11
961.1465749235618
 21
897.7477628282771
 31
0.0
  0
LINE
  5
424
330
1F
100
AcDbEntity
  8
LOGO
100
AcDbLine
 10
956.0186752791205
 20
895.1536499740525
 30
0.0
 11
956.0186752791205
 21
897.0704284483987
 31
0.0
  0
LINE
  5
425
330
1F
100
AcDbEntity
  8
LOGO
  6
Continuous
100
AcDbLine
 10
956.0186752791205
 20
897.0704284483987
 30
0.0
 11
961.1465749235618
 21
897.7477628282771
 31
0.0
  0
LINE
  5
426
330
1F
100
AcDbEntity
  8
LOGO
  6
Continuous
100
AcDbLine
 10
956.0186752791205
 20
895.1536499740525
 30
0.0
 11
961.1465749235618
 21
894.4763155941737
 31
0.0
  0
LINE
  5
427
330
1F
100
AcDbEntity
  8
LOGO
  6
AM_ISO08W050x2
 48
0.3
100
AcDbLine
 10
948.6126284135298
 20
896.1120392112254
 30
0.0
 11
953.1223674118054
 21
896.1120392112254
 31
0.0
1001
GENIUS_GENOREF_13
1005
50F
  0
LINE
  5
428
330
1F
100
AcDbEntity
  8
LOGO
  6
AM_ISO08W050x2
 48
0.3
100
AcDbLine
 10
950.8674979126688
 20
893.8571697120877
 30
0.0
 11
950.8674979126688
 21
898.3669087103635
 31
0.0
1001
GENIUS_GENOREF_13
1005
50E
  0
LINE
  5
429
330
1F
100
AcDbEntity
  8
LOGO
  6
CENTER
 48
0.5
100
AcDbLine
 10
955.6085858368696
 20
896.1120392112254
 30
0.0
 11
961.662937817889
 21
896.1120392112254
 31
0.0
1001
GENIUS_GENOREF_13
1005
50D
  0
LINE
  5
42A
330
1F
100
AcDbEntity
  8
LOGO
 62
     4
100
AcDbLine
 10
1057.648660102104
 20
878.7333756178618
 30
0.0
 11
1038.867430247889
 21
878.7333756178618
 31
0.0
  0
LINE
  5
42B
330
1F
100
AcDbEntity
  8
LOGO
 62
     4
100
AcDbLine
 10
1057.648660102104
 20
889.0630520376801
 30
0.0
 11
1038.867430247889
 21
889.0630520376801
 31
0.0
  0
LINE
  5
42C
330
1F
100
AcDbEntity
  8
LOGO
 62
     4
100
AcDbLine
 10
1053.602965207974
 20
893.2888287548784
 30
0.0
 11
1042.107229516884
 21
893.2888287548784
 31
0.0
  0
LINE
  5
42D
330
1F
100
AcDbEntity
  8
LOGO
 62
     4
100
AcDbLine
 10
1053.602965207974
 20
901.7403821892756
 30
0.0
 11
1042.107229516884
 21
901.7403821892756
 31
0.0
  0
TEXT
  5
42E
330
1F
100
AcDbEntity
  8
LOGO
  6
Continuous
 62
     7
100
AcDbText
 10
1044.904254129601
 20
895.1669517403002
 30
0.0
 40
4.695307463553823
  1
15
  7
CHINESET
 72
     1
 11
1048.258045174996
 21
897.5146054720772
 31
0.0
100
AcDbText
 73
     2
  0
LINE
  5
42F
330
1F
100
AcDbEntity
  8
LOGO
 62
     4
100
AcDbLine
 10
1042.107229516884
 20
901.7403821892756
 30
0.0
 11
1042.107229516884
 21
893.2888287548784
 31
0.0
  0
LINE
  5
430
330
1F
100
AcDbEntity
  8
LOGO
 62
     4
100
AcDbLine
 10
1038.867430247889
 20
889.0630520376801
 30
0.0
 11
1038.867430247889
 21
878.7333756178618
 31
0.0
  0
TEXT
  5
431
330
1F
100
AcDbEntity
  8
LOGO
100
AcDbText
 10
1043.024554672908
 20
880.1464774742658
 30
0.0
 40
1.869103750745776
  1
PIPE SIZE
 72
     4
 11
1048.258045174996
 21
881.0810293496386
 31
0.0
100
AcDbText
  0
TEXT
  5
432
330
1F
100
AcDbEntity
  8
LOGO
100
AcDbText
 10
1040.706425671114
 20
883.898213827771
 30
0.0
 40
3.756245970843058
  1
配管口徑
  7
CHINESET
 72
     4
 11
1048.258045174996
 21
885.7763368131925
 31
0.0
100
AcDbText
  0
LINE
  5
433
330
1F
100
AcDbEntity
  8
LOGO
 62
     4
100
AcDbLine
 10
1048.258045174996
 20
893.2888287548784
 30
0.0
 11
1048.258045174996
 21
889.0630520376801
 31
0.0
  0
LINE
  5
434
330
1F
100
AcDbEntity
  8
LOGO
 62
     4
100
AcDbLine
 10
1053.602965207974
 20
901.7403821892756
 30
0.0
 11
1053.602965207974
 21
893.2888287548784
 31
0.0
  0
LINE
  5
435
330
1F
100
AcDbEntity
  8
LOGO
 62
     4
100
AcDbLine
 10
1057.648660102104
 20
889.0630520376801
 30
0.0
 11
1057.648660102104
 21
878.7333756178618
 31
0.0
  0
LINE
  5
436
330
1F
100
AcDbEntity
  8
0
100
AcDbLine
 10
1029.098722691285
 20
897.3339225695397
 30
0.0
 11
1033.512760789299
 21
897.3339225695397
 31
0.0
  0
LWPOLYLINE
  5
437
330
1F
100
AcDbEntity
  8
0
 62
     4
100
AcDbPolyline
 90
        4
 70
     1
 43
0.0
 10
902.4542998188472
 20
1107.822732647955
 10
1195.128880799716
 20
1107.822732647955
 10
1195.128880799716
 20
904.5575666674078
 10
902.4542998188472
 20
904.5575666674078
  0
LINE
  5
438
330
1F
100
AcDbEntity
  8
0
100
AcDbLine
 10
957.9896785456211
 20
960.8086595779708
 30
0.0
 11
989.9896785456217
 21
960.8086595779711
 31
0.0
  0
ARC
  5
439
330
1F
100
AcDbEntity
  8
0
100
AcDbCircle
 10
988.3872641312654
 20
975.6124745800812
 30
0.0
 40
3.096774193548386
100
AcDbArc
 50
282.5557845820436
 51
326.6295670640285
  0
LINE
  5
43A
330
1F
100
AcDbEntity
  8
0
100
AcDbLine
 10
940.0219366101381
 20
957.2816131612622
 30
0.0
 11
1007.957420481105
 21
957.2816131612622
 31
0.0
  0
LINE
  5
43B
330
1F
100
AcDbEntity
  8
0
100
AcDbLine
 10
1031.201681459677
 20
978.1461292902951
 30
0.0
 11
1048.386726883453
 21
978.1461292902951
 31
0.0
  0
LINE
  5
43C
330
1F
100
AcDbEntity
  8
0
100
AcDbLine
 10
1031.201681459677
 20
985.5461292902951
 30
0.0
 11
1085.201681459677
 21
985.5461292902951
 31
0.0
  0
CIRCLE
  5
43D
330
1F
100
AcDbEntity
  8
0
100
AcDbCircle
 10
951.7396785456208
 20
1053.854715245462
 30
0.0
 40
2.5
  0
CIRCLE
  5
43E
330
1F
100
AcDbEntity
  8
0
100
AcDbCircle
 10
996.2396785456217
 20
1053.854715245462
 30
0.0
 40
2.5
  0
CIRCLE
  5
43F
330
1F
100
AcDbEntity
  8
DIM
100
AcDbCircle
 10
996.2396785456217
 20
1053.854715245462
 30
0.0
 40
3.0
  0
CIRCLE
  5
440
330
1F
100
AcDbEntity
  8
DIM
100
AcDbCircle
 10
951.7396785456208
 20
1053.854715245462
 30
0.0
 40
3.0
  0
LINE
  5
441
330
1F
100
AcDbEntity
  8
CEN
100
AcDbLine
 10
973.9896785456208
 20
1063.238392189281
 30
0.0
 11
973.9896785456208
 21
999.9710383016445
 31
0.0
  0
CIRCLE
  5
442
330
1F
100
AcDbEntity
  8
0
100
AcDbCircle
 10
973.9896785456211
 20
1031.604715245463
 30
0.0
 40
23.5
  0
CIRCLE
  5
443
330
1F
100
AcDbEntity
  8
0
100
AcDbCircle
 10
973.9896785456211
 20
1031.604715245463
 30
0.0
 40
24.0
  0
CIRCLE
  5
444
330
1F
100
AcDbEntity
  8
0
100
AcDbCircle
 10
973.9896785456211
 20
1031.604715245463
 30
0.0
 40
19.5
  0
CIRCLE
  5
445
330
1F
100
AcDbEntity
  8
0
100
AcDbCircle
 10
973.9896785456211
 20
1031.604715245463
 30
0.0
 40
10.5
  0
CIRCLE
  5
446
330
1F
100
AcDbEntity
  8
0
100
AcDbCircle
 10
973.9896785456211
 20
1031.604715245463
 30
0.0
 40
8.25
  0
LINE
  5
447
330
1F
100
AcDbEntity
  8
CEN
100
AcDbLine
 10
935.4877527816224
 20
1031.604715245463
 30
0.0
 11
1012.491604309619
 21
1031.604715245463
 31
0.0
  0
ARC
  5
448
330
1F
100
AcDbEntity
  8
0
100
AcDbCircle
 10
944.4410659842802
 20
1020.349161745997
 30
0.0
 40
5.45138925208403
100
AcDbArc
 50
136.4555767735811
 51
200.4639006421831
  0
LINE
  5
449
330
1F
100
AcDbEntity
  8
0
100
AcDbLine
 10
938.9896785456212
 20
1043.864188928848
 30
0.0
 11
938.9896785456212
 21
1018.993722073842
 31
0.0
  0
LINE
  5
44A
330
1F
100
AcDbEntity
  8
0
100
AcDbLine
 10
940.4896785456212
 20
1016.593608246532
 30
0.0
 11
938.9896785456212
 21
1018.993722073842
 31
0.0
  0
LINE
  5
44B
330
1F
100
AcDbEntity
  8
0
100
AcDbLine
 10
940.4896785456212
 20
1016.593608246532
 30
0.0
 11
945.2396785456212
 21
1016.593608246532
 31
0.0
  0
CIRCLE
  5
44C
330
1F
100
AcDbEntity
  8
0
100
AcDbCircle
 10
951.7396785456208
 20
1009.354715245462
 30
0.0
 40
2.5
  0
CIRCLE
  5
44D
330
1F
100
AcDbEntity
  8
DIM
100
AcDbCircle
 10
951.7396785456208
 20
1009.354715245462
 30
0.0
 40
3.0
  0
ARC
  5
44E
330
1F
100
AcDbEntity
  8
0
100
AcDbCircle
 10
944.4410659842805
 20
1042.860268744928
 30
0.0
 40
5.451389252084196
100
AcDbArc
 50
166.3521018873328
 51
223.5444232264188
  0
LINE
  5
44F
330
1F
100
AcDbEntity
  8
0
100
AcDbLine
 10
940.4896785456212
 20
1024.104715245463
 30
0.0
 11
944.9896785456212
 21
1024.104715245463
 31
0.0
  0
LINE
  5
450
330
1F
100
AcDbEntity
  8
0
100
AcDbLine
 10
940.4896785456212
 20
1039.104715245463
 30
0.0
 11
944.9896785456212
 21
1039.104715245463
 31
0.0
  0
ARC
  5
451
330
1F
100
AcDbEntity
  8
0
100
AcDbCircle
 10
958.4896785456214
 20
1031.604715245463
 30
0.0
 40
19.5000000000002
100
AcDbArc
 50
157.3801350519605
 51
202.6198649480394
  0
LINE
  5
452
330
1F
100
AcDbEntity
  8
0
100
AcDbLine
 10
940.4896785456212
 20
1046.615822244393
 30
0.0
 11
938.9896785456212
 21
1043.864188928848
 31
0.0
  0
LINE
  5
453
330
1F
100
AcDbEntity
  8
0
100
AcDbLine
 10
940.4896785456212
 20
1046.615822244393
 30
0.0
 11
945.2396785456212
 21
1046.615822244393
 31
0.0
  0
LINE
  5
454
330
1F
100
AcDbEntity
  8
0
100
AcDbLine
 10
955.9896785456212
 20
1024.104715245463
 30
0.0
 11
963.4896785456213
 21
1024.104715245463
 31
0.0
  0
LINE
  5
455
330
1F
100
AcDbEntity
  8
0
100
AcDbLine
 10
955.9896785456212
 20
1039.104715245463
 30
0.0
 11
963.4896785456213
 21
1039.104715245463
 31
0.0
  0
LINE
  5
456
330
1F
100
AcDbEntity
  8
0
100
AcDbLine
 10
963.4896785456213
 20
1039.104715245463
 30
0.0
 11
963.4896785456213
 21
1024.104715245463
 31
0.0
  0
ARC
  5
457
330
1F
100
AcDbEntity
  8
0
100
AcDbCircle
 10
1031.201681459677
 20
980.1461292902951
 30
0.0
 40
2.0
100
AcDbArc
 50
180.0
 51
270.0
  0
ARC
  5
458
330
1F
100
AcDbEntity
  8
0
100
AcDbCircle
 10
1031.201681459677
 20
983.546129290295
 30
0.0
 40
2.0
100
AcDbArc
 50
90.0
 51
180.0
  0
LINE
  5
459
330
1F
100
AcDbEntity
  8
0
100
AcDbLine
 10
1029.201681459677
 20
983.5461292902957
 30
0.0
 11
1029.201681459676
 21
980.1461292902956
 31
0.0
  0
ARC
  5
45A
330
1F
100
AcDbEntity
  8
0
100
AcDbCircle
 10
1003.538291106963
 20
1020.349161745997
 30
0.0
 40
5.451389252083062
100
AcDbArc
 50
339.5360993578108
 51
43.54442322641884
  0
LINE
  5
45B
330
1F
100
AcDbEntity
  8
0
100
AcDbLine
 10
1008.989678545621
 20
1043.864188928848
 30
0.0
 11
1008.989678545621
 21
1018.993722073842
 31
0.0
  0
CIRCLE
  5
45C
330
1F
100
AcDbEntity
  8
0
100
AcDbCircle
 10
996.2396785456217
 20
1009.354715245462
 30
0.0
 40
2.5
  0
CIRCLE
  5
45D
330
1F
100
AcDbEntity
  8
DIM
100
AcDbCircle
 10
996.2396785456217
 20
1009.354715245462
 30
0.0
 40
3.0
  0
LINE
  5
45E
330
1F
100
AcDbEntity
  8
0
100
AcDbLine
 10
1007.489678545621
 20
1016.593608246532
 30
0.0
 11
1008.989678545621
 21
1018.993722073842
 31
0.0
  0
LINE
  5
45F
330
1F
100
AcDbEntity
  8
0
100
AcDbLine
 10
1007.489678545621
 20
1016.593608246532
 30
0.0
 11
1002.739678545621
 21
1016.593608246532
 31
0.0
  0
ARC
  5
460
330
1F
100
AcDbEntity
  8
0
100
AcDbCircle
 10
1003.538291106962
 20
1042.860268744928
 30
0.0
 40
5.451389252084196
100
AcDbArc
 50
316.4555767735811
 51
13.64789811266717
  0
ARC
  5
461
330
1F
100
AcDbEntity
  8
0
100
AcDbCircle
 10
989.4896785456204
 20
1031.604715245463
 30
0.0
 40
19.50000000000046
100
AcDbArc
 50
337.3801350519606
 51
22.61986494803942
  0
LINE
  5
462
330
1F
100
AcDbEntity
  8
0
100
AcDbLine
 10
1007.489678545621
 20
1024.104715245463
 30
0.0
 11
1002.739678545621
 21
1024.104715245463
 31
0.0
  0
LINE
  5
463
330
1F
100
AcDbEntity
  8
0
100
AcDbLine
 10
1007.489678545621
 20
1039.104715245463
 30
0.0
 11
1002.739678545621
 21
1039.104715245463
 31
0.0
  0
LINE
  5
464
330
1F
100
AcDbEntity
  8
0
100
AcDbLine
 10
1007.489678545621
 20
1046.615822244393
 30
0.0
 11
1008.989678545621
 21
1043.864188928848
 31
0.0
  0
LINE
  5
465
330
1F
100
AcDbEntity
  8
0
100
AcDbLine
 10
1007.489678545621
 20
1046.615822244393
 30
0.0
 11
1002.739678545621
 21
1046.615822244393
 31
0.0
  0
ARC
  5
466
330
1F
100
AcDbEntity
  8
0
100
AcDbCircle
 10
937.155464702857
 20
963.781613161262
 30
0.0
 40
20.84148393573965
100
AcDbArc
 50
341.8275569499297
 51
18.17244305007031
  0
LINE
  5
467
330
1F
100
AcDbEntity
  8
0
100
AcDbLine
 10
956.9574204811051
 20
957.2816131612631
 30
0.0
 11
957.9896785456211
 21
960.8086595779708
 31
0.0
  0
ARC
  5
468
330
1F
100
AcDbEntity
  8
0
100
AcDbCircle
 10
959.8238923883755
 20
963.7816131612643
 30
0.0
 40
20.84148393573002
100
AcDbArc
 50
161.8275569499111
 51
198.1724430500888
  0
LINE
  5
469
330
1F
100
AcDbEntity
  8
0
100
AcDbLine
 10
940.0219366101378
 20
957.2816131612635
 30
0.0
 11
938.9896785456205
 21
960.8086595779713
 31
0.0
  0
ARC
  5
46A
330
1F
100
AcDbEntity
  8
0
100
AcDbCircle
 10
960.0541946746535
 20
968.2446869140088
 30
0.0
 40
2.064516129032258
100
AcDbArc
 50
180.0
 51
282.5557845820436
  0
LINE
  5
46B
330
1F
100
AcDbEntity
  8
0
100
AcDbLine
 10
957.9896785456211
 20
968.2446869140088
 30
0.0
 11
957.0475582125117
 21
978.1461292902951
 31
0.0
  0
LINE
  5
46C
330
1F
100
AcDbEntity
  8
0
100
AcDbLine
 10
938.9896785456205
 20
979.6577925510062
 30
0.0
 11
938.9896785456217
 21
960.8086595779685
 31
0.0
  0
ARC
  5
46D
330
1F
100
AcDbEntity
  8
0
100
AcDbCircle
 10
959.9493559649737
 20
976.7816131612606
 30
0.0
 40
20.96072618359146
100
AcDbArc
 50
161.9345163460763
 51
198.0654836539092
  0
LINE
  5
46E
330
1F
100
AcDbEntity
  8
0
100
AcDbLine
 10
956.9574204811051
 20
970.2816131612621
 30
0.0
 11
940.0219366101369
 21
970.2816131612625
 31
0.0
  0
ARC
  5
46F
330
1F
100
AcDbEntity
  8
0
100
AcDbCircle
 10
935.6670979004594
 20
976.9912905806169
 30
0.0
 40
22.32258064516165
100
AcDbArc
 50
342.5076754748893
 51
348.8486603762418
  0
LINE
  5
470
330
1F
100
AcDbEntity
  8
0
100
AcDbLine
 10
957.9896785456211
 20
968.2446869140081
 30
0.0
 11
957.9896785456211
 21
960.8086595779708
 31
0.0
  0
LINE
  5
471
330
1F
100
AcDbEntity
  8
0
100
AcDbLine
 10
944.0541946746535
 20
983.2816131612622
 30
0.0
 11
940.0219366101381
 21
983.2816131612627
 31
0.0
  0
LINE
  5
472
330
1F
100
AcDbEntity
  8
0
100
AcDbLine
 10
940.0219366101381
 20
983.2816131612627
 30
0.0
 11
938.9896785456205
 21
979.6577925510062
 31
0.0
  0
LINE
  5
473
330
1F
100
AcDbEntity
  8
0
100
AcDbLine
 10
944.0541946746529
 20
980.1461292902951
 30
0.0
 11
944.0541946746535
 21
984.2816131612625
 31
0.0
  0
LINE
  5
474
330
1F
100
AcDbEntity
  8
0
100
AcDbLine
 10
964.6993559649754
 20
978.1461292902951
 30
0.0
 11
964.6993559649754
 21
970.7977421935204
 31
0.0
  0
LINE
  5
475
330
1F
100
AcDbEntity
  8
0
100
AcDbLine
 10
983.280001126266
 20
978.1461292902951
 30
0.0
 11
983.280001126266
 21
970.7977421935204
 31
0.0
  0
LINE
  5
476
330
1F
100
AcDbEntity
  8
0
100
AcDbLine
 10
966.7638720940086
 20
968.7332260644879
 30
0.0
 11
981.2154849972339
 21
968.7332260644879
 31
0.0
  0
LINE
  5
477
330
1F
100
AcDbEntity
  8
0
100
AcDbLine
 10
960.5029999537009
 20
966.2295440732817
 30
0.0
 11
971.7445719127844
 21
968.7332260644879
 31
0.0
  0
ARC
  5
478
330
1F
100
AcDbEntity
  8
0
100
AcDbCircle
 10
966.7638720940086
 20
970.7977421935204
 30
0.0
 40
2.064516129032258
100
AcDbArc
 50
180.0
 51
270.0
  0
ARC
  5
479
330
1F
100
AcDbEntity
  8
0
100
AcDbCircle
 10
981.2154849972339
 20
970.7977421935204
 30
0.0
 40
2.064516129032258
100
AcDbArc
 50
270.0
 51
0.0
  0
LINE
  5
47A
330
1F
100
AcDbEntity
  8
0
100
AcDbLine
 10
983.280001126266
 20
971.3023548738528
 30
0.0
 11
989.0604720498377
 21
972.589760318991
 31
0.0
  0
POINT
  5
47B
330
1F
100
AcDbEntity
  8
Defpoints
  6
ByBlock
 62
     0
100
AcDbPoint
 10
1002.300297235047
 20
1056.633921702057
 30
0.0
  0
LINE
  5
47C
330
1F
100
AcDbEntity
  8
0
100
AcDbLine
 10
1068.016636035901
 20
978.1461292902951
 30
0.0
 11
1085.201681459676
 21
978.1461292902951
 31
0.0
  0
CIRCLE
  5
47D
330
1F
100
AcDbEntity
  8
0
100
AcDbCircle
 10
1058.201681459677
 20
970.2816131612623
 30
0.0
 40
10.5
  0
CIRCLE
  5
47E
330
1F
100
AcDbEntity
  8
0
100
AcDbCircle
 10
1058.201681459677
 20
970.2816131612623
 30
0.0
 40
12.5
  0
LWPOLYLINE
  5
47F
330
1F
100
AcDbEntity
  8
0
100
AcDbPolyline
 90
        6
 70
     1
 43
0.0
 10
1050.696127960212
 20
983.2816131612622
 10
1043.190574460747
 20
970.2816131612623
 10
1050.696127960212
 20
957.2816131612622
 10
1065.707234959142
 20
957.2816131612622
 10
1073.212788458607
 20
970.2816131612623
 10
1065.707234959142
 20
983.2816131612622
  0
CIRCLE
  5
480
330
1F
100
AcDbEntity
  8
0
100
AcDbCircle
 10
1058.201681459677
 20
970.2816131612623
 30
0.0
 40
7.5
  0
CIRCLE
  5
481
330
1F
100
AcDbEntity
  8
0
100
AcDbCircle
 10
1058.201681459677
 20
970.2816131612623
 30
0.0
 40
9.9
  0
LINE
  5
482
330
1F
100
AcDbEntity
  8
CEN
 48
0.5
100
AcDbLine
 10
1036.702268420714
 20
970.2816131612623
 30
0.0
 11
1079.70109449864
 21
970.2816131612623
 31
0.0
  0
LINE
  5
483
330
1F
100
AcDbEntity
  8
0
100
AcDbLine
 10
1050.696127960212
 20
957.2816131612622
 30
0.0
 11
1064.82610418474
 21
957.2816131612622
 31
0.0
  0
LINE
  5
484
330
1F
100
AcDbEntity
  8
0
100
AcDbLine
 10
1039.204828797809
 20
967.8961064534799
 30
0.0
 11
1045.499975537505
 21
966.2816131612622
 31
0.0
  0
ARC
  5
485
330
1F
100
AcDbEntity
  8
0
100
AcDbCircle
 10
1038.701681459677
 20
973.2816131612622
 30
0.0
 40
1.0
100
AcDbArc
 50
180.0
 51
270.0
  0
LINE
  5
486
330
1F
100
AcDbEntity
  8
0
100
AcDbLine
 10
1038.701681459677
 20
972.2816131612622
 30
0.0
 11
1044.345274999126
 21
972.2816131612622
 31
0.0
  0
ARC
  5
487
330
1F
100
AcDbEntity
  8
0
100
AcDbCircle
 10
1036.701681459677
 20
977.1461292902952
 30
0.0
 40
1.0
100
AcDbArc
 50
0.0
 51
90.0
  0
ARC
  5
488
330
1F
100
AcDbEntity
  8
0
100
AcDbCircle
 10
1037.201681459677
 20
969.2816131612623
 30
0.0
 40
1.0
100
AcDbArc
 50
180.0
 51
270.0
  0
ARC
  5
489
330
1F
100
AcDbEntity
  8
0
100
AcDbCircle
 10
1039.701681459677
 20
969.833408038777
 30
0.0
 40
2.0
100
AcDbArc
 50
230.8864684591362
 51
255.6155899183771
  0
LINE
  5
48A
330
1F
100
AcDbEntity
  8
0
100
AcDbLine
 10
1037.701681459677
 20
977.1461292902952
 30
0.0
 11
1037.701681459677
 21
973.2816131612622
 31
0.0
  0
LINE
  5
48B
330
1F
100
AcDbEntity
  8
0
100
AcDbLine
 10
1037.201681459677
 20
968.2816131612623
 30
0.0
 11
1044.345274999126
 21
968.2816131612623
 31
0.0
  0
LINE
  5
48C
330
1F
100
AcDbEntity
  8
0
100
AcDbLine
 10
1036.201681459677
 20
978.1461292902953
 30
0.0
 11
1036.201681459677
 21
969.2816131612623
 31
0.0
  0
LINE
  5
48D
330
1F
100
AcDbEntity
  8
0
100
AcDbLine
 10
1073.697234959142
 20
967.0007057087634
 30
0.0
 11
1073.697234959142
 21
962.7816131612622
 31
0.0
  0
LINE
  5
48E
330
1F
100
AcDbEntity
  8
0
100
AcDbLine
 10
1067.727960901306
 20
960.7816131612622
 30
0.0
 11
1071.707234959142
 21
960.7816131612622
 31
0.0
  0
ARC
  5
48F
330
1F
100
AcDbEntity
  8
0
100
AcDbCircle
 10
1071.697234959142
 20
962.7816131612622
 30
0.0
 40
2.0
100
AcDbArc
 50
270.0
 51
0.0
  0
ARC
  5
490
330
1F
100
AcDbEntity
  8
0
100
AcDbCircle
 10
1077.701681459677
 20
973.2816131612622
 30
0.0
 40
1.0
100
AcDbArc
 50
270.0
 51
0.0
  0
LINE
  5
491
330
1F
100
AcDbEntity
  8
0
100
AcDbLine
 10
1072.058087920228
 20
968.2816131612623
 30
0.0
 11
1079.201681459677
 21
968.2816131612623
 31
0.0
  0
LINE
  5
492
330
1F
100
AcDbEntity
  8
0
100
AcDbLine
 10
1072.058087920228
 20
972.2816131612622
 30
0.0
 11
1077.701681459677
 21
972.2816131612622
 31
0.0
  0
ARC
  5
493
330
1F
100
AcDbEntity
  8
0
100
AcDbCircle
 10
1079.701681459677
 20
977.1461292902952
 30
0.0
 40
1.0
100
AcDbArc
 50
90.0
 51
180.0
  0
ARC
  5
494
330
1F
100
AcDbEntity
  8
0
100
AcDbCircle
 10
1079.201681459677
 20
969.2816131612623
 30
0.0
 40
1.0
100
AcDbArc
 50
270.0
 51
0.0
  0
ARC
  5
495
330
1F
100
AcDbEntity
  8
0
100
AcDbCircle
 10
1076.701681459677
 20
969.833408038777
 30
0.0
 40
2.0
100
AcDbArc
 50
284.3844100816229
 51
309.1135315408638
  0
LINE
  5
496
330
1F
100
AcDbEntity
  8
0
100
AcDbLine
 10
1077.198534121544
 20
967.8961064534799
 30
0.0
 11
1070.903387381849
 21
966.2816131612622
 31
0.0
  0
LINE
  5
497
330
1F
100
AcDbEntity
  8
0
100
AcDbLine
 10
1078.701681459677
 20
977.1461292902952
 30
0.0
 11
1078.701681459677
 21
973.2816131612622
 31
0.0
  0
LINE
  5
498
330
1F
100
AcDbEntity
  8
0
100
AcDbLine
 10
1077.963399597027
 20
968.2816131612623
 30
0.0
 11
1079.201681459677
 21
968.2816131612623
 31
0.0
  0
LINE
  5
499
330
1F
100
AcDbEntity
  8
0
100
AcDbLine
 10
1080.201681459677
 20
978.1461292902951
 30
0.0
 11
1080.201681459677
 21
969.2816131612623
 31
0.0
  0
ARC
  5
49A
330
1F
100
AcDbEntity
  8
0
100
AcDbCircle
 10
1085.201681459676
 20
980.1461292902951
 30
0.0
 40
2.0
100
AcDbArc
 50
270.0
 51
0.0
  0
ARC
  5
49B
330
1F
100
AcDbEntity
  8
0
100
AcDbCircle
 10
1085.201681459677
 20
983.546129290295
 30
0.0
 40
2.0
100
AcDbArc
 50
0.0
 51
90.0
  0
LINE
  5
49C
330
1F
100
AcDbEntity
  8
0
100
AcDbLine
 10
1122.89977883994
 20
973.9090944002693
 30
0.0
 11
1120.109105153861
 21
978.1461292902951
 31
0.0
  0
LINE
  5
49D
330
1F
100
AcDbEntity
  8
0
100
AcDbLine
 10
1122.851321040643
 20
970.2816131612621
 30
0.0
 11
1105.915837169676
 21
970.2816131612625
 31
0.0
  0
LINE
  5
49E
330
1F
100
AcDbEntity
  8
0
100
AcDbLine
 10
1111.948095234192
 20
978.1461292902951
 30
0.0
 11
1167.819062976127
 21
978.1461292902951
 31
0.0
  0
ARC
  5
49F
330
1F
100
AcDbEntity
  8
0
100
AcDbCircle
 10
1111.948095234192
 20
980.1461292902951
 30
0.0
 40
2.0
100
AcDbArc
 50
179.9999999999935
 51
270.0
  0
LINE
  5
4A0
330
1F
100
AcDbEntity
  8
0
100
AcDbLine
 10
1105.915837169677
 20
956.346129290295
 30
0.0
 11
1173.851321040643
 21
956.346129290295
 31
0.0
  0
LINE
  5
4A1
330
1F
100
AcDbEntity
  8
0
100
AcDbLine
 10
1105.915837169676
 20
956.346129290295
 30
0.0
 11
1104.88357910516
 21
959.8731757070028
 31
0.0
  0
ARC
  5
4A2
330
1F
100
AcDbEntity
  8
0
100
AcDbCircle
 10
1128.88357910517
 20
963.3138712257785
 30
0.0
 40
24.00138740354277
100
AcDbArc
 50
163.1237353832899
 51
196.8762646167101
  0
LINE
  5
4A3
330
1F
100
AcDbEntity
  8
0
100
AcDbLine
 10
991.0219366101372
 20
957.2816131612631
 30
0.0
 11
989.9896785456212
 21
960.8086595779708
 31
0.0
  0
ARC
  5
4A4
330
1F
100
AcDbEntity
  8
0
100
AcDbCircle
 10
1010.823892388445
 20
963.7816131612728
 30
0.0
 40
20.8414839357997
100
AcDbArc
 50
161.8275569499441
 51
198.1724430500559
  0
LINE
  5
4A5
330
1F
100
AcDbEntity
  8
0
100
AcDbLine
 10
1007.957420481105
 20
957.2816131612631
 30
0.0
 11
1008.989678545622
 21
960.8086595779708
 31
0.0
  0
ARC
  5
4A6
330
1F
100
AcDbEntity
  8
0
100
AcDbCircle
 10
988.1554647027979
 20
963.7816131612728
 30
0.0
 40
20.84148393579934
100
AcDbArc
 50
341.8275569499441
 51
18.1724430500559
  0
POINT
  5
4A7
330
1F
100
AcDbEntity
  8
Defpoints
  6
ByBlock
 62
     0
100
AcDbPoint
 10
1007.957420481105
 20
957.2816131612622
 30
0.0
  0
LINE
  5
4A8
330
1F
100
AcDbEntity
  8
0
100
AcDbLine
 10
990.9734788108407
 20
973.9090944002692
 30
0.0
 11
993.7641524969203
 21
978.1461292902948
 31
0.0
  0
ARC
  5
4A9
330
1F
100
AcDbEntity
  8
0
100
AcDbCircle
 10
988.0300011263221
 20
976.7816131612727
 30
0.0
 40
20.9607261835384
100
AcDbArc
 50
341.9345163460702
 51
18.06548365392983
  0
LINE
  5
4AA
330
1F
100
AcDbEntity
  8
0
100
AcDbLine
 10
1008.989678545622
 20
979.657792551006
 30
0.0
 11
1008.989678545621
 21
960.8086595779679
 31
0.0
  0
HATCH
  5
4AB
330
1F
100
AcDbEntity
  8
0
100
AcDbHatch
 10
0.0
 20
0.0
 30
0.0
210
0.0
220
0.0
230
1.0
  2
SOLID
 70
     1
 71
     1
 91
        1
 92
        7
 72
     0
 73
     1
 93
        7
 10
1005.540185322053
 20
964.11943303543
 10
1001.411153063988
 20
966.5968523902686
 10
1001.411153063988
 20
965.027820132204
 10
996.973678666176
 20
965.027820132204
 10
996.973678666176
 20
963.2110459386556
 10
1001.411153063987
 20
963.2110459386556
 10
1001.411153063988
 20
961.6420136805912
 97
        7
330
4AC
330
4B0
330
4B2
330
4AF
330
4B1
330
4B3
330
4AD
 75
     0
 76
     1
 47
0.1422462603217867
 98
        1
 10
1002.58320004221
 20
963.8534069070436
  0
LINE
  5
4AC
102
{ACAD_REACTORS
330
4AB
102
}
330
1F
100
AcDbEntity
  8
0
100
AcDbLine
 10
1005.540185322053
 20
964.11943303543
 30
0.0
 11
1001.411153063988
 21
966.5968523902686
 31
0.0
  0
LINE
  5
4AD
102
{ACAD_REACTORS
330
4AB
102
}
330
1F
100
AcDbEntity
  8
0
100
AcDbLine
 10
1005.540185322053
 20
964.11943303543
 30
0.0
 11
1001.411153063988
 21
961.6420136805912
 31
0.0
  0
LINE
  5
4AE
330
1F
100
AcDbEntity
  8
0
100
AcDbLine
 10
991.0219366101372
 20
970.2816131612621
 30
0.0
 11
1007.957420481105
 21
970.2816131612623
 31
0.0
  0
LINE
  5
4AF
102
{ACAD_REACTORS
330
4AB
102
}
330
1F
100
AcDbEntity
  8
0
100
AcDbLine
 10
996.973678666176
 20
963.2110459386556
 30
0.0
 11
996.973678666176
 21
965.027820132204
 31
0.0
  0
LINE
  5
4B0
102
{ACAD_REACTORS
330
4AB
102
}
330
1F
100
AcDbEntity
  8
0
100
AcDbLine
 10
1001.411153063988
 20
965.027820132204
 30
0.0
 11
1001.411153063988
 21
966.5968523902686
 31
0.0
  0
LINE
  5
4B1
102
{ACAD_REACTORS
330
4AB
102
}
330
1F
100
AcDbEntity
  8
0
100
AcDbLine
 10
1001.411153063988
 20
963.2110459386556
 30
0.0
 11
996.973678666176
 21
963.2110459386556
 31
0.0
  0
LINE
  5
4B2
102
{ACAD_REACTORS
330
4AB
102
}
330
1F
100
AcDbEntity
  8
0
100
AcDbLine
 10
1001.411153063988
 20
965.027820132204
 30
0.0
 11
996.973678666176
 21
965.027820132204
 31
0.0
  0
LINE
  5
4B3
102
{ACAD_REACTORS
330
4AB
102
}
330
1F
100
AcDbEntity
  8
0
100
AcDbLine
 10
1001.411153063988
 20
961.6420136805912
 30
0.0
 11
1001.411153063988
 21
963.2110459386556
 31
0.0
  0
LINE
  5
4B4
330
1F
100
AcDbEntity
  8
0
100
AcDbLine
 10
989.9896785456212
 20
972.9625163822049
 30
0.0
 11
989.9896785456212
 21
960.8086595779708
 31
0.0
  0
ARC
  5
4B5
330
1F
100
AcDbEntity
  8
0
100
AcDbCircle
 10
996.7632658795015
 20
974.0314437246324
 30
0.0
 40
6.857411394476077
100
AcDbArc
 50
188.967786629694
 51
213.1497314156638
  0
LINE
  5
4B6
330
1F
100
AcDbEntity
  8
0
100
AcDbLine
 10
1003.925162416589
 20
983.2816131612622
 30
0.0
 11
1007.957420481105
 21
983.2816131612625
 31
0.0
  0
LINE
  5
4B7
330
1F
100
AcDbEntity
  8
0
100
AcDbLine
 10
1003.925162416589
 20
980.1461292902951
 30
0.0
 11
1003.925162416589
 21
984.2816131612622
 31
0.0
  0
ARC
  5
4B8
330
1F
100
AcDbEntity
  8
0
100
AcDbCircle
 10
1001.925162416589
 20
980.1461292902951
 30
0.0
 40
2.0
100
AcDbArc
 50
270.0
 51
0.0
  0
ARC
  5
4B9
330
1F
100
AcDbEntity
  8
0
100
AcDbCircle
 10
1001.925162416589
 20
984.2816131612622
 30
0.0
 40
2.0
100
AcDbArc
 50
0.0
 51
90.0
  0
LINE
  5
4BA
330
1F
100
AcDbEntity
  8
0
100
AcDbLine
 10
946.0541946746534
 20
986.2816131612623
 30
0.0
 11
1001.925162416589
 21
986.2816131612623
 31
0.0
  0
ARC
  5
4BB
330
1F
100
AcDbEntity
  8
0
100
AcDbCircle
 10
946.0541946746534
 20
984.2816131612622
 30
0.0
 40
2.0
100
AcDbArc
 50
90.0
 51
180.0
  0
LINE
  5
4BC
330
1F
100
AcDbEntity
  8
0
100
AcDbLine
 10
1007.957420481105
 20
983.2816131612625
 30
0.0
 11
1008.989678545622
 21
979.657792551006
 31
0.0
  0
LINE
  5
4BD
330
1F
100
AcDbEntity
  8
0
100
AcDbLine
 10
1104.88357910516
 20
979.6577925510057
 30
0.0
 11
1104.88357910516
 21
959.8731757070025
 31
0.0
  0
ARC
  5
4BE
330
1F
100
AcDbEntity
  8
0
100
AcDbCircle
 10
1125.843256524519
 20
976.7816131612615
 30
0.0
 40
20.96072618359781
100
AcDbArc
 50
161.9345163460907
 51
198.0654836539092
  0
LINE
  5
4BF
330
1F
100
AcDbEntity
  8
0
100
AcDbLine
 10
1109.948095234193
 20
983.2816131612622
 30
0.0
 11
1105.915837169676
 21
983.2816131612622
 31
0.0
  0
LINE
  5
4C0
330
1F
100
AcDbEntity
  8
0
100
AcDbLine
 10
1105.915837169676
 20
983.2816131612622
 30
0.0
 11
1104.88357910516
 21
979.6577925510057
 31
0.0
  0
LINE
  5
4C1
330
1F
100
AcDbEntity
  8
0
100
AcDbLine
 10
1109.948095234192
 20
980.1461292902951
 30
0.0
 11
1109.948095234192
 21
983.5461292902952
 31
0.0
  0
ARC
  5
4C2
330
1F
100
AcDbEntity
  8
0
100
AcDbCircle
 10
1150.883579105151
 20
963.3138712257785
 30
0.0
 40
24.0013874035419
100
AcDbArc
 50
343.12373538329
 51
16.87626461671007
  0
LINE
  5
4C3
330
1F
100
AcDbEntity
  8
0
100
AcDbLine
 10
1173.851321040644
 20
956.346129290295
 30
0.0
 11
1174.88357910516
 21
959.8731757070028
 31
0.0
  0
ARC
  5
4C4
330
1F
100
AcDbEntity
  8
0
100
AcDbCircle
 10
1179.883579105158
 20
963.3138712257798
 30
0.0
 40
24.00138740353193
100
AcDbArc
 50
163.1237353832837
 51
196.8762646167163
  0
LINE
  5
4C5
330
1F
100
AcDbEntity
  8
0
100
AcDbLine
 10
1156.915837169677
 20
956.346129290295
 30
0.0
 11
1155.88357910516
 21
959.8731757070028
 31
0.0
  0
LINE
  5
4C6
330
1F
100
AcDbEntity
  8
0
100
AcDbLine
 10
1122.851321040644
 20
956.346129290295
 30
0.0
 11
1123.88357910516
 21
959.8731757070028
 31
0.0
  0
ARC
  5
4C7
330
1F
100
AcDbEntity
  8
0
100
AcDbCircle
 10
1099.883579105151
 20
963.3138712257785
 30
0.0
 40
24.0013874035419
100
AcDbArc
 50
343.12373538329
 51
16.87626461671007
  0
LINE
  5
4C8
330
1F
100
AcDbEntity
  8
CEN
100
AcDbLine
 10
1139.88357910516
 20
988.8801749169939
 30
0.0
 11
1139.88357910516
 21
953.6078848188527
 31
0.0
  0
POINT
  5
4C9
330
1F
100
AcDbEntity
  8
Defpoints
  6
ByBlock
 62
     0
100
AcDbPoint
 10
1173.851321040644
 20
956.346129290295
 30
0.0
  0
LINE
  5
4CA
330
1F
100
AcDbEntity
  8
0
100
AcDbLine
 10
1153.370257697079
 20
966.2295440732817
 30
0.0
 11
1142.128685737996
 21
968.7332260644879
 31
0.0
  0
LINE
  5
4CB
330
1F
100
AcDbEntity
  8
0
100
AcDbLine
 10
1123.88357910516
 20
959.959032516101
 30
0.0
 11
1155.88357910516
 21
959.9590325161011
 31
0.0
  0
LINE
  5
4CC
330
1F
100
AcDbEntity
  8
0
100
AcDbLine
 10
1149.173901685805
 20
978.1461292902951
 30
0.0
 11
1149.173901685805
 21
970.7977421935204
 31
0.0
  0
LINE
  5
4CD
330
1F
100
AcDbEntity
  8
0
100
AcDbLine
 10
1130.593256524515
 20
978.1461292902951
 30
0.0
 11
1130.593256524515
 21
970.7977421935204
 31
0.0
  0
LINE
  5
4CE
330
1F
100
AcDbEntity
  8
CEN
100
AcDbLine
 10
1136.657772653547
 20
965.6364518709398
 30
0.0
 11
1143.109385556773
 21
965.6364518709398
 31
0.0
  0
ARC
  5
4CF
330
1F
100
AcDbEntity
  8
0
100
AcDbCircle
 10
1139.88357910516
 20
965.6364518709398
 30
0.0
 40
5.677419354838717
100
AcDbArc
 50
180.0
 51
0.0
  0
LINE
  5
4D0
330
1F
100
AcDbEntity
  8
0
100
AcDbLine
 10
1132.657772653547
 20
968.7332260644879
 30
0.0
 11
1147.109385556773
 21
968.7332260644879
 31
0.0
  0
LINE
  5
4D1
330
1F
100
AcDbEntity
  8
0
100
AcDbLine
 10
1130.593256524515
 20
971.3023548738526
 30
0.0
 11
1124.812785600943
 21
972.589760318991
 31
0.0
  0
ARC
  5
4D2
330
1F
100
AcDbEntity
  8
0
100
AcDbCircle
 10
1125.485993519516
 20
975.6124745800812
 30
0.0
 40
3.096774193548386
100
AcDbArc
 50
213.3704329359714
 51
257.4442154179564
  0
LINE
  5
4D3
330
1F
100
AcDbEntity
  8
0
100
AcDbLine
 10
1134.206159750321
 20
965.6364518709398
 30
0.0
 11
1134.206159750321
 21
968.7332260644879
 31
0.0
  0
ARC
  5
4D4
330
1F
100
AcDbEntity
  8
0
100
AcDbCircle
 10
1101.560998459998
 20
976.9912905806171
 30
0.0
 40
22.32258064516165
100
AcDbArc
 50
342.5076754748893
 51
350.1941043200897
  0
LINE
  5
4D5
330
1F
100
AcDbEntity
  8
0
100
AcDbLine
 10
1123.733907092184
 20
965.6364518709398
 30
0.0
 11
1123.88357910516
 21
965.6697862769144
 31
0.0
  0
LINE
  5
4D6
330
1F
100
AcDbEntity
  8
0
100
AcDbLine
 10
1123.88357910516
 20
972.9625163822049
 30
0.0
 11
1123.88357910516
 21
959.8731757070025
 31
0.0
  0
ARC
  5
4D7
330
1F
100
AcDbEntity
  8
0
100
AcDbCircle
 10
1132.657772653547
 20
970.7977421935204
 30
0.0
 40
2.064516129032258
100
AcDbArc
 50
180.0
 51
270.0
  0
LINE
  5
4D8
330
1F
100
AcDbEntity
  8
0
100
AcDbLine
 10
1145.560998459999
 20
965.6364518709398
 30
0.0
 11
1145.560998459999
 21
967.9687938675016
 31
0.0
  0
ARC
  5
4D9
330
1F
100
AcDbEntity
  8
0
100
AcDbCircle
 10
1147.109385556773
 20
970.7977421935204
 30
0.0
 40
2.064516129032258
100
AcDbArc
 50
270.0
 51
0.0
  0
LINE
  5
4DA
330
1F
100
AcDbEntity
  8
0
100
AcDbLine
 10
1155.88357910516
 20
968.2446869140088
 30
0.0
 11
1156.825699438269
 21
978.1461292902948
 31
0.0
  0
LINE
  5
4DB
330
1F
100
AcDbEntity
  8
0
100
AcDbLine
 10
1174.88357910516
 20
979.6577925510057
 30
0.0
 11
1174.88357910516
 21
959.8731757070025
 31
0.0
  0
ARC
  5
4DC
330
1F
100
AcDbEntity
  8
0
100
AcDbCircle
 10
1153.926982737983
 20
976.7816131612615
 30
0.0
 40
20.95779704069277
100
AcDbArc
 50
341.9319042864578
 51
18.06809571355658
  0
LINE
  5
4DD
330
1F
100
AcDbEntity
  8
0
100
AcDbLine
 10
1156.915837169677
 20
970.2816131612621
 30
0.0
 11
1173.851321040644
 21
970.2816131612626
 31
0.0
  0
LINE
  5
4DE
102
{ACAD_REACTORS
330
4E0
102
}
330
1F
100
AcDbEntity
  8
0
100
AcDbLine
 10
1164.824627743453
 20
964.134038116313
 30
0.0
 11
1169.262102141265
 21
964.134038116313
 31
0.0
  0
LINE
  5
4DF
102
{ACAD_REACTORS
330
4E0
102
}
330
1F
100
AcDbEntity
  8
0
100
AcDbLine
 10
1164.824627743453
 20
962.3172639227645
 30
0.0
 11
1169.262102141265
 21
962.3172639227645
 31
0.0
  0
HATCH
  5
4E0
330
1F
100
AcDbEntity
  8
0
100
AcDbHatch
 10
0.0
 20
0.0
 30
0.0
210
0.0
220
0.0
230
1.0
  2
SOLID
 70
     1
 71
     1
 91
        1
 92
        7
 72
     0
 73
     1
 93
        7
 10
1160.695595485389
 20
963.2256510195386
 10
1164.824627743453
 20
960.7482316646999
 10
1164.824627743453
 20
962.3172639227645
 10
1169.262102141265
 20
962.3172639227645
 10
1169.262102141265
 20
964.134038116313
 10
1164.824627743453
 20
964.134038116313
 10
1164.824627743453
 20
965.7030703743776
 97
        7
330
4E3
330
4E2
330
4DF
330
4E8
330
4DE
330
4E4
330
4E5
 75
     0
 76
     1
 47
0.1422462603217867
 98
        1
 10
1163.65258076523
 20
963.4916771479243
  0
ARC
  5
4E1
330
1F
100
AcDbEntity
  8
0
100
AcDbCircle
 10
1153.819062976128
 20
968.2446869140088
 30
0.0
 40
2.064516129032258
100
AcDbArc
 50
257.4442154179564
 51
0.0
  0
LINE
  5
4E2
102
{ACAD_REACTORS
330
4E0
102
}
330
1F
100
AcDbEntity
  8
0
100
AcDbLine
 10
1164.824627743453
 20
962.3172639227645
 30
0.0
 11
1164.824627743453
 21
960.7482316647001
 31
0.0
  0
LINE
  5
4E3
102
{ACAD_REACTORS
330
4E0
102
}
330
1F
100
AcDbEntity
  8
0
100
AcDbLine
 10
1160.695595485389
 20
963.2256510195386
 30
0.0
 11
1164.824627743453
 21
960.7482316647001
 31
0.0
  0
LINE
  5
4E4
102
{ACAD_REACTORS
330
4E0
102
}
330
1F
100
AcDbEntity
  8
0
100
AcDbLine
 10
1164.824627743453
 20
965.7030703743776
 30
0.0
 11
1164.824627743453
 21
964.134038116313
 31
0.0
  0
LINE
  5
4E5
102
{ACAD_REACTORS
330
4E0
102
}
330
1F
100
AcDbEntity
  8
0
100
AcDbLine
 10
1160.695595485389
 20
963.2256510195386
 30
0.0
 11
1164.824627743453
 21
965.7030703743776
 31
0.0
  0
ARC
  5
4E6
330
1F
100
AcDbEntity
  8
0
100
AcDbCircle
 10
1178.206159750321
 20
976.9912905806171
 30
0.0
 40
22.32258064516165
100
AcDbArc
 50
190.7059470374948
 51
197.4923245251107
  0
LINE
  5
4E7
330
1F
100
AcDbEntity
  8
0
100
AcDbLine
 10
1155.88357910516
 20
968.2446869140097
 30
0.0
 11
1155.88357910516
 21
959.8731757070025
 31
0.0
  0
LINE
  5
4E8
102
{ACAD_REACTORS
330
4E0
102
}
330
1F
100
AcDbEntity
  8
0
100
AcDbLine
 10
1169.262102141265
 20
964.134038116313
 30
0.0
 11
1169.262102141265
 21
962.3172639227645
 31
0.0
  0
LINE
  5
4E9
330
1F
100
AcDbEntity
  8
0
100
AcDbLine
 10
1168.786804911612
 20
985.5461292902951
 30
0.0
 11
1169.819062976128
 21
985.5461292902951
 31
0.0
  0
LINE
  5
4EA
330
1F
100
AcDbEntity
  8
0
100
AcDbLine
 10
1169.819062976127
 20
983.2816131612622
 30
0.0
 11
1173.851321040644
 21
983.2816131612622
 31
0.0
  0
LINE
  5
4EB
330
1F
100
AcDbEntity
  8
0
100
AcDbLine
 10
1173.851321040644
 20
983.2816131612622
 30
0.0
 11
1174.88357910516
 21
979.6577925510057
 31
0.0
  0
LINE
  5
4EC
330
1F
100
AcDbEntity
  8
0
100
AcDbLine
 10
1169.819062976127
 20
980.1461292902947
 30
0.0
 11
1169.819062976127
 21
983.5461292902946
 31
0.0
  0
ARC
  5
4ED
330
1F
100
AcDbEntity
  8
0
100
AcDbCircle
 10
1167.819062976127
 20
980.1461292902951
 30
0.0
 40
2.0
100
AcDbArc
 50
270.0
 51
359.9999999999935
  0
ARC
  5
4EE
330
1F
100
AcDbEntity
  8
0
100
AcDbCircle
 10
1167.819062976127
 20
983.546129290295
 30
0.0
 40
2.0
100
AcDbArc
 50
359.999999999987
 51
90.0
  0
LINE
  5
4EF
330
1F
100
AcDbEntity
  8
圖層1
100
AcDbLine
 10
996.2396785456217
 20
1050.189127454257
 30
0.0
 11
996.2396785456217
 21
1057.520303036669
 31
0.0
  0
LINE
  5
4F0
330
1F
100
AcDbEntity
  8
圖層1
100
AcDbLine
 10
999.9052663368274
 20
1053.854715245462
 30
0.0
 11
992.574090754416
 21
1053.854715245462
 31
0.0
  0
LINE
  5
4F1
330
1F
100
AcDbEntity
  8
圖層1
100
AcDbLine
 10
951.7396785456208
 20
1050.189127454257
 30
0.0
 11
951.7396785456208
 21
1057.520303036669
 31
0.0
  0
LINE
  5
4F2
330
1F
100
AcDbEntity
  8
圖層1
100
AcDbLine
 10
955.4052663368265
 20
1053.854715245462
 30
0.0
 11
948.0740907544147
 21
1053.854715245462
 31
0.0
  0
LINE
  5
4F3
330
1F
100
AcDbEntity
  8
圖層1
100
AcDbLine
 10
951.7396785456208
 20
1005.689127454257
 30
0.0
 11
951.7396785456208
 21
1013.020303036668
 31
0.0
  0
LINE
  5
4F4
330
1F
100
AcDbEntity
  8
圖層1
100
AcDbLine
 10
955.4052663368265
 20
1009.354715245462
 30
0.0
 11
948.0740907544147
 21
1009.354715245462
 31
0.0
  0
LINE
  5
4F5
330
1F
100
AcDbEntity
  8
圖層1
100
AcDbLine
 10
996.2396785456217
 20
1005.689127454257
 30
0.0
 11
996.2396785456217
 21
1013.020303036668
 31
0.0
  0
LINE
  5
4F6
330
1F
100
AcDbEntity
  8
圖層1
100
AcDbLine
 10
999.9052663368274
 20
1009.354715245462
 30
0.0
 11
992.574090754416
 21
1009.354715245462
 31
0.0
  0
LINE
  5
4F7
330
1F
100
AcDbEntity
  8
0
100
AcDbLine
 10
946.0541946746529
 20
978.1461292902951
 30
0.0
 11
1001.925162416589
 21
978.1461292902951
 31
0.0
  0
ARC
  5
4F8
330
1F
100
AcDbEntity
  8
0
100
AcDbCircle
 10
946.0541946746529
 20
980.1461292902951
 30
0.0
 40
2.0
100
AcDbArc
 50
179.9999999999935
 51
270.0
  0
LINE
  5
4F9
330
1F
100
AcDbEntity
  8
0
100
AcDbLine
 10
1104.88357910516
 20
972.9625163822049
 30
0.0
 11
1104.88357910516
 21
959.8731757070025
 31
0.0
  0
LINE
  5
4FA
330
1F
100
AcDbEntity
  8
0
100
AcDbLine
 10
1174.88357910516
 20
968.2446869140097
 30
0.0
 11
1174.88357910516
 21
959.8731757070025
 31
0.0
  0
LWPOLYLINE
  5
4FB
330
1F
100
AcDbEntity
  8
0
100
AcDbPolyline
 90
        8
 70
     1
 43
0.0
 10
952.2396785456212
 20
1002.854715245462
 10
995.7396785456213
 20
1002.854715245462
 42
0.4142135623730951
 10
1002.739678545621
 20
1009.854715245463
 10
1002.739678545621
 20
1053.354715245463
 42
0.4142135623730951
 10
995.7396785456213
 20
1060.354715245463
 10
952.2396785456212
 20
1060.354715245463
 42
0.4142135623730951
 10
945.2396785456212
 20
1053.354715245463
 10
945.2396785456212
 20
1009.854715245463
 42
0.4142135623730951
  0
DIMENSION
  5
4FC
330
1F
100
AcDbEntity
  8
DIM
100
AcDbDimension
  2
*D10
 10
1002.739678545621
 20
1082.598007856454
 30
0.0
 11
973.9896785456211
 21
1084.660507856454
 31
0.0
 70
    32
 71
     5
 42
57.5
  3
ISO-25
100
AcDbAlignedDimension
 13
945.2396785456212
 23
1053.354715245463
 33
0.0
 14
1002.739678545621
 24
1053.354715245463
 34
0.0
100
AcDbRotatedDimension
  0
DIMENSION
  5
4FD
330
1F
100
AcDbEntity
  8
DIM
100
AcDbDimension
  2
*D11
 10
914.807872665386
 20
1002.854715245462
 30
0.0
 11
912.7453726653859
 21
1031.604715245463
 31
0.0
 70
    32
 71
     5
 42
57.5
  3
ISO-25
100
AcDbAlignedDimension
 13
952.2396785456214
 23
1060.354715245463
 33
0.0
 14
952.2396785456212
 24
1002.854715245462
 34
0.0
 50
90.0
100
AcDbRotatedDimension
  0
DIMENSION
  5
4FE
330
1F
100
AcDbEntity
  8
DIM
100
AcDbDimension
  2
*D12
 10
921.807872665386
 20
1009.354715245462
 30
0.0
 11
919.745372665386
 21
1031.604715245463
 31
0.0
 70
    32
 71
     5
 42
44.49999999999977
  3
ISO-25
100
AcDbAlignedDimension
 13
948.0740907544147
 23
1053.854715245462
 33
0.0
 14
948.0740907544147
 24
1009.354715245462
 34
0.0
 50
90.0
100
AcDbRotatedDimension
  0
DIMENSION
  5
4FF
330
1F
100
AcDbEntity
  8
DIM
100
AcDbDimension
  2
*D13
 10
928.8078726653861
 20
1024.104715245463
 30
0.0
 11
926.932872665386
 21
1031.604715245463
 31
0.0
 70
    32
 71
     5
 42
15.0
  3
ISO-25
100
AcDbAlignedDimension
 13
956.9705584505486
 23
1039.104715245463
 33
0.0
 14
956.9705584505486
 24
1024.104715245463
 34
0.0
 50
90.0
100
AcDbRotatedDimension
  0
DIMENSION
  5
500
330
1F
100
AcDbEntity
  8
DIM
100
AcDbDimension
  2
*D14
 10
996.2396785456217
 20
1075.598007856454
 30
0.0
 11
973.9896785456211
 21
1077.660507856454
 31
0.0
 70
    32
 71
     5
 42
44.5000000000009
  3
ISO-25
100
AcDbAlignedDimension
 13
951.7396785456208
 23
1057.520303036669
 33
0.0
 14
996.2396785456217
 24
1057.520303036669
 34
0.0
100
AcDbRotatedDimension
  0
DIMENSION
  5
501
330
1F
100
AcDbEntity
  8
DIM
100
AcDbDimension
  2
*D15
 10
996.2396785456217
 20
1068.598007856454
 30
0.0
 11
985.1146785456212
 21
1070.660753919446
 31
0.0
 70
    32
 71
     5
 42
22.25000000000091
  3
ISO-25
100
AcDbAlignedDimension
 13
973.9896785456208
 23
1063.238392189281
 33
0.0
 14
996.2396785456217
 24
1057.520303036669
 34
0.0
100
AcDbRotatedDimension
  0
DIMENSION
  5
502
330
1F
100
AcDbEntity
  8
DIM
100
AcDbDimension
  2
*D16
 10
1026.459904130485
 20
957.2816131612622
 30
0.0
 11
1024.584658067493
 21
970.2816131612623
 31
0.0
 70
    32
  1
26HEX.
 71
     5
 42
26.0
  3
ISO-25
100
AcDbAlignedDimension
 13
1050.696127960212
 23
983.2816131612622
 33
0.0
 14
1050.696127960212
 24
957.2816131612622
 34
0.0
 50
90.0
100
AcDbRotatedDimension
  0
LINE
  5
503
330
1F
100
AcDbEntity
  8
CEN
100
AcDbLine
 10
1058.201681459677
 20
989.2810247027099
 30
0.0
 11
1058.201681459677
 21
951.2822016198146
 31
0.0
  0
DIMENSION
  5
504
330
1F
100
AcDbEntity
  8
DIM
100
AcDbDimension
  2
*D17
 10
1008.989678545621
 20
944.9875234798527
 30
0.0
 11
973.9896785456206
 21
946.8625234798528
 31
0.0
 70
    32
 71
     5
 42
70.00000000000023
  3
ISO-25
100
AcDbAlignedDimension
 13
938.9896785456205
 23
960.8086595779719
 33
0.0
 14
1008.989678545621
 24
960.8086595779713
 34
0.0
100
AcDbRotatedDimension
  0
LINE
  5
505
330
1F
100
AcDbEntity
  8
0
100
AcDbLine
 10
1111.948095234192
 20
985.5461292902951
 30
0.0
 11
1167.819062976127
 21
985.5461292902951
 31
0.0
  0
ARC
  5
506
330
1F
100
AcDbEntity
  8
0
100
AcDbCircle
 10
1111.948095234192
 20
983.546129290295
 30
0.0
 40
2.0
100
AcDbArc
 50
90.0
 51
179.9999999999935
  0
LINE
  5
507
330
1F
100
AcDbEntity
  8
0
100
AcDbLine
 10
1087.201681459677
 20
983.546129290295
 30
0.0
 11
1087.201681459677
 21
980.1461292902951
 31
0.0
  0
TEXT
  5
508
330
1F
100
AcDbEntity
  8
TEXT
100
AcDbText
 10
970.1301664368639
 20
970.9291145013947
 30
0.0
 40
6.0
  1
\U+00BD
  7
TNR
 11
970.1301664368639
 21
973.9291145013948
 31
0.0
100
AcDbText
 73
     2
  0
LINE
  5
509
330
1F
100
AcDbEntity
  8
0
100
AcDbLine
 10
973.9896785456208
 20
1051.104715245462
 30
0.0
 11
973.9896785456208
 21
1042.104715245462
 31
0.0
  0
LINE
  5
50A
330
1F
100
AcDbEntity
  8
0
100
AcDbLine
 10
973.9896785456211
 20
1021.104715245463
 30
0.0
 11
973.9896785456211
 21
1012.104715245462
 31
0.0
  0
LEADER
  5
50B
330
1F
100
AcDbEntity
  8
DIM
100
AcDbLeader
  3
ISO-25
 73
     0
 74
     0
 75
     1
 40
3.0
 41
24.4188188976378
 76
     3
 10
998.3775859242257
 20
1007.250112660529
 30
0.0
 10
1004.456345701306
 20
998.5472586411372
 30
0.0
 10
1006.956345701305
 20
998.5472586411372
 30
0.0
340
50C
213
0.0
223
-1.5
233
0.0
1001
ACAD
1000
DSTYLE
1002
{
1070
   147
1040
0.625
1070
    77
1070
     0
1002
}
  0
MTEXT
  5
50C
102
{ACAD_REACTORS
330
50B
102
}
330
1F
100
AcDbEntity
  8
DIM
100
AcDbMText
 10
1007.581345701305
 20
1000.047258641137
 30
0.0
 40
3.0
 41
0.0
 71
     1
 72
     1
  1
M6xP1.0x4PLS
 73
     1
 44
1.0
1001
ACAD
1000
MTEXTBEGIN
1070
    73
1070
     1
1070
    44
1040
1.0
1070
    74
1070
     0
1000
MTEXTEND
  0
POINT
  5
50D
330
1F
100
AcDbEntity
  8
0
 60
     1
100
AcDbPoint
 10
3047.144036222673
 20
301.6617797613063
 30
0.0
1001
GENIUS_GENOBJ-N-CRS_13
1002
{
1000
OWNER
1000
GEN
1002
}
1001
GENIUS_GENOLIS_13
1002
{
1000
ENT
1005
0
1005
0
1005
0
1005
429
1002
}
1001
GENIUS_GENOENT_13
1002
{
1000
MYREF
1005
50D
1002
}
1002
{
1000
GRP
1005
0
1002
}
1001
GENIUS_GENODEF_13
1002
{
1000
HIER
1070
    10
1002
}
1002
{
1000
MANEDIT
1070
     1
1002
}
1002
{
1000
NOSEL
1070
     0
1002
}
1002
{
1000
BEHIND
1070
     0
1002
}
1002
{
1000
OTHER
1070
     0
1002
}
1002
{
1000
REACTOR
1002
}
  0
POINT
  5
50E
330
1F
100
AcDbEntity
  8
0
 60
     1
100
AcDbPoint
 10
3035.819450999819
 20
310.5373662399426
 30
0.0
1001
GENIUS_GENOBJ-N-CRS_13
1002
{
1000
OWNER
1000
GEN
1002
}
1001
GENIUS_GENOLIS_13
1002
{
1000
ENT
1005
0
1005
0
1005
0
1005
428
1002
}
1001
GENIUS_GENOENT_13
1002
{
1000
MYREF
1005
50E
1002
}
1002
{
1000
GRP
1005
0
1002
}
1001
GENIUS_GENODEF_13
1002
{
1000
HIER
1070
    10
1002
}
1002
{
1000
MANEDIT
1070
     1
1002
}
1002
{
1000
NOSEL
1070
     0
1002
}
1002
{
1000
BEHIND
1070
     0
1002
}
1002
{
1000
OTHER
1070
     0
1002
}
1002
{
1000
REACTOR
1002
}
  0
POINT
  5
50F
330
1F
100
AcDbEntity
  8
0
 60
     1
100
AcDbPoint
 10
3042.178124697656
 20
301.6617797613063
 30
0.0
1001
GENIUS_GENOBJ-N-CRS_13
1002
{
1000
OWNER
1000
GEN
1002
}
1001
GENIUS_GENOLIS_13
1002
{
1000
ENT
1005
0
1005
0
1005
0
1005
427
1002
}
1001
GENIUS_GENOENT_13
1002
{
1000
MYREF
1005
50F
1002
}
1002
{
1000
GRP
1005
0
1002
}
1001
GENIUS_GENODEF_13
1002
{
1000
HIER
1070
    10
1002
}
1002
{
1000
MANEDIT
1070
     1
1002
}
1002
{
1000
NOSEL
1070
     0
1002
}
1002
{
1000
BEHIND
1070
     0
1002
}
1002
{
1000
OTHER
1070
     0
1002
}
1002
{
1000
REACTOR
1002
}
  0
ENDSEC
  0
SECTION
  2
OBJECTS
  0
DICTIONARY
  5
C
330
0
100
AcDbDictionary
281
     1
  3
ACAD_COLOR
350
BE
  3
ACAD_GROUP
350
D
  3
ACAD_LAYOUT
350
1A
  3
ACAD_MATERIAL
350
BD
  3
ACAD_MLINESTYLE
350
17
  3
ACAD_PLOTSETTINGS
350
19
  3
ACAD_PLOTSTYLENAME
350
E
  3
ACAD_TABLESTYLE
350
11A
  3
ACDBHEADERROUNDTRIPXREC
350
780
  3
AcDbVariableDictionary
350
94
  3
AcmDictionary
350
5B
  3
AMG
350
41
  3
AMGSNAPSETTINGS
350
1B8
  3
DWGPROPS
350
77F
  0
DICTIONARY
  5
276
330
2
100
AcDbDictionary
280
     1
281
     1
  3
ACAD_LAYERSTATES
360
277
  0
DICTIONARY
  5
261
330
260
100
AcDbDictionary
280
     1
281
     1
  0
DICTIONARY
  5
263
330
262
100
AcDbDictionary
280
     1
281
     1
  0
DICTIONARY
  5
266
330
265
100
AcDbDictionary
280
     1
281
     1
  0
DICTIONARY
  5
8F
330
1F
100
AcDbDictionary
280
     1
281
     1
  0
DICTIONARY
  5
BE
102
{ACAD_REACTORS
330
C
102
}
330
C
100
AcDbDictionary
281
     1
  0
DICTIONARY
  5
D
102
{ACAD_REACTORS
330
C
102
}
330
C
100
AcDbDictionary
281
     1
  0
DICTIONARY
  5
1A
102
{ACAD_REACTORS
330
C
102
}
330
C
100
AcDbDictionary
281
     1
  3
Model
350
22
  3
配置1
350
1E
  3
配置2
350
26
  0
DICTIONARY
  5
BD
102
{ACAD_REACTORS
330
C
102
}
330
C
100
AcDbDictionary
281
     1
  0
DICTIONARY
  5
17
102
{ACAD_REACTORS
330
C
102
}
330
C
100
AcDbDictionary
281
     1
  3
Standard
350
18
  0
DICTIONARY
  5
19
102
{ACAD_REACTORS
330
C
102
}
330
C
100
AcDbDictionary
281
     1
  0
ACDBDICTIONARYWDFLT
  5
E
102
{ACAD_REACTORS
330
C
102
}
330
C
100
AcDbDictionary
281
     1
  3
Normal
350
F
100
AcDbDictionaryWithDefault
340
F
  0
DICTIONARY
  5
11A
102
{ACAD_REACTORS
330
C
102
}
330
C
100
AcDbDictionary
281
     1
  3
Standard
350
11B
  0
DICTIONARY
  5
780
102
{ACAD_REACTORS
330
C
102
}
330
C
100
AcDbDictionary
281
     1
  0
DICTIONARY
  5
94
102
{ACAD_REACTORS
330
C
102
}
330
C
100
AcDbDictionary
281
     1
  3
CTABLESTYLE
350
138
  3
DIMASSOC
350
96
  3
INDEXCTL
350
95
  3
PROJECTNAME
350
5C2
  0
DICTIONARY
  5
5B
102
{ACAD_REACTORS
330
C
102
}
330
C
100
AcDbDictionary
281
     1
  3
AcmBOM
350
1B5
  3
AcmStdDictionary
350
61
  3
AMDTSECTSYM_ARROWCOLOR
350
123
  0
DICTIONARY
  5
41
102
{ACAD_REACTORS
330
C
102
}
330
C
100
AcDbDictionary
281
     1
  0
DICTIONARY
  5
1B8
102
{ACAD_REACTORS
330
C
102
}
330
C
100
AcDbDictionary
281
     1
  0
XRECORD
  5
77F
102
{ACAD_REACTORS
330
C
102
}
330
C
100
AcDbXrecord
280
     1
  1
DWGPROPS COOKIE
  2

  3

  4

  6

  7

  8

  9

300
AmdtFileType=84
301
=
302
=
303
=
304
=
305
=
306
=
307
=
308
=
309
=
 40
0.0011036921296296
 41
2455812.605705834
 42
2455812.614133924
  1

 90
        1
  0
DICTIONARY
  5
277
102
{ACAD_REACTORS
330
276
102
}
330
276
100
AcDbDictionary
281
     1
  0
LAYOUT
  5
22
102
{ACAD_XDICTIONARY
360
783
102
}
102
{ACAD_REACTORS
330
1A
102
}
330
1A
100
AcDbPlotSettings
  1

  2

  4

  6

 40
0.0
 41
0.0
 42
0.0
 43
0.0
 44
0.0
 45
0.0
 46
0.0
 47
0.0
 48
0.0
 49
0.0
140
0.0
141
0.0
142
1.0
143
1.0
 70
  1712
 72
     0
 73
     0
 74
     0
  7

 75
     0
147
1.0
148
0.0
149
0.0
100
AcDbLayout
  1
Model
 70
     1
 71
     0
 10
0.0
 20
0.0
 11
12.0
 21
9.0
 12
0.0
 22
0.0
 32
0.0
 14
0.0
 24
0.0
 34
0.0
 15
0.0
 25
0.0
 35
0.0
146
0.0
 13
0.0
 23
0.0
 33
0.0
 16
1.0
 26
0.0
 36
0.0
 17
0.0
 27
1.0
 37
0.0
 76
     0
330
1F
  0
LAYOUT
  5
1E
102
{ACAD_XDICTIONARY
360
781
102
}
102
{ACAD_REACTORS
330
1A
102
}
330
1A
100
AcDbPlotSettings
  1

  2

  4

  6

 40
0.0
 41
0.0
 42
0.0
 43
0.0
 44
0.0
 45
0.0
 46
0.0
 47
0.0
 48
0.0
 49
0.0
140
0.0
141
0.0
142
1.0
143
1.0
 70
   688
 72
     0
 73
     0
 74
     5
  7

 75
    16
147
1.0
148
0.0
149
0.0
100
AcDbLayout
  1
配置1
 70
     1
 71
     1
 10
0.0
 20
0.0
 11
420.0
 21
297.0
 12
0.0
 22
0.0
 32
0.0
 14
1.000000000000000E+20
 24
1.000000000000000E+20
 34
1.000000000000000E+20
 15
-1.000000000000000E+20
 25
-1.000000000000000E+20
 35
-1.000000000000000E+20
146
0.0
 13
0.0
 23
0.0
 33
0.0
 16
1.0
 26
0.0
 36
0.0
 17
0.0
 27
1.0
 37
0.0
 76
     0
330
1B
  0
LAYOUT
  5
26
102
{ACAD_XDICTIONARY
360
785
102
}
102
{ACAD_REACTORS
330
1A
102
}
330
1A
100
AcDbPlotSettings
  1

  2

  4

  6

 40
0.0
 41
0.0
 42
0.0
 43
0.0
 44
0.0
 45
0.0
 46
0.0
 47
0.0
 48
0.0
 49
0.0
140
0.0
141
0.0
142
1.0
143
1.0
 70
   688
 72
     0
 73
     0
 74
     5
  7

 75
    16
147
1.0
148
0.0
149
0.0
100
AcDbLayout
  1
配置2
 70
     1
 71
     2
 10
0.0
 20
0.0
 11
12.0
 21
9.0
 12
0.0
 22
0.0
 32
0.0
 14
0.0
 24
0.0
 34
0.0
 15
0.0
 25
0.0
 35
0.0
146
0.0
 13
0.0
 23
0.0
 33
0.0
 16
1.0
 26
0.0
 36
0.0
 17
0.0
 27
1.0
 37
0.0
 76
     0
330
23
  0
MLINESTYLE
  5
18
102
{ACAD_REACTORS
330
17
102
}
330
17
100
AcDbMlineStyle
  2
STANDARD
 70
     0
  3

 62
   256
 51
90.0
 52
90.0
 71
     2
 49
0.5
 62
   256
  6
BYLAYER
 49
-0.5
 62
   256
  6
BYLAYER
  0
ACDBPLACEHOLDER
  5
F
102
{ACAD_REACTORS
330
E
102
}
330
E
  0
TABLESTYLE
  5
11B
102
{ACAD_REACTORS
330
11A
102
}
330
11A
100
AcDbTableStyle
  3
Standard
 70
     0
 71
     0
 40
1.5
 41
1.5
280
     0
281
     0
  7
STANDARD
140
4.5
170
     2
 62
     0
 63
     7
283
     0
274
    -2
284
     1
 64
     0
275
    -2
285
     1
 65
     0
276
    -2
286
     1
 66
     0
277
    -2
287
     1
 67
     0
278
    -2
288
     1
 68
     0
279
    -2
289
     1
 69
     0
  7
STANDARD
140
6.0
170
     5
 62
     0
 63
     7
283
     0
274
    -2
284
     1
 64
     0
275
    -2
285
     1
 65
     0
276
    -2
286
     1
 66
     0
277
    -2
287
     1
 67
     0
278
    -2
288
     1
 68
     0
279
    -2
289
     1
 69
     0
  7
STANDARD
140
4.5
170
     5
 62
     0
 63
     7
283
     0
274
    -2
284
     1
 64
     0
275
    -2
285
     1
 65
     0
276
    -2
286
     1
 66
     0
277
    -2
287
     1
 67
     0
278
    -2
288
     1
 68
     0
279
    -2
289
     1
 69
     0
  0
DICTIONARYVAR
  5
138
102
{ACAD_REACTORS
330
94
102
}
330
94
100
DictionaryVariables
280
     0
  1
STANDARD
  0
DICTIONARYVAR
  5
96
102
{ACAD_REACTORS
330
94
102
}
330
94
100
DictionaryVariables
280
     0
  1
2
  0
DICTIONARYVAR
  5
95
102
{ACAD_REACTORS
330
94
102
}
330
94
100
DictionaryVariables
280
     0
  1
0
  0
DICTIONARYVAR
  5
5C2
102
{ACAD_REACTORS
330
94
102
}
330
94
100
DictionaryVariables
280
     0
  1

  0
DICTIONARY
  5
1B5
102
{ACAD_REACTORS
330
5B
102
}
330
5B
100
AcDbDictionary
281
     1
  0
DICTIONARY
  5
61
102
{ACAD_REACTORS
330
5B
102
}
330
5B
100
AcDbDictionary
281
     1
  0
XRECORD
  5
123
102
{ACAD_REACTORS
330
5B
102
}
330
5B
100
AcDbXrecord
280
     1
 90
-1023410169
  0
DICTIONARY
  5
783
330
22
100
AcDbDictionary
280
     1
281
     1
  3
ACAD_XREC_ROUNDTRIP
360
784
  0
DICTIONARY
  5
781
330
1E
100
AcDbDictionary
280
     1
281
     1
  3
ACAD_XREC_ROUNDTRIP
360
782
  0
DICTIONARY
  5
785
330
26
100
AcDbDictionary
280
     1
281
     1
  3
ACAD_XREC_ROUNDTRIP
360
786
  0
XRECORD
  5
784
102
{ACAD_REACTORS
330
783
102
}
330
783
100
AcDbXrecord
280
     1
102
SHADEPLOT
 70
     0
102
SHADEPLOTRESLEVEL
 70
     2
102
SHADEPLOTCUSTOMDPI
 70
   300
  0
XRECORD
  5
782
102
{ACAD_REACTORS
330
781
102
}
330
781
100
AcDbXrecord
280
     1
102
SHADEPLOT
 70
     0
102
SHADEPLOTRESLEVEL
 70
     2
102
SHADEPLOTCUSTOMDPI
 70
   300
  0
XRECORD
  5
786
102
{ACAD_REACTORS
330
785
102
}
330
785
100
AcDbXrecord
280
     1
102
SHADEPLOT
 70
     0
102
SHADEPLOTRESLEVEL
 70
     2
102
SHADEPLOTCUSTOMDPI
 70
   300
  0
ENDSEC
  0
EOF
