  0
SECTION
  2
HEADER
  9
$ACADVER
  1
AC1015
  9
$ACADMAINTVER
 70
    20
  9
$DWGCODEPAGE
  3
ANSI_950
  9
$INSBASE
 10
0.0
 20
0.0
 30
0.0
  9
$EXTMIN
 10
985.9504354892921
 20
1077.881159747164
 30
0.0
  9
$EXTMAX
 10
1278.625016470163
 20
1309.318170509034
 30
184.6336296564843
  9
$LIMMIN
 10
0.0
 20
0.0
  9
$LIMMAX
 10
420.0
 20
297.0
  9
$ORTHOMODE
 70
     0
  9
$REGENMODE
 70
     1
  9
$FILLMODE
 70
     1
  9
$QTEXTMODE
 70
     0
  9
$MIRRTEXT
 70
     1
  9
$LTSCALE
 40
1.0
  9
$ATTMODE
 70
     1
  9
$TEXTSIZE
 40
1.0
  9
$TRACEWID
 40
1.0
  9
$TEXTSTYLE
  7
STANDARD
  9
$CLAYER
  8
0
  9
$CELTYPE
  6
ByLayer
  9
$CECOLOR
 62
   256
  9
$CELTSCALE
 40
1.0
  9
$DISPSILH
 70
     0
  9
$DIMSCALE
 40
1.0
  9
$DIMASZ
 40
2.5
  9
$DIMEXO
 40
1.0
  9
$DIMDLI
 40
10.0
  9
$DIMRND
 40
0.0
  9
$DIMDLE
 40
0.0
  9
$DIMEXE
 40
1.0
  9
$DIMTP
 40
0.1
  9
$DIMTM
 40
0.1
  9
$DIMTXT
 40
3.5
  9
$DIMCEN
 40
0.0
  9
$DIMTSZ
 40
0.0
  9
$DIMTOL
 70
     0
  9
$DIMLIM
 70
     0
  9
$DIMTIH
 70
     0
  9
$DIMTOH
 70
     0
  9
$DIMSE1
 70
     0
  9
$DIMSE2
 70
     0
  9
$DIMTAD
 70
     1
  9
$DIMZIN
 70
     8
  9
$DIMBLK
  1

  9
$DIMASO
 70
     1
  9
$DIMSHO
 70
     1
  9
$DIMPOST
  1

  9
$DIMAPOST
  1
"
  9
$DIMALT
 70
     0
  9
$DIMALTD
 70
     2
  9
$DIMALTF
 40
0.0393701
  9
$DIMLFAC
 40
1.0
  9
$DIMTOFL
 70
     1
  9
$DIMTVP
 40
0.0
  9
$DIMTIX
 70
     0
  9
$DIMSOXD
 70
     0
  9
$DIMSAH
 70
     0
  9
$DIMBLK1
  1

  9
$DIMBLK2
  1

  9
$DIMSTYLE
  2
AM_ISO
  9
$DIMCLRD
 70
   256
  9
$DIMCLRE
 70
   256
  9
$DIMCLRT
 70
     2
  9
$DIMTFAC
 40
0.71
  9
$DIMGAP
 40
1.5
  9
$DIMJUST
 70
     0
  9
$DIMSD1
 70
     0
  9
$DIMSD2
 70
     0
  9
$DIMTOLJ
 70
     0
  9
$DIMTZIN
 70
     8
  9
$DIMALTZ
 70
     0
  9
$DIMALTTZ
 70
     0
  9
$DIMUPT
 70
     0
  9
$DIMDEC
 70
     2
  9
$DIMTDEC
 70
     3
  9
$DIMALTU
 70
     2
  9
$DIMALTTD
 70
     4
  9
$DIMTXSTY
  7
STANDARD
  9
$DIMAUNIT
 70
     0
  9
$DIMADEC
 70
     0
  9
$DIMALTRND
 40
0.0
  9
$DIMAZIN
 70
     2
  9
$DIMDSEP
 70
    46
  9
$DIMATFIT
 70
     3
  9
$DIMFRAC
 70
     0
  9
$DIMLDRBLK
  1

  9
$DIMLUNIT
 70
     2
  9
$DIMLWD
 70
    -1
  9
$DIMLWE
 70
    -1
  9
$DIMTMOVE
 70
     0
  9
$LUNITS
 70
     2
  9
$LUPREC
 70
     2
  9
$SKETCHINC
 40
1.0
  9
$FILLETRAD
 40
2.5
  9
$AUNITS
 70
     0
  9
$AUPREC
 70
     0
  9
$MENU
  1
.
  9
$ELEVATION
 40
0.0
  9
$PELEVATION
 40
0.0
  9
$THICKNESS
 40
0.0
  9
$LIMCHECK
 70
     0
  9
$CHAMFERA
 40
2.5
  9
$CHAMFERB
 40
2.5
  9
$CHAMFERC
 40
20.0
  9
$CHAMFERD
 40
0.0
  9
$SKPOLY
 70
     0
  9
$TDCREATE
 40
2455812.606244572
  9
$TDUCREATE
 40
2455812.272911239
  9
$TDUPDATE
 40
2455812.606444943
  9
$TDUUPDATE
 40
2455812.273111609
  9
$TDINDWG
 40
0.0002010995
  9
$TDUSRTIMER
 40
0.0002009144
  9
$USRTIMER
 70
     1
  9
$ANGBASE
 50
0.0
  9
$ANGDIR
 70
     0
  9
$PDMODE
 70
     0
  9
$PDSIZE
 40
0.0
  9
$PLINEWID
 40
0.0
  9
$SPLFRAME
 70
     0
  9
$SPLINETYPE
 70
     6
  9
$SPLINESEGS
 70
     8
  9
$HANDSEED
  5
5BE
  9
$SURFTAB1
 70
     6
  9
$SURFTAB2
 70
     6
  9
$SURFTYPE
 70
     6
  9
$SURFU
 70
     6
  9
$SURFV
 70
     6
  9
$UCSBASE
  2

  9
$UCSNAME
  2

  9
$UCSORG
 10
0.0
 20
0.0
 30
0.0
  9
$UCSXDIR
 10
1.0
 20
0.0
 30
0.0
  9
$UCSYDIR
 10
0.0
 20
1.0
 30
0.0
  9
$UCSORTHOREF
  2

  9
$UCSORTHOVIEW
 70
     0
  9
$UCSORGTOP
 10
0.0
 20
0.0
 30
0.0
  9
$UCSORGBOTTOM
 10
0.0
 20
0.0
 30
0.0
  9
$UCSORGLEFT
 10
0.0
 20
0.0
 30
0.0
  9
$UCSORGRIGHT
 10
0.0
 20
0.0
 30
0.0
  9
$UCSORGFRONT
 10
0.0
 20
0.0
 30
0.0
  9
$UCSORGBACK
 10
0.0
 20
0.0
 30
0.0
  9
$PUCSBASE
  2

  9
$PUCSNAME
  2

  9
$PUCSORG
 10
0.0
 20
0.0
 30
0.0
  9
$PUCSXDIR
 10
1.0
 20
0.0
 30
0.0
  9
$PUCSYDIR
 10
0.0
 20
1.0
 30
0.0
  9
$PUCSORTHOREF
  2

  9
$PUCSORTHOVIEW
 70
     0
  9
$PUCSORGTOP
 10
0.0
 20
0.0
 30
0.0
  9
$PUCSORGBOTTOM
 10
0.0
 20
0.0
 30
0.0
  9
$PUCSORGLEFT
 10
0.0
 20
0.0
 30
0.0
  9
$PUCSORGRIGHT
 10
0.0
 20
0.0
 30
0.0
  9
$PUCSORGFRONT
 10
0.0
 20
0.0
 30
0.0
  9
$PUCSORGBACK
 10
0.0
 20
0.0
 30
0.0
  9
$USERI1
 70
     0
  9
$USERI2
 70
     0
  9
$USERI3
 70
     0
  9
$USERI4
 70
     0
  9
$USERI5
 70
     0
  9
$USERR1
 40
0.0
  9
$USERR2
 40
0.0
  9
$USERR3
 40
0.0
  9
$USERR4
 40
0.0
  9
$USERR5
 40
0.0
  9
$WORLDVIEW
 70
     1
  9
$SHADEDGE
 70
     3
  9
$SHADEDIF
 70
    70
  9
$TILEMODE
 70
     1
  9
$MAXACTVP
 70
    64
  9
$PINSBASE
 10
0.0
 20
0.0
 30
0.0
  9
$PLIMCHECK
 70
     0
  9
$PEXTMIN
 10
1.000000000000000E+20
 20
1.000000000000000E+20
 30
1.000000000000000E+20
  9
$PEXTMAX
 10
-1.000000000000000E+20
 20
-1.000000000000000E+20
 30
-1.000000000000000E+20
  9
$PLIMMIN
 10
0.0
 20
0.0
  9
$PLIMMAX
 10
420.0
 20
297.0
  9
$UNITMODE
 70
     0
  9
$VISRETAIN
 70
     1
  9
$PLINEGEN
 70
     0
  9
$PSLTSCALE
 70
     1
  9
$TREEDEPTH
 70
  3020
  9
$CMLSTYLE
  2
Standard
  9
$CMLJUST
 70
     0
  9
$CMLSCALE
 40
20.0
  9
$PROXYGRAPHICS
 70
     1
  9
$MEASUREMENT
 70
     1
  9
$CELWEIGHT
370
    -1
  9
$ENDCAPS
280
     0
  9
$JOINSTYLE
280
     0
  9
$LWDISPLAY
290
     0
  9
$INSUNITS
 70
     4
  9
$HYPERLINKBASE
  1

  9
$STYLESHEET
  1

  9
$XEDIT
290
     1
  9
$CEPSNTYPE
380
     0
  9
$PSTYLEMODE
290
     1
  9
$FINGERPRINTGUID
  2
{784F75D1-25C7-4800-92B7-4B59C60D32C5}
  9
$VERSIONGUID
  2
{BCC6DCF2-C152-45DA-800A-35792C570EF4}
  9
$EXTNAMES
290
     1
  9
$PSVPSCALE
 40
0.0
  9
$OLESTARTUP
290
     0
  0
ENDSEC
  0
SECTION
  2
CLASSES
  0
CLASS
  1
ACDBDICTIONARYWDFLT
  2
AcDbDictionaryWithDefault
  3
ObjectDBX Classes
 90
        0
280
     0
281
     0
  0
CLASS
  1
ACDBPLACEHOLDER
  2
AcDbPlaceHolder
  3
ObjectDBX Classes
 90
        0
280
     0
281
     0
  0
CLASS
  1
LAYOUT
  2
AcDbLayout
  3
ObjectDBX Classes
 90
        0
280
     0
281
     0
  0
CLASS
  1
ACME_DOCUMENT
  2
AcMeDbDoc
  3
AcMeServices
 90
        0
280
     0
281
     0
  0
CLASS
  1
AMGSETTINGSOBJ
  2
AmgSettingsObj
  3
"AcadM|Product Description: AutoCAD Mechanical 2000|Company: Autodesk"
 90
        0
280
     0
281
     0
  0
CLASS
  1
ACMESCOPE
  2
AcMeScope
  3
AcMeServices
 90
        0
280
     0
281
     0
  0
CLASS
  1
ACMECOMMANDHISTORY
  2
AcMeCommandHistory
  3
AcMeServices
 90
        0
280
     0
281
     0
  0
CLASS
  1
ACIMSYSVARMAN
  2
AcImSysVarManager
  3
AcMeServices
 90
        0
280
     0
281
     0
  0
CLASS
  1
ACIMREALSYSVAR
  2
AcImRealSysVar
  3
AcMeServices
 90
        0
280
     0
281
     0
  0
CLASS
  1
ACIMINTSYSVAR
  2
AcImIntSysVar
  3
AcMeServices
 90
        0
280
     0
281
     0
  0
CLASS
  1
ACMEDRAWINGMAN
  2
AcMeDrawingMan
  3
AcMeServices
 90
        0
280
     0
281
     0
  0
CLASS
  1
ACMEVIEW
  2
AcMeView
  3
AcMeServices
 90
        0
280
     0
281
     0
  0
CLASS
  1
ACDBENTITYCACHE
  2
AcMeEntityCache
  3
AcMeServices
 90
        0
280
     0
281
     0
  0
CLASS
  1
GSMANAGER
  2
AcMeGSManager
  3
AcMeServices
 90
        0
280
     0
281
     0
  0
CLASS
  1
AMDTINTERNALREACTOR
  2
AmdtInternalReactor
  3
AcMeServices
 90
        0
280
     0
281
     0
  0
CLASS
  1
ACMESTATEMGR
  2
AcMeStateMgr
  3
AcMeServices
 90
        0
280
     0
281
     0
  0
CLASS
  1
ACGREFMASTER
  2
AcGrefMaster
  3
AcAttribServices
 90
        0
280
     0
281
     0
  0
CLASS
  1
ACME_DATABASE
  2
AcMeDbDatabase
  3
AcMeServices
 90
        0
280
     0
281
     0
  0
CLASS
  1
ACRFINSADJUSTERMGR
  2
AcRfInsAdjusterMgr
  3
AcMeServices
 90
        0
280
     0
281
     0
  0
CLASS
  1
ACGREFACADMASTER
  2
AcGrefacadMaster
  3
AcGrefServices
 90
        0
280
     0
281
     0
  0
CLASS
  1
AMIMASTER
  2
AmiMaster
  3
AmiServices
 90
        0
280
     0
281
     0
  0
CLASS
  1
ACMDATADICTIONARY
  2
AcmDataDictionary
  3
"AcmSymBB|Product Description: AutoCAD Mechanical 2004 DX|Company: Autodesk"
 90
        0
280
     0
281
     0
  0
CLASS
  1
ACMDATAENTRYBLOCK
  2
AcmDataEntryBlock
  3
"AcmSymBB|Product Description: AutoCAD Mechanical 2004 DX|Company: Autodesk"
 90
        0
280
     0
281
     0
  0
CLASS
  1
ACIMSTRSYSVAR
  2
AcImStrSysVar
  3
AcMeServices
 90
        0
280
     0
281
     0
  0
CLASS
  1
ACMSTANDARDISO
  2
AcmStandardISO
  3
"Amdt_StdImp|Product Description: AutoCAD Mechanical 2004 DX|Company: Autodesk"
 90
        0
280
     0
281
     0
  0
CLASS
  1
AMGOBJPROPCFG
  2
AmgObjPropCfg
  3
"AmgLay|Product Description: AutoCAD Mechanical 2000|Company: Autodesk"
 90
        1
280
     0
281
     0
  0
CLASS
  1
AMDTEDGESTANDARDISO
  2
AmdtEdgeStdISO
  3
"Amdt_StdImp|Product Description: AutoCAD Mechanical 2004 DX|Company: Autodesk"
 90
        0
280
     0
281
     0
  0
CLASS
  1
ACMSURFSTANDARDISO
  2
AcmSurfTextStdISO
  3
"Amdt_StdImp|Product Description: AutoCAD Mechanical 2004 DX|Company: Autodesk"
 90
        0
280
     0
281
     0
  0
CLASS
  1
ACMFCFSTANDARDISO
  2
AcmFCFStdISO
  3
"Amdt_StdImp|Product Description: AutoCAD Mechanical 2004 DX|Company: Autodesk"
 90
        0
280
     0
281
     0
  0
CLASS
  1
ACMWELDSTANDARDISO
  2
AcmWeldingStdISO
  3
"Amdt_StdImp|Product Description: AutoCAD Mechanical 2004 DX|Company: Autodesk"
 90
        0
280
     0
281
     0
  0
CLASS
  1
ACMIDSTANDARDISO
  2
AcmIdStdISO
  3
"Amdt_StdImp|Product Description: AutoCAD Mechanical 2004 DX|Company: Autodesk"
 90
        0
280
     0
281
     0
  0
CLASS
  1
ACMDATUMSTANDARDISO
  2
AcmDatumStdISO
  3
"Amdt_StdImp|Product Description: AutoCAD Mechanical 2004 DX|Company: Autodesk"
 90
        0
280
     0
281
     0
  0
CLASS
  1
ACMBOMSTANDARDISO
  2
AcmBOMStdISO
  3
"Amdt_StdImp|Product Description: AutoCAD Mechanical 2004 DX|Company: Autodesk"
 90
        0
280
     0
281
     0
  0
CLASS
  1
ACMDETAILSTANDARDISO
  2
AmdtDetailSymStdISO
  3
"Amdt_StdImp|Product Description: AutoCAD Mechanical 2004 DX|Company: Autodesk"
 90
        0
280
     0
281
     0
  0
CLASS
  1
ACMSECTIONSTANDARDISO
  2
AmdtSectionSymStdISO
  3
"Amdt_StdImp|Product Description: AutoCAD Mechanical 2004 DX|Company: Autodesk"
 90
        0
280
     0
281
     0
  0
CLASS
  1
ACMCENTERLINESTANDARDISO
  2
AmdtCenterLineStdISO
  3
"Amdt_StdImp|Product Description: AutoCAD Mechanical 2004 DX|Company: Autodesk"
 90
        0
280
     0
281
     0
  0
CLASS
  1
ACMNOTESTANDARDISO
  2
AmdtNoteStdISO
  3
"Amdt_StdImp|Product Description: AutoCAD Mechanical 2004 DX|Company: Autodesk"
 90
        0
280
     0
281
     0
  0
CLASS
  1
ACAMGLAYSTD
  2
AcAmgLayStd
  3
"AcAmgLayStd|Product Description: AutoCAD Mechanical 2000|Company: Autodesk"
 90
        0
280
     0
281
     0
  0
CLASS
  1
ACAMGDIMSTD
  2
AcAmgDimStd
  3
"AcAmgDimStd|Product Description: AutoCAD Mechanical 2000|Company: Autodesk"
 90
        0
280
     0
281
     0
  0
CLASS
  1
ACAMGHOLECHARTSTDISO
  2
AcAmgHoleChartStdISO
  3
ACMSYMBB_MODULE_NAME
 90
        0
280
     0
281
     0
  0
CLASS
  1
ACAMGTITLESTD
  2
AcAmgTitleStd
  3
"TITLEAPP"
 90
        0
280
     0
281
     0
  0
CLASS
  1
LAYER_INDEX
  2
AcDbLayerIndex
  3
ObjectDBX Classes
 90
    32768
280
     0
281
     0
  0
CLASS
  1
IDBUFFER
  2
AcDbIdBuffer
  3
ObjectDBX Classes
 90
    32768
280
     0
281
     0
  0
CLASS
  1
DICTIONARYVAR
  2
AcDbDictionaryVar
  3
ObjectDBX Classes
 90
        0
280
     0
281
     0
  0
CLASS
  1
AM_DRAWING_MGR
  2
AcDmDwgMgr
  3
AcMechDwgViewMgmt
 90
        0
280
     0
281
     0
  0
CLASS
  1
AM_DWG_DOCUMENT
  2
AcDmDwgDocument
  3
AcMechDwgViewMgmt
 90
        0
280
     0
281
     0
  0
CLASS
  1
AM_DWG_SHEET
  2
AcDmSheet
  3
AcMechDwgViewMgmt
 90
        0
280
     0
281
     0
  0
CLASS
  1
AM_VIEWDIMPARMAP
  2
AcDmViewDimParMap
  3
AcMechDwgViewMgmt
 90
        0
280
     0
281
     0
  0
CLASS
  1
AM_DWGMGR_NAME
  2
AcDmDwgMgrName
  3
AcMechDwgViewMgmt
 90
        0
280
     0
281
     0
  0
CLASS
  1
AMDTMENUSTATEMGR
  2
AmdtMenuStateMgr
  3
McadcomServices
 90
        0
280
     0
281
     0
  0
CLASS
  1
AMDTMCOMMENUSTATE
  2
AmdtMcomMenuState
  3
McadcomServices
 90
        0
280
     0
281
     0
  0
CLASS
  1
MAPIAMMOUDLE
  2
MApiAmModule
  3
MApiAmServices
 90
        0
280
     0
281
     0
  0
CLASS
  1
AMDTADMENUSTATE
  2
AmdtAdMenuState
  3
DesignerServices
 90
        0
280
     0
281
     0
  0
CLASS
  1
ADAPPL
  2
AcAdAppl
  3
DesignerServices
 90
        0
280
     0
281
     0
  0
CLASS
  1
DEPMGR
  2
AcAdDepMgr
  3
DesignerServices
 90
        0
280
     0
281
     0
  0
CLASS
  1
PARAMMGR
  2
AcAdParamMgr
  3
DesignerServices
 90
        0
280
     0
281
     0
  0
CLASS
  1
PARAMSCOPE
  2
AcAdParamScope
  3
DesignerServices
 90
        0
280
     0
281
     0
  0
CLASS
  1
NAMEDAPPL
  2
AcAdNamedAppl
  3
DesignerServices
 90
        0
280
     0
281
     0
  0
CLASS
  1
AMDTDMMENUSTATE
  2
AmdtDmMenuState
  3
AcMechDwgViewMgmt
 90
        0
280
     0
281
     0
  0
CLASS
  1
AMDTAMMENUSTATE
  2
AmdtAmMenuState
  3
DesignerAssemblies
 90
        0
280
     0
281
     0
  0
CLASS
  1
ACAMPROJECT
  2
AcAmProject
  3
DesignerAssemblies
 90
        0
280
     0
281
     0
  0
CLASS
  1
ACAMGRCOMPDEF
  2
AcAmGrCompDef
  3
DesignerAssemblies
 90
        0
280
     0
281
     0
  0
CLASS
  1
ACCMCONTEXT
  2
AcCmContext
  3
DesignerAssemblies
 90
        0
280
     0
281
     0
  0
CLASS
  1
ACAMCOMPDEF
  2
AcAmCompDef
  3
DesignerAssemblies
 90
        0
280
     0
281
     0
  0
CLASS
  1
ACAMCOMPDEFMGR
  2
AcAmCompDefMgr
  3
DesignerAssemblies
 90
        0
280
     0
281
     0
  0
CLASS
  1
AMCONTEXTMGR
  2
AcAmContextMgr
  3
DesignerAssemblies
 90
        0
280
     0
281
     0
  0
CLASS
  1
ACAMCONTEXTMODELER
  2
AcAmContextModeler
  3
DesignerAssemblies
 90
        0
280
     0
281
     0
  0
CLASS
  1
ACMTHREADLINESTANDARDISO
  2
AmdtThreadLineStdISO
  3
"Amdt_StdImp|Product Description: AutoCAD Mechanical 2004 DX|Company: Autodesk"
 90
        0
280
     0
281
     0
  0
CLASS
  1
CATALOGSTATE
  2
AcAmCatalogState
  3
DesignerAssemblies
 90
        0
280
     0
281
     0
  0
CLASS
  1
ACAMGRCOMPDEFSET
  2
AcAmGrCompDefSet
  3
DesignerAssemblies
 90
        0
280
     0
281
     0
  0
CLASS
  1
AMDTBROWSERDBTAB
  2
AmdtBrowserDbTab
  3
McadcomServices
 90
        0
280
     0
281
     0
  0
CLASS
  1
CBROWSERAPPOBJECT
  2
CBrowserAppObject
  3
McadcomServices
 90
        0
280
     0
281
     0
  0
CLASS
  1
DM_PLACEHOLDER
  2
AcDmSelsetPlaceholder
  3
AcMechDwgViewMgmt
 90
        0
280
     0
281
     0
  0
CLASS
  1
TABLESTYLE
  2
AcDbTableStyle
  3
ObjectDBX Classes
 90
     2047
280
     0
281
     0
  0
CLASS
  1
VAACXREFPANELOBJECT
  2
VaAcXREFPanelObject
  3
VAAC_ADDIN
 90
    32768
280
     0
281
     0
  0
CLASS
  1
VAACIMAGEINVENTORY
  2
VaAcImageInventory
  3
VAAC_ADDIN
 90
    32768
280
     0
281
     0
  0
CLASS
  1
AMDTNOTETEMPLATEDB
  2
AmdtNoteTemplateDB
  3
AMDT_STDIMP_MODULE_NAME
 90
        0
280
     0
281
     0
  0
CLASS
  1
ACMBOM
  2
AcmBom
  3
"AcmSymBB|Product Description: AutoCAD Mechanical 2004 DX|Company: Autodesk"
 90
    32768
280
     0
281
     0
  0
CLASS
  1
AMDTFORMULAUPDATEDISPATCHER
  2
AmdtFormulaUpdateDispatcher
  3
AcMeServices
 90
    32768
280
     0
281
     0
  0
CLASS
  1
ACMPARTLIST
  2
AcmPartList
  3
"AcmSymBB|Product Description: AutoCAD Mechanical 2004 DX|Company: Autodesk"
 90
    33791
280
     0
281
     1
  0
CLASS
  1
ACAMGFILTERDAT
  2
AcAmgFilterDat
  3
"AcadM|Product Description: AutoCAD Mechanical 2000|Company: Autodesk"
 90
        0
280
     0
281
     0
  0
CLASS
  1
DIMASSOC
  2
AcDbDimAssoc
  3
"AcDbDimAssoc|Product Desc:     AcDim ARX App For Dimension|Company:          Autodesk, Inc.|WEB Address:      www.autodesk.com"
 90
        0
280
     0
281
     0
  0
CLASS
  1
SORTENTSTABLE
  2
AcDbSortentsTable
  3
ObjectDBX Classes
 90
        0
280
     0
281
     0
  0
CLASS
  1
ACRFATTGENMGR
  2
AcRfAttGeneralMgr
  3
AcAttribServices
 90
        0
280
     0
281
     0
  0
ENDSEC
  0
SECTION
  2
TABLES
  0
TABLE
  2
VPORT
  5
8
330
0
100
AcDbSymbolTable
 70
     3
  0
VPORT
  5
5B5
330
8
100
AcDbSymbolTableRecord
100
AcDbViewportTableRecord
  2
*Active
 70
     0
 10
0.0
 20
0.0
 11
1.0
 21
1.0
 12
1137.84405206338
 22
1193.351225151436
 13
0.0
 23
0.0
 14
2.5
 24
2.5
 15
10.0
 25
10.0
 16
0.0
 26
0.0
 36
1.0
 17
0.0
 27
0.0
 37
0.0
 40
270.5820962066682
 41
1.221364221364221
 42
50.0
 43
0.0
 44
0.0
 50
0.0
 51
0.0
 71
     0
 72
   100
 73
     1
 74
     3
 75
     0
 76
     0
 77
     0
 78
     0
281
     0
 65
     1
110
0.0
120
0.0
130
0.0
111
1.0
121
0.0
131
0.0
112
0.0
122
1.0
132
0.0
 79
     0
146
0.0
  0
ENDTAB
  0
TABLE
  2
LTYPE
  5
5
330
0
100
AcDbSymbolTable
 70
    16
  0
LTYPE
  5
14
330
5
100
AcDbSymbolTableRecord
100
AcDbLinetypeTableRecord
  2
ByBlock
 70
     0
  3

 72
    65
 73
     0
 40
0.0
  0
LTYPE
  5
15
330
5
100
AcDbSymbolTableRecord
100
AcDbLinetypeTableRecord
  2
ByLayer
 70
     0
  3

 72
    65
 73
     0
 40
0.0
  0
LTYPE
  5
16
330
5
100
AcDbSymbolTableRecord
100
AcDbLinetypeTableRecord
  2
Continuous
 70
     0
  3
Solid line
 72
    65
 73
     0
 40
0.0
  0
LTYPE
  5
64
330
5
100
AcDbSymbolTableRecord
100
AcDbLinetypeTableRecord
  2
AM_ISO02W050
 70
     0
  3
__ __ __ __ __ __ __ __ __ __ __ __ __ __ __
 72
    65
 73
     2
 40
7.5
 49
6.0
 74
     0
 49
-1.5
 74
     0
  0
LTYPE
  5
65
330
5
100
AcDbSymbolTableRecord
100
AcDbLinetypeTableRecord
  2
AM_ISO08W050
 70
     0
  3
____ . ____ . ____ . ____ . ____ . ____ . ____
 72
    65
 73
     4
 40
18.0
 49
12.0
 74
     0
 49
-1.5
 74
     0
 49
3.0
 74
     0
 49
-1.5
 74
     0
  0
LTYPE
  5
66
330
5
100
AcDbSymbolTableRecord
100
AcDbLinetypeTableRecord
  2
AM_ISO09W050
 70
     0
  3
_____ . . _____ . . _____ . . ____ .. ____
 72
    65
 73
     6
 40
22.5
 49
12.0
 74
     0
 49
-1.5
 74
     0
 49
3.0
 74
     0
 49
-1.5
 74
     0
 49
3.0
 74
     0
 49
-1.5
 74
     0
  0
LTYPE
  5
67
330
5
100
AcDbSymbolTableRecord
100
AcDbLinetypeTableRecord
  2
Amconstr
 70
     0
  3
_______________________
 72
    65
 73
     2
 40
9999.0
 49
9999.0
 74
     0
 49
0.0
 74
     0
  0
LTYPE
  5
68
330
5
100
AcDbSymbolTableRecord
100
AcDbLinetypeTableRecord
  2
AM_ISO08W050x2
 70
     0
  3
__ . __ . __ . __ . __ . __
 72
    65
 73
     4
 40
9.0
 49
6.0
 74
     0
 49
-0.75
 74
     0
 49
1.5
 74
     0
 49
-0.75
 74
     0
  0
LTYPE
  5
69
330
5
100
AcDbSymbolTableRecord
100
AcDbLinetypeTableRecord
  2
AM_ISO02W050x2
 70
     0
  3
 _ _ _ _ _ _ _ _ _ _ _ _
 72
    65
 73
     2
 40
3.75
 49
3.0
 74
     0
 49
-0.75
 74
     0
  0
LTYPE
  5
6C
330
5
100
AcDbSymbolTableRecord
100
AcDbLinetypeTableRecord
  2
Amzigzag
 70
     0
  3
/\/-/\/-/\/-/\/-/\/-/\/
 72
    65
 73
     2
 40
11.0001
 49
0.0001
 74
     4
 75
   135
340
6B
 46
0.04
 50
0.0
 44
0.0
 45
0.0
 49
-11.0
 74
     0
  0
LTYPE
  5
7A
330
5
100
AcDbSymbolTableRecord
100
AcDbLinetypeTableRecord
  2
ACISOWELD
 70
     0
  3
_ _ _ _ _
 72
    65
 73
     2
 40
2.0
 49
2.0
 74
     0
 49
-1.0
 74
     0
  0
LTYPE
  5
7B
330
5
100
AcDbSymbolTableRecord
100
AcDbLinetypeTableRecord
  2
ACISOTGB
 70
     0
  3
__ . . __ . .
 72
    65
 73
     6
 40
9.0
 49
4.0
 74
     0
 49
-1.0
 74
     0
 49
1.0
 74
     0
 49
-1.0
 74
     0
 49
1.0
 74
     0
 49
-1.0
 74
     0
  0
LTYPE
  5
7C
330
5
100
AcDbSymbolTableRecord
100
AcDbLinetypeTableRecord
  2
ACISOTGL
 70
     0
  3
_ _ _ _ _
 72
    65
 73
     2
 40
3.0
 49
2.0
 74
     0
 49
-1.0
 74
     0
  0
LTYPE
  5
7E
330
5
100
AcDbSymbolTableRecord
100
AcDbLinetypeTableRecord
  2
CENTER
 70
     0
  3
__ . __
 72
    65
 73
     4
 40
7.0
 49
4.0
 74
     0
 49
-1.0
 74
     0
 49
1.0
 74
     0
 49
-1.0
 74
     0
  0
LTYPE
  5
D8
330
5
100
AcDbSymbolTableRecord
100
AcDbLinetypeTableRecord
  2
HIDDEN
 70
     0
  3
Hidden __ __ __ __ __ __ __ __ __ __ __ __ __ _
 72
    65
 73
     2
 40
9.524999999999998
 49
6.349999999999999
 74
     0
 49
-3.174999999999999
 74
     0
  0
LTYPE
  5
D9
330
5
100
AcDbSymbolTableRecord
100
AcDbLinetypeTableRecord
  2
PHANTOM2
 70
     0
  3
Phantom (.5x) ___ _ _ ___ _ _ ___ _ _ ___ _ _
 72
    65
 73
     6
 40
31.75
 49
15.875
 74
     0
 49
-3.174999999999999
 74
     0
 49
3.174999999999999
 74
     0
 49
-3.174999999999999
 74
     0
 49
3.174999999999999
 74
     0
 49
-3.174999999999999
 74
     0
  0
LTYPE
  5
25F
330
5
100
AcDbSymbolTableRecord
100
AcDbLinetypeTableRecord
  2
CENTER2
 70
     0
  3
Center (.5x) ___ _ ___ _ ___ _ ___ _ ___ _ ___
 72
    65
 73
     4
 40
28.575
 49
19.05
 74
     0
 49
-3.174999999999998
 74
     0
 49
3.174999999999998
 74
     0
 49
-3.174999999999998
 74
     0
  0
LTYPE
  5
260
330
5
100
AcDbSymbolTableRecord
100
AcDbLinetypeTableRecord
  2
CNSC05
 70
     0
  3
CNS_CENTER05 __________ . __________ . ________
 72
    65
 73
     4
 40
7.0
 49
5.0
 74
     0
 49
-1.0
 74
     0
 49
0.0
 74
     0
 49
-1.0
 74
     0
  0
ENDTAB
  0
TABLE
  2
LAYER
  5
2
102
{ACAD_XDICTIONARY
360
277
102
}
330
0
100
AcDbSymbolTable
 70
     8
  0
LAYER
  5
10
330
2
100
AcDbSymbolTableRecord
100
AcDbLayerTableRecord
  2
0
 70
     0
 62
     7
  6
Continuous
370
    -3
390
F
  0
LAYER
  5
1B0
330
2
100
AcDbSymbolTableRecord
100
AcDbLayerTableRecord
  2
AM_5
 70
     0
 62
     3
  6
Continuous
370
    25
390
F
  0
LAYER
  5
261
102
{ACAD_XDICTIONARY
360
262
102
}
330
2
100
AcDbSymbolTableRecord
100
AcDbLayerTableRecord
  2
DIM
 70
     0
 62
     5
  6
Continuous
370
    -3
390
F
  0
LAYER
  5
263
330
2
100
AcDbSymbolTableRecord
100
AcDbLayerTableRecord
  2
Defpoints
 70
     0
 62
     7
  6
Continuous
290
     0
370
    -3
390
F
  0
LAYER
  5
264
102
{ACAD_XDICTIONARY
360
265
102
}
330
2
100
AcDbSymbolTableRecord
100
AcDbLayerTableRecord
  2
TEXT
 70
     0
 62
     3
  6
Continuous
370
    -3
390
F
  0
LAYER
  5
266
330
2
100
AcDbSymbolTableRecord
100
AcDbLayerTableRecord
  2
圖層1
 70
     0
 62
     1
  6
CENTER2
370
    -3
390
F
  0
LAYER
  5
267
102
{ACAD_XDICTIONARY
360
268
102
}
330
2
100
AcDbSymbolTableRecord
100
AcDbLayerTableRecord
  2
CENTER05
 70
     0
 62
     1
  6
CNSC05
370
    -3
390
F
  0
LAYER
  5
269
330
2
100
AcDbSymbolTableRecord
100
AcDbLayerTableRecord
  2
LOGO
 70
     0
 62
     7
  6
Continuous
370
    -3
390
F
  0
ENDTAB
  0
TABLE
  2
STYLE
  5
3
330
0
100
AcDbSymbolTable
 70
     9
  0
STYLE
  5
11
330
3
100
AcDbSymbolTableRecord
100
AcDbTextStyleTableRecord
  2
STANDARD
 70
     0
 40
0.0
 41
1.0
 50
0.0
 71
     0
 42
1.0
  3
ISOCP.SHX
  4
CHINESET.SHX
  0
STYLE
  5
6B
330
3
100
AcDbSymbolTableRecord
100
AcDbTextStyleTableRecord
  2

 70
     1
 40
0.0
 41
1.0
 50
0.0
 71
     0
 42
2.5
  3
ltypeshp.shx
  4

  0
STYLE
  5
6D
330
3
100
AcDbSymbolTableRecord
100
AcDbTextStyleTableRecord
  2
ACISOTS
 70
     0
 40
1.0
 41
1.0
 50
0.0
 71
     0
 42
1.0
  3
isocp.shx
  4
chineset.shx
  0
STYLE
  5
79
330
3
100
AcDbSymbolTableRecord
100
AcDbTextStyleTableRecord
  2
ACISOGDT
 70
     0
 40
0.0
 41
1.0
 50
0.0
 71
     0
 42
2.5
  3
amgdt.shx
  4
chineset.shx
  0
STYLE
  5
1FA
330
3
100
AcDbSymbolTableRecord
100
AcDbTextStyleTableRecord
  2
USER1
 70
     0
 40
0.0
 41
1.0
 50
0.0
 71
     0
 42
1.0
  3
TXT.SHX
  4

  0
STYLE
  5
1FB
330
3
100
AcDbSymbolTableRecord
100
AcDbTextStyleTableRecord
  2
USER2
 70
     0
 40
0.0
 41
1.0
 50
0.0
 71
     0
 42
1.0
  3
SIMPLEX.SHX
  4

  0
STYLE
  5
1FC
330
3
100
AcDbSymbolTableRecord
100
AcDbTextStyleTableRecord
  2
USER3
 70
     0
 40
0.0
 41
1.0
 50
0.0
 71
     0
 42
1.0
  3
ITALIC.SHX
  4

  0
STYLE
  5
26A
330
3
100
AcDbSymbolTableRecord
100
AcDbTextStyleTableRecord
  2
TNR
 70
     0
 40
5.0
 41
1.0
 50
0.0
 71
     0
 42
2.5
  3
TIMES.TTF
  4

1001
ACAD
1000
Times New Roman
1071
       18
  0
STYLE
  5
26B
330
3
100
AcDbSymbolTableRecord
100
AcDbTextStyleTableRecord
  2
CHINESET
 70
     0
 40
0.0
 41
1.0
 50
0.0
 71
     0
 42
1.0
  3
simplex
  4
CHINESET.SHX
  0
ENDTAB
  0
TABLE
  2
VIEW
  5
6
330
0
100
AcDbSymbolTable
 70
     0
  0
ENDTAB
  0
TABLE
  2
UCS
  5
7
330
0
100
AcDbSymbolTable
 70
     0
  0
ENDTAB
  0
TABLE
  2
APPID
  5
9
330
0
100
AcDbSymbolTable
 70
    19
  0
APPID
  5
12
330
9
100
AcDbSymbolTableRecord
100
AcDbRegAppTableRecord
  2
ACAD
 70
     0
  0
APPID
  5
46
330
9
100
AcDbSymbolTableRecord
100
AcDbRegAppTableRecord
  2
MCAD_NO_VIS
 70
     0
  0
APPID
  5
47
330
9
100
AcDbSymbolTableRecord
100
AcDbRegAppTableRecord
  2
ACAD_TEMP_GRAPHIC
 70
     0
  0
APPID
  5
58
330
9
100
AcDbSymbolTableRecord
100
AcDbRegAppTableRecord
  2
ACATTRIBSERVICES
 70
     0
  0
APPID
  5
EE
330
9
100
AcDbSymbolTableRecord
100
AcDbRegAppTableRecord
  2
AD_DRAW
 70
     0
  0
APPID
  5
10C
330
9
100
AcDbSymbolTableRecord
100
AcDbRegAppTableRecord
  2
DESIGNERASSEMBLIES
 70
     0
  0
APPID
  5
111
330
9
100
AcDbSymbolTableRecord
100
AcDbRegAppTableRecord
  2
ACADM_DIM_EDIT
 70
     0
  0
APPID
  5
112
330
9
100
AcDbSymbolTableRecord
100
AcDbRegAppTableRecord
  2
AMDT_DM_ADJ
 70
     0
  0
APPID
  5
26C
330
9
100
AcDbSymbolTableRecord
100
AcDbRegAppTableRecord
  2
ACAD_PSEXT
 70
     0
  0
APPID
  5
26D
330
9
100
AcDbSymbolTableRecord
100
AcDbRegAppTableRecord
  2
ACAD_DSTYLE_DIMJAG
 70
     0
  0
APPID
  5
26E
330
9
100
AcDbSymbolTableRecord
100
AcDbRegAppTableRecord
  2
ACAD_DSTYLE_DIMTALN
 70
     0
  0
APPID
  5
26F
330
9
100
AcDbSymbolTableRecord
100
AcDbRegAppTableRecord
  2
ACAD_DSTYLE_DIMJOGGED_JOGANGLE_SYMBOL
 70
     0
  0
APPID
  5
270
330
9
100
AcDbSymbolTableRecord
100
AcDbRegAppTableRecord
  2
GENIUS_GENOBJ-N-CRS_13
 70
     0
  0
APPID
  5
271
330
9
100
AcDbSymbolTableRecord
100
AcDbRegAppTableRecord
  2
GENIUS_GENOLIS_13
 70
     0
  0
APPID
  5
272
330
9
100
AcDbSymbolTableRecord
100
AcDbRegAppTableRecord
  2
GENIUS_GENOENT_13
 70
     0
  0
APPID
  5
273
330
9
100
AcDbSymbolTableRecord
100
AcDbRegAppTableRecord
  2
GENIUS_GENODEF_13
 70
     0
  0
APPID
  5
274
330
9
100
AcDbSymbolTableRecord
100
AcDbRegAppTableRecord
  2
GENIUS_GENOREF_13
 70
     0
  0
APPID
  5
275
330
9
100
AcDbSymbolTableRecord
100
AcDbRegAppTableRecord
  2
GENIUS_GENREC_14
 70
     0
  0
APPID
  5
276
330
9
100
AcDbSymbolTableRecord
100
AcDbRegAppTableRecord
  2
GENIUS_GENOBJ-N-REC_13
 70
     0
  0
ENDTAB
  0
TABLE
  2
DIMSTYLE
  5
A
330
0
100
AcDbSymbolTable
 70
     8
100
AcDbDimStyleTable
 71
     1
340
81
  0
DIMSTYLE
105
27
102
{ACAD_REACTORS
330
475
330
4BA
330
4BD
330
4BE
330
503
330
435
330
438
330
44F
102
}
330
A
100
AcDbSymbolTableRecord
100
AcDbDimStyleTableRecord
  2
ISO-25
 70
     0
 41
2.5
 42
0.625
 43
3.75
 44
1.25
 73
     0
 74
     0
 77
     1
 78
     8
140
2.5
141
2.5
143
0.03937007874016
147
0.625
171
     3
172
     1
271
     2
272
     2
274
     3
278
    44
283
     0
284
     8
340
11
  0
DIMSTYLE
105
81
330
A
100
AcDbSymbolTableRecord
100
AcDbDimStyleTableRecord
  2
AM_ISO
 70
     0
  4
"
 41
2.5
 42
1.0
 43
10.0
 44
1.0
 47
0.1
 48
0.1
 73
     0
 74
     0
 77
     1
 78
     8
 79
     2
140
3.5
141
0.0
143
0.0393701
146
0.71
147
1.5
172
     1
176
   256
177
   256
178
     2
271
     2
272
     3
274
     4
283
     0
284
     8
340
11
371
    -1
372
    -1
  0
DIMSTYLE
105
82
330
A
100
AcDbSymbolTableRecord
100
AcDbDimStyleTableRecord
  2
AM_ISO$3
 70
     0
  4
"
 41
2.5
 42
1.0
 43
10.0
 44
1.0
 47
0.1
 48
0.1
 73
     0
 77
     1
 78
     8
 79
     2
140
3.5
141
0.0
143
0.0393701
146
0.71
147
1.5
176
   256
177
   256
178
     2
271
     2
272
     3
274
     4
283
     0
284
     8
288
     1
289
     0
340
11
371
    -1
372
    -1
  0
DIMSTYLE
105
83
330
A
100
AcDbSymbolTableRecord
100
AcDbDimStyleTableRecord
  2
AM_ISO$4
 70
     0
  4
"
 41
2.5
 42
1.0
 43
10.0
 44
1.0
 47
0.1
 48
0.1
 73
     0
 77
     1
 78
     8
 79
     2
140
3.5
141
0.0
143
0.0393701
146
0.71
147
1.5
176
   256
177
   256
178
     2
271
     2
272
     3
274
     4
283
     0
284
     8
288
     1
289
     0
340
11
371
    -1
372
    -1
  0
DIMSTYLE
105
84
330
A
100
AcDbSymbolTableRecord
100
AcDbDimStyleTableRecord
  2
AM_ISO$6
 70
     0
  4
"
 41
2.5
 42
1.0
 43
10.0
 44
1.0
 47
0.1
 48
0.1
 73
     0
 74
     0
 78
     8
 79
     2
140
3.5
141
0.0
143
0.0393701
146
0.71
147
1.5
172
     1
176
   256
177
   256
178
     2
271
     2
272
     3
274
     4
283
     0
284
     8
340
11
371
    -1
372
    -1
  0
DIMSTYLE
105
85
330
A
100
AcDbSymbolTableRecord
100
AcDbDimStyleTableRecord
  2
AM_ISO$7
 70
     0
  4
"
 41
2.5
 42
1.0
 43
10.0
 44
1.0
 47
0.1
 48
0.1
 73
     0
 74
     0
 77
     1
 78
     8
 79
     2
140
5.0
141
0.0
143
0.0393701
146
0.71
147
1.5
172
     1
176
   256
177
   256
178
     2
271
     2
272
     3
274
     4
283
     0
284
     8
340
11
371
    -1
372
    -1
  0
DIMSTYLE
105
86
330
A
100
AcDbSymbolTableRecord
100
AcDbDimStyleTableRecord
  2
AM_ISO$SF
 70
     0
  4
"
 41
2.5
 42
1.0
 43
10.0
 44
1.0
 47
0.1
 48
0.1
 73
     0
 74
     0
 75
     1
 76
     1
 77
     1
 78
     8
 79
     2
140
3.5
141
0.0
143
0.0393701
146
0.71
147
1.5
172
     1
176
   256
177
   256
178
     2
271
     2
272
     3
274
     4
283
     0
284
     8
340
11
371
    -1
372
    -1
  0
DIMSTYLE
105
8B
330
A
100
AcDbSymbolTableRecord
100
AcDbDimStyleTableRecord
  2
AM_ISO$SH
 70
     0
  4
"
 41
2.5
 42
1.0
 43
10.0
 44
1.0
 47
0.1
 48
0.1
 73
     0
 74
     0
 75
     1
 76
     1
 77
     1
 78
     8
 79
     2
140
3.5
141
0.0
143
0.0393701
144
2.0
146
0.71
147
1.5
172
     1
173
     1
176
   256
177
   256
178
     2
271
     2
272
     3
274
     4
283
     0
284
     8
340
11
343
87
371
    -1
372
    -1
  0
ENDTAB
  0
TABLE
  2
BLOCK_RECORD
  5
1
330
0
100
AcDbSymbolTable
 70
    20
  0
BLOCK_RECORD
  5
1F
102
{ACAD_XDICTIONARY
360
8F
102
}
330
1
100
AcDbSymbolTableRecord
100
AcDbBlockTableRecord
  2
*Model_Space
340
22
  0
BLOCK_RECORD
  5
1B
330
1
100
AcDbSymbolTableRecord
100
AcDbBlockTableRecord
  2
*Paper_Space
340
1E
  0
BLOCK_RECORD
  5
23
330
1
100
AcDbSymbolTableRecord
100
AcDbBlockTableRecord
  2
*Paper_Space0
340
26
  0
BLOCK_RECORD
  5
87
330
1
100
AcDbSymbolTableRecord
100
AcDbBlockTableRecord
  2
GENAXEH
340
0
  0
BLOCK_RECORD
  5
1FF
330
1
100
AcDbSymbolTableRecord
100
AcDbBlockTableRecord
  2
*D3
340
0
  0
BLOCK_RECORD
  5
20B
330
1
100
AcDbSymbolTableRecord
100
AcDbBlockTableRecord
  2
*D4
340
0
  0
BLOCK_RECORD
  5
217
330
1
100
AcDbSymbolTableRecord
100
AcDbBlockTableRecord
  2
*D5
340
0
  0
BLOCK_RECORD
  5
223
330
1
100
AcDbSymbolTableRecord
100
AcDbBlockTableRecord
  2
*D6
340
0
  0
BLOCK_RECORD
  5
22F
330
1
100
AcDbSymbolTableRecord
100
AcDbBlockTableRecord
  2
*D7
340
0
  0
BLOCK_RECORD
  5
23B
330
1
100
AcDbSymbolTableRecord
100
AcDbBlockTableRecord
  2
*D8
340
0
  0
BLOCK_RECORD
  5
247
330
1
100
AcDbSymbolTableRecord
100
AcDbBlockTableRecord
  2
*D9
340
0
  0
BLOCK_RECORD
  5
253
330
1
100
AcDbSymbolTableRecord
100
AcDbBlockTableRecord
  2
*D10
340
0
  0
BLOCK_RECORD
  5
509
330
1
100
AcDbSymbolTableRecord
100
AcDbBlockTableRecord
  2
*D12
340
0
  0
BLOCK_RECORD
  5
515
330
1
100
AcDbSymbolTableRecord
100
AcDbBlockTableRecord
  2
*D13
340
0
  0
BLOCK_RECORD
  5
521
330
1
100
AcDbSymbolTableRecord
100
AcDbBlockTableRecord
  2
*D14
340
0
  0
BLOCK_RECORD
  5
52D
330
1
100
AcDbSymbolTableRecord
100
AcDbBlockTableRecord
  2
*D15
340
0
  0
BLOCK_RECORD
  5
539
330
1
100
AcDbSymbolTableRecord
100
AcDbBlockTableRecord
  2
*D16
340
0
  0
BLOCK_RECORD
  5
545
330
1
100
AcDbSymbolTableRecord
100
AcDbBlockTableRecord
  2
*D17
340
0
  0
BLOCK_RECORD
  5
551
330
1
100
AcDbSymbolTableRecord
100
AcDbBlockTableRecord
  2
*D18
340
0
  0
BLOCK_RECORD
  5
581
330
1
100
AcDbSymbolTableRecord
100
AcDbBlockTableRecord
  2
*D19
340
0
  0
ENDTAB
  0
ENDSEC
  0
SECTION
  2
BLOCKS
  0
BLOCK
  5
20
330
1F
100
AcDbEntity
  8
0
100
AcDbBlockBegin
  2
*Model_Space
 70
     0
 10
0.0
 20
0.0
 30
0.0
  3
*Model_Space
  1

  0
ENDBLK
  5
21
330
1F
100
AcDbEntity
  8
0
100
AcDbBlockEnd
  0
BLOCK
  5
1C
330
1B
100
AcDbEntity
 67
     1
  8
0
100
AcDbBlockBegin
  2
*Paper_Space
 70
     0
 10
0.0
 20
0.0
 30
0.0
  3
*Paper_Space
  1

  0
ENDBLK
  5
1D
330
1B
100
AcDbEntity
 67
     1
  8
0
100
AcDbBlockEnd
  0
BLOCK
  5
24
330
23
100
AcDbEntity
  8
0
100
AcDbBlockBegin
  2
*Paper_Space0
 70
     0
 10
0.0
 20
0.0
 30
0.0
  3
*Paper_Space0
  1

  0
ENDBLK
  5
25
330
23
100
AcDbEntity
  8
0
100
AcDbBlockEnd
  0
BLOCK
  5
89
330
87
100
AcDbEntity
  8
0
100
AcDbBlockBegin
  2
GENAXEH
 70
     0
 10
0.0
 20
0.0
 30
0.0
  3
GENAXEH
  1

  0
LINE
  5
88
330
87
100
AcDbEntity
  8
0
100
AcDbLine
 10
-1.0
 20
0.0
 30
0.0
 11
1.0
 21
0.0
 31
0.0
  0
ENDBLK
  5
8A
330
87
100
AcDbEntity
  8
0
100
AcDbBlockEnd
  0
BLOCK
  5
200
330
1FF
100
AcDbEntity
  8
0
100
AcDbBlockBegin
  2
*D3
 70
     1
 10
0.0
 20
0.0
 30
0.0
  3
*D3
  1

  0
LINE
  5
201
330
1FF
100
AcDbEntity
  8
DIM
 62
     0
370
    -2
100
AcDbLine
 10
1279.293278116099
 20
-297.8104248026539
 30
0.0
 11
1255.725571635575
 21
-297.8104248026539
 31
0.0
  0
LINE
  5
202
330
1FF
100
AcDbEntity
  8
DIM
 62
     0
370
    -2
100
AcDbLine
 10
1279.293278116099
 20
-329.8104248026537
 30
0.0
 11
1255.725571635575
 21
-329.8104248026537
 31
0.0
  0
LINE
  5
203
330
1FF
100
AcDbEntity
  8
DIM
 62
     0
370
    -2
100
AcDbLine
 10
1256.975571635575
 20
-300.3104248026539
 30
0.0
 11
1256.975571635575
 21
-327.3104248026537
 31
0.0
  0
SOLID
  5
204
330
1FF
100
AcDbEntity
  8
DIM
 62
     0
100
AcDbTrace
 10
1256.558904968908
 20
-300.3104248026539
 30
0.0
 11
1257.392238302242
 21
-300.3104248026539
 31
0.0
 12
1256.975571635575
 22
-297.8104248026539
 32
0.0
 13
1256.975571635575
 23
-297.8104248026539
 33
0.0
  0
SOLID
  5
205
330
1FF
100
AcDbEntity
  8
DIM
 62
     0
100
AcDbTrace
 10
1256.558904968908
 20
-327.3104248026537
 30
0.0
 11
1257.392238302242
 21
-327.3104248026537
 31
0.0
 12
1256.975571635575
 22
-329.8104248026537
 32
0.0
 13
1256.975571635575
 23
-329.8104248026537
 33
0.0
  0
MTEXT
  5
206
330
1FF
100
AcDbEntity
  8
DIM
 62
     0
100
AcDbMText
 10
1255.100571635575
 20
-313.8104248026536
 30
0.0
 40
2.5
 41
0.0
 71
     5
 72
     1
  1
32HEX.
 11
0.0000000000000001
 21
1.0
 31
0.0
 73
     1
 44
1.0
1001
ACAD
1000
MTEXTBEGIN
1070
    73
1070
     1
1070
    44
1040
1.0
1070
    74
1070
     0
1000
MTEXTEND
  0
POINT
  5
207
330
1FF
100
AcDbEntity
  8
Defpoints
 62
     0
100
AcDbPoint
 10
1279.918278116099
 20
-297.8104248026539
 30
0.0
  0
POINT
  5
208
330
1FF
100
AcDbEntity
  8
Defpoints
 62
     0
100
AcDbPoint
 10
1279.918278116099
 20
-329.8104248026537
 30
0.0
  0
POINT
  5
209
330
1FF
100
AcDbEntity
  8
Defpoints
 62
     0
100
AcDbPoint
 10
1256.975571635575
 20
-329.8104248026537
 30
0.0
  0
ENDBLK
  5
20A
330
1FF
100
AcDbEntity
  8
0
100
AcDbBlockEnd
  0
BLOCK
  5
20C
330
20B
100
AcDbEntity
  8
0
100
AcDbBlockBegin
  2
*D4
 70
     1
 10
0.0
 20
0.0
 30
0.0
  3
*D4
  1

  0
LINE
  5
20D
330
20B
100
AcDbEntity
  8
DIM
 62
     0
370
    -2
100
AcDbLine
 10
1178.522848098658
 20
-208.6441237592378
 30
0.0
 11
1150.253978487511
 21
-208.6441237592378
 31
0.0
  0
LINE
  5
20E
330
20B
100
AcDbEntity
  8
DIM
 62
     0
370
    -2
100
AcDbLine
 10
1178.522848098658
 20
-266.6441237592378
 30
0.0
 11
1150.253978487511
 21
-266.6441237592378
 31
0.0
  0
LINE
  5
20F
330
20B
100
AcDbEntity
  8
DIM
 62
     0
370
    -2
100
AcDbLine
 10
1151.503978487511
 20
-211.1441237592378
 30
0.0
 11
1151.503978487511
 21
-264.1441237592378
 31
0.0
  0
SOLID
  5
210
330
20B
100
AcDbEntity
  8
DIM
 62
     0
100
AcDbTrace
 10
1151.087311820845
 20
-211.1441237592378
 30
0.0
 11
1151.920645154178
 21
-211.1441237592378
 31
0.0
 12
1151.503978487511
 22
-208.6441237592378
 32
0.0
 13
1151.503978487511
 23
-208.6441237592378
 33
0.0
  0
SOLID
  5
211
330
20B
100
AcDbEntity
  8
DIM
 62
     0
100
AcDbTrace
 10
1151.087311820845
 20
-264.1441237592378
 30
0.0
 11
1151.920645154178
 21
-264.1441237592378
 31
0.0
 12
1151.503978487511
 22
-266.6441237592378
 32
0.0
 13
1151.503978487511
 23
-266.6441237592378
 33
0.0
  0
MTEXT
  5
212
330
20B
100
AcDbEntity
  8
DIM
 62
     0
100
AcDbMText
 10
1149.628978487511
 20
-237.6441237592376
 30
0.0
 40
2.5
 41
0.0
 71
     5
 72
     1
  1
58
 11
0.0000000000000001
 21
1.0
 31
0.0
 73
     1
 44
1.0
1001
ACAD
1000
MTEXTBEGIN
1070
    73
1070
     1
1070
    44
1040
1.0
1070
    74
1070
     0
1000
MTEXTEND
  0
POINT
  5
213
330
20B
100
AcDbEntity
  8
Defpoints
 62
     0
100
AcDbPoint
 10
1179.147848098658
 20
-208.6441237592378
 30
0.0
  0
POINT
  5
214
330
20B
100
AcDbEntity
  8
Defpoints
 62
     0
100
AcDbPoint
 10
1179.147848098658
 20
-266.6441237592378
 30
0.0
  0
POINT
  5
215
330
20B
100
AcDbEntity
  8
Defpoints
 62
     0
100
AcDbPoint
 10
1151.503978487511
 20
-266.6441237592378
 30
0.0
  0
ENDBLK
  5
216
330
20B
100
AcDbEntity
  8
0
100
AcDbBlockEnd
  0
BLOCK
  5
218
330
217
100
AcDbEntity
  8
0
100
AcDbBlockBegin
  2
*D5
 70
     1
 10
0.0
 20
0.0
 30
0.0
  3
*D5
  1

  0
LINE
  5
219
330
217
100
AcDbEntity
  8
DIM
 62
     0
370
    -2
100
AcDbLine
 10
1172.147848098658
 20
-215.0191237592378
 30
0.0
 11
1172.147848098658
 21
-198.7003778466952
 31
0.0
  0
LINE
  5
21A
330
217
100
AcDbEntity
  8
DIM
 62
     0
370
    -2
100
AcDbLine
 10
1230.147848098658
 20
-215.0191237592378
 30
0.0
 11
1230.147848098658
 21
-198.7003778466952
 31
0.0
  0
LINE
  5
21B
330
217
100
AcDbEntity
  8
DIM
 62
     0
370
    -2
100
AcDbLine
 10
1174.647848098658
 20
-199.9503778466952
 30
0.0
 11
1227.647848098658
 21
-199.9503778466952
 31
0.0
  0
SOLID
  5
21C
330
217
100
AcDbEntity
  8
DIM
 62
     0
100
AcDbTrace
 10
1174.647848098658
 20
-199.5337111800285
 30
0.0
 11
1174.647848098658
 21
-200.3670445133619
 31
0.0
 12
1172.147848098658
 22
-199.9503778466952
 32
0.0
 13
1172.147848098658
 23
-199.9503778466952
 33
0.0
  0
SOLID
  5
21D
330
217
100
AcDbEntity
  8
DIM
 62
     0
100
AcDbTrace
 10
1227.647848098658
 20
-199.5337111800285
 30
0.0
 11
1227.647848098658
 21
-200.3670445133619
 31
0.0
 12
1230.147848098658
 22
-199.9503778466952
 32
0.0
 13
1230.147848098658
 23
-199.9503778466952
 33
0.0
  0
MTEXT
  5
21E
330
217
100
AcDbEntity
  8
DIM
 62
     0
100
AcDbMText
 10
1201.147848098658
 20
-198.0753778466952
 30
0.0
 40
2.5
 41
0.0
 71
     5
 72
     1
  1
58
 73
     1
 44
1.0
1001
ACAD
1000
MTEXTBEGIN
1070
    73
1070
     1
1070
    44
1040
1.0
1070
    74
1070
     0
1000
MTEXTEND
  0
POINT
  5
21F
330
217
100
AcDbEntity
  8
Defpoints
 62
     0
100
AcDbPoint
 10
1172.147848098658
 20
-215.6441237592378
 30
0.0
  0
POINT
  5
220
330
217
100
AcDbEntity
  8
Defpoints
 62
     0
100
AcDbPoint
 10
1230.147848098658
 20
-215.6441237592378
 30
0.0
  0
POINT
  5
221
330
217
100
AcDbEntity
  8
Defpoints
 62
     0
100
AcDbPoint
 10
1230.147848098658
 20
-199.9503778466952
 30
0.0
  0
ENDBLK
  5
222
330
217
100
AcDbEntity
  8
0
100
AcDbBlockEnd
  0
BLOCK
  5
224
330
223
100
AcDbEntity
  8
0
100
AcDbBlockBegin
  2
*D6
 70
     1
 10
0.0
 20
0.0
 30
0.0
  3
*D6
  1

  0
LINE
  5
225
330
223
100
AcDbEntity
  8
DIM
 62
     0
370
    -2
100
AcDbLine
 10
1266.155882423133
 20
-299.1854248026539
 30
0.0
 11
1266.155882423133
 21
-287.9678467738627
 31
0.0
  0
LINE
  5
226
330
223
100
AcDbEntity
  8
DIM
 62
     0
370
    -2
100
AcDbLine
 10
1312.155882423133
 20
-299.1854248026539
 30
0.0
 11
1312.155882423133
 21
-287.9678467738627
 31
0.0
  0
LINE
  5
227
330
223
100
AcDbEntity
  8
DIM
 62
     0
370
    -2
100
AcDbLine
 10
1268.655882423133
 20
-289.2178467738627
 30
0.0
 11
1309.655882423133
 21
-289.2178467738627
 31
0.0
  0
SOLID
  5
228
330
223
100
AcDbEntity
  8
DIM
 62
     0
100
AcDbTrace
 10
1268.655882423133
 20
-288.801180107196
 30
0.0
 11
1268.655882423133
 21
-289.6345134405294
 31
0.0
 12
1266.155882423133
 22
-289.2178467738627
 32
0.0
 13
1266.155882423133
 23
-289.2178467738627
 33
0.0
  0
SOLID
  5
229
330
223
100
AcDbEntity
  8
DIM
 62
     0
100
AcDbTrace
 10
1309.655882423133
 20
-288.801180107196
 30
0.0
 11
1309.655882423133
 21
-289.6345134405294
 31
0.0
 12
1312.155882423133
 22
-289.2178467738627
 32
0.0
 13
1312.155882423133
 23
-289.2178467738627
 33
0.0
  0
MTEXT
  5
22A
330
223
100
AcDbEntity
  8
DIM
 62
     0
100
AcDbMText
 10
1289.155882423133
 20
-287.3428467738627
 30
0.0
 40
2.5
 41
0.0
 71
     5
 72
     1
  1
%%c46
 73
     1
 44
1.0
1001
ACAD
1000
MTEXTBEGIN
1070
    73
1070
     1
1070
    44
1040
1.0
1070
    74
1070
     0
1000
MTEXTEND
  0
POINT
  5
22B
330
223
100
AcDbEntity
  8
Defpoints
 62
     0
100
AcDbPoint
 10
1266.155882423133
 20
-299.8104248026539
 30
0.0
  0
POINT
  5
22C
330
223
100
AcDbEntity
  8
Defpoints
 62
     0
100
AcDbPoint
 10
1312.155882423133
 20
-299.8104248026539
 30
0.0
  0
POINT
  5
22D
330
223
100
AcDbEntity
  8
Defpoints
 62
     0
100
AcDbPoint
 10
1312.155882423133
 20
-289.2178467738627
 30
0.0
  0
ENDBLK
  5
22E
330
223
100
AcDbEntity
  8
0
100
AcDbBlockEnd
  0
BLOCK
  5
230
330
22F
100
AcDbEntity
  8
0
100
AcDbBlockBegin
  2
*D7
 70
     1
 10
0.0
 20
0.0
 30
0.0
  3
*D7
  1

  0
LINE
  5
231
330
22F
100
AcDbEntity
  8
DIM
 62
     0
370
    -2
100
AcDbLine
 10
1178.897848098658
 20
-212.2691237592378
 30
0.0
 11
1178.897848098658
 21
-204.0044883713231
 31
0.0
  0
LINE
  5
232
330
22F
100
AcDbEntity
  8
DIM
 62
     0
370
    -2
100
AcDbLine
 10
1223.397848098658
 20
-212.2691237592378
 30
0.0
 11
1223.397848098658
 21
-204.0044883713231
 31
0.0
  0
LINE
  5
233
330
22F
100
AcDbEntity
  8
DIM
 62
     0
370
    -2
100
AcDbLine
 10
1181.397848098658
 20
-205.2544883713231
 30
0.0
 11
1220.897848098658
 21
-205.2544883713231
 31
0.0
  0
SOLID
  5
234
330
22F
100
AcDbEntity
  8
DIM
 62
     0
100
AcDbTrace
 10
1181.397848098658
 20
-204.8378217046564
 30
0.0
 11
1181.397848098658
 21
-205.6711550379897
 31
0.0
 12
1178.897848098658
 22
-205.2544883713231
 32
0.0
 13
1178.897848098658
 23
-205.2544883713231
 33
0.0
  0
SOLID
  5
235
330
22F
100
AcDbEntity
  8
DIM
 62
     0
100
AcDbTrace
 10
1220.897848098658
 20
-204.8378217046564
 30
0.0
 11
1220.897848098658
 21
-205.6711550379897
 31
0.0
 12
1223.397848098658
 22
-205.2544883713231
 32
0.0
 13
1223.397848098658
 23
-205.2544883713231
 33
0.0
  0
MTEXT
  5
236
330
22F
100
AcDbEntity
  8
DIM
 62
     0
100
AcDbMText
 10
1201.147848098658
 20
-203.3794883713231
 30
0.0
 40
2.5
 41
0.0
 71
     5
 72
     1
  1
44.5
 73
     1
 44
1.0
1001
ACAD
1000
MTEXTBEGIN
1070
    73
1070
     1
1070
    44
1040
1.0
1070
    74
1070
     0
1000
MTEXTEND
  0
POINT
  5
237
330
22F
100
AcDbEntity
  8
Defpoints
 62
     0
100
AcDbPoint
 10
1178.897848098658
 20
-212.8941237592378
 30
0.0
  0
POINT
  5
238
330
22F
100
AcDbEntity
  8
Defpoints
 62
     0
100
AcDbPoint
 10
1223.397848098658
 20
-212.8941237592378
 30
0.0
  0
POINT
  5
239
330
22F
100
AcDbEntity
  8
Defpoints
 62
     0
100
AcDbPoint
 10
1223.397848098658
 20
-205.2544883713231
 30
0.0
  0
ENDBLK
  5
23A
330
22F
100
AcDbEntity
  8
0
100
AcDbBlockEnd
  0
BLOCK
  5
23C
330
23B
100
AcDbEntity
  8
0
100
AcDbBlockBegin
  2
*D8
 70
     1
 10
0.0
 20
0.0
 30
0.0
  3
*D8
  1

  0
LINE
  5
23D
330
23B
100
AcDbEntity
  8
DIM
 62
     0
370
    -2
100
AcDbLine
 10
1182.522848098658
 20
-230.1441237592378
 30
0.0
 11
1158.773115555299
 21
-230.1441237592378
 31
0.0
  0
LINE
  5
23E
330
23B
100
AcDbEntity
  8
DIM
 62
     0
370
    -2
100
AcDbLine
 10
1182.522848098658
 20
-245.1441237592378
 30
0.0
 11
1158.773115555299
 21
-245.1441237592378
 31
0.0
  0
LINE
  5
23F
330
23B
100
AcDbEntity
  8
DIM
 62
     0
370
    -2
100
AcDbLine
 10
1160.023115555299
 20
-232.6441237592378
 30
0.0
 11
1160.023115555299
 21
-242.6441237592378
 31
0.0
  0
SOLID
  5
240
330
23B
100
AcDbEntity
  8
DIM
 62
     0
100
AcDbTrace
 10
1159.606448888633
 20
-232.6441237592378
 30
0.0
 11
1160.439782221966
 21
-232.6441237592378
 31
0.0
 12
1160.023115555299
 22
-230.1441237592378
 32
0.0
 13
1160.023115555299
 23
-230.1441237592378
 33
0.0
  0
SOLID
  5
241
330
23B
100
AcDbEntity
  8
DIM
 62
     0
100
AcDbTrace
 10
1159.606448888633
 20
-242.6441237592378
 30
0.0
 11
1160.439782221966
 21
-242.6441237592378
 31
0.0
 12
1160.023115555299
 22
-245.1441237592378
 32
0.0
 13
1160.023115555299
 23
-245.1441237592378
 33
0.0
  0
MTEXT
  5
242
330
23B
100
AcDbEntity
  8
DIM
 62
     0
100
AcDbMText
 10
1158.148115555299
 20
-237.6441237592376
 30
0.0
 40
2.5
 41
0.0
 71
     5
 72
     1
  1
15
 11
0.0000000000000001
 21
1.0
 31
0.0
 73
     1
 44
1.0
1001
ACAD
1000
MTEXTBEGIN
1070
    73
1070
     1
1070
    44
1040
1.0
1070
    74
1070
     0
1000
MTEXTEND
  0
POINT
  5
243
330
23B
100
AcDbEntity
  8
Defpoints
 62
     0
100
AcDbPoint
 10
1183.147848098658
 20
-230.1441237592378
 30
0.0
  0
POINT
  5
244
330
23B
100
AcDbEntity
  8
Defpoints
 62
     0
100
AcDbPoint
 10
1183.147848098658
 20
-245.1441237592378
 30
0.0
  0
POINT
  5
245
330
23B
100
AcDbEntity
  8
Defpoints
 62
     0
100
AcDbPoint
 10
1160.023115555299
 20
-245.1441237592378
 30
0.0
  0
ENDBLK
  5
246
330
23B
100
AcDbEntity
  8
0
100
AcDbBlockEnd
  0
BLOCK
  5
248
330
247
100
AcDbEntity
  8
0
100
AcDbBlockBegin
  2
*D9
 70
     1
 10
0.0
 20
0.0
 30
0.0
  3
*D9
  1

  0
LINE
  5
249
330
247
100
AcDbEntity
  8
DIM
 62
     0
370
    -2
100
AcDbLine
 10
1174.848387947537
 20
-215.3941237592378
 30
0.0
 11
1154.499453307734
 21
-215.3941237592378
 31
0.0
  0
LINE
  5
24A
330
247
100
AcDbEntity
  8
DIM
 62
     0
370
    -2
100
AcDbLine
 10
1174.416182673471
 20
-259.8941237592378
 30
0.0
 11
1154.499453307734
 21
-259.8941237592378
 31
0.0
  0
LINE
  5
24B
330
247
100
AcDbEntity
  8
DIM
 62
     0
370
    -2
100
AcDbLine
 10
1155.749453307734
 20
-217.8941237592378
 30
0.0
 11
1155.749453307734
 21
-257.3941237592378
 31
0.0
  0
SOLID
  5
24C
330
247
100
AcDbEntity
  8
DIM
 62
     0
100
AcDbTrace
 10
1155.332786641067
 20
-217.8941237592378
 30
0.0
 11
1156.1661199744
 21
-217.8941237592378
 31
0.0
 12
1155.749453307734
 22
-215.3941237592378
 32
0.0
 13
1155.749453307734
 23
-215.3941237592378
 33
0.0
  0
SOLID
  5
24D
330
247
100
AcDbEntity
  8
DIM
 62
     0
100
AcDbTrace
 10
1155.332786641067
 20
-257.3941237592378
 30
0.0
 11
1156.1661199744
 21
-257.3941237592378
 31
0.0
 12
1155.749453307734
 22
-259.8941237592378
 32
0.0
 13
1155.749453307734
 23
-259.8941237592378
 33
0.0
  0
MTEXT
  5
24E
330
247
100
AcDbEntity
  8
DIM
 62
     0
100
AcDbMText
 10
1153.874453307734
 20
-237.6441237592376
 30
0.0
 40
2.5
 41
0.0
 71
     5
 72
     1
  1
44.5
 11
0.0000000000000001
 21
1.0
 31
0.0
 73
     1
 44
1.0
1001
ACAD
1000
MTEXTBEGIN
1070
    73
1070
     1
1070
    44
1040
1.0
1070
    74
1070
     0
1000
MTEXTEND
  0
POINT
  5
24F
330
247
100
AcDbEntity
  8
Defpoints
 62
     0
100
AcDbPoint
 10
1175.473387947537
 20
-215.3941237592378
 30
0.0
  0
POINT
  5
250
330
247
100
AcDbEntity
  8
Defpoints
 62
     0
100
AcDbPoint
 10
1175.041182673471
 20
-259.8941237592378
 30
0.0
  0
POINT
  5
251
330
247
100
AcDbEntity
  8
Defpoints
 62
     0
100
AcDbPoint
 10
1155.749453307734
 20
-259.8941237592378
 30
0.0
  0
ENDBLK
  5
252
330
247
100
AcDbEntity
  8
0
100
AcDbBlockEnd
  0
BLOCK
  5
254
330
253
100
AcDbEntity
  8
0
100
AcDbBlockBegin
  2
*D10
 70
     1
 10
0.0
 20
0.0
 30
0.0
  3
*D10
  1

  0
LINE
  5
255
330
253
100
AcDbEntity
  8
DIM
 62
     0
370
    -2
100
AcDbLine
 10
1163.147848098659
 20
-328.4975023185964
 30
0.0
 11
1163.147848098659
 21
-341.8375209555985
 31
0.0
  0
LINE
  5
256
330
253
100
AcDbEntity
  8
DIM
 62
     0
370
    -2
100
AcDbLine
 10
1239.147848098658
 20
-328.4975023185973
 30
0.0
 11
1239.147848098658
 21
-341.8375209555985
 31
0.0
  0
LINE
  5
257
330
253
100
AcDbEntity
  8
DIM
 62
     0
370
    -2
100
AcDbLine
 10
1165.647848098659
 20
-340.5875209555984
 30
0.0
 11
1236.647848098658
 21
-340.5875209555984
 31
0.0
  0
SOLID
  5
258
330
253
100
AcDbEntity
  8
DIM
 62
     0
100
AcDbTrace
 10
1165.647848098659
 20
-340.1708542889318
 30
0.0
 11
1165.647848098659
 21
-341.0041876222651
 31
0.0
 12
1163.147848098659
 22
-340.5875209555984
 32
0.0
 13
1163.147848098659
 23
-340.5875209555984
 33
0.0
  0
SOLID
  5
259
330
253
100
AcDbEntity
  8
DIM
 62
     0
100
AcDbTrace
 10
1236.647848098658
 20
-340.1708542889318
 30
0.0
 11
1236.647848098658
 21
-341.0041876222651
 31
0.0
 12
1239.147848098658
 22
-340.5875209555984
 32
0.0
 13
1239.147848098658
 23
-340.5875209555984
 33
0.0
  0
MTEXT
  5
25A
330
253
100
AcDbEntity
  8
DIM
 62
     0
100
AcDbMText
 10
1201.147848098659
 20
-338.7125209555985
 30
0.0
 40
2.5
 41
0.0
 71
     5
 72
     1
  1
76
 73
     1
 44
1.0
1001
ACAD
1000
MTEXTBEGIN
1070
    73
1070
     1
1070
    44
1040
1.0
1070
    74
1070
     0
1000
MTEXTEND
  0
POINT
  5
25B
330
253
100
AcDbEntity
  8
Defpoints
 62
     0
100
AcDbPoint
 10
1163.147848098659
 20
-327.8725023185964
 30
0.0
  0
POINT
  5
25C
330
253
100
AcDbEntity
  8
Defpoints
 62
     0
100
AcDbPoint
 10
1239.147848098658
 20
-327.8725023185973
 30
0.0
  0
POINT
  5
25D
330
253
100
AcDbEntity
  8
Defpoints
 62
     0
100
AcDbPoint
 10
1239.147848098658
 20
-340.5875209555984
 30
0.0
  0
ENDBLK
  5
25E
330
253
100
AcDbEntity
  8
0
100
AcDbBlockEnd
  0
BLOCK
  5
513
330
509
100
AcDbEntity
  8
0
100
AcDbBlockBegin
  2
*D12
 70
     1
 10
0.0
 20
0.0
 30
0.0
  3
*D12
  1

  0
LINE
  5
55D
330
509
100
AcDbEntity
  8
DIM
 62
     0
370
    -2
100
AcDbLine
 10
1117.573647701334
 20
1182.488584984602
 30
0.0
 11
1117.573647701334
 21
1193.706163013393
 31
0.0
  0
LINE
  5
55E
330
509
100
AcDbEntity
  8
DIM
 62
     0
370
    -2
100
AcDbLine
 10
1163.573647701333
 20
1182.488584984602
 30
0.0
 11
1163.573647701333
 21
1193.706163013393
 31
0.0
  0
LINE
  5
55F
330
509
100
AcDbEntity
  8
DIM
 62
     0
370
    -2
100
AcDbLine
 10
1120.073647701333
 20
1192.456163013393
 30
0.0
 11
1161.073647701333
 21
1192.456163013393
 31
0.0
  0
SOLID
  5
560
330
509
100
AcDbEntity
  8
DIM
 62
     0
100
AcDbTrace
 10
1120.073647701333
 20
1192.87282968006
 30
0.0
 11
1120.073647701333
 21
1192.039496346727
 31
0.0
 12
1117.573647701334
 22
1192.456163013393
 32
0.0
 13
1117.573647701334
 23
1192.456163013393
 33
0.0
  0
SOLID
  5
561
330
509
100
AcDbEntity
  8
DIM
 62
     0
100
AcDbTrace
 10
1161.073647701333
 20
1192.87282968006
 30
0.0
 11
1161.073647701333
 21
1192.039496346727
 31
0.0
 12
1163.573647701333
 22
1192.456163013393
 32
0.0
 13
1163.573647701333
 23
1192.456163013393
 33
0.0
  0
MTEXT
  5
562
330
509
100
AcDbEntity
  8
DIM
 62
     0
100
AcDbMText
 10
1140.573647701334
 20
1194.331163013393
 30
0.0
 40
2.5
 41
0.0
 71
     5
 72
     1
  1
%%c46
 73
     1
 44
1.0
1001
ACAD
1000
MTEXTBEGIN
1070
    73
1070
     1
1070
    44
1040
1.0
1070
    74
1070
     0
1000
MTEXTEND
  0
POINT
  5
563
330
509
100
AcDbEntity
  8
Defpoints
 62
     0
100
AcDbPoint
 10
1117.573647701334
 20
1181.863584984602
 30
0.0
  0
POINT
  5
564
330
509
100
AcDbEntity
  8
Defpoints
 62
     0
100
AcDbPoint
 10
1163.573647701333
 20
1181.863584984602
 30
0.0
  0
POINT
  5
565
330
509
100
AcDbEntity
  8
Defpoints
 62
     0
100
AcDbPoint
 10
1163.573647701333
 20
1192.456163013393
 30
0.0
  0
ENDBLK
  5
514
330
509
100
AcDbEntity
  8
0
100
AcDbBlockEnd
  0
BLOCK
  5
51F
330
515
100
AcDbEntity
  8
0
100
AcDbBlockBegin
  2
*D13
 70
     1
 10
0.0
 20
0.0
 30
0.0
  3
*D13
  1

  0
LINE
  5
566
330
515
100
AcDbEntity
  8
DIM
 62
     0
370
    -2
100
AcDbLine
 10
1030.315613376858
 20
1269.404886028018
 30
0.0
 11
1030.315613376858
 21
1277.669521415933
 31
0.0
  0
LINE
  5
567
330
515
100
AcDbEntity
  8
DIM
 62
     0
370
    -2
100
AcDbLine
 10
1074.815613376859
 20
1269.404886028018
 30
0.0
 11
1074.815613376859
 21
1277.669521415933
 31
0.0
  0
LINE
  5
568
330
515
100
AcDbEntity
  8
DIM
 62
     0
370
    -2
100
AcDbLine
 10
1032.815613376858
 20
1276.419521415933
 30
0.0
 11
1072.315613376859
 21
1276.419521415933
 31
0.0
  0
SOLID
  5
569
330
515
100
AcDbEntity
  8
DIM
 62
     0
100
AcDbTrace
 10
1032.815613376858
 20
1276.8361880826
 30
0.0
 11
1032.815613376858
 21
1276.002854749266
 31
0.0
 12
1030.315613376858
 22
1276.419521415933
 32
0.0
 13
1030.315613376858
 23
1276.419521415933
 33
0.0
  0
SOLID
  5
56A
330
515
100
AcDbEntity
  8
DIM
 62
     0
100
AcDbTrace
 10
1072.315613376859
 20
1276.8361880826
 30
0.0
 11
1072.315613376859
 21
1276.002854749266
 31
0.0
 12
1074.815613376859
 22
1276.419521415933
 32
0.0
 13
1074.815613376859
 23
1276.419521415933
 33
0.0
  0
MTEXT
  5
56B
330
515
100
AcDbEntity
  8
DIM
 62
     0
100
AcDbMText
 10
1052.565613376859
 20
1278.482021415933
 30
0.0
 40
2.5
 41
0.0
 71
     5
 72
     1
  1
44,5
 73
     1
 44
1.0
1001
ACAD
1000
MTEXTBEGIN
1070
    73
1070
     1
1070
    44
1040
1.0
1070
    74
1070
     0
1000
MTEXTEND
  0
POINT
  5
56C
330
515
100
AcDbEntity
  8
Defpoints
 62
     0
100
AcDbPoint
 10
1030.315613376858
 20
1268.779886028018
 30
0.0
  0
POINT
  5
56D
330
515
100
AcDbEntity
  8
Defpoints
 62
     0
100
AcDbPoint
 10
1074.815613376859
 20
1268.779886028018
 30
0.0
  0
POINT
  5
56E
330
515
100
AcDbEntity
  8
Defpoints
 62
     0
100
AcDbPoint
 10
1074.815613376859
 20
1276.419521415933
 30
0.0
  0
ENDBLK
  5
520
330
515
100
AcDbEntity
  8
0
100
AcDbBlockEnd
  0
BLOCK
  5
52B
330
521
100
AcDbEntity
  8
0
100
AcDbBlockBegin
  2
*D14
 70
     1
 10
0.0
 20
0.0
 30
0.0
  3
*D14
  1

  0
LINE
  5
56F
330
521
100
AcDbEntity
  8
DIM
 62
     0
370
    -2
100
AcDbLine
 10
1033.940613376859
 20
1251.529886028018
 30
0.0
 11
1010.1908808335
 21
1251.529886028018
 31
0.0
  0
LINE
  5
570
330
521
100
AcDbEntity
  8
DIM
 62
     0
370
    -2
100
AcDbLine
 10
1033.940613376859
 20
1236.529886028018
 30
0.0
 11
1010.1908808335
 21
1236.529886028018
 31
0.0
  0
LINE
  5
571
330
521
100
AcDbEntity
  8
DIM
 62
     0
370
    -2
100
AcDbLine
 10
1011.4408808335
 20
1249.029886028018
 30
0.0
 11
1011.4408808335
 21
1239.029886028018
 31
0.0
  0
SOLID
  5
572
330
521
100
AcDbEntity
  8
DIM
 62
     0
100
AcDbTrace
 10
1011.024214166833
 20
1249.029886028018
 30
0.0
 11
1011.857547500166
 21
1249.029886028018
 31
0.0
 12
1011.4408808335
 22
1251.529886028018
 32
0.0
 13
1011.4408808335
 23
1251.529886028018
 33
0.0
  0
SOLID
  5
573
330
521
100
AcDbEntity
  8
DIM
 62
     0
100
AcDbTrace
 10
1011.024214166833
 20
1239.029886028018
 30
0.0
 11
1011.857547500166
 21
1239.029886028018
 31
0.0
 12
1011.4408808335
 22
1236.529886028018
 32
0.0
 13
1011.4408808335
 23
1236.529886028018
 33
0.0
  0
MTEXT
  5
574
330
521
100
AcDbEntity
  8
DIM
 62
     0
100
AcDbMText
 10
1009.5658808335
 20
1244.029886028019
 30
0.0
 40
2.5
 41
0.0
 71
     5
 72
     1
  1
15
 11
0.0000000000000001
 21
1.0
 31
0.0
 73
     1
 44
1.0
1001
ACAD
1000
MTEXTBEGIN
1070
    73
1070
     1
1070
    44
1040
1.0
1070
    74
1070
     0
1000
MTEXTEND
  0
POINT
  5
575
330
521
100
AcDbEntity
  8
Defpoints
 62
     0
100
AcDbPoint
 10
1034.565613376859
 20
1251.529886028018
 30
0.0
  0
POINT
  5
576
330
521
100
AcDbEntity
  8
Defpoints
 62
     0
100
AcDbPoint
 10
1034.565613376859
 20
1236.529886028018
 30
0.0
  0
POINT
  5
577
330
521
100
AcDbEntity
  8
Defpoints
 62
     0
100
AcDbPoint
 10
1011.4408808335
 20
1236.529886028018
 30
0.0
  0
ENDBLK
  5
52C
330
521
100
AcDbEntity
  8
0
100
AcDbBlockEnd
  0
BLOCK
  5
537
330
52D
100
AcDbEntity
  8
0
100
AcDbBlockBegin
  2
*D15
 70
     1
 10
0.0
 20
0.0
 30
0.0
  3
*D15
  1

  0
LINE
  5
578
330
52D
100
AcDbEntity
  8
DIM
 62
     0
370
    -2
100
AcDbLine
 10
1026.266153225737
 20
1266.279886028019
 30
0.0
 11
1005.917218585934
 21
1266.279886028019
 31
0.0
  0
LINE
  5
579
330
52D
100
AcDbEntity
  8
DIM
 62
     0
370
    -2
100
AcDbLine
 10
1025.833947951672
 20
1221.779886028018
 30
0.0
 11
1005.917218585934
 21
1221.779886028018
 31
0.0
  0
LINE
  5
57A
330
52D
100
AcDbEntity
  8
DIM
 62
     0
370
    -2
100
AcDbLine
 10
1007.167218585934
 20
1263.779886028018
 30
0.0
 11
1007.167218585934
 21
1224.279886028019
 31
0.0
  0
SOLID
  5
57B
330
52D
100
AcDbEntity
  8
DIM
 62
     0
100
AcDbTrace
 10
1006.750551919268
 20
1263.779886028018
 30
0.0
 11
1007.583885252601
 21
1263.779886028018
 31
0.0
 12
1007.167218585934
 22
1266.279886028019
 32
0.0
 13
1007.167218585934
 23
1266.279886028019
 33
0.0
  0
SOLID
  5
57C
330
52D
100
AcDbEntity
  8
DIM
 62
     0
100
AcDbTrace
 10
1006.750551919268
 20
1224.279886028019
 30
0.0
 11
1007.583885252601
 21
1224.279886028019
 31
0.0
 12
1007.167218585934
 22
1221.779886028018
 32
0.0
 13
1007.167218585934
 23
1221.779886028018
 33
0.0
  0
MTEXT
  5
57D
330
52D
100
AcDbEntity
  8
DIM
 62
     0
100
AcDbMText
 10
1005.104718585934
 20
1244.029886028019
 30
0.0
 40
2.5
 41
0.0
 71
     5
 72
     1
  1
44,5
 11
0.0000000000000001
 21
1.0
 31
0.0
 73
     1
 44
1.0
1001
ACAD
1000
MTEXTBEGIN
1070
    73
1070
     1
1070
    44
1040
1.0
1070
    74
1070
     0
1000
MTEXTEND
  0
POINT
  5
57E
330
52D
100
AcDbEntity
  8
Defpoints
 62
     0
100
AcDbPoint
 10
1026.891153225737
 20
1266.279886028019
 30
0.0
  0
POINT
  5
57F
330
52D
100
AcDbEntity
  8
Defpoints
 62
     0
100
AcDbPoint
 10
1026.458947951672
 20
1221.779886028018
 30
0.0
  0
POINT
  5
580
330
52D
100
AcDbEntity
  8
Defpoints
 62
     0
100
AcDbPoint
 10
1007.167218585934
 20
1221.779886028018
 30
0.0
  0
ENDBLK
  5
538
330
52D
100
AcDbEntity
  8
0
100
AcDbBlockEnd
  0
BLOCK
  5
543
330
539
100
AcDbEntity
  8
0
100
AcDbBlockBegin
  2
*D16
 70
     1
 10
0.0
 20
0.0
 30
0.0
  3
*D16
  1

  0
LINE
  5
58D
330
539
100
AcDbEntity
  8
DIM
 62
     0
370
    -2
100
AcDbLine
 10
1130.711043394299
 20
1183.863584984602
 30
0.0
 11
1107.143336913775
 21
1183.863584984602
 31
0.0
  0
LINE
  5
58E
330
539
100
AcDbEntity
  8
DIM
 62
     0
370
    -2
100
AcDbLine
 10
1130.711043394299
 20
1151.863584984602
 30
0.0
 11
1107.143336913775
 21
1151.863584984602
 31
0.0
  0
LINE
  5
58F
330
539
100
AcDbEntity
  8
DIM
 62
     0
370
    -2
100
AcDbLine
 10
1108.393336913776
 20
1181.363584984602
 30
0.0
 11
1108.393336913776
 21
1154.363584984602
 31
0.0
  0
SOLID
  5
590
330
539
100
AcDbEntity
  8
DIM
 62
     0
100
AcDbTrace
 10
1107.976670247109
 20
1181.363584984602
 30
0.0
 11
1108.810003580442
 21
1181.363584984602
 31
0.0
 12
1108.393336913776
 22
1183.863584984602
 32
0.0
 13
1108.393336913776
 23
1183.863584984602
 33
0.0
  0
SOLID
  5
591
330
539
100
AcDbEntity
  8
DIM
 62
     0
100
AcDbTrace
 10
1107.976670247109
 20
1154.363584984602
 30
0.0
 11
1108.810003580442
 21
1154.363584984602
 31
0.0
 12
1108.393336913776
 22
1151.863584984602
 32
0.0
 13
1108.393336913776
 23
1151.863584984602
 33
0.0
  0
MTEXT
  5
592
330
539
100
AcDbEntity
  8
DIM
 62
     0
100
AcDbMText
 10
1106.518090850783
 20
1167.863584984603
 30
0.0
 40
2.5
 41
0.0
 71
     5
 72
     1
  1
32HEX.
 11
0.0000000000000001
 21
1.0
 31
0.0
 73
     1
 44
1.0
1001
ACAD
1000
MTEXTBEGIN
1070
    73
1070
     1
1070
    44
1040
1.0
1070
    74
1070
     0
1000
MTEXTEND
  0
POINT
  5
593
330
539
100
AcDbEntity
  8
Defpoints
 62
     0
100
AcDbPoint
 10
1131.336043394299
 20
1183.863584984602
 30
0.0
  0
POINT
  5
594
330
539
100
AcDbEntity
  8
Defpoints
 62
     0
100
AcDbPoint
 10
1131.336043394299
 20
1151.863584984602
 30
0.0
  0
POINT
  5
595
330
539
100
AcDbEntity
  8
Defpoints
 62
     0
100
AcDbPoint
 10
1108.393336913776
 20
1151.863584984602
 30
0.0
  0
ENDBLK
  5
544
330
539
100
AcDbEntity
  8
0
100
AcDbBlockEnd
  0
BLOCK
  5
54F
330
545
100
AcDbEntity
  8
0
100
AcDbBlockBegin
  2
*D17
 70
     1
 10
0.0
 20
0.0
 30
0.0
  3
*D17
  1

  0
LINE
  5
596
330
545
100
AcDbEntity
  8
DIM
 62
     0
370
    -2
100
AcDbLine
 10
1029.940613376859
 20
1273.029886028018
 30
0.0
 11
1001.671743765712
 21
1273.029886028018
 31
0.0
  0
LINE
  5
597
330
545
100
AcDbEntity
  8
DIM
 62
     0
370
    -2
100
AcDbLine
 10
1029.940613376859
 20
1215.029886028018
 30
0.0
 11
1001.671743765712
 21
1215.029886028018
 31
0.0
  0
LINE
  5
598
330
545
100
AcDbEntity
  8
DIM
 62
     0
370
    -2
100
AcDbLine
 10
1002.921743765712
 20
1270.529886028018
 30
0.0
 11
1002.921743765712
 21
1217.529886028019
 31
0.0
  0
SOLID
  5
599
330
545
100
AcDbEntity
  8
DIM
 62
     0
100
AcDbTrace
 10
1002.505077099045
 20
1270.529886028018
 30
0.0
 11
1003.338410432378
 21
1270.529886028018
 31
0.0
 12
1002.921743765712
 22
1273.029886028018
 32
0.0
 13
1002.921743765712
 23
1273.029886028018
 33
0.0
  0
SOLID
  5
59A
330
545
100
AcDbEntity
  8
DIM
 62
     0
100
AcDbTrace
 10
1002.505077099045
 20
1217.529886028019
 30
0.0
 11
1003.338410432378
 21
1217.529886028019
 31
0.0
 12
1002.921743765712
 22
1215.029886028018
 32
0.0
 13
1002.921743765712
 23
1215.029886028018
 33
0.0
  0
MTEXT
  5
59B
330
545
100
AcDbEntity
  8
DIM
 62
     0
100
AcDbMText
 10
1001.046743765712
 20
1244.029886028019
 30
0.0
 40
2.5
 41
0.0
 71
     5
 72
     1
  1
58
 11
0.0000000000000001
 21
1.0
 31
0.0
 73
     1
 44
1.0
1001
ACAD
1000
MTEXTBEGIN
1070
    73
1070
     1
1070
    44
1040
1.0
1070
    74
1070
     0
1000
MTEXTEND
  0
POINT
  5
59C
330
545
100
AcDbEntity
  8
Defpoints
 62
     0
100
AcDbPoint
 10
1030.565613376859
 20
1273.029886028018
 30
0.0
  0
POINT
  5
59D
330
545
100
AcDbEntity
  8
Defpoints
 62
     0
100
AcDbPoint
 10
1030.565613376859
 20
1215.029886028018
 30
0.0
  0
POINT
  5
59E
330
545
100
AcDbEntity
  8
Defpoints
 62
     0
100
AcDbPoint
 10
1002.921743765712
 20
1215.029886028018
 30
0.0
  0
ENDBLK
  5
550
330
545
100
AcDbEntity
  8
0
100
AcDbBlockEnd
  0
BLOCK
  5
55B
330
551
100
AcDbEntity
  8
0
100
AcDbBlockBegin
  2
*D18
 70
     1
 10
0.0
 20
0.0
 30
0.0
  3
*D18
  1

  0
LINE
  5
59F
330
551
100
AcDbEntity
  8
DIM
 62
     0
370
    -2
100
AcDbLine
 10
1023.565613376858
 20
1266.654886028019
 30
0.0
 11
1023.565613376858
 21
1282.973631940561
 31
0.0
  0
LINE
  5
5A0
330
551
100
AcDbEntity
  8
DIM
 62
     0
370
    -2
100
AcDbLine
 10
1081.565613376859
 20
1266.654886028019
 30
0.0
 11
1081.565613376859
 21
1282.973631940561
 31
0.0
  0
LINE
  5
5A1
330
551
100
AcDbEntity
  8
DIM
 62
     0
370
    -2
100
AcDbLine
 10
1026.065613376858
 20
1281.723631940561
 30
0.0
 11
1079.065613376859
 21
1281.723631940561
 31
0.0
  0
SOLID
  5
5A2
330
551
100
AcDbEntity
  8
DIM
 62
     0
100
AcDbTrace
 10
1026.065613376858
 20
1282.140298607228
 30
0.0
 11
1026.065613376858
 21
1281.306965273894
 31
0.0
 12
1023.565613376858
 22
1281.723631940561
 32
0.0
 13
1023.565613376858
 23
1281.723631940561
 33
0.0
  0
SOLID
  5
5A3
330
551
100
AcDbEntity
  8
DIM
 62
     0
100
AcDbTrace
 10
1079.065613376859
 20
1282.140298607228
 30
0.0
 11
1079.065613376859
 21
1281.306965273894
 31
0.0
 12
1081.565613376859
 22
1281.723631940561
 32
0.0
 13
1081.565613376859
 23
1281.723631940561
 33
0.0
  0
MTEXT
  5
5A4
330
551
100
AcDbEntity
  8
DIM
 62
     0
100
AcDbMText
 10
1052.565613376859
 20
1283.598631940561
 30
0.0
 40
2.5
 41
0.0
 71
     5
 72
     1
  1
58
 73
     1
 44
1.0
1001
ACAD
1000
MTEXTBEGIN
1070
    73
1070
     1
1070
    44
1040
1.0
1070
    74
1070
     0
1000
MTEXTEND
  0
POINT
  5
5A5
330
551
100
AcDbEntity
  8
Defpoints
 62
     0
100
AcDbPoint
 10
1023.565613376858
 20
1266.029886028018
 30
0.0
  0
POINT
  5
5A6
330
551
100
AcDbEntity
  8
Defpoints
 62
     0
100
AcDbPoint
 10
1081.565613376859
 20
1266.029886028018
 30
0.0
  0
POINT
  5
5A7
330
551
100
AcDbEntity
  8
Defpoints
 62
     0
100
AcDbPoint
 10
1081.565613376859
 20
1281.723631940561
 30
0.0
  0
ENDBLK
  5
55C
330
551
100
AcDbEntity
  8
0
100
AcDbBlockEnd
  0
BLOCK
  5
58B
330
581
100
AcDbEntity
  8
0
100
AcDbBlockBegin
  2
*D19
 70
     1
 10
0.0
 20
0.0
 30
0.0
  3
*D19
  1

  0
LINE
  5
582
330
581
100
AcDbEntity
  8
DIM
 62
     0
370
    -2
100
AcDbLine
 10
1014.565613376859
 20
1153.17650746866
 30
0.0
 11
1014.565613376859
 21
1139.836488831658
 31
0.0
  0
LINE
  5
583
330
581
100
AcDbEntity
  8
DIM
 62
     0
370
    -2
100
AcDbLine
 10
1090.565613376859
 20
1153.176507468659
 30
0.0
 11
1090.565613376859
 21
1139.836488831658
 31
0.0
  0
LINE
  5
584
330
581
100
AcDbEntity
  8
DIM
 62
     0
370
    -2
100
AcDbLine
 10
1017.065613376859
 20
1141.086488831658
 30
0.0
 11
1088.065613376859
 21
1141.086488831658
 31
0.0
  0
SOLID
  5
585
330
581
100
AcDbEntity
  8
DIM
 62
     0
100
AcDbTrace
 10
1017.065613376859
 20
1141.503155498324
 30
0.0
 11
1017.065613376859
 21
1140.669822164991
 31
0.0
 12
1014.565613376859
 22
1141.086488831658
 32
0.0
 13
1014.565613376859
 23
1141.086488831658
 33
0.0
  0
SOLID
  5
586
330
581
100
AcDbEntity
  8
DIM
 62
     0
100
AcDbTrace
 10
1088.065613376859
 20
1141.503155498324
 30
0.0
 11
1088.065613376859
 21
1140.669822164991
 31
0.0
 12
1090.565613376859
 22
1141.086488831658
 32
0.0
 13
1090.565613376859
 23
1141.086488831658
 33
0.0
  0
MTEXT
  5
587
330
581
100
AcDbEntity
  8
DIM
 62
     0
100
AcDbMText
 10
1052.565613376859
 20
1142.961488831658
 30
0.0
 40
2.5
 41
0.0
 71
     5
 72
     1
  1
76
 73
     1
 44
1.0
1001
ACAD
1000
MTEXTBEGIN
1070
    73
1070
     1
1070
    44
1040
1.0
1070
    74
1070
     0
1000
MTEXTEND
  0
POINT
  5
588
330
581
100
AcDbEntity
  8
Defpoints
 62
     0
100
AcDbPoint
 10
1014.565613376859
 20
1153.80150746866
 30
0.0
  0
POINT
  5
589
330
581
100
AcDbEntity
  8
Defpoints
 62
     0
100
AcDbPoint
 10
1090.565613376859
 20
1153.801507468659
 30
0.0
  0
POINT
  5
58A
330
581
100
AcDbEntity
  8
Defpoints
 62
     0
100
AcDbPoint
 10
1090.565613376859
 20
1141.086488831658
 30
0.0
  0
ENDBLK
  5
58C
330
581
100
AcDbEntity
  8
0
100
AcDbBlockEnd
  0
ENDSEC
  0
SECTION
  2
ENTITIES
  0
TEXT
  5
3C6
330
1F
100
AcDbEntity
  8
LOGO
 62
     7
100
AcDbText
 10
1050.234497213048
 20
1098.999415300987
 30
0.0
 40
5.634368956264587
  1
訂購代號:
  7
CHINESET
100
AcDbText
  0
TEXT
  5
3C7
330
1F
100
AcDbEntity
  8
LOGO
 62
     7
100
AcDbText
 10
1049.560595622989
 20
1093.711398714692
 30
0.0
 40
3.756245970843058
  1
Order example:
 41
0.8
  7
CHINESET
100
AcDbText
  0
LINE
  5
3C8
330
1F
100
AcDbEntity
  8
LOGO
 62
     4
100
AcDbLine
 10
1107.336969014605
 20
1080.228813478941
 30
0.0
 11
1088.555739160391
 21
1080.228813478941
 31
0.0
  0
LINE
  5
3C9
330
1F
100
AcDbEntity
  8
LOGO
 62
     4
100
AcDbLine
 10
1107.336969014605
 20
1090.55848989876
 30
0.0
 11
1088.555739160391
 21
1090.55848989876
 31
0.0
  0
LINE
  5
3CA
330
1F
100
AcDbEntity
  8
LOGO
 62
     4
100
AcDbLine
 10
1111.769031616058
 20
1094.784266615958
 30
0.0
 11
1084.368744874349
 21
1094.784266615958
 31
0.0
  0
LINE
  5
3CB
330
1F
100
AcDbEntity
  8
LOGO
 62
     4
100
AcDbLine
 10
1111.769031616058
 20
1103.235820050355
 30
0.0
 11
1084.368744874349
 21
1103.235820050355
 31
0.0
  0
TEXT
  5
3CC
330
1F
100
AcDbEntity
  8
LOGO
  6
Continuous
 62
     7
100
AcDbText
 10
1088.332153090697
 20
1096.66238960138
 30
0.0
 40
4.695307463553823
  1
MSUW
  7
CHINESET
 72
     1
 11
1097.946354087498
 21
1099.010043333157
 31
0.0
100
AcDbText
 73
     2
  0
LINE
  5
3CD
330
1F
100
AcDbEntity
  8
LOGO
 62
     4
100
AcDbLine
 10
1084.368744874349
 20
1103.235820050355
 30
0.0
 11
1084.368744874349
 21
1094.784266615958
 31
0.0
  0
LINE
  5
3CE
330
1F
100
AcDbEntity
  8
LOGO
 62
     4
100
AcDbLine
 10
1088.555739160391
 20
1090.55848989876
 30
0.0
 11
1088.555739160391
 21
1080.228813478941
 31
0.0
  0
TEXT
  5
3CF
330
1F
100
AcDbEntity
  8
LOGO
100
AcDbText
 10
1094.76887771123
 20
1081.675786940728
 30
0.0
 40
1.869103750745776
  1
Model
 72
     4
 11
1097.946354087498
 21
1082.576467210718
 31
0.0
100
AcDbText
  0
TEXT
  5
3D0
330
1F
100
AcDbEntity
  8
LOGO
100
AcDbText
 10
1094.190108116655
 20
1085.489776093616
 30
0.0
 40
3.756245970843058
  1
型式
  7
CHINESET
 72
     4
 11
1097.946354087498
 21
1087.271774674272
 31
0.0
100
AcDbText
  0
LINE
  5
3D1
330
1F
100
AcDbEntity
  8
LOGO
 62
     4
100
AcDbLine
 10
1097.946354087498
 20
1094.784266615958
 30
0.0
 11
1097.946354087498
 21
1090.55848989876
 31
0.0
  0
LINE
  5
3D2
330
1F
100
AcDbEntity
  8
LOGO
 62
     4
100
AcDbLine
 10
1111.769031616058
 20
1103.235820050355
 30
0.0
 11
1111.769031616058
 21
1094.784266615958
 31
0.0
  0
LINE
  5
3D3
330
1F
100
AcDbEntity
  8
LOGO
 62
     4
100
AcDbLine
 10
1107.336969014606
 20
1090.55848989876
 30
0.0
 11
1107.336969014606
 21
1080.228813478941
 31
0.0
  0
LINE
  5
3D4
330
1F
100
AcDbEntity
  8
LOGO
 62
     4
100
AcDbLine
 10
1047.928494008204
 20
1077.881159747164
 30
0.0
 11
1047.928494008204
 21
1106.053004528488
 31
0.0
  0
TEXT
  5
3D5
330
1F
100
AcDbEntity
  8
LOGO
  6
Continuous
100
AcDbText
 10
996.0698887696366
 20
1083.415476139435
 30
0.0
 40
4.225776717198477
  1
金器工業股份有限公司
  7
CHINESET
100
AcDbText
  0
TEXT
  5
3D6
330
1F
100
AcDbEntity
  8
LOGO
  6
Continuous
100
AcDbText
 10
988.3079729688381
 20
1079.188871501313
 30
0.0
 40
2.817184478132318
  1
MINDMAN INDUSTRIAL CO., LTD.
 41
0.85
  7
CHINESET
100
AcDbText
  0
LINE
  5
3D7
330
1F
100
AcDbEntity
  8
LOGO
 62
     4
100
AcDbLine
 10
1047.928494008204
 20
1100.418635572223
 30
0.0
 11
1006.609788328929
 21
1100.418635572223
 31
0.0
  0
LINE
  5
3D8
330
1F
100
AcDbEntity
  8
LOGO
 62
     4
100
AcDbLine
 10
1047.928494008204
 20
1094.784266615958
 30
0.0
 11
1006.609788328929
 21
1094.784266615958
 31
0.0
  0
LINE
  5
3D9
330
1F
100
AcDbEntity
  8
LOGO
 62
     4
100
AcDbLine
 10
1047.928494008204
 20
1089.149897659694
 30
0.0
 11
985.9504354892921
 21
1089.149897659694
 31
0.0
  0
LINE
  5
3DA
330
1F
100
AcDbEntity
  8
LOGO
 62
     4
100
AcDbLine
 10
1006.609788328929
 20
1089.149897659694
 30
0.0
 11
1006.609788328929
 21
1106.053004528488
 31
0.0
  0
TEXT
  5
3DB
330
1F
100
AcDbEntity
  8
LOGO
100
AcDbText
 10
1034.84917344751
 20
1090.55848989876
 30
0.0
 40
2.817184478132318
  1
mm
  7
CHINESET
 72
     1
 11
1038.337116134722
 21
1091.967082137826
 31
0.0
100
AcDbText
 73
     2
  0
TEXT
  5
3DC
330
1F
100
AcDbEntity
  8
LOGO
100
AcDbText
 10
1033.373505387536
 20
1101.827227811289
 30
0.0
 40
2.817184478132318
  1
1 : 1
  7
CHINESET
 72
     1
 11
1038.337116134722
 21
1103.235820050355
 31
0.0
100
AcDbText
 73
     2
  0
LINE
  5
3DD
330
1F
100
AcDbEntity
  8
LOGO
 62
     4
100
AcDbLine
 10
1029.147264153988
 20
1089.149897659694
 30
0.0
 11
1029.147264153988
 21
1106.053004528488
 31
0.0
  0
TEXT
  5
3DE
330
1F
100
AcDbEntity
  8
LOGO
100
AcDbText
 10
1008.932707851746
 20
1101.828614220973
 30
184.6336296564843
 40
2.817184478132318
  1
比例 Scale:
 41
0.9
  7
CHINESET
 72
     4
 11
1017.878526241458
 21
1103.235820050355
 31
184.6336296564843
100
AcDbText
  0
TEXT
  5
3DF
330
1F
100
AcDbEntity
  8
LOGO
100
AcDbText
 10
1008.770468209925
 20
1096.232487065162
 30
184.6336296564843
 40
2.817184478132318
  1
投影  View:
 41
0.9
  7
CHINESET
 72
     4
 11
1017.878526241458
 21
1097.601451094091
 31
184.6336296564843
100
AcDbText
  0
TEXT
  5
3E0
330
1F
100
AcDbEntity
  8
LOGO
100
AcDbText
 10
1009.045898299528
 20
1090.55848989876
 30
184.6336296564843
 40
2.817184478132318
  1
單位  Unit:
 41
0.9
  7
CHINESET
 72
     4
 11
1017.878526241458
 21
1091.967082137826
 31
184.6336296564843
100
AcDbText
  0
SOLID
  5
3E1
330
1F
100
AcDbEntity
  8
LOGO
 62
     5
100
AcDbTrace
 10
988.8733095977265
 20
1093.833065859955
 30
0.0
 11
990.0913862431501
 21
1093.833065859954
 31
0.0
 12
995.1737060395732
 22
1105.383792670008
 32
0.0
 13
996.3917826849971
 23
1105.383792670007
 33
0.0
  0
SOLID
  5
3E2
330
1F
100
AcDbEntity
  8
LOGO
 62
     5
100
AcDbTrace
 10
990.5954179584989
 20
1093.833065859955
 30
0.0
 11
991.8134946039227
 21
1093.833065859955
 31
0.0
 12
996.3917826849971
 22
1104.459734525203
 32
0.0
 13
995.1737060395732
 23
1099.993453491983
 33
0.0
  0
SOLID
  5
3E3
330
1F
100
AcDbEntity
  8
LOGO
 62
     2
100
AcDbTrace
 10
990.0913862431501
 20
1093.833065859954
 30
0.0
 11
990.5954179584989
 21
1093.833065859955
 31
0.0
 12
996.3917826849971
 22
1105.383792670007
 32
0.0
 13
996.8958144003458
 23
1105.383792670007
 33
0.0
  0
SOLID
  5
3E4
330
1F
100
AcDbEntity
  8
LOGO
 62
     5
100
AcDbTrace
 10
986.9204340261289
 20
1089.63280156539
 30
0.0
 11
987.3404604555858
 21
1089.63280156539
 31
0.0
 12
988.5232875731794
 22
1091.732933712673
 32
0.0
 13
988.9433140026358
 23
1091.732933712673
 33
0.0
  0
SOLID
  5
3E5
330
1F
100
AcDbEntity
  8
LOGO
 62
     5
100
AcDbTrace
 10
988.5232875731794
 20
1091.732933712673
 30
0.0
 11
988.9433140026358
 21
1091.732933712673
 31
0.0
 12
988.5232875731794
 22
1089.63280156539
 32
0.0
 13
988.9433140026358
 23
1089.63280156539
 33
0.0
  0
SOLID
  5
3E6
330
1F
100
AcDbEntity
  8
LOGO
 62
     5
100
AcDbTrace
 10
988.5232875731794
 20
1089.63280156539
 30
0.0
 11
988.9433140026358
 21
1089.63280156539
 31
0.0
 12
990.1261411202314
 22
1091.732933712673
 32
0.0
 13
990.5461675496876
 23
1091.732933712673
 33
0.0
  0
SOLID
  5
3E7
330
1F
100
AcDbEntity
  8
LOGO
 62
     5
100
AcDbTrace
 10
990.1261411202314
 20
1091.732933712673
 30
0.0
 11
990.5461675496876
 21
1091.732933712673
 31
0.0
 12
990.1261411202314
 22
1089.63280156539
 32
0.0
 13
990.5461675496876
 23
1089.63280156539
 33
0.0
  0
POLYLINE
  5
3E8
330
1F
100
AcDbEntity
  8
LOGO
 62
     5
100
AcDb2dPolyline
 66
     1
 10
0.0
 20
0.0
 30
0.0
 40
0.420699548734426
 41
0.420699548734426
  0
VERTEX
  5
3E9
330
3E8
100
AcDbEntity
  8
LOGO
 62
     5
100
AcDbVertex
100
AcDb2dVertex
 10
1004.205283951804
 20
1090.89288085376
 30
0.0
 42
1.0
  0
VERTEX
  5
3EA
330
3E8
100
AcDbEntity
  8
LOGO
 62
     5
100
AcDbVertex
100
AcDb2dVertex
 10
1002.943185305602
 20
1090.89288085376
 30
0.0
 42
1.0
  0
SEQEND
  5
3EB
330
3E8
100
AcDbEntity
  8
LOGO
 62
     5
  0
POLYLINE
  5
3EC
330
1F
100
AcDbEntity
  8
LOGO
 62
     5
100
AcDb2dPolyline
 66
     1
 10
0.0
 20
0.0
 30
0.0
 70
     1
  0
VERTEX
  5
3ED
330
3EC
100
AcDbEntity
  8
LOGO
 62
     5
100
AcDbVertex
100
AcDb2dVertex
 10
1000.56407321936
 20
1090.682867639032
 30
0.0
 42
1.000000057330635
  0
VERTEX
  5
3EE
330
3EC
100
AcDbEntity
  8
LOGO
 62
     5
100
AcDbVertex
100
AcDb2dVertex
 10
1001.824152507729
 20
1090.682867639032
 30
0.0
 42
1.000000057330635
  0
SEQEND
  5
3EF
330
3EC
100
AcDbEntity
  8
LOGO
 62
     5
  0
CIRCLE
  5
3F0
330
1F
100
AcDbEntity
  8
LOGO
 62
     5
100
AcDbCircle
 10
1001.194112863545
 20
1090.682867639032
 30
0.0
 40
0.6300396441846764
  0
POLYLINE
  5
3F1
330
1F
100
AcDbEntity
  8
LOGO
 62
     5
100
AcDb2dPolyline
 66
     1
 10
0.0
 20
0.0
 30
0.0
 70
     1
 40
0.420699548734426
 41
0.420699548734426
  0
VERTEX
  5
3F2
330
3F1
100
AcDbEntity
  8
LOGO
 62
     5
100
AcDbVertex
100
AcDb2dVertex
 10
1000.352713766075
 20
1090.682867639032
 30
0.0
 42
1.0
  0
VERTEX
  5
3F3
330
3F1
100
AcDbEntity
  8
LOGO
 62
     5
100
AcDbVertex
100
AcDb2dVertex
 10
1002.035511961014
 20
1090.682867639032
 30
0.0
 42
1.0
  0
SEQEND
  5
3F4
330
3F1
100
AcDbEntity
  8
LOGO
 62
     5
  0
LINE
  5
3F5
330
1F
100
AcDbEntity
  8
LOGO
100
AcDbLine
 10
1004.414287487615
 20
1089.63280156539
 30
0.0
 11
1004.414287487615
 21
1090.89288085376
 31
0.0
  0
SOLID
  5
3F6
330
1F
100
AcDbEntity
  8
LOGO
 62
     5
100
AcDbTrace
 10
1001.824110505087
 20
1091.732933712673
 30
0.0
 11
1002.244136934543
 21
1091.732933712673
 31
0.0
 12
1001.824110505087
 22
1089.63280156539
 32
0.0
 13
1002.244136934543
 23
1089.63280156539
 33
0.0
  0
SOLID
  5
3F7
330
1F
100
AcDbEntity
  8
LOGO
 62
     5
100
AcDbTrace
 10
1002.73418176979
 20
1089.63280156539
 30
0.0
 11
1003.154208199246
 21
1089.63280156539
 31
0.0
 12
1002.73418176979
 22
1091.732933712673
 32
0.0
 13
1003.154208199246
 23
1091.732933712673
 33
0.0
  0
SOLID
  5
3F8
330
1F
100
AcDbEntity
  8
LOGO
 62
     5
100
AcDbTrace
 10
1003.99426105816
 20
1090.89288085376
 30
0.0
 11
1004.414287487615
 21
1090.89288085376
 31
0.0
 12
1003.99426105816
 22
1089.63280156539
 32
0.0
 13
1004.414287487615
 23
1089.63280156539
 33
0.0
  0
SOLID
  5
3F9
330
1F
100
AcDbEntity
  8
LOGO
 62
     5
100
AcDbTrace
 10
1002.692179126843
 20
1104.459734525203
 30
0.0
 11
1001.47410248142
 21
1099.993453491983
 31
0.0
 12
1002.692179126843
 22
1093.833065859954
 32
0.0
 13
1001.47410248142
 23
1093.833065859954
 33
0.0
  0
SOLID
  5
3FA
330
1F
100
AcDbEntity
  8
LOGO
 62
     5
100
AcDbTrace
 10
1003.196210842192
 20
1093.833065859954
 30
0.0
 11
1004.414287487615
 21
1093.833065859954
 31
0.0
 12
1003.196210842192
 22
1105.383792670007
 32
0.0
 13
1004.414287487615
 23
1105.383792670008
 33
0.0
  0
SOLID
  5
3FB
330
1F
100
AcDbEntity
  8
LOGO
 62
     2
100
AcDbTrace
 10
1002.692179126843
 20
1105.383792670008
 30
0.0
 11
1003.196210842192
 21
1105.383792670007
 31
0.0
 12
1002.692179126843
 22
1093.833065859954
 32
0.0
 13
1003.196210842192
 23
1093.833065859954
 33
0.0
  0
POLYLINE
  5
3FC
330
1F
100
AcDbEntity
  8
LOGO
 62
     5
100
AcDb2dPolyline
 66
     1
 10
0.0
 20
0.0
 30
0.0
 40
0.420699548734426
 41
0.420699548734426
  0
VERTEX
  5
3FD
330
3FC
100
AcDbEntity
  8
LOGO
 62
     5
100
AcDbVertex
100
AcDb2dVertex
 10
998.1848771278341
 20
1090.89288085376
 30
0.0
 42
1.0
  0
VERTEX
  5
3FE
330
3FC
100
AcDbEntity
  8
LOGO
 62
     5
100
AcDbVertex
100
AcDb2dVertex
 10
996.92277848163
 20
1090.89288085376
 30
0.0
 42
1.0
  0
SEQEND
  5
3FF
330
3FC
100
AcDbEntity
  8
LOGO
 62
     5
  0
POLYLINE
  5
400
330
1F
100
AcDbEntity
  8
LOGO
 62
     5
100
AcDb2dPolyline
 66
     1
 10
0.0
 20
0.0
 30
0.0
 40
0.420699548734426
 41
0.420699548734426
  0
VERTEX
  5
401
330
400
100
AcDbEntity
  8
LOGO
 62
     5
100
AcDbVertex
100
AcDb2dVertex
 10
999.4449564162028
 20
1090.89288085376
 30
0.0
 42
1.0
  0
VERTEX
  5
402
330
400
100
AcDbEntity
  8
LOGO
 62
     5
100
AcDbVertex
100
AcDb2dVertex
 10
998.1828577699994
 20
1090.89288085376
 30
0.0
 42
1.0
  0
SEQEND
  5
403
330
400
100
AcDbEntity
  8
LOGO
 62
     5
  0
POLYLINE
  5
404
330
1F
100
AcDbEntity
  8
LOGO
 62
     5
100
AcDb2dPolyline
 66
     1
 10
0.0
 20
0.0
 30
0.0
 40
0.420699548734426
 41
0.420699548734426
  0
VERTEX
  5
405
330
404
100
AcDbEntity
  8
LOGO
 62
     5
100
AcDbVertex
100
AcDb2dVertex
 10
993.424549592231
 20
1090.89288085376
 30
0.0
 42
1.0
  0
VERTEX
  5
406
330
404
100
AcDbEntity
  8
LOGO
 62
     5
100
AcDbVertex
100
AcDb2dVertex
 10
992.1624509460276
 20
1090.89288085376
 30
0.0
 42
1.0
  0
SEQEND
  5
407
330
404
100
AcDbEntity
  8
LOGO
 62
     5
  0
SOLID
  5
408
330
1F
100
AcDbEntity
  8
LOGO
 62
     5
100
AcDbTrace
 10
991.9534474102167
 20
1091.732933712673
 30
0.0
 11
992.3734738396724
 21
1091.732933712673
 31
0.0
 12
991.9534474102167
 22
1089.63280156539
 32
0.0
 13
992.3734738396724
 23
1089.63280156539
 33
0.0
  0
SOLID
  5
409
330
1F
100
AcDbEntity
  8
LOGO
 62
     5
100
AcDbTrace
 10
993.2135266985865
 20
1090.89288085376
 30
0.0
 11
993.6335531280439
 21
1090.89288085376
 31
0.0
 12
993.2135266985865
 22
1089.63280156539
 32
0.0
 13
993.6335531280439
 23
1089.63280156539
 33
0.0
  0
POLYLINE
  5
40A
330
1F
100
AcDbEntity
  8
LOGO
 62
     5
100
AcDb2dPolyline
 66
     1
 10
0.0
 20
0.0
 30
0.0
 70
     1
 40
0.420699548734426
 41
0.420699548734426
  0
VERTEX
  5
40B
330
40A
100
AcDbEntity
  8
LOGO
 62
     5
100
AcDbVertex
100
AcDb2dVertex
 10
994.3323069421044
 20
1090.682867639032
 30
0.0
 42
1.0
  0
VERTEX
  5
40C
330
40A
100
AcDbEntity
  8
LOGO
 62
     5
100
AcDbVertex
100
AcDb2dVertex
 10
996.0151051370422
 20
1090.682867639032
 30
0.0
 42
1.0
  0
SEQEND
  5
40D
330
40A
100
AcDbEntity
  8
LOGO
 62
     5
  0
SOLID
  5
40E
330
1F
100
AcDbEntity
  8
LOGO
 62
     5
100
AcDbTrace
 10
995.8037036811161
 20
1092.362973356858
 30
0.0
 11
996.2237301105721
 21
1092.362973356858
 31
0.0
 12
995.8037036811161
 22
1089.63280156539
 32
0.0
 13
996.2237301105721
 23
1089.63280156539
 33
0.0
  0
SOLID
  5
40F
330
1F
100
AcDbEntity
  8
LOGO
 62
     5
100
AcDbTrace
 10
996.7137749458199
 20
1091.732933712673
 30
0.0
 11
997.1338013752761
 21
1091.732933712673
 31
0.0
 12
996.7137749458199
 22
1089.63280156539
 32
0.0
 13
997.1338013752761
 23
1089.63280156539
 33
0.0
  0
SOLID
  5
410
330
1F
100
AcDbEntity
  8
LOGO
 62
     5
100
AcDbTrace
 10
997.9738542341884
 20
1090.89288085376
 30
0.0
 11
998.3938806636446
 21
1090.89288085376
 31
0.0
 12
997.9738542341884
 22
1089.63280156539
 32
0.0
 13
998.3938806636446
 23
1089.63280156539
 33
0.0
  0
SOLID
  5
411
330
1F
100
AcDbEntity
  8
LOGO
 62
     5
100
AcDbTrace
 10
999.2339335225569
 20
1090.89288085376
 30
0.0
 11
999.6539599520142
 21
1090.89288085376
 31
0.0
 12
999.2339335225569
 22
1089.63280156539
 32
0.0
 13
999.6539599520142
 23
1089.63280156539
 33
0.0
  0
SOLID
  5
412
330
1F
100
AcDbEntity
  8
LOGO
 62
     5
100
AcDbTrace
 10
991.0433761455129
 20
1092.026952213292
 30
0.0
 11
991.4634025749714
 21
1092.026952213292
 31
0.0
 12
991.0433761455129
 22
1092.362973356858
 32
0.0
 13
991.4634025749714
 23
1092.362973356858
 33
0.0
  0
SOLID
  5
413
330
1F
100
AcDbEntity
  8
LOGO
 62
     5
100
AcDbTrace
 10
991.0433761455129
 20
1091.732933712673
 30
0.0
 11
991.4634025749714
 21
1091.732933712673
 31
0.0
 12
991.0433761455129
 22
1089.63280156539
 32
0.0
 13
991.4634025749714
 23
1089.63280156539
 33
0.0
  0
SOLID
  5
414
330
1F
100
AcDbEntity
  8
LOGO
 62
     5
100
AcDbTrace
 10
995.1737060395732
 20
1093.833065859955
 30
0.0
 11
996.3917826849971
 21
1093.833065859955
 31
0.0
 12
995.1737060395732
 22
1099.993453491983
 32
0.0
 13
996.3917826849971
 23
1104.459734525203
 33
0.0
  0
SOLID
  5
415
330
1F
100
AcDbEntity
  8
LOGO
 62
     5
100
AcDbTrace
 10
996.8958144003458
 20
1105.383792670007
 30
0.0
 11
998.1138910457694
 21
1105.383792670008
 31
0.0
 12
996.8958144003458
 22
1094.757124004759
 32
0.0
 13
998.1138910457694
 23
1099.223405037979
 33
0.0
  0
SOLID
  5
416
330
1F
100
AcDbEntity
  8
LOGO
 62
     2
100
AcDbTrace
 10
996.3917826849971
 20
1105.383792670007
 30
0.0
 11
996.8958144003458
 21
1105.383792670007
 31
0.0
 12
996.3917826849971
 22
1093.833065859955
 32
0.0
 13
996.8958144003458
 23
1093.833065859955
 33
0.0
  0
SOLID
  5
417
330
1F
100
AcDbEntity
  8
LOGO
 62
     5
100
AcDbTrace
 10
996.8958144003458
 20
1094.757124004759
 30
0.0
 11
998.1138910457694
 21
1099.223405037979
 31
0.0
 12
1002.692179126843
 22
1105.383792670008
 32
0.0
 13
1001.47410248142
 23
1105.383792670008
 33
0.0
  0
SOLID
  5
418
330
1F
100
AcDbEntity
  8
LOGO
 62
     5
100
AcDbTrace
 10
996.8958144003458
 20
1093.833065859955
 30
0.0
 11
998.1138910457694
 21
1093.833065859955
 31
0.0
 12
1002.692179126843
 22
1104.459734525203
 32
0.0
 13
1001.47410248142
 23
1099.993453491983
 33
0.0
  0
SOLID
  5
419
330
1F
100
AcDbEntity
  8
LOGO
 62
     2
100
AcDbTrace
 10
996.3917826849971
 20
1093.833065859955
 30
0.0
 11
996.8958144003458
 21
1093.833065859955
 31
0.0
 12
1002.692179126843
 22
1105.383792670008
 32
0.0
 13
1003.196210842192
 23
1105.383792670007
 33
0.0
  0
LWPOLYLINE
  5
41A
330
1F
100
AcDbEntity
  8
LOGO
 62
     4
100
AcDbPolyline
 90
        4
 70
     1
 43
0.0
 10
985.9504354892933
 20
1106.053004528487
 10
1278.625016470163
 20
1106.053004528487
 10
1278.625016470163
 20
1077.881159747164
 10
985.9504354892933
 20
1077.881159747164
1001
GENIUS_GENREC_14
1002
{
1000
PYDIR
1011
985.9504354892933
1021
1077.881159747164
1031
0.0
1002
}
1002
{
1000
PXDIR
1011
1278.625016470163
1021
1106.053004528487
1031
0.0
1002
}
1002
{
1000
PORI
1011
985.9504354892933
1021
1106.053004528487
1031
0.0
1002
}
1002
{
1000
PINS
1011
985.9504354892933
1021
1106.053004528487
1031
0.0
1002
}
1002
{
1000
PINS2
1011
1278.625016470163
1021
1077.881159747164
1031
0.0
1002
}
1002
{
1000
C
1070
     1
1002
}
1001
GENIUS_GENOBJ-N-REC_13
1002
{
1000
OWNER
1000
GEN
1002
}
1001
GENIUS_GENODEF_13
1002
{
1000
HIER
1070
     0
1002
}
1002
{
1000
MANEDIT
1070
     0
1002
}
1002
{
1000
NOSEL
1070
     0
1002
}
1002
{
1000
BEHIND
1070
     0
1002
}
1002
{
1000
OTHER
1070
     0
1002
}
1002
{
1000
REACTOR
1002
}
  0
TEXT
  5
41B
330
1F
100
AcDbEntity
  8
LOGO
100
AcDbText
 10
1049.233793853932
 20
1079.379890770282
 30
0.0
 40
2.817592455320418
  1
01109060
 41
0.7
  7
CHINESET
 72
     1
 11
1056.089935495212
 21
1079.379890770282
 31
0.0
100
AcDbText
  0
LINE
  5
41C
330
1F
100
AcDbEntity
  8
LOGO
 62
     4
100
AcDbLine
 10
1064.834048740124
 20
1083.51552870343
 30
0.0
 11
1064.834048740126
 21
1077.881159747165
 31
0.0
  0
LINE
  5
41D
330
1F
100
AcDbEntity
  8
LOGO
 62
     4
100
AcDbLine
 10
1064.834048740124
 20
1083.51552870343
 30
0.0
 11
1047.928494008204
 21
1083.51552870343
 31
0.0
  0
CIRCLE
  5
41E
330
1F
100
AcDbEntity
  8
LOGO
  6
Continuous
100
AcDbCircle
 10
1034.363633583115
 20
1097.607477072305
 30
0.0
 40
1.635723617051456
  0
CIRCLE
  5
41F
330
1F
100
AcDbEntity
  8
LOGO
  6
Continuous
100
AcDbCircle
 10
1034.363633583115
 20
1097.607477072305
 30
0.0
 40
0.9583892371730611
  0
LINE
  5
420
330
1F
100
AcDbEntity
  8
LOGO
100
AcDbLine
 10
1044.642710594008
 20
1095.971753455254
 30
0.0
 11
1044.642710594008
 21
1099.243200689357
 31
0.0
  0
LINE
  5
421
330
1F
100
AcDbEntity
  8
LOGO
100
AcDbLine
 10
1039.514810949566
 20
1096.649087835132
 30
0.0
 11
1039.514810949566
 21
1098.565866309479
 31
0.0
  0
LINE
  5
422
330
1F
100
AcDbEntity
  8
LOGO
  6
Continuous
100
AcDbLine
 10
1039.514810949566
 20
1098.565866309479
 30
0.0
 11
1044.642710594008
 21
1099.243200689357
 31
0.0
  0
LINE
  5
423
330
1F
100
AcDbEntity
  8
LOGO
  6
Continuous
100
AcDbLine
 10
1039.514810949566
 20
1096.649087835132
 30
0.0
 11
1044.642710594008
 21
1095.971753455254
 31
0.0
  0
LINE
  5
424
330
1F
100
AcDbEntity
  8
LOGO
  6
AM_ISO08W050x2
 48
0.3
100
AcDbLine
 10
1032.108764083976
 20
1097.607477072305
 30
0.0
 11
1036.618503082252
 21
1097.607477072305
 31
0.0
1001
GENIUS_GENOREF_13
1005
508
  0
LINE
  5
425
330
1F
100
AcDbEntity
  8
LOGO
  6
AM_ISO08W050x2
 48
0.3
100
AcDbLine
 10
1034.363633583115
 20
1095.352607573167
 30
0.0
 11
1034.363633583115
 21
1099.862346571443
 31
0.0
1001
GENIUS_GENOREF_13
1005
507
  0
LINE
  5
426
330
1F
100
AcDbEntity
  8
LOGO
  6
CENTER
 48
0.5
100
AcDbLine
 10
1039.104721507316
 20
1097.607477072305
 30
0.0
 11
1045.159073488335
 21
1097.607477072305
 31
0.0
1001
GENIUS_GENOREF_13
1005
506
  0
LINE
  5
427
330
1F
100
AcDbEntity
  8
LOGO
 62
     4
100
AcDbLine
 10
1141.14479577255
 20
1080.228813478941
 30
0.0
 11
1122.363565918335
 21
1080.228813478941
 31
0.0
  0
LINE
  5
428
330
1F
100
AcDbEntity
  8
LOGO
 62
     4
100
AcDbLine
 10
1141.14479577255
 20
1090.55848989876
 30
0.0
 11
1122.363565918335
 21
1090.55848989876
 31
0.0
  0
LINE
  5
429
330
1F
100
AcDbEntity
  8
LOGO
 62
     4
100
AcDbLine
 10
1137.09910087842
 20
1094.784266615958
 30
0.0
 11
1125.60336518733
 21
1094.784266615958
 31
0.0
  0
LINE
  5
42A
330
1F
100
AcDbEntity
  8
LOGO
 62
     4
100
AcDbLine
 10
1137.09910087842
 20
1103.235820050355
 30
0.0
 11
1125.60336518733
 21
1103.235820050355
 31
0.0
  0
TEXT
  5
42B
330
1F
100
AcDbEntity
  8
LOGO
  6
Continuous
 62
     7
100
AcDbText
 10
1127.953217660661
 20
1096.66238960138
 30
0.0
 40
4.695307463553823
  1
20
  7
CHINESET
 72
     1
 11
1131.754180845443
 21
1099.010043333157
 31
0.0
100
AcDbText
 73
     2
  0
LINE
  5
42C
330
1F
100
AcDbEntity
  8
LOGO
 62
     4
100
AcDbLine
 10
1125.60336518733
 20
1103.235820050355
 30
0.0
 11
1125.60336518733
 21
1094.784266615958
 31
0.0
  0
LINE
  5
42D
330
1F
100
AcDbEntity
  8
LOGO
 62
     4
100
AcDbLine
 10
1122.363565918335
 20
1090.55848989876
 30
0.0
 11
1122.363565918335
 21
1080.228813478941
 31
0.0
  0
TEXT
  5
42E
330
1F
100
AcDbEntity
  8
LOGO
100
AcDbText
 10
1126.520690343355
 20
1081.641915335345
 30
0.0
 40
1.869103750745776
  1
PIPE SIZE
 72
     4
 11
1131.754180845443
 21
1082.576467210718
 31
0.0
100
AcDbText
  0
TEXT
  5
42F
330
1F
100
AcDbEntity
  8
LOGO
100
AcDbText
 10
1124.20256134156
 20
1085.393651688851
 30
0.0
 40
3.756245970843058
  1
配管口徑
  7
CHINESET
 72
     4
 11
1131.754180845443
 21
1087.271774674272
 31
0.0
100
AcDbText
  0
LINE
  5
430
330
1F
100
AcDbEntity
  8
LOGO
 62
     4
100
AcDbLine
 10
1131.754180845443
 20
1094.784266615958
 30
0.0
 11
1131.754180845443
 21
1090.55848989876
 31
0.0
  0
LINE
  5
431
330
1F
100
AcDbEntity
  8
LOGO
 62
     4
100
AcDbLine
 10
1137.09910087842
 20
1103.235820050355
 30
0.0
 11
1137.09910087842
 21
1094.784266615958
 31
0.0
  0
LINE
  5
432
330
1F
100
AcDbEntity
  8
LOGO
 62
     4
100
AcDbLine
 10
1141.14479577255
 20
1090.55848989876
 30
0.0
 11
1141.14479577255
 21
1080.228813478941
 31
0.0
  0
LINE
  5
433
330
1F
100
AcDbEntity
  8
0
100
AcDbLine
 10
1112.594858361731
 20
1098.829360430619
 30
0.0
 11
1117.008896459745
 21
1098.829360430619
 31
0.0
  0
LWPOLYLINE
  5
434
330
1F
100
AcDbEntity
  8
0
 62
     4
100
AcDbPolyline
 90
        4
 70
     1
 43
0.0
 10
985.9504354892933
 20
1309.318170509034
 10
1278.625016470163
 20
1309.318170509034
 10
1278.625016470163
 20
1106.053004528487
 10
985.9504354892933
 20
1106.053004528487
  0
DIMENSION
  5
435
330
1F
100
AcDbEntity
  8
DIM
100
AcDbDimension
  2
*D16
 10
1108.393336913776
 20
1151.863584984602
 30
0.0
 11
1106.518090850783
 21
1167.863584984603
 31
0.0
 70
    32
  1
32HEX.
 71
     5
 42
31.99999999999977
  3
ISO-25
100
AcDbAlignedDimension
 13
1131.336043394299
 23
1183.863584984602
 33
0.0
 14
1131.336043394299
 24
1151.863584984602
 34
0.0
 50
90.0
100
AcDbRotatedDimension
  0
LINE
  5
436
330
1F
100
AcDbEntity
  8
0
100
AcDbLine
 10
1113.573647701334
 20
1181.863584984602
 30
0.0
 11
1130.181342855921
 21
1181.863584984602
 31
0.0
  0
LINE
  5
437
330
1F
100
AcDbEntity
  8
0
100
AcDbLine
 10
1113.573647701334
 20
1188.863584984602
 30
0.0
 11
1167.573647701334
 21
1188.863584984602
 31
0.0
  0
DIMENSION
  5
438
330
1F
100
AcDbEntity
  8
DIM
100
AcDbDimension
  2
*D17
 10
1002.921743765712
 20
1215.029886028018
 30
0.0
 11
1001.046743765712
 21
1244.029886028019
 31
0.0
 70
    32
 71
     5
 42
58.0
  3
ISO-25
100
AcDbAlignedDimension
 13
1030.565613376859
 23
1273.029886028018
 33
0.0
 14
1030.565613376859
 24
1215.029886028018
 34
0.0
 50
90.0
100
AcDbRotatedDimension
  0
ARC
  5
439
330
1F
100
AcDbEntity
  8
0
100
AcDbCircle
 10
1026.288060661863
 20
1230.292281720984
 30
0.0
 40
11.72244728500515
100
AcDbArc
 50
156.162248905909
 51
203.837751094091
  0
LINE
  5
43A
330
1F
100
AcDbEntity
  8
0
100
AcDbLine
 10
1014.565613376859
 20
1259.871269555651
 30
0.0
 11
1014.565613376859
 21
1228.188502500386
 31
0.0
  0
ARC
  5
43B
330
1F
100
AcDbEntity
  8
0
100
AcDbCircle
 10
1078.843166091854
 20
1230.292281720984
 30
0.0
 40
11.72244728500515
100
AcDbArc
 50
336.162248905909
 51
23.83775109409102
  0
LINE
  5
43C
330
1F
100
AcDbEntity
  8
0
100
AcDbLine
 10
1090.565613376859
 20
1259.871269555651
 30
0.0
 11
1090.565613376859
 21
1228.188502500386
 31
0.0
  0
CIRCLE
  5
43D
330
1F
100
AcDbEntity
  8
0
100
AcDbCircle
 10
1052.565613376859
 20
1244.029886028019
 30
0.0
 40
27.0
  0
CIRCLE
  5
43E
330
1F
100
AcDbEntity
  8
0
100
AcDbCircle
 10
1052.565613376859
 20
1244.029886028019
 30
0.0
 40
24.0
  0
CIRCLE
  5
43F
330
1F
100
AcDbEntity
  8
0
100
AcDbCircle
 10
1052.565613376859
 20
1244.029886028019
 30
0.0
 40
23.5
  0
CIRCLE
  5
440
330
1F
100
AcDbEntity
  8
0
100
AcDbCircle
 10
1052.565613376859
 20
1244.029886028019
 30
0.0
 40
19.5
  0
CIRCLE
  5
441
330
1F
100
AcDbEntity
  8
0
100
AcDbCircle
 10
1052.565613376859
 20
1244.029886028019
 30
0.0
 40
10.5
  0
LINE
  5
442
330
1F
100
AcDbEntity
  8
0
100
AcDbLine
 10
1023.565613376858
 20
1266.029886028018
 30
0.0
 11
1023.565613376858
 21
1222.029886028018
 31
0.0
  0
LINE
  5
443
330
1F
100
AcDbEntity
  8
0
100
AcDbLine
 10
1081.565613376859
 20
1266.029886028018
 30
0.0
 11
1081.565613376859
 21
1222.029886028018
 31
0.0
  0
LINE
  5
444
330
1F
100
AcDbEntity
  8
圖層1
100
AcDbLine
 10
1052.565613376859
 20
1274.584599488582
 30
0.0
 11
1052.565613376859
 21
1212.63545324407
 31
0.0
  0
LINE
  5
445
330
1F
100
AcDbEntity
  8
0
100
AcDbLine
 10
1030.565613376859
 20
1215.029886028018
 30
0.0
 11
1074.565613376859
 21
1215.029886028018
 31
0.0
  0
ARC
  5
446
330
1F
100
AcDbEntity
  8
0
100
AcDbCircle
 10
1030.565613376859
 20
1222.029886028018
 30
0.0
 40
7.0
100
AcDbArc
 50
180.0
 51
270.0
  0
LINE
  5
447
330
1F
100
AcDbEntity
  8
0
100
AcDbLine
 10
1023.565613376858
 20
1225.55467741395
 30
0.0
 11
1015.565613376858
 21
1225.55467741395
 31
0.0
  0
LINE
  5
448
330
1F
100
AcDbEntity
  8
0
100
AcDbLine
 10
1015.565613376858
 20
1225.55467741395
 30
0.0
 11
1014.565613376859
 21
1228.188502500386
 31
0.0
  0
ARC
  5
449
330
1F
100
AcDbEntity
  8
0
100
AcDbCircle
 10
1074.565613376859
 20
1222.029886028018
 30
0.0
 40
7.0
100
AcDbArc
 50
270.0
 51
0.0
  0
LINE
  5
44A
330
1F
100
AcDbEntity
  8
0
100
AcDbLine
 10
1089.565613376859
 20
1225.55467741395
 30
0.0
 11
1081.565613376859
 21
1225.55467741395
 31
0.0
  0
LINE
  5
44B
330
1F
100
AcDbEntity
  8
0
100
AcDbLine
 10
1089.565613376859
 20
1225.55467741395
 30
0.0
 11
1090.565613376859
 21
1228.188502500386
 31
0.0
  0
LINE
  5
44C
330
1F
100
AcDbEntity
  8
0
100
AcDbLine
 10
1111.573647701334
 20
1186.863584984602
 30
0.0
 11
1111.573647701334
 21
1183.863584984602
 31
0.0
  0
ARC
  5
44D
330
1F
100
AcDbEntity
  8
0
100
AcDbCircle
 10
1113.573647701334
 20
1183.863584984602
 30
0.0
 40
2.0
100
AcDbArc
 50
180.0
 51
270.0
  0
ARC
  5
44E
330
1F
100
AcDbEntity
  8
0
100
AcDbCircle
 10
1113.573647701334
 20
1186.863584984602
 30
0.0
 40
2.0
100
AcDbArc
 50
90.0
 51
180.0
  0
DIMENSION
  5
44F
330
1F
100
AcDbEntity
  8
DIM
100
AcDbDimension
  2
*D18
 10
1081.565613376859
 20
1281.723631940561
 30
0.0
 11
1052.565613376859
 21
1283.598631940561
 31
0.0
 70
    32
 71
     5
 42
58.00000000000022
  3
ISO-25
100
AcDbAlignedDimension
 13
1023.565613376858
 23
1266.029886028018
 33
0.0
 14
1081.565613376859
 24
1266.029886028018
 34
0.0
100
AcDbRotatedDimension
  0
LINE
  5
450
330
1F
100
AcDbEntity
  8
圖層1
100
AcDbLine
 10
1011.871205306073
 20
1244.029886028019
 30
0.0
 11
1096.916983102468
 21
1244.029886028019
 31
0.0
  0
CIRCLE
  5
451
330
1F
100
AcDbEntity
  8
0
100
AcDbCircle
 10
1052.565613376859
 20
1244.029886028019
 30
0.0
 40
8.0
  0
LINE
  5
452
330
1F
100
AcDbEntity
  8
0
100
AcDbLine
 10
1030.565613376859
 20
1273.029886028018
 30
0.0
 11
1074.565613376859
 21
1273.029886028018
 31
0.0
  0
LINE
  5
453
330
1F
100
AcDbEntity
  8
圖層1
100
AcDbLine
 10
1015.157019614043
 20
1244.029886028019
 30
0.0
 11
1092.160871142041
 21
1244.029886028019
 31
0.0
  0
ARC
  5
454
330
1F
100
AcDbEntity
  8
0
100
AcDbCircle
 10
1030.565613376859
 20
1266.029886028018
 30
0.0
 40
7.0
100
AcDbArc
 50
90.0
 51
180.0
  0
ARC
  5
455
330
1F
100
AcDbEntity
  8
0
100
AcDbCircle
 10
1055.565613376859
 20
1244.029886028019
 30
0.0
 40
40.99999999999996
100
AcDbArc
 50
167.3196165081789
 51
192.680383491821
  0
LINE
  5
456
330
1F
100
AcDbEntity
  8
0
100
AcDbLine
 10
1015.565613376858
 20
1235.029886028019
 30
0.0
 11
1023.565613376858
 21
1235.029886028019
 31
0.0
  0
LINE
  5
457
330
1F
100
AcDbEntity
  8
0
100
AcDbLine
 10
1015.565613376858
 20
1253.029886028018
 30
0.0
 11
1023.565613376858
 21
1253.029886028018
 31
0.0
  0
LINE
  5
458
330
1F
100
AcDbEntity
  8
0
100
AcDbLine
 10
1023.565613376858
 20
1262.505094642086
 30
0.0
 11
1015.565613376858
 21
1262.505094642086
 31
0.0
  0
ARC
  5
459
330
1F
100
AcDbEntity
  8
0
100
AcDbCircle
 10
1026.288060661863
 20
1257.767490335053
 30
0.0
 40
11.72244728500515
100
AcDbArc
 50
156.162248905909
 51
203.837751094091
  0
LINE
  5
45A
330
1F
100
AcDbEntity
  8
0
100
AcDbLine
 10
1015.565613376858
 20
1262.505094642086
 30
0.0
 11
1014.565613376859
 21
1259.871269555651
 31
0.0
  0
LINE
  5
45B
330
1F
100
AcDbEntity
  8
0
100
AcDbLine
 10
1042.065613376859
 20
1251.529886028018
 30
0.0
 11
1042.065613376859
 21
1236.529886028018
 31
0.0
  0
LINE
  5
45C
330
1F
100
AcDbEntity
  8
0
100
AcDbLine
 10
1034.565613376859
 20
1236.529886028018
 30
0.0
 11
1042.065613376859
 21
1236.529886028018
 31
0.0
  0
LINE
  5
45D
330
1F
100
AcDbEntity
  8
0
100
AcDbLine
 10
1034.565613376859
 20
1251.529886028018
 30
0.0
 11
1042.065613376859
 21
1251.529886028018
 31
0.0
  0
ARC
  5
45E
330
1F
100
AcDbEntity
  8
0
100
AcDbCircle
 10
1074.565613376859
 20
1266.029886028018
 30
0.0
 40
7.0
100
AcDbArc
 50
0.0
 51
90.0
  0
ARC
  5
45F
330
1F
100
AcDbEntity
  8
0
100
AcDbCircle
 10
1049.565613376858
 20
1244.029886028019
 30
0.0
 40
40.99999999999996
100
AcDbArc
 50
347.3196165081789
 51
12.68038349182109
  0
LINE
  5
460
330
1F
100
AcDbEntity
  8
0
100
AcDbLine
 10
1089.565613376859
 20
1235.029886028019
 30
0.0
 11
1081.565613376859
 21
1235.029886028019
 31
0.0
  0
LINE
  5
461
330
1F
100
AcDbEntity
  8
0
100
AcDbLine
 10
1089.565613376859
 20
1253.029886028018
 30
0.0
 11
1081.565613376859
 21
1253.029886028018
 31
0.0
  0
LINE
  5
462
330
1F
100
AcDbEntity
  8
0
100
AcDbLine
 10
1089.565613376859
 20
1262.505094642086
 30
0.0
 11
1081.565613376859
 21
1262.505094642086
 31
0.0
  0
LINE
  5
463
330
1F
100
AcDbEntity
  8
0
100
AcDbLine
 10
1089.565613376859
 20
1262.505094642086
 30
0.0
 11
1090.565613376859
 21
1259.871269555651
 31
0.0
  0
ARC
  5
464
330
1F
100
AcDbEntity
  8
0
100
AcDbCircle
 10
1078.843166091854
 20
1257.767490335053
 30
0.0
 40
11.72244728500515
100
AcDbArc
 50
336.162248905909
 51
23.83775109409102
  0
CIRCLE
  5
465
330
1F
100
AcDbEntity
  8
0
100
AcDbCircle
 10
1140.573647701334
 20
1167.863584984602
 30
0.0
 40
9.5
  0
CIRCLE
  5
466
330
1F
100
AcDbEntity
  8
0
100
AcDbCircle
 10
1140.573647701334
 20
1167.863584984602
 30
0.0
 40
12.6
  0
CIRCLE
  5
467
330
1F
100
AcDbEntity
  8
DIM
100
AcDbCircle
 10
1140.573647701334
 20
1167.863584984602
 30
0.0
 40
13.2
  0
CIRCLE
  5
468
330
1F
100
AcDbEntity
  8
0
100
AcDbCircle
 10
1140.573647701334
 20
1167.863584984602
 30
0.0
 40
16.0
  0
LINE
  5
469
330
1F
100
AcDbEntity
  8
0
100
AcDbLine
 10
1117.573647701334
 20
1181.863584984602
 30
0.0
 11
1117.573647701334
 21
1167.719991445153
 31
0.0
  0
LINE
  5
46A
330
1F
100
AcDbEntity
  8
0
100
AcDbLine
 10
1163.573647701333
 20
1181.863584984602
 30
0.0
 11
1163.573647701333
 21
1167.719991445153
 31
0.0
  0
LWPOLYLINE
  5
46B
330
1F
100
AcDbEntity
  8
0
100
AcDbPolyline
 90
        6
 70
     1
 43
0.0
 10
1131.336043394299
 20
1183.863584984602
 10
1122.098439087265
 20
1167.863584984602
 10
1131.336043394299
 20
1151.863584984602
 10
1149.811252008367
 20
1151.863584984602
 10
1159.048856315401
 20
1167.863584984602
 10
1149.811252008367
 20
1183.863584984602
  0
LINE
  5
46C
330
1F
100
AcDbEntity
  8
CENTER05
100
AcDbLine
 10
1140.573647701334
 20
1187.336048278611
 30
0.0
 11
1140.573647701334
 21
1148.365892147438
 31
0.0
  0
ARC
  5
46D
330
1F
100
AcDbEntity
  8
0
100
AcDbCircle
 10
1119.573647701334
 20
1167.719991445153
 30
0.0
 40
2.0
100
AcDbArc
 50
180.0
 51
270.0
  0
LINE
  5
46E
330
1F
100
AcDbEntity
  8
0
100
AcDbLine
 10
1119.573647701334
 20
1165.719991445153
 30
0.0
 11
1123.336043394299
 21
1165.719991445153
 31
0.0
  0
LINE
  5
46F
330
1F
100
AcDbEntity
  8
0
100
AcDbLine
 10
1157.811252008367
 20
1165.719991445153
 30
0.0
 11
1157.811252008367
 21
1153.863584984602
 31
0.0
  0
LINE
  5
470
330
1F
100
AcDbEntity
  8
0
100
AcDbLine
 10
1150.388602277557
 20
1152.863584984602
 30
0.0
 11
1156.811252008367
 21
1152.863584984602
 31
0.0
  0
ARC
  5
471
330
1F
100
AcDbEntity
  8
0
100
AcDbCircle
 10
1156.811252008367
 20
1153.863584984602
 30
0.0
 40
1.0
100
AcDbArc
 50
270.0
 51
0.0
  0
ARC
  5
472
330
1F
100
AcDbEntity
  8
0
100
AcDbCircle
 10
1161.573647701334
 20
1167.719991445153
 30
0.0
 40
2.0
100
AcDbArc
 50
270.0
 51
0.0
  0
LINE
  5
473
330
1F
100
AcDbEntity
  8
0
100
AcDbLine
 10
1157.811252008367
 20
1165.719991445153
 30
0.0
 11
1161.573647701334
 21
1165.719991445153
 31
0.0
  0
LINE
  5
474
330
1F
100
AcDbEntity
  8
0
100
AcDbLine
 10
1150.965952546747
 20
1181.863584984602
 30
0.0
 11
1167.573647701334
 21
1181.863584984602
 31
0.0
  0
DIMENSION
  5
475
330
1F
100
AcDbEntity
  8
DIM
100
AcDbDimension
  2
*D12
 10
1163.573647701333
 20
1192.456163013393
 30
0.0
 11
1140.573647701334
 21
1194.331163013393
 31
0.0
 70
    32
  1
%%c46
 71
     5
 42
45.99999999999977
  3
ISO-25
100
AcDbAlignedDimension
 13
1117.573647701334
 23
1181.863584984602
 33
0.0
 14
1163.573647701333
 24
1181.863584984602
 34
0.0
100
AcDbRotatedDimension
  0
LINE
  5
476
330
1F
100
AcDbEntity
  8
0
100
AcDbLine
 10
1169.573647701334
 20
1186.863584984602
 30
0.0
 11
1169.573647701334
 21
1183.863584984602
 31
0.0
  0
ARC
  5
477
330
1F
100
AcDbEntity
  8
0
100
AcDbCircle
 10
1167.573647701334
 20
1183.863584984602
 30
0.0
 40
2.0
100
AcDbArc
 50
270.0
 51
0.0
  0
ARC
  5
478
330
1F
100
AcDbEntity
  8
0
100
AcDbCircle
 10
1167.573647701334
 20
1186.863584984602
 30
0.0
 40
2.0
100
AcDbArc
 50
0.0
 51
90.0
  0
LINE
  5
479
330
1F
100
AcDbEntity
  8
0
100
AcDbLine
 10
1209.784586413144
 20
1153.80150746866
 30
0.0
 11
1220.133501317545
 21
1153.80150746866
 31
0.0
  0
ARC
  5
47A
330
1F
100
AcDbEntity
  8
0
100
AcDbCircle
 10
1212.255298681711
 20
1172.10226208451
 30
0.0
 40
3.0
100
AcDbArc
 50
193.2985781196618
 51
259.3803447238449
  0
LINE
  5
47B
330
1F
100
AcDbEntity
  8
0
100
AcDbLine
 10
1197.784586413144
 20
1186.513241773097
 30
0.0
 11
1253.784586413143
 21
1186.513241773097
 31
0.0
  0
LINE
  5
47C
330
1F
100
AcDbEntity
  8
0
100
AcDbLine
 10
1188.784586413143
 20
1149.513241773097
 30
0.0
 11
1262.784586413144
 21
1149.513241773097
 31
0.0
  0
LINE
  5
47D
330
1F
100
AcDbEntity
  8
0
100
AcDbLine
 10
1197.784586413144
 20
1179.513241773098
 30
0.0
 11
1253.784586413143
 21
1179.513241773098
 31
0.0
  0
LINE
  5
47E
330
1F
100
AcDbEntity
  8
0
100
AcDbLine
 10
1209.335744937195
 20
1171.412185325819
 30
0.0
 11
1207.784936739829
 21
1177.973292945557
 31
0.0
  0
ARC
  5
47F
330
1F
100
AcDbEntity
  8
0
100
AcDbCircle
 10
1220.284586413144
 20
1173.513241773097
 30
0.0
 40
32.50000000000074
100
AcDbArc
 50
165.7499673021932
 51
194.2500326978068
  0
LINE
  5
480
330
1F
100
AcDbEntity
  8
0
100
AcDbLine
 10
1187.784586413144
 20
1177.224976077535
 30
0.0
 11
1187.784586413144
 21
1153.801507468659
 31
0.0
  0
LINE
  5
481
330
1F
100
AcDbEntity
  8
0
100
AcDbLine
 10
1208.784586413144
 20
1149.513241773098
 30
0.0
 11
1209.784586413144
 21
1153.80150746866
 31
0.0
  0
ARC
  5
482
330
1F
100
AcDbEntity
  8
0
100
AcDbCircle
 10
1177.284586413144
 20
1157.513241773097
 30
0.0
 40
32.50000000000074
100
AcDbArc
 50
345.7499673021932
 51
14.2500326978068
  0
LINE
  5
483
330
1F
100
AcDbEntity
  8
0
100
AcDbLine
 10
1188.784586413143
 20
1149.513241773098
 30
0.0
 11
1187.784586413144
 21
1153.80150746866
 31
0.0
  0
ARC
  5
484
330
1F
100
AcDbEntity
  8
0
100
AcDbCircle
 10
1220.284586413144
 20
1157.513241773097
 30
0.0
 40
32.50000000000074
100
AcDbArc
 50
165.7499673021932
 51
194.2500326978068
  0
LINE
  5
485
330
1F
100
AcDbEntity
  8
0
100
AcDbLine
 10
1208.784586413143
 20
1165.513241773097
 30
0.0
 11
1188.784586413143
 21
1165.513241773098
 31
0.0
  0
LINE
  5
486
330
1F
100
AcDbEntity
  8
0
100
AcDbLine
 10
1209.784586413144
 20
1170.400621439147
 30
0.0
 11
1209.784586413144
 21
1153.80150746866
 31
0.0
  0
ARC
  5
487
330
1F
100
AcDbEntity
  8
0
100
AcDbCircle
 10
1177.284586413144
 20
1173.513241773097
 30
0.0
 40
32.50000000000074
100
AcDbArc
 50
345.7499673021932
 51
354.8698877878682
  0
LINE
  5
488
330
1F
100
AcDbEntity
  8
0
100
AcDbLine
 10
1188.784586413143
 20
1181.513241773097
 30
0.0
 11
1196.784586413143
 21
1181.513241773097
 31
0.0
  0
LINE
  5
489
330
1F
100
AcDbEntity
  8
0
100
AcDbLine
 10
1188.784586413143
 20
1181.513241773097
 30
0.0
 11
1187.784586413144
 21
1177.224976077535
 31
0.0
  0
ARC
  5
48A
330
1F
100
AcDbEntity
  8
0
100
AcDbCircle
 10
1205.838567576818
 20
1177.513241773097
 30
0.0
 40
2.0
100
AcDbArc
 50
13.29857811966179
 51
90.0
  0
ARC
  5
48B
330
1F
100
AcDbEntity
  8
0
100
AcDbCircle
 10
1197.784586413144
 20
1185.513241773097
 30
0.0
 40
1.0
100
AcDbArc
 50
90.0
 51
180.0
  0
LINE
  5
48C
330
1F
100
AcDbEntity
  8
0
100
AcDbLine
 10
1196.784586413143
 20
1185.513241773097
 30
0.0
 11
1196.784586413143
 21
1180.513241773097
 31
0.0
  0
ARC
  5
48D
330
1F
100
AcDbEntity
  8
0
100
AcDbCircle
 10
1197.784586413144
 20
1180.513241773097
 30
0.0
 40
1.0
100
AcDbArc
 50
180.0
 51
270.0
  0
LINE
  5
48E
330
1F
100
AcDbEntity
  8
0
100
AcDbLine
 10
1242.138804157169
 20
1166.729844914002
 30
0.0
 11
1243.350397777319
 21
1177.73216173693
 31
0.0
  0
LINE
  5
48F
102
{ACAD_REACTORS
330
491
102
}
330
1F
100
AcDbEntity
  8
0
100
AcDbLine
 10
1257.679644926551
 20
1173.161304915359
 30
0.0
 11
1257.679644926551
 21
1171.401304915359
 31
0.0
  0
LINE
  5
490
102
{ACAD_REACTORS
330
491
102
}
330
1F
100
AcDbEntity
  8
0
100
AcDbLine
 10
1249.380841603672
 20
1172.281304915359
 30
0.0
 11
1253.380841603671
 21
1174.681304915359
 31
0.0
  0
HATCH
  5
491
330
1F
100
AcDbEntity
  8
0
100
AcDbHatch
 10
0.0
 20
0.0
 30
0.0
210
0.0
220
0.0
230
1.0
  2
SOLID
 70
     1
 71
     1
 91
        1
 92
        7
 72
     0
 73
     1
 93
        7
 10
1249.380841603672
 20
1172.281304915359
 10
1253.380841603671
 20
1169.881304915359
 10
1253.380841603671
 20
1171.401304915359
 10
1257.679644926551
 20
1171.401304915359
 10
1257.679644926551
 20
1173.161304915359
 10
1253.380841603671
 20
1173.161304915359
 10
1253.380841603671
 20
1174.681304915359
 97
        7
330
4A3
330
4A4
330
4A1
330
48F
330
4A7
330
4AA
330
490
 75
     0
 76
     1
 47
0.1422462603217867
 98
        1
 10
1252.245421093518
 20
1172.539017727233
  0
LINE
  5
492
330
1F
100
AcDbEntity
  8
0
100
AcDbLine
 10
1263.784586413143
 20
1177.224976077535
 30
0.0
 11
1263.784586413143
 21
1153.801507468659
 31
0.0
  0
ARC
  5
493
330
1F
100
AcDbEntity
  8
0
100
AcDbCircle
 10
1231.284586413143
 20
1173.513241773097
 30
0.0
 40
32.50000000000074
100
AcDbArc
 50
345.7499673021932
 51
14.2500326978068
  0
LINE
  5
494
330
1F
100
AcDbEntity
  8
CENTER05
100
AcDbLine
 10
1225.784586413144
 20
1191.049056779428
 30
0.0
 11
1225.784586413144
 21
1145.510831878616
 31
0.0
  0
LINE
  5
495
330
1F
100
AcDbEntity
  8
0
100
AcDbLine
 10
1231.435671508744
 20
1153.80150746866
 30
0.0
 11
1241.784586413143
 21
1153.80150746866
 31
0.0
  0
ARC
  5
496
330
1F
100
AcDbEntity
  8
0
100
AcDbCircle
 10
1239.156830547087
 20
1167.058224859752
 30
0.0
 40
3.0
100
AcDbArc
 50
259.3803447238449
 51
353.7158131610302
  0
ARC
  5
497
330
1F
100
AcDbEntity
  8
0
100
AcDbCircle
 10
1225.784586413144
 20
1157.013241773097
 30
0.0
 40
6.5
100
AcDbArc
 50
180.0
 51
0.0
  0
LINE
  5
498
330
1F
100
AcDbEntity
  8
0
100
AcDbLine
 10
1238.603964941936
 20
1164.109608298949
 30
0.0
 11
1211.702433076561
 21
1169.153645523707
 31
0.0
  0
ARC
  5
499
330
1F
100
AcDbEntity
  8
0
100
AcDbCircle
 10
1218.034586413143
 20
1166.694583914027
 30
0.0
 40
1.25
100
AcDbArc
 50
0.0
 51
79.38034472384487
  0
LINE
  5
49A
330
1F
100
AcDbEntity
  8
0
100
AcDbLine
 10
1219.284586413143
 20
1166.694583914027
 30
0.0
 11
1219.284586413143
 21
1157.013241773097
 31
0.0
  0
LINE
  5
49B
330
1F
100
AcDbEntity
  8
0
100
AcDbLine
 10
1232.284586413144
 20
1165.294491773098
 30
0.0
 11
1232.284586413144
 21
1157.013241773097
 31
0.0
  0
LINE
  5
49C
330
1F
100
AcDbEntity
  8
0
100
AcDbLine
 10
1262.784586413144
 20
1149.513241773098
 30
0.0
 11
1263.784586413143
 21
1153.80150746866
 31
0.0
  0
ARC
  5
49D
330
1F
100
AcDbEntity
  8
0
100
AcDbCircle
 10
1231.284586413143
 20
1157.513241773097
 30
0.0
 40
32.50000000000074
100
AcDbArc
 50
345.7499673021932
 51
14.2500326978068
  0
LINE
  5
49E
330
1F
100
AcDbEntity
  8
0
100
AcDbLine
 10
1242.784586413144
 20
1149.513241773098
 30
0.0
 11
1241.784586413143
 21
1153.80150746866
 31
0.0
  0
ARC
  5
49F
330
1F
100
AcDbEntity
  8
0
100
AcDbCircle
 10
1274.284586413144
 20
1157.513241773097
 30
0.0
 40
32.50000000000074
100
AcDbArc
 50
165.7499673021932
 51
194.2500326978068
  0
POINT
  5
4A0
330
1F
100
AcDbEntity
  8
Defpoints
  6
ByBlock
 62
     0
100
AcDbPoint
 10
1262.784586413144
 20
1149.513241773097
 30
0.0
  0
LINE
  5
4A1
102
{ACAD_REACTORS
330
491
102
}
330
1F
100
AcDbEntity
  8
0
100
AcDbLine
 10
1253.380841603671
 20
1171.401304915359
 30
0.0
 11
1257.679644926551
 21
1171.401304915359
 31
0.0
  0
LINE
  5
4A2
330
1F
100
AcDbEntity
  8
0
100
AcDbLine
 10
1262.784586413144
 20
1165.513241773097
 30
0.0
 11
1242.784586413144
 21
1165.513241773097
 31
0.0
  0
LINE
  5
4A3
102
{ACAD_REACTORS
330
491
102
}
330
1F
100
AcDbEntity
  8
0
100
AcDbLine
 10
1249.380841603672
 20
1172.281304915359
 30
0.0
 11
1253.380841603671
 21
1169.881304915359
 31
0.0
  0
LINE
  5
4A4
102
{ACAD_REACTORS
330
491
102
}
330
1F
100
AcDbEntity
  8
0
100
AcDbLine
 10
1253.380841603671
 20
1171.401304915359
 30
0.0
 11
1253.380841603671
 21
1169.881304915359
 31
0.0
  0
ARC
  5
4A5
330
1F
100
AcDbEntity
  8
0
100
AcDbCircle
 10
1274.284586413144
 20
1173.513241773097
 30
0.0
 40
32.50000000000074
100
AcDbArc
 50
189.9122140616583
 51
194.2500326978068
  0
LINE
  5
4A6
330
1F
100
AcDbEntity
  8
0
100
AcDbLine
 10
1241.784586413144
 20
1165.610848229983
 30
0.0
 11
1241.784586413143
 21
1153.80150746866
 31
0.0
  0
LINE
  5
4A7
102
{ACAD_REACTORS
330
491
102
}
330
1F
100
AcDbEntity
  8
0
100
AcDbLine
 10
1253.380841603671
 20
1173.161304915359
 30
0.0
 11
1257.679644926551
 21
1173.161304915359
 31
0.0
  0
LINE
  5
4A8
330
1F
100
AcDbEntity
  8
0
100
AcDbLine
 10
1254.784586413144
 20
1181.513241773097
 30
0.0
 11
1262.784586413144
 21
1181.513241773097
 31
0.0
  0
ARC
  5
4A9
330
1F
100
AcDbEntity
  8
0
100
AcDbCircle
 10
1245.33838018404
 20
1177.513241773097
 30
0.0
 40
2.0
100
AcDbArc
 50
90.0
 51
173.7158131610301
  0
LINE
  5
4AA
102
{ACAD_REACTORS
330
491
102
}
330
1F
100
AcDbEntity
  8
0
100
AcDbLine
 10
1253.380841603671
 20
1174.681304915359
 30
0.0
 11
1253.380841603671
 21
1173.161304915359
 31
0.0
  0
ARC
  5
4AB
330
1F
100
AcDbEntity
  8
0
100
AcDbCircle
 10
1253.784586413143
 20
1185.513241773097
 30
0.0
 40
1.0
100
AcDbArc
 50
0.0
 51
90.0
  0
LINE
  5
4AC
330
1F
100
AcDbEntity
  8
0
100
AcDbLine
 10
1254.784586413144
 20
1185.513241773097
 30
0.0
 11
1254.784586413144
 21
1180.513241773097
 31
0.0
  0
ARC
  5
4AD
330
1F
100
AcDbEntity
  8
0
100
AcDbCircle
 10
1253.784586413143
 20
1180.513241773097
 30
0.0
 40
1.0
100
AcDbArc
 50
270.0
 51
0.0
  0
POINT
  5
4AE
330
1F
100
AcDbEntity
  8
Defpoints
  6
ByBlock
 62
     0
100
AcDbPoint
 10
1262.784586413144
 20
1181.513241773097
 30
0.0
  0
LINE
  5
4AF
330
1F
100
AcDbEntity
  8
0
100
AcDbLine
 10
1262.784586413144
 20
1181.513241773097
 30
0.0
 11
1263.784586413143
 21
1177.224976077535
 31
0.0
  0
CIRCLE
  5
4B0
330
1F
100
AcDbEntity
  8
0
100
AcDbCircle
 10
1074.815613376859
 20
1266.279886028019
 30
0.0
 40
2.5
  0
CIRCLE
  5
4B1
330
1F
100
AcDbEntity
  8
DIM
100
AcDbCircle
 10
1074.815613376859
 20
1266.279886028019
 30
0.0
 40
3.0
  0
CIRCLE
  5
4B2
330
1F
100
AcDbEntity
  8
0
100
AcDbCircle
 10
1030.315613376858
 20
1266.279886028019
 30
0.0
 40
2.5
  0
CIRCLE
  5
4B3
330
1F
100
AcDbEntity
  8
DIM
100
AcDbCircle
 10
1030.315613376858
 20
1266.279886028019
 30
0.0
 40
3.0
  0
LINE
  5
4B4
330
1F
100
AcDbEntity
  8
圖層1
100
AcDbLine
 10
1030.315613376858
 20
1262.423220602832
 30
0.0
 11
1030.315613376858
 21
1270.136551453205
 31
0.0
  0
LINE
  5
4B5
330
1F
100
AcDbEntity
  8
圖層1
100
AcDbLine
 10
1026.458947951672
 20
1266.279886028019
 30
0.0
 11
1034.172278802045
 21
1266.279886028019
 31
0.0
  0
CIRCLE
  5
4B6
330
1F
100
AcDbEntity
  8
0
100
AcDbCircle
 10
1030.315613376858
 20
1221.779886028018
 30
0.0
 40
2.5
  0
CIRCLE
  5
4B7
330
1F
100
AcDbEntity
  8
DIM
100
AcDbCircle
 10
1030.315613376858
 20
1221.779886028018
 30
0.0
 40
3.0
  0
CIRCLE
  5
4B8
330
1F
100
AcDbEntity
  8
0
100
AcDbCircle
 10
1074.815613376859
 20
1221.779886028018
 30
0.0
 40
2.5
  0
CIRCLE
  5
4B9
330
1F
100
AcDbEntity
  8
DIM
100
AcDbCircle
 10
1074.815613376859
 20
1221.779886028018
 30
0.0
 40
3.0
  0
DIMENSION
  5
4BA
330
1F
100
AcDbEntity
  8
DIM
100
AcDbDimension
  2
*D13
 10
1074.815613376859
 20
1276.419521415933
 30
0.0
 11
1052.565613376859
 21
1278.482021415933
 31
0.0
 70
    32
 71
     5
 42
44.50000000000023
  3
ISO-25
100
AcDbAlignedDimension
 13
1030.315613376858
 23
1268.779886028018
 33
0.0
 14
1074.815613376859
 24
1268.779886028018
 34
0.0
100
AcDbRotatedDimension
  0
POINT
  5
4BB
330
1F
100
AcDbEntity
  8
Defpoints
  6
ByBlock
 62
     0
 48
0.4
100
AcDbPoint
 10
1080.732453104723
 20
1269.34199831036
 30
0.0
  0
LINE
  5
4BC
330
1F
100
AcDbEntity
  8
CENTER05
100
AcDbLine
 10
1228.909586413144
 20
1157.013241773097
 30
0.0
 11
1222.222104662006
 21
1157.013241773097
 31
0.0
  0
DIMENSION
  5
4BD
330
1F
100
AcDbEntity
  8
DIM
100
AcDbDimension
  2
*D14
 10
1011.4408808335
 20
1236.529886028018
 30
0.0
 11
1009.5658808335
 21
1244.029886028019
 31
0.0
 70
    32
 71
     5
 42
15.0
  3
ISO-25
100
AcDbAlignedDimension
 13
1034.565613376859
 23
1251.529886028018
 33
0.0
 14
1034.565613376859
 24
1236.529886028018
 34
0.0
 50
90.0
100
AcDbRotatedDimension
  0
DIMENSION
  5
4BE
330
1F
100
AcDbEntity
  8
DIM
100
AcDbDimension
  2
*D15
 10
1007.167218585934
 20
1221.779886028018
 30
0.0
 11
1005.104718585934
 21
1244.029886028019
 31
0.0
 70
    32
 71
     5
 42
44.5
  3
ISO-25
100
AcDbAlignedDimension
 13
1026.891153225737
 23
1266.279886028019
 33
0.0
 14
1026.458947951672
 24
1221.779886028018
 34
0.0
 50
90.0
100
AcDbRotatedDimension
  0
LINE
  5
4BF
330
1F
100
AcDbEntity
  8
圖層1
100
AcDbLine
 10
1074.815613376859
 20
1262.423220602832
 30
0.0
 11
1074.815613376859
 21
1270.136551453205
 31
0.0
  0
LINE
  5
4C0
330
1F
100
AcDbEntity
  8
圖層1
100
AcDbLine
 10
1070.958947951672
 20
1266.279886028019
 30
0.0
 11
1078.672278802045
 21
1266.279886028019
 31
0.0
  0
LINE
  5
4C1
330
1F
100
AcDbEntity
  8
圖層1
100
AcDbLine
 10
1030.315613376858
 20
1217.923220602831
 30
0.0
 11
1030.315613376858
 21
1225.636551453205
 31
0.0
  0
LINE
  5
4C2
330
1F
100
AcDbEntity
  8
圖層1
100
AcDbLine
 10
1026.458947951672
 20
1221.779886028018
 30
0.0
 11
1034.172278802045
 21
1221.779886028018
 31
0.0
  0
LINE
  5
4C3
330
1F
100
AcDbEntity
  8
圖層1
100
AcDbLine
 10
1074.815613376859
 20
1217.923220602831
 30
0.0
 11
1074.815613376859
 21
1225.636551453205
 31
0.0
  0
LINE
  5
4C4
330
1F
100
AcDbEntity
  8
圖層1
100
AcDbLine
 10
1070.958947951672
 20
1221.779886028018
 30
0.0
 11
1078.672278802045
 21
1221.779886028018
 31
0.0
  0
LEADER
  5
4C5
330
1F
100
AcDbEntity
  8
DIM
100
AcDbLeader
  3
ISO-25
 73
     0
 74
     0
 75
     1
 40
3.0
 41
15.11881889763779
 76
     3
 10
1079.515360845164
 20
1270.979633496324
 30
0.0
 10
1082.722017097802
 20
1276.933318487267
 30
0.0
 10
1085.222017097802
 20
1276.933318487267
 30
0.0
340
4C6
213
0.0
223
-1.5
233
0.0
1001
ACAD
1000
DSTYLE
1002
{
1070
   147
1040
0.625
1070
    77
1070
     0
1002
}
  0
MTEXT
  5
4C6
102
{ACAD_REACTORS
330
4C5
102
}
330
1F
100
AcDbEntity
  8
DIM
100
AcDbMText
 10
1085.847017097802
 20
1278.433318487267
 30
0.0
 40
3.0
 41
0.0
 71
     1
 72
     1
  1
R7x4PLS
 73
     1
 44
1.0
1001
ACAD
1000
MTEXTBEGIN
1070
    73
1070
     1
1070
    44
1040
1.0
1070
    74
1070
     0
1000
MTEXTEND
  0
LEADER
  5
4C7
330
1F
100
AcDbEntity
  8
DIM
100
AcDbLeader
  3
ISO-25
 73
     0
 74
     0
 75
     1
 40
3.0
 41
24.4188188976378
 76
     3
 10
1076.936933720418
 20
1219.658565684459
 30
0.0
 10
1083.015693497498
 20
1210.955711665067
 30
0.0
 10
1085.515693497498
 20
1210.955711665067
 30
0.0
340
4C8
213
0.0
223
-1.5
233
0.0
1001
ACAD
1000
DSTYLE
1002
{
1070
   147
1040
0.625
1070
    77
1070
     0
1002
}
  0
MTEXT
  5
4C8
102
{ACAD_REACTORS
330
4C7
102
}
330
1F
100
AcDbEntity
  8
DIM
100
AcDbMText
 10
1086.140693497498
 20
1212.455711665067
 30
0.0
 40
3.0
 41
0.0
 71
     1
 72
     1
  1
M6xP1.0x4PLS
 73
     1
 44
1.0
1001
ACAD
1000
MTEXTBEGIN
1070
    73
1070
     1
1070
    44
1040
1.0
1070
    74
1070
     0
1000
MTEXTEND
  0
LINE
  5
4C9
330
1F
100
AcDbEntity
  8
CENTER05
100
AcDbLine
 10
1160.058721683476
 20
1167.863584984602
 30
0.0
 11
1121.088573719191
 21
1167.863584984602
 31
0.0
  0
LINE
  5
4CA
330
1F
100
AcDbEntity
  8
0
100
AcDbLine
 10
1068.565613376859
 20
1153.80150746866
 30
0.0
 11
1058.216698472458
 21
1153.80150746866
 31
0.0
  0
ARC
  5
4CB
330
1F
100
AcDbEntity
  8
0
100
AcDbCircle
 10
1066.094901108292
 20
1172.10226208451
 30
0.0
 40
3.0
100
AcDbArc
 50
280.6196552761831
 51
346.7014218803382
  0
LINE
  5
4CC
330
1F
100
AcDbEntity
  8
0
100
AcDbLine
 10
1080.565613376859
 20
1186.513241773097
 30
0.0
 11
1024.56561337686
 21
1186.513241773097
 31
0.0
  0
LINE
  5
4CD
330
1F
100
AcDbEntity
  8
0
100
AcDbLine
 10
1089.565613376859
 20
1149.513241773097
 30
0.0
 11
1015.565613376858
 21
1149.513241773097
 31
0.0
  0
LINE
  5
4CE
330
1F
100
AcDbEntity
  8
0
100
AcDbLine
 10
1080.565613376859
 20
1179.513241773097
 30
0.0
 11
1024.56561337686
 21
1179.513241773097
 31
0.0
  0
LINE
  5
4CF
330
1F
100
AcDbEntity
  8
0
100
AcDbLine
 10
1069.014454852807
 20
1171.412185325819
 30
0.0
 11
1070.565263050174
 21
1177.973292945557
 31
0.0
  0
ARC
  5
4D0
330
1F
100
AcDbEntity
  8
0
100
AcDbCircle
 10
1058.065613376858
 20
1173.513241773097
 30
0.0
 40
32.50000000000074
100
AcDbArc
 50
345.7499673021932
 51
14.2500326978068
  0
LINE
  5
4D1
102
{ACAD_REACTORS
330
505
102
}
330
1F
100
AcDbEntity
  8
0
100
AcDbLine
 10
1090.565613376859
 20
1177.224976077535
 30
0.0
 11
1090.565613376859
 21
1153.801507468659
 31
0.0
  0
LINE
  5
4D2
330
1F
100
AcDbEntity
  8
0
100
AcDbLine
 10
1069.565613376859
 20
1149.513241773097
 30
0.0
 11
1068.565613376859
 21
1153.80150746866
 31
0.0
  0
ARC
  5
4D3
330
1F
100
AcDbEntity
  8
0
100
AcDbCircle
 10
1101.06561337686
 20
1157.513241773097
 30
0.0
 40
32.50000000000074
100
AcDbArc
 50
165.7499673021932
 51
194.2500326978068
  0
LINE
  5
4D4
330
1F
100
AcDbEntity
  8
0
100
AcDbLine
 10
1089.565613376859
 20
1149.513241773097
 30
0.0
 11
1090.565613376859
 21
1153.80150746866
 31
0.0
  0
ARC
  5
4D5
330
1F
100
AcDbEntity
  8
0
100
AcDbCircle
 10
1058.065613376858
 20
1157.513241773097
 30
0.0
 40
32.50000000000074
100
AcDbArc
 50
345.7499673021932
 51
14.2500326978068
  0
LINE
  5
4D6
330
1F
100
AcDbEntity
  8
0
100
AcDbLine
 10
1069.565613376859
 20
1165.513241773097
 30
0.0
 11
1089.565613376859
 21
1165.513241773097
 31
0.0
  0
LINE
  5
4D7
330
1F
100
AcDbEntity
  8
0
100
AcDbLine
 10
1068.565613376859
 20
1170.400621439147
 30
0.0
 11
1068.565613376859
 21
1153.80150746866
 31
0.0
  0
ARC
  5
4D8
330
1F
100
AcDbEntity
  8
0
100
AcDbCircle
 10
1101.06561337686
 20
1173.513241773097
 30
0.0
 40
32.50000000000074
100
AcDbArc
 50
185.1301122121318
 51
194.2500326978068
  0
LINE
  5
4D9
330
1F
100
AcDbEntity
  8
0
100
AcDbLine
 10
1089.565613376859
 20
1181.513241773097
 30
0.0
 11
1081.565613376859
 21
1181.513241773097
 31
0.0
  0
LINE
  5
4DA
330
1F
100
AcDbEntity
  8
0
100
AcDbLine
 10
1089.565613376859
 20
1181.513241773097
 30
0.0
 11
1090.565613376859
 21
1177.224976077535
 31
0.0
  0
ARC
  5
4DB
330
1F
100
AcDbEntity
  8
0
100
AcDbCircle
 10
1072.511632213185
 20
1177.513241773097
 30
0.0
 40
2.0
100
AcDbArc
 50
90.0
 51
166.7014218803382
  0
ARC
  5
4DC
330
1F
100
AcDbEntity
  8
0
100
AcDbCircle
 10
1080.565613376859
 20
1185.513241773097
 30
0.0
 40
1.0
100
AcDbArc
 50
0.0
 51
90.0
  0
LINE
  5
4DD
330
1F
100
AcDbEntity
  8
0
100
AcDbLine
 10
1081.565613376859
 20
1185.513241773097
 30
0.0
 11
1081.565613376859
 21
1180.513241773097
 31
0.0
  0
ARC
  5
4DE
330
1F
100
AcDbEntity
  8
0
100
AcDbCircle
 10
1080.565613376859
 20
1180.513241773097
 30
0.0
 40
1.0
100
AcDbArc
 50
270.0
 51
0.0
  0
LINE
  5
4DF
330
1F
100
AcDbEntity
  8
0
100
AcDbLine
 10
1036.211395632834
 20
1166.729844914002
 30
0.0
 11
1034.999802012684
 21
1177.73216173693
 31
0.0
  0
LINE
  5
4E0
102
{ACAD_REACTORS
330
4E2
102
}
330
1F
100
AcDbEntity
  8
0
100
AcDbLine
 10
1077.16860173257
 20
1173.161304915359
 30
0.0
 11
1077.16860173257
 21
1171.401304915359
 31
0.0
  0
LINE
  5
4E1
102
{ACAD_REACTORS
330
4E2
102
}
330
1F
100
AcDbEntity
  8
0
100
AcDbLine
 10
1085.46740505545
 20
1172.281304915359
 30
0.0
 11
1081.467405055451
 21
1174.681304915359
 31
0.0
  0
HATCH
  5
4E2
330
1F
100
AcDbEntity
  8
0
100
AcDbHatch
 10
0.0
 20
0.0
 30
0.0
210
0.0
220
0.0
230
1.0
  2
SOLID
 70
     1
 71
     1
 91
        1
 92
        7
 72
     0
 73
     1
 93
        7
 10
1081.467405055451
 20
1174.681304915359
 10
1081.467405055451
 20
1173.161304915359
 10
1077.16860173257
 20
1173.161304915359
 10
1077.16860173257
 20
1171.401304915359
 10
1081.46740505545
 20
1171.401304915359
 10
1081.467405055451
 20
1169.881304915359
 10
1085.46740505545
 20
1172.281304915359
 97
        7
330
4F4
330
4F5
330
4F2
330
4E0
330
4F8
330
4FB
330
4E1
 75
     0
 76
     1
 47
0.1422462603217867
 98
        1
 10
1082.602825565604
 20
1172.539017727233
  0
LINE
  5
4E3
330
1F
100
AcDbEntity
  8
0
100
AcDbLine
 10
1014.565613376859
 20
1177.224976077535
 30
0.0
 11
1014.565613376859
 21
1153.801507468659
 31
0.0
  0
ARC
  5
4E4
330
1F
100
AcDbEntity
  8
0
100
AcDbCircle
 10
1047.06561337686
 20
1173.513241773097
 30
0.0
 40
32.50000000000074
100
AcDbArc
 50
165.7499673021932
 51
194.2500326978068
  0
LINE
  5
4E5
330
1F
100
AcDbEntity
  8
CENTER05
100
AcDbLine
 10
1052.565613376859
 20
1191.049056779428
 30
0.0
 11
1052.565613376859
 21
1145.510831878616
 31
0.0
  0
LINE
  5
4E6
330
1F
100
AcDbEntity
  8
0
100
AcDbLine
 10
1046.914528281259
 20
1153.80150746866
 30
0.0
 11
1036.565613376859
 21
1153.80150746866
 31
0.0
  0
ARC
  5
4E7
330
1F
100
AcDbEntity
  8
0
100
AcDbCircle
 10
1039.193369242916
 20
1167.058224859752
 30
0.0
 40
3.0
100
AcDbArc
 50
186.2841868389698
 51
280.6196552761831
  0
ARC
  5
4E8
330
1F
100
AcDbEntity
  8
0
100
AcDbCircle
 10
1052.565613376859
 20
1157.013241773097
 30
0.0
 40
6.5
100
AcDbArc
 50
180.0
 51
0.0
  0
LINE
  5
4E9
330
1F
100
AcDbEntity
  8
0
100
AcDbLine
 10
1039.746234848067
 20
1164.109608298949
 30
0.0
 11
1066.647766713442
 21
1169.153645523706
 31
0.0
  0
ARC
  5
4EA
330
1F
100
AcDbEntity
  8
0
100
AcDbCircle
 10
1060.31561337686
 20
1166.694583914027
 30
0.0
 40
1.25
100
AcDbArc
 50
100.6196552761831
 51
180.0
  0
LINE
  5
4EB
330
1F
100
AcDbEntity
  8
0
100
AcDbLine
 10
1059.06561337686
 20
1166.694583914027
 30
0.0
 11
1059.06561337686
 21
1157.013241773097
 31
0.0
  0
LINE
  5
4EC
330
1F
100
AcDbEntity
  8
0
100
AcDbLine
 10
1046.065613376859
 20
1165.294491773097
 30
0.0
 11
1046.065613376859
 21
1157.013241773097
 31
0.0
  0
LINE
  5
4ED
102
{ACAD_REACTORS
330
505
102
}
330
1F
100
AcDbEntity
  8
0
100
AcDbLine
 10
1015.565613376858
 20
1149.513241773097
 30
0.0
 11
1014.565613376859
 21
1153.80150746866
 31
0.0
  0
ARC
  5
4EE
330
1F
100
AcDbEntity
  8
0
100
AcDbCircle
 10
1047.06561337686
 20
1157.513241773097
 30
0.0
 40
32.50000000000074
100
AcDbArc
 50
165.7499673021932
 51
194.2500326978068
  0
LINE
  5
4EF
330
1F
100
AcDbEntity
  8
0
100
AcDbLine
 10
1035.565613376859
 20
1149.513241773097
 30
0.0
 11
1036.565613376859
 21
1153.80150746866
 31
0.0
  0
ARC
  5
4F0
330
1F
100
AcDbEntity
  8
0
100
AcDbCircle
 10
1004.065613376859
 20
1157.513241773097
 30
0.0
 40
32.50000000000074
100
AcDbArc
 50
345.7499673021932
 51
14.2500326978068
  0
POINT
  5
4F1
330
1F
100
AcDbEntity
  8
Defpoints
  6
ByBlock
 62
     0
100
AcDbPoint
 10
1015.565613376858
 20
1149.513241773097
 30
0.0
 50
180.0
  0
LINE
  5
4F2
102
{ACAD_REACTORS
330
4E2
102
}
330
1F
100
AcDbEntity
  8
0
100
AcDbLine
 10
1081.467405055451
 20
1171.401304915359
 30
0.0
 11
1077.16860173257
 21
1171.401304915359
 31
0.0
  0
LINE
  5
4F3
330
1F
100
AcDbEntity
  8
0
100
AcDbLine
 10
1015.565613376858
 20
1165.513241773097
 30
0.0
 11
1035.565613376859
 21
1165.513241773097
 31
0.0
  0
LINE
  5
4F4
102
{ACAD_REACTORS
330
4E2
102
}
330
1F
100
AcDbEntity
  8
0
100
AcDbLine
 10
1085.46740505545
 20
1172.281304915359
 30
0.0
 11
1081.467405055451
 21
1169.881304915359
 31
0.0
  0
LINE
  5
4F5
102
{ACAD_REACTORS
330
4E2
102
}
330
1F
100
AcDbEntity
  8
0
100
AcDbLine
 10
1081.467405055451
 20
1171.401304915359
 30
0.0
 11
1081.467405055451
 21
1169.881304915359
 31
0.0
  0
ARC
  5
4F6
330
1F
100
AcDbEntity
  8
0
100
AcDbCircle
 10
1004.065613376859
 20
1173.513241773097
 30
0.0
 40
32.50000000000074
100
AcDbArc
 50
345.7499673021932
 51
350.0877859383416
  0
LINE
  5
4F7
330
1F
100
AcDbEntity
  8
0
100
AcDbLine
 10
1036.565613376859
 20
1165.610848229982
 30
0.0
 11
1036.565613376859
 21
1153.80150746866
 31
0.0
  0
LINE
  5
4F8
102
{ACAD_REACTORS
330
4E2
102
}
330
1F
100
AcDbEntity
  8
0
100
AcDbLine
 10
1081.467405055451
 20
1173.161304915359
 30
0.0
 11
1077.16860173257
 21
1173.161304915359
 31
0.0
  0
LINE
  5
4F9
330
1F
100
AcDbEntity
  8
0
100
AcDbLine
 10
1023.565613376858
 20
1181.513241773097
 30
0.0
 11
1015.565613376858
 21
1181.513241773097
 31
0.0
  0
ARC
  5
4FA
330
1F
100
AcDbEntity
  8
0
100
AcDbCircle
 10
1033.011819605962
 20
1177.513241773097
 30
0.0
 40
2.0
100
AcDbArc
 50
6.284186838969834
 51
90.0
  0
LINE
  5
4FB
102
{ACAD_REACTORS
330
4E2
102
}
330
1F
100
AcDbEntity
  8
0
100
AcDbLine
 10
1081.467405055451
 20
1174.681304915359
 30
0.0
 11
1081.467405055451
 21
1173.161304915359
 31
0.0
  0
ARC
  5
4FC
330
1F
100
AcDbEntity
  8
0
100
AcDbCircle
 10
1024.56561337686
 20
1185.513241773097
 30
0.0
 40
1.0
100
AcDbArc
 50
90.0
 51
180.0
  0
LINE
  5
4FD
330
1F
100
AcDbEntity
  8
0
100
AcDbLine
 10
1023.565613376858
 20
1185.513241773097
 30
0.0
 11
1023.565613376858
 21
1180.513241773097
 31
0.0
  0
ARC
  5
4FE
330
1F
100
AcDbEntity
  8
0
100
AcDbCircle
 10
1024.56561337686
 20
1180.513241773097
 30
0.0
 40
1.0
100
AcDbArc
 50
180.0
 51
270.0
  0
POINT
  5
4FF
330
1F
100
AcDbEntity
  8
Defpoints
  6
ByBlock
 62
     0
100
AcDbPoint
 10
1015.565613376858
 20
1181.513241773097
 30
0.0
 50
180.0
  0
LINE
  5
500
330
1F
100
AcDbEntity
  8
0
100
AcDbLine
 10
1015.565613376858
 20
1181.513241773097
 30
0.0
 11
1014.565613376859
 21
1177.224976077535
 31
0.0
  0
LINE
  5
501
330
1F
100
AcDbEntity
  8
CENTER05
100
AcDbLine
 10
1049.440613376859
 20
1157.013241773097
 30
0.0
 11
1056.128095127997
 21
1157.013241773097
 31
0.0
  0
TEXT
  5
502
330
1F
100
AcDbEntity
  8
TEXT
100
AcDbText
 10
1048.720966358536
 20
1170.229241535649
 30
0.0
 40
6.0
  1
\U+00BE"
  7
TNR
 11
1048.720966358536
 21
1173.229241535649
 31
0.0
100
AcDbText
 73
     2
  0
DIMENSION
  5
503
102
{ACAD_XDICTIONARY
360
504
102
}
102
{ACAD_REACTORS
330
505
102
}
330
1F
100
AcDbEntity
  8
DIM
100
AcDbDimension
  2
*D19
 10
1090.565613376859
 20
1141.086488831658
 30
0.0
 11
1052.565613376859
 21
1142.961488831658
 31
0.0
 70
    32
 71
     5
 42
75.99999999999932
  3
ISO-25
100
AcDbAlignedDimension
 13
1014.565613376859
 23
1153.80150746866
 33
0.0
 14
1090.565613376859
 24
1153.801507468659
 34
0.0
100
AcDbRotatedDimension
  0
POINT
  5
506
330
1F
100
AcDbEntity
  8
0
 60
     1
100
AcDbPoint
 10
3130.64017189312
 20
546.4224422517824
 30
0.0
1001
GENIUS_GENOBJ-N-CRS_13
1002
{
1000
OWNER
1000
GEN
1002
}
1001
GENIUS_GENOLIS_13
1002
{
1000
ENT
1005
0
1005
0
1005
0
1005
426
1002
}
1001
GENIUS_GENOENT_13
1002
{
1000
MYREF
1005
506
1002
}
1002
{
1000
GRP
1005
0
1002
}
1001
GENIUS_GENODEF_13
1002
{
1000
HIER
1070
    10
1002
}
1002
{
1000
MANEDIT
1070
     1
1002
}
1002
{
1000
NOSEL
1070
     0
1002
}
1002
{
1000
BEHIND
1070
     0
1002
}
1002
{
1000
OTHER
1070
     0
1002
}
1002
{
1000
REACTOR
1002
}
  0
POINT
  5
507
330
1F
100
AcDbEntity
  8
0
 60
     1
100
AcDbPoint
 10
3119.315586670265
 20
555.2980287304186
 30
0.0
1001
GENIUS_GENOBJ-N-CRS_13
1002
{
1000
OWNER
1000
GEN
1002
}
1001
GENIUS_GENOLIS_13
1002
{
1000
ENT
1005
0
1005
0
1005
0
1005
425
1002
}
1001
GENIUS_GENOENT_13
1002
{
1000
MYREF
1005
507
1002
}
1002
{
1000
GRP
1005
0
1002
}
1001
GENIUS_GENODEF_13
1002
{
1000
HIER
1070
    10
1002
}
1002
{
1000
MANEDIT
1070
     1
1002
}
1002
{
1000
NOSEL
1070
     0
1002
}
1002
{
1000
BEHIND
1070
     0
1002
}
1002
{
1000
OTHER
1070
     0
1002
}
1002
{
1000
REACTOR
1002
}
  0
POINT
  5
508
330
1F
100
AcDbEntity
  8
0
 60
     1
100
AcDbPoint
 10
3125.674260368102
 20
546.4224422517824
 30
0.0
1001
GENIUS_GENOBJ-N-CRS_13
1002
{
1000
OWNER
1000
GEN
1002
}
1001
GENIUS_GENOLIS_13
1002
{
1000
ENT
1005
0
1005
0
1005
0
1005
424
1002
}
1001
GENIUS_GENOENT_13
1002
{
1000
MYREF
1005
508
1002
}
1002
{
1000
GRP
1005
0
1002
}
1001
GENIUS_GENODEF_13
1002
{
1000
HIER
1070
    10
1002
}
1002
{
1000
MANEDIT
1070
     1
1002
}
1002
{
1000
NOSEL
1070
     0
1002
}
1002
{
1000
BEHIND
1070
     0
1002
}
1002
{
1000
OTHER
1070
     0
1002
}
1002
{
1000
REACTOR
1002
}
  0
ENDSEC
  0
SECTION
  2
OBJECTS
  0
DICTIONARY
  5
C
330
0
100
AcDbDictionary
281
     1
  3
ACAD_COLOR
350
BE
  3
ACAD_GROUP
350
D
  3
ACAD_LAYOUT
350
1A
  3
ACAD_MATERIAL
350
BD
  3
ACAD_MLINESTYLE
350
17
  3
ACAD_PLOTSETTINGS
350
19
  3
ACAD_PLOTSTYLENAME
350
E
  3
ACAD_TABLESTYLE
350
11A
  3
ACDBHEADERROUNDTRIPXREC
350
5B7
  3
AcDbVariableDictionary
350
94
  3
AcmDictionary
350
5B
  3
AMG
350
41
  3
AMGSNAPSETTINGS
350
1B8
  3
DWGPROPS
350
5B6
  0
DICTIONARY
  5
277
330
2
100
AcDbDictionary
280
     1
281
     1
  3
ACAD_LAYERSTATES
360
278
  0
DICTIONARY
  5
262
330
261
100
AcDbDictionary
280
     1
281
     1
  0
DICTIONARY
  5
265
330
264
100
AcDbDictionary
280
     1
281
     1
  0
DICTIONARY
  5
268
330
267
100
AcDbDictionary
280
     1
281
     1
  0
DICTIONARY
  5
8F
330
1F
100
AcDbDictionary
280
     1
281
     1
  0
DICTIONARY
  5
504
330
503
100
AcDbDictionary
280
     1
281
     1
  3
ACAD_DIMASSOC
360
505
  0
DICTIONARY
  5
BE
102
{ACAD_REACTORS
330
C
102
}
330
C
100
AcDbDictionary
281
     1
  0
DICTIONARY
  5
D
102
{ACAD_REACTORS
330
C
102
}
330
C
100
AcDbDictionary
281
     1
  0
DICTIONARY
  5
1A
102
{ACAD_REACTORS
330
C
102
}
330
C
100
AcDbDictionary
281
     1
  3
Model
350
22
  3
配置1
350
1E
  3
配置2
350
26
  0
DICTIONARY
  5
BD
102
{ACAD_REACTORS
330
C
102
}
330
C
100
AcDbDictionary
281
     1
  0
DICTIONARY
  5
17
102
{ACAD_REACTORS
330
C
102
}
330
C
100
AcDbDictionary
281
     1
  3
Standard
350
18
  0
DICTIONARY
  5
19
102
{ACAD_REACTORS
330
C
102
}
330
C
100
AcDbDictionary
281
     1
  0
ACDBDICTIONARYWDFLT
  5
E
102
{ACAD_REACTORS
330
C
102
}
330
C
100
AcDbDictionary
281
     1
  3
Normal
350
F
100
AcDbDictionaryWithDefault
340
F
  0
DICTIONARY
  5
11A
102
{ACAD_REACTORS
330
C
102
}
330
C
100
AcDbDictionary
281
     1
  3
Standard
350
11B
  0
DICTIONARY
  5
5B7
102
{ACAD_REACTORS
330
C
102
}
330
C
100
AcDbDictionary
281
     1
  0
DICTIONARY
  5
94
102
{ACAD_REACTORS
330
C
102
}
330
C
100
AcDbDictionary
281
     1
  3
CTABLESTYLE
350
138
  3
DIMASSOC
350
96
  3
INDEXCTL
350
95
  3
PROJECTNAME
350
5B4
  0
DICTIONARY
  5
5B
102
{ACAD_REACTORS
330
C
102
}
330
C
100
AcDbDictionary
281
     1
  3
AcmBOM
350
1B5
  3
AcmStdDictionary
350
61
  3
AMDTSECTSYM_ARROWCOLOR
350
123
  0
DICTIONARY
  5
41
102
{ACAD_REACTORS
330
C
102
}
330
C
100
AcDbDictionary
281
     1
  0
DICTIONARY
  5
1B8
102
{ACAD_REACTORS
330
C
102
}
330
C
100
AcDbDictionary
281
     1
  0
XRECORD
  5
5B6
102
{ACAD_REACTORS
330
C
102
}
330
C
100
AcDbXrecord
280
     1
  1
DWGPROPS COOKIE
  2

  3

  4

  6

  7

  8

  9

300
AmdtFileType=84
301
=
302
=
303
=
304
=
305
=
306
=
307
=
308
=
309
=
 40
0.0002009259259259
 41
2455812.606244572
 42
2455812.606444943
  1

 90
        1
  0
DICTIONARY
  5
278
102
{ACAD_REACTORS
330
277
102
}
330
277
100
AcDbDictionary
281
     1
  0
DIMASSOC
  5
505
102
{ACAD_REACTORS
330
504
102
}
330
504
100
AcDbDimAssoc
330
503
 90
        3
 70
     0
 71
     0
  1
AcDbOsnapPointRef
 72
     1
331
4ED
 73
     2
 91
        0
 40
0.9999999999999998
 10
0.0
 20
0.0
 30
2.000000000000000E+50
 75
     0
  1
AcDbOsnapPointRef
 72
     1
331
4D1
 73
     2
 91
        0
 40
1.0
 10
0.0
 20
0.0
 30
2.000000000000000E+50
 75
     0
  0
LAYOUT
  5
22
102
{ACAD_XDICTIONARY
360
5BA
102
}
102
{ACAD_REACTORS
330
1A
102
}
330
1A
100
AcDbPlotSettings
  1

  2

  4

  6

 40
0.0
 41
0.0
 42
0.0
 43
0.0
 44
0.0
 45
0.0
 46
0.0
 47
0.0
 48
0.0
 49
0.0
140
0.0
141
0.0
142
1.0
143
1.0
 70
  1712
 72
     0
 73
     0
 74
     0
  7

 75
     0
147
1.0
148
0.0
149
0.0
100
AcDbLayout
  1
Model
 70
     1
 71
     0
 10
0.0
 20
0.0
 11
12.0
 21
9.0
 12
0.0
 22
0.0
 32
0.0
 14
0.0
 24
0.0
 34
0.0
 15
0.0
 25
0.0
 35
0.0
146
0.0
 13
0.0
 23
0.0
 33
0.0
 16
1.0
 26
0.0
 36
0.0
 17
0.0
 27
1.0
 37
0.0
 76
     0
330
1F
  0
LAYOUT
  5
1E
102
{ACAD_XDICTIONARY
360
5B8
102
}
102
{ACAD_REACTORS
330
1A
102
}
330
1A
100
AcDbPlotSettings
  1

  2

  4

  6

 40
0.0
 41
0.0
 42
0.0
 43
0.0
 44
0.0
 45
0.0
 46
0.0
 47
0.0
 48
0.0
 49
0.0
140
0.0
141
0.0
142
1.0
143
1.0
 70
   688
 72
     0
 73
     0
 74
     5
  7

 75
    16
147
1.0
148
0.0
149
0.0
100
AcDbLayout
  1
配置1
 70
     1
 71
     1
 10
0.0
 20
0.0
 11
420.0
 21
297.0
 12
0.0
 22
0.0
 32
0.0
 14
1.000000000000000E+20
 24
1.000000000000000E+20
 34
1.000000000000000E+20
 15
-1.000000000000000E+20
 25
-1.000000000000000E+20
 35
-1.000000000000000E+20
146
0.0
 13
0.0
 23
0.0
 33
0.0
 16
1.0
 26
0.0
 36
0.0
 17
0.0
 27
1.0
 37
0.0
 76
     0
330
1B
  0
LAYOUT
  5
26
102
{ACAD_XDICTIONARY
360
5BC
102
}
102
{ACAD_REACTORS
330
1A
102
}
330
1A
100
AcDbPlotSettings
  1

  2

  4

  6

 40
0.0
 41
0.0
 42
0.0
 43
0.0
 44
0.0
 45
0.0
 46
0.0
 47
0.0
 48
0.0
 49
0.0
140
0.0
141
0.0
142
1.0
143
1.0
 70
   688
 72
     0
 73
     0
 74
     5
  7

 75
    16
147
1.0
148
0.0
149
0.0
100
AcDbLayout
  1
配置2
 70
     1
 71
     2
 10
0.0
 20
0.0
 11
12.0
 21
9.0
 12
0.0
 22
0.0
 32
0.0
 14
0.0
 24
0.0
 34
0.0
 15
0.0
 25
0.0
 35
0.0
146
0.0
 13
0.0
 23
0.0
 33
0.0
 16
1.0
 26
0.0
 36
0.0
 17
0.0
 27
1.0
 37
0.0
 76
     0
330
23
  0
MLINESTYLE
  5
18
102
{ACAD_REACTORS
330
17
102
}
330
17
100
AcDbMlineStyle
  2
STANDARD
 70
     0
  3

 62
   256
 51
90.0
 52
90.0
 71
     2
 49
0.5
 62
   256
  6
BYLAYER
 49
-0.5
 62
   256
  6
BYLAYER
  0
ACDBPLACEHOLDER
  5
F
102
{ACAD_REACTORS
330
E
102
}
330
E
  0
TABLESTYLE
  5
11B
102
{ACAD_REACTORS
330
11A
102
}
330
11A
100
AcDbTableStyle
  3
Standard
 70
     0
 71
     0
 40
1.5
 41
1.5
280
     0
281
     0
  7
STANDARD
140
4.5
170
     2
 62
     0
 63
     7
283
     0
274
    -2
284
     1
 64
     0
275
    -2
285
     1
 65
     0
276
    -2
286
     1
 66
     0
277
    -2
287
     1
 67
     0
278
    -2
288
     1
 68
     0
279
    -2
289
     1
 69
     0
  7
STANDARD
140
6.0
170
     5
 62
     0
 63
     7
283
     0
274
    -2
284
     1
 64
     0
275
    -2
285
     1
 65
     0
276
    -2
286
     1
 66
     0
277
    -2
287
     1
 67
     0
278
    -2
288
     1
 68
     0
279
    -2
289
     1
 69
     0
  7
STANDARD
140
4.5
170
     5
 62
     0
 63
     7
283
     0
274
    -2
284
     1
 64
     0
275
    -2
285
     1
 65
     0
276
    -2
286
     1
 66
     0
277
    -2
287
     1
 67
     0
278
    -2
288
     1
 68
     0
279
    -2
289
     1
 69
     0
  0
DICTIONARYVAR
  5
138
102
{ACAD_REACTORS
330
94
102
}
330
94
100
DictionaryVariables
280
     0
  1
STANDARD
  0
DICTIONARYVAR
  5
96
102
{ACAD_REACTORS
330
94
102
}
330
94
100
DictionaryVariables
280
     0
  1
2
  0
DICTIONARYVAR
  5
95
102
{ACAD_REACTORS
330
94
102
}
330
94
100
DictionaryVariables
280
     0
  1
0
  0
DICTIONARYVAR
  5
5B4
102
{ACAD_REACTORS
330
94
102
}
330
94
100
DictionaryVariables
280
     0
  1

  0
DICTIONARY
  5
1B5
102
{ACAD_REACTORS
330
5B
102
}
330
5B
100
AcDbDictionary
281
     1
  0
DICTIONARY
  5
61
102
{ACAD_REACTORS
330
5B
102
}
330
5B
100
AcDbDictionary
281
     1
  0
XRECORD
  5
123
102
{ACAD_REACTORS
330
5B
102
}
330
5B
100
AcDbXrecord
280
     1
 90
-1023410169
  0
DICTIONARY
  5
5BA
330
22
100
AcDbDictionary
280
     1
281
     1
  3
ACAD_XREC_ROUNDTRIP
360
5BB
  0
DICTIONARY
  5
5B8
330
1E
100
AcDbDictionary
280
     1
281
     1
  3
ACAD_XREC_ROUNDTRIP
360
5B9
  0
DICTIONARY
  5
5BC
330
26
100
AcDbDictionary
280
     1
281
     1
  3
ACAD_XREC_ROUNDTRIP
360
5BD
  0
XRECORD
  5
5BB
102
{ACAD_REACTORS
330
5BA
102
}
330
5BA
100
AcDbXrecord
280
     1
102
SHADEPLOT
 70
     0
102
SHADEPLOTRESLEVEL
 70
     2
102
SHADEPLOTCUSTOMDPI
 70
   300
  0
XRECORD
  5
5B9
102
{ACAD_REACTORS
330
5B8
102
}
330
5B8
100
AcDbXrecord
280
     1
102
SHADEPLOT
 70
     0
102
SHADEPLOTRESLEVEL
 70
     2
102
SHADEPLOTCUSTOMDPI
 70
   300
  0
XRECORD
  5
5BD
102
{ACAD_REACTORS
330
5BC
102
}
330
5BC
100
AcDbXrecord
280
     1
102
SHADEPLOT
 70
     0
102
SHADEPLOTRESLEVEL
 70
     2
102
SHADEPLOTCUSTOMDPI
 70
   300
  0
ENDSEC
  0
EOF
