  0
SECTION
  2
HEADER
  9
$ACADVER
  1
AC1009
  9
$INSBASE
 10
0.0
 20
0.0
 30
0.0
  9
$EXTMIN
 10
202.62799815956311
 20
-99.967201904478316
 30
-0.0299921552795013
  9
$EXTMAX
 10
1146.4934459034539
 20
904.99185359723469
 30
393.17317911122842
  9
$LIMMIN
 10
0.0
 20
0.0
  9
$LIMMAX
 10
420.0
 20
297.0
  9
$ORTHOMODE
 70
     0
  9
$REGENMODE
 70
     1
  9
$FILLMODE
 70
     1
  9
$QTEXTMODE
 70
     0
  9
$MIRRTEXT
 70
     1
  9
$DRAGMODE
 70
     2
  9
$LTSCALE
 40
1.0
  9
$OSMODE
 70
    37
  9
$ATTMODE
 70
     1
  9
$TEXTSIZE
 40
3.0
  9
$TRACEWID
 40
1.0
  9
$TEXTSTYLE
  7
STANDARD
  9
$CLAYER
  8
0
  9
$CELTYPE
  6
BYLAYER
  9
$CECOLOR
 62
   256
  9
$DIMSCALE
 40
1.0
  9
$DIMASZ
 40
3.0
  9
$DIMEXO
 40
1.5
  9
$DIMDLI
 40
8.0
  9
$DIMRND
 40
0.0
  9
$DIMDLE
 40
0.0
  9
$DIMEXE
 40
1.5
  9
$DIMTP
 40
0.1
  9
$DIMTM
 40
0.1
  9
$DIMTXT
 40
3.5
  9
$DIMCEN
 40
0.0
  9
$DIMTSZ
 40
0.0
  9
$DIMTOL
 70
     0
  9
$DIMLIM
 70
     0
  9
$DIMTIH
 70
     0
  9
$DIMTOH
 70
     0
  9
$DIMSE1
 70
     0
  9
$DIMSE2
 70
     0
  9
$DIMTAD
 70
     1
  9
$DIMZIN
 70
     8
  9
$DIMBLK
  1

  9
$DIMASO
 70
     1
  9
$DIMSHO
 70
     1
  9
$DIMPOST
  1

  9
$DIMAPOST
  1
"
  9
$DIMALT
 70
     0
  9
$DIMALTD
 70
     2
  9
$DIMALTF
 40
0.0393701
  9
$DIMLFAC
 40
1.0
  9
$DIMTOFL
 70
     1
  9
$DIMTVP
 40
0.0
  9
$DIMTIX
 70
     0
  9
$DIMSOXD
 70
     0
  9
$DIMSAH
 70
     0
  9
$DIMBLK1
  1

  9
$DIMBLK2
  1

  9
$DIMSTYLE
  2
AM_ISO
  9
$DIMCLRD
 70
   256
  9
$DIMCLRE
 70
   256
  9
$DIMCLRT
 70
   256
  9
$DIMTFAC
 40
0.6
  9
$DIMGAP
 40
1.0
  9
$LUNITS
 70
     2
  9
$LUPREC
 70
     2
  9
$SKETCHINC
 40
1.0
  9
$FILLETRAD
 40
2.5
  9
$AUNITS
 70
     0
  9
$AUPREC
 70
     0
  9
$MENU
  1
.
  9
$ELEVATION
 40
0.0
  9
$PELEVATION
 40
0.0
  9
$THICKNESS
 40
0.0
  9
$LIMCHECK
 70
     0
  9
$BLIPMODE
 70
     0
  9
$CHAMFERA
 40
2.5
  9
$CHAMFERB
 40
2.5
  9
$SKPOLY
 70
     0
  9
$TDCREATE
 40
2454513.4947046759
  9
$TDUPDATE
 40
2454951.5709280898
  9
$TDINDWG
 40
0.4458246412
  9
$TDUSRTIMER
 40
0.445824456
  9
$USRTIMER
 70
     1
  9
$ANGBASE
 50
0.0
  9
$ANGDIR
 70
     0
  9
$PDMODE
 70
     0
  9
$PDSIZE
 40
0.0
  9
$PLINEWID
 40
0.0
  9
$COORDS
 70
     1
  9
$SPLFRAME
 70
     0
  9
$SPLINETYPE
 70
     6
  9
$SPLINESEGS
 70
     8
  9
$ATTDIA
 70
     1
  9
$ATTREQ
 70
     1
  9
$HANDLING
 70
     1
  9
$HANDSEED
  5
552E
  9
$SURFTAB1
 70
     6
  9
$SURFTAB2
 70
     6
  9
$SURFTYPE
 70
     6
  9
$SURFU
 70
     6
  9
$SURFV
 70
     6
  9
$UCSNAME
  2

  9
$UCSORG
 10
0.0
 20
0.0
 30
0.0
  9
$UCSXDIR
 10
1.0
 20
0.0
 30
0.0
  9
$UCSYDIR
 10
0.0
 20
1.0
 30
0.0
  9
$PUCSNAME
  2

  9
$PUCSORG
 10
0.0
 20
0.0
 30
0.0
  9
$PUCSXDIR
 10
1.0
 20
0.0
 30
0.0
  9
$PUCSYDIR
 10
0.0
 20
1.0
 30
0.0
  9
$USERI1
 70
     0
  9
$USERI2
 70
     0
  9
$USERI3
 70
     0
  9
$USERI4
 70
     0
  9
$USERI5
 70
     0
  9
$USERR1
 40
0.0
  9
$USERR2
 40
0.0
  9
$USERR3
 40
0.0
  9
$USERR4
 40
0.0
  9
$USERR5
 40
0.0
  9
$WORLDVIEW
 70
     1
  9
$SHADEDGE
 70
     3
  9
$SHADEDIF
 70
    70
  9
$TILEMODE
 70
     1
  9
$MAXACTVP
 70
    64
  9
$PLIMCHECK
 70
     0
  9
$PEXTMIN
 10
1.0000000000000000E+020
 20
1.0000000000000000E+020
 30
1.0000000000000000E+020
  9
$PEXTMAX
 10
-1.0000000000000000E+020
 20
-1.0000000000000000E+020
 30
-1.0000000000000000E+020
  9
$PLIMMIN
 10
0.0
 20
0.0
  9
$PLIMMAX
 10
420.0
 20
297.0
  9
$UNITMODE
 70
     0
  9
$VISRETAIN
 70
     1
  9
$PLINEGEN
 70
     0
  9
$PSLTSCALE
 70
     1
  0
ENDSEC
  0
SECTION
  2
TABLES
  0
TABLE
  2
VPORT
 70
     4
  0
VPORT
  2
*ACTIVE
 70
     0
 10
0.0
 20
0.0
 11
1.0
 21
1.0
 12
674.56072203150836
 22
402.51232584637808
 13
0.0
 23
0.0
 14
2.5
 24
2.5
 15
10.0
 25
10.0
 16
0.0
 26
0.0
 36
1.0
 17
0.0
 27
0.0
 37
0.0
 40
1018.7554138205099
 41
0.9342969776609724
 42
50.0
 43
0.0
 44
0.0
 50
0.0
 51
0.0
 71
     0
 72
   100
 73
     1
 74
     3
 75
     0
 76
     0
 77
     0
 78
     0
  0
ENDTAB
  0
TABLE
  2
LTYPE
 70
    17
  0
LTYPE
  2
CONTINUOUS
 70
     0
  3
Solid line
 72
    65
 73
     0
 40
0.0
  0
LTYPE
  2
AM_ISO02W050
 70
     0
  3
__ __ __ __ __ __ __ __ __ __ __ __ __ __ __
 72
    65
 73
     2
 40
7.5
 49
6.0
 49
-1.5
  0
LTYPE
  2
AM_ISO08W050
 70
     0
  3
____ . ____ . ____ . ____ . ____ . ____ . ____
 72
    65
 73
     4
 40
18.0
 49
12.0
 49
-1.5
 49
3.0
 49
-1.5
  0
LTYPE
  2
AM_ISO09W050
 70
     0
  3
_____ . . _____ . . _____ . . ____ .. ____
 72
    65
 73
     6
 40
22.5
 49
12.0
 49
-1.5
 49
3.0
 49
-1.5
 49
3.0
 49
-1.5
  0
LTYPE
  2
AMCONSTR
 70
     0
  3
_______________________
 72
    65
 73
     2
 40
9999.0
 49
9999.0
 49
0.0
  0
LTYPE
  2
AM_ISO08W050X2
 70
     0
  3
__ . __ . __ . __ . __ . __
 72
    65
 73
     4
 40
9.0
 49
6.0
 49
-0.75
 49
1.5
 49
-0.75
  0
LTYPE
  2
AM_ISO02W050X2
 70
     0
  3
 _ _ _ _ _ _ _ _ _ _ _ _
 72
    65
 73
     2
 40
3.75
 49
3.0
 49
-0.75
  0
LTYPE
  2
AMZIGZAG
 70
     0
  3
/\/-/\/-/\/-/\/-/\/-/\/
 72
    65
 73
     2
 40
11.0001
 49
0.0001
 49
-11.0
  0
LTYPE
  2
ACISOWELD
 70
     0
  3
_ _ _ _ _
 72
    65
 73
     2
 40
2.0
 49
2.0
 49
-1.0
  0
LTYPE
  2
ACISOTGB
 70
     0
  3
__ . . __ . .
 72
    65
 73
     6
 40
9.0
 49
4.0
 49
-1.0
 49
1.0
 49
-1.0
 49
1.0
 49
-1.0
  0
LTYPE
  2
ACISOTGL
 70
     0
  3
_ _ _ _ _
 72
    65
 73
     2
 40
3.0
 49
2.0
 49
-1.0
  0
LTYPE
  2
CENTER
 70
     0
  3
__ . __
 72
    65
 73
     4
 40
7.0
 49
4.0
 49
-1.0
 49
1.0
 49
-1.0
  0
LTYPE
  2
HIDDEN
 70
     0
  3
Hidden __ __ __ __ __ __ __ __ __ __ __ __ __ _
 72
    65
 73
     2
 40
9.5249999999999986
 49
6.3499999999999988
 49
-3.1749999999999989
  0
LTYPE
  2
PHANTOM2
 70
     0
  3
Phantom (.5x) ___ _ _ ___ _ _ ___ _ _ ___ _ _
 72
    65
 73
     6
 40
31.75
 49
15.875
 49
-3.1749999999999989
 49
3.1749999999999989
 49
-3.1749999999999989
 49
3.1749999999999989
 49
-3.1749999999999989
  0
LTYPE
  2
ACANSTGB
 70
     0
  3
__ . . __ . .
 72
    65
 73
     6
 40
0.35433070866
 49
0.15748031496
 49
-0.03937007874
 49
0.03937007874
 49
-0.03937007874
 49
0.03937007874
 49
-0.03937007874
  0
LTYPE
  2
ACANSTGL
 70
     0
  3
_ _ _ _ _
 72
    65
 73
     2
 40
0.11811023622
 49
0.07874015748
 49
-0.03937007874
  0
LTYPE
  2
PHANTOM
 70
     0
  3
__________ _ _ __________ _ _ __________ _ _ 
 72
    65
 73
     6
 40
15.0
 49
10.0
 49
-1.0
 49
1.0
 49
-1.0
 49
1.0
 49
-1.0
  0
ENDTAB
  0
TABLE
  2
LAYER
 70
     9
  0
LAYER
  2
0
 70
     0
 62
     7
  6
CONTINUOUS
  0
LAYER
  2
UMCL1
 70
     0
 62
     7
  6
CONTINUOUS
  0
LAYER
  2
AM_7
 70
     0
 62
     1
  6
CENTER
  0
LAYER
  2
AM_5
 70
     0
 62
     5
  6
CONTINUOUS
  0
LAYER
  2
LOGO
 70
     0
 62
     7
  6
CONTINUOUS
  0
LAYER
  2
DEFPOINTS
 70
     0
 62
     7
  6
CONTINUOUS
  0
LAYER
  2
UMCL2
 70
     0
 62
     5
  6
CONTINUOUS
  0
LAYER
  2
CEN
 70
     0
 62
     1
  6
CENTER
  0
LAYER
  2
HIDDEN
 70
     0
 62
     3
  6
AM_ISO02W050
  0
ENDTAB
  0
TABLE
  2
STYLE
 70
     8
  0
STYLE
  2
STANDARD
 70
     0
 40
0.0
 41
1.0
 50
0.0
 71
     0
 42
3.0
  3
ISOCP.SHX
  4
CHINESET.SHX
  0
STYLE
  2

 70
     1
 40
0.0
 41
1.0
 50
0.0
 71
     0
 42
2.5
  3
ltypeshp.shx
  4

  0
STYLE
  2
ACISOTS
 70
     0
 40
1.0
 41
1.0
 50
0.0
 71
     0
 42
1.0
  3
isocp.shx
  4
chineset.shx
  0
STYLE
  2
ACISOGDT
 70
     0
 40
0.0
 41
1.0
 50
0.0
 71
     0
 42
2.5
  3
amgdt.shx
  4
chineset.shx
  0
STYLE
  2
ROMANS
 70
     0
 40
0.0
 41
1.0
 50
0.0
 71
     0
 42
3.0
  3
ROMANS.SHX
  4
LMP
  0
STYLE
  2
ACANSTS
 70
     0
 40
1.0
 41
1.0
 50
0.0
 71
     0
 42
2.5
  3
romans.shx
  4
chineset.shx
  0
STYLE
  2
ACANSGDT
 70
     0
 40
0.0
 41
1.0
 50
0.0
 71
     0
 42
2.5
  3
amgdtans.shx
  4

  0
STYLE
  2
CHINESET
 70
     0
 40
0.0
 41
1.0
 50
0.0
 71
     0
 42
3.0
  3
simplex.shx
  4
CHINESET.SHX
  0
ENDTAB
  0
TABLE
  2
VIEW
 70
     0
  0
ENDTAB
  0
TABLE
  2
UCS
 70
     0
  0
ENDTAB
  0
TABLE
  2
APPID
 70
    21
  0
APPID
  2
ACAD
 70
     0
  0
APPID
  2
MCAD_NO_VIS
 70
     0
  0
APPID
  2
ACAD_TEMP_GRAPHIC
 70
     0
  0
APPID
  2
ACATTRIBSERVICES
 70
     0
  0
APPID
  2
AD_DRAW
 70
     0
  0
APPID
  2
DESIGNERASSEMBLIES
 70
     0
  0
APPID
  2
ACADM_DIM_EDIT
 70
     0
  0
APPID
  2
AMDT_DM_ADJ
 70
     0
  0
APPID
  2
ACAD_DSTYLE_DIMTEXT_FILL
 70
     0
  0
APPID
  2
GENIUS_GENOENT_13
 70
     0
  0
APPID
  2
GENIUS_GENOBJ-N-CRS_13
 70
     0
  0
APPID
  2
GENIUS_GENOLIS_13
 70
     0
  0
APPID
  2
GENIUS_GENODEF_13
 70
     0
  0
APPID
  2
GENIUS_GENOREF_13
 70
     0
  0
APPID
  2
ACAD_PSEXT
 70
     0
  0
APPID
  2
GENIUS_GENDTOL_13
 70
     0
  0
APPID
  2
GENIUS_GENOBJ-N-CEN_13
 70
     0
  0
APPID
  2
GENIUS_GENCEN_19
 70
     0
  0
APPID
  2
GENIUS_GENREC_14
 70
     0
  0
APPID
  2
GENIUS_GENOBJ-N-REC_13
 70
     0
  0
APPID
  2
ACAECLAYERSTANDARD
 70
     0
  0
ENDTAB
  0
TABLE
  2
DIMSTYLE
 70
    15
  0
DIMSTYLE
  2
AM_ISO
 70
     0
  3

  4
"
  5

  6

  7

 40
1.0
 41
3.0
 42
1.5
 43
8.0
 44
1.5
 45
0.0
 46
0.0
 47
0.1
 48
0.1
140
3.5
141
0.0
142
0.0
143
0.0393701
144
1.0
145
0.0
146
0.6
147
1.0
 71
     0
 72
     0
 73
     0
 74
     0
 75
     0
 76
     0
 77
     1
 78
     8
170
     0
171
     2
172
     1
173
     0
174
     0
175
     0
176
   256
177
   256
178
   256
  0
DIMSTYLE
  2
AM_ISO$3
 70
     0
  3

  4
"
  5

  6

  7

 40
1.0
 41
3.0
 42
1.5
 43
8.0
 44
1.5
 45
0.0
 46
0.0
 47
0.1
 48
0.1
140
3.5
141
0.0
142
0.0
143
0.0393701
144
1.0
145
0.0
146
0.6
147
1.0
 71
     0
 72
     0
 73
     0
 74
     1
 75
     0
 76
     0
 77
     1
 78
     8
170
     0
171
     2
172
     0
173
     0
174
     0
175
     0
176
   256
177
   256
178
   256
  0
DIMSTYLE
  2
AM_ISO$4
 70
     0
  3

  4
"
  5

  6

  7

 40
1.0
 41
3.0
 42
1.5
 43
8.0
 44
1.5
 45
0.0
 46
0.0
 47
0.1
 48
0.1
140
3.5
141
0.0
142
0.0
143
0.0393701
144
1.0
145
0.0
146
0.6
147
1.0
 71
     0
 72
     0
 73
     0
 74
     1
 75
     0
 76
     0
 77
     1
 78
     8
170
     0
171
     2
172
     0
173
     0
174
     0
175
     0
176
   256
177
   256
178
   256
  0
DIMSTYLE
  2
AM_ISO$6
 70
     0
  3

  4
"
  5

  6

  7

 40
1.0
 41
3.0
 42
1.5
 43
8.0
 44
1.5
 45
0.0
 46
0.0
 47
0.1
 48
0.1
140
3.5
141
0.0
142
0.0
143
0.0393701
144
1.0
145
0.0
146
0.6
147
1.0
 71
     0
 72
     0
 73
     0
 74
     0
 75
     0
 76
     0
 77
     0
 78
     8
170
     0
171
     2
172
     1
173
     0
174
     0
175
     0
176
   256
177
   256
178
   256
  0
DIMSTYLE
  2
AM_ISO$7
 70
     0
  3

  4
"
  5

  6

  7

 40
1.0
 41
3.0
 42
1.5
 43
8.0
 44
1.5
 45
0.0
 46
0.0
 47
0.1
 48
0.1
140
5.0
141
0.0
142
0.0
143
0.0393701
144
1.0
145
0.0
146
0.6
147
1.0
 71
     0
 72
     0
 73
     0
 74
     0
 75
     0
 76
     0
 77
     1
 78
     8
170
     0
171
     2
172
     1
173
     0
174
     0
175
     0
176
   256
177
   256
178
   256
  0
DIMSTYLE
  2
AM_ISO$SF
 70
     0
  3

  4
"
  5

  6

  7

 40
1.0
 41
2.5
 42
1.0
 43
10.0
 44
1.0
 45
0.0
 46
0.0
 47
0.1
 48
0.1
140
3.5
141
0.0
142
0.0
143
0.0393701
144
1.0
145
0.0
146
0.71
147
1.5
 71
     0
 72
     0
 73
     0
 74
     0
 75
     1
 76
     1
 77
     1
 78
     8
170
     0
171
     2
172
     1
173
     0
174
     0
175
     0
176
   256
177
   256
178
     2
  0
DIMSTYLE
  2
AM_ISO$SH
 70
     0
  3

  4
"
  5

  6
GENAXEH
  7

 40
1.0
 41
2.5
 42
1.0
 43
10.0
 44
1.0
 45
0.0
 46
0.0
 47
0.1
 48
0.1
140
3.5
141
0.0
142
0.0
143
0.0393701
144
2.0
145
0.0
146
0.71
147
1.5
 71
     0
 72
     0
 73
     0
 74
     0
 75
     1
 76
     1
 77
     1
 78
     8
170
     0
171
     2
172
     1
173
     1
174
     0
175
     0
176
   256
177
   256
178
     2
  0
DIMSTYLE
  2
AM_ISO$0
 70
     0
  3

  4
"
  5

  6

  7

 40
1.0
 41
3.0
 42
1.5
 43
8.0
 44
1.5
 45
0.0
 46
0.0
 47
0.1
 48
0.1
140
3.5
141
0.0
142
0.0
143
0.0393701
144
1.0
145
0.0
146
0.6
147
1.0
 71
     0
 72
     0
 73
     0
 74
     0
 75
     0
 76
     0
 77
     1
 78
     8
170
     0
171
     2
172
     1
173
     0
174
     0
175
     0
176
   256
177
   256
178
   256
  0
DIMSTYLE
  2
AM_ANSI
 70
     0
  3

  4
mm
  5

  6

  7

 40
1.0
 41
0.1
 42
0.05
 43
0.5
 44
0.1
 45
0.0
 46
0.0
 47
0.1
 48
0.1
140
0.12
141
0.0
142
0.0
143
25.399999999999999
144
1.0
145
0.0
146
0.71
147
0.06
 71
     0
 72
     0
 73
     1
 74
     1
 75
     0
 76
     0
 77
     0
 78
     7
170
     0
171
     2
172
     0
173
     0
174
     0
175
     0
176
   256
177
   256
178
     2
  0
DIMSTYLE
  2
AM_ANSI$3
 70
     0
  3

  4
mm
  5

  6

  7

 40
1.0
 41
0.1
 42
0.05
 43
0.5
 44
0.1
 45
0.0
 46
0.0
 47
0.1
 48
0.1
140
0.12
141
0.0
142
0.0
143
25.399999999999999
144
1.0
145
0.0
146
0.71
147
0.06
 71
     0
 72
     0
 73
     1
 74
     1
 75
     0
 76
     0
 77
     0
 78
     7
170
     0
171
     2
172
     0
173
     0
174
     0
175
     0
176
   256
177
   256
178
     2
  0
DIMSTYLE
  2
AM_ANSI$4
 70
     0
  3

  4
mm
  5

  6

  7

 40
1.0
 41
0.1
 42
0.05
 43
0.5
 44
0.1
 45
0.0
 46
0.0
 47
0.1
 48
0.1
140
0.12
141
0.0
142
0.0
143
25.399999999999999
144
1.0
145
0.0
146
0.71
147
0.06
 71
     0
 72
     0
 73
     1
 74
     1
 75
     0
 76
     0
 77
     0
 78
     7
170
     0
171
     2
172
     0
173
     0
174
     0
175
     0
176
   256
177
   256
178
     2
  0
DIMSTYLE
  2
AM_ANSI$7
 70
     0
  3

  4
mm
  5

  6

  7

 40
1.0
 41
0.1
 42
0.05
 43
0.5
 44
0.1
 45
0.0
 46
0.0
 47
0.1
 48
0.1
140
0.24
141
0.0
142
0.0
143
25.399999999999999
144
1.0
145
0.0
146
0.71
147
0.06
 71
     0
 72
     0
 73
     1
 74
     1
 75
     0
 76
     0
 77
     0
 78
     7
170
     0
171
     2
172
     0
173
     0
174
     0
175
     0
176
   256
177
   256
178
     2
  0
DIMSTYLE
  2
AM_ANSI$SF
 70
     0
  3

  4
mm
  5

  6

  7

 40
1.0
 41
0.1
 42
0.05
 43
0.5
 44
0.1
 45
0.0
 46
0.0
 47
0.1
 48
0.1
140
0.12
141
0.0
142
0.0
143
25.399999999999999
144
1.0
145
0.0
146
0.71
147
0.06
 71
     0
 72
     0
 73
     1
 74
     1
 75
     1
 76
     1
 77
     0
 78
     7
170
     0
171
     2
172
     0
173
     0
174
     0
175
     0
176
   256
177
   256
178
     2
  0
DIMSTYLE
  2
AM_ANSI$SH
 70
     0
  3

  4
mm
  5

  6
GENAXEH
  7

 40
1.0
 41
0.1
 42
0.05
 43
0.5
 44
0.1
 45
0.0
 46
0.0
 47
0.1
 48
0.1
140
0.12
141
0.0
142
0.0
143
25.399999999999999
144
1.0
145
0.0
146
0.71
147
0.06
 71
     0
 72
     0
 73
     1
 74
     1
 75
     1
 76
     1
 77
     0
 78
     7
170
     0
171
     2
172
     0
173
     1
174
     0
175
     0
176
   256
177
   256
178
     2
  0
DIMSTYLE
  2
STANDARD
 70
     0
  3

  4

  5

  6

  7

 40
1.0
 41
0.18
 42
0.0625
 43
0.38
 44
0.18
 45
0.0
 46
0.0
 47
0.0
 48
0.0
140
0.18
141
0.09
142
0.0
143
25.399999999999999
144
1.0
145
0.0
146
1.0
147
0.09
 71
     0
 72
     0
 73
     1
 74
     1
 75
     0
 76
     0
 77
     0
 78
     0
170
     0
171
     2
172
     0
173
     0
174
     0
175
     0
176
     0
177
     0
178
     0
  0
ENDTAB
  0
ENDSEC
  0
SECTION
  2
BLOCKS
  0
BLOCK
  8
0
  2
$MODEL_SPACE
 70
     0
 10
0.0
 20
0.0
 30
0.0
  3
$MODEL_SPACE
  1

  0
ENDBLK
  5
21
  8
0
  0
BLOCK
 67
     1
  8
0
  2
$PAPER_SPACE
 70
     0
 10
0.0
 20
0.0
 30
0.0
  3
$PAPER_SPACE
  1

  0
ENDBLK
  5
1D
 67
     1
  8
0
  0
BLOCK
  8
0
  2
GENAXEH
 70
     0
 10
0.0
 20
0.0
 30
0.0
  3
GENAXEH
  1

  0
LINE
  5
88
  8
0
 10
-1.0
 20
0.0
 30
0.0
 11
1.0
 21
0.0
 31
0.0
  0
ENDBLK
  5
8A
  8
0
  0
BLOCK
  8
0
  2
*D2
 70
     1
 10
0.0
 20
0.0
 30
0.0
  3
*D2
  1

  0
LINE
  5
51F1
  8
AM_5
 10
739.44818319150932
 20
420.86072387077121
 30
0.0
 11
739.44818319150932
 21
432.33094002394762
 31
0.0
  0
LINE
  5
51F2
  8
AM_5
 10
879.44818319150966
 20
420.86072387077081
 30
0.0
 11
879.44818319150966
 21
432.33094002394762
 31
0.0
  0
LINE
  5
51F3
  8
AM_5
 10
742.44818319150932
 20
430.83094002394762
 30
0.0
 11
876.44818319150954
 21
430.83094002394762
 31
0.0
  0
SOLID
  5
51F4
  8
AM_5
 10
742.44818319150932
 20
431.33094002394762
 30
0.0
 11
742.44818319150932
 21
430.33094002394762
 31
0.0
 12
739.44818319150932
 22
430.83094002394762
 32
0.0
 13
739.44818319150932
 23
430.83094002394762
 33
0.0
  0
SOLID
  5
51F5
  8
AM_5
 10
876.44818319150954
 20
431.33094002394762
 30
0.0
 11
876.44818319150954
 21
430.33094002394762
 31
0.0
 12
879.44818319150966
 22
430.83094002394762
 32
0.0
 13
879.44818319150966
 23
430.83094002394762
 33
0.0
  0
INSERT
  5
51F6
  8
0
  2
*U67
 10
0.0
 20
0.0
 30
0.0
  0
POINT
  5
51F7
  8
DEFPOINTS
 62
     0
 10
739.44818319150932
 20
419.36072387077121
 30
0.0
  0
POINT
  5
51F8
  8
DEFPOINTS
 62
     0
 10
879.44818319150966
 20
419.3607238707707
 30
0.0
  0
POINT
  5
51F9
  8
DEFPOINTS
 62
     0
 10
879.44818319150966
 20
430.83094002394762
 30
0.0
  0
ENDBLK
  5
4721
  8
0
  0
BLOCK
  8
0
  2
*D3
 70
     1
 10
0.0
 20
0.0
 30
0.0
  3
*D3
  1

  0
LINE
  5
52AD
  8
AM_5
 10
814.31011556967667
 20
414.89675539868227
 30
0.0
 11
823.05059591812062
 21
423.95022039575019
 31
0.0
  0
LINE
  5
52AE
  8
AM_5
 10
823.05059591812062
 20
423.95022039575019
 30
0.0
 11
828.60059591812058
 21
423.95022039575019
 31
0.0
  0
SOLID
  5
52AF
  8
AM_5
 10
813.9503990319688
 20
415.24403628283721
 30
0.0
 11
814.66983210738465
 21
414.5494745145275
 31
0.0
 12
812.22643026474759
 22
412.73845617243438
 32
0.0
 13
812.22643026474759
 23
412.73845617243438
 33
0.0
  0
INSERT
  5
52B0
  8
0
  2
*U87
 10
0.0
 20
0.0
 30
0.0
  0
POINT
  5
52B1
  8
DEFPOINTS
 62
     0
 10
812.22643026474759
 20
412.73845617243438
 30
0.0
  0
POINT
  5
52B2
  8
DEFPOINTS
 62
     0
 10
806.66993611826956
 20
406.98299156910679
 30
0.0
  0
ENDBLK
  5
4733
  8
0
  0
BLOCK
  8
0
  2
*D4
 70
     1
 10
0.0
 20
0.0
 30
0.0
  3
*D4
  1

  0
LINE
  5
5200
  8
AM_5
 10
796.94818319150806
 20
518.90220700181965
 30
0.0
 11
796.94818319150806
 21
476.90220700181959
 31
0.0
  0
LINE
  5
5201
  8
AM_5
 10
821.94818319150818
 20
518.90220700181953
 30
0.0
 11
821.94818319150818
 21
476.90220700181959
 31
0.0
  0
LINE
  5
5202
  8
AM_5
 10
799.94818319150806
 20
478.40220700181948
 30
0.0
 11
818.94818319150806
 21
478.40220700181948
 31
0.0
  0
SOLID
  5
5203
  8
AM_5
 10
799.94818319150806
 20
478.90220700181948
 30
0.0
 11
799.94818319150806
 21
477.90220700181959
 31
0.0
 12
796.94818319150806
 22
478.40220700181948
 32
0.0
 13
796.94818319150806
 23
478.40220700181948
 33
0.0
  0
SOLID
  5
5204
  8
AM_5
 10
818.94818319150806
 20
478.90220700181948
 30
0.0
 11
818.94818319150806
 21
477.90220700181959
 31
0.0
 12
821.94818319150818
 22
478.40220700181948
 32
0.0
 13
821.94818319150818
 23
478.40220700181948
 33
0.0
  0
INSERT
  5
5205
  8
0
  2
*U68
 10
0.0
 20
0.0
 30
0.0
  0
POINT
  5
5206
  8
DEFPOINTS
 62
     0
 10
796.94818319150806
 20
520.40220700181965
 30
0.0
  0
POINT
  5
5207
  8
DEFPOINTS
 62
     0
 10
821.94818319150818
 20
520.40220700181953
 30
0.0
  0
POINT
  5
5208
  8
DEFPOINTS
 62
     0
 10
821.94818319150818
 20
478.40220700181948
 30
0.0
  0
ENDBLK
  5
474B
  8
0
  0
BLOCK
  8
0
  2
*D5
 70
     1
 10
0.0
 20
0.0
 30
0.0
  3
*D5
  1

  0
LINE
  5
5209
  8
AM_5
 10
785.44818319150795
 20
489.10220700181969
 30
0.0
 11
785.44818319150795
 21
468.9022070018197
 31
0.0
  0
LINE
  5
520A
  8
AM_5
 10
833.44818319150795
 20
489.10220700181969
 30
0.0
 11
833.44818319150795
 21
468.9022070018197
 31
0.0
  0
LINE
  5
520B
  8
AM_5
 10
788.44818319150795
 20
470.4022070018197
 30
0.0
 11
830.44818319150795
 21
470.4022070018197
 31
0.0
  0
SOLID
  5
520C
  8
AM_5
 10
788.44818319150795
 20
470.9022070018197
 30
0.0
 11
788.44818319150795
 21
469.9022070018197
 31
0.0
 12
785.44818319150795
 22
470.4022070018197
 32
0.0
 13
785.44818319150795
 23
470.4022070018197
 33
0.0
  0
SOLID
  5
520D
  8
AM_5
 10
830.44818319150795
 20
470.9022070018197
 30
0.0
 11
830.44818319150795
 21
469.9022070018197
 31
0.0
 12
833.44818319150795
 22
470.4022070018197
 32
0.0
 13
833.44818319150795
 23
470.4022070018197
 33
0.0
  0
INSERT
  5
520E
  8
0
  2
*U69
 10
0.0
 20
0.0
 30
0.0
  0
POINT
  5
520F
  8
DEFPOINTS
 62
     0
 10
785.44818319150795
 20
490.60220700181981
 30
0.0
  0
POINT
  5
5210
  8
DEFPOINTS
 62
     0
 10
833.44818319150795
 20
490.60220700181969
 30
0.0
  0
POINT
  5
5211
  8
DEFPOINTS
 62
     0
 10
833.44818319150795
 20
470.4022070018197
 30
0.0
  0
ENDBLK
  5
4757
  8
0
  0
BLOCK
  8
0
  2
*D6
 70
     1
 10
0.0
 20
0.0
 30
0.0
  3
*D6
  1

  0
LINE
  5
5212
  8
AM_5
 10
779.44818319150795
 20
492.06822667835678
 30
0.0
 11
779.44818319150795
 21
460.9022070018197
 31
0.0
  0
LINE
  5
5213
  8
AM_5
 10
839.44818319150795
 20
492.06822667835672
 30
0.0
 11
839.44818319150795
 21
460.9022070018197
 31
0.0
  0
LINE
  5
5214
  8
AM_5
 10
782.44818319150795
 20
462.4022070018197
 30
0.0
 11
836.44818319150795
 21
462.4022070018197
 31
0.0
  0
SOLID
  5
5215
  8
AM_5
 10
782.44818319150795
 20
462.9022070018197
 30
0.0
 11
782.44818319150795
 21
461.9022070018197
 31
0.0
 12
779.44818319150795
 22
462.4022070018197
 32
0.0
 13
779.44818319150795
 23
462.4022070018197
 33
0.0
  0
SOLID
  5
5216
  8
AM_5
 10
836.44818319150795
 20
462.9022070018197
 30
0.0
 11
836.44818319150795
 21
461.9022070018197
 31
0.0
 12
839.44818319150795
 22
462.4022070018197
 32
0.0
 13
839.44818319150795
 23
462.4022070018197
 33
0.0
  0
INSERT
  5
5217
  8
0
  2
*U70
 10
0.0
 20
0.0
 30
0.0
  0
POINT
  5
5218
  8
DEFPOINTS
 62
     0
 10
779.44818319150795
 20
493.56822667835678
 30
0.0
  0
POINT
  5
5219
  8
DEFPOINTS
 62
     0
 10
839.44818319150795
 20
493.56822667835672
 30
0.0
  0
POINT
  5
521A
  8
DEFPOINTS
 62
     0
 10
839.44818319150795
 20
462.4022070018197
 30
0.0
  0
ENDBLK
  5
4763
  8
0
  0
BLOCK
  8
0
  2
*D7
 70
     1
 10
0.0
 20
0.0
 30
0.0
  3
*D7
  1

  0
LINE
  5
521B
  8
AM_5
 10
797.94818319150841
 20
539.18553250977891
 30
0.0
 11
797.94818319150841
 21
560.43944297216046
 31
0.0
  0
LINE
  5
521C
  8
AM_5
 10
820.94818319150841
 20
516.1855325097788
 30
0.0
 11
820.94818319150841
 21
560.43944297216046
 31
0.0
  0
LINE
  5
521D
  8
AM_5
 10
800.94818319150829
 20
558.93944297216035
 30
0.0
 11
817.94818319150829
 21
558.93944297216035
 31
0.0
  0
SOLID
  5
521E
  8
AM_5
 10
800.94818319150829
 20
559.43944297216035
 30
0.0
 11
800.94818319150829
 21
558.43944297216035
 31
0.0
 12
797.94818319150841
 22
558.93944297216035
 32
0.0
 13
797.94818319150841
 23
558.93944297216035
 33
0.0
  0
SOLID
  5
521F
  8
AM_5
 10
817.94818319150829
 20
559.43944297216035
 30
0.0
 11
817.94818319150829
 21
558.43944297216035
 31
0.0
 12
820.94818319150841
 22
558.93944297216035
 32
0.0
 13
820.94818319150841
 23
558.93944297216035
 33
0.0
  0
INSERT
  5
5220
  8
0
  2
*U71
 10
0.0
 20
0.0
 30
0.0
  0
POINT
  5
5221
  8
DEFPOINTS
 62
     0
 10
797.94818319150841
 20
537.68553250977891
 30
0.0
  0
POINT
  5
5222
  8
DEFPOINTS
 62
     0
 10
820.94818319150841
 20
514.68553250977891
 30
0.0
  0
POINT
  5
5223
  8
DEFPOINTS
 62
     0
 10
820.94818319150841
 20
558.93944297216035
 30
0.0
  0
ENDBLK
  5
476F
  8
0
  0
BLOCK
  8
0
  2
*D8
 70
     1
 10
0.0
 20
0.0
 30
0.0
  3
*D8
  1

  0
LINE
  5
5224
  8
AM_5
 10
818.94818319150806
 20
515.90220700181965
 30
0.0
 11
849.47336528890764
 21
515.90220700181965
 31
0.0
  0
LINE
  5
5225
  8
AM_5
 10
818.94818319150806
 20
524.90220700181965
 30
0.0
 11
849.47336528890764
 21
524.90220700181965
 31
0.0
  0
LINE
  5
5226
  8
AM_5
 10
847.97336528890753
 20
518.90220700181965
 30
0.0
 11
847.97336528890753
 21
521.90220700181965
 31
0.0
  0
SOLID
  5
5227
  8
AM_5
 10
847.47336528890742
 20
518.90220700181965
 30
0.0
 11
848.47336528890742
 21
518.90220700181965
 31
0.0
 12
847.97336528890753
 22
515.90220700181965
 32
0.0
 13
847.97336528890753
 23
515.90220700181965
 33
0.0
  0
SOLID
  5
5228
  8
AM_5
 10
847.47336528890742
 20
521.90220700181965
 30
0.0
 11
848.47336528890742
 21
521.90220700181965
 31
0.0
 12
847.97336528890753
 22
524.90220700181965
 32
0.0
 13
847.97336528890753
 23
524.90220700181965
 33
0.0
  0
INSERT
  5
5229
  8
0
  2
*U72
 10
0.0
 20
0.0
 30
0.0
  0
POINT
  5
522A
  8
DEFPOINTS
 62
     0
 10
817.44818319150818
 20
515.90220700181965
 30
0.0
  0
POINT
  5
522B
  8
DEFPOINTS
 62
     0
 10
817.44818319150818
 20
524.90220700181965
 30
0.0
  0
POINT
  5
522C
  8
DEFPOINTS
 62
     0
 10
847.97336528890753
 20
524.90220700181965
 30
0.0
  0
ENDBLK
  5
477B
  8
0
  0
BLOCK
  8
0
  2
*D9
 70
     1
 10
0.0
 20
0.0
 30
0.0
  3
*D9
  1

  0
LINE
  5
522D
  8
AM_5
 10
880.94818319150772
 20
529.90220700181999
 30
0.0
 11
892.94818319150806
 21
529.90220700181999
 31
0.0
  0
LINE
  5
522E
  8
AM_5
 10
880.94818319150818
 20
510.90220700181987
 30
0.0
 11
892.94818319150806
 21
510.90220700181987
 31
0.0
  0
LINE
  5
522F
  8
AM_5
 10
891.44818319150806
 20
526.90220700181987
 30
0.0
 11
891.44818319150806
 21
513.90220700181987
 31
0.0
  0
SOLID
  5
5230
  8
AM_5
 10
890.94818319150818
 20
526.90220700181987
 30
0.0
 11
891.94818319150806
 21
526.90220700181987
 31
0.0
 12
891.44818319150806
 22
529.90220700181999
 32
0.0
 13
891.44818319150806
 23
529.90220700181999
 33
0.0
  0
SOLID
  5
5231
  8
AM_5
 10
890.94818319150818
 20
513.90220700181987
 30
0.0
 11
891.94818319150806
 21
513.90220700181987
 31
0.0
 12
891.44818319150806
 22
510.90220700181987
 32
0.0
 13
891.44818319150806
 23
510.90220700181987
 33
0.0
  0
INSERT
  5
5232
  8
0
  2
*U73
 10
0.0
 20
0.0
 30
0.0
  0
POINT
  5
5233
  8
DEFPOINTS
 62
     0
 10
879.44818319150761
 20
529.90220700181999
 30
0.0
  0
POINT
  5
5234
  8
DEFPOINTS
 62
     0
 10
879.44818319150806
 20
510.90220700181987
 30
0.0
  0
POINT
  5
5235
  8
DEFPOINTS
 62
     0
 10
891.44818319150806
 20
510.90220700181987
 30
0.0
  0
ENDBLK
  5
4787
  8
0
  0
BLOCK
  8
0
  2
*D10
 70
     1
 10
0.0
 20
0.0
 30
0.0
  3
*D10
  1

  0
LINE
  5
52A7
  8
AM_5
 10
837.97960873467423
 20
491.88267355833892
 30
0.0
 11
845.98937978880599
 21
483.89392304066342
 31
0.0
  0
LINE
  5
52A8
  8
AM_5
 10
845.98937978880599
 20
483.89392304066342
 30
0.0
 11
860.28937978880595
 21
483.89392304066342
 31
0.0
  0
SOLID
  5
52A9
  8
AM_5
 10
838.33269728494588
 20
492.23669117889881
 30
0.0
 11
837.62652018440201
 21
491.52865593777909
 31
0.0
 12
835.8555030113148
 22
494.00120485997058
 32
0.0
 13
835.8555030113148
 23
494.00120485997058
 33
0.0
  0
INSERT
  5
52AA
  8
0
  2
*U86
 10
0.0
 20
0.0
 30
0.0
  0
POINT
  5
52AB
  8
DEFPOINTS
 62
     0
 10
835.8555030113148
 20
494.00120485997058
 30
0.0
  0
POINT
  5
52AC
  8
DEFPOINTS
 62
     0
 10
831.04086337170111
 20
498.80320914366939
 30
0.0
  0
ENDBLK
  5
4790
  8
0
  0
BLOCK
  8
0
  2
*D11
 70
     1
 10
0.0
 20
0.0
 30
0.0
  3
*D11
  1

  0
LINE
  5
523C
  8
AM_5
 10
880.94818319150943
 20
419.3607238707707
 30
0.0
 11
908.94818319150966
 21
419.36072387077058
 31
0.0
  0
LINE
  5
523D
  8
AM_5
 10
880.94818319150943
 20
400.36072387077058
 30
0.0
 11
908.94818319150966
 21
400.36072387077058
 31
0.0
  0
LINE
  5
523E
  8
AM_5
 10
907.44818319150954
 20
416.36072387077058
 30
0.0
 11
907.44818319150954
 21
403.36072387077058
 31
0.0
  0
SOLID
  5
523F
  8
AM_5
 10
906.94818319150966
 20
416.36072387077058
 30
0.0
 11
907.94818319150966
 21
416.36072387077058
 31
0.0
 12
907.44818319150954
 22
419.36072387077058
 32
0.0
 13
907.44818319150954
 23
419.36072387077058
 33
0.0
  0
SOLID
  5
5240
  8
AM_5
 10
906.94818319150966
 20
403.36072387077058
 30
0.0
 11
907.94818319150966
 21
403.36072387077058
 31
0.0
 12
907.44818319150954
 22
400.36072387077058
 32
0.0
 13
907.44818319150954
 23
400.36072387077058
 33
0.0
  0
INSERT
  5
5241
  8
0
  2
*U74
 10
0.0
 20
0.0
 30
0.0
  0
POINT
  5
5242
  8
DEFPOINTS
 62
     0
 10
879.44818319150966
 20
419.3607238707707
 30
0.0
  0
POINT
  5
5243
  8
DEFPOINTS
 62
     0
 10
879.44818319150966
 20
400.36072387077058
 30
0.0
  0
POINT
  5
5244
  8
DEFPOINTS
 62
     0
 10
907.44818319150954
 20
400.36072387077058
 30
0.0
  0
ENDBLK
  5
479C
  8
0
  0
BLOCK
  8
0
  2
*D12
 70
     1
 10
0.0
 20
0.0
 30
0.0
  3
*D12
  1

  0
LINE
  5
5245
  8
AM_5
 10
840.14818319150766
 20
292.36072387077093
 30
0.0
 11
908.94818319150966
 21
292.36072387077081
 31
0.0
  0
LINE
  5
5246
  8
AM_5
 10
880.94818319150943
 20
400.36072387077058
 30
0.0
 11
908.94818319150966
 21
400.36072387077058
 31
0.0
  0
LINE
  5
5247
  8
AM_5
 10
907.44818319150954
 20
295.36072387077081
 30
0.0
 11
907.44818319150954
 21
397.36072387077058
 31
0.0
  0
SOLID
  5
5248
  8
AM_5
 10
906.94818319150966
 20
295.36072387077081
 30
0.0
 11
907.94818319150966
 21
295.36072387077081
 31
0.0
 12
907.44818319150954
 22
292.36072387077081
 32
0.0
 13
907.44818319150954
 23
292.36072387077081
 33
0.0
  0
SOLID
  5
5249
  8
AM_5
 10
906.94818319150966
 20
397.36072387077058
 30
0.0
 11
907.94818319150966
 21
397.36072387077058
 31
0.0
 12
907.44818319150954
 22
400.36072387077058
 32
0.0
 13
907.44818319150954
 23
400.36072387077058
 33
0.0
  0
INSERT
  5
524A
  8
0
  2
*U75
 10
0.0
 20
0.0
 30
0.0
  0
POINT
  5
524B
  8
DEFPOINTS
 62
     0
 10
838.64818319150766
 20
292.36072387077093
 30
0.0
  0
POINT
  5
524C
  8
DEFPOINTS
 62
     0
 10
879.44818319150966
 20
400.36072387077058
 30
0.0
  0
POINT
  5
524D
  8
DEFPOINTS
 62
     0
 10
907.44818319150954
 20
400.36072387077058
 30
0.0
  0
ENDBLK
  5
47A8
  8
0
  0
BLOCK
  8
0
  2
*D13
 70
     1
 10
0.0
 20
0.0
 30
0.0
  3
*D13
  1

  0
LINE
  5
524E
  8
AM_5
 10
820.73858798495303
 20
409.8607238707707
 30
0.0
 11
900.94818319150954
 21
409.86072387077058
 31
0.0
  0
LINE
  5
524F
  8
AM_5
 10
880.94818319150943
 20
400.3607238707707
 30
0.0
 11
900.94818319150954
 21
400.36072387077058
 31
0.0
  0
LINE
  5
5250
  8
AM_5
 10
899.44818319150954
 20
406.86072387077058
 30
0.0
 11
899.44818319150954
 21
403.36072387077058
 31
0.0
  0
SOLID
  5
5251
  8
AM_5
 10
898.94818319150966
 20
406.86072387077058
 30
0.0
 11
899.94818319150966
 21
406.86072387077058
 31
0.0
 12
899.44818319150954
 22
409.86072387077058
 32
0.0
 13
899.44818319150954
 23
409.86072387077058
 33
0.0
  0
SOLID
  5
5252
  8
AM_5
 10
898.94818319150966
 20
403.36072387077058
 30
0.0
 11
899.94818319150966
 21
403.36072387077058
 31
0.0
 12
899.44818319150954
 22
400.36072387077058
 32
0.0
 13
899.44818319150954
 23
400.36072387077058
 33
0.0
  0
INSERT
  5
5253
  8
0
  2
*U76
 10
0.0
 20
0.0
 30
0.0
  0
POINT
  5
5254
  8
DEFPOINTS
 62
     0
 10
819.23858798495291
 20
409.8607238707707
 30
0.0
  0
POINT
  5
5255
  8
DEFPOINTS
 62
     0
 10
879.44818319150966
 20
400.3607238707707
 30
0.0
  0
POINT
  5
5256
  8
DEFPOINTS
 62
     0
 10
899.44818319150954
 20
400.36072387077058
 30
0.0
  0
ENDBLK
  5
47B4
  8
0
  0
BLOCK
  8
0
  2
*D14
 70
     1
 10
0.0
 20
0.0
 30
0.0
  3
*D14
  1

  0
LINE
  5
5257
  8
AM_5
 10
880.94818319150977
 20
374.36072387077093
 30
0.0
 11
900.94818319150954
 21
374.36072387077093
 31
0.0
  0
LINE
  5
5258
  8
AM_5
 10
880.94818319150943
 20
400.36072387077058
 30
0.0
 11
900.94818319150954
 21
400.36072387077058
 31
0.0
  0
LINE
  5
5259
  8
AM_5
 10
899.44818319150954
 20
377.36072387077093
 30
0.0
 11
899.44818319150954
 21
397.36072387077058
 31
0.0
  0
SOLID
  5
525A
  8
AM_5
 10
898.94818319150966
 20
377.36072387077093
 30
0.0
 11
899.94818319150966
 21
377.36072387077093
 31
0.0
 12
899.44818319150954
 22
374.36072387077093
 32
0.0
 13
899.44818319150954
 23
374.36072387077093
 33
0.0
  0
SOLID
  5
525B
  8
AM_5
 10
898.94818319150966
 20
397.36072387077058
 30
0.0
 11
899.94818319150966
 21
397.36072387077058
 31
0.0
 12
899.44818319150954
 22
400.36072387077058
 32
0.0
 13
899.44818319150954
 23
400.36072387077058
 33
0.0
  0
INSERT
  5
525C
  8
0
  2
*U77
 10
0.0
 20
0.0
 30
0.0
  0
POINT
  5
525D
  8
DEFPOINTS
 62
     0
 10
879.44818319150966
 20
374.36072387077093
 30
0.0
  0
POINT
  5
525E
  8
DEFPOINTS
 62
     0
 10
879.44818319150966
 20
400.36072387077058
 30
0.0
  0
POINT
  5
525F
  8
DEFPOINTS
 62
     0
 10
899.44818319150954
 20
400.36072387077058
 30
0.0
  0
ENDBLK
  5
47C0
  8
0
  0
BLOCK
  8
0
  2
*D15
 70
     1
 10
0.0
 20
0.0
 30
0.0
  3
*D15
  1

  0
LINE
  5
5260
  8
AM_5
 10
834.44818319150772
 20
370.3607238707707
 30
0.0
 11
892.94818319150954
 21
370.3607238707707
 31
0.0
  0
LINE
  5
5261
  8
AM_5
 10
840.14818319150766
 20
292.36072387077093
 30
0.0
 11
892.94818319150954
 21
292.36072387077093
 31
0.0
  0
LINE
  5
5262
  8
AM_5
 10
891.44818319150966
 20
367.3607238707707
 30
0.0
 11
891.44818319150966
 21
295.36072387077093
 31
0.0
  0
SOLID
  5
5263
  8
AM_5
 10
890.94818319150966
 20
367.3607238707707
 30
0.0
 11
891.94818319150966
 21
367.3607238707707
 31
0.0
 12
891.44818319150966
 22
370.3607238707707
 32
0.0
 13
891.44818319150966
 23
370.3607238707707
 33
0.0
  0
SOLID
  5
5264
  8
AM_5
 10
890.94818319150966
 20
295.36072387077093
 30
0.0
 11
891.94818319150966
 21
295.36072387077093
 31
0.0
 12
891.44818319150966
 22
292.36072387077093
 32
0.0
 13
891.44818319150966
 23
292.36072387077093
 33
0.0
  0
INSERT
  5
5265
  8
0
  2
*U78
 10
0.0
 20
0.0
 30
0.0
  0
POINT
  5
5266
  8
DEFPOINTS
 62
     0
 10
832.94818319150761
 20
370.3607238707707
 30
0.0
  0
POINT
  5
5267
  8
DEFPOINTS
 62
     0
 10
838.64818319150766
 20
292.36072387077093
 30
0.0
  0
POINT
  5
5268
  8
DEFPOINTS
 62
     0
 10
891.44818319150966
 20
292.36072387077093
 30
0.0
  0
ENDBLK
  5
47CC
  8
0
  0
BLOCK
  8
0
  2
*D16
 70
     1
 10
0.0
 20
0.0
 30
0.0
  3
*D16
  1

  0
LINE
  5
5269
  8
AM_5
 10
840.14818319150766
 20
314.36072387077081
 30
0.0
 11
885.41661098476425
 21
314.36072387077081
 31
0.0
  0
LINE
  5
526A
  8
AM_5
 10
840.14818319150766
 20
292.36072387077093
 30
0.0
 11
885.41661098476425
 21
292.36072387077093
 31
0.0
  0
LINE
  5
526B
  8
AM_5
 10
883.91661098476436
 20
311.36072387077081
 30
0.0
 11
883.91661098476436
 21
295.36072387077093
 31
0.0
  0
SOLID
  5
526C
  8
AM_5
 10
883.41661098476425
 20
311.36072387077081
 30
0.0
 11
884.41661098476425
 21
311.36072387077081
 31
0.0
 12
883.91661098476436
 22
314.36072387077081
 32
0.0
 13
883.91661098476436
 23
314.36072387077081
 33
0.0
  0
SOLID
  5
526D
  8
AM_5
 10
883.41661098476425
 20
295.36072387077093
 30
0.0
 11
884.41661098476425
 21
295.36072387077093
 31
0.0
 12
883.91661098476436
 22
292.36072387077093
 32
0.0
 13
883.91661098476436
 23
292.36072387077093
 33
0.0
  0
INSERT
  5
526E
  8
0
  2
*U79
 10
0.0
 20
0.0
 30
0.0
  0
POINT
  5
526F
  8
DEFPOINTS
 62
     0
 10
838.64818319150766
 20
314.36072387077081
 30
0.0
  0
POINT
  5
5270
  8
DEFPOINTS
 62
     0
 10
838.64818319150766
 20
292.36072387077093
 30
0.0
  0
POINT
  5
5271
  8
DEFPOINTS
 62
     0
 10
883.91661098476436
 20
292.36072387077093
 30
0.0
  0
ENDBLK
  5
47D8
  8
0
  0
BLOCK
  8
0
  2
*D17
 70
     1
 10
0.0
 20
0.0
 30
0.0
  3
*D17
  1

  0
LINE
  5
5272
  8
AM_5
 10
880.94818319150943
 20
419.3607238707707
 30
0.0
 11
916.94818319150966
 21
419.3607238707707
 31
0.0
  0
LINE
  5
5273
  8
AM_5
 10
840.14818319150766
 20
292.36072387077093
 30
0.0
 11
916.94818319150966
 21
292.36072387077081
 31
0.0
  0
LINE
  5
5274
  8
AM_5
 10
915.44818319150954
 20
416.3607238707707
 30
0.0
 11
915.44818319150954
 21
295.36072387077081
 31
0.0
  0
SOLID
  5
5275
  8
AM_5
 10
914.94818319150943
 20
416.3607238707707
 30
0.0
 11
915.94818319150966
 21
416.3607238707707
 31
0.0
 12
915.44818319150954
 22
419.3607238707707
 32
0.0
 13
915.44818319150954
 23
419.3607238707707
 33
0.0
  0
SOLID
  5
5276
  8
AM_5
 10
914.94818319150943
 20
295.36072387077081
 30
0.0
 11
915.94818319150966
 21
295.36072387077081
 31
0.0
 12
915.44818319150954
 22
292.36072387077081
 32
0.0
 13
915.44818319150954
 23
292.36072387077081
 33
0.0
  0
INSERT
  5
5277
  8
0
  2
*U80
 10
0.0
 20
0.0
 30
0.0
  0
POINT
  5
5278
  8
DEFPOINTS
 62
     0
 10
879.44818319150966
 20
419.3607238707707
 30
0.0
  0
POINT
  5
5279
  8
DEFPOINTS
 62
     0
 10
838.64818319150766
 20
292.36072387077093
 30
0.0
  0
POINT
  5
527A
  8
DEFPOINTS
 62
     0
 10
915.44818319150954
 20
292.36072387077081
 30
0.0
  0
ENDBLK
  5
47E4
  8
0
  0
BLOCK
  8
0
  2
*D18
 70
     1
 10
0.0
 20
0.0
 30
0.0
  3
*D18
  1

  0
LINE
  5
527B
  8
AM_5
 10
797.94818319150772
 20
305.8607238707707
 30
0.0
 11
797.94818319150772
 21
320.6107238707707
 31
0.0
  0
LINE
  5
527C
  8
AM_5
 10
820.94818319150772
 20
305.8607238707707
 30
0.0
 11
820.94818319150772
 21
320.6107238707707
 31
0.0
  0
LINE
  5
527D
  8
AM_5
 10
800.94818319150784
 20
319.1107238707707
 30
0.0
 11
817.94818319150784
 21
319.1107238707707
 31
0.0
  0
SOLID
  5
527E
  8
AM_5
 10
800.94818319150784
 20
319.6107238707707
 30
0.0
 11
800.94818319150784
 21
318.6107238707707
 31
0.0
 12
797.94818319150772
 22
319.1107238707707
 32
0.0
 13
797.94818319150772
 23
319.1107238707707
 33
0.0
  0
SOLID
  5
527F
  8
AM_5
 10
817.94818319150784
 20
319.6107238707707
 30
0.0
 11
817.94818319150784
 21
318.6107238707707
 31
0.0
 12
820.94818319150772
 22
319.1107238707707
 32
0.0
 13
820.94818319150772
 23
319.1107238707707
 33
0.0
  0
INSERT
  5
5280
  8
0
  2
*U81
 10
0.0
 20
0.0
 30
0.0
  0
POINT
  5
5281
  8
DEFPOINTS
 62
     0
 10
797.94818319150772
 20
304.3607238707707
 30
0.0
  0
POINT
  5
5282
  8
DEFPOINTS
 62
     0
 10
820.94818319150772
 20
304.3607238707707
 30
0.0
  0
POINT
  5
5283
  8
DEFPOINTS
 62
     0
 10
820.94818319150772
 20
319.1107238707707
 30
0.0
  0
ENDBLK
  5
47F0
  8
0
  0
BLOCK
  8
0
  2
*D19
 70
     1
 10
0.0
 20
0.0
 30
0.0
  3
*D19
  1

  0
LINE
  5
5284
  8
AM_5
 10
784.94818319150772
 20
336.8684991186023
 30
0.0
 11
833.94818319150761
 21
336.8684991186023
 31
0.0
  0
SOLID
  5
5285
  8
AM_5
 10
784.94818319150772
 20
337.36849911860219
 30
0.0
 11
784.94818319150772
 21
336.3684991186023
 31
0.0
 12
781.94818319150772
 22
336.8684991186023
 32
0.0
 13
781.94818319150772
 23
336.8684991186023
 33
0.0
  0
SOLID
  5
5286
  8
AM_5
 10
833.94818319150761
 20
337.36849911860219
 30
0.0
 11
833.94818319150761
 21
336.3684991186023
 31
0.0
 12
836.94818319150772
 22
336.8684991186023
 32
0.0
 13
836.94818319150772
 23
336.8684991186023
 33
0.0
  0
INSERT
  5
5287
  8
0
  2
*U82
 10
0.0
 20
0.0
 30
0.0
  0
POINT
  5
5288
  8
DEFPOINTS
 62
     0
 10
781.94818319150772
 20
366.36072387077081
 30
0.0
  0
POINT
  5
5289
  8
DEFPOINTS
 62
     0
 10
836.94818319150772
 20
366.36072387077081
 30
0.0
  0
POINT
  5
528A
  8
DEFPOINTS
 62
     0
 10
836.94818319150772
 20
336.8684991186023
 30
0.0
  0
ENDBLK
  5
47FA
  8
0
  0
BLOCK
  8
0
  2
*D20
 70
     1
 10
0.0
 20
0.0
 30
0.0
  3
*D20
  1

  0
LINE
  5
528B
  8
AM_5
 10
986.06323658338488
 20
289.36072387077081
 30
0.0
 11
986.06323658338488
 21
280.13885445385318
 31
0.0
  0
LINE
  5
528C
  8
AM_5
 10
1009.063236583385
 20
289.65088061573999
 30
0.0
 11
1009.063236583385
 21
280.13885445385318
 31
0.0
  0
LINE
  5
528D
  8
AM_5
 10
989.06323658338499
 20
281.63885445385318
 30
0.0
 11
1006.063236583385
 21
281.63885445385318
 31
0.0
  0
SOLID
  5
528E
  8
AM_5
 10
989.06323658338499
 20
282.13885445385318
 30
0.0
 11
989.06323658338499
 21
281.13885445385318
 31
0.0
 12
986.06323658338488
 22
281.63885445385318
 32
0.0
 13
986.06323658338488
 23
281.63885445385318
 33
0.0
  0
SOLID
  5
528F
  8
AM_5
 10
1006.063236583385
 20
282.13885445385318
 30
0.0
 11
1006.063236583385
 21
281.13885445385318
 31
0.0
 12
1009.063236583385
 22
281.63885445385318
 32
0.0
 13
1009.063236583385
 23
281.63885445385318
 33
0.0
  0
INSERT
  5
5290
  8
0
  2
*U83
 10
0.0
 20
0.0
 30
0.0
  0
POINT
  5
5291
  8
DEFPOINTS
 62
     0
 10
986.06323658338488
 20
290.86072387077093
 30
0.0
  0
POINT
  5
5292
  8
DEFPOINTS
 62
     0
 10
1009.063236583385
 20
291.15088061573999
 30
0.0
  0
POINT
  5
5293
  8
DEFPOINTS
 62
     0
 10
1009.063236583385
 20
281.63885445385318
 30
0.0
  0
ENDBLK
  5
4806
  8
0
  0
BLOCK
  8
0
  2
*D21
 70
     1
 10
0.0
 20
0.0
 30
0.0
  3
*D21
  1

  0
LINE
  5
5294
  8
AM_5
 10
815.94818319150761
 20
290.86072387077058
 30
0.0
 11
815.94818319150761
 21
278.86072387077058
 31
0.0
  0
LINE
  5
5295
  8
AM_5
 10
825.94818319150784
 20
290.86072387077058
 30
0.0
 11
825.94818319150784
 21
278.86072387077058
 31
0.0
  0
LINE
  5
5296
  8
AM_5
 10
818.94818319150772
 20
280.36072387077058
 30
0.0
 11
822.94818319150772
 21
280.36072387077058
 31
0.0
  0
LINE
  5
5297
  8
AM_5
 10
825.94818319150784
 20
280.36072387077058
 30
0.0
 11
854.39818319150766
 21
280.36072387077058
 31
0.0
  0
SOLID
  5
5298
  8
AM_5
 10
818.94818319150772
 20
280.86072387077058
 30
0.0
 11
818.94818319150772
 21
279.86072387077058
 31
0.0
 12
815.94818319150761
 22
280.36072387077058
 32
0.0
 13
815.94818319150761
 23
280.36072387077058
 33
0.0
  0
SOLID
  5
5299
  8
AM_5
 10
822.94818319150772
 20
280.86072387077058
 30
0.0
 11
822.94818319150772
 21
279.86072387077058
 31
0.0
 12
825.94818319150784
 22
280.36072387077058
 32
0.0
 13
825.94818319150784
 23
280.36072387077058
 33
0.0
  0
INSERT
  5
529A
  8
0
  2
*U84
 10
0.0
 20
0.0
 30
0.0
  0
POINT
  5
529B
  8
DEFPOINTS
 62
     0
 10
815.94818319150761
 20
292.36072387077058
 30
0.0
  0
POINT
  5
529C
  8
DEFPOINTS
 62
     0
 10
825.94818319150784
 20
292.36072387077058
 30
0.0
  0
POINT
  5
529D
  8
DEFPOINTS
 62
     0
 10
825.94818319150784
 20
280.36072387077058
 30
0.0
  0
ENDBLK
  5
4813
  8
0
  0
BLOCK
  8
0
  2
*D22
 70
     1
 10
0.0
 20
0.0
 30
0.0
  3
*D22
  1

  0
LINE
  5
529E
  8
AM_5
 10
840.14818319150766
 20
292.36072387077093
 30
0.0
 11
900.94818319150954
 21
292.36072387077081
 31
0.0
  0
LINE
  5
529F
  8
AM_5
 10
880.94818319150943
 20
374.36072387077053
 30
0.0
 11
900.94818319150954
 21
374.36072387077041
 31
0.0
  0
LINE
  5
52A0
  8
AM_5
 10
899.44818319150954
 20
295.36072387077081
 30
0.0
 11
899.44818319150954
 21
371.36072387077041
 31
0.0
  0
SOLID
  5
52A1
  8
AM_5
 10
898.94818319150966
 20
295.36072387077081
 30
0.0
 11
899.94818319150966
 21
295.36072387077081
 31
0.0
 12
899.44818319150954
 22
292.36072387077081
 32
0.0
 13
899.44818319150954
 23
292.36072387077081
 33
0.0
  0
SOLID
  5
52A2
  8
AM_5
 10
898.94818319150966
 20
371.36072387077041
 30
0.0
 11
899.94818319150966
 21
371.36072387077041
 31
0.0
 12
899.44818319150954
 22
374.36072387077041
 32
0.0
 13
899.44818319150954
 23
374.36072387077041
 33
0.0
  0
INSERT
  5
52A3
  8
0
  2
*U85
 10
0.0
 20
0.0
 30
0.0
  0
POINT
  5
52A4
  8
DEFPOINTS
 62
     0
 10
838.64818319150766
 20
292.36072387077093
 30
0.0
  0
POINT
  5
52A5
  8
DEFPOINTS
 62
     0
 10
879.44818319150966
 20
374.36072387077053
 30
0.0
  0
POINT
  5
52A6
  8
DEFPOINTS
 62
     0
 10
899.44818319150954
 20
374.36072387077041
 30
0.0
  0
ENDBLK
  5
481F
  8
0
  0
BLOCK
  8
0
  2
*D23
 70
     1
 10
0.0
 20
0.0
 30
0.0
  3
*D23
  1

  0
LINE
  5
4CEE
  8
AM_5
 10
426.15117833381731
 20
431.77195841123859
 30
0.0
 11
426.15117833381731
 21
445.01306575493601
 31
0.0
  0
LINE
  5
4CEF
  8
AM_5
 10
286.15117833381782
 20
431.77195841123859
 30
0.0
 11
286.15117833381782
 21
445.01306575493601
 31
0.0
  0
LINE
  5
4CF0
  8
AM_5
 10
423.15117833381743
 20
443.51306575493601
 30
0.0
 11
289.15117833381782
 21
443.51306575493601
 31
0.0
  0
SOLID
  5
4CF1
  8
AM_5
 10
423.15117833381743
 20
444.01306575493601
 30
0.0
 11
423.15117833381743
 21
443.01306575493601
 31
0.0
 12
426.15117833381731
 22
443.51306575493601
 32
0.0
 13
426.15117833381731
 23
443.51306575493601
 33
0.0
  0
SOLID
  5
4CF2
  8
AM_5
 10
289.15117833381782
 20
444.01306575493601
 30
0.0
 11
289.15117833381782
 21
443.01306575493601
 31
0.0
 12
286.15117833381782
 22
443.51306575493601
 32
0.0
 13
286.15117833381782
 23
443.51306575493601
 33
0.0
  0
INSERT
  5
4CF3
  8
0
  2
*U42
 10
0.0
 20
0.0
 30
0.0
  0
POINT
  5
4CF4
  8
DEFPOINTS
 62
     0
 10
426.15117833381731
 20
430.27195841123859
 30
0.0
  0
POINT
  5
4CF5
  8
DEFPOINTS
 62
     0
 10
286.15117833381782
 20
430.27195841123859
 30
0.0
  0
POINT
  5
4CF6
  8
DEFPOINTS
 62
     0
 10
286.15117833381782
 20
443.51306575493601
 30
0.0
  0
ENDBLK
  5
4C36
  8
0
  0
BLOCK
  8
0
  2
*D24
 70
     1
 10
0.0
 20
0.0
 30
0.0
  3
*D24
  1

  0
LINE
  5
542B
  8
AM_5
 10
374.16057477646029
 20
435.3134899594242
 30
0.0
 11
368.61057477646028
 21
435.31348995942409
 31
0.0
  0
LINE
  5
542C
  8
AM_5
 10
368.61057477646028
 20
435.31348995942409
 30
0.0
 11
360.70571196141327
 21
426.08761673689241
 31
0.0
  0
TEXT
  8
AM_5
  40
3.5
  5
552C
  72
0
  71
0
 10
371.886
 20
433.513
 30
0.000000
  1
?8
  0
SOLID
  5
542E
  8
AM_5
 10
360.32602208100951
 20
426.41294056743487
 30
0.0
 11
361.0854018418172
 21
425.76229290634978
 31
0.0
 12
358.75376897815778
 22
423.80947745446917
 32
0.0
 13
358.75376897815778
 23
423.80947745446917
 33
0.0
  0
POINT
  5
542F
  8
DEFPOINTS
 62
     0
 10
358.75376897815778
 20
423.80947745446917
 30
0.0
  0
POINT
  5
5430
  8
DEFPOINTS
 62
     0
 10
353.5485876894769
 20
417.7344393680076
 30
0.0
  0
ENDBLK
  5
4C3F
  8
0
  0
BLOCK
  8
0
  2
*D25
 70
     1
 10
0.0
 20
0.0
 30
0.0
  3
*D25
  1

  0
LINE
  5
5431
  8
AM_5
 10
433.81425122115257
 20
472.41876061293289
 30
0.0
 11
396.0399109442605
 21
472.41876061293289
 31
0.0
  0
LINE
  5
5432
  8
AM_5
 10
396.0399109442605
 20
472.41876061293289
 30
0.0
 11
385.32940928689783
 21
485.70285881159339
 31
0.0
  0
TEXT
  8
AM_5
  40
3.5
  5
552D
  72
0
  71
0
 10
415.427
 20
470.893
 30
0.000000
  1
4-%%C6.8,?10.5*6.5D
  0
SOLID
  5
5434
  8
AM_5
 10
385.71865132399063
 20
486.01669099056789
 30
0.0
 11
384.94016724980509
 21
485.38902663261888
 31
0.0
 12
383.44641621305072
 22
488.03831103414979
 32
0.0
 13
383.44641621305072
 23
488.03831103414979
 33
0.0
  0
POINT
  5
5435
  8
DEFPOINTS
 62
     0
 10
383.44641621305072
 20
488.03831103414979
 30
0.0
  0
POINT
  5
5436
  8
DEFPOINTS
 62
     0
 10
376.855940454586
 20
496.21239381309721
 30
0.0
  0
ENDBLK
  5
4C48
  8
0
  0
BLOCK
  8
0
  2
*D26
 70
     1
 10
0.0
 20
0.0
 30
0.0
  3
*D26
  1

  0
LINE
  5
4D82
  8
AM_5
 10
427.651178333818
 20
506.6253524236235
 30
0.0
 11
435.3330339693095
 21
506.6253524236235
 31
0.0
  0
LINE
  5
4D83
  8
AM_5
 10
427.651178333818
 20
525.62535242362355
 30
0.0
 11
435.3330339693095
 21
525.62535242362355
 31
0.0
  0
LINE
  5
4D84
  8
AM_5
 10
433.8330339693095
 20
509.62535242362338
 30
0.0
 11
433.8330339693095
 21
522.62535242362355
 31
0.0
  0
SOLID
  5
4D85
  8
AM_5
 10
433.33303396930961
 20
509.62535242362338
 30
0.0
 11
434.3330339693095
 21
509.62535242362338
 31
0.0
 12
433.8330339693095
 22
506.6253524236235
 32
0.0
 13
433.8330339693095
 23
506.6253524236235
 33
0.0
  0
SOLID
  5
4D86
  8
AM_5
 10
433.33303396930961
 20
522.62535242362355
 30
0.0
 11
434.3330339693095
 21
522.62535242362355
 31
0.0
 12
433.8330339693095
 22
525.62535242362355
 32
0.0
 13
433.8330339693095
 23
525.62535242362355
 33
0.0
  0
INSERT
  5
4D87
  8
0
  2
*U53
 10
0.0
 20
0.0
 30
0.0
  0
POINT
  5
4D88
  8
DEFPOINTS
 62
     0
 10
426.151178333818
 20
506.6253524236235
 30
0.0
  0
POINT
  5
4D89
  8
DEFPOINTS
 62
     0
 10
426.151178333818
 20
525.62535242362355
 30
0.0
  0
POINT
  5
4D8A
  8
DEFPOINTS
 62
     0
 10
433.8330339693095
 20
525.62535242362355
 30
0.0
  0
ENDBLK
  5
4C54
  8
0
  0
BLOCK
  8
0
  2
*D27
 70
     1
 10
0.0
 20
0.0
 30
0.0
  3
*D27
  1

  0
LINE
  5
4D8B
  8
AM_5
 10
388.45117833381801
 20
492.12535242362338
 30
0.0
 11
445.3330339693095
 21
492.12535242362338
 31
0.0
  0
LINE
  5
4D8C
  8
AM_5
 10
388.45117833381801
 20
540.12535242362344
 30
0.0
 11
445.3330339693095
 21
540.12535242362344
 31
0.0
  0
LINE
  5
4D8D
  8
AM_5
 10
443.8330339693095
 20
495.12535242362338
 30
0.0
 11
443.8330339693095
 21
537.12535242362344
 31
0.0
  0
SOLID
  5
4D8E
  8
AM_5
 10
443.3330339693095
 20
495.12535242362338
 30
0.0
 11
444.3330339693095
 21
495.12535242362338
 31
0.0
 12
443.8330339693095
 22
492.12535242362338
 32
0.0
 13
443.8330339693095
 23
492.12535242362338
 33
0.0
  0
SOLID
  5
4D8F
  8
AM_5
 10
443.3330339693095
 20
537.12535242362344
 30
0.0
 11
444.3330339693095
 21
537.12535242362344
 31
0.0
 12
443.8330339693095
 22
540.12535242362344
 32
0.0
 13
443.8330339693095
 23
540.12535242362344
 33
0.0
  0
INSERT
  5
4D90
  8
0
  2
*U54
 10
0.0
 20
0.0
 30
0.0
  0
POINT
  5
4D91
  8
DEFPOINTS
 62
     0
 10
386.95117833381801
 20
492.12535242362338
 30
0.0
  0
POINT
  5
4D92
  8
DEFPOINTS
 62
     0
 10
386.95117833381801
 20
540.12535242362344
 30
0.0
  0
POINT
  5
4D93
  8
DEFPOINTS
 62
     0
 10
443.8330339693095
 20
540.12535242362344
 30
0.0
  0
ENDBLK
  5
4C60
  8
0
  0
BLOCK
  8
0
  2
*D28
 70
     1
 10
0.0
 20
0.0
 30
0.0
  3
*D28
  1

  0
LINE
  5
4D94
  8
AM_5
 10
384.85871405464331
 20
546.12535242362355
 30
0.0
 11
455.3330339693095
 21
546.12535242362355
 31
0.0
  0
LINE
  5
4D95
  8
AM_5
 10
384.85871405464331
 20
486.12535242362333
 30
0.0
 11
455.3330339693095
 21
486.12535242362333
 31
0.0
  0
LINE
  5
4D96
  8
AM_5
 10
453.83303396930961
 20
543.12535242362355
 30
0.0
 11
453.83303396930961
 21
489.12535242362321
 31
0.0
  0
SOLID
  5
4D97
  8
AM_5
 10
453.3330339693095
 20
543.12535242362355
 30
0.0
 11
454.3330339693095
 21
543.12535242362355
 31
0.0
 12
453.83303396930961
 22
546.12535242362355
 32
0.0
 13
453.83303396930961
 23
546.12535242362355
 33
0.0
  0
SOLID
  5
4D98
  8
AM_5
 10
453.3330339693095
 20
489.12535242362321
 30
0.0
 11
454.3330339693095
 21
489.12535242362321
 31
0.0
 12
453.83303396930961
 22
486.12535242362333
 32
0.0
 13
453.83303396930961
 23
486.12535242362333
 33
0.0
  0
INSERT
  5
4D99
  8
0
  2
*U55
 10
0.0
 20
0.0
 30
0.0
  0
POINT
  5
4D9A
  8
DEFPOINTS
 62
     0
 10
383.35871405464331
 20
546.12535242362355
 30
0.0
  0
POINT
  5
4D9B
  8
DEFPOINTS
 62
     0
 10
383.35871405464331
 20
486.12535242362333
 30
0.0
  0
POINT
  5
4D9C
  8
DEFPOINTS
 62
     0
 10
453.83303396930961
 20
486.12535242362333
 30
0.0
  0
ENDBLK
  5
4C6C
  8
0
  0
BLOCK
  8
0
  2
*D29
 70
     1
 10
0.0
 20
0.0
 30
0.0
  3
*D29
  1

  0
LINE
  5
4D1E
  8
AM_5
 10
336.15117833381839
 20
300.27195841123893
 30
0.0
 11
336.15117833381839
 21
291.04924420866507
 31
0.0
  0
LINE
  5
4D1F
  8
AM_5
 10
376.15117833381743
 20
300.27195841123893
 30
0.0
 11
376.15117833381743
 21
291.04924420866507
 31
0.0
  0
LINE
  5
4D20
  8
AM_5
 10
339.15117833381839
 20
292.54924420866507
 30
0.0
 11
373.15117833381743
 21
292.54924420866507
 31
0.0
  0
SOLID
  5
4D21
  8
AM_5
 10
339.15117833381839
 20
293.04924420866507
 30
0.0
 11
339.15117833381839
 21
292.04924420866507
 31
0.0
 12
336.15117833381839
 22
292.54924420866507
 32
0.0
 13
336.15117833381839
 23
292.54924420866507
 33
0.0
  0
SOLID
  5
4D22
  8
AM_5
 10
373.15117833381743
 20
293.04924420866507
 30
0.0
 11
373.15117833381743
 21
292.04924420866507
 31
0.0
 12
376.15117833381743
 22
292.54924420866507
 32
0.0
 13
376.15117833381743
 23
292.54924420866507
 33
0.0
  0
INSERT
  5
4D23
  8
0
  2
*U43
 10
0.0
 20
0.0
 30
0.0
  0
POINT
  5
4D24
  8
DEFPOINTS
 62
     0
 10
336.15117833381839
 20
301.77195841123893
 30
0.0
  0
POINT
  5
4D25
  8
DEFPOINTS
 62
     0
 10
376.15117833381743
 20
301.77195841123893
 30
0.0
  0
POINT
  5
4D26
  8
DEFPOINTS
 62
     0
 10
376.15117833381743
 20
292.54924420866507
 30
0.0
  0
ENDBLK
  5
4C78
  8
0
  0
BLOCK
  8
0
  2
*D30
 70
     1
 10
0.0
 20
0.0
 30
0.0
  3
*D30
  1

  0
LINE
  5
4D27
  8
AM_5
 10
328.65117833381743
 20
302.77195841123893
 30
0.0
 11
328.65117833381743
 21
281.04924420866428
 31
0.0
  0
LINE
  5
4D28
  8
AM_5
 10
383.65117833381743
 20
302.77195841123893
 30
0.0
 11
383.65117833381743
 21
281.04924420866428
 31
0.0
  0
LINE
  5
4D29
  8
AM_5
 10
331.65117833381743
 20
282.54924420866428
 30
0.0
 11
380.65117833381743
 21
282.54924420866428
 31
0.0
  0
SOLID
  5
4D2A
  8
AM_5
 10
331.65117833381743
 20
283.04924420866428
 30
0.0
 11
331.65117833381743
 21
282.04924420866422
 31
0.0
 12
328.65117833381743
 22
282.54924420866428
 32
0.0
 13
328.65117833381743
 23
282.54924420866428
 33
0.0
  0
SOLID
  5
4D2B
  8
AM_5
 10
380.65117833381743
 20
283.04924420866428
 30
0.0
 11
380.65117833381743
 21
282.04924420866422
 31
0.0
 12
383.65117833381743
 22
282.54924420866428
 32
0.0
 13
383.65117833381743
 23
282.54924420866428
 33
0.0
  0
INSERT
  5
4D2C
  8
0
  2
*U44
 10
0.0
 20
0.0
 30
0.0
  0
POINT
  5
4D2D
  8
DEFPOINTS
 62
     0
 10
328.65117833381743
 20
304.27195841123893
 30
0.0
  0
POINT
  5
4D2E
  8
DEFPOINTS
 62
     0
 10
383.65117833381743
 20
304.27195841123893
 30
0.0
  0
POINT
  5
4D2F
  8
DEFPOINTS
 62
     0
 10
383.65117833381743
 20
282.54924420866428
 30
0.0
  0
ENDBLK
  5
4C84
  8
0
  0
BLOCK
  8
0
  2
*D31
 70
     1
 10
0.0
 20
0.0
 30
0.0
  3
*D31
  1

  0
LINE
  5
4D30
  8
AM_5
 10
387.151178333818
 20
381.27195841123881
 30
0.0
 11
423.62872947705199
 21
381.27195841123881
 31
0.0
  0
LINE
  5
4D31
  8
AM_5
 10
387.151178333818
 20
359.27195841123881
 30
0.0
 11
423.62872947705199
 21
359.27195841123881
 31
0.0
  0
LINE
  5
4D32
  8
AM_5
 10
422.12872947705199
 20
378.2719584112387
 30
0.0
 11
422.12872947705199
 21
362.27195841123881
 31
0.0
  0
SOLID
  5
4D33
  8
AM_5
 10
421.62872947705199
 20
378.2719584112387
 30
0.0
 11
422.62872947705199
 21
378.2719584112387
 31
0.0
 12
422.12872947705199
 22
381.27195841123881
 32
0.0
 13
422.12872947705199
 23
381.27195841123881
 33
0.0
  0
SOLID
  5
4D34
  8
AM_5
 10
421.62872947705199
 20
362.27195841123881
 30
0.0
 11
422.62872947705199
 21
362.27195841123881
 31
0.0
 12
422.12872947705199
 22
359.27195841123881
 32
0.0
 13
422.12872947705199
 23
359.27195841123881
 33
0.0
  0
INSERT
  5
4D35
  8
0
  2
*U45
 10
0.0
 20
0.0
 30
0.0
  0
POINT
  5
4D36
  8
DEFPOINTS
 62
     0
 10
385.65117833381811
 20
381.27195841123881
 30
0.0
  0
POINT
  5
4D37
  8
DEFPOINTS
 62
     0
 10
385.65117833381811
 20
359.27195841123881
 30
0.0
  0
POINT
  5
4D38
  8
DEFPOINTS
 62
     0
 10
422.12872947705199
 20
359.27195841123881
 30
0.0
  0
ENDBLK
  5
4C90
  8
0
  0
BLOCK
  8
0
  2
*D32
 70
     1
 10
0.0
 20
0.0
 30
0.0
  3
*D32
  1

  0
LINE
  5
4D39
  8
AM_5
 10
387.151178333818
 20
381.27195841123881
 30
0.0
 11
433.62872947705199
 21
381.27195841123881
 31
0.0
  0
LINE
  5
4D3A
  8
AM_5
 10
384.15117833381811
 20
303.27195841123881
 30
0.0
 11
433.62872947705199
 21
303.27195841123881
 31
0.0
  0
LINE
  5
4D3B
  8
AM_5
 10
432.12872947705199
 20
378.2719584112387
 30
0.0
 11
432.12872947705199
 21
306.27195841123881
 31
0.0
  0
SOLID
  5
4D3C
  8
AM_5
 10
431.62872947705199
 20
378.2719584112387
 30
0.0
 11
432.62872947705199
 21
378.2719584112387
 31
0.0
 12
432.12872947705199
 22
381.27195841123881
 32
0.0
 13
432.12872947705199
 23
381.27195841123881
 33
0.0
  0
SOLID
  5
4D3D
  8
AM_5
 10
431.62872947705199
 20
306.27195841123881
 30
0.0
 11
432.62872947705199
 21
306.27195841123881
 31
0.0
 12
432.12872947705199
 22
303.27195841123881
 32
0.0
 13
432.12872947705199
 23
303.27195841123881
 33
0.0
  0
INSERT
  5
4D3E
  8
0
  2
*U46
 10
0.0
 20
0.0
 30
0.0
  0
POINT
  5
4D3F
  8
DEFPOINTS
 62
     0
 10
385.65117833381811
 20
381.27195841123881
 30
0.0
  0
POINT
  5
4D40
  8
DEFPOINTS
 62
     0
 10
382.651178333818
 20
303.27195841123893
 30
0.0
  0
POINT
  5
4D41
  8
DEFPOINTS
 62
     0
 10
432.12872947705199
 20
303.27195841123881
 30
0.0
  0
ENDBLK
  5
4C9C
  8
0
  0
BLOCK
  8
0
  2
*D33
 70
     1
 10
0.0
 20
0.0
 30
0.0
  3
*D33
  1

  0
LINE
  5
4D42
  8
AM_5
 10
427.651178333818
 20
385.27195841123842
 30
0.0
 11
443.62872947705199
 21
385.27195841123842
 31
0.0
  0
LINE
  5
4D43
  8
AM_5
 10
384.15117833381811
 20
303.27195841123881
 30
0.0
 11
443.62872947705199
 21
303.27195841123881
 31
0.0
  0
LINE
  5
4D44
  8
AM_5
 10
442.12872947705199
 20
382.27195841123842
 30
0.0
 11
442.12872947705199
 21
306.27195841123881
 31
0.0
  0
SOLID
  5
4D45
  8
AM_5
 10
441.62872947705199
 20
382.27195841123842
 30
0.0
 11
442.62872947705199
 21
382.27195841123842
 31
0.0
 12
442.1287294770521
 22
385.27195841123842
 32
0.0
 13
442.1287294770521
 23
385.27195841123842
 33
0.0
  0
SOLID
  5
4D46
  8
AM_5
 10
441.62872947705199
 20
306.27195841123881
 30
0.0
 11
442.62872947705199
 21
306.27195841123881
 31
0.0
 12
442.12872947705199
 22
303.27195841123881
 32
0.0
 13
442.12872947705199
 23
303.27195841123881
 33
0.0
  0
INSERT
  5
4D47
  8
0
  2
*U47
 10
0.0
 20
0.0
 30
0.0
  0
POINT
  5
4D48
  8
DEFPOINTS
 62
     0
 10
426.151178333818
 20
385.27195841123842
 30
0.0
  0
POINT
  5
4D49
  8
DEFPOINTS
 62
     0
 10
382.651178333818
 20
303.27195841123893
 30
0.0
  0
POINT
  5
4D4A
  8
DEFPOINTS
 62
     0
 10
442.12872947705199
 20
303.27195841123881
 30
0.0
  0
ENDBLK
  5
4CA8
  8
0
  0
BLOCK
  8
0
  2
*D34
 70
     1
 10
0.0
 20
0.0
 30
0.0
  3
*D34
  1

  0
LINE
  5
4D4B
  8
AM_5
 10
427.651178333818
 20
385.27195841123842
 30
0.0
 11
443.62872947705199
 21
385.27195841123842
 31
0.0
  0
LINE
  5
4D4C
  8
AM_5
 10
427.65117833381743
 20
411.27195841123859
 30
0.0
 11
443.62872947705199
 21
411.27195841123859
 31
0.0
  0
LINE
  5
4D4D
  8
AM_5
 10
442.12872947705199
 20
388.27195841123842
 30
0.0
 11
442.12872947705199
 21
408.27195841123859
 31
0.0
  0
SOLID
  5
4D4E
  8
AM_5
 10
441.62872947705199
 20
388.27195841123842
 30
0.0
 11
442.62872947705199
 21
388.27195841123842
 31
0.0
 12
442.12872947705199
 22
385.27195841123842
 32
0.0
 13
442.12872947705199
 23
385.27195841123842
 33
0.0
  0
SOLID
  5
4D4F
  8
AM_5
 10
441.62872947705199
 20
408.27195841123859
 30
0.0
 11
442.62872947705199
 21
408.27195841123859
 31
0.0
 12
442.12872947705199
 22
411.27195841123859
 32
0.0
 13
442.12872947705199
 23
411.27195841123859
 33
0.0
  0
INSERT
  5
4D50
  8
0
  2
*U48
 10
0.0
 20
0.0
 30
0.0
  0
POINT
  5
4D51
  8
DEFPOINTS
 62
     0
 10
426.151178333818
 20
385.27195841123842
 30
0.0
  0
POINT
  5
4D52
  8
DEFPOINTS
 62
     0
 10
426.15117833381731
 20
411.27195841123859
 30
0.0
  0
POINT
  5
4D53
  8
DEFPOINTS
 62
     0
 10
442.12872947705199
 20
411.27195841123859
 30
0.0
  0
ENDBLK
  5
4CB4
  8
0
  0
BLOCK
  8
0
  2
*D35
 70
     1
 10
0.0
 20
0.0
 30
0.0
  3
*D35
  1

  0
LINE
  5
4D54
  8
AM_5
 10
427.65117833381743
 20
411.27195841123859
 30
0.0
 11
453.62872947705199
 21
411.27195841123859
 31
0.0
  0
LINE
  5
4D55
  8
AM_5
 10
427.65117833381743
 20
430.27195841123859
 30
0.0
 11
453.62872947705199
 21
430.27195841123859
 31
0.0
  0
LINE
  5
4D56
  8
AM_5
 10
452.12872947705199
 20
414.27195841123859
 30
0.0
 11
452.12872947705199
 21
427.27195841123859
 31
0.0
  0
SOLID
  5
4D57
  8
AM_5
 10
451.62872947705199
 20
414.27195841123859
 30
0.0
 11
452.62872947705199
 21
414.27195841123859
 31
0.0
 12
452.12872947705199
 22
411.27195841123859
 32
0.0
 13
452.12872947705199
 23
411.27195841123859
 33
0.0
  0
SOLID
  5
4D58
  8
AM_5
 10
451.62872947705199
 20
427.27195841123859
 30
0.0
 11
452.62872947705199
 21
427.27195841123859
 31
0.0
 12
452.12872947705199
 22
430.27195841123859
 32
0.0
 13
452.12872947705199
 23
430.27195841123859
 33
0.0
  0
INSERT
  5
4D59
  8
0
  2
*U49
 10
0.0
 20
0.0
 30
0.0
  0
POINT
  5
4D5A
  8
DEFPOINTS
 62
     0
 10
426.15117833381731
 20
411.27195841123859
 30
0.0
  0
POINT
  5
4D5B
  8
DEFPOINTS
 62
     0
 10
426.15117833381731
 20
430.27195841123859
 30
0.0
  0
POINT
  5
4D5C
  8
DEFPOINTS
 62
     0
 10
452.12872947705199
 20
430.27195841123859
 30
0.0
  0
ENDBLK
  5
4CC0
  8
0
  0
BLOCK
  8
0
  2
*D36
 70
     1
 10
0.0
 20
0.0
 30
0.0
  3
*D36
  1

  0
LINE
  5
4D5D
  8
AM_5
 10
427.65117833381743
 20
430.27195841123859
 30
0.0
 11
463.6287294770521
 21
430.27195841123859
 31
0.0
  0
LINE
  5
4D5E
  8
AM_5
 10
384.15117833381811
 20
303.27195841123881
 30
0.0
 11
463.62872947705199
 21
303.27195841123881
 31
0.0
  0
LINE
  5
4D5F
  8
AM_5
 10
462.1287294770521
 20
427.27195841123859
 30
0.0
 11
462.12872947705199
 21
306.27195841123881
 31
0.0
  0
SOLID
  5
4D60
  8
AM_5
 10
461.6287294770521
 20
427.27195841123859
 30
0.0
 11
462.6287294770521
 21
427.27195841123859
 31
0.0
 12
462.1287294770521
 22
430.27195841123859
 32
0.0
 13
462.1287294770521
 23
430.27195841123859
 33
0.0
  0
SOLID
  5
4D61
  8
AM_5
 10
461.62872947705199
 20
306.27195841123881
 30
0.0
 11
462.62872947705199
 21
306.27195841123881
 31
0.0
 12
462.12872947705199
 22
303.27195841123881
 32
0.0
 13
462.12872947705199
 23
303.27195841123881
 33
0.0
  0
INSERT
  5
4D62
  8
0
  2
*U50
 10
0.0
 20
0.0
 30
0.0
  0
POINT
  5
4D63
  8
DEFPOINTS
 62
     0
 10
426.15117833381731
 20
430.27195841123859
 30
0.0
  0
POINT
  5
4D64
  8
DEFPOINTS
 62
     0
 10
382.651178333818
 20
303.27195841123893
 30
0.0
  0
POINT
  5
4D65
  8
DEFPOINTS
 62
     0
 10
462.12872947705199
 20
303.27195841123881
 30
0.0
  0
ENDBLK
  5
4CCC
  8
0
  0
BLOCK
  8
0
  2
*D37
 70
     1
 10
0.0
 20
0.0
 30
0.0
  3
*D37
  1

  0
LINE
  5
4D66
  8
AM_5
 10
427.65117833381743
 20
411.27195841123859
 30
0.0
 11
453.6287294770521
 21
411.27195841123859
 31
0.0
  0
LINE
  5
4D67
  8
AM_5
 10
384.15117833381811
 20
303.27195841123881
 30
0.0
 11
453.62872947705199
 21
303.27195841123881
 31
0.0
  0
LINE
  5
4D68
  8
AM_5
 10
452.12872947705199
 20
408.27195841123859
 30
0.0
 11
452.12872947705199
 21
306.27195841123881
 31
0.0
  0
SOLID
  5
4D69
  8
AM_5
 10
451.6287294770521
 20
408.27195841123859
 30
0.0
 11
452.62872947705199
 21
408.27195841123859
 31
0.0
 12
452.12872947705199
 22
411.27195841123859
 32
0.0
 13
452.12872947705199
 23
411.27195841123859
 33
0.0
  0
SOLID
  5
4D6A
  8
AM_5
 10
451.62872947705199
 20
306.27195841123881
 30
0.0
 11
452.62872947705199
 21
306.27195841123881
 31
0.0
 12
452.12872947705199
 22
303.27195841123881
 32
0.0
 13
452.12872947705199
 23
303.27195841123881
 33
0.0
  0
INSERT
  5
4D6B
  8
0
  2
*U51
 10
0.0
 20
0.0
 30
0.0
  0
POINT
  5
4D6C
  8
DEFPOINTS
 62
     0
 10
426.15117833381731
 20
411.27195841123859
 30
0.0
  0
POINT
  5
4D6D
  8
DEFPOINTS
 62
     0
 10
382.651178333818
 20
303.27195841123893
 30
0.0
  0
POINT
  5
4D6E
  8
DEFPOINTS
 62
     0
 10
452.12872947705199
 20
303.27195841123881
 30
0.0
  0
ENDBLK
  5
4CD8
  8
0
  0
BLOCK
  8
0
  2
*D38
 70
     1
 10
0.0
 20
0.0
 30
0.0
  3
*D38
  1

  0
LINE
  5
4D6F
  8
AM_5
 10
427.65117833381743
 20
411.27195841123859
 30
0.0
 11
443.62872947705199
 21
411.27195841123859
 31
0.0
  0
LINE
  5
4D70
  8
AM_5
 10
362.85117833381742
 20
420.77195841123859
 30
0.0
 11
443.62872947705199
 21
420.77195841123847
 31
0.0
  0
LINE
  5
4D71
  8
AM_5
 10
442.12872947705199
 20
414.27195841123859
 30
0.0
 11
442.12872947705199
 21
417.77195841123847
 31
0.0
  0
SOLID
  5
4D72
  8
AM_5
 10
441.62872947705199
 20
414.27195841123859
 30
0.0
 11
442.62872947705199
 21
414.27195841123859
 31
0.0
 12
442.12872947705199
 22
411.27195841123859
 32
0.0
 13
442.12872947705199
 23
411.27195841123859
 33
0.0
  0
SOLID
  5
4D73
  8
AM_5
 10
441.62872947705199
 20
417.77195841123847
 30
0.0
 11
442.62872947705199
 21
417.77195841123847
 31
0.0
 12
442.12872947705199
 22
420.77195841123847
 32
0.0
 13
442.12872947705199
 23
420.77195841123847
 33
0.0
  0
INSERT
  5
4D74
  8
0
  2
*U52
 10
0.0
 20
0.0
 30
0.0
  0
POINT
  5
4D75
  8
DEFPOINTS
 62
     0
 10
426.15117833381731
 20
411.27195841123859
 30
0.0
  0
POINT
  5
4D76
  8
DEFPOINTS
 62
     0
 10
361.35117833381742
 20
420.77195841123859
 30
0.0
  0
POINT
  5
4D77
  8
DEFPOINTS
 62
     0
 10
442.12872947705199
 20
420.77195841123847
 30
0.0
  0
ENDBLK
  5
4CE4
  8
0
  0
BLOCK
  8
0
  2
*U40
 70
     1
 10
0.0
 20
0.0
 30
0.0
  3
*U40
  1

  0
SOLID
  5
5438
  8
AM_5
 10
378.00421573013131
 20
300.86026763341061
 30
0.0
 11
376.15117833381743
 21
303.27195841123893
 31
0.0
 12
378.6862215285451
 22
301.59161439858423
 32
0.0
 13
378.6862215285451
 23
301.59161439858423
 33
0.0
  0
POLYLINE
  5
5439
  8
AM_5
 66
     1
 10
0.0
 20
0.0
 30
0.0
  0
VERTEX
  5
543A
  8
AM_5
 10
378.34521862933821
 20
301.22594101599742
 30
0.0
  0
VERTEX
  5
543B
  8
AM_5
 10
388.3056595888122
 20
291.93749015711171
 30
0.0
  0
VERTEX
  5
543C
  8
AM_5
 10
418.97232625547889
 20
291.93749015711171
 30
0.0
  0
SEQEND
  5
543D
  8
AM_5
  0
ENDBLK
  5
543F
  8
0
  0
BLOCK
  8
0
  2
*U41
 70
     1
 10
0.0
 20
0.0
 30
0.0
  3
*U41
  1

  0
TEXT
  5
5441
  8
AM_5
 10
389.7848127963191
 20
293.13472851481731
 30
0.0
 40
3.5
  1
2-PT 1/8
  7
ROMANS
  0
ENDBLK
  5
5443
  8
0
  0
BLOCK
  8
0
  2
*U42
 70
     1
 10
0.0
 20
0.0
 30
0.0
  3
*U42
  1

  0
TEXT
  5
5445
  8
AM_5
 10
352.64980038106171
 20
444.51306575493601
 30
0.0
 40
3.5
  1
140
  0
ENDBLK
  5
5447
  8
0
  0
BLOCK
  8
0
  2
*U43
 70
     1
 10
0.0
 20
0.0
 30
0.0
  3
*U43
  1

  0
TEXT
  5
5449
  8
AM_5
 10
353.52480038106199
 20
293.54924420866507
 30
0.0
 40
3.5
  1
40
  0
ENDBLK
  5
544B
  8
0
  0
BLOCK
  8
0
  2
*U44
 70
     1
 10
0.0
 20
0.0
 30
0.0
  3
*U44
  1

  0
TEXT
  5
544D
  8
AM_5
 10
352.05369096040209
 20
283.54924420866428
 30
0.0
 40
3.5
  1
\U+220555
  0
ENDBLK
  5
544F
  8
0
  0
BLOCK
  8
0
  2
*U45
 70
     1
 10
0.0
 20
0.0
 30
0.0
  3
*U45
  1

  0
TEXT
  5
5451
  8
AM_5
 10
421.12872947705188
 20
367.76129404116011
 30
0.0
 40
3.5
  1
22
 50
90.0
  0
ENDBLK
  5
5453
  8
0
  0
BLOCK
  8
0
  2
*U46
 70
     1
 10
0.0
 20
0.0
 30
0.0
  3
*U46
  1

  0
TEXT
  5
5455
  8
AM_5
 10
431.12872947705199
 20
339.82195841123888
 30
0.0
 40
3.5
  1
78
 50
90.0
  0
ENDBLK
  5
5457
  8
0
  0
BLOCK
  8
0
  2
*U47
 70
     1
 10
0.0
 20
0.0
 30
0.0
  3
*U47
  1

  0
TEXT
  5
5459
  8
AM_5
 10
441.12872947705188
 20
341.71685506478212
 30
0.0
 40
3.5
  1
82
 50
90.0
  0
ENDBLK
  5
545B
  8
0
  0
BLOCK
  8
0
  2
*U48
 70
     1
 10
0.0
 20
0.0
 30
0.0
  3
*U48
  1

  0
TEXT
  5
545D
  8
AM_5
 10
441.12872947705188
 20
395.77958636399461
 30
0.0
 40
3.5
  1
26
 50
90.0
  0
ENDBLK
  5
545F
  8
0
  0
BLOCK
  8
0
  2
*U49
 70
     1
 10
0.0
 20
0.0
 30
0.0
  3
*U49
  1

  0
TEXT
  5
5461
  8
AM_5
 10
451.12872947705188
 20
418.54666982298562
 30
0.0
 40
3.5
  1
19
 50
90.0
  0
ENDBLK
  5
5463
  8
0
  0
BLOCK
  8
0
  2
*U50
 70
     1
 10
0.0
 20
0.0
 30
0.0
  3
*U50
  1

  0
TEXT
  5
5465
  8
AM_5
 10
461.12872947705188
 20
363.44695841123888
 30
0.0
 40
3.5
  1
127
 50
90.0
  0
ENDBLK
  5
5467
  8
0
  0
BLOCK
  8
0
  2
*U51
 70
     1
 10
0.0
 20
0.0
 30
0.0
  3
*U51
  1

  0
TEXT
  5
5469
  8
AM_5
 10
451.12872947705199
 20
353.94695841123888
 30
0.0
 40
3.5
  1
108
 50
90.0
  0
ENDBLK
  5
546B
  8
0
  0
BLOCK
  8
0
  2
*U52
 70
     1
 10
0.0
 20
0.0
 30
0.0
  3
*U52
  1

  0
TEXT
  5
546D
  8
AM_5
 10
441.12872947705188
 20
413.03472825450871
 30
0.0
 40
3.5
  1
9.5
 50
90.0
  0
ENDBLK
  5
546F
  8
0
  0
BLOCK
  8
0
  2
*U53
 70
     1
 10
0.0
 20
0.0
 30
0.0
  3
*U53
  1

  0
TEXT
  5
5476
  8
AM_5
 10
432.8330339693095
 20
513.90006383537059
 30
0.0
 40
3.5
  1
19
 50
90.0
  0
ENDBLK
  5
5478
  8
0
  0
BLOCK
  8
0
  2
*U54
 70
     1
 10
0.0
 20
0.0
 30
0.0
  3
*U54
  1

  0
TEXT
  5
547A
  8
AM_5
 10
442.83303396930938
 20
511.5128524236236
 30
0.0
 40
3.5
  1
o
 50
90.0
  0
TEXT
  5
547B
  8
AM_5
 10
442.83303396930938
 20
515.67951909029023
 30
0.0
 40
3.5
  1
48
 50
90.0
  0
ENDBLK
  5
547D
  8
0
  0
BLOCK
  8
0
  2
*U55
 70
     1
 10
0.0
 20
0.0
 30
0.0
  3
*U55
  1

  0
TEXT
  5
547F
  8
AM_5
 10
452.8330339693095
 20
511.68647447086772
 30
0.0
 40
3.5
  1
o
 50
90.0
  0
TEXT
  5
5480
  8
AM_5
 10
452.8330339693095
 20
515.85314113753441
 30
0.0
 40
3.5
  1
60
 50
90.0
  0
ENDBLK
  5
5482
  8
0
  0
BLOCK
  8
0
  2
*U56
 70
     1
 10
0.0
 20
0.0
 30
0.0
  3
*U56
  1

  0
TEXT
  5
5484
  8
UMCL2
 10
1006.781382857418
 20
190.98923073074471
 30
0.0
 40
3.0
  1
16
  7
ROMANS
  0
ENDBLK
  5
5486
  8
0
  0
BLOCK
  8
0
  2
*U57
 70
     1
 10
0.0
 20
0.0
 30
0.0
  3
*U57
  1

  0
TEXT
  5
5488
  8
UMCL2
 10
1005.352811428847
 20
182.98923073074471
 30
0.0
 40
3.0
  1
140
  7
ROMANS
  0
ENDBLK
  5
548A
  8
0
  0
BLOCK
  8
0
  2
*U58
 70
     1
 10
0.0
 20
0.0
 30
0.0
  3
*U58
  1

  0
TEXT
  5
548C
  8
UMCL2
 10
1030.961336386815
 20
206.13208787360171
 30
0.0
 40
3.0
  1
9
 50
90.0
  7
ROMANS
  0
ENDBLK
  5
548E
  8
0
  0
BLOCK
  8
0
  2
*U59
 70
     1
 10
0.0
 20
0.0
 30
0.0
  3
*U59
  1

  0
TEXT
  5
5490
  8
UMCL2
 10
1036.4025400474511
 20
140.6419659336178
 30
0.0
 40
3.0
  1
9.5
 50
90.0
  7
ROMANS
  0
ENDBLK
  5
5492
  8
0
  0
BLOCK
  8
0
  2
*U60
 70
     1
 10
0.0
 20
0.0
 30
0.0
  3
*U60
  1

  0
TEXT
  5
5494
  8
UMCL2
 10
1086.8528114288461
 20
145.96339450504621
 30
0.0
 40
3.0
  1
19
 50
90.0
  7
ROMANS
  0
ENDBLK
  5
5496
  8
0
  0
BLOCK
  8
0
  2
*U61
 70
     1
 10
0.0
 20
0.0
 30
0.0
  3
*U61
  1

  0
TEXT
  5
5498
  8
UMCL2
 10
819.81802210390185
 20
44.628113042739287
 30
0.0
 40
3.0
  1
200
  7
ROMANS
  0
ENDBLK
  5
549A
  8
0
  0
BLOCK
  8
0
  2
*U62
 70
     1
 10
0.0
 20
0.0
 30
0.0
  3
*U62
  1

  0
TEXT
  5
549C
  8
UMCL2
 10
821.03230781818752
 20
52.628113042739301
 30
0.0
 40
3.0
  1
16
  7
ROMANS
  0
ENDBLK
  5
549E
  8
0
  0
BLOCK
  8
0
  2
*U63
 70
     1
 10
0.0
 20
0.0
 30
0.0
  3
*U63
  1

  0
TEXT
  5
54A0
  8
UMCL2
 10
844.21579604135718
 20
67.770970185596553
 30
0.0
 40
3.0
  1
9
 50
90.0
  7
ROMANS
  0
ENDBLK
  5
54A2
  8
0
  0
BLOCK
  8
0
  2
*U64
 70
     1
 10
0.0
 20
0.0
 30
0.0
  3
*U64
  1

  0
TEXT
  5
54A4
  8
UMCL2
 10
933.26552967299529
 20
66.128113042739301
 30
0.0
 40
3.0
  1
19
 50
90.0
  7
ROMANS
  0
ENDBLK
  5
54A6
  8
0
  0
BLOCK
  8
0
  2
*U65
 70
     1
 10
0.0
 20
0.0
 30
0.0
  3
*U65
  1

  0
TEXT
  5
54A8
  8
UMCL2
 10
933.26552967299529
 20
1.193988745044634
 30
0.0
 40
3.0
  1
19
 50
90.0
  7
ROMANS
  0
ENDBLK
  5
54AA
  8
0
  0
BLOCK
  8
0
  2
*U66
 70
     1
 10
0.0
 20
0.0
 30
0.0
  3
*U66
  1

  0
TEXT
  5
54AC
  8
UMCL2
 10
849.50970945699351
 20
-4.1274398263839362
 30
0.0
 40
3.0
  1
9.5
 50
90.0
  7
ROMANS
  0
ENDBLK
  5
54AE
  8
0
  0
BLOCK
  8
0
  2
*U67
 70
     1
 10
0.0
 20
0.0
 30
0.0
  3
*U67
  1

  0
TEXT
  5
54D1
  8
AM_5
 10
805.94680523875365
 20
431.83094002394762
 30
0.0
 40
3.5
  1
140
  0
ENDBLK
  5
54D3
  8
0
  0
BLOCK
  8
0
  2
*U68
 70
     1
 10
0.0
 20
0.0
 30
0.0
  3
*U68
  1

  0
TEXT
  5
54D5
  8
AM_5
 10
806.97013479447071
 20
479.40220700181948
 30
0.0
 40
3.5
  1
25
  0
ENDBLK
  5
54D7
  8
0
  0
BLOCK
  8
0
  2
*U69
 70
     1
 10
0.0
 20
0.0
 30
0.0
  3
*U69
  1

  0
TEXT
  5
54D9
  8
AM_5
 10
804.83568319150788
 20
471.4022070018197
 30
0.0
 40
3.5
  1
o
  0
TEXT
  5
54DA
  8
AM_5
 10
809.00234985817463
 20
471.4022070018197
 30
0.0
 40
3.5
  1
48
  0
ENDBLK
  5
54DC
  8
0
  0
BLOCK
  8
0
  2
*U70
 70
     1
 10
0.0
 20
0.0
 30
0.0
  3
*U70
  1

  0
TEXT
  5
54DE
  8
AM_5
 10
805.00930523875195
 20
463.4022070018197
 30
0.0
 40
3.5
  1
o
  0
TEXT
  5
54DF
  8
AM_5
 10
809.17597190541881
 20
463.4022070018197
 30
0.0
 40
3.5
  1
60
  0
ENDBLK
  5
54E1
  8
0
  0
BLOCK
  8
0
  2
*U71
 70
     1
 10
0.0
 20
0.0
 30
0.0
  3
*U71
  1

  0
TEXT
  5
54E3
  8
AM_5
 10
804.93819581809305
 20
559.93944297216046
 30
0.0
 40
3.5
  1
o
  0
TEXT
  5
54E4
  8
AM_5
 10
809.10486248475979
 20
559.93944297216046
 30
0.0
 40
3.5
  1
23
  0
ENDBLK
  5
54E6
  8
0
  0
BLOCK
  8
0
  2
*U72
 70
     1
 10
0.0
 20
0.0
 30
0.0
  3
*U72
  1

  0
TEXT
  5
54E8
  8
AM_5
 10
846.97336528890742
 20
519.118290708617
 30
0.0
 40
3.5
  1
9
 50
90.0
  0
ENDBLK
  5
54EA
  8
0
  0
BLOCK
  8
0
  2
*U73
 70
     1
 10
0.0
 20
0.0
 30
0.0
  3
*U73
  1

  0
TEXT
  5
54EC
  8
AM_5
 10
890.44818319150806
 20
518.17691841356714
 30
0.0
 40
3.5
  1
19
 50
90.0
  0
ENDBLK
  5
54EE
  8
0
  0
BLOCK
  8
0
  2
*U74
 70
     1
 10
0.0
 20
0.0
 30
0.0
  3
*U74
  1

  0
TEXT
  5
54F0
  8
AM_5
 10
906.44818319150932
 20
407.63543528251768
 30
0.0
 40
3.5
  1
19
 50
90.0
  0
ENDBLK
  5
54F2
  8
0
  0
BLOCK
  8
0
  2
*U75
 70
     1
 10
0.0
 20
0.0
 30
0.0
  3
*U75
  1

  0
TEXT
  5
54F4
  8
AM_5
 10
906.44818319150932
 20
343.03572387077088
 30
0.0
 40
3.5
  1
108
 50
90.0
  0
ENDBLK
  5
54F6
  8
0
  0
BLOCK
  8
0
  2
*U76
 70
     1
 10
0.0
 20
0.0
 30
0.0
  3
*U76
  1

  0
TEXT
  5
54F8
  8
AM_5
 10
898.44818319150932
 20
402.12349371404082
 30
0.0
 40
3.5
  1
9.5
 50
90.0
  0
ENDBLK
  5
54FA
  8
0
  0
BLOCK
  8
0
  2
*U77
 70
     1
 10
0.0
 20
0.0
 30
0.0
  3
*U77
  1

  0
TEXT
  5
54FC
  8
AM_5
 10
898.44818319150932
 20
384.86835182352678
 30
0.0
 40
3.5
  1
26
 50
90.0
  0
ENDBLK
  5
54FE
  8
0
  0
BLOCK
  8
0
  2
*U78
 70
     1
 10
0.0
 20
0.0
 30
0.0
  3
*U78
  1

  0
TEXT
  5
5500
  8
AM_5
 10
890.44818319150954
 20
328.91072387077088
 30
0.0
 40
3.5
  1
78
 50
90.0
  0
ENDBLK
  5
5502
  8
0
  0
BLOCK
  8
0
  2
*U79
 70
     1
 10
0.0
 20
0.0
 30
0.0
  3
*U79
  1

  0
TEXT
  5
5504
  8
AM_5
 10
882.91661098476425
 20
301.59393426563139
 30
0.0
 40
3.5
  1
22
 50
90.0
  0
ENDBLK
  5
5506
  8
0
  0
BLOCK
  8
0
  2
*U80
 70
     1
 10
0.0
 20
0.0
 30
0.0
  3
*U80
  1

  0
TEXT
  5
5508
  8
AM_5
 10
914.44818319150943
 20
352.53572387077099
 30
0.0
 40
3.5
  1
127
 50
90.0
  0
ENDBLK
  5
550A
  8
0
  0
BLOCK
  8
0
  2
*U81
 70
     1
 10
0.0
 20
0.0
 30
0.0
  3
*U81
  1

  0
TEXT
  5
550C
  8
AM_5
 10
811.55300834784816
 20
320.1107238707707
 30
0.0
 40
3.5
  1
23
  0
ENDBLK
  5
550E
  8
0
  0
BLOCK
  8
0
  2
*U82
 70
     1
 10
0.0
 20
0.0
 30
0.0
  3
*U82
  1

  0
TEXT
  5
5510
  8
AM_5
 10
805.3506958180925
 20
337.86849911860219
 30
0.0
 40
3.5
  1
\U+220555
  0
ENDBLK
  5
5512
  8
0
  0
BLOCK
  8
0
  2
*U83
 70
     1
 10
0.0
 20
0.0
 30
0.0
  3
*U83
  1

  0
TEXT
  5
5514
  8
AM_5
 10
995.08518818634764
 20
282.6388544538533
 30
0.0
 40
3.5
  1
23
  0
ENDBLK
  5
5516
  8
0
  0
BLOCK
  8
0
  2
*U84
 70
     1
 10
0.0
 20
0.0
 30
0.0
  3
*U84
  1

  0
TEXT
  5
5518
  8
AM_5
 10
829.42318319150775
 20
282.36257677424737
 30
0.0
 40
3.5
  1
O-ring:P-07
  0
ENDBLK
  5
551A
  8
0
  0
BLOCK
  8
0
  2
*U85
 70
     1
 10
0.0
 20
0.0
 30
0.0
  3
*U85
  1

  0
TEXT
  5
551C
  8
AM_5
 10
898.44818319150932
 20
330.80562052431412
 30
0.0
 40
3.5
  1
82
 50
90.0
  0
ENDBLK
  5
551E
  8
0
  0
BLOCK
  8
0
  2
*U86
 70
     1
 10
0.0
 20
0.0
 30
0.0
  3
*U86
  1

  0
TEXT
  5
5520
  8
AM_5
 10
846.46437978880556
 20
484.8939230406632
 30
0.0
 40
3.5
  1
4-\U+22056.8
  0
ENDBLK
  5
5522
  8
0
  0
BLOCK
  8
0
  2
*U87
 70
     1
 10
0.0
 20
0.0
 30
0.0
  3
*U87
  1

  0
TEXT
  5
5524
  8
AM_5
 10
823.52559591812087
 20
424.95022039575008
 30
0.0
 40
3.5
  1
\U+22058
  0
ENDBLK
  5
5526
  8
0
  0
ENDSEC
  0
SECTION
  2
ENTITIES
  0
TEXT
  5
37E0
  8
AM_5
 10
257.60006747248542
 20
846.64913316393586
 30
0.0
 40
4.0
  1
CW
  7
ROMANS
  0
TEXT
  5
37E1
  8
AM_5
 10
252.71445230158889
 20
813.58618417953915
 30
0.0
 40
4.0
  1
CCW
  7
ROMANS
  0
POLYLINE
  5
37E2
  8
AM_5
 66
     1
 10
0.0
 20
0.0
 30
0.0
 70
     7
  0
VERTEX
  5
37E3
  8
AM_5
 10
266.23654838345323
 20
844.67461792370591
 30
0.0
 42
-0.0185322085214218
  0
VERTEX
  5
37E4
  8
AM_5
 10
268.26572145333267
 20
849.07571716338703
 30
0.0
  0
VERTEX
  5
37E5
  8
AM_5
 10
267.7305290487331
 20
849.34695338895222
 30
0.0
  0
VERTEX
  5
37E6
  8
AM_5
 10
270.35301383206649
 20
851.38115102780125
 30
0.0
  0
VERTEX
  5
37E7
  8
AM_5
 10
270.13889486943202
 20
848.12639037390886
 30
0.0
  0
VERTEX
  5
37E8
  8
AM_5
 10
269.60370246483211
 20
848.39762659947417
 30
0.0
 42
0.018532208521422
  0
VERTEX
  5
37E9
  8
AM_5
 10
267.62107006169259
 20
844.09747000290429
 30
0.0
  0
SEQEND
  5
37EA
  8
AM_5
  0
POLYLINE
  5
37EB
  8
AM_5
 66
     1
 10
0.0
 20
0.0
 30
0.0
 70
     7
  0
VERTEX
  5
37EC
  8
AM_5
 10
266.23654838345271
 20
818.52032208210369
 30
0.0
 42
0.0185322085214218
  0
VERTEX
  5
37ED
  8
AM_5
 10
268.26572145333228
 20
814.11922284242269
 30
0.0
  0
VERTEX
  5
37EE
  8
AM_5
 10
267.73052904873282
 20
813.8479866168575
 30
0.0
  0
VERTEX
  5
37EF
  8
AM_5
 10
270.35301383206598
 20
811.81378897800835
 30
0.0
  0
VERTEX
  5
37F0
  8
AM_5
 10
270.13889486943151
 20
815.06854963190085
 30
0.0
  0
VERTEX
  5
37F1
  8
AM_5
 10
269.6037024648316
 20
814.79731340633521
 30
0.0
 42
-0.018532208521422
  0
VERTEX
  5
37F2
  8
AM_5
 10
267.62107006169242
 20
819.09747000290429
 30
0.0
  0
SEQEND
  5
37F3
  8
AM_5
  0
LINE
  5
37F4
  8
AM_7
 10
410.3354204576911
 20
831.59747000290395
 30
0.0
 11
377.26257765671602
 21
831.59747000290395
 31
0.0
  0
TEXT
  5
37F5
  8
AM_5
 10
414.62107006169242
 20
828.62270968602559
 30
0.0
 40
3.0
  1
19
 50
90.0
  7
ROMANS
  0
SOLID
  5
37F6
  8
AM_5
 10
416.14201459479261
 20
838.14304674390405
 30
0.0
 11
415.10012552859263
 21
838.14304674390405
 31
0.0
 12
415.62107006169242
 22
841.09747000290395
 32
0.0
 13
415.62107006169242
 23
841.09747000290395
 33
0.0
  0
LINE
  5
37F7
  8
AM_5
 10
408.65580525781411
 20
841.09747000290395
 30
0.0
 11
416.62107006169242
 21
841.09747000290395
 31
0.0
  0
TEXT
  5
37F8
  8
AM_5
 10
374.62107006169242
 20
830.00491748391335
 30
0.0
 40
3.0
  1
9
 50
90.0
  7
ROMANS
  0
SOLID
  5
37F9
  8
AM_5
 10
376.14201459479261
 20
824.14304674390428
 30
0.0
 11
375.10012552859268
 21
824.14304674390428
 31
0.0
 12
375.62107006169242
 22
827.09747000290406
 32
0.0
 13
375.62107006169242
 23
827.09747000290406
 33
0.0
  0
LINE
  5
37FA
  8
AM_5
 10
347.66438300560009
 20
827.09747000290429
 30
0.0
 11
376.96297712207468
 21
827.09747000290429
 31
0.0
  0
LINE
  5
37FB
  8
AM_5
 10
375.62107006169242
 20
822.09747000290372
 30
0.0
 11
375.62107006169242
 21
841.09747000290395
 31
0.0
  0
LINE
  5
37FC
  8
AM_5
 10
415.62107006169242
 20
822.09747000290417
 30
0.0
 11
415.62107006169242
 21
841.09747000290395
 31
0.0
  0
TEXT
  5
37FD
  8
AM_5
 10
378.05398850882051
 20
794.93641959885804
 30
0.0
 40
3.0
  1
4-%%c6.8
  7
ROMANS
  0
SOLID
  5
37FE
  8
AM_5
 10
366.7256959773502
 20
803.77740816802725
 30
0.0
 11
366.0353716809708
 21
802.99703313504881
 31
0.0
 12
364.1676704611026
 22
805.34473246698872
 32
0.0
 13
364.1676704611026
 23
805.34473246698872
 33
0.0
  0
LINE
  5
37FF
  8
AM_5
 10
377.06416356932812
 20
793.93641959885804
 30
0.0
 11
364.1676704611026
 21
805.34473246698872
 31
0.0
  0
LINE
  5
3800
  8
AM_5
 10
377.06416356932812
 20
793.93641959885804
 30
0.0
 11
393.89323157124352
 21
793.93641959885804
 31
0.0
  0
TEXT
  5
3801
  8
AM_5
 10
407.62107006169509
 20
614.33702857286835
 30
0.0
 40
3.0
  1
28
 50
90.0
  7
ROMANS
  0
SOLID
  5
3802
  8
AM_5
 10
409.14201459479489
 20
628.6015636128559
 30
0.0
 11
408.1001255285953
 21
628.6015636128559
 31
0.0
 12
408.62107006169509
 22
631.55598687185568
 32
0.0
 13
408.62107006169509
 23
631.55598687185568
 33
0.0
  0
SOLID
  5
3803
  8
AM_5
 10
408.1001255285953
 20
606.51041013085558
 30
0.0
 11
409.14201459479489
 21
606.51041013085558
 31
0.0
 12
408.62107006169509
 22
603.55598687185568
 32
0.0
 13
408.62107006169509
 23
603.55598687185568
 33
0.0
  0
LINE
  5
3804
  8
AM_5
 10
368.28082941122233
 20
631.55598687185568
 30
0.0
 11
409.62107006169509
 21
631.55598687185568
 31
0.0
  0
TEXT
  5
3805
  8
AM_5
 10
415.62107006169509
 20
640.51232778705355
 30
0.0
 40
3.0
  1
78
 50
90.0
  7
ROMANS
  0
SOLID
  5
3806
  8
AM_5
 10
417.14201459479489
 20
678.60156361285556
 30
0.0
 11
416.1001255285953
 21
678.60156361285556
 31
0.0
 12
416.62107006169509
 22
681.55598687185568
 32
0.0
 13
416.62107006169509
 23
681.55598687185568
 33
0.0
  0
SOLID
  5
3807
  8
AM_5
 10
416.1001255285953
 20
606.51041013085558
 30
0.0
 11
417.14201459479489
 21
606.51041013085558
 31
0.0
 12
416.62107006169509
 22
603.55598687185568
 32
0.0
 13
416.62107006169509
 23
603.55598687185568
 33
0.0
  0
LINE
  5
3808
  8
AM_5
 10
363.5823203148417
 20
681.55598687185568
 30
0.0
 11
417.62107006169509
 21
681.55598687185568
 31
0.0
  0
TEXT
  5
3809
  8
AM_5
 10
423.62107006169509
 20
653.17579693987057
 30
0.0
 40
3.0
  1
108
 50
90.0
  7
ROMANS
  0
SOLID
  5
380A
  8
AM_5
 10
425.14201459479528
 20
708.60156361285556
 30
0.0
 11
424.1001255285953
 21
708.60156361285556
 31
0.0
 12
424.62107006169509
 22
711.55598687185568
 32
0.0
 13
424.62107006169509
 23
711.55598687185568
 33
0.0
  0
SOLID
  5
380B
  8
AM_5
 10
424.1001255285953
 20
606.51041013085558
 30
0.0
 11
425.14201459479528
 21
606.51041013085558
 31
0.0
 12
424.62107006169509
 22
603.55598687185568
 32
0.0
 13
424.62107006169509
 23
603.55598687185568
 33
0.0
  0
LINE
  5
380C
  8
AM_5
 10
368.28082941122233
 20
603.55598687185568
 30
0.0
 11
434.58317616158121
 21
603.55598687185568
 31
0.0
  0
TEXT
  5
380D
  8
AM_5
 10
423.62107006169509
 20
717.9354415865447
 30
0.0
 40
3.0
  1
19
 50
90.0
  7
ROMANS
  0
SOLID
  5
380E
  8
AM_5
 10
425.14201459479528
 20
727.60156361285567
 30
0.0
 11
424.1001255285953
 21
727.60156361285567
 31
0.0
 12
424.62107006169509
 22
730.55598687185579
 32
0.0
 13
424.62107006169509
 23
730.55598687185579
 33
0.0
  0
SOLID
  5
380F
  8
AM_5
 10
424.1001255285953
 20
714.51041013085558
 30
0.0
 11
425.14201459479528
 21
714.51041013085558
 31
0.0
 12
424.62107006169509
 22
711.55598687185568
 32
0.0
 13
424.62107006169509
 23
711.55598687185568
 33
0.0
  0
TEXT
  5
3810
  8
AM_5
 10
431.62107006169509
 20
662.93220029467147
 30
0.0
 40
3.0
  1
127
 50
90.0
  7
ROMANS
  0
SOLID
  5
3811
  8
AM_5
 10
432.10012552859541
 20
606.51041013085558
 30
0.0
 11
433.14201459479528
 21
606.51041013085558
 31
0.0
 12
432.62107006169509
 22
603.55598687185568
 32
0.0
 13
432.62107006169509
 23
603.55598687185568
 33
0.0
  0
LINE
  5
3812
  8
AM_5
 10
348.42215269636921
 20
721.05598687185534
 30
0.0
 11
417.42599253976078
 21
721.05598687185534
 31
0.0
  0
SOLID
  5
3813
  8
AM_5
 10
433.14201459479528
 20
727.60156361285703
 30
0.0
 11
432.10012552859541
 21
727.60156361285703
 31
0.0
 12
432.6210700616956
 22
730.55598687185704
 32
0.0
 13
432.6210700616956
 23
730.55598687185704
 33
0.0
  0
SOLID
  5
3814
  8
AM_5
 10
417.14201459479528
 20
708.60156361285544
 30
0.0
 11
416.1001255285953
 21
708.60156361285544
 31
0.0
 12
416.62107006169509
 22
711.55598687185534
 32
0.0
 13
416.62107006169509
 23
711.55598687185534
 33
0.0
  0
LINE
  5
3815
  8
AM_5
 10
416.62107006169509
 20
685.55598687185568
 30
0.0
 11
416.62107006169509
 21
721.05598687185534
 31
0.0
  0
SOLID
  5
3816
  8
AM_5
 10
417.14201459479528
 20
688.5104101308558
 30
0.0
 11
416.1001255285953
 21
688.5104101308558
 31
0.0
 12
416.62107006169509
 22
685.55598687185568
 32
0.0
 13
416.62107006169509
 23
685.55598687185568
 33
0.0
  0
TEXT
  5
3817
  8
AM_5
 10
415.62107006169509
 20
694.69167157905054
 30
0.0
 40
3.0
  1
26
 50
90.0
  7
ROMANS
  0
LINE
  5
3818
  8
AM_5
 10
408.62107006169509
 20
603.55598687185568
 30
0.0
 11
408.62107006169509
 21
631.55598687185568
 31
0.0
  0
LINE
  5
3819
  8
AM_5
 10
416.62107006169509
 20
603.55598687185568
 30
0.0
 11
416.62107006169509
 21
681.55598687185568
 31
0.0
  0
LINE
  5
381A
  8
AM_5
 10
424.62107006169509
 20
603.55598687185568
 30
0.0
 11
424.62107006169509
 21
730.55598687185579
 31
0.0
  0
LINE
  5
381B
  8
AM_7
 10
533.73612345356901
 20
670.55598687185534
 30
0.0
 11
517.73612345356912
 21
670.55598687185534
 31
0.0
  0
LINE
  5
381C
  8
AM_5
 10
557.29987857794811
 20
653.53789274183191
 30
0.0
 11
584.52279933515717
 21
653.53789274183191
 31
0.0
  0
TEXT
  5
381D
  8
AM_5
 10
560.11386836899135
 20
654.53789274183191
 30
0.0
 40
3.0
  1
2-PT 1/8
  7
ROMANS
  0
TEXT
  5
381E
  8
AM_5
 10
339.70023111662738
 20
652.006925029885
 30
0.0
 40
3.0
  1
%%c55
  7
ROMANS
  0
SOLID
  5
381F
  8
AM_5
 10
313.07549332069232
 20
651.52786956298496
 30
0.0
 11
313.07549332069232
 21
650.48598049678503
 31
0.0
 12
310.12107006169219
 22
651.00692502988488
 32
0.0
 13
310.12107006169219
 23
651.00692502988488
 33
0.0
  0
LINE
  5
3820
  8
AM_5
 10
310.12107006169242
 20
651.00692502988488
 30
0.0
 11
365.12107006169242
 21
651.00692502988488
 31
0.0
  0
TEXT
  5
3821
  8
AM_5
 10
334.65700528304882
 20
739.55598687185568
 30
0.0
 40
3.0
  1
140
  7
ROMANS
  0
SOLID
  5
3822
  8
AM_5
 10
270.57549332069232
 20
739.07693140495599
 30
0.0
 11
270.57549332069232
 21
738.03504233875606
 31
0.0
 12
267.62107006169242
 22
738.55598687185579
 32
0.0
 13
267.62107006169242
 23
738.55598687185579
 33
0.0
  0
LINE
  5
3823
  8
AM_5
 10
267.62107006169242
 20
731.74318047757993
 30
0.0
 11
267.62107006169242
 21
739.7108965030759
 31
0.0
  0
LINE
  5
3824
  8
AM_5
 10
267.62107006169242
 20
738.55598687185579
 30
0.0
 11
407.62107006169418
 21
738.55598687185579
 31
0.0
  0
LINE
  5
3825
  8
AM_7
 10
313.62107006169259
 20
861.39747000290436
 30
0.0
 11
313.62107006169259
 21
849.79747000290411
 31
0.0
  0
LINE
  5
3826
  8
AM_7
 10
319.4210700616926
 20
855.59747000290429
 30
0.0
 11
307.82107006169269
 21
855.59747000290429
 31
0.0
  0
LINE
  5
3827
  8
AM_7
 10
337.62107006169288
 20
864.72614735559978
 30
0.0
 11
337.62107006169271
 21
798.43544366612718
 31
0.0
  0
LINE
  5
3828
  8
UMCL1
 10
535.23612345357003
 20
711.55598687185534
 30
0.0
 11
535.23612345357003
 21
730.55598687185534
 31
0.0
  0
LINE
  5
3829
  8
AM_7
 10
525.73612345357003
 20
732.64622415445444
 30
0.0
 11
525.73612345356958
 21
599.77836104444657
 31
0.0
  0
LINE
  5
382A
  8
UMCL1
 10
516.23612345357003
 20
711.55598687185534
 30
0.0
 11
516.23612345357003
 21
730.55598687185534
 31
0.0
  0
LINE
  5
382B
  8
UMCL1
 10
516.23612345357003
 20
730.55598687185534
 30
0.0
 11
535.23612345357003
 21
730.55598687185534
 31
0.0
  0
LINE
  5
382C
  8
UMCL1
 10
516.23612345357003
 20
711.55598687185534
 30
0.0
 11
535.23612345357003
 21
711.55598687185534
 31
0.0
  0
LINE
  5
382D
  8
UMCL1
 10
307.62107006169242
 20
630.75598687185538
 30
0.0
 11
307.62107006169242
 21
604.35598687185541
 31
0.0
  0
LINE
  5
382E
  8
UMCL1
 10
367.62107006169242
 20
604.35598687185541
 30
0.0
 11
367.62107006169242
 21
630.75598687185538
 31
0.0
  0
LINE
  5
382F
  8
UMCL1
 10
308.42107006169238
 20
631.55598687185534
 30
0.0
 11
366.82107006169218
 21
631.55598687185534
 31
0.0
  0
LINE
  5
3830
  8
UMCL1
 10
308.42107006169238
 20
603.55598687185534
 30
0.0
 11
366.82107006169218
 21
603.55598687185545
 31
0.0
  0
LINE
  5
3831
  8
UMCL1
 10
310.12107006169219
 20
631.55598687185534
 30
0.0
 11
310.12107006169242
 21
677.55598687185534
 31
0.0
  0
LINE
  5
3832
  8
UMCL1
 10
314.12107006169242
 20
681.55598687185534
 30
0.0
 11
361.12107006169242
 21
681.55598687185534
 31
0.0
  0
LINE
  5
3833
  8
UMCL1
 10
365.12107006169242
 20
677.55598687185534
 30
0.0
 11
365.12107006169242
 21
631.55598687185534
 31
0.0
  0
LINE
  5
3834
  8
UMCL1
 10
267.62107006169242
 20
711.55598687185534
 30
0.0
 11
267.62107006169242
 21
730.55598687185534
 31
0.0
  0
LINE
  5
3835
  8
UMCL1
 10
267.62107006169242
 20
730.55598687185534
 30
0.0
 11
407.62107006169418
 21
730.55598687185534
 31
0.0
  0
LINE
  5
3836
  8
UMCL1
 10
267.62107006169242
 20
711.55598687185534
 30
0.0
 11
407.62107006169418
 21
711.55598687185534
 31
0.0
  0
POLYLINE
  5
3837
  8
UMCL1
 66
     1
 10
0.0
 20
0.0
 30
0.0
  0
VERTEX
  5
53C4
  8
UMCL1
 10
307.62107006169242
 20
822.0974700029044
 30
0.0
  0
VERTEX
  5
53C5
  8
UMCL1
 10
307.62107006169242
 20
804.76348967944125
 30
0.0
  0
SEQEND
  5
53C6
  8
UMCL1
  0
LINE
  5
3838
  8
UMCL1
 10
267.62107006169259
 20
841.09747000290452
 30
0.0
 11
267.62107006169242
 21
822.09747000290463
 31
0.0
  0
LINE
  5
3839
  8
UMCL1
 10
267.62107006169259
 20
841.09747000290452
 30
0.0
 11
407.62107006169242
 21
841.09747000290417
 31
0.0
  0
LINE
  5
383A
  8
UMCL1
 10
267.62107006169242
 20
822.09747000290463
 30
0.0
 11
407.62107006169282
 21
822.09747000290417
 31
0.0
  0
CIRCLE
  5
383B
  8
UMCL1
 10
313.62107006169259
 20
855.59747000290429
 30
0.0
 40
3.3999999999999999
  0
CIRCLE
  5
383C
  8
UMCL1
 10
361.62107006169259
 20
855.59747000290429
 30
0.0
 40
3.3999999999999999
  0
CIRCLE
  5
383D
  8
UMCL1
 10
361.62107006169259
 20
807.5974700029044
 30
0.0
 40
3.3999999999999999
  0
CIRCLE
  5
383E
  8
UMCL1
 10
313.62107006169259
 20
807.5974700029044
 30
0.0
 40
3.3999999999999999
  0
LINE
  5
3840
  8
UMCL1
 10
307.62107006169242
 20
604.35598687185541
 30
0.0
 11
367.62107006169242
 21
604.35598687185541
 31
0.0
  0
LINE
  5
3841
  8
UMCL1
 10
307.62107006169242
 20
630.75598687185538
 30
0.0
 11
367.62107006169242
 21
630.75598687185538
 31
0.0
  0
ARC
  5
3842
  8
UMCL1
 10
314.12107006169242
 20
677.55598687185534
 30
0.0
 40
4.0
 50
90.0
 51
180.0
  0
ARC
  5
3843
  8
UMCL1
 10
361.12107006169242
 20
677.55598687185534
 30
0.0
 40
4.0
 50
0.0
 51
90.0
  0
LINE
  5
3844
  8
UMCL1
 10
366.82107006169218
 20
603.55598687185545
 30
0.0
 11
367.62107006169242
 21
604.35598687185541
 31
0.0
  0
LINE
  5
3845
  8
UMCL1
 10
367.62107006169242
 20
630.75598687185538
 30
0.0
 11
366.82107006169218
 21
631.55598687185534
 31
0.0
  0
LINE
  5
3846
  8
UMCL1
 10
308.42107006169238
 20
631.55598687185534
 30
0.0
 11
307.62107006169242
 21
630.75598687185538
 31
0.0
  0
LINE
  5
3847
  8
UMCL1
 10
307.62107006169242
 20
604.35598687185541
 30
0.0
 11
308.42107006169238
 21
603.55598687185534
 31
0.0
  0
POLYLINE
  5
3848
  8
UMCL1
 66
     1
 10
0.0
 20
0.0
 30
0.0
  0
VERTEX
  5
53C7
  8
UMCL1
 10
364.45505038515552
 20
861.5974700029044
 30
0.0
  0
VERTEX
  5
53C8
  8
UMCL1
 10
310.78708973822961
 20
861.5974700029044
 30
0.0
  0
SEQEND
  5
53C9
  8
UMCL1
  0
POLYLINE
  5
3849
  8
UMCL1
 66
     1
 10
0.0
 20
0.0
 30
0.0
  0
VERTEX
  5
53CA
  8
UMCL1
 10
367.62107006169242
 20
804.76348967944125
 30
0.0
  0
VERTEX
  5
53CB
  8
UMCL1
 10
367.62107006169242
 20
822.0974700029044
 30
0.0
  0
SEQEND
  5
53CC
  8
UMCL1
  0
ARC
  5
384A
  8
UMCL1
 10
337.62107006169271
 20
831.59747000290429
 30
0.0
 40
40.25
 50
311.81155054398738
 51
318.18844945601518
  0
POLYLINE
  5
384B
  8
UMCL1
 66
     1
 10
0.0
 20
0.0
 30
0.0
  0
VERTEX
  5
53CD
  8
UMCL1
 10
310.78708973822961
 20
801.5974700029044
 30
0.0
  0
VERTEX
  5
53CE
  8
UMCL1
 10
364.45505038515552
 20
801.5974700029044
 30
0.0
  0
SEQEND
  5
53CF
  8
UMCL1
  0
ARC
  5
384C
  8
UMCL1
 10
337.62107006169271
 20
831.59747000290429
 30
0.0
 40
40.25
 50
221.8115505439844
 51
228.1884494560118
  0
POLYLINE
  5
384D
  8
UMCL1
 66
     1
 10
0.0
 20
0.0
 30
0.0
  0
VERTEX
  5
53D0
  8
UMCL1
 10
307.62107006169259
 20
858.43145032636755
 30
0.0
  0
VERTEX
  5
53D1
  8
UMCL1
 10
307.62107006169259
 20
841.0974700029044
 30
0.0
  0
SEQEND
  5
53D2
  8
UMCL1
  0
ARC
  5
384E
  8
UMCL1
 10
337.62107006169271
 20
831.59747000290429
 30
0.0
 40
40.25
 50
41.811550543984708
 51
48.18844945601262
  0
ARC
  5
384F
  8
UMCL1
 10
337.62107006169271
 20
831.59747000290429
 30
0.0
 40
40.25
 50
131.81155054398741
 51
138.18844945601529
  0
LINE
  5
3850
  8
AM_7
 10
307.82107006169252
 20
807.5974700029044
 30
0.0
 11
319.4210700616926
 21
807.5974700029044
 31
0.0
  0
LINE
  5
3851
  8
AM_7
 10
313.62107006169259
 20
813.39747000290424
 30
0.0
 11
313.62107006169259
 21
801.79747000290445
 31
0.0
  0
LINE
  5
3852
  8
AM_7
 10
361.62107006169242
 20
801.79747000290445
 30
0.0
 11
361.62107006169242
 21
813.39747000290424
 31
0.0
  0
LINE
  5
3853
  8
AM_7
 10
355.82107006169269
 20
807.5974700029044
 30
0.0
 11
367.4210700616926
 21
807.5974700029044
 31
0.0
  0
LINE
  5
3854
  8
AM_7
 10
367.4210700616926
 20
855.59747000290429
 30
0.0
 11
355.82107006169252
 21
855.59747000290429
 31
0.0
  0
LINE
  5
3855
  8
AM_7
 10
361.62107006169242
 20
849.79747000290433
 30
0.0
 11
361.62107006169242
 21
861.39747000290436
 31
0.0
  0
SOLID
  5
3856
  8
AM_5
 10
416.14201459479261
 20
825.05189326190407
 30
0.0
 11
415.10012552859263
 21
825.05189326190407
 31
0.0
 12
415.62107006169242
 22
822.09747000290417
 32
0.0
 13
415.62107006169242
 23
822.09747000290417
 33
0.0
  0
LINE
  5
3857
  8
AM_5
 10
408.65580525781411
 20
822.09747000290417
 30
0.0
 11
416.62107006169242
 21
822.09747000290417
 31
0.0
  0
SOLID
  5
3858
  8
AM_5
 10
376.14201459479261
 20
839.0518932619043
 30
0.0
 11
375.10012552859268
 21
839.0518932619043
 31
0.0
 12
375.62107006169288
 22
836.09747000290429
 32
0.0
 13
375.62107006169288
 23
836.09747000290429
 33
0.0
  0
LINE
  5
3859
  8
AM_5
 10
347.66438300560009
 20
836.09747000290429
 30
0.0
 11
376.96297712207468
 21
836.09747000290429
 31
0.0
  0
LINE
  5
385A
  8
AM_7
 10
337.62107006169327
 20
734.96691674702538
 30
0.0
 11
337.62107006169242
 21
599.76504944456644
 31
0.0
  0
LINE
  5
385B
  8
UMCL1
  6
PHANTOM
 62
     2
 10
267.62107006169242
 20
704.55598687185545
 30
0.0
 11
267.62107006169219
 21
685.55598687185557
 31
0.0
  0
LINE
  5
385C
  8
UMCL1
  6
PHANTOM
 62
     2
 10
267.62107006169242
 20
704.55598687185545
 30
0.0
 11
407.62107006169418
 21
704.55598687185534
 31
0.0
  0
LINE
  5
385D
  8
UMCL1
  6
PHANTOM
 62
     2
 10
267.62107006169219
 20
685.55598687185557
 30
0.0
 11
407.62107006169418
 21
685.555986871855
 31
0.0
  0
SOLID
  5
385E
  8
AM_5
 10
362.16664680269281
 20
651.52786956298496
 30
0.0
 11
362.16664680269281
 21
650.48598049678503
 31
0.0
 12
365.12107006169288
 22
651.00692502988488
 32
0.0
 13
365.12107006169288
 23
651.00692502988488
 33
0.0
  0
LINE
  5
385F
  8
AM_7
 10
521.73612345356912
 20
622.55598687185534
 30
0.0
 11
505.73612345356912
 21
622.55598687185534
 31
0.0
  0
LINE
  5
3860
  8
AM_7
 10
513.73612345356958
 20
630.55598687185534
 30
0.0
 11
513.73612345356958
 21
614.55598687185534
 31
0.0
  0
CIRCLE
  5
3861
  8
UMCL1
 10
513.73612345356958
 20
622.55598687185534
 30
0.0
 40
4.25
  0
ARC
  5
3862
  8
UMCL1
 62
     2
 10
513.73612345356958
 20
622.55598687185534
 30
0.0
 40
5.0
 50
77.498655826076856
 51
10.663004957296041
  0
CIRCLE
  5
3863
  8
UMCL1
 10
525.73612345357003
 20
670.55598687185534
 30
0.0
 40
4.25
  0
ARC
  5
3864
  8
UMCL1
 62
     2
 10
525.73612345357003
 20
670.55598687185534
 30
0.0
 40
5.0
 50
77.498655826076856
 51
10.663004957296041
  0
LINE
  5
3868
  8
UMCL1
  6
CONTINUOUS
 10
310.78708973822961
 20
630.75598687185538
 30
0.0
 11
310.78708973822961
 21
604.35598687185541
 31
0.0
  0
LINE
  5
3869
  8
UMCL1
 10
311.58708973822962
 20
631.55598687185534
 30
0.0
 11
310.78708973822961
 21
630.75598687185538
 31
0.0
  0
LINE
  5
386A
  8
UMCL1
 10
310.78708973822961
 20
604.35598687185541
 30
0.0
 11
311.58708973822962
 21
603.55598687185534
 31
0.0
  0
LINE
  5
386E
  8
UMCL1
  6
CONTINUOUS
 10
364.45505038515552
 20
630.75598687185538
 30
0.0
 11
364.45505038515552
 21
604.35598687185541
 31
0.0
  0
LINE
  5
386F
  8
UMCL1
 10
363.6550503851555
 20
631.55598687185534
 30
0.0
 11
364.45505038515552
 21
630.75598687185538
 31
0.0
  0
LINE
  5
3870
  8
UMCL1
 10
364.45505038515552
 20
604.35598687185541
 30
0.0
 11
363.6550503851555
 21
603.55598687185534
 31
0.0
  0
LINE
  5
3871
  8
UMCL1
 10
495.73612345356901
 20
630.75598687185538
 30
0.0
 11
495.73612345356952
 21
604.35598687185529
 31
0.0
  0
LINE
  5
3872
  8
UMCL1
 10
555.73612345356946
 20
604.35598687185541
 30
0.0
 11
555.73612345356946
 21
630.75598687185538
 31
0.0
  0
LINE
  5
3873
  8
UMCL1
 10
496.53612345356919
 20
631.55598687185534
 30
0.0
 11
554.93612345356939
 21
631.55598687185534
 31
0.0
  0
LINE
  5
3874
  8
UMCL1
 10
496.53612345356919
 20
603.55598687185534
 30
0.0
 11
554.93612345356939
 21
603.55598687185545
 31
0.0
  0
LINE
  5
3875
  8
UMCL1
 10
498.23612345356912
 20
631.55598687185534
 30
0.0
 11
498.23612345356912
 21
677.55598687185534
 31
0.0
  0
LINE
  5
3876
  8
UMCL1
 10
502.23612345356912
 20
681.55598687185534
 30
0.0
 11
549.23612345356946
 21
681.55598687185534
 31
0.0
  0
LINE
  5
3877
  8
UMCL1
 10
553.23612345356946
 20
677.55598687185534
 30
0.0
 11
553.23612345356946
 21
631.55598687185534
 31
0.0
  0
LINE
  5
3879
  8
UMCL1
 10
495.73612345356901
 20
604.35598687185541
 30
0.0
 11
555.73612345356946
 21
604.35598687185541
 31
0.0
  0
LINE
  5
387A
  8
UMCL1
 10
495.73612345356901
 20
630.75598687185538
 30
0.0
 11
555.73612345356946
 21
630.75598687185538
 31
0.0
  0
ARC
  5
387B
  8
UMCL1
 10
502.23612345356912
 20
677.55598687185534
 30
0.0
 40
4.0
 50
90.0
 51
180.0
  0
ARC
  5
387C
  8
UMCL1
 10
549.23612345356946
 20
677.55598687185534
 30
0.0
 40
4.0
 50
0.0
 51
90.0
  0
LINE
  5
387D
  8
UMCL1
 10
554.93612345356939
 20
603.55598687185545
 30
0.0
 11
555.73612345356946
 21
604.35598687185541
 31
0.0
  0
LINE
  5
387E
  8
UMCL1
 10
555.73612345356946
 20
630.75598687185538
 30
0.0
 11
554.93612345356939
 21
631.55598687185534
 31
0.0
  0
LINE
  5
387F
  8
UMCL1
 10
496.53612345356919
 20
631.55598687185534
 30
0.0
 11
495.73612345356901
 21
630.75598687185538
 31
0.0
  0
LINE
  5
3880
  8
UMCL1
 10
495.73612345356952
 20
604.35598687185529
 30
0.0
 11
496.53612345356919
 21
603.55598687185534
 31
0.0
  0
LINE
  5
3884
  8
UMCL1
  6
CONTINUOUS
 10
498.90214313010648
 20
630.75598687185538
 30
0.0
 11
498.90214313010648
 21
604.35598687185541
 31
0.0
  0
LINE
  5
3885
  8
UMCL1
 10
499.70214313010672
 20
631.55598687185534
 30
0.0
 11
498.90214313010648
 21
630.75598687185538
 31
0.0
  0
LINE
  5
3886
  8
UMCL1
 10
498.90214313010648
 20
604.35598687185529
 30
0.0
 11
499.70214313010672
 21
603.55598687185534
 31
0.0
  0
LINE
  5
388A
  8
UMCL1
  6
CONTINUOUS
 10
552.57010377703261
 20
630.75598687185538
 30
0.0
 11
552.57010377703261
 21
604.35598687185541
 31
0.0
  0
LINE
  5
388B
  8
UMCL1
 10
551.77010377703243
 20
631.55598687185534
 30
0.0
 11
552.57010377703261
 21
630.75598687185538
 31
0.0
  0
LINE
  5
388C
  8
UMCL1
 10
552.57010377703261
 20
604.35598687185529
 30
0.0
 11
551.77010377703243
 21
603.55598687185534
 31
0.0
  0
SOLID
  5
388D
  8
AM_5
 10
404.666646802694
 20
739.07693140495599
 30
0.0
 11
404.666646802694
 21
738.03504233875606
 31
0.0
 12
407.62107006169418
 22
738.55598687185579
 32
0.0
 13
407.62107006169418
 23
738.55598687185579
 33
0.0
  0
LINE
  5
388E
  8
AM_5
 10
407.62107006169418
 20
731.74318047757993
 30
0.0
 11
407.62107006169418
 21
739.60500686155251
 31
0.0
  0
LINE
  5
388F
  8
UMCL1
 10
407.62107006169418
 20
711.55598687185534
 30
0.0
 11
407.62107006169418
 21
730.55598687185534
 31
0.0
  0
LINE
  5
3890
  8
UMCL1
  6
PHANTOM
 62
     2
 10
407.62107006169418
 20
704.55598687185545
 30
0.0
 11
407.62107006169418
 21
685.55598687185557
 31
0.0
  0
LINE
  5
3891
  8
AM_5
 10
408.62107006169418
 20
730.55598687185579
 30
0.0
 11
433.59050419786018
 21
730.55598687185579
 31
0.0
  0
LINE
  5
3892
  8
AM_5
 10
408.62107006169418
 20
711.55598687185568
 30
0.0
 11
425.62107006169509
 21
711.55598687185568
 31
0.0
  0
LINE
  5
3893
  8
AM_5
 10
408.62107006169418
 20
685.55598687185568
 30
0.0
 11
417.9331904855124
 21
685.55598687185568
 31
0.0
  0
LINE
  5
3894
  8
AM_7
 10
328.20859587173902
 20
721.05598687185534
 30
0.0
 11
347.41147485513773
 21
721.05598687185534
 31
0.0
  0
CIRCLE
  5
3895
  8
UMCL1
  6
CONTINUOUS
 10
337.62107006169327
 20
721.05598687185534
 30
0.0
 40
4.0
  0
SOLID
  5
3896
  8
AM_5
 10
417.14201459479528
 20
714.51041013085592
 30
0.0
 11
416.1001255285953
 21
714.51041013085592
 31
0.0
 12
416.62107006169509
 22
711.55598687185568
 32
0.0
 13
416.62107006169509
 23
711.55598687185568
 33
0.0
  0
SOLID
  5
3897
  8
AM_5
 10
417.14201459479528
 20
718.10156361285556
 30
0.0
 11
416.1001255285953
 21
718.10156361285556
 31
0.0
 12
416.62107006169509
 22
721.05598687185579
 32
0.0
 13
416.62107006169509
 23
721.05598687185579
 33
0.0
  0
TEXT
  5
3898
  8
AM_5
 10
415.6210700616956
 20
712.68954081323659
 30
0.0
 40
3.0
  1
9.5
 50
90.0
  7
ROMANS
  0
LINE
  5
3899
  8
AM_5
 10
432.62107006169509
 20
603.55598687185568
 30
0.0
 11
432.62107006169509
 21
730.55598687185579
 31
0.0
  0
LINE
  5
389A
  8
AM_7
 10
512.94115115473585
 20
721.05598687185534
 30
0.0
 11
538.27322494790747
 21
721.05598687185534
 31
0.0
  0
SOLID
  5
38A5
  8
AM_5
 10
531.51938909346597
 20
665.34140939241252
 30
0.0
 11
531.97380752451124
 21
666.27897897158709
 31
0.0
 12
529.08798765502831
 22
667.09876167498192
 32
0.0
 13
529.08798765502831
 23
667.09876167498192
 33
0.0
  0
LINE
  5
38A6
  8
AM_5
 10
557.29987857794811
 20
653.53789274183191
 30
0.0
 11
531.74659830898861
 21
665.8101941819998
 31
0.0
  0
LINE
  5
38A7
  8
UMCL1
 10
407.62107006169242
 20
841.09747000290452
 30
0.0
 11
407.62107006169282
 21
822.09747000290463
 31
0.0
  0
LINE
  5
38A8
  8
UMCL1
 10
345.62107006169271
 20
836.09747000290429
 30
0.0
 11
329.62107006169271
 21
836.09747000290429
 31
0.0
  0
LINE
  5
38A9
  8
UMCL1
 10
345.62107006169271
 20
827.09747000290429
 30
0.0
 11
329.62107006169271
 21
827.09747000290429
 31
0.0
  0
ARC
  5
38AA
  8
UMCL1
 10
329.62107006169271
 20
831.59747000290429
 30
0.0
 40
4.5
 50
90.0
 51
270.0
  0
ARC
  5
38AB
  8
UMCL1
 10
345.62107006169271
 20
831.59747000290429
 30
0.0
 40
4.5
 50
270.0
 51
90.0
  0
ARC
  5
38AC
  8
UMCL1
 10
337.62107006169271
 20
831.59747000290429
 30
0.0
 40
8.0
 50
145.771133672188
 51
214.2288663278118
  0
ARC
  5
38AD
  8
UMCL1
 10
337.62107006169271
 20
831.59747000290429
 30
0.0
 40
7.5
 50
143.13010235415479
 51
216.8698976458451
  0
ARC
  5
38AE
  8
UMCL1
 10
337.62107006169271
 20
831.59747000290429
 30
0.0
 40
8.0
 50
325.77113367218772
 51
34.228866327811957
  0
ARC
  5
38AF
  8
UMCL1
 10
337.62107006169271
 20
831.59747000290429
 30
0.0
 40
7.5
 50
323.13010235415339
 51
36.869897645845157
  0
LINE
  5
38B0
  8
UMCL1
 10
330.12107006169339
 20
711.25598687185504
 30
0.0
 11
329.6210700616931
 21
709.75598687185504
 31
0.0
  0
LINE
  5
38B1
  8
UMCL1
 10
329.6210700616931
 20
709.75598687185504
 30
0.0
 11
345.62107006169327
 21
709.75598687185504
 31
0.0
  0
LINE
  5
38B2
  8
UMCL1
 10
345.62107006169327
 20
709.75598687185504
 30
0.0
 11
345.12107006169327
 21
711.25598687185504
 31
0.0
  0
LINE
  5
38B3
  8
UMCL1
 10
345.12107006169327
 20
711.25598687185504
 30
0.0
 11
345.1210700616931
 21
711.55598687185534
 31
0.0
  0
LINE
  5
38B4
  8
UMCL1
 10
330.12107006169339
 20
711.25598687185504
 30
0.0
 11
330.12107006169339
 21
711.55598687185534
 31
0.0
  0
LINE
  5
38B5
  8
UMCL1
 10
330.12107006169339
 20
711.25598687185504
 30
0.0
 11
345.12107006169327
 21
711.25598687185504
 31
0.0
  0
LINE
  5
38B6
  8
UMCL1
 10
329.62107006169242
 20
709.75598687185504
 30
0.0
 11
329.62107006169242
 21
681.55598687185534
 31
0.0
  0
LINE
  5
38B7
  8
UMCL1
 10
345.62107006169242
 20
709.75598687185504
 30
0.0
 11
345.62107006169242
 21
681.55598687185534
 31
0.0
  0
LINE
  5
38B8
  8
UMCL1
 10
518.23612345357003
 20
711.25598687185504
 30
0.0
 11
517.73612345357003
 21
709.75598687185504
 31
0.0
  0
LINE
  5
38B9
  8
UMCL1
 10
517.73612345357003
 20
709.75598687185504
 30
0.0
 11
533.73612345357003
 21
709.75598687185504
 31
0.0
  0
LINE
  5
38BA
  8
UMCL1
 10
533.73612345357003
 20
709.75598687185504
 30
0.0
 11
533.23612345357003
 21
711.25598687185504
 31
0.0
  0
LINE
  5
38BB
  8
UMCL1
 10
518.23612345357003
 20
711.25598687185504
 30
0.0
 11
533.23612345357003
 21
711.25598687185504
 31
0.0
  0
LINE
  5
38BC
  8
UMCL1
 10
517.73612345357003
 20
709.75598687185504
 30
0.0
 11
517.73612345357003
 21
681.55598687185534
 31
0.0
  0
LINE
  5
38BD
  8
UMCL1
 10
533.73612345357003
 20
709.75598687185504
 30
0.0
 11
533.73612345357003
 21
681.55598687185534
 31
0.0
  0
LINE
  5
38BE
  8
UMCL1
 10
530.23612345357003
 20
711.55598687185534
 30
0.0
 11
530.23612345357003
 21
711.25598687185504
 31
0.0
  0
LINE
  5
38BF
  8
UMCL1
 10
521.23612345357003
 20
711.55598687185534
 30
0.0
 11
521.23612345357003
 21
711.25598687185504
 31
0.0
  0
TEXT
  5
38C0
  8
AM_5
 10
336.06768867453201
 20
786.5974700029044
 30
0.0
 40
3.0
  1
48
  7
ROMANS
  0
SOLID
  5
38C1
  8
AM_5
 10
358.66664680269253
 20
785.07652546980444
 30
0.0
 11
358.66664680269253
 21
786.11841453600425
 31
0.0
 12
361.62107006169259
 22
785.5974700029044
 32
0.0
 13
361.62107006169259
 23
785.5974700029044
 33
0.0
  0
LINE
  5
38C2
  8
AM_5
 10
361.62107006169259
 20
799.30078496676617
 30
0.0
 11
361.62107006169259
 21
784.5974700029044
 31
0.0
  0
TEXT
  5
38C3
  8
AM_5
 10
336.08208697164071
 20
778.5974700029044
 30
0.0
 40
3.0
  1
60
  7
ROMANS
  0
SOLID
  5
38C4
  8
AM_5
 10
364.66664680269281
 20
777.07652546980444
 30
0.0
 11
364.66664680269281
 21
778.11841453600425
 31
0.0
 12
367.62107006169288
 22
777.5974700029044
 32
0.0
 13
367.62107006169288
 23
777.5974700029044
 33
0.0
  0
LINE
  5
38C5
  8
AM_5
 10
367.62107006169288
 20
802.69799993707136
 30
0.0
 11
367.62107006169288
 21
776.5974700029044
 31
0.0
  0
POLYLINE
  5
38C6
  8
AM_5
 66
     1
 10
0.0
 20
0.0
 30
0.0
 70
     1
  0
VERTEX
  5
53D3
  8
AM_5
 10
335.67328877438592
 20
789.37616157384309
 30
0.0
  0
VERTEX
  5
53D4
  8
AM_5
 10
335.67328877438592
 20
786.89777439110696
 30
0.0
  0
VERTEX
  5
53D5
  8
AM_5
 10
333.30616566544143
 20
786.89777439110696
 30
0.0
  0
VERTEX
  5
53D6
  8
AM_5
 10
333.30616566544143
 20
789.37616157384309
 30
0.0
  0
SEQEND
  5
53D7
  8
AM_5
  0
POLYLINE
  5
38C7
  8
AM_5
 66
     1
 10
0.0
 20
0.0
 30
0.0
 70
     1
  0
VERTEX
  5
53D8
  8
AM_5
 10
335.67328877438592
 20
781.37616157384309
 30
0.0
  0
VERTEX
  5
53D9
  8
AM_5
 10
335.67328877438592
 20
778.89777439110696
 30
0.0
  0
VERTEX
  5
53DA
  8
AM_5
 10
333.30616566544143
 20
778.89777439110696
 30
0.0
  0
VERTEX
  5
53DB
  8
AM_5
 10
333.30616566544143
 20
781.37616157384309
 30
0.0
  0
SEQEND
  5
53DC
  8
AM_5
  0
TEXT
  5
38C8
  8
AM_5
 10
334.7533274694166
 20
794.5974700029044
 30
0.0
 40
3.0
  1
25
  7
ROMANS
  0
LINE
  5
38C9
  8
AM_5
 10
325.12107006169271
 20
793.5974700029044
 30
0.0
 11
350.12107006169242
 21
793.5974700029044
 31
0.0
  0
LINE
  5
38CA
  8
AM_5
 10
313.62107006169242
 20
785.5974700029044
 30
0.0
 11
361.62107006169259
 21
785.5974700029044
 31
0.0
  0
LINE
  5
38CB
  8
AM_5
 10
307.62107006169219
 20
777.5974700029044
 30
0.0
 11
367.62107006169288
 21
777.5974700029044
 31
0.0
  0
SOLID
  5
38CC
  8
AM_5
 10
316.57549332069232
 20
785.07652546980444
 30
0.0
 11
316.57549332069232
 21
786.11841453600425
 31
0.0
 12
313.62107006169242
 22
785.5974700029044
 32
0.0
 13
313.62107006169242
 23
785.5974700029044
 33
0.0
  0
LINE
  5
38CD
  8
AM_5
 10
313.62107006169219
 20
799.30078496676617
 30
0.0
 11
313.62107006169242
 21
784.5974700029044
 31
0.0
  0
SOLID
  5
38CE
  8
AM_5
 10
310.57549332069209
 20
777.07652546980444
 30
0.0
 11
310.57549332069209
 21
778.11841453600425
 31
0.0
 12
307.62107006169219
 22
777.5974700029044
 32
0.0
 13
307.62107006169219
 23
777.5974700029044
 33
0.0
  0
LINE
  5
38CF
  8
AM_5
 10
307.62107006169219
 20
802.69799993707136
 30
0.0
 11
307.62107006169219
 21
776.5974700029044
 31
0.0
  0
SOLID
  5
38D0
  8
AM_5
 10
328.07549332069277
 20
793.07652546980421
 30
0.0
 11
328.07549332069277
 21
794.11841453600425
 31
0.0
 12
325.12107006169288
 22
793.5974700029044
 32
0.0
 13
325.12107006169288
 23
793.5974700029044
 33
0.0
  0
LINE
  5
38D1
  8
AM_5
 10
325.12107006169271
 20
829.46336570514734
 30
0.0
 11
325.12107006169271
 21
792.25556294252226
 31
0.0
  0
SOLID
  5
38D2
  8
AM_5
 10
347.1666468026923
 20
793.07652546980421
 30
0.0
 11
347.1666468026923
 21
794.11841453600425
 31
0.0
 12
350.12107006169242
 22
793.5974700029044
 32
0.0
 13
350.12107006169242
 23
793.5974700029044
 33
0.0
  0
LINE
  5
38D3
  8
AM_5
 10
350.12107006169242
 20
829.46336570514734
 30
0.0
 11
350.12107006169242
 21
792.25556294252226
 31
0.0
  0
LINE
  5
38D4
  8
AM_7
 10
370.88976062657127
 20
831.59747000290395
 30
0.0
 11
264.53968858911151
 21
831.59747000290463
 31
0.0
  0
SOLID
  5
38D5
  8
AM_5
 10
343.17509604783521
 20
725.27359062483538
 30
0.0
 11
342.48477175145592
 21
726.05396565781371
 31
0.0
 12
340.61707053158767
 22
723.70626632587414
 32
0.0
 13
340.61707053158767
 23
723.70626632587414
 33
0.0
  0
LINE
  5
38D6
  8
AM_5
 10
365.77115095906021
 20
745.95771228242586
 30
0.0
 11
340.61707053158767
 21
723.70626632587391
 31
0.0
  0
TEXT
  5
38D7
  8
AM_5
 10
369.06556632437781
 20
746.95771228242597
 30
0.0
 40
3.0
  1
%%c8
  7
ROMANS
  0
LINE
  5
38D8
  8
AM_5
 10
365.77115095906021
 20
745.95771228242586
 30
0.0
 11
375.40192428562739
 21
745.95771228242586
 31
0.0
  0
ARC
  5
38D9
  8
UMCL1
 10
337.62107006169271
 20
831.59747000290429
 30
0.0
 40
27.5
 50
200.20954537374951
 51
339.79045462624521
  0
ARC
  5
38DA
  8
UMCL1
 10
337.62107006169271
 20
831.59747000290429
 30
0.0
 40
27.5
 50
20.209545373755379
 51
159.79045462624461
  0
POLYLINE
  5
38DB
  8
UMCL1
 66
     1
 10
0.0
 20
0.0
 30
0.0
  0
VERTEX
  5
53DD
  8
UMCL1
 10
367.62107006169242
 20
841.0974700029044
 30
0.0
  0
VERTEX
  5
53DE
  8
UMCL1
 10
367.62107006169242
 20
858.43145032636755
 30
0.0
  0
SEQEND
  5
53DF
  8
UMCL1
  0
TEXT
  5
3A62
  8
AM_5
 10
752.43356336060469
 20
846.64913316393597
 30
0.0
 40
4.0
  1
CW
  7
ROMANS
  0
TEXT
  5
3A63
  8
AM_5
 10
747.54794818970822
 20
813.58618417953915
 30
0.0
 40
4.0
  1
CCW
  7
ROMANS
  0
POLYLINE
  5
3A64
  8
AM_5
 66
     1
 10
0.0
 20
0.0
 30
0.0
 70
     5
 75
     6
  0
VERTEX
  5
3A65
  8
AM_5
 10
761.07004427157244
 20
844.67461792370591
 30
0.0
 70
    16
  0
VERTEX
  5
52EC
  8
AM_5
 10
762.67182309570535
 20
848.38740666103445
 30
0.0
 70
     8
  0
VERTEX
  5
52ED
  8
AM_5
 10
762.74702542611203
 20
848.64908130993285
 30
0.0
 70
     8
  0
VERTEX
  5
52EE
  8
AM_5
 10
762.79333541055473
 20
848.85773627194533
 30
0.0
 70
     8
  0
VERTEX
  5
52EF
  8
AM_5
 10
762.82192891360876
 20
849.02488096978186
 30
0.0
 70
     8
  0
VERTEX
  5
52F0
  8
AM_5
 10
762.84398179984919
 20
849.16202482615222
 30
0.0
 70
     8
  0
VERTEX
  5
52F1
  8
AM_5
 10
762.87066993385088
 20
849.28067726376605
 30
0.0
 70
     8
  0
VERTEX
  5
52F2
  8
AM_5
 10
762.91316918018913
 20
849.39234770533301
 30
0.0
 70
     8
  0
VERTEX
  5
52F3
  8
AM_5
 10
762.98265540343868
 20
849.50854557356331
 30
0.0
 70
     8
  0
VERTEX
  5
52F4
  8
AM_5
 10
763.09030446817462
 20
849.64078029116615
 30
0.0
 70
     8
  0
VERTEX
  5
52F5
  8
AM_5
 10
763.2434783315515
 20
849.79634749695413
 30
0.0
 70
     8
  0
VERTEX
  5
52F6
  8
AM_5
 10
763.43428332104065
 20
849.96568769414864
 30
0.0
 70
     8
  0
VERTEX
  5
52F7
  8
AM_5
 10
763.65101185669312
 20
850.13502760207416
 30
0.0
 70
     8
  0
VERTEX
  5
52F8
  8
AM_5
 10
763.88195635856005
 20
850.2905939400548
 30
0.0
 70
     8
  0
VERTEX
  5
52F9
  8
AM_5
 10
764.11540924669237
 20
850.41861342741458
 30
0.0
 70
     8
  0
VERTEX
  5
52FA
  8
AM_5
 10
764.339662941141
 20
850.50531278347773
 30
0.0
 70
     8
  0
VERTEX
  5
52FB
  8
AM_5
 10
764.54300986195676
 20
850.5369187275686
 30
0.0
 70
     8
  0
VERTEX
  5
52FC
  8
AM_5
 10
764.71374242919103
 20
850.49965797901086
 30
0.0
 70
     8
  0
VERTEX
  5
52FD
  8
AM_5
 10
764.84292318374025
 20
850.38492225546224
 30
0.0
 70
     8
  0
VERTEX
  5
52FE
  8
AM_5
 10
764.93269514988356
 20
850.20476326791015
 30
0.0
 70
     8
  0
VERTEX
  5
52FF
  8
AM_5
 10
764.98797147274615
 20
849.97639772567527
 30
0.0
 70
     8
  0
VERTEX
  5
5300
  8
AM_5
 10
765.01366529745314
 20
849.71704233807827
 30
0.0
 70
     8
  0
VERTEX
  5
5301
  8
AM_5
 10
765.0146897691294
 20
849.44391381444018
 30
0.0
 70
     8
  0
VERTEX
  5
5302
  8
AM_5
 10
764.99595803289992
 20
849.17422886408156
 30
0.0
 70
     8
  0
VERTEX
  5
5303
  8
AM_5
 10
764.96238323388957
 20
848.92520419632308
 30
0.0
 70
     8
  0
VERTEX
  5
5304
  8
AM_5
 10
764.91887851722367
 20
848.71405652048531
 30
0.0
 70
     8
  0
VERTEX
  5
5305
  8
AM_5
 10
764.86917151472596
 20
848.55249722529231
 30
0.0
 70
     8
  0
VERTEX
  5
5306
  8
AM_5
 10
764.81224780501691
 20
848.43021641707969
 30
0.0
 70
     8
  0
VERTEX
  5
5307
  8
AM_5
 10
764.74590745341538
 20
848.33139888158667
 30
0.0
 70
     8
  0
VERTEX
  5
5308
  8
AM_5
 10
764.66795052524083
 20
848.24022940455268
 30
0.0
 70
     8
  0
VERTEX
  5
5309
  8
AM_5
 10
764.57617708581222
 20
848.14089277171649
 30
0.0
 70
     8
  0
VERTEX
  5
530A
  8
AM_5
 10
764.46838720044877
 20
848.01757376881721
 30
0.0
 70
     8
  0
VERTEX
  5
530B
  8
AM_5
 10
764.34238093446993
 20
847.85445718159383
 30
0.0
 70
     8
  0
VERTEX
  5
530C
  8
AM_5
 10
764.19595835319467
 20
847.63572779578544
 30
0.0
 70
     8
  0
VERTEX
  5
530D
  8
AM_5
 10
764.02795204709844
 20
847.3512820140063
 30
0.0
 70
     8
  0
VERTEX
  5
530E
  8
AM_5
 10
763.84132470728173
 20
847.01386270637295
 30
0.0
 70
     8
  0
VERTEX
  5
530F
  8
AM_5
 10
763.64007155000127
 20
846.64192435987604
 30
0.0
 70
     8
  0
VERTEX
  5
5310
  8
AM_5
 10
763.42818779151401
 20
846.25392146150682
 30
0.0
 70
     8
  0
VERTEX
  5
5311
  8
AM_5
 10
763.20966864807622
 20
845.86830849825674
 30
0.0
 70
     8
  0
VERTEX
  5
5312
  8
AM_5
 10
762.98850933594485
 20
845.50353995711691
 30
0.0
 70
     8
  0
VERTEX
  5
5313
  8
AM_5
 10
762.76870507137664
 20
845.17807032507858
 30
0.0
 70
     8
  0
VERTEX
  5
5314
  8
AM_5
 10
762.55425107062854
 20
844.91035408913285
 30
0.0
 70
     8
  0
VERTEX
  5
5315
  8
AM_5
 10
762.34939321183811
 20
844.71542710002836
 30
0.0
 70
     8
  0
VERTEX
  5
5316
  8
AM_5
 10
762.15938002066969
 20
844.59465066354187
 30
0.0
 70
     8
  0
VERTEX
  5
5317
  8
AM_5
 10
761.98971068466847
 20
844.54596744920786
 30
0.0
 70
     8
  0
VERTEX
  5
5318
  8
AM_5
 10
761.84588439137985
 20
844.56732012656039
 30
0.0
 70
     8
  0
VERTEX
  5
5319
  8
AM_5
 10
761.73340032834938
 20
844.65665136513348
 30
0.0
 70
     8
  0
VERTEX
  5
531A
  8
AM_5
 10
761.65775768312221
 20
844.81190383446142
 30
0.0
 70
     8
  0
VERTEX
  5
531B
  8
AM_5
 10
761.62445564324355
 20
845.03102020407869
 30
0.0
 70
     8
  0
VERTEX
  5
531C
  8
AM_5
 10
761.6389933962588
 20
845.31194314351922
 30
0.0
 70
     8
  0
VERTEX
  5
531D
  8
AM_5
 10
761.70400761531073
 20
845.6503690784582
 30
0.0
 70
     8
  0
VERTEX
  5
531E
  8
AM_5
 10
761.81068491592953
 20
846.03300945913566
 30
0.0
 70
     8
  0
VERTEX
  5
531F
  8
AM_5
 10
761.94734939924319
 20
846.44432949193231
 30
0.0
 70
     8
  0
VERTEX
  5
5320
  8
AM_5
 10
762.10232516637961
 20
846.8687943832291
 30
0.0
 70
     8
  0
VERTEX
  5
5321
  8
AM_5
 10
762.26393631846634
 20
847.29086933940687
 30
0.0
 70
     8
  0
VERTEX
  5
5322
  8
AM_5
 10
762.4205069566309
 20
847.69501956684644
 30
0.0
 70
     8
  0
VERTEX
  5
5323
  8
AM_5
 10
762.56036118200154
 20
848.06571027192865
 30
0.0
 70
     8
  0
VERTEX
  5
3A66
  8
AM_5
 10
763.099217341452
 20
849.07571716338703
 30
0.0
 70
    16
  0
VERTEX
  5
3A67
  8
AM_5
 10
762.56402493685255
 20
849.34695338895222
 30
0.0
 70
    16
  0
VERTEX
  5
3A68
  8
AM_5
 10
765.18650972018577
 20
851.38115102780125
 30
0.0
 70
    16
  0
VERTEX
  5
3A69
  8
AM_5
 10
764.97239075755124
 20
848.12639037390898
 30
0.0
 70
    16
  0
VERTEX
  5
3A6A
  8
AM_5
 10
764.43719835295133
 20
848.39762659947439
 30
0.0
 70
    16
  0
VERTEX
  5
3A6B
  8
AM_5
 10
762.45456594981158
 20
844.09747000290429
 30
0.0
 70
    16
  0
SEQEND
  5
3A6C
  8
AM_5
  0
POLYLINE
  5
3A6D
  8
AM_5
 66
     1
 10
0.0
 20
0.0
 30
0.0
 70
     5
 75
     6
  0
VERTEX
  5
3A6E
  8
AM_5
 10
761.07004427157187
 20
818.52032208210369
 30
0.0
 70
    16
  0
VERTEX
  5
52B4
  8
AM_5
 10
762.67182309570501
 20
814.80753334477527
 30
0.0
 70
     8
  0
VERTEX
  5
52B5
  8
AM_5
 10
762.74702542611146
 20
814.54585869587686
 30
0.0
 70
     8
  0
VERTEX
  5
52B6
  8
AM_5
 10
762.79333541055416
 20
814.33720373386427
 30
0.0
 70
     8
  0
VERTEX
  5
52B7
  8
AM_5
 10
762.8219289136083
 20
814.17005903602785
 30
0.0
 70
     8
  0
VERTEX
  5
52B8
  8
AM_5
 10
762.84398179984873
 20
814.03291517965738
 30
0.0
 70
     8
  0
VERTEX
  5
52B9
  8
AM_5
 10
762.87066993385054
 20
813.91426274204366
 30
0.0
 70
     8
  0
VERTEX
  5
52BA
  8
AM_5
 10
762.91316918018856
 20
813.80259230047659
 30
0.0
 70
     8
  0
VERTEX
  5
52BB
  8
AM_5
 10
762.98265540343834
 20
813.68639443224629
 30
0.0
 70
     8
  0
VERTEX
  5
52BC
  8
AM_5
 10
763.09030446817405
 20
813.55415971464345
 30
0.0
 70
     8
  0
VERTEX
  5
52BD
  8
AM_5
 10
763.24347833155105
 20
813.3985925088557
 30
0.0
 70
     8
  0
VERTEX
  5
52BE
  8
AM_5
 10
763.4342833210402
 20
813.22925231166118
 30
0.0
 70
     8
  0
VERTEX
  5
52BF
  8
AM_5
 10
763.65101185669255
 20
813.05991240373555
 30
0.0
 70
     8
  0
VERTEX
  5
52C0
  8
AM_5
 10
763.88195635855971
 20
812.90434606575502
 30
0.0
 70
     8
  0
VERTEX
  5
52C1
  8
AM_5
 10
764.11540924669191
 20
812.77632657839524
 30
0.0
 70
     8
  0
VERTEX
  5
52C2
  8
AM_5
 10
764.33966294114055
 20
812.68962722233209
 30
0.0
 70
     8
  0
VERTEX
  5
52C3
  8
AM_5
 10
764.54300986195642
 20
812.65802127824122
 30
0.0
 70
     8
  0
VERTEX
  5
52C4
  8
AM_5
 10
764.7137424291908
 20
812.69528202679874
 30
0.0
 70
     8
  0
VERTEX
  5
52C5
  8
AM_5
 10
764.84292318373991
 20
812.81001775034736
 30
0.0
 70
     8
  0
VERTEX
  5
52C6
  8
AM_5
 10
764.93269514988333
 20
812.99017673789956
 30
0.0
 70
     8
  0
VERTEX
  5
52C7
  8
AM_5
 10
764.98797147274593
 20
813.21854228013433
 30
0.0
 70
     8
  0
VERTEX
  5
52C8
  8
AM_5
 10
765.0136652974528
 20
813.47789766773133
 30
0.0
 70
     8
  0
VERTEX
  5
52C9
  8
AM_5
 10
765.01468976912895
 20
813.75102619136942
 30
0.0
 70
     8
  0
VERTEX
  5
52CA
  8
AM_5
 10
764.99595803289935
 20
814.02071114172804
 30
0.0
 70
     8
  0
VERTEX
  5
52CB
  8
AM_5
 10
764.96238323388923
 20
814.26973580948652
 30
0.0
 70
     8
  0
VERTEX
  5
52CC
  8
AM_5
 10
764.91887851722322
 20
814.48088348532474
 30
0.0
 70
     8
  0
VERTEX
  5
52CD
  8
AM_5
 10
764.86917151472562
 20
814.64244278051774
 30
0.0
 70
     8
  0
VERTEX
  5
52CE
  8
AM_5
 10
764.81224780501645
 20
814.76472358873013
 30
0.0
 70
     8
  0
VERTEX
  5
52CF
  8
AM_5
 10
764.74590745341493
 20
814.86354112422305
 30
0.0
 70
     8
  0
VERTEX
  5
52D0
  8
AM_5
 10
764.66795052524037
 20
814.95471060125726
 30
0.0
 70
     8
  0
VERTEX
  5
52D1
  8
AM_5
 10
764.57617708581176
 20
815.05404723409345
 30
0.0
 70
     8
  0
VERTEX
  5
52D2
  8
AM_5
 10
764.46838720044843
 20
815.17736623699295
 30
0.0
 70
     8
  0
VERTEX
  5
52D3
  8
AM_5
 10
764.34238093446959
 20
815.34048282421622
 30
0.0
 70
     8
  0
VERTEX
  5
52D4
  8
AM_5
 10
764.19595835319433
 20
815.55921221002461
 30
0.0
 70
     8
  0
VERTEX
  5
52D5
  8
AM_5
 10
764.0279520470981
 20
815.8436579918033
 30
0.0
 70
     8
  0
VERTEX
  5
52D6
  8
AM_5
 10
763.84132470728161
 20
816.18107729943677
 30
0.0
 70
     8
  0
VERTEX
  5
52D7
  8
AM_5
 10
763.64007155000115
 20
816.55301564593356
 30
0.0
 70
     8
  0
VERTEX
  5
52D8
  8
AM_5
 10
763.42818779151366
 20
816.94101854430266
 30
0.0
 70
     8
  0
VERTEX
  5
52D9
  8
AM_5
 10
763.20966864807599
 20
817.32663150755263
 30
0.0
 70
     8
  0
VERTEX
  5
52DA
  8
AM_5
 10
762.98850933594485
 20
817.69140004869234
 30
0.0
 70
     8
  0
VERTEX
  5
52DB
  8
AM_5
 10
762.76870507137664
 20
818.01686968073079
 30
0.0
 70
     8
  0
VERTEX
  5
52DC
  8
AM_5
 10
762.55425107062808
 20
818.28458591667618
 30
0.0
 70
     8
  0
VERTEX
  5
52DD
  8
AM_5
 10
762.34939321183765
 20
818.47951290578067
 30
0.0
 70
     8
  0
VERTEX
  5
52DE
  8
AM_5
 10
762.15938002066935
 20
818.60028934226716
 30
0.0
 70
     8
  0
VERTEX
  5
52DF
  8
AM_5
 10
761.98971068466824
 20
818.64897255660117
 30
0.0
 70
     8
  0
VERTEX
  5
52E0
  8
AM_5
 10
761.84588439137963
 20
818.62761987924887
 30
0.0
 70
     8
  0
VERTEX
  5
52E1
  8
AM_5
 10
761.73340032834903
 20
818.53828864067577
 30
0.0
 70
     8
  0
VERTEX
  5
52E2
  8
AM_5
 10
761.65775768312164
 20
818.38303617134795
 30
0.0
 70
     8
  0
VERTEX
  5
52E3
  8
AM_5
 10
761.62445564324298
 20
818.16391980173091
 30
0.0
 70
     8
  0
VERTEX
  5
52E4
  8
AM_5
 10
761.63899339625857
 20
817.88299686229027
 30
0.0
 70
     8
  0
VERTEX
  5
52E5
  8
AM_5
 10
761.70400761531016
 20
817.5445709273514
 30
0.0
 70
     8
  0
VERTEX
  5
52E6
  8
AM_5
 10
761.8106849159293
 20
817.16193054667394
 30
0.0
 70
     8
  0
VERTEX
  5
52E7
  8
AM_5
 10
761.94734939924285
 20
816.75061051387729
 30
0.0
 70
     8
  0
VERTEX
  5
52E8
  8
AM_5
 10
762.10232516637927
 20
816.3261456225805
 30
0.0
 70
     8
  0
VERTEX
  5
52E9
  8
AM_5
 10
762.26393631846577
 20
815.90407066640273
 30
0.0
 70
     8
  0
VERTEX
  5
52EA
  8
AM_5
 10
762.42050695663045
 20
815.49992043896339
 30
0.0
 70
     8
  0
VERTEX
  5
52EB
  8
AM_5
 10
762.56036118200109
 20
815.12922973388106
 30
0.0
 70
     8
  0
VERTEX
  5
3A6F
  8
AM_5
 10
763.09921734145155
 20
814.11922284242269
 30
0.0
 70
    16
  0
VERTEX
  5
3A70
  8
AM_5
 10
762.56402493685209
 20
813.8479866168575
 30
0.0
 70
    16
  0
VERTEX
  5
3A71
  8
AM_5
 10
765.18650972018531
 20
811.81378897800846
 30
0.0
 70
    16
  0
VERTEX
  5
3A72
  8
AM_5
 10
764.97239075755067
 20
815.06854963190085
 30
0.0
 70
    16
  0
VERTEX
  5
3A73
  8
AM_5
 10
764.43719835295076
 20
814.79731340633543
 30
0.0
 70
    16
  0
VERTEX
  5
3A74
  8
AM_5
 10
762.45456594981158
 20
819.09747000290463
 30
0.0
 70
    16
  0
SEQEND
  5
3A75
  8
AM_5
  0
LINE
  5
3A76
  8
AM_7
 10
905.16891634581054
 20
831.59747000290395
 30
0.0
 11
872.09607354483524
 21
831.59747000290406
 31
0.0
  0
TEXT
  5
3A77
  8
AM_5
 10
909.45456594981158
 20
828.62270968602559
 30
0.0
 40
3.0
  1
19
 50
90.0
  7
ROMANS
  0
SOLID
  5
3A78
  8
AM_5
 10
910.97551048291189
 20
838.14304674390416
 30
0.0
 11
909.93362141671196
 21
838.14304674390416
 31
0.0
 12
910.45456594981158
 22
841.09747000290417
 32
0.0
 13
910.45456594981158
 23
841.09747000290417
 33
0.0
  0
LINE
  5
3A79
  8
AM_5
 10
903.4893011459335
 20
841.09747000290417
 30
0.0
 11
911.45456594981181
 21
841.09747000290417
 31
0.0
  0
TEXT
  5
3A7A
  8
AM_5
 10
869.45456594981158
 20
830.00491748391335
 30
0.0
 40
3.0
  1
9
 50
90.0
  7
ROMANS
  0
SOLID
  5
3A7B
  8
AM_5
 10
870.97551048291189
 20
824.14304674390428
 30
0.0
 11
869.93362141671196
 21
824.14304674390428
 31
0.0
 12
870.45456594981169
 22
827.09747000290429
 32
0.0
 13
870.45456594981169
 23
827.09747000290429
 33
0.0
  0
LINE
  5
3A7C
  8
AM_5
 10
842.49787889371953
 20
827.09747000290429
 30
0.0
 11
871.79647301019395
 21
827.09747000290429
 31
0.0
  0
LINE
  5
3A7D
  8
AM_5
 10
870.45456594981169
 20
822.09747000290372
 30
0.0
 11
870.45456594981169
 21
841.09747000290395
 31
0.0
  0
LINE
  5
3A7E
  8
AM_5
 10
910.45456594981158
 20
822.0974700029044
 30
0.0
 11
910.45456594981158
 21
841.09747000290417
 31
0.0
  0
TEXT
  5
3A7F
  8
AM_5
 10
872.88748439693961
 20
794.93641959885804
 30
0.0
 40
3.0
  1
4-%%c6.8
  7
ROMANS
  0
SOLID
  5
3A80
  8
AM_5
 10
861.55919186546953
 20
803.77740816802748
 30
0.0
 11
860.86886756909007
 21
802.99703313504915
 31
0.0
 12
859.00116634922176
 22
805.34473246698872
 32
0.0
 13
859.00116634922176
 23
805.34473246698872
 33
0.0
  0
LINE
  5
3A81
  8
AM_5
 10
871.89765945744739
 20
793.93641959885804
 30
0.0
 11
859.00116634922176
 21
805.34473246698894
 31
0.0
  0
LINE
  5
3A82
  8
AM_5
 10
871.89765945744739
 20
793.93641959885804
 30
0.0
 11
888.72672745936268
 21
793.93641959885804
 31
0.0
  0
TEXT
  5
3A83
  8
AM_5
 10
902.45456594981442
 20
614.33702857286858
 30
0.0
 40
3.0
  1
28
 50
90.0
  7
ROMANS
  0
SOLID
  5
3A84
  8
AM_5
 10
903.97551048291416
 20
628.60156361285613
 30
0.0
 11
902.93362141671457
 21
628.60156361285613
 31
0.0
 12
903.45456594981442
 22
631.55598687185602
 32
0.0
 13
903.45456594981442
 23
631.55598687185602
 33
0.0
  0
SOLID
  5
3A85
  8
AM_5
 10
902.93362141671457
 20
606.51041013085592
 30
0.0
 11
903.97551048291416
 21
606.51041013085592
 31
0.0
 12
903.45456594981442
 22
603.55598687185568
 32
0.0
 13
903.45456594981442
 23
603.55598687185568
 33
0.0
  0
LINE
  5
3A86
  8
AM_5
 10
863.11432529934154
 20
631.55598687185602
 30
0.0
 11
904.45456594981442
 21
631.55598687185602
 31
0.0
  0
TEXT
  5
3A87
  8
AM_5
 10
910.45456594981442
 20
640.51232778705378
 30
0.0
 40
3.0
  1
83
 50
90.0
  7
ROMANS
  0
SOLID
  5
3A88
  8
AM_5
 10
911.97551048291416
 20
683.60156361285556
 30
0.0
 11
910.93362141671469
 21
683.60156361285556
 31
0.0
 12
911.45456594981442
 22
686.55598687185568
 32
0.0
 13
911.45456594981442
 23
686.55598687185568
 33
0.0
  0
SOLID
  5
3A89
  8
AM_5
 10
910.93362141671469
 20
606.51041013085592
 30
0.0
 11
911.97551048291416
 21
606.51041013085592
 31
0.0
 12
911.45456594981442
 22
603.55598687185568
 32
0.0
 13
911.45456594981442
 23
603.55598687185568
 33
0.0
  0
LINE
  5
3A8A
  8
AM_5
 10
858.41581620296108
 20
686.55598687185568
 30
0.0
 11
912.45456594981442
 21
686.55598687185568
 31
0.0
  0
TEXT
  5
3A8B
  8
AM_5
 10
918.45456594981442
 20
658.17579693987057
 30
0.0
 40
3.0
  1
113
 50
90.0
  7
ROMANS
  0
SOLID
  5
3A8C
  8
AM_5
 10
919.9755104829145
 20
713.60156361285556
 30
0.0
 11
918.93362141671469
 21
713.60156361285556
 31
0.0
 12
919.45456594981442
 22
716.55598687185579
 32
0.0
 13
919.45456594981442
 23
716.55598687185579
 33
0.0
  0
SOLID
  5
3A8D
  8
AM_5
 10
918.93362141671469
 20
606.51041013085592
 30
0.0
 11
919.9755104829145
 21
606.51041013085592
 31
0.0
 12
919.45456594981442
 22
603.55598687185568
 32
0.0
 13
919.45456594981442
 23
603.55598687185568
 33
0.0
  0
LINE
  5
3A8E
  8
AM_5
 10
863.11432529934154
 20
603.55598687185568
 30
0.0
 11
929.41667204970042
 21
603.55598687185568
 31
0.0
  0
TEXT
  5
3A8F
  8
AM_5
 10
918.45456594981442
 20
722.93544158654481
 30
0.0
 40
3.0
  1
19
 50
90.0
  7
ROMANS
  0
SOLID
  5
3A90
  8
AM_5
 10
919.9755104829145
 20
732.6015636128559
 30
0.0
 11
918.93362141671469
 21
732.6015636128559
 31
0.0
 12
919.45456594981442
 22
735.55598687185568
 32
0.0
 13
919.45456594981442
 23
735.55598687185568
 33
0.0
  0
SOLID
  5
3A91
  8
AM_5
 10
918.93362141671469
 20
719.51041013085592
 30
0.0
 11
919.9755104829145
 21
719.51041013085592
 31
0.0
 12
919.45456594981442
 22
716.55598687185579
 32
0.0
 13
919.45456594981442
 23
716.55598687185579
 33
0.0
  0
TEXT
  5
3A92
  8
AM_5
 10
926.45456594981454
 20
667.9322002946717
 30
0.0
 40
3.0
  1
132
 50
90.0
  7
ROMANS
  0
SOLID
  5
3A93
  8
AM_5
 10
926.93362141671469
 20
606.51041013085592
 30
0.0
 11
927.97551048291461
 21
606.51041013085592
 31
0.0
 12
927.45456594981442
 22
603.55598687185568
 32
0.0
 13
927.45456594981442
 23
603.55598687185568
 33
0.0
  0
LINE
  5
3A94
  8
AM_5
 10
843.25564858448843
 20
726.05598687185534
 30
0.0
 11
912.25948842788
 21
726.05598687185534
 31
0.0
  0
SOLID
  5
3A95
  8
AM_5
 10
927.97551048291461
 20
732.60156361285703
 30
0.0
 11
926.93362141671469
 21
732.60156361285703
 31
0.0
 12
927.45456594981476
 22
735.55598687185716
 32
0.0
 13
927.45456594981476
 23
735.55598687185716
 33
0.0
  0
SOLID
  5
3A96
  8
AM_5
 10
911.9755104829145
 20
713.60156361285556
 30
0.0
 11
910.93362141671469
 21
713.60156361285556
 31
0.0
 12
911.45456594981442
 22
716.55598687185545
 32
0.0
 13
911.45456594981442
 23
716.55598687185545
 33
0.0
  0
LINE
  5
3A97
  8
AM_5
 10
911.45456594981442
 20
690.55598687185568
 30
0.0
 11
911.45456594981442
 21
726.05598687185534
 31
0.0
  0
SOLID
  5
3A98
  8
AM_5
 10
911.9755104829145
 20
693.51041013085592
 30
0.0
 11
910.93362141671469
 21
693.51041013085592
 31
0.0
 12
911.45456594981442
 22
690.55598687185568
 32
0.0
 13
911.45456594981442
 23
690.55598687185568
 33
0.0
  0
TEXT
  5
3A99
  8
AM_5
 10
910.45456594981442
 20
699.69167157905065
 30
0.0
 40
3.0
  1
26
 50
90.0
  7
ROMANS
  0
LINE
  5
3A9A
  8
AM_5
 10
903.45456594981442
 20
603.55598687185568
 30
0.0
 11
903.45456594981442
 21
631.55598687185602
 31
0.0
  0
LINE
  5
3A9B
  8
AM_5
 10
911.45456594981442
 20
603.55598687185568
 30
0.0
 11
911.45456594981442
 21
686.55598687185568
 31
0.0
  0
LINE
  5
3A9C
  8
AM_5
 10
919.45456594981442
 20
603.55598687185568
 30
0.0
 11
919.45456594981442
 21
735.55598687185568
 31
0.0
  0
LINE
  5
3A9D
  8
AM_7
 10
1028.5696193416879
 20
675.55598687185534
 30
0.0
 11
1012.5696193416881
 21
675.55598687185534
 31
0.0
  0
TEXT
  5
3AA0
  8
AM_5
 10
837.47596703853185
 20
657.006925029885
 30
0.0
 40
3.0
  1
%%c55
  7
ROMANS
  0
SOLID
  5
3AA1
  8
AM_5
 10
807.90898920881125
 20
656.52786956298507
 30
0.0
 11
807.90898920881125
 21
655.48598049678503
 31
0.0
 12
804.95456594981158
 22
656.006925029885
 32
0.0
 13
804.95456594981158
 23
656.006925029885
 33
0.0
  0
LINE
  5
3AA2
  8
AM_5
 10
804.95456594981158
 20
656.006925029885
 30
0.0
 11
859.95456594981169
 21
656.006925029885
 31
0.0
  0
TEXT
  5
3AA3
  8
AM_5
 10
829.49050117116803
 20
744.55598687185568
 30
0.0
 40
3.0
  1
140
  7
ROMANS
  0
SOLID
  5
3AA4
  8
AM_5
 10
765.4089892088117
 20
744.07693140495599
 30
0.0
 11
765.4089892088117
 21
743.03504233875606
 31
0.0
 12
762.45456594981158
 22
743.55598687185602
 32
0.0
 13
762.45456594981158
 23
743.55598687185602
 33
0.0
  0
LINE
  5
3AA5
  8
AM_5
 10
762.45456594981158
 20
736.74318047757993
 30
0.0
 11
762.45456594981158
 21
744.7108965030759
 31
0.0
  0
LINE
  5
3AA6
  8
AM_5
 10
762.45456594981158
 20
743.55598687185579
 30
0.0
 11
902.45456594981351
 21
743.55598687185579
 31
0.0
  0
LINE
  5
3AA7
  8
AM_7
 10
808.45456594981215
 20
861.39747000290447
 30
0.0
 11
808.45456594981215
 21
849.79747000290433
 31
0.0
  0
LINE
  5
3AA8
  8
AM_7
 10
814.25456594981176
 20
855.59747000290429
 30
0.0
 11
802.65456594981197
 21
855.59747000290429
 31
0.0
  0
LINE
  5
3AA9
  8
AM_7
 10
832.45456594981215
 20
864.72614735560001
 30
0.0
 11
832.45456594981169
 21
798.4354436661273
 31
0.0
  0
LINE
  5
3AAA
  8
UMCL1
 10
1030.0696193416891
 20
716.55598687185534
 30
0.0
 11
1030.0696193416891
 21
735.55598687185534
 31
0.0
  0
LINE
  5
3AAB
  8
AM_7
 10
1020.569619341689
 20
737.64622415445467
 30
0.0
 11
1020.569619341689
 21
599.77836104444691
 31
0.0
  0
LINE
  5
3AAC
  8
UMCL1
 10
1011.069619341689
 20
716.55598687185534
 30
0.0
 11
1011.069619341689
 21
735.55598687185534
 31
0.0
  0
LINE
  5
3AAD
  8
UMCL1
 10
1011.069619341689
 20
735.55598687185534
 30
0.0
 11
1030.0696193416891
 21
735.55598687185534
 31
0.0
  0
LINE
  5
3AAE
  8
UMCL1
 10
1011.069619341689
 20
716.55598687185534
 30
0.0
 11
1030.0696193416891
 21
716.55598687185534
 31
0.0
  0
LINE
  5
3AAF
  8
UMCL1
 10
802.45456594981158
 20
630.75598687185561
 30
0.0
 11
802.45456594981158
 21
604.35598687185541
 31
0.0
  0
LINE
  5
3AB0
  8
UMCL1
 10
862.45456594981169
 20
604.35598687185563
 30
0.0
 11
862.45456594981169
 21
630.75598687185561
 31
0.0
  0
LINE
  5
3AB1
  8
UMCL1
 10
803.25456594981131
 20
631.55598687185557
 30
0.0
 11
861.65456594981151
 21
631.55598687185557
 31
0.0
  0
LINE
  5
3AB2
  8
UMCL1
 10
803.25456594981188
 20
603.55598687185545
 30
0.0
 11
861.65456594981151
 21
603.55598687185545
 31
0.0
  0
LINE
  5
3AB3
  8
UMCL1
 10
804.95456594981158
 20
631.55598687185557
 30
0.0
 11
804.95456594981158
 21
682.55598687185534
 31
0.0
  0
LINE
  5
3AB4
  8
UMCL1
 10
808.95456594981169
 20
686.55598687185545
 30
0.0
 11
855.95456594981158
 21
686.55598687185534
 31
0.0
  0
LINE
  5
3AB5
  8
UMCL1
 10
859.95456594981169
 20
682.55598687185534
 30
0.0
 11
859.95456594981169
 21
631.55598687185557
 31
0.0
  0
LINE
  5
3AB6
  8
UMCL1
 10
762.45456594981158
 20
716.55598687185534
 30
0.0
 11
762.45456594981158
 21
735.55598687185534
 31
0.0
  0
LINE
  5
3AB7
  8
UMCL1
 10
762.45456594981158
 20
735.55598687185534
 30
0.0
 11
902.45456594981351
 21
735.55598687185557
 31
0.0
  0
LINE
  5
3AB8
  8
UMCL1
 10
762.45456594981158
 20
716.55598687185534
 30
0.0
 11
902.45456594981351
 21
716.55598687185534
 31
0.0
  0
POLYLINE
  5
3AB9
  8
UMCL1
 66
     1
 10
0.0
 20
0.0
 30
0.0
  0
VERTEX
  5
53E0
  8
UMCL1
 10
802.45456594981158
 20
822.0974700029044
 30
0.0
  0
VERTEX
  5
53E1
  8
UMCL1
 10
802.45456594981158
 20
804.76348967944159
 30
0.0
  0
SEQEND
  5
53E2
  8
UMCL1
  0
LINE
  5
3ABA
  8
UMCL1
 10
762.45456594981158
 20
841.09747000290486
 30
0.0
 11
762.45456594981158
 21
822.09747000290486
 31
0.0
  0
LINE
  5
3ABB
  8
UMCL1
 10
762.45456594981158
 20
841.09747000290486
 30
0.0
 11
902.45456594981158
 21
841.0974700029044
 31
0.0
  0
LINE
  5
3ABC
  8
UMCL1
 10
762.45456594981158
 20
822.09747000290486
 30
0.0
 11
902.45456594981215
 21
822.0974700029044
 31
0.0
  0
CIRCLE
  5
3ABD
  8
UMCL1
 10
808.45456594981158
 20
855.59747000290429
 30
0.0
 40
3.3999999999999999
  0
CIRCLE
  5
3ABE
  8
UMCL1
 10
856.45456594981169
 20
855.59747000290429
 30
0.0
 40
3.3999999999999999
  0
CIRCLE
  5
3ABF
  8
UMCL1
 10
856.45456594981169
 20
807.5974700029044
 30
0.0
 40
3.3999999999999999
  0
CIRCLE
  5
3AC0
  8
UMCL1
 10
808.45456594981158
 20
807.5974700029044
 30
0.0
 40
3.3999999999999999
  0
LINE
  5
3AC2
  8
UMCL1
 10
802.45456594981158
 20
604.35598687185541
 30
0.0
 11
862.45456594981169
 21
604.35598687185541
 31
0.0
  0
LINE
  5
3AC3
  8
UMCL1
 10
802.45456594981158
 20
630.75598687185561
 30
0.0
 11
862.45456594981169
 21
630.75598687185561
 31
0.0
  0
ARC
  5
3AC4
  8
UMCL1
 10
808.95456594981169
 20
682.55598687185545
 30
0.0
 40
4.0
 50
90.0
 51
180.0
  0
ARC
  5
3AC5
  8
UMCL1
 10
855.95456594981158
 20
682.55598687185534
 30
0.0
 40
4.0
 50
0.0
 51
90.0
  0
LINE
  5
3AC6
  8
UMCL1
 10
861.65456594981151
 20
603.55598687185545
 30
0.0
 11
862.45456594981169
 21
604.35598687185563
 31
0.0
  0
LINE
  5
3AC7
  8
UMCL1
 10
862.45456594981169
 20
630.75598687185561
 30
0.0
 11
861.65456594981151
 21
631.55598687185557
 31
0.0
  0
LINE
  5
3AC8
  8
UMCL1
 10
803.25456594981131
 20
631.55598687185557
 30
0.0
 11
802.45456594981158
 21
630.75598687185561
 31
0.0
  0
LINE
  5
3AC9
  8
UMCL1
 10
802.45456594981158
 20
604.35598687185541
 30
0.0
 11
803.25456594981188
 21
603.55598687185545
 31
0.0
  0
POLYLINE
  5
3ACA
  8
UMCL1
 66
     1
 10
0.0
 20
0.0
 30
0.0
  0
VERTEX
  5
53E3
  8
UMCL1
 10
859.28854627327473
 20
861.5974700029044
 30
0.0
  0
VERTEX
  5
53E4
  8
UMCL1
 10
805.620585626349
 20
861.5974700029044
 30
0.0
  0
SEQEND
  5
53E5
  8
UMCL1
  0
POLYLINE
  5
3ACB
  8
UMCL1
 66
     1
 10
0.0
 20
0.0
 30
0.0
  0
VERTEX
  5
53E6
  8
UMCL1
 10
862.45456594981169
 20
804.76348967944125
 30
0.0
  0
VERTEX
  5
53E7
  8
UMCL1
 10
862.45456594981169
 20
822.0974700029044
 30
0.0
  0
SEQEND
  5
53E8
  8
UMCL1
  0
ARC
  5
3ACC
  8
UMCL1
 10
832.45456594981169
 20
831.59747000290429
 30
0.0
 40
40.25
 50
311.81155054399733
 51
318.18844945601512
  0
POLYLINE
  5
3ACD
  8
UMCL1
 66
     1
 10
0.0
 20
0.0
 30
0.0
  0
VERTEX
  5
53E9
  8
UMCL1
 10
805.62058562634866
 20
801.5974700029044
 30
0.0
  0
VERTEX
  5
53EA
  8
UMCL1
 10
859.28854627327473
 20
801.5974700029044
 30
0.0
  0
SEQEND
  5
53EB
  8
UMCL1
  0
ARC
  5
3ACE
  8
UMCL1
 10
832.45456594981169
 20
831.59747000290429
 30
0.0
 40
40.25
 50
221.8115505439842
 51
228.18844945600219
  0
POLYLINE
  5
3ACF
  8
UMCL1
 66
     1
 10
0.0
 20
0.0
 30
0.0
  0
VERTEX
  5
53EC
  8
UMCL1
 10
802.45456594981158
 20
858.43145032636755
 30
0.0
  0
VERTEX
  5
53ED
  8
UMCL1
 10
802.45456594981158
 20
841.09747000290452
 30
0.0
  0
SEQEND
  5
53EE
  8
UMCL1
  0
ARC
  5
3AD0
  8
UMCL1
 10
832.45456594981169
 20
831.59747000290429
 30
0.0
 40
40.25
 50
41.811550543984872
 51
48.188449456002772
  0
ARC
  5
3AD1
  8
UMCL1
 10
832.45456594981169
 20
831.59747000290429
 30
0.0
 40
40.25
 50
131.81155054399721
 51
138.18844945601509
  0
LINE
  5
3AD2
  8
AM_7
 10
802.65456594981197
 20
807.59747000290463
 30
0.0
 11
814.25456594981176
 21
807.59747000290463
 31
0.0
  0
LINE
  5
3AD3
  8
AM_7
 10
808.45456594981158
 20
813.39747000290458
 30
0.0
 11
808.45456594981158
 21
801.79747000290456
 31
0.0
  0
LINE
  5
3AD4
  8
AM_7
 10
856.45456594981169
 20
801.79747000290445
 30
0.0
 11
856.45456594981169
 21
813.39747000290458
 31
0.0
  0
LINE
  5
3AD5
  8
AM_7
 10
850.65456594981185
 20
807.59747000290463
 30
0.0
 11
862.25456594981176
 21
807.59747000290463
 31
0.0
  0
LINE
  5
3AD6
  8
AM_7
 10
862.25456594981176
 20
855.59747000290429
 30
0.0
 11
850.65456594981185
 21
855.59747000290429
 31
0.0
  0
LINE
  5
3AD7
  8
AM_7
 10
856.45456594981169
 20
849.79747000290467
 30
0.0
 11
856.45456594981169
 21
861.39747000290447
 31
0.0
  0
SOLID
  5
3AD8
  8
AM_5
 10
910.97551048291189
 20
825.05189326190418
 30
0.0
 11
909.93362141671196
 21
825.05189326190418
 31
0.0
 12
910.45456594981158
 22
822.0974700029044
 32
0.0
 13
910.45456594981158
 23
822.0974700029044
 33
0.0
  0
LINE
  5
3AD9
  8
AM_5
 10
903.4893011459335
 20
822.0974700029044
 30
0.0
 11
911.45456594981181
 21
822.0974700029044
 31
0.0
  0
SOLID
  5
3ADA
  8
AM_5
 10
870.97551048291189
 20
839.05189326190452
 30
0.0
 11
869.93362141671196
 21
839.05189326190452
 31
0.0
 12
870.45456594981215
 22
836.09747000290429
 32
0.0
 13
870.45456594981215
 23
836.09747000290429
 33
0.0
  0
LINE
  5
3ADB
  8
AM_5
 10
842.49787889371953
 20
836.09747000290429
 30
0.0
 11
871.79647301019395
 21
836.09747000290429
 31
0.0
  0
LINE
  5
3ADC
  8
AM_7
 10
832.45456594981249
 20
739.96691674702527
 30
0.0
 11
832.45456594981169
 21
599.76504944456667
 31
0.0
  0
LINE
  5
3ADD
  8
UMCL1
  6
PHANTOM
 62
     2
 10
762.45456594981158
 20
709.55598687185579
 30
0.0
 11
762.45456594981124
 21
690.55598687185568
 31
0.0
  0
LINE
  5
3ADE
  8
UMCL1
  6
PHANTOM
 62
     2
 10
762.45456594981158
 20
709.55598687185579
 30
0.0
 11
902.45456594981351
 21
709.55598687185534
 31
0.0
  0
LINE
  5
3ADF
  8
UMCL1
  6
PHANTOM
 62
     2
 10
762.45456594981124
 20
690.55598687185568
 30
0.0
 11
902.45456594981351
 21
690.55598687185534
 31
0.0
  0
SOLID
  5
3AE0
  8
AM_5
 10
857.00014269081203
 20
656.52786956298507
 30
0.0
 11
857.00014269081203
 21
655.48598049678503
 31
0.0
 12
859.95456594981204
 22
656.006925029885
 32
0.0
 13
859.95456594981204
 23
656.006925029885
 33
0.0
  0
LINE
  5
3AE1
  8
AM_7
 10
1016.5696193416881
 20
622.55598687185534
 30
0.0
 11
1000.5696193416881
 21
622.55598687185534
 31
0.0
  0
LINE
  5
3AE2
  8
AM_7
 10
1008.569619341689
 20
630.55598687185545
 30
0.0
 11
1008.569619341689
 21
614.55598687185557
 31
0.0
  0
CIRCLE
  5
3AE3
  8
UMCL1
 10
1008.569619341689
 20
622.55598687185534
 30
0.0
 40
4.25
  0
ARC
  5
3AE4
  8
UMCL1
 62
     2
 10
1008.569619341689
 20
622.55598687185534
 30
0.0
 40
5.0
 50
77.498655826064137
 51
10.663004957298449
  0
CIRCLE
  5
3AE5
  8
UMCL1
 10
1020.569619341689
 20
675.55598687185534
 30
0.0
 40
4.25
  0
ARC
  5
3AE6
  8
UMCL1
 62
     2
 10
1020.569619341689
 20
675.55598687185534
 30
0.0
 40
5.0
 50
77.498655826064137
 51
10.663004957298449
  0
LINE
  5
3AEA
  8
UMCL1
  6
CONTINUOUS
 10
805.62058562634866
 20
630.75598687185561
 30
0.0
 11
805.62058562634866
 21
604.35598687185541
 31
0.0
  0
LINE
  5
3AEB
  8
UMCL1
 10
806.42058562634872
 20
631.55598687185557
 30
0.0
 11
805.62058562634866
 21
630.75598687185561
 31
0.0
  0
LINE
  5
3AEC
  8
UMCL1
 10
805.620585626349
 20
604.35598687185541
 30
0.0
 11
806.42058562634872
 21
603.55598687185545
 31
0.0
  0
LINE
  5
3AF0
  8
UMCL1
  6
CONTINUOUS
 10
859.28854627327473
 20
630.75598687185561
 30
0.0
 11
859.28854627327473
 21
604.35598687185541
 31
0.0
  0
LINE
  5
3AF1
  8
UMCL1
 10
858.48854627327489
 20
631.55598687185557
 30
0.0
 11
859.28854627327473
 21
630.75598687185561
 31
0.0
  0
LINE
  5
3AF2
  8
UMCL1
 10
859.28854627327473
 20
604.35598687185541
 30
0.0
 11
858.48854627327455
 21
603.55598687185545
 31
0.0
  0
LINE
  5
3AF3
  8
UMCL1
 10
990.56961934168851
 20
630.75598687185561
 30
0.0
 11
990.56961934168885
 21
604.35598687185541
 31
0.0
  0
LINE
  5
3AF4
  8
UMCL1
 10
1050.5696193416891
 20
604.35598687185541
 30
0.0
 11
1050.5696193416891
 21
630.75598687185561
 31
0.0
  0
LINE
  5
3AF5
  8
UMCL1
 10
991.36961934168846
 20
631.55598687185557
 30
0.0
 11
1049.769619341688
 21
631.55598687185557
 31
0.0
  0
LINE
  5
3AF6
  8
UMCL1
 10
991.36961934168846
 20
603.55598687185545
 30
0.0
 11
1049.769619341688
 21
603.55598687185545
 31
0.0
  0
LINE
  5
3AF7
  8
UMCL1
 10
993.06961934168828
 20
631.55598687185557
 30
0.0
 11
993.06961934168828
 21
682.55598687185534
 31
0.0
  0
LINE
  5
3AF8
  8
UMCL1
 10
997.06961934168839
 20
686.55598687185534
 30
0.0
 11
1044.0696193416891
 21
686.55598687185534
 31
0.0
  0
LINE
  5
3AF9
  8
UMCL1
 10
1048.0696193416879
 20
682.55598687185534
 30
0.0
 11
1048.0696193416879
 21
631.55598687185557
 31
0.0
  0
LINE
  5
3AFB
  8
UMCL1
 10
990.56961934168851
 20
604.35598687185541
 30
0.0
 11
1050.5696193416891
 21
604.35598687185541
 31
0.0
  0
LINE
  5
3AFC
  8
UMCL1
 10
990.56961934168851
 20
630.75598687185561
 30
0.0
 11
1050.5696193416891
 21
630.75598687185561
 31
0.0
  0
ARC
  5
3AFD
  8
UMCL1
 10
997.06961934168839
 20
682.55598687185534
 30
0.0
 40
4.0
 50
90.0
 51
180.0
  0
ARC
  5
3AFE
  8
UMCL1
 10
1044.0696193416891
 20
682.55598687185534
 30
0.0
 40
4.0
 50
0.0
 51
90.0
  0
LINE
  5
3AFF
  8
UMCL1
 10
1049.769619341688
 20
603.55598687185545
 30
0.0
 11
1050.5696193416891
 21
604.35598687185541
 31
0.0
  0
LINE
  5
3B00
  8
UMCL1
 10
1050.5696193416891
 20
630.75598687185561
 30
0.0
 11
1049.769619341688
 21
631.55598687185557
 31
0.0
  0
LINE
  5
3B01
  8
UMCL1
 10
991.36961934168846
 20
631.55598687185557
 30
0.0
 11
990.56961934168851
 21
630.75598687185561
 31
0.0
  0
LINE
  5
3B02
  8
UMCL1
 10
990.56961934168885
 20
604.35598687185541
 30
0.0
 11
991.36961934168846
 21
603.55598687185545
 31
0.0
  0
LINE
  5
3B06
  8
UMCL1
  6
CONTINUOUS
 10
993.7356390182257
 20
630.75598687185561
 30
0.0
 11
993.7356390182257
 21
604.35598687185541
 31
0.0
  0
LINE
  5
3B07
  8
UMCL1
 10
994.53563901822599
 20
631.55598687185534
 30
0.0
 11
993.7356390182257
 21
630.75598687185561
 31
0.0
  0
LINE
  5
3B08
  8
UMCL1
 10
993.7356390182257
 20
604.35598687185541
 30
0.0
 11
994.53563901822599
 21
603.55598687185545
 31
0.0
  0
LINE
  5
3B0C
  8
UMCL1
  6
CONTINUOUS
 10
1047.4035996651519
 20
630.75598687185561
 30
0.0
 11
1047.4035996651519
 21
604.35598687185541
 31
0.0
  0
LINE
  5
3B0D
  8
UMCL1
 10
1046.603599665151
 20
631.55598687185534
 30
0.0
 11
1047.4035996651519
 21
630.75598687185561
 31
0.0
  0
LINE
  5
3B0E
  8
UMCL1
 10
1047.4035996651519
 20
604.35598687185541
 30
0.0
 11
1046.603599665151
 21
603.55598687185545
 31
0.0
  0
SOLID
  5
3B0F
  8
AM_5
 10
899.50014269081328
 20
744.07693140495599
 30
0.0
 11
899.50014269081328
 21
743.03504233875606
 31
0.0
 12
902.45456594981351
 22
743.55598687185602
 32
0.0
 13
902.45456594981351
 23
743.55598687185602
 33
0.0
  0
LINE
  5
3B10
  8
AM_5
 10
902.45456594981351
 20
736.74318047757993
 30
0.0
 11
902.45456594981351
 21
744.60500686155274
 31
0.0
  0
LINE
  5
3B11
  8
UMCL1
 10
902.45456594981351
 20
716.55598687185534
 30
0.0
 11
902.45456594981351
 21
735.55598687185534
 31
0.0
  0
LINE
  5
3B12
  8
UMCL1
  6
PHANTOM
 62
     2
 10
902.45456594981351
 20
709.55598687185579
 30
0.0
 11
902.45456594981351
 21
690.55598687185568
 31
0.0
  0
LINE
  5
3B13
  8
AM_5
 10
903.45456594981351
 20
735.55598687185568
 30
0.0
 11
928.4240000859794
 21
735.55598687185568
 31
0.0
  0
LINE
  5
3B14
  8
AM_5
 10
903.45456594981351
 20
716.55598687185579
 30
0.0
 11
920.45456594981442
 21
716.55598687185579
 31
0.0
  0
LINE
  5
3B15
  8
AM_5
 10
903.45456594981351
 20
690.55598687185568
 30
0.0
 11
912.76668637363173
 21
690.55598687185568
 31
0.0
  0
LINE
  5
3B16
  8
AM_7
 10
823.04209175985864
 20
726.05598687185534
 30
0.0
 11
842.24497074325689
 21
726.05598687185534
 31
0.0
  0
CIRCLE
  5
3B17
  8
UMCL1
  6
CONTINUOUS
 10
832.45456594981249
 20
726.05598687185534
 30
0.0
 40
4.0
  0
SOLID
  5
3B18
  8
AM_5
 10
911.9755104829145
 20
719.51041013085592
 30
0.0
 11
910.93362141671469
 21
719.51041013085592
 31
0.0
 12
911.45456594981442
 22
716.55598687185579
 32
0.0
 13
911.45456594981442
 23
716.55598687185579
 33
0.0
  0
SOLID
  5
3B19
  8
AM_5
 10
911.9755104829145
 20
723.10156361285567
 30
0.0
 11
910.93362141671469
 21
723.10156361285567
 31
0.0
 12
911.45456594981442
 22
726.05598687185579
 32
0.0
 13
911.45456594981442
 23
726.05598687185579
 33
0.0
  0
TEXT
  5
3B1A
  8
AM_5
 10
910.45456594981476
 20
717.68954081323659
 30
0.0
 40
3.0
  1
9.5
 50
90.0
  7
ROMANS
  0
LINE
  5
3B1B
  8
AM_5
 10
927.45456594981442
 20
603.55598687185568
 30
0.0
 11
927.45456594981442
 21
735.55598687185568
 31
0.0
  0
LINE
  5
3B1C
  8
AM_7
 10
1007.774647042855
 20
726.05598687185534
 30
0.0
 11
1033.1067208360271
 21
726.05598687185534
 31
0.0
  0
LINE
  5
3B29
  8
UMCL1
 10
902.45456594981158
 20
841.09747000290486
 30
0.0
 11
902.45456594981215
 21
822.09747000290486
 31
0.0
  0
LINE
  5
3B2A
  8
UMCL1
 10
840.45456594981215
 20
836.09747000290429
 30
0.0
 11
824.45456594981215
 21
836.09747000290429
 31
0.0
  0
LINE
  5
3B2B
  8
UMCL1
 10
840.45456594981215
 20
827.09747000290429
 30
0.0
 11
824.45456594981215
 21
827.09747000290429
 31
0.0
  0
ARC
  5
3B2C
  8
UMCL1
 10
824.45456594981215
 20
831.59747000290429
 30
0.0
 40
4.5
 50
90.0
 51
270.0
  0
ARC
  5
3B2D
  8
UMCL1
 10
840.45456594981215
 20
831.59747000290429
 30
0.0
 40
4.5
 50
270.0
 51
90.0
  0
ARC
  5
3B2E
  8
UMCL1
 10
832.45456594981215
 20
831.59747000290429
 30
0.0
 40
8.0
 50
145.77113367218089
 51
214.22886632781911
  0
ARC
  5
3B2F
  8
UMCL1
 10
832.45456594981215
 20
831.59747000290429
 30
0.0
 40
7.5
 50
143.13010235416249
 51
216.86989764583751
  0
ARC
  5
3B30
  8
UMCL1
 10
832.45456594981215
 20
831.59747000290429
 30
0.0
 40
8.0
 50
325.77113367218021
 51
34.228866327819119
  0
ARC
  5
3B31
  8
UMCL1
 10
832.45456594981215
 20
831.59747000290429
 30
0.0
 40
7.5
 50
323.13010235416118
 51
36.869897645837511
  0
LINE
  5
3B32
  8
UMCL1
 10
824.9545659498126
 20
716.25598687185516
 30
0.0
 11
824.45456594981249
 21
714.75598687185504
 31
0.0
  0
LINE
  5
3B33
  8
UMCL1
 10
824.45456594981249
 20
714.75598687185504
 30
0.0
 11
840.4545659498126
 21
714.75598687185504
 31
0.0
  0
LINE
  5
3B34
  8
UMCL1
 10
840.4545659498126
 20
714.75598687185504
 30
0.0
 11
839.95456594981272
 21
716.25598687185516
 31
0.0
  0
LINE
  5
3B35
  8
UMCL1
 10
839.95456594981272
 20
716.25598687185516
 30
0.0
 11
839.95456594981272
 21
716.55598687185534
 31
0.0
  0
LINE
  5
3B36
  8
UMCL1
 10
824.9545659498126
 20
716.25598687185516
 30
0.0
 11
824.9545659498126
 21
716.55598687185534
 31
0.0
  0
LINE
  5
3B37
  8
UMCL1
 10
824.9545659498126
 20
716.25598687185516
 30
0.0
 11
839.95456594981272
 21
716.25598687185516
 31
0.0
  0
LINE
  5
3B38
  8
UMCL1
 10
824.45456594981169
 20
714.75598687185504
 30
0.0
 11
824.45456594981169
 21
686.55598687185534
 31
0.0
  0
LINE
  5
3B39
  8
UMCL1
 10
840.45456594981169
 20
714.75598687185504
 30
0.0
 11
840.45456594981169
 21
686.55598687185534
 31
0.0
  0
LINE
  5
3B3A
  8
UMCL1
 10
1013.069619341689
 20
716.25598687185516
 30
0.0
 11
1012.569619341689
 21
714.75598687185504
 31
0.0
  0
LINE
  5
3B3B
  8
UMCL1
 10
1012.569619341689
 20
714.75598687185504
 30
0.0
 11
1028.5696193416891
 21
714.75598687185504
 31
0.0
  0
LINE
  5
3B3C
  8
UMCL1
 10
1028.5696193416891
 20
714.75598687185504
 30
0.0
 11
1028.0696193416891
 21
716.25598687185516
 31
0.0
  0
LINE
  5
3B3D
  8
UMCL1
 10
1013.069619341689
 20
716.25598687185516
 30
0.0
 11
1028.0696193416891
 21
716.25598687185516
 31
0.0
  0
LINE
  5
3B3E
  8
UMCL1
 10
1012.569619341689
 20
714.75598687185504
 30
0.0
 11
1012.569619341689
 21
686.55598687185534
 31
0.0
  0
LINE
  5
3B3F
  8
UMCL1
 10
1028.5696193416891
 20
714.75598687185504
 30
0.0
 11
1028.5696193416891
 21
686.55598687185534
 31
0.0
  0
LINE
  5
3B40
  8
UMCL1
 10
1025.0696193416891
 20
716.55598687185534
 30
0.0
 11
1025.0696193416891
 21
716.25598687185516
 31
0.0
  0
LINE
  5
3B41
  8
UMCL1
 10
1016.069619341689
 20
716.55598687185545
 30
0.0
 11
1016.069619341689
 21
716.25598687185516
 31
0.0
  0
TEXT
  5
3B42
  8
AM_5
 10
830.901184562651
 20
786.59747000290463
 30
0.0
 40
3.0
  1
48
  7
ROMANS
  0
SOLID
  5
3B43
  8
AM_5
 10
853.50014269081203
 20
785.07652546980455
 30
0.0
 11
853.50014269081203
 21
786.11841453600459
 31
0.0
 12
856.45456594981169
 22
785.59747000290463
 32
0.0
 13
856.45456594981169
 23
785.59747000290463
 33
0.0
  0
LINE
  5
3B44
  8
AM_5
 10
856.45456594981204
 20
799.30078496676617
 30
0.0
 11
856.45456594981169
 21
784.59747000290463
 31
0.0
  0
TEXT
  5
3B45
  8
AM_5
 10
830.91558285975987
 20
778.59747000290463
 30
0.0
 40
3.0
  1
60
  7
ROMANS
  0
SOLID
  5
3B46
  8
AM_5
 10
859.50014269081214
 20
777.07652546980455
 30
0.0
 11
859.50014269081214
 21
778.11841453600459
 31
0.0
 12
862.45456594981215
 22
777.59747000290463
 32
0.0
 13
862.45456594981215
 23
777.59747000290463
 33
0.0
  0
LINE
  5
3B47
  8
AM_5
 10
862.45456594981215
 20
802.69799993707136
 30
0.0
 11
862.45456594981215
 21
776.59747000290463
 31
0.0
  0
POLYLINE
  5
3B48
  8
AM_5
 66
     1
 10
0.0
 20
0.0
 30
0.0
 70
     1
  0
VERTEX
  5
53EF
  8
AM_5
 10
830.5067846625052
 20
789.37616157384332
 30
0.0
  0
VERTEX
  5
53F0
  8
AM_5
 10
830.5067846625052
 20
786.8977743911073
 30
0.0
  0
VERTEX
  5
53F1
  8
AM_5
 10
828.13966155356047
 20
786.8977743911073
 30
0.0
  0
VERTEX
  5
53F2
  8
AM_5
 10
828.13966155356047
 20
789.37616157384332
 30
0.0
  0
SEQEND
  5
53F3
  8
AM_5
  0
POLYLINE
  5
3B49
  8
AM_5
 66
     1
 10
0.0
 20
0.0
 30
0.0
 70
     1
  0
VERTEX
  5
53F4
  8
AM_5
 10
830.5067846625052
 20
781.37616157384332
 30
0.0
  0
VERTEX
  5
53F5
  8
AM_5
 10
830.5067846625052
 20
778.8977743911073
 30
0.0
  0
VERTEX
  5
53F6
  8
AM_5
 10
828.13966155356047
 20
778.8977743911073
 30
0.0
  0
VERTEX
  5
53F7
  8
AM_5
 10
828.13966155356047
 20
781.37616157384332
 30
0.0
  0
SEQEND
  5
53F8
  8
AM_5
  0
TEXT
  5
3B4A
  8
AM_5
 10
829.58682335753599
 20
794.59747000290463
 30
0.0
 40
3.0
  1
25
  7
ROMANS
  0
LINE
  5
3B4B
  8
AM_5
 10
819.95456594981215
 20
793.5974700029044
 30
0.0
 11
844.95456594981169
 21
793.59747000290463
 31
0.0
  0
LINE
  5
3B4C
  8
AM_5
 10
808.45456594981158
 20
785.59747000290463
 30
0.0
 11
856.45456594981169
 21
785.59747000290463
 31
0.0
  0
LINE
  5
3B4D
  8
AM_5
 10
802.45456594981124
 20
777.59747000290463
 30
0.0
 11
862.45456594981215
 21
777.59747000290463
 31
0.0
  0
SOLID
  5
3B4E
  8
AM_5
 10
811.40898920881182
 20
785.07652546980455
 30
0.0
 11
811.40898920881182
 21
786.11841453600459
 31
0.0
 12
808.45456594981158
 22
785.59747000290463
 32
0.0
 13
808.45456594981158
 23
785.59747000290463
 33
0.0
  0
LINE
  5
3B4F
  8
AM_5
 10
808.45456594981158
 20
799.30078496676617
 30
0.0
 11
808.45456594981158
 21
784.59747000290463
 31
0.0
  0
SOLID
  5
3B50
  8
AM_5
 10
805.40898920881125
 20
777.07652546980455
 30
0.0
 11
805.40898920881125
 21
778.11841453600459
 31
0.0
 12
802.45456594981124
 22
777.59747000290463
 32
0.0
 13
802.45456594981124
 23
777.59747000290463
 33
0.0
  0
LINE
  5
3B51
  8
AM_5
 10
802.45456594981124
 20
802.69799993707136
 30
0.0
 11
802.45456594981124
 21
776.59747000290463
 31
0.0
  0
SOLID
  5
3B52
  8
AM_5
 10
822.90898920881193
 20
793.07652546980444
 30
0.0
 11
822.90898920881193
 21
794.11841453600459
 31
0.0
 12
819.95456594981215
 22
793.5974700029044
 32
0.0
 13
819.95456594981215
 23
793.5974700029044
 33
0.0
  0
LINE
  5
3B53
  8
AM_5
 10
819.95456594981215
 20
829.46336570514734
 30
0.0
 11
819.95456594981215
 21
792.2555629425226
 31
0.0
  0
SOLID
  5
3B54
  8
AM_5
 10
842.00014269081146
 20
793.07652546980444
 30
0.0
 11
842.00014269081146
 21
794.11841453600459
 31
0.0
 12
844.95456594981169
 22
793.5974700029044
 32
0.0
 13
844.95456594981169
 23
793.5974700029044
 33
0.0
  0
LINE
  5
3B55
  8
AM_5
 10
844.95456594981169
 20
829.46336570514734
 30
0.0
 11
844.95456594981169
 21
792.2555629425226
 31
0.0
  0
LINE
  5
3B56
  8
AM_7
 10
865.72325651469055
 20
831.59747000290406
 30
0.0
 11
759.37318447723089
 21
831.59747000290486
 31
0.0
  0
SOLID
  5
3B57
  8
AM_5
 10
838.00859193595443
 20
730.27359062483561
 30
0.0
 11
837.31826763957531
 21
731.05396565781371
 31
0.0
 12
835.45056641970723
 22
728.70626632587414
 32
0.0
 13
835.45056641970723
 23
728.70626632587414
 33
0.0
  0
LINE
  5
3B58
  8
AM_5
 10
860.60464684717954
 20
750.95771228242597
 30
0.0
 11
835.45056641970723
 21
728.70626632587414
 31
0.0
  0
TEXT
  5
3B59
  8
AM_5
 10
863.89906221249691
 20
751.95771228242597
 30
0.0
 40
3.0
  1
%%c8
  7
ROMANS
  0
LINE
  5
3B5A
  8
AM_5
 10
860.60464684717954
 20
750.95771228242597
 30
0.0
 11
870.23542017374666
 21
750.95771228242597
 31
0.0
  0
ARC
  5
3B5B
  8
UMCL1
 10
832.45456594981169
 20
831.59747000290429
 30
0.0
 40
27.5
 50
200.20954537374951
 51
264.57484147762108
  0
ARC
  5
3B5C
  8
UMCL1
 10
832.45456594981169
 20
831.59747000290429
 30
0.0
 40
27.5
 50
275.42515852237881
 51
339.7904546262497
  0
ARC
  5
3B5D
  8
UMCL1
 10
832.45456594981169
 20
831.59747000290429
 30
0.0
 40
27.5
 50
20.20954537375107
 51
84.574841477621121
  0
ARC
  5
3B5E
  8
UMCL1
 10
832.45456594981169
 20
831.59747000290429
 30
0.0
 40
27.5
 50
95.425158522378894
 51
159.7904546262489
  0
POLYLINE
  5
3B5F
  8
UMCL1
 66
     1
 10
0.0
 20
0.0
 30
0.0
  0
VERTEX
  5
53F9
  8
UMCL1
 10
862.45456594981169
 20
841.0974700029044
 30
0.0
  0
VERTEX
  5
53FA
  8
UMCL1
 10
862.45456594981169
 20
858.43145032636755
 30
0.0
  0
SEQEND
  5
53FB
  8
UMCL1
  0
LINE
  5
3B8A
  8
UMCL1
 10
829.15456594981185
 20
854.79747000290445
 30
0.0
 11
835.75456594981176
 21
854.79747000290445
 31
0.0
  0
LINE
  5
3B8B
  8
UMCL1
 10
835.75456594981176
 20
858.09747000290429
 30
0.0
 11
835.75456594981176
 21
854.79747000290445
 31
0.0
  0
LINE
  5
3B8C
  8
UMCL1
 10
829.15456594981185
 20
858.09747000290429
 30
0.0
 11
829.15456594981185
 21
854.79747000290445
 31
0.0
  0
LINE
  5
3B8D
  8
UMCL1
 10
829.15456594981185
 20
858.09747000290429
 30
0.0
 11
829.85456594981167
 21
858.09747000290429
 31
0.0
  0
LINE
  5
3B8E
  8
UMCL1
 10
835.05456594981194
 20
861.5974700029044
 30
0.0
 11
835.05456594981194
 21
858.09747000290429
 31
0.0
  0
LINE
  5
3B8F
  8
UMCL1
 10
829.85456594981167
 20
861.5974700029044
 30
0.0
 11
829.85456594981167
 21
858.09747000290429
 31
0.0
  0
LINE
  5
3B90
  8
UMCL1
 10
835.05456594981194
 20
858.09747000290429
 30
0.0
 11
835.75456594981176
 21
858.09747000290429
 31
0.0
  0
LINE
  5
3B91
  8
0
  6
HIDDEN
 62
     3
 10
805.95456594981215
 20
828.29747000290467
 30
0.0
 11
805.95456594981215
 21
828.99747000290449
 31
0.0
  0
LINE
  5
3B92
  8
0
  6
HIDDEN
 62
     3
 10
809.25456594981188
 20
828.29747000290467
 30
0.0
 11
809.25456594981188
 21
834.89747000290458
 31
0.0
  0
LINE
  5
3B93
  8
0
  6
HIDDEN
 62
     3
 10
805.95456594981158
 20
834.89747000290458
 30
0.0
 11
809.25456594981188
 21
834.89747000290458
 31
0.0
  0
LINE
  5
3B94
  8
0
  6
HIDDEN
 62
     3
 10
805.95456594981215
 20
834.19747000290442
 30
0.0
 11
805.95456594981215
 21
834.89747000290458
 31
0.0
  0
LINE
  5
3B95
  8
0
  6
HIDDEN
 62
     3
 10
802.45456594981215
 20
834.19747000290442
 30
0.0
 11
805.95456594981158
 21
834.19747000290442
 31
0.0
  0
LINE
  5
3B96
  8
0
  6
HIDDEN
 62
     3
 10
802.45456594981215
 20
828.99747000290449
 30
0.0
 11
805.95456594981215
 21
828.99747000290449
 31
0.0
  0
LINE
  5
3B97
  8
0
  6
HIDDEN
 62
     3
 10
805.95456594981215
 20
828.29747000290467
 30
0.0
 11
809.25456594981188
 21
828.29747000290467
 31
0.0
  0
LINE
  5
3B98
  8
UMCL1
 10
835.75456594981176
 20
805.0974700029044
 30
0.0
 11
835.0545659498116
 21
805.0974700029044
 31
0.0
  0
LINE
  5
3B99
  8
UMCL1
 10
835.75456594981176
 20
808.39747000290447
 30
0.0
 11
829.15456594981185
 21
808.39747000290447
 31
0.0
  0
LINE
  5
3B9A
  8
UMCL1
 10
829.15456594981185
 20
805.0974700029044
 30
0.0
 11
829.15456594981185
 21
808.39747000290447
 31
0.0
  0
LINE
  5
3B9B
  8
UMCL1
 10
829.85456594981167
 20
805.0974700029044
 30
0.0
 11
829.15456594981185
 21
805.0974700029044
 31
0.0
  0
LINE
  5
3B9C
  8
UMCL1
 10
829.85456594981167
 20
801.5974700029044
 30
0.0
 11
829.85456594981167
 21
805.0974700029044
 31
0.0
  0
LINE
  5
3B9D
  8
UMCL1
 10
835.0545659498116
 20
801.5974700029044
 30
0.0
 11
835.0545659498116
 21
805.0974700029044
 31
0.0
  0
LINE
  5
3B9E
  8
UMCL1
 10
835.75456594981176
 20
805.0974700029044
 30
0.0
 11
835.75456594981176
 21
808.39747000290447
 31
0.0
  0
LINE
  5
3B9F
  8
0
  6
HIDDEN
 62
     3
 10
802.45456594981215
 20
822.0974700029044
 30
0.0
 11
802.45456594981215
 21
841.0974700029044
 31
0.0
  0
ARC
  5
3BA0
  8
0
  6
HIDDEN
 62
     3
 10
832.45456594981022
 20
831.59747000290429
 30
0.0
 40
27.499999999998359
 50
159.7904546262489
 51
174.57484147761471
  0
ARC
  5
3BA1
  8
0
  6
HIDDEN
 62
     3
 10
832.45456594981022
 20
831.59747000290429
 30
0.0
 40
27.499999999998359
 50
185.42515852238529
 51
200.20954537375101
  0
LINE
  5
3BA2
  8
AM_7
 10
826.90925812382363
 20
623.05598687185557
 30
0.0
 11
837.99987377579998
 21
623.05598687185534
 31
0.0
  0
ARC
  5
3BA3
  8
UMCL1
 10
832.45456594981215
 20
623.05598687185534
 30
0.0
 40
3.3000000000000109
 50
141.98772045567139
 51
38.012279544346548
  0
LINE
  5
3BA4
  8
UMCL1
 10
835.05456594981194
 20
625.08822701514566
 30
0.0
 11
835.05456594981194
 21
686.55598687185545
 31
0.0
  0
LINE
  5
3BA7
  8
UMCL1
 10
829.85456594981076
 20
625.08822701514464
 30
0.0
 11
829.85456594981224
 21
686.55598687185545
 31
0.0
  0
LINE
  5
3BBC
  8
AM_5
 10
1052.133374466066
 20
658.53789274183191
 30
0.0
 11
1079.3562952232751
 21
658.53789274183191
 31
0.0
  0
TEXT
  5
3BBD
  8
AM_5
 10
1054.9473642571099
 20
659.53789274183191
 30
0.0
 40
3.0
  1
2-PT 1/8
  7
ROMANS
  0
SOLID
  5
3BBE
  8
AM_5
 10
1026.3528849815841
 20
670.34140939241274
 30
0.0
 11
1026.8073034126289
 21
671.27897897158709
 31
0.0
 12
1023.921483543146
 22
672.09876167498192
 32
0.0
 13
1023.921483543146
 23
672.09876167498192
 33
0.0
  0
LINE
  5
3BBF
  8
AM_5
 10
1052.133374466066
 20
658.53789274183191
 30
0.0
 11
1026.580094197107
 21
670.81019418200003
 31
0.0
  0
TEXT
  5
3CB1
  8
0
 10
227.79396629312501
 20
879.4063022499214
 30
0.0
 40
9.6000000000000014
  1
MTAD-40
  0
TEXT
  5
3CB2
  8
0
 10
699.90557729330521
 20
879.4063022499214
 30
0.0
 40
9.6000000000000014
  1
MTAD-40M
  0
TEXT
  5
3CB3
  8
LOGO
 62
     7
 10
338.09087663200478
 20
-66.21687174553017
 30
0.0
 40
7.9988416289592754
  1
Order example:
 41
0.8
  7
CHINESET
  0
TEXT
  5
3CB4
  8
LOGO
 62
     7
 10
339.52593496796942
 20
-54.956158913247457
 30
0.0
 40
11.998262443438909
  1
訂購代號：
  7
CHINESET
  0
LINE
  5
3CB5
  8
LOGO
 62
     4
 10
334.61535281371101
 20
-99.927010919780045
 30
0.0
 11
334.61535281371101
 21
-39.935698702585107
 31
0.0
  0
TEXT
  5
3CB6
  8
LOGO
  6
CONTINUOUS
 10
224.18361495046511
 20
-88.141808169496016
 30
0.0
 40
8.9986968325791885
  1
金器工業股份有限公司
  7
CHINESET
  0
TEXT
  5
3CB7
  8
LOGO
  6
CONTINUOUS
 10
207.65478917339021
 20
-97.142268041129228
 30
0.0
 40
5.9991312217194563
  1
MINDMAN INDUSTRIAL CO., LTD.
 41
0.85
  7
CHINESET
  0
LINE
  5
3CB8
  8
LOGO
 62
     4
 10
334.61535281371101
 20
-51.93396114602411
 30
0.0
 11
246.6280948951584
 21
-51.93396114602411
 31
0.0
  0
LINE
  5
3CB9
  8
LOGO
 62
     4
 10
334.61535281371101
 20
-63.932223589463092
 30
0.0
 11
246.6280948951584
 21
-63.932223589463092
 31
0.0
  0
LINE
  5
3CBA
  8
LOGO
 62
     4
 10
334.61535281371101
 20
-75.930486032901399
 30
0.0
 11
202.6344659358827
 21
-75.930486032901399
 31
0.0
  0
LINE
  5
3CBB
  8
LOGO
 62
     4
 10
246.6280948951584
 20
-75.930486032901399
 30
0.0
 11
246.6280948951584
 21
-39.935698702585107
 31
0.0
  0
TEXT
  5
3CBC
  8
LOGO
 10
306.76323274717231
 20
-72.930920422042661
 30
0.0
 40
5.9991312217194563
  1
mm
  7
CHINESET
 72
     1
 11
314.1907285454916
 21
-69.931354811182928
 31
0.0
 73
     2
  0
TEXT
  5
3CBD
  8
LOGO
 10
303.62083067865262
 20
-48.934395535164683
 30
0.0
 40
5.9991312217194563
  1
1 : 1
  7
CHINESET
 72
     1
 11
314.1907285454916
 21
-45.934829924304942
 31
0.0
 73
     2
  0
LINE
  5
3CBE
  8
LOGO
 62
     4
 10
294.62114466891433
 20
-75.930486032901399
 30
0.0
 11
294.62114466891433
 21
-39.935698702585107
 31
0.0
  0
TEXT
  5
3CBF
  8
LOGO
 10
251.57469996949601
 20
-48.931443206807543
 30
393.17317728014939
 40
5.9991312217194563
  1
比例 Scale:
 41
0.9
  7
CHINESET
 72
     4
 11
270.62461978203629
 21
-45.934829924304942
 31
393.17317728014939
  0
TEXT
  5
3CC0
  8
LOGO
 10
251.22921428753079
 20
-60.848270593061919
 30
393.17317728014939
 40
5.9991312217194563
  1
投影  View:
 41
0.9
  7
CHINESET
 72
     4
 11
270.62461978203629
 21
-57.933092367743939
 31
393.17317728014939
  0
TEXT
  5
3CC1
  8
LOGO
 10
251.8157364917972
 20
-72.930920422042661
 30
393.17317728014939
 40
5.9991312217194563
  1
單位  Unit:
 41
0.9
  7
CHINESET
 72
     4
 11
270.62461978203629
 21
-69.931354811182928
 31
393.17317728014939
  0
POLYLINE
  5
3CC2
  8
LOGO
 62
     4
 66
     1
 10
0.0
 20
0.0
 30
0.0
 70
     1
1001
GENIUS_GENREC_14
1002
{
1000
PYDIR
1011
202.6344659358823
1021
0.0
1031
0.0
1021
904.95900303836515
1031
0.0
1002
}
1002
{
1000
PXDIR
1011
1146.4344659358831
1021
0.0
1031
0.0
1021
577.83424012094292
1031
0.0
1002
}
1002
{
1000
PORI
1011
202.6344659358825
1021
0.0
1031
0.0
1021
577.83424012094292
1031
0.0
1002
}
1002
{
1000
PINS
1011
202.6344659358825
1021
0.0
1031
0.0
1021
577.83424012094292
1031
0.0
1002
}
1002
{
1000
PINS2
1011
1146.4344659358831
1021
0.0
1031
0.0
1021
904.95900303836515
1031
0.0
1002
}
1002
{
1000
C
1070
     1
1002
}
1001
GENIUS_GENODEF_13
1002
{
1000
HIER
1070
     0
1002
}
1002
{
1000
MANEDIT
1070
     0
1002
}
1002
{
1000
NOSEL
1070
     0
1002
}
1002
{
1000
BEHIND
1070
     0
1002
}
1002
{
1000
OTHER
1070
     0
1002
}
1002
{
1000
REACTOR
1002
}
1001
GENIUS_GENOBJ-N-REC_13
1002
{
1000
OWNER
1000
GEN
1002
}
  0
VERTEX
  5
53FC
  8
LOGO
 62
     4
 10
202.6344659358825
 20
577.83424012094292
 30
0.0
  0
VERTEX
  5
53FD
  8
LOGO
 62
     4
 10
1146.4344659358831
 20
577.83424012094292
 30
0.0
  0
VERTEX
  5
53FE
  8
LOGO
 62
     4
 10
1146.4344659358831
 20
904.95900303836515
 30
0.0
  0
VERTEX
  5
53FF
  8
LOGO
 62
     4
 10
202.6344659358823
 20
904.95900303836515
 30
0.0
  0
SEQEND
  5
5400
  8
LOGO
 62
     4
  0
SOLID
  5
3CC3
  8
LOGO
 62
     5
 10
208.8586608571494
 20
-65.957784285881175
 30
0.0
 11
211.45252778021751
 21
-65.957784285881871
 31
0.0
 12
222.27521390750181
 22
-41.360770360233573
 32
0.0
 13
224.86908083057131
 23
-41.36077036023493
 33
0.0
  0
SOLID
  5
3CC4
  8
LOGO
 62
     5
 10
212.52585202424859
 20
-65.957784285881175
 30
0.0
 11
215.11971894731681
 21
-65.957784285881175
 31
0.0
 12
224.86908083057131
 22
-43.328531474286358
 32
0.0
 13
222.27521390750181
 23
-52.839376858870082
 33
0.0
  0
SOLID
  5
3CC5
  8
LOGO
 62
     2
 10
211.45252778021751
 20
-65.957784285881871
 30
0.0
 11
212.52585202424859
 21
-65.957784285881175
 31
0.0
 12
224.86908083057131
 22
-41.36077036023493
 32
0.0
 13
225.942405074601
 23
-41.36077036023493
 33
0.0
  0
SOLID
  5
3CC6
  8
LOGO
 62
     5
 10
204.70005608538429
 20
-74.902152986115865
 30
0.0
 11
205.59449295540881
 21
-74.902152986115865
 31
0.0
 12
208.11329679879731
 22
-70.429968635998875
 32
0.0
 13
209.00773366881899
 23
-70.429968635998875
 33
0.0
  0
SOLID
  5
3CC7
  8
LOGO
 62
     5
 10
208.11329679879731
 20
-70.429968635998875
 30
0.0
 11
209.00773366881899
 21
-70.429968635998875
 31
0.0
 12
208.11329679879731
 22
-74.902152986115865
 32
0.0
 13
209.00773366881899
 23
-74.902152986115865
 33
0.0
  0
SOLID
  5
3CC8
  8
LOGO
 62
     5
 10
208.11329679879731
 20
-74.902152986115865
 30
0.0
 11
209.00773366881899
 21
-74.902152986115865
 31
0.0
 12
211.5265375122116
 22
-70.429968635998875
 32
0.0
 13
212.4209743822347
 23
-70.429968635998875
 33
0.0
  0
SOLID
  5
3CC9
  8
LOGO
 62
     5
 10
211.5265375122116
 20
-70.429968635998875
 30
0.0
 11
212.4209743822347
 21
-70.429968635998875
 31
0.0
 12
211.5265375122116
 22
-74.902152986115865
 32
0.0
 13
212.4209743822347
 23
-74.902152986115865
 33
0.0
  0
POLYLINE
  5
3CCA
  8
LOGO
 62
     5
 66
     1
 10
0.0
 20
0.0
 30
0.0
 40
0.8958702624434387
 41
0.8958702624434387
  0
VERTEX
  5
3CCB
  8
LOGO
 62
     5
 10
241.50775670164001
 20
-72.218842376045814
 30
0.0
 42
1.0
  0
VERTEX
  5
3CCC
  8
LOGO
 62
     5
 10
238.82014591430919
 20
-72.218842376045814
 30
0.0
 42
1.0
  0
SEQEND
  5
3CCD
  8
LOGO
 62
     5
  0
POLYLINE
  5
3CCE
  8
LOGO
 62
     5
 66
     1
 10
0.0
 20
0.0
 30
0.0
 70
     1
  0
VERTEX
  5
3CCF
  8
LOGO
 62
     5
 10
233.75388003526211
 20
-72.666060811058045
 30
0.0
 42
1.0000000573306349
  0
VERTEX
  5
3CD0
  8
LOGO
 62
     5
 10
236.43719064533289
 20
-72.666060811058045
 30
0.0
 42
1.0000000573306349
  0
SEQEND
  5
3CD1
  8
LOGO
 62
     5
  0
CIRCLE
  5
3CD2
  8
LOGO
 62
     5
 10
235.09553534029951
 20
-72.666060811058045
 30
0.0
 40
1.341655305035294
  0
POLYLINE
  5
3CD3
  8
LOGO
 62
     5
 66
     1
 10
0.0
 20
0.0
 30
0.0
 70
     1
 40
0.8958702624434387
 41
0.8958702624434387
  0
VERTEX
  5
3CD4
  8
LOGO
 62
     5
 10
233.30379481541141
 20
-72.666060811058045
 30
0.0
 42
1.0
  0
VERTEX
  5
3CD5
  8
LOGO
 62
     5
 10
236.88727586518499
 20
-72.666060811058045
 30
0.0
 42
1.0
  0
SEQEND
  5
3CD6
  8
LOGO
 62
     5
  0
LINE
  5
3CD7
  8
LOGO
 10
241.9528250480202
 20
-74.902152986115865
 30
0.0
 11
241.9528250480202
 21
-72.218842376045814
 31
0.0
  0
SOLID
  5
3CD8
  8
LOGO
 62
     5
 10
236.43710120164991
 20
-70.429968635998875
 30
0.0
 11
237.33153807167159
 21
-70.429968635998875
 31
0.0
 12
236.43710120164991
 22
-74.902152986115865
 32
0.0
 13
237.33153807167159
 23
-74.902152986115865
 33
0.0
  0
SOLID
  5
3CD9
  8
LOGO
 62
     5
 10
238.3750775679263
 20
-74.902152986115865
 30
0.0
 11
239.26951443795079
 21
-74.902152986115865
 31
0.0
 12
238.3750775679263
 22
-70.429968635998875
 32
0.0
 13
239.26951443795079
 23
-70.429968635998875
 33
0.0
  0
SOLID
  5
3CDA
  8
LOGO
 62
     5
 10
241.05838817799841
 20
-72.218842376045814
 30
0.0
 11
241.9528250480202
 21
-72.218842376045814
 31
0.0
 12
241.05838817799841
 22
-74.902152986115865
 32
0.0
 13
241.9528250480202
 23
-74.902152986115865
 33
0.0
  0
SOLID
  5
3CDB
  8
LOGO
 62
     5
 10
238.28563388092371
 20
-43.328531474286358
 30
0.0
 11
235.69176695785691
 21
-52.839376858870082
 31
0.0
 12
238.28563388092371
 22
-65.957784285881871
 32
0.0
 13
235.69176695785691
 23
-65.957784285881871
 33
0.0
  0
SOLID
  5
3CDC
  8
LOGO
 62
     5
 10
239.35895812495329
 20
-65.957784285881871
 30
0.0
 11
241.9528250480202
 21
-65.957784285881871
 31
0.0
 12
239.35895812495329
 22
-41.36077036023493
 32
0.0
 13
241.9528250480202
 23
-41.360770360233573
 33
0.0
  0
SOLID
  5
3CDD
  8
LOGO
 62
     2
 10
238.28563388092371
 20
-41.360770360233573
 30
0.0
 11
239.35895812495329
 21
-41.36077036023493
 31
0.0
 12
238.28563388092371
 22
-65.957784285881871
 32
0.0
 13
239.35895812495329
 23
-65.957784285881871
 33
0.0
  0
POLYLINE
  5
3CDE
  8
LOGO
 62
     5
 66
     1
 10
0.0
 20
0.0
 30
0.0
 40
0.8958702624434387
 41
0.8958702624434387
  0
VERTEX
  5
3CDF
  8
LOGO
 62
     5
 10
228.68743526884501
 20
-72.218842376045814
 30
0.0
 42
1.0
  0
VERTEX
  5
3CE0
  8
LOGO
 62
     5
 10
225.99982448151411
 20
-72.218842376045814
 30
0.0
 42
1.0
  0
SEQEND
  5
3CE1
  8
LOGO
 62
     5
  0
POLYLINE
  5
3CE2
  8
LOGO
 62
     5
 66
     1
 10
0.0
 20
0.0
 30
0.0
 40
0.8958702624434387
 41
0.8958702624434387
  0
VERTEX
  5
3CE3
  8
LOGO
 62
     5
 10
231.370745878913
 20
-72.218842376045814
 30
0.0
 42
1.0
  0
VERTEX
  5
3CE4
  8
LOGO
 62
     5
 10
228.68313509158349
 20
-72.218842376045814
 30
0.0
 42
1.0
  0
SEQEND
  5
3CE5
  8
LOGO
 62
     5
  0
POLYLINE
  5
3CE6
  8
LOGO
 62
     5
 66
     1
 10
0.0
 20
0.0
 30
0.0
 40
0.8958702624434387
 41
0.8958702624434387
  0
VERTEX
  5
3CE7
  8
LOGO
 62
     5
 10
218.550424446118
 20
-72.218842376045814
 30
0.0
 42
1.0
  0
VERTEX
  5
3CE8
  8
LOGO
 62
     5
 10
215.8628136587885
 20
-72.218842376045814
 30
0.0
 42
1.0
  0
SEQEND
  5
3CE9
  8
LOGO
 62
     5
  0
SOLID
  5
3CEA
  8
LOGO
 62
     5
 10
215.41774531240699
 20
-70.429968635998875
 30
0.0
 11
216.3121821824287
 21
-70.429968635998875
 31
0.0
 12
215.41774531240699
 22
-74.902152986115865
 32
0.0
 13
216.3121821824287
 23
-74.902152986115865
 33
0.0
  0
SOLID
  5
3CEB
  8
LOGO
 62
     5
 10
218.10105592247771
 20
-72.218842376045814
 30
0.0
 11
218.9954927925022
 21
-72.218842376045814
 31
0.0
 12
218.10105592247771
 22
-74.902152986115865
 32
0.0
 13
218.9954927925022
 23
-74.902152986115865
 33
0.0
  0
POLYLINE
  5
3CEC
  8
LOGO
 62
     5
 66
     1
 10
0.0
 20
0.0
 30
0.0
 70
     1
 40
0.8958702624434387
 41
0.8958702624434387
  0
VERTEX
  5
3CED
  8
LOGO
 62
     5
 10
220.48347338261499
 20
-72.666060811058045
 30
0.0
 42
1.0
  0
VERTEX
  5
3CEE
  8
LOGO
 62
     5
 10
224.06695443238991
 20
-72.666060811058045
 30
0.0
 42
1.0
  0
SEQEND
  5
3CEF
  8
LOGO
 62
     5
  0
SOLID
  5
3CF0
  8
LOGO
 62
     5
 10
223.6167797688521
 20
-69.088313330962819
 30
0.0
 11
224.5112166388752
 21
-69.088313330962819
 31
0.0
 12
223.6167797688521
 22
-74.902152986115865
 32
0.0
 13
224.5112166388752
 23
-74.902152986115865
 33
0.0
  0
SOLID
  5
3CF1
  8
LOGO
 62
     5
 10
225.554756135134
 20
-70.429968635998875
 30
0.0
 11
226.44919300515579
 21
-70.429968635998875
 31
0.0
 12
225.554756135134
 22
-74.902152986115865
 32
0.0
 13
226.44919300515579
 23
-74.902152986115865
 33
0.0
  0
SOLID
  5
3CF2
  8
LOGO
 62
     5
 10
228.23806674520199
 20
-72.218842376045814
 30
0.0
 11
229.13250361522651
 21
-72.218842376045814
 31
0.0
 12
228.23806674520199
 22
-74.902152986115865
 32
0.0
 13
229.13250361522651
 23
-74.902152986115865
 33
0.0
  0
SOLID
  5
3CF3
  8
LOGO
 62
     5
 10
230.92137735527271
 20
-72.218842376045814
 30
0.0
 11
231.8158142252959
 21
-72.218842376045814
 31
0.0
 12
230.92137735527271
 22
-74.902152986117244
 32
0.0
 13
231.8158142252959
 23
-74.902152986117244
 33
0.0
  0
SOLID
  5
3CF4
  8
LOGO
 62
     5
 10
213.47976894612651
 20
-69.80386282698214
 30
0.0
 11
214.37420581615231
 21
-69.80386282698214
 31
0.0
 12
213.47976894612651
 22
-69.088313330962819
 32
0.0
 13
214.37420581615231
 23
-69.088313330962819
 33
0.0
  0
SOLID
  5
3CF5
  8
LOGO
 62
     5
 10
213.47976894612651
 20
-70.429968635998875
 30
0.0
 11
214.37420581615231
 21
-70.429968635998875
 31
0.0
 12
213.47976894612651
 22
-74.902152986117244
 32
0.0
 13
214.37420581615231
 23
-74.902152986115865
 33
0.0
  0
SOLID
  5
3CF6
  8
LOGO
 62
     5
 10
222.27521390750181
 20
-65.957784285881175
 30
0.0
 11
224.86908083057131
 21
-65.957784285881175
 31
0.0
 12
222.27521390750181
 22
-52.839376858870082
 32
0.0
 13
224.86908083057131
 23
-43.328531474286358
 33
0.0
  0
SOLID
  5
3CF7
  8
LOGO
 62
     5
 10
225.942405074601
 20
-41.36077036023493
 30
0.0
 11
228.5362719976678
 21
-41.360770360233573
 31
0.0
 12
225.942405074601
 22
-63.990023171829762
 32
0.0
 13
228.5362719976678
 23
-54.479177787246051
 33
0.0
  0
SOLID
  5
3CF8
  8
LOGO
 62
     2
 10
224.86908083057131
 20
-41.36077036023493
 30
0.0
 11
225.942405074601
 21
-41.36077036023493
 31
0.0
 12
224.86908083057131
 22
-65.957784285881175
 32
0.0
 13
225.942405074601
 23
-65.957784285881175
 33
0.0
  0
SOLID
  5
3CF9
  8
LOGO
 62
     5
 10
225.942405074601
 20
-63.990023171829762
 30
0.0
 11
228.5362719976678
 21
-54.479177787246051
 31
0.0
 12
238.28563388092371
 22
-41.360770360233573
 32
0.0
 13
235.69176695785691
 23
-41.360770360233573
 33
0.0
  0
SOLID
  5
3CFA
  8
LOGO
 62
     5
 10
225.942405074601
 20
-65.957784285881175
 30
0.0
 11
228.5362719976678
 21
-65.957784285881175
 31
0.0
 12
238.28563388092371
 22
-43.328531474286358
 32
0.0
 13
235.69176695785691
 23
-52.839376858870082
 33
0.0
  0
SOLID
  5
3CFB
  8
LOGO
 62
     2
 10
224.86908083057131
 20
-65.957784285881175
 30
0.0
 11
225.942405074601
 21
-65.957784285881175
 31
0.0
 12
238.28563388092371
 22
-41.360770360233573
 32
0.0
 13
239.35895812495329
 23
-41.36077036023493
 33
0.0
  0
POLYLINE
  5
3CFC
  8
LOGO
 62
     4
 66
     1
 10
0.0
 20
0.0
 30
0.0
 70
     1
1001
GENIUS_GENREC_14
1002
{
1000
PYDIR
1011
202.6344659358825
1021
0.0
1031
0.0
1021
-99.927010919780855
1031
0.0
1002
}
1002
{
1000
PXDIR
1011
1146.4344659358831
1021
0.0
1031
0.0
1021
-39.935698702585107
1031
0.0
1002
}
1002
{
1000
PORI
1011
202.6344659358825
1021
0.0
1031
0.0
1021
-39.935698702585107
1031
0.0
1002
}
1002
{
1000
PINS
1011
202.6344659358825
1021
0.0
1031
0.0
1021
-39.935698702585107
1031
0.0
1002
}
1002
{
1000
PINS2
1011
1146.4344659358831
1021
0.0
1031
0.0
1021
-99.927010919780855
1031
0.0
1002
}
1002
{
1000
C
1070
     1
1002
}
1001
GENIUS_GENOBJ-N-REC_13
1002
{
1000
OWNER
1000
GEN
1002
}
1001
GENIUS_GENODEF_13
1002
{
1000
HIER
1070
     0
1002
}
1002
{
1000
MANEDIT
1070
     0
1002
}
1002
{
1000
NOSEL
1070
     0
1002
}
1002
{
1000
BEHIND
1070
     0
1002
}
1002
{
1000
OTHER
1070
     0
1002
}
1002
{
1000
REACTOR
1002
}
  0
VERTEX
  5
5401
  8
LOGO
 62
     4
 10
202.6344659358825
 20
-39.935698702585107
 30
0.0
  0
VERTEX
  5
5402
  8
LOGO
 62
     4
 10
1146.4344659358831
 20
-39.935698702585107
 30
0.0
  0
VERTEX
  5
5403
  8
LOGO
 62
     4
 10
1146.4344659358831
 20
-99.927010919780855
 30
0.0
  0
VERTEX
  5
5404
  8
LOGO
 62
     4
 10
202.6344659358825
 20
-99.927010919780855
 30
0.0
  0
SEQEND
  5
5405
  8
LOGO
 62
     4
  0
LINE
  5
3CFD
  8
LOGO
 62
     4
 10
457.12494836365778
 20
-72.930920422041481
 30
0.0
 11
457.12494836365778
 21
-94.927734901680651
 31
0.0
  0
LINE
  5
3CFE
  8
LOGO
 62
     4
 10
417.13074021886109
 20
-72.930920422041481
 30
0.0
 11
417.13074021886109
 21
-94.927734901680651
 31
0.0
  0
LINE
  5
3CFF
  8
LOGO
 62
     4
 10
457.12494836365778
 20
-94.927734901680651
 30
0.0
 11
417.13074021886109
 21
-94.927734901680651
 31
0.0
  0
LINE
  5
3D00
  8
LOGO
 62
     4
 10
464.29833463307648
 20
-45.934829924304942
 30
0.0
 11
417.13074021886109
 21
-45.934829924304942
 31
0.0
  0
LINE
  5
3D01
  8
LOGO
 62
     4
 10
464.29833463307648
 20
-63.932223589463092
 30
0.0
 11
417.13074021886109
 21
-63.932223589463092
 31
0.0
  0
LINE
  5
3D02
  8
LOGO
 62
     4
 10
417.13074021886109
 20
-45.934829924304942
 30
0.0
 11
417.13074021886109
 21
-63.932223589463092
 31
0.0
  0
LINE
  5
3D03
  8
LOGO
 62
     4
 10
464.29833463307648
 20
-45.934829924304942
 30
0.0
 11
464.29833463307648
 21
-63.932223589463092
 31
0.0
  0
LINE
  5
3D04
  8
LOGO
 62
     4
 10
439.21453742596879
 20
-63.932223589463092
 30
0.0
 11
439.21453742596879
 21
-72.930920422041481
 31
0.0
  0
TEXT
  5
3D05
  8
LOGO
  6
CONTINUOUS
 10
420.3285952087009
 20
-60.175293974048138
 30
0.0
 40
10.5
  1
MTAD
  7
CHINESET
  0
LINE
  5
3D06
  8
LOGO
 62
     4
 10
457.12494836365778
 20
-72.930920422041481
 30
0.0
 11
417.13074021886109
 21
-72.930920422041481
 31
0.0
  0
TEXT
  5
3D07
  8
LOGO
  6
CONTINUOUS
 10
429.96475499279029
 20
-91.822931183208311
 30
393.17317728014939
 40
4.5
  1
Model
 41
0.8
  7
CHINESET
  0
TEXT
  5
3D08
  8
LOGO
 10
428.76700127879292
 20
-83.480901002426194
 30
393.17317728014939
 40
7.5
  1
型號
  7
CHINESET
  0
LINE
  5
3D09
  8
LOGO
  6
CONTINUOUS
 10
466.2116063260936
 20
-54.997276369506153
 30
0.0
 11
474.15859867291232
 21
-54.997276369506153
 31
0.0
  0
LINE
  5
3D0A
  8
LOGO
 62
     4
 10
461.5505042119654
 20
-72.930920422041481
 30
0.0
 11
461.5505042119654
 21
-94.927734901680651
 31
0.0
  0
LINE
  5
3D0B
  8
LOGO
 62
     4
 10
496.7844719845171
 20
-94.927734901680651
 30
0.0
 11
461.5505042119654
 21
-94.927734901680651
 31
0.0
  0
LINE
  5
3D0C
  8
LOGO
 62
     4
 10
498.49462341098831
 20
-45.934829924304942
 30
0.0
 11
476.27452706972309
 21
-45.934829924304942
 31
0.0
  0
LINE
  5
3D0D
  8
LOGO
 62
     4
 10
498.49462341098831
 20
-63.932223589463092
 30
0.0
 11
476.27452706972309
 21
-63.932223589463092
 31
0.0
  0
LINE
  5
3D0E
  8
LOGO
 62
     4
 10
476.27452706972309
 20
-45.934829924304942
 30
0.0
 11
476.27452706972309
 21
-63.932223589463092
 31
0.0
  0
LINE
  5
3D0F
  8
LOGO
 62
     4
 10
498.49462341098831
 20
-45.934829924304942
 30
0.0
 11
498.49462341098831
 21
-63.932223589463092
 31
0.0
  0
LINE
  5
3D10
  8
LOGO
 62
     4
 10
490.10225775401619
 20
-63.932223589463092
 30
0.0
 11
490.10225775401619
 21
-72.930920422041481
 31
0.0
  0
TEXT
  5
3D11
  8
LOGO
  6
CONTINUOUS
 10
478.6699320415571
 20
-60.175293974048138
 30
0.0
 40
10.5
  1
40
  7
CHINESET
  0
LINE
  5
3D12
  8
LOGO
 62
     4
 10
496.7844719845171
 20
-72.930920422041481
 30
0.0
 11
461.5505042119654
 21
-72.930920422041481
 31
0.0
  0
LINE
  5
3D13
  8
LOGO
  6
CONTINUOUS
 10
535.03966578730353
 20
-54.997276369506153
 30
0.0
 11
542.98665813412356
 21
-54.997276369506153
 31
0.0
  0
LINE
  5
3D14
  8
LOGO
 62
     4
 10
496.7844719845171
 20
-72.930920422041481
 30
0.0
 11
496.7844719845171
 21
-94.927734901680651
 31
0.0
  0
TEXT
  5
3D15
  8
LOGO
  6
CONTINUOUS
 10
469.92765621154211
 20
-91.822931183208311
 30
393.17317728014939
 40
4.5
  1
Tube I.D.
 41
0.8
  7
CHINESET
  0
TEXT
  5
3D16
  8
LOGO
 10
472.88789162915219
 20
-83.480901002426194
 30
393.17317728014939
 40
7.5
  1
內徑
  7
CHINESET
  0
LINE
  5
3D17
  8
LOGO
 62
     4
 10
531.2443745187428
 20
-45.934829924304942
 30
0.0
 11
502.79143787314672
 21
-45.934829924304942
 31
0.0
  0
LINE
  5
3D18
  8
LOGO
 62
     4
 10
531.2443745187428
 20
-63.932223589463092
 30
0.0
 11
502.79143787314672
 21
-63.932223589463092
 31
0.0
  0
LINE
  5
3D19
  8
LOGO
 62
     4
 10
502.79143787314672
 20
-45.934829924304942
 30
0.0
 11
502.79143787314672
 21
-63.932223589463092
 31
0.0
  0
LINE
  5
3D1A
  8
LOGO
 62
     4
 10
531.2443745187428
 20
-45.934829924304942
 30
0.0
 11
531.2443745187428
 21
-63.932223589463092
 31
0.0
  0
TEXT
  5
3D1B
  8
LOGO
  6
CONTINUOUS
 10
506.97407892935291
 20
-60.175293974048138
 30
0.0
 40
10.5
  1
(M)
  7
CHINESET
  0
LINE
  5
3D1C
  8
LOGO
 62
     4
 10
535.52585158098475
 20
-72.930920422041481
 30
0.0
 11
535.52585158098475
 21
-94.927734901680651
 31
0.0
  0
LINE
  5
3D1D
  8
LOGO
 62
     4
 10
502.9441931257212
 20
-72.930920422041481
 30
0.0
 11
502.9441931257212
 21
-94.927734901680651
 31
0.0
  0
LINE
  5
3D1E
  8
LOGO
 62
     4
 10
535.52585158098475
 20
-94.927734901680651
 30
0.0
 11
502.9441931257212
 21
-94.927734901680651
 31
0.0
  0
LINE
  5
3D1F
  8
LOGO
 62
     4
 10
535.52585158098475
 20
-72.930920422041481
 30
0.0
 11
502.9441931257212
 21
-72.930920422041481
 31
0.0
  0
TEXT
  5
3D20
  8
LOGO
  6
CONTINUOUS
 10
510.02660715917818
 20
-91.822931183208311
 30
393.17317728014939
 40
4.5
  1
Magnet
 41
0.8
  7
CHINESET
  0
TEXT
  5
3D21
  8
LOGO
 10
507.62682612008439
 20
-83.480901002426194
 30
393.17317728014939
 40
7.5
  1
附磁石
  7
CHINESET
  0
LINE
  5
3D22
  8
LOGO
 62
     4
 10
517.0179061959459
 20
-63.932223589463092
 30
0.0
 11
517.0179061959459
 21
-72.930920422041481
 31
0.0
  0
TEXT
  5
3D23
  8
LOGO
 10
336.594959587424
 20
-96.735496788016007
 30
0.0
 40
6.0
  1
20904223
 41
0.7
  7
CHINESET
 72
     1
 11
351.99495958742398
 21
-96.735496788016007
 31
0.0
  0
LINE
  5
3D24
  8
LOGO
 62
     4
 10
370.61535281370823
 20
-87.928748476339706
 30
0.0
 11
370.61535281371101
 21
-99.927010919779377
 31
0.0
  0
LINE
  5
3D25
  8
LOGO
 62
     4
 10
370.61535281370823
 20
-87.928748476339706
 30
0.0
 11
334.61535281371101
 21
-87.928748476339706
 31
0.0
  0
CIRCLE
  5
3D26
  8
LOGO
  6
CONTINUOUS
 10
305.72928648539931
 20
-57.920260182159609
 30
0.0
 40
3.4832367909618931
  0
CIRCLE
  5
3D27
  8
LOGO
  6
CONTINUOUS
 10
305.72928648539931
 20
-57.920260182159609
 30
0.0
 40
2.040868405996791
  0
LINE
  5
3D28
  8
LOGO
 10
327.61835065750881
 20
-61.403496973122166
 30
0.0
 11
327.61835065750881
 21
-54.437023391197037
 31
0.0
  0
LINE
  5
3D29
  8
LOGO
 10
316.69860326517608
 20
-59.961128588156043
 30
0.0
 11
316.69860326517608
 21
-55.879391776162493
 31
0.0
  0
LINE
  5
3D2A
  8
LOGO
  6
CONTINUOUS
 10
316.69860326517608
 20
-55.879391776162493
 30
0.0
 11
327.61835065750881
 21
-54.437023391197037
 31
0.0
  0
LINE
  5
3D2B
  8
LOGO
  6
CONTINUOUS
 10
316.69860326517608
 20
-59.961128588156043
 30
0.0
 11
327.61835065750881
 21
-61.403496973122166
 31
0.0
  0
LINE
  5
3D2C
  8
LOGO
  6
AM_ISO08W050X2
 10
300.92759241169449
 20
-57.920260182159609
 30
0.0
 11
310.53098055910402
 21
-57.920260182159609
 31
0.0
1001
GENIUS_GENOREF_13
1005
3D6B
  0
LINE
  5
3D2D
  8
LOGO
  6
AM_ISO08W050X2
 10
305.72928648539931
 20
-62.721954255864382
 30
0.0
 11
305.72928648539931
 21
-53.118566108454843
 31
0.0
1001
GENIUS_GENOREF_13
1005
3D6A
  0
LINE
  5
3D2E
  8
LOGO
  6
CENTER
 10
315.82532698674811
 20
-57.920260182159609
 30
0.0
 11
328.71793387087189
 21
-57.920260182159609
 31
0.0
1001
GENIUS_GENOREF_13
1005
3D69
  0
LINE
  5
3D2F
  8
LOGO
 62
     4
 10
595.70752560518781
 20
-72.930920422041481
 30
0.0
 11
595.70752560518781
 21
-94.927734901680651
 31
0.0
  0
LINE
  5
3D30
  8
LOGO
 62
     4
 10
540.1311943040489
 20
-72.930920422041481
 30
0.0
 11
540.1311943040489
 21
-94.927734901680651
 31
0.0
  0
LINE
  5
3D31
  8
LOGO
 62
     4
 10
595.70752560518781
 20
-94.927734901680651
 30
0.0
 11
540.1311943040489
 21
-94.927734901680651
 31
0.0
  0
LINE
  5
3D32
  8
LOGO
 62
     4
 10
573.80959259725307
 20
-45.934829924304942
 30
0.0
 11
546.5535956212575
 21
-45.934829924304942
 31
0.0
  0
LINE
  5
3D33
  8
LOGO
 62
     4
 10
573.80959259725307
 20
-63.932223589463092
 30
0.0
 11
546.5535956212575
 21
-63.932223589463092
 31
0.0
  0
LINE
  5
3D34
  8
LOGO
 62
     4
 10
546.5535956212575
 20
-45.934829924304942
 30
0.0
 11
546.5535956212575
 21
-63.932223589463092
 31
0.0
  0
LINE
  5
3D35
  8
LOGO
 62
     4
 10
573.80959259725307
 20
-45.934829924304942
 30
0.0
 11
573.80959259725307
 21
-63.932223589463092
 31
0.0
  0
LINE
  5
3D36
  8
LOGO
 62
     4
 10
560.18159410925534
 20
-63.932223589463092
 30
0.0
 11
560.18159410925534
 21
-72.930920422041481
 31
0.0
  0
TEXT
  5
3D37
  8
LOGO
  6
CONTINUOUS
 10
556.22238040612922
 20
-59.821982891727657
 30
0.0
 40
10.5
  1
X
  7
CHINESET
  0
LINE
  5
3D38
  8
LOGO
 62
     4
 10
595.70752560518781
 20
-72.930920422041481
 30
0.0
 11
540.1311943040489
 21
-72.930920422041481
 31
0.0
  0
TEXT
  5
3D39
  8
LOGO
  6
CONTINUOUS
 10
543.3470440744403
 20
-91.822931183208311
 30
393.17317728014939
 40
4.5
  1
Rotating direction
 41
0.8
  7
CHINESET
  0
TEXT
  5
3D3A
  8
LOGO
 10
552.3583866131961
 20
-83.480901002426194
 30
393.17317728014939
 40
7.5
  1
旋轉方向
  7
CHINESET
  0
LINE
  5
3D3B
  8
LOGO
 62
     4
 10
646.42528845267248
 20
-72.930920422041481
 30
0.0
 11
646.42528845267248
 21
-94.927734901680651
 31
0.0
  0
LINE
  5
3D3C
  8
LOGO
 62
     4
 10
600.43059338025898
 20
-72.930920422041481
 30
0.0
 11
600.43059338025898
 21
-94.927734901680651
 31
0.0
  0
LINE
  5
3D3D
  8
LOGO
 62
     4
 10
646.42528845267248
 20
-94.927734901680651
 30
0.0
 11
600.43059338025898
 21
-94.927734901680651
 31
0.0
  0
LINE
  5
3D3E
  8
LOGO
 62
     4
 10
614.63231735193892
 20
-45.934829924304942
 30
0.0
 11
590.05541750582904
 21
-45.934829924304942
 31
0.0
  0
LINE
  5
3D3F
  8
LOGO
 62
     4
 10
614.63231735193892
 20
-63.932223589463092
 30
0.0
 11
590.05541750582904
 21
-63.932223589463092
 31
0.0
  0
LINE
  5
3D40
  8
LOGO
 62
     4
 10
590.05541750582904
 20
-45.934829924304942
 30
0.0
 11
590.05541750582904
 21
-63.932223589463092
 31
0.0
  0
LINE
  5
3D41
  8
LOGO
 62
     4
 10
614.63231735193892
 20
-45.934829924304942
 30
0.0
 11
614.63231735193892
 21
-63.932223589463092
 31
0.0
  0
LINE
  5
3D42
  8
LOGO
 62
     4
 10
607.13123542229368
 20
-63.932223589463092
 30
0.0
 11
607.13123542229368
 21
-72.930920422041481
 31
0.0
  0
TEXT
  5
3D43
  8
LOGO
  6
CONTINUOUS
 10
594.64757765879415
 20
-60.175293974048138
 30
0.0
 40
10.5
  1
90
  7
CHINESET
  0
LINE
  5
3D44
  8
LOGO
 62
     4
 10
646.42528845267248
 20
-72.930920422041481
 30
0.0
 11
600.43059338025898
 21
-72.930920422041481
 31
0.0
  0
TEXT
  5
3D45
  8
LOGO
  6
CONTINUOUS
 10
603.64644315065027
 20
-91.822931183208311
 30
393.17317728014939
 40
4.5
  1
Rotating angle
 41
0.8
  7
CHINESET
  0
TEXT
  5
3D46
  8
LOGO
 10
607.70727481455663
 20
-83.480901002426194
 30
393.17317728014939
 40
7.5
  1
旋轉角度
  7
CHINESET
  0
LINE
  5
3D47
  8
LOGO
  6
CONTINUOUS
 10
577.60488386581358
 20
-54.997276369506153
 30
0.0
 11
585.55187621263326
 21
-54.997276369506153
 31
0.0
  0
LINE
  5
3D48
  8
LOGO
 62
     4
 10
691.61512305818155
 20
-72.930920422041481
 30
0.0
 11
691.61512305818155
 21
-94.927734901680651
 31
0.0
  0
LINE
  5
3D49
  8
LOGO
 62
     4
 10
652.66232531293076
 20
-72.930920422041481
 30
0.0
 11
652.66232531293076
 21
-94.927734901680651
 31
0.0
  0
LINE
  5
3D4A
  8
LOGO
 62
     4
 10
691.61512305818155
 20
-94.927734901680651
 30
0.0
 11
652.66232531293076
 21
-94.927734901680651
 31
0.0
  0
LINE
  5
3D4B
  8
LOGO
 62
     4
 10
654.66384287578035
 20
-45.934829924304942
 30
0.0
 11
630.08694302967058
 21
-45.934829924304942
 31
0.0
  0
LINE
  5
3D4C
  8
LOGO
 62
     4
 10
654.66384287578035
 20
-63.932223589463092
 30
0.0
 11
630.08694302967058
 21
-63.932223589463092
 31
0.0
  0
LINE
  5
3D4D
  8
LOGO
 62
     4
 10
630.08694302967058
 20
-45.934829924304942
 30
0.0
 11
630.08694302967058
 21
-63.932223589463092
 31
0.0
  0
LINE
  5
3D4E
  8
LOGO
 62
     4
 10
654.66384287578035
 20
-45.934829924304942
 30
0.0
 11
654.66384287578035
 21
-63.932223589463092
 31
0.0
  0
LINE
  5
3D4F
  8
LOGO
 62
     4
 10
665.05749024067234
 20
-68.431572005752287
 30
0.0
 11
665.05749024067234
 21
-72.930920422041481
 31
0.0
  0
LINE
  5
3D50
  8
LOGO
 62
     4
 10
691.61512305818155
 20
-72.930920422041481
 30
0.0
 11
652.66232531293076
 21
-72.930920422041481
 31
0.0
  0
TEXT
  5
3D51
  8
LOGO
  6
CONTINUOUS
 10
660.07406344382264
 20
-91.822931183208311
 30
393.17317728014939
 40
4.5
  1
Mounting
 41
0.8
  7
CHINESET
  0
TEXT
  5
3D52
  8
LOGO
 10
656.57113899734838
 20
-83.480901002426194
 30
393.17317728014939
 40
7.5
  1
固定型式
  7
CHINESET
  0
LINE
  5
3D53
  8
LOGO
 62
     4
 10
757.07337603724966
 20
-72.930920422041481
 30
0.0
 11
757.07337603724966
 21
-94.927734901680651
 31
0.0
  0
LINE
  5
3D54
  8
LOGO
 62
     4
 10
696.4953954079557
 20
-72.930920422041481
 30
0.0
 11
696.4953954079557
 21
-94.927734901680651
 31
0.0
  0
LINE
  5
3D55
  8
LOGO
 62
     4
 10
757.07337603724966
 20
-94.927734901680651
 30
0.0
 11
696.4953954079557
 21
-94.927734901680651
 31
0.0
  0
LINE
  5
3D56
  8
LOGO
 62
     4
 10
694.21443964277762
 20
-45.934829924304942
 30
0.0
 11
669.63753979666774
 21
-45.934829924304942
 31
0.0
  0
LINE
  5
3D57
  8
LOGO
 62
     4
 10
694.21443964277762
 20
-63.932223589463092
 30
0.0
 11
669.63753979666774
 21
-63.932223589463092
 31
0.0
  0
LINE
  5
3D58
  8
LOGO
 62
     4
 10
669.63753979666774
 20
-45.934829924304942
 30
0.0
 11
669.63753979666774
 21
-63.932223589463092
 31
0.0
  0
LINE
  5
3D59
  8
LOGO
 62
     4
 10
694.21443964277762
 20
-45.934829924304942
 30
0.0
 11
694.21443964277762
 21
-63.932223589463092
 31
0.0
  0
LINE
  5
3D5A
  8
LOGO
 62
     4
 10
757.07337603724966
 20
-72.930920422041481
 30
0.0
 11
696.4953954079557
 21
-72.930920422041481
 31
0.0
  0
TEXT
  5
3D5B
  8
LOGO
  6
CONTINUOUS
 10
699.71124517834687
 20
-91.822931183208311
 30
393.17317728014939
 40
4.5
  1
Clamping arm front
 41
0.8
  7
CHINESET
  0
TEXT
  5
3D5C
  8
LOGO
 10
712.59557469570677
 20
-83.480901002426194
 30
393.17317728014939
 40
7.5
  1
壓板型式
  7
CHINESET
  0
LINE
  5
3D5D
  8
LOGO
  6
CONTINUOUS
 10
618.42760862049943
 20
-54.997276369506153
 30
0.0
 11
626.37460096731957
 21
-54.997276369506153
 31
0.0
  0
LINE
  5
3D5E
  8
LOGO
 62
     4
 10
642.37539295272552
 20
-63.932223589463092
 30
0.0
 11
642.37539295272552
 21
-68.431572005752287
 31
0.0
  0
LINE
  5
3D5F
  8
LOGO
 62
     4
 10
642.37539295272552
 20
-68.431572005752287
 30
0.0
 11
665.05749024067234
 21
-68.431572005752287
 31
0.0
  0
LINE
  5
3D60
  8
LOGO
  6
CONTINUOUS
 10
658.45913414434096
 20
-54.997276369506153
 30
0.0
 11
666.40612649116099
 21
-54.997276369506153
 31
0.0
  0
LINE
  5
3D61
  8
LOGO
 62
     4
 10
726.78438572260279
 20
-68.431572005752287
 30
0.0
 11
726.78438572260279
 21
-72.930920422041481
 31
0.0
  0
LINE
  5
3D62
  8
LOGO
 62
     4
 10
681.92598971972268
 20
-63.932223589463092
 30
0.0
 11
681.92598971972268
 21
-68.431572005752287
 31
0.0
  0
LINE
  5
3D63
  8
LOGO
 62
     4
 10
681.92598971972268
 20
-68.431572005752287
 30
0.0
 11
726.78438572260279
 21
-68.431572005752287
 31
0.0
  0
LINE
  5
3D64
  8
LOGO
 62
     4
 10
674.53446593588274
 20
904.95900303836515
 30
0.0
 11
674.53446593588274
 21
577.83424012094292
 31
0.0
  0
TEXT
  5
3D66
  8
0
 10
686.72678570205176
 20
240.80274809985011
 30
0.0
 40
9.6000000000000014
  1
Clamping arm front
  0
TEXT
  5
3D68
  8
0
 10
720.68948947203069
 20
100.3765675233505
 30
0.0
 40
9.6000000000000014
  1
Extension type
  0
POINT
  5
3D69
  8
0
 10
-223.81804704707
 20
-1385.4560741229529
 30
0.0
1001
GENIUS_GENOBJ-N-CRS_13
1002
{
1000
OWNER
1000
GEN
1002
}
1001
GENIUS_GENOLIS_13
1002
{
1000
ENT
1005
0
1005
0
1005
0
1005
3D2E
1002
}
1001
GENIUS_GENOENT_13
1002
{
1000
MYREF
1005
3D69
1002
}
1002
{
1000
GRP
1005
0
1002
}
1001
GENIUS_GENODEF_13
1002
{
1000
HIER
1070
    10
1002
}
1002
{
1000
MANEDIT
1070
     1
1002
}
1002
{
1000
NOSEL
1070
     0
1002
}
1002
{
1000
BEHIND
1070
     0
1002
}
1002
{
1000
OTHER
1070
     0
1002
}
1002
{
1000
REACTOR
1002
}
  0
POINT
  5
3D6A
  8
0
 10
-235.1426322699246
 20
-1376.5804876443169
 30
0.0
1001
GENIUS_GENOBJ-N-CRS_13
1002
{
1000
OWNER
1000
GEN
1002
}
1001
GENIUS_GENOLIS_13
1002
{
1000
ENT
1005
0
1005
0
1005
0
1005
3D2D
1002
}
1001
GENIUS_GENOENT_13
1002
{
1000
MYREF
1005
3D6A
1002
}
1002
{
1000
GRP
1005
0
1002
}
1001
GENIUS_GENODEF_13
1002
{
1000
HIER
1070
    10
1002
}
1002
{
1000
MANEDIT
1070
     1
1002
}
1002
{
1000
NOSEL
1070
     0
1002
}
1002
{
1000
BEHIND
1070
     0
1002
}
1002
{
1000
OTHER
1070
     0
1002
}
1002
{
1000
REACTOR
1002
}
  0
POINT
  5
3D6B
  8
0
 10
-228.78395857208781
 20
-1385.4560741229529
 30
0.0
1001
GENIUS_GENOBJ-N-CRS_13
1002
{
1000
OWNER
1000
GEN
1002
}
1001
GENIUS_GENOLIS_13
1002
{
1000
ENT
1005
0
1005
0
1005
0
1005
3D2C
1002
}
1001
GENIUS_GENOENT_13
1002
{
1000
MYREF
1005
3D6B
1002
}
1002
{
1000
GRP
1005
0
1002
}
1001
GENIUS_GENODEF_13
1002
{
1000
HIER
1070
    10
1002
}
1002
{
1000
MANEDIT
1070
     1
1002
}
1002
{
1000
NOSEL
1070
     0
1002
}
1002
{
1000
BEHIND
1070
     0
1002
}
1002
{
1000
OTHER
1070
     0
1002
}
1002
{
1000
REACTOR
1002
}
  0
POLYLINE
  5
4516
  8
LOGO
 62
     4
 66
     1
 10
0.0
 20
0.0
 30
0.0
 70
     1
1001
GENIUS_GENREC_14
1002
{
1000
PYDIR
1011
674.53446593588274
1021
0.0
1031
0.0
1021
577.83424012094292
1031
0.0
1002
}
1002
{
1000
PXDIR
1011
1146.4344659358831
1021
0.0
1031
0.0
1021
268.9492707091789
1031
0.0
1002
}
1002
{
1000
PORI
1011
674.53446593588274
1021
0.0
1031
0.0
1021
268.9492707091789
1031
0.0
1002
}
1002
{
1000
PINS
1011
674.53446593588274
1021
0.0
1031
0.0
1021
268.9492707091789
1031
0.0
1002
}
1002
{
1000
PINS2
1011
1146.4344659358831
1021
0.0
1031
0.0
1021
577.83424012094292
1031
0.0
1002
}
1002
{
1000
C
1070
     1
1002
}
1001
GENIUS_GENODEF_13
1002
{
1000
HIER
1070
     0
1002
}
1002
{
1000
MANEDIT
1070
     0
1002
}
1002
{
1000
NOSEL
1070
     0
1002
}
1002
{
1000
BEHIND
1070
     0
1002
}
1002
{
1000
OTHER
1070
     0
1002
}
1002
{
1000
REACTOR
1002
}
1001
GENIUS_GENOBJ-N-REC_13
1002
{
1000
OWNER
1000
GEN
1002
}
  0
VERTEX
  5
5406
  8
LOGO
 62
     4
 10
674.53446593588274
 20
268.9492707091789
 30
0.0
  0
VERTEX
  5
5407
  8
LOGO
 62
     4
 10
1146.4344659358831
 20
268.9492707091789
 30
0.0
  0
VERTEX
  5
5408
  8
LOGO
 62
     4
 10
1146.4344659358831
 20
577.83424012094292
 30
0.0
  0
VERTEX
  5
5409
  8
LOGO
 62
     4
 10
674.53446593588274
 20
577.83424012094292
 30
0.0
  0
SEQEND
  5
540A
  8
LOGO
 62
     4
  0
TEXT
  5
456F
  8
LOGO
  6
CONTINUOUS
 10
684.95974484192993
 20
564.8446836576112
 30
0.0
 40
6.0059999999999976
  1
MTAD-40-FC
  7
CHINESET
 72
     1
 11
714.98974484192991
 21
567.84768365761124
 31
0.0
 73
     2
  0
DIMENSION
  5
45AB
  8
AM_5
  2
*D2
 10
879.44818319150966
 20
430.83094002394762
 30
0.0
 11
809.44818319150954
 21
430.83094002394762
 31
0.0
 70
   128
 13
739.44818319150932
 23
419.36072387077121
 33
0.0
 14
879.44818319150966
 24
419.3607238707707
 34
0.0
1001
ACAD
1000
DSTYLE
1002
{
1070
    40
1040
1.0
1070
   144
1040
1.0
1002
}
  0
TEXT
  5
45AC
  8
UMCL2
 10
724.61753655603593
 20
537.74351318173819
 30
0.0
 40
4.0
  1
CW
  7
ROMANS
  0
TEXT
  5
45AD
  8
UMCL2
 10
724.54156543140448
 20
502.39092117845451
 30
0.0
 40
4.0
  1
CCW
  7
ROMANS
  0
POLYLINE
  5
45AE
  8
UMCL2
 66
     1
 10
0.0
 20
0.0
 30
0.0
 70
     7
  0
VERTEX
  5
45AF
  8
UMCL2
 10
733.25401746700356
 20
535.76899794150825
 30
0.0
 42
-0.0185322085214218
  0
VERTEX
  5
45B0
  8
UMCL2
 10
735.28319053688324
 20
540.17009718118936
 30
0.0
  0
VERTEX
  5
45B1
  8
UMCL2
 10
734.74799813228356
 20
540.44133340675455
 30
0.0
  0
VERTEX
  5
45B2
  8
UMCL2
 10
737.37048291561678
 20
542.4755310456037
 30
0.0
  0
VERTEX
  5
45B3
  8
UMCL2
 10
737.15636395298225
 20
539.22077039171143
 30
0.0
  0
VERTEX
  5
45B4
  8
UMCL2
 10
736.62117154838245
 20
539.49200661727673
 30
0.0
 42
0.018532208521422
  0
VERTEX
  5
45B5
  8
UMCL2
 10
734.63853914524293
 20
535.19185002070685
 30
0.0
  0
SEQEND
  5
45B6
  8
UMCL2
  0
POLYLINE
  5
45B7
  8
UMCL2
 66
     1
 10
0.0
 20
0.0
 30
0.0
 70
     7
  0
VERTEX
  5
45B8
  8
UMCL2
 10
738.06366151326824
 20
507.32505908101899
 30
0.0
 42
0.0185322085214218
  0
VERTEX
  5
45B9
  8
UMCL2
 10
740.09283458314781
 20
502.92395984133788
 30
0.0
  0
VERTEX
  5
45BA
  8
UMCL2
 10
739.55764217854812
 20
502.65272361577269
 30
0.0
  0
VERTEX
  5
45BB
  8
UMCL2
 10
742.18012696188146
 20
500.61852597692348
 30
0.0
  0
VERTEX
  5
45BC
  8
UMCL2
 10
741.96600799924693
 20
503.87328663081598
 30
0.0
  0
VERTEX
  5
45BD
  8
UMCL2
 10
741.43081559464702
 20
503.60205040525068
 30
0.0
 42
-0.018532208521422
  0
VERTEX
  5
45BE
  8
UMCL2
 10
739.44818319150784
 20
507.90220700181982
 30
0.0
  0
SEQEND
  5
45BF
  8
UMCL2
  0
LINE
  5
45C0
  8
CEN
 10
882.16253358750646
 20
520.40220700181919
 30
0.0
 11
849.08969078653115
 21
520.40220700181942
 31
0.0
  0
LINE
  5
45C1
  8
CEN
 10
785.44818319150806
 20
550.20220700181972
 30
0.0
 11
785.44818319150806
 21
538.60220700181969
 31
0.0
  0
LINE
  5
45C2
  8
CEN
 10
791.24818319150791
 20
544.40220700181965
 30
0.0
 11
779.64818319150788
 21
544.40220700181965
 31
0.0
  0
LINE
  5
45C3
  8
CEN
 10
809.44818319150841
 20
553.53088435451525
 30
0.0
 11
809.44818319150795
 21
487.2401806650426
 31
0.0
  0
LINE
  5
45C4
  8
UMCL1
 10
1007.063236583385
 20
400.36072387077053
 30
0.0
 11
1007.063236583385
 21
419.3607238707707
 31
0.0
  0
LINE
  5
45C5
  8
CEN
 10
997.56323658338545
 20
421.4509611533698
 30
0.0
 11
997.56323658338488
 21
288.5830980433621
 31
0.0
  0
LINE
  5
45C6
  8
UMCL1
 10
988.06323658338545
 20
400.36072387077053
 30
0.0
 11
988.06323658338545
 21
419.3607238707707
 31
0.0
  0
LINE
  5
45C7
  8
UMCL1
 10
988.06323658338545
 20
419.3607238707707
 30
0.0
 11
1007.063236583385
 21
419.3607238707707
 31
0.0
  0
LINE
  5
45C8
  8
UMCL1
 10
988.06323658338545
 20
400.36072387077058
 30
0.0
 11
1007.063236583385
 21
400.36072387077053
 31
0.0
  0
LINE
  5
45C9
  8
UMCL1
 10
779.44818319150772
 20
313.5607238707708
 30
0.0
 11
779.44818319150772
 21
293.16072387077082
 31
0.0
  0
LINE
  5
45CA
  8
UMCL1
 10
839.44818319150784
 20
293.16072387077088
 30
0.0
 11
839.44818319150784
 21
313.5607238707708
 31
0.0
  0
LINE
  5
45CB
  8
UMCL1
 10
780.24818319150756
 20
314.36072387077081
 30
0.0
 11
838.64818319150766
 21
314.36072387077081
 31
0.0
  0
LINE
  5
45CC
  8
UMCL1
 10
780.24818319150791
 20
292.3607238707707
 30
0.0
 11
838.64818319150766
 21
292.36072387077093
 31
0.0
  0
LINE
  5
45CD
  8
UMCL1
 10
781.94818319150772
 20
314.36072387077081
 30
0.0
 11
781.94818319150772
 21
366.3607238707707
 31
0.0
  0
LINE
  5
45CE
  8
UMCL1
 10
785.94818319150761
 20
370.36072387077081
 30
0.0
 11
832.94818319150761
 21
370.3607238707707
 31
0.0
  0
LINE
  5
45CF
  8
UMCL1
 10
836.94818319150772
 20
366.3607238707707
 30
0.0
 11
836.94818319150772
 21
314.36072387077081
 31
0.0
  0
LINE
  5
45D0
  8
UMCL1
 10
739.44818319150784
 20
400.36072387077058
 30
0.0
 11
739.44818319150784
 21
419.3607238707707
 31
0.0
  0
LINE
  5
45D1
  8
UMCL1
 10
739.44818319150784
 20
419.3607238707707
 30
0.0
 11
879.44818319150966
 21
419.3607238707707
 31
0.0
  0
LINE
  5
45D2
  8
UMCL1
 10
739.44818319150784
 20
400.36072387077058
 30
0.0
 11
879.44818319150966
 21
400.36072387077058
 31
0.0
  0
POLYLINE
  5
45D3
  8
UMCL1
 66
     1
 10
0.0
 20
0.0
 30
0.0
  0
VERTEX
  5
540B
  8
UMCL1
 10
779.44818319150795
 20
510.9022070018197
 30
0.0
  0
VERTEX
  5
540C
  8
UMCL1
 10
779.44818319150795
 20
493.56822667835678
 30
0.0
  0
SEQEND
  5
540D
  8
UMCL1
  0
LINE
  5
45D4
  8
UMCL1
 10
739.44818319150795
 20
529.90220700181999
 30
0.0
 11
739.44818319150784
 21
510.90220700181987
 31
0.0
  0
LINE
  5
45D5
  8
UMCL1
 10
739.44818319150795
 20
529.90220700181999
 30
0.0
 11
879.44818319150761
 21
529.90220700181953
 31
0.0
  0
LINE
  5
45D6
  8
UMCL1
 10
739.44818319150784
 20
510.90220700181987
 30
0.0
 11
879.44818319150806
 21
510.90220700181948
 31
0.0
  0
CIRCLE
  5
45D7
  8
UMCL1
 10
785.44818319150795
 20
544.40220700181965
 30
0.0
 40
3.3999999999999999
  0
CIRCLE
  5
45D8
  8
UMCL1
 10
833.44818319150795
 20
544.40220700181965
 30
0.0
 40
3.3999999999999999
  0
CIRCLE
  5
45D9
  8
UMCL1
 10
833.44818319150795
 20
496.4022070018197
 30
0.0
 40
3.3999999999999999
  0
CIRCLE
  5
45DA
  8
UMCL1
 10
785.44818319150795
 20
496.4022070018197
 30
0.0
 40
3.3999999999999999
  0
LINE
  5
45DB
  8
UMCL1
 62
     4
 10
781.94818319150772
 20
366.36072387077081
 30
0.0
 11
836.94818319150772
 21
366.36072387077081
 31
0.0
  0
LINE
  5
45DC
  8
UMCL1
 10
779.44818319150772
 20
293.16072387077082
 30
0.0
 11
839.44818319150784
 21
293.16072387077082
 31
0.0
  0
LINE
  5
45DD
  8
UMCL1
 10
779.44818319150772
 20
313.5607238707708
 30
0.0
 11
839.44818319150784
 21
313.5607238707708
 31
0.0
  0
ARC
  5
45DE
  8
UMCL1
 10
785.94818319150761
 20
366.36072387077081
 30
0.0
 40
4.0
 50
90.0
 51
180.0
  0
ARC
  5
45DF
  8
UMCL1
 10
832.94818319150761
 20
366.3607238707707
 30
0.0
 40
4.0
 50
0.0
 51
90.0
  0
LINE
  5
45E0
  8
UMCL1
 10
838.64818319150766
 20
292.36072387077093
 30
0.0
 11
839.44818319150784
 21
293.16072387077088
 31
0.0
  0
LINE
  5
45E1
  8
UMCL1
 10
839.44818319150784
 20
313.5607238707708
 30
0.0
 11
838.64818319150766
 21
314.36072387077081
 31
0.0
  0
LINE
  5
45E2
  8
UMCL1
 10
780.24818319150756
 20
314.36072387077081
 30
0.0
 11
779.44818319150772
 21
313.5607238707708
 31
0.0
  0
LINE
  5
45E3
  8
UMCL1
 10
779.44818319150772
 20
293.16072387077082
 30
0.0
 11
780.24818319150791
 21
292.3607238707707
 31
0.0
  0
POLYLINE
  5
45E4
  8
UMCL1
 66
     1
 10
0.0
 20
0.0
 30
0.0
  0
VERTEX
  5
540E
  8
UMCL1
 10
836.28216351497099
 20
550.40220700181965
 30
0.0
  0
VERTEX
  5
540F
  8
UMCL1
 10
782.61420286804514
 20
550.40220700181965
 30
0.0
  0
SEQEND
  5
5410
  8
UMCL1
  0
POLYLINE
  5
45E5
  8
UMCL1
 66
     1
 10
0.0
 20
0.0
 30
0.0
  0
VERTEX
  5
5411
  8
UMCL1
 10
839.44818319150795
 20
493.56822667835672
 30
0.0
  0
VERTEX
  5
5412
  8
UMCL1
 10
839.44818319150795
 20
510.90220700181959
 30
0.0
  0
SEQEND
  5
5413
  8
UMCL1
  0
ARC
  5
45E6
  8
UMCL1
 10
809.44818319150795
 20
520.40220700181965
 30
0.0
 40
40.25
 50
311.81155054398761
 51
318.18844945601018
  0
POLYLINE
  5
45E7
  8
UMCL1
 66
     1
 10
0.0
 20
0.0
 30
0.0
  0
VERTEX
  5
5414
  8
UMCL1
 10
782.61420286804491
 20
490.4022070018197
 30
0.0
  0
VERTEX
  5
5415
  8
UMCL1
 10
836.28216351497099
 20
490.4022070018197
 30
0.0
  0
SEQEND
  5
5416
  8
UMCL1
  0
ARC
  5
45E8
  8
UMCL1
 10
809.44818319150795
 20
520.40220700181965
 30
0.0
 40
40.25
 50
221.8115505439898
 51
228.18844945601251
  0
POLYLINE
  5
45E9
  8
UMCL1
 66
     1
 10
0.0
 20
0.0
 30
0.0
  0
VERTEX
  5
5417
  8
UMCL1
 10
779.44818319150795
 20
547.2361873252828
 30
0.0
  0
VERTEX
  5
5418
  8
UMCL1
 10
779.44818319150795
 20
529.90220700181987
 30
0.0
  0
SEQEND
  5
5419
  8
UMCL1
  0
ARC
  5
45EA
  8
UMCL1
 10
809.44818319150795
 20
520.40220700181965
 30
0.0
 40
40.25
 50
41.81155054398981
 51
48.188449456012478
  0
ARC
  5
45EB
  8
UMCL1
 10
809.44818319150795
 20
520.40220700181965
 30
0.0
 40
40.25
 50
131.81155054398749
 51
138.1884494560102
  0
LINE
  5
45EC
  8
CEN
 10
779.64818319150788
 20
496.40220700181987
 30
0.0
 11
791.24818319150791
 21
496.40220700181987
 31
0.0
  0
LINE
  5
45ED
  8
CEN
 10
785.44818319150795
 20
502.20220700181972
 30
0.0
 11
785.44818319150795
 21
490.60220700181981
 31
0.0
  0
LINE
  5
45EE
  8
CEN
 10
833.44818319150795
 20
490.60220700181969
 30
0.0
 11
833.44818319150795
 21
502.20220700181977
 31
0.0
  0
LINE
  5
45EF
  8
CEN
 10
827.64818319150788
 20
496.40220700181982
 30
0.0
 11
839.24818319150791
 21
496.40220700181982
 31
0.0
  0
LINE
  5
45F0
  8
CEN
 10
839.24818319150791
 20
544.40220700181965
 30
0.0
 11
827.64818319150788
 21
544.40220700181965
 31
0.0
  0
LINE
  5
45F1
  8
CEN
 10
833.44818319150795
 20
538.60220700181969
 30
0.0
 11
833.44818319150795
 21
550.20220700181972
 31
0.0
  0
LINE
  5
45F2
  8
CEN
 10
809.44818319150863
 20
423.77165374594063
 30
0.0
 11
809.44818319150818
 21
344.00977729385352
 31
0.0
  0
LINE
  5
45F3
  8
CEN
 10
809.44818319150795
 20
334.57685112210601
 30
0.0
 11
809.44818319150772
 21
288.56978644348197
 31
0.0
  0
LINE
  5
45F4
  8
UMCL1
  6
PHANTOM
 62
     6
 10
739.44818319150784
 20
393.36072387077093
 30
0.0
 11
739.44818319150761
 21
374.36072387077093
 31
0.0
  0
LINE
  5
45F5
  8
UMCL1
  6
PHANTOM
 62
     6
 10
739.44818319150784
 20
393.36072387077093
 30
0.0
 11
879.44818319150966
 21
393.36072387077058
 31
0.0
  0
LINE
  5
45F6
  8
UMCL1
  6
PHANTOM
 62
     6
 10
739.44818319150761
 20
374.36072387077093
 30
0.0
 11
879.44818319150966
 21
374.36072387077053
 31
0.0
  0
LINE
  5
45F7
  8
CEN
 10
785.44818319150795
 20
316.48686934466349
 30
0.0
 11
785.44818319150795
 21
288.46272243701083
 31
0.0
  0
LINE
  5
45F8
  8
HIDDEN
 10
788.84818319150804
 20
314.36072387077081
 30
0.0
 11
788.84818319150804
 21
292.3607238707707
 31
0.0
  0
LINE
  5
45F9
  8
HIDDEN
 10
782.04818319150797
 20
314.36072387077081
 30
0.0
 11
782.04818319150797
 21
292.3607238707707
 31
0.0
  0
LINE
  5
45FA
  8
UMCL1
  6
CONTINUOUS
 10
782.61420286804491
 20
313.5607238707708
 30
0.0
 11
782.61420286804491
 21
293.16072387077082
 31
0.0
  0
LINE
  5
45FB
  8
UMCL1
 10
783.41420286804498
 20
314.36072387077081
 30
0.0
 11
782.61420286804491
 21
313.5607238707708
 31
0.0
  0
LINE
  5
45FC
  8
UMCL1
 10
782.61420286804514
 20
293.16072387077082
 30
0.0
 11
783.41420286804498
 21
292.3607238707707
 31
0.0
  0
LINE
  5
45FD
  8
CEN
 10
833.44818319150795
 20
316.48686934466349
 30
0.0
 11
833.44818319150795
 21
288.46272243701083
 31
0.0
  0
LINE
  5
45FE
  8
HIDDEN
 10
830.04818319150775
 20
314.36072387077081
 30
0.0
 11
830.04818319150775
 21
292.3607238707707
 31
0.0
  0
LINE
  5
45FF
  8
HIDDEN
 10
836.84818319150781
 20
314.36072387077081
 30
0.0
 11
836.84818319150781
 21
292.3607238707707
 31
0.0
  0
LINE
  5
4600
  8
UMCL1
  6
CONTINUOUS
 10
836.28216351497099
 20
313.5607238707708
 30
0.0
 11
836.28216351497099
 21
293.16072387077082
 31
0.0
  0
LINE
  5
4601
  8
UMCL1
 10
835.48216351497092
 20
314.36072387077081
 30
0.0
 11
836.28216351497099
 21
313.5607238707708
 31
0.0
  0
LINE
  5
4602
  8
UMCL1
 10
836.28216351497065
 20
293.16072387077082
 30
0.0
 11
835.48216351497081
 21
292.3607238707707
 31
0.0
  0
LINE
  5
4603
  8
UMCL1
 10
967.56323658338499
 20
313.5607238707708
 30
0.0
 11
967.56323658338499
 21
293.16072387077071
 31
0.0
  0
LINE
  5
4604
  8
UMCL1
 10
1027.5632365833851
 20
293.16072387077082
 30
0.0
 11
1027.5632365833851
 21
313.5607238707708
 31
0.0
  0
LINE
  5
4605
  8
UMCL1
 10
968.36323658338472
 20
314.36072387077081
 30
0.0
 11
1026.763236583384
 21
314.36072387077081
 31
0.0
  0
LINE
  5
4606
  8
UMCL1
 10
968.36323658338472
 20
292.3607238707707
 30
0.0
 11
1026.763236583384
 21
292.36072387077081
 31
0.0
  0
LINE
  5
4607
  8
UMCL1
 10
970.06323658338454
 20
314.36072387077081
 30
0.0
 11
970.06323658338499
 21
366.36072387077058
 31
0.0
  0
LINE
  5
4608
  8
UMCL1
 10
974.06323658338499
 20
370.3607238707707
 30
0.0
 11
1021.063236583385
 21
370.3607238707707
 31
0.0
  0
LINE
  5
4609
  8
UMCL1
 10
1025.0632365833851
 20
366.36072387077058
 30
0.0
 11
1025.0632365833851
 21
314.36072387077081
 31
0.0
  0
LINE
  5
460A
  8
UMCL1
 62
     4
 10
970.06323658338499
 20
366.3607238707707
 30
0.0
 11
1025.0632365833851
 21
366.3607238707707
 31
0.0
  0
LINE
  5
460B
  8
UMCL1
 10
967.56323658338499
 20
293.16072387077082
 30
0.0
 11
1027.5632365833851
 21
293.16072387077082
 31
0.0
  0
LINE
  5
460C
  8
UMCL1
 10
967.56323658338499
 20
313.5607238707708
 30
0.0
 11
1027.5632365833851
 21
313.5607238707708
 31
0.0
  0
ARC
  5
460D
  8
UMCL1
 10
974.06323658338499
 20
366.3607238707707
 30
0.0
 40
4.0
 50
90.0
 51
180.0
  0
ARC
  5
460E
  8
UMCL1
 10
1021.063236583385
 20
366.36072387077058
 30
0.0
 40
4.0
 50
0.0
 51
90.0
  0
LINE
  5
460F
  8
UMCL1
 10
1026.763236583384
 20
292.36072387077081
 30
0.0
 11
1027.5632365833851
 21
293.16072387077082
 31
0.0
  0
LINE
  5
4610
  8
UMCL1
 10
1027.5632365833851
 20
313.5607238707708
 30
0.0
 11
1026.763236583384
 21
314.36072387077081
 31
0.0
  0
LINE
  5
4611
  8
UMCL1
 10
968.36323658338472
 20
314.36072387077081
 30
0.0
 11
967.56323658338499
 21
313.5607238707708
 31
0.0
  0
LINE
  5
4612
  8
UMCL1
 10
967.56323658338499
 20
293.16072387077071
 30
0.0
 11
968.36323658338472
 21
292.3607238707707
 31
0.0
  0
LINE
  5
4613
  8
CEN
 10
973.56323658338488
 20
316.48686934466338
 30
0.0
 11
973.56323658338488
 21
288.46272243701083
 31
0.0
  0
LINE
  5
4614
  8
HIDDEN
 10
976.96323658338508
 20
314.36072387077081
 30
0.0
 11
976.96323658338508
 21
292.3607238707707
 31
0.0
  0
LINE
  5
4615
  8
HIDDEN
 10
970.16323658338479
 20
314.36072387077081
 30
0.0
 11
970.16323658338479
 21
292.3607238707707
 31
0.0
  0
LINE
  5
4616
  8
UMCL1
  6
CONTINUOUS
 10
970.72925625992195
 20
313.5607238707708
 30
0.0
 11
970.72925625992195
 21
293.16072387077082
 31
0.0
  0
LINE
  5
4617
  8
UMCL1
 10
971.52925625992225
 20
314.3607238707707
 30
0.0
 11
970.72925625992195
 21
313.5607238707708
 31
0.0
  0
LINE
  5
4618
  8
UMCL1
 10
970.72925625992195
 20
293.16072387077071
 30
0.0
 11
971.52925625992225
 21
292.3607238707707
 31
0.0
  0
LINE
  5
4619
  8
CEN
 10
1021.563236583385
 20
316.48686934466338
 30
0.0
 11
1021.563236583385
 21
288.46272243701083
 31
0.0
  0
LINE
  5
461A
  8
HIDDEN
 10
1018.163236583385
 20
314.36072387077081
 30
0.0
 11
1018.163236583385
 21
292.3607238707707
 31
0.0
  0
LINE
  5
461B
  8
HIDDEN
 10
1024.963236583385
 20
314.36072387077081
 30
0.0
 11
1024.963236583385
 21
292.3607238707707
 31
0.0
  0
LINE
  5
461C
  8
UMCL1
  6
CONTINUOUS
 10
1024.3972169068479
 20
313.5607238707708
 30
0.0
 11
1024.3972169068479
 21
293.16072387077082
 31
0.0
  0
LINE
  5
461D
  8
UMCL1
 10
1023.597216906848
 20
314.3607238707707
 30
0.0
 11
1024.3972169068479
 21
313.5607238707708
 31
0.0
  0
LINE
  5
461E
  8
UMCL1
 10
1024.3972169068479
 20
293.16072387077071
 30
0.0
 11
1023.597216906848
 21
292.3607238707707
 31
0.0
  0
LINE
  5
461F
  8
UMCL1
 10
879.44818319150966
 20
400.36072387077058
 30
0.0
 11
879.44818319150966
 21
419.3607238707707
 31
0.0
  0
LINE
  5
4620
  8
UMCL1
  6
PHANTOM
 62
     6
 10
879.44818319150966
 20
393.36072387077093
 30
0.0
 11
879.44818319150966
 21
374.36072387077093
 31
0.0
  0
LINE
  5
4621
  8
CEN
 10
800.03570900155455
 20
409.8607238707707
 30
0.0
 11
819.23858798495291
 21
409.8607238707707
 31
0.0
  0
CIRCLE
  5
4622
  8
UMCL1
  6
CONTINUOUS
 10
809.44818319150863
 20
409.8607238707707
 30
0.0
 40
4.0
  0
LINE
  5
4623
  8
CEN
 10
984.76826428455115
 20
409.8607238707707
 30
0.0
 11
1010.100338077723
 21
409.8607238707707
 31
0.0
  0
LINE
  5
4624
  8
UMCL1
 10
879.44818319150761
 20
529.90220700181999
 30
0.0
 11
879.44818319150806
 21
510.90220700181987
 31
0.0
  0
LINE
  5
4625
  8
UMCL1
 10
817.44818319150818
 20
524.90220700181965
 30
0.0
 11
801.44818319150818
 21
524.90220700181965
 31
0.0
  0
LINE
  5
4626
  8
UMCL1
 10
817.44818319150818
 20
515.90220700181965
 30
0.0
 11
801.44818319150818
 21
515.90220700181965
 31
0.0
  0
ARC
  5
4627
  8
UMCL1
 10
801.44818319150818
 20
520.40220700181965
 30
0.0
 40
4.5
 50
90.0
 51
270.0
  0
ARC
  5
4628
  8
UMCL1
 10
817.44818319150818
 20
520.40220700181965
 30
0.0
 40
4.5
 50
270.0
 51
90.0
  0
ARC
  5
4629
  8
UMCL1
 10
809.44818319150818
 20
520.40220700181965
 30
0.0
 40
8.0
 50
145.77113367218951
 51
214.22886632781049
  0
ARC
  5
462A
  8
UMCL1
 10
809.44818319150818
 20
520.40220700181965
 30
0.0
 40
7.5
 50
143.13010235415331
 51
216.8698976458453
  0
ARC
  5
462B
  8
UMCL1
 10
809.44818319150818
 20
520.40220700181965
 30
0.0
 40
8.0
 50
325.77113367218823
 51
34.228866327810437
  0
ARC
  5
462C
  8
UMCL1
 10
809.44818319150818
 20
520.40220700181965
 30
0.0
 40
7.5
 50
323.13010235415209
 51
36.869897645846628
  0
LINE
  5
462D
  8
UMCL1
 10
801.94818319150863
 20
400.06072387077052
 30
0.0
 11
801.44818319150863
 21
398.56072387077052
 31
0.0
  0
LINE
  5
462E
  8
UMCL1
 10
801.44818319150863
 20
398.56072387077052
 30
0.0
 11
817.44818319150863
 21
398.56072387077052
 31
0.0
  0
LINE
  5
462F
  8
UMCL1
 10
817.44818319150863
 20
398.56072387077052
 30
0.0
 11
816.94818319150875
 21
400.06072387077052
 31
0.0
  0
LINE
  5
4630
  8
UMCL1
 10
816.94818319150875
 20
400.06072387077052
 30
0.0
 11
816.94818319150875
 21
400.36072387077058
 31
0.0
  0
LINE
  5
4631
  8
UMCL1
 10
801.94818319150863
 20
400.06072387077052
 30
0.0
 11
801.94818319150863
 21
400.36072387077058
 31
0.0
  0
LINE
  5
4632
  8
UMCL1
 10
801.94818319150863
 20
400.06072387077052
 30
0.0
 11
816.94818319150875
 21
400.06072387077052
 31
0.0
  0
LINE
  5
4633
  8
UMCL1
 10
801.44818319150772
 20
398.56072387077052
 30
0.0
 11
801.44818319150772
 21
370.3607238707707
 31
0.0
  0
LINE
  5
4634
  8
UMCL1
 10
817.44818319150772
 20
398.56072387077052
 30
0.0
 11
817.44818319150772
 21
370.3607238707707
 31
0.0
  0
LINE
  5
4635
  8
UMCL1
 10
990.06323658338545
 20
400.06072387077052
 30
0.0
 11
989.56323658338545
 21
398.56072387077052
 31
0.0
  0
LINE
  5
4636
  8
UMCL1
 10
989.56323658338545
 20
398.56072387077052
 30
0.0
 11
1005.563236583385
 21
398.56072387077052
 31
0.0
  0
LINE
  5
4637
  8
UMCL1
 10
1005.563236583385
 20
398.56072387077052
 30
0.0
 11
1005.063236583385
 21
400.06072387077029
 31
0.0
  0
LINE
  5
4638
  8
UMCL1
 10
990.06323658338545
 20
400.06072387077052
 30
0.0
 11
1005.063236583385
 21
400.06072387077029
 31
0.0
  0
LINE
  5
4639
  8
UMCL1
 10
989.56323658338545
 20
398.56072387077052
 30
0.0
 11
989.56323658338545
 21
370.36072387077058
 31
0.0
  0
LINE
  5
463A
  8
UMCL1
 10
1005.563236583385
 20
398.5607238707704
 30
0.0
 11
1005.563236583385
 21
370.36072387077058
 31
0.0
  0
LINE
  5
463B
  8
UMCL1
 10
1002.063236583385
 20
400.36072387077058
 30
0.0
 11
1002.063236583385
 21
400.06072387077029
 31
0.0
  0
LINE
  5
463C
  8
UMCL1
 10
993.06323658338545
 20
400.36072387077081
 30
0.0
 11
993.06323658338545
 21
400.06072387077052
 31
0.0
  0
LINE
  5
463D
  8
CEN
 10
842.71687375638669
 20
520.40220700181942
 30
0.0
 11
736.36680171892704
 21
520.40220700181999
 31
0.0
  0
ARC
  5
463E
  8
UMCL1
 10
809.44818319150795
 20
520.40220700181965
 30
0.0
 40
27.5
 50
200.20954537375249
 51
339.79045462624742
  0
ARC
  5
463F
  8
UMCL1
 10
809.44818319150795
 20
520.40220700181965
 30
0.0
 40
27.5
 50
20.209545373752562
 51
159.7904546262474
  0
POLYLINE
  5
4640
  8
UMCL1
 66
     1
 10
0.0
 20
0.0
 30
0.0
  0
VERTEX
  5
541A
  8
UMCL1
 10
839.44818319150795
 20
529.90220700181965
 30
0.0
  0
VERTEX
  5
541B
  8
UMCL1
 10
839.44818319150795
 20
547.2361873252828
 30
0.0
  0
SEQEND
  5
541C
  8
UMCL1
  0
CIRCLE
  5
465B
  8
HIDDEN
 10
797.94818319150806
 20
531.88553250977895
 30
0.0
 40
2.5
  0
CIRCLE
  5
465C
  8
HIDDEN
 10
797.94818319150806
 20
531.88553250977895
 30
0.0
 40
5.0
  0
CIRCLE
  5
465D
  8
HIDDEN
 10
820.94818319150806
 20
508.8855325097789
 30
0.0
 40
2.5
  0
CIRCLE
  5
465E
  8
HIDDEN
 10
820.94818319150806
 20
508.8855325097789
 30
0.0
 40
5.0
  0
TEXT
  5
465F
  8
UMCL2
 62
     2
 10
815.01555084535789
 20
499.84420362137581
 30
0.0
 40
3.0
  1
A
  7
ROMANS
  0
CIRCLE
  5
4660
  8
UMCL2
 62
     2
 10
816.44818319150806
 20
501.09130387571889
 30
0.0
 40
2.5
  0
TEXT
  5
4661
  8
UMCL2
 62
     2
 10
801.05877287929229
 20
538.18417738272001
 30
0.0
 40
3.0
  1
B
  7
ROMANS
  0
CIRCLE
  5
4662
  8
UMCL2
 62
     2
 10
802.44818319150818
 20
539.67976114383885
 30
0.0
 40
2.5
  0
TEXT
  5
4663
  8
UMCL1
 10
1078.1323873420729
 20
425.65117323962198
 30
0.0
 40
2.5
  1
A
  7
ROMANS
  0
CIRCLE
  5
4664
  8
UMCL1
 10
1079.335689956577
 20
426.6671138275621
 30
0.0
 40
2.0
  0
TEXT
  5
4665
  8
UMCL1
 10
1078.214692912645
 20
420.42430116532432
 30
0.0
 40
2.5
  1
B
  7
ROMANS
  0
CIRCLE
  5
4666
  8
UMCL1
 10
1079.335689956577
 20
421.6671138275621
 30
0.0
 40
2.0
  0
TEXT
  5
4667
  8
UMCL1
 10
1081.9977505594379
 20
425.26711382756213
 30
0.0
 40
2.7999999999999998
  1
Clamping
  7
ROMANS
  0
TEXT
  5
4668
  8
UMCL1
 10
1081.9977505594379
 20
420.26711382756201
 30
0.0
 40
2.7999999999999998
  1
Unclamping
  7
ROMANS
  0
LINE
  5
4669
  8
UMCL1
 10
1077.335689956577
 20
434.41542369977913
 30
0.0
 11
1082.335669956577
 21
434.41542369977913
 31
0.0
  0
LINE
  5
466A
  8
UMCL1
 10
1077.3356899565761
 20
443.16538869978081
 30
0.0
 11
1077.335689956577
 21
434.41542369977913
 31
0.0
  0
LINE
  5
466B
  8
UMCL1
 10
1082.335669956577
 20
434.41542369977913
 30
0.0
 11
1082.335669956577
 21
443.16538869978092
 31
0.0
  0
LINE
  5
466C
  8
UMCL1
 10
1078.7940174565761
 20
443.16538869978092
 30
0.0
 11
1077.335689956577
 21
443.1653886997791
 31
0.0
  0
LINE
  5
466D
  8
UMCL1
 10
1082.335669956577
 20
443.1653886997791
 30
0.0
 11
1080.877342456577
 21
443.1653886997791
 31
0.0
  0
ARC
  5
466E
  8
UMCL1
 10
1079.8356799565749
 20
456.31700563473157
 30
0.0
 40
8.1516369349507727
 50
270.0
 51
278.41492958324898
  0
ARC
  5
466F
  8
UMCL1
 10
1080.3589033090809
 20
452.78012147617841
 30
0.0
 40
4.5762611186719022
 50
278.41492958324898
 51
289.6538240580461
  0
ARC
  5
4670
  8
UMCL1
 10
1081.1494577819369
 20
450.56656895217901
 30
0.0
 40
2.2257736902738738
 50
289.65382405805269
 51
310.76854055086022
  0
ARC
  5
4671
  8
UMCL1
 10
1082.321677239222
 20
449.20703119978077
 30
0.0
 40
0.4306577173534991
 50
310.76854055084277
 51
359.99999999999193
  0
ARC
  5
4672
  8
UMCL1
 10
1082.321677239222
 20
449.2070311997806
 30
0.0
 40
0.4306577173536539
 50
0.0000000000162844
 51
49.231459449147962
  0
ARC
  5
4673
  8
UMCL1
 10
1081.1494577819369
 20
447.84749344738248
 30
0.0
 40
2.2257736902737899
 50
49.231459449139841
 51
70.346175941947237
  0
ARC
  5
4674
  8
UMCL1
 10
1080.3589033090791
 20
445.63394092337762
 30
0.0
 40
4.576261118677504
 50
70.34617594196115
 51
81.585070416744472
  0
ARC
  5
4675
  8
UMCL1
 10
1079.8356799565749
 20
442.09705676482969
 30
0.0
 40
8.1516369349508881
 50
81.585070416750909
 51
90.0
  0
LINE
  5
4676
  8
UMCL1
 10
1077.335689956579
 20
440.24873369977911
 30
0.0
 11
1082.3356699565791
 21
440.24873369977911
 31
0.0
  0
LINE
  5
4677
  8
UMCL1
 10
1077.335689956579
 20
441.91539369977909
 30
0.0
 11
1082.3356699565791
 21
441.91539369977909
 31
0.0
  0
LINE
  5
4678
  8
UMCL1
 10
1078.794017456574
 20
444.8320486997809
 30
0.0
 11
1078.794017456574
 21
441.91539369977897
 31
0.0
  0
LINE
  5
4679
  8
UMCL1
 10
1080.877342456577
 20
444.83204869977919
 30
0.0
 11
1080.877342456577
 21
441.91539369977897
 31
0.0
  0
SOLID
  5
467A
  8
UMCL1
 10
1079.6041499790981
 20
446.14512045147279
 30
0.0
 11
1080.0672099340511
 21
446.14512045147279
 31
0.0
 12
1079.8356799565749
 22
444.8320486997809
 32
0.0
 13
1079.8356799565749
 23
444.8320486997809
 33
0.0
  0
LINE
  5
467B
  8
UMCL1
 10
1084.335669956577
 20
435.04042119977908
 30
0.0
 11
1084.335669956577
 21
432.12376619977891
 31
0.0
  0
LINE
  5
467C
  8
UMCL1
 10
1091.335669956577
 20
432.12376619977891
 30
0.0
 11
1091.335669956577
 21
435.04042119977908
 31
0.0
  0
CIRCLE
  5
467D
  8
UMCL1
 10
1087.835669956577
 20
432.12376619977891
 30
0.0
 40
0.6249935000160002
  0
ARC
  5
467E
  8
UMCL1
 10
1087.835669956577
 20
438.99873869977893
 30
0.0
 40
3.5416524999999162
 50
241.9275130641455
 51
298.0724869358545
  0
ARC
  5
467F
  8
UMCL1
 10
1087.835669956577
 20
431.08210369977888
 30
0.0
 40
3.541652500000211
 50
61.927513064145501
 51
118.0724869358545
  0
SOLID
  5
4680
  8
UMCL1
 10
1088.5777365372089
 20
437.07923237379782
 30
0.0
 11
1087.955884012961
 21
436.02855996380941
 31
0.0
 12
1088.378744000868
 22
435.87465151494922
 32
0.0
 13
1088.378744000868
 23
435.87465151494922
 33
0.0
  0
LINE
  5
4681
  8
UMCL1
 10
1088.7228996949591
 20
432.12376619977891
 30
0.0
 11
1087.766247322754
 21
433.08041857198208
 31
0.0
  0
LINE
  5
4682
  8
UMCL1
 10
1088.7228996949621
 20
432.12376619977891
 30
0.0
 11
1087.7662473227481
 21
431.16711382756199
 31
0.0
  0
LINE
  5
4683
  8
UMCL1
 10
1088.5777365372089
 20
437.07923237379782
 30
0.0
 11
1087.380670823851
 21
433.7903213567439
 31
0.0
  0
ARC
  5
4684
  8
UMCL1
 10
1084.335669956577
 20
435.04042119977908
 30
0.0
 40
0.1624999999999659
 50
0.0
 51
180.0
  0
ARC
  5
4685
  8
UMCL1
 10
1084.335669956577
 20
435.04042119977908
 30
0.0
 40
0.1624999999999659
 50
180.0
 51
0.0
  0
ARC
  5
4686
  8
UMCL1
 10
1091.335669956577
 20
435.04042119977908
 30
0.0
 40
0.1624999999999659
 50
0.0
 51
180.0
  0
ARC
  5
4687
  8
UMCL1
 10
1091.335669956577
 20
435.04042119977908
 30
0.0
 40
0.1624999999999659
 50
180.0
 51
0.0
  0
LINE
  5
4688
  8
UMCL1
 10
1079.8356799565749
 20
444.8320486997809
 30
0.0
 11
1079.8356799565749
 21
448.1653686997808
 31
0.0
  0
TEXT
  5
4689
  8
UMCL1
 10
1083.7671900503331
 20
441.5403911997808
 30
0.0
 40
2.0
  1
A
  7
ROMANS
  0
LINE
  5
468A
  8
UMCL1
 10
1093.335669956577
 20
435.04042119977902
 30
0.0
 11
1082.335669956577
 21
435.04042119977908
 31
0.0
  0
LINE
  5
468B
  8
UMCL1
 10
1082.33566995658
 20
442.54039119978091
 30
0.0
 11
1083.335669956577
 21
442.54039119978069
 31
0.0
  0
TEXT
  5
468C
  8
UMCL1
 10
1093.7671900503331
 20
434.04042119977879
 30
0.0
 40
2.0
  1
B
  7
ROMANS
  0
LINE
  5
468D
  8
UMCL1
 10
1088.722899694958
 20
432.12376619977891
 30
0.0
 11
1091.335669956577
 21
432.12376619977891
 31
0.0
  0
LINE
  5
468E
  8
UMCL1
 10
1084.335669956577
 20
432.12376619977891
 30
0.0
 11
1087.210676456561
 21
432.12376619977891
 31
0.0
  0
ARC
  5
468F
  8
UMCL1
 10
833.39476517889273
 20
531.90220700181953
 30
0.0
 40
9.5534180126155732
 50
347.9157861266815
 51
17.58795377399202
  0
LINE
  5
4690
  8
UMCL1
 10
842.94818319150806
 20
536.90220700181953
 30
0.0
 11
842.50160120412272
 21
537.67570969371582
 31
0.0
  0
LINE
  5
4691
  8
UMCL1
 10
842.94818319150806
 20
529.90220700181965
 30
0.0
 11
842.94818319150806
 21
536.90220700181931
 31
0.0
  0
ARC
  5
4692
  8
UMCL1
 10
840.39236044308518
 20
536.23233402074152
 30
0.0
 40
2.5558227484229761
 50
325.61575253194962
 51
25.615752531955739
  0
ARC
  5
4693
  8
UMCL1
 10
849.00160120412374
 20
531.90220700181953
 30
0.0
 40
9.5534180126155732
 50
162.41204622600799
 51
192.0842138733185
  0
LINE
  5
4694
  8
UMCL1
 10
839.44818319150806
 20
536.90220700181953
 30
0.0
 11
839.89476517889329
 21
537.67570969371582
 31
0.0
  0
ARC
  5
4695
  8
UMCL1
 10
842.00400593993118
 20
536.23233402074175
 30
0.0
 40
2.5558227484229761
 50
154.38424746804421
 51
214.3842474680504
  0
LINE
  5
4696
  8
UMCL1
 10
839.44818319150806
 20
529.90220700181965
 30
0.0
 11
839.44818319150806
 21
536.90220700181931
 31
0.0
  0
LINE
  5
4697
  8
UMCL1
 10
842.94818319150806
 20
534.90220700181953
 30
0.0
 11
843.69818319150806
 21
534.90220700181953
 31
0.0
  0
LINE
  5
4698
  8
UMCL1
 10
843.94818319150806
 20
529.90220700181965
 30
0.0
 11
843.94818319150806
 21
534.65220700181953
 31
0.0
  0
LINE
  5
4699
  8
UMCL1
 10
839.89476517889295
 20
537.67570969371582
 30
0.0
 11
842.50160120412272
 21
537.67570969371582
 31
0.0
  0
LINE
  5
469A
  8
UMCL1
 10
839.89476517889329
 20
534.78895834776745
 30
0.0
 11
842.50160120412272
 21
534.78895834776768
 31
0.0
  0
LINE
  5
469B
  8
UMCL1
 10
842.94818319150806
 20
534.65220700181953
 30
0.0
 11
843.94818319150806
 21
534.65220700181953
 31
0.0
  0
LINE
  5
469C
  8
UMCL1
 10
843.69818319150806
 20
529.90220700181965
 30
0.0
 11
843.69818319150806
 21
534.90220700181953
 31
0.0
  0
LINE
  5
469D
  8
UMCL1
 10
843.94818319150806
 20
534.65220700181953
 30
0.0
 11
843.69818319150806
 21
534.90220700181953
 31
0.0
  0
LINE
  5
469E
  8
CEN
 10
844.94818319150806
 20
531.90220700181953
 30
0.0
 11
829.44818319150806
 21
531.90220700181953
 31
0.0
  0
LINE
  5
469F
  8
HIDDEN
 10
800.44818319150772
 20
293.76072387077062
 30
0.0
 11
800.44818319150772
 21
302.3607238707707
 31
0.0
  0
LINE
  5
46A0
  8
HIDDEN
 10
795.44818319150772
 20
293.76072387077062
 30
0.0
 11
795.44818319150772
 21
302.3607238707707
 31
0.0
  0
LINE
  5
46A1
  8
HIDDEN
 10
792.94818319150772
 20
292.36072387077058
 30
0.0
 11
792.94818319150772
 21
293.76072387077062
 31
0.0
  0
LINE
  5
46A2
  8
HIDDEN
 10
802.94818319150772
 20
293.76072387077062
 30
0.0
 11
802.94818319150772
 21
292.36072387077058
 31
0.0
  0
LINE
  5
46A3
  8
HIDDEN
 10
792.94818319150772
 20
293.76072387077062
 30
0.0
 11
802.94818319150772
 21
293.76072387077062
 31
0.0
  0
LINE
  5
46A4
  8
HIDDEN
 10
823.44818319150772
 20
293.76072387077051
 30
0.0
 11
823.44818319150772
 21
302.36072387077058
 31
0.0
  0
LINE
  5
46A5
  8
HIDDEN
 10
818.44818319150772
 20
293.76072387077051
 30
0.0
 11
818.44818319150772
 21
302.36072387077058
 31
0.0
  0
LINE
  5
46A6
  8
HIDDEN
 10
815.94818319150761
 20
292.36072387077058
 30
0.0
 11
815.94818319150761
 21
293.76072387077051
 31
0.0
  0
LINE
  5
46A7
  8
HIDDEN
 10
825.94818319150784
 20
293.76072387077051
 30
0.0
 11
825.94818319150784
 21
292.36072387077058
 31
0.0
  0
LINE
  5
46A8
  8
HIDDEN
 10
815.94818319150761
 20
293.76072387077051
 30
0.0
 11
825.94818319150784
 21
293.76072387077051
 31
0.0
  0
LINE
  5
46A9
  8
UMCL1
 10
839.44818319150784
 20
297.36072387077053
 30
0.0
 11
839.44818319150784
 21
307.36072387077053
 31
0.0
  0
ARC
  5
46AA
  8
UMCL1
 10
835.72729693362317
 20
304.86072387077053
 30
0.0
 40
7.2208862578847546
 50
339.74384199958399
 51
20.256158000415951
  0
ARC
  5
46AB
  8
UMCL1
 10
835.72729693362317
 20
299.86072387077053
 30
0.0
 40
7.2208862578847546
 50
339.74384199958399
 51
20.256158000415951
  0
ARC
  5
46AC
  8
UMCL1
 10
846.66906944939274
 20
304.86072387077053
 30
0.0
 40
7.2208862578847546
 50
159.74384199958399
 51
200.25615800041589
  0
ARC
  5
46AD
  8
UMCL1
 10
846.66906944939274
 20
299.86072387077053
 30
0.0
 40
7.2208862578847546
 50
159.74384199958399
 51
200.25615800041589
  0
LINE
  5
46AE
  8
UMCL1
 10
842.94818319150784
 20
307.36072387077053
 30
0.0
 11
842.94818319150784
 21
297.36072387077053
 31
0.0
  0
LINE
  5
46AF
  8
UMCL1
 10
839.44818319150784
 20
307.36072387077053
 30
0.0
 11
842.94818319150784
 21
307.36072387077053
 31
0.0
  0
LINE
  5
46B0
  8
UMCL1
 10
842.94818319150784
 20
297.36072387077053
 30
0.0
 11
839.44818319150784
 21
297.36072387077053
 31
0.0
  0
LINE
  5
46B1
  8
UMCL1
 10
842.50160120412261
 20
302.36072387077053
 30
0.0
 11
839.89476517889295
 21
302.36072387077053
 31
0.0
  0
LINE
  5
46B2
  8
UMCL1
 10
842.94818319150784
 20
299.36072387077058
 30
0.0
 11
843.69818319150761
 21
299.36072387077058
 31
0.0
  0
LINE
  5
46B3
  8
UMCL1
 10
842.94818319150784
 20
305.36072387077058
 30
0.0
 11
843.69818319150761
 21
305.36072387077058
 31
0.0
  0
LINE
  5
46B4
  8
UMCL1
 10
843.94818319150772
 20
299.61072387077058
 30
0.0
 11
843.94818319150772
 21
305.11072387077058
 31
0.0
  0
LINE
  5
46B5
  8
UMCL1
 10
842.94818319150784
 20
299.61072387077058
 30
0.0
 11
843.94818319150772
 21
299.61072387077058
 31
0.0
  0
LINE
  5
46B6
  8
UMCL1
 10
842.94818319150784
 20
305.11072387077058
 30
0.0
 11
843.94818319150772
 21
305.11072387077058
 31
0.0
  0
LINE
  5
46B7
  8
UMCL1
 10
843.69818319150761
 20
299.36072387077058
 30
0.0
 11
843.69818319150761
 21
305.36072387077058
 31
0.0
  0
LINE
  5
46B8
  8
UMCL1
 10
843.94818319150772
 20
299.61072387077058
 30
0.0
 11
843.69818319150761
 21
299.36072387077058
 31
0.0
  0
LINE
  5
46B9
  8
UMCL1
 10
843.94818319150772
 20
305.11072387077058
 30
0.0
 11
843.69818319150761
 21
305.36072387077058
 31
0.0
  0
LINE
  5
46BA
  8
CEN
 10
844.94818319150772
 20
302.3607238707707
 30
0.0
 11
829.44818319150795
 21
302.3607238707707
 31
0.0
  0
LINE
  5
46BB
  8
CEN
 10
820.94818319150772
 20
304.3607238707707
 30
0.0
 11
820.94818319150772
 21
290.86072387077093
 31
0.0
  0
LINE
  5
46BC
  8
CEN
 10
797.94818319150772
 20
304.3607238707707
 30
0.0
 11
797.94818319150772
 21
290.86072387077081
 31
0.0
  0
CIRCLE
  5
46BD
  8
UMCL1
 10
1009.063236583385
 20
302.3607238707707
 30
0.0
 40
7.0
  0
CIRCLE
  5
46BE
  8
UMCL1
 10
1009.063236583385
 20
302.3607238707707
 30
0.0
 40
5.0
  0
CIRCLE
  5
46BF
  8
UMCL1
 10
1009.063236583385
 20
302.3607238707707
 30
0.0
 40
2.75
  0
CIRCLE
  5
46C0
  8
UMCL1
 10
1009.063236583385
 20
302.3607238707707
 30
0.0
 40
3.0
  0
POLYLINE
  5
46C1
  8
UMCL1
 66
     1
 10
0.0
 20
0.0
 30
0.0
 70
     1
  0
VERTEX
  5
541D
  8
UMCL1
 10
1011.949987929333
 20
307.36072387077058
 30
0.0
  0
VERTEX
  5
541E
  8
UMCL1
 10
1006.176485237437
 20
307.36072387077058
 30
0.0
  0
VERTEX
  5
541F
  8
UMCL1
 10
1003.289733891489
 20
302.3607238707707
 30
0.0
  0
VERTEX
  5
5420
  8
UMCL1
 10
1006.176485237437
 20
297.36072387077058
 30
0.0
  0
VERTEX
  5
5421
  8
UMCL1
 10
1011.949987929333
 20
297.36072387077058
 30
0.0
  0
VERTEX
  5
5422
  8
UMCL1
 10
1014.836739275281
 20
302.3607238707707
 30
0.0
  0
SEQEND
  5
5423
  8
UMCL1
  0
POLYLINE
  5
46C2
  8
UMCL1
 66
     1
 10
0.0
 20
0.0
 30
0.0
 70
     1
  0
VERTEX
  5
5424
  8
UMCL1
 10
1009.929261987169
 20
303.86072387077058
 30
0.0
  0
VERTEX
  5
5425
  8
UMCL1
 10
1008.1972111796
 20
303.86072387077058
 30
0.0
  0
VERTEX
  5
5426
  8
UMCL1
 10
1007.331185775816
 20
302.3607238707707
 30
0.0
  0
VERTEX
  5
5427
  8
UMCL1
 10
1008.1972111796
 20
300.86072387077058
 30
0.0
  0
VERTEX
  5
5428
  8
UMCL1
 10
1009.929261987169
 20
300.86072387077058
 30
0.0
  0
VERTEX
  5
5429
  8
UMCL1
 10
1010.795287390953
 20
302.3607238707707
 30
0.0
  0
SEQEND
  5
542A
  8
UMCL1
  0
LINE
  5
46C3
  8
HIDDEN
 10
988.56323658338488
 20
293.76072387077051
 30
0.0
 11
988.56323658338488
 21
302.36072387077058
 31
0.0
  0
LINE
  5
46C4
  8
HIDDEN
 10
983.56323658338499
 20
293.76072387077051
 30
0.0
 11
983.56323658338499
 21
302.36072387077058
 31
0.0
  0
LINE
  5
46C5
  8
HIDDEN
 10
981.06323658338499
 20
292.36072387077058
 30
0.0
 11
981.06323658338499
 21
293.76072387077051
 31
0.0
  0
LINE
  5
46C6
  8
HIDDEN
 10
991.06323658338488
 20
293.76072387077051
 30
0.0
 11
991.06323658338488
 21
292.36072387077058
 31
0.0
  0
LINE
  5
46C7
  8
HIDDEN
 10
981.06323658338499
 20
293.76072387077051
 30
0.0
 11
991.06323658338488
 21
293.76072387077051
 31
0.0
  0
LINE
  5
46C8
  8
HIDDEN
 10
1011.563236583385
 20
293.76072387077051
 30
0.0
 11
1011.563236583385
 21
302.36072387077053
 31
0.0
  0
LINE
  5
46C9
  8
HIDDEN
 10
1006.563236583385
 20
293.76072387077051
 30
0.0
 11
1006.563236583385
 21
302.36072387077053
 31
0.0
  0
LINE
  5
46CA
  8
HIDDEN
 10
1004.063236583385
 20
292.36072387077053
 30
0.0
 11
1004.063236583385
 21
293.76072387077051
 31
0.0
  0
LINE
  5
46CB
  8
HIDDEN
 10
1014.063236583385
 20
293.76072387077051
 30
0.0
 11
1014.063236583385
 21
292.36072387077053
 31
0.0
  0
LINE
  5
46CC
  8
HIDDEN
 10
1004.063236583385
 20
293.76072387077051
 30
0.0
 11
1014.063236583385
 21
293.76072387077051
 31
0.0
  0
LINE
  5
46CD
  8
CEN
 10
986.06323658338488
 20
304.3607238707707
 30
0.0
 11
986.06323658338488
 21
290.86072387077093
 31
0.0
  0
DIMENSION
  5
46CE
  8
AM_5
  2
*D3
 10
806.66993611826956
 20
406.98299156910679
 30
0.0
 11
826.32559591812083
 21
423.95022039575002
 31
0.0
 70
   131
 15
812.22643026474759
 25
412.73845617243438
 35
0.0
 40
0.0
1001
ACAD
1000
DSTYLE
1002
{
1070
    40
1040
1.0
1070
   144
1040
1.0
1002
}
  0
LINE
  5
46D4
  8
CEN
 10
797.94818319150841
 20
537.68553250977891
 30
0.0
 11
797.94818319150841
 21
526.08553250977877
 31
0.0
  0
LINE
  5
46D5
  8
CEN
 10
803.74818319150825
 20
531.88553250977884
 30
0.0
 11
792.14818319150822
 21
531.88553250977884
 31
0.0
  0
LINE
  5
46D6
  8
CEN
 10
820.94818319150841
 20
514.68553250977891
 30
0.0
 11
820.94818319150841
 21
503.08553250977877
 31
0.0
  0
LINE
  5
46D7
  8
CEN
 10
826.74818319150802
 20
508.88553250977878
 30
0.0
 11
815.14818319150834
 21
508.88553250977878
 31
0.0
  0
LINE
  5
46D8
  8
CEN
 10
1009.063236583385
 20
310.1607238707706
 30
0.0
 11
1009.063236583385
 21
291.15088061573999
 31
0.0
  0
LINE
  5
46D9
  8
CEN
 10
1016.863236583384
 20
302.36072387077053
 30
0.0
 11
1001.263236583385
 21
302.36072387077053
 31
0.0
  0
DIMENSION
  5
46DA
  8
AM_5
  2
*D4
 10
821.94818319150818
 20
478.40220700181948
 30
0.0
 11
809.44818319150818
 21
481.15255149000848
 31
0.0
 70
     0
 13
796.94818319150806
 23
520.40220700181965
 33
0.0
 14
821.94818319150818
 24
520.40220700181953
 34
0.0
 50
359.99999999999841
1001
ACAD
1000
DSTYLE
1002
{
1070
    40
1040
1.0
1070
   144
1040
1.0
1002
}
  0
DIMENSION
  5
46DD
  8
AM_5
  2
*D5
 10
833.44818319150795
 20
470.4022070018197
 30
0.0
 11
809.44818319150795
 21
473.1522070018197
 31
0.0
 70
     0
  1
{\Famgdt;o}<>
 13
785.44818319150795
 23
490.60220700181981
 33
0.0
 14
833.44818319150795
 24
490.60220700181969
 34
0.0
1001
ACAD
1000
DSTYLE
1002
{
1070
    40
1040
1.0
1070
   144
1040
1.0
1002
}
  0
DIMENSION
  5
46E0
  8
AM_5
  2
*D6
 10
839.44818319150795
 20
462.4022070018197
 30
0.0
 11
809.44818319150795
 21
465.1522070018197
 31
0.0
 70
     0
  1
{\Famgdt;o}<>
 13
779.44818319150795
 23
493.56822667835678
 33
0.0
 14
839.44818319150795
 24
493.56822667835672
 34
0.0
1001
ACAD
1000
DSTYLE
1002
{
1070
    40
1040
1.0
1070
   144
1040
1.0
1002
}
  0
DIMENSION
  5
46E3
  8
AM_5
  2
*D7
 10
820.94818319150841
 20
558.93944297216035
 30
0.0
 11
809.44818319150841
 21
561.68978746034941
 31
0.0
 70
     0
  1
{\Famgdt;o}<>
 13
797.94818319150841
 23
537.68553250977891
 33
0.0
 14
820.94818319150841
 24
514.68553250977891
 34
0.0
1001
ACAD
1000
DSTYLE
1002
{
1070
    40
1040
1.0
1070
   144
1040
1.0
1002
}
  0
DIMENSION
  5
46E6
  8
AM_5
  2
*D8
 10
847.97336528890753
 20
524.90220700181965
 30
0.0
 11
847.9733652889073
 21
520.40220700181965
 31
0.0
 70
   128
 13
817.44818319150818
 23
515.90220700181965
 33
0.0
 14
817.44818319150818
 24
524.90220700181965
 34
0.0
 50
90.0
1001
ACAD
1000
DSTYLE
1002
{
1070
    40
1040
1.0
1070
   144
1040
1.0
1002
}
  0
DIMENSION
  5
46E9
  8
AM_5
  2
*D9
 10
891.44818319150806
 20
510.90220700181987
 30
0.0
 11
888.69818319150806
 21
520.40220700182022
 31
0.0
 70
     0
 13
879.44818319150761
 23
529.90220700181999
 33
0.0
 14
879.44818319150806
 24
510.90220700181987
 34
0.0
 50
90.0
1001
ACAD
1000
DSTYLE
1002
{
1070
    40
1040
1.0
1070
   144
1040
1.0
1002
}
  0
DIMENSION
  5
46EC
  8
AM_5
  2
*D10
 10
831.04086337170111
 20
498.80320914366939
 30
0.0
 11
853.63937978880563
 21
483.89392304066331
 31
0.0
 70
   131
  1
4-<>
 15
835.8555030113148
 25
494.00120485997058
 35
0.0
 40
0.0
1001
ACAD
1000
DSTYLE
1002
{
1070
    40
1040
1.0
1070
   144
1040
1.0
1002
}
  0
DIMENSION
  5
46EF
  8
AM_5
  2
*D11
 10
907.44818319150954
 20
400.36072387077058
 30
0.0
 11
904.69818319150932
 21
409.86072387077081
 31
0.0
 70
     0
 13
879.44818319150966
 23
419.3607238707707
 33
0.0
 14
879.44818319150966
 24
400.36072387077058
 34
0.0
 50
90.0
1001
ACAD
1000
DSTYLE
1002
{
1070
   174
1070
     1
1002
}
  0
DIMENSION
  5
46F2
  8
AM_5
  2
*D12
 10
907.44818319150954
 20
400.36072387077058
 30
0.0
 11
904.69818319150932
 21
346.36072387077093
 31
0.0
 70
     0
 13
838.64818319150766
 23
292.36072387077093
 33
0.0
 14
879.44818319150966
 24
400.36072387077058
 34
0.0
 50
90.0
1001
ACAD
1000
DSTYLE
1002
{
1070
   174
1070
     1
1070
    40
1040
1.0
1070
   144
1040
1.0
1002
}
  0
DIMENSION
  5
46F5
  8
AM_5
  2
*D13
 10
899.44818319150954
 20
400.36072387077058
 30
0.0
 11
896.69818319150932
 21
405.11072387077081
 31
0.0
 70
     0
 13
819.23858798495291
 23
409.8607238707707
 33
0.0
 14
879.44818319150966
 24
400.3607238707707
 34
0.0
 50
90.0
1001
ACAD
1000
DSTYLE
1002
{
1070
   174
1070
     1
1002
}
  0
DIMENSION
  5
46F8
  8
AM_5
  2
*D14
 10
899.44818319150954
 20
400.36072387077058
 30
0.0
 11
896.69783870332037
 21
387.36072387077093
 31
0.0
 70
     0
 13
879.44818319150966
 23
374.36072387077093
 33
0.0
 14
879.44818319150966
 24
400.36072387077058
 34
0.0
 50
90.0
1001
ACAD
1000
DSTYLE
1002
{
1070
   174
1070
     1
1070
    40
1040
1.0
1070
   144
1040
1.0
1002
}
  0
DIMENSION
  5
46FB
  8
AM_5
  2
*D15
 10
891.44818319150966
 20
292.36072387077093
 30
0.0
 11
888.69818319150954
 21
331.36072387077093
 31
0.0
 70
     0
 13
832.94818319150761
 23
370.3607238707707
 33
0.0
 14
838.64818319150766
 24
292.36072387077093
 34
0.0
 50
90.0
1001
ACAD
1000
DSTYLE
1002
{
1070
    40
1040
1.0
1070
   144
1040
1.0
1002
}
  0
DIMENSION
  5
46FE
  8
AM_5
  2
*D16
 10
883.91661098476436
 20
292.36072387077093
 30
0.0
 11
883.91661098476425
 21
304.1045986357102
 31
0.0
 70
   128
 13
838.64818319150766
 23
314.36072387077081
 33
0.0
 14
838.64818319150766
 24
292.36072387077093
 34
0.0
 50
90.0
1001
ACAD
1000
DSTYLE
1002
{
1070
    40
1040
1.0
1070
   144
1040
1.0
1002
}
  0
DIMENSION
  5
4701
  8
AM_5
  2
*D17
 10
915.44818319150954
 20
292.36072387077081
 30
0.0
 11
912.69783870332037
 21
355.86072387077098
 31
0.0
 70
     0
 13
879.44818319150966
 23
419.3607238707707
 33
0.0
 14
838.64818319150766
 24
292.36072387077093
 34
0.0
 50
90.0
1001
ACAD
1000
DSTYLE
1002
{
1070
    40
1040
1.0
1070
   144
1040
1.0
1002
}
  0
DIMENSION
  5
4704
  8
AM_5
  2
*D18
 10
820.94818319150772
 20
319.1107238707707
 30
0.0
 11
814.03105674488552
 21
319.1107238707707
 31
0.0
 70
   128
 13
797.94818319150772
 23
304.3607238707707
 33
0.0
 14
820.94818319150772
 24
304.3607238707707
 34
0.0
1001
ACAD
1000
DSTYLE
1002
{
1070
    40
1040
1.0
1070
   144
1040
1.0
1002
}
  0
DIMENSION
  5
4707
  8
AM_5
  2
*D19
 10
836.94818319150772
 20
336.8684991186023
 30
0.0
 11
809.44818319150772
 21
339.61849911860219
 31
0.0
 70
     0
  1
%%c<>
 13
781.94818319150772
 23
366.36072387077081
 33
0.0
 14
836.94818319150772
 24
366.36072387077081
 34
0.0
1001
ACAD
1000
DSTYLE
1002
{
1070
    75
1070
     1
1070
    76
1070
     1
1002
}
  0
DIMENSION
  5
470A
  8
AM_5
  2
*D20
 10
1009.063236583385
 20
281.63885445385318
 30
0.0
 11
997.56323658338488
 21
284.3891989420423
 31
0.0
 70
     0
 13
986.06323658338488
 23
290.86072387077093
 33
0.0
 14
1009.063236583385
 24
291.15088061573999
 34
0.0
1001
ACAD
1000
DSTYLE
1002
{
1070
    40
1040
1.0
1070
   144
1040
1.0
1002
}
  0
DIMENSION
  5
470D
  8
AM_5
  2
*D21
 10
825.94818319150784
 20
280.36072387077058
 30
0.0
 11
841.67318319150775
 21
283.61165032250898
 31
0.0
 70
     0
  1
O-ring:P-07\P
 13
815.94818319150761
 23
292.36072387077058
 33
0.0
 14
825.94818319150784
 24
292.36072387077058
 34
0.0
1001
ACAD
1000
DSTYLE
1002
{
1070
    40
1040
1.0
1070
   144
1040
1.0
1002
}
  0
DIMENSION
  5
4710
  8
AM_5
  2
*D22
 10
899.44818319150954
 20
374.36072387077041
 30
0.0
 11
896.69783870332037
 21
333.36072387077081
 31
0.0
 70
     0
 13
838.64818319150766
 23
292.36072387077093
 33
0.0
 14
879.44818319150966
 24
374.36072387077053
 34
0.0
 50
90.0
1001
ACAD
1000
DSTYLE
1002
{
1070
    40
1040
1.0
1070
   144
1040
1.0
1002
}
  0
TEXT
  5
4AEE
  8
LOGO
  6
CONTINUOUS
 10
217.9301062511702
 20
559.43658911736281
 30
0.0
 40
6.0059999999999976
  1
MTAD-40-FA
  7
CHINESET
 72
     1
 11
248.1031062511702
 21
562.43958911736274
 31
0.0
 73
     2
  0
LINE
  5
4B41
  8
UMCL1
 10
286.15117833381839
 20
506.6253524236235
 30
0.0
 11
426.151178333818
 21
506.6253524236235
 31
0.0
  0
LINE
  5
4B42
  8
UMCL1
 10
426.151178333818
 20
506.6253524236235
 30
0.0
 11
426.151178333818
 21
525.62535242362355
 31
0.0
  0
LINE
  5
4B43
  8
UMCL1
 10
426.151178333818
 20
525.62535242362355
 30
0.0
 11
286.15117833381839
 21
525.62535242362355
 31
0.0
  0
LINE
  5
4B44
  8
UMCL1
 10
286.15117833381839
 20
525.62535242362355
 30
0.0
 11
286.15117833381839
 21
506.6253524236235
 31
0.0
  0
LINE
  5
4B45
  8
UMCL1
 10
364.151178333818
 20
520.62535242362355
 30
0.0
 11
348.15117833381811
 21
520.62535242362355
 31
0.0
  0
LINE
  5
4B46
  8
UMCL1
 10
364.151178333818
 20
511.6253524236235
 30
0.0
 11
348.15117833381811
 21
511.6253524236235
 31
0.0
  0
ARC
  5
4B47
  8
UMCL1
 10
348.15117833381811
 20
516.12535242362355
 30
0.0
 40
4.5
 50
90.0
 51
270.0
  0
ARC
  5
4B48
  8
UMCL1
 10
364.151178333818
 20
516.12535242362355
 30
0.0
 40
4.5
 50
270.0
 51
90.0
  0
ARC
  5
4B49
  8
UMCL1
 10
356.151178333818
 20
516.12535242362355
 30
0.0
 40
8.0
 50
145.77113367218951
 51
214.22886632781049
  0
ARC
  5
4B4A
  8
UMCL1
 10
356.151178333818
 20
516.12535242362355
 30
0.0
 40
7.5
 50
143.130102354152
 51
216.86989764584791
  0
ARC
  5
4B4B
  8
UMCL1
 10
356.151178333818
 20
516.12535242362355
 30
0.0
 40
8.0
 50
325.77113367218948
 51
34.228866327810437
  0
ARC
  5
4B4C
  8
UMCL1
 10
356.151178333818
 20
516.12535242362355
 30
0.0
 40
7.5
 50
323.13010235415209
 51
36.869897645847942
  0
LINE
  5
4B4D
  8
UMCL1
 10
286.15117833381782
 20
411.27195841123859
 30
0.0
 11
426.15117833381731
 21
411.27195841123859
 31
0.0
  0
LINE
  5
4B4E
  8
UMCL1
 10
426.15117833381731
 20
411.27195841123859
 30
0.0
 11
426.15117833381731
 21
430.27195841123859
 31
0.0
  0
LINE
  5
4B4F
  8
UMCL1
 10
426.15117833381731
 20
430.27195841123859
 30
0.0
 11
286.15117833381782
 21
430.27195841123859
 31
0.0
  0
LINE
  5
4B50
  8
UMCL1
 10
286.15117833381782
 20
430.27195841123859
 30
0.0
 11
286.15117833381782
 21
411.27195841123859
 31
0.0
  0
CIRCLE
  5
4B51
  8
UMCL1
 10
356.15117833381743
 20
420.77195841123859
 30
0.0
 40
4.0
  0
LINE
  5
4B52
  8
UMCL1
 10
348.65117833381743
 20
410.97195841123852
 30
0.0
 11
348.15117833381743
 21
409.47195841123852
 31
0.0
  0
LINE
  5
4B53
  8
UMCL1
 10
348.15117833381743
 20
409.47195841123852
 30
0.0
 11
364.15117833381743
 21
409.47195841123852
 31
0.0
  0
LINE
  5
4B54
  8
UMCL1
 10
364.15117833381743
 20
409.47195841123852
 30
0.0
 11
363.65117833381743
 21
410.9719584112384
 31
0.0
  0
LINE
  5
4B55
  8
UMCL1
 10
363.65117833381743
 20
410.9719584112384
 30
0.0
 11
363.65117833381743
 21
411.27195841123859
 31
0.0
  0
LINE
  5
4B56
  8
UMCL1
 10
348.65117833381743
 20
410.97195841123852
 30
0.0
 11
348.65117833381743
 21
411.27195841123859
 31
0.0
  0
LINE
  5
4B57
  8
UMCL1
 10
348.65117833381743
 20
410.97195841123852
 30
0.0
 11
363.65117833381743
 21
410.9719584112384
 31
0.0
  0
LINE
  5
4B58
  8
UMCL1
 10
348.15117833381743
 20
409.47195841123869
 30
0.0
 11
348.15117833381743
 21
381.27195841123859
 31
0.0
  0
LINE
  5
4B59
  8
UMCL1
 10
364.15117833381743
 20
409.47195841123852
 30
0.0
 11
364.15117833381743
 21
381.27195841123859
 31
0.0
  0
LINE
  5
4B5A
  8
UMCL1
 10
546.21854559170265
 20
410.97195841123857
 30
0.0
 11
545.71854559170265
 21
409.47195841123857
 31
0.0
  0
LINE
  5
4B5B
  8
UMCL1
 10
545.71854559170265
 20
409.47195841123857
 30
0.0
 11
561.71854559170265
 21
409.47195841123857
 31
0.0
  0
LINE
  5
4B5C
  8
UMCL1
 10
561.71854559170265
 20
409.47195841123857
 30
0.0
 11
561.21854559170265
 21
410.97195841123857
 31
0.0
  0
LINE
  5
4B5D
  8
0
 62
     4
 10
558.21854559170265
 20
410.97195841123857
 30
0.0
 11
558.21854559170265
 21
411.27195841123881
 31
0.0
  0
LINE
  5
4B5E
  8
0
 62
     4
 10
549.21854559170265
 20
410.97195841123857
 30
0.0
 11
549.21854559170265
 21
411.27195841123881
 31
0.0
  0
LINE
  5
4B5F
  8
UMCL1
 10
546.21854559170265
 20
410.97195841123857
 30
0.0
 11
561.21854559170265
 21
410.97195841123857
 31
0.0
  0
LINE
  5
4B60
  8
UMCL1
 10
545.71854559170265
 20
409.47195841123892
 30
0.0
 11
545.71854559170265
 21
381.27195841123881
 31
0.0
  0
LINE
  5
4B61
  8
UMCL1
 10
561.71854559170265
 20
409.47195841123857
 30
0.0
 11
561.71854559170265
 21
381.27195841123881
 31
0.0
  0
POLYLINE
  5
4B62
  8
UMCL1
 66
     1
 10
0.0
 20
0.0
 30
0.0
 70
     1
  0
VERTEX
  5
4B63
  8
UMCL1
 10
544.21854559170265
 20
411.27195841123881
 30
0.0
  0
VERTEX
  5
4B64
  8
UMCL1
 10
563.21854559170265
 20
411.27195841123881
 30
0.0
  0
VERTEX
  5
4B65
  8
UMCL1
 10
563.21854559170265
 20
430.27195841123881
 30
0.0
  0
VERTEX
  5
4B66
  8
UMCL1
 10
544.21854559170265
 20
430.27195841123881
 30
0.0
  0
SEQEND
  5
4B67
  8
UMCL1
  0
CIRCLE
  5
4B68
  8
UMCL1
 10
332.15117833381839
 20
540.12535242362355
 30
0.0
 40
3.399999999999999
  0
CIRCLE
  5
4B69
  8
UMCL1
 10
380.15117833381811
 20
540.12535242362355
 30
0.0
 40
3.399999999999999
  0
CIRCLE
  5
4B6A
  8
UMCL1
 10
380.15117833381811
 20
492.12535242362338
 30
0.0
 40
3.399999999999999
  0
CIRCLE
  5
4B6B
  8
UMCL1
 10
332.15117833381839
 20
492.12535242362338
 30
0.0
 40
3.399999999999999
  0
LINE
  5
4B6C
  8
CEN
 10
356.151178333818
 20
547.62535242362355
 30
0.0
 11
356.151178333818
 21
484.62535242362338
 31
0.0
  0
LINE
  5
4B6D
  8
CEN
 10
284.65117833381811
 20
516.12535242362355
 30
0.0
 11
427.651178333818
 21
516.12535242362355
 31
0.0
  0
LINE
  5
4B6E
  8
HIDDEN
 10
352.151178333818
 20
525.62535242362355
 30
0.0
 11
352.151178333818
 21
506.6253524236235
 31
0.0
  0
LINE
  5
4B6F
  8
HIDDEN
 10
360.151178333818
 20
525.62535242362355
 30
0.0
 11
360.151178333818
 21
506.6253524236235
 31
0.0
  0
LINE
  5
4B70
  8
CEN
 10
356.151178333818
 20
431.77195841123859
 30
0.0
 11
356.15117833381743
 21
301.77195841123881
 31
0.0
  0
LINE
  5
4B71
  8
CEN
 10
553.71854559170265
 20
431.77195841123881
 30
0.0
 11
553.71854559170265
 21
301.77195841123893
 31
0.0
  0
LINE
  5
4B72
  8
HIDDEN
 10
326.15117833381839
 20
525.62535242362355
 30
0.0
 11
326.15117833381839
 21
506.62535242362321
 31
0.0
  0
LINE
  5
4B73
  8
HIDDEN
 10
386.15117833381811
 20
525.62535242362355
 30
0.0
 11
386.15117833381811
 21
506.6253524236235
 31
0.0
  0
LINE
  5
4B74
  8
CEN
 10
350.85559550768841
 20
420.77195841123859
 30
0.0
 11
361.35117833381742
 21
420.77195841123859
 31
0.0
  0
LINE
  5
4B75
  8
UMCL1
 10
385.65117833381811
 20
381.27195841123881
 30
0.0
 11
326.65117833381839
 21
381.27195841123881
 31
0.0
  0
LINE
  5
4B76
  8
UMCL1
 10
386.15117833381811
 20
380.7719584112387
 30
0.0
 11
326.15117833381839
 21
380.7719584112387
 31
0.0
  0
LINE
  5
4B77
  8
UMCL1
 10
326.15117833381839
 20
359.77195841123893
 30
0.0
 11
386.15117833381811
 21
359.77195841123893
 31
0.0
  0
LINE
  5
4B78
  8
UMCL1
 10
326.15117833381839
 20
380.7719584112387
 30
0.0
 11
326.65117833381839
 21
381.27195841123881
 31
0.0
  0
LINE
  5
4B79
  8
UMCL1
 10
385.65117833381811
 20
381.27195841123881
 30
0.0
 11
386.15117833381811
 21
380.7719584112387
 31
0.0
  0
LINE
  5
4B7A
  8
UMCL1
 10
386.15117833381811
 20
359.77195841123893
 30
0.0
 11
385.65117833381811
 21
359.27195841123893
 31
0.0
  0
LINE
  5
4B7B
  8
UMCL1
 10
326.65117833381743
 20
359.27195841123893
 30
0.0
 11
326.15117833381839
 21
359.77195841123893
 31
0.0
  0
POLYLINE
  5
4B7C
  8
UMCL1
 66
     1
 10
0.0
 20
0.0
 30
0.0
  0
VERTEX
  5
4B7D
  8
UMCL1
 10
383.35871405464331
 20
546.12535242362355
 30
0.0
  0
VERTEX
  5
4B7E
  8
UMCL1
 10
328.94364261299239
 20
546.12535242362355
 30
0.0
  0
SEQEND
  5
4B7F
  8
UMCL1
  0
ARC
  5
4B80
  8
UMCL1
 10
356.151178333818
 20
516.12535242362355
 30
0.0
 40
40.499999999999993
 50
42.205446403730583
 51
47.794553596264812
  0
POLYLINE
  5
4B81
  8
UMCL1
 66
     1
 10
0.0
 20
0.0
 30
0.0
  0
VERTEX
  5
4B82
  8
UMCL1
 10
386.15117833381811
 20
488.91781670279789
 30
0.0
  0
VERTEX
  5
4B83
  8
UMCL1
 10
386.15117833381811
 20
506.6253524236235
 30
0.0
  0
SEQEND
  5
4B84
  8
UMCL1
  0
ARC
  5
4B85
  8
UMCL1
 10
356.151178333818
 20
516.12535242362355
 30
0.0
 40
40.499999999999993
 50
312.2054464037351
 51
317.7945535962694
  0
POLYLINE
  5
4B86
  8
UMCL1
 66
     1
 10
0.0
 20
0.0
 30
0.0
  0
VERTEX
  5
4B87
  8
UMCL1
 10
328.94364261299239
 20
486.12535242362333
 30
0.0
  0
VERTEX
  5
4B88
  8
UMCL1
 10
383.35871405464331
 20
486.12535242362333
 30
0.0
  0
SEQEND
  5
4B89
  8
UMCL1
  0
ARC
  5
4B8A
  8
UMCL1
 10
356.151178333818
 20
516.12535242362355
 30
0.0
 40
40.499999999999993
 50
222.2054464037306
 51
227.79455359626479
  0
POLYLINE
  5
4B8B
  8
UMCL1
 66
     1
 10
0.0
 20
0.0
 30
0.0
  0
VERTEX
  5
4B8C
  8
UMCL1
 10
326.15117833381839
 20
543.33288814444916
 30
0.0
  0
VERTEX
  5
4B8D
  8
UMCL1
 10
326.15117833381839
 20
525.62535242362355
 30
0.0
  0
SEQEND
  5
4B8E
  8
UMCL1
  0
ARC
  5
4B8F
  8
UMCL1
 10
356.151178333818
 20
516.12535242362355
 30
0.0
 40
40.499999999999993
 50
132.20544640373521
 51
137.7945535962694
  0
POLYLINE
  5
4B90
  8
UMCL1
 66
     1
 10
0.0
 20
0.0
 30
0.0
  0
VERTEX
  5
4B91
  8
UMCL1
 10
386.15117833381811
 20
525.62535242362355
 30
0.0
  0
VERTEX
  5
4B92
  8
UMCL1
 10
386.15117833381811
 20
543.33288814444904
 30
0.0
  0
SEQEND
  5
4B93
  8
UMCL1
  0
POLYLINE
  5
4B94
  8
UMCL1
 66
     1
 10
0.0
 20
0.0
 30
0.0
  0
VERTEX
  5
4B95
  8
UMCL1
 10
326.15117833381839
 20
506.6253524236235
 30
0.0
  0
VERTEX
  5
4B96
  8
UMCL1
 10
326.15117833381839
 20
488.91781670279789
 30
0.0
  0
SEQEND
  5
4B97
  8
UMCL1
  0
CIRCLE
  5
4B98
  8
HIDDEN
 10
356.151178333818
 20
516.12535242362355
 30
0.0
 40
27.5
  0
CIRCLE
  5
4B99
  8
UMCL1
 10
332.15117833381839
 20
540.12535242362355
 30
0.0
 40
5.25
  0
CIRCLE
  5
4B9A
  8
UMCL1
 10
380.15117833381811
 20
540.12535242362355
 30
0.0
 40
5.25
  0
CIRCLE
  5
4B9B
  8
UMCL1
 10
380.15117833381811
 20
492.12535242362338
 30
0.0
 40
5.25
  0
CIRCLE
  5
4B9C
  8
UMCL1
 10
332.15117833381839
 20
492.12535242362338
 30
0.0
 40
5.25
  0
LINE
  5
4B9D
  8
UMCL1
 10
385.65117833381811
 20
359.27195841123881
 30
0.0
 11
326.65117833381839
 21
359.27195841123881
 31
0.0
  0
LINE
  5
4B9E
  8
UMCL1
 10
386.15117833381811
 20
359.77195841123893
 30
0.0
 11
386.15117833381811
 21
380.7719584112387
 31
0.0
  0
LINE
  5
4B9F
  8
UMCL1
 10
326.15117833381839
 20
380.7719584112387
 30
0.0
 11
326.15117833381839
 21
359.77195841123893
 31
0.0
  0
LINE
  5
4BA0
  8
UMCL1
 10
328.65117833381743
 20
359.27195841123881
 30
0.0
 11
328.65117833381743
 21
304.27195841123893
 31
0.0
  0
LINE
  5
4BA1
  8
UMCL1
 10
383.65117833381811
 20
359.27195841123881
 30
0.0
 11
383.65117833381743
 21
304.27195841123893
 31
0.0
  0
LINE
  5
4BA2
  8
UMCL1
 10
382.651178333818
 20
303.27195841123893
 30
0.0
 11
329.65117833381839
 21
303.27195841123893
 31
0.0
  0
LINE
  5
4BA3
  8
UMCL1
 10
383.65117833381743
 20
304.27195841123893
 30
0.0
 11
328.65117833381743
 21
304.27195841123893
 31
0.0
  0
LINE
  5
4BA4
  8
UMCL1
 10
328.65117833381743
 20
304.27195841123893
 30
0.0
 11
329.65117833381839
 21
303.27195841123893
 31
0.0
  0
LINE
  5
4BA5
  8
UMCL1
 10
382.651178333818
 20
303.27195841123893
 30
0.0
 11
383.65117833381743
 21
304.27195841123893
 31
0.0
  0
LINE
  5
4BA6
  8
CEN
 10
332.15117833381839
 20
382.77195841123893
 30
0.0
 11
332.15117833381839
 21
357.77195841123893
 31
0.0
  0
LINE
  5
4BA7
  8
HIDDEN
 10
326.90117833381839
 20
381.27195841123893
 30
0.0
 11
326.90117833381839
 21
374.77195841123893
 31
0.0
  0
LINE
  5
4BA8
  8
HIDDEN
 10
326.90117833381839
 20
374.77195841123893
 30
0.0
 11
337.40117833381743
 21
374.77195841123893
 31
0.0
  0
LINE
  5
4BA9
  8
HIDDEN
 10
337.40117833381743
 20
374.77195841123893
 30
0.0
 11
337.40117833381743
 21
381.27195841123893
 31
0.0
  0
LINE
  5
4BAA
  8
HIDDEN
 10
328.75117833381728
 20
374.77195841123893
 30
0.0
 11
328.75117833381728
 21
359.27195841123893
 31
0.0
  0
LINE
  5
4BAB
  8
HIDDEN
 10
335.55117833381729
 20
374.77195841123893
 30
0.0
 11
335.55117833381729
 21
359.27195841123893
 31
0.0
  0
LINE
  5
4BAC
  8
CEN
 10
380.15117833381811
 20
382.7719584112387
 30
0.0
 11
380.15117833381811
 21
357.7719584112387
 31
0.0
  0
LINE
  5
4BAD
  8
HIDDEN
 10
374.901178333818
 20
381.27195841123881
 30
0.0
 11
374.901178333818
 21
374.77195841123881
 31
0.0
  0
LINE
  5
4BAE
  8
HIDDEN
 10
374.901178333818
 20
374.77195841123881
 30
0.0
 11
385.401178333818
 21
374.77195841123881
 31
0.0
  0
LINE
  5
4BAF
  8
HIDDEN
 10
385.401178333818
 20
374.77195841123881
 30
0.0
 11
385.401178333818
 21
381.27195841123881
 31
0.0
  0
LINE
  5
4BB0
  8
HIDDEN
 10
376.75117833381842
 20
374.77195841123881
 30
0.0
 11
376.75117833381842
 21
359.27195841123881
 31
0.0
  0
LINE
  5
4BB1
  8
HIDDEN
 10
383.55117833381718
 20
374.77195841123881
 30
0.0
 11
383.55117833381718
 21
359.27195841123881
 31
0.0
  0
CIRCLE
  5
4BB2
  8
HIDDEN
 10
336.15117833381839
 20
516.12535242362355
 30
0.0
 40
4.25
  0
LINE
  5
4BB3
  8
CEN
 10
336.15117833381839
 20
522.62535242362355
 30
0.0
 11
336.15117833381839
 21
509.62535242362338
 31
0.0
  0
ARC
  5
4BB4
  8
HIDDEN
 10
336.15117833381839
 20
516.12535242362355
 30
0.0
 40
5.0
 50
345.00000000000091
 51
285.00000000000119
  0
LINE
  5
4BB5
  8
HIDDEN
 10
341.15117833381743
 20
303.27195841123893
 30
0.0
 11
340.90117833381839
 21
311.27195841123893
 31
0.0
  0
LINE
  5
4BB6
  8
HIDDEN
 10
340.65117833381743
 20
303.27195841123893
 30
0.0
 11
340.40117833381839
 21
311.27195841123893
 31
0.0
  0
LINE
  5
4BB7
  8
HIDDEN
 10
331.15117833381743
 20
303.27195841123893
 30
0.0
 11
331.40117833381839
 21
311.27195841123893
 31
0.0
  0
LINE
  5
4BB8
  8
HIDDEN
 10
331.65117833381743
 20
303.27195841123893
 30
0.0
 11
331.90117833381743
 21
311.27195841123893
 31
0.0
  0
LINE
  5
4BB9
  8
HIDDEN
 10
381.15117833381743
 20
303.27195841123893
 30
0.0
 11
380.901178333818
 21
311.27195841123893
 31
0.0
  0
LINE
  5
4BBA
  8
HIDDEN
 10
380.651178333818
 20
303.27195841123893
 30
0.0
 11
380.40117833381811
 21
311.27195841123893
 31
0.0
  0
LINE
  5
4BBB
  8
HIDDEN
 10
371.15117833381743
 20
303.27195841123893
 30
0.0
 11
371.40117833381811
 21
311.27195841123893
 31
0.0
  0
LINE
  5
4BBC
  8
HIDDEN
 10
371.65117833381743
 20
303.27195841123893
 30
0.0
 11
371.90117833381743
 21
311.27195841123893
 31
0.0
  0
CIRCLE
  5
4BBD
  8
HIDDEN
 10
376.15117833381811
 20
516.12535242362355
 30
0.0
 40
4.25
  0
LINE
  5
4BBE
  8
CEN
 10
376.15117833381811
 20
522.62535242362355
 30
0.0
 11
376.15117833381811
 21
509.62535242362338
 31
0.0
  0
ARC
  5
4BBF
  8
HIDDEN
 10
376.15117833381811
 20
516.12535242362355
 30
0.0
 40
5.0
 50
345.00000000000091
 51
285.00000000000119
  0
LINE
  5
4BC0
  8
UMCL1
 10
583.21854559170265
 20
381.27195841123898
 30
0.0
 11
524.21854559170265
 21
381.27195841123898
 31
0.0
  0
LINE
  5
4BC1
  8
UMCL1
 10
583.71854559170265
 20
380.77195841123898
 30
0.0
 11
523.71854559170265
 21
380.77195841123898
 31
0.0
  0
LINE
  5
4BC2
  8
UMCL1
 10
523.71854559170265
 20
359.77195841123898
 30
0.0
 11
583.71854559170265
 21
359.77195841123898
 31
0.0
  0
LINE
  5
4BC3
  8
UMCL1
 10
523.71854559170265
 20
380.77195841123898
 30
0.0
 11
524.21854559170265
 21
381.27195841123898
 31
0.0
  0
LINE
  5
4BC4
  8
UMCL1
 10
583.21854559170265
 20
381.27195841123898
 30
0.0
 11
583.71854559170265
 21
380.77195841123898
 31
0.0
  0
LINE
  5
4BC5
  8
UMCL1
 10
583.71854559170265
 20
359.77195841123898
 30
0.0
 11
583.21854559170265
 21
359.27195841123898
 31
0.0
  0
LINE
  5
4BC6
  8
UMCL1
 10
524.21854559170265
 20
359.27195841123898
 30
0.0
 11
523.71854559170265
 21
359.77195841123898
 31
0.0
  0
LINE
  5
4BC7
  8
UMCL1
 10
583.21854559170265
 20
359.27195841123898
 30
0.0
 11
524.21854559170265
 21
359.27195841123898
 31
0.0
  0
LINE
  5
4BC8
  8
UMCL1
 10
583.71854559170333
 20
359.77195841123898
 30
0.0
 11
583.71854559170265
 21
380.77195841123898
 31
0.0
  0
LINE
  5
4BC9
  8
UMCL1
 10
523.71854559170265
 20
380.77195841123898
 30
0.0
 11
523.71854559170333
 21
359.77195841123898
 31
0.0
  0
LINE
  5
4BCA
  8
UMCL1
 10
526.21854559170265
 20
359.27195841123898
 30
0.0
 11
526.21854559170265
 21
304.27195841123898
 31
0.0
  0
LINE
  5
4BCB
  8
UMCL1
 10
581.21854559170265
 20
359.27195841123898
 30
0.0
 11
581.21854559170265
 21
304.27195841123898
 31
0.0
  0
LINE
  5
4BCC
  8
UMCL1
 10
580.21854559170265
 20
303.27195841123898
 30
0.0
 11
527.21854559170265
 21
303.27195841123898
 31
0.0
  0
LINE
  5
4BCD
  8
UMCL1
 10
581.21854559170265
 20
304.27195841123898
 30
0.0
 11
526.21854559170265
 21
304.27195841123898
 31
0.0
  0
LINE
  5
4BCE
  8
UMCL1
 10
526.21854559170265
 20
304.27195841123898
 30
0.0
 11
527.21854559170265
 21
303.27195841123898
 31
0.0
  0
LINE
  5
4BCF
  8
UMCL1
 10
580.21854559170265
 20
303.27195841123898
 30
0.0
 11
581.21854559170265
 21
304.27195841123898
 31
0.0
  0
LINE
  5
4BD0
  8
CEN
 10
529.71854559170265
 20
382.77195841123898
 30
0.0
 11
529.71854559170265
 21
357.77195841123898
 31
0.0
  0
LINE
  5
4BD1
  8
HIDDEN
 10
524.46854559170265
 20
381.27195841123898
 30
0.0
 11
524.46854559170265
 21
374.77195841123898
 31
0.0
  0
LINE
  5
4BD2
  8
HIDDEN
 10
524.46854559170265
 20
374.77195841123898
 30
0.0
 11
534.96854559170265
 21
374.77195841123898
 31
0.0
  0
LINE
  5
4BD3
  8
HIDDEN
 10
534.96854559170265
 20
374.77195841123898
 30
0.0
 11
534.96854559170265
 21
381.27195841123898
 31
0.0
  0
LINE
  5
4BD4
  8
HIDDEN
 10
526.31854559170233
 20
374.77195841123898
 30
0.0
 11
526.31854559170233
 21
359.27195841123898
 31
0.0
  0
LINE
  5
4BD5
  8
HIDDEN
 10
533.11854559170206
 20
374.77195841123898
 30
0.0
 11
533.11854559170206
 21
359.27195841123898
 31
0.0
  0
LINE
  5
4BD6
  8
CEN
 10
577.71854559170265
 20
382.77195841123898
 30
0.0
 11
577.71854559170265
 21
357.77195841123898
 31
0.0
  0
LINE
  5
4BD7
  8
HIDDEN
 10
572.46854559170265
 20
381.27195841123898
 30
0.0
 11
572.46854559170265
 21
374.77195841123898
 31
0.0
  0
LINE
  5
4BD8
  8
HIDDEN
 10
572.46854559170265
 20
374.77195841123898
 30
0.0
 11
582.96854559170265
 21
374.77195841123898
 31
0.0
  0
LINE
  5
4BD9
  8
HIDDEN
 10
582.96854559170265
 20
374.77195841123898
 30
0.0
 11
582.96854559170265
 21
381.27195841123898
 31
0.0
  0
LINE
  5
4BDA
  8
HIDDEN
 10
574.31854559170233
 20
374.77195841123898
 30
0.0
 11
574.31854559170233
 21
359.27195841123898
 31
0.0
  0
LINE
  5
4BDB
  8
HIDDEN
 10
581.11854559170195
 20
374.77195841123898
 30
0.0
 11
581.11854559170195
 21
359.27195841123898
 31
0.0
  0
LINE
  5
4BDC
  8
HIDDEN
 10
558.71854559170265
 20
303.27195841123898
 30
0.0
 11
558.46854559170265
 21
311.27195841123898
 31
0.0
  0
LINE
  5
4BDD
  8
HIDDEN
 10
558.21854559170265
 20
303.27195841123898
 30
0.0
 11
557.96854559170265
 21
311.27195841123898
 31
0.0
  0
LINE
  5
4BDE
  8
HIDDEN
 10
548.71854559170265
 20
303.27195841123898
 30
0.0
 11
548.96854559170265
 21
311.27195841123898
 31
0.0
  0
LINE
  5
4BDF
  8
HIDDEN
 10
549.21854559170265
 20
303.27195841123898
 30
0.0
 11
549.46854559170265
 21
311.27195841123898
 31
0.0
  0
LINE
  5
4BE0
  8
CEN
 10
336.15117833381839
 20
301.77195841123893
 30
0.0
 11
336.15117833381839
 21
313.27195841123881
 31
0.0
  0
LINE
  5
4BE1
  8
CEN
 10
376.15117833381743
 20
301.77195841123893
 30
0.0
 11
376.15117833381743
 21
313.27195841123893
 31
0.0
  0
TEXT
  5
4BE2
  8
UMCL2
 10
276.13017574461088
 20
531.1936900766957
 30
0.0
 40
4.0
  1
CW
  7
ROMANS
  0
TEXT
  5
4BE3
  8
UMCL2
 10
271.24456057371458
 20
498.13074109229899
 30
0.0
 40
4.0
  1
CCW
  7
ROMANS
  0
POLYLINE
  5
4BE4
  8
UMCL2
 66
     1
 10
0.0
 20
0.0
 30
0.0
 70
     7
  0
VERTEX
  5
4BE5
  8
UMCL2
 10
284.76665665557891
 20
529.21917483646575
 30
0.0
 42
-0.0185322085214218
  0
VERTEX
  5
4BE6
  8
UMCL2
 10
286.79582972545842
 20
533.62027407614687
 30
0.0
  0
VERTEX
  5
4BE7
  8
UMCL2
 10
286.26063732085868
 20
533.89151030171206
 30
0.0
  0
VERTEX
  5
4BE8
  8
UMCL2
 10
288.88312210419213
 20
535.9257079405611
 30
0.0
  0
VERTEX
  5
4BE9
  8
UMCL2
 10
288.66900314155748
 20
532.67094728666882
 30
0.0
  0
VERTEX
  5
4BEA
  8
UMCL2
 10
288.13381073695763
 20
532.94218351223401
 30
0.0
 42
0.018532208521422
  0
VERTEX
  5
4BEB
  8
UMCL2
 10
286.15117833381782
 20
528.64202691566425
 30
0.0
  0
SEQEND
  5
4BEC
  8
UMCL2
  0
POLYLINE
  5
4BED
  8
UMCL2
 66
     1
 10
0.0
 20
0.0
 30
0.0
 70
     7
  0
VERTEX
  5
4BEE
  8
UMCL2
 10
284.76665665557817
 20
503.06487899486342
 30
0.0
 42
0.0185322085214218
  0
VERTEX
  5
4BEF
  8
UMCL2
 10
286.79582972545779
 20
498.66377975518242
 30
0.0
  0
VERTEX
  5
4BF0
  8
UMCL2
 10
286.26063732085822
 20
498.39254352961723
 30
0.0
  0
VERTEX
  5
4BF1
  8
UMCL2
 10
288.8831221041915
 20
496.35834589076802
 30
0.0
  0
VERTEX
  5
4BF2
  8
UMCL2
 10
288.66900314155691
 20
499.61310654466052
 30
0.0
  0
VERTEX
  5
4BF3
  8
UMCL2
 10
288.13381073695678
 20
499.34187031909511
 30
0.0
 42
-0.018532208521422
  0
VERTEX
  5
4BF4
  8
UMCL2
 10
286.15117833381782
 20
503.6420269156643
 30
0.0
  0
SEQEND
  5
4BF5
  8
UMCL2
  0
LINE
  5
4BF6
  8
UMCL1
  6
PHANTOM
 62
     6
 10
286.15117833381697
 20
404.27195841123881
 30
0.0
 11
286.15117833381669
 21
385.27195841123893
 31
0.0
  0
LINE
  5
4BF7
  8
UMCL1
  6
PHANTOM
 62
     6
 10
286.15117833381697
 20
404.27195841123881
 30
0.0
 11
426.151178333818
 21
404.27195841123847
 31
0.0
  0
LINE
  5
4BF8
  8
UMCL1
  6
PHANTOM
 62
     6
 10
286.15117833381669
 20
385.27195841123893
 30
0.0
 11
426.151178333818
 21
385.27195841123842
 31
0.0
  0
LINE
  5
4BF9
  8
UMCL1
  6
PHANTOM
 62
     6
 10
426.151178333818
 20
404.27195841123881
 30
0.0
 11
426.151178333818
 21
385.27195841123893
 31
0.0
  0
TEXT
  5
4BFA
  8
UMCL2
 62
     6
 10
334.94544013676051
 20
316.79508643351897
 30
0.0
 40
3.0
  1
A
  7
ROMANS
  0
CIRCLE
  5
4BFB
  8
UMCL2
 62
     6
 10
336.37807248291142
 20
318.04218668786223
 30
0.0
 40
2.5
  0
TEXT
  5
4BFC
  8
UMCL2
 62
     6
 10
374.84300887839998
 20
316.54660292674339
 30
0.0
 40
3.0
  1
B
  7
ROMANS
  0
CIRCLE
  5
4BFD
  8
UMCL2
 62
     6
 10
376.23241919061638
 20
318.04218668786223
 30
0.0
 40
2.5
  0
LINE
  5
4C02
  8
CEN
 10
325.3511783338185
 20
540.12535242362344
 30
0.0
 11
338.95117833381829
 21
540.12535242362344
 31
0.0
  0
LINE
  5
4C03
  8
CEN
 10
332.15117833381851
 20
533.32535242362337
 30
0.0
 11
332.15117833381851
 21
546.92535242362339
 31
0.0
  0
LINE
  5
4C04
  8
CEN
 10
373.3511783338181
 20
540.12535242362344
 30
0.0
 11
386.95117833381801
 21
540.12535242362344
 31
0.0
  0
LINE
  5
4C05
  8
CEN
 10
380.15117833381811
 20
533.32535242362337
 30
0.0
 11
380.15117833381811
 21
546.92535242362339
 31
0.0
  0
LINE
  5
4C06
  8
CEN
 10
373.3511783338181
 20
492.12535242362338
 30
0.0
 11
386.95117833381801
 21
492.12535242362338
 31
0.0
  0
LINE
  5
4C07
  8
CEN
 10
380.15117833381811
 20
485.32535242362349
 30
0.0
 11
380.15117833381811
 21
498.92535242362328
 31
0.0
  0
LINE
  5
4C08
  8
CEN
 10
325.3511783338185
 20
492.12535242362338
 30
0.0
 11
338.95117833381829
 21
492.12535242362338
 31
0.0
  0
LINE
  5
4C09
  8
CEN
 10
332.15117833381851
 20
485.32535242362349
 30
0.0
 11
332.15117833381851
 21
498.92535242362328
 31
0.0
  0
DIMENSION
  5
4C0A
  8
AM_5
  2
*D23
 10
286.15117833381782
 20
443.51306575493601
 30
0.0
 11
356.1511783338176
 21
443.51306575493601
 31
0.0
 70
   128
 13
426.15117833381731
 23
430.27195841123859
 33
0.0
 14
286.15117833381782
 24
430.27195841123859
 34
0.0
1001
ACAD
1000
DSTYLE
1002
{
1070
    40
1040
1.0
1070
   144
1040
1.0
1070
   271
1070
     4
1070
   272
1070
     4
1070
   279
1070
     0
1070
   284
1070
     0
1070
   285
1070
     0
1070
   286
1070
     0
1002
}
  0
DIMENSION
  5
4C0B
  8
AM_5
  2
*D24
 10
353.5485876894769
 20
417.7344393680076
 30
0.0
 11
368.61057477646028
 21
435.3134899594242
 31
0.0
 70
   131
 15
358.75376897815778
 25
423.80947745446917
 35
0.0
 40
0.0
1001
ACAD
1000
DSTYLE
1002
{
1070
   287
1070
     4
1070
    40
1040
1.0
1070
   144
1040
1.0
1070
    73
1070
     1
1070
   279
1070
     1
1002
}
  0
DIMENSION
  5
4C0C
  8
AM_5
  2
*D25
 10
376.855940454586
 20
496.21239381309721
 30
0.0
 11
396.0399109442605
 21
472.41876061293289
 31
0.0
 70
   131
  1
4-%%C6.8,<>*6.5D
 15
383.44641621305072
 25
488.03831103414979
 35
0.0
 40
0.0
1001
ACAD
1000
DSTYLE
1002
{
1070
   287
1070
     4
1070
    40
1040
1.0
1070
   144
1040
1.0
1070
    73
1070
     1
1070
   279
1070
     1
1002
}
  0
DIMENSION
  5
4C0D
  8
AM_5
  2
*D26
 10
433.8330339693095
 20
525.62535242362355
 30
0.0
 11
431.0830339693095
 21
516.12535242362355
 31
0.0
 70
     0
 13
426.151178333818
 23
506.6253524236235
 33
0.0
 14
426.151178333818
 24
525.62535242362355
 34
0.0
 50
90.0
1001
ACAD
1000
DSTYLE
1002
{
1070
    40
1040
1.0
1070
   144
1040
1.0
1002
}
  0
DIMENSION
  5
4C0E
  8
AM_5
  2
*D27
 10
443.8330339693095
 20
540.12535242362344
 30
0.0
 11
441.08303396930938
 21
516.12535242362355
 31
0.0
 70
     0
  1
{\Famgdt;o}<>
 13
386.95117833381801
 23
492.12535242362338
 33
0.0
 14
386.95117833381801
 24
540.12535242362344
 34
0.0
 50
90.0
1001
ACAD
1000
DSTYLE
1002
{
1070
    40
1040
1.0
1070
   144
1040
1.0
1002
}
  0
DIMENSION
  5
4C0F
  8
AM_5
  2
*D28
 10
453.83303396930961
 20
486.12535242362333
 30
0.0
 11
451.0830339693095
 21
516.12535242362355
 31
0.0
 70
     0
  1
{\Famgdt;o}<>
 13
383.35871405464331
 23
546.12535242362355
 33
0.0
 14
383.35871405464331
 24
486.12535242362333
 34
0.0
 50
90.0
1001
ACAD
1000
DSTYLE
1002
{
1070
    40
1040
1.0
1070
   144
1040
1.0
1002
}
  0
DIMENSION
  5
4C10
  8
AM_5
  2
*D29
 10
376.15117833381743
 20
292.54924420866507
 30
0.0
 11
356.15117833381788
 21
295.29924420866507
 31
0.0
 70
     0
 13
336.15117833381839
 23
301.77195841123893
 33
0.0
 14
376.15117833381743
 24
301.77195841123893
 34
0.0
1001
ACAD
1000
DSTYLE
1002
{
1070
    40
1040
1.0
1070
   144
1040
1.0
1002
}
  0
DIMENSION
  5
4C11
  8
AM_5
  2
*D30
 10
383.65117833381743
 20
282.54924420866428
 30
0.0
 11
356.15117833381743
 21
285.29924420866428
 31
0.0
 70
     0
  1
%%c<>
 13
328.65117833381743
 23
304.27195841123893
 33
0.0
 14
383.65117833381743
 24
304.27195841123893
 34
0.0
1001
ACAD
1000
DSTYLE
1002
{
1070
    40
1040
1.0
1070
   144
1040
1.0
1002
}
  0
INSERT
  5
4C12
  8
0
  2
*U40
 10
0.0
 20
0.0
 30
0.0
1001
ACAD
1000
DSTYLE
1002
{
1070
   140
1040
3.5
1002
}
  0
INSERT
  5
4C13
  8
0
  2
*U41
 10
0.0
 20
0.0
 30
0.0
  0
DIMENSION
  5
4C14
  8
AM_5
  2
*D31
 10
422.12872947705199
 20
359.27195841123881
 30
0.0
 11
419.37838498886299
 21
370.27195841123893
 31
0.0
 70
     0
 13
385.65117833381811
 23
381.27195841123881
 33
0.0
 14
385.65117833381811
 24
359.27195841123881
 34
0.0
 50
90.0
1001
ACAD
1000
DSTYLE
1002
{
1070
    40
1040
1.0
1070
   144
1040
1.0
1002
}
  0
DIMENSION
  5
4C15
  8
AM_5
  2
*D32
 10
432.12872947705199
 20
303.27195841123881
 30
0.0
 11
429.37872947705199
 21
342.27195841123893
 31
0.0
 70
     0
 13
385.65117833381811
 23
381.27195841123881
 33
0.0
 14
382.651178333818
 24
303.27195841123893
 34
0.0
 50
90.0
1001
ACAD
1000
DSTYLE
1002
{
1070
    40
1040
1.0
1070
   144
1040
1.0
1002
}
  0
DIMENSION
  5
4C16
  8
AM_5
  2
*D33
 10
442.12872947705199
 20
303.27195841123881
 30
0.0
 11
439.37838498886288
 21
344.27195841123881
 31
0.0
 70
     0
 13
426.151178333818
 23
385.27195841123842
 33
0.0
 14
382.651178333818
 24
303.27195841123893
 34
0.0
 50
90.0
1001
ACAD
1000
DSTYLE
1002
{
1070
   174
1070
     1
1002
}
  0
DIMENSION
  5
4C17
  8
AM_5
  2
*D34
 10
442.12872947705199
 20
411.27195841123859
 30
0.0
 11
439.37838498886288
 21
398.27195841123859
 31
0.0
 70
     0
 13
426.151178333818
 23
385.27195841123842
 33
0.0
 14
426.15117833381731
 24
411.27195841123859
 34
0.0
 50
90.0
1001
ACAD
1000
DSTYLE
1002
{
1070
   174
1070
     1
1070
    40
1040
1.0
1070
   144
1040
1.0
1002
}
  0
DIMENSION
  5
4C18
  8
AM_5
  2
*D35
 10
452.12872947705199
 20
430.27195841123859
 30
0.0
 11
449.37872947705188
 21
420.7719584112387
 31
0.0
 70
     0
 13
426.15117833381731
 23
411.27195841123859
 33
0.0
 14
426.15117833381731
 24
430.27195841123859
 34
0.0
 50
90.0
1001
ACAD
1000
DSTYLE
1002
{
1070
   174
1070
     1
1070
    40
1040
1.0
1070
   144
1040
1.0
1002
}
  0
DIMENSION
  5
4C19
  8
AM_5
  2
*D36
 10
462.12872947705199
 20
303.27195841123881
 30
0.0
 11
459.37838498886288
 21
366.77195841123893
 31
0.0
 70
     0
 13
426.15117833381731
 23
430.27195841123859
 33
0.0
 14
382.651178333818
 24
303.27195841123893
 34
0.0
 50
90.0
1001
ACAD
1000
DSTYLE
1002
{
1070
    40
1040
1.0
1070
   144
1040
1.0
1002
}
  0
DIMENSION
  5
4C1A
  8
AM_5
  2
*D37
 10
452.12872947705199
 20
303.27195841123881
 30
0.0
 11
449.37872947705199
 21
357.27195841123893
 31
0.0
 70
     0
 13
426.15117833381731
 23
411.27195841123859
 33
0.0
 14
382.651178333818
 24
303.27195841123893
 34
0.0
 50
90.0
1001
ACAD
1000
DSTYLE
1002
{
1070
    40
1040
1.0
1070
   144
1040
1.0
1002
}
  0
DIMENSION
  5
4C1B
  8
AM_5
  2
*D38
 10
442.12872947705199
 20
420.77195841123847
 30
0.0
 11
439.37872947705188
 21
416.0219584112387
 31
0.0
 70
     0
 13
426.15117833381731
 23
411.27195841123859
 33
0.0
 14
361.35117833381742
 24
420.77195841123859
 34
0.0
 50
90.0
1001
ACAD
1000
DSTYLE
1002
{
1070
    40
1040
1.0
1070
   144
1040
1.0
1002
}
  0
POLYLINE
  5
4D7B
  8
LOGO
 62
     4
 66
     1
 10
0.0
 20
0.0
 30
0.0
 70
     1
1001
GENIUS_GENREC_14
1002
{
1000
PYDIR
1011
202.6344659358825
1021
0.0
1031
0.0
1021
577.83424012094292
1031
0.0
1002
}
1002
{
1000
PXDIR
1011
674.53446593588274
1021
0.0
1031
0.0
1021
268.9492707091789
1031
0.0
1002
}
1002
{
1000
PORI
1011
202.6344659358825
1021
0.0
1031
0.0
1021
268.9492707091789
1031
0.0
1002
}
1002
{
1000
PINS
1011
202.6344659358825
1021
0.0
1031
0.0
1021
268.9492707091789
1031
0.0
1002
}
1002
{
1000
PINS2
1011
674.53446593588274
1021
0.0
1031
0.0
1021
577.83424012094292
1031
0.0
1002
}
1002
{
1000
C
1070
     1
1002
}
1001
GENIUS_GENODEF_13
1002
{
1000
HIER
1070
     0
1002
}
1002
{
1000
MANEDIT
1070
     0
1002
}
1002
{
1000
NOSEL
1070
     0
1002
}
1002
{
1000
BEHIND
1070
     0
1002
}
1002
{
1000
OTHER
1070
     0
1002
}
1002
{
1000
REACTOR
1002
}
1001
GENIUS_GENOBJ-N-REC_13
1002
{
1000
OWNER
1000
GEN
1002
}
  0
VERTEX
  5
5470
  8
LOGO
 62
     4
 10
202.6344659358825
 20
268.9492707091789
 30
0.0
  0
VERTEX
  5
5471
  8
LOGO
 62
     4
 10
674.53446593588274
 20
268.9492707091789
 30
0.0
  0
VERTEX
  5
5472
  8
LOGO
 62
     4
 10
674.53446593588274
 20
577.83424012094292
 30
0.0
  0
VERTEX
  5
5473
  8
LOGO
 62
     4
 10
202.6344659358825
 20
577.83424012094292
 30
0.0
  0
SEQEND
  5
5474
  8
LOGO
 62
     4
  0
TEXT
  5
4DFE
  8
UMCL2
  6
CONTINUOUS
 10
1086.8528114288461
 20
205.05545163860049
 30
0.0
 40
3.0
  1
19
 50
90.0
  7
ROMANS
  0
SOLID
  5
4DFF
  8
UMCL2
  6
CONTINUOUS
 10
1088.373755961946
 20
214.0348074717443
 30
0.0
 11
1087.3318668957461
 21
214.0348074717443
 31
0.0
 12
1087.8528114288461
 22
216.9892307307442
 32
0.0
 13
1087.8528114288461
 23
216.9892307307442
 33
0.0
  0
LINE
  5
4E00
  8
UMCL2
  6
CONTINUOUS
 10
1080.5406642637499
 20
216.98923073074431
 30
0.0
 11
1088.8528114288461
 21
216.9892307307442
 31
0.0
  0
LINE
  5
4E01
  8
UMCL2
  6
CONTINUOUS
 10
1087.8528114288461
 20
197.98923073074431
 30
0.0
 11
1087.8528114288461
 21
216.98923073074431
 31
0.0
  0
LINE
  5
4E02
  8
UMCL1
 10
939.85281142884685
 20
158.46339450504661
 30
0.0
 11
939.85281142884651
 21
139.46339450504661
 31
0.0
  0
LINE
  5
4E03
  8
UMCL1
 10
939.85281142884685
 20
158.46339450504661
 30
0.0
 11
1079.852811428847
 21
158.46339450504621
 31
0.0
  0
LINE
  5
4E04
  8
UMCL1
 10
939.85281142884651
 20
139.46339450504661
 30
0.0
 11
1079.852811428847
 21
139.4633945050461
 31
0.0
  0
LINE
  5
4E05
  8
UMCL1
 10
939.85281142884776
 20
216.98923073074471
 30
0.0
 11
939.85281142884764
 21
197.98923073074459
 31
0.0
  0
LINE
  5
4E06
  8
UMCL1
 10
939.85281142884776
 20
216.98923073074471
 30
0.0
 11
1079.8528114288461
 21
216.98923073074431
 31
0.0
  0
LINE
  5
4E07
  8
UMCL1
 10
939.85281142884764
 20
197.98923073074459
 30
0.0
 11
1079.8528114288461
 21
197.98923073074431
 31
0.0
  0
SOLID
  5
4E08
  8
UMCL2
  6
CONTINUOUS
 10
1088.373755961946
 20
200.94365398974421
 30
0.0
 11
1087.3318668957461
 21
200.94365398974421
 31
0.0
 12
1087.8528114288461
 22
197.98923073074431
 32
0.0
 13
1087.8528114288461
 23
197.98923073074431
 33
0.0
  0
LINE
  5
4E09
  8
UMCL2
  6
CONTINUOUS
 10
1080.5406642637499
 20
197.9892307307442
 30
0.0
 11
1088.8528114288461
 21
197.98923073074431
 31
0.0
  0
LINE
  5
4E0A
  8
UMCL1
 10
1127.9716516884159
 20
139.31613538570841
 30
0.0
 11
1127.9716516884159
 21
158.31613538570849
 31
0.0
  0
LINE
  5
4E0B
  8
UMCL1
 10
1108.9716516884159
 20
139.31613538570841
 30
0.0
 11
1108.9716516884159
 21
158.31613538570849
 31
0.0
  0
LINE
  5
4E0C
  8
UMCL1
 10
1108.9716516884159
 20
158.31613538570849
 30
0.0
 11
1127.9716516884159
 21
158.31613538570849
 31
0.0
  0
LINE
  5
4E0D
  8
UMCL1
 10
1108.9716516884159
 20
139.31613538570849
 30
0.0
 11
1127.9716516884159
 21
139.31613538570841
 31
0.0
  0
LINE
  5
4E0E
  8
UMCL1
 10
1079.852811428847
 20
158.46339450504661
 30
0.0
 11
1079.852811428847
 21
139.46339450504661
 31
0.0
  0
CIRCLE
  5
4E0F
  8
UMCL1
  6
CONTINUOUS
 10
1009.852811428847
 20
148.96339450504641
 30
0.0
 40
4.0
  0
LINE
  5
4E10
  8
AM_7
 10
1105.253252592478
 20
148.81613538570849
 30
0.0
 11
1132.316351448859
 21
148.81613538570849
 31
0.0
  0
LINE
  5
4E11
  8
0
  6
HIDDEN
 62
     3
 10
1108.9716516884159
 20
144.81613538570849
 30
0.0
 11
1113.9716516884159
 21
144.81613538570849
 31
0.0
  0
LINE
  5
4E12
  8
0
  6
HIDDEN
 62
     3
 10
1122.971651688415
 20
144.81613538570849
 30
0.0
 11
1127.9716516884159
 21
144.81613538570849
 31
0.0
  0
LINE
  5
4E13
  8
0
  6
HIDDEN
 62
     3
 10
1108.9716516884159
 20
152.81613538570849
 30
0.0
 11
1113.971651688415
 21
152.81613538570849
 31
0.0
  0
LINE
  5
4E14
  8
0
  6
HIDDEN
 62
     3
 10
1122.971651688415
 20
152.81613538570849
 30
0.0
 11
1127.9716516884159
 21
152.81613538570849
 31
0.0
  0
LINE
  5
4E15
  8
UMCL1
 10
1079.8528114288461
 20
216.98923073074471
 30
0.0
 11
1079.8528114288461
 21
197.98923073074459
 31
0.0
  0
SOLID
  5
4E16
  8
UMCL2
  6
CONTINUOUS
 10
1016.042790383637
 20
152.17579961822071
 30
0.0
 11
1015.495124184244
 21
153.06213734183979
 31
0.0
 12
1013.255621775449
 22
151.06598380042931
 32
0.0
 13
1013.255621775449
 23
151.06598380042931
 33
0.0
  0
LINE
  5
4E17
  8
UMCL2
  6
CONTINUOUS
 10
1048.8978805992899
 20
173.08925992603301
 30
0.0
 11
1013.255621775449
 21
151.06598380042931
 31
0.0
  0
TEXT
  5
4E18
  8
UMCL2
  6
CONTINUOUS
 10
1051.9762421298331
 20
174.09450260717949
 30
0.0
 40
3.0
  1
%%c8
  7
ROMANS
  0
LINE
  5
4E19
  8
UMCL2
  6
CONTINUOUS
 10
1048.8978805992899
 20
173.08925992603301
 30
0.0
 11
1057.7735824916481
 21
173.08925992603301
 31
0.0
  0
LINE
  5
4E1A
  8
AM_7
 10
1009.852811428847
 20
196.4892307307444
 30
0.0
 11
1009.852811428847
 21
218.48923073074459
 31
0.0
  0
LINE
  5
4E1B
  8
UMCL1
 10
1001.852811428847
 20
211.98923073074459
 30
0.0
 11
1017.852811428847
 21
211.98923073074459
 31
0.0
  0
LINE
  5
4E1C
  8
UMCL1
 10
1001.852811428847
 20
202.98923073074451
 30
0.0
 11
1017.852811428847
 21
202.98923073074451
 31
0.0
  0
ARC
  5
4E1D
  8
UMCL1
 10
1017.852811428847
 20
207.48923073074459
 30
0.0
 40
4.5
 50
270.0
 51
90.0
  0
ARC
  5
4E1E
  8
UMCL1
 10
1001.852811428847
 20
207.48923073074459
 30
0.0
 40
4.5
 50
90.0
 51
270.0
  0
LINE
  5
4E1F
  8
AM_7
 10
1004.452811428847
 20
207.48923073074459
 30
0.0
 11
1015.2528114288471
 21
207.48923073074459
 31
0.0
  0
LINE
  5
4E20
  8
AM_7
 10
996.05281142884678
 20
207.48923073074459
 30
0.0
 11
999.25281142884705
 21
207.48923073074459
 31
0.0
  0
LINE
  5
4E21
  8
AM_7
 10
1000.552811428847
 20
207.48923073074459
 30
0.0
 11
1003.152811428847
 21
207.48923073074459
 31
0.0
  0
LINE
  5
4E22
  8
AM_7
 10
1001.852811428847
 20
201.68923073074461
 30
0.0
 11
1001.852811428847
 21
204.8892307307446
 31
0.0
  0
LINE
  5
4E23
  8
AM_7
 10
1001.852811428847
 20
206.18923073074461
 30
0.0
 11
1001.852811428847
 21
208.78923073074449
 31
0.0
  0
LINE
  5
4E24
  8
AM_7
 10
1001.852811428847
 20
210.0892307307445
 30
0.0
 11
1001.852811428847
 21
213.28923073074449
 31
0.0
  0
LINE
  5
4E25
  8
AM_7
 10
1016.552811428847
 20
207.48923073074459
 30
0.0
 11
1019.152811428847
 21
207.48923073074459
 31
0.0
  0
LINE
  5
4E26
  8
AM_7
 10
1020.452811428847
 20
207.48923073074459
 30
0.0
 11
1023.652811428847
 21
207.48923073074459
 31
0.0
  0
LINE
  5
4E27
  8
AM_7
 10
1017.852811428847
 20
201.68923073074461
 30
0.0
 11
1017.852811428847
 21
204.8892307307446
 31
0.0
  0
LINE
  5
4E28
  8
AM_7
 10
1017.852811428847
 20
206.18923073074461
 30
0.0
 11
1017.852811428847
 21
208.78923073074449
 31
0.0
  0
LINE
  5
4E29
  8
AM_7
 10
1017.852811428847
 20
210.0892307307445
 30
0.0
 11
1017.852811428847
 21
213.28923073074449
 31
0.0
  0
LINE
  5
4E2A
  8
0
  6
HIDDEN
 62
     3
 10
1005.852811428847
 20
216.98923073074451
 30
0.0
 11
1005.852811428847
 21
211.98923073074459
 31
0.0
  0
LINE
  5
4E2B
  8
0
  6
HIDDEN
 62
     3
 10
1013.852811428847
 20
216.98923073074451
 30
0.0
 11
1013.852811428847
 21
211.98923073074459
 31
0.0
  0
LINE
  5
4E2C
  8
0
  6
HIDDEN
 62
     3
 10
1005.852811428847
 20
197.98923073074459
 30
0.0
 11
1005.852811428847
 21
202.98923073074451
 31
0.0
  0
LINE
  5
4E2D
  8
0
  6
HIDDEN
 62
     3
 10
1013.852811428847
 20
197.98923073074459
 30
0.0
 11
1013.852811428847
 21
202.98923073074451
 31
0.0
  0
LINE
  5
4E2E
  8
AM_7
 10
1009.852811428847
 20
137.9633945050463
 30
0.0
 11
1009.852811428847
 21
159.9633945050463
 31
0.0
  0
LINE
  5
4E2F
  8
0
  6
HIDDEN
 62
     3
 10
997.35281142884685
 20
158.46339450504641
 30
0.0
 11
997.35281142884685
 21
139.46339450504649
 31
0.0
  0
LINE
  5
4E30
  8
0
  6
HIDDEN
 62
     3
 10
1022.352811428847
 20
158.46339450504641
 30
0.0
 11
1022.352811428847
 21
139.46339450504641
 31
0.0
  0
LINE
  5
4E31
  8
AM_7
 10
1004.652811428847
 20
148.96339450504641
 30
0.0
 11
1007.452811428847
 21
148.96339450504641
 31
0.0
  0
LINE
  5
4E32
  8
AM_7
 10
1008.652811428847
 20
148.96339450504641
 30
0.0
 11
1011.052811428847
 21
148.96339450504641
 31
0.0
  0
LINE
  5
4E33
  8
AM_7
 10
1012.252811428846
 20
148.96339450504641
 30
0.0
 11
1015.052811428847
 21
148.96339450504641
 31
0.0
  0
LINE
  5
4E34
  8
UMCL2
  6
CONTINUOUS
 10
1017.852811428847
 20
200.68923073074461
 30
0.0
 11
1017.852811428847
 21
188.98923073074459
 31
0.0
  0
LINE
  5
4E35
  8
UMCL2
  6
CONTINUOUS
 10
1001.852811428847
 20
200.68923073074461
 30
0.0
 11
1001.852811428847
 21
188.98923073074459
 31
0.0
  0
LINE
  5
4E36
  8
UMCL2
  6
CONTINUOUS
 10
1014.852811428847
 20
189.98923073074459
 30
0.0
 11
1004.852811428847
 21
189.98923073074459
 31
0.0
  0
SOLID
  5
4E37
  8
UMCL2
  6
CONTINUOUS
 10
1014.852811428847
 20
190.48923073074471
 30
0.0
 11
1014.852811428847
 21
189.48923073074471
 31
0.0
 12
1017.852811428847
 22
189.98923073074459
 32
0.0
 13
1017.852811428847
 23
189.98923073074459
 33
0.0
  0
SOLID
  5
4E38
  8
UMCL2
  6
CONTINUOUS
 10
1004.852811428847
 20
190.48923073074471
 30
0.0
 11
1004.852811428847
 21
189.48923073074471
 31
0.0
 12
1001.852811428847
 22
189.98923073074459
 32
0.0
 13
1001.852811428847
 23
189.98923073074459
 33
0.0
  0
INSERT
  5
4E39
  8
0
  2
*U56
 10
0.0
 20
0.0
 30
0.0
  0
LINE
  5
4E3A
  8
UMCL2
  6
CONTINUOUS
 10
939.85281142884764
 20
196.98923073074459
 30
0.0
 11
939.85281142884764
 21
180.98923073074471
 31
0.0
  0
LINE
  5
4E3B
  8
UMCL2
  6
CONTINUOUS
 10
1079.8528114288461
 20
196.98923073074431
 30
0.0
 11
1079.8528114288461
 21
180.98923073074471
 31
0.0
  0
LINE
  5
4E3C
  8
UMCL2
  6
CONTINUOUS
 10
942.85281142884753
 20
181.98923073074471
 30
0.0
 11
1076.8528114288461
 21
181.98923073074471
 31
0.0
  0
SOLID
  5
4E3D
  8
UMCL2
  6
CONTINUOUS
 10
942.85281142884753
 20
182.48923073074471
 30
0.0
 11
942.85281142884753
 21
181.48923073074471
 31
0.0
 12
939.85281142884764
 22
181.98923073074471
 32
0.0
 13
939.85281142884764
 23
181.98923073074471
 33
0.0
  0
SOLID
  5
4E3E
  8
UMCL2
  6
CONTINUOUS
 10
1076.8528114288461
 20
182.48923073074471
 30
0.0
 11
1076.8528114288461
 21
181.48923073074471
 31
0.0
 12
1079.8528114288461
 22
181.98923073074471
 32
0.0
 13
1079.8528114288461
 23
181.98923073074471
 33
0.0
  0
INSERT
  5
4E3F
  8
0
  2
*U57
 10
0.0
 20
0.0
 30
0.0
  0
LINE
  5
4E40
  8
AM_7
 10
1118.4716516884159
 20
137.81613538570841
 30
0.0
 11
1118.471651688415
 21
159.81613538570841
 31
0.0
  0
LINE
  5
4E41
  8
0
  6
HIDDEN
 62
     3
 10
1122.971651688415
 20
139.31613538570849
 30
0.0
 11
1122.971651688415
 21
158.31613538570849
 31
0.0
  0
LINE
  5
4E42
  8
0
  6
HIDDEN
 62
     3
 10
1113.9716516884159
 20
139.31613538570849
 30
0.0
 11
1113.971651688415
 21
158.31613538570849
 31
0.0
  0
LINE
  5
4E43
  8
UMCL2
  6
CONTINUOUS
 10
1018.852811428847
 20
211.98923073074459
 30
0.0
 11
1032.961336386815
 21
211.98923073074459
 31
0.0
  0
LINE
  5
4E44
  8
UMCL2
  6
CONTINUOUS
 10
1018.852811428847
 20
202.98923073074451
 30
0.0
 11
1032.961336386815
 21
202.98923073074451
 31
0.0
  0
LINE
  5
4E45
  8
UMCL2
  6
CONTINUOUS
 10
1031.961336386815
 20
208.98923073074459
 30
0.0
 11
1031.961336386815
 21
205.98923073074459
 31
0.0
  0
SOLID
  5
4E46
  8
UMCL2
  6
CONTINUOUS
 10
1031.461336386815
 20
208.98923073074459
 30
0.0
 11
1032.461336386815
 21
208.98923073074459
 31
0.0
 12
1031.961336386815
 22
211.98923073074459
 32
0.0
 13
1031.961336386815
 23
211.98923073074459
 33
0.0
  0
SOLID
  5
4E47
  8
UMCL2
  6
CONTINUOUS
 10
1031.461336386815
 20
205.98923073074459
 30
0.0
 11
1032.461336386815
 21
205.98923073074459
 31
0.0
 12
1031.961336386815
 22
202.98923073074451
 32
0.0
 13
1031.961336386815
 23
202.98923073074451
 33
0.0
  0
INSERT
  5
4E48
  8
0
  2
*U58
 10
0.0
 20
0.0
 30
0.0
  0
LINE
  5
4E49
  8
UMCL2
  6
CONTINUOUS
 10
1016.052811428846
 20
148.96339450504641
 30
0.0
 11
1038.40254004745
 21
148.96339450504641
 31
0.0
  0
LINE
  5
4E4A
  8
UMCL2
  6
CONTINUOUS
 10
1016.052811428846
 20
139.46339450504641
 30
0.0
 11
1038.40254004745
 21
139.46339450504641
 31
0.0
  0
LINE
  5
4E4B
  8
UMCL2
  6
CONTINUOUS
 10
1037.40254004745
 20
145.96339450504641
 30
0.0
 11
1037.40254004745
 21
142.46339450504641
 31
0.0
  0
SOLID
  5
4E4C
  8
UMCL2
  6
CONTINUOUS
 10
1036.90254004745
 20
145.96339450504641
 30
0.0
 11
1037.9025400474511
 21
145.96339450504641
 31
0.0
 12
1037.40254004745
 22
148.96339450504641
 32
0.0
 13
1037.40254004745
 23
148.96339450504641
 33
0.0
  0
SOLID
  5
4E4D
  8
UMCL2
  6
CONTINUOUS
 10
1036.90254004745
 20
142.46339450504641
 30
0.0
 11
1037.9025400474511
 21
142.46339450504641
 31
0.0
 12
1037.40254004745
 22
139.46339450504641
 32
0.0
 13
1037.40254004745
 23
139.46339450504641
 33
0.0
  0
INSERT
  5
4E4E
  8
0
  2
*U59
 10
0.0
 20
0.0
 30
0.0
  0
LINE
  5
4E4F
  8
UMCL2
  6
CONTINUOUS
 10
1080.852811428847
 20
158.46339450504621
 30
0.0
 11
1088.8528114288461
 21
158.46339450504621
 31
0.0
  0
LINE
  5
4E50
  8
UMCL2
  6
CONTINUOUS
 10
1080.852811428847
 20
139.4633945050461
 30
0.0
 11
1088.8528114288461
 21
139.4633945050461
 31
0.0
  0
LINE
  5
4E51
  8
UMCL2
  6
CONTINUOUS
 10
1087.8528114288461
 20
155.46339450504621
 30
0.0
 11
1087.8528114288461
 21
142.4633945050461
 31
0.0
  0
SOLID
  5
4E52
  8
UMCL2
  6
CONTINUOUS
 10
1087.3528114288461
 20
155.46339450504621
 30
0.0
 11
1088.3528114288461
 21
155.46339450504621
 31
0.0
 12
1087.8528114288461
 22
158.46339450504621
 32
0.0
 13
1087.8528114288461
 23
158.46339450504621
 33
0.0
  0
SOLID
  5
4E53
  8
UMCL2
  6
CONTINUOUS
 10
1087.3528114288461
 20
142.4633945050461
 30
0.0
 11
1088.3528114288461
 21
142.4633945050461
 31
0.0
 12
1087.8528114288461
 22
139.4633945050461
 32
0.0
 13
1087.8528114288461
 23
139.4633945050461
 33
0.0
  0
INSERT
  5
4E54
  8
0
  2
*U60
 10
0.0
 20
0.0
 30
0.0
  0
LINE
  5
4EB1
  8
UMCL1
 10
724.10373638961607
 20
59.628113042739301
 30
0.0
 11
924.10373638961607
 21
59.628113042739301
 31
0.0
  0
LINE
  5
4EB2
  8
UMCL1
 10
924.10373638961607
 20
59.628113042739301
 30
0.0
 11
924.10373638961607
 21
78.628113042739301
 31
0.0
  0
LINE
  5
4EB3
  8
UMCL1
 10
924.10373638961607
 20
78.628113042739301
 30
0.0
 11
724.10373638961607
 21
78.628113042739301
 31
0.0
  0
LINE
  5
4EB4
  8
UMCL1
 10
724.10373638961607
 20
78.628113042739301
 30
0.0
 11
724.10373638961607
 21
59.628113042739301
 31
0.0
  0
LINE
  5
4EB5
  8
AM_7
 10
824.10373638961607
 20
-6.8060112549554779
 30
0.0
 11
824.10373638961607
 21
15.193988745044519
 31
0.0
  0
LINE
  5
4EB6
  8
AM_7
 10
824.10373638961607
 20
58.128113042739301
 30
0.0
 11
824.10373638961607
 21
80.128113042739415
 31
0.0
  0
LINE
  5
4EB7
  8
UMCL1
 10
816.10373638961607
 20
73.628113042739415
 30
0.0
 11
832.10373638961607
 21
73.628113042739415
 31
0.0
  0
LINE
  5
4EB8
  8
UMCL1
 10
816.10373638961607
 20
64.628113042739415
 30
0.0
 11
832.10373638961607
 21
64.628113042739415
 31
0.0
  0
ARC
  5
4EB9
  8
UMCL1
 10
832.10373638961607
 20
69.128113042739415
 30
0.0
 40
4.5
 50
270.0
 51
90.0
  0
ARC
  5
4EBA
  8
UMCL1
 10
816.10373638961607
 20
69.128113042739415
 30
0.0
 40
4.5
 50
90.0
 51
270.0
  0
LINE
  5
4EBB
  8
AM_7
 10
818.7037363896161
 20
69.128113042739415
 30
0.0
 11
829.50373638961628
 21
69.128113042739415
 31
0.0
  0
LINE
  5
4EBC
  8
AM_7
 10
810.30373638961612
 20
69.128113042739415
 30
0.0
 11
813.50373638961628
 21
69.128113042739415
 31
0.0
  0
LINE
  5
4EBD
  8
AM_7
 10
814.80373638961612
 20
69.128113042739415
 30
0.0
 11
817.40373638961614
 21
69.128113042739415
 31
0.0
  0
LINE
  5
4EBE
  8
AM_7
 10
816.10373638961607
 20
63.32811304273946
 30
0.0
 11
816.10373638961607
 21
66.528113042739506
 31
0.0
  0
LINE
  5
4EBF
  8
AM_7
 10
816.10373638961607
 20
67.82811304273946
 30
0.0
 11
816.10373638961607
 21
70.428113042739369
 31
0.0
  0
LINE
  5
4EC0
  8
AM_7
 10
816.10373638961607
 20
71.728113042739324
 30
0.0
 11
816.10373638961607
 21
74.928113042739369
 31
0.0
  0
LINE
  5
4EC1
  8
AM_7
 10
830.80373638961612
 20
69.128113042739415
 30
0.0
 11
833.40373638961614
 21
69.128113042739415
 31
0.0
  0
LINE
  5
4EC2
  8
AM_7
 10
834.7037363896161
 20
69.128113042739415
 30
0.0
 11
837.90373638961614
 21
69.128113042739415
 31
0.0
  0
LINE
  5
4EC3
  8
AM_7
 10
832.10373638961607
 20
63.32811304273946
 30
0.0
 11
832.10373638961607
 21
66.528113042739506
 31
0.0
  0
LINE
  5
4EC4
  8
AM_7
 10
832.10373638961607
 20
67.82811304273946
 30
0.0
 11
832.10373638961607
 21
70.428113042739369
 31
0.0
  0
LINE
  5
4EC5
  8
AM_7
 10
832.10373638961607
 20
71.728113042739324
 30
0.0
 11
832.10373638961607
 21
74.928113042739369
 31
0.0
  0
LINE
  5
4EC6
  8
0
  6
HIDDEN
 62
     3
 10
820.10373638961619
 20
78.628113042739301
 30
0.0
 11
820.10373638961619
 21
73.628113042739415
 31
0.0
  0
LINE
  5
4EC7
  8
0
  6
HIDDEN
 62
     3
 10
828.10373638961619
 20
78.628113042739301
 30
0.0
 11
828.10373638961619
 21
73.628113042739415
 31
0.0
  0
LINE
  5
4EC8
  8
0
  6
HIDDEN
 62
     3
 10
820.10373638961619
 20
59.628113042739528
 30
0.0
 11
820.10373638961619
 21
64.628113042739415
 31
0.0
  0
LINE
  5
4EC9
  8
0
  6
HIDDEN
 62
     3
 10
828.10373638961619
 20
59.628113042739528
 30
0.0
 11
828.10373638961619
 21
64.628113042739415
 31
0.0
  0
LINE
  5
4ECA
  8
0
  6
HIDDEN
 62
     3
 10
811.60373638961607
 20
13.693988745044519
 30
0.0
 11
811.60373638961607
 21
-5.3060112549553651
 31
0.0
  0
LINE
  5
4ECB
  8
0
  6
HIDDEN
 62
     3
 10
836.60373638961607
 20
13.693988745044519
 30
0.0
 11
836.60373638961607
 21
-5.3060112549554779
 31
0.0
  0
CIRCLE
  5
4ECC
  8
UMCL1
 10
824.10373638961607
 20
4.1939887450445212
 30
0.0
 40
4.0
  0
LINE
  5
4ECD
  8
AM_7
 10
818.90373638961626
 20
4.1939887450445212
 30
0.0
 11
821.70373638961644
 21
4.1939887450445212
 31
0.0
  0
LINE
  5
4ECE
  8
AM_7
 10
822.90373638961637
 20
4.1939887450445212
 30
0.0
 11
825.30373638961623
 21
4.1939887450445212
 31
0.0
  0
LINE
  5
4ECF
  8
AM_7
 10
826.50373638961617
 20
4.1939887450445212
 30
0.0
 11
829.30373638961623
 21
4.1939887450445212
 31
0.0
  0
LINE
  5
4ED0
  8
UMCL1
 10
724.10373638961607
 20
-5.3060112549553651
 30
0.0
 11
924.10373638961607
 21
-5.3060112549553651
 31
0.0
  0
LINE
  5
4ED1
  8
UMCL1
 10
924.10373638961607
 20
-5.3060112549553651
 30
0.0
 11
924.10373638961607
 21
13.69398874504463
 31
0.0
  0
LINE
  5
4ED2
  8
UMCL1
 10
924.10373638961607
 20
13.69398874504463
 30
0.0
 11
724.10373638961607
 21
13.69398874504463
 31
0.0
  0
LINE
  5
4ED3
  8
UMCL1
 10
724.10373638961607
 20
13.69398874504463
 30
0.0
 11
724.10373638961607
 21
-5.3060112549553651
 31
0.0
  0
LINE
  5
4ED4
  8
UMCL2
  6
CONTINUOUS
 10
724.10373638961607
 20
58.628113042739301
 30
0.0
 11
724.10373638961607
 21
42.628113042739301
 31
0.0
  0
LINE
  5
4ED5
  8
UMCL2
  6
CONTINUOUS
 10
924.10373638961607
 20
58.628113042739301
 30
0.0
 11
924.10373638961607
 21
42.628113042739301
 31
0.0
  0
LINE
  5
4ED6
  8
UMCL2
  6
CONTINUOUS
 10
727.10373638961607
 20
43.628113042739301
 30
0.0
 11
921.10373638961619
 21
43.628113042739301
 31
0.0
  0
SOLID
  5
4ED7
  8
UMCL2
  6
CONTINUOUS
 10
727.10373638961607
 20
44.128113042739301
 30
0.0
 11
727.10373638961607
 21
43.128113042739301
 31
0.0
 12
724.10373638961607
 22
43.628113042739301
 32
0.0
 13
724.10373638961607
 23
43.628113042739301
 33
0.0
  0
SOLID
  5
4ED8
  8
UMCL2
  6
CONTINUOUS
 10
921.10373638961619
 20
44.128113042739301
 30
0.0
 11
921.10373638961619
 21
43.128113042739301
 31
0.0
 12
924.10373638961607
 22
43.628113042739301
 32
0.0
 13
924.10373638961607
 23
43.628113042739301
 33
0.0
  0
INSERT
  5
4ED9
  8
0
  2
*U61
 10
0.0
 20
0.0
 30
0.0
  0
LINE
  5
4EDA
  8
UMCL2
  6
CONTINUOUS
 10
816.10373638961607
 20
62.32811304273946
 30
0.0
 11
816.10373638961607
 21
50.628113042739301
 31
0.0
  0
LINE
  5
4EDB
  8
UMCL2
  6
CONTINUOUS
 10
832.10373638961607
 20
62.32811304273946
 30
0.0
 11
832.10373638961607
 21
50.628113042739301
 31
0.0
  0
LINE
  5
4EDC
  8
UMCL2
  6
CONTINUOUS
 10
819.10373638961619
 20
51.628113042739301
 30
0.0
 11
829.10373638961619
 21
51.628113042739301
 31
0.0
  0
SOLID
  5
4EDD
  8
UMCL2
  6
CONTINUOUS
 10
819.10373638961619
 20
52.128113042739301
 30
0.0
 11
819.10373638961619
 21
51.128113042739301
 31
0.0
 12
816.10373638961607
 22
51.628113042739301
 32
0.0
 13
816.10373638961607
 23
51.628113042739301
 33
0.0
  0
SOLID
  5
4EDE
  8
UMCL2
  6
CONTINUOUS
 10
829.10373638961619
 20
52.128113042739301
 30
0.0
 11
829.10373638961619
 21
51.128113042739301
 31
0.0
 12
832.10373638961607
 22
51.628113042739301
 32
0.0
 13
832.10373638961607
 23
51.628113042739301
 33
0.0
  0
INSERT
  5
4EDF
  8
0
  2
*U62
 10
0.0
 20
0.0
 30
0.0
  0
LINE
  5
4EE0
  8
UMCL2
  6
CONTINUOUS
 10
833.10373638961607
 20
73.628113042739415
 30
0.0
 11
846.21579604135718
 21
73.628113042739415
 31
0.0
  0
LINE
  5
4EE1
  8
UMCL2
  6
CONTINUOUS
 10
833.10373638961607
 20
64.628113042739415
 30
0.0
 11
846.21579604135718
 21
64.628113042739415
 31
0.0
  0
LINE
  5
4EE2
  8
UMCL2
  6
CONTINUOUS
 10
845.21579604135718
 20
70.628113042739415
 30
0.0
 11
845.21579604135718
 21
67.628113042739415
 31
0.0
  0
SOLID
  5
4EE3
  8
UMCL2
  6
CONTINUOUS
 10
844.71579604135707
 20
70.628113042739415
 30
0.0
 11
845.71579604135707
 21
70.628113042739415
 31
0.0
 12
845.21579604135718
 22
73.628113042739415
 32
0.0
 13
845.21579604135718
 23
73.628113042739415
 33
0.0
  0
SOLID
  5
4EE4
  8
UMCL2
  6
CONTINUOUS
 10
844.71579604135707
 20
67.628113042739415
 30
0.0
 11
845.71579604135707
 21
67.628113042739415
 31
0.0
 12
845.21579604135718
 22
64.628113042739415
 32
0.0
 13
845.21579604135718
 23
64.628113042739415
 33
0.0
  0
INSERT
  5
4EE5
  8
0
  2
*U63
 10
0.0
 20
0.0
 30
0.0
  0
LINE
  5
4EE6
  8
UMCL2
  6
CONTINUOUS
 10
925.10373638961607
 20
78.628113042739301
 30
0.0
 11
935.2655296729954
 21
78.628113042739301
 31
0.0
  0
LINE
  5
4EE7
  8
UMCL2
  6
CONTINUOUS
 10
925.10373638961607
 20
59.628113042739301
 30
0.0
 11
935.2655296729954
 21
59.628113042739301
 31
0.0
  0
LINE
  5
4EE8
  8
UMCL2
  6
CONTINUOUS
 10
934.2655296729954
 20
75.628113042739301
 30
0.0
 11
934.2655296729954
 21
62.628113042739301
 31
0.0
  0
SOLID
  5
4EE9
  8
UMCL2
  6
CONTINUOUS
 10
933.7655296729954
 20
75.628113042739301
 30
0.0
 11
934.76552967299529
 21
75.628113042739301
 31
0.0
 12
934.2655296729954
 22
78.628113042739301
 32
0.0
 13
934.2655296729954
 23
78.628113042739301
 33
0.0
  0
SOLID
  5
4EEA
  8
UMCL2
  6
CONTINUOUS
 10
933.7655296729954
 20
62.628113042739301
 30
0.0
 11
934.76552967299529
 21
62.628113042739301
 31
0.0
 12
934.2655296729954
 22
59.628113042739301
 32
0.0
 13
934.2655296729954
 23
59.628113042739301
 33
0.0
  0
INSERT
  5
4EEB
  8
0
  2
*U64
 10
0.0
 20
0.0
 30
0.0
  0
LINE
  5
4EEC
  8
UMCL2
  6
CONTINUOUS
 10
925.10373638961607
 20
13.69398874504463
 30
0.0
 11
935.2655296729954
 21
13.69398874504463
 31
0.0
  0
LINE
  5
4EED
  8
UMCL2
  6
CONTINUOUS
 10
925.10373638961607
 20
-5.3060112549553651
 30
0.0
 11
935.2655296729954
 21
-5.3060112549553651
 31
0.0
  0
LINE
  5
4EEE
  8
UMCL2
  6
CONTINUOUS
 10
934.2655296729954
 20
10.69398874504463
 30
0.0
 11
934.2655296729954
 21
-2.3060112549553651
 31
0.0
  0
SOLID
  5
4EEF
  8
UMCL2
  6
CONTINUOUS
 10
933.7655296729954
 20
10.69398874504463
 30
0.0
 11
934.76552967299529
 21
10.69398874504463
 31
0.0
 12
934.2655296729954
 22
13.69398874504463
 32
0.0
 13
934.2655296729954
 23
13.69398874504463
 33
0.0
  0
SOLID
  5
4EF0
  8
UMCL2
  6
CONTINUOUS
 10
933.7655296729954
 20
-2.3060112549553651
 30
0.0
 11
934.76552967299529
 21
-2.3060112549553651
 31
0.0
 12
934.2655296729954
 22
-5.3060112549553651
 32
0.0
 13
934.2655296729954
 23
-5.3060112549553651
 33
0.0
  0
INSERT
  5
4EF1
  8
0
  2
*U65
 10
0.0
 20
0.0
 30
0.0
  0
LINE
  5
4EF2
  8
UMCL2
  6
CONTINUOUS
 10
837.60373638961607
 20
-5.3060112549553651
 30
0.0
 11
851.50970945699339
 21
-5.3060112549553651
 31
0.0
  0
LINE
  5
4EF3
  8
UMCL2
  6
CONTINUOUS
 10
830.30373638961623
 20
4.1939887450445212
 30
0.0
 11
851.50970945699339
 21
4.1939887450445212
 31
0.0
  0
LINE
  5
4EF4
  8
UMCL2
  6
CONTINUOUS
 10
850.50970945699351
 20
-2.3060112549553651
 30
0.0
 11
850.50970945699351
 21
1.193988745044521
 31
0.0
  0
SOLID
  5
4EF5
  8
UMCL2
  6
CONTINUOUS
 10
850.00970945699339
 20
-2.3060112549553651
 30
0.0
 11
851.00970945699351
 21
-2.3060112549553651
 31
0.0
 12
850.50970945699351
 22
-5.3060112549553651
 32
0.0
 13
850.50970945699351
 23
-5.3060112549553651
 33
0.0
  0
SOLID
  5
4EF6
  8
UMCL2
  6
CONTINUOUS
 10
850.00970945699339
 20
1.193988745044521
 30
0.0
 11
851.00970945699351
 21
1.193988745044521
 31
0.0
 12
850.50970945699351
 22
4.1939887450445212
 32
0.0
 13
850.50970945699351
 23
4.1939887450445212
 33
0.0
  0
INSERT
  5
4EF7
  8
0
  2
*U66
 10
0.0
 20
0.0
 30
0.0
  0
SOLID
  5
4EF8
  8
UMCL2
  6
CONTINUOUS
 10
830.29371534440622
 20
7.4063938582188484
 30
0.0
 11
829.74604914501413
 21
8.2927315818379839
 31
0.0
 12
827.50654673621852
 22
6.2965780404274483
 32
0.0
 13
827.50654673621852
 23
6.2965780404274483
 33
0.0
  0
LINE
  5
4EF9
  8
UMCL2
  6
CONTINUOUS
 10
863.14880556006005
 20
28.319854166031291
 30
0.0
 11
827.50654673621852
 21
6.2965780404274483
 31
0.0
  0
TEXT
  5
4EFA
  8
UMCL2
  6
CONTINUOUS
 10
866.22716709060217
 20
29.32509684717775
 30
0.0
 40
3.0
  1
%%c8
  7
ROMANS
  0
LINE
  5
4EFB
  8
UMCL2
  6
CONTINUOUS
 10
863.14880556006005
 20
28.319854166031291
 30
0.0
 11
872.02450745241799
 21
28.319854166031181
 31
0.0
  0
LINE
  5
4EFC
  8
UMCL1
 10
972.22257664918504
 20
-5.4532703742935382
 30
0.0
 11
972.22257664918504
 21
13.54672962570646
 31
0.0
  0
LINE
  5
4EFD
  8
UMCL1
 10
953.22257664918504
 20
-5.4532703742935382
 30
0.0
 11
953.22257664918504
 21
13.54672962570646
 31
0.0
  0
LINE
  5
4EFE
  8
UMCL1
 10
953.22257664918504
 20
13.54672962570657
 30
0.0
 11
972.22257664918504
 21
13.54672962570646
 31
0.0
  0
LINE
  5
4EFF
  8
UMCL1
 10
953.22257664918504
 20
-5.4532703742934237
 30
0.0
 11
972.22257664918504
 21
-5.4532703742935382
 31
0.0
  0
LINE
  5
4F00
  8
AM_7
 10
949.50417755324702
 20
4.0467296257065746
 30
0.0
 11
976.56727640962879
 21
4.0467296257064609
 31
0.0
  0
LINE
  5
4F01
  8
0
  6
HIDDEN
 62
     3
 10
953.22257664918504
 20
0.0467296257065755
 30
0.0
 11
958.22257664918482
 21
0.0467296257065755
 31
0.0
  0
LINE
  5
4F02
  8
0
  6
HIDDEN
 62
     3
 10
967.22257664918459
 20
0.0467296257065755
 30
0.0
 11
972.22257664918504
 21
0.0467296257065755
 31
0.0
  0
LINE
  5
4F03
  8
0
  6
HIDDEN
 62
     3
 10
953.22257664918504
 20
8.0467296257065755
 30
0.0
 11
958.2225766491847
 21
8.0467296257065755
 31
0.0
  0
LINE
  5
4F04
  8
0
  6
HIDDEN
 62
     3
 10
967.22257664918459
 20
8.0467296257065755
 30
0.0
 11
972.22257664918504
 21
8.0467296257064618
 31
0.0
  0
LINE
  5
4F05
  8
AM_7
 10
962.72257664918482
 20
-6.9532703742935382
 30
0.0
 11
962.7225766491847
 21
15.04672962570646
 31
0.0
  0
LINE
  5
4F06
  8
0
  6
HIDDEN
 62
     3
 10
967.22257664918482
 20
-5.4532703742935382
 30
0.0
 11
967.22257664918459
 21
13.54672962570646
 31
0.0
  0
LINE
  5
4F07
  8
0
  6
HIDDEN
 62
     3
 10
958.22257664918482
 20
-5.4532703742934237
 30
0.0
 11
958.2225766491847
 21
13.54672962570657
 31
0.0
  0
TEXT
  5
4F08
  8
0
 10
936.81184523548973
 20
242.74521938262731
 30
0.0
 40
9.6000000000000014
  1
Standard type
  0
TEXT
  5
5082
  8
LOGO
  6
CONTINUOUS
 10
219.35738480020331
 20
250.76836393216351
 30
0.0
 40
6.0059999999999976
  1
MTALD-40
  7
CHINESET
 72
     1
 11
242.5233848002033
 21
253.7713639321635
 31
0.0
 73
     2
  0
TEXT
  5
5083
  8
UMCL2
 10
298.51320110059379
 20
239.8507518853549
 30
0.0
 40
4.0
  1
CW
  7
ROMANS
  0
TEXT
  5
5084
  8
UMCL2
 10
293.62758592969737
 20
206.7878029009583
 30
0.0
 40
4.0
  1
CCW
  7
ROMANS
  0
POLYLINE
  5
5085
  8
UMCL2
 66
     1
 10
0.0
 20
0.0
 30
0.0
 70
     5
 75
     6
  0
VERTEX
  5
5086
  8
UMCL2
 10
307.14968201156159
 20
237.876236645125
 30
0.0
 70
    16
  0
VERTEX
  5
5087
  8
UMCL2
 10
308.75146083569462
 20
241.58902538245351
 30
0.0
 70
     8
  0
VERTEX
  5
5088
  8
UMCL2
 10
308.82666316610113
 20
241.85070003135189
 30
0.0
 70
     8
  0
VERTEX
  5
5089
  8
UMCL2
 10
308.87297315054383
 20
242.05935499336451
 30
0.0
 70
     8
  0
VERTEX
  5
508A
  8
UMCL2
 10
308.90156665359791
 20
242.22649969120101
 30
0.0
 70
     8
  0
VERTEX
  5
508B
  8
UMCL2
 10
308.92361953983823
 20
242.3636435475714
 30
0.0
 70
     8
  0
VERTEX
  5
508C
  8
UMCL2
 10
308.95030767383997
 20
242.4822959851852
 30
0.0
 70
     8
  0
VERTEX
  5
508D
  8
UMCL2
 10
308.99280692017823
 20
242.5939664267523
 30
0.0
 70
     8
  0
VERTEX
  5
508E
  8
UMCL2
 10
309.06229314342761
 20
242.71016429498241
 30
0.0
 70
     8
  0
VERTEX
  5
508F
  8
UMCL2
 10
309.1699422081636
 20
242.8423990125853
 30
0.0
 70
     8
  0
VERTEX
  5
5090
  8
UMCL2
 10
309.32311607154043
 20
242.99796621837319
 30
0.0
 70
     8
  0
VERTEX
  5
5091
  8
UMCL2
 10
309.51392106102958
 20
243.16730641556779
 30
0.0
 70
     8
  0
VERTEX
  5
5092
  8
UMCL2
 10
309.7306495966821
 20
243.3366463234932
 30
0.0
 70
     8
  0
VERTEX
  5
5093
  8
UMCL2
 10
309.96159409854909
 20
243.49221266147379
 30
0.0
 70
     8
  0
VERTEX
  5
5094
  8
UMCL2
 10
310.1950469866814
 20
243.62023214883359
 30
0.0
 70
     8
  0
VERTEX
  5
5095
  8
UMCL2
 10
310.41930068112998
 20
243.7069315048968
 30
0.0
 70
     8
  0
VERTEX
  5
5096
  8
UMCL2
 10
310.62264760194591
 20
243.73853744898761
 30
0.0
 70
     8
  0
VERTEX
  5
5097
  8
UMCL2
 10
310.79338016918018
 20
243.7012767004301
 30
0.0
 70
     8
  0
VERTEX
  5
5098
  8
UMCL2
 10
310.92256092372929
 20
243.58654097688131
 30
0.0
 70
     8
  0
VERTEX
  5
5099
  8
UMCL2
 10
311.01233288987271
 20
243.40638198932919
 30
0.0
 70
     8
  0
VERTEX
  5
509A
  8
UMCL2
 10
311.06760921273531
 20
243.17801644709431
 30
0.0
 70
     8
  0
VERTEX
  5
509B
  8
UMCL2
 10
311.0933030374423
 20
242.9186610594974
 30
0.0
 70
     8
  0
VERTEX
  5
509C
  8
UMCL2
 10
311.09432750911839
 20
242.6455325358593
 30
0.0
 70
     8
  0
VERTEX
  5
509D
  8
UMCL2
 10
311.07559577288902
 20
242.37584758550059
 30
0.0
 70
     8
  0
VERTEX
  5
509E
  8
UMCL2
 10
311.04202097387872
 20
242.12682291774209
 30
0.0
 70
     8
  0
VERTEX
  5
509F
  8
UMCL2
 10
310.99851625721271
 20
241.91567524190441
 30
0.0
 70
     8
  0
VERTEX
  5
50A0
  8
UMCL2
 10
310.94880925471512
 20
241.75411594671121
 30
0.0
 70
     8
  0
VERTEX
  5
50A1
  8
UMCL2
 10
310.89188554500601
 20
241.63183513849859
 30
0.0
 70
     8
  0
VERTEX
  5
50A2
  8
UMCL2
 10
310.82554519340442
 20
241.53301760300579
 30
0.0
 70
     8
  0
VERTEX
  5
50A3
  8
UMCL2
 10
310.74758826522981
 20
241.4418481259716
 30
0.0
 70
     8
  0
VERTEX
  5
50A4
  8
UMCL2
 10
310.65581482580131
 20
241.34251149313531
 30
0.0
 70
     8
  0
VERTEX
  5
50A5
  8
UMCL2
 10
310.54802494043793
 20
241.219192490236
 30
0.0
 70
     8
  0
VERTEX
  5
50A6
  8
UMCL2
 10
310.42201867445903
 20
241.05607590301261
 30
0.0
 70
     8
  0
VERTEX
  5
50A7
  8
UMCL2
 10
310.27559609318371
 20
240.83734651720431
 30
0.0
 70
     8
  0
VERTEX
  5
50A8
  8
UMCL2
 10
310.10758978708759
 20
240.5529007354254
 30
0.0
 70
     8
  0
VERTEX
  5
50A9
  8
UMCL2
 10
309.92096244727088
 20
240.2154814277919
 30
0.0
 70
     8
  0
VERTEX
  5
50AA
  8
UMCL2
 10
309.71970928999048
 20
239.843543081295
 30
0.0
 70
     8
  0
VERTEX
  5
50AB
  8
UMCL2
 10
309.50782553150322
 20
239.455540182926
 30
0.0
 70
     8
  0
VERTEX
  5
50AC
  8
UMCL2
 10
309.28930638806543
 20
239.06992721967589
 30
0.0
 70
     8
  0
VERTEX
  5
50AD
  8
UMCL2
 10
309.06814707593412
 20
238.70515867853609
 30
0.0
 70
     8
  0
VERTEX
  5
50AE
  8
UMCL2
 10
308.84834281136591
 20
238.37968904649779
 30
0.0
 70
     8
  0
VERTEX
  5
50AF
  8
UMCL2
 10
308.63388881061758
 20
238.11197281055209
 30
0.0
 70
     8
  0
VERTEX
  5
50B0
  8
UMCL2
 10
308.4290309518272
 20
237.91704582144749
 30
0.0
 70
     8
  0
VERTEX
  5
50B1
  8
UMCL2
 10
308.23901776065878
 20
237.79626938496119
 30
0.0
 70
     8
  0
VERTEX
  5
50B2
  8
UMCL2
 10
308.06934842465768
 20
237.7475861706271
 30
0.0
 70
     8
  0
VERTEX
  5
50B3
  8
UMCL2
 10
307.92552213136912
 20
237.76893884797951
 30
0.0
 70
     8
  0
VERTEX
  5
50B4
  8
UMCL2
 10
307.81303806833853
 20
237.85827008655261
 30
0.0
 70
     8
  0
VERTEX
  5
50B5
  8
UMCL2
 10
307.7373954231112
 20
238.01352255588071
 30
0.0
 70
     8
  0
VERTEX
  5
50B6
  8
UMCL2
 10
307.70409338323259
 20
238.23263892549781
 30
0.0
 70
     8
  0
VERTEX
  5
50B7
  8
UMCL2
 10
307.71863113624812
 20
238.5135618649382
 30
0.0
 70
     8
  0
VERTEX
  5
50B8
  8
UMCL2
 10
307.78364535529988
 20
238.85198779987729
 30
0.0
 70
     8
  0
VERTEX
  5
50B9
  8
UMCL2
 10
307.89032265591879
 20
239.23462818055481
 30
0.0
 70
     8
  0
VERTEX
  5
50BA
  8
UMCL2
 10
308.02698713923252
 20
239.6459482133514
 30
0.0
 70
     8
  0
VERTEX
  5
50BB
  8
UMCL2
 10
308.18196290636888
 20
240.07041310464811
 30
0.0
 70
     8
  0
VERTEX
  5
50BC
  8
UMCL2
 10
308.34357405845549
 20
240.49248806082591
 30
0.0
 70
     8
  0
VERTEX
  5
50BD
  8
UMCL2
 10
308.50014469662023
 20
240.89663828826531
 30
0.0
 70
     8
  0
VERTEX
  5
50BE
  8
UMCL2
 10
308.63999892199058
 20
241.2673289933476
 30
0.0
 70
     8
  0
VERTEX
  5
50BF
  8
UMCL2
 10
309.17885508144121
 20
242.27733588480609
 30
0.0
 70
    16
  0
VERTEX
  5
50C0
  8
UMCL2
 10
308.64366267684147
 20
242.54857211037131
 30
0.0
 70
    16
  0
VERTEX
  5
50C1
  8
UMCL2
 10
311.26614746017481
 20
244.58276974922029
 30
0.0
 70
    16
  0
VERTEX
  5
50C2
  8
UMCL2
 10
311.05202849754028
 20
241.3280090953281
 30
0.0
 70
    16
  0
VERTEX
  5
50C3
  8
UMCL2
 10
310.51683609294042
 20
241.5992453208934
 30
0.0
 70
    16
  0
VERTEX
  5
50C4
  8
UMCL2
 10
308.53420368980079
 20
237.2990887243235
 30
0.0
 70
    16
  0
SEQEND
  5
50C5
  8
UMCL2
  0
POLYLINE
  5
50C6
  8
UMCL2
 66
     1
 10
0.0
 20
0.0
 30
0.0
 70
     5
 75
     6
  0
VERTEX
  5
50C7
  8
UMCL2
 10
307.1496820115612
 20
211.72194080352281
 30
0.0
 70
    16
  0
VERTEX
  5
50C8
  8
UMCL2
 10
308.75146083569422
 20
208.0091520661943
 30
0.0
 70
     8
  0
VERTEX
  5
50C9
  8
UMCL2
 10
308.82666316610062
 20
207.7474774172959
 30
0.0
 70
     8
  0
VERTEX
  5
50CA
  8
UMCL2
 10
308.87297315054332
 20
207.53882245528331
 30
0.0
 70
     8
  0
VERTEX
  5
50CB
  8
UMCL2
 10
308.90156665359751
 20
207.37167775744669
 30
0.0
 70
     8
  0
VERTEX
  5
50CC
  8
UMCL2
 10
308.92361953983777
 20
207.23453390107639
 30
0.0
 70
     8
  0
VERTEX
  5
50CD
  8
UMCL2
 10
308.95030767383957
 20
207.11588146346261
 30
0.0
 70
     8
  0
VERTEX
  5
50CE
  8
UMCL2
 10
308.99280692017771
 20
207.00421102189549
 30
0.0
 70
     8
  0
VERTEX
  5
50CF
  8
UMCL2
 10
309.06229314342733
 20
206.8880131536653
 30
0.0
 70
     8
  0
VERTEX
  5
50D0
  8
UMCL2
 10
309.16994220816321
 20
206.75577843606251
 30
0.0
 70
     8
  0
VERTEX
  5
50D1
  8
UMCL2
 10
309.32311607154003
 20
206.6002112302746
 30
0.0
 70
     8
  0
VERTEX
  5
50D2
  8
UMCL2
 10
309.51392106102912
 20
206.43087103308
 30
0.0
 70
     8
  0
VERTEX
  5
50D3
  8
UMCL2
 10
309.7306495966817
 20
206.26153112515451
 30
0.0
 70
     8
  0
VERTEX
  5
50D4
  8
UMCL2
 10
309.96159409854857
 20
206.105964787174
 30
0.0
 70
     8
  0
VERTEX
  5
50D5
  8
UMCL2
 10
310.19504698668089
 20
205.97794529981411
 30
0.0
 70
     8
  0
VERTEX
  5
50D6
  8
UMCL2
 10
310.41930068112958
 20
205.8912459437509
 30
0.0
 70
     8
  0
VERTEX
  5
50D7
  8
UMCL2
 10
310.6226476019454
 20
205.8596399996602
 30
0.0
 70
     8
  0
VERTEX
  5
50D8
  8
UMCL2
 10
310.79338016917973
 20
205.8969007482176
 30
0.0
 70
     8
  0
VERTEX
  5
50D9
  8
UMCL2
 10
310.92256092372878
 20
206.01163647176639
 30
0.0
 70
     8
  0
VERTEX
  5
50DA
  8
UMCL2
 10
311.01233288987231
 20
206.1917954593186
 30
0.0
 70
     8
  0
VERTEX
  5
50DB
  8
UMCL2
 10
311.06760921273491
 20
206.4201610015534
 30
0.0
 70
     8
  0
VERTEX
  5
50DC
  8
UMCL2
 10
311.0933030374419
 20
206.67951638915019
 30
0.0
 70
     8
  0
VERTEX
  5
50DD
  8
UMCL2
 10
311.09432750911799
 20
206.9526449127884
 30
0.0
 70
     8
  0
VERTEX
  5
50DE
  8
UMCL2
 10
311.07559577288851
 20
207.22232986314711
 30
0.0
 70
     8
  0
VERTEX
  5
50DF
  8
UMCL2
 10
311.04202097387832
 20
207.4713545309057
 30
0.0
 70
     8
  0
VERTEX
  5
50E0
  8
UMCL2
 10
310.99851625721232
 20
207.68250220674349
 30
0.0
 70
     8
  0
VERTEX
  5
50E1
  8
UMCL2
 10
310.94880925471472
 20
207.84406150193669
 30
0.0
 70
     8
  0
VERTEX
  5
50E2
  8
UMCL2
 10
310.89188554500549
 20
207.96634231014929
 30
0.0
 70
     8
  0
VERTEX
  5
50E3
  8
UMCL2
 10
310.82554519340403
 20
208.06515984564211
 30
0.0
 70
     8
  0
VERTEX
  5
50E4
  8
UMCL2
 10
310.7475882652293
 20
208.15632932267621
 30
0.0
 70
     8
  0
VERTEX
  5
50E5
  8
UMCL2
 10
310.6558148258008
 20
208.25566595551251
 30
0.0
 70
     8
  0
VERTEX
  5
50E6
  8
UMCL2
 10
310.54802494043747
 20
208.37898495841191
 30
0.0
 70
     8
  0
VERTEX
  5
50E7
  8
UMCL2
 10
310.42201867445863
 20
208.54210154563529
 30
0.0
 70
     8
  0
VERTEX
  5
50E8
  8
UMCL2
 10
310.27559609318342
 20
208.76083093144351
 30
0.0
 70
     8
  0
VERTEX
  5
50E9
  8
UMCL2
 10
310.10758978708708
 20
209.04527671322231
 30
0.0
 70
     8
  0
VERTEX
  5
50EA
  8
UMCL2
 10
309.9209624472706
 20
209.38269602085569
 30
0.0
 70
     8
  0
VERTEX
  5
50EB
  8
UMCL2
 10
309.71970928999019
 20
209.75463436735259
 30
0.0
 70
     8
  0
VERTEX
  5
50EC
  8
UMCL2
 10
309.50782553150282
 20
210.14263726572159
 30
0.0
 70
     8
  0
VERTEX
  5
50ED
  8
UMCL2
 10
309.28930638806509
 20
210.52825022897159
 30
0.0
 70
     8
  0
VERTEX
  5
50EE
  8
UMCL2
 10
309.06814707593378
 20
210.89301877011141
 30
0.0
 70
     8
  0
VERTEX
  5
50EF
  8
UMCL2
 10
308.84834281136568
 20
211.2184884021496
 30
0.0
 70
     8
  0
VERTEX
  5
50F0
  8
UMCL2
 10
308.63388881061729
 20
211.4862046380953
 30
0.0
 70
     8
  0
VERTEX
  5
50F1
  8
UMCL2
 10
308.42903095182697
 20
211.68113162719979
 30
0.0
 70
     8
  0
VERTEX
  5
50F2
  8
UMCL2
 10
308.2390177606585
 20
211.8019080636862
 30
0.0
 70
     8
  0
VERTEX
  5
50F3
  8
UMCL2
 10
308.06934842465739
 20
211.8505912780204
 30
0.0
 70
     8
  0
VERTEX
  5
50F4
  8
UMCL2
 10
307.92552213136878
 20
211.82923860066799
 30
0.0
 70
     8
  0
VERTEX
  5
50F5
  8
UMCL2
 10
307.81303806833819
 20
211.7399073620949
 30
0.0
 70
     8
  0
VERTEX
  5
50F6
  8
UMCL2
 10
307.73739542311091
 20
211.58465489276691
 30
0.0
 70
     8
  0
VERTEX
  5
50F7
  8
UMCL2
 10
307.70409338323219
 20
211.36553852314981
 30
0.0
 70
     8
  0
VERTEX
  5
50F8
  8
UMCL2
 10
307.71863113624761
 20
211.08461558370939
 30
0.0
 70
     8
  0
VERTEX
  5
50F9
  8
UMCL2
 10
307.78364535529943
 20
210.74618964877041
 30
0.0
 70
     8
  0
VERTEX
  5
50FA
  8
UMCL2
 10
307.89032265591828
 20
210.36354926809301
 30
0.0
 70
     8
  0
VERTEX
  5
50FB
  8
UMCL2
 10
308.02698713923212
 20
209.95222923529639
 30
0.0
 70
     8
  0
VERTEX
  5
50FC
  8
UMCL2
 10
308.18196290636843
 20
209.52776434399971
 30
0.0
 70
     8
  0
VERTEX
  5
50FD
  8
UMCL2
 10
308.34357405845498
 20
209.10568938782191
 30
0.0
 70
     8
  0
VERTEX
  5
50FE
  8
UMCL2
 10
308.50014469661971
 20
208.7015391603824
 30
0.0
 70
     8
  0
VERTEX
  5
50FF
  8
UMCL2
 10
308.63999892199013
 20
208.3308484553001
 30
0.0
 70
     8
  0
VERTEX
  5
5100
  8
UMCL2
 10
309.1788550814407
 20
207.3208415638417
 30
0.0
 70
    16
  0
VERTEX
  5
5101
  8
UMCL2
 10
308.64366267684102
 20
207.04960533827651
 30
0.0
 70
    16
  0
VERTEX
  5
5102
  8
UMCL2
 10
311.26614746017441
 20
205.0154076994273
 30
0.0
 70
    16
  0
VERTEX
  5
5103
  8
UMCL2
 10
311.05202849753982
 20
208.2701683533198
 30
0.0
 70
    16
  0
VERTEX
  5
5104
  8
UMCL2
 10
310.51683609293991
 20
207.99893212775439
 30
0.0
 70
    16
  0
VERTEX
  5
5105
  8
UMCL2
 10
308.53420368980079
 20
212.29908872432361
 30
0.0
 70
    16
  0
SEQEND
  5
5106
  8
UMCL2
  0
LINE
  5
5107
  8
CEN
 10
451.2485540857993
 20
224.7990887243229
 30
0.0
 11
418.17571128482422
 21
224.7990887243231
 31
0.0
  0
TEXT
  5
5108
  8
AM_5
 10
455.53420368980079
 20
221.82432840744471
 30
0.0
 40
3.0
  1
19
 50
90.0
  7
ROMANS
  0
SOLID
  5
5109
  8
AM_5
 10
457.05514822290058
 20
231.34466546532309
 30
0.0
 11
456.01325915670083
 21
231.34466546532309
 31
0.0
 12
456.53420368980068
 22
234.29908872432321
 32
0.0
 13
456.53420368980068
 23
234.29908872432321
 33
0.0
  0
LINE
  5
510A
  8
AM_5
 10
449.56893888592242
 20
234.29908872432321
 30
0.0
 11
457.53420368980068
 21
234.29908872432321
 31
0.0
  0
TEXT
  5
510B
  8
AM_5
 10
415.53420368980079
 20
223.2065362053325
 30
0.0
 40
3.0
  1
9
 50
90.0
  7
ROMANS
  0
SOLID
  5
510C
  8
AM_5
 10
417.05514822290093
 20
217.34466546532329
 30
0.0
 11
416.01325915670083
 21
217.34466546532329
 31
0.0
 12
416.53420368980079
 22
220.2990887243233
 32
0.0
 13
416.53420368980079
 23
220.2990887243233
 33
0.0
  0
LINE
  5
510D
  8
AM_5
 10
388.57751663370851
 20
220.29908872432341
 30
0.0
 11
417.87611075018282
 21
220.29908872432341
 31
0.0
  0
LINE
  5
510E
  8
AM_5
 10
416.53420368980079
 20
215.29908872432279
 30
0.0
 11
416.53420368980079
 21
234.29908872432301
 31
0.0
  0
LINE
  5
510F
  8
AM_5
 10
456.53420368980079
 20
215.2990887243233
 30
0.0
 11
456.53420368980068
 21
234.29908872432321
 31
0.0
  0
TEXT
  5
5110
  8
AM_5
 10
418.96712213692871
 20
188.1380383202771
 30
0.0
 40
3.0
  1
4-%%c6.8
  7
ROMANS
  0
SOLID
  5
5111
  8
AM_5
 10
407.63882960545828
 20
196.97902688944629
 30
0.0
 11
406.94850530907922
 21
196.1986518564681
 31
0.0
 12
405.08080408921097
 22
198.5463511884077
 32
0.0
 13
405.08080408921097
 23
198.5463511884077
 33
0.0
  0
LINE
  5
5112
  8
AM_5
 10
417.97729719743649
 20
187.1380383202771
 30
0.0
 11
405.08080408921097
 21
198.54635118840781
 31
0.0
  0
LINE
  5
5113
  8
AM_5
 10
417.97729719743649
 20
187.1380383202771
 30
0.0
 11
434.80636519935149
 21
187.1380383202771
 31
0.0
  0
TEXT
  5
5114
  8
AM_5
 10
448.53420368980352
 20
-11.873363458424929
 30
0.0
 40
3.0
  1
28
 50
90.0
  7
ROMANS
  0
SOLID
  5
5115
  8
AM_5
 10
450.05514822290343
 20
2.3911715815626162
 30
0.0
 11
449.0132591567035
 21
2.3911715815626162
 31
0.0
 12
449.53420368980341
 22
5.345594840562625
 32
0.0
 13
449.53420368980341
 23
5.345594840562625
 33
0.0
  0
SOLID
  5
5116
  8
AM_5
 10
449.0132591567035
 20
-19.699981900437528
 30
0.0
 11
450.05514822290343
 21
-19.699981900437528
 31
0.0
 12
449.53420368980341
 22
-22.654405159437552
 32
0.0
 13
449.53420368980341
 23
-22.654405159437552
 33
0.0
  0
LINE
  5
5117
  8
AM_5
 10
409.19396303933081
 20
5.345594840562625
 30
0.0
 11
450.53420368980341
 21
5.345594840562625
 31
0.0
  0
TEXT
  5
5118
  8
AM_5
 10
456.53420368980352
 20
20.576814571617181
 30
0.0
 40
3.0
  1
93
 50
90.0
  7
ROMANS
  0
SOLID
  5
5119
  8
AM_5
 10
458.05514822290343
 20
67.391171581562361
 30
0.0
 11
457.0132591567035
 21
67.391171581562361
 31
0.0
 12
457.53420368980341
 22
70.34559484056237
 32
0.0
 13
457.53420368980341
 23
70.34559484056237
 33
0.0
  0
SOLID
  5
511A
  8
AM_5
 10
457.0132591567035
 20
-19.699981900437528
 30
0.0
 11
458.05514822290343
 21
-19.699981900437528
 31
0.0
 12
457.53420368980341
 22
-22.654405159437552
 32
0.0
 13
457.53420368980341
 23
-22.654405159437552
 33
0.0
  0
LINE
  5
511B
  8
AM_5
 10
404.49545394294989
 20
70.34559484056237
 30
0.0
 11
458.53420368980341
 21
70.34559484056237
 31
0.0
  0
TEXT
  5
511C
  8
AM_5
 10
464.53420368980352
 20
41.965404908577248
 30
0.0
 40
3.0
  1
138
 50
90.0
  7
ROMANS
  0
SOLID
  5
511D
  8
AM_5
 10
466.05514822290343
 20
112.3911715815623
 30
0.0
 11
465.0132591567035
 21
112.3911715815623
 31
0.0
 12
465.53420368980341
 22
115.3455948405623
 32
0.0
 13
465.53420368980341
 23
115.3455948405623
 33
0.0
  0
SOLID
  5
511E
  8
AM_5
 10
465.0132591567035
 20
-19.699981900437528
 30
0.0
 11
466.05514822290343
 21
-19.699981900437528
 31
0.0
 12
465.53420368980341
 22
-22.654405159437552
 32
0.0
 13
465.53420368980341
 23
-22.654405159437552
 33
0.0
  0
LINE
  5
511F
  8
AM_5
 10
409.19396303933081
 20
-22.654405159437552
 30
0.0
 11
475.49630978968952
 21
-22.654405159437552
 31
0.0
  0
TEXT
  5
5120
  8
AM_5
 10
464.53420368980352
 20
121.7250495552514
 30
0.0
 40
3.0
  1
19
 50
90.0
  7
ROMANS
  0
SOLID
  5
5121
  8
AM_5
 10
466.05514822290343
 20
131.3911715815625
 30
0.0
 11
465.0132591567035
 21
131.3911715815625
 31
0.0
 12
465.53420368980341
 22
134.34559484056251
 32
0.0
 13
465.53420368980341
 23
134.34559484056251
 33
0.0
  0
SOLID
  5
5122
  8
AM_5
 10
465.0132591567035
 20
118.30001809956239
 30
0.0
 11
466.05514822290343
 21
118.30001809956239
 31
0.0
 12
465.53420368980341
 22
115.3455948405623
 32
0.0
 13
465.53420368980341
 23
115.3455948405623
 33
0.0
  0
TEXT
  5
5123
  8
AM_5
 10
472.53420368980341
 20
51.72180826337825
 30
0.0
 40
3.0
  1
157
 50
90.0
  7
ROMANS
  0
SOLID
  5
5124
  8
AM_5
 10
473.01325915670338
 20
-19.699981900437528
 30
0.0
 11
474.05514822290343
 21
-19.699981900437528
 31
0.0
 12
473.53420368980352
 22
-22.654405159437552
 32
0.0
 13
473.53420368980352
 23
-22.654405159437552
 33
0.0
  0
LINE
  5
5125
  8
AM_5
 10
389.33528632447752
 20
124.845594840562
 30
0.0
 11
458.33912616786932
 21
124.845594840562
 31
0.0
  0
SOLID
  5
5126
  8
AM_5
 10
474.0551482229036
 20
131.3911715815637
 30
0.0
 11
473.01325915670373
 21
131.3911715815637
 31
0.0
 12
473.53420368980358
 22
134.34559484056371
 32
0.0
 13
473.53420368980358
 23
134.34559484056371
 33
0.0
  0
SOLID
  5
5127
  8
AM_5
 10
458.05514822290348
 20
112.3911715815622
 30
0.0
 11
457.01325915670361
 21
112.3911715815622
 31
0.0
 12
457.53420368980352
 22
115.3455948405622
 32
0.0
 13
457.53420368980352
 23
115.3455948405622
 33
0.0
  0
LINE
  5
5128
  8
AM_5
 10
457.53420368980352
 20
74.34559484056237
 30
0.0
 11
457.53420368980352
 21
124.845594840562
 31
0.0
  0
SOLID
  5
5129
  8
AM_5
 10
458.05514822290348
 20
77.300018099562493
 30
0.0
 11
457.01325915670361
 21
77.300018099562493
 31
0.0
 12
457.53420368980352
 22
74.345594840562484
 32
0.0
 13
457.53420368980352
 23
74.345594840562484
 33
0.0
  0
TEXT
  5
512A
  8
AM_5
 10
456.53420368980352
 20
92.104192049649583
 30
0.0
 40
3.0
  1
41
 50
90.0
  7
ROMANS
  0
LINE
  5
512B
  8
AM_5
 10
449.53420368980341
 20
-22.654405159437552
 30
0.0
 11
449.53420368980341
 21
5.345594840562625
 31
0.0
  0
LINE
  5
512C
  8
AM_5
 10
457.53420368980341
 20
-22.654405159437552
 30
0.0
 11
457.53420368980358
 21
70.34559484056237
 31
0.0
  0
LINE
  5
512D
  8
AM_5
 10
465.53420368980341
 20
-22.654405159437552
 30
0.0
 11
465.53420368980341
 21
134.34559484056251
 31
0.0
  0
LINE
  5
512E
  8
CEN
 10
574.64925708167755
 20
59.345594840562001
 30
0.0
 11
558.64925708167755
 21
59.345594840562001
 31
0.0
  0
LINE
  5
512F
  8
AM_5
 10
419.61927388321499
 20
52.761223482898629
 30
0.0
 11
446.8421946404244
 21
52.761223482898629
 31
0.0
  0
TEXT
  5
5130
  8
AM_5
 10
422.4332636742584
 20
53.761223482898629
 30
0.0
 40
3.0
  1
2-PT 1/8
  7
ROMANS
  0
TEXT
  5
5131
  8
AM_5
 10
380.61336474473569
 20
40.796532998591708
 30
0.0
 40
3.0
  1
%%c55
  7
ROMANS
  0
SOLID
  5
5132
  8
AM_5
 10
353.98862694880052
 20
40.317477531691729
 30
0.0
 11
353.98862694880052
 21
39.275588465491701
 31
0.0
 12
351.03420368980051
 22
39.796532998591722
 32
0.0
 13
351.03420368980051
 23
39.796532998591722
 33
0.0
  0
LINE
  5
5133
  8
AM_5
 10
351.03420368980062
 20
39.796532998591722
 30
0.0
 11
406.03420368980068
 21
39.796532998591722
 31
0.0
  0
TEXT
  5
5134
  8
AM_5
 10
375.57013891115707
 20
143.34559484056251
 30
0.0
 40
3.0
  1
140
  7
ROMANS
  0
SOLID
  5
5135
  8
AM_5
 10
311.48862694880069
 20
142.8665393736627
 30
0.0
 11
311.48862694880069
 21
141.82465030746269
 31
0.0
 12
308.53420368980068
 22
142.3455948405626
 32
0.0
 13
308.53420368980068
 23
142.3455948405626
 33
0.0
  0
LINE
  5
5136
  8
AM_5
 10
308.53420368980079
 20
135.5327884462865
 30
0.0
 11
308.53420368980079
 21
143.50050447178251
 31
0.0
  0
LINE
  5
5137
  8
AM_5
 10
308.53420368980068
 20
142.34559484056251
 30
0.0
 11
448.53420368980238
 21
142.34559484056251
 31
0.0
  0
LINE
  5
5138
  8
CEN
 10
354.53420368980102
 20
254.59908872432351
 30
0.0
 11
354.53420368980102
 21
242.9990887243234
 31
0.0
  0
LINE
  5
5139
  8
CEN
 10
360.33420368980092
 20
248.79908872432341
 30
0.0
 11
348.73420368980089
 21
248.79908872432341
 31
0.0
  0
LINE
  5
513A
  8
CEN
 10
378.53420368980119
 20
257.92776607701899
 30
0.0
 11
378.5342036898009
 21
191.63706238754639
 31
0.0
  0
LINE
  5
513B
  8
UMCL1
 10
576.14925708167846
 20
115.3455948405619
 30
0.0
 11
576.14925708167846
 21
134.345594840562
 31
0.0
  0
LINE
  5
513C
  8
CEN
 10
566.64925708167846
 20
136.4358321231613
 30
0.0
 11
566.64925708167777
 21
-26.432030986846542
 31
0.0
  0
LINE
  5
513D
  8
UMCL1
 10
557.14925708167846
 20
115.3455948405619
 30
0.0
 11
557.14925708167846
 21
134.345594840562
 31
0.0
  0
LINE
  5
513E
  8
UMCL1
 10
557.14925708167846
 20
134.345594840562
 30
0.0
 11
576.14925708167846
 21
134.345594840562
 31
0.0
  0
LINE
  5
513F
  8
UMCL1
 10
557.14925708167846
 20
115.345594840562
 30
0.0
 11
576.14925708167846
 21
115.3455948405619
 31
0.0
  0
LINE
  5
5140
  8
UMCL1
 10
348.53420368980062
 20
4.5455948405621589
 30
0.0
 11
348.53420368980068
 21
-21.854405159437871
 31
0.0
  0
LINE
  5
5141
  8
UMCL1
 10
408.53420368980068
 20
-21.854405159437761
 30
0.0
 11
408.53420368980068
 21
4.5455948405621589
 31
0.0
  0
LINE
  5
5142
  8
UMCL1
 10
349.33420368980069
 20
5.3455948405621712
 30
0.0
 11
407.73420368980049
 21
5.3455948405621712
 31
0.0
  0
LINE
  5
5143
  8
UMCL1
 10
349.33420368980069
 20
-22.654405159437879
 30
0.0
 11
407.73420368980049
 21
-22.654405159437768
 31
0.0
  0
LINE
  5
5144
  8
UMCL1
 10
351.03420368980062
 20
5.3455948405621712
 30
0.0
 11
351.03420368980062
 21
66.345594840562057
 31
0.0
  0
LINE
  5
5145
  8
UMCL1
 10
355.03420368980062
 20
70.345594840562143
 30
0.0
 11
402.03420368980068
 21
70.345594840562086
 31
0.0
  0
LINE
  5
5146
  8
UMCL1
 10
406.03420368980068
 20
66.345594840562057
 30
0.0
 11
406.03420368980068
 21
5.3455948405621712
 31
0.0
  0
LINE
  5
5147
  8
UMCL1
 10
308.53420368980079
 20
115.345594840562
 30
0.0
 11
308.53420368980079
 21
134.345594840562
 31
0.0
  0
LINE
  5
5148
  8
UMCL1
 10
308.53420368980079
 20
134.345594840562
 30
0.0
 11
448.53420368980238
 21
134.34559484056209
 31
0.0
  0
LINE
  5
5149
  8
UMCL1
 10
308.53420368980079
 20
115.345594840562
 30
0.0
 11
448.53420368980238
 21
115.3455948405621
 31
0.0
  0
POLYLINE
  5
514A
  8
UMCL1
 66
     1
 10
0.0
 20
0.0
 30
0.0
  0
VERTEX
  5
54AF
  8
UMCL1
 10
348.53420368980079
 20
215.2990887243235
 30
0.0
  0
VERTEX
  5
54B0
  8
UMCL1
 10
348.53420368980079
 20
197.96510840086049
 30
0.0
  0
SEQEND
  5
54B1
  8
UMCL1
  0
LINE
  5
514B
  8
UMCL1
 10
308.53420368980102
 20
234.2990887243237
 30
0.0
 11
308.53420368980079
 21
215.2990887243237
 31
0.0
  0
LINE
  5
514C
  8
UMCL1
 10
308.53420368980102
 20
234.2990887243237
 30
0.0
 11
448.53420368980068
 21
234.2990887243233
 31
0.0
  0
LINE
  5
514D
  8
UMCL1
 10
308.53420368980079
 20
215.2990887243237
 30
0.0
 11
448.53420368980102
 21
215.2990887243233
 31
0.0
  0
CIRCLE
  5
514E
  8
UMCL1
 10
354.53420368980079
 20
248.7990887243235
 30
0.0
 40
3.3999999999999999
  0
CIRCLE
  5
514F
  8
UMCL1
 10
402.5342036898009
 20
248.7990887243235
 30
0.0
 40
3.3999999999999999
  0
CIRCLE
  5
5150
  8
UMCL1
 10
402.5342036898009
 20
200.7990887243235
 30
0.0
 40
3.3999999999999999
  0
CIRCLE
  5
5151
  8
UMCL1
 10
354.53420368980079
 20
200.7990887243235
 30
0.0
 40
3.3999999999999999
  0
LINE
  5
5152
  8
UMCL1
 62
     4
 10
351.03420368980068
 20
66.345594840562114
 30
0.0
 11
406.03420368980068
 21
66.345594840562114
 31
0.0
  0
LINE
  5
5153
  8
UMCL1
 10
348.53420368980062
 20
-21.854405159437821
 30
0.0
 11
408.53420368980068
 21
-21.854405159437821
 31
0.0
  0
LINE
  5
5154
  8
UMCL1
 10
348.53420368980062
 20
4.5455948405621589
 30
0.0
 11
408.53420368980068
 21
4.5455948405621589
 31
0.0
  0
ARC
  5
5155
  8
UMCL1
 10
355.03420368980062
 20
66.345594840562114
 30
0.0
 40
4.0
 50
90.0
 51
180.0
  0
ARC
  5
5156
  8
UMCL1
 10
402.03420368980068
 20
66.345594840562057
 30
0.0
 40
4.0
 50
0.0
 51
90.0
  0
LINE
  5
5157
  8
UMCL1
 10
407.73420368980049
 20
-22.654405159437768
 30
0.0
 11
408.53420368980068
 21
-21.854405159437761
 31
0.0
  0
LINE
  5
5158
  8
UMCL1
 10
408.53420368980068
 20
4.5455948405621589
 30
0.0
 11
407.73420368980049
 21
5.3455948405621712
 31
0.0
  0
LINE
  5
5159
  8
UMCL1
 10
349.33420368980069
 20
5.3455948405621712
 30
0.0
 11
348.53420368980062
 21
4.5455948405621589
 31
0.0
  0
LINE
  5
515A
  8
UMCL1
 10
348.53420368980068
 20
-21.854405159437871
 30
0.0
 11
349.33420368980069
 21
-22.654405159437879
 31
0.0
  0
POLYLINE
  5
515B
  8
UMCL1
 66
     1
 10
0.0
 20
0.0
 30
0.0
  0
VERTEX
  5
54B2
  8
UMCL1
 10
405.36818401326389
 20
254.7990887243235
 30
0.0
  0
VERTEX
  5
54B3
  8
UMCL1
 10
351.70022336633792
 20
254.7990887243235
 30
0.0
  0
SEQEND
  5
54B4
  8
UMCL1
  0
POLYLINE
  5
515C
  8
UMCL1
 66
     1
 10
0.0
 20
0.0
 30
0.0
  0
VERTEX
  5
54B5
  8
UMCL1
 10
408.5342036898009
 20
197.9651084008604
 30
0.0
  0
VERTEX
  5
54B6
  8
UMCL1
 10
408.5342036898009
 20
215.29908872432341
 30
0.0
  0
SEQEND
  5
54B7
  8
UMCL1
  0
ARC
  5
515D
  8
UMCL1
 10
378.5342036898009
 20
224.7990887243235
 30
0.0
 40
40.25
 50
311.81155054398761
 51
318.18844945601018
  0
POLYLINE
  5
515E
  8
UMCL1
 66
     1
 10
0.0
 20
0.0
 30
0.0
  0
VERTEX
  5
54B8
  8
UMCL1
 10
351.70022336633792
 20
194.7990887243235
 30
0.0
  0
VERTEX
  5
54B9
  8
UMCL1
 10
405.36818401326389
 20
194.7990887243235
 30
0.0
  0
SEQEND
  5
54BA
  8
UMCL1
  0
ARC
  5
515F
  8
UMCL1
 10
378.5342036898009
 20
224.7990887243235
 30
0.0
 40
40.25
 50
221.8115505439865
 51
228.18844945601251
  0
POLYLINE
  5
5160
  8
UMCL1
 66
     1
 10
0.0
 20
0.0
 30
0.0
  0
VERTEX
  5
54BB
  8
UMCL1
 10
348.53420368980079
 20
251.63306904778651
 30
0.0
  0
VERTEX
  5
54BC
  8
UMCL1
 10
348.53420368980079
 20
234.29908872432361
 30
0.0
  0
SEQEND
  5
54BD
  8
UMCL1
  0
ARC
  5
5161
  8
UMCL1
 10
378.5342036898009
 20
224.7990887243235
 30
0.0
 40
40.25
 50
41.811550543988602
 51
48.188449456012478
  0
ARC
  5
5162
  8
UMCL1
 10
378.5342036898009
 20
224.7990887243235
 30
0.0
 40
40.25
 50
131.81155054398749
 51
138.1884494560114
  0
LINE
  5
5163
  8
CEN
 10
348.73420368980089
 20
200.79908872432361
 30
0.0
 11
360.33420368980092
 21
200.79908872432361
 31
0.0
  0
LINE
  5
5164
  8
CEN
 10
354.53420368980102
 20
206.59908872432351
 30
0.0
 11
354.53420368980102
 21
194.99908872432351
 31
0.0
  0
LINE
  5
5165
  8
CEN
 10
402.53420368980068
 20
194.99908872432351
 30
0.0
 11
402.53420368980068
 21
206.59908872432351
 31
0.0
  0
LINE
  5
5166
  8
CEN
 10
396.73420368980089
 20
200.79908872432361
 30
0.0
 11
408.33420368980092
 21
200.79908872432361
 31
0.0
  0
LINE
  5
5167
  8
CEN
 10
408.33420368980092
 20
248.79908872432341
 30
0.0
 11
396.73420368980089
 21
248.79908872432341
 31
0.0
  0
LINE
  5
5168
  8
CEN
 10
402.53420368980079
 20
242.99908872432351
 30
0.0
 11
402.53420368980079
 21
254.59908872432351
 31
0.0
  0
SOLID
  5
5169
  8
AM_5
 10
457.0551482229007
 20
218.25351198332331
 30
0.0
 11
456.01325915670088
 21
218.25351198332331
 31
0.0
 12
456.53420368980079
 22
215.2990887243233
 32
0.0
 13
456.53420368980079
 23
215.2990887243233
 33
0.0
  0
LINE
  5
516A
  8
AM_5
 10
449.56893888592242
 20
215.2990887243233
 30
0.0
 11
457.53420368980079
 21
215.2990887243233
 31
0.0
  0
SOLID
  5
516B
  8
AM_5
 10
417.05514822290093
 20
232.25351198332339
 30
0.0
 11
416.013259156701
 21
232.25351198332339
 31
0.0
 12
416.5342036898009
 22
229.2990887243235
 32
0.0
 13
416.5342036898009
 23
229.2990887243235
 33
0.0
  0
LINE
  5
516C
  8
AM_5
 10
388.57751663370851
 20
229.29908872432341
 30
0.0
 11
417.87611075018299
 21
229.29908872432341
 31
0.0
  0
LINE
  5
516D
  8
CEN
 10
378.5342036898017
 20
138.75652471573201
 30
0.0
 11
378.5342036898009
 21
-26.445342586726671
 31
0.0
  0
LINE
  5
516E
  8
UMCL1
  6
PHANTOM
 62
     6
 10
308.53420368980079
 20
93.345594840562256
 30
0.0
 11
308.53420368980051
 21
74.345594840562256
 31
0.0
  0
LINE
  5
516F
  8
UMCL1
  6
PHANTOM
 62
     6
 10
308.53420368980079
 20
93.345594840562256
 30
0.0
 11
448.53420368980238
 21
93.345594840561915
 31
0.0
  0
LINE
  5
5170
  8
UMCL1
  6
PHANTOM
 62
     6
 10
308.53420368980051
 20
74.345594840562256
 30
0.0
 11
448.53420368980238
 21
74.345594840561802
 31
0.0
  0
SOLID
  5
5171
  8
AM_5
 10
403.07978043080112
 20
40.317477531691729
 30
0.0
 11
403.07978043080112
 21
39.275588465491701
 31
0.0
 12
406.03420368980119
 22
39.796532998591722
 32
0.0
 13
406.03420368980119
 23
39.796532998591722
 33
0.0
  0
LINE
  5
5172
  8
CEN
 10
562.64925708167755
 20
-3.6544051594379989
 30
0.0
 11
546.64925708167755
 21
-3.6544051594379989
 31
0.0
  0
LINE
  5
5173
  8
CEN
 10
554.64925708167755
 20
4.3455948405621712
 30
0.0
 11
554.64925708167755
 21
-11.654405159437831
 31
0.0
  0
CIRCLE
  5
5174
  8
UMCL1
 10
554.64925708167755
 20
-3.6544051594379989
 30
0.0
 40
4.25
  0
ARC
  5
5175
  8
UMCL1
 62
     2
 10
554.64925708167755
 20
-3.6544051594379989
 30
0.0
 40
5.0
 50
77.498655826070589
 51
10.66300495729744
  0
CIRCLE
  5
5176
  8
UMCL1
 10
566.64925708167812
 20
59.345594840562001
 30
0.0
 40
4.25
  0
ARC
  5
5177
  8
UMCL1
 62
     2
 10
566.64925708167812
 20
59.345594840562001
 30
0.0
 40
5.0
 50
77.498655826073758
 51
10.66300495729744
  0
LINE
  5
5178
  8
CEN
 10
354.53420368980102
 20
7.4717403144547907
 30
0.0
 11
354.53420368980102
 21
-26.552406593197819
 31
0.0
  0
LINE
  5
5179
  8
HIDDEN
 10
357.934203689801
 20
5.3455948405621712
 30
0.0
 11
357.934203689801
 21
-22.654405159437879
 31
0.0
  0
LINE
  5
517A
  8
HIDDEN
 10
351.13420368980093
 20
5.3455948405621712
 30
0.0
 11
351.13420368980093
 21
-22.654405159437879
 31
0.0
  0
LINE
  5
517B
  8
UMCL1
  6
CONTINUOUS
 10
351.70022336633792
 20
4.5455948405621589
 30
0.0
 11
351.70022336633792
 21
-21.854405159437871
 31
0.0
  0
LINE
  5
517C
  8
UMCL1
 10
352.50022336633788
 20
5.3455948405621712
 30
0.0
 11
351.70022336633792
 21
4.5455948405621021
 31
0.0
  0
LINE
  5
517D
  8
UMCL1
 10
351.70022336633792
 20
-21.854405159437871
 30
0.0
 11
352.50022336633799
 21
-22.654405159437939
 31
0.0
  0
LINE
  5
517E
  8
CEN
 10
402.53420368980068
 20
7.4717403144547907
 30
0.0
 11
402.53420368980068
 21
-26.552406593197819
 31
0.0
  0
LINE
  5
517F
  8
HIDDEN
 10
399.13420368980093
 20
5.3455948405621712
 30
0.0
 11
399.13420368980093
 21
-22.654405159437879
 31
0.0
  0
LINE
  5
5180
  8
HIDDEN
 10
405.93420368980082
 20
5.3455948405621712
 30
0.0
 11
405.93420368980082
 21
-22.654405159437879
 31
0.0
  0
LINE
  5
5181
  8
UMCL1
  6
CONTINUOUS
 10
405.36818401326377
 20
4.5455948405621589
 30
0.0
 11
405.36818401326377
 21
-21.854405159437871
 31
0.0
  0
LINE
  5
5182
  8
UMCL1
 10
404.56818401326382
 20
5.3455948405621712
 30
0.0
 11
405.36818401326377
 21
4.5455948405621021
 31
0.0
  0
LINE
  5
5183
  8
UMCL1
 10
405.36818401326377
 20
-21.854405159437871
 30
0.0
 11
404.56818401326382
 21
-22.654405159437939
 31
0.0
  0
LINE
  5
5184
  8
UMCL1
 10
536.64925708167755
 20
4.5455948405621021
 30
0.0
 11
536.64925708167755
 21
-21.854405159437931
 31
0.0
  0
LINE
  5
5185
  8
UMCL1
 10
596.64925708167755
 20
-21.854405159437821
 30
0.0
 11
596.64925708167755
 21
4.5455948405621021
 31
0.0
  0
LINE
  5
5186
  8
UMCL1
 10
537.44925708167762
 20
5.3455948405621143
 30
0.0
 11
595.84925708167771
 21
5.3455948405621143
 31
0.0
  0
LINE
  5
5187
  8
UMCL1
 10
537.44925708167773
 20
-22.654405159437939
 30
0.0
 11
595.84925708167771
 21
-22.654405159437829
 31
0.0
  0
LINE
  5
5188
  8
UMCL1
 10
539.14925708167755
 20
5.3455948405621143
 30
0.0
 11
539.14925708167755
 21
66.345594840562001
 31
0.0
  0
LINE
  5
5189
  8
UMCL1
 10
543.14925708167755
 20
70.345594840562086
 30
0.0
 11
590.14925708167766
 21
70.345594840562015
 31
0.0
  0
LINE
  5
518A
  8
UMCL1
 10
594.14925708167755
 20
66.345594840562001
 30
0.0
 11
594.14925708167755
 21
5.3455948405621143
 31
0.0
  0
LINE
  5
518B
  8
UMCL1
 62
     4
 10
539.14925708167755
 20
66.345594840562057
 30
0.0
 11
594.14925708167755
 21
66.345594840562057
 31
0.0
  0
LINE
  5
518C
  8
UMCL1
 10
536.64925708167755
 20
-21.854405159437871
 30
0.0
 11
596.64925708167755
 21
-21.854405159437871
 31
0.0
  0
LINE
  5
518D
  8
UMCL1
 10
536.64925708167755
 20
4.5455948405621021
 30
0.0
 11
596.64925708167755
 21
4.5455948405621021
 31
0.0
  0
ARC
  5
518E
  8
UMCL1
 10
543.14925708167755
 20
66.345594840562057
 30
0.0
 40
4.0
 50
90.0
 51
180.0
  0
ARC
  5
518F
  8
UMCL1
 10
590.14925708167766
 20
66.345594840562001
 30
0.0
 40
4.0
 50
0.0
 51
90.0
  0
LINE
  5
5190
  8
UMCL1
 10
595.84925708167771
 20
-22.654405159437829
 30
0.0
 11
596.64925708167755
 21
-21.854405159437821
 31
0.0
  0
LINE
  5
5191
  8
UMCL1
 10
596.64925708167755
 20
4.5455948405621021
 30
0.0
 11
595.84925708167771
 21
5.3455948405621143
 31
0.0
  0
LINE
  5
5192
  8
UMCL1
 10
537.44925708167762
 20
5.3455948405621143
 30
0.0
 11
536.64925708167755
 21
4.5455948405621021
 31
0.0
  0
LINE
  5
5193
  8
UMCL1
 10
536.64925708167755
 20
-21.854405159437931
 30
0.0
 11
537.44925708167773
 21
-22.654405159437939
 31
0.0
  0
LINE
  5
5194
  8
CEN
 10
542.64925708167789
 20
7.4717403144547339
 30
0.0
 11
542.64925708167789
 21
-26.552406593197819
 31
0.0
  0
LINE
  5
5195
  8
HIDDEN
 10
546.04925708167787
 20
5.3455948405621143
 30
0.0
 11
546.04925708167787
 21
-22.654405159437939
 31
0.0
  0
LINE
  5
5196
  8
HIDDEN
 10
539.24925708167802
 20
5.3455948405621143
 30
0.0
 11
539.24925708167802
 21
-22.654405159437939
 31
0.0
  0
LINE
  5
5197
  8
UMCL1
  6
CONTINUOUS
 10
539.81527675821485
 20
4.5455948405621021
 30
0.0
 11
539.81527675821485
 21
-21.854405159437871
 31
0.0
  0
LINE
  5
5198
  8
UMCL1
 10
540.61527675821492
 20
5.3455948405620566
 30
0.0
 11
539.81527675821485
 21
4.5455948405621021
 31
0.0
  0
LINE
  5
5199
  8
UMCL1
 10
539.81527675821485
 20
-21.854405159437992
 30
0.0
 11
540.61527675821503
 21
-22.654405159437939
 31
0.0
  0
LINE
  5
519A
  8
CEN
 10
590.64925708167777
 20
7.4717403144547339
 30
0.0
 11
590.64925708167777
 21
-26.552406593197819
 31
0.0
  0
LINE
  5
519B
  8
HIDDEN
 10
587.2492570816778
 20
5.3455948405621143
 30
0.0
 11
587.2492570816778
 21
-22.654405159437939
 31
0.0
  0
LINE
  5
519C
  8
HIDDEN
 10
594.04925708167775
 20
5.3455948405621143
 30
0.0
 11
594.04925708167775
 21
-22.654405159437939
 31
0.0
  0
LINE
  5
519D
  8
UMCL1
  6
CONTINUOUS
 10
593.48323740514093
 20
4.5455948405621021
 30
0.0
 11
593.48323740514093
 21
-21.854405159437871
 31
0.0
  0
LINE
  5
519E
  8
UMCL1
 10
592.68323740514074
 20
5.3455948405620566
 30
0.0
 11
593.48323740514093
 21
4.5455948405621021
 31
0.0
  0
LINE
  5
519F
  8
UMCL1
 10
593.48323740514058
 20
-21.854405159437992
 30
0.0
 11
592.68323740514074
 21
-22.654405159437939
 31
0.0
  0
SOLID
  5
51A0
  8
AM_5
 10
445.57978043080237
 20
142.8665393736627
 30
0.0
 11
445.57978043080237
 21
141.82465030746269
 31
0.0
 12
448.53420368980238
 22
142.3455948405626
 32
0.0
 13
448.53420368980238
 23
142.3455948405626
 33
0.0
  0
LINE
  5
51A1
  8
AM_5
 10
448.53420368980238
 20
135.5327884462865
 30
0.0
 11
448.53420368980238
 21
143.39461483025929
 31
0.0
  0
LINE
  5
51A2
  8
UMCL1
 10
448.53420368980238
 20
115.345594840562
 30
0.0
 11
448.53420368980238
 21
134.345594840562
 31
0.0
  0
LINE
  5
51A3
  8
UMCL1
  6
PHANTOM
 62
     6
 10
448.53420368980238
 20
93.345594840562256
 30
0.0
 11
448.53420368980272
 21
74.345594840562256
 31
0.0
  0
LINE
  5
51A4
  8
AM_5
 10
449.53420368980238
 20
134.34559484056251
 30
0.0
 11
474.5036378259685
 21
134.34559484056251
 31
0.0
  0
LINE
  5
51A5
  8
AM_5
 10
449.53420368980238
 20
115.3455948405623
 30
0.0
 11
466.53420368980341
 21
115.3455948405623
 31
0.0
  0
LINE
  5
51A6
  8
AM_5
 10
449.53420368980261
 20
74.34559484056237
 30
0.0
 11
458.84632411362088
 21
74.34559484056237
 31
0.0
  0
LINE
  5
51A7
  8
CEN
 10
369.12172949984739
 20
124.845594840562
 30
0.0
 11
388.32460848324598
 21
124.845594840562
 31
0.0
  0
CIRCLE
  5
51A8
  8
UMCL1
  6
CONTINUOUS
 10
378.53420368980147
 20
124.845594840562
 30
0.0
 40
4.0
  0
SOLID
  5
51A9
  8
AM_5
 10
458.05514822290348
 20
118.30001809956249
 30
0.0
 11
457.01325915670361
 21
118.30001809956249
 31
0.0
 12
457.53420368980352
 22
115.3455948405625
 32
0.0
 13
457.53420368980352
 23
115.3455948405625
 33
0.0
  0
SOLID
  5
51AA
  8
AM_5
 10
458.05514822290348
 20
121.8911715815623
 30
0.0
 11
457.01325915670361
 21
121.8911715815623
 31
0.0
 12
457.53420368980352
 22
124.8455948405623
 32
0.0
 13
457.53420368980352
 23
124.8455948405623
 33
0.0
  0
TEXT
  5
51AB
  8
AM_5
 10
456.53420368980358
 20
116.4791487819431
 30
0.0
 40
3.0
  1
9.5
 50
90.0
  7
ROMANS
  0
LINE
  5
51AC
  8
AM_5
 10
473.53420368980352
 20
-22.654405159437552
 30
0.0
 11
473.53420368980352
 21
134.34559484056251
 31
0.0
  0
LINE
  5
51AD
  8
CEN
 10
553.85428478284439
 20
124.845594840562
 30
0.0
 11
579.18635857601566
 21
124.845594840562
 31
0.0
  0
LINE
  5
51AE
  8
CEN
 10
392.73877952372612
 20
59.345594840561937
 30
0.0
 11
408.73877952372601
 21
59.345594840561937
 31
0.0
  0
LINE
  5
51AF
  8
HIDDEN
 10
397.03420368980068
 20
63.123924827014541
 30
0.0
 11
406.03420368980051
 21
63.59559484056188
 31
0.0
  0
LINE
  5
51B0
  8
HIDDEN
 10
397.03420368980068
 20
63.873924827014612
 30
0.0
 11
406.03420368980051
 21
64.345594840561887
 31
0.0
  0
LINE
  5
51B1
  8
HIDDEN
 10
397.03420368980068
 20
55.567264854109332
 30
0.0
 11
406.03420368980051
 21
55.095594840561937
 31
0.0
  0
LINE
  5
51B2
  8
HIDDEN
 10
397.03420368980068
 20
54.817264854109283
 30
0.0
 11
406.03420368980051
 21
54.345594840561937
 31
0.0
  0
LINE
  5
51B3
  8
CEN
 10
395.23877952372612
 20
-3.6544051594379989
 30
0.0
 11
411.23877952372601
 21
-3.6544051594379989
 31
0.0
  0
LINE
  5
51B4
  8
HIDDEN
 10
399.53420368980068
 20
0.1239248270146618
 30
0.0
 11
408.53420368980062
 21
0.5955948405620007
 31
0.0
  0
LINE
  5
51B5
  8
HIDDEN
 10
399.53420368980068
 20
0.8739248270146617
 30
0.0
 11
408.53420368980062
 21
1.345594840562
 31
0.0
  0
LINE
  5
51B6
  8
HIDDEN
 10
399.53420368980068
 20
-7.4327351458906028
 30
0.0
 11
408.53420368980062
 21
-7.9044051594379416
 31
0.0
  0
LINE
  5
51B7
  8
HIDDEN
 10
399.53420368980068
 20
-8.1827351458906037
 30
0.0
 11
408.53420368980062
 21
-8.6544051594379425
 31
0.0
  0
SOLID
  5
51B8
  8
AM_5
 10
408.46560512823902
 20
57.588242557992373
 30
0.0
 11
408.92002355928452
 21
58.525812137166838
 31
0.0
 12
406.03420368980193
 22
59.345594840561724
 32
0.0
 13
406.03420368980193
 23
59.345594840561724
 33
0.0
  0
LINE
  5
51B9
  8
AM_5
 10
419.61927388321499
 20
52.761223482898629
 30
0.0
 11
408.69281434376188
 21
58.057027347579663
 31
0.0
  0
LINE
  5
51BA
  8
UMCL1
 10
448.53420368980068
 20
234.2990887243237
 30
0.0
 11
448.53420368980102
 21
215.2990887243237
 31
0.0
  0
LINE
  5
51BB
  8
UMCL1
 10
386.53420368980102
 20
229.29908872432341
 30
0.0
 11
370.53420368980102
 21
229.29908872432341
 31
0.0
  0
LINE
  5
51BC
  8
UMCL1
 10
386.53420368980102
 20
220.29908872432341
 30
0.0
 11
370.53420368980102
 21
220.29908872432341
 31
0.0
  0
ARC
  5
51BD
  8
UMCL1
 10
370.53420368980102
 20
224.79908872432341
 30
0.0
 40
4.5
 50
90.0
 51
270.0
  0
ARC
  5
51BE
  8
UMCL1
 10
386.53420368980102
 20
224.79908872432341
 30
0.0
 40
4.5
 50
270.0
 51
90.0
  0
ARC
  5
51BF
  8
UMCL1
 10
378.5342036898009
 20
224.79908872432341
 30
0.0
 40
8.0
 50
145.7711336721882
 51
214.2288663278118
  0
ARC
  5
51C0
  8
UMCL1
 10
378.5342036898009
 20
224.79908872432341
 30
0.0
 40
7.5
 50
143.13010235415661
 51
216.86989764584339
  0
ARC
  5
51C1
  8
UMCL1
 10
378.5342036898009
 20
224.79908872432341
 30
0.0
 40
8.0
 50
325.77113367218641
 51
34.228866327811787
  0
ARC
  5
51C2
  8
UMCL1
 10
378.5342036898009
 20
224.79908872432341
 30
0.0
 40
7.5
 50
323.13010235415339
 51
36.86989764584338
  0
LINE
  5
51C3
  8
UMCL1
 10
371.03420368980159
 20
115.0455948405619
 30
0.0
 11
370.53420368980142
 21
113.5455948405619
 31
0.0
  0
LINE
  5
51C4
  8
UMCL1
 10
370.53420368980142
 20
113.5455948405619
 30
0.0
 11
386.53420368980147
 21
113.5455948405619
 31
0.0
  0
LINE
  5
51C5
  8
UMCL1
 10
386.53420368980147
 20
113.5455948405619
 30
0.0
 11
386.03420368980159
 21
115.0455948405618
 31
0.0
  0
LINE
  5
51C6
  8
UMCL1
 10
386.03420368980159
 20
115.0455948405618
 30
0.0
 11
386.03420368980142
 21
115.345594840562
 31
0.0
  0
LINE
  5
51C7
  8
UMCL1
 10
371.03420368980159
 20
115.0455948405619
 30
0.0
 11
371.03420368980159
 21
115.345594840562
 31
0.0
  0
LINE
  5
51C8
  8
UMCL1
 10
371.03420368980159
 20
115.0455948405619
 30
0.0
 11
386.03420368980159
 21
115.0455948405618
 31
0.0
  0
LINE
  5
51C9
  8
UMCL1
 10
370.53420368980062
 20
113.5455948405619
 30
0.0
 11
370.53420368980062
 21
70.345594840562015
 31
0.0
  0
LINE
  5
51CA
  8
UMCL1
 10
386.53420368980062
 20
113.5455948405618
 30
0.0
 11
386.53420368980062
 21
70.345594840562015
 31
0.0
  0
LINE
  5
51CB
  8
UMCL1
 10
559.14925708167834
 20
115.0455948405618
 30
0.0
 11
558.64925708167823
 21
113.5455948405618
 31
0.0
  0
LINE
  5
51CC
  8
UMCL1
 10
558.64925708167823
 20
113.5455948405618
 30
0.0
 11
574.64925708167834
 21
113.5455948405618
 31
0.0
  0
LINE
  5
51CD
  8
UMCL1
 10
574.64925708167834
 20
113.5455948405618
 30
0.0
 11
574.14925708167834
 21
115.0455948405618
 31
0.0
  0
LINE
  5
51CE
  8
UMCL1
 10
559.14925708167834
 20
115.0455948405618
 30
0.0
 11
574.14925708167834
 21
115.0455948405618
 31
0.0
  0
LINE
  5
51CF
  8
UMCL1
 10
558.64925708167812
 20
113.5455948405618
 30
0.0
 11
558.64925708167812
 21
70.345594840561972
 31
0.0
  0
LINE
  5
51D0
  8
UMCL1
 10
574.64925708167812
 20
113.5455948405618
 30
0.0
 11
574.64925708167812
 21
70.345594840561972
 31
0.0
  0
LINE
  5
51D1
  8
UMCL1
 10
571.14925708167812
 20
115.345594840562
 30
0.0
 11
571.14925708167812
 21
115.0455948405618
 31
0.0
  0
LINE
  5
51D2
  8
UMCL1
 10
562.14925708167812
 20
115.3455948405621
 30
0.0
 11
562.14925708167823
 21
115.0455948405618
 31
0.0
  0
TEXT
  5
51D3
  8
AM_5
 10
376.98082230264021
 20
179.7990887243235
 30
0.0
 40
3.0
  1
48
  7
ROMANS
  0
SOLID
  5
51D4
  8
AM_5
 10
399.57978043080101
 20
178.27814419122359
 30
0.0
 11
399.57978043080101
 21
179.32003325742349
 31
0.0
 12
402.5342036898009
 22
178.7990887243235
 32
0.0
 13
402.5342036898009
 23
178.7990887243235
 33
0.0
  0
LINE
  5
51D5
  8
AM_5
 10
402.53420368980107
 20
192.50240368818541
 30
0.0
 11
402.5342036898009
 21
177.7990887243235
 31
0.0
  0
TEXT
  5
51D6
  8
AM_5
 10
376.99522059974908
 20
171.7990887243235
 30
0.0
 40
3.0
  1
60
  7
ROMANS
  0
SOLID
  5
51D7
  8
AM_5
 10
405.57978043080118
 20
170.27814419122359
 30
0.0
 11
405.57978043080118
 21
171.32003325742349
 31
0.0
 12
408.53420368980107
 22
170.7990887243235
 32
0.0
 13
408.53420368980107
 23
170.7990887243235
 33
0.0
  0
LINE
  5
51D8
  8
AM_5
 10
408.53420368980107
 20
195.89961865849051
 30
0.0
 11
408.53420368980107
 21
169.7990887243235
 31
0.0
  0
POLYLINE
  5
51D9
  8
AM_5
 66
     1
 10
0.0
 20
0.0
 30
0.0
 70
     1
  0
VERTEX
  5
54BE
  8
AM_5
 10
376.58642240249412
 20
182.57778029526219
 30
0.0
  0
VERTEX
  5
54BF
  8
AM_5
 10
376.58642240249412
 20
180.0993931125262
 30
0.0
  0
VERTEX
  5
54C0
  8
AM_5
 10
374.2192992935498
 20
180.0993931125262
 30
0.0
  0
VERTEX
  5
54C1
  8
AM_5
 10
374.2192992935498
 20
182.57778029526219
 30
0.0
  0
SEQEND
  5
54C2
  8
AM_5
  0
POLYLINE
  5
51DA
  8
AM_5
 66
     1
 10
0.0
 20
0.0
 30
0.0
 70
     1
  0
VERTEX
  5
54C3
  8
AM_5
 10
376.58642240249412
 20
174.57778029526219
 30
0.0
  0
VERTEX
  5
54C4
  8
AM_5
 10
376.58642240249412
 20
172.0993931125262
 30
0.0
  0
VERTEX
  5
54C5
  8
AM_5
 10
374.2192992935498
 20
172.0993931125262
 30
0.0
  0
VERTEX
  5
54C6
  8
AM_5
 10
374.2192992935498
 20
174.57778029526219
 30
0.0
  0
SEQEND
  5
54C7
  8
AM_5
  0
TEXT
  5
51DB
  8
AM_5
 10
375.66646109752492
 20
187.7990887243235
 30
0.0
 40
3.0
  1
25
  7
ROMANS
  0
LINE
  5
51DC
  8
AM_5
 10
366.0342036898009
 20
186.7990887243235
 30
0.0
 11
391.03420368980068
 21
186.79908872432361
 31
0.0
  0
LINE
  5
51DD
  8
AM_5
 10
354.53420368980068
 20
178.7990887243235
 30
0.0
 11
402.5342036898009
 21
178.7990887243235
 31
0.0
  0
LINE
  5
51DE
  8
AM_5
 10
348.53420368980039
 20
170.7990887243235
 30
0.0
 11
408.53420368980102
 21
170.7990887243235
 31
0.0
  0
SOLID
  5
51DF
  8
AM_5
 10
357.48862694880057
 20
178.27814419122359
 30
0.0
 11
357.48862694880057
 21
179.32003325742349
 31
0.0
 12
354.53420368980068
 22
178.7990887243235
 32
0.0
 13
354.53420368980068
 23
178.7990887243235
 33
0.0
  0
LINE
  5
51E0
  8
AM_5
 10
354.53420368980062
 20
192.50240368818541
 30
0.0
 11
354.53420368980068
 21
177.7990887243235
 31
0.0
  0
SOLID
  5
51E1
  8
AM_5
 10
351.4886269488004
 20
170.27814419122359
 30
0.0
 11
351.4886269488004
 21
171.32003325742349
 31
0.0
 12
348.53420368980039
 22
170.7990887243235
 32
0.0
 13
348.53420368980039
 23
170.7990887243235
 33
0.0
  0
LINE
  5
51E2
  8
AM_5
 10
348.53420368980039
 20
195.89961865849051
 30
0.0
 11
348.53420368980039
 21
169.7990887243235
 31
0.0
  0
SOLID
  5
51E3
  8
AM_5
 10
368.98862694880108
 20
186.27814419122339
 30
0.0
 11
368.98862694880108
 21
187.3200332574234
 31
0.0
 12
366.03420368980107
 22
186.7990887243235
 32
0.0
 13
366.03420368980107
 23
186.7990887243235
 33
0.0
  0
LINE
  5
51E4
  8
AM_5
 10
366.0342036898009
 20
222.66498442656649
 30
0.0
 11
366.0342036898009
 21
185.45718166394141
 31
0.0
  0
SOLID
  5
51E5
  8
AM_5
 10
388.07978043080061
 20
186.27814419122339
 30
0.0
 11
388.07978043080061
 21
187.3200332574234
 31
0.0
 12
391.03420368980062
 22
186.7990887243235
 32
0.0
 13
391.03420368980062
 23
186.7990887243235
 33
0.0
  0
LINE
  5
51E6
  8
AM_5
 10
391.03420368980068
 20
222.66498442656649
 30
0.0
 11
391.03420368980068
 21
185.45718166394141
 31
0.0
  0
LINE
  5
51E7
  8
CEN
 10
411.80289425467947
 20
224.7990887243231
 30
0.0
 11
305.45282221721988
 21
224.79908872432381
 31
0.0
  0
SOLID
  5
51E8
  8
AM_5
 10
384.08822967594352
 20
129.0631985935421
 30
0.0
 11
383.39790537956441
 21
129.84357362652031
 31
0.0
 12
381.5302041596961
 22
127.4958742945807
 32
0.0
 13
381.5302041596961
 23
127.4958742945807
 33
0.0
  0
LINE
  5
51E9
  8
AM_5
 10
406.68428458716829
 20
149.74732025113269
 30
0.0
 11
381.5302041596961
 21
127.4958742945807
 31
0.0
  0
TEXT
  5
51EA
  8
AM_5
 10
409.97869995248618
 20
150.74732025113269
 30
0.0
 40
3.0
  1
%%c8
  7
ROMANS
  0
LINE
  5
51EB
  8
AM_5
 10
406.68428458716829
 20
149.74732025113269
 30
0.0
 11
416.31505791373547
 21
149.74732025113269
 31
0.0
  0
ARC
  5
51EC
  8
UMCL1
 10
378.5342036898009
 20
224.7990887243235
 30
0.0
 40
27.5
 50
200.20954537375249
 51
339.79045462624742
  0
ARC
  5
51ED
  8
UMCL1
 10
378.5342036898009
 20
224.7990887243235
 30
0.0
 40
27.5
 50
20.209545373752562
 51
159.79045462624589
  0
POLYLINE
  5
51EE
  8
UMCL1
 66
     1
 10
0.0
 20
0.0
 30
0.0
  0
VERTEX
  5
54C8
  8
UMCL1
 10
408.5342036898009
 20
234.29908872432341
 30
0.0
  0
VERTEX
  5
54C9
  8
UMCL1
 10
408.5342036898009
 20
251.63306904778651
 30
0.0
  0
SEQEND
  5
54CA
  8
UMCL1
  0
POLYLINE
  5
51F0
  8
LOGO
 62
     4
 66
     1
 10
0.0
 20
0.0
 30
0.0
 70
     1
1001
GENIUS_GENREC_14
1002
{
1000
PYDIR
1011
202.6344659358825
1021
0.0
1031
0.0
1021
268.9492707091789
1031
0.0
1002
}
1002
{
1000
PXDIR
1011
674.53446593588274
1021
0.0
1031
0.0
1021
-39.935698702585107
1031
0.0
1002
}
1002
{
1000
PORI
1011
202.6344659358825
1021
0.0
1031
0.0
1021
-39.935698702585107
1031
0.0
1002
}
1002
{
1000
PINS
1011
202.6344659358825
1021
0.0
1031
0.0
1021
-39.935698702585107
1031
0.0
1002
}
1002
{
1000
PINS2
1011
674.53446593588274
1021
0.0
1031
0.0
1021
268.9492707091789
1031
0.0
1002
}
1002
{
1000
C
1070
     1
1002
}
1001
GENIUS_GENODEF_13
1002
{
1000
HIER
1070
     0
1002
}
1002
{
1000
MANEDIT
1070
     0
1002
}
1002
{
1000
NOSEL
1070
     0
1002
}
1002
{
1000
BEHIND
1070
     0
1002
}
1002
{
1000
OTHER
1070
     0
1002
}
1002
{
1000
REACTOR
1002
}
1001
GENIUS_GENOBJ-N-REC_13
1002
{
1000
OWNER
1000
GEN
1002
}
  0
VERTEX
  5
54CB
  8
LOGO
 62
     4
 10
202.6344659358825
 20
-39.935698702585107
 30
0.0
  0
VERTEX
  5
54CC
  8
LOGO
 62
     4
 10
674.53446593588274
 20
-39.935698702585107
 30
0.0
  0
VERTEX
  5
54CD
  8
LOGO
 62
     4
 10
674.53446593588274
 20
268.9492707091789
 30
0.0
  0
VERTEX
  5
54CE
  8
LOGO
 62
     4
 10
202.6344659358825
 20
268.9492707091789
 30
0.0
  0
SEQEND
  5
54CF
  8
LOGO
 62
     4
  0
POLYLINE
  5
52B3
  8
LOGO
 62
     4
 66
     1
 10
0.0
 20
0.0
 30
0.0
 70
     1
1001
GENIUS_GENREC_14
1002
{
1000
PYDIR
1011
674.53446593588285
1021
0.0
1031
0.0
1021
268.9492707091789
1031
0.0
1002
}
1002
{
1000
PXDIR
1011
1146.4344659358831
1021
0.0
1031
0.0
1021
-39.935698702585107
1031
0.0
1002
}
1002
{
1000
PORI
1011
674.53446593588285
1021
0.0
1031
0.0
1021
-39.935698702585107
1031
0.0
1002
}
1002
{
1000
PINS
1011
674.53446593588285
1021
0.0
1031
0.0
1021
-39.935698702585107
1031
0.0
1002
}
1002
{
1000
PINS2
1011
1146.4344659358831
1021
0.0
1031
0.0
1021
268.9492707091789
1031
0.0
1002
}
1002
{
1000
C
1070
     1
1002
}
1001
GENIUS_GENODEF_13
1002
{
1000
HIER
1070
     0
1002
}
1002
{
1000
MANEDIT
1070
     0
1002
}
1002
{
1000
NOSEL
1070
     0
1002
}
1002
{
1000
BEHIND
1070
     0
1002
}
1002
{
1000
OTHER
1070
     0
1002
}
1002
{
1000
REACTOR
1002
}
1001
GENIUS_GENOBJ-N-REC_13
1002
{
1000
OWNER
1000
GEN
1002
}
  0
VERTEX
  5
5527
  8
LOGO
 62
     4
 10
674.53446593588285
 20
-39.935698702585107
 30
0.0
  0
VERTEX
  5
5528
  8
LOGO
 62
     4
 10
1146.4344659358831
 20
-39.935698702585107
 30
0.0
  0
VERTEX
  5
5529
  8
LOGO
 62
     4
 10
1146.4344659358831
 20
268.9492707091789
 30
0.0
  0
VERTEX
  5
552A
  8
LOGO
 62
     4
 10
674.53446593588285
 20
268.9492707091789
 30
0.0
  0
SEQEND
  5
552B
  8
LOGO
 62
     4
  0
ENDSEC
  0
EOF
