  0
SECTION
  2
HEADER
  9
$ACADVER
  1
AC1009
  9
$INSBASE
 10
0.0
 20
0.0
 30
0.0
  9
$EXTMIN
 10
865.85681909310506
 20
-474.68337746940318
 30
-0.011997777740703
  9
$EXTMAX
 10
1690.998391374864
 20
566.74578341230153
 30
393.18517688874527
  9
$LIMMIN
 10
0.0
 20
0.0
  9
$LIMMAX
 10
420.0
 20
297.0
  9
$ORTHOMODE
 70
     0
  9
$REGENMODE
 70
     1
  9
$FILLMODE
 70
     1
  9
$QTEXTMODE
 70
     0
  9
$MIRRTEXT
 70
     1
  9
$DRAGMODE
 70
     2
  9
$LTSCALE
 40
1.0
  9
$OSMODE
 70
    37
  9
$ATTMODE
 70
     1
  9
$TEXTSIZE
 40
3.0
  9
$TRACEWID
 40
1.0
  9
$TEXTSTYLE
  7
STANDARD
  9
$CLAYER
  8
0
  9
$CELTYPE
  6
BYLAYER
  9
$CECOLOR
 62
   256
  9
$DIMSCALE
 40
1.0
  9
$DIMASZ
 40
3.0
  9
$DIMEXO
 40
1.5
  9
$DIMDLI
 40
8.0
  9
$DIMRND
 40
0.0
  9
$DIMDLE
 40
0.0
  9
$DIMEXE
 40
1.5
  9
$DIMTP
 40
0.1
  9
$DIMTM
 40
0.1
  9
$DIMTXT
 40
3.5
  9
$DIMCEN
 40
0.0
  9
$DIMTSZ
 40
0.0
  9
$DIMTOL
 70
     0
  9
$DIMLIM
 70
     0
  9
$DIMTIH
 70
     0
  9
$DIMTOH
 70
     0
  9
$DIMSE1
 70
     0
  9
$DIMSE2
 70
     0
  9
$DIMTAD
 70
     1
  9
$DIMZIN
 70
     8
  9
$DIMBLK
  1

  9
$DIMASO
 70
     1
  9
$DIMSHO
 70
     1
  9
$DIMPOST
  1

  9
$DIMAPOST
  1
"
  9
$DIMALT
 70
     0
  9
$DIMALTD
 70
     2
  9
$DIMALTF
 40
0.0393701
  9
$DIMLFAC
 40
1.0
  9
$DIMTOFL
 70
     1
  9
$DIMTVP
 40
0.0
  9
$DIMTIX
 70
     0
  9
$DIMSOXD
 70
     0
  9
$DIMSAH
 70
     0
  9
$DIMBLK1
  1

  9
$DIMBLK2
  1

  9
$DIMSTYLE
  2
AM_ISO
  9
$DIMCLRD
 70
   256
  9
$DIMCLRE
 70
   256
  9
$DIMCLRT
 70
   256
  9
$DIMTFAC
 40
0.6
  9
$DIMGAP
 40
1.0
  9
$LUNITS
 70
     2
  9
$LUPREC
 70
     2
  9
$SKETCHINC
 40
1.0
  9
$FILLETRAD
 40
2.5
  9
$AUNITS
 70
     0
  9
$AUPREC
 70
     0
  9
$MENU
  1
.
  9
$ELEVATION
 40
0.0
  9
$PELEVATION
 40
0.0
  9
$THICKNESS
 40
0.0
  9
$LIMCHECK
 70
     0
  9
$BLIPMODE
 70
     0
  9
$CHAMFERA
 40
2.5
  9
$CHAMFERB
 40
2.5
  9
$SKPOLY
 70
     0
  9
$TDCREATE
 40
2454513.4947046759
  9
$TDUPDATE
 40
2454950.4295126391
  9
$TDINDWG
 40
0.4964859838
  9
$TDUSRTIMER
 40
0.4964857986
  9
$USRTIMER
 70
     1
  9
$ANGBASE
 50
0.0
  9
$ANGDIR
 70
     0
  9
$PDMODE
 70
     0
  9
$PDSIZE
 40
0.0
  9
$PLINEWID
 40
0.0
  9
$COORDS
 70
     1
  9
$SPLFRAME
 70
     0
  9
$SPLINETYPE
 70
     6
  9
$SPLINESEGS
 70
     8
  9
$ATTDIA
 70
     1
  9
$ATTREQ
 70
     1
  9
$HANDLING
 70
     1
  9
$HANDSEED
  5
7934
  9
$SURFTAB1
 70
     6
  9
$SURFTAB2
 70
     6
  9
$SURFTYPE
 70
     6
  9
$SURFU
 70
     6
  9
$SURFV
 70
     6
  9
$UCSNAME
  2

  9
$UCSORG
 10
0.0
 20
0.0
 30
0.0
  9
$UCSXDIR
 10
1.0
 20
0.0
 30
0.0
  9
$UCSYDIR
 10
0.0
 20
1.0
 30
0.0
  9
$PUCSNAME
  2

  9
$PUCSORG
 10
0.0
 20
0.0
 30
0.0
  9
$PUCSXDIR
 10
1.0
 20
0.0
 30
0.0
  9
$PUCSYDIR
 10
0.0
 20
1.0
 30
0.0
  9
$USERI1
 70
     0
  9
$USERI2
 70
     0
  9
$USERI3
 70
     0
  9
$USERI4
 70
     0
  9
$USERI5
 70
     0
  9
$USERR1
 40
0.0
  9
$USERR2
 40
0.0
  9
$USERR3
 40
0.0
  9
$USERR4
 40
0.0
  9
$USERR5
 40
0.0
  9
$WORLDVIEW
 70
     1
  9
$SHADEDGE
 70
     3
  9
$SHADEDIF
 70
    70
  9
$TILEMODE
 70
     1
  9
$MAXACTVP
 70
    64
  9
$PLIMCHECK
 70
     0
  9
$PEXTMIN
 10
1.0000000000000000E+020
 20
1.0000000000000000E+020
 30
1.0000000000000000E+020
  9
$PEXTMAX
 10
-1.0000000000000000E+020
 20
-1.0000000000000000E+020
 30
-1.0000000000000000E+020
  9
$PLIMMIN
 10
0.0
 20
0.0
  9
$PLIMMAX
 10
420.0
 20
297.0
  9
$UNITMODE
 70
     0
  9
$VISRETAIN
 70
     1
  9
$PLINEGEN
 70
     0
  9
$PSLTSCALE
 70
     1
  0
ENDSEC
  0
SECTION
  2
TABLES
  0
TABLE
  2
VPORT
 70
     4
  0
VPORT
  2
*ACTIVE
 70
     0
 10
0.0
 20
0.0
 11
1.0
 21
1.0
 12
1278.427605233984
 22
46.031202971449197
 13
0.0
 23
0.0
 14
2.5
 24
2.5
 15
10.0
 25
10.0
 16
0.0
 26
0.0
 36
1.0
 17
0.0
 27
0.0
 37
0.0
 40
1049.6293904949459
 41
0.911957950065703
 42
50.0
 43
0.0
 44
0.0
 50
0.0
 51
0.0
 71
     0
 72
   100
 73
     1
 74
     3
 75
     0
 76
     0
 77
     0
 78
     0
  0
ENDTAB
  0
TABLE
  2
LTYPE
 70
    20
  0
LTYPE
  2
CONTINUOUS
 70
     0
  3
Solid line
 72
    65
 73
     0
 40
0.0
  0
LTYPE
  2
AM_ISO02W050
 70
     0
  3
__ __ __ __ __ __ __ __ __ __ __ __ __ __ __
 72
    65
 73
     2
 40
7.5
 49
6.0
 49
-1.5
  0
LTYPE
  2
AM_ISO08W050
 70
     0
  3
____ . ____ . ____ . ____ . ____ . ____ . ____
 72
    65
 73
     4
 40
18.0
 49
12.0
 49
-1.5
 49
3.0
 49
-1.5
  0
LTYPE
  2
AM_ISO09W050
 70
     0
  3
_____ . . _____ . . _____ . . ____ .. ____
 72
    65
 73
     6
 40
22.5
 49
12.0
 49
-1.5
 49
3.0
 49
-1.5
 49
3.0
 49
-1.5
  0
LTYPE
  2
AMCONSTR
 70
     0
  3
_______________________
 72
    65
 73
     2
 40
9999.0
 49
9999.0
 49
0.0
  0
LTYPE
  2
AM_ISO08W050X2
 70
     0
  3
__ . __ . __ . __ . __ . __
 72
    65
 73
     4
 40
9.0
 49
6.0
 49
-0.75
 49
1.5
 49
-0.75
  0
LTYPE
  2
AM_ISO02W050X2
 70
     0
  3
 _ _ _ _ _ _ _ _ _ _ _ _
 72
    65
 73
     2
 40
3.75
 49
3.0
 49
-0.75
  0
LTYPE
  2
AMZIGZAG
 70
     0
  3
/\/-/\/-/\/-/\/-/\/-/\/
 72
    65
 73
     2
 40
11.0001
 49
0.0001
 49
-11.0
  0
LTYPE
  2
ACISOWELD
 70
     0
  3
_ _ _ _ _
 72
    65
 73
     2
 40
2.0
 49
2.0
 49
-1.0
  0
LTYPE
  2
ACISOTGB
 70
     0
  3
__ . . __ . .
 72
    65
 73
     6
 40
9.0
 49
4.0
 49
-1.0
 49
1.0
 49
-1.0
 49
1.0
 49
-1.0
  0
LTYPE
  2
ACISOTGL
 70
     0
  3
_ _ _ _ _
 72
    65
 73
     2
 40
3.0
 49
2.0
 49
-1.0
  0
LTYPE
  2
CENTER
 70
     0
  3
__ . __
 72
    65
 73
     4
 40
7.0
 49
4.0
 49
-1.0
 49
1.0
 49
-1.0
  0
LTYPE
  2
HIDDEN
 70
     0
  3
Hidden __ __ __ __ __ __ __ __ __ __ __ __ __ _
 72
    65
 73
     2
 40
9.5249999999999986
 49
6.3499999999999988
 49
-3.1749999999999989
  0
LTYPE
  2
PHANTOM2
 70
     0
  3
Phantom (.5x) ___ _ _ ___ _ _ ___ _ _ ___ _ _
 72
    65
 73
     6
 40
31.75
 49
15.875
 49
-3.1749999999999989
 49
3.1749999999999989
 49
-3.1749999999999989
 49
3.1749999999999989
 49
-3.1749999999999989
  0
LTYPE
  2
PHANTOM
 70
     0
  3
__________ _ _ __________ _ _ __________ _ _ 
 72
    65
 73
     6
 40
15.0
 49
10.0
 49
-1.0
 49
1.0
 49
-1.0
 49
1.0
 49
-1.0
  0
ENDTAB
  0
TABLE
  2
LAYER
 70
    10
  0
LAYER
  2
0
 70
     0
 62
     7
  6
CONTINUOUS
  0
LAYER
  2
UMCL1
 70
     0
 62
     7
  6
CONTINUOUS
  0
LAYER
  2
UMCL2
 70
     0
 62
     5
  6
CONTINUOUS
  0
LAYER
  2
AM_7
 70
     0
 62
     1
  6
CENTER
  0
LAYER
  2
AM_5
 70
     0
 62
     5
  6
CONTINUOUS
  0
LAYER
  2
LOGO
 70
     0
 62
     7
  6
CONTINUOUS
  0
LAYER
  2
DEFPOINTS
 70
     0
 62
     7
  6
CONTINUOUS
  0
LAYER
  2
CEN
 70
     0
 62
     1
  6
CENTER
  0
LAYER
  2
HIDDEN
 70
     0
 62
     3
  6
AM_ISO02W050
  0
ENDTAB
  0
TABLE
  2
STYLE
 70
    11
  0
STYLE
  2
STANDARD
 70
     0
 40
0.0
 41
1.0
 50
0.0
 71
     0
 42
3.0
  3
ISOCP.SHX
  4
CHINESET.SHX
  0
STYLE
  2

 70
     1
 40
0.0
 41
1.0
 50
0.0
 71
     0
 42
2.5
  3
ltypeshp.shx
  4

  0
STYLE
  2
ACISOTS
 70
     0
 40
1.0
 41
1.0
 50
0.0
 71
     0
 42
1.0
  3
isocp.shx
  4
chineset.shx
  0
STYLE
  2
ACISOGDT
 70
     0
 40
0.0
 41
1.0
 50
0.0
 71
     0
 42
2.5
  3
amgdt.shx
  4
chineset.shx
  0
STYLE
  2
ROMANS
 70
     0
 40
0.0
 41
1.0
 50
0.0
 71
     0
 42
3.0
  3
ROMANS.SHX
  4
LMP
  0
STYLE
  2
CHINESET
 70
     0
 40
0.0
 41
1.0
 50
0.0
 71
     0
 42
3.0
  3
simplex.shx
  4
CHINESET.SHX
  0
ENDTAB
  0
TABLE
  2
VIEW
 70
     0
  0
ENDTAB
  0
TABLE
  2
UCS
 70
     0
  0
ENDTAB
  0
TABLE
  2
APPID
 70
    21
  0
APPID
  2
ACAD
 70
     0
  0
APPID
  2
MCAD_NO_VIS
 70
     0
  0
APPID
  2
ACAD_TEMP_GRAPHIC
 70
     0
  0
APPID
  2
ACATTRIBSERVICES
 70
     0
  0
APPID
  2
AD_DRAW
 70
     0
  0
APPID
  2
DESIGNERASSEMBLIES
 70
     0
  0
APPID
  2
ACADM_DIM_EDIT
 70
     0
  0
APPID
  2
AMDT_DM_ADJ
 70
     0
  0
APPID
  2
ACAD_DSTYLE_DIMTEXT_FILL
 70
     0
  0
APPID
  2
GENIUS_GENOENT_13
 70
     0
  0
APPID
  2
GENIUS_GENOBJ-N-CRS_13
 70
     0
  0
APPID
  2
GENIUS_GENOLIS_13
 70
     0
  0
APPID
  2
GENIUS_GENODEF_13
 70
     0
  0
APPID
  2
GENIUS_GENOREF_13
 70
     0
  0
APPID
  2
ACAD_PSEXT
 70
     0
  0
APPID
  2
GENIUS_GENDTOL_13
 70
     0
  0
APPID
  2
GENIUS_GENOBJ-N-CEN_13
 70
     0
  0
APPID
  2
GENIUS_GENCEN_19
 70
     0
  0
APPID
  2
GENIUS_GENREC_14
 70
     0
  0
APPID
  2
GENIUS_GENOBJ-N-REC_13
 70
     0
  0
APPID
  2
ACAECLAYERSTANDARD
 70
     0
  0
ENDTAB
  0
TABLE
  2
DIMSTYLE
 70
    15
  0
DIMSTYLE
  2
AM_ISO
 70
     0
  3

  4
"
  5

  6

  7

 40
1.0
 41
3.0
 42
1.5
 43
8.0
 44
1.5
 45
0.0
 46
0.0
 47
0.1
 48
0.1
140
3.5
141
0.0
142
0.0
143
0.0393701
144
1.0
145
0.0
146
0.6
147
1.0
 71
     0
 72
     0
 73
     0
 74
     0
 75
     0
 76
     0
 77
     1
 78
     8
170
     0
171
     2
172
     1
173
     0
174
     0
175
     0
176
   256
177
   256
178
   256
  0
DIMSTYLE
  2
AM_ISO$3
 70
     0
  3

  4
"
  5

  6

  7

 40
1.0
 41
3.0
 42
1.5
 43
8.0
 44
1.5
 45
0.0
 46
0.0
 47
0.1
 48
0.1
140
3.5
141
0.0
142
0.0
143
0.0393701
144
1.0
145
0.0
146
0.6
147
1.0
 71
     0
 72
     0
 73
     0
 74
     1
 75
     0
 76
     0
 77
     1
 78
     8
170
     0
171
     2
172
     0
173
     0
174
     0
175
     0
176
   256
177
   256
178
   256
  0
DIMSTYLE
  2
AM_ISO$4
 70
     0
  3

  4
"
  5

  6

  7

 40
1.0
 41
3.0
 42
1.5
 43
8.0
 44
1.5
 45
0.0
 46
0.0
 47
0.1
 48
0.1
140
3.5
141
0.0
142
0.0
143
0.0393701
144
1.0
145
0.0
146
0.6
147
1.0
 71
     0
 72
     0
 73
     0
 74
     1
 75
     0
 76
     0
 77
     1
 78
     8
170
     0
171
     2
172
     0
173
     0
174
     0
175
     0
176
   256
177
   256
178
   256
  0
DIMSTYLE
  2
AM_ISO$6
 70
     0
  3

  4
"
  5

  6

  7

 40
1.0
 41
3.0
 42
1.5
 43
8.0
 44
1.5
 45
0.0
 46
0.0
 47
0.1
 48
0.1
140
3.5
141
0.0
142
0.0
143
0.0393701
144
1.0
145
0.0
146
0.6
147
1.0
 71
     0
 72
     0
 73
     0
 74
     0
 75
     0
 76
     0
 77
     0
 78
     8
170
     0
171
     2
172
     1
173
     0
174
     0
175
     0
176
   256
177
   256
178
   256
  0
DIMSTYLE
  2
AM_ISO$7
 70
     0
  3

  4
"
  5

  6

  7

 40
1.0
 41
3.0
 42
1.5
 43
8.0
 44
1.5
 45
0.0
 46
0.0
 47
0.1
 48
0.1
140
5.0
141
0.0
142
0.0
143
0.0393701
144
1.0
145
0.0
146
0.6
147
1.0
 71
     0
 72
     0
 73
     0
 74
     0
 75
     0
 76
     0
 77
     1
 78
     8
170
     0
171
     2
172
     1
173
     0
174
     0
175
     0
176
   256
177
   256
178
   256
  0
DIMSTYLE
  2
AM_ISO$SF
 70
     0
  3

  4
"
  5

  6

  7

 40
1.0
 41
2.5
 42
1.0
 43
10.0
 44
1.0
 45
0.0
 46
0.0
 47
0.1
 48
0.1
140
3.5
141
0.0
142
0.0
143
0.0393701
144
1.0
145
0.0
146
0.71
147
1.5
 71
     0
 72
     0
 73
     0
 74
     0
 75
     1
 76
     1
 77
     1
 78
     8
170
     0
171
     2
172
     1
173
     0
174
     0
175
     0
176
   256
177
   256
178
     2
  0
DIMSTYLE
  2
AM_ISO$SH
 70
     0
  3

  4
"
  5

  6
GENAXEH
  7

 40
1.0
 41
2.5
 42
1.0
 43
10.0
 44
1.0
 45
0.0
 46
0.0
 47
0.1
 48
0.1
140
3.5
141
0.0
142
0.0
143
0.0393701
144
2.0
145
0.0
146
0.71
147
1.5
 71
     0
 72
     0
 73
     0
 74
     0
 75
     1
 76
     1
 77
     1
 78
     8
170
     0
171
     2
172
     1
173
     1
174
     0
175
     0
176
   256
177
   256
178
     2
  0
DIMSTYLE
  2
AM_ISO$0
 70
     0
  3

  4
"
  5

  6

  7

 40
1.0
 41
3.0
 42
1.5
 43
8.0
 44
1.5
 45
0.0
 46
0.0
 47
0.1
 48
0.1
140
3.5
141
0.0
142
0.0
143
0.0393701
144
1.0
145
0.0
146
0.6
147
1.0
 71
     0
 72
     0
 73
     0
 74
     0
 75
     0
 76
     0
 77
     1
 78
     8
170
     0
171
     2
172
     1
173
     0
174
     0
175
     0
176
   256
177
   256
178
   256
  0
DIMSTYLE
  2
STANDARD
 70
     0
  3

  4

  5

  6

  7

 40
1.0
 41
0.18
 42
0.0625
 43
0.38
 44
0.18
 45
0.0
 46
0.0
 47
0.0
 48
0.0
140
0.18
141
0.09
142
0.0
143
25.399999999999999
144
1.0
145
0.0
146
1.0
147
0.09
 71
     0
 72
     0
 73
     1
 74
     1
 75
     0
 76
     0
 77
     0
 78
     0
170
     0
171
     2
172
     0
173
     0
174
     0
175
     0
176
     0
177
     0
178
     0
  0
ENDTAB
  0
ENDSEC
  0
SECTION
  2
BLOCKS
  0
BLOCK
  8
0
  2
$MODEL_SPACE
 70
     0
 10
0.0
 20
0.0
 30
0.0
  3
$MODEL_SPACE
  1

  0
ENDBLK
  5
21
  8
0
  0
BLOCK
 67
     1
  8
0
  2
$PAPER_SPACE
 70
     0
 10
0.0
 20
0.0
 30
0.0
  3
$PAPER_SPACE
  1

  0
ENDBLK
  5
1D
 67
     1
  8
0
  0
BLOCK
  8
0
  2
GENAXEH
 70
     0
 10
0.0
 20
0.0
 30
0.0
  3
GENAXEH
  1

  0
LINE
  5
88
  8
0
 10
-1.0
 20
0.0
 30
0.0
 11
1.0
 21
0.0
 31
0.0
  0
ENDBLK
  5
8A
  8
0
  0
BLOCK
  8
0
  2
*D67
 70
     1
 10
0.0
 20
0.0
 30
0.0
  3
*D67
  1

  0
LINE
  5
7249
  8
AM_5
 10
1032.262194411094
 20
79.596037362443212
 30
0.0
 11
1078.917581547536
 21
79.596037362443198
 31
0.0
  0
LINE
  5
724A
  8
AM_5
 10
1032.262194411094
 20
98.596037362443326
 30
0.0
 11
1078.917581547536
 21
98.596037362443312
 31
0.0
  0
LINE
  5
724B
  8
AM_5
 10
1077.4175815475351
 20
82.596037362443198
 30
0.0
 11
1077.4175815475351
 21
95.596037362443326
 31
0.0
  0
SOLID
  5
724C
  8
AM_5
 10
1076.917581547536
 20
82.596037362443198
 30
0.0
 11
1077.9175815475351
 21
82.596037362443198
 31
0.0
 12
1077.4175815475351
 22
79.596037362443198
 32
0.0
 13
1077.4175815475351
 23
79.596037362443198
 33
0.0
  0
SOLID
  5
724D
  8
AM_5
 10
1076.917581547536
 20
95.596037362443326
 30
0.0
 11
1077.9175815475351
 21
95.596037362443326
 31
0.0
 12
1077.4175815475351
 22
98.596037362443312
 32
0.0
 13
1077.4175815475351
 23
98.596037362443312
 33
0.0
  0
INSERT
  5
724E
  8
0
  2
*U154
 10
0.0
 20
0.0
 30
0.0
  0
POINT
  5
724F
  8
DEFPOINTS
 62
     0
 10
1030.762194411094
 20
79.596037362443212
 30
0.0
  0
POINT
  5
7250
  8
DEFPOINTS
 62
     0
 10
1030.762194411094
 20
98.596037362443326
 30
0.0
  0
POINT
  5
7251
  8
DEFPOINTS
 62
     0
 10
1077.4175815475351
 20
98.596037362443312
 30
0.0
  0
ENDBLK
  5
7253
  8
0
  0
BLOCK
  8
0
  2
*D68
 70
     1
 10
0.0
 20
0.0
 30
0.0
  3
*D68
  1

  0
LINE
  5
7255
  8
AM_5
 10
1032.262194411094
 20
53.596037362443212
 30
0.0
 11
1070.917581547536
 21
53.596037362443198
 31
0.0
  0
LINE
  5
7256
  8
AM_5
 10
1032.262194411094
 20
79.596037362443212
 30
0.0
 11
1070.917581547536
 21
79.596037362443198
 31
0.0
  0
LINE
  5
7257
  8
AM_5
 10
1069.4175815475351
 20
56.596037362443212
 30
0.0
 11
1069.4175815475351
 21
76.596037362443198
 31
0.0
  0
SOLID
  5
7258
  8
AM_5
 10
1068.917581547536
 20
56.596037362443212
 30
0.0
 11
1069.9175815475351
 21
56.596037362443212
 31
0.0
 12
1069.4175815475351
 22
53.596037362443198
 32
0.0
 13
1069.4175815475351
 23
53.596037362443198
 33
0.0
  0
SOLID
  5
7259
  8
AM_5
 10
1068.917581547536
 20
76.596037362443198
 30
0.0
 11
1069.9175815475351
 21
76.596037362443198
 31
0.0
 12
1069.4175815475351
 22
79.596037362443198
 32
0.0
 13
1069.4175815475351
 23
79.596037362443198
 33
0.0
  0
INSERT
  5
725A
  8
0
  2
*U155
 10
0.0
 20
0.0
 30
0.0
  0
POINT
  5
725B
  8
DEFPOINTS
 62
     0
 10
1030.762194411094
 20
53.596037362443212
 30
0.0
  0
POINT
  5
725C
  8
DEFPOINTS
 62
     0
 10
1030.762194411094
 20
79.596037362443212
 30
0.0
  0
POINT
  5
725D
  8
DEFPOINTS
 62
     0
 10
1069.4175815475351
 20
79.596037362443198
 30
0.0
  0
ENDBLK
  5
725F
  8
0
  0
BLOCK
  8
0
  2
*D69
 70
     1
 10
0.0
 20
0.0
 30
0.0
  3
*D69
  1

  0
LINE
  5
7261
  8
AM_5
 10
1042.2621944110931
 20
-28.403962637556681
 30
0.0
 11
1070.917581547536
 21
-28.403962637556688
 31
0.0
  0
LINE
  5
7262
  8
AM_5
 10
1032.262194411094
 20
53.596037362443212
 30
0.0
 11
1070.917581547536
 21
53.596037362443198
 31
0.0
  0
LINE
  5
7263
  8
AM_5
 10
1069.4175815475351
 20
-25.403962637556681
 30
0.0
 11
1069.4175815475351
 21
50.596037362443198
 31
0.0
  0
SOLID
  5
7264
  8
AM_5
 10
1068.917581547536
 20
-25.403962637556681
 30
0.0
 11
1069.9175815475351
 21
-25.403962637556681
 31
0.0
 12
1069.4175815475351
 22
-28.403962637556681
 32
0.0
 13
1069.4175815475351
 23
-28.403962637556681
 33
0.0
  0
SOLID
  5
7265
  8
AM_5
 10
1068.917581547536
 20
50.596037362443198
 30
0.0
 11
1069.9175815475351
 21
50.596037362443198
 31
0.0
 12
1069.4175815475351
 22
53.596037362443198
 32
0.0
 13
1069.4175815475351
 23
53.596037362443198
 33
0.0
  0
INSERT
  5
7266
  8
0
  2
*U156
 10
0.0
 20
0.0
 30
0.0
  0
POINT
  5
7267
  8
DEFPOINTS
 62
     0
 10
1040.7621944110931
 20
-28.403962637556681
 30
0.0
  0
POINT
  5
7268
  8
DEFPOINTS
 62
     0
 10
1030.762194411094
 20
53.596037362443212
 30
0.0
  0
POINT
  5
7269
  8
DEFPOINTS
 62
     0
 10
1069.4175815475351
 20
53.596037362443198
 30
0.0
  0
ENDBLK
  5
726B
  8
0
  0
BLOCK
  8
0
  2
*D70
 70
     1
 10
0.0
 20
0.0
 30
0.0
  3
*D70
  1

  0
LINE
  5
726D
  8
AM_5
 10
1541.799410400062
 20
-13.483391214324399
 30
0.0
 11
1541.799410400062
 21
-0.6505651670573798
 31
0.0
  0
LINE
  5
726E
  8
AM_5
 10
1560.799410400062
 20
-7.9833912143243992
 30
0.0
 11
1560.799410400062
 21
-0.6505651670573798
 31
0.0
  0
LINE
  5
726F
  8
AM_5
 10
1544.7994104000629
 20
-2.1505651670573789
 30
0.0
 11
1557.799410400062
 21
-2.1505651670573789
 31
0.0
  0
SOLID
  5
7270
  8
AM_5
 10
1544.7994104000629
 20
-1.6505651670573791
 30
0.0
 11
1544.7994104000629
 21
-2.6505651670573789
 31
0.0
 12
1541.799410400062
 22
-2.1505651670573789
 32
0.0
 13
1541.799410400062
 23
-2.1505651670573789
 33
0.0
  0
SOLID
  5
7271
  8
AM_5
 10
1557.799410400062
 20
-1.6505651670573791
 30
0.0
 11
1557.799410400062
 21
-2.6505651670573789
 31
0.0
 12
1560.799410400062
 22
-2.1505651670573789
 32
0.0
 13
1560.799410400062
 23
-2.1505651670573789
 33
0.0
  0
INSERT
  5
7272
  8
0
  2
*U157
 10
0.0
 20
0.0
 30
0.0
  0
POINT
  5
7273
  8
DEFPOINTS
 62
     0
 10
1541.799410400062
 20
-14.983391214324399
 30
0.0
  0
POINT
  5
7274
  8
DEFPOINTS
 62
     0
 10
1560.799410400062
 20
-9.4833912143243992
 30
0.0
  0
POINT
  5
7275
  8
DEFPOINTS
 62
     0
 10
1560.799410400062
 20
-2.1505651670573789
 30
0.0
  0
ENDBLK
  5
7277
  8
0
  0
BLOCK
  8
0
  2
*D71
 70
     1
 10
0.0
 20
0.0
 30
0.0
  3
*D71
  1

  0
LINE
  5
786C
  8
UMCL2
  6
CONTINUOUS
 62
     0
 10
1044.2621944110931
 20
49.596037362443212
 30
0.0
 11
1054.417581547536
 21
49.596037362443212
 31
0.0
  0
LINE
  5
786D
  8
UMCL2
  6
CONTINUOUS
 62
     0
 10
1044.2621944110931
 20
27.596037362443269
 30
0.0
 11
1054.417581547536
 21
27.596037362443269
 31
0.0
  0
LINE
  5
786E
  8
UMCL2
  6
CONTINUOUS
 62
     0
 10
1053.4175815475351
 20
46.596037362443212
 30
0.0
 11
1053.4175815475351
 21
30.596037362443269
 31
0.0
  0
SOLID
  5
786F
  8
UMCL2
  6
CONTINUOUS
 62
     0
 10
1052.917581547536
 20
46.596037362443212
 30
0.0
 11
1053.917581547536
 21
46.596037362443212
 31
0.0
 12
1053.4175815475351
 22
49.596037362443212
 32
0.0
 13
1053.4175815475351
 23
49.596037362443212
 33
0.0
  0
SOLID
  5
7870
  8
UMCL2
  6
CONTINUOUS
 62
     0
 10
1052.917581547536
 20
30.596037362443269
 30
0.0
 11
1053.917581547536
 21
30.596037362443269
 31
0.0
 12
1053.4175815475351
 22
27.596037362443269
 32
0.0
 13
1053.4175815475351
 23
27.596037362443269
 33
0.0
  0
TEXT
  8
UMCL2
  40
3
  5
792E
  62
0
  72
0
  71
0
 10
1044.92
 20
33.2860
 30
0.000000
  1
22
  7
ROMANS
  0
POINT
  5
7872
  8
DEFPOINTS
  6
CONTINUOUS
 62
     0
 10
1043.2621944110931
 20
49.596037362443212
 30
0.0
  0
POINT
  5
7873
  8
DEFPOINTS
  6
CONTINUOUS
 62
     0
 10
1043.2621944110931
 20
27.596037362443269
 30
0.0
  0
POINT
  5
7874
  8
DEFPOINTS
  6
CONTINUOUS
 62
     0
 10
1053.4175815475351
 20
27.596037362443269
 30
0.0
  0
ENDBLK
  5
7283
  8
0
  0
BLOCK
  8
0
  2
*D72
 70
     1
 10
0.0
 20
0.0
 30
0.0
  3
*D72
  1

  0
LINE
  5
7875
  8
UMCL2
  6
CONTINUOUS
 62
     0
 10
1044.2621944110931
 20
49.596037362443212
 30
0.0
 11
1062.417581547536
 21
49.596037362443212
 31
0.0
  0
LINE
  5
7876
  8
UMCL2
  6
CONTINUOUS
 62
     0
 10
1041.7621944110931
 20
-28.403962637556791
 30
0.0
 11
1062.417581547536
 21
-28.403962637556791
 31
0.0
  0
LINE
  5
7877
  8
UMCL2
  6
CONTINUOUS
 62
     0
 10
1061.4175815475351
 20
46.596037362443212
 30
0.0
 11
1061.4175815475351
 21
-25.403962637556791
 31
0.0
  0
SOLID
  5
7878
  8
UMCL2
  6
CONTINUOUS
 62
     0
 10
1060.917581547536
 20
46.596037362443212
 30
0.0
 11
1061.9175815475351
 21
46.596037362443212
 31
0.0
 12
1061.4175815475351
 22
49.596037362443212
 32
0.0
 13
1061.4175815475351
 23
49.596037362443212
 33
0.0
  0
SOLID
  5
7879
  8
UMCL2
  6
CONTINUOUS
 62
     0
 10
1060.917581547536
 20
-25.403962637556791
 30
0.0
 11
1061.9175815475351
 21
-25.403962637556791
 31
0.0
 12
1061.4175815475351
 22
-28.403962637556791
 32
0.0
 13
1061.4175815475351
 23
-28.403962637556791
 33
0.0
  0
TEXT
  8
UMCL2
  40
3
  5
792F
  62
0
  72
0
  71
0
 10
1052.92
 20
5.28604
 30
0.000000
  1
78
  7
ROMANS
  0
POINT
  5
787B
  8
DEFPOINTS
  6
CONTINUOUS
 62
     0
 10
1043.2621944110931
 20
49.596037362443212
 30
0.0
  0
POINT
  5
787C
  8
DEFPOINTS
  6
CONTINUOUS
 62
     0
 10
1040.7621944110931
 20
-28.403962637556791
 30
0.0
  0
POINT
  5
787D
  8
DEFPOINTS
  6
CONTINUOUS
 62
     0
 10
1061.4175815475351
 20
-28.403962637556791
 30
0.0
  0
ENDBLK
  5
728F
  8
0
  0
BLOCK
  8
0
  2
*D73
 70
     1
 10
0.0
 20
0.0
 30
0.0
  3
*D73
  1

  0
LINE
  5
787E
  8
UMCL2
  6
CONTINUOUS
 62
     0
 10
1041.7621944110931
 20
-28.403962637556681
 30
0.0
 11
1078.417581547536
 21
-28.403962637556688
 31
0.0
  0
LINE
  5
787F
  8
UMCL2
  6
CONTINUOUS
 62
     0
 10
1031.762194411094
 20
79.596037362443212
 30
0.0
 11
1078.417581547536
 21
79.596037362443198
 31
0.0
  0
LINE
  5
7880
  8
UMCL2
  6
CONTINUOUS
 62
     0
 10
1077.4175815475351
 20
-25.403962637556688
 30
0.0
 11
1077.4175815475351
 21
76.596037362443198
 31
0.0
  0
SOLID
  5
7881
  8
UMCL2
  6
CONTINUOUS
 62
     0
 10
1076.917581547536
 20
-25.403962637556688
 30
0.0
 11
1077.9175815475351
 21
-25.403962637556688
 31
0.0
 12
1077.4175815475351
 22
-28.403962637556688
 32
0.0
 13
1077.4175815475351
 23
-28.403962637556688
 33
0.0
  0
SOLID
  5
7882
  8
UMCL2
  6
CONTINUOUS
 62
     0
 10
1076.917581547536
 20
76.596037362443198
 30
0.0
 11
1077.9175815475351
 21
76.596037362443198
 31
0.0
 12
1077.4175815475351
 22
79.596037362443198
 32
0.0
 13
1077.4175815475351
 23
79.596037362443198
 33
0.0
  0
TEXT
  8
UMCL2
  40
3
  5
7930
  62
0
  72
0
  71
0
 10
1068.92
 20
20.2860
 30
0.000000
  1
108
  7
ROMANS
  0
POINT
  5
7884
  8
DEFPOINTS
  6
CONTINUOUS
 62
     0
 10
1040.7621944110931
 20
-28.403962637556681
 30
0.0
  0
POINT
  5
7885
  8
DEFPOINTS
  6
CONTINUOUS
 62
     0
 10
1030.762194411094
 20
79.596037362443212
 30
0.0
  0
POINT
  5
7886
  8
DEFPOINTS
  6
CONTINUOUS
 62
     0
 10
1077.4175815475351
 20
79.596037362443198
 30
0.0
  0
ENDBLK
  5
729B
  8
0
  0
BLOCK
  8
0
  2
*D74
 70
     1
 10
0.0
 20
0.0
 30
0.0
  3
*D74
  1

  0
LINE
  5
7887
  8
UMCL2
  6
CONTINUOUS
 62
     0
 10
1041.7621944110931
 20
-28.403962637556681
 30
0.0
 11
1086.417581547536
 21
-28.403962637556688
 31
0.0
  0
LINE
  5
7888
  8
UMCL2
  6
CONTINUOUS
 62
     0
 10
1025.762194411094
 20
101.0960373624434
 30
0.0
 11
1086.417581547536
 21
101.0960373624434
 31
0.0
  0
LINE
  5
7889
  8
UMCL2
  6
CONTINUOUS
 62
     0
 10
1085.4175815475351
 20
-25.403962637556688
 30
0.0
 11
1085.4175815475351
 21
98.096037362443425
 31
0.0
  0
SOLID
  5
788A
  8
UMCL2
  6
CONTINUOUS
 62
     0
 10
1084.917581547536
 20
-25.403962637556688
 30
0.0
 11
1085.9175815475351
 21
-25.403962637556688
 31
0.0
 12
1085.4175815475351
 22
-28.403962637556688
 32
0.0
 13
1085.4175815475351
 23
-28.403962637556688
 33
0.0
  0
SOLID
  5
788B
  8
UMCL2
  6
CONTINUOUS
 62
     0
 10
1084.917581547536
 20
98.096037362443425
 30
0.0
 11
1085.9175815475351
 21
98.096037362443425
 31
0.0
 12
1085.4175815475351
 22
101.0960373624434
 32
0.0
 13
1085.4175815475351
 23
101.0960373624434
 33
0.0
  0
TEXT
  8
UMCL2
  40
3
  5
7931
  62
0
  72
0
  71
0
 10
1076.92
 20
31.0360
 30
0.000000
  1
129.5
  7
ROMANS
  0
POINT
  5
788D
  8
DEFPOINTS
  6
CONTINUOUS
 62
     0
 10
1040.7621944110931
 20
-28.403962637556681
 30
0.0
  0
POINT
  5
788E
  8
DEFPOINTS
  6
CONTINUOUS
 62
     0
 10
1024.762194411094
 20
101.0960373624434
 30
0.0
  0
POINT
  5
788F
  8
DEFPOINTS
  6
CONTINUOUS
 62
     0
 10
1085.4175815475351
 20
101.0960373624434
 30
0.0
  0
ENDBLK
  5
72A7
  8
0
  0
BLOCK
  8
0
  2
*D75
 70
     1
 10
0.0
 20
0.0
 30
0.0
  3
*D75
  1

  0
LINE
  5
7890
  8
UMCL2
  6
CONTINUOUS
 62
     0
 10
1002.762194411094
 20
-30.903962637556681
 30
0.0
 11
1002.762194411094
 21
-41.547302161271261
 31
0.0
  0
LINE
  5
7891
  8
UMCL2
  6
CONTINUOUS
 62
     0
 10
1034.762194411094
 20
-30.903962637556681
 30
0.0
 11
1034.762194411094
 21
-41.547302161271261
 31
0.0
  0
LINE
  5
7892
  8
UMCL2
  6
CONTINUOUS
 62
     0
 10
1005.762194411094
 20
-40.547302161271261
 30
0.0
 11
1031.7621944110931
 21
-40.547302161271261
 31
0.0
  0
SOLID
  5
7893
  8
UMCL2
  6
CONTINUOUS
 62
     0
 10
1005.762194411094
 20
-40.047302161271261
 30
0.0
 11
1005.762194411094
 21
-41.047302161271247
 31
0.0
 12
1002.762194411094
 22
-40.547302161271261
 32
0.0
 13
1002.762194411094
 23
-40.547302161271261
 33
0.0
  0
SOLID
  5
7894
  8
UMCL2
  6
CONTINUOUS
 62
     0
 10
1031.7621944110931
 20
-40.047302161271261
 30
0.0
 11
1031.7621944110931
 21
-41.047302161271247
 31
0.0
 12
1034.762194411094
 22
-40.547302161271261
 32
0.0
 13
1034.762194411094
 23
-40.547302161271261
 33
0.0
  0
TEXT
  8
UMCL2
  40
3
  5
7932
  62
0
  72
0
  71
0
 10
1012.76
 20
-43.3573
 30
0.000000
  1
32
  7
ROMANS
  0
POINT
  5
7896
  8
DEFPOINTS
  6
CONTINUOUS
 62
     0
 10
1002.762194411094
 20
-29.903962637556681
 30
0.0
  0
POINT
  5
7897
  8
DEFPOINTS
  6
CONTINUOUS
 62
     0
 10
1034.762194411094
 20
-29.903962637556681
 30
0.0
  0
POINT
  5
7898
  8
DEFPOINTS
  6
CONTINUOUS
 62
     0
 10
1034.762194411094
 20
-40.547302161271261
 30
0.0
  0
ENDBLK
  5
72B3
  8
0
  0
BLOCK
  8
0
  2
*D76
 70
     1
 10
0.0
 20
0.0
 30
0.0
  3
*D76
  1

  0
LINE
  5
7899
  8
UMCL2
  6
CONTINUOUS
 62
     0
 10
995.76219441109379
 20
-28.403962637556791
 30
0.0
 11
995.76219441109379
 21
-47.547302161271261
 31
0.0
  0
LINE
  5
789A
  8
UMCL2
  6
CONTINUOUS
 62
     0
 10
1041.7621944110931
 20
-28.403962637556681
 30
0.0
 11
1041.7621944110931
 21
-47.547302161271261
 31
0.0
  0
LINE
  5
789B
  8
UMCL2
  6
CONTINUOUS
 62
     0
 10
998.76219441109367
 20
-46.547302161271261
 30
0.0
 11
1038.7621944110931
 21
-46.547302161271261
 31
0.0
  0
SOLID
  5
789C
  8
UMCL2
  6
CONTINUOUS
 62
     0
 10
998.76219441109367
 20
-46.047302161271247
 30
0.0
 11
998.76219441109367
 21
-47.047302161271261
 31
0.0
 12
995.76219441109379
 22
-46.547302161271261
 32
0.0
 13
995.76219441109379
 23
-46.547302161271261
 33
0.0
  0
SOLID
  5
789D
  8
UMCL2
  6
CONTINUOUS
 62
     0
 10
1038.7621944110931
 20
-46.047302161271247
 30
0.0
 11
1038.7621944110931
 21
-47.047302161271261
 31
0.0
 12
1041.7621944110931
 22
-46.547302161271261
 32
0.0
 13
1041.7621944110931
 23
-46.547302161271261
 33
0.0
  0
TEXT
  8
UMCL2
  40
3
  5
7933
  62
0
  72
0
  71
0
 10
1012.76
 20
-49.3573
 30
0.000000
  1
%%C46
  7
ROMANS
  0
POINT
  5
789F
  8
DEFPOINTS
  6
CONTINUOUS
 62
     0
 10
995.76219441109379
 20
-27.403962637556791
 30
0.0
  0
POINT
  5
78A0
  8
DEFPOINTS
  6
CONTINUOUS
 62
     0
 10
1041.7621944110931
 20
-27.403962637556681
 30
0.0
  0
POINT
  5
78A1
  8
DEFPOINTS
  6
CONTINUOUS
 62
     0
 10
1041.7621944110931
 20
-46.547302161271261
 30
0.0
  0
ENDBLK
  5
72BF
  8
0
  0
BLOCK
  8
0
  2
*D77
 70
     1
 10
0.0
 20
0.0
 30
0.0
  3
*D77
  1

  0
LINE
  5
7313
  8
AM_5
 10
1043.2544092174589
 20
131.00639036309531
 30
0.0
 11
1049.6381076717721
 21
122.4717552677552
 31
0.0
  0
LINE
  5
7314
  8
AM_5
 10
1049.6381076717721
 20
122.4717552677552
 30
0.0
 11
1082.1746781053939
 21
122.4717552677552
 31
0.0
  0
SOLID
  5
7315
  8
AM_5
 10
1043.6547979515301
 20
131.30587135018641
 30
0.0
 11
1042.854020483388
 21
130.70690937600449
 31
0.0
 12
1041.457523294913
 22
133.40872276752179
 32
0.0
 13
1041.457523294913
 23
133.40872276752179
 33
0.0
  0
INSERT
  5
7316
  8
0
  2
*U164
 10
0.0
 20
0.0
 30
0.0
  0
POINT
  5
7317
  8
DEFPOINTS
 62
     0
 10
1041.457523294913
 20
133.40872276752179
 30
0.0
  0
POINT
  5
7318
  8
DEFPOINTS
 62
     0
 10
1036.0668655272759
 20
140.61571998080009
 30
0.0
  0
ENDBLK
  5
72C8
  8
0
  0
BLOCK
  8
0
  2
*D78
 70
     1
 10
0.0
 20
0.0
 30
0.0
  3
*D78
  1

  0
LINE
  5
72CA
  8
AM_5
 10
1032.262194411094
 20
147.5122213741613
 30
0.0
 11
1057.357411268277
 21
147.5122213741613
 31
0.0
  0
LINE
  5
72CB
  8
AM_5
 10
1032.262194411094
 20
166.5122213741613
 30
0.0
 11
1057.357411268277
 21
166.5122213741613
 31
0.0
  0
LINE
  5
72CC
  8
AM_5
 10
1055.857411268277
 20
150.5122213741613
 30
0.0
 11
1055.857411268277
 21
163.5122213741613
 31
0.0
  0
SOLID
  5
72CD
  8
AM_5
 10
1055.357411268277
 20
150.5122213741613
 30
0.0
 11
1056.357411268277
 21
150.5122213741613
 31
0.0
 12
1055.857411268277
 22
147.5122213741613
 32
0.0
 13
1055.857411268277
 23
147.5122213741613
 33
0.0
  0
SOLID
  5
72CE
  8
AM_5
 10
1055.357411268277
 20
163.5122213741613
 30
0.0
 11
1056.357411268277
 21
163.5122213741613
 31
0.0
 12
1055.857411268277
 22
166.5122213741613
 32
0.0
 13
1055.857411268277
 23
166.5122213741613
 33
0.0
  0
INSERT
  5
72CF
  8
0
  2
*U158
 10
0.0
 20
0.0
 30
0.0
  0
POINT
  5
72D0
  8
DEFPOINTS
 62
     0
 10
1030.762194411094
 20
147.5122213741613
 30
0.0
  0
POINT
  5
72D1
  8
DEFPOINTS
 62
     0
 10
1030.762194411094
 20
166.5122213741613
 30
0.0
  0
POINT
  5
72D2
  8
DEFPOINTS
 62
     0
 10
1055.857411268277
 20
166.5122213741613
 30
0.0
  0
ENDBLK
  5
72D4
  8
0
  0
BLOCK
  8
0
  2
*D79
 70
     1
 10
0.0
 20
0.0
 30
0.0
  3
*D79
  1

  0
LINE
  5
72D6
  8
AM_5
 10
1046.062194411094
 20
177.01222137416141
 30
0.0
 11
1065.357411268277
 21
177.01222137416141
 31
0.0
  0
LINE
  5
72D7
  8
AM_5
 10
1046.062194411094
 20
137.0122213741615
 30
0.0
 11
1065.357411268277
 21
137.0122213741615
 31
0.0
  0
LINE
  5
72D8
  8
AM_5
 10
1063.857411268277
 20
174.01222137416141
 30
0.0
 11
1063.857411268277
 21
140.0122213741615
 31
0.0
  0
SOLID
  5
72D9
  8
AM_5
 10
1063.357411268277
 20
174.01222137416141
 30
0.0
 11
1064.357411268277
 21
174.01222137416141
 31
0.0
 12
1063.857411268277
 22
177.01222137416141
 32
0.0
 13
1063.857411268277
 23
177.01222137416141
 33
0.0
  0
SOLID
  5
72DA
  8
AM_5
 10
1063.357411268277
 20
140.0122213741615
 30
0.0
 11
1064.357411268277
 21
140.0122213741615
 31
0.0
 12
1063.857411268277
 22
137.0122213741615
 32
0.0
 13
1063.857411268277
 23
137.0122213741615
 33
0.0
  0
INSERT
  5
72DB
  8
0
  2
*U159
 10
0.0
 20
0.0
 30
0.0
  0
POINT
  5
72DC
  8
DEFPOINTS
 62
     0
 10
1044.562194411094
 20
177.01222137416141
 30
0.0
  0
POINT
  5
72DD
  8
DEFPOINTS
 62
     0
 10
1044.562194411094
 20
137.0122213741615
 30
0.0
  0
POINT
  5
72DE
  8
DEFPOINTS
 62
     0
 10
1063.857411268277
 20
137.0122213741615
 30
0.0
  0
ENDBLK
  5
72E0
  8
0
  0
BLOCK
  8
0
  2
*D80
 70
     1
 10
0.0
 20
0.0
 30
0.0
  3
*D80
  1

  0
LINE
  5
72E2
  8
AM_5
 10
1042.1839302000319
 20
132.0122213741615
 30
0.0
 11
1073.357411268277
 21
132.0122213741615
 31
0.0
  0
LINE
  5
72E3
  8
AM_5
 10
1042.1839302000319
 20
182.0122213741615
 30
0.0
 11
1073.357411268277
 21
182.0122213741615
 31
0.0
  0
LINE
  5
72E4
  8
AM_5
 10
1071.857411268277
 20
135.0122213741615
 30
0.0
 11
1071.857411268277
 21
179.0122213741615
 31
0.0
  0
SOLID
  5
72E5
  8
AM_5
 10
1071.357411268277
 20
135.0122213741615
 30
0.0
 11
1072.357411268277
 21
135.0122213741615
 31
0.0
 12
1071.857411268277
 22
132.0122213741615
 32
0.0
 13
1071.857411268277
 23
132.0122213741615
 33
0.0
  0
SOLID
  5
72E6
  8
AM_5
 10
1071.357411268277
 20
179.0122213741615
 30
0.0
 11
1072.357411268277
 21
179.0122213741615
 31
0.0
 12
1071.857411268277
 22
182.0122213741615
 32
0.0
 13
1071.857411268277
 23
182.0122213741615
 33
0.0
  0
INSERT
  5
72E7
  8
0
  2
*U160
 10
0.0
 20
0.0
 30
0.0
  0
POINT
  5
72E8
  8
DEFPOINTS
 62
     0
 10
1040.6839302000319
 20
132.0122213741615
 30
0.0
  0
POINT
  5
72E9
  8
DEFPOINTS
 62
     0
 10
1040.6839302000319
 20
182.0122213741615
 30
0.0
  0
POINT
  5
72EA
  8
DEFPOINTS
 62
     0
 10
1071.857411268277
 20
182.0122213741615
 30
0.0
  0
ENDBLK
  5
72EC
  8
0
  0
BLOCK
  8
0
  2
*D81
 70
     1
 10
0.0
 20
0.0
 30
0.0
  3
*D81
  1

  0
LINE
  5
72EE
  8
AM_5
 10
960.76219441109401
 20
100.0960373624435
 30
0.0
 11
960.76219441109401
 21
115.7894956572966
 31
0.0
  0
LINE
  5
72EF
  8
AM_5
 10
1030.762194411094
 20
100.0960373624433
 30
0.0
 11
1030.762194411094
 21
115.7894956572966
 31
0.0
  0
LINE
  5
72F0
  8
AM_5
 10
963.7621944110939
 20
114.2894956572966
 30
0.0
 11
1027.762194411094
 21
114.2894956572966
 31
0.0
  0
SOLID
  5
72F1
  8
AM_5
 10
963.7621944110939
 20
114.7894956572966
 30
0.0
 11
963.7621944110939
 21
113.7894956572966
 31
0.0
 12
960.76219441109401
 22
114.2894956572966
 32
0.0
 13
960.76219441109401
 23
114.2894956572966
 33
0.0
  0
SOLID
  5
72F2
  8
AM_5
 10
1027.762194411094
 20
114.7894956572966
 30
0.0
 11
1027.762194411094
 21
113.7894956572966
 31
0.0
 12
1030.762194411094
 22
114.2894956572966
 32
0.0
 13
1030.762194411094
 23
114.2894956572966
 33
0.0
  0
INSERT
  5
72F3
  8
0
  2
*U161
 10
0.0
 20
0.0
 30
0.0
  0
POINT
  5
72F4
  8
DEFPOINTS
 62
     0
 10
960.76219441109401
 20
98.596037362443553
 30
0.0
  0
POINT
  5
72F5
  8
DEFPOINTS
 62
     0
 10
1030.762194411094
 20
98.596037362443326
 30
0.0
  0
POINT
  5
72F6
  8
DEFPOINTS
 62
     0
 10
1030.762194411094
 20
114.2894956572966
 30
0.0
  0
ENDBLK
  5
72F8
  8
0
  0
BLOCK
  8
0
  2
*D82
 70
     1
 10
0.0
 20
0.0
 30
0.0
  3
*D82
  1

  0
LINE
  5
72FA
  8
AM_5
 10
1018.762194411094
 20
105.0575099068438
 30
0.0
 11
1018.762194411094
 21
109.7894956572968
 31
0.0
  0
LINE
  5
72FB
  8
AM_5
 10
968.76219441109401
 20
102.2200910169442
 30
0.0
 11
968.76219441109401
 21
109.7894956572968
 31
0.0
  0
LINE
  5
72FC
  8
AM_5
 10
1015.762194411094
 20
108.2894956572968
 30
0.0
 11
971.7621944110939
 21
108.2894956572968
 31
0.0
  0
SOLID
  5
72FD
  8
AM_5
 10
1015.762194411094
 20
108.7894956572968
 30
0.0
 11
1015.762194411094
 21
107.7894956572968
 31
0.0
 12
1018.762194411094
 22
108.2894956572968
 32
0.0
 13
1018.762194411094
 23
108.2894956572968
 33
0.0
  0
SOLID
  5
72FE
  8
AM_5
 10
971.7621944110939
 20
108.7894956572968
 30
0.0
 11
971.7621944110939
 21
107.7894956572968
 31
0.0
 12
968.76219441109401
 22
108.2894956572968
 32
0.0
 13
968.76219441109401
 23
108.2894956572968
 33
0.0
  0
INSERT
  5
72FF
  8
0
  2
*U162
 10
0.0
 20
0.0
 30
0.0
  0
POINT
  5
7300
  8
DEFPOINTS
 62
     0
 10
1018.762194411094
 20
103.5575099068438
 30
0.0
  0
POINT
  5
7301
  8
DEFPOINTS
 62
     0
 10
968.76219441109401
 20
100.7200910169442
 30
0.0
  0
POINT
  5
7302
  8
DEFPOINTS
 62
     0
 10
968.76219441109401
 20
108.2894956572968
 30
0.0
  0
ENDBLK
  5
7304
  8
0
  0
BLOCK
  8
0
  2
*D83
 70
     1
 10
0.0
 20
0.0
 30
0.0
  3
*D83
  1

  0
LINE
  5
7306
  8
AM_5
 10
968.76219441109401
 20
102.2200910169442
 30
0.0
 11
968.76219441109401
 21
109.7894956572968
 31
0.0
  0
LINE
  5
7307
  8
AM_5
 10
960.76219441109401
 20
101.0960373624435
 30
0.0
 11
960.76219441109401
 21
109.7894956572968
 31
0.0
  0
LINE
  5
7308
  8
AM_5
 10
971.7621944110939
 20
108.2894956572968
 30
0.0
 11
974.76219441109413
 21
108.2894956572968
 31
0.0
  0
LINE
  5
7309
  8
AM_5
 10
957.76219441109413
 20
108.2894956572968
 30
0.0
 11
954.76219441109401
 21
108.2894956572968
 31
0.0
  0
LINE
  5
730A
  8
AM_5
 10
968.76219441109401
 20
108.2894956572968
 30
0.0
 11
960.76219441109401
 21
108.2894956572968
 31
0.0
  0
SOLID
  5
730B
  8
AM_5
 10
971.7621944110939
 20
108.7894956572968
 30
0.0
 11
971.7621944110939
 21
107.7894956572968
 31
0.0
 12
968.76219441109401
 22
108.2894956572968
 32
0.0
 13
968.76219441109401
 23
108.2894956572968
 33
0.0
  0
SOLID
  5
730C
  8
AM_5
 10
957.76219441109413
 20
108.7894956572968
 30
0.0
 11
957.76219441109413
 21
107.7894956572968
 31
0.0
 12
960.76219441109401
 22
108.2894956572968
 32
0.0
 13
960.76219441109401
 23
108.2894956572968
 33
0.0
  0
INSERT
  5
730D
  8
0
  2
*U163
 10
0.0
 20
0.0
 30
0.0
  0
POINT
  5
730E
  8
DEFPOINTS
 62
     0
 10
968.76219441109401
 20
100.7200910169442
 30
0.0
  0
POINT
  5
730F
  8
DEFPOINTS
 62
     0
 10
960.76219441109401
 20
99.596037362443553
 30
0.0
  0
POINT
  5
7310
  8
DEFPOINTS
 62
     0
 10
960.76219441109401
 20
108.2894956572968
 30
0.0
  0
ENDBLK
  5
7312
  8
0
  0
BLOCK
  8
0
  2
*U85
 70
     1
 10
0.0
 20
0.0
 30
0.0
  3
*U85
  1

  0
TEXT
  5
7705
  8
AM_5
 10
1783.575339909027
 20
33.960355467771478
 30
0.0
 40
3.5
  1
32
  7
ROMANS
  0
ENDBLK
  5
7707
  8
0
  0
BLOCK
  8
0
  2
*U86
 70
     1
 10
0.0
 20
0.0
 30
0.0
  3
*U86
  1

  0
TEXT
  5
7709
  8
AM_5
 10
1612.149649104311
 20
74.554358269376735
 30
0.0
 40
3.5
  1
32
  7
ROMANS
  0
ENDBLK
  5
770B
  8
0
  0
BLOCK
  8
0
  2
*U87
 70
     1
 10
0.0
 20
0.0
 30
0.0
  3
*U87
  1

  0
TEXT
  5
770D
  8
AM_5
 10
1598.037971680686
 20
99.828880490472784
 30
0.0
 40
3.5
  1
\U+220578
  7
ROMANS
  0
ENDBLK
  5
770F
  8
0
  0
BLOCK
  8
0
  2
*U88
 70
     1
 10
0.0
 20
0.0
 30
0.0
  3
*U88
  1

  0
TEXT
  5
7711
  8
AM_5
 10
1664.6227181191621
 20
52.313958456838883
 30
0.0
 40
3.5
  1
25
 50
90.0
  7
ROMANS
  0
ENDBLK
  5
7713
  8
0
  0
BLOCK
  8
0
  2
*U89
 70
     1
 10
0.0
 20
0.0
 30
0.0
  3
*U89
  1

  0
TEXT
  5
7715
  8
AM_5
 10
1672.6227181191621
 20
84.813958456838904
 30
0.0
 40
3.5
  1
90
 50
90.0
  7
ROMANS
  0
ENDBLK
  5
7717
  8
0
  0
BLOCK
  8
0
  2
*U90
 70
     1
 10
0.0
 20
0.0
 30
0.0
  3
*U90
  1

  0
TEXT
  5
7719
  8
AM_5
 10
1680.6227181191621
 20
99.813958456838776
 30
0.0
 40
3.5
  1
124
 50
90.0
  7
ROMANS
  0
ENDBLK
  5
771B
  8
0
  0
BLOCK
  8
0
  2
*U91
 70
     1
 10
0.0
 20
0.0
 30
0.0
  3
*U91
  1

  0
TEXT
  5
771D
  8
AM_5
 10
1672.6227181191621
 20
143.93062512350531
 30
0.0
 40
3.5
  1
25.4
 50
90.0
  7
ROMANS
  0
ENDBLK
  5
771F
  8
0
  0
BLOCK
  8
0
  2
*U92
 70
     1
 10
0.0
 20
0.0
 30
0.0
  3
*U92
  1

  0
TEXT
  5
7721
  8
AM_5
 10
1680.6227181191621
 20
173.93062512350531
 30
0.0
 40
3.5
  1
25.4
 50
90.0
  7
ROMANS
  0
ENDBLK
  5
7723
  8
0
  0
BLOCK
  8
0
  2
*U93
 70
     1
 10
0.0
 20
0.0
 30
0.0
  3
*U93
  1

  0
TEXT
  5
7725
  8
AM_5
 10
1688.6227181191621
 20
111.51395845683891
 30
0.0
 40
3.5
  1
152.4
 50
90.0
  7
ROMANS
  0
ENDBLK
  5
7727
  8
0
  0
BLOCK
  8
0
  2
*U94
 70
     1
 10
0.0
 20
0.0
 30
0.0
  3
*U94
  1

  0
TEXT
  5
7729
  8
AM_5
 10
1530.039384785829
 20
203.4962523123115
 30
0.0
 40
3.5
  1
10
  7
ROMANS
  0
ENDBLK
  5
772B
  8
0
  0
BLOCK
  8
0
  2
*U95
 70
     1
 10
0.0
 20
0.0
 30
0.0
  3
*U95
  1

  0
TEXT
  5
772D
  8
AM_5
 10
1570.2893847858279
 20
203.4962523123115
 30
0.0
 40
3.5
  1
70
  7
ROMANS
  0
ENDBLK
  5
772F
  8
0
  0
BLOCK
  8
0
  2
*U96
 70
     1
 10
0.0
 20
0.0
 30
0.0
  3
*U96
  1

  0
TEXT
  5
7731
  8
AM_5
 10
1572.789384785829
 20
211.4962523123115
 30
0.0
 40
3.5
  1
95
  7
ROMANS
  0
ENDBLK
  5
7733
  8
0
  0
BLOCK
  8
0
  2
*U97
 70
     1
 10
0.0
 20
0.0
 30
0.0
  3
*U97
  1

  0
TEXT
  5
7735
  8
AM_5
 10
1661.1227181191609
 20
262.29877057233909
 30
0.0
 40
3.5
  1
25.4
 50
90.0
  7
ROMANS
  0
ENDBLK
  5
7737
  8
0
  0
BLOCK
  8
0
  2
*U98
 70
     1
 10
0.0
 20
0.0
 30
0.0
  3
*U98
  1

  0
TEXT
  5
7739
  8
AM_5
 10
1669.1227181191621
 20
264.88210390567241
 30
0.0
 40
3.5
  1
32
 50
90.0
  7
ROMANS
  0
ENDBLK
  5
773B
  8
0
  0
BLOCK
  8
0
  2
*U99
 70
     1
 10
0.0
 20
0.0
 30
0.0
  3
*U99
  1

  0
TEXT
  5
773D
  8
AM_5
 10
1677.1227181191609
 20
262.8821039056723
 30
0.0
 40
3.5
  1
o
 50
90.0
  7
ROMANS
  0
TEXT
  5
773E
  8
AM_5
 10
1677.1227181191609
 20
267.04877057233892
 30
0.0
 40
3.5
  1
67
 50
90.0
  7
ROMANS
  0
ENDBLK
  5
7740
  8
0
  0
BLOCK
  8
0
  2
*U100
 70
     1
 10
0.0
 20
0.0
 30
0.0
  3
*U100
  1

  0
TEXT
  5
7742
  8
AM_5
 10
1685.1227181191621
 20
262.88210390567241
 30
0.0
 40
3.5
  1
o
 50
90.0
  7
ROMANS
  0
TEXT
  5
7743
  8
AM_5
 10
1685.1227181191621
 20
267.04877057233898
 30
0.0
 40
3.5
  1
83
 50
90.0
  7
ROMANS
  0
ENDBLK
  5
7745
  8
0
  0
BLOCK
  8
0
  2
*U101
 70
     1
 10
0.0
 20
0.0
 30
0.0
  3
*U101
  1

  0
TEXT
  5
7747
  8
AM_5
 10
1634.6227181191621
 20
33.31395845683862
 30
0.0
 40
3.5
  1
O-ring:P-09
  7
ROMANS
  0
ENDBLK
  5
7749
  8
0
  0
BLOCK
  8
0
  2
*U102
 70
     1
 10
0.0
 20
0.0
 30
0.0
  3
*U102
  1

  0
TEXT
  5
774B
  8
AM_5
 10
1151.902570387726
 20
272.7078701234945
 30
0.0
 40
3.5
  1
25.4
 50
90.0
  0
ENDBLK
  5
774D
  8
0
  0
BLOCK
  8
0
  2
*U103
 70
     1
 10
0.0
 20
0.0
 30
0.0
  3
*U103
  1

  0
TEXT
  5
774F
  8
AM_5
 10
1159.902570387726
 20
272.60093114711651
 30
0.0
 40
3.5
  1
o
 50
90.0
  0
TEXT
  5
7750
  8
AM_5
 10
1159.902570387726
 20
276.76759781378308
 30
0.0
 40
3.5
  1
67
 50
90.0
  0
ENDBLK
  5
7752
  8
0
  0
BLOCK
  8
0
  2
*U104
 70
     1
 10
0.0
 20
0.0
 30
0.0
  3
*U104
  1

  0
TEXT
  5
7754
  8
AM_5
 10
1167.902570387726
 20
272.52844377370133
 30
0.0
 40
3.5
  1
o
 50
90.0
  0
TEXT
  5
7755
  8
AM_5
 10
1167.902570387726
 20
276.6951104403679
 30
0.0
 40
3.5
  1
83
 50
90.0
  0
ENDBLK
  5
7757
  8
0
  0
BLOCK
  8
0
  2
*U105
 70
     1
 10
0.0
 20
0.0
 30
0.0
  3
*U105
  1

  0
TEXT
  5
7759
  8
AM_5
 10
1064.4403402309961
 20
214.02867971285019
 30
0.0
 40
3.5
  1
95
  0
ENDBLK
  5
775B
  8
0
  0
BLOCK
  8
0
  2
*U106
 70
     1
 10
0.0
 20
0.0
 30
0.0
  3
*U106
  1

  0
TEXT
  5
775D
  8
AM_5
 10
1061.9511924349699
 20
206.02867971285011
 30
0.0
 40
3.5
  1
70
  0
ENDBLK
  5
775F
  8
0
  0
BLOCK
  8
0
  2
*U107
 70
     1
 10
0.0
 20
0.0
 30
0.0
  3
*U107
  1

  0
TEXT
  5
7761
  8
AM_5
 10
1096.98480742376
 20
34.841677112224033
 30
0.0
 40
3.5
  1
63
  0
ENDBLK
  5
7763
  8
0
  0
BLOCK
  8
0
  2
*U108
 70
     1
 10
0.0
 20
0.0
 30
0.0
  3
*U108
  1

  0
TEXT
  5
7765
  8
AM_5
 10
1095.3775703877261
 20
26.841677112224041
 30
0.0
 40
3.5
  1
\U+220578
  0
ENDBLK
  5
7767
  8
0
  0
BLOCK
  8
0
  2
*U109
 70
     1
 10
0.0
 20
0.0
 30
0.0
  3
*U109
  1

  0
TEXT
  5
7769
  8
AM_5
 10
1148.402570387726
 20
118.6506313158131
 30
0.0
 40
3.5
  1
25
 50
90.0
  0
ENDBLK
  5
776B
  8
0
  0
BLOCK
  8
0
  2
*U110
 70
     1
 10
0.0
 20
0.0
 30
0.0
  3
*U110
  1

  0
TEXT
  5
776D
  8
AM_5
 10
1156.402570387726
 20
86.23755897677988
 30
0.0
 40
3.5
  1
90
 50
90.0
  0
ENDBLK
  5
776F
  8
0
  0
BLOCK
  8
0
  2
*U111
 70
     1
 10
0.0
 20
0.0
 30
0.0
  3
*U111
  1

  0
TEXT
  5
7771
  8
AM_5
 10
1164.402570387726
 20
88.063936929535686
 30
0.0
 40
3.5
  1
94
 50
90.0
  0
ENDBLK
  5
7773
  8
0
  0
BLOCK
  8
0
  2
*U112
 70
     1
 10
0.0
 20
0.0
 30
0.0
  3
*U112
  1

  0
TEXT
  5
7775
  8
AM_5
 10
1164.402570387726
 20
150.17730176009431
 30
0.0
 40
3.5
  1
30
 50
90.0
  0
ENDBLK
  5
7777
  8
0
  0
BLOCK
  8
0
  2
*U113
 70
     1
 10
0.0
 20
0.0
 30
0.0
  3
*U113
  1

  0
TEXT
  5
7779
  8
AM_5
 10
1172.402570387726
 20
175.99811868922819
 30
0.0
 40
3.5
  1
25.4
 50
90.0
  0
ENDBLK
  5
777B
  8
0
  0
BLOCK
  8
0
  2
*U114
 70
     1
 10
0.0
 20
0.0
 30
0.0
  3
*U114
  1

  0
TEXT
  5
777D
  8
AM_5
 10
1180.402570387726
 20
114.5786797128505
 30
0.0
 40
3.5
  1
152.4
 50
90.0
  0
ENDBLK
  5
777F
  8
0
  0
BLOCK
  8
0
  2
*U115
 70
     1
 10
0.0
 20
0.0
 30
0.0
  3
*U115
  1

  0
TEXT
  5
7781
  8
AM_5
 10
1172.402570387726
 20
102.1286797128503
 30
0.0
 40
3.5
  1
124
 50
90.0
  0
ENDBLK
  5
7783
  8
0
  0
BLOCK
  8
0
  2
*U116
 70
     1
 10
0.0
 20
0.0
 30
0.0
  3
*U116
  1

  0
TEXT
  5
7785
  8
AM_5
 10
1652.9314917364729
 20
218.43300988018149
 30
0.0
 40
3.5
  1
4-\U+22059
  7
ROMANS
  0
ENDBLK
  5
7787
  8
0
  0
BLOCK
  8
0
  2
*U117
 70
     1
 10
0.0
 20
0.0
 30
0.0
  3
*U117
  1

  0
TEXT
  5
7789
  8
AM_5
 10
1151.6002770787061
 20
226.8678123175504
 30
0.0
 40
3.5
  1
4-\U+22059,\U+220514*9D
  0
ENDBLK
  5
778B
  8
0
  0
BLOCK
  8
0
  2
*U118
 70
     1
 10
0.0
 20
0.0
 30
0.0
  3
*U118
  1

  0
TEXT
  5
778D
  8
AM_5
 10
1022.301192434971
 20
206.02867971285011
 30
0.0
 40
3.5
  1
10
  0
ENDBLK
  5
778F
  8
0
  0
BLOCK
  8
0
  2
*U119
 70
     1
 10
0.0
 20
0.0
 30
0.0
  3
*U119
  1

  0
TEXT
  5
7791
  8
UMCL2
 62
     0
 10
1088.6317985045871
 20
-43.758361212451028
 30
0.0
 40
3.0
  1
22
 50
90.0
  7
ROMANS
  0
ENDBLK
  5
7793
  8
0
  0
BLOCK
  8
0
  2
*U120
 70
     1
 10
0.0
 20
0.0
 30
0.0
  3
*U120
  1

  0
TEXT
  5
7795
  8
UMCL2
 62
     0
 10
1096.6317985045871
 20
-71.758361212451035
 30
0.0
 40
3.0
  1
78
 50
90.0
  7
ROMANS
  0
ENDBLK
  5
7797
  8
0
  0
BLOCK
  8
0
  2
*U121
 70
     1
 10
0.0
 20
0.0
 30
0.0
  3
*U121
  1

  0
TEXT
  5
7799
  8
UMCL2
 62
     0
 10
1112.6317985045871
 20
-58.401218355308139
 30
0.0
 40
3.0
  1
108
 50
90.0
  7
ROMANS
  0
ENDBLK
  5
779B
  8
0
  0
BLOCK
  8
0
  2
*U122
 70
     1
 10
0.0
 20
0.0
 30
0.0
  3
*U122
  1

  0
TEXT
  5
779D
  8
UMCL2
 62
     0
 10
1120.6317985045871
 20
-49.79407549816522
 30
0.0
 40
3.0
  1
129.5
 50
90.0
  7
ROMANS
  0
ENDBLK
  5
779F
  8
0
  0
BLOCK
  8
0
  2
*U123
 70
     1
 10
0.0
 20
0.0
 30
0.0
  3
*U123
  1

  0
TEXT
  5
77A1
  8
UMCL2
 62
     0
 10
1052.1192685110029
 20
-119.0445578790229
 30
0.0
 40
3.0
  1
32
  7
ROMANS
  0
ENDBLK
  5
77A3
  8
0
  0
BLOCK
  8
0
  2
*U124
 70
     1
 10
0.0
 20
0.0
 30
0.0
  3
*U124
  1

  0
TEXT
  5
77A5
  8
UMCL2
 62
     0
 10
1050.76212565386
 20
-125.0445578790229
 30
0.0
 40
3.0
  1
\U+220546
  7
ROMANS
  0
ENDBLK
  5
77A7
  8
0
  0
BLOCK
  8
0
  2
*U125
 70
     1
 10
0.0
 20
0.0
 30
0.0
  3
*U125
  1

  0
TEXT
  5
77A9
  8
AM_5
 10
1086.3273246288229
 20
44.499499550003883
 30
0.0
 40
3.5
  1
4-\U+22055.6,\U+22059*5.5D
  0
ENDBLK
  5
77AB
  8
0
  0
BLOCK
  8
0
  2
*U126
 70
     1
 10
0.0
 20
0.0
 30
0.0
  3
*U126
  1

  0
TEXT
  5
77AD
  8
AM_5
 10
1091.0716282253291
 20
75.28967706815672
 30
0.0
 40
3.5
  1
19
 50
90.0
  0
ENDBLK
  5
77AF
  8
0
  0
BLOCK
  8
0
  2
*U127
 70
     1
 10
0.0
 20
0.0
 30
0.0
  3
*U127
  1

  0
TEXT
  5
77B1
  8
AM_5
 10
1099.0716282253291
 20
72.901087703654099
 30
0.0
 40
3.5
  1
o
 50
90.0
  0
TEXT
  5
77B2
  8
AM_5
 10
1099.0716282253291
 20
77.067754370320756
 30
0.0
 40
3.5
  1
40
 50
90.0
  0
ENDBLK
  5
77B4
  8
0
  0
BLOCK
  8
0
  2
*U128
 70
     1
 10
0.0
 20
0.0
 30
0.0
  3
*U128
  1

  0
TEXT
  5
77B6
  8
AM_5
 10
1107.0716282253291
 20
73.076087703654125
 30
0.0
 40
3.5
  1
o
 50
90.0
  0
TEXT
  5
77B7
  8
AM_5
 10
1107.0716282253291
 20
77.242754370320782
 30
0.0
 40
3.5
  1
50
 50
90.0
  0
ENDBLK
  5
77B9
  8
0
  0
BLOCK
  8
0
  2
*U129
 70
     1
 10
0.0
 20
0.0
 30
0.0
  3
*U129
  1

  0
TEXT
  5
77BB
  8
AM_5
 10
1029.5250334153891
 20
35.792239939544913
 30
0.0
 40
3.5
  1
70
  0
ENDBLK
  5
77BD
  8
0
  0
BLOCK
  8
0
  2
*U130
 70
     1
 10
0.0
 20
0.0
 30
0.0
  3
*U130
  1

  0
TEXT
  5
77BF
  8
AM_5
 10
1027.52503341539
 20
29.792239939545251
 30
0.0
 40
3.5
  1
50
  0
ENDBLK
  5
77C1
  8
0
  0
BLOCK
  8
0
  2
*U131
 70
     1
 10
0.0
 20
0.0
 30
0.0
  3
*U131
  1

  0
TEXT
  5
77C3
  8
AM_5
 10
999.75141136814557
 20
29.792239939545251
 30
0.0
 40
3.5
  1
8
  0
ENDBLK
  5
77C5
  8
0
  0
BLOCK
  8
0
  2
*U132
 70
     1
 10
0.0
 20
0.0
 30
0.0
  3
*U132
  1

  0
TEXT
  5
77C7
  8
AM_5
 10
1112.6317985045871
 20
7.3734930564387744
 30
0.0
 40
3.5
  1
19
 50
90.0
  0
ENDBLK
  5
77C9
  8
0
  0
BLOCK
  8
0
  2
*U133
 70
     1
 10
0.0
 20
0.0
 30
0.0
  3
*U133
  1

  0
TEXT
  5
77CB
  8
AM_5
 10
1104.6317985045871
 20
-15.39359040255227
 30
0.0
 40
3.5
  1
26
 50
90.0
  0
ENDBLK
  5
77CD
  8
0
  0
BLOCK
  8
0
  2
*U134
 70
     1
 10
0.0
 20
0.0
 30
0.0
  3
*U134
  1

  0
TEXT
  5
77CF
  8
AM_5
 10
1104.6317985045871
 20
-69.456321701764836
 30
0.0
 40
3.5
  1
82
 50
90.0
  0
ENDBLK
  5
77D1
  8
0
  0
BLOCK
  8
0
  2
*U135
 70
     1
 10
0.0
 20
0.0
 30
0.0
  3
*U135
  1

  0
TEXT
  5
77D3
  8
AM_5
 10
1581.2583733656841
 20
-80.647820884808965
 30
0.0
 40
3.5
  1
19
  0
ENDBLK
  5
77D5
  8
0
  0
BLOCK
  8
0
  2
*U136
 70
     1
 10
0.0
 20
0.0
 30
0.0
  3
*U136
  1

  0
TEXT
  5
77D7
  8
AM_5
 10
1503.615273654149
 20
-202.3160471945672
 30
0.0
 40
3.0
  1
8
  7
ROMANS
  0
ENDBLK
  5
77D9
  8
0
  0
BLOCK
  8
0
  2
*U137
 70
     1
 10
0.0
 20
0.0
 30
0.0
  3
*U137
  1

  0
TEXT
  5
77DB
  8
AM_5
 10
1531.1867022255781
 20
-202.3160471945672
 30
0.0
 40
3.0
  1
50
  7
ROMANS
  0
ENDBLK
  5
77DD
  8
0
  0
BLOCK
  8
0
  2
*U138
 70
     1
 10
0.0
 20
0.0
 30
0.0
  3
*U138
  1

  0
TEXT
  5
77DF
  8
AM_5
 10
1533.1867022255781
 20
-210.31604719456709
 30
0.0
 40
3.0
  1
70
  7
ROMANS
  0
ENDBLK
  5
77E1
  8
0
  0
BLOCK
  8
0
  2
*U139
 70
     1
 10
0.0
 20
0.0
 30
0.0
  3
*U139
  1

  0
TEXT
  5
77E3
  8
AM_5
 10
1579.3749107337501
 20
-233.08905872053001
 30
0.0
 40
3.0
  1
7
 50
90.0
  7
ROMANS
  0
ENDBLK
  5
77E5
  8
0
  0
BLOCK
  8
0
  2
*U140
 70
     1
 10
0.0
 20
0.0
 30
0.0
  3
*U140
  1

  0
TEXT
  5
77E7
  8
AM_5
 10
1579.3749107337501
 20
-245.98191586338709
 30
0.0
 40
3.0
  1
9.5
 50
90.0
  7
ROMANS
  0
ENDBLK
  5
77E9
  8
0
  0
BLOCK
  8
0
  2
*U141
 70
     1
 10
0.0
 20
0.0
 30
0.0
  3
*U141
  1

  0
TEXT
  5
77EB
  8
AM_5
 10
1554.829559368435
 20
-255.48435456494661
 30
0.0
 40
3.0
  1
\U+2205
  7
ROMANS
  0
TEXT
  5
77EC
  8
AM_5
 10
1557.5438450827201
 20
-255.48435456494661
 30
0.0
 40
3.0
  1
16
  7
ROMANS
  0
ENDBLK
  5
77EE
  8
0
  0
BLOCK
  8
0
  2
*U142
 70
     1
 10
0.0
 20
0.0
 30
0.0
  3
*U142
  1

  0
TEXT
  5
77F0
  8
AM_5
 10
1556.329559368435
 20
-223.14567590257241
 30
0.0
 40
3.0
  1
\U+2205
  7
ROMANS
  0
TEXT
  5
77F1
  8
AM_5
 10
1559.043845082721
 20
-223.14567590257241
 30
0.0
 40
3.0
  1
9
  7
ROMANS
  0
ENDBLK
  5
77F3
  8
0
  0
BLOCK
  8
0
  2
*U143
 70
     1
 10
0.0
 20
0.0
 30
0.0
  3
*U143
  1

  0
TEXT
  5
77F5
  8
AM_5
 10
1554.758130797007
 20
-217.3424712062353
 30
0.0
 40
3.0
  1
\U+220514
  7
ROMANS
  0
ENDBLK
  5
77F7
  8
0
  0
BLOCK
  8
0
  2
*U144
 70
     1
 10
0.0
 20
0.0
 30
0.0
  3
*U144
  1

  0
TEXT
  5
7839
  8
AM_5
 10
1366.117660284051
 20
-324.47056374327298
 30
0.0
 40
3.0
  1
100
  7
ROMANS
  0
ENDBLK
  5
783B
  8
0
  0
BLOCK
  8
0
  2
*U145
 70
     1
 10
0.0
 20
0.0
 30
0.0
  3
*U145
  1

  0
TEXT
  5
783D
  8
AM_5
 10
1589.75196294598
 20
471.09564301904243
 30
0.0
 40
3.0
  1
5.3
 50
89.999999999999986
  7
ROMANS
  0
ENDBLK
  5
783F
  8
0
  0
BLOCK
  8
0
  2
*U146
 70
     1
 10
0.0
 20
0.0
 30
0.0
  3
*U146
  1

  0
TEXT
  5
7841
  8
AM_5
 10
1571.7518139557731
 20
450.45765015716222
 30
0.0
 40
3.0
  1
4.3
  7
ROMANS
  0
ENDBLK
  5
7843
  8
0
  0
BLOCK
  8
0
  2
*U147
 70
     1
 10
0.0
 20
0.0
 30
0.0
  3
*U147
  1

  0
TEXT
  5
7845
  8
AM_5
 10
1570.721639590183
 20
458.45765015716222
 30
0.0
 40
3.0
  1
3.3
  7
ROMANS
  0
ENDBLK
  5
7847
  8
0
  0
BLOCK
  8
0
  2
*U148
 70
     1
 10
0.0
 20
0.0
 30
0.0
  3
*U148
  1

  0
TEXT
  5
7849
  8
AM_5
 10
1597.75196294598
 20
471.02421444761382
 30
0.0
 40
3.0
  1
6.6
 50
89.999999999999986
  7
ROMANS
  0
ENDBLK
  5
784B
  8
0
  0
BLOCK
  8
0
  2
*U149
 70
     1
 10
0.0
 20
0.0
 30
0.0
  3
*U149
  1

  0
SOLID
  5
78A3
  8
AM_5
 10
965.9739859859186
 20
78.381173675529809
 30
0.0
 11
968.76219441109401
 21
79.59603736244344
 31
0.0
 12
966.51870979925138
 22
77.542558169360177
 32
0.0
 13
966.51870979925138
 23
77.542558169360177
 33
0.0
  0
POLYLINE
  5
78A4
  8
AM_5
 66
     1
 10
0.0
 20
0.0
 30
0.0
  0
VERTEX
  5
78A5
  8
AM_5
 10
966.24634789258505
 20
77.961865922445
 30
0.0
  0
VERTEX
  5
78A6
  8
AM_5
 10
954.22203545487855
 20
70.151457844386186
 30
0.0
  0
VERTEX
  5
78A7
  8
AM_5
 10
926.22203545487855
 20
70.151457844386186
 30
0.0
  0
SEQEND
  5
78A8
  8
AM_5
  0
ENDBLK
  5
78AA
  8
0
  0
BLOCK
  8
0
  2
*U150
 70
     1
 10
0.0
 20
0.0
 30
0.0
  3
*U150
  1

  0
TEXT
  5
78AC
  8
AM_5
 10
925.55536878821204
 20
71.151457844386186
 30
0.0
 40
3.5
  1
M8*1.25P
  7
ROMANS
  0
ENDBLK
  5
78AE
  8
0
  0
BLOCK
  8
0
  2
*U151
 70
     1
 10
0.0
 20
0.0
 30
0.0
  3
*U151
  1

  0
SOLID
  5
78B0
  8
AM_5
 10
1036.7690471941451
 20
-30.689250782880752
 30
0.0
 11
1034.762194411094
 21
-28.403962637556681
 31
0.0
 12
1037.40174319895
 22
-29.914850521062771
 32
0.0
 13
1037.40174319895
 23
-29.914850521062771
 33
0.0
  0
POLYLINE
  5
78B1
  8
AM_5
 66
     1
 10
0.0
 20
0.0
 30
0.0
  0
VERTEX
  5
78B2
  8
AM_5
 10
1037.0853951965471
 20
-30.302050651971761
 30
0.0
  0
VERTEX
  5
78B3
  8
AM_5
 10
1047.9957261354091
 20
-39.215945877049933
 30
0.0
  0
VERTEX
  5
78B4
  8
AM_5
 10
1078.6623928020761
 20
-39.215945877049933
 30
0.0
  0
SEQEND
  5
78B5
  8
AM_5
  0
ENDBLK
  5
78B7
  8
0
  0
BLOCK
  8
0
  2
*U152
 70
     1
 10
0.0
 20
0.0
 30
0.0
  3
*U152
  1

  0
TEXT
  5
78B9
  8
AM_5
 10
1049.374467539531
 20
-38.23057990541249
 30
0.0
 40
3.5
  1
2-PT 1/8
  7
ROMANS
  0
ENDBLK
  5
78BB
  8
0
  0
BLOCK
  8
0
  2
*U153
 70
     1
 10
0.0
 20
0.0
 30
0.0
  3
*U153
  1

  0
TEXT
  5
78DD
  8
UMCL2
 10
1434.7642414516461
 20
-33.518304839391483
 30
0.0
 40
3.0
  1
O-ring:P-07
  7
ROMANS
  0
ENDBLK
  5
78DF
  8
0
  0
BLOCK
  8
0
  2
*U154
 70
     1
 10
0.0
 20
0.0
 30
0.0
  3
*U154
  1

  0
TEXT
  5
7901
  8
AM_5
 10
1076.417581547536
 20
86.870748774190346
 30
0.0
 40
3.5
  1
19
 50
90.0
  0
ENDBLK
  5
7903
  8
0
  0
BLOCK
  8
0
  2
*U155
 70
     1
 10
0.0
 20
0.0
 30
0.0
  3
*U155
  1

  0
TEXT
  5
7905
  8
AM_5
 10
1068.417581547536
 20
64.103665315199265
 30
0.0
 40
3.5
  1
26
 50
90.0
  0
ENDBLK
  5
7907
  8
0
  0
BLOCK
  8
0
  2
*U156
 70
     1
 10
0.0
 20
0.0
 30
0.0
  3
*U156
  1

  0
TEXT
  5
7909
  8
AM_5
 10
1068.417581547536
 20
10.040934015986741
 30
0.0
 40
3.5
  1
82
 50
90.0
  0
ENDBLK
  5
790B
  8
0
  0
BLOCK
  8
0
  2
*U157
 70
     1
 10
0.0
 20
0.0
 30
0.0
  3
*U157
  1

  0
TEXT
  5
790D
  8
AM_5
 10
1545.0441564086329
 20
-1.1505651670573791
 30
0.0
 40
3.5
  1
19
  0
ENDBLK
  5
790F
  8
0
  0
BLOCK
  8
0
  2
*U158
 70
     1
 10
0.0
 20
0.0
 30
0.0
  3
*U158
  1

  0
TEXT
  5
7911
  8
AM_5
 10
1054.857411268277
 20
154.78693278590839
 30
0.0
 40
3.5
  1
19
 50
90.0
  0
ENDBLK
  5
7913
  8
0
  0
BLOCK
  8
0
  2
*U159
 70
     1
 10
0.0
 20
0.0
 30
0.0
  3
*U159
  1

  0
TEXT
  5
7915
  8
AM_5
 10
1062.857411268277
 20
152.39834342140571
 30
0.0
 40
3.5
  1
o
 50
90.0
  0
TEXT
  5
7916
  8
AM_5
 10
1062.857411268277
 20
156.5650100880724
 30
0.0
 40
3.5
  1
40
 50
90.0
  0
ENDBLK
  5
7918
  8
0
  0
BLOCK
  8
0
  2
*U160
 70
     1
 10
0.0
 20
0.0
 30
0.0
  3
*U160
  1

  0
TEXT
  5
791A
  8
AM_5
 10
1070.857411268277
 20
152.57334342140581
 30
0.0
 40
3.5
  1
o
 50
90.0
  0
TEXT
  5
791B
  8
AM_5
 10
1070.857411268277
 20
156.74001008807249
 30
0.0
 40
3.5
  1
50
 50
90.0
  0
ENDBLK
  5
791D
  8
0
  0
BLOCK
  8
0
  2
*U161
 70
     1
 10
0.0
 20
0.0
 30
0.0
  3
*U161
  1

  0
TEXT
  5
791F
  8
AM_5
 10
993.31081645833797
 20
115.2894956572966
 30
0.0
 40
3.5
  1
70
  0
ENDBLK
  5
7921
  8
0
  0
BLOCK
  8
0
  2
*U162
 70
     1
 10
0.0
 20
0.0
 30
0.0
  3
*U162
  1

  0
TEXT
  5
7923
  8
AM_5
 10
991.31081645833819
 20
109.2894956572968
 30
0.0
 40
3.5
  1
50
  0
ENDBLK
  5
7925
  8
0
  0
BLOCK
  8
0
  2
*U163
 70
     1
 10
0.0
 20
0.0
 30
0.0
  3
*U163
  1

  0
TEXT
  5
7927
  8
AM_5
 10
963.53719441109388
 20
109.2894956572968
 30
0.0
 40
3.5
  1
8
  0
ENDBLK
  5
7929
  8
0
  0
BLOCK
  8
0
  2
*U164
 70
     1
 10
0.0
 20
0.0
 30
0.0
  3
*U164
  1

  0
TEXT
  5
792B
  8
AM_5
 10
1050.113107671772
 20
123.99675526775511
 30
0.0
 40
3.5
  1
4-\U+22055.6,\U+22059*5.5D
  0
ENDBLK
  5
792D
  8
0
  0
ENDSEC
  0
SECTION
  2
ENTITIES
  0
LINE
  5
6AE9
  8
AM_7
 10
1509.043845082721
 20
-192.2160471945671
 30
0.0
 11
1509.043845082721
 21
-179.41604719456711
 31
0.0
  0
TEXT
  5
6AEA
  8
AM_5
 10
1579.3749107337501
 20
-188.68378978684279
 30
0.0
 40
3.0
  1
19
 50
90.0
  7
ROMANS
  0
SOLID
  5
6AEB
  8
AM_5
 10
1580.89585526685
 20
-179.27047045356721
 30
0.0
 11
1579.8539662006499
 21
-179.27047045356721
 31
0.0
 12
1580.3749107337501
 22
-176.3160471945672
 32
0.0
 13
1580.3749107337501
 23
-176.3160471945672
 33
0.0
  0
LINE
  5
6AEC
  8
AM_5
 10
1573.012315290538
 20
-176.3160471945672
 30
0.0
 11
1581.7168177941321
 21
-176.31604719456709
 31
0.0
  0
LINE
  5
6AED
  8
AM_5
 10
1580.3749107337501
 20
-195.31604719456749
 30
0.0
 11
1580.3749107337501
 21
-176.31604719456709
 31
0.0
  0
TEXT
  5
6AEE
  8
AM_5
 10
1587.5835663001831
 20
-240.78103257726951
 30
0.0
 40
3.0
  1
19
 50
90.0
  7
ROMANS
  0
SOLID
  5
6AEF
  8
AM_5
 10
1589.104510833283
 20
-231.1149105509584
 30
0.0
 11
1588.0626217670831
 21
-231.1149105509584
 31
0.0
 12
1588.5835663001831
 22
-228.16048729195839
 32
0.0
 13
1588.5835663001831
 23
-228.16048729195839
 33
0.0
  0
SOLID
  5
6AF0
  8
AM_5
 10
1588.0626217670831
 20
-244.20606403295849
 30
0.0
 11
1589.104510833283
 21
-244.20606403295849
 31
0.0
 12
1588.5835663001831
 22
-247.1604872919585
 32
0.0
 13
1588.5835663001831
 23
-247.1604872919585
 33
0.0
  0
LINE
  5
6AF1
  8
AM_5
 10
1572.190035227889
 20
-247.1604872919585
 30
0.0
 11
1589.5835663001831
 21
-247.1604872919585
 31
0.0
  0
LINE
  5
6AF2
  8
AM_5
 10
1572.190035227889
 20
-228.16048729195839
 30
0.0
 11
1589.5835663001831
 21
-228.16048729195839
 31
0.0
  0
LINE
  5
6AF3
  8
AM_5
 10
1468.919703642649
 20
-257.69656592061858
 30
0.0
 11
1491.1750741016431
 21
-257.6965659206187
 31
0.0
  0
SOLID
  5
6AF4
  8
AM_5
 10
1506.234289974276
 20
-248.21234283931261
 30
0.0
 11
1506.763482664823
 21
-249.1098326289696
 31
0.0
 12
1509.0438450827201
 22
-247.1604872919583
 32
0.0
 13
1509.0438450827201
 23
-247.1604872919583
 33
0.0
  0
LINE
  5
6AF5
  8
AM_5
 10
1491.1750741016431
 20
-257.6965659206187
 30
0.0
 11
1509.0438450827201
 21
-247.1604872919583
 31
0.0
  0
TEXT
  5
6AF6
  8
AM_5
 10
1469.283951552065
 20
-256.69656592061858
 30
0.0
 40
3.0
  1
M8x1.25P
  7
ROMANS
  0
LINE
  5
6AF7
  8
0
  6
HIDDEN
 62
     3
 10
1551.0438450827201
 20
-247.16048729195839
 30
0.0
 11
1551.9938450827201
 21
-237.66048729195839
 31
0.0
  0
LINE
  5
6AF8
  8
0
  6
HIDDEN
 62
     3
 10
1552.043845082721
 20
-235.16048729195839
 30
0.0
 11
1566.043845082721
 21
-235.1604872919585
 31
0.0
  0
LINE
  5
6AF9
  8
0
  6
HIDDEN
 62
     3
 10
1567.043845082721
 20
-247.16048729195839
 30
0.0
 11
1566.09384508272
 21
-237.6604872919585
 31
0.0
  0
LINE
  5
6AFA
  8
0
  6
HIDDEN
 62
     3
 10
1551.9938450827201
 20
-237.66048729195839
 30
0.0
 11
1566.09384508272
 21
-237.6604872919585
 31
0.0
  0
LINE
  5
6AFB
  8
UMCL1
 10
1571.043845082721
 20
-247.1604872919585
 30
0.0
 11
1571.043845082721
 21
-228.1604872919585
 31
0.0
  0
LINE
  5
6AFC
  8
0
  6
HIDDEN
 62
     3
 10
1505.6438450827211
 20
-228.1604872919583
 30
0.0
 11
1505.6438450827211
 21
-247.1604872919583
 31
0.0
  0
LINE
  5
6AFD
  8
0
  6
HIDDEN
 62
     3
 10
1505.0438450827201
 20
-228.1604872919583
 30
0.0
 11
1505.0438450827201
 21
-247.1604872919583
 31
0.0
  0
LINE
  5
6AFE
  8
0
  6
HIDDEN
 62
     3
 10
1512.4438450827211
 20
-228.1604872919583
 30
0.0
 11
1512.4438450827199
 21
-247.1604872919583
 31
0.0
  0
LINE
  5
6AFF
  8
0
  6
HIDDEN
 62
     3
 10
1513.043845082721
 20
-228.1604872919583
 30
0.0
 11
1513.0438450827201
 21
-247.1604872919583
 31
0.0
  0
LINE
  5
6B00
  8
UMCL1
 10
1501.043845082721
 20
-228.1604872919583
 30
0.0
 11
1501.0438450827201
 21
-247.1604872919583
 31
0.0
  0
LINE
  5
6B01
  8
UMCL1
 10
1501.043845082721
 20
-228.1604872919583
 30
0.0
 11
1571.043845082721
 21
-228.1604872919585
 31
0.0
  0
LINE
  5
6B02
  8
UMCL1
 10
1501.0438450827201
 20
-247.1604872919583
 30
0.0
 11
1571.043845082721
 21
-247.1604872919585
 31
0.0
  0
LINE
  5
6B03
  8
UMCL1
 10
1571.043845082721
 20
-195.3160471945672
 30
0.0
 11
1571.043845082721
 21
-176.3160471945672
 31
0.0
  0
LINE
  5
6B04
  8
UMCL1
 10
1501.043845082721
 20
-176.31604719456701
 30
0.0
 11
1501.043845082721
 21
-195.31604719456701
 31
0.0
  0
LINE
  5
6B05
  8
UMCL1
 10
1501.043845082721
 20
-176.31604719456701
 30
0.0
 11
1571.043845082721
 21
-176.3160471945672
 31
0.0
  0
LINE
  5
6B06
  8
UMCL1
 10
1501.043845082721
 20
-195.31604719456701
 30
0.0
 11
1571.043845082721
 21
-195.3160471945672
 31
0.0
  0
CIRCLE
  5
6B07
  8
UMCL1
 10
1509.043845082721
 20
-185.81604719456709
 30
0.0
 40
3.3999999999999999
  0
LINE
  5
6B08
  8
AM_7
 10
1509.043845082721
 20
-249.33350483581771
 30
0.0
 11
1509.043845082721
 21
-226.03643363745749
 31
0.0
  0
ARC
  5
6B09
  8
0
  6
HIDDEN
 62
     3
 10
1509.043845082721
 20
-185.81604719456709
 30
0.0
 40
4.0
 50
77.755380639243384
 51
12.66105144964253
  0
SOLID
  5
6B0A
  8
AM_5
 10
1580.89585526685
 20
-192.36162393556731
 30
0.0
 11
1579.8539662006499
 21
-192.36162393556731
 31
0.0
 12
1580.3749107337501
 22
-195.3160471945674
 32
0.0
 13
1580.3749107337501
 23
-195.3160471945674
 33
0.0
  0
LINE
  5
6B0B
  8
AM_5
 10
1573.012315290538
 20
-195.31604719456749
 30
0.0
 11
1581.7168177941321
 21
-195.31604719456749
 31
0.0
  0
LINE
  5
6B0C
  8
0
  6
HIDDEN
 62
     3
 10
1552.043845082721
 20
-228.16048729195839
 30
0.0
 11
1552.043845082721
 21
-235.1604872919585
 31
0.0
  0
LINE
  5
6B0D
  8
0
  6
HIDDEN
 62
     3
 10
1566.043845082721
 20
-228.1604872919585
 30
0.0
 11
1566.043845082721
 21
-235.1604872919585
 31
0.0
  0
LINE
  5
6B0E
  8
0
  6
HIDDEN
 62
     3
 10
1554.543845082721
 20
-235.16048729195839
 30
0.0
 11
1554.543845082721
 21
-237.66048729195839
 31
0.0
  0
LINE
  5
6B0F
  8
0
  6
HIDDEN
 62
     3
 10
1563.543845082721
 20
-235.1604872919585
 30
0.0
 11
1563.543845082721
 21
-237.6604872919585
 31
0.0
  0
LINE
  5
6B10
  8
0
  6
HIDDEN
 62
     3
 10
1610.4940105005039
 20
-247.16048729195839
 30
0.0
 11
1611.444010500504
 21
-237.66048729195839
 31
0.0
  0
LINE
  5
6B11
  8
0
  6
HIDDEN
 62
     3
 10
1611.4940105005051
 20
-235.16048729195839
 30
0.0
 11
1625.4940105005051
 21
-235.1604872919585
 31
0.0
  0
LINE
  5
6B12
  8
0
  6
HIDDEN
 62
     3
 10
1626.4940105005039
 20
-247.16048729195839
 30
0.0
 11
1625.544010500505
 21
-237.6604872919585
 31
0.0
  0
LINE
  5
6B13
  8
0
  6
HIDDEN
 62
     3
 10
1611.444010500504
 20
-237.66048729195839
 30
0.0
 11
1625.544010500505
 21
-237.6604872919585
 31
0.0
  0
LINE
  5
6B14
  8
UMCL1
 10
1627.9940105005051
 20
-247.1604872919585
 30
0.0
 11
1627.9940105005051
 21
-228.1604872919585
 31
0.0
  0
LINE
  5
6B15
  8
0
  6
HIDDEN
 62
     3
 10
1611.4940105005051
 20
-228.16048729195839
 30
0.0
 11
1611.4940105005051
 21
-235.1604872919585
 31
0.0
  0
LINE
  5
6B16
  8
0
  6
HIDDEN
 62
     3
 10
1625.4940105005051
 20
-228.1604872919585
 30
0.0
 11
1625.4940105005051
 21
-235.1604872919585
 31
0.0
  0
LINE
  5
6B17
  8
0
  6
HIDDEN
 62
     3
 10
1613.9940105005051
 20
-235.16048729195839
 30
0.0
 11
1613.9940105005051
 21
-237.66048729195839
 31
0.0
  0
LINE
  5
6B18
  8
0
  6
HIDDEN
 62
     3
 10
1622.9940105005051
 20
-235.1604872919585
 30
0.0
 11
1622.9940105005051
 21
-237.6604872919585
 31
0.0
  0
LINE
  5
6B19
  8
UMCL1
 10
1608.9940105005051
 20
-247.1604872919585
 30
0.0
 11
1608.9940105005051
 21
-228.1604872919585
 31
0.0
  0
LINE
  5
6B1A
  8
UMCL1
 10
1608.9940105005051
 20
-228.16048729195839
 30
0.0
 11
1627.9940105005051
 21
-228.1604872919585
 31
0.0
  0
LINE
  5
6B1B
  8
UMCL1
 10
1608.9940105005051
 20
-247.1604872919585
 30
0.0
 11
1627.9940105005051
 21
-247.1604872919585
 31
0.0
  0
LINE
  5
6B1C
  8
AM_5
 10
1588.5835663001831
 20
-247.1604872919585
 30
0.0
 11
1588.5835663001831
 21
-228.16048729195839
 31
0.0
  0
LINE
  5
6B1D
  8
AM_7
 10
1515.4438450827199
 20
-185.81604719456701
 30
0.0
 11
1502.6438450827211
 21
-185.81604719456701
 31
0.0
  0
LINE
  5
6B1E
  8
AM_7
 10
1549.743845082721
 20
-185.8160471945672
 30
0.0
 11
1556.4438450827211
 21
-185.8160471945672
 31
0.0
  0
LINE
  5
6B1F
  8
AM_7
 10
1557.743845082721
 20
-185.8160471945672
 30
0.0
 11
1560.34384508272
 21
-185.8160471945672
 31
0.0
  0
LINE
  5
6B20
  8
AM_7
 10
1561.6438450827211
 20
-185.8160471945672
 30
0.0
 11
1568.34384508272
 21
-185.8160471945672
 31
0.0
  0
LINE
  5
6B21
  8
AM_7
 10
1559.043845082721
 20
-195.11604719456719
 30
0.0
 11
1559.043845082721
 21
-188.41604719456711
 31
0.0
  0
LINE
  5
6B22
  8
AM_7
 10
1559.043845082721
 20
-187.11604719456719
 30
0.0
 11
1559.043845082721
 21
-184.51604719456731
 31
0.0
  0
LINE
  5
6B23
  8
AM_7
 10
1559.043845082721
 20
-183.2160471945673
 30
0.0
 11
1559.043845082721
 21
-176.51604719456731
 31
0.0
  0
CIRCLE
  5
6B24
  8
UMCL1
 10
1559.043845082721
 20
-185.8160471945672
 30
0.0
 40
4.5
  0
CIRCLE
  5
6B25
  8
UMCL1
 10
1559.043845082721
 20
-185.8160471945672
 30
0.0
 40
7.0
  0
CIRCLE
  5
6B26
  8
0
  6
HIDDEN
 62
     3
 10
1559.043845082721
 20
-185.8160471945672
 30
0.0
 40
8.0
  0
LINE
  5
6B27
  8
AM_7
 10
1559.043845082721
 20
-226.66048729195899
 30
0.0
 11
1559.043845082721
 21
-248.6604872919585
 31
0.0
  0
LINE
  5
6B28
  8
AM_7
 10
1618.4940105005051
 20
-226.66048729195899
 30
0.0
 11
1618.4940105005051
 21
-248.6604872919585
 31
0.0
  0
LINE
  5
6B29
  8
AM_5
 10
1501.043845082721
 20
-196.31604719456701
 30
0.0
 11
1501.043845082721
 21
-204.31604719456709
 31
0.0
  0
LINE
  5
6B2A
  8
AM_5
 10
1509.043845082721
 20
-193.2160471945671
 30
0.0
 11
1509.043845082721
 21
-204.31604719456709
 31
0.0
  0
LINE
  5
6B2B
  8
AM_5
 10
1498.043845082721
 20
-203.31604719456709
 30
0.0
 11
1495.043845082721
 21
-203.31604719456709
 31
0.0
  0
LINE
  5
6B2C
  8
AM_5
 10
1512.043845082721
 20
-203.31604719456709
 30
0.0
 11
1515.043845082721
 21
-203.31604719456709
 31
0.0
  0
LINE
  5
6B2D
  8
AM_5
 10
1501.043845082721
 20
-203.31604719456709
 30
0.0
 11
1509.043845082721
 21
-203.31604719456709
 31
0.0
  0
SOLID
  5
6B2E
  8
AM_5
 10
1498.043845082721
 20
-202.8160471945672
 30
0.0
 11
1498.043845082721
 21
-203.81604719456709
 31
0.0
 12
1501.043845082721
 22
-203.31604719456709
 32
0.0
 13
1501.043845082721
 23
-203.31604719456709
 33
0.0
  0
SOLID
  5
6B2F
  8
AM_5
 10
1512.043845082721
 20
-202.8160471945672
 30
0.0
 11
1512.043845082721
 21
-203.81604719456709
 31
0.0
 12
1509.043845082721
 22
-203.31604719456709
 32
0.0
 13
1509.043845082721
 23
-203.31604719456709
 33
0.0
  0
INSERT
  5
6B30
  8
0
  2
*U136
 10
0.0
 20
0.0
 30
0.0
  0
LINE
  5
6B31
  8
AM_5
 10
1509.043845082721
 20
-193.2160471945671
 30
0.0
 11
1509.043845082721
 21
-204.31604719456709
 31
0.0
  0
LINE
  5
6B32
  8
AM_5
 10
1559.043845082721
 20
-196.11604719456719
 30
0.0
 11
1559.043845082721
 21
-204.31604719456709
 31
0.0
  0
LINE
  5
6B33
  8
AM_5
 10
1512.043845082721
 20
-203.31604719456709
 30
0.0
 11
1556.043845082721
 21
-203.31604719456709
 31
0.0
  0
SOLID
  5
6B34
  8
AM_5
 10
1512.043845082721
 20
-202.8160471945672
 30
0.0
 11
1512.043845082721
 21
-203.81604719456709
 31
0.0
 12
1509.043845082721
 22
-203.31604719456709
 32
0.0
 13
1509.043845082721
 23
-203.31604719456709
 33
0.0
  0
SOLID
  5
6B35
  8
AM_5
 10
1556.043845082721
 20
-202.8160471945672
 30
0.0
 11
1556.043845082721
 21
-203.81604719456709
 31
0.0
 12
1559.043845082721
 22
-203.31604719456709
 32
0.0
 13
1559.043845082721
 23
-203.31604719456709
 33
0.0
  0
INSERT
  5
6B36
  8
0
  2
*U137
 10
0.0
 20
0.0
 30
0.0
  0
LINE
  5
6B37
  8
AM_5
 10
1501.043845082721
 20
-196.31604719456701
 30
0.0
 11
1501.043845082721
 21
-212.31604719456709
 31
0.0
  0
LINE
  5
6B38
  8
AM_5
 10
1571.043845082721
 20
-196.3160471945672
 30
0.0
 11
1571.043845082721
 21
-212.31604719456709
 31
0.0
  0
LINE
  5
6B39
  8
AM_5
 10
1504.043845082721
 20
-211.3160471945672
 30
0.0
 11
1568.0438450827201
 21
-211.3160471945672
 31
0.0
  0
SOLID
  5
6B3A
  8
AM_5
 10
1504.043845082721
 20
-210.8160471945672
 30
0.0
 11
1504.043845082721
 21
-211.81604719456709
 31
0.0
 12
1501.043845082721
 22
-211.3160471945672
 32
0.0
 13
1501.043845082721
 23
-211.3160471945672
 33
0.0
  0
SOLID
  5
6B3B
  8
AM_5
 10
1568.0438450827201
 20
-210.8160471945672
 30
0.0
 11
1568.0438450827201
 21
-211.81604719456709
 31
0.0
 12
1571.043845082721
 22
-211.3160471945672
 32
0.0
 13
1571.043845082721
 23
-211.3160471945672
 33
0.0
  0
INSERT
  5
6B3C
  8
0
  2
*U138
 10
0.0
 20
0.0
 30
0.0
  0
LINE
  5
6B3D
  8
AM_5
 10
1572.043845082721
 20
-228.1604872919585
 30
0.0
 11
1581.3749107337501
 21
-228.1604872919585
 31
0.0
  0
LINE
  5
6B3E
  8
AM_5
 10
1567.043845082721
 20
-235.1604872919585
 30
0.0
 11
1581.3749107337501
 21
-235.1604872919585
 31
0.0
  0
LINE
  5
6B3F
  8
AM_5
 10
1580.3749107337501
 20
-238.1604872919585
 30
0.0
 11
1580.3749107337501
 21
-241.16048729195859
 31
0.0
  0
LINE
  5
6B40
  8
AM_5
 10
1580.3749107337501
 20
-228.1604872919585
 30
0.0
 11
1580.3749107337501
 21
-235.1604872919585
 31
0.0
  0
SOLID
  5
6B41
  8
AM_5
 10
1579.8749107337501
 20
-231.1604872919585
 30
0.0
 11
1580.874910733751
 21
-231.1604872919585
 31
0.0
 12
1580.3749107337501
 22
-228.1604872919585
 32
0.0
 13
1580.3749107337501
 23
-228.1604872919585
 33
0.0
  0
LINE
  5
6B42
  8
AM_5
 10
1580.3749107337501
 20
-231.1604872919585
 30
0.0
 11
1580.3749107337501
 21
-234.1604872919585
 31
0.0
  0
SOLID
  5
6B43
  8
AM_5
 10
1579.8749107337501
 20
-232.1604872919585
 30
0.0
 11
1580.874910733751
 21
-232.1604872919585
 31
0.0
 12
1580.3749107337501
 22
-235.1604872919585
 32
0.0
 13
1580.3749107337501
 23
-235.1604872919585
 33
0.0
  0
LINE
  5
6B44
  8
AM_5
 10
1580.3749107337501
 20
-232.1604872919585
 30
0.0
 11
1580.3749107337501
 21
-229.1604872919585
 31
0.0
  0
INSERT
  5
6B45
  8
0
  2
*U139
 10
0.0
 20
0.0
 30
0.0
  0
LINE
  5
6B46
  8
AM_5
 10
1572.043845082721
 20
-247.1604872919585
 30
0.0
 11
1581.3749107337501
 21
-247.1604872919585
 31
0.0
  0
LINE
  5
6B47
  8
AM_5
 10
1567.0938450827209
 20
-237.6604872919585
 30
0.0
 11
1581.3749107337501
 21
-237.6604872919585
 31
0.0
  0
LINE
  5
6B48
  8
AM_5
 10
1580.3749107337501
 20
-244.1604872919585
 30
0.0
 11
1580.3749107337501
 21
-240.6604872919585
 31
0.0
  0
SOLID
  5
6B49
  8
AM_5
 10
1579.8749107337501
 20
-244.1604872919585
 30
0.0
 11
1580.874910733751
 21
-244.1604872919585
 31
0.0
 12
1580.3749107337501
 22
-247.1604872919585
 32
0.0
 13
1580.3749107337501
 23
-247.1604872919585
 33
0.0
  0
SOLID
  5
6B4A
  8
AM_5
 10
1579.8749107337501
 20
-240.6604872919585
 30
0.0
 11
1580.874910733751
 21
-240.6604872919585
 31
0.0
 12
1580.3749107337501
 22
-237.6604872919585
 32
0.0
 13
1580.3749107337501
 23
-237.6604872919585
 33
0.0
  0
INSERT
  5
6B4B
  8
0
  2
*U140
 10
0.0
 20
0.0
 30
0.0
  0
LINE
  5
6B4C
  8
AM_5
 10
1551.0438450827201
 20
-248.16048729195839
 30
0.0
 11
1551.0438450827201
 21
-257.48435456494661
 31
0.0
  0
LINE
  5
6B4D
  8
AM_5
 10
1567.043845082721
 20
-248.16048729195839
 30
0.0
 11
1567.043845082721
 21
-257.48435456494661
 31
0.0
  0
LINE
  5
6B4E
  8
AM_5
 10
1554.0438450827201
 20
-256.48435456494661
 30
0.0
 11
1564.043845082721
 21
-256.48435456494661
 31
0.0
  0
SOLID
  5
6B4F
  8
AM_5
 10
1554.0438450827201
 20
-255.98435456494661
 30
0.0
 11
1554.0438450827201
 21
-256.98435456494661
 31
0.0
 12
1551.0438450827201
 22
-256.48435456494661
 32
0.0
 13
1551.0438450827201
 23
-256.48435456494661
 33
0.0
  0
SOLID
  5
6B50
  8
AM_5
 10
1564.043845082721
 20
-255.98435456494661
 30
0.0
 11
1564.043845082721
 21
-256.98435456494661
 31
0.0
 12
1567.043845082721
 22
-256.48435456494661
 32
0.0
 13
1567.043845082721
 23
-256.48435456494661
 33
0.0
  0
INSERT
  5
6B51
  8
0
  2
*U141
 10
0.0
 20
0.0
 30
0.0
  0
LINE
  5
6B52
  8
AM_5
 10
1554.543845082721
 20
-234.16048729195839
 30
0.0
 11
1554.543845082721
 21
-223.14567590257241
 31
0.0
  0
LINE
  5
6B53
  8
AM_5
 10
1563.543845082721
 20
-234.1604872919585
 30
0.0
 11
1563.543845082721
 21
-223.14567590257241
 31
0.0
  0
LINE
  5
6B54
  8
AM_5
 10
1557.543845082721
 20
-224.14567590257229
 30
0.0
 11
1560.543845082721
 21
-224.14567590257229
 31
0.0
  0
SOLID
  5
6B55
  8
AM_5
 10
1557.543845082721
 20
-223.64567590257241
 30
0.0
 11
1557.543845082721
 21
-224.64567590257229
 31
0.0
 12
1554.543845082721
 22
-224.14567590257229
 32
0.0
 13
1554.543845082721
 23
-224.14567590257229
 33
0.0
  0
SOLID
  5
6B56
  8
AM_5
 10
1560.543845082721
 20
-223.64567590257241
 30
0.0
 11
1560.543845082721
 21
-224.64567590257229
 31
0.0
 12
1563.543845082721
 22
-224.14567590257229
 32
0.0
 13
1563.543845082721
 23
-224.14567590257229
 33
0.0
  0
INSERT
  5
6B57
  8
0
  2
*U142
 10
0.0
 20
0.0
 30
0.0
  0
LINE
  5
6B58
  8
AM_5
 10
1552.043845082721
 20
-227.16048729195839
 30
0.0
 11
1552.043845082721
 21
-217.3424712062353
 31
0.0
  0
LINE
  5
6B59
  8
AM_5
 10
1566.043845082721
 20
-227.16048729195839
 30
0.0
 11
1566.043845082721
 21
-217.3424712062353
 31
0.0
  0
LINE
  5
6B5A
  8
AM_5
 10
1555.043845082721
 20
-218.3424712062353
 30
0.0
 11
1563.043845082721
 21
-218.3424712062353
 31
0.0
  0
SOLID
  5
6B5B
  8
AM_5
 10
1555.043845082721
 20
-217.8424712062353
 30
0.0
 11
1555.043845082721
 21
-218.8424712062353
 31
0.0
 12
1552.043845082721
 22
-218.3424712062353
 32
0.0
 13
1552.043845082721
 23
-218.3424712062353
 33
0.0
  0
SOLID
  5
6B5C
  8
AM_5
 10
1563.043845082721
 20
-217.8424712062353
 30
0.0
 11
1563.043845082721
 21
-218.8424712062353
 31
0.0
 12
1566.043845082721
 22
-218.3424712062353
 32
0.0
 13
1566.043845082721
 23
-218.3424712062353
 33
0.0
  0
INSERT
  5
6B5D
  8
0
  2
*U143
 10
0.0
 20
0.0
 30
0.0
  0
LINE
  5
6B5E
  8
AM_5
 10
1528.6278637009571
 20
-244.4216701310911
 30
0.0
 11
1551.3177267988069
 21
-244.4216701310911
 31
0.0
  0
TEXT
  5
6B5F
  8
AM_5
 10
1528.91926202849
 20
-243.62167013109101
 30
0.0
 40
2.3999999999999999
  1
Taper 1:10
  7
ROMANS
  0
SOLID
  5
6B60
  8
AM_5
 10
1548.363303539807
 20
-244.94261466419101
 30
0.0
 11
1548.363303539807
 21
-243.90072559799111
 31
0.0
 12
1551.3177267988069
 22
-244.4216701310911
 32
0.0
 13
1551.3177267988069
 23
-244.4216701310911
 33
0.0
  0
TEXT
  5
6B61
  8
AM_5
 10
961.76628790231484
 20
494.37747770600708
 30
0.0
 40
4.0
  1
CW
  7
ROMANS
  0
TEXT
  5
6B62
  8
AM_5
 10
956.88067273141837
 20
461.31452872161049
 30
0.0
 40
4.0
  1
CCW
  7
ROMANS
  0
POLYLINE
  5
6B63
  8
AM_5
 66
     1
 10
0.0
 20
0.0
 30
0.0
 70
     7
  0
VERTEX
  5
6B64
  8
AM_5
 10
970.40276881328248
 20
492.40296246577719
 30
0.0
 42
-0.0185322085214218
  0
VERTEX
  5
6B65
  8
AM_5
 10
972.43194188316215
 20
496.80406170545831
 30
0.0
  0
VERTEX
  5
6B66
  8
AM_5
 10
971.89674947856247
 20
497.0752979310235
 30
0.0
  0
VERTEX
  5
6B67
  8
AM_5
 10
974.51923426189603
 20
499.10949556987259
 30
0.0
  0
VERTEX
  5
6B68
  8
AM_5
 10
974.30511529926127
 20
495.85473491598032
 30
0.0
  0
VERTEX
  5
6B69
  8
AM_5
 10
973.76992289466148
 20
496.12597114154562
 30
0.0
 42
0.018532208521422
  0
VERTEX
  5
6B6A
  8
AM_5
 10
971.78729049152207
 20
491.82581454497569
 30
0.0
  0
SEQEND
  5
6B6B
  8
AM_5
  0
POLYLINE
  5
6B6C
  8
AM_5
 66
     1
 10
0.0
 20
0.0
 30
0.0
 70
     7
  0
VERTEX
  5
6B6D
  8
AM_5
 10
970.40276881328214
 20
466.24866662417497
 30
0.0
 42
0.0185322085214218
  0
VERTEX
  5
6B6E
  8
AM_5
 10
972.4319418831617
 20
461.84756738449391
 30
0.0
  0
VERTEX
  5
6B6F
  8
AM_5
 10
971.89674947856236
 20
461.57633115892872
 30
0.0
  0
VERTEX
  5
6B70
  8
AM_5
 10
974.51923426189535
 20
459.54213352007952
 30
0.0
  0
VERTEX
  5
6B71
  8
AM_5
 10
974.30511529926105
 20
462.79689417397202
 30
0.0
  0
VERTEX
  5
6B72
  8
AM_5
 10
973.76992289466102
 20
462.5256579484066
 30
0.0
 42
-0.018532208521422
  0
VERTEX
  5
6B73
  8
AM_5
 10
971.78729049152184
 20
466.8258145449758
 30
0.0
  0
SEQEND
  5
6B74
  8
AM_5
  0
LINE
  5
6B75
  8
AM_7
 10
1058.0701993820439
 20
479.32581454497557
 30
0.0
 11
969.22750510960248
 21
479.3258145449762
 31
0.0
  0
LINE
  5
6B76
  8
AM_7
 10
979.78729049152184
 20
472.92581454497582
 30
0.0
 11
979.78729049152184
 21
485.72581454497589
 31
0.0
  0
TEXT
  5
6B77
  8
AM_5
 10
1069.7872904915221
 20
477.77243315781539
 30
0.0
 40
3.0
  1
40
 50
90.0
  7
ROMANS
  0
SOLID
  5
6B78
  8
AM_5
 10
1071.308235024622
 20
496.37139128597579
 30
0.0
 11
1070.2663459584221
 21
496.37139128597579
 31
0.0
 12
1070.7872904915221
 22
499.3258145449758
 32
0.0
 13
1070.7872904915221
 23
499.3258145449758
 33
0.0
  0
LINE
  5
6B79
  8
AM_5
 10
1057.08397552766
 20
499.3258145449758
 30
0.0
 11
1071.7872904915209
 21
499.3258145449758
 31
0.0
  0
TEXT
  5
6B7A
  8
AM_5
 10
1077.7872904915221
 20
477.78683145492442
 30
0.0
 40
3.0
  1
50
 50
90.0
  7
ROMANS
  0
SOLID
  5
6B7B
  8
AM_5
 10
1079.308235024622
 20
501.3713912859759
 30
0.0
 11
1078.2663459584221
 21
501.3713912859759
 31
0.0
 12
1078.7872904915221
 22
504.32581454497591
 32
0.0
 13
1078.7872904915221
 23
504.32581454497591
 33
0.0
  0
LINE
  5
6B7C
  8
AM_5
 10
1053.6867605573541
 20
504.32581454497591
 30
0.0
 11
1079.7872904915221
 21
504.32581454497591
 31
0.0
  0
POLYLINE
  5
6B7D
  8
AM_5
 66
     1
 10
0.0
 20
0.0
 30
0.0
 70
     1
  0
VERTEX
  5
77F8
  8
AM_5
 10
1067.0085989205829
 20
477.3780332576693
 30
0.0
  0
VERTEX
  5
77F9
  8
AM_5
 10
1069.4869861033189
 20
477.3780332576693
 30
0.0
  0
VERTEX
  5
77FA
  8
AM_5
 10
1069.4869861033189
 20
475.0109101487248
 30
0.0
  0
VERTEX
  5
77FB
  8
AM_5
 10
1067.0085989205829
 20
475.0109101487248
 30
0.0
  0
SEQEND
  5
77FC
  8
AM_5
  0
POLYLINE
  5
6B7E
  8
AM_5
 66
     1
 10
0.0
 20
0.0
 30
0.0
 70
     1
  0
VERTEX
  5
77FD
  8
AM_5
 10
1075.0085989205829
 20
477.3780332576693
 30
0.0
  0
VERTEX
  5
77FE
  8
AM_5
 10
1077.4869861033189
 20
477.3780332576693
 30
0.0
  0
VERTEX
  5
77FF
  8
AM_5
 10
1077.4869861033189
 20
475.0109101487248
 30
0.0
  0
VERTEX
  5
7800
  8
AM_5
 10
1075.0085989205829
 20
475.0109101487248
 30
0.0
  0
SEQEND
  5
7801
  8
AM_5
  0
TEXT
  5
6B7F
  8
AM_5
 10
1061.7872904915221
 20
476.45807195270021
 30
0.0
 40
3.0
  1
19
 50
90.0
  7
ROMANS
  0
SOLID
  5
6B80
  8
AM_5
 10
1063.308235024622
 20
485.87139128597568
 30
0.0
 11
1062.2663459584221
 21
485.87139128597568
 31
0.0
 12
1062.7872904915221
 22
488.82581454497569
 32
0.0
 13
1062.7872904915221
 23
488.82581454497569
 33
0.0
  0
LINE
  5
6B81
  8
AM_5
 10
1043.7557606993389
 20
488.8258145449758
 30
0.0
 11
1064.1291975519041
 21
488.8258145449758
 31
0.0
  0
LINE
  5
6B82
  8
AM_5
 10
1062.7872904915221
 20
469.82581454497557
 30
0.0
 11
1062.7872904915221
 21
488.8258145449758
 31
0.0
  0
LINE
  5
6B83
  8
AM_5
 10
1070.7872904915221
 20
459.3258145449754
 30
0.0
 11
1070.7872904915221
 21
499.3258145449758
 31
0.0
  0
LINE
  5
6B84
  8
AM_5
 10
1078.7872904915221
 20
454.3258145449754
 30
0.0
 11
1078.7872904915221
 21
504.32581454497591
 31
0.0
  0
TEXT
  5
6B85
  8
AM_5
 10
1065.770808868165
 20
447.06230605903249
 30
0.0
 40
3.0
  1
4-%%c5.6
  7
ROMANS
  0
SOLID
  5
6B86
  8
AM_5
 10
1054.442516336695
 20
455.90329462820171
 30
0.0
 11
1053.752192040316
 21
455.12291959522349
 31
0.0
 12
1051.884490820448
 22
457.470618927163
 32
0.0
 13
1051.884490820448
 23
457.470618927163
 33
0.0
  0
LINE
  5
6B87
  8
AM_5
 10
1064.7809839286731
 20
446.06230605903238
 30
0.0
 11
1051.884490820448
 21
457.47061892716317
 31
0.0
  0
LINE
  5
6B88
  8
AM_5
 10
1064.7809839286731
 20
446.06230605903238
 30
0.0
 11
1081.610051930588
 21
446.06230605903238
 31
0.0
  0
TEXT
  5
6B89
  8
AM_5
 10
1061.7872904915209
 20
301.57293589047288
 30
0.0
 40
3.0
  1
28
 50
90.0
  7
ROMANS
  0
SOLID
  5
6B8A
  8
AM_5
 10
1063.3082350246209
 20
315.83747093046043
 30
0.0
 11
1062.2663459584221
 21
315.83747093046043
 31
0.0
 12
1062.7872904915209
 22
318.79189418946038
 32
0.0
 13
1062.7872904915209
 23
318.79189418946038
 33
0.0
  0
SOLID
  5
6B8B
  8
AM_5
 10
1062.2663459584221
 20
293.74631744846027
 30
0.0
 11
1063.3082350246209
 21
293.74631744846027
 31
0.0
 12
1062.7872904915209
 22
290.79189418946021
 32
0.0
 13
1062.7872904915209
 23
290.79189418946021
 33
0.0
  0
LINE
  5
6B8C
  8
AM_5
 10
1054.9872904915219
 20
318.79189418946038
 30
0.0
 11
1063.7872904915209
 21
318.79189418946038
 31
0.0
  0
TEXT
  5
6B8D
  8
AM_5
 10
1069.7872904915209
 20
327.74823510465831
 30
0.0
 40
3.0
  1
78
 50
90.0
  7
ROMANS
  0
SOLID
  5
6B8E
  8
AM_5
 10
1071.3082350246209
 20
365.83747093046009
 30
0.0
 11
1070.2663459584221
 21
365.83747093046009
 31
0.0
 12
1070.7872904915209
 22
368.79189418946021
 32
0.0
 13
1070.7872904915209
 23
368.79189418946021
 33
0.0
  0
SOLID
  5
6B8F
  8
AM_5
 10
1070.2663459584221
 20
293.74631744846027
 30
0.0
 11
1071.3082350246209
 21
293.74631744846027
 31
0.0
 12
1070.7872904915209
 22
290.79189418946021
 32
0.0
 13
1070.7872904915209
 23
290.79189418946021
 33
0.0
  0
LINE
  5
6B90
  8
AM_5
 10
1050.633223868344
 20
368.79189418946021
 30
0.0
 11
1071.7872904915209
 21
368.79189418946021
 31
0.0
  0
TEXT
  5
6B91
  8
AM_5
 10
1077.7872904915209
 20
340.41170425747509
 30
0.0
 40
3.0
  1
108
 50
90.0
  7
ROMANS
  0
SOLID
  5
6B92
  8
AM_5
 10
1079.308235024622
 20
395.8374709304602
 30
0.0
 11
1078.2663459584221
 21
395.8374709304602
 31
0.0
 12
1078.7872904915221
 22
398.79189418946021
 32
0.0
 13
1078.7872904915221
 23
398.79189418946021
 33
0.0
  0
SOLID
  5
6B93
  8
AM_5
 10
1078.2663459584221
 20
293.74631744846027
 30
0.0
 11
1079.3082350246209
 21
293.74631744846027
 31
0.0
 12
1078.7872904915209
 22
290.79189418946021
 32
0.0
 13
1078.7872904915209
 23
290.79189418946021
 33
0.0
  0
LINE
  5
6B94
  8
AM_5
 10
1054.9872904915219
 20
290.79189418946021
 30
0.0
 11
1088.749396591407
 21
290.79189418946021
 31
0.0
  0
TEXT
  5
6B95
  8
AM_5
 10
1077.7872904915221
 20
405.17134890414923
 30
0.0
 40
3.0
  1
19
 50
90.0
  7
ROMANS
  0
SOLID
  5
6B96
  8
AM_5
 10
1079.308235024622
 20
414.83747093046031
 30
0.0
 11
1078.2663459584221
 21
414.83747093046031
 31
0.0
 12
1078.7872904915221
 22
417.79189418946032
 32
0.0
 13
1078.7872904915221
 23
417.79189418946032
 33
0.0
  0
SOLID
  5
6B97
  8
AM_5
 10
1078.2663459584221
 20
401.74631744846022
 30
0.0
 11
1079.308235024622
 21
401.74631744846022
 31
0.0
 12
1078.7872904915221
 22
398.79189418946021
 32
0.0
 13
1078.7872904915221
 23
398.79189418946021
 33
0.0
  0
LINE
  5
6B98
  8
AM_5
 10
1042.9334806366901
 20
398.79189418946021
 30
0.0
 11
1079.7872904915221
 21
398.79189418946021
 31
0.0
  0
LINE
  5
6B99
  8
AM_5
 10
1042.9334806366901
 20
417.79189418946032
 30
0.0
 11
1079.7872904915221
 21
417.79189418946032
 31
0.0
  0
TEXT
  5
6B9A
  8
AM_5
 10
1085.7872904915221
 20
348.1369157617894
 30
0.0
 40
3.0
  1
129.5
 50
90.0
  7
ROMANS
  0
SOLID
  5
6B9B
  8
AM_5
 10
1086.2663459584221
 20
293.74631744846027
 30
0.0
 11
1087.3082350246209
 21
293.74631744846027
 31
0.0
 12
1086.7872904915209
 22
290.79189418946021
 32
0.0
 13
1086.7872904915209
 23
290.79189418946021
 33
0.0
  0
LINE
  5
6B9C
  8
AM_5
 10
1037.433664042652
 20
420.29189418946009
 30
0.0
 11
1088.1557533142741
 21
420.29189418946009
 31
0.0
  0
SOLID
  5
6B9D
  8
AM_5
 10
1087.308235024622
 20
417.33747093045997
 30
0.0
 11
1086.2663459584221
 21
417.33747093045997
 31
0.0
 12
1086.7872904915221
 22
420.29189418945998
 32
0.0
 13
1086.7872904915221
 23
420.29189418945998
 33
0.0
  0
LINE
  5
6B9E
  8
AM_5
 10
1042.9334806366901
 20
372.79189418946021
 30
0.0
 11
1072.0994109153389
 21
372.79189418946021
 31
0.0
  0
SOLID
  5
6B9F
  8
AM_5
 10
1071.308235024622
 20
395.83747093045997
 30
0.0
 11
1070.2663459584221
 21
395.83747093045997
 31
0.0
 12
1070.7872904915221
 22
398.79189418945998
 32
0.0
 13
1070.7872904915221
 23
398.79189418945998
 33
0.0
  0
LINE
  5
6BA0
  8
AM_5
 10
1070.7872904915221
 20
372.79189418946021
 30
0.0
 11
1070.7872904915221
 21
398.79189418946021
 31
0.0
  0
SOLID
  5
6BA1
  8
AM_5
 10
1071.308235024622
 20
375.74631744846027
 30
0.0
 11
1070.2663459584221
 21
375.74631744846027
 31
0.0
 12
1070.7872904915221
 22
372.79189418946032
 32
0.0
 13
1070.7872904915221
 23
372.79189418946032
 33
0.0
  0
TEXT
  5
6BA2
  8
AM_5
 10
1069.7872904915221
 20
381.92757889665518
 30
0.0
 40
3.0
  1
26
 50
90.0
  7
ROMANS
  0
LINE
  5
6BA3
  8
AM_5
 10
1062.7872904915209
 20
290.79189418946021
 30
0.0
 11
1062.7872904915209
 21
318.79189418946038
 31
0.0
  0
LINE
  5
6BA4
  8
AM_5
 10
1070.7872904915209
 20
290.79189418946021
 30
0.0
 11
1070.7872904915221
 21
368.79189418946021
 31
0.0
  0
LINE
  5
6BA5
  8
AM_5
 10
1078.7872904915209
 20
290.79189418946021
 30
0.0
 11
1078.7872904915209
 21
417.79189418946032
 31
0.0
  0
LINE
  5
6BA6
  8
AM_5
 10
1086.7872904915209
 20
290.79189418946021
 30
0.0
 11
1086.7872904915209
 21
420.29189418946009
 31
0.0
  0
LINE
  5
6BA7
  8
AM_7
 10
1037.7872904915221
 20
357.79189418946009
 30
0.0
 11
1021.787290491522
 21
357.79189418946009
 31
0.0
  0
LINE
  5
6BA8
  8
AM_5
 10
939.66314905145009
 20
388.2558155608001
 30
0.0
 11
961.91851951044464
 21
388.25581556079999
 31
0.0
  0
SOLID
  5
6BA9
  8
AM_5
 10
976.97773538307729
 20
397.74003864210607
 30
0.0
 11
977.50692807362429
 21
396.84254885244911
 31
0.0
 12
979.78729049152162
 22
398.79189418946049
 32
0.0
 13
979.78729049152162
 23
398.79189418946049
 33
0.0
  0
LINE
  5
6BAA
  8
AM_5
 10
961.91851951044464
 20
388.25581556079999
 30
0.0
 11
979.78729049152162
 21
398.79189418946049
 31
0.0
  0
TEXT
  5
6BAB
  8
AM_5
 10
940.02739696086667
 20
389.2558155608001
 30
0.0
 40
3.0
  1
M8x1.25P
  7
ROMANS
  0
LINE
  5
6BAC
  8
AM_5
 10
972.27665697766679
 20
341.70778509415288
 30
0.0
 11
996.60207975702031
 21
341.70778509415288
 31
0.0
  0
SOLID
  5
6BAD
  8
AM_5
 10
1022.856515705239
 20
353.85379903422222
 30
0.0
 11
1022.402097274193
 21
354.79136861339663
 31
0.0
 12
1025.2879171436759
 22
355.61115131679151
 32
0.0
 13
1025.2879171436759
 23
355.61115131679151
 33
0.0
  0
TEXT
  5
6BAE
  8
AM_5
 10
972.19314879085459
 20
342.70778509415288
 30
0.0
 40
3.0
  1
2-PT 1/8
  7
ROMANS
  0
TEXT
  5
6BAF
  8
AM_5
 10
1031.8664515464559
 20
339.24283234748981
 30
0.0
 40
3.0
  1
%%c46
  7
ROMANS
  0
SOLID
  5
6BB0
  8
AM_5
 10
1049.8328672325219
 20
337.72188781438979
 30
0.0
 11
1049.8328672325219
 21
338.76377688058977
 31
0.0
 12
1052.7872904915221
 22
338.2428323474897
 32
0.0
 13
1052.7872904915221
 23
338.2428323474897
 33
0.0
  0
SOLID
  5
6BB1
  8
AM_5
 10
1009.741713750522
 20
338.76377688058977
 30
0.0
 11
1009.741713750522
 21
337.72188781438979
 31
0.0
 12
1006.787290491522
 22
338.2428323474897
 32
0.0
 13
1006.787290491522
 23
338.2428323474897
 33
0.0
  0
LINE
  5
6BB2
  8
AM_5
 10
1006.787290491522
 20
338.2428323474897
 30
0.0
 11
1052.7872904915209
 21
338.2428323474897
 31
0.0
  0
TEXT
  5
6BB3
  8
AM_5
 10
1002.057933248265
 20
429.05701166928009
 30
0.0
 40
3.0
  1
50
  7
ROMANS
  0
SOLID
  5
6BB4
  8
AM_5
 10
982.74171375052185
 20
428.57795620238039
 30
0.0
 11
982.74171375052185
 21
427.53606713618041
 31
0.0
 12
979.78729049152184
 22
428.05701166928043
 32
0.0
 13
979.78729049152184
 23
428.05701166928043
 33
0.0
  0
SOLID
  5
6BB5
  8
AM_5
 10
1026.8328672325219
 20
427.53606713618018
 30
0.0
 11
1026.8328672325219
 21
428.57795620238011
 31
0.0
 12
1029.7872904915221
 22
428.0570116692802
 32
0.0
 13
1029.7872904915221
 23
428.0570116692802
 33
0.0
  0
LINE
  5
6BB6
  8
AM_5
 10
1029.7872904915221
 20
428.0570116692802
 30
0.0
 11
971.78729049152207
 21
428.05701166928009
 31
0.0
  0
LINE
  5
6BB7
  8
AM_5
 10
1029.7872904915221
 20
423.87650312453133
 30
0.0
 11
1029.7872904915221
 21
429.05701166928009
 31
0.0
  0
LINE
  5
6BB8
  8
AM_5
 10
979.78729049152184
 20
421.17258112077218
 30
0.0
 11
979.78729049152184
 21
429.05701166928043
 31
0.0
  0
TEXT
  5
6BB9
  8
AM_5
 10
974.72899760387747
 20
429.05701166928043
 30
0.0
 40
3.0
  1
8
  7
ROMANS
  0
SOLID
  5
6BBA
  8
AM_5
 10
976.83286723252354
 20
427.53606713618058
 30
0.0
 11
976.83286723252354
 21
428.57795620238051
 31
0.0
 12
979.78729049152344
 22
428.0570116692806
 32
0.0
 13
979.78729049152344
 23
428.0570116692806
 33
0.0
  0
TEXT
  5
6BBB
  8
AM_5
 10
1004.393172295834
 20
437.05701166928009
 30
0.0
 40
3.0
  1
70
  7
ROMANS
  0
SOLID
  5
6BBC
  8
AM_5
 10
1038.832867232521
 20
435.53606713618018
 30
0.0
 11
1038.832867232521
 21
436.57795620238011
 31
0.0
 12
1041.7872904915221
 22
436.0570116692802
 32
0.0
 13
1041.7872904915221
 23
436.0570116692802
 33
0.0
  0
SOLID
  5
6BBD
  8
AM_5
 10
974.74171375052197
 20
436.57795620238039
 30
0.0
 11
974.74171375052197
 21
435.53606713618041
 31
0.0
 12
971.78729049152184
 22
436.05701166928043
 32
0.0
 13
971.78729049152184
 23
436.05701166928043
 33
0.0
  0
LINE
  5
6BBE
  8
AM_5
 10
971.78729049152184
 20
419.07159692994537
 30
0.0
 11
971.78729049152184
 21
437.05701166928043
 31
0.0
  0
LINE
  5
6BBF
  8
AM_5
 10
1041.7872904915221
 20
418.92332563978277
 30
0.0
 11
1041.7872904915221
 21
437.05701166928009
 31
0.0
  0
LINE
  5
6BC0
  8
AM_5
 10
971.78729049152207
 20
436.0570116692802
 30
0.0
 11
1041.7872904915221
 21
436.0570116692802
 31
0.0
  0
LINE
  5
6BC1
  8
0
  6
HIDDEN
 62
     3
 10
1023.287290491522
 20
417.79189418946032
 30
0.0
 11
1023.287290491522
 21
410.79189418946021
 31
0.0
  0
LINE
  5
6BC2
  8
0
  6
HIDDEN
 62
     3
 10
1036.2872904915209
 20
417.79189418946021
 30
0.0
 11
1036.2872904915209
 21
410.79189418946009
 31
0.0
  0
LINE
  5
6BC3
  8
0
  6
HIDDEN
 62
     3
 10
1021.787290491521
 20
398.79189418946032
 30
0.0
 11
1022.737290491521
 21
408.29189418946032
 31
0.0
  0
LINE
  5
6BC4
  8
0
  6
HIDDEN
 62
     3
 10
1022.787290491522
 20
410.79189418946021
 30
0.0
 11
1036.7872904915221
 21
410.79189418946021
 31
0.0
  0
LINE
  5
6BC5
  8
0
  6
HIDDEN
 62
     3
 10
1037.7872904915221
 20
398.79189418946032
 30
0.0
 11
1036.8372904915209
 21
408.29189418946021
 31
0.0
  0
LINE
  5
6BC6
  8
0
  6
HIDDEN
 62
     3
 10
1022.687290491521
 20
407.79189418946009
 30
0.0
 11
1036.887290491522
 21
407.79189418946009
 31
0.0
  0
LINE
  5
6BC7
  8
0
  6
HIDDEN
 62
     3
 10
1022.737290491521
 20
408.29189418946032
 30
0.0
 11
1036.8372904915209
 21
408.29189418946021
 31
0.0
  0
LINE
  5
6BC8
  8
AM_7
 10
1027.7872904915221
 20
309.79189418945998
 30
0.0
 11
1011.787290491522
 21
309.79189418945998
 31
0.0
  0
LINE
  5
6BC9
  8
AM_7
 10
1019.787290491522
 20
317.79189418946021
 30
0.0
 11
1019.787290491522
 21
301.79189418946021
 31
0.0
  0
LINE
  5
6BCA
  8
UMCL1
 10
1041.7872904915221
 20
398.79189418946021
 30
0.0
 11
1041.7872904915221
 21
417.79189418946021
 31
0.0
  0
LINE
  5
6BCB
  8
0
  6
HIDDEN
 62
     3
 10
976.38729049152175
 20
417.79189418946038
 30
0.0
 11
976.38729049152175
 21
398.79189418946049
 31
0.0
  0
LINE
  5
6BCC
  8
0
  6
HIDDEN
 62
     3
 10
975.78729049152184
 20
417.79189418946038
 30
0.0
 11
975.78729049152184
 21
398.79189418946049
 31
0.0
  0
LINE
  5
6BCD
  8
0
  6
HIDDEN
 62
     3
 10
983.18729049152182
 20
417.79189418946038
 30
0.0
 11
983.18729049152171
 21
398.79189418946049
 31
0.0
  0
LINE
  5
6BCE
  8
0
  6
HIDDEN
 62
     3
 10
983.78729049152184
 20
417.79189418946038
 30
0.0
 11
983.7872904915215
 21
398.79189418946049
 31
0.0
  0
LINE
  5
6BCF
  8
UMCL1
 10
971.78729049152184
 20
417.79189418946038
 30
0.0
 11
971.78729049152162
 21
398.79189418946049
 31
0.0
  0
LINE
  5
6BD0
  8
UMCL1
 10
971.78729049152184
 20
417.79189418946038
 30
0.0
 11
1041.7872904915221
 21
417.79189418946021
 31
0.0
  0
LINE
  5
6BD1
  8
UMCL1
 10
971.78729049152162
 20
398.79189418946049
 30
0.0
 11
1041.7872904915221
 21
398.79189418946021
 31
0.0
  0
LINE
  5
6BD2
  8
UMCL1
 10
1005.587290491521
 20
290.79189418946021
 30
0.0
 11
1053.987290491521
 21
290.79189418946021
 31
0.0
  0
LINE
  5
6BD3
  8
UMCL1
 10
1005.587290491521
 20
318.79189418946021
 30
0.0
 11
1053.987290491521
 21
318.79189418946038
 31
0.0
  0
LINE
  5
6BD4
  8
UMCL1
 10
1054.7872904915221
 20
291.59189418946028
 30
0.0
 11
1054.7872904915221
 21
317.99189418946048
 31
0.0
  0
LINE
  5
6BD5
  8
UMCL1
 10
1052.7872904915209
 20
364.79189418946021
 30
0.0
 11
1052.7872904915221
 21
318.79189418946032
 31
0.0
  0
LINE
  5
6BD6
  8
UMCL1
 10
1004.787290491522
 20
317.99189418946031
 30
0.0
 11
1004.787290491522
 21
291.59189418946028
 31
0.0
  0
LINE
  5
6BD7
  8
UMCL1
 10
1006.787290491522
 20
364.79189418946021
 30
0.0
 11
1006.787290491522
 21
318.79189418946032
 31
0.0
  0
LINE
  5
6BD8
  8
UMCL1
 10
1048.7872904915209
 20
368.79189418946021
 30
0.0
 11
1010.787290491522
 21
368.79189418946021
 31
0.0
  0
LINE
  5
6BD9
  8
UMCL1
 10
1023.287290491522
 20
417.79189418946032
 30
0.0
 11
1023.287290491522
 21
419.79189418946038
 31
0.0
  0
LINE
  5
6BDA
  8
UMCL1
 10
1023.787290491521
 20
420.29189418946038
 30
0.0
 11
1035.7872904915221
 21
420.29189418946032
 31
0.0
  0
LINE
  5
6BDB
  8
UMCL1
 10
1036.2872904915221
 20
419.79189418946032
 30
0.0
 11
1036.2872904915209
 21
417.79189418946021
 31
0.0
  0
LINE
  5
6BDC
  8
UMCL1
 10
1023.287290491522
 20
419.79189418946032
 30
0.0
 11
1036.2872904915221
 21
419.79189418946032
 31
0.0
  0
LINE
  5
6BDD
  8
UMCL1
 10
1023.287290491522
 20
419.79189418946038
 30
0.0
 11
1023.787290491521
 21
420.29189418946038
 31
0.0
  0
LINE
  5
6BDE
  8
UMCL1
 10
1035.7872904915221
 20
420.29189418946032
 30
0.0
 11
1036.2872904915221
 21
419.79189418946032
 31
0.0
  0
LINE
  5
6BDF
  8
UMCL1
 10
1021.787290491522
 20
398.79189418946049
 30
0.0
 11
1021.787290491522
 21
368.79189418946021
 31
0.0
  0
LINE
  5
6BE0
  8
UMCL1
 10
1037.7872904915221
 20
398.79189418946021
 30
0.0
 11
1037.7872904915221
 21
368.79189418946021
 31
0.0
  0
POLYLINE
  5
6BE1
  8
UMCL1
 66
     1
 10
0.0
 20
0.0
 30
0.0
  0
VERTEX
  5
7802
  8
UMCL1
 10
1004.787290491522
 20
469.8258145449758
 30
0.0
  0
VERTEX
  5
7803
  8
UMCL1
 10
1004.787290491522
 20
457.40407875603802
 30
0.0
  0
SEQEND
  5
7804
  8
UMCL1
  0
LINE
  5
6BE2
  8
UMCL1
 10
1041.7872904915221
 20
469.82581454497569
 30
0.0
 11
1041.7872904915221
 21
488.82581454497569
 31
0.0
  0
LINE
  5
6BE3
  8
UMCL1
 10
971.78729049152207
 20
488.82581454497603
 30
0.0
 11
971.78729049152184
 21
469.82581454497591
 31
0.0
  0
LINE
  5
6BE4
  8
UMCL1
 10
971.78729049152207
 20
488.82581454497603
 30
0.0
 11
1041.7872904915221
 21
488.82581454497569
 31
0.0
  0
LINE
  5
6BE5
  8
UMCL1
 10
971.78729049152184
 20
469.82581454497591
 30
0.0
 11
1041.7872904915221
 21
469.82581454497569
 31
0.0
  0
CIRCLE
  5
6BE6
  8
UMCL1
 10
979.78729049152184
 20
479.3258145449758
 30
0.0
 40
3.3999999999999999
  0
CIRCLE
  5
6BE7
  8
UMCL1
 10
1029.7872904915221
 20
479.32581454497569
 30
0.0
 40
6.5
  0
CIRCLE
  5
6BE8
  8
UMCL1
 10
1029.7872904915221
 20
479.32581454497569
 30
0.0
 40
6.0
  0
POLYLINE
  5
6BE9
  8
UMCL1
 66
     1
 10
0.0
 20
0.0
 30
0.0
 70
     1
  0
VERTEX
  5
7805
  8
UMCL1
 10
1032.7872904915221
 20
477.59376373740679
 30
0.0
  0
VERTEX
  5
7806
  8
UMCL1
 10
1032.7872904915221
 20
481.05786535254458
 30
0.0
  0
VERTEX
  5
7807
  8
UMCL1
 10
1029.7872904915221
 20
482.78991616011348
 30
0.0
  0
VERTEX
  5
7808
  8
UMCL1
 10
1026.7872904915221
 20
481.05786535254452
 30
0.0
  0
VERTEX
  5
7809
  8
UMCL1
 10
1026.7872904915221
 20
477.59376373740679
 30
0.0
  0
VERTEX
  5
780A
  8
UMCL1
 10
1029.7872904915221
 20
475.86171292983789
 30
0.0
  0
SEQEND
  5
780B
  8
UMCL1
  0
ARC
  5
6BEA
  8
UMCL1
 62
     7
 10
1029.7872904915221
 20
479.32581454497591
 30
0.0
 40
23.0
 50
204.39616528275059
 51
155.60383471724941
  0
CIRCLE
  5
6BEB
  8
UMCL1
 10
1009.787290491522
 20
499.32581454497591
 30
0.0
 40
2.7999999999999998
  0
CIRCLE
  5
6BEC
  8
UMCL1
 10
1049.7872904915221
 20
499.32581454497591
 30
0.0
 40
2.7999999999999998
  0
CIRCLE
  5
6BED
  8
UMCL1
 10
1049.7872904915221
 20
459.32581454497591
 30
0.0
 40
2.7999999999999998
  0
CIRCLE
  5
6BEE
  8
UMCL1
 10
1009.787290491522
 20
459.32581454497591
 30
0.0
 40
2.7999999999999998
  0
LINE
  5
6BEF
  8
UMCL1
 10
1004.787290491522
 20
317.99189418946031
 30
0.0
 11
1054.7872904915221
 21
317.99189418946031
 31
0.0
  0
LINE
  5
6BF0
  8
UMCL1
 10
1004.787290491522
 20
291.59189418946039
 30
0.0
 11
1054.7872904915221
 21
291.59189418946039
 31
0.0
  0
ARC
  5
6BF1
  8
UMCL1
 10
1048.7872904915209
 20
364.79189418946021
 30
0.0
 40
4.0
 50
0.0
 51
90.0
  0
ARC
  5
6BF2
  8
UMCL1
 10
1010.787290491522
 20
364.79189418946021
 30
0.0
 40
4.0
 50
90.0
 51
180.0
  0
LINE
  5
6BF3
  8
UMCL1
 10
1005.587290491521
 20
290.79189418946021
 30
0.0
 11
1004.787290491522
 21
291.59189418946028
 31
0.0
  0
LINE
  5
6BF4
  8
UMCL1
 10
1053.987290491521
 20
290.79189418946021
 30
0.0
 11
1054.7872904915221
 21
291.59189418946028
 31
0.0
  0
LINE
  5
6BF5
  8
UMCL1
 10
1005.587290491521
 20
318.79189418946021
 30
0.0
 11
1004.787290491522
 21
317.99189418946031
 31
0.0
  0
LINE
  5
6BF6
  8
UMCL1
 10
1053.987290491521
 20
318.79189418946038
 30
0.0
 11
1054.7872904915221
 21
317.99189418946048
 31
0.0
  0
CIRCLE
  5
6BF7
  8
UMCL1
 10
1019.787290491522
 20
309.79189418946021
 30
0.0
 40
4.25
  0
CIRCLE
  5
6BF8
  8
UMCL1
 10
1029.7872904915221
 20
357.79189418946021
 30
0.0
 40
4.25
  0
POLYLINE
  5
6BF9
  8
UMCL1
 66
     1
 10
0.0
 20
0.0
 30
0.0
  0
VERTEX
  5
780C
  8
UMCL1
 10
1051.70902628046
 20
504.32581454497591
 30
0.0
  0
VERTEX
  5
780D
  8
UMCL1
 10
1007.8655547025839
 20
504.32581454497591
 30
0.0
  0
SEQEND
  5
780E
  8
UMCL1
  0
POLYLINE
  5
6BFA
  8
UMCL1
 66
     1
 10
0.0
 20
0.0
 30
0.0
  0
VERTEX
  5
780F
  8
UMCL1
 10
1054.7872904915221
 20
457.40407875603802
 30
0.0
  0
VERTEX
  5
7810
  8
UMCL1
 10
1054.7872904915221
 20
501.24755033391381
 30
0.0
  0
SEQEND
  5
7811
  8
UMCL1
  0
ARC
  5
6BFB
  8
UMCL1
 10
1029.7872904915221
 20
479.32581454497591
 30
0.0
 40
33.25
 50
311.24653336867311
 51
318.75346663132689
  0
POLYLINE
  5
6BFC
  8
UMCL1
 66
     1
 10
0.0
 20
0.0
 30
0.0
  0
VERTEX
  5
7812
  8
UMCL1
 10
1007.8655547025839
 20
454.32581454497591
 30
0.0
  0
VERTEX
  5
7813
  8
UMCL1
 10
1051.70902628046
 20
454.32581454497591
 30
0.0
  0
SEQEND
  5
7814
  8
UMCL1
  0
ARC
  5
6BFD
  8
UMCL1
 10
1029.7872904915221
 20
479.32581454497591
 30
0.0
 40
33.25
 50
221.24653336867311
 51
228.75346663132689
  0
POLYLINE
  5
6BFE
  8
UMCL1
 66
     1
 10
0.0
 20
0.0
 30
0.0
  0
VERTEX
  5
7815
  8
UMCL1
 10
1004.787290491522
 20
501.24755033391381
 30
0.0
  0
VERTEX
  5
7816
  8
UMCL1
 10
1004.787290491522
 20
488.8258145449758
 30
0.0
  0
SEQEND
  5
7817
  8
UMCL1
  0
ARC
  5
6BFF
  8
UMCL1
 10
1029.7872904915221
 20
479.32581454497591
 30
0.0
 40
33.25
 50
41.24653336867307
 51
48.753466631326923
  0
ARC
  5
6C00
  8
UMCL1
 10
1029.7872904915221
 20
479.32581454497591
 30
0.0
 40
33.25
 50
131.246533368673
 51
138.75346663132689
  0
LINE
  5
6C01
  8
AM_7
 10
979.78729049152184
 20
396.61887664560112
 30
0.0
 11
979.78729049152184
 21
419.91594784396119
 31
0.0
  0
LINE
  5
6C02
  8
AM_7
 10
1009.787290491522
 20
465.12581454497598
 30
0.0
 11
1009.787290491522
 21
453.52581454497601
 31
0.0
  0
LINE
  5
6C03
  8
AM_7
 10
1015.587290491522
 20
459.3258145449758
 30
0.0
 11
1003.987290491522
 21
459.3258145449758
 31
0.0
  0
LINE
  5
6C04
  8
AM_7
 10
1049.7872904915221
 20
465.12581454497598
 30
0.0
 11
1049.7872904915221
 21
453.52581454497601
 31
0.0
  0
LINE
  5
6C05
  8
AM_7
 10
1055.587290491522
 20
459.3258145449758
 30
0.0
 11
1043.9872904915219
 21
459.3258145449758
 31
0.0
  0
LINE
  5
6C06
  8
AM_7
 10
1009.787290491522
 20
505.12581454497598
 30
0.0
 11
1009.787290491522
 21
493.5258145449759
 31
0.0
  0
LINE
  5
6C07
  8
AM_7
 10
1015.587290491522
 20
499.3258145449758
 30
0.0
 11
1003.987290491522
 21
499.3258145449758
 31
0.0
  0
LINE
  5
6C08
  8
AM_7
 10
1049.7872904915221
 20
505.12581454497598
 30
0.0
 11
1049.7872904915221
 21
493.5258145449759
 31
0.0
  0
LINE
  5
6C09
  8
AM_7
 10
1055.587290491522
 20
499.3258145449758
 30
0.0
 11
1043.9872904915219
 21
499.3258145449758
 31
0.0
  0
LINE
  5
6C0A
  8
AM_7
 10
1029.7872904915221
 20
507.6087234354984
 30
0.0
 11
1029.7872904915221
 21
450.34467990746458
 31
0.0
  0
LINE
  5
6C0B
  8
AM_7
 10
1029.7872904915221
 20
422.75336673386067
 30
0.0
 11
1029.7872904915209
 21
287.01426836205172
 31
0.0
  0
ARC
  5
6C0C
  8
UMCL1
 62
     3
 10
1019.787290491522
 20
309.79189418946021
 30
0.0
 40
5.0
 50
76.845591614176541
 51
11.05189005559853
  0
LINE
  5
6C0D
  8
AM_5
 10
996.60207975702031
 20
341.70778509415288
 30
0.0
 11
1025.2879171436759
 21
355.61115131679139
 31
0.0
  0
ARC
  5
6C0E
  8
UMCL1
 62
     3
 10
1029.7872904915221
 20
357.79189418946021
 30
0.0
 40
5.0
 50
77.498655826070589
 51
10.663004957293641
  0
LINE
  5
6C0F
  8
UMCL1
  6
PHANTOM
 62
     6
 10
1041.7872904915221
 20
372.79189418946021
 30
0.0
 11
1041.7872904915221
 21
391.79189418946021
 31
0.0
  0
LINE
  5
6C10
  8
UMCL1
  6
PHANTOM
 62
     6
 10
971.78729049152184
 20
391.79189418946038
 30
0.0
 11
971.78729049152162
 21
372.79189418946038
 31
0.0
  0
LINE
  5
6C11
  8
UMCL1
  6
PHANTOM
 62
     6
 10
971.78729049152184
 20
391.79189418946038
 30
0.0
 11
1041.7872904915221
 21
391.79189418946021
 31
0.0
  0
LINE
  5
6C12
  8
UMCL1
  6
PHANTOM
 62
     6
 10
971.78729049152162
 20
372.79189418946038
 30
0.0
 11
1041.7872904915221
 21
372.79189418946021
 31
0.0
  0
ARC
  5
6C13
  8
UMCL1
 62
     3
 10
979.78729049152184
 20
479.3258145449758
 30
0.0
 40
4.0
 50
77.755380639243384
 51
12.66105144964253
  0
SOLID
  5
6C14
  8
AM_5
 10
974.74171375052197
 20
427.53606713618029
 30
0.0
 11
974.74171375052197
 21
428.57795620238039
 31
0.0
 12
971.78729049152207
 22
428.05701166928043
 32
0.0
 13
971.78729049152207
 23
428.05701166928043
 33
0.0
  0
SOLID
  5
6C15
  8
AM_5
 10
1071.308235024622
 20
462.28023780397552
 30
0.0
 11
1070.2663459584221
 21
462.28023780397552
 31
0.0
 12
1070.7872904915221
 22
459.32581454497557
 32
0.0
 13
1070.7872904915221
 23
459.32581454497557
 33
0.0
  0
LINE
  5
6C16
  8
AM_5
 10
1057.08397552766
 20
459.3258145449754
 30
0.0
 11
1071.7872904915209
 21
459.32581454497557
 31
0.0
  0
SOLID
  5
6C17
  8
AM_5
 10
1079.308235024622
 20
457.28023780397541
 30
0.0
 11
1078.2663459584221
 21
457.28023780397541
 31
0.0
 12
1078.7872904915221
 22
454.3258145449754
 32
0.0
 13
1078.7872904915221
 23
454.3258145449754
 33
0.0
  0
LINE
  5
6C18
  8
AM_5
 10
1053.6867605573541
 20
454.3258145449754
 30
0.0
 11
1079.7872904915221
 21
454.3258145449754
 31
0.0
  0
SOLID
  5
6C19
  8
AM_5
 10
1063.308235024622
 20
472.78023780397558
 30
0.0
 11
1062.2663459584221
 21
472.78023780397558
 31
0.0
 12
1062.7872904915221
 22
469.82581454497557
 32
0.0
 13
1062.7872904915221
 23
469.82581454497557
 33
0.0
  0
LINE
  5
6C1A
  8
AM_5
 10
1043.7557606993389
 20
469.82581454497557
 30
0.0
 11
1064.1291975519041
 21
469.82581454497551
 31
0.0
  0
LINE
  5
6C1B
  8
0
  6
HIDDEN
 62
     3
 10
1022.787290491522
 20
417.79189418946032
 30
0.0
 11
1022.787290491522
 21
410.79189418946021
 31
0.0
  0
LINE
  5
6C1C
  8
0
  6
HIDDEN
 62
     3
 10
1036.7872904915221
 20
417.79189418946021
 30
0.0
 11
1036.7872904915221
 21
410.79189418946021
 31
0.0
  0
LINE
  5
6C1D
  8
0
  6
HIDDEN
 62
     3
 10
1025.2872904915221
 20
410.79189418946021
 30
0.0
 11
1025.2872904915221
 21
408.29189418946032
 31
0.0
  0
LINE
  5
6C1E
  8
0
  6
HIDDEN
 62
     3
 10
1034.2872904915221
 20
410.79189418946021
 30
0.0
 11
1034.2872904915221
 21
408.29189418946021
 31
0.0
  0
LINE
  5
6C1F
  8
0
  6
HIDDEN
 62
     3
 10
1026.387290491522
 20
410.79189418946021
 30
0.0
 11
1026.387290491522
 21
407.79189418946009
 31
0.0
  0
LINE
  5
6C20
  8
0
  6
HIDDEN
 62
     3
 10
1025.7872904915221
 20
410.79189418946021
 30
0.0
 11
1025.7872904915221
 21
407.79189418946009
 31
0.0
  0
LINE
  5
6C21
  8
0
  6
HIDDEN
 62
     3
 10
1033.1872904915219
 20
410.79189418946021
 30
0.0
 11
1033.1872904915219
 21
407.79189418946009
 31
0.0
  0
LINE
  5
6C22
  8
0
  6
HIDDEN
 62
     3
 10
1033.7872904915221
 20
410.79189418946021
 30
0.0
 11
1033.7872904915221
 21
407.79189418946009
 31
0.0
  0
LINE
  5
6C23
  8
UMCL1
  6
CONTINUOUS
 10
1007.8655547025839
 20
317.99189418946031
 30
0.0
 11
1007.8655547025839
 21
291.59189418946039
 31
0.0
  0
LINE
  5
6C24
  8
UMCL1
 10
1008.665554702584
 20
290.79189418946021
 30
0.0
 11
1007.8655547025839
 21
291.59189418946028
 31
0.0
  0
LINE
  5
6C25
  8
UMCL1
 10
1008.665554702584
 20
318.79189418946021
 30
0.0
 11
1007.8655547025839
 21
317.99189418946031
 31
0.0
  0
LINE
  5
6C26
  8
UMCL1
  6
CONTINUOUS
 10
1051.7090262804591
 20
317.99189418946031
 30
0.0
 11
1051.7090262804591
 21
291.59189418946039
 31
0.0
  0
LINE
  5
6C27
  8
UMCL1
 10
1050.9090262804591
 20
290.79189418946021
 30
0.0
 11
1051.7090262804591
 21
291.59189418946028
 31
0.0
  0
LINE
  5
6C28
  8
UMCL1
 10
1050.9090262804591
 20
318.79189418946021
 30
0.0
 11
1051.7090262804591
 21
317.99189418946031
 31
0.0
  0
LINE
  5
6C29
  8
0
  6
HIDDEN
 62
     3
 10
1155.725703401336
 20
417.79189418946032
 30
0.0
 11
1155.725703401336
 21
410.79189418946021
 31
0.0
  0
LINE
  5
6C2A
  8
0
  6
HIDDEN
 62
     3
 10
1168.725703401336
 20
417.79189418946021
 30
0.0
 11
1168.725703401336
 21
410.79189418946009
 31
0.0
  0
LINE
  5
6C2B
  8
0
  6
HIDDEN
 62
     3
 10
1154.225703401336
 20
398.79189418946032
 30
0.0
 11
1155.175703401336
 21
408.29189418946032
 31
0.0
  0
LINE
  5
6C2C
  8
0
  6
HIDDEN
 62
     3
 10
1155.2257034013369
 20
410.79189418946021
 30
0.0
 11
1169.2257034013369
 21
410.79189418946021
 31
0.0
  0
LINE
  5
6C2D
  8
0
  6
HIDDEN
 62
     3
 10
1170.225703401336
 20
398.79189418946032
 30
0.0
 11
1169.2757034013371
 21
408.29189418946021
 31
0.0
  0
LINE
  5
6C2E
  8
0
  6
HIDDEN
 62
     3
 10
1155.1257034013361
 20
407.79189418946009
 30
0.0
 11
1169.3257034013361
 21
407.79189418946009
 31
0.0
  0
LINE
  5
6C2F
  8
0
  6
HIDDEN
 62
     3
 10
1155.175703401336
 20
408.29189418946032
 30
0.0
 11
1169.2757034013371
 21
408.29189418946021
 31
0.0
  0
LINE
  5
6C30
  8
UMCL1
 10
1171.725703401336
 20
398.79189418946021
 30
0.0
 11
1171.725703401336
 21
417.79189418946021
 31
0.0
  0
LINE
  5
6C31
  8
UMCL1
 10
1138.0257034013371
 20
290.79189418946021
 30
0.0
 11
1186.425703401336
 21
290.79189418946021
 31
0.0
  0
LINE
  5
6C32
  8
UMCL1
 10
1138.0257034013371
 20
318.79189418946021
 30
0.0
 11
1186.425703401336
 21
318.79189418946038
 31
0.0
  0
LINE
  5
6C33
  8
UMCL1
 10
1187.225703401336
 20
291.59189418946028
 30
0.0
 11
1187.225703401336
 21
317.99189418946048
 31
0.0
  0
LINE
  5
6C34
  8
UMCL1
 10
1185.225703401336
 20
364.79189418946021
 30
0.0
 11
1185.225703401336
 21
318.79189418946032
 31
0.0
  0
LINE
  5
6C35
  8
UMCL1
 10
1137.225703401336
 20
317.99189418946031
 30
0.0
 11
1137.225703401336
 21
291.59189418946028
 31
0.0
  0
LINE
  5
6C36
  8
UMCL1
 10
1139.225703401336
 20
364.79189418946021
 30
0.0
 11
1139.225703401336
 21
318.79189418946032
 31
0.0
  0
LINE
  5
6C37
  8
UMCL1
 10
1181.225703401336
 20
368.79189418946021
 30
0.0
 11
1143.225703401336
 21
368.79189418946021
 31
0.0
  0
LINE
  5
6C38
  8
UMCL1
 10
1155.725703401336
 20
417.79189418946032
 30
0.0
 11
1155.725703401336
 21
419.79189418946038
 31
0.0
  0
LINE
  5
6C39
  8
UMCL1
 10
1156.225703401336
 20
420.29189418946038
 30
0.0
 11
1168.225703401336
 21
420.29189418946032
 31
0.0
  0
LINE
  5
6C3A
  8
UMCL1
 10
1168.725703401336
 20
419.79189418946032
 30
0.0
 11
1168.725703401336
 21
417.79189418946021
 31
0.0
  0
LINE
  5
6C3B
  8
UMCL1
 10
1155.725703401336
 20
419.79189418946032
 30
0.0
 11
1168.725703401336
 21
419.79189418946032
 31
0.0
  0
LINE
  5
6C3C
  8
UMCL1
 10
1155.725703401336
 20
419.79189418946038
 30
0.0
 11
1156.225703401336
 21
420.29189418946038
 31
0.0
  0
LINE
  5
6C3D
  8
UMCL1
 10
1168.225703401336
 20
420.29189418946032
 30
0.0
 11
1168.725703401336
 21
419.79189418946032
 31
0.0
  0
LINE
  5
6C3E
  8
UMCL1
 10
1154.225703401336
 20
398.79189418946049
 30
0.0
 11
1154.225703401336
 21
368.79189418946021
 31
0.0
  0
LINE
  5
6C3F
  8
UMCL1
 10
1170.225703401336
 20
398.79189418946021
 30
0.0
 11
1170.225703401336
 21
368.79189418946021
 31
0.0
  0
LINE
  5
6C40
  8
UMCL1
 10
1137.225703401336
 20
317.99189418946031
 30
0.0
 11
1187.225703401336
 21
317.99189418946031
 31
0.0
  0
LINE
  5
6C41
  8
UMCL1
 10
1137.225703401336
 20
291.59189418946039
 30
0.0
 11
1187.225703401336
 21
291.59189418946039
 31
0.0
  0
ARC
  5
6C42
  8
UMCL1
 10
1181.225703401336
 20
364.79189418946021
 30
0.0
 40
4.0
 50
0.0
 51
90.0
  0
ARC
  5
6C43
  8
UMCL1
 10
1143.225703401336
 20
364.79189418946021
 30
0.0
 40
4.0
 50
90.0
 51
180.0
  0
LINE
  5
6C44
  8
UMCL1
 10
1138.0257034013371
 20
290.79189418946021
 30
0.0
 11
1137.225703401336
 21
291.59189418946028
 31
0.0
  0
LINE
  5
6C45
  8
UMCL1
 10
1186.425703401336
 20
290.79189418946021
 30
0.0
 11
1187.225703401336
 21
291.59189418946028
 31
0.0
  0
LINE
  5
6C46
  8
UMCL1
 10
1138.0257034013371
 20
318.79189418946021
 30
0.0
 11
1137.225703401336
 21
317.99189418946031
 31
0.0
  0
LINE
  5
6C47
  8
UMCL1
 10
1186.425703401336
 20
318.79189418946038
 30
0.0
 11
1187.225703401336
 21
317.99189418946048
 31
0.0
  0
LINE
  5
6C48
  8
AM_7
 10
1162.2257034013369
 20
422.75336673386067
 30
0.0
 11
1162.225703401336
 21
287.01426836205172
 31
0.0
  0
LINE
  5
6C49
  8
0
  6
HIDDEN
 62
     3
 10
1155.2257034013369
 20
417.79189418946032
 30
0.0
 11
1155.2257034013369
 21
410.79189418946021
 31
0.0
  0
LINE
  5
6C4A
  8
0
  6
HIDDEN
 62
     3
 10
1169.2257034013369
 20
417.79189418946021
 30
0.0
 11
1169.2257034013369
 21
410.79189418946021
 31
0.0
  0
LINE
  5
6C4B
  8
0
  6
HIDDEN
 62
     3
 10
1157.7257034013369
 20
410.79189418946021
 30
0.0
 11
1157.7257034013369
 21
408.29189418946032
 31
0.0
  0
LINE
  5
6C4C
  8
0
  6
HIDDEN
 62
     3
 10
1166.7257034013369
 20
410.79189418946021
 30
0.0
 11
1166.725703401336
 21
408.29189418946021
 31
0.0
  0
LINE
  5
6C4D
  8
0
  6
HIDDEN
 62
     3
 10
1158.825703401337
 20
410.79189418946021
 30
0.0
 11
1158.825703401337
 21
407.79189418946009
 31
0.0
  0
LINE
  5
6C4E
  8
0
  6
HIDDEN
 62
     3
 10
1158.2257034013369
 20
410.79189418946021
 30
0.0
 11
1158.2257034013369
 21
407.79189418946009
 31
0.0
  0
LINE
  5
6C4F
  8
0
  6
HIDDEN
 62
     3
 10
1165.625703401337
 20
410.79189418946021
 30
0.0
 11
1165.625703401337
 21
407.79189418946009
 31
0.0
  0
LINE
  5
6C50
  8
0
  6
HIDDEN
 62
     3
 10
1166.2257034013369
 20
410.79189418946021
 30
0.0
 11
1166.2257034013369
 21
407.79189418946009
 31
0.0
  0
LINE
  5
6C51
  8
UMCL1
  6
CONTINUOUS
 10
1140.303967612399
 20
317.99189418946031
 30
0.0
 11
1140.303967612399
 21
291.59189418946039
 31
0.0
  0
LINE
  5
6C52
  8
UMCL1
 10
1141.1039676123989
 20
290.79189418946021
 30
0.0
 11
1140.303967612399
 21
291.59189418946028
 31
0.0
  0
LINE
  5
6C53
  8
UMCL1
 10
1141.1039676123989
 20
318.79189418946021
 30
0.0
 11
1140.303967612399
 21
317.99189418946031
 31
0.0
  0
LINE
  5
6C54
  8
UMCL1
  6
CONTINUOUS
 10
1184.1474391902741
 20
317.99189418946031
 30
0.0
 11
1184.1474391902741
 21
291.59189418946039
 31
0.0
  0
LINE
  5
6C55
  8
UMCL1
 10
1183.347439190273
 20
290.79189418946021
 30
0.0
 11
1184.1474391902741
 21
291.59189418946028
 31
0.0
  0
LINE
  5
6C56
  8
UMCL1
 10
1183.347439190273
 20
318.79189418946021
 30
0.0
 11
1184.1474391902741
 21
317.99189418946031
 31
0.0
  0
LINE
  5
6C57
  8
UMCL1
 10
1152.725703401336
 20
398.79189418946021
 30
0.0
 11
1152.725703401336
 21
417.79189418946021
 31
0.0
  0
LINE
  5
6C58
  8
UMCL1
 10
1152.725703401336
 20
417.79189418946032
 30
0.0
 11
1171.725703401336
 21
417.79189418946021
 31
0.0
  0
LINE
  5
6C59
  8
UMCL1
 10
1152.7257034013369
 20
398.79189418946021
 30
0.0
 11
1171.725703401336
 21
398.79189418946021
 31
0.0
  0
TEXT
  5
6C5A
  8
AM_5
 10
1378.1063639074439
 20
494.37747770600708
 30
0.0
 40
4.0
  1
CW
  7
ROMANS
  0
TEXT
  5
6C5B
  8
AM_5
 10
1373.2207487365481
 20
461.31452872161049
 30
0.0
 40
4.0
  1
CCW
  7
ROMANS
  0
POLYLINE
  5
6C5C
  8
AM_5
 66
     1
 10
0.0
 20
0.0
 30
0.0
 70
     7
  0
VERTEX
  5
6C5D
  8
AM_5
 10
1386.7428448184121
 20
492.40296246577719
 30
0.0
 42
-0.0185322085214218
  0
VERTEX
  5
6C5E
  8
AM_5
 10
1388.7720178882921
 20
496.80406170545831
 30
0.0
  0
VERTEX
  5
6C5F
  8
AM_5
 10
1388.236825483692
 20
497.0752979310235
 30
0.0
  0
VERTEX
  5
6C60
  8
AM_5
 10
1390.859310267025
 20
499.10949556987259
 30
0.0
  0
VERTEX
  5
6C61
  8
AM_5
 10
1390.6451913043909
 20
495.85473491598032
 30
0.0
  0
VERTEX
  5
6C62
  8
AM_5
 10
1390.109998899791
 20
496.12597114154562
 30
0.0
 42
0.018532208521422
  0
VERTEX
  5
6C63
  8
AM_5
 10
1388.1273664966509
 20
491.82581454497569
 30
0.0
  0
SEQEND
  5
6C64
  8
AM_5
  0
POLYLINE
  5
6C65
  8
AM_5
 66
     1
 10
0.0
 20
0.0
 30
0.0
 70
     7
  0
VERTEX
  5
6C66
  8
AM_5
 10
1386.7428448184121
 20
466.24866662417497
 30
0.0
 42
0.0185322085214218
  0
VERTEX
  5
6C67
  8
AM_5
 10
1388.772017888291
 20
461.84756738449391
 30
0.0
  0
VERTEX
  5
6C68
  8
AM_5
 10
1388.2368254836911
 20
461.57633115892872
 30
0.0
  0
VERTEX
  5
6C69
  8
AM_5
 10
1390.859310267025
 20
459.54213352007952
 30
0.0
  0
VERTEX
  5
6C6A
  8
AM_5
 10
1390.64519130439
 20
462.79689417397202
 30
0.0
  0
VERTEX
  5
6C6B
  8
AM_5
 10
1390.1099988997901
 20
462.5256579484066
 30
0.0
 42
-0.018532208521422
  0
VERTEX
  5
6C6C
  8
AM_5
 10
1388.1273664966509
 20
466.8258145449758
 30
0.0
  0
SEQEND
  5
6C6D
  8
AM_5
  0
LINE
  5
6C6E
  8
AM_7
 10
1474.4102753871739
 20
479.32581454497557
 30
0.0
 11
1385.5675811147321
 21
479.3258145449762
 31
0.0
  0
LINE
  5
6C6F
  8
AM_7
 10
1396.1273664966509
 20
472.92581454497582
 30
0.0
 11
1396.1273664966509
 21
485.72581454497589
 31
0.0
  0
TEXT
  5
6C70
  8
AM_5
 10
1486.1273664966509
 20
477.77243315781539
 30
0.0
 40
3.0
  1
40
 50
90.0
  7
ROMANS
  0
SOLID
  5
6C71
  8
AM_5
 10
1487.6483110297511
 20
496.37139128597579
 30
0.0
 11
1486.6064219635509
 21
496.37139128597579
 31
0.0
 12
1487.1273664966509
 22
499.3258145449758
 32
0.0
 13
1487.1273664966509
 23
499.3258145449758
 33
0.0
  0
LINE
  5
6C72
  8
AM_5
 10
1473.424051532789
 20
499.3258145449758
 30
0.0
 11
1488.1273664966509
 21
499.3258145449758
 31
0.0
  0
TEXT
  5
6C73
  8
AM_5
 10
1494.1273664966509
 20
477.78683145492442
 30
0.0
 40
3.0
  1
50
 50
90.0
  7
ROMANS
  0
SOLID
  5
6C74
  8
AM_5
 10
1495.6483110297511
 20
501.3713912859759
 30
0.0
 11
1494.6064219635509
 21
501.3713912859759
 31
0.0
 12
1495.1273664966509
 22
504.32581454497591
 32
0.0
 13
1495.1273664966509
 23
504.32581454497591
 33
0.0
  0
LINE
  5
6C75
  8
AM_5
 10
1470.026836562484
 20
504.32581454497591
 30
0.0
 11
1496.1273664966509
 21
504.32581454497591
 31
0.0
  0
POLYLINE
  5
6C76
  8
AM_5
 66
     1
 10
0.0
 20
0.0
 30
0.0
 70
     1
  0
VERTEX
  5
7818
  8
AM_5
 10
1483.348674925712
 20
477.3780332576693
 30
0.0
  0
VERTEX
  5
7819
  8
AM_5
 10
1485.827062108448
 20
477.3780332576693
 30
0.0
  0
VERTEX
  5
781A
  8
AM_5
 10
1485.827062108448
 20
475.0109101487248
 30
0.0
  0
VERTEX
  5
781B
  8
AM_5
 10
1483.348674925712
 20
475.0109101487248
 30
0.0
  0
SEQEND
  5
781C
  8
AM_5
  0
POLYLINE
  5
6C77
  8
AM_5
 66
     1
 10
0.0
 20
0.0
 30
0.0
 70
     1
  0
VERTEX
  5
781D
  8
AM_5
 10
1491.348674925712
 20
477.3780332576693
 30
0.0
  0
VERTEX
  5
781E
  8
AM_5
 10
1493.827062108448
 20
477.3780332576693
 30
0.0
  0
VERTEX
  5
781F
  8
AM_5
 10
1493.827062108448
 20
475.0109101487248
 30
0.0
  0
VERTEX
  5
7820
  8
AM_5
 10
1491.348674925712
 20
475.0109101487248
 30
0.0
  0
SEQEND
  5
7821
  8
AM_5
  0
TEXT
  5
6C78
  8
AM_5
 10
1478.1273664966509
 20
476.45807195270021
 30
0.0
 40
3.0
  1
19
 50
90.0
  7
ROMANS
  0
SOLID
  5
6C79
  8
AM_5
 10
1479.6483110297511
 20
485.87139128597568
 30
0.0
 11
1478.6064219635509
 21
485.87139128597568
 31
0.0
 12
1479.1273664966509
 22
488.82581454497569
 32
0.0
 13
1479.1273664966509
 23
488.82581454497569
 33
0.0
  0
LINE
  5
6C7A
  8
AM_5
 10
1460.095836704468
 20
488.8258145449758
 30
0.0
 11
1480.4692735570329
 21
488.8258145449758
 31
0.0
  0
LINE
  5
6C7B
  8
AM_5
 10
1479.1273664966509
 20
469.82581454497557
 30
0.0
 11
1479.1273664966509
 21
488.8258145449758
 31
0.0
  0
LINE
  5
6C7C
  8
AM_5
 10
1487.1273664966509
 20
459.3258145449754
 30
0.0
 11
1487.1273664966509
 21
499.3258145449758
 31
0.0
  0
LINE
  5
6C7D
  8
AM_5
 10
1495.1273664966509
 20
454.3258145449754
 30
0.0
 11
1495.1273664966509
 21
504.32581454497591
 31
0.0
  0
TEXT
  5
6C7E
  8
AM_5
 10
1482.1108848732949
 20
447.06230605903249
 30
0.0
 40
3.0
  1
4-%%c5.6
  7
ROMANS
  0
SOLID
  5
6C7F
  8
UMCL2
 62
     2
 10
1470.7825923418241
 20
455.90329462820171
 30
0.0
 11
1470.0922680454451
 21
455.12291959522349
 31
0.0
 12
1468.2245668255771
 22
457.470618927163
 32
0.0
 13
1468.2245668255771
 23
457.470618927163
 33
0.0
  0
LINE
  5
6C80
  8
AM_5
 10
1481.1210599338031
 20
446.06230605903238
 30
0.0
 11
1468.2245668255771
 21
457.47061892716317
 31
0.0
  0
LINE
  5
6C81
  8
AM_5
 10
1481.1210599338031
 20
446.06230605903238
 30
0.0
 11
1497.950127935718
 21
446.06230605903238
 31
0.0
  0
TEXT
  5
6C82
  8
AM_5
 10
1478.1273664966509
 20
301.57293589047288
 30
0.0
 40
3.0
  1
28
 50
90.0
  7
ROMANS
  0
SOLID
  5
6C83
  8
AM_5
 10
1479.6483110297511
 20
315.83747093046043
 30
0.0
 11
1478.6064219635509
 21
315.83747093046043
 31
0.0
 12
1479.1273664966509
 22
318.79189418946038
 32
0.0
 13
1479.1273664966509
 23
318.79189418946038
 33
0.0
  0
SOLID
  5
6C84
  8
AM_5
 10
1478.6064219635509
 20
293.74631744846027
 30
0.0
 11
1479.6483110297511
 21
293.74631744846027
 31
0.0
 12
1479.1273664966509
 22
290.79189418946021
 32
0.0
 13
1479.1273664966509
 23
290.79189418946021
 33
0.0
  0
LINE
  5
6C85
  8
AM_5
 10
1471.3273664966509
 20
318.79189418946038
 30
0.0
 11
1480.1273664966509
 21
318.79189418946038
 31
0.0
  0
TEXT
  5
6C86
  8
AM_5
 10
1486.1273664966509
 20
332.74823510465831
 30
0.0
 40
3.0
  1
83
 50
90.0
  7
ROMANS
  0
SOLID
  5
6C87
  8
AM_5
 10
1487.6483110297511
 20
370.83747093046009
 30
0.0
 11
1486.6064219635509
 21
370.83747093046009
 31
0.0
 12
1487.1273664966509
 22
373.79189418946021
 32
0.0
 13
1487.1273664966509
 23
373.79189418946021
 33
0.0
  0
SOLID
  5
6C88
  8
AM_5
 10
1486.6064219635509
 20
293.74631744846027
 30
0.0
 11
1487.6483110297511
 21
293.74631744846027
 31
0.0
 12
1487.1273664966509
 22
290.79189418946021
 32
0.0
 13
1487.1273664966509
 23
290.79189418946021
 33
0.0
  0
LINE
  5
6C89
  8
AM_5
 10
1466.9732998734739
 20
373.79189418946021
 30
0.0
 11
1488.1273664966509
 21
373.79189418946021
 31
0.0
  0
TEXT
  5
6C8A
  8
AM_5
 10
1494.1273664966509
 20
345.41170425747509
 30
0.0
 40
3.0
  1
113
 50
90.0
  7
ROMANS
  0
SOLID
  5
6C8B
  8
AM_5
 10
1495.6483110297511
 20
400.8374709304602
 30
0.0
 11
1494.6064219635509
 21
400.8374709304602
 31
0.0
 12
1495.1273664966509
 22
403.79189418946009
 32
0.0
 13
1495.1273664966509
 23
403.79189418946009
 33
0.0
  0
SOLID
  5
6C8C
  8
AM_5
 10
1494.6064219635509
 20
293.74631744846027
 30
0.0
 11
1495.6483110297511
 21
293.74631744846027
 31
0.0
 12
1495.1273664966509
 22
290.79189418946021
 32
0.0
 13
1495.1273664966509
 23
290.79189418946021
 33
0.0
  0
LINE
  5
6C8D
  8
AM_5
 10
1471.3273664966509
 20
290.79189418946021
 30
0.0
 11
1505.089472596537
 21
290.79189418946021
 31
0.0
  0
TEXT
  5
6C8E
  8
AM_5
 10
1494.1273664966509
 20
410.17134890414911
 30
0.0
 40
3.0
  1
19
 50
90.0
  7
ROMANS
  0
SOLID
  5
6C8F
  8
AM_5
 10
1495.6483110297511
 20
419.8374709304602
 30
0.0
 11
1494.6064219635509
 21
419.8374709304602
 31
0.0
 12
1495.1273664966509
 22
422.79189418946032
 32
0.0
 13
1495.1273664966509
 23
422.79189418946032
 33
0.0
  0
SOLID
  5
6C90
  8
AM_5
 10
1494.6064219635509
 20
406.7463174484601
 30
0.0
 11
1495.6483110297511
 21
406.7463174484601
 31
0.0
 12
1495.1273664966509
 22
403.79189418946009
 32
0.0
 13
1495.1273664966509
 23
403.79189418946009
 33
0.0
  0
LINE
  5
6C91
  8
AM_5
 10
1459.2735566418201
 20
403.79189418946009
 30
0.0
 11
1496.1273664966509
 21
403.79189418946009
 31
0.0
  0
LINE
  5
6C92
  8
AM_5
 10
1459.2735566418201
 20
422.79189418946032
 30
0.0
 11
1496.1273664966509
 21
422.79189418946032
 31
0.0
  0
TEXT
  5
6C93
  8
AM_5
 10
1502.1273664966509
 20
353.1369157617894
 30
0.0
 40
3.0
  1
134.5
 50
90.0
  7
ROMANS
  0
SOLID
  5
6C94
  8
AM_5
 10
1502.6064219635509
 20
293.74631744846027
 30
0.0
 11
1503.6483110297511
 21
293.74631744846027
 31
0.0
 12
1503.1273664966509
 22
290.79189418946021
 32
0.0
 13
1503.1273664966509
 23
290.79189418946021
 33
0.0
  0
LINE
  5
6C95
  8
AM_5
 10
1453.7737400477811
 20
425.29189418946021
 30
0.0
 11
1504.495829319404
 21
425.29189418946021
 31
0.0
  0
SOLID
  5
6C96
  8
AM_5
 10
1503.6483110297511
 20
422.33747093045997
 30
0.0
 11
1502.6064219635509
 21
422.33747093045997
 31
0.0
 12
1503.1273664966509
 22
425.29189418945998
 32
0.0
 13
1503.1273664966509
 23
425.29189418945998
 33
0.0
  0
LINE
  5
6C97
  8
AM_5
 10
1459.2735566418201
 20
377.79189418946021
 30
0.0
 11
1488.4394869204691
 21
377.79189418946021
 31
0.0
  0
SOLID
  5
6C98
  8
AM_5
 10
1487.6483110297511
 20
400.83747093045992
 30
0.0
 11
1486.6064219635509
 21
400.83747093045992
 31
0.0
 12
1487.1273664966509
 22
403.79189418945992
 32
0.0
 13
1487.1273664966509
 23
403.79189418945992
 33
0.0
  0
LINE
  5
6C99
  8
AM_5
 10
1487.1273664966509
 20
377.79189418946021
 30
0.0
 11
1487.1273664966509
 21
403.79189418946009
 31
0.0
  0
SOLID
  5
6C9A
  8
AM_5
 10
1487.6483110297511
 20
380.74631744846027
 30
0.0
 11
1486.6064219635509
 21
380.74631744846027
 31
0.0
 12
1487.1273664966509
 22
377.79189418946032
 32
0.0
 13
1487.1273664966509
 23
377.79189418946032
 33
0.0
  0
TEXT
  5
6C9B
  8
AM_5
 10
1486.1273664966509
 20
386.92757889665518
 30
0.0
 40
3.0
  1
26
 50
90.0
  7
ROMANS
  0
LINE
  5
6C9C
  8
AM_5
 10
1479.1273664966509
 20
290.79189418946021
 30
0.0
 11
1479.1273664966509
 21
318.79189418946038
 31
0.0
  0
LINE
  5
6C9D
  8
AM_5
 10
1487.1273664966509
 20
290.79189418946021
 30
0.0
 11
1487.1273664966509
 21
373.79189418946021
 31
0.0
  0
LINE
  5
6C9E
  8
AM_5
 10
1495.1273664966509
 20
290.79189418946021
 30
0.0
 11
1495.1273664966509
 21
422.79189418946032
 31
0.0
  0
LINE
  5
6C9F
  8
AM_5
 10
1503.1273664966509
 20
290.79189418946021
 30
0.0
 11
1503.1273664966509
 21
425.29189418946021
 31
0.0
  0
SOLID
  5
6CA0
  8
AM_5
 10
1393.5571164557771
 20
402.24469842703343
 30
0.0
 11
1394.241293616247
 21
401.45892846110303
 31
0.0
 12
1396.1273664966509
 22
403.79189418946038
 32
0.0
 13
1396.1273664966509
 23
403.79189418946038
 33
0.0
  0
LINE
  5
6CA1
  8
AM_5
 10
1378.2843505644209
 20
388.25581556079999
 30
0.0
 11
1396.1273664966509
 21
403.79189418946038
 31
0.0
  0
TEXT
  5
6CA2
  8
AM_5
 10
1356.3674729659961
 20
389.2558155608001
 30
0.0
 40
3.0
  1
M8x1.25P
  7
ROMANS
  0
LINE
  5
6CA3
  8
AM_5
 10
1521.2831845302351
 20
346.70778509415288
 30
0.0
 11
1545.6086073095889
 21
346.70778509415288
 31
0.0
  0
SOLID
  5
6CA4
  8
AM_5
 10
1571.863043257807
 20
358.85379903422222
 30
0.0
 11
1571.4086248267611
 21
359.79136861339663
 31
0.0
 12
1574.2944446962449
 22
360.61115131679151
 32
0.0
 13
1574.2944446962449
 23
360.61115131679151
 33
0.0
  0
TEXT
  5
6CA5
  8
AM_5
 10
1521.1996763434231
 20
347.70778509415288
 30
0.0
 40
3.0
  1
2-PT 1/8
  7
ROMANS
  0
TEXT
  5
6CA6
  8
AM_5
 10
1453.529315628324
 20
344.24283234748981
 30
0.0
 40
3.0
  1
%%c46
  7
ROMANS
  0
SOLID
  5
6CA7
  8
AM_5
 10
1466.172943237651
 20
342.72188781438979
 30
0.0
 11
1466.172943237651
 21
343.76377688058977
 31
0.0
 12
1469.1273664966509
 22
343.24283234748981
 32
0.0
 13
1469.1273664966509
 23
343.24283234748981
 33
0.0
  0
SOLID
  5
6CA8
  8
AM_5
 10
1426.081789755651
 20
343.76377688058977
 30
0.0
 11
1426.081789755651
 21
342.72188781438979
 31
0.0
 12
1423.1273664966509
 22
343.24283234748981
 32
0.0
 13
1423.1273664966509
 23
343.24283234748981
 33
0.0
  0
LINE
  5
6CA9
  8
AM_5
 10
1423.1273664966509
 20
343.24283234748981
 30
0.0
 11
1469.1273664966509
 21
343.24283234748981
 31
0.0
  0
TEXT
  5
6CAA
  8
AM_5
 10
1418.398009253395
 20
434.05701166928009
 30
0.0
 40
3.0
  1
50
  7
ROMANS
  0
SOLID
  5
6CAB
  8
AM_5
 10
1399.081789755651
 20
433.57795620238028
 30
0.0
 11
1399.081789755651
 21
432.53606713618052
 31
0.0
 12
1396.1273664966509
 22
433.05701166928043
 32
0.0
 13
1396.1273664966509
 23
433.05701166928043
 33
0.0
  0
SOLID
  5
6CAC
  8
AM_5
 10
1443.1729432376519
 20
432.53606713618018
 30
0.0
 11
1443.1729432376519
 21
433.57795620238011
 31
0.0
 12
1446.1273664966509
 22
433.05701166928009
 32
0.0
 13
1446.1273664966509
 23
433.05701166928009
 33
0.0
  0
LINE
  5
6CAD
  8
AM_5
 10
1446.1273664966509
 20
433.05701166928009
 30
0.0
 11
1388.1273664966509
 21
433.05701166928009
 31
0.0
  0
LINE
  5
6CAE
  8
AM_5
 10
1446.1273664966509
 20
428.87650312453133
 30
0.0
 11
1446.1273664966509
 21
434.05701166928009
 31
0.0
  0
LINE
  5
6CAF
  8
AM_5
 10
1396.1273664966509
 20
426.17258112077229
 30
0.0
 11
1396.1273664966509
 21
434.05701166928043
 31
0.0
  0
TEXT
  5
6CB0
  8
AM_5
 10
1391.0690736090071
 20
434.05701166928043
 30
0.0
 40
3.0
  1
8
  7
ROMANS
  0
SOLID
  5
6CB1
  8
AM_5
 10
1393.172943237653
 20
432.53606713618058
 30
0.0
 11
1393.172943237653
 21
433.57795620238062
 31
0.0
 12
1396.1273664966529
 22
433.0570116692806
 32
0.0
 13
1396.1273664966529
 23
433.0570116692806
 33
0.0
  0
TEXT
  5
6CB2
  8
AM_5
 10
1420.7332483009641
 20
442.05701166928009
 30
0.0
 40
3.0
  1
70
  7
ROMANS
  0
SOLID
  5
6CB3
  8
AM_5
 10
1455.172943237651
 20
440.53606713618018
 30
0.0
 11
1455.172943237651
 21
441.57795620238011
 31
0.0
 12
1458.1273664966509
 22
441.05701166928009
 32
0.0
 13
1458.1273664966509
 23
441.05701166928009
 33
0.0
  0
SOLID
  5
6CB4
  8
AM_5
 10
1391.081789755651
 20
441.57795620238039
 30
0.0
 11
1391.081789755651
 21
440.53606713618041
 31
0.0
 12
1388.1273664966509
 22
441.05701166928043
 32
0.0
 13
1388.1273664966509
 23
441.05701166928043
 33
0.0
  0
LINE
  5
6CB5
  8
AM_5
 10
1388.1273664966509
 20
424.07159692994531
 30
0.0
 11
1388.1273664966509
 21
442.05701166928043
 31
0.0
  0
LINE
  5
6CB6
  8
AM_5
 10
1458.1273664966509
 20
423.92332563978277
 30
0.0
 11
1458.1273664966509
 21
442.05701166928009
 31
0.0
  0
LINE
  5
6CB7
  8
AM_5
 10
1388.1273664966509
 20
441.05701166928009
 30
0.0
 11
1458.1273664966509
 21
441.05701166928009
 31
0.0
  0
LINE
  5
6CB8
  8
0
  6
HIDDEN
 62
     3
 10
1439.6273664966509
 20
422.79189418946032
 30
0.0
 11
1439.6273664966509
 21
415.79189418946032
 31
0.0
  0
LINE
  5
6CB9
  8
0
  6
HIDDEN
 62
     3
 10
1452.6273664966509
 20
422.79189418946021
 30
0.0
 11
1452.6273664966509
 21
415.79189418945998
 31
0.0
  0
LINE
  5
6CBA
  8
0
  6
HIDDEN
 62
     3
 10
1438.1273664966509
 20
403.79189418946032
 30
0.0
 11
1439.0773664966509
 21
413.29189418946032
 31
0.0
  0
LINE
  5
6CBB
  8
0
  6
HIDDEN
 62
     3
 10
1439.127366496652
 20
415.79189418946032
 30
0.0
 11
1453.127366496652
 21
415.79189418946009
 31
0.0
  0
LINE
  5
6CBC
  8
0
  6
HIDDEN
 62
     3
 10
1454.1273664966509
 20
403.79189418946032
 30
0.0
 11
1453.1773664966511
 21
413.29189418946021
 31
0.0
  0
LINE
  5
6CBD
  8
0
  6
HIDDEN
 62
     3
 10
1439.027366496651
 20
412.79189418946021
 30
0.0
 11
1453.227366496651
 21
412.79189418946021
 31
0.0
  0
LINE
  5
6CBE
  8
0
  6
HIDDEN
 62
     3
 10
1439.0773664966509
 20
413.29189418946032
 30
0.0
 11
1453.1773664966511
 21
413.29189418946021
 31
0.0
  0
LINE
  5
6CBF
  8
UMCL1
 10
1458.1273664966509
 20
403.79189418946009
 30
0.0
 11
1458.1273664966509
 21
422.79189418946021
 31
0.0
  0
LINE
  5
6CC0
  8
0
  6
HIDDEN
 62
     3
 10
1392.727366496651
 20
422.79189418946038
 30
0.0
 11
1392.727366496651
 21
403.79189418946038
 31
0.0
  0
LINE
  5
6CC1
  8
0
  6
HIDDEN
 62
     3
 10
1392.127366496652
 20
422.79189418946038
 30
0.0
 11
1392.127366496652
 21
403.79189418946038
 31
0.0
  0
LINE
  5
6CC2
  8
0
  6
HIDDEN
 62
     3
 10
1399.527366496651
 20
422.79189418946038
 30
0.0
 11
1399.527366496651
 21
403.79189418946038
 31
0.0
  0
LINE
  5
6CC3
  8
0
  6
HIDDEN
 62
     3
 10
1400.127366496652
 20
422.79189418946038
 30
0.0
 11
1400.1273664966509
 21
403.79189418946038
 31
0.0
  0
LINE
  5
6CC4
  8
UMCL1
 10
1388.1273664966509
 20
422.79189418946038
 30
0.0
 11
1388.1273664966509
 21
403.79189418946038
 31
0.0
  0
LINE
  5
6CC5
  8
UMCL1
 10
1388.1273664966509
 20
422.79189418946038
 30
0.0
 11
1458.1273664966509
 21
422.79189418946021
 31
0.0
  0
LINE
  5
6CC6
  8
UMCL1
 10
1388.1273664966509
 20
403.79189418946038
 30
0.0
 11
1458.1273664966509
 21
403.79189418946009
 31
0.0
  0
LINE
  5
6CC7
  8
UMCL1
 10
1421.9273664966511
 20
290.79189418946021
 30
0.0
 11
1470.3273664966509
 21
290.79189418946021
 31
0.0
  0
LINE
  5
6CC8
  8
UMCL1
 10
1421.9273664966511
 20
318.79189418946021
 30
0.0
 11
1470.3273664966509
 21
318.79189418946038
 31
0.0
  0
LINE
  5
6CC9
  8
UMCL1
 10
1471.1273664966509
 20
291.59189418946028
 30
0.0
 11
1471.1273664966509
 21
317.99189418946048
 31
0.0
  0
LINE
  5
6CCA
  8
UMCL1
 10
1469.1273664966509
 20
369.79189418946021
 30
0.0
 11
1469.1273664966509
 21
318.79189418946032
 31
0.0
  0
LINE
  5
6CCB
  8
UMCL1
 10
1421.1273664966509
 20
317.99189418946031
 30
0.0
 11
1421.1273664966509
 21
291.59189418946028
 31
0.0
  0
LINE
  5
6CCC
  8
UMCL1
 10
1423.1273664966509
 20
369.79189418946021
 30
0.0
 11
1423.1273664966509
 21
318.79189418946032
 31
0.0
  0
LINE
  5
6CCD
  8
UMCL1
 10
1465.1273664966509
 20
373.79189418946021
 30
0.0
 11
1427.1273664966509
 21
373.79189418946021
 31
0.0
  0
LINE
  5
6CCE
  8
UMCL1
 10
1439.6273664966509
 20
422.79189418946032
 30
0.0
 11
1439.6273664966509
 21
424.79189418946038
 31
0.0
  0
LINE
  5
6CCF
  8
UMCL1
 10
1440.1273664966509
 20
425.29189418946038
 30
0.0
 11
1452.1273664966509
 21
425.29189418946032
 31
0.0
  0
LINE
  5
6CD0
  8
UMCL1
 10
1452.6273664966509
 20
424.79189418946032
 30
0.0
 11
1452.6273664966509
 21
422.79189418946021
 31
0.0
  0
LINE
  5
6CD1
  8
UMCL1
 10
1439.6273664966509
 20
424.79189418946032
 30
0.0
 11
1452.6273664966509
 21
424.79189418946032
 31
0.0
  0
LINE
  5
6CD2
  8
UMCL1
 10
1439.6273664966509
 20
424.79189418946038
 30
0.0
 11
1440.1273664966509
 21
425.29189418946038
 31
0.0
  0
LINE
  5
6CD3
  8
UMCL1
 10
1452.1273664966509
 20
425.29189418946032
 30
0.0
 11
1452.6273664966509
 21
424.79189418946032
 31
0.0
  0
LINE
  5
6CD4
  8
UMCL1
 10
1438.1273664966509
 20
403.79189418946038
 30
0.0
 11
1438.1273664966509
 21
373.79189418946021
 31
0.0
  0
LINE
  5
6CD5
  8
UMCL1
 10
1454.1273664966509
 20
403.79189418946009
 30
0.0
 11
1454.1273664966509
 21
373.79189418946021
 31
0.0
  0
POLYLINE
  5
6CD6
  8
UMCL1
 66
     1
 10
0.0
 20
0.0
 30
0.0
  0
VERTEX
  5
7822
  8
UMCL1
 10
1421.1273664966509
 20
469.8258145449758
 30
0.0
  0
VERTEX
  5
7823
  8
UMCL1
 10
1421.1273664966509
 20
457.40407875603802
 30
0.0
  0
SEQEND
  5
7824
  8
UMCL1
  0
LINE
  5
6CD7
  8
UMCL1
 10
1458.127366496652
 20
469.82581454497569
 30
0.0
 11
1458.127366496652
 21
488.82581454497569
 31
0.0
  0
LINE
  5
6CD8
  8
UMCL1
 10
1388.1273664966509
 20
488.82581454497603
 30
0.0
 11
1388.1273664966509
 21
469.82581454497591
 31
0.0
  0
LINE
  5
6CD9
  8
UMCL1
 10
1388.1273664966509
 20
488.82581454497603
 30
0.0
 11
1458.127366496652
 21
488.82581454497569
 31
0.0
  0
LINE
  5
6CDA
  8
UMCL1
 10
1388.1273664966509
 20
469.82581454497591
 30
0.0
 11
1458.127366496652
 21
469.82581454497569
 31
0.0
  0
CIRCLE
  5
6CDB
  8
UMCL1
 10
1396.1273664966509
 20
479.3258145449758
 30
0.0
 40
3.3999999999999999
  0
CIRCLE
  5
6CDC
  8
UMCL1
 10
1446.1273664966509
 20
479.32581454497569
 30
0.0
 40
6.5
  0
CIRCLE
  5
6CDD
  8
UMCL1
 10
1446.1273664966509
 20
479.32581454497569
 30
0.0
 40
6.0
  0
POLYLINE
  5
6CDE
  8
UMCL1
 66
     1
 10
0.0
 20
0.0
 30
0.0
 70
     1
  0
VERTEX
  5
7825
  8
UMCL1
 10
1449.1273664966509
 20
477.59376373740679
 30
0.0
  0
VERTEX
  5
7826
  8
UMCL1
 10
1449.1273664966509
 20
481.05786535254458
 30
0.0
  0
VERTEX
  5
7827
  8
UMCL1
 10
1446.1273664966509
 20
482.78991616011348
 30
0.0
  0
VERTEX
  5
7828
  8
UMCL1
 10
1443.1273664966509
 20
481.05786535254452
 30
0.0
  0
VERTEX
  5
7829
  8
UMCL1
 10
1443.127366496652
 20
477.59376373740679
 30
0.0
  0
VERTEX
  5
782A
  8
UMCL1
 10
1446.1273664966509
 20
475.86171292983789
 30
0.0
  0
SEQEND
  5
782B
  8
UMCL1
  0
ARC
  5
6CDF
  8
UMCL1
 62
     7
 10
1446.1273664966509
 20
479.32581454497591
 30
0.0
 40
23.0
 50
204.39616528275059
 51
263.50921129816851
  0
ARC
  5
6CE0
  8
UMCL1
 62
     7
 10
1446.1273664966509
 20
479.32581454497591
 30
0.0
 40
23.0
 50
276.49078870183149
 51
83.509211298168495
  0
ARC
  5
6CE1
  8
UMCL1
 62
     7
 10
1446.1273664966509
 20
479.32581454497591
 30
0.0
 40
23.0
 50
96.490788701831491
 51
155.60383471724941
  0
ARC
  5
6CE2
  8
0
  6
HIDDEN
 62
     3
 10
1446.1273664966509
 20
479.32581454497591
 30
0.0
 40
23.0
 50
155.60383471724941
 51
173.50921129816879
  0
ARC
  5
6CE3
  8
0
  6
HIDDEN
 62
     3
 10
1446.1273664966509
 20
479.32581454497591
 30
0.0
 40
23.0
 50
186.4907887018376
 51
204.39616528275059
  0
CIRCLE
  5
6CE4
  8
UMCL1
 10
1426.1273664966509
 20
499.32581454497591
 30
0.0
 40
2.7999999999999998
  0
CIRCLE
  5
6CE5
  8
UMCL1
 10
1466.1273664966509
 20
499.32581454497591
 30
0.0
 40
2.7999999999999998
  0
CIRCLE
  5
6CE6
  8
UMCL1
 10
1466.1273664966509
 20
459.32581454497591
 30
0.0
 40
2.7999999999999998
  0
CIRCLE
  5
6CE7
  8
UMCL1
 10
1426.1273664966509
 20
459.32581454497591
 30
0.0
 40
2.7999999999999998
  0
LINE
  5
6CE8
  8
UMCL1
 10
1421.1273664966509
 20
317.99189418946031
 30
0.0
 11
1471.1273664966509
 21
317.99189418946031
 31
0.0
  0
LINE
  5
6CE9
  8
UMCL1
 10
1421.1273664966509
 20
291.59189418946039
 30
0.0
 11
1471.1273664966509
 21
291.59189418946039
 31
0.0
  0
ARC
  5
6CEA
  8
UMCL1
 10
1465.1273664966509
 20
369.79189418946021
 30
0.0
 40
4.0
 50
0.0
 51
90.0
  0
ARC
  5
6CEB
  8
UMCL1
 10
1427.1273664966509
 20
369.79189418946021
 30
0.0
 40
4.0
 50
90.0
 51
180.0
  0
LINE
  5
6CEC
  8
UMCL1
 10
1421.9273664966511
 20
290.79189418946021
 30
0.0
 11
1421.1273664966509
 21
291.59189418946028
 31
0.0
  0
LINE
  5
6CED
  8
UMCL1
 10
1470.3273664966509
 20
290.79189418946021
 30
0.0
 11
1471.1273664966509
 21
291.59189418946028
 31
0.0
  0
LINE
  5
6CEE
  8
UMCL1
 10
1421.9273664966511
 20
318.79189418946021
 30
0.0
 11
1421.1273664966509
 21
317.99189418946031
 31
0.0
  0
LINE
  5
6CEF
  8
UMCL1
 10
1470.3273664966509
 20
318.79189418946038
 30
0.0
 11
1471.1273664966509
 21
317.99189418946048
 31
0.0
  0
POLYLINE
  5
6CF0
  8
UMCL1
 66
     1
 10
0.0
 20
0.0
 30
0.0
  0
VERTEX
  5
782C
  8
UMCL1
 10
1468.049102285589
 20
504.32581454497591
 30
0.0
  0
VERTEX
  5
782D
  8
UMCL1
 10
1424.205630707713
 20
504.32581454497591
 30
0.0
  0
SEQEND
  5
782E
  8
UMCL1
  0
POLYLINE
  5
6CF1
  8
UMCL1
 66
     1
 10
0.0
 20
0.0
 30
0.0
  0
VERTEX
  5
782F
  8
UMCL1
 10
1471.1273664966509
 20
457.40407875603802
 30
0.0
  0
VERTEX
  5
7830
  8
UMCL1
 10
1471.1273664966509
 20
501.24755033391381
 30
0.0
  0
SEQEND
  5
7831
  8
UMCL1
  0
ARC
  5
6CF2
  8
UMCL1
 10
1446.1273664966509
 20
479.32581454497591
 30
0.0
 40
33.25
 50
311.24653336867311
 51
318.75346663132689
  0
POLYLINE
  5
6CF3
  8
UMCL1
 66
     1
 10
0.0
 20
0.0
 30
0.0
  0
VERTEX
  5
7832
  8
UMCL1
 10
1424.2056307077139
 20
454.32581454497591
 30
0.0
  0
VERTEX
  5
7833
  8
UMCL1
 10
1468.049102285589
 20
454.32581454497591
 30
0.0
  0
SEQEND
  5
7834
  8
UMCL1
  0
ARC
  5
6CF4
  8
UMCL1
 10
1446.1273664966509
 20
479.32581454497591
 30
0.0
 40
33.25
 50
221.24653336867311
 51
228.75346663132689
  0
POLYLINE
  5
6CF5
  8
UMCL1
 66
     1
 10
0.0
 20
0.0
 30
0.0
  0
VERTEX
  5
7835
  8
UMCL1
 10
1421.1273664966509
 20
501.24755033391381
 30
0.0
  0
VERTEX
  5
7836
  8
UMCL1
 10
1421.1273664966509
 20
488.8258145449758
 30
0.0
  0
SEQEND
  5
7837
  8
UMCL1
  0
ARC
  5
6CF6
  8
UMCL1
 10
1446.1273664966509
 20
479.32581454497591
 30
0.0
 40
33.25
 50
41.24653336867307
 51
48.753466631326923
  0
ARC
  5
6CF7
  8
UMCL1
 10
1446.1273664966509
 20
479.32581454497591
 30
0.0
 40
33.25
 50
131.246533368673
 51
138.75346663132689
  0
LINE
  5
6CF8
  8
AM_7
 10
1396.1273664966509
 20
401.61887664560101
 30
0.0
 11
1396.1273664966509
 21
424.91594784396119
 31
0.0
  0
LINE
  5
6CF9
  8
AM_7
 10
1426.127366496652
 20
465.12581454497598
 30
0.0
 11
1426.127366496652
 21
453.52581454497601
 31
0.0
  0
LINE
  5
6CFA
  8
AM_7
 10
1431.9273664966511
 20
459.3258145449758
 30
0.0
 11
1420.3273664966509
 21
459.3258145449758
 31
0.0
  0
LINE
  5
6CFB
  8
AM_7
 10
1466.1273664966509
 20
465.12581454497598
 30
0.0
 11
1466.1273664966509
 21
453.52581454497601
 31
0.0
  0
LINE
  5
6CFC
  8
AM_7
 10
1471.9273664966511
 20
459.3258145449758
 30
0.0
 11
1460.3273664966509
 21
459.3258145449758
 31
0.0
  0
LINE
  5
6CFD
  8
AM_7
 10
1426.127366496652
 20
505.12581454497598
 30
0.0
 11
1426.127366496652
 21
493.5258145449759
 31
0.0
  0
LINE
  5
6CFE
  8
AM_7
 10
1431.9273664966511
 20
499.3258145449758
 30
0.0
 11
1420.3273664966509
 21
499.3258145449758
 31
0.0
  0
LINE
  5
6CFF
  8
AM_7
 10
1466.1273664966509
 20
505.12581454497598
 30
0.0
 11
1466.1273664966509
 21
493.5258145449759
 31
0.0
  0
LINE
  5
6D00
  8
AM_7
 10
1471.9273664966511
 20
499.3258145449758
 30
0.0
 11
1460.3273664966509
 21
499.3258145449758
 31
0.0
  0
LINE
  5
6D01
  8
AM_7
 10
1446.1273664966509
 20
507.6087234354984
 30
0.0
 11
1446.1273664966509
 21
450.34467990746458
 31
0.0
  0
LINE
  5
6D02
  8
AM_7
 10
1446.1273664966509
 20
427.75336673386067
 30
0.0
 11
1446.1273664966509
 21
287.01426836205172
 31
0.0
  0
LINE
  5
6D03
  8
AM_5
 10
1545.6086073095889
 20
346.70778509415288
 30
0.0
 11
1574.294444696244
 21
360.61115131679139
 31
0.0
  0
LINE
  5
6D04
  8
UMCL1
  6
PHANTOM
 62
     6
 10
1458.1273664966509
 20
377.79189418946021
 30
0.0
 11
1458.1273664966509
 21
396.79189418946021
 31
0.0
  0
LINE
  5
6D05
  8
UMCL1
  6
PHANTOM
 62
     6
 10
1388.1273664966509
 20
396.79189418946049
 30
0.0
 11
1388.1273664966509
 21
377.79189418946049
 31
0.0
  0
LINE
  5
6D06
  8
UMCL1
  6
PHANTOM
 62
     6
 10
1388.1273664966509
 20
396.79189418946049
 30
0.0
 11
1458.1273664966509
 21
396.79189418946021
 31
0.0
  0
LINE
  5
6D07
  8
UMCL1
  6
PHANTOM
 62
     6
 10
1388.1273664966509
 20
377.79189418946049
 30
0.0
 11
1458.1273664966509
 21
377.79189418946021
 31
0.0
  0
ARC
  5
6D08
  8
UMCL1
 62
     3
 10
1396.1273664966509
 20
479.3258145449758
 30
0.0
 40
4.0
 50
77.755380639243384
 51
12.66105144964253
  0
SOLID
  5
6D09
  8
AM_5
 10
1391.081789755651
 20
432.53606713618029
 30
0.0
 11
1391.081789755651
 21
433.57795620238028
 31
0.0
 12
1388.1273664966509
 22
433.05701166928043
 32
0.0
 13
1388.1273664966509
 23
433.05701166928043
 33
0.0
  0
SOLID
  5
6D0A
  8
AM_5
 10
1487.6483110297511
 20
462.28023780397552
 30
0.0
 11
1486.6064219635509
 21
462.28023780397552
 31
0.0
 12
1487.1273664966509
 22
459.32581454497557
 32
0.0
 13
1487.1273664966509
 23
459.32581454497557
 33
0.0
  0
LINE
  5
6D0B
  8
AM_5
 10
1473.424051532789
 20
459.3258145449754
 30
0.0
 11
1488.1273664966509
 21
459.32581454497557
 31
0.0
  0
SOLID
  5
6D0C
  8
AM_5
 10
1495.6483110297511
 20
457.28023780397541
 30
0.0
 11
1494.6064219635509
 21
457.28023780397541
 31
0.0
 12
1495.1273664966509
 22
454.3258145449754
 32
0.0
 13
1495.1273664966509
 23
454.3258145449754
 33
0.0
  0
LINE
  5
6D0D
  8
AM_5
 10
1470.026836562484
 20
454.3258145449754
 30
0.0
 11
1496.1273664966509
 21
454.3258145449754
 31
0.0
  0
SOLID
  5
6D0E
  8
AM_5
 10
1479.6483110297511
 20
472.78023780397558
 30
0.0
 11
1478.6064219635509
 21
472.78023780397558
 31
0.0
 12
1479.1273664966509
 22
469.82581454497557
 32
0.0
 13
1479.1273664966509
 23
469.82581454497557
 33
0.0
  0
LINE
  5
6D0F
  8
AM_5
 10
1460.095836704468
 20
469.82581454497557
 30
0.0
 11
1480.4692735570329
 21
469.82581454497551
 31
0.0
  0
LINE
  5
6D10
  8
0
  6
HIDDEN
 62
     3
 10
1439.127366496652
 20
422.79189418946032
 30
0.0
 11
1439.127366496652
 21
415.79189418946009
 31
0.0
  0
LINE
  5
6D11
  8
0
  6
HIDDEN
 62
     3
 10
1453.127366496652
 20
422.79189418946021
 30
0.0
 11
1453.127366496652
 21
415.79189418946009
 31
0.0
  0
LINE
  5
6D12
  8
0
  6
HIDDEN
 62
     3
 10
1441.6273664966509
 20
415.79189418946032
 30
0.0
 11
1441.6273664966509
 21
413.29189418946032
 31
0.0
  0
LINE
  5
6D13
  8
0
  6
HIDDEN
 62
     3
 10
1450.6273664966509
 20
415.79189418946009
 30
0.0
 11
1450.6273664966509
 21
413.29189418946021
 31
0.0
  0
LINE
  5
6D14
  8
0
  6
HIDDEN
 62
     3
 10
1442.727366496651
 20
415.79189418946032
 30
0.0
 11
1442.727366496651
 21
412.79189418946021
 31
0.0
  0
LINE
  5
6D15
  8
0
  6
HIDDEN
 62
     3
 10
1442.127366496652
 20
415.79189418946032
 30
0.0
 11
1442.127366496652
 21
412.79189418946021
 31
0.0
  0
LINE
  5
6D16
  8
0
  6
HIDDEN
 62
     3
 10
1449.527366496651
 20
415.79189418946009
 30
0.0
 11
1449.527366496651
 21
412.79189418946021
 31
0.0
  0
LINE
  5
6D17
  8
0
  6
HIDDEN
 62
     3
 10
1450.127366496652
 20
415.79189418946009
 30
0.0
 11
1450.127366496652
 21
412.79189418946021
 31
0.0
  0
LINE
  5
6D18
  8
UMCL1
  6
CONTINUOUS
 10
1424.2056307077139
 20
317.99189418946031
 30
0.0
 11
1424.2056307077139
 21
291.59189418946039
 31
0.0
  0
LINE
  5
6D19
  8
UMCL1
 10
1425.005630707713
 20
290.79189418946021
 30
0.0
 11
1424.2056307077139
 21
291.59189418946028
 31
0.0
  0
LINE
  5
6D1A
  8
UMCL1
 10
1425.005630707713
 20
318.79189418946021
 30
0.0
 11
1424.2056307077139
 21
317.99189418946031
 31
0.0
  0
LINE
  5
6D1B
  8
UMCL1
  6
CONTINUOUS
 10
1468.0491022855881
 20
317.99189418946031
 30
0.0
 11
1468.0491022855881
 21
291.59189418946039
 31
0.0
  0
LINE
  5
6D1C
  8
UMCL1
 10
1467.2491022855879
 20
290.79189418946021
 30
0.0
 11
1468.0491022855881
 21
291.59189418946028
 31
0.0
  0
LINE
  5
6D1D
  8
UMCL1
 10
1467.2491022855879
 20
318.79189418946021
 30
0.0
 11
1468.0491022855881
 21
317.99189418946031
 31
0.0
  0
LINE
  5
6D1E
  8
0
  6
HIDDEN
 62
     3
 10
1572.0657794064659
 20
422.79189418946032
 30
0.0
 11
1572.0657794064659
 21
415.79189418946032
 31
0.0
  0
LINE
  5
6D1F
  8
0
  6
HIDDEN
 62
     3
 10
1585.0657794064659
 20
422.79189418946021
 30
0.0
 11
1585.0657794064659
 21
415.79189418945998
 31
0.0
  0
LINE
  5
6D20
  8
0
  6
HIDDEN
 62
     3
 10
1570.5657794064659
 20
403.79189418946032
 30
0.0
 11
1571.515779406466
 21
413.29189418946032
 31
0.0
  0
LINE
  5
6D21
  8
0
  6
HIDDEN
 62
     3
 10
1571.5657794064671
 20
415.79189418946032
 30
0.0
 11
1585.5657794064671
 21
415.79189418946009
 31
0.0
  0
LINE
  5
6D22
  8
0
  6
HIDDEN
 62
     3
 10
1586.5657794064659
 20
403.79189418946032
 30
0.0
 11
1585.6157794064659
 21
413.29189418946021
 31
0.0
  0
LINE
  5
6D23
  8
0
  6
HIDDEN
 62
     3
 10
1571.465779406466
 20
412.79189418946021
 30
0.0
 11
1585.6657794064661
 21
412.79189418946021
 31
0.0
  0
LINE
  5
6D24
  8
0
  6
HIDDEN
 62
     3
 10
1571.515779406466
 20
413.29189418946032
 30
0.0
 11
1585.6157794064659
 21
413.29189418946021
 31
0.0
  0
LINE
  5
6D25
  8
UMCL1
 10
1588.0657794064659
 20
403.79189418946009
 30
0.0
 11
1588.0657794064659
 21
422.79189418946021
 31
0.0
  0
LINE
  5
6D26
  8
UMCL1
 10
1554.3657794064659
 20
290.79189418946021
 30
0.0
 11
1602.765779406466
 21
290.79189418946021
 31
0.0
  0
LINE
  5
6D27
  8
UMCL1
 10
1554.3657794064659
 20
318.79189418946021
 30
0.0
 11
1602.765779406466
 21
318.79189418946038
 31
0.0
  0
LINE
  5
6D28
  8
UMCL1
 10
1603.5657794064659
 20
291.59189418946028
 30
0.0
 11
1603.5657794064659
 21
317.99189418946048
 31
0.0
  0
LINE
  5
6D29
  8
UMCL1
 10
1601.5657794064659
 20
369.79189418946021
 30
0.0
 11
1601.5657794064659
 21
318.79189418946032
 31
0.0
  0
LINE
  5
6D2A
  8
UMCL1
 10
1553.5657794064659
 20
317.99189418946031
 30
0.0
 11
1553.5657794064659
 21
291.59189418946028
 31
0.0
  0
LINE
  5
6D2B
  8
UMCL1
 10
1555.5657794064659
 20
369.79189418946021
 30
0.0
 11
1555.5657794064659
 21
318.79189418946032
 31
0.0
  0
LINE
  5
6D2C
  8
UMCL1
 10
1597.5657794064659
 20
373.79189418946021
 30
0.0
 11
1559.5657794064659
 21
373.79189418946021
 31
0.0
  0
LINE
  5
6D2D
  8
UMCL1
 10
1572.0657794064659
 20
422.79189418946032
 30
0.0
 11
1572.0657794064659
 21
424.79189418946038
 31
0.0
  0
LINE
  5
6D2E
  8
UMCL1
 10
1572.5657794064659
 20
425.29189418946038
 30
0.0
 11
1584.5657794064659
 21
425.29189418946032
 31
0.0
  0
LINE
  5
6D2F
  8
UMCL1
 10
1585.0657794064659
 20
424.79189418946032
 30
0.0
 11
1585.0657794064659
 21
422.79189418946021
 31
0.0
  0
LINE
  5
6D30
  8
UMCL1
 10
1572.0657794064659
 20
424.79189418946032
 30
0.0
 11
1585.0657794064659
 21
424.79189418946032
 31
0.0
  0
LINE
  5
6D31
  8
UMCL1
 10
1572.0657794064659
 20
424.79189418946038
 30
0.0
 11
1572.5657794064659
 21
425.29189418946038
 31
0.0
  0
LINE
  5
6D32
  8
UMCL1
 10
1584.5657794064659
 20
425.29189418946032
 30
0.0
 11
1585.0657794064659
 21
424.79189418946032
 31
0.0
  0
LINE
  5
6D33
  8
UMCL1
 10
1570.5657794064659
 20
403.79189418946038
 30
0.0
 11
1570.5657794064659
 21
373.79189418946021
 31
0.0
  0
LINE
  5
6D34
  8
UMCL1
 10
1586.5657794064659
 20
403.79189418946009
 30
0.0
 11
1586.5657794064659
 21
373.79189418946021
 31
0.0
  0
LINE
  5
6D35
  8
UMCL1
 10
1553.5657794064659
 20
317.99189418946031
 30
0.0
 11
1603.5657794064659
 21
317.99189418946031
 31
0.0
  0
LINE
  5
6D36
  8
UMCL1
 10
1553.5657794064659
 20
291.59189418946039
 30
0.0
 11
1603.5657794064659
 21
291.59189418946039
 31
0.0
  0
ARC
  5
6D37
  8
UMCL1
 10
1597.5657794064659
 20
369.79189418946021
 30
0.0
 40
4.0
 50
0.0
 51
90.0
  0
ARC
  5
6D38
  8
UMCL1
 10
1559.5657794064659
 20
369.79189418946021
 30
0.0
 40
4.0
 50
90.0
 51
180.0
  0
LINE
  5
6D39
  8
UMCL1
 10
1554.3657794064659
 20
290.79189418946021
 30
0.0
 11
1553.5657794064659
 21
291.59189418946028
 31
0.0
  0
LINE
  5
6D3A
  8
UMCL1
 10
1602.765779406466
 20
290.79189418946021
 30
0.0
 11
1603.5657794064659
 21
291.59189418946028
 31
0.0
  0
LINE
  5
6D3B
  8
UMCL1
 10
1554.3657794064659
 20
318.79189418946021
 30
0.0
 11
1553.5657794064659
 21
317.99189418946031
 31
0.0
  0
LINE
  5
6D3C
  8
UMCL1
 10
1602.765779406466
 20
318.79189418946038
 30
0.0
 11
1603.5657794064659
 21
317.99189418946048
 31
0.0
  0
LINE
  5
6D3D
  8
AM_7
 10
1578.5657794064659
 20
427.75336673386067
 30
0.0
 11
1578.565779406465
 21
287.01426836205172
 31
0.0
  0
LINE
  5
6D3E
  8
0
  6
HIDDEN
 62
     3
 10
1571.5657794064671
 20
422.79189418946032
 30
0.0
 11
1571.5657794064671
 21
415.79189418946009
 31
0.0
  0
LINE
  5
6D3F
  8
0
  6
HIDDEN
 62
     3
 10
1585.5657794064671
 20
422.79189418946021
 30
0.0
 11
1585.5657794064671
 21
415.79189418946009
 31
0.0
  0
LINE
  5
6D40
  8
0
  6
HIDDEN
 62
     3
 10
1574.0657794064659
 20
415.79189418946032
 30
0.0
 11
1574.0657794064659
 21
413.29189418946032
 31
0.0
  0
LINE
  5
6D41
  8
0
  6
HIDDEN
 62
     3
 10
1583.0657794064659
 20
415.79189418946009
 30
0.0
 11
1583.0657794064659
 21
413.29189418946021
 31
0.0
  0
LINE
  5
6D42
  8
0
  6
HIDDEN
 62
     3
 10
1575.1657794064661
 20
415.79189418946032
 30
0.0
 11
1575.1657794064661
 21
412.79189418946021
 31
0.0
  0
LINE
  5
6D43
  8
0
  6
HIDDEN
 62
     3
 10
1574.5657794064659
 20
415.79189418946032
 30
0.0
 11
1574.5657794064659
 21
412.79189418946021
 31
0.0
  0
LINE
  5
6D44
  8
0
  6
HIDDEN
 62
     3
 10
1581.965779406466
 20
415.79189418946009
 30
0.0
 11
1581.965779406466
 21
412.79189418946021
 31
0.0
  0
LINE
  5
6D45
  8
0
  6
HIDDEN
 62
     3
 10
1582.5657794064659
 20
415.79189418946009
 30
0.0
 11
1582.5657794064659
 21
412.79189418946021
 31
0.0
  0
LINE
  5
6D46
  8
UMCL1
  6
CONTINUOUS
 10
1556.644043617528
 20
317.99189418946031
 30
0.0
 11
1556.644043617528
 21
291.59189418946039
 31
0.0
  0
LINE
  5
6D47
  8
UMCL1
 10
1557.444043617528
 20
290.79189418946021
 30
0.0
 11
1556.644043617528
 21
291.59189418946028
 31
0.0
  0
LINE
  5
6D48
  8
UMCL1
 10
1557.444043617528
 20
318.79189418946021
 30
0.0
 11
1556.644043617528
 21
317.99189418946031
 31
0.0
  0
LINE
  5
6D49
  8
UMCL1
  6
CONTINUOUS
 10
1600.4875151954029
 20
317.99189418946031
 30
0.0
 11
1600.4875151954029
 21
291.59189418946039
 31
0.0
  0
LINE
  5
6D4A
  8
UMCL1
 10
1599.687515195403
 20
290.79189418946021
 30
0.0
 11
1600.4875151954029
 21
291.59189418946028
 31
0.0
  0
LINE
  5
6D4B
  8
UMCL1
 10
1599.687515195403
 20
318.79189418946021
 30
0.0
 11
1600.4875151954029
 21
317.99189418946031
 31
0.0
  0
LINE
  5
6D4C
  8
UMCL1
 10
1569.0657794064659
 20
403.79189418946009
 30
0.0
 11
1569.0657794064659
 21
422.79189418946021
 31
0.0
  0
LINE
  5
6D4D
  8
UMCL1
 10
1569.0657794064659
 20
422.79189418946032
 30
0.0
 11
1588.0657794064659
 21
422.79189418946021
 31
0.0
  0
LINE
  5
6D4E
  8
UMCL1
 10
1569.0657794064659
 20
403.79189418946009
 30
0.0
 11
1588.0657794064659
 21
403.79189418946009
 31
0.0
  0
LINE
  5
6D4F
  8
UMCL1
 10
1420.6176602840501
 20
-394.08638776547758
 30
0.0
 11
1420.6176602840501
 21
-375.08638776547781
 31
0.0
  0
LINE
  5
6D50
  8
AM_7
 10
1408.6176602840501
 20
-373.58638776547809
 30
0.0
 11
1408.6176602840501
 21
-395.58638776547758
 31
0.0
  0
LINE
  5
6D51
  8
UMCL1
 10
1320.617660284051
 20
-375.08638776547781
 30
0.0
 11
1420.6176602840501
 21
-375.08638776547781
 31
0.0
  0
LINE
  5
6D52
  8
UMCL1
 10
1320.6176602840501
 20
-394.08638776547758
 30
0.0
 11
1420.6176602840501
 21
-394.08638776547758
 31
0.0
  0
LINE
  5
6D53
  8
0
  6
HIDDEN
 62
     3
 10
1401.0925929270679
 20
-384.58638776547781
 30
0.0
 11
1416.1427276410329
 21
-384.58638776547781
 31
0.0
  0
LINE
  5
6D54
  8
0
  6
HIDDEN
 62
     3
 10
1416.617660284051
 20
-394.08638776547758
 30
0.0
 11
1416.1427276410329
 21
-384.58638776547781
 31
0.0
  0
LINE
  5
6D55
  8
0
  6
HIDDEN
 62
     3
 10
1400.6176602840501
 20
-394.08638776547758
 30
0.0
 11
1401.0925929270679
 21
-384.58638776547781
 31
0.0
  0
LINE
  5
6D56
  8
0
  6
HIDDEN
 62
     3
 10
1401.617660284051
 20
-375.08638776547758
 30
0.0
 11
1401.6176602840501
 21
-382.08638776547758
 31
0.0
  0
LINE
  5
6D57
  8
0
  6
HIDDEN
 62
     3
 10
1415.6176602840501
 20
-375.08638776547758
 30
0.0
 11
1415.6176602840501
 21
-382.08638776547758
 31
0.0
  0
LINE
  5
6D58
  8
0
  6
HIDDEN
 62
     3
 10
1401.6176602840501
 20
-382.08638776547758
 30
0.0
 11
1415.6176602840501
 21
-382.08638776547758
 31
0.0
  0
LINE
  5
6D59
  8
0
  6
HIDDEN
 62
     3
 10
1404.117660284051
 20
-382.08638776547758
 30
0.0
 11
1404.117660284051
 21
-384.58638776547758
 31
0.0
  0
LINE
  5
6D5A
  8
0
  6
HIDDEN
 62
     3
 10
1413.117660284051
 20
-382.08638776547758
 30
0.0
 11
1413.117660284051
 21
-384.58638776547781
 31
0.0
  0
LINE
  5
6D5B
  8
UMCL1
 10
1420.617660284051
 20
-349.80480861543759
 30
0.0
 11
1420.617660284051
 21
-330.80480861543782
 31
0.0
  0
LINE
  5
6D5C
  8
UMCL1
 10
1320.617660284051
 20
-330.80480861543782
 30
0.0
 11
1420.617660284051
 21
-330.80480861543782
 31
0.0
  0
LINE
  5
6D5D
  8
UMCL1
 10
1320.617660284051
 20
-349.80480861543759
 30
0.0
 11
1420.617660284051
 21
-349.80480861543759
 31
0.0
  0
CIRCLE
  5
6D5E
  8
UMCL1
 10
1408.617660284051
 20
-340.30480861543811
 30
0.0
 40
4.5
  0
CIRCLE
  5
6D5F
  8
UMCL1
 10
1408.617660284051
 20
-340.30480861543811
 30
0.0
 40
7.0
  0
CIRCLE
  5
6D60
  8
0
  6
HIDDEN
 62
     3
 10
1408.617660284051
 20
-340.30480861543811
 30
0.0
 40
8.0
  0
LINE
  5
6D61
  8
AM_7
 10
1399.317660284051
 20
-340.30480861543811
 30
0.0
 11
1406.0176602840511
 21
-340.30480861543811
 31
0.0
  0
LINE
  5
6D62
  8
AM_7
 10
1407.317660284051
 20
-340.30480861543811
 30
0.0
 11
1409.917660284051
 21
-340.30480861543811
 31
0.0
  0
LINE
  5
6D63
  8
AM_7
 10
1411.2176602840509
 20
-340.30480861543811
 30
0.0
 11
1417.917660284051
 21
-340.30480861543811
 31
0.0
  0
LINE
  5
6D64
  8
AM_7
 10
1408.617660284051
 20
-349.60480861543812
 30
0.0
 11
1408.617660284051
 21
-342.90480861543813
 31
0.0
  0
LINE
  5
6D65
  8
AM_7
 10
1408.617660284051
 20
-341.60480861543812
 30
0.0
 11
1408.617660284051
 21
-339.00480861543821
 31
0.0
  0
LINE
  5
6D66
  8
AM_7
 10
1408.617660284051
 20
-337.70480861543831
 30
0.0
 11
1408.617660284051
 21
-331.00480861543821
 31
0.0
  0
LINE
  5
6D67
  8
UMCL1
 10
1320.617660284051
 20
-349.80480861543759
 30
0.0
 11
1320.617660284051
 21
-330.80480861543782
 31
0.0
  0
LINE
  5
6D68
  8
UMCL1
 10
1320.6176602840501
 20
-394.08638776547758
 30
0.0
 11
1320.6176602840501
 21
-375.08638776547781
 31
0.0
  0
LINE
  5
6D69
  8
AM_5
 10
1320.617660284051
 20
-329.80480861543782
 30
0.0
 11
1320.617660284051
 21
-324.50228270643811
 31
0.0
  0
LINE
  5
6D6A
  8
AM_5
 10
1420.617660284051
 20
-329.80480861543782
 30
0.0
 11
1420.617660284051
 21
-324.50228270643811
 31
0.0
  0
LINE
  5
6D6B
  8
AM_5
 10
1323.617660284051
 20
-325.502282706438
 30
0.0
 11
1417.617660284051
 21
-325.502282706438
 31
0.0
  0
SOLID
  5
6D6C
  8
AM_5
 10
1323.617660284051
 20
-325.002282706438
 30
0.0
 11
1323.617660284051
 21
-326.00228270643811
 31
0.0
 12
1320.617660284051
 22
-325.502282706438
 32
0.0
 13
1320.617660284051
 23
-325.502282706438
 33
0.0
  0
SOLID
  5
6D6D
  8
AM_5
 10
1417.617660284051
 20
-325.002282706438
 30
0.0
 11
1417.617660284051
 21
-326.00228270643811
 31
0.0
 12
1420.617660284051
 22
-325.502282706438
 32
0.0
 13
1420.617660284051
 23
-325.502282706438
 33
0.0
  0
INSERT
  5
6D6E
  8
0
  2
*U144
 10
0.0
 20
0.0
 30
0.0
  0
LINE
  5
6D6F
  8
0
  6
HIDDEN
 62
     3
 10
1435.1277889197549
 20
-394.08638776547758
 30
0.0
 11
1436.077788919755
 21
-384.58638776547758
 31
0.0
  0
LINE
  5
6D70
  8
0
  6
HIDDEN
 62
     3
 10
1436.1277889197549
 20
-382.08638776547758
 30
0.0
 11
1450.1277889197549
 21
-382.0863877654777
 31
0.0
  0
LINE
  5
6D71
  8
0
  6
HIDDEN
 62
     3
 10
1451.1277889197549
 20
-394.08638776547758
 30
0.0
 11
1450.1777889197549
 21
-384.5863877654777
 31
0.0
  0
LINE
  5
6D72
  8
0
  6
HIDDEN
 62
     3
 10
1436.077788919755
 20
-384.58638776547758
 30
0.0
 11
1450.1777889197549
 21
-384.5863877654777
 31
0.0
  0
LINE
  5
6D73
  8
UMCL1
 10
1452.6277889197549
 20
-394.0863877654777
 30
0.0
 11
1452.6277889197549
 21
-375.0863877654777
 31
0.0
  0
LINE
  5
6D74
  8
0
  6
HIDDEN
 62
     3
 10
1436.1277889197549
 20
-375.08638776547758
 30
0.0
 11
1436.1277889197549
 21
-382.08638776547758
 31
0.0
  0
LINE
  5
6D75
  8
0
  6
HIDDEN
 62
     3
 10
1450.1277889197549
 20
-375.08638776547758
 30
0.0
 11
1450.1277889197549
 21
-382.0863877654777
 31
0.0
  0
LINE
  5
6D76
  8
0
  6
HIDDEN
 62
     3
 10
1438.6277889197549
 20
-382.08638776547758
 30
0.0
 11
1438.6277889197549
 21
-384.58638776547758
 31
0.0
  0
LINE
  5
6D77
  8
0
  6
HIDDEN
 62
     3
 10
1447.6277889197549
 20
-382.0863877654777
 30
0.0
 11
1447.6277889197549
 21
-384.5863877654777
 31
0.0
  0
LINE
  5
6D78
  8
UMCL1
 10
1433.6277889197549
 20
-394.0863877654777
 30
0.0
 11
1433.6277889197549
 21
-375.0863877654777
 31
0.0
  0
LINE
  5
6D79
  8
UMCL1
 10
1433.6277889197549
 20
-375.08638776547758
 30
0.0
 11
1452.6277889197549
 21
-375.0863877654777
 31
0.0
  0
LINE
  5
6D7A
  8
UMCL1
 10
1433.6277889197549
 20
-394.0863877654777
 30
0.0
 11
1452.6277889197549
 21
-394.0863877654777
 31
0.0
  0
LINE
  5
6D7B
  8
AM_7
 10
1443.1277889197549
 20
-373.58638776547792
 30
0.0
 11
1443.1277889197549
 21
-395.58638776547741
 31
0.0
  0
LINE
  5
6D7C
  8
AM_7
 10
1586.5657794064659
 20
362.79189418946009
 30
0.0
 11
1570.5657794064659
 21
362.79189418946009
 31
0.0
  0
LINE
  5
6D7D
  8
AM_7
 10
1576.5657794064659
 20
309.79189418945998
 30
0.0
 11
1560.5657794064659
 21
309.79189418945998
 31
0.0
  0
LINE
  5
6D7E
  8
AM_7
 10
1568.5657794064659
 20
317.79189418946021
 30
0.0
 11
1568.5657794064659
 21
301.79189418946021
 31
0.0
  0
CIRCLE
  5
6D7F
  8
UMCL1
 10
1568.5657794064659
 20
309.79189418946021
 30
0.0
 40
4.25
  0
CIRCLE
  5
6D80
  8
UMCL1
 10
1578.5657794064659
 20
362.79189418946021
 30
0.0
 40
4.25
  0
ARC
  5
6D81
  8
UMCL1
 62
     3
 10
1568.5657794064659
 20
309.79189418946021
 30
0.0
 40
5.0
 50
76.845591614176541
 51
11.05189005559853
  0
ARC
  5
6D82
  8
UMCL1
 62
     3
 10
1578.5657794064659
 20
362.79189418946021
 30
0.0
 40
5.0
 50
77.498655826070589
 51
10.663004957293641
  0
ARC
  5
6D83
  8
UMCL1
 10
1446.1273664966509
 20
310.29189418946021
 30
0.0
 40
3.3000000000000109
 50
141.9877204556748
 51
38.012279544355209
  0
LINE
  5
6D84
  8
AM_7
 10
1440.5820586706629
 20
310.29189418946021
 30
0.0
 11
1451.6726743226391
 21
310.29189418946021
 31
0.0
  0
LINE
  5
6D85
  8
UMCL1
 10
1443.5273664966501
 20
312.32413433274928
 30
0.0
 11
1443.527366496651
 21
373.79189418946021
 31
0.0
  0
LINE
  5
6D86
  8
UMCL1
 10
1448.727366496651
 20
312.32413433275042
 30
0.0
 11
1448.727366496651
 21
373.79189418946021
 31
0.0
  0
LINE
  5
6D87
  8
UMCL1
 10
1442.8273664966509
 20
501.32581454497603
 30
0.0
 11
1443.527366496651
 21
501.32581454497603
 31
0.0
  0
LINE
  5
6D88
  8
UMCL1
 10
1442.8273664966509
 20
498.0258145449759
 30
0.0
 11
1449.4273664966511
 21
498.0258145449759
 31
0.0
  0
LINE
  5
6D89
  8
UMCL1
 10
1449.4273664966511
 20
501.32581454497603
 30
0.0
 11
1449.4273664966511
 21
498.0258145449759
 31
0.0
  0
LINE
  5
6D8A
  8
UMCL1
 10
1448.727366496651
 20
501.32581454497603
 30
0.0
 11
1449.4273664966511
 21
501.32581454497603
 31
0.0
  0
LINE
  5
6D8B
  8
UMCL1
 10
1448.727366496651
 20
504.32581454497591
 30
0.0
 11
1448.727366496651
 21
501.32581454497603
 31
0.0
  0
LINE
  5
6D8C
  8
UMCL1
 10
1443.527366496651
 20
504.32581454497591
 30
0.0
 11
1443.527366496651
 21
501.32581454497603
 31
0.0
  0
LINE
  5
6D8D
  8
UMCL1
 10
1442.8273664966509
 20
501.32581454497603
 30
0.0
 11
1442.8273664966509
 21
498.0258145449759
 31
0.0
  0
LINE
  5
6D8E
  8
UMCL1
 10
1442.8273664966509
 20
460.62581454497558
 30
0.0
 11
1449.4273664966511
 21
460.62581454497558
 31
0.0
  0
LINE
  5
6D8F
  8
UMCL1
 10
1442.8273664966509
 20
457.32581454497569
 30
0.0
 11
1443.527366496651
 21
457.32581454497569
 31
0.0
  0
LINE
  5
6D90
  8
UMCL1
 10
1449.4273664966511
 20
457.32581454497569
 30
0.0
 11
1449.4273664966511
 21
460.62581454497558
 31
0.0
  0
LINE
  5
6D91
  8
UMCL1
 10
1448.727366496651
 20
454.32581454497591
 30
0.0
 11
1448.727366496651
 21
457.32581454497569
 31
0.0
  0
LINE
  5
6D92
  8
UMCL1
 10
1448.727366496651
 20
457.32581454497569
 30
0.0
 11
1449.4273664966511
 21
457.32581454497569
 31
0.0
  0
LINE
  5
6D93
  8
UMCL1
 10
1443.527366496651
 20
454.32581454497591
 30
0.0
 11
1443.527366496651
 21
457.32581454497569
 31
0.0
  0
LINE
  5
6D94
  8
UMCL1
 10
1442.8273664966509
 20
457.32581454497569
 30
0.0
 11
1442.8273664966509
 21
460.62581454497558
 31
0.0
  0
LINE
  5
6D95
  8
0
  6
HIDDEN
 62
     3
 10
1427.4273664966511
 20
476.02581454497562
 30
0.0
 11
1427.4273664966511
 21
482.6258145449757
 31
0.0
  0
LINE
  5
6D96
  8
0
  6
HIDDEN
 62
     3
 10
1424.1273664966509
 20
476.02581454497562
 30
0.0
 11
1424.1273664966509
 21
476.72581454497561
 31
0.0
  0
LINE
  5
6D97
  8
0
  6
HIDDEN
 62
     3
 10
1424.1273664966509
 20
482.62581454497553
 30
0.0
 11
1427.4273664966511
 21
482.6258145449757
 31
0.0
  0
LINE
  5
6D98
  8
0
  6
HIDDEN
 62
     3
 10
1421.1273664966509
 20
481.92581454497559
 30
0.0
 11
1424.1273664966509
 21
481.92581454497559
 31
0.0
  0
LINE
  5
6D99
  8
0
  6
HIDDEN
 62
     3
 10
1424.1273664966509
 20
481.92581454497559
 30
0.0
 11
1424.1273664966509
 21
482.6258145449757
 31
0.0
  0
LINE
  5
6D9A
  8
0
  6
HIDDEN
 62
     3
 10
1421.1273664966509
 20
476.72581454497561
 30
0.0
 11
1424.1273664966509
 21
476.72581454497561
 31
0.0
  0
LINE
  5
6D9B
  8
0
  6
HIDDEN
 62
     3
 10
1424.1273664966509
 20
476.0258145449755
 30
0.0
 11
1427.4273664966511
 21
476.02581454497562
 31
0.0
  0
LINE
  5
6D9C
  8
0
  6
HIDDEN
 62
     3
 10
1421.1273664966509
 20
469.8258145449758
 30
0.0
 11
1421.1273664966509
 21
488.8258145449758
 31
0.0
  0
LINE
  5
6D9D
  8
AM_5
 10
1598.7671190695251
 20
470.56707159047107
 30
0.0
 11
1598.7671190695251
 21
478.76707159047101
 31
0.0
  0
SOLID
  5
6D9E
  8
AM_5
 10
1590.3504524028581
 20
477.36707159047103
 30
0.0
 11
1591.183785736192
 21
477.36707159047103
 31
0.0
 12
1590.7671190695251
 22
479.86707159047103
 32
0.0
 13
1590.7671190695251
 23
479.86707159047103
 33
0.0
  0
INSERT
  5
6D9F
  8
0
  2
*U145
 10
0.0
 20
0.0
 30
0.0
  0
ARC
  5
6DA0
  8
UMCL1
 10
1524.593068161611
 20
474.66707159047081
 30
0.0
 40
55.0
 50
351.69000449893599
 51
8.3099955010639537
  0
LINE
  5
6DA1
  8
UMCL1
 10
1570.9930681616111
 20
481.26707159047101
 30
0.0
 11
1570.9930681616111
 21
468.06707159047102
 31
0.0
  0
CIRCLE
  5
6DA2
  8
UMCL1
  6
PHANTOM
 62
     4
 10
1574.2766148719779
 20
474.66707159047093
 30
0.0
 40
9.2545094513222637
  0
INSERT
  5
6DA3
  8
0
  2
*U146
 10
0.0
 20
0.0
 30
0.0
  0
LINE
  5
6DA4
  8
AM_5
 10
1570.9930681616111
 20
449.41256213914869
 30
0.0
 11
1579.593068161611
 21
449.41256213914869
 31
0.0
  0
LINE
  5
6DA5
  8
AM_5
 10
1570.9930681616111
 20
457.41256213914869
 30
0.0
 11
1577.593068161611
 21
457.41256213914869
 31
0.0
  0
INSERT
  5
6DA6
  8
0
  2
*U147
 10
0.0
 20
0.0
 30
0.0
  0
LINE
  5
6DA7
  8
AM_7
 10
1583.5311243233009
 20
474.66707159047093
 30
0.0
 11
1565.0221054206561
 21
474.66707159047093
 31
0.0
  0
LINE
  5
6DA8
  8
UMCL1
 10
1577.593068161611
 20
468.06707159047102
 30
0.0
 11
1570.9930681616111
 21
468.06707159047102
 31
0.0
  0
LINE
  5
6DA9
  8
AM_5
 10
1570.9930681616111
 20
467.06707159047102
 30
0.0
 11
1570.9930681616111
 21
448.41256213914869
 31
0.0
  0
SOLID
  5
6DAA
  8
AM_5
 10
1573.4930681616111
 20
449.82922880581538
 30
0.0
 11
1573.4930681616111
 21
448.995895472482
 31
0.0
 12
1570.9930681616111
 22
449.41256213914869
 32
0.0
 13
1570.9930681616111
 23
449.41256213914869
 33
0.0
  0
SOLID
  5
6DAB
  8
AM_5
 10
1573.4930681616111
 20
457.82922880581538
 30
0.0
 11
1573.4930681616111
 21
456.995895472482
 31
0.0
 12
1570.9930681616111
 22
457.41256213914869
 32
0.0
 13
1570.9930681616111
 23
457.41256213914869
 33
0.0
  0
POINT
  5
6DAC
  8
UMCL1
 10
1570.9930681616111
 20
468.06707159047102
 30
0.0
 50
360.0
  0
INSERT
  5
6DAD
  8
0
  2
*U148
 10
0.0
 20
0.0
 30
0.0
  0
LINE
  5
6DAE
  8
AM_5
 10
1578.593068161611
 20
468.06707159047102
 30
0.0
 11
1599.7671190695251
 21
468.06707159047102
 31
0.0
  0
LINE
  5
6DAF
  8
AM_5
 10
1579.593068161611
 20
473.6670715904707
 30
0.0
 11
1579.593068161611
 21
448.41256213914869
 31
0.0
  0
LINE
  5
6DB0
  8
AM_5
 10
1577.593068161611
 20
467.06707159047102
 30
0.0
 11
1577.593068161611
 21
456.41256213914869
 31
0.0
  0
SOLID
  5
6DB1
  8
AM_5
 10
1577.093068161611
 20
449.82922880581538
 30
0.0
 11
1577.093068161611
 21
448.995895472482
 31
0.0
 12
1579.593068161611
 22
449.41256213914869
 32
0.0
 13
1579.593068161611
 23
449.41256213914869
 33
0.0
  0
POINT
  5
6DB2
  8
AM_5
 10
1577.593068161611
 20
449.41256213914869
 30
0.0
 50
360.0
  0
SOLID
  5
6DB3
  8
AM_5
 10
1575.0930681616121
 20
457.82922880581538
 30
0.0
 11
1575.0930681616121
 21
456.995895472482
 31
0.0
 12
1577.593068161611
 22
457.41256213914869
 32
0.0
 13
1577.593068161611
 23
457.41256213914869
 33
0.0
  0
POINT
  5
6DB4
  8
AM_5
 10
1577.593068161611
 20
457.41256213914869
 30
0.0
 50
360.0
  0
LINE
  5
6DB5
  8
AM_5
 10
1580.3466981782601
 20
469.46707159047088
 30
0.0
 11
1591.7671190695251
 21
469.46707159047088
 31
0.0
  0
LINE
  5
6DB6
  8
UMCL1
 10
1577.593068161611
 20
469.46707159047099
 30
0.0
 11
1577.593068161611
 21
468.06707159047102
 31
0.0
  0
POINT
  5
6DB7
  8
UMCL1
 10
1577.593068161611
 20
468.06707159047102
 30
0.0
 50
360.0
  0
POINT
  5
6DB8
  8
UMCL1
 10
1577.593068161611
 20
468.06707159047102
 30
0.0
 50
360.0
  0
POINT
  5
6DB9
  8
UMCL1
 10
1579.3466981782601
 20
469.46707159047088
 30
0.0
 50
360.0
  0
LINE
  5
6DBA
  8
UMCL1
 10
1579.3466981782601
 20
469.46707159047088
 30
0.0
 11
1577.593068161611
 21
469.46707159047099
 31
0.0
  0
LINE
  5
6DBB
  8
AM_5
 10
1590.7671190695251
 20
471.96707159047088
 30
0.0
 11
1590.7671190695251
 21
477.36707159047103
 31
0.0
  0
SOLID
  5
6DBC
  8
AM_5
 10
1590.3504524028581
 20
471.96707159047088
 30
0.0
 11
1591.183785736192
 21
471.96707159047088
 31
0.0
 12
1590.7671190695251
 22
469.46707159047088
 32
0.0
 13
1590.7671190695251
 23
469.46707159047088
 33
0.0
  0
SOLID
  5
6DBD
  8
AM_5
 10
1598.3504524028581
 20
470.56707159047107
 30
0.0
 11
1599.183785736192
 21
470.56707159047107
 31
0.0
 12
1598.7671190695251
 22
468.06707159047102
 32
0.0
 13
1598.7671190695251
 23
468.06707159047102
 33
0.0
  0
LINE
  5
6DBE
  8
UMCL1
 10
1577.593068161611
 20
481.26707159047101
 30
0.0
 11
1570.9930681616111
 21
481.26707159047101
 31
0.0
  0
LINE
  5
6DBF
  8
AM_5
 10
1578.593068161611
 20
481.26707159047101
 30
0.0
 11
1599.7671190695251
 21
481.26707159047101
 31
0.0
  0
LINE
  5
6DC0
  8
AM_5
 10
1580.3466981782601
 20
479.86707159047103
 30
0.0
 11
1591.7671190695251
 21
479.86707159047103
 31
0.0
  0
POINT
  5
6DC1
  8
UMCL1
 10
1577.593068161611
 20
481.26707159047101
 30
0.0
 50
360.0
  0
POINT
  5
6DC2
  8
UMCL1
 10
1579.3466981782601
 20
479.86707159047103
 30
0.0
 50
360.0
  0
LINE
  5
6DC3
  8
UMCL1
 10
1579.3466981782601
 20
479.86707159047103
 30
0.0
 11
1577.593068161611
 21
479.86707159047103
 31
0.0
  0
LINE
  5
6DC4
  8
UMCL1
 10
1577.593068161611
 20
481.26707159047101
 30
0.0
 11
1577.593068161611
 21
479.86707159047103
 31
0.0
  0
POINT
  5
6DC5
  8
AM_5
 10
1590.7671190695251
 20
479.86707159047103
 30
0.0
 50
360.0
  0
POINT
  5
6DC6
  8
AM_5
 10
1598.7671190695251
 20
481.26707159047101
 30
0.0
 50
360.0
  0
SOLID
  5
6DC7
  8
AM_5
 10
1598.3504524028581
 20
478.76707159047101
 30
0.0
 11
1599.183785736192
 21
478.76707159047101
 31
0.0
 12
1598.7671190695251
 22
481.26707159047101
 32
0.0
 13
1598.7671190695251
 23
481.26707159047101
 33
0.0
  0
LINE
  5
6DC8
  8
AM_5
 10
1442.8837250814411
 20
388.2558155608001
 30
0.0
 11
1465.164850589282
 21
388.25581556079999
 31
0.0
  0
TEXT
  5
6DC9
  8
0
 10
891.10628419442321
 20
541.16130024311838
 30
0.0
 40
9.6000000000000014
  1
MTAS-32
  0
TEXT
  5
6DCA
  8
0
 10
1303.8178951946029
 20
541.16130024311838
 30
0.0
 40
9.6000000000000014
  1
MTAS-32M
  0
TEXT
  5
6DCB
  8
LOGO
 62
     7
 10
1001.403194533303
 20
-440.94146076364962
 30
0.0
 40
7.9988416289592754
  1
Order example:
 41
0.8
  7
CHINESET
  0
TEXT
  5
6DCC
  8
LOGO
 62
     7
 10
1002.838252869267
 20
-429.68074793136691
 30
0.0
 40
11.998262443438909
  1
訂購代號：
  7
CHINESET
  0
LINE
  5
6DCD
  8
LOGO
 62
     4
 10
997.92767071500896
 20
-474.6515999378995
 30
0.0
 11
997.92767071500896
 21
-414.66028772070467
 31
0.0
  0
TEXT
  5
6DCE
  8
LOGO
  6
CONTINUOUS
 10
887.49593285176309
 20
-462.86639718761552
 30
0.0
 40
8.9986968325791885
  1
金器工業股份有限公司
  7
CHINESET
  0
TEXT
  5
6DCF
  8
LOGO
  6
CONTINUOUS
 10
870.96710707468844
 20
-471.86685705924867
 30
0.0
 40
5.9991312217194563
  1
MINDMAN INDUSTRIAL CO., LTD.
 41
0.85
  7
CHINESET
  0
LINE
  5
6DD0
  8
LOGO
 62
     4
 10
997.92767071500896
 20
-426.65855016414349
 30
0.0
 11
909.94041279645637
 21
-426.65855016414349
 31
0.0
  0
LINE
  5
6DD1
  8
LOGO
 62
     4
 10
997.92767071500896
 20
-438.65681260758259
 30
0.0
 11
909.94041279645637
 21
-438.65681260758259
 31
0.0
  0
LINE
  5
6DD2
  8
LOGO
 62
     4
 10
997.92767071500896
 20
-450.6550750510209
 30
0.0
 11
865.94678383718076
 21
-450.6550750510209
 31
0.0
  0
LINE
  5
6DD3
  8
LOGO
 62
     4
 10
909.94041279645637
 20
-450.6550750510209
 30
0.0
 11
909.94041279645637
 21
-414.66028772070467
 31
0.0
  0
TEXT
  5
6DD4
  8
LOGO
 10
970.07555064847031
 20
-447.65550944016218
 30
0.0
 40
5.9991312217194563
  1
mm
  7
CHINESET
 72
     1
 11
977.50304644678977
 21
-444.65594382930237
 31
0.0
 73
     2
  0
TEXT
  5
6DD5
  8
LOGO
 10
966.93314857995063
 20
-423.6589845532842
 30
0.0
 40
5.9991312217194563
  1
1 : 1
  7
CHINESET
 72
     1
 11
977.50304644678977
 21
-420.65941894242451
 31
0.0
 73
     2
  0
LINE
  5
6DD6
  8
LOGO
 62
     4
 10
957.93346257021244
 20
-450.6550750510209
 30
0.0
 11
957.93346257021244
 21
-414.66028772070467
 31
0.0
  0
TEXT
  5
6DD7
  8
LOGO
 10
914.8870178707939
 20
-423.65603222492712
 30
393.17317728014939
 40
5.9991312217194563
  1
比例 Scale:
 41
0.9
  7
CHINESET
 72
     4
 11
933.93693768333435
 21
-420.65941894242451
 31
393.17317728014939
  0
TEXT
  5
6DD8
  8
LOGO
 10
914.54153218882902
 20
-435.57285961118129
 30
393.17317728014939
 40
5.9991312217194563
  1
投影  View:
 41
0.9
  7
CHINESET
 72
     4
 11
933.93693768333435
 21
-432.65768138586338
 31
393.17317728014939
  0
TEXT
  5
6DD9
  8
LOGO
 10
915.12805439309534
 20
-447.65550944016218
 30
393.17317728014939
 40
5.9991312217194563
  1
單位  Unit:
 41
0.9
  7
CHINESET
 72
     4
 11
933.93693768333435
 21
-444.65594382930237
 31
393.17317728014939
  0
POLYLINE
  5
6DDA
  8
LOGO
 62
     4
 66
     1
 10
0.0
 20
0.0
 30
0.0
 70
     1
1001
GENIUS_GENREC_14
1002
{
1000
PYDIR
1011
865.94678383718076
1021
0.0
1031
0.0
1021
566.71400103156202
1031
0.0
1002
}
1002
{
1000
PXDIR
1011
1690.94678383718
1021
0.0
1031
0.0
1021
-414.66028772070467
1031
0.0
1002
}
1002
{
1000
PORI
1011
865.94678383718076
1021
0.0
1031
0.0
1021
-414.66028772070467
1031
0.0
1002
}
1002
{
1000
PINS
1011
865.94678383718076
1021
0.0
1031
0.0
1021
-414.66028772070467
1031
0.0
1002
}
1002
{
1000
PINS2
1011
1690.94678383718
1021
0.0
1031
0.0
1021
566.71400103156202
1031
0.0
1002
}
1002
{
1000
C
1070
     1
1002
}
1001
GENIUS_GENODEF_13
1002
{
1000
HIER
1070
     0
1002
}
1002
{
1000
MANEDIT
1070
     0
1002
}
1002
{
1000
NOSEL
1070
     0
1002
}
1002
{
1000
BEHIND
1070
     0
1002
}
1002
{
1000
OTHER
1070
     0
1002
}
1002
{
1000
REACTOR
1002
}
1001
GENIUS_GENOBJ-N-REC_13
1002
{
1000
OWNER
1000
GEN
1002
}
  0
VERTEX
  5
784C
  8
LOGO
 62
     4
 10
865.94678383718076
 20
-414.66028772070467
 30
0.0
  0
VERTEX
  5
784D
  8
LOGO
 62
     4
 10
1690.94678383718
 20
-414.66028772070467
 30
0.0
  0
VERTEX
  5
784E
  8
LOGO
 62
     4
 10
1690.94678383718
 20
566.71400103156202
 30
0.0
  0
VERTEX
  5
784F
  8
LOGO
 62
     4
 10
865.94678383718076
 20
566.71400103156202
 30
0.0
  0
SEQEND
  5
7850
  8
LOGO
 62
     4
  0
SOLID
  5
6DDB
  8
LOGO
 62
     5
 10
872.1709787584474
 20
-440.68237330400058
 30
0.0
 11
874.76484568151557
 21
-440.68237330400137
 31
0.0
 12
885.58753180879989
 22
-416.08535937835308
 32
0.0
 13
888.18139873186931
 23
-416.0853593783545
 33
0.0
  0
SOLID
  5
6DDC
  8
LOGO
 62
     5
 10
875.83816992554671
 20
-440.68237330400058
 30
0.0
 11
878.43203684861487
 21
-440.68237330400058
 31
0.0
 12
888.18139873186931
 22
-418.05312049240592
 32
0.0
 13
885.58753180879989
 23
-427.56396587698958
 33
0.0
  0
SOLID
  5
6DDD
  8
LOGO
 62
     2
 10
874.76484568151557
 20
-440.68237330400137
 30
0.0
 11
875.83816992554671
 21
-440.68237330400058
 31
0.0
 12
888.18139873186931
 22
-416.0853593783545
 32
0.0
 13
889.25472297589897
 23
-416.0853593783545
 33
0.0
  0
SOLID
  5
6DDE
  8
LOGO
 62
     5
 10
868.01237398668229
 20
-449.62674200423538
 30
0.0
 11
868.90681085670678
 21
-449.62674200423538
 31
0.0
 12
871.42561470009537
 22
-445.15455765411838
 32
0.0
 13
872.32005157011702
 23
-445.15455765411838
 33
0.0
  0
SOLID
  5
6DDF
  8
LOGO
 62
     5
 10
871.42561470009537
 20
-445.15455765411838
 30
0.0
 11
872.32005157011702
 21
-445.15455765411838
 31
0.0
 12
871.42561470009537
 22
-449.62674200423538
 32
0.0
 13
872.32005157011702
 23
-449.62674200423538
 33
0.0
  0
SOLID
  5
6DE0
  8
LOGO
 62
     5
 10
871.42561470009537
 20
-449.62674200423538
 30
0.0
 11
872.32005157011702
 21
-449.62674200423538
 31
0.0
 12
874.83885541350969
 22
-445.15455765411838
 32
0.0
 13
875.73329228353282
 23
-445.15455765411838
 33
0.0
  0
SOLID
  5
6DE1
  8
LOGO
 62
     5
 10
874.83885541350969
 20
-445.15455765411838
 30
0.0
 11
875.73329228353282
 21
-445.15455765411838
 31
0.0
 12
874.83885541350969
 22
-449.62674200423538
 32
0.0
 13
875.73329228353282
 23
-449.62674200423538
 33
0.0
  0
POLYLINE
  5
6DE2
  8
LOGO
 62
     5
 66
     1
 10
0.0
 20
0.0
 30
0.0
 40
0.8958702624434387
 41
0.8958702624434387
  0
VERTEX
  5
6DE3
  8
LOGO
 62
     5
 10
904.82007460293812
 20
-446.9434313941652
 30
0.0
 42
1.0
  0
VERTEX
  5
6DE4
  8
LOGO
 62
     5
 10
902.13246381560714
 20
-446.9434313941652
 30
0.0
 42
1.0
  0
SEQEND
  5
6DE5
  8
LOGO
 62
     5
  0
POLYLINE
  5
6DE6
  8
LOGO
 62
     5
 66
     1
 10
0.0
 20
0.0
 30
0.0
 70
     1
  0
VERTEX
  5
6DE7
  8
LOGO
 62
     5
 10
897.06619793656012
 20
-447.39064982917762
 30
0.0
 42
1.0000000573306349
  0
VERTEX
  5
6DE8
  8
LOGO
 62
     5
 10
899.74950854663098
 20
-447.39064982917762
 30
0.0
 42
1.0000000573306349
  0
SEQEND
  5
6DE9
  8
LOGO
 62
     5
  0
CIRCLE
  5
6DEA
  8
LOGO
 62
     5
 10
898.40785324159765
 20
-447.39064982917762
 30
0.0
 40
1.341655305035294
  0
POLYLINE
  5
6DEB
  8
LOGO
 62
     5
 66
     1
 10
0.0
 20
0.0
 30
0.0
 70
     1
 40
0.8958702624434387
 41
0.8958702624434387
  0
VERTEX
  5
6DEC
  8
LOGO
 62
     5
 10
896.61611271670961
 20
-447.39064982917762
 30
0.0
 42
1.0
  0
VERTEX
  5
6DED
  8
LOGO
 62
     5
 10
900.19959376648296
 20
-447.39064982917762
 30
0.0
 42
1.0
  0
SEQEND
  5
6DEE
  8
LOGO
 62
     5
  0
LINE
  5
6DEF
  8
LOGO
 10
905.26514294931826
 20
-449.62674200423538
 30
0.0
 11
905.26514294931826
 21
-446.9434313941652
 31
0.0
  0
SOLID
  5
6DF0
  8
LOGO
 62
     5
 10
899.74941910294785
 20
-445.15455765411838
 30
0.0
 11
900.64385597296985
 21
-445.15455765411838
 31
0.0
 12
899.74941910294785
 22
-449.62674200423538
 32
0.0
 13
900.64385597296985
 23
-449.62674200423538
 33
0.0
  0
SOLID
  5
6DF1
  8
LOGO
 62
     5
 10
901.68739546922427
 20
-449.62674200423538
 30
0.0
 11
902.58183233924876
 21
-449.62674200423538
 31
0.0
 12
901.68739546922427
 22
-445.15455765411838
 32
0.0
 13
902.58183233924876
 23
-445.15455765411838
 33
0.0
  0
SOLID
  5
6DF2
  8
LOGO
 62
     5
 10
904.37070607929638
 20
-446.9434313941652
 30
0.0
 11
905.26514294931826
 21
-446.9434313941652
 31
0.0
 12
904.37070607929638
 22
-449.62674200423538
 32
0.0
 13
905.26514294931826
 23
-449.62674200423538
 33
0.0
  0
SOLID
  5
6DF3
  8
LOGO
 62
     5
 10
901.5979517822218
 20
-418.05312049240592
 30
0.0
 11
899.00408485915489
 21
-427.56396587698958
 31
0.0
 12
901.5979517822218
 22
-440.68237330400137
 32
0.0
 13
899.00408485915489
 23
-440.68237330400137
 33
0.0
  0
SOLID
  5
6DF4
  8
LOGO
 62
     5
 10
902.67127602625135
 20
-440.68237330400137
 30
0.0
 11
905.26514294931826
 21
-440.68237330400137
 31
0.0
 12
902.67127602625135
 22
-416.0853593783545
 32
0.0
 13
905.26514294931826
 23
-416.08535937835308
 33
0.0
  0
SOLID
  5
6DF5
  8
LOGO
 62
     2
 10
901.5979517822218
 20
-416.08535937835308
 30
0.0
 11
902.67127602625135
 21
-416.0853593783545
 31
0.0
 12
901.5979517822218
 22
-440.68237330400137
 32
0.0
 13
902.67127602625135
 23
-440.68237330400137
 33
0.0
  0
POLYLINE
  5
6DF6
  8
LOGO
 62
     5
 66
     1
 10
0.0
 20
0.0
 30
0.0
 40
0.8958702624434387
 41
0.8958702624434387
  0
VERTEX
  5
6DF7
  8
LOGO
 62
     5
 10
891.99975317014309
 20
-446.9434313941652
 30
0.0
 42
1.0
  0
VERTEX
  5
6DF8
  8
LOGO
 62
     5
 10
889.31214238281211
 20
-446.9434313941652
 30
0.0
 42
1.0
  0
SEQEND
  5
6DF9
  8
LOGO
 62
     5
  0
POLYLINE
  5
6DFA
  8
LOGO
 62
     5
 66
     1
 10
0.0
 20
0.0
 30
0.0
 40
0.8958702624434387
 41
0.8958702624434387
  0
VERTEX
  5
6DFB
  8
LOGO
 62
     5
 10
894.68306378021111
 20
-446.9434313941652
 30
0.0
 42
1.0
  0
VERTEX
  5
6DFC
  8
LOGO
 62
     5
 10
891.99545299288161
 20
-446.9434313941652
 30
0.0
 42
1.0
  0
SEQEND
  5
6DFD
  8
LOGO
 62
     5
  0
POLYLINE
  5
6DFE
  8
LOGO
 62
     5
 66
     1
 10
0.0
 20
0.0
 30
0.0
 40
0.8958702624434387
 41
0.8958702624434387
  0
VERTEX
  5
6DFF
  8
LOGO
 62
     5
 10
881.86274234741609
 20
-446.9434313941652
 30
0.0
 42
1.0
  0
VERTEX
  5
6E00
  8
LOGO
 62
     5
 10
879.17513156008647
 20
-446.9434313941652
 30
0.0
 42
1.0
  0
SEQEND
  5
6E01
  8
LOGO
 62
     5
  0
SOLID
  5
6E02
  8
LOGO
 62
     5
 10
878.73006321370497
 20
-445.15455765411838
 30
0.0
 11
879.62450008372684
 21
-445.15455765411838
 31
0.0
 12
878.73006321370497
 22
-449.62674200423538
 32
0.0
 13
879.62450008372684
 23
-449.62674200423538
 33
0.0
  0
SOLID
  5
6E03
  8
LOGO
 62
     5
 10
881.41337382377583
 20
-446.9434313941652
 30
0.0
 11
882.30781069380032
 21
-446.9434313941652
 31
0.0
 12
881.41337382377583
 22
-449.62674200423538
 32
0.0
 13
882.30781069380032
 23
-449.62674200423538
 33
0.0
  0
POLYLINE
  5
6E04
  8
LOGO
 62
     5
 66
     1
 10
0.0
 20
0.0
 30
0.0
 70
     1
 40
0.8958702624434387
 41
0.8958702624434387
  0
VERTEX
  5
6E05
  8
LOGO
 62
     5
 10
883.7957912839131
 20
-447.39064982917762
 30
0.0
 42
1.0
  0
VERTEX
  5
6E06
  8
LOGO
 62
     5
 10
887.37927233368805
 20
-447.39064982917762
 30
0.0
 42
1.0
  0
SEQEND
  5
6E07
  8
LOGO
 62
     5
  0
SOLID
  5
6E08
  8
LOGO
 62
     5
 10
886.92909767015033
 20
-443.81290234908232
 30
0.0
 11
887.82353454017334
 21
-443.81290234908232
 31
0.0
 12
886.92909767015033
 22
-449.62674200423538
 32
0.0
 13
887.82353454017334
 23
-449.62674200423538
 33
0.0
  0
SOLID
  5
6E09
  8
LOGO
 62
     5
 10
888.86707403643197
 20
-445.15455765411838
 30
0.0
 11
889.76151090645385
 21
-445.15455765411838
 31
0.0
 12
888.86707403643197
 22
-449.62674200423538
 32
0.0
 13
889.76151090645385
 23
-449.62674200423538
 33
0.0
  0
SOLID
  5
6E0A
  8
LOGO
 62
     5
 10
891.55038464649999
 20
-446.9434313941652
 30
0.0
 11
892.44482151652448
 21
-446.9434313941652
 31
0.0
 12
891.55038464649999
 22
-449.62674200423538
 32
0.0
 13
892.44482151652448
 23
-449.62674200423538
 33
0.0
  0
SOLID
  5
6E0B
  8
LOGO
 62
     5
 10
894.23369525657085
 20
-446.9434313941652
 30
0.0
 11
895.12813212659387
 21
-446.9434313941652
 31
0.0
 12
894.23369525657085
 22
-449.6267420042368
 32
0.0
 13
895.12813212659387
 23
-449.6267420042368
 33
0.0
  0
SOLID
  5
6E0C
  8
LOGO
 62
     5
 10
876.79208684742446
 20
-444.5284518451017
 30
0.0
 11
877.68652371745043
 21
-444.5284518451017
 31
0.0
 12
876.79208684742446
 22
-443.81290234908232
 32
0.0
 13
877.68652371745043
 23
-443.81290234908232
 33
0.0
  0
SOLID
  5
6E0D
  8
LOGO
 62
     5
 10
876.79208684742446
 20
-445.15455765411838
 30
0.0
 11
877.68652371745043
 21
-445.15455765411838
 31
0.0
 12
876.79208684742446
 22
-449.6267420042368
 32
0.0
 13
877.68652371745043
 23
-449.62674200423538
 33
0.0
  0
SOLID
  5
6E0E
  8
LOGO
 62
     5
 10
885.58753180879989
 20
-440.68237330400058
 30
0.0
 11
888.18139873186931
 21
-440.68237330400058
 31
0.0
 12
885.58753180879989
 22
-427.56396587698958
 32
0.0
 13
888.18139873186931
 23
-418.05312049240592
 33
0.0
  0
SOLID
  5
6E0F
  8
LOGO
 62
     5
 10
889.25472297589897
 20
-416.0853593783545
 30
0.0
 11
891.84858989896577
 21
-416.08535937835308
 31
0.0
 12
889.25472297589897
 22
-438.71461218994909
 32
0.0
 13
891.84858989896577
 23
-429.2037668053656
 33
0.0
  0
SOLID
  5
6E10
  8
LOGO
 62
     2
 10
888.18139873186931
 20
-416.0853593783545
 30
0.0
 11
889.25472297589897
 21
-416.0853593783545
 31
0.0
 12
888.18139873186931
 22
-440.68237330400058
 32
0.0
 13
889.25472297589897
 23
-440.68237330400058
 33
0.0
  0
SOLID
  5
6E11
  8
LOGO
 62
     5
 10
889.25472297589897
 20
-438.71461218994909
 30
0.0
 11
891.84858989896577
 21
-429.2037668053656
 31
0.0
 12
901.5979517822218
 22
-416.08535937835308
 32
0.0
 13
899.00408485915489
 23
-416.08535937835308
 33
0.0
  0
SOLID
  5
6E12
  8
LOGO
 62
     5
 10
889.25472297589897
 20
-440.68237330400058
 30
0.0
 11
891.84858989896577
 21
-440.68237330400058
 31
0.0
 12
901.5979517822218
 22
-418.05312049240592
 32
0.0
 13
899.00408485915489
 23
-427.56396587698958
 33
0.0
  0
SOLID
  5
6E13
  8
LOGO
 62
     2
 10
888.18139873186931
 20
-440.68237330400058
 30
0.0
 11
889.25472297589897
 21
-440.68237330400058
 31
0.0
 12
901.5979517822218
 22
-416.08535937835308
 32
0.0
 13
902.67127602625135
 23
-416.0853593783545
 33
0.0
  0
POLYLINE
  5
6E14
  8
LOGO
 62
     4
 66
     1
 10
0.0
 20
0.0
 30
0.0
 70
     1
1001
GENIUS_GENREC_14
1002
{
1000
PYDIR
1011
865.94678383718076
1021
0.0
1031
0.0
1021
-474.6515999379003
1031
0.0
1002
}
1002
{
1000
PXDIR
1011
1690.94678383718
1021
0.0
1031
0.0
1021
-414.66028772070467
1031
0.0
1002
}
1002
{
1000
PORI
1011
865.94678383718076
1021
0.0
1031
0.0
1021
-414.66028772070467
1031
0.0
1002
}
1002
{
1000
PINS
1011
865.94678383718076
1021
0.0
1031
0.0
1021
-414.66028772070467
1031
0.0
1002
}
1002
{
1000
PINS2
1011
1690.94678383718
1021
0.0
1031
0.0
1021
-474.6515999379003
1031
0.0
1002
}
1002
{
1000
C
1070
     1
1002
}
1001
GENIUS_GENOBJ-N-REC_13
1002
{
1000
OWNER
1000
GEN
1002
}
1001
GENIUS_GENODEF_13
1002
{
1000
HIER
1070
     0
1002
}
1002
{
1000
MANEDIT
1070
     0
1002
}
1002
{
1000
NOSEL
1070
     0
1002
}
1002
{
1000
BEHIND
1070
     0
1002
}
1002
{
1000
OTHER
1070
     0
1002
}
1002
{
1000
REACTOR
1002
}
  0
VERTEX
  5
7851
  8
LOGO
 62
     4
 10
865.94678383718076
 20
-414.66028772070467
 30
0.0
  0
VERTEX
  5
7852
  8
LOGO
 62
     4
 10
1690.94678383718
 20
-414.66028772070467
 30
0.0
  0
VERTEX
  5
7853
  8
LOGO
 62
     4
 10
1690.94678383718
 20
-474.6515999379003
 30
0.0
  0
VERTEX
  5
7854
  8
LOGO
 62
     4
 10
865.94678383718076
 20
-474.6515999379003
 30
0.0
  0
SEQEND
  5
7855
  8
LOGO
 62
     4
  0
LINE
  5
6E15
  8
LOGO
 62
     4
 10
1120.437266264956
 20
-447.65550944016098
 30
0.0
 11
1120.437266264956
 21
-469.65232391979998
 31
0.0
  0
LINE
  5
6E16
  8
LOGO
 62
     4
 10
1080.4430581201591
 20
-447.65550944016098
 30
0.0
 11
1080.4430581201591
 21
-469.65232391979998
 31
0.0
  0
LINE
  5
6E17
  8
LOGO
 62
     4
 10
1120.437266264956
 20
-469.65232391979998
 30
0.0
 11
1080.4430581201591
 21
-469.65232391979998
 31
0.0
  0
LINE
  5
6E18
  8
LOGO
 62
     4
 10
1127.6106525343739
 20
-420.65941894242451
 30
0.0
 11
1080.4430581201591
 21
-420.65941894242451
 31
0.0
  0
LINE
  5
6E19
  8
LOGO
 62
     4
 10
1127.6106525343739
 20
-438.65681260758259
 30
0.0
 11
1080.4430581201591
 21
-438.65681260758259
 31
0.0
  0
LINE
  5
6E1A
  8
LOGO
 62
     4
 10
1080.4430581201591
 20
-420.65941894242451
 30
0.0
 11
1080.4430581201591
 21
-438.65681260758259
 31
0.0
  0
LINE
  5
6E1B
  8
LOGO
 62
     4
 10
1127.6106525343739
 20
-420.65941894242451
 30
0.0
 11
1127.6106525343739
 21
-438.65681260758259
 31
0.0
  0
LINE
  5
6E1C
  8
LOGO
 62
     4
 10
1102.526855327267
 20
-438.65681260758259
 30
0.0
 11
1102.526855327267
 21
-447.65550944016098
 31
0.0
  0
TEXT
  5
6E1D
  8
LOGO
  6
CONTINUOUS
 10
1083.640913109999
 20
-434.8998829921677
 30
0.0
 40
10.5
  1
MTAS
  7
CHINESET
  0
LINE
  5
6E1E
  8
LOGO
 62
     4
 10
1120.437266264956
 20
-447.65550944016098
 30
0.0
 11
1080.4430581201591
 21
-447.65550944016098
 31
0.0
  0
TEXT
  5
6E1F
  8
LOGO
  6
CONTINUOUS
 10
1093.277072894088
 20
-466.54752020132781
 30
393.17317728014939
 40
4.5
  1
Model
 41
0.8
  7
CHINESET
  0
TEXT
  5
6E20
  8
LOGO
 10
1092.079319180091
 20
-458.20549002054582
 30
393.17317728014939
 40
7.5
  1
型號
  7
CHINESET
  0
LINE
  5
6E21
  8
LOGO
  6
CONTINUOUS
 10
1129.5239242273919
 20
-429.72186538762571
 30
0.0
 11
1137.4709165742099
 21
-429.72186538762571
 31
0.0
  0
LINE
  5
6E22
  8
LOGO
 62
     4
 10
1124.8628221132631
 20
-447.65550944016098
 30
0.0
 11
1124.8628221132631
 21
-469.65232391979998
 31
0.0
  0
LINE
  5
6E23
  8
LOGO
 62
     4
 10
1160.096789885815
 20
-469.65232391979998
 30
0.0
 11
1124.8628221132631
 21
-469.65232391979998
 31
0.0
  0
LINE
  5
6E24
  8
LOGO
 62
     4
 10
1161.806941312286
 20
-420.65941894242451
 30
0.0
 11
1139.586844971021
 21
-420.65941894242451
 31
0.0
  0
LINE
  5
6E25
  8
LOGO
 62
     4
 10
1161.806941312286
 20
-438.65681260758259
 30
0.0
 11
1139.586844971021
 21
-438.65681260758259
 31
0.0
  0
LINE
  5
6E26
  8
LOGO
 62
     4
 10
1139.586844971021
 20
-420.65941894242451
 30
0.0
 11
1139.586844971021
 21
-438.65681260758259
 31
0.0
  0
LINE
  5
6E27
  8
LOGO
 62
     4
 10
1161.806941312286
 20
-420.65941894242451
 30
0.0
 11
1161.806941312286
 21
-438.65681260758259
 31
0.0
  0
LINE
  5
6E28
  8
LOGO
 62
     4
 10
1153.4145756553139
 20
-438.65681260758259
 30
0.0
 11
1153.4145756553139
 21
-447.65550944016098
 31
0.0
  0
TEXT
  5
6E29
  8
LOGO
  6
CONTINUOUS
 10
1141.9822499428551
 20
-434.8998829921677
 30
0.0
 40
10.5
  1
32
  7
CHINESET
  0
LINE
  5
6E2A
  8
LOGO
 62
     4
 10
1160.096789885815
 20
-447.65550944016098
 30
0.0
 11
1124.8628221132631
 21
-447.65550944016098
 31
0.0
  0
LINE
  5
6E2B
  8
LOGO
  6
CONTINUOUS
 10
1198.3519836886021
 20
-429.72186538762571
 30
0.0
 11
1206.298976035421
 21
-429.72186538762571
 31
0.0
  0
LINE
  5
6E2C
  8
LOGO
 62
     4
 10
1160.096789885815
 20
-447.65550944016098
 30
0.0
 11
1160.096789885815
 21
-469.65232391979998
 31
0.0
  0
TEXT
  5
6E2D
  8
LOGO
  6
CONTINUOUS
 10
1133.2399741128399
 20
-466.54752020132781
 30
393.17317728014939
 40
4.5
  1
Tube I.D.
 41
0.8
  7
CHINESET
  0
TEXT
  5
6E2E
  8
LOGO
 10
1136.2002095304499
 20
-458.20549002054582
 30
393.17317728014939
 40
7.5
  1
內徑
  7
CHINESET
  0
LINE
  5
6E2F
  8
LOGO
 62
     4
 10
1194.5566924200409
 20
-420.65941894242451
 30
0.0
 11
1166.1037557744451
 21
-420.65941894242451
 31
0.0
  0
LINE
  5
6E30
  8
LOGO
 62
     4
 10
1194.5566924200409
 20
-438.65681260758259
 30
0.0
 11
1166.1037557744451
 21
-438.65681260758259
 31
0.0
  0
LINE
  5
6E31
  8
LOGO
 62
     4
 10
1166.1037557744451
 20
-420.65941894242451
 30
0.0
 11
1166.1037557744451
 21
-438.65681260758259
 31
0.0
  0
LINE
  5
6E32
  8
LOGO
 62
     4
 10
1194.5566924200409
 20
-420.65941894242451
 30
0.0
 11
1194.5566924200409
 21
-438.65681260758259
 31
0.0
  0
TEXT
  5
6E33
  8
LOGO
  6
CONTINUOUS
 10
1170.286396830651
 20
-434.8998829921677
 30
0.0
 40
10.5
  1
(M)
  7
CHINESET
  0
LINE
  5
6E34
  8
LOGO
 62
     4
 10
1198.8381694822831
 20
-447.65550944016098
 30
0.0
 11
1198.8381694822831
 21
-469.65232391979998
 31
0.0
  0
LINE
  5
6E35
  8
LOGO
 62
     4
 10
1166.2565110270191
 20
-447.65550944016098
 30
0.0
 11
1166.2565110270191
 21
-469.65232391979998
 31
0.0
  0
LINE
  5
6E36
  8
LOGO
 62
     4
 10
1198.8381694822831
 20
-469.65232391979998
 30
0.0
 11
1166.2565110270191
 21
-469.65232391979998
 31
0.0
  0
LINE
  5
6E37
  8
LOGO
 62
     4
 10
1198.8381694822831
 20
-447.65550944016098
 30
0.0
 11
1166.2565110270191
 21
-447.65550944016098
 31
0.0
  0
TEXT
  5
6E38
  8
LOGO
  6
CONTINUOUS
 10
1173.338925060476
 20
-466.54752020132781
 30
393.17317728014939
 40
4.5
  1
Magnet
 41
0.8
  7
CHINESET
  0
TEXT
  5
6E39
  8
LOGO
 10
1170.9391440213819
 20
-458.20549002054582
 30
393.17317728014939
 40
7.5
  1
附磁石
  7
CHINESET
  0
LINE
  5
6E3A
  8
LOGO
 62
     4
 10
1180.3302240972439
 20
-438.65681260758259
 30
0.0
 11
1180.3302240972439
 21
-447.65550944016098
 31
0.0
  0
TEXT
  5
6E3B
  8
LOGO
 10
1000.307277488722
 20
-471.4600858061354
 30
0.0
 40
6.0
  1
10904230
 41
0.7
  7
CHINESET
 72
     1
 11
1015.307277488722
 21
-471.4600858061354
 31
0.0
  0
LINE
  5
6E3C
  8
LOGO
 62
     4
 10
1033.9276707150059
 20
-462.65333749445921
 30
0.0
 11
1033.9276707150091
 21
-474.65159993789888
 31
0.0
  0
LINE
  5
6E3D
  8
LOGO
 62
     4
 10
1033.9276707150059
 20
-462.65333749445921
 30
0.0
 11
997.92767071500896
 21
-462.65333749445921
 31
0.0
  0
CIRCLE
  5
6E3E
  8
LOGO
  6
CONTINUOUS
 10
969.04160438669726
 20
-432.64484920027911
 30
0.0
 40
3.4832367909618931
  0
CIRCLE
  5
6E3F
  8
LOGO
  6
CONTINUOUS
 10
969.04160438669726
 20
-432.64484920027911
 30
0.0
 40
2.040868405996791
  0
LINE
  5
6E40
  8
LOGO
 10
990.93066855880681
 20
-436.12808599124168
 30
0.0
 11
990.93066855880681
 21
-429.1616124093166
 31
0.0
  0
LINE
  5
6E41
  8
LOGO
 10
980.01092116647408
 20
-434.68571760627538
 30
0.0
 11
980.01092116647408
 21
-430.60398079428199
 31
0.0
  0
LINE
  5
6E42
  8
LOGO
  6
CONTINUOUS
 10
980.01092116647408
 20
-430.60398079428199
 30
0.0
 11
990.93066855880681
 21
-429.1616124093166
 31
0.0
  0
LINE
  5
6E43
  8
LOGO
  6
CONTINUOUS
 10
980.01092116647408
 20
-434.68571760627538
 30
0.0
 11
990.93066855880681
 21
-436.12808599124168
 31
0.0
  0
LINE
  5
6E44
  8
LOGO
  6
AM_ISO08W050X2
 10
964.23991031299261
 20
-432.64484920027911
 30
0.0
 11
973.84329846040202
 21
-432.64484920027911
 31
0.0
1001
GENIUS_GENOREF_13
1005
7247
  0
LINE
  5
6E45
  8
LOGO
  6
AM_ISO08W050X2
 10
969.04160438669726
 20
-437.44654327398388
 30
0.0
 11
969.04160438669726
 21
-427.8431551265744
 31
0.0
1001
GENIUS_GENOREF_13
1005
7246
  0
LINE
  5
6E46
  8
LOGO
  6
CENTER
 10
979.13764488804634
 20
-432.64484920027911
 30
0.0
 11
992.03025177216989
 21
-432.64484920027911
 31
0.0
1001
GENIUS_GENOREF_13
1005
7245
  0
LINE
  5
6E47
  8
LOGO
 62
     4
 10
1259.019843506486
 20
-447.65550944016098
 30
0.0
 11
1259.019843506486
 21
-469.65232391979998
 31
0.0
  0
LINE
  5
6E48
  8
LOGO
 62
     4
 10
1203.4435122053469
 20
-447.65550944016098
 30
0.0
 11
1203.4435122053469
 21
-469.65232391979998
 31
0.0
  0
LINE
  5
6E49
  8
LOGO
 62
     4
 10
1259.019843506486
 20
-469.65232391979998
 30
0.0
 11
1203.4435122053469
 21
-469.65232391979998
 31
0.0
  0
LINE
  5
6E4A
  8
LOGO
 62
     4
 10
1237.121910498551
 20
-420.65941894242451
 30
0.0
 11
1209.865913522556
 21
-420.65941894242451
 31
0.0
  0
LINE
  5
6E4B
  8
LOGO
 62
     4
 10
1237.121910498551
 20
-438.65681260758259
 30
0.0
 11
1209.865913522556
 21
-438.65681260758259
 31
0.0
  0
LINE
  5
6E4C
  8
LOGO
 62
     4
 10
1209.865913522556
 20
-420.65941894242451
 30
0.0
 11
1209.865913522556
 21
-438.65681260758259
 31
0.0
  0
LINE
  5
6E4D
  8
LOGO
 62
     4
 10
1237.121910498551
 20
-420.65941894242451
 30
0.0
 11
1237.121910498551
 21
-438.65681260758259
 31
0.0
  0
LINE
  5
6E4E
  8
LOGO
 62
     4
 10
1223.493912010553
 20
-438.65681260758259
 30
0.0
 11
1223.493912010553
 21
-447.65550944016098
 31
0.0
  0
TEXT
  5
6E4F
  8
LOGO
  6
CONTINUOUS
 10
1220.505095034885
 20
-437.00185212288278
 30
0.0
 40
10.5
  1
*
  7
CHINESET
  0
LINE
  5
6E50
  8
LOGO
 62
     4
 10
1259.019843506486
 20
-447.65550944016098
 30
0.0
 11
1203.4435122053469
 21
-447.65550944016098
 31
0.0
  0
TEXT
  5
6E51
  8
LOGO
  6
CONTINUOUS
 10
1206.659361975738
 20
-466.54752020132781
 30
393.17317728014939
 40
4.5
  1
Rotating direction
 41
0.8
  7
CHINESET
  0
TEXT
  5
6E52
  8
LOGO
 10
1215.670704514494
 20
-458.20549002054582
 30
393.17317728014939
 40
7.5
  1
旋轉方向
  7
CHINESET
  0
LINE
  5
6E53
  8
LOGO
 62
     4
 10
1309.73760635397
 20
-447.65550944016098
 30
0.0
 11
1309.73760635397
 21
-469.65232391979998
 31
0.0
  0
LINE
  5
6E54
  8
LOGO
 62
     4
 10
1263.7429112815571
 20
-447.65550944016098
 30
0.0
 11
1263.7429112815571
 21
-469.65232391979998
 31
0.0
  0
LINE
  5
6E55
  8
LOGO
 62
     4
 10
1309.73760635397
 20
-469.65232391979998
 30
0.0
 11
1263.7429112815571
 21
-469.65232391979998
 31
0.0
  0
LINE
  5
6E56
  8
LOGO
 62
     4
 10
1277.944635253237
 20
-420.65941894242451
 30
0.0
 11
1253.3677354071269
 21
-420.65941894242451
 31
0.0
  0
LINE
  5
6E57
  8
LOGO
 62
     4
 10
1277.944635253237
 20
-438.65681260758259
 30
0.0
 11
1253.3677354071269
 21
-438.65681260758259
 31
0.0
  0
LINE
  5
6E58
  8
LOGO
 62
     4
 10
1253.3677354071269
 20
-420.65941894242451
 30
0.0
 11
1253.3677354071269
 21
-438.65681260758259
 31
0.0
  0
LINE
  5
6E59
  8
LOGO
 62
     4
 10
1277.944635253237
 20
-420.65941894242451
 30
0.0
 11
1277.944635253237
 21
-438.65681260758259
 31
0.0
  0
LINE
  5
6E5A
  8
LOGO
 62
     4
 10
1270.4435533235919
 20
-438.65681260758259
 30
0.0
 11
1270.4435533235919
 21
-447.65550944016098
 31
0.0
  0
TEXT
  5
6E5B
  8
LOGO
  6
CONTINUOUS
 10
1257.959895560092
 20
-434.8998829921677
 30
0.0
 40
10.5
  1
90
  7
CHINESET
  0
LINE
  5
6E5C
  8
LOGO
 62
     4
 10
1309.73760635397
 20
-447.65550944016098
 30
0.0
 11
1263.7429112815571
 21
-447.65550944016098
 31
0.0
  0
TEXT
  5
6E5D
  8
LOGO
  6
CONTINUOUS
 10
1266.9587610519479
 20
-466.54752020132781
 30
393.17317728014939
 40
4.5
  1
Rotating angle
 41
0.8
  7
CHINESET
  0
TEXT
  5
6E5E
  8
LOGO
 10
1271.019592715855
 20
-458.20549002054582
 30
393.17317728014939
 40
7.5
  1
旋轉角度
  7
CHINESET
  0
LINE
  5
6E5F
  8
LOGO
  6
CONTINUOUS
 10
1240.9172017671119
 20
-429.72186538762571
 30
0.0
 11
1248.864194113931
 21
-429.72186538762571
 31
0.0
  0
LINE
  5
6E60
  8
LOGO
 62
     4
 10
1354.92744095948
 20
-447.65550944016098
 30
0.0
 11
1354.92744095948
 21
-469.65232391979998
 31
0.0
  0
LINE
  5
6E61
  8
LOGO
 62
     4
 10
1315.974643214229
 20
-447.65550944016098
 30
0.0
 11
1315.974643214229
 21
-469.65232391979998
 31
0.0
  0
LINE
  5
6E62
  8
LOGO
 62
     4
 10
1354.92744095948
 20
-469.65232391979998
 30
0.0
 11
1315.974643214229
 21
-469.65232391979998
 31
0.0
  0
LINE
  5
6E63
  8
LOGO
 62
     4
 10
1317.9761607770779
 20
-420.65941894242451
 30
0.0
 11
1293.3992609309689
 21
-420.65941894242451
 31
0.0
  0
LINE
  5
6E64
  8
LOGO
 62
     4
 10
1317.9761607770779
 20
-438.65681260758259
 30
0.0
 11
1293.3992609309689
 21
-438.65681260758259
 31
0.0
  0
LINE
  5
6E65
  8
LOGO
 62
     4
 10
1293.3992609309689
 20
-420.65941894242451
 30
0.0
 11
1293.3992609309689
 21
-438.65681260758259
 31
0.0
  0
LINE
  5
6E66
  8
LOGO
 62
     4
 10
1317.9761607770779
 20
-420.65941894242451
 30
0.0
 11
1317.9761607770779
 21
-438.65681260758259
 31
0.0
  0
LINE
  5
6E67
  8
LOGO
 62
     4
 10
1328.36980814197
 20
-443.15616102387179
 30
0.0
 11
1328.36980814197
 21
-447.65550944016098
 31
0.0
  0
LINE
  5
6E68
  8
LOGO
 62
     4
 10
1354.92744095948
 20
-447.65550944016098
 30
0.0
 11
1315.974643214229
 21
-447.65550944016098
 31
0.0
  0
TEXT
  5
6E69
  8
LOGO
  6
CONTINUOUS
 10
1323.386381345121
 20
-466.54752020132781
 30
393.17317728014939
 40
4.5
  1
Mounting
 41
0.8
  7
CHINESET
  0
TEXT
  5
6E6A
  8
LOGO
 10
1319.883456898646
 20
-458.20549002054582
 30
393.17317728014939
 40
7.5
  1
固定型式
  7
CHINESET
  0
LINE
  5
6E6B
  8
LOGO
 62
     4
 10
1420.385693938548
 20
-447.65550944016098
 30
0.0
 11
1420.385693938548
 21
-469.65232391979998
 31
0.0
  0
LINE
  5
6E6C
  8
LOGO
 62
     4
 10
1359.807713309254
 20
-447.65550944016098
 30
0.0
 11
1359.807713309254
 21
-469.65232391979998
 31
0.0
  0
LINE
  5
6E6D
  8
LOGO
 62
     4
 10
1420.385693938548
 20
-469.65232391979998
 30
0.0
 11
1359.807713309254
 21
-469.65232391979998
 31
0.0
  0
LINE
  5
6E6E
  8
LOGO
 62
     4
 10
1357.526757544076
 20
-420.65941894242451
 30
0.0
 11
1332.9498576979661
 21
-420.65941894242451
 31
0.0
  0
LINE
  5
6E6F
  8
LOGO
 62
     4
 10
1357.526757544076
 20
-438.65681260758259
 30
0.0
 11
1332.9498576979661
 21
-438.65681260758259
 31
0.0
  0
LINE
  5
6E70
  8
LOGO
 62
     4
 10
1332.9498576979661
 20
-420.65941894242451
 30
0.0
 11
1332.9498576979661
 21
-438.65681260758259
 31
0.0
  0
LINE
  5
6E71
  8
LOGO
 62
     4
 10
1357.526757544076
 20
-420.65941894242451
 30
0.0
 11
1357.526757544076
 21
-438.65681260758259
 31
0.0
  0
LINE
  5
6E72
  8
LOGO
 62
     4
 10
1420.385693938548
 20
-447.65550944016098
 30
0.0
 11
1359.807713309254
 21
-447.65550944016098
 31
0.0
  0
TEXT
  5
6E73
  8
LOGO
  6
CONTINUOUS
 10
1363.0235630796451
 20
-466.54752020132781
 30
393.17317728014939
 40
4.5
  1
Clamping arm front
 41
0.8
  7
CHINESET
  0
TEXT
  5
6E74
  8
LOGO
 10
1375.907892597005
 20
-458.20549002054582
 30
393.17317728014939
 40
7.5
  1
壓板型式
  7
CHINESET
  0
LINE
  5
6E75
  8
LOGO
  6
CONTINUOUS
 10
1281.7399265217971
 20
-429.72186538762571
 30
0.0
 11
1289.686918868618
 21
-429.72186538762571
 31
0.0
  0
LINE
  5
6E76
  8
LOGO
 62
     4
 10
1305.687710854023
 20
-438.65681260758259
 30
0.0
 11
1305.687710854023
 21
-443.15616102387179
 31
0.0
  0
LINE
  5
6E77
  8
LOGO
 62
     4
 10
1305.687710854023
 20
-443.15616102387179
 30
0.0
 11
1328.36980814197
 21
-443.15616102387179
 31
0.0
  0
LINE
  5
6E78
  8
LOGO
  6
CONTINUOUS
 10
1321.7714520456391
 20
-429.72186538762571
 30
0.0
 11
1329.7184443924591
 21
-429.72186538762571
 31
0.0
  0
LINE
  5
6E79
  8
LOGO
 62
     4
 10
1390.096703623901
 20
-443.15616102387179
 30
0.0
 11
1390.096703623901
 21
-447.65550944016098
 31
0.0
  0
LINE
  5
6E7A
  8
LOGO
 62
     4
 10
1345.238307621021
 20
-438.65681260758259
 30
0.0
 11
1345.238307621021
 21
-443.15616102387179
 31
0.0
  0
LINE
  5
6E7B
  8
LOGO
 62
     4
 10
1345.238307621021
 20
-443.15616102387179
 30
0.0
 11
1390.096703623901
 21
-443.15616102387179
 31
0.0
  0
LINE
  5
6E7C
  8
LOGO
 62
     4
 10
1278.4467838371811
 20
566.71400103156202
 30
0.0
 11
1278.4467838371811
 21
239.58923811413979
 31
0.0
  0
LINE
  5
6E7D
  8
LOGO
 62
     4
 10
865.94678383718076
 20
239.58923811413979
 30
0.0
 11
1690.94678383718
 21
239.58923811413979
 31
0.0
  0
TEXT
  5
6E7E
  8
0
 10
1340.294975443107
 20
-121.4980960373813
 30
0.0
 40
9.6000000000000014
  1
Clamping arm front
  0
TEXT
  5
6E7F
  8
0
 10
1501.874025224216
 20
-145.90587087292741
 30
0.0
 40
9.6000000000000014
  1
Standard type
  0
TEXT
  5
6E80
  8
0
 10
1306.5620457379509
 20
-292.83177134644637
 30
0.0
 40
9.6000000000000014
  1
Extension type
  0
TEXT
  5
6E81
  8
UMCL2
 10
950.74119182188701
 20
172.0638845351927
 30
0.0
 40
4.0
  1
CW
  7
ROMANS
  0
TEXT
  5
6E82
  8
UMCL2
 10
945.85557665099043
 20
139.0009355507959
 30
0.0
 40
4.0
  1
CCW
  7
ROMANS
  0
POLYLINE
  5
6E83
  8
UMCL2
 66
     1
 10
0.0
 20
0.0
 30
0.0
 70
     7
  0
VERTEX
  5
6E84
  8
UMCL2
 10
959.37767273285465
 20
170.08936929496281
 30
0.0
 42
-0.0185322085214218
  0
VERTEX
  5
6E85
  8
UMCL2
 10
961.40684580273432
 20
174.4904685346439
 30
0.0
  0
VERTEX
  5
6E86
  8
UMCL2
 10
960.87165339813475
 20
174.76170476020911
 30
0.0
  0
VERTEX
  5
6E87
  8
UMCL2
 10
963.49413818146797
 20
176.79590239905809
 30
0.0
  0
VERTEX
  5
6E88
  8
UMCL2
 10
963.28001921883344
 20
173.5411417451657
 30
0.0
  0
VERTEX
  5
6E89
  8
UMCL2
 10
962.74482681423365
 20
173.81237797073121
 30
0.0
 42
0.018532208521422
  0
VERTEX
  5
6E8A
  8
UMCL2
 10
960.76219441109424
 20
169.5122213741613
 30
0.0
  0
SEQEND
  5
6E8B
  8
UMCL2
  0
POLYLINE
  5
6E8C
  8
UMCL2
 66
     1
 10
0.0
 20
0.0
 30
0.0
 70
     7
  0
VERTEX
  5
6E8D
  8
UMCL2
 10
959.37767273285442
 20
143.93507345336039
 30
0.0
 42
0.0185322085214218
  0
VERTEX
  5
6E8E
  8
UMCL2
 10
961.40684580273376
 20
139.5339742136793
 30
0.0
  0
VERTEX
  5
6E8F
  8
UMCL2
 10
960.8716533981343
 20
139.26273798811411
 30
0.0
  0
VERTEX
  5
6E90
  8
UMCL2
 10
963.49413818146775
 20
137.2285403492651
 30
0.0
  0
VERTEX
  5
6E91
  8
UMCL2
 10
963.28001921883299
 20
140.48330100315749
 30
0.0
  0
VERTEX
  5
6E92
  8
UMCL2
 10
962.74482681423319
 20
140.2120647775921
 30
0.0
 42
-0.018532208521422
  0
VERTEX
  5
6E93
  8
UMCL2
 10
960.76219441109401
 20
144.5122213741613
 30
0.0
  0
SEQEND
  5
6E94
  8
UMCL2
  0
LINE
  5
6E95
  8
CEN
 10
1047.0451033016161
 20
157.01222137416119
 30
0.0
 11
958.20240902917465
 21
157.0122213741617
 31
0.0
  0
LINE
  5
6E96
  8
CEN
 10
968.76219441109401
 20
150.61222137416141
 30
0.0
 11
968.76219441109401
 21
163.41222137416139
 31
0.0
  0
LINE
  5
6E97
  8
HIDDEN
 10
1012.262194411094
 20
98.596037362443454
 30
0.0
 11
1012.262194411094
 21
91.59603736244344
 31
0.0
  0
LINE
  5
6E98
  8
HIDDEN
 10
1025.262194411094
 20
98.596037362443326
 30
0.0
 11
1025.262194411094
 21
91.596037362443212
 31
0.0
  0
LINE
  5
6E99
  8
HIDDEN
 10
1010.762194411094
 20
79.59603736244344
 30
0.0
 11
1011.7121944110939
 21
89.09603736244344
 31
0.0
  0
LINE
  5
6E9A
  8
HIDDEN
 10
1011.762194411095
 20
91.59603736244344
 30
0.0
 11
1025.762194411094
 21
91.596037362443212
 31
0.0
  0
LINE
  5
6E9B
  8
HIDDEN
 10
1026.762194411094
 20
79.59603736244344
 30
0.0
 11
1025.812194411094
 21
89.096037362443212
 31
0.0
  0
LINE
  5
6E9C
  8
HIDDEN
 10
1011.662194411094
 20
88.596037362443326
 30
0.0
 11
1025.8621944110939
 21
88.596037362443326
 31
0.0
  0
LINE
  5
6E9D
  8
HIDDEN
 10
1011.7121944110939
 20
89.09603736244344
 30
0.0
 11
1025.812194411094
 21
89.096037362443212
 31
0.0
  0
LINE
  5
6E9E
  8
UMCL1
 10
1030.762194411094
 20
79.596037362443212
 30
0.0
 11
1030.762194411094
 21
98.596037362443326
 31
0.0
  0
LINE
  5
6E9F
  8
HIDDEN
 10
965.36219441109392
 20
98.596037362443553
 30
0.0
 11
965.36219441109392
 21
79.596037362443553
 31
0.0
  0
LINE
  5
6EA0
  8
HIDDEN
 10
964.7621944110939
 20
98.596037362443553
 30
0.0
 11
964.7621944110939
 21
79.596037362443553
 31
0.0
  0
LINE
  5
6EA1
  8
HIDDEN
 10
972.16219441109411
 20
98.596037362443553
 30
0.0
 11
972.16219441109388
 21
79.596037362443553
 31
0.0
  0
LINE
  5
6EA2
  8
HIDDEN
 10
972.7621944110939
 20
98.596037362443553
 30
0.0
 11
972.76219441109367
 21
79.596037362443553
 31
0.0
  0
LINE
  5
6EA3
  8
UMCL1
 10
960.76219441109401
 20
98.596037362443553
 30
0.0
 11
960.76219441109379
 21
79.596037362443553
 31
0.0
  0
LINE
  5
6EA4
  8
UMCL1
 10
960.76219441109401
 20
98.596037362443553
 30
0.0
 11
1030.762194411094
 21
98.596037362443326
 31
0.0
  0
LINE
  5
6EA5
  8
UMCL1
 10
960.76219441109379
 20
79.596037362443553
 30
0.0
 11
1030.762194411094
 21
79.596037362443212
 31
0.0
  0
LINE
  5
6EA6
  8
UMCL1
 10
1012.262194411094
 20
98.596037362443454
 30
0.0
 11
1012.262194411094
 21
100.5960373624434
 31
0.0
  0
LINE
  5
6EA7
  8
UMCL1
 10
1012.762194411094
 20
101.0960373624434
 30
0.0
 11
1024.762194411094
 21
101.0960373624434
 31
0.0
  0
LINE
  5
6EA8
  8
UMCL1
 10
1025.262194411094
 20
100.5960373624434
 30
0.0
 11
1025.262194411094
 21
98.596037362443226
 31
0.0
  0
LINE
  5
6EA9
  8
UMCL1
 10
1012.262194411094
 20
100.5960373624434
 30
0.0
 11
1025.262194411094
 21
100.5960373624434
 31
0.0
  0
LINE
  5
6EAA
  8
UMCL1
 10
1012.262194411094
 20
100.5960373624434
 30
0.0
 11
1012.762194411094
 21
101.0960373624434
 31
0.0
  0
LINE
  5
6EAB
  8
UMCL1
 10
1024.762194411094
 20
101.0960373624434
 30
0.0
 11
1025.262194411094
 21
100.5960373624434
 31
0.0
  0
LINE
  5
6EAC
  8
UMCL1
 10
1010.762194411094
 20
79.59603736244344
 30
0.0
 11
1010.762194411094
 21
49.596037362443212
 31
0.0
  0
LINE
  5
6EAD
  8
UMCL1
 10
1026.762194411094
 20
79.596037362443326
 30
0.0
 11
1026.762194411094
 21
49.596037362443212
 31
0.0
  0
POLYLINE
  5
6EAE
  8
UMCL1
 66
     1
 10
0.0
 20
0.0
 30
0.0
  0
VERTEX
  5
7856
  8
UMCL1
 10
993.76219441109401
 20
147.5122213741613
 30
0.0
  0
VERTEX
  5
7857
  8
UMCL1
 10
993.76219441109401
 20
135.0904855852236
 30
0.0
  0
SEQEND
  5
7858
  8
UMCL1
  0
LINE
  5
6EAF
  8
UMCL1
 10
1030.762194411094
 20
147.5122213741613
 30
0.0
 11
1030.762194411094
 21
166.5122213741613
 31
0.0
  0
LINE
  5
6EB0
  8
UMCL1
 10
960.76219441109424
 20
166.5122213741615
 30
0.0
 11
960.76219441109401
 21
147.5122213741615
 31
0.0
  0
LINE
  5
6EB1
  8
UMCL1
 10
960.76219441109424
 20
166.5122213741615
 30
0.0
 11
1030.762194411094
 21
166.5122213741613
 31
0.0
  0
LINE
  5
6EB2
  8
UMCL1
 10
960.76219441109401
 20
147.5122213741615
 30
0.0
 11
1030.762194411094
 21
147.5122213741613
 31
0.0
  0
CIRCLE
  5
6EB3
  8
UMCL1
 10
968.76219441109401
 20
157.0122213741613
 30
0.0
 40
3.3999999999999999
  0
CIRCLE
  5
6EB4
  8
UMCL1
 10
1018.762194411094
 20
157.0122213741613
 30
0.0
 40
6.5
  0
CIRCLE
  5
6EB5
  8
UMCL1
 10
1018.762194411094
 20
157.0122213741613
 30
0.0
 40
6.0
  0
POLYLINE
  5
6EB6
  8
UMCL1
 66
     1
 10
0.0
 20
0.0
 30
0.0
 70
     1
  0
VERTEX
  5
7859
  8
UMCL1
 10
1021.762194411094
 20
155.2801705665924
 30
0.0
  0
VERTEX
  5
785A
  8
UMCL1
 10
1021.762194411094
 20
158.74427218173011
 30
0.0
  0
VERTEX
  5
785B
  8
UMCL1
 10
1018.762194411094
 20
160.47632298929901
 30
0.0
  0
VERTEX
  5
785C
  8
UMCL1
 10
1015.762194411094
 20
158.74427218173011
 30
0.0
  0
VERTEX
  5
785D
  8
UMCL1
 10
1015.762194411094
 20
155.2801705665922
 30
0.0
  0
VERTEX
  5
785E
  8
UMCL1
 10
1018.762194411094
 20
153.54811975902339
 30
0.0
  0
SEQEND
  5
785F
  8
UMCL1
  0
CIRCLE
  5
6EB7
  8
UMCL1
 10
998.7621944110939
 20
177.0122213741615
 30
0.0
 40
2.7999999999999998
  0
CIRCLE
  5
6EB8
  8
UMCL1
 10
1038.762194411094
 20
177.0122213741615
 30
0.0
 40
2.7999999999999998
  0
CIRCLE
  5
6EB9
  8
UMCL1
 10
1038.762194411094
 20
137.0122213741615
 30
0.0
 40
2.7999999999999998
  0
CIRCLE
  5
6EBA
  8
UMCL1
 10
998.7621944110939
 20
137.0122213741615
 30
0.0
 40
2.7999999999999998
  0
POLYLINE
  5
6EBB
  8
UMCL1
 66
     1
 10
0.0
 20
0.0
 30
0.0
  0
VERTEX
  5
7860
  8
UMCL1
 10
1040.6839302000319
 20
182.0122213741615
 30
0.0
  0
VERTEX
  5
7861
  8
UMCL1
 10
996.84045862215612
 20
182.0122213741615
 30
0.0
  0
SEQEND
  5
7862
  8
UMCL1
  0
POLYLINE
  5
6EBC
  8
UMCL1
 66
     1
 10
0.0
 20
0.0
 30
0.0
  0
VERTEX
  5
7863
  8
UMCL1
 10
1043.762194411094
 20
135.0904855852236
 30
0.0
  0
VERTEX
  5
7864
  8
UMCL1
 10
1043.762194411094
 20
178.93395716309939
 30
0.0
  0
SEQEND
  5
7865
  8
UMCL1
  0
ARC
  5
6EBD
  8
UMCL1
 10
1018.762194411094
 20
157.0122213741615
 30
0.0
 40
33.25
 50
311.24653336867311
 51
318.75346663132689
  0
POLYLINE
  5
6EBE
  8
UMCL1
 66
     1
 10
0.0
 20
0.0
 30
0.0
  0
VERTEX
  5
7866
  8
UMCL1
 10
996.84045862215612
 20
132.0122213741615
 30
0.0
  0
VERTEX
  5
7867
  8
UMCL1
 10
1040.6839302000319
 20
132.0122213741615
 30
0.0
  0
SEQEND
  5
7868
  8
UMCL1
  0
ARC
  5
6EBF
  8
UMCL1
 10
1018.762194411094
 20
157.0122213741615
 30
0.0
 40
33.25
 50
221.24653336867311
 51
228.75346663132689
  0
POLYLINE
  5
6EC0
  8
UMCL1
 66
     1
 10
0.0
 20
0.0
 30
0.0
  0
VERTEX
  5
7869
  8
UMCL1
 10
993.76219441109401
 20
178.93395716309939
 30
0.0
  0
VERTEX
  5
786A
  8
UMCL1
 10
993.76219441109401
 20
166.5122213741613
 30
0.0
  0
SEQEND
  5
786B
  8
UMCL1
  0
ARC
  5
6EC1
  8
UMCL1
 10
1018.762194411094
 20
157.0122213741615
 30
0.0
 40
33.25
 50
41.24653336867307
 51
48.753466631326923
  0
ARC
  5
6EC2
  8
UMCL1
 10
1018.762194411094
 20
157.0122213741615
 30
0.0
 40
33.25
 50
131.246533368673
 51
138.75346663132689
  0
LINE
  5
6EC3
  8
CEN
 10
968.76219441109401
 20
77.42301981858418
 30
0.0
 11
968.76219441109401
 21
100.7200910169442
 31
0.0
  0
LINE
  5
6EC4
  8
CEN
 10
998.76219441109436
 20
182.81222137416151
 30
0.0
 11
998.76219441109436
 21
171.2122213741614
 31
0.0
  0
LINE
  5
6EC5
  8
CEN
 10
1004.562194411094
 20
177.01222137416141
 30
0.0
 11
992.96219441109406
 21
177.01222137416141
 31
0.0
  0
LINE
  5
6EC6
  8
CEN
 10
1018.762194411094
 20
185.29513026468379
 30
0.0
 11
1018.762194411094
 21
128.0310867366502
 31
0.0
  0
LINE
  5
6EC7
  8
CEN
 10
1018.762194411094
 20
103.5575099068438
 30
0.0
 11
1018.762194411093
 21
-32.181588464965273
 31
0.0
  0
LINE
  5
6EC8
  8
UMCL1
  6
PHANTOM
 62
     6
 10
1030.762194411094
 20
53.596037362443212
 30
0.0
 11
1030.762194411094
 21
72.596037362443326
 31
0.0
  0
LINE
  5
6EC9
  8
UMCL1
  6
PHANTOM
 62
     6
 10
960.76219441109401
 20
72.596037362443553
 30
0.0
 11
960.76219441109379
 21
53.59603736244356
 31
0.0
  0
LINE
  5
6ECA
  8
UMCL1
  6
PHANTOM
 62
     6
 10
960.76219441109401
 20
72.596037362443553
 30
0.0
 11
1030.762194411094
 21
72.596037362443326
 31
0.0
  0
LINE
  5
6ECB
  8
UMCL1
  6
PHANTOM
 62
     6
 10
960.76219441109379
 20
53.59603736244356
 30
0.0
 11
1030.762194411094
 21
53.596037362443212
 31
0.0
  0
ARC
  5
6ECC
  8
UMCL1
 62
     3
 10
968.76219441109401
 20
157.0122213741613
 30
0.0
 40
4.0
 50
77.755380639237003
 51
12.66105144964253
  0
LINE
  5
6ECD
  8
HIDDEN
 10
1011.762194411095
 20
98.596037362443454
 30
0.0
 11
1011.762194411095
 21
91.596037362443326
 31
0.0
  0
LINE
  5
6ECE
  8
HIDDEN
 10
1025.762194411094
 20
98.596037362443326
 30
0.0
 11
1025.762194411094
 21
91.596037362443212
 31
0.0
  0
LINE
  5
6ECF
  8
HIDDEN
 10
1014.262194411094
 20
91.59603736244344
 30
0.0
 11
1014.262194411094
 21
89.09603736244344
 31
0.0
  0
LINE
  5
6ED0
  8
HIDDEN
 10
1023.262194411094
 20
91.596037362443212
 30
0.0
 11
1023.262194411094
 21
89.096037362443212
 31
0.0
  0
LINE
  5
6ED1
  8
HIDDEN
 10
1015.362194411094
 20
91.59603736244344
 30
0.0
 11
1015.362194411094
 21
88.596037362443226
 31
0.0
  0
LINE
  5
6ED2
  8
HIDDEN
 10
1014.762194411094
 20
91.59603736244344
 30
0.0
 11
1014.762194411094
 21
88.596037362443226
 31
0.0
  0
LINE
  5
6ED3
  8
HIDDEN
 10
1022.162194411094
 20
91.596037362443212
 30
0.0
 11
1022.162194411094
 21
88.596037362443226
 31
0.0
  0
LINE
  5
6ED4
  8
HIDDEN
 10
1022.762194411094
 20
91.596037362443212
 30
0.0
 11
1022.762194411094
 21
88.596037362443226
 31
0.0
  0
LINE
  5
6ED5
  8
HIDDEN
 10
1144.7006073209091
 20
98.596037362443454
 30
0.0
 11
1144.7006073209091
 21
91.59603736244344
 31
0.0
  0
LINE
  5
6ED6
  8
HIDDEN
 10
1157.7006073209091
 20
98.596037362443326
 30
0.0
 11
1157.7006073209091
 21
91.596037362443212
 31
0.0
  0
LINE
  5
6ED7
  8
HIDDEN
 10
1143.2006073209091
 20
79.59603736244344
 30
0.0
 11
1144.150607320908
 21
89.09603736244344
 31
0.0
  0
LINE
  5
6ED8
  8
HIDDEN
 10
1144.2006073209091
 20
91.59603736244344
 30
0.0
 11
1158.2006073209091
 21
91.596037362443212
 31
0.0
  0
LINE
  5
6ED9
  8
HIDDEN
 10
1159.2006073209091
 20
79.59603736244344
 30
0.0
 11
1158.250607320909
 21
89.096037362443212
 31
0.0
  0
LINE
  5
6EDA
  8
HIDDEN
 10
1144.100607320908
 20
88.596037362443326
 30
0.0
 11
1158.300607320909
 21
88.596037362443326
 31
0.0
  0
LINE
  5
6EDB
  8
HIDDEN
 10
1144.150607320908
 20
89.09603736244344
 30
0.0
 11
1158.250607320909
 21
89.096037362443212
 31
0.0
  0
LINE
  5
6EDC
  8
UMCL1
 10
1160.7006073209091
 20
79.596037362443212
 30
0.0
 11
1160.7006073209091
 21
98.596037362443226
 31
0.0
  0
LINE
  5
6EDD
  8
UMCL1
 10
1144.7006073209091
 20
98.596037362443454
 30
0.0
 11
1144.7006073209091
 21
100.5960373624434
 31
0.0
  0
LINE
  5
6EDE
  8
UMCL1
 10
1145.2006073209091
 20
101.0960373624434
 30
0.0
 11
1157.2006073209091
 21
101.0960373624434
 31
0.0
  0
LINE
  5
6EDF
  8
UMCL1
 10
1157.7006073209091
 20
100.5960373624434
 30
0.0
 11
1157.7006073209091
 21
98.596037362443226
 31
0.0
  0
LINE
  5
6EE0
  8
UMCL1
 10
1144.7006073209091
 20
100.5960373624434
 30
0.0
 11
1157.7006073209091
 21
100.5960373624434
 31
0.0
  0
LINE
  5
6EE1
  8
UMCL1
 10
1144.7006073209091
 20
100.5960373624434
 30
0.0
 11
1145.2006073209091
 21
101.0960373624434
 31
0.0
  0
LINE
  5
6EE2
  8
UMCL1
 10
1157.2006073209091
 20
101.0960373624434
 30
0.0
 11
1157.7006073209091
 21
100.5960373624434
 31
0.0
  0
LINE
  5
6EE3
  8
UMCL1
 10
1143.2006073209091
 20
79.59603736244344
 30
0.0
 11
1143.2006073209091
 21
49.596037362443212
 31
0.0
  0
LINE
  5
6EE4
  8
UMCL1
 10
1159.2006073209091
 20
79.596037362443326
 30
0.0
 11
1159.2006073209091
 21
49.596037362443212
 31
0.0
  0
LINE
  5
6EE5
  8
CEN
 10
1151.2006073209091
 20
103.5575099068438
 30
0.0
 11
1151.2006073209079
 21
-32.181588464965273
 31
0.0
  0
LINE
  5
6EE6
  8
HIDDEN
 10
1144.2006073209091
 20
98.596037362443454
 30
0.0
 11
1144.2006073209091
 21
91.596037362443326
 31
0.0
  0
LINE
  5
6EE7
  8
HIDDEN
 10
1158.2006073209091
 20
98.596037362443326
 30
0.0
 11
1158.2006073209091
 21
91.596037362443212
 31
0.0
  0
LINE
  5
6EE8
  8
HIDDEN
 10
1146.7006073209091
 20
91.59603736244344
 30
0.0
 11
1146.7006073209091
 21
89.09603736244344
 31
0.0
  0
LINE
  5
6EE9
  8
HIDDEN
 10
1155.7006073209091
 20
91.596037362443212
 30
0.0
 11
1155.7006073209091
 21
89.096037362443212
 31
0.0
  0
LINE
  5
6EEA
  8
HIDDEN
 10
1147.800607320909
 20
91.59603736244344
 30
0.0
 11
1147.800607320909
 21
88.596037362443226
 31
0.0
  0
LINE
  5
6EEB
  8
HIDDEN
 10
1147.2006073209091
 20
91.59603736244344
 30
0.0
 11
1147.2006073209091
 21
88.596037362443226
 31
0.0
  0
LINE
  5
6EEC
  8
HIDDEN
 10
1154.6006073209089
 20
91.596037362443212
 30
0.0
 11
1154.6006073209089
 21
88.596037362443226
 31
0.0
  0
LINE
  5
6EED
  8
HIDDEN
 10
1155.2006073209091
 20
91.596037362443212
 30
0.0
 11
1155.2006073209091
 21
88.596037362443226
 31
0.0
  0
LINE
  5
6EEE
  8
UMCL1
 10
1141.7006073209091
 20
79.596037362443212
 30
0.0
 11
1141.7006073209091
 21
98.596037362443226
 31
0.0
  0
LINE
  5
6EEF
  8
UMCL1
 10
1141.7006073209091
 20
98.596037362443454
 30
0.0
 11
1160.7006073209091
 21
98.596037362443226
 31
0.0
  0
LINE
  5
6EF0
  8
UMCL1
 10
1141.7006073209091
 20
79.596037362443326
 30
0.0
 11
1160.7006073209091
 21
79.596037362443212
 31
0.0
  0
CIRCLE
  5
6EF1
  8
UMCL1
 10
998.76219441109436
 20
177.0122213741613
 30
0.0
 40
4.5
  0
CIRCLE
  5
6EF2
  8
UMCL1
 10
1038.762194411094
 20
177.0122213741613
 30
0.0
 40
4.5
  0
CIRCLE
  5
6EF3
  8
UMCL1
 10
1038.762194411094
 20
137.0122213741613
 30
0.0
 40
4.5
  0
CIRCLE
  5
6EF4
  8
UMCL1
 10
998.76219441109436
 20
137.0122213741613
 30
0.0
 40
4.5
  0
CIRCLE
  5
6EF5
  8
HIDDEN
 10
1002.762194411094
 20
157.01222137416099
 30
0.0
 40
4.25
  0
ARC
  5
6EF6
  8
HIDDEN
 10
1002.762194411094
 20
157.01222137416099
 30
0.0
 40
5.0
 50
344.99999999999932
 51
284.99999999999437
  0
CIRCLE
  5
6EF7
  8
HIDDEN
 10
1034.762194411094
 20
157.01222137416099
 30
0.0
 40
4.25
  0
ARC
  5
6EF8
  8
HIDDEN
 10
1034.762194411094
 20
157.01222137416099
 30
0.0
 40
5.0
 50
344.99999999999932
 51
284.99999999999437
  0
LINE
  5
6EF9
  8
UMCL1
 10
1043.2621944110931
 20
49.596037362443212
 30
0.0
 11
994.26219441109367
 21
49.596037362443212
 31
0.0
  0
LINE
  5
6EFA
  8
UMCL1
 10
1043.7621944110931
 20
49.096037362443212
 30
0.0
 11
993.76219441109379
 21
49.096037362443212
 31
0.0
  0
LINE
  5
6EFB
  8
UMCL1
 10
994.26219441109367
 20
49.596037362443212
 30
0.0
 11
993.76219441109379
 21
49.096037362443212
 31
0.0
  0
LINE
  5
6EFC
  8
UMCL1
 10
1043.7621944110931
 20
49.096037362443212
 30
0.0
 11
1043.2621944110931
 21
49.596037362443212
 31
0.0
  0
LINE
  5
6EFD
  8
UMCL1
 10
994.26219441109367
 20
27.596037362443269
 30
0.0
 11
1043.2621944110931
 21
27.59603736244339
 31
0.0
  0
LINE
  5
6EFE
  8
UMCL1
 10
993.76219441109379
 20
28.096037362443379
 30
0.0
 11
1043.7621944110931
 21
28.096037362443379
 31
0.0
  0
LINE
  5
6EFF
  8
UMCL1
 10
993.76219441109379
 20
28.096037362443269
 30
0.0
 11
994.26219441109367
 21
27.596037362443269
 31
0.0
  0
LINE
  5
6F00
  8
UMCL1
 10
1043.2621944110931
 20
27.59603736244339
 30
0.0
 11
1043.7621944110931
 21
28.096037362443379
 31
0.0
  0
LINE
  5
6F01
  8
UMCL1
 10
993.76219441109379
 20
49.096037362443212
 30
0.0
 11
993.76219441109379
 21
28.096037362443379
 31
0.0
  0
LINE
  5
6F02
  8
UMCL1
 10
1043.7621944110931
 20
49.096037362443212
 30
0.0
 11
1043.7621944110931
 21
28.096037362443379
 31
0.0
  0
LINE
  5
6F03
  8
UMCL1
 10
995.76219441109379
 20
27.596037362443269
 30
0.0
 11
995.76219441109379
 21
-27.403962637556791
 31
0.0
  0
LINE
  5
6F04
  8
UMCL1
 10
1041.7621944110931
 20
27.596037362443269
 30
0.0
 11
1041.7621944110931
 21
-27.403962637556681
 31
0.0
  0
LINE
  5
6F05
  8
UMCL1
 10
1040.7621944110931
 20
-28.403962637556681
 30
0.0
 11
996.76219441109379
 21
-28.403962637556791
 31
0.0
  0
LINE
  5
6F06
  8
UMCL1
 10
1041.7621944110931
 20
-27.403962637556681
 30
0.0
 11
995.76219441109379
 21
-27.403962637556791
 31
0.0
  0
LINE
  5
6F07
  8
UMCL1
 10
995.76219441109379
 20
-27.403962637556791
 30
0.0
 11
996.76219441109379
 21
-28.403962637556791
 31
0.0
  0
LINE
  5
6F08
  8
UMCL1
 10
1040.7621944110931
 20
-28.403962637556681
 30
0.0
 11
1041.7621944110931
 21
-27.403962637556681
 31
0.0
  0
LINE
  5
6F09
  8
HIDDEN
 10
1007.762194411093
 20
-28.403962637556681
 30
0.0
 11
1007.512194411094
 21
-20.403962637556671
 31
0.0
  0
LINE
  5
6F0A
  8
HIDDEN
 10
1007.262194411094
 20
-28.403962637556681
 30
0.0
 11
1007.012194411093
 21
-20.403962637556671
 31
0.0
  0
LINE
  5
6F0B
  8
HIDDEN
 10
997.76219441109367
 20
-28.403962637556681
 30
0.0
 11
998.01219441109367
 21
-20.403962637556671
 31
0.0
  0
LINE
  5
6F0C
  8
HIDDEN
 10
998.26219441109379
 20
-28.403962637556681
 30
0.0
 11
998.51219441109379
 21
-20.403962637556671
 31
0.0
  0
LINE
  5
6F0D
  8
HIDDEN
 10
1039.7621944110931
 20
-28.403962637556681
 30
0.0
 11
1039.5121944110931
 21
-20.403962637556671
 31
0.0
  0
LINE
  5
6F0E
  8
HIDDEN
 10
1039.2621944110931
 20
-28.403962637556681
 30
0.0
 11
1039.0121944110931
 21
-20.403962637556671
 31
0.0
  0
LINE
  5
6F0F
  8
HIDDEN
 10
1029.762194411094
 20
-28.403962637556681
 30
0.0
 11
1030.012194411094
 21
-20.403962637556671
 31
0.0
  0
LINE
  5
6F10
  8
HIDDEN
 10
1030.2621944110931
 20
-28.403962637556681
 30
0.0
 11
1030.512194411094
 21
-20.403962637556671
 31
0.0
  0
LINE
  5
6F11
  8
CEN
 10
998.76219441109367
 20
51.096037362443212
 30
0.0
 11
998.76219441109367
 21
26.096037362443379
 31
0.0
  0
LINE
  5
6F12
  8
HIDDEN
 10
1003.262194411093
 20
49.596037362443212
 30
0.0
 11
1003.262194411093
 21
44.096037362443212
 31
0.0
  0
LINE
  5
6F13
  8
HIDDEN
 10
1003.262194411093
 20
44.096037362443212
 30
0.0
 11
994.26219441109367
 21
44.096037362443212
 31
0.0
  0
LINE
  5
6F14
  8
HIDDEN
 10
994.26219441109367
 20
44.096037362443212
 30
0.0
 11
994.26219441109367
 21
49.596037362443212
 31
0.0
  0
LINE
  5
6F15
  8
HIDDEN
 10
995.96219441109395
 20
44.096037362443212
 30
0.0
 11
995.96219441109395
 21
27.596037362443269
 31
0.0
  0
LINE
  5
6F16
  8
HIDDEN
 10
1001.562194411094
 20
44.096037362443212
 30
0.0
 11
1001.562194411094
 21
27.596037362443269
 31
0.0
  0
LINE
  5
6F17
  8
CEN
 10
1038.7621944110931
 20
51.09603736244344
 30
0.0
 11
1038.7621944110931
 21
26.096037362443379
 31
0.0
  0
LINE
  5
6F18
  8
HIDDEN
 10
1043.2621944110931
 20
49.59603736244344
 30
0.0
 11
1043.2621944110931
 21
44.09603736244344
 31
0.0
  0
LINE
  5
6F19
  8
HIDDEN
 10
1043.2621944110931
 20
44.09603736244344
 30
0.0
 11
1034.262194411094
 21
44.09603736244344
 31
0.0
  0
LINE
  5
6F1A
  8
HIDDEN
 10
1034.262194411094
 20
44.09603736244344
 30
0.0
 11
1034.262194411094
 21
49.59603736244344
 31
0.0
  0
LINE
  5
6F1B
  8
HIDDEN
 10
1035.9621944110929
 20
44.09603736244344
 30
0.0
 11
1035.9621944110929
 21
27.59603736244339
 31
0.0
  0
LINE
  5
6F1C
  8
HIDDEN
 10
1041.5621944110931
 20
44.09603736244344
 30
0.0
 11
1041.5621944110931
 21
27.59603736244339
 31
0.0
  0
TEXT
  5
6F1D
  8
UMCL2
 62
     6
 10
1001.329562064943
 20
-15.651062891899979
 30
0.0
 40
3.0
  1
A
  7
ROMANS
  0
CIRCLE
  5
6F1E
  8
UMCL2
 62
     6
 10
1002.762194411094
 20
-14.40396263755679
 30
0.0
 40
2.5
  0
TEXT
  5
6F1F
  8
UMCL2
 62
     6
 10
1033.3727840988779
 20
-15.899546398675509
 30
0.0
 40
3.0
  1
B
  7
ROMANS
  0
CIRCLE
  5
6F20
  8
UMCL2
 62
     6
 10
1034.762194411094
 20
-14.403962637556671
 30
0.0
 40
2.5
  0
LINE
  5
6F21
  8
CEN
 10
1002.762194411094
 20
-29.903962637556681
 30
0.0
 11
1002.762194411094
 21
-18.403962637556781
 31
0.0
  0
LINE
  5
6F22
  8
CEN
 10
1034.762194411094
 20
-29.90396263755656
 30
0.0
 11
1034.762194411094
 21
-18.403962637556671
 31
0.0
  0
DIMENSION
  5
6F23
  8
UMCL2
  6
CONTINUOUS
  2
*D71
 10
1053.4175815475351
 20
27.596037362443269
 30
0.0
 11
1050.917581547536
 21
38.596037362443411
 31
0.0
 70
     0
 13
1043.2621944110931
 23
49.596037362443212
 33
0.0
 14
1043.2621944110931
 24
27.596037362443269
 34
0.0
 50
90.0
1001
ACAD
1000
DSTYLE
1002
{
1070
   287
1070
     5
1070
    41
1040
3.0
1070
    42
1040
1.0
1070
    43
1040
12.0
1070
    44
1040
1.0
1070
    47
1040
0.15
1070
    48
1040
-0.1
1070
    73
1070
     0
1070
    74
1070
     0
1070
    77
1070
     1
1070
    78
1070
     8
1070
    79
1070
     2
1070
   140
1040
3.0
1070
   141
1040
2.0
1070
   145
1040
1.0
1070
   147
1040
1.0
1070
   172
1070
     1
1070
   271
1070
     2
1070
   272
1070
     2
1070
   279
1070
     2
1070
   340
1005
AD6
1002
}
  0
DIMENSION
  5
6F26
  8
UMCL2
  6
CONTINUOUS
  2
*D72
 10
1061.4175815475351
 20
-28.403962637556791
 30
0.0
 11
1058.917581547536
 21
10.596037362443379
 31
0.0
 70
     0
 13
1043.2621944110931
 23
49.596037362443212
 33
0.0
 14
1040.7621944110931
 24
-28.403962637556791
 34
0.0
 50
90.0
1001
ACAD
1000
DSTYLE
1002
{
1070
   287
1070
     5
1070
    41
1040
3.0
1070
    42
1040
1.0
1070
    43
1040
12.0
1070
    44
1040
1.0
1070
    47
1040
0.15
1070
    48
1040
-0.1
1070
    73
1070
     0
1070
    74
1070
     0
1070
    77
1070
     1
1070
    78
1070
     8
1070
    79
1070
     2
1070
   140
1040
3.0
1070
   141
1040
2.0
1070
   145
1040
1.0
1070
   147
1040
1.0
1070
   172
1070
     1
1070
   271
1070
     2
1070
   272
1070
     2
1070
   279
1070
     2
1070
   340
1005
AD6
1002
}
  0
LINE
  5
6F29
  8
UMCL1
 10
1175.7006073209091
 20
49.596037362443212
 30
0.0
 11
1126.7006073209091
 21
49.596037362443212
 31
0.0
  0
LINE
  5
6F2A
  8
UMCL1
 10
1176.2006073209091
 20
49.096037362443212
 30
0.0
 11
1126.2006073209079
 21
49.096037362443212
 31
0.0
  0
LINE
  5
6F2B
  8
UMCL1
 10
1126.7006073209091
 20
49.596037362443212
 30
0.0
 11
1126.2006073209079
 21
49.096037362443212
 31
0.0
  0
LINE
  5
6F2C
  8
UMCL1
 10
1176.2006073209091
 20
49.096037362443212
 30
0.0
 11
1175.7006073209091
 21
49.596037362443212
 31
0.0
  0
LINE
  5
6F2D
  8
UMCL1
 10
1126.7006073209079
 20
27.596037362443269
 30
0.0
 11
1175.7006073209079
 21
27.59603736244339
 31
0.0
  0
LINE
  5
6F2E
  8
UMCL1
 10
1126.2006073209079
 20
28.096037362443379
 30
0.0
 11
1176.2006073209079
 21
28.096037362443379
 31
0.0
  0
LINE
  5
6F2F
  8
UMCL1
 10
1126.2006073209079
 20
28.096037362443269
 30
0.0
 11
1126.7006073209079
 21
27.596037362443269
 31
0.0
  0
LINE
  5
6F30
  8
UMCL1
 10
1175.7006073209079
 20
27.59603736244339
 30
0.0
 11
1176.2006073209079
 21
28.096037362443379
 31
0.0
  0
LINE
  5
6F31
  8
UMCL1
 10
1126.2006073209079
 20
49.096037362443212
 30
0.0
 11
1126.2006073209079
 21
28.096037362443379
 31
0.0
  0
LINE
  5
6F32
  8
UMCL1
 10
1176.2006073209091
 20
49.096037362443212
 30
0.0
 11
1176.2006073209079
 21
28.096037362443379
 31
0.0
  0
LINE
  5
6F33
  8
UMCL1
 10
1128.2006073209079
 20
27.596037362443269
 30
0.0
 11
1128.2006073209079
 21
-27.403962637556791
 31
0.0
  0
LINE
  5
6F34
  8
UMCL1
 10
1174.2006073209079
 20
27.596037362443269
 30
0.0
 11
1174.2006073209091
 21
-27.403962637556681
 31
0.0
  0
LINE
  5
6F35
  8
UMCL1
 10
1173.2006073209091
 20
-28.403962637556681
 30
0.0
 11
1129.2006073209091
 21
-28.403962637556791
 31
0.0
  0
LINE
  5
6F36
  8
UMCL1
 10
1174.2006073209091
 20
-27.403962637556681
 30
0.0
 11
1128.2006073209079
 21
-27.403962637556791
 31
0.0
  0
LINE
  5
6F37
  8
UMCL1
 10
1128.2006073209079
 20
-27.403962637556791
 30
0.0
 11
1129.2006073209091
 21
-28.403962637556791
 31
0.0
  0
LINE
  5
6F38
  8
UMCL1
 10
1173.2006073209091
 20
-28.403962637556681
 30
0.0
 11
1174.2006073209091
 21
-27.403962637556681
 31
0.0
  0
LINE
  5
6F39
  8
HIDDEN
 10
1156.2006073209091
 20
-28.40396263755656
 30
0.0
 11
1155.9506073209091
 21
-20.40396263755656
 31
0.0
  0
LINE
  5
6F3A
  8
HIDDEN
 10
1155.7006073209091
 20
-28.40396263755656
 30
0.0
 11
1155.4506073209091
 21
-20.40396263755656
 31
0.0
  0
LINE
  5
6F3B
  8
HIDDEN
 10
1146.2006073209091
 20
-28.40396263755656
 30
0.0
 11
1146.4506073209091
 21
-20.40396263755656
 31
0.0
  0
LINE
  5
6F3C
  8
HIDDEN
 10
1146.7006073209091
 20
-28.40396263755656
 30
0.0
 11
1146.9506073209091
 21
-20.40396263755656
 31
0.0
  0
LINE
  5
6F3D
  8
CEN
 10
1131.2006073209091
 20
51.096037362443212
 30
0.0
 11
1131.2006073209091
 21
26.096037362443379
 31
0.0
  0
LINE
  5
6F3E
  8
HIDDEN
 10
1135.7006073209091
 20
49.596037362443212
 30
0.0
 11
1135.7006073209091
 21
44.096037362443212
 31
0.0
  0
LINE
  5
6F3F
  8
HIDDEN
 10
1135.7006073209091
 20
44.096037362443212
 30
0.0
 11
1126.7006073209091
 21
44.096037362443212
 31
0.0
  0
LINE
  5
6F40
  8
HIDDEN
 10
1126.7006073209091
 20
44.096037362443212
 30
0.0
 11
1126.7006073209091
 21
49.596037362443212
 31
0.0
  0
LINE
  5
6F41
  8
HIDDEN
 10
1128.400607320908
 20
44.096037362443212
 30
0.0
 11
1128.400607320908
 21
27.596037362443269
 31
0.0
  0
LINE
  5
6F42
  8
HIDDEN
 10
1134.000607320909
 20
44.096037362443212
 30
0.0
 11
1134.000607320909
 21
27.596037362443269
 31
0.0
  0
LINE
  5
6F43
  8
CEN
 10
1171.2006073209091
 20
51.09603736244344
 30
0.0
 11
1171.2006073209091
 21
26.096037362443379
 31
0.0
  0
LINE
  5
6F44
  8
HIDDEN
 10
1175.7006073209091
 20
49.59603736244344
 30
0.0
 11
1175.7006073209091
 21
44.09603736244344
 31
0.0
  0
LINE
  5
6F45
  8
HIDDEN
 10
1175.7006073209091
 20
44.09603736244344
 30
0.0
 11
1166.7006073209091
 21
44.09603736244344
 31
0.0
  0
LINE
  5
6F46
  8
HIDDEN
 10
1166.7006073209091
 20
44.09603736244344
 30
0.0
 11
1166.7006073209091
 21
49.59603736244344
 31
0.0
  0
LINE
  5
6F47
  8
HIDDEN
 10
1168.4006073209091
 20
44.09603736244344
 30
0.0
 11
1168.4006073209091
 21
27.59603736244339
 31
0.0
  0
LINE
  5
6F48
  8
HIDDEN
 10
1174.0006073209081
 20
44.09603736244344
 30
0.0
 11
1174.0006073209081
 21
27.59603736244339
 31
0.0
  0
DIMENSION
  5
6F49
  8
UMCL2
  6
CONTINUOUS
  2
*D73
 10
1077.4175815475351
 20
79.596037362443198
 30
0.0
 11
1074.917581547536
 21
25.596037362443429
 31
0.0
 70
     0
 13
1040.7621944110931
 23
-28.403962637556681
 33
0.0
 14
1030.762194411094
 24
79.596037362443212
 34
0.0
 50
90.0
1001
ACAD
1000
DSTYLE
1002
{
1070
   287
1070
     5
1070
    41
1040
3.0
1070
    42
1040
1.0
1070
    43
1040
12.0
1070
    44
1040
1.0
1070
    47
1040
0.15
1070
    48
1040
-0.1
1070
    73
1070
     0
1070
    74
1070
     0
1070
    77
1070
     1
1070
    78
1070
     8
1070
    79
1070
     2
1070
   140
1040
3.0
1070
   141
1040
2.0
1070
   145
1040
1.0
1070
   147
1040
1.0
1070
   172
1070
     1
1070
   271
1070
     2
1070
   272
1070
     2
1070
   279
1070
     2
1070
   340
1005
AD6
1002
}
  0
DIMENSION
  5
6F4C
  8
UMCL2
  6
CONTINUOUS
  2
*D74
 10
1085.4175815475351
 20
101.0960373624434
 30
0.0
 11
1082.917581547536
 21
36.346037362443553
 31
0.0
 70
     0
 13
1040.7621944110931
 23
-28.403962637556681
 33
0.0
 14
1024.762194411094
 24
101.0960373624434
 34
0.0
 50
90.0
1001
ACAD
1000
DSTYLE
1002
{
1070
   287
1070
     5
1070
    41
1040
3.0
1070
    42
1040
1.0
1070
    43
1040
12.0
1070
    44
1040
1.0
1070
    47
1040
0.15
1070
    48
1040
-0.1
1070
    73
1070
     0
1070
    74
1070
     0
1070
    77
1070
     1
1070
    78
1070
     8
1070
    79
1070
     2
1070
   140
1040
3.0
1070
   141
1040
2.0
1070
   145
1040
1.0
1070
   147
1040
1.0
1070
   172
1070
     1
1070
   271
1070
     2
1070
   272
1070
     2
1070
   279
1070
     2
1070
   340
1005
AD6
1002
}
  0
DIMENSION
  5
6F4F
  8
UMCL2
  6
CONTINUOUS
  2
*D75
 10
1034.762194411094
 20
-40.547302161271261
 30
0.0
 11
1018.762194411094
 21
-38.047302161271261
 31
0.0
 70
     0
 13
1002.762194411094
 23
-29.903962637556681
 33
0.0
 14
1034.762194411094
 24
-29.903962637556681
 34
0.0
1001
ACAD
1000
DSTYLE
1002
{
1070
   287
1070
     5
1070
    41
1040
3.0
1070
    42
1040
1.0
1070
    43
1040
12.0
1070
    44
1040
1.0
1070
    47
1040
0.15
1070
    48
1040
-0.1
1070
    73
1070
     0
1070
    74
1070
     0
1070
    77
1070
     1
1070
    78
1070
     8
1070
    79
1070
     2
1070
   140
1040
3.0
1070
   141
1040
2.0
1070
   145
1040
1.0
1070
   147
1040
1.0
1070
   172
1070
     1
1070
   271
1070
     2
1070
   272
1070
     2
1070
   279
1070
     2
1070
   340
1005
AD6
1002
}
  0
DIMENSION
  5
6F52
  8
UMCL2
  6
CONTINUOUS
  2
*D76
 10
1041.7621944110931
 20
-46.547302161271261
 30
0.0
 11
1018.762194411094
 21
-44.047302161271261
 31
0.0
 70
     0
  1
%%C<>
 13
995.76219441109379
 23
-27.403962637556791
 33
0.0
 14
1041.7621944110931
 24
-27.403962637556681
 34
0.0
1001
ACAD
1000
DSTYLE
1002
{
1070
   287
1070
     5
1070
    41
1040
3.0
1070
    42
1040
1.0
1070
    43
1040
12.0
1070
    44
1040
1.0
1070
    47
1040
0.15
1070
    48
1040
-0.1
1070
    73
1070
     0
1070
    74
1070
     0
1070
    77
1070
     1
1070
    78
1070
     8
1070
    79
1070
     2
1070
   140
1040
3.0
1070
   141
1040
2.0
1070
   145
1040
1.0
1070
   147
1040
1.0
1070
   172
1070
     1
1070
   271
1070
     2
1070
   272
1070
     2
1070
   279
1070
     2
1070
   340
1005
AD6
1002
}
  0
CIRCLE
  5
6F55
  8
HIDDEN
 10
1018.762194411094
 20
157.0122213741613
 30
0.0
 40
23.00000000000011
  0
LINE
  5
6F56
  8
HIDDEN
 10
993.76219441109401
 20
147.5122213741613
 30
0.0
 11
993.76219441109401
 21
166.5122213741613
 31
0.0
  0
LINE
  5
6F57
  8
CEN
 10
1002.762194411094
 20
162.812221374161
 30
0.0
 11
1002.762194411094
 21
151.21222137416109
 31
0.0
  0
LINE
  5
6F58
  8
CEN
 10
1034.762194411094
 20
162.812221374161
 30
0.0
 11
1034.762194411094
 21
151.21222137416109
 31
0.0
  0
LINE
  5
6F59
  8
CEN
 10
1038.762194411094
 20
182.81222137416151
 30
0.0
 11
1038.762194411094
 21
171.2122213741614
 31
0.0
  0
LINE
  5
6F5A
  8
CEN
 10
1044.562194411094
 20
177.01222137416141
 30
0.0
 11
1032.9621944110941
 21
177.01222137416141
 31
0.0
  0
LINE
  5
6F5B
  8
CEN
 10
1038.762194411094
 20
142.8122213741614
 30
0.0
 11
1038.762194411094
 21
131.21222137416149
 31
0.0
  0
LINE
  5
6F5C
  8
CEN
 10
1044.562194411094
 20
137.0122213741615
 30
0.0
 11
1032.9621944110941
 21
137.0122213741615
 31
0.0
  0
LINE
  5
6F5D
  8
CEN
 10
998.76219441109436
 20
142.8122213741614
 30
0.0
 11
998.76219441109436
 21
131.21222137416149
 31
0.0
  0
LINE
  5
6F5E
  8
CEN
 10
1004.562194411094
 20
137.0122213741615
 30
0.0
 11
992.96219441109406
 21
137.0122213741615
 31
0.0
  0
DIMENSION
  5
6F5F
  8
AM_5
  2
*D77
 10
1036.0668655272759
 20
140.61571998080009
 30
0.0
 11
1066.4063928885821
 21
122.4717552677551
 31
0.0
 70
   131
  1
4-%%C5.6,<>*5.5D
 15
1041.457523294913
 25
133.40872276752179
 35
0.0
 40
0.0
1001
ACAD
1000
DSTYLE
1002
{
1070
    40
1040
1.0
1070
   144
1040
1.0
1070
   272
1070
     8
1002
}
  0
DIMENSION
  5
6F62
  8
AM_5
  2
*D78
 10
1055.857411268277
 20
166.5122213741613
 30
0.0
 11
1053.107411268277
 21
157.01222137416141
 31
0.0
 70
     0
 13
1030.762194411094
 23
147.5122213741613
 33
0.0
 14
1030.762194411094
 24
166.5122213741613
 34
0.0
 50
90.0
  0
DIMENSION
  5
6F65
  8
AM_5
  2
*D79
 10
1063.857411268277
 20
137.0122213741615
 30
0.0
 11
1061.107411268277
 21
157.01222137416161
 31
0.0
 70
     0
  1
{\Famgdt;o}<>
 13
1044.562194411094
 23
177.01222137416141
 33
0.0
 14
1044.562194411094
 24
137.0122213741615
 34
0.0
 50
90.0
  0
DIMENSION
  5
6F68
  8
AM_5
  2
*D80
 10
1071.857411268277
 20
182.0122213741615
 30
0.0
 11
1069.107411268277
 21
157.0122213741617
 31
0.0
 70
     0
  1
{\Famgdt;o}<>
 13
1040.6839302000319
 23
132.0122213741615
 33
0.0
 14
1040.6839302000319
 24
182.0122213741615
 34
0.0
 50
90.0
  0
DIMENSION
  5
6F6B
  8
AM_5
  2
*D81
 10
1030.762194411094
 20
114.2894956572966
 30
0.0
 11
995.76219441109401
 21
117.0394956572966
 31
0.0
 70
     0
 13
960.76219441109401
 23
98.596037362443553
 33
0.0
 14
1030.762194411094
 24
98.596037362443326
 34
0.0
1001
ACAD
1000
DSTYLE
1002
{
1070
    40
1040
1.0
1070
   144
1040
1.0
1002
}
  0
DIMENSION
  5
6F6E
  8
AM_5
  2
*D82
 10
968.76219441109401
 20
108.2894956572968
 30
0.0
 11
993.76219441109424
 21
111.0394956572968
 31
0.0
 70
     0
 13
1018.762194411094
 23
103.5575099068438
 33
0.0
 14
968.76219441109401
 24
100.7200910169442
 34
0.0
1001
ACAD
1000
DSTYLE
1002
{
1070
   174
1070
     1
1002
}
  0
DIMENSION
  5
6F71
  8
AM_5
  2
*D83
 10
960.76219441109401
 20
108.2894956572968
 30
0.0
 11
964.7621944110939
 21
111.0394956572968
 31
0.0
 70
     0
 13
968.76219441109401
 23
100.7200910169442
 33
0.0
 14
960.76219441109401
 24
99.596037362443553
 34
0.0
1001
ACAD
1000
DSTYLE
1002
{
1070
   174
1070
     1
1070
    40
1040
1.0
1070
   144
1040
1.0
1002
}
  0
DIMENSION
  5
6F74
  8
AM_5
  2
*D67
 10
1077.4175815475351
 20
98.596037362443312
 30
0.0
 11
1074.667581547536
 21
89.096037362443425
 31
0.0
 70
     0
 13
1030.762194411094
 23
79.596037362443212
 33
0.0
 14
1030.762194411094
 24
98.596037362443326
 34
0.0
 50
90.0
1001
ACAD
1000
DSTYLE
1002
{
1070
   174
1070
     1
1002
}
  0
DIMENSION
  5
6F77
  8
AM_5
  2
*D68
 10
1069.4175815475351
 20
79.596037362443198
 30
0.0
 11
1066.6672370593469
 21
66.596037362443369
 31
0.0
 70
     0
 13
1030.762194411094
 23
53.596037362443212
 33
0.0
 14
1030.762194411094
 24
79.596037362443212
 34
0.0
 50
90.0
1001
ACAD
1000
DSTYLE
1002
{
1070
   174
1070
     1
1070
    40
1040
1.0
1070
   144
1040
1.0
1002
}
  0
DIMENSION
  5
6F7A
  8
AM_5
  2
*D69
 10
1069.4175815475351
 20
53.596037362443198
 30
0.0
 11
1066.6672370593469
 21
12.596037362443431
 31
0.0
 70
     0
 13
1040.7621944110931
 23
-28.403962637556681
 33
0.0
 14
1030.762194411094
 24
53.596037362443212
 34
0.0
 50
90.0
1001
ACAD
1000
DSTYLE
1002
{
1070
    40
1040
1.0
1070
   144
1040
1.0
1002
}
  0
INSERT
  5
6F7D
  8
0
  2
*U149
 10
0.0
 20
0.0
 30
0.0
1001
ACAD
1000
DSTYLE
1002
{
1070
   140
1040
3.5
1070
   174
1070
     1
1002
}
  0
INSERT
  5
6F80
  8
0
  2
*U150
 10
0.0
 20
0.0
 30
0.0
  0
INSERT
  5
6F81
  8
0
  2
*U151
 10
0.0
 20
0.0
 30
0.0
1001
ACAD
1000
DSTYLE
1002
{
1070
   140
1040
3.5
1002
}
  0
INSERT
  5
6F84
  8
0
  2
*U152
 10
0.0
 20
0.0
 30
0.0
  0
TEXT
  5
6F85
  8
UMCL2
 10
1345.1819357718521
 20
180.20247493943859
 30
0.0
 40
4.0
  1
CW
  7
ROMANS
  0
TEXT
  5
6F86
  8
UMCL2
 10
1345.9543797301451
 20
143.53924331782579
 30
0.0
 40
4.0
  1
CCW
  7
ROMANS
  0
POLYLINE
  5
6F87
  8
UMCL2
 66
     1
 10
0.0
 20
0.0
 30
0.0
 70
     7
  0
VERTEX
  5
6F88
  8
UMCL2
 10
1353.8184166828189
 20
178.2279596992087
 30
0.0
 42
-0.0185322085214218
  0
VERTEX
  5
6F89
  8
UMCL2
 10
1355.8475897526989
 20
182.62905893888981
 30
0.0
  0
VERTEX
  5
6F8A
  8
UMCL2
 10
1355.312397348099
 20
182.900295164455
 30
0.0
  0
VERTEX
  5
6F8B
  8
UMCL2
 10
1357.934882131432
 20
184.93449280330401
 30
0.0
  0
VERTEX
  5
6F8C
  8
UMCL2
 10
1357.7207631687979
 20
181.67973214941159
 30
0.0
  0
VERTEX
  5
6F8D
  8
UMCL2
 10
1357.185570764198
 20
181.95096837497701
 30
0.0
 42
0.018532208521422
  0
VERTEX
  5
6F8E
  8
UMCL2
 10
1355.2029383610591
 20
177.65081177840699
 30
0.0
  0
SEQEND
  5
6F8F
  8
UMCL2
  0
POLYLINE
  5
6F90
  8
UMCL2
 66
     1
 10
0.0
 20
0.0
 30
0.0
 70
     7
  0
VERTEX
  5
6F91
  8
UMCL2
 10
1359.4764758120091
 20
148.47338122039051
 30
0.0
 42
0.0185322085214218
  0
VERTEX
  5
6F92
  8
UMCL2
 10
1361.505648881888
 20
144.07228198070931
 30
0.0
  0
VERTEX
  5
6F93
  8
UMCL2
 10
1360.9704564772881
 20
143.8010457551442
 30
0.0
  0
VERTEX
  5
6F94
  8
UMCL2
 10
1363.592941260622
 20
141.76684811629491
 30
0.0
  0
VERTEX
  5
6F95
  8
UMCL2
 10
1363.378822297987
 20
145.02160877018741
 30
0.0
  0
VERTEX
  5
6F96
  8
UMCL2
 10
1362.8436298933871
 20
144.750372544622
 30
0.0
 42
-0.018532208521422
  0
VERTEX
  5
6F97
  8
UMCL2
 10
1360.8609974902481
 20
149.0505291411913
 30
0.0
  0
SEQEND
  5
6F98
  8
UMCL2
  0
LINE
  5
6F99
  8
CEN
 10
1447.1439063807711
 20
161.55052914119091
 30
0.0
 11
1358.3012121083291
 21
161.5505291411915
 31
0.0
  0
LINE
  5
6F9A
  8
CEN
 10
1368.8609974902481
 20
155.1505291411913
 30
0.0
 11
1368.8609974902481
 21
167.95052914119131
 31
0.0
  0
TEXT
  5
6F9B
  8
UMCL2
  6
CONTINUOUS
 10
1458.8609974902481
 20
159.99714775403069
 30
0.0
 40
3.0
  1
40
 50
90.0
  7
ROMANS
  0
SOLID
  5
6F9C
  8
UMCL2
  6
CONTINUOUS
 10
1460.3819420233481
 20
178.5961058821913
 30
0.0
 11
1459.3400529571479
 21
178.5961058821913
 31
0.0
 12
1459.8609974902481
 22
181.55052914119119
 32
0.0
 13
1459.8609974902481
 23
181.55052914119119
 33
0.0
  0
LINE
  5
6F9D
  8
UMCL2
  6
CONTINUOUS
 10
1446.157682526386
 20
181.55052914119119
 30
0.0
 11
1460.8609974902481
 21
181.55052914119119
 31
0.0
  0
TEXT
  5
6F9E
  8
UMCL2
  6
CONTINUOUS
 10
1466.8609974902481
 20
160.0115460511397
 30
0.0
 40
3.0
  1
50
 50
90.0
  7
ROMANS
  0
SOLID
  5
6F9F
  8
UMCL2
  6
CONTINUOUS
 10
1468.3819420233481
 20
183.5961058821913
 30
0.0
 11
1467.3400529571479
 21
183.5961058821913
 31
0.0
 12
1467.8609974902481
 22
186.55052914119139
 32
0.0
 13
1467.8609974902481
 23
186.55052914119139
 33
0.0
  0
LINE
  5
6FA0
  8
UMCL2
  6
CONTINUOUS
 10
1442.760467556081
 20
186.55052914119139
 30
0.0
 11
1468.8609974902481
 21
186.55052914119139
 31
0.0
  0
POLYLINE
  5
6FA1
  8
UMCL2
  6
CONTINUOUS
 66
     1
 10
0.0
 20
0.0
 30
0.0
 70
     1
  0
VERTEX
  5
78BC
  8
UMCL2
  6
CONTINUOUS
 10
1456.082305919309
 20
159.60274785388469
 30
0.0
  0
VERTEX
  5
78BD
  8
UMCL2
  6
CONTINUOUS
 10
1458.560693102045
 20
159.60274785388469
 30
0.0
  0
VERTEX
  5
78BE
  8
UMCL2
  6
CONTINUOUS
 10
1458.560693102045
 20
157.23562474494031
 30
0.0
  0
VERTEX
  5
78BF
  8
UMCL2
  6
CONTINUOUS
 10
1456.082305919309
 20
157.23562474494031
 30
0.0
  0
SEQEND
  5
78C0
  8
UMCL2
  6
CONTINUOUS
  0
POLYLINE
  5
6FA2
  8
UMCL2
  6
CONTINUOUS
 66
     1
 10
0.0
 20
0.0
 30
0.0
 70
     1
  0
VERTEX
  5
78C1
  8
UMCL2
  6
CONTINUOUS
 10
1464.082305919309
 20
159.60274785388469
 30
0.0
  0
VERTEX
  5
78C2
  8
UMCL2
  6
CONTINUOUS
 10
1466.560693102045
 20
159.60274785388469
 30
0.0
  0
VERTEX
  5
78C3
  8
UMCL2
  6
CONTINUOUS
 10
1466.560693102045
 20
157.23562474494031
 30
0.0
  0
VERTEX
  5
78C4
  8
UMCL2
  6
CONTINUOUS
 10
1464.082305919309
 20
157.23562474494031
 30
0.0
  0
SEQEND
  5
78C5
  8
UMCL2
  6
CONTINUOUS
  0
TEXT
  5
6FA3
  8
UMCL2
  6
CONTINUOUS
 10
1450.8609974902481
 20
158.6827865489156
 30
0.0
 40
3.0
  1
19
 50
90.0
  7
ROMANS
  0
SOLID
  5
6FA4
  8
UMCL2
  6
CONTINUOUS
 10
1452.3819420233481
 20
168.0961058821911
 30
0.0
 11
1451.3400529571479
 21
168.0961058821911
 31
0.0
 12
1451.8609974902481
 22
171.05052914119119
 32
0.0
 13
1451.8609974902481
 23
171.05052914119119
 33
0.0
  0
LINE
  5
6FA5
  8
UMCL2
  6
CONTINUOUS
 10
1449.3609974902481
 20
171.05052914119139
 30
0.0
 11
1453.2029045506299
 21
171.0505291411913
 31
0.0
  0
LINE
  5
6FA6
  8
UMCL2
  6
CONTINUOUS
 10
1451.8609974902481
 20
152.05052914119091
 30
0.0
 11
1451.8609974902481
 21
171.0505291411913
 31
0.0
  0
LINE
  5
6FA7
  8
UMCL2
  6
CONTINUOUS
 10
1459.8609974902481
 20
141.55052914119079
 30
0.0
 11
1459.8609974902481
 21
181.55052914119119
 31
0.0
  0
LINE
  5
6FA8
  8
UMCL2
  6
CONTINUOUS
 10
1467.8609974902481
 20
136.55052914119071
 30
0.0
 11
1467.8609974902481
 21
186.55052914119139
 31
0.0
  0
TEXT
  5
6FA9
  8
UMCL2
  6
CONTINUOUS
 10
1454.8445158668919
 20
129.2870206552478
 30
0.0
 40
3.0
  1
4-%%c5.6
  7
ROMANS
  0
SOLID
  5
6FAA
  8
UMCL2
  6
CONTINUOUS
 10
1443.516223335421
 20
138.12800922441701
 30
0.0
 11
1442.825899039042
 21
137.3476341914388
 31
0.0
 12
1440.9581978191741
 22
139.69533352337839
 32
0.0
 13
1440.9581978191741
 23
139.69533352337839
 33
0.0
  0
LINE
  5
6FAB
  8
UMCL2
  6
CONTINUOUS
 10
1453.8546909274
 20
128.2870206552478
 30
0.0
 11
1440.9581978191741
 21
139.69533352337851
 31
0.0
  0
LINE
  5
6FAC
  8
UMCL2
  6
CONTINUOUS
 10
1453.8546909274
 20
128.2870206552478
 30
0.0
 11
1470.6837589293141
 21
128.2870206552478
 31
0.0
  0
TEXT
  5
6FAD
  8
UMCL2
  6
CONTINUOUS
 10
1452.977733305182
 20
-18.226357246635128
 30
0.0
 40
3.0
  1
22
 50
90.0
  7
ROMANS
  0
SOLID
  5
6FAE
  8
UMCL2
  6
CONTINUOUS
 10
1454.5593250073421
 20
-7.9378144733241811
 30
0.0
 11
1453.5174359411419
 21
-7.9378144733241811
 31
0.0
 12
1454.0383804742421
 22
-4.983391214324171
 32
0.0
 13
1454.0383804742421
 23
-4.983391214324171
 33
0.0
  0
SOLID
  5
6FAF
  8
UMCL2
  6
CONTINUOUS
 10
1453.5174359411419
 20
-24.02896795532433
 30
0.0
 11
1454.5593250073421
 21
-24.02896795532433
 31
0.0
 12
1454.0383804742421
 22
-26.98339121432435
 32
0.0
 13
1454.0383804742421
 23
-26.98339121432435
 33
0.0
  0
LINE
  5
6FB0
  8
UMCL2
  6
CONTINUOUS
 10
1444.0609974902479
 20
-4.983391214324171
 30
0.0
 11
1455.0383804742421
 21
-4.983391214324171
 31
0.0
  0
TEXT
  5
6FB1
  8
UMCL2
  6
CONTINUOUS
 10
1458.8609974902481
 20
9.9729497008736985
 30
0.0
 40
3.0
  1
78
 50
90.0
  7
ROMANS
  0
SOLID
  5
6FB2
  8
UMCL2
  6
CONTINUOUS
 10
1460.3819420233481
 20
48.062185526675421
 30
0.0
 11
1459.3400529571479
 21
48.062185526675421
 31
0.0
 12
1459.8609974902481
 22
51.016608785675537
 32
0.0
 13
1459.8609974902481
 23
51.016608785675537
 33
0.0
  0
SOLID
  5
6FB3
  8
UMCL2
  6
CONTINUOUS
 10
1459.3400529571479
 20
-24.02896795532433
 30
0.0
 11
1460.3819420233481
 21
-24.02896795532433
 31
0.0
 12
1459.8609974902481
 22
-26.98339121432435
 32
0.0
 13
1459.8609974902481
 23
-26.98339121432435
 33
0.0
  0
LINE
  5
6FB4
  8
UMCL2
  6
CONTINUOUS
 10
1439.7069308670709
 20
51.016608785675537
 30
0.0
 11
1460.8609974902481
 21
51.016608785675537
 31
0.0
  0
TEXT
  5
6FB5
  8
UMCL2
  6
CONTINUOUS
 10
1466.8609974902481
 20
22.636418853690479
 30
0.0
 40
3.0
  1
108
 50
90.0
  7
ROMANS
  0
SOLID
  5
6FB6
  8
UMCL2
  6
CONTINUOUS
 10
1468.3819420233481
 20
78.062185526675535
 30
0.0
 11
1467.3400529571479
 21
78.062185526675535
 31
0.0
 12
1467.8609974902481
 22
81.016608785675544
 32
0.0
 13
1467.8609974902481
 23
81.016608785675544
 33
0.0
  0
SOLID
  5
6FB7
  8
UMCL2
  6
CONTINUOUS
 10
1467.3400529571479
 20
-24.02896795532433
 30
0.0
 11
1468.3819420233481
 21
-24.02896795532433
 31
0.0
 12
1467.8609974902481
 22
-26.98339121432435
 32
0.0
 13
1467.8609974902481
 23
-26.98339121432435
 33
0.0
  0
LINE
  5
6FB8
  8
UMCL2
  6
CONTINUOUS
 10
1444.0609974902479
 20
-26.98339121432435
 30
0.0
 11
1477.823103590134
 21
-26.98339121432435
 31
0.0
  0
TEXT
  5
6FB9
  8
UMCL2
  6
CONTINUOUS
 10
1466.8609974902481
 20
87.396063500364562
 30
0.0
 40
3.0
  1
19
 50
90.0
  7
ROMANS
  0
SOLID
  5
6FBA
  8
UMCL2
  6
CONTINUOUS
 10
1468.3819420233481
 20
97.062185526675634
 30
0.0
 11
1467.3400529571479
 21
97.062185526675634
 31
0.0
 12
1467.8609974902481
 22
100.0166087856756
 32
0.0
 13
1467.8609974902481
 23
100.0166087856756
 33
0.0
  0
SOLID
  5
6FBB
  8
UMCL2
  6
CONTINUOUS
 10
1467.3400529571479
 20
83.971032044675553
 30
0.0
 11
1468.3819420233481
 21
83.971032044675553
 31
0.0
 12
1467.8609974902481
 22
81.016608785675544
 32
0.0
 13
1467.8609974902481
 23
81.016608785675544
 33
0.0
  0
LINE
  5
6FBC
  8
UMCL2
  6
CONTINUOUS
 10
1432.007187635417
 20
81.016608785675544
 30
0.0
 11
1468.8609974902481
 21
81.016608785675544
 31
0.0
  0
LINE
  5
6FBD
  8
UMCL2
  6
CONTINUOUS
 10
1432.007187635417
 20
100.0166087856756
 30
0.0
 11
1468.8609974902481
 21
100.0166087856756
 31
0.0
  0
TEXT
  5
6FBE
  8
UMCL2
  6
CONTINUOUS
 10
1474.8609974902481
 20
30.361630358004788
 30
0.0
 40
3.0
  1
129.5
 50
90.0
  7
ROMANS
  0
SOLID
  5
6FBF
  8
UMCL2
  6
CONTINUOUS
 10
1475.3400529571479
 20
-24.02896795532433
 30
0.0
 11
1476.3819420233481
 21
-24.02896795532433
 31
0.0
 12
1475.8609974902481
 22
-26.98339121432435
 32
0.0
 13
1475.8609974902481
 23
-26.98339121432435
 33
0.0
  0
LINE
  5
6FC0
  8
UMCL2
  6
CONTINUOUS
 10
1426.5073710413781
 20
102.5166087856755
 30
0.0
 11
1477.229460313001
 21
102.5166087856756
 31
0.0
  0
SOLID
  5
6FC1
  8
UMCL2
  6
CONTINUOUS
 10
1476.3819420233481
 20
99.562185526675435
 30
0.0
 11
1475.3400529571479
 21
99.562185526675435
 31
0.0
 12
1475.8609974902481
 22
102.5166087856754
 32
0.0
 13
1475.8609974902481
 23
102.5166087856754
 33
0.0
  0
LINE
  5
6FC2
  8
UMCL2
  6
CONTINUOUS
 10
1432.007187635417
 20
55.016608785675537
 30
0.0
 11
1461.173117914065
 21
55.016608785675537
 31
0.0
  0
SOLID
  5
6FC3
  8
UMCL2
  6
CONTINUOUS
 10
1460.3819420233481
 20
78.062185526675421
 30
0.0
 11
1459.3400529571479
 21
78.062185526675421
 31
0.0
 12
1459.8609974902481
 22
81.016608785675317
 32
0.0
 13
1459.8609974902481
 23
81.016608785675317
 33
0.0
  0
LINE
  5
6FC4
  8
UMCL2
  6
CONTINUOUS
 10
1459.8609974902481
 20
55.016608785675537
 30
0.0
 11
1459.8609974902481
 21
81.016608785675544
 31
0.0
  0
SOLID
  5
6FC5
  8
UMCL2
  6
CONTINUOUS
 10
1460.3819420233481
 20
57.971032044675667
 30
0.0
 11
1459.3400529571479
 21
57.971032044675667
 31
0.0
 12
1459.8609974902481
 22
55.016608785675658
 32
0.0
 13
1459.8609974902481
 23
55.016608785675658
 33
0.0
  0
TEXT
  5
6FC6
  8
UMCL2
  6
CONTINUOUS
 10
1458.8609974902481
 20
64.152293492870513
 30
0.0
 40
3.0
  1
26
 50
90.0
  7
ROMANS
  0
LINE
  5
6FC7
  8
UMCL2
  6
CONTINUOUS
 10
1454.0383804742421
 20
-26.98339121432435
 30
0.0
 11
1454.0383804742421
 21
-4.983391214324171
 31
0.0
  0
LINE
  5
6FC8
  8
UMCL2
  6
CONTINUOUS
 10
1459.8609974902481
 20
-26.98339121432435
 30
0.0
 11
1459.8609974902481
 21
51.016608785675537
 31
0.0
  0
LINE
  5
6FC9
  8
UMCL2
  6
CONTINUOUS
 10
1467.8609974902481
 20
-26.98339121432435
 30
0.0
 11
1467.8609974902481
 21
100.0166087856756
 31
0.0
  0
LINE
  5
6FCA
  8
UMCL2
  6
CONTINUOUS
 10
1475.8609974902481
 20
-26.98339121432435
 30
0.0
 11
1475.8609974902481
 21
102.5166087856756
 31
0.0
  0
LINE
  5
6FCB
  8
UMCL2
  6
CONTINUOUS
 10
1328.7368560501759
 20
70.480530157015437
 30
0.0
 11
1350.9922265091709
 21
70.480530157015437
 31
0.0
  0
SOLID
  5
6FCC
  8
UMCL2
  6
CONTINUOUS
 10
1366.0514423818031
 20
79.964753238321464
 30
0.0
 11
1366.580635072351
 21
79.067263448664448
 31
0.0
 12
1368.8609974902481
 22
81.016608785675757
 32
0.0
 13
1368.8609974902481
 23
81.016608785675757
 33
0.0
  0
LINE
  5
6FCD
  8
UMCL2
  6
CONTINUOUS
 10
1350.9922265091709
 20
70.480530157015437
 30
0.0
 11
1368.8609974902481
 21
81.016608785675757
 31
0.0
  0
TEXT
  5
6FCE
  8
UMCL2
  6
CONTINUOUS
 10
1329.101103959593
 20
71.480530157015437
 30
0.0
 40
3.0
  1
M8x1.25P
  7
ROMANS
  0
TEXT
  5
6FCF
  8
UMCL2
  6
CONTINUOUS
 10
1420.9401585451831
 20
21.467546943705141
 30
0.0
 40
3.0
  1
%%c46
  7
ROMANS
  0
SOLID
  5
6FD0
  8
UMCL2
  6
CONTINUOUS
 10
1438.906574231248
 20
19.94660241060518
 30
0.0
 11
1438.906574231248
 21
20.988491476805169
 31
0.0
 12
1441.8609974902481
 22
20.467546943705202
 32
0.0
 13
1441.8609974902481
 23
20.467546943705202
 33
0.0
  0
SOLID
  5
6FD1
  8
UMCL2
  6
CONTINUOUS
 10
1398.815420749248
 20
20.988491476805169
 30
0.0
 11
1398.815420749248
 21
19.94660241060518
 31
0.0
 12
1395.8609974902481
 22
20.467546943705202
 32
0.0
 13
1395.8609974902481
 23
20.467546943705202
 33
0.0
  0
LINE
  5
6FD2
  8
UMCL2
  6
CONTINUOUS
 10
1395.8609974902481
 20
20.467546943705202
 30
0.0
 11
1441.8609974902481
 21
20.467546943705202
 31
0.0
  0
TEXT
  5
6FD3
  8
UMCL2
  6
CONTINUOUS
 10
1391.131640246992
 20
111.28172626549549
 30
0.0
 40
3.0
  1
50
  7
ROMANS
  0
SOLID
  5
6FD4
  8
UMCL2
  6
CONTINUOUS
 10
1371.815420749248
 20
110.8026707985957
 30
0.0
 11
1371.815420749248
 21
109.7607817323958
 31
0.0
 12
1368.8609974902481
 22
110.28172626549571
 32
0.0
 13
1368.8609974902481
 23
110.28172626549571
 33
0.0
  0
SOLID
  5
6FD5
  8
UMCL2
  6
CONTINUOUS
 10
1415.906574231248
 20
109.7607817323956
 30
0.0
 11
1415.906574231248
 21
110.8026707985955
 31
0.0
 12
1418.8609974902481
 22
110.28172626549549
 32
0.0
 13
1418.8609974902481
 23
110.28172626549549
 33
0.0
  0
LINE
  5
6FD6
  8
UMCL2
  6
CONTINUOUS
 10
1418.8609974902481
 20
110.28172626549549
 30
0.0
 11
1360.8609974902481
 21
110.28172626549539
 31
0.0
  0
LINE
  5
6FD7
  8
UMCL2
  6
CONTINUOUS
 10
1418.8609974902481
 20
106.1012177207467
 30
0.0
 11
1418.8609974902481
 21
111.28172626549549
 31
0.0
  0
LINE
  5
6FD8
  8
UMCL2
  6
CONTINUOUS
 10
1368.8609974902481
 20
103.3972957169876
 30
0.0
 11
1368.8609974902481
 21
111.28172626549571
 31
0.0
  0
TEXT
  5
6FD9
  8
UMCL2
  6
CONTINUOUS
 10
1363.8027046026041
 20
111.28172626549571
 30
0.0
 40
3.0
  1
8
  7
ROMANS
  0
SOLID
  5
6FDA
  8
UMCL2
  6
CONTINUOUS
 10
1365.90657423125
 20
109.7607817323959
 30
0.0
 11
1365.90657423125
 21
110.8026707985959
 31
0.0
 12
1368.8609974902499
 22
110.281726265496
 32
0.0
 13
1368.8609974902499
 23
110.281726265496
 33
0.0
  0
TEXT
  5
6FDB
  8
UMCL2
  6
CONTINUOUS
 10
1393.4668792945599
 20
119.28172626549549
 30
0.0
 40
3.0
  1
70
  7
ROMANS
  0
SOLID
  5
6FDC
  8
UMCL2
  6
CONTINUOUS
 10
1427.906574231248
 20
117.7607817323955
 30
0.0
 11
1427.906574231248
 21
118.8026707985955
 31
0.0
 12
1430.8609974902481
 22
118.28172626549539
 32
0.0
 13
1430.8609974902481
 23
118.28172626549539
 33
0.0
  0
SOLID
  5
6FDD
  8
UMCL2
  6
CONTINUOUS
 10
1363.815420749248
 20
118.8026707985957
 30
0.0
 11
1363.815420749248
 21
117.7607817323958
 31
0.0
 12
1360.8609974902481
 22
118.28172626549571
 32
0.0
 13
1360.8609974902481
 23
118.28172626549571
 33
0.0
  0
LINE
  5
6FDE
  8
UMCL2
  6
CONTINUOUS
 10
1360.8609974902481
 20
101.29631152616069
 30
0.0
 11
1360.8609974902481
 21
119.28172626549571
 31
0.0
  0
LINE
  5
6FDF
  8
UMCL2
  6
CONTINUOUS
 10
1430.8609974902481
 20
101.1480402359982
 30
0.0
 11
1430.8609974902481
 21
119.28172626549549
 31
0.0
  0
LINE
  5
6FE0
  8
UMCL2
  6
CONTINUOUS
 10
1360.8609974902481
 20
118.28172626549561
 30
0.0
 11
1430.8609974902481
 21
118.28172626549549
 31
0.0
  0
LINE
  5
6FE1
  8
HIDDEN
 10
1412.3609974902481
 20
100.0166087856756
 30
0.0
 11
1412.3609974902481
 21
93.016608785675643
 31
0.0
  0
LINE
  5
6FE2
  8
HIDDEN
 10
1425.3609974902481
 20
100.0166087856756
 30
0.0
 11
1425.3609974902481
 21
93.016608785675444
 31
0.0
  0
LINE
  5
6FE3
  8
HIDDEN
 10
1410.8609974902481
 20
81.016608785675658
 30
0.0
 11
1411.8109974902479
 21
90.516608785675643
 31
0.0
  0
LINE
  5
6FE4
  8
HIDDEN
 10
1411.860997490249
 20
93.016608785675643
 30
0.0
 11
1425.8609974902481
 21
93.016608785675544
 31
0.0
  0
LINE
  5
6FE5
  8
HIDDEN
 10
1426.8609974902481
 20
81.016608785675658
 30
0.0
 11
1425.9109974902481
 21
90.516608785675544
 31
0.0
  0
LINE
  5
6FE6
  8
HIDDEN
 10
1411.760997490248
 20
90.016608785675658
 30
0.0
 11
1425.960997490248
 21
90.016608785675658
 31
0.0
  0
LINE
  5
6FE7
  8
HIDDEN
 10
1411.8109974902479
 20
90.516608785675643
 30
0.0
 11
1425.9109974902481
 21
90.516608785675544
 31
0.0
  0
LINE
  5
6FE8
  8
UMCL1
 10
1430.8609974902481
 20
81.016608785675544
 30
0.0
 11
1430.8609974902481
 21
100.0166087856756
 31
0.0
  0
LINE
  5
6FE9
  8
HIDDEN
 10
1365.460997490248
 20
100.0166087856759
 30
0.0
 11
1365.460997490248
 21
81.016608785675885
 31
0.0
  0
LINE
  5
6FEA
  8
HIDDEN
 10
1364.8609974902481
 20
100.0166087856759
 30
0.0
 11
1364.8609974902481
 21
81.016608785675885
 31
0.0
  0
LINE
  5
6FEB
  8
HIDDEN
 10
1372.260997490248
 20
100.0166087856759
 30
0.0
 11
1372.260997490248
 21
81.016608785675885
 31
0.0
  0
LINE
  5
6FEC
  8
HIDDEN
 10
1372.8609974902481
 20
100.0166087856759
 30
0.0
 11
1372.8609974902481
 21
81.016608785675885
 31
0.0
  0
LINE
  5
6FED
  8
UMCL1
 10
1360.8609974902481
 20
100.0166087856759
 30
0.0
 11
1360.8609974902481
 21
81.016608785675885
 31
0.0
  0
LINE
  5
6FEE
  8
UMCL1
 10
1360.8609974902481
 20
100.0166087856759
 30
0.0
 11
1430.8609974902481
 21
100.0166087856756
 31
0.0
  0
LINE
  5
6FEF
  8
UMCL1
 10
1360.8609974902481
 20
81.016608785675885
 30
0.0
 11
1430.8609974902481
 21
81.016608785675544
 31
0.0
  0
LINE
  5
6FF0
  8
UMCL1
 10
1394.6609974902481
 20
-26.98339121432435
 30
0.0
 11
1443.0609974902479
 21
-26.98339121432435
 31
0.0
  0
LINE
  5
6FF1
  8
UMCL1
 10
1394.6609974902481
 20
-4.9833912143243424
 30
0.0
 11
1443.0609974902479
 21
-4.983391214324171
 31
0.0
  0
LINE
  5
6FF2
  8
UMCL1
 10
1443.8609974902481
 20
-26.183391214324331
 30
0.0
 11
1443.8609974902481
 21
-5.7833912143241832
 31
0.0
  0
LINE
  5
6FF3
  8
UMCL1
 10
1441.8609974902481
 20
47.01660878567565
 30
0.0
 11
1441.8609974902481
 21
-4.9833912143242847
 31
0.0
  0
LINE
  5
6FF4
  8
UMCL1
 10
1393.8609974902481
 20
-5.7833912143243529
 30
0.0
 11
1393.8609974902481
 21
-26.183391214324331
 31
0.0
  0
LINE
  5
6FF5
  8
UMCL1
 10
1395.8609974902481
 20
47.01660878567565
 30
0.0
 11
1395.8609974902481
 21
-4.9833912143242847
 31
0.0
  0
LINE
  5
6FF6
  8
UMCL1
 10
1437.8609974902481
 20
51.016608785675537
 30
0.0
 11
1399.8609974902481
 21
51.016608785675658
 31
0.0
  0
LINE
  5
6FF7
  8
UMCL1
 10
1412.3609974902481
 20
100.0166087856756
 30
0.0
 11
1412.3609974902481
 21
102.0166087856757
 31
0.0
  0
LINE
  5
6FF8
  8
UMCL1
 10
1412.8609974902481
 20
102.5166087856757
 30
0.0
 11
1424.8609974902481
 21
102.5166087856756
 31
0.0
  0
LINE
  5
6FF9
  8
UMCL1
 10
1425.3609974902481
 20
102.0166087856756
 30
0.0
 11
1425.3609974902481
 21
100.0166087856755
 31
0.0
  0
LINE
  5
6FFA
  8
UMCL1
 10
1412.3609974902481
 20
102.0166087856756
 30
0.0
 11
1425.3609974902481
 21
102.0166087856756
 31
0.0
  0
LINE
  5
6FFB
  8
UMCL1
 10
1412.3609974902481
 20
102.0166087856757
 30
0.0
 11
1412.8609974902481
 21
102.5166087856757
 31
0.0
  0
LINE
  5
6FFC
  8
UMCL1
 10
1424.8609974902481
 20
102.5166087856756
 30
0.0
 11
1425.3609974902481
 21
102.0166087856756
 31
0.0
  0
LINE
  5
6FFD
  8
UMCL1
 10
1410.8609974902481
 20
81.016608785675757
 30
0.0
 11
1410.8609974902481
 21
51.016608785675537
 31
0.0
  0
LINE
  5
6FFE
  8
UMCL1
 10
1426.8609974902481
 20
81.016608785675658
 30
0.0
 11
1426.8609974902481
 21
51.016608785675537
 31
0.0
  0
POLYLINE
  5
6FFF
  8
UMCL1
 66
     1
 10
0.0
 20
0.0
 30
0.0
  0
VERTEX
  5
78C6
  8
UMCL1
 10
1393.8609974902481
 20
152.0505291411913
 30
0.0
  0
VERTEX
  5
78C7
  8
UMCL1
 10
1393.8609974902481
 20
139.6287933522535
 30
0.0
  0
SEQEND
  5
78C8
  8
UMCL1
  0
LINE
  5
7000
  8
UMCL1
 10
1430.8609974902481
 20
152.05052914119119
 30
0.0
 11
1430.8609974902481
 21
171.05052914119119
 31
0.0
  0
LINE
  5
7001
  8
UMCL1
 10
1360.8609974902481
 20
171.05052914119139
 30
0.0
 11
1360.8609974902481
 21
152.05052914119139
 31
0.0
  0
LINE
  5
7002
  8
UMCL1
 10
1360.8609974902481
 20
171.05052914119139
 30
0.0
 11
1430.8609974902481
 21
171.05052914119119
 31
0.0
  0
LINE
  5
7003
  8
UMCL1
 10
1360.8609974902481
 20
152.05052914119139
 30
0.0
 11
1430.8609974902481
 21
152.05052914119119
 31
0.0
  0
CIRCLE
  5
7004
  8
UMCL1
 10
1368.8609974902481
 20
161.5505291411913
 30
0.0
 40
3.399999999999999
  0
CIRCLE
  5
7005
  8
UMCL1
 10
1418.8609974902481
 20
161.55052914119119
 30
0.0
 40
6.5
  0
CIRCLE
  5
7006
  8
UMCL1
 10
1418.8609974902481
 20
161.55052914119119
 30
0.0
 40
6.0
  0
POLYLINE
  5
7007
  8
UMCL1
 66
     1
 10
0.0
 20
0.0
 30
0.0
 70
     1
  0
VERTEX
  5
78C9
  8
UMCL1
 10
1421.8609974902481
 20
159.81847833362221
 30
0.0
  0
VERTEX
  5
78CA
  8
UMCL1
 10
1421.8609974902481
 20
163.2825799487602
 30
0.0
  0
VERTEX
  5
78CB
  8
UMCL1
 10
1418.8609974902481
 20
165.01463075632901
 30
0.0
  0
VERTEX
  5
78CC
  8
UMCL1
 10
1415.8609974902481
 20
163.28257994876
 30
0.0
  0
VERTEX
  5
78CD
  8
UMCL1
 10
1415.8609974902481
 20
159.81847833362221
 30
0.0
  0
VERTEX
  5
78CE
  8
UMCL1
 10
1418.8609974902481
 20
158.0864275260534
 30
0.0
  0
SEQEND
  5
78CF
  8
UMCL1
  0
ARC
  5
7008
  8
UMCL1
 62
     7
 10
1418.8609974902481
 20
161.55052914119139
 30
0.0
 40
23.0
 50
204.39616528275059
 51
155.60383471724941
  0
CIRCLE
  5
7009
  8
UMCL1
 10
1398.8609974902481
 20
181.55052914119139
 30
0.0
 40
2.7999999999999989
  0
CIRCLE
  5
700A
  8
UMCL1
 10
1438.8609974902481
 20
181.55052914119139
 30
0.0
 40
2.7999999999999989
  0
CIRCLE
  5
700B
  8
UMCL1
 10
1438.8609974902481
 20
141.55052914119139
 30
0.0
 40
2.7999999999999989
  0
CIRCLE
  5
700C
  8
UMCL1
 10
1398.8609974902481
 20
141.55052914119139
 30
0.0
 40
2.7999999999999989
  0
LINE
  5
700D
  8
UMCL1
 62
     4
 10
1441.8609974902481
 20
47.01660878567565
 30
0.0
 11
1395.8609974902481
 21
47.01660878567565
 31
0.0
  0
LINE
  5
700E
  8
UMCL1
 10
1393.8609974902481
 20
-5.783391214324296
 30
0.0
 11
1443.8609974902481
 21
-5.783391214324296
 31
0.0
  0
LINE
  5
700F
  8
UMCL1
 10
1393.8609974902481
 20
-26.183391214324271
 30
0.0
 11
1443.8609974902481
 21
-26.183391214324271
 31
0.0
  0
ARC
  5
7010
  8
UMCL1
 10
1437.8609974902481
 20
47.016608785675537
 30
0.0
 40
4.0
 50
0.0
 51
90.0
  0
ARC
  5
7011
  8
UMCL1
 10
1399.8609974902481
 20
47.01660878567565
 30
0.0
 40
4.0
 50
90.0
 51
180.0
  0
LINE
  5
7012
  8
UMCL1
 10
1394.6609974902481
 20
-26.98339121432435
 30
0.0
 11
1393.8609974902481
 21
-26.183391214324331
 31
0.0
  0
LINE
  5
7013
  8
UMCL1
 10
1443.0609974902479
 20
-26.98339121432435
 30
0.0
 11
1443.8609974902481
 21
-26.183391214324331
 31
0.0
  0
LINE
  5
7014
  8
UMCL1
 10
1394.6609974902481
 20
-4.9833912143243424
 30
0.0
 11
1393.8609974902481
 21
-5.7833912143243529
 31
0.0
  0
LINE
  5
7015
  8
UMCL1
 10
1443.0609974902479
 20
-4.983391214324171
 30
0.0
 11
1443.8609974902481
 21
-5.7833912143241832
 31
0.0
  0
POLYLINE
  5
7016
  8
UMCL1
 66
     1
 10
0.0
 20
0.0
 30
0.0
  0
VERTEX
  5
78D0
  8
UMCL1
 10
1440.782733279186
 20
186.55052914119139
 30
0.0
  0
VERTEX
  5
78D1
  8
UMCL1
 10
1396.93926170131
 20
186.55052914119139
 30
0.0
  0
SEQEND
  5
78D2
  8
UMCL1
  0
POLYLINE
  5
7017
  8
UMCL1
 66
     1
 10
0.0
 20
0.0
 30
0.0
  0
VERTEX
  5
78D3
  8
UMCL1
 10
1443.8609974902481
 20
139.6287933522535
 30
0.0
  0
VERTEX
  5
78D4
  8
UMCL1
 10
1443.8609974902481
 20
183.47226493012931
 30
0.0
  0
SEQEND
  5
78D5
  8
UMCL1
  0
ARC
  5
7018
  8
UMCL1
 10
1418.8609974902481
 20
161.55052914119139
 30
0.0
 40
33.25
 50
311.24653336867311
 51
318.75346663132689
  0
POLYLINE
  5
7019
  8
UMCL1
 66
     1
 10
0.0
 20
0.0
 30
0.0
  0
VERTEX
  5
78D6
  8
UMCL1
 10
1396.93926170131
 20
136.55052914119139
 30
0.0
  0
VERTEX
  5
78D7
  8
UMCL1
 10
1440.782733279186
 20
136.55052914119139
 30
0.0
  0
SEQEND
  5
78D8
  8
UMCL1
  0
ARC
  5
701A
  8
UMCL1
 10
1418.8609974902481
 20
161.55052914119139
 30
0.0
 40
33.25
 50
221.24653336867311
 51
228.75346663132689
  0
POLYLINE
  5
701B
  8
UMCL1
 66
     1
 10
0.0
 20
0.0
 30
0.0
  0
VERTEX
  5
78D9
  8
UMCL1
 10
1393.8609974902481
 20
183.47226493012931
 30
0.0
  0
VERTEX
  5
78DA
  8
UMCL1
 10
1393.8609974902481
 20
171.0505291411913
 30
0.0
  0
SEQEND
  5
78DB
  8
UMCL1
  0
ARC
  5
701C
  8
UMCL1
 10
1418.8609974902481
 20
161.55052914119139
 30
0.0
 40
33.25
 50
41.24653336867307
 51
48.753466631326923
  0
ARC
  5
701D
  8
UMCL1
 10
1418.8609974902481
 20
161.55052914119139
 30
0.0
 40
33.25
 50
131.246533368673
 51
138.75346663132689
  0
LINE
  5
701E
  8
CEN
 10
1368.8609974902481
 20
78.843591241816512
 30
0.0
 11
1368.8609974902481
 21
102.1406624401766
 31
0.0
  0
LINE
  5
701F
  8
CEN
 10
1398.8609974902481
 20
147.35052914119129
 30
0.0
 11
1398.8609974902481
 21
135.75052914119129
 31
0.0
  0
LINE
  5
7020
  8
CEN
 10
1404.6609974902481
 20
141.5505291411913
 30
0.0
 11
1393.0609974902479
 21
141.5505291411913
 31
0.0
  0
LINE
  5
7021
  8
CEN
 10
1438.8609974902481
 20
147.35052914119129
 30
0.0
 11
1438.8609974902481
 21
135.75052914119129
 31
0.0
  0
LINE
  5
7022
  8
CEN
 10
1444.6609974902481
 20
141.5505291411913
 30
0.0
 11
1433.0609974902479
 21
141.5505291411913
 31
0.0
  0
LINE
  5
7023
  8
CEN
 10
1398.8609974902481
 20
187.35052914119129
 30
0.0
 11
1398.8609974902481
 21
175.75052914119129
 31
0.0
  0
LINE
  5
7024
  8
CEN
 10
1404.6609974902481
 20
181.55052914119119
 30
0.0
 11
1393.0609974902479
 21
181.55052914119119
 31
0.0
  0
LINE
  5
7025
  8
CEN
 10
1438.8609974902481
 20
187.35052914119129
 30
0.0
 11
1438.8609974902481
 21
175.75052914119129
 31
0.0
  0
LINE
  5
7026
  8
CEN
 10
1444.6609974902481
 20
181.55052914119119
 30
0.0
 11
1433.0609974902479
 21
181.55052914119119
 31
0.0
  0
LINE
  5
7027
  8
CEN
 10
1418.8609974902481
 20
189.83343803171371
 30
0.0
 11
1418.8609974902481
 21
132.56939450368009
 31
0.0
  0
LINE
  5
7028
  8
UMCL1
  6
CENTER
 62
     3
 10
1418.8609974902481
 20
104.97808133007619
 30
0.0
 11
1418.8609974902481
 21
-30.761017041732941
 31
0.0
  0
LINE
  5
7029
  8
CEN
 10
1398.8609974902481
 20
-2.5365857054077301
 30
0.0
 11
1398.8609974902481
 21
-30.157121272567569
 31
0.0
  0
LINE
  5
702A
  8
HIDDEN
 10
1401.6609974902481
 20
-4.9833912143243424
 30
0.0
 11
1401.6609974902481
 21
-26.98339121432435
 31
0.0
  0
LINE
  5
702B
  8
HIDDEN
 10
1396.0609974902479
 20
-4.9833912143243424
 30
0.0
 11
1396.0609974902479
 21
-26.98339121432435
 31
0.0
  0
LINE
  5
702C
  8
CEN
 10
1438.860997490247
 20
-2.5365857054077301
 30
0.0
 11
1438.860997490247
 21
-30.157121272567569
 31
0.0
  0
LINE
  5
702D
  8
HIDDEN
 10
1436.060997490247
 20
-4.9833912143243424
 30
0.0
 11
1436.060997490247
 21
-26.98339121432435
 31
0.0
  0
LINE
  5
702E
  8
HIDDEN
 10
1441.6609974902469
 20
-4.9833912143243424
 30
0.0
 11
1441.6609974902469
 21
-26.98339121432435
 31
0.0
  0
LINE
  5
702F
  8
UMCL1
  6
PHANTOM
 62
     6
 10
1430.8609974902481
 20
55.016608785675537
 30
0.0
 11
1430.8609974902481
 21
74.016608785675643
 31
0.0
  0
LINE
  5
7030
  8
UMCL1
  6
PHANTOM
 62
     6
 10
1360.8609974902481
 20
74.016608785675885
 30
0.0
 11
1360.8609974902481
 21
55.016608785675878
 31
0.0
  0
LINE
  5
7031
  8
UMCL1
  6
PHANTOM
 62
     6
 10
1360.8609974902481
 20
74.016608785675885
 30
0.0
 11
1430.8609974902481
 21
74.016608785675643
 31
0.0
  0
LINE
  5
7032
  8
UMCL1
  6
PHANTOM
 62
     6
 10
1360.8609974902481
 20
55.016608785675878
 30
0.0
 11
1430.8609974902481
 21
55.016608785675537
 31
0.0
  0
ARC
  5
7033
  8
UMCL1
 62
     3
 10
1368.8609974902481
 20
161.5505291411913
 30
0.0
 40
4.0
 50
77.755380639237003
 51
12.66105144964253
  0
SOLID
  5
7034
  8
UMCL2
  6
CONTINUOUS
 10
1363.815420749248
 20
109.7607817323958
 30
0.0
 11
1363.815420749248
 21
110.8026707985957
 31
0.0
 12
1360.8609974902481
 22
110.28172626549571
 32
0.0
 13
1360.8609974902481
 23
110.28172626549571
 33
0.0
  0
SOLID
  5
7035
  8
UMCL2
  6
CONTINUOUS
 10
1460.3819420233481
 20
144.50495240019089
 30
0.0
 11
1459.3400529571479
 21
144.50495240019089
 31
0.0
 12
1459.8609974902481
 22
141.55052914119091
 32
0.0
 13
1459.8609974902481
 23
141.55052914119091
 33
0.0
  0
LINE
  5
7036
  8
UMCL2
  6
CONTINUOUS
 10
1446.157682526386
 20
141.55052914119079
 30
0.0
 11
1460.8609974902481
 21
141.55052914119091
 31
0.0
  0
SOLID
  5
7037
  8
UMCL2
  6
CONTINUOUS
 10
1468.3819420233481
 20
139.50495240019069
 30
0.0
 11
1467.3400529571479
 21
139.50495240019069
 31
0.0
 12
1467.8609974902481
 22
136.55052914119071
 32
0.0
 13
1467.8609974902481
 23
136.55052914119071
 33
0.0
  0
LINE
  5
7038
  8
UMCL2
  6
CONTINUOUS
 10
1442.760467556081
 20
136.55052914119071
 30
0.0
 11
1468.8609974902481
 21
136.55052914119071
 31
0.0
  0
SOLID
  5
7039
  8
UMCL2
  6
CONTINUOUS
 10
1452.3819420233481
 20
155.00495240019109
 30
0.0
 11
1451.3400529571479
 21
155.00495240019109
 31
0.0
 12
1451.8609974902481
 22
152.05052914119091
 32
0.0
 13
1451.8609974902481
 23
152.05052914119091
 33
0.0
  0
LINE
  5
703A
  8
UMCL2
  6
CONTINUOUS
 10
1432.8294676980649
 20
152.05052914119091
 30
0.0
 11
1453.2029045506299
 21
152.05052914119091
 31
0.0
  0
LINE
  5
703B
  8
HIDDEN
 10
1411.860997490249
 20
100.0166087856756
 30
0.0
 11
1411.860997490249
 21
93.016608785675643
 31
0.0
  0
LINE
  5
703C
  8
HIDDEN
 10
1425.8609974902481
 20
100.0166087856756
 30
0.0
 11
1425.8609974902481
 21
93.016608785675544
 31
0.0
  0
LINE
  5
703D
  8
HIDDEN
 10
1414.3609974902481
 20
93.016608785675643
 30
0.0
 11
1414.3609974902481
 21
90.516608785675643
 31
0.0
  0
LINE
  5
703E
  8
HIDDEN
 10
1423.3609974902481
 20
93.016608785675544
 30
0.0
 11
1423.3609974902481
 21
90.516608785675544
 31
0.0
  0
LINE
  5
703F
  8
HIDDEN
 10
1415.460997490248
 20
93.016608785675643
 30
0.0
 11
1415.460997490248
 21
90.016608785675544
 31
0.0
  0
LINE
  5
7040
  8
HIDDEN
 10
1414.8609974902481
 20
93.016608785675643
 30
0.0
 11
1414.8609974902481
 21
90.016608785675544
 31
0.0
  0
LINE
  5
7041
  8
HIDDEN
 10
1422.260997490248
 20
93.016608785675544
 30
0.0
 11
1422.260997490248
 21
90.016608785675544
 31
0.0
  0
LINE
  5
7042
  8
HIDDEN
 10
1422.8609974902481
 20
93.016608785675544
 30
0.0
 11
1422.8609974902481
 21
90.016608785675544
 31
0.0
  0
LINE
  5
7043
  8
UMCL1
 10
1396.93926170131
 20
-5.783391214324296
 30
0.0
 11
1396.93926170131
 21
-26.183391214324271
 31
0.0
  0
LINE
  5
7044
  8
UMCL1
 10
1397.7392617013099
 20
-26.98339121432435
 30
0.0
 11
1396.93926170131
 21
-26.183391214324331
 31
0.0
  0
LINE
  5
7045
  8
UMCL1
 10
1397.7392617013099
 20
-4.9833912143243424
 30
0.0
 11
1396.93926170131
 21
-5.7833912143243529
 31
0.0
  0
LINE
  5
7046
  8
UMCL1
  6
CONTINUOUS
 10
1440.7827332791851
 20
-5.783391214324296
 30
0.0
 11
1440.7827332791851
 21
-26.183391214324271
 31
0.0
  0
LINE
  5
7047
  8
UMCL1
 10
1439.9827332791849
 20
-26.98339121432435
 30
0.0
 11
1440.7827332791851
 21
-26.183391214324331
 31
0.0
  0
LINE
  5
7048
  8
UMCL1
 10
1439.9827332791849
 20
-4.9833912143243424
 30
0.0
 11
1440.7827332791851
 21
-5.7833912143243529
 31
0.0
  0
LINE
  5
7049
  8
HIDDEN
 10
1544.7994104000629
 20
100.0166087856756
 30
0.0
 11
1544.7994104000629
 21
93.016608785675643
 31
0.0
  0
LINE
  5
704A
  8
HIDDEN
 10
1557.799410400062
 20
100.0166087856756
 30
0.0
 11
1557.799410400062
 21
93.016608785675444
 31
0.0
  0
LINE
  5
704B
  8
HIDDEN
 10
1543.2994104000629
 20
81.016608785675658
 30
0.0
 11
1544.249410400063
 21
90.516608785675643
 31
0.0
  0
LINE
  5
704C
  8
HIDDEN
 10
1544.2994104000629
 20
93.016608785675643
 30
0.0
 11
1558.2994104000629
 21
93.016608785675544
 31
0.0
  0
LINE
  5
704D
  8
HIDDEN
 10
1559.2994104000629
 20
81.016608785675658
 30
0.0
 11
1558.3494104000631
 21
90.516608785675544
 31
0.0
  0
LINE
  5
704E
  8
HIDDEN
 10
1544.199410400063
 20
90.016608785675658
 30
0.0
 11
1558.3994104000631
 21
90.016608785675658
 31
0.0
  0
LINE
  5
704F
  8
HIDDEN
 10
1544.249410400063
 20
90.516608785675643
 30
0.0
 11
1558.3494104000631
 21
90.516608785675544
 31
0.0
  0
LINE
  5
7050
  8
UMCL1
 10
1560.7994104000629
 20
81.016608785675544
 30
0.0
 11
1560.7994104000629
 21
100.0166087856755
 31
0.0
  0
LINE
  5
7051
  8
UMCL1
 10
1527.0994104000631
 20
-26.98339121432435
 30
0.0
 11
1575.4994104000621
 21
-26.98339121432435
 31
0.0
  0
LINE
  5
7052
  8
UMCL1
 10
1527.0994104000631
 20
-4.9833912143243424
 30
0.0
 11
1575.4994104000621
 21
-4.983391214324171
 31
0.0
  0
LINE
  5
7053
  8
UMCL1
 10
1576.2994104000629
 20
-26.183391214324331
 30
0.0
 11
1576.2994104000629
 21
-5.7833912143241832
 31
0.0
  0
LINE
  5
7054
  8
UMCL1
 10
1574.2994104000629
 20
47.01660878567565
 30
0.0
 11
1574.2994104000629
 21
-4.9833912143242847
 31
0.0
  0
LINE
  5
7055
  8
UMCL1
 10
1526.2994104000629
 20
-5.7833912143243529
 30
0.0
 11
1526.2994104000629
 21
-26.183391214324331
 31
0.0
  0
LINE
  5
7056
  8
UMCL1
 10
1528.2994104000629
 20
47.01660878567565
 30
0.0
 11
1528.2994104000629
 21
-4.9833912143242847
 31
0.0
  0
LINE
  5
7057
  8
UMCL1
 10
1570.299410400062
 20
51.016608785675537
 30
0.0
 11
1532.2994104000629
 21
51.016608785675658
 31
0.0
  0
LINE
  5
7058
  8
UMCL1
 10
1544.7994104000629
 20
100.0166087856756
 30
0.0
 11
1544.7994104000629
 21
102.0166087856757
 31
0.0
  0
LINE
  5
7059
  8
UMCL1
 10
1545.2994104000629
 20
102.5166087856757
 30
0.0
 11
1557.299410400062
 21
102.5166087856756
 31
0.0
  0
LINE
  5
705A
  8
UMCL1
 10
1557.799410400062
 20
102.0166087856756
 30
0.0
 11
1557.799410400062
 21
100.0166087856755
 31
0.0
  0
LINE
  5
705B
  8
UMCL1
 10
1544.7994104000629
 20
102.0166087856756
 30
0.0
 11
1557.799410400062
 21
102.0166087856756
 31
0.0
  0
LINE
  5
705C
  8
UMCL1
 10
1544.7994104000629
 20
102.0166087856757
 30
0.0
 11
1545.2994104000629
 21
102.5166087856757
 31
0.0
  0
LINE
  5
705D
  8
UMCL1
 10
1557.299410400062
 20
102.5166087856756
 30
0.0
 11
1557.799410400062
 21
102.0166087856756
 31
0.0
  0
LINE
  5
705E
  8
UMCL1
 10
1543.2994104000629
 20
81.016608785675757
 30
0.0
 11
1543.2994104000629
 21
51.016608785675537
 31
0.0
  0
LINE
  5
705F
  8
UMCL1
 10
1559.2994104000629
 20
81.016608785675658
 30
0.0
 11
1559.2994104000629
 21
51.016608785675537
 31
0.0
  0
LINE
  5
7060
  8
UMCL1
 62
     4
 10
1574.2994104000629
 20
47.01660878567565
 30
0.0
 11
1528.2994104000629
 21
47.01660878567565
 31
0.0
  0
LINE
  5
7061
  8
UMCL1
 10
1526.2994104000629
 20
-5.783391214324296
 30
0.0
 11
1576.2994104000629
 21
-5.783391214324296
 31
0.0
  0
LINE
  5
7062
  8
UMCL1
 10
1526.2994104000629
 20
-26.183391214324271
 30
0.0
 11
1576.2994104000629
 21
-26.183391214324271
 31
0.0
  0
ARC
  5
7063
  8
UMCL1
 10
1570.299410400062
 20
47.016608785675537
 30
0.0
 40
4.0
 50
0.0
 51
90.0
  0
ARC
  5
7064
  8
UMCL1
 10
1532.2994104000629
 20
47.01660878567565
 30
0.0
 40
4.0
 50
90.0
 51
180.0
  0
LINE
  5
7065
  8
UMCL1
 10
1527.0994104000631
 20
-26.98339121432435
 30
0.0
 11
1526.2994104000629
 21
-26.183391214324331
 31
0.0
  0
LINE
  5
7066
  8
UMCL1
 10
1575.4994104000621
 20
-26.98339121432435
 30
0.0
 11
1576.2994104000629
 21
-26.183391214324331
 31
0.0
  0
LINE
  5
7067
  8
UMCL1
 10
1527.0994104000631
 20
-4.9833912143243424
 30
0.0
 11
1526.2994104000629
 21
-5.7833912143243529
 31
0.0
  0
LINE
  5
7068
  8
UMCL1
 10
1575.4994104000621
 20
-4.983391214324171
 30
0.0
 11
1576.2994104000629
 21
-5.7833912143241832
 31
0.0
  0
LINE
  5
7069
  8
CEN
 10
1551.2994104000629
 20
104.97808133007619
 30
0.0
 11
1551.2994104000629
 21
-30.761017041732941
 31
0.0
  0
LINE
  5
706A
  8
CEN
 10
1531.2994104000629
 20
-2.5365857054077301
 30
0.0
 11
1531.2994104000629
 21
-30.157121272567569
 31
0.0
  0
LINE
  5
706B
  8
HIDDEN
 10
1534.0994104000631
 20
-4.9833912143243424
 30
0.0
 11
1534.0994104000631
 21
-26.98339121432435
 31
0.0
  0
LINE
  5
706C
  8
HIDDEN
 10
1528.499410400063
 20
-4.9833912143243424
 30
0.0
 11
1528.499410400063
 21
-26.98339121432435
 31
0.0
  0
LINE
  5
706D
  8
CEN
 10
1571.299410400062
 20
-2.5365857054077301
 30
0.0
 11
1571.299410400062
 21
-30.157121272567569
 31
0.0
  0
LINE
  5
706E
  8
HIDDEN
 10
1568.4994104000621
 20
-4.9833912143243424
 30
0.0
 11
1568.4994104000621
 21
-26.98339121432435
 31
0.0
  0
LINE
  5
706F
  8
HIDDEN
 10
1574.099410400062
 20
-4.9833912143243424
 30
0.0
 11
1574.099410400062
 21
-26.98339121432435
 31
0.0
  0
LINE
  5
7070
  8
HIDDEN
 10
1544.2994104000629
 20
100.0166087856756
 30
0.0
 11
1544.2994104000629
 21
93.016608785675643
 31
0.0
  0
LINE
  5
7071
  8
HIDDEN
 10
1558.2994104000629
 20
100.0166087856756
 30
0.0
 11
1558.2994104000629
 21
93.016608785675544
 31
0.0
  0
LINE
  5
7072
  8
HIDDEN
 10
1546.7994104000629
 20
93.016608785675643
 30
0.0
 11
1546.7994104000629
 21
90.516608785675643
 31
0.0
  0
LINE
  5
7073
  8
HIDDEN
 10
1555.7994104000629
 20
93.016608785675544
 30
0.0
 11
1555.7994104000629
 21
90.516608785675544
 31
0.0
  0
LINE
  5
7074
  8
HIDDEN
 10
1547.8994104000631
 20
93.016608785675643
 30
0.0
 11
1547.8994104000631
 21
90.016608785675544
 31
0.0
  0
LINE
  5
7075
  8
HIDDEN
 10
1547.2994104000629
 20
93.016608785675643
 30
0.0
 11
1547.2994104000629
 21
90.016608785675544
 31
0.0
  0
LINE
  5
7076
  8
HIDDEN
 10
1554.699410400063
 20
93.016608785675544
 30
0.0
 11
1554.699410400063
 21
90.016608785675544
 31
0.0
  0
LINE
  5
7077
  8
HIDDEN
 10
1555.2994104000629
 20
93.016608785675544
 30
0.0
 11
1555.2994104000629
 21
90.016608785675544
 31
0.0
  0
LINE
  5
7078
  8
UMCL1
  6
CONTINUOUS
 10
1529.377674611125
 20
-5.783391214324296
 30
0.0
 11
1529.377674611125
 21
-26.183391214324271
 31
0.0
  0
LINE
  5
7079
  8
UMCL1
 10
1530.177674611125
 20
-26.98339121432435
 30
0.0
 11
1529.377674611125
 21
-26.183391214324331
 31
0.0
  0
LINE
  5
707A
  8
UMCL1
 10
1530.177674611125
 20
-4.9833912143243424
 30
0.0
 11
1529.377674611125
 21
-5.7833912143243529
 31
0.0
  0
LINE
  5
707B
  8
UMCL1
  6
CONTINUOUS
 10
1573.2211461889999
 20
-5.783391214324296
 30
0.0
 11
1573.2211461889999
 21
-26.183391214324271
 31
0.0
  0
LINE
  5
707C
  8
UMCL1
 10
1572.421146189
 20
-26.98339121432435
 30
0.0
 11
1573.2211461889999
 21
-26.183391214324331
 31
0.0
  0
LINE
  5
707D
  8
UMCL1
 10
1572.421146189
 20
-4.9833912143243424
 30
0.0
 11
1573.2211461889999
 21
-5.7833912143243529
 31
0.0
  0
LINE
  5
707E
  8
UMCL1
 10
1541.7994104000629
 20
81.016608785675544
 30
0.0
 11
1541.7994104000629
 21
100.0166087856755
 31
0.0
  0
LINE
  5
707F
  8
UMCL1
 10
1541.7994104000629
 20
100.0166087856756
 30
0.0
 11
1560.7994104000629
 21
100.0166087856755
 31
0.0
  0
LINE
  5
7080
  8
UMCL1
 10
1541.7994104000629
 20
81.016608785675658
 30
0.0
 11
1560.7994104000629
 21
81.016608785675544
 31
0.0
  0
TEXT
  5
7081
  8
UMCL1
 10
1612.548106543891
 20
-15.720828054624119
 30
0.0
 40
2.7999999999999989
  1
A
  7
ROMANS
  0
CIRCLE
  5
7082
  8
UMCL1
 10
1613.7514091583951
 20
-14.704887466683999
 30
0.0
 40
2.0
  0
TEXT
  5
7083
  8
UMCL1
 10
1612.630412114464
 20
-20.947700128921841
 30
0.0
 40
2.7999999999999989
  1
B
  7
ROMANS
  0
CIRCLE
  5
7084
  8
UMCL1
 10
1613.7514091583951
 20
-19.704887466683999
 30
0.0
 40
2.0
  0
TEXT
  5
7085
  8
UMCL1
 10
1616.413469761256
 20
-16.104887466683859
 30
0.0
 40
2.7999999999999989
  1
Clamping
  7
ROMANS
  0
TEXT
  5
7086
  8
UMCL1
 10
1616.413469761256
 20
-21.10488746668403
 30
0.0
 40
2.7999999999999989
  1
Unclamping
  7
ROMANS
  0
LINE
  5
7087
  8
UMCL1
 10
1611.7514091583951
 20
-6.9565775944670341
 30
0.0
 11
1616.7513891583951
 21
-6.9565775944670341
 31
0.0
  0
LINE
  5
7088
  8
UMCL1
 10
1611.7514091583939
 20
1.793387405534701
 30
0.0
 11
1611.7514091583951
 21
-6.9565775944670341
 31
0.0
  0
LINE
  5
7089
  8
UMCL1
 10
1616.7513891583951
 20
-6.9565775944670341
 30
0.0
 11
1616.751389158396
 21
1.7933874055347581
 31
0.0
  0
LINE
  5
708A
  8
UMCL1
 10
1613.2097366583939
 20
1.7933874055347581
 30
0.0
 11
1611.7514091583951
 21
1.7933874055329959
 31
0.0
  0
LINE
  5
708B
  8
UMCL1
 10
1616.7513891583951
 20
1.7933874055329959
 30
0.0
 11
1615.2930616583949
 21
1.7933874055329959
 31
0.0
  0
ARC
  5
708C
  8
UMCL1
 10
1614.251399158393
 20
14.94500434048825
 30
0.0
 40
8.1516369349536131
 50
270.0
 51
278.41492958324238
  0
ARC
  5
708D
  8
UMCL1
 10
1614.774622510899
 20
11.408120181930711
 30
0.0
 40
4.576261118670323
 50
278.41492958324238
 51
289.65382405805332
  0
ARC
  5
708E
  8
UMCL1
 10
1615.565176983755
 20
9.1945676579322821
 30
0.0
 40
2.2257736902732459
 50
289.65382405805332
 51
310.7685405508704
  0
ARC
  5
708F
  8
UMCL1
 10
1616.7373964410399
 20
7.835029905534781
 30
0.0
 40
0.4306577173534895
 50
310.76854055081742
 51
359.9999999999805
  0
ARC
  5
7090
  8
UMCL1
 10
1616.7373964410399
 20
7.8350299055346113
 30
0.0
 40
0.4306577173535402
 50
0.0000000000065138
 51
49.231459449147962
  0
ARC
  5
7091
  8
UMCL1
 10
1615.565176983755
 20
6.4754921531363152
 30
0.0
 40
2.2257736902739711
 50
49.231459449131719
 51
70.346175941946697
  0
ARC
  5
7092
  8
UMCL1
 10
1614.7746225108999
 20
4.2619396291395901
 30
0.0
 40
4.5762611186690494
 50
70.346175941946697
 51
81.585070416757588
  0
ARC
  5
7093
  8
UMCL1
 10
1614.251399158393
 20
0.7250554705892114
 30
0.0
 40
8.1516369349453175
 50
81.585070416744244
 51
89.999999999986969
  0
LINE
  5
7094
  8
UMCL1
 10
1611.7514091583971
 20
-1.1232675944669941
 30
0.0
 11
1616.7513891583969
 21
-1.1232675944669941
 31
0.0
  0
LINE
  5
7095
  8
UMCL1
 10
1611.7514091583971
 20
0.5433924055330978
 30
0.0
 11
1616.7513891583969
 21
0.5433924055330978
 31
0.0
  0
LINE
  5
7096
  8
UMCL1
 10
1613.2097366583921
 20
3.4600474055349082
 30
0.0
 11
1613.2097366583921
 21
0.5433924055328135
 31
0.0
  0
LINE
  5
7097
  8
UMCL1
 10
1615.2930616583949
 20
3.4600474055330319
 30
0.0
 11
1615.2930616583949
 21
0.5433924055328135
 31
0.0
  0
SOLID
  5
7098
  8
UMCL1
 10
1614.019869180916
 20
4.773119157226688
 30
0.0
 11
1614.4829291358701
 21
4.773119157226688
 31
0.0
 12
1614.251399158393
 22
3.4600474055349082
 32
0.0
 13
1614.251399158393
 23
3.4600474055349082
 33
0.0
  0
LINE
  5
7099
  8
UMCL1
 10
1618.7513891583951
 20
-6.3315800944668581
 30
0.0
 11
1618.7513891583951
 21
-9.2482350944671907
 31
0.0
  0
LINE
  5
709A
  8
UMCL1
 10
1625.7513891583951
 20
-9.2482350944671907
 30
0.0
 11
1625.7513891583951
 21
-6.3315800944668581
 31
0.0
  0
CIRCLE
  5
709B
  8
UMCL1
 10
1622.2513891583951
 20
-9.2482350944671907
 30
0.0
 40
0.6249935000160002
  0
ARC
  5
709C
  8
UMCL1
 10
1622.2513891583951
 20
-2.3732625944671208
 30
0.0
 40
3.5416524999999162
 50
241.9275130641455
 51
298.0724869358545
  0
ARC
  5
709D
  8
UMCL1
 10
1622.2513891583951
 20
-10.28989759446722
 30
0.0
 40
3.541652500000211
 50
61.927513064145501
 51
118.0724869358545
  0
SOLID
  5
709E
  8
UMCL1
 10
1622.993455739027
 20
-4.2927689204483377
 30
0.0
 11
1622.371603214779
 21
-5.343441330436689
 31
0.0
 12
1622.7944632026861
 22
-5.4973497792967692
 32
0.0
 13
1622.7944632026861
 23
-5.4973497792967692
 33
0.0
  0
LINE
  5
709F
  8
UMCL1
 10
1623.138618896777
 20
-9.2482350944671907
 30
0.0
 11
1622.1819665245721
 21
-8.2915827222640246
 31
0.0
  0
LINE
  5
70A0
  8
UMCL1
 10
1623.1386188967799
 20
-9.2482350944671907
 30
0.0
 11
1622.181966524566
 21
-10.204887466684109
 31
0.0
  0
LINE
  5
70A1
  8
UMCL1
 10
1622.993455739027
 20
-4.2927689204483377
 30
0.0
 11
1621.7963900256691
 21
-7.5816799375022006
 31
0.0
  0
ARC
  5
70A2
  8
UMCL1
 10
1618.7513891583951
 20
-6.3315800944668581
 30
0.0
 40
0.1625000000000227
 50
0.0
 51
180.0
  0
ARC
  5
70A3
  8
UMCL1
 10
1618.7513891583951
 20
-6.3315800944668581
 30
0.0
 40
0.1625000000000227
 50
180.0
 51
0.0
  0
ARC
  5
70A4
  8
UMCL1
 10
1625.7513891583951
 20
-6.3315800944668581
 30
0.0
 40
0.1625000000000227
 50
0.0
 51
180.0
  0
ARC
  5
70A5
  8
UMCL1
 10
1625.7513891583951
 20
-6.3315800944668581
 30
0.0
 40
0.1625000000000227
 50
180.0
 51
0.0
  0
LINE
  5
70A6
  8
UMCL1
 10
1614.251399158393
 20
3.4600474055349082
 30
0.0
 11
1614.251399158393
 21
6.7933674055346946
 31
0.0
  0
TEXT
  5
70A7
  8
UMCL1
 10
1618.1829092521509
 20
0.1683899055346956
 30
0.0
 40
2.7999999999999989
  1
A
  7
ROMANS
  0
LINE
  5
70A8
  8
UMCL1
 10
1627.7513891583951
 20
-6.3315800944671992
 30
0.0
 11
1616.7513891583951
 21
-6.3315800944668581
 31
0.0
  0
LINE
  5
70A9
  8
UMCL1
 10
1616.7513891583981
 20
1.1683899055346949
 30
0.0
 11
1617.751389158396
 21
1.168389905534581
 31
0.0
  0
TEXT
  5
70AA
  8
UMCL1
 10
1628.1829092521509
 20
-7.331580094467312
 30
0.0
 40
2.7999999999999989
  1
B
  7
ROMANS
  0
LINE
  5
70AB
  8
UMCL1
 10
1623.138618896777
 20
-9.2482350944671907
 30
0.0
 11
1625.7513891583951
 21
-9.2482350944671907
 31
0.0
  0
LINE
  5
70AC
  8
UMCL1
 10
1618.7513891583951
 20
-9.2482350944671907
 30
0.0
 11
1621.6263956583789
 21
-9.2482350944671907
 31
0.0
  0
CIRCLE
  5
70AD
  8
HIDDEN
 10
1409.360997490249
 20
171.06091750986141
 30
0.0
 40
2.5
  0
CIRCLE
  5
70AE
  8
HIDDEN
 10
1409.360997490249
 20
171.06091750986141
 30
0.0
 40
5.0
  0
LINE
  5
70AF
  8
CEN
 10
1403.5609974902479
 20
171.06091750986141
 30
0.0
 11
1407.760997490248
 21
171.06091750986141
 31
0.0
  0
LINE
  5
70B0
  8
CEN
 10
1408.5609974902479
 20
171.06091750986141
 30
0.0
 11
1410.1609974902481
 21
171.06091750986141
 31
0.0
  0
LINE
  5
70B1
  8
CEN
 10
1410.960997490248
 20
171.06091750986141
 30
0.0
 11
1415.1609974902481
 21
171.06091750986141
 31
0.0
  0
LINE
  5
70B2
  8
CEN
 10
1409.360997490249
 20
165.26091750986129
 30
0.0
 11
1409.360997490249
 21
169.46091750986139
 31
0.0
  0
LINE
  5
70B3
  8
CEN
 10
1409.360997490249
 20
170.2609175098614
 30
0.0
 11
1409.360997490249
 21
171.86091750986131
 31
0.0
  0
LINE
  5
70B4
  8
CEN
 10
1409.360997490249
 20
172.66091750986129
 30
0.0
 11
1409.360997490249
 21
176.86091750986131
 31
0.0
  0
CIRCLE
  5
70B5
  8
HIDDEN
 10
1428.3609974902481
 20
152.06091750986141
 30
0.0
 40
2.5
  0
CIRCLE
  5
70B6
  8
HIDDEN
 10
1428.3609974902481
 20
152.06091750986141
 30
0.0
 40
5.0
  0
LINE
  5
70B7
  8
CEN
 10
1422.5609974902479
 20
152.06091750986141
 30
0.0
 11
1426.760997490248
 21
152.06091750986141
 31
0.0
  0
LINE
  5
70B8
  8
CEN
 10
1427.5609974902479
 20
152.06091750986141
 30
0.0
 11
1429.1609974902481
 21
152.06091750986141
 31
0.0
  0
LINE
  5
70B9
  8
CEN
 10
1429.960997490248
 20
152.06091750986141
 30
0.0
 11
1434.1609974902481
 21
152.06091750986141
 31
0.0
  0
LINE
  5
70BA
  8
CEN
 10
1428.3609974902481
 20
145.621781007831
 30
0.0
 11
1428.3609974902481
 21
157.86091750986131
 31
0.0
  0
TEXT
  5
70BB
  8
UMCL2
 62
     6
 10
1422.4283651440981
 20
143.0195886214583
 30
0.0
 40
3.0
  1
A
  7
ROMANS
  0
CIRCLE
  5
70BC
  8
UMCL2
 62
     6
 10
1423.8609974902481
 20
144.26668887580149
 30
0.0
 40
2.5
  0
TEXT
  5
70BD
  8
UMCL2
 62
     6
 10
1412.471587178032
 20
177.35956238280241
 30
0.0
 40
3.0
  1
B
  7
ROMANS
  0
CIRCLE
  5
70BE
  8
UMCL2
 62
     6
 10
1413.860997490249
 20
178.8551461439213
 30
0.0
 40
2.5
  0
LINE
  5
70BF
  8
CEN
 10
1418.8609974902481
 20
104.97808133007619
 30
0.0
 11
1418.8609974902481
 21
-30.761017041732941
 31
0.0
  0
LINE
  5
70C0
  8
HIDDEN
 10
1411.8609974902481
 20
-25.583391214324418
 30
0.0
 11
1411.8609974902481
 21
-16.983391214324399
 31
0.0
  0
LINE
  5
70C1
  8
HIDDEN
 10
1406.8609974902481
 20
-25.583391214324418
 30
0.0
 11
1406.8609974902481
 21
-16.983391214324399
 31
0.0
  0
LINE
  5
70C2
  8
HIDDEN
 10
1404.3609974902481
 20
-26.983391214324399
 30
0.0
 11
1404.3609974902481
 21
-25.583391214324418
 31
0.0
  0
LINE
  5
70C3
  8
HIDDEN
 10
1414.3609974902481
 20
-25.583391214324418
 30
0.0
 11
1414.3609974902481
 21
-26.983391214324399
 31
0.0
  0
LINE
  5
70C4
  8
HIDDEN
 10
1404.3609974902481
 20
-25.583391214324418
 30
0.0
 11
1414.3609974902481
 21
-25.583391214324418
 31
0.0
  0
LINE
  5
70C5
  8
HIDDEN
 10
1430.8609974902481
 20
-25.583391214324418
 30
0.0
 11
1430.8609974902481
 21
-16.983391214324399
 31
0.0
  0
LINE
  5
70C6
  8
HIDDEN
 10
1425.8609974902481
 20
-25.583391214324418
 30
0.0
 11
1425.8609974902481
 21
-16.983391214324399
 31
0.0
  0
LINE
  5
70C7
  8
HIDDEN
 10
1423.3609974902481
 20
-26.983391214324399
 30
0.0
 11
1423.3609974902481
 21
-25.583391214324418
 31
0.0
  0
LINE
  5
70C8
  8
HIDDEN
 10
1433.3609974902481
 20
-25.583391214324418
 30
0.0
 11
1433.3609974902481
 21
-26.983391214324399
 31
0.0
  0
LINE
  5
70C9
  8
HIDDEN
 10
1423.3609974902481
 20
-25.583391214324418
 30
0.0
 11
1433.3609974902481
 21
-25.583391214324418
 31
0.0
  0
LINE
  5
70CA
  8
CEN
 10
1409.3609974902481
 20
-14.983391214324399
 30
0.0
 11
1409.3609974902481
 21
-28.483391214324399
 31
0.0
  0
LINE
  5
70CB
  8
CEN
 10
1428.3609974902481
 20
-14.983391214324399
 30
0.0
 11
1428.3609974902481
 21
-28.483391214324289
 31
0.0
  0
LINE
  5
70CC
  8
UMCL2
  6
CONTINUOUS
 10
1409.3609974902481
 20
-13.983391214324399
 30
0.0
 11
1409.3609974902481
 21
-10.215624403890949
 31
0.0
  0
LINE
  5
70CD
  8
UMCL2
  6
CONTINUOUS
 10
1428.3609974902481
 20
-13.983391214324399
 30
0.0
 11
1428.3609974902481
 21
-10.215624403890949
 31
0.0
  0
LINE
  5
70CE
  8
UMCL2
  6
CONTINUOUS
 10
1412.3609974902481
 20
-11.215624403890949
 30
0.0
 11
1425.3609974902481
 21
-11.215624403890949
 31
0.0
  0
TEXT
  5
70CF
  8
UMCL2
  6
CONTINUOUS
 10
1418.63385493234
 20
-10.215624403890949
 30
0.0
 40
3.0
  1
19
  7
ROMANS
  0
SOLID
  5
70D0
  8
UMCL2
  6
CONTINUOUS
 10
1412.3609974902481
 20
-10.715624403890949
 30
0.0
 11
1412.3609974902481
 21
-11.715624403890949
 31
0.0
 12
1409.3609974902481
 22
-11.215624403890949
 32
0.0
 13
1409.3609974902481
 23
-11.215624403890949
 33
0.0
  0
SOLID
  5
70D1
  8
UMCL2
  6
CONTINUOUS
 10
1425.3609974902481
 20
-10.715624403890949
 30
0.0
 11
1425.3609974902481
 21
-11.715624403890949
 31
0.0
 12
1428.3609974902481
 22
-11.215624403890949
 32
0.0
 13
1428.3609974902481
 23
-11.215624403890949
 33
0.0
  0
LINE
  5
70D2
  8
UMCL2
  6
CONTINUOUS
 10
1423.3609974902481
 20
-28.240820439824521
 30
0.0
 11
1423.3609974902481
 21
-35.757800137749662
 31
0.0
  0
LINE
  5
70D3
  8
UMCL2
  6
CONTINUOUS
 10
1433.3609974902481
 20
-28.240820439824521
 30
0.0
 11
1433.3609974902481
 21
-35.757800137749662
 31
0.0
  0
LINE
  5
70D4
  8
UMCL2
  6
CONTINUOUS
 10
1426.3609974902481
 20
-34.757800137749648
 30
0.0
 11
1430.3609974902481
 21
-34.757800137749648
 31
0.0
  0
INSERT
  5
70D5
  8
0
  2
*U153
 10
0.0
 20
0.0
 30
0.0
  0
SOLID
  5
70D6
  8
UMCL2
  6
CONTINUOUS
 10
1426.3609974902481
 20
-34.257800137749662
 30
0.0
 11
1426.3609974902481
 21
-35.257800137749662
 31
0.0
 12
1423.3609974902481
 22
-34.757800137749648
 32
0.0
 13
1423.3609974902481
 23
-34.757800137749648
 33
0.0
  0
SOLID
  5
70D7
  8
UMCL2
  6
CONTINUOUS
 10
1430.3609974902481
 20
-34.257800137749662
 30
0.0
 11
1430.3609974902481
 21
-35.257800137749662
 31
0.0
 12
1433.3609974902481
 22
-34.757800137749648
 32
0.0
 13
1433.3609974902481
 23
-34.757800137749648
 33
0.0
  0
LINE
  5
70D8
  8
UMCL2
  6
CONTINUOUS
 10
1423.3609974902481
 20
-34.757800137749648
 30
0.0
 11
1463.7453058382241
 21
-34.757800137749648
 31
0.0
  0
LINE
  5
70D9
  8
UMCL1
 10
1443.8609974902481
 20
-21.983391214324399
 30
0.0
 11
1443.8609974902481
 21
-11.983391214324399
 31
0.0
  0
ARC
  5
70DA
  8
UMCL1
 10
1440.140111232364
 20
-14.483391214324399
 30
0.0
 40
7.2208862578847546
 50
339.74384199958251
 51
20.256158000417489
  0
ARC
  5
70DB
  8
UMCL1
 10
1440.140111232364
 20
-19.483391214324399
 30
0.0
 40
7.2208862578847546
 50
339.74384199958251
 51
20.256158000417489
  0
ARC
  5
70DC
  8
UMCL1
 10
1451.0818837481329
 20
-14.483391214324399
 30
0.0
 40
7.2208862578847546
 50
159.74384199958249
 51
200.25615800041751
  0
ARC
  5
70DD
  8
UMCL1
 10
1451.0818837481329
 20
-19.483391214324399
 30
0.0
 40
7.2208862578847546
 50
159.74384199958249
 51
200.25615800041751
  0
LINE
  5
70DE
  8
UMCL1
 10
1447.3609974902481
 20
-11.983391214324399
 30
0.0
 11
1447.3609974902481
 21
-21.983391214324399
 31
0.0
  0
LINE
  5
70DF
  8
UMCL1
 10
1443.8609974902481
 20
-11.983391214324399
 30
0.0
 11
1447.3609974902481
 21
-11.983391214324399
 31
0.0
  0
LINE
  5
70E0
  8
UMCL1
 10
1447.3609974902481
 20
-21.983391214324399
 30
0.0
 11
1443.8609974902481
 21
-21.983391214324399
 31
0.0
  0
LINE
  5
70E1
  8
UMCL1
 10
1446.914415502863
 20
-16.983391214324399
 30
0.0
 11
1444.3075794776339
 21
-16.983391214324399
 31
0.0
  0
LINE
  5
70E2
  8
UMCL1
 10
1447.3609974902481
 20
-19.983391214324278
 30
0.0
 11
1448.1109974902481
 21
-19.983391214324278
 31
0.0
  0
LINE
  5
70E3
  8
UMCL1
 10
1447.3609974902481
 20
-13.98339121432428
 30
0.0
 11
1448.1109974902481
 21
-13.98339121432428
 31
0.0
  0
LINE
  5
70E4
  8
UMCL1
 10
1448.3609974902481
 20
-19.733391214324278
 30
0.0
 11
1448.3609974902481
 21
-14.23339121432428
 31
0.0
  0
LINE
  5
70E5
  8
UMCL1
 10
1447.3609974902481
 20
-19.733391214324278
 30
0.0
 11
1448.3609974902481
 21
-19.733391214324278
 31
0.0
  0
LINE
  5
70E6
  8
UMCL1
 10
1447.3609974902481
 20
-14.23339121432428
 30
0.0
 11
1448.3609974902481
 21
-14.23339121432428
 31
0.0
  0
LINE
  5
70E7
  8
UMCL1
 10
1448.1109974902481
 20
-19.983391214324278
 30
0.0
 11
1448.1109974902481
 21
-13.98339121432428
 31
0.0
  0
LINE
  5
70E8
  8
UMCL1
 10
1448.3609974902481
 20
-19.733391214324278
 30
0.0
 11
1448.1109974902481
 21
-19.983391214324278
 31
0.0
  0
LINE
  5
70E9
  8
UMCL1
 10
1448.3609974902481
 20
-14.23339121432428
 30
0.0
 11
1448.1109974902481
 21
-13.98339121432428
 31
0.0
  0
LINE
  5
70EA
  8
CEN
 10
1449.3609974902481
 20
-16.983391214324278
 30
0.0
 11
1433.8609974902481
 21
-16.983391214324278
 31
0.0
  0
ARC
  5
70EB
  8
UMCL1
 10
1437.8075794776321
 20
171.0505291411913
 30
0.0
 40
9.5534180126155714
 50
0.0623033345032386
 51
17.587953773998638
  0
LINE
  5
70EC
  8
UMCL1
 10
1447.3609974902481
 20
176.05052914119139
 30
0.0
 11
1446.914415502863
 21
176.8240318330877
 31
0.0
  0
LINE
  5
70ED
  8
UMCL1
 10
1447.3609974902481
 20
171.06091750986101
 30
0.0
 11
1447.3609974902481
 21
176.05052914119119
 31
0.0
  0
ARC
  5
70EE
  8
UMCL1
 10
1444.8051747418251
 20
175.3806561601134
 30
0.0
 40
2.5558227484229761
 50
325.61575253194678
 51
25.615752531957199
  0
ARC
  5
70EF
  8
UMCL1
 10
1453.4144155028639
 20
171.0505291411913
 30
0.0
 40
9.5534180126155714
 50
162.41204622600131
 51
179.9376966654967
  0
LINE
  5
70F0
  8
UMCL1
 10
1443.8609974902481
 20
176.05052914119139
 30
0.0
 11
1444.307579477633
 21
176.8240318330877
 31
0.0
  0
ARC
  5
70F1
  8
UMCL1
 10
1446.4168202386711
 20
175.3806561601134
 30
0.0
 40
2.5558227484229761
 50
154.38424746804279
 51
214.38424746805319
  0
LINE
  5
70F2
  8
UMCL1
 10
1443.8609974902481
 20
171.0609175098611
 30
0.0
 11
1443.8609974902481
 21
176.05052914119119
 31
0.0
  0
LINE
  5
70F3
  8
UMCL1
 10
1447.3609974902481
 20
174.05052914119139
 30
0.0
 11
1448.1109974902481
 21
174.05052914119139
 31
0.0
  0
LINE
  5
70F4
  8
UMCL1
 10
1448.3609974902481
 20
171.0609175098611
 30
0.0
 11
1448.3609974902481
 21
173.80052914119139
 31
0.0
  0
LINE
  5
70F5
  8
UMCL1
 10
1444.307579477633
 20
176.8240318330877
 30
0.0
 11
1446.914415502863
 21
176.8240318330877
 31
0.0
  0
LINE
  5
70F6
  8
UMCL1
 10
1444.307579477633
 20
173.93728048713919
 30
0.0
 11
1446.914415502863
 21
173.93728048713939
 31
0.0
  0
LINE
  5
70F7
  8
UMCL1
 10
1447.3609974902481
 20
173.80052914119139
 30
0.0
 11
1448.3609974902481
 21
173.80052914119139
 31
0.0
  0
LINE
  5
70F8
  8
UMCL1
 10
1448.1109974902481
 20
171.0609175098611
 30
0.0
 11
1448.1109974902481
 21
174.05052914119139
 31
0.0
  0
LINE
  5
70F9
  8
UMCL1
 10
1448.3609974902481
 20
173.80052914119139
 30
0.0
 11
1448.1109974902481
 21
174.05052914119139
 31
0.0
  0
LINE
  5
70FA
  8
CEN
 10
1449.3609974902481
 20
171.05052914119139
 30
0.0
 11
1433.8609974902481
 21
171.05052914119139
 31
0.0
  0
ARC
  5
70FB
  8
UMCL1
 10
1437.8075794776321
 20
171.05052914119139
 30
0.0
 40
9.5534180126155714
 50
342.41204622600139
 51
359.93769666549031
  0
LINE
  5
70FC
  8
UMCL1
 10
1447.3609974902481
 20
166.05052914119139
 30
0.0
 11
1446.914415502863
 21
165.27702644929499
 31
0.0
  0
LINE
  5
70FD
  8
UMCL1
 10
1447.3609974902481
 20
171.04014077252171
 30
0.0
 11
1447.3609974902481
 21
166.0505291411915
 31
0.0
  0
ARC
  5
70FE
  8
UMCL1
 10
1444.8051747418251
 20
166.72040212226941
 30
0.0
 40
2.5558227484229761
 50
334.38424746804282
 51
34.384247468053132
  0
ARC
  5
70FF
  8
UMCL1
 10
1453.4144155028639
 20
171.05052914119139
 30
0.0
 40
9.5534180126155714
 50
180.06230333450321
 51
197.58795377399861
  0
LINE
  5
7100
  8
UMCL1
 10
1443.8609974902481
 20
166.05052914119139
 30
0.0
 11
1444.307579477633
 21
165.27702644929499
 31
0.0
  0
ARC
  5
7101
  8
UMCL1
 10
1446.4168202386711
 20
166.72040212226921
 30
0.0
 40
2.5558227484229761
 50
145.61575253194681
 51
205.61575253195721
  0
LINE
  5
7102
  8
UMCL1
 10
1443.8609974902481
 20
171.04014077252151
 30
0.0
 11
1443.8609974902481
 21
166.0505291411915
 31
0.0
  0
LINE
  5
7103
  8
UMCL1
 10
1447.3609974902481
 20
168.05052914119139
 30
0.0
 11
1448.1109974902481
 21
168.05052914119139
 31
0.0
  0
LINE
  5
7104
  8
UMCL1
 10
1448.3609974902481
 20
171.04014077252151
 30
0.0
 11
1448.3609974902481
 21
168.30052914119139
 31
0.0
  0
LINE
  5
7105
  8
UMCL1
 10
1444.307579477633
 20
165.27702644929499
 30
0.0
 11
1446.914415502863
 21
165.27702644929499
 31
0.0
  0
LINE
  5
7106
  8
UMCL1
 10
1444.307579477633
 20
168.1637777952435
 30
0.0
 11
1446.914415502863
 21
168.16377779524319
 31
0.0
  0
LINE
  5
7107
  8
UMCL1
 10
1447.3609974902481
 20
168.30052914119139
 30
0.0
 11
1448.3609974902481
 21
168.30052914119139
 31
0.0
  0
LINE
  5
7108
  8
UMCL1
 10
1448.1109974902481
 20
171.04014077252151
 30
0.0
 11
1448.1109974902481
 21
168.05052914119139
 31
0.0
  0
LINE
  5
7109
  8
UMCL1
 10
1448.3609974902481
 20
168.30052914119139
 30
0.0
 11
1448.1109974902481
 21
168.05052914119139
 31
0.0
  0
LINE
  5
710A
  8
HIDDEN
 10
1544.2994104000629
 20
-25.583391214324418
 30
0.0
 11
1544.2994104000629
 21
-16.983391214324399
 31
0.0
  0
LINE
  5
710B
  8
HIDDEN
 10
1539.2994104000629
 20
-25.583391214324418
 30
0.0
 11
1539.2994104000629
 21
-16.983391214324399
 31
0.0
  0
LINE
  5
710C
  8
HIDDEN
 10
1536.7994104000629
 20
-26.983391214324399
 30
0.0
 11
1536.7994104000629
 21
-25.583391214324418
 31
0.0
  0
LINE
  5
710D
  8
HIDDEN
 10
1546.7994104000629
 20
-25.583391214324418
 30
0.0
 11
1546.7994104000629
 21
-26.983391214324399
 31
0.0
  0
LINE
  5
710E
  8
HIDDEN
 10
1536.7994104000629
 20
-25.583391214324418
 30
0.0
 11
1546.7994104000629
 21
-25.583391214324418
 31
0.0
  0
LINE
  5
710F
  8
HIDDEN
 10
1563.2994104000629
 20
-25.583391214324418
 30
0.0
 11
1563.2994104000629
 21
-16.983391214324399
 31
0.0
  0
LINE
  5
7110
  8
HIDDEN
 10
1558.2994104000629
 20
-25.583391214324418
 30
0.0
 11
1558.2994104000629
 21
-16.983391214324399
 31
0.0
  0
LINE
  5
7111
  8
HIDDEN
 10
1555.799410400062
 20
-26.983391214324399
 30
0.0
 11
1555.799410400062
 21
-25.583391214324418
 31
0.0
  0
LINE
  5
7112
  8
HIDDEN
 10
1565.799410400062
 20
-25.583391214324418
 30
0.0
 11
1565.799410400062
 21
-26.983391214324399
 31
0.0
  0
LINE
  5
7113
  8
HIDDEN
 10
1555.799410400062
 20
-25.583391214324418
 30
0.0
 11
1565.799410400062
 21
-25.583391214324418
 31
0.0
  0
CIRCLE
  5
7114
  8
UMCL1
 10
1560.799410400062
 20
-16.983391214324399
 30
0.0
 40
7.0
  0
CIRCLE
  5
7115
  8
UMCL1
 10
1560.799410400062
 20
-16.983391214324399
 30
0.0
 40
5.0
  0
CIRCLE
  5
7116
  8
UMCL1
 10
1560.799410400062
 20
-16.983391214324399
 30
0.0
 40
2.75
  0
CIRCLE
  5
7117
  8
UMCL1
 10
1560.799410400062
 20
-16.983391214324399
 30
0.0
 40
3.0
  0
LINE
  5
7118
  8
UMCL1
 10
1563.6861617460099
 20
-11.983391214324399
 30
0.0
 11
1557.9126590541141
 21
-11.983391214324399
 31
0.0
  0
LINE
  5
7119
  8
UMCL1
 10
1557.9126590541141
 20
-11.983391214324399
 30
0.0
 11
1555.025907708166
 21
-16.983391214324399
 31
0.0
  0
LINE
  5
711A
  8
UMCL1
 10
1555.025907708166
 20
-16.983391214324399
 30
0.0
 11
1557.9126590541141
 21
-21.983391214324399
 31
0.0
  0
LINE
  5
711B
  8
UMCL1
 10
1557.9126590541141
 20
-21.983391214324399
 30
0.0
 11
1563.6861617460099
 21
-21.983391214324399
 31
0.0
  0
LINE
  5
711C
  8
UMCL1
 10
1563.6861617460099
 20
-21.983391214324399
 30
0.0
 11
1566.572913091959
 21
-16.983391214324399
 31
0.0
  0
LINE
  5
711D
  8
UMCL1
 10
1566.572913091959
 20
-16.983391214324399
 30
0.0
 11
1563.6861617460099
 21
-11.983391214324399
 31
0.0
  0
LINE
  5
711E
  8
UMCL1
 10
1561.665435803847
 20
-15.483391214324399
 30
0.0
 11
1559.9333849962779
 21
-15.483391214324399
 31
0.0
  0
LINE
  5
711F
  8
UMCL1
 10
1559.9333849962779
 20
-15.483391214324399
 30
0.0
 11
1559.0673595924941
 21
-16.983391214324399
 31
0.0
  0
LINE
  5
7120
  8
UMCL1
 10
1559.0673595924941
 20
-16.983391214324399
 30
0.0
 11
1559.9333849962779
 21
-18.483391214324399
 31
0.0
  0
LINE
  5
7121
  8
UMCL1
 10
1559.9333849962779
 20
-18.483391214324399
 30
0.0
 11
1561.665435803847
 21
-18.483391214324399
 31
0.0
  0
LINE
  5
7122
  8
UMCL1
 10
1561.665435803847
 20
-18.483391214324399
 30
0.0
 11
1562.531461207632
 21
-16.983391214324399
 31
0.0
  0
LINE
  5
7123
  8
UMCL1
 10
1562.531461207632
 20
-16.983391214324399
 30
0.0
 11
1561.665435803847
 21
-15.483391214324399
 31
0.0
  0
LINE
  5
7124
  8
CEN
 10
1553.2994104000629
 20
-16.983391214324399
 30
0.0
 11
1559.7994104000629
 21
-16.983391214324399
 31
0.0
  0
LINE
  5
7125
  8
CEN
 10
1560.2994104000629
 20
-16.983391214324399
 30
0.0
 11
1561.2994104000629
 21
-16.983391214324399
 31
0.0
  0
LINE
  5
7126
  8
CEN
 10
1561.7994104000629
 20
-16.983391214324399
 30
0.0
 11
1568.2994104000629
 21
-16.983391214324399
 31
0.0
  0
LINE
  5
7127
  8
CEN
 10
1560.799410400062
 20
-17.483391214324399
 30
0.0
 11
1560.799410400062
 21
-16.483391214324399
 31
0.0
  0
LINE
  5
7128
  8
CEN
 10
1560.799410400062
 20
-15.983391214324399
 30
0.0
 11
1560.799410400062
 21
-9.4833912143243992
 31
0.0
  0
LINE
  5
7129
  8
CEN
 10
1560.799410400062
 20
-17.983391214324399
 30
0.0
 11
1560.799410400062
 21
-28.483391214324289
 31
0.0
  0
LINE
  5
712A
  8
CEN
 10
1541.799410400062
 20
-14.983391214324399
 30
0.0
 11
1541.799410400062
 21
-28.483391214324399
 31
0.0
  0
DIMENSION
  5
712B
  8
AM_5
  2
*D70
 10
1560.799410400062
 20
-2.1505651670573789
 30
0.0
 11
1547.269444996886
 21
-2.1505651670573789
 31
0.0
 70
   128
 13
1541.799410400062
 23
-14.983391214324399
 33
0.0
 14
1560.799410400062
 24
-9.4833912143243992
 34
0.0
1001
ACAD
1000
DSTYLE
1002
{
1070
    40
1040
1.0
1070
   144
1040
1.0
1070
   272
1070
     8
1002
}
  0
TEXT
  5
712E
  8
0
 10
1294.083427509657
 20
213.53962694541599
 30
0.0
 40
9.6000000000000014
  1
MTAS-32-FC
 72
     1
 11
1330.5634275096579
 21
218.339626945416
 31
0.0
 73
     2
  0
TEXT
  5
712F
  8
0
 10
878.62134706049551
 20
-117.2224710822157
 30
0.0
 40
9.6000000000000014
  1
MTASL-32
 72
     1
 11
908.66963052506242
 21
-112.42247108221569
 31
0.0
 73
     2
  0
TEXT
  5
7130
  8
UMCL2
 10
953.95360420644647
 20
-141.16441697510601
 30
0.0
 40
4.0
  1
CW
  7
ROMANS
  0
TEXT
  5
7131
  8
UMCL2
 10
949.06798903554989
 20
-174.22736595950281
 30
0.0
 40
4.0
  1
CCW
  7
ROMANS
  0
POLYLINE
  5
7132
  8
UMCL2
 66
     1
 10
0.0
 20
0.0
 30
0.0
 70
     7
  0
VERTEX
  5
7133
  8
UMCL2
 10
962.59008511741422
 20
-143.13893221533601
 30
0.0
 42
-0.0185322085214218
  0
VERTEX
  5
7134
  8
UMCL2
 10
964.61925818729378
 20
-138.7378329756549
 30
0.0
  0
VERTEX
  5
7135
  8
UMCL2
 10
964.08406578269376
 20
-138.46659675008971
 30
0.0
  0
VERTEX
  5
7136
  8
UMCL2
 10
966.70655056602754
 20
-136.43239911124061
 30
0.0
  0
VERTEX
  5
7137
  8
UMCL2
 10
966.49243160339302
 20
-139.68715976513289
 30
0.0
  0
VERTEX
  5
7138
  8
UMCL2
 10
965.95723919879299
 20
-139.41592353956759
 30
0.0
 42
0.018532208521422
  0
VERTEX
  5
7139
  8
UMCL2
 10
963.97460679565347
 20
-143.71608013613749
 30
0.0
  0
SEQEND
  5
713A
  8
UMCL2
  0
POLYLINE
  5
713B
  8
UMCL2
 66
     1
 10
0.0
 20
0.0
 30
0.0
 70
     7
  0
VERTEX
  5
713C
  8
UMCL2
 10
962.59008511741365
 20
-169.2932280569382
 30
0.0
 42
0.0185322085214218
  0
VERTEX
  5
713D
  8
UMCL2
 10
964.61925818729333
 20
-173.69432729661929
 30
0.0
  0
VERTEX
  5
713E
  8
UMCL2
 10
964.08406578269353
 20
-173.96556352218451
 30
0.0
  0
VERTEX
  5
713F
  8
UMCL2
 10
966.70655056602664
 20
-175.99976116103369
 30
0.0
  0
VERTEX
  5
7140
  8
UMCL2
 10
966.49243160339211
 20
-172.74500050714121
 30
0.0
  0
VERTEX
  5
7141
  8
UMCL2
 10
965.95723919879208
 20
-173.0162367327066
 30
0.0
 42
-0.018532208521422
  0
VERTEX
  5
7142
  8
UMCL2
 10
963.9746067956529
 20
-168.71608013613741
 30
0.0
  0
SEQEND
  5
7143
  8
UMCL2
  0
LINE
  5
7144
  8
UMCL1
  6
CENTER
 62
     1
 10
1050.2575156861751
 20
-156.21608013613761
 30
0.0
 11
961.41482141373399
 21
-156.21608013613701
 31
0.0
  0
LINE
  5
7145
  8
UMCL1
  6
CENTER
 62
     1
 10
971.9746067956529
 20
-162.61608013613741
 30
0.0
 11
971.9746067956529
 21
-149.8160801361374
 31
0.0
  0
TEXT
  5
7146
  8
UMCL2
 62
     5
 10
1061.974606795653
 20
-157.76946152329779
 30
0.0
 40
3.0
  1
40
 50
90.0
  7
ROMANS
  0
SOLID
  5
7147
  8
UMCL2
 62
     5
 10
1063.495551328753
 20
-139.17050339513739
 30
0.0
 11
1062.4536622625531
 21
-139.17050339513739
 31
0.0
 12
1062.974606795653
 22
-136.21608013613741
 32
0.0
 13
1062.974606795653
 23
-136.21608013613741
 33
0.0
  0
LINE
  5
7148
  8
UMCL2
 62
     5
 10
1049.2712918317909
 20
-136.21608013613729
 30
0.0
 11
1063.974606795653
 21
-136.21608013613741
 31
0.0
  0
TEXT
  5
7149
  8
UMCL2
 62
     5
 10
1069.974606795653
 20
-157.75506322618889
 30
0.0
 40
3.0
  1
50
 50
90.0
  7
ROMANS
  0
SOLID
  5
714A
  8
UMCL2
 62
     5
 10
1071.495551328753
 20
-134.1705033951373
 30
0.0
 11
1070.4536622625531
 21
-134.1705033951373
 31
0.0
 12
1070.974606795653
 22
-131.21608013613729
 32
0.0
 13
1070.974606795653
 23
-131.21608013613729
 33
0.0
  0
LINE
  5
714B
  8
UMCL2
 62
     5
 10
1045.8740768614859
 20
-131.21608013613729
 30
0.0
 11
1071.974606795653
 21
-131.21608013613729
 31
0.0
  0
POLYLINE
  5
714C
  8
UMCL2
 62
     5
 66
     1
 10
0.0
 20
0.0
 30
0.0
 70
     1
  0
VERTEX
  5
78E0
  8
UMCL2
 62
     5
 10
1059.1959152247141
 20
-158.1638614234439
 30
0.0
  0
VERTEX
  5
78E1
  8
UMCL2
 62
     5
 10
1061.6743024074501
 20
-158.1638614234439
 30
0.0
  0
VERTEX
  5
78E2
  8
UMCL2
 62
     5
 10
1061.6743024074501
 20
-160.5309845323884
 30
0.0
  0
VERTEX
  5
78E3
  8
UMCL2
 62
     5
 10
1059.1959152247141
 20
-160.5309845323884
 30
0.0
  0
SEQEND
  5
78E4
  8
UMCL2
 62
     5
  0
POLYLINE
  5
714D
  8
UMCL2
 62
     5
 66
     1
 10
0.0
 20
0.0
 30
0.0
 70
     1
  0
VERTEX
  5
78E5
  8
UMCL2
 62
     5
 10
1067.1959152247141
 20
-158.1638614234439
 30
0.0
  0
VERTEX
  5
78E6
  8
UMCL2
 62
     5
 10
1069.6743024074501
 20
-158.1638614234439
 30
0.0
  0
VERTEX
  5
78E7
  8
UMCL2
 62
     5
 10
1069.6743024074501
 20
-160.5309845323884
 30
0.0
  0
VERTEX
  5
78E8
  8
UMCL2
 62
     5
 10
1067.1959152247141
 20
-160.5309845323884
 30
0.0
  0
SEQEND
  5
78E9
  8
UMCL2
 62
     5
  0
TEXT
  5
714E
  8
UMCL2
 62
     5
 10
1053.974606795653
 20
-159.08382272841311
 30
0.0
 40
3.0
  1
19
 50
90.0
  7
ROMANS
  0
SOLID
  5
714F
  8
UMCL2
 62
     5
 10
1055.495551328753
 20
-149.6705033951375
 30
0.0
 11
1054.4536622625531
 21
-149.6705033951375
 31
0.0
 12
1054.974606795653
 22
-146.71608013613749
 32
0.0
 13
1054.974606795653
 23
-146.71608013613749
 33
0.0
  0
LINE
  5
7150
  8
UMCL2
 62
     5
 10
1035.9430770034701
 20
-146.71608013613741
 30
0.0
 11
1056.316513856035
 21
-146.71608013613741
 31
0.0
  0
LINE
  5
7151
  8
UMCL2
 62
     5
 10
1054.974606795653
 20
-165.71608013613769
 30
0.0
 11
1054.974606795653
 21
-146.71608013613741
 31
0.0
  0
LINE
  5
7152
  8
UMCL2
 62
     5
 10
1062.974606795653
 20
-176.21608013613769
 30
0.0
 11
1062.974606795653
 21
-136.21608013613741
 31
0.0
  0
LINE
  5
7153
  8
UMCL2
 62
     5
 10
1070.974606795653
 20
-181.2160801361378
 30
0.0
 11
1070.974606795653
 21
-131.21608013613729
 31
0.0
  0
TEXT
  5
7154
  8
UMCL2
 62
     5
 10
1057.9581251722971
 20
-188.47958862208071
 30
0.0
 40
3.0
  1
4-%%c5.6
  7
ROMANS
  0
SOLID
  5
7155
  8
UMCL2
 62
     5
 10
1046.629832640826
 20
-179.6386000529115
 30
0.0
 11
1045.9395083444469
 21
-180.41897508588971
 31
0.0
 12
1044.071807124579
 22
-178.07127575395009
 32
0.0
 13
1044.071807124579
 23
-178.07127575395009
 33
0.0
  0
LINE
  5
7156
  8
UMCL2
 62
     5
 10
1056.968300232804
 20
-189.47958862208071
 30
0.0
 11
1044.071807124579
 21
-178.07127575395009
 31
0.0
  0
LINE
  5
7157
  8
UMCL2
 62
     5
 10
1056.968300232804
 20
-189.47958862208071
 30
0.0
 11
1073.797368234719
 21
-189.47958862208071
 31
0.0
  0
TEXT
  5
7158
  8
UMCL2
 62
     5
 10
1053.974606795653
 20
-363.96895879064039
 30
0.0
 40
3.0
  1
28
 50
90.0
  7
ROMANS
  0
SOLID
  5
7159
  8
UMCL2
 62
     5
 10
1055.495551328753
 20
-349.70442375065278
 30
0.0
 11
1054.4536622625531
 21
-349.70442375065278
 31
0.0
 12
1054.974606795653
 22
-346.75000049165283
 32
0.0
 13
1054.974606795653
 23
-346.75000049165283
 33
0.0
  0
SOLID
  5
715A
  8
UMCL2
 62
     5
 10
1054.4536622625531
 20
-371.79557723265299
 30
0.0
 11
1055.495551328753
 21
-371.79557723265299
 31
0.0
 12
1054.974606795653
 22
-374.750000491653
 32
0.0
 13
1054.974606795653
 23
-374.750000491653
 33
0.0
  0
LINE
  5
715B
  8
UMCL2
 62
     5
 10
1047.1746067956531
 20
-346.75000049165283
 30
0.0
 11
1055.974606795653
 21
-346.75000049165283
 31
0.0
  0
TEXT
  5
715C
  8
UMCL2
 62
     5
 10
1061.974606795653
 20
-322.79365957645501
 30
0.0
 40
3.0
  1
93
 50
90.0
  7
ROMANS
  0
SOLID
  5
715D
  8
UMCL2
 62
     5
 10
1063.495551328753
 20
-284.70442375065312
 30
0.0
 11
1062.4536622625531
 21
-284.70442375065312
 31
0.0
 12
1062.974606795653
 22
-281.75000049165311
 32
0.0
 13
1062.974606795653
 23
-281.75000049165311
 33
0.0
  0
SOLID
  5
715E
  8
UMCL2
 62
     5
 10
1062.4536622625531
 20
-371.79557723265299
 30
0.0
 11
1063.495551328753
 21
-371.79557723265299
 31
0.0
 12
1062.974606795653
 22
-374.750000491653
 32
0.0
 13
1062.974606795653
 23
-374.750000491653
 33
0.0
  0
LINE
  5
715F
  8
UMCL2
 62
     5
 10
1042.8205401724761
 20
-281.75000049165311
 30
0.0
 11
1063.974606795653
 21
-281.75000049165311
 31
0.0
  0
TEXT
  5
7160
  8
UMCL2
 62
     5
 10
1069.974606795653
 20
-310.13019042363823
 30
0.0
 40
3.0
  1
138
 50
90.0
  7
ROMANS
  0
SOLID
  5
7161
  8
UMCL2
 62
     5
 10
1071.495551328753
 20
-239.70442375065309
 30
0.0
 11
1070.4536622625531
 21
-239.70442375065309
 31
0.0
 12
1070.974606795653
 22
-236.750000491653
 32
0.0
 13
1070.974606795653
 23
-236.750000491653
 33
0.0
  0
SOLID
  5
7162
  8
UMCL2
 62
     5
 10
1070.4536622625531
 20
-371.79557723265299
 30
0.0
 11
1071.495551328753
 21
-371.79557723265299
 31
0.0
 12
1070.974606795653
 22
-374.750000491653
 32
0.0
 13
1070.974606795653
 23
-374.750000491653
 33
0.0
  0
LINE
  5
7163
  8
UMCL2
 62
     5
 10
1047.1746067956531
 20
-374.750000491653
 30
0.0
 11
1080.9367128955389
 21
-374.750000491653
 31
0.0
  0
TEXT
  5
7164
  8
UMCL2
 62
     5
 10
1069.974606795653
 20
-230.37054577696409
 30
0.0
 40
3.0
  1
19
 50
90.0
  7
ROMANS
  0
SOLID
  5
7165
  8
UMCL2
 62
     5
 10
1071.495551328753
 20
-220.70442375065289
 30
0.0
 11
1070.4536622625531
 21
-220.70442375065289
 31
0.0
 12
1070.974606795653
 22
-217.750000491653
 32
0.0
 13
1070.974606795653
 23
-217.750000491653
 33
0.0
  0
SOLID
  5
7166
  8
UMCL2
 62
     5
 10
1070.4536622625531
 20
-233.79557723265299
 30
0.0
 11
1071.495551328753
 21
-233.79557723265299
 31
0.0
 12
1070.974606795653
 22
-236.750000491653
 32
0.0
 13
1070.974606795653
 23
-236.750000491653
 33
0.0
  0
LINE
  5
7167
  8
UMCL2
 62
     5
 10
1035.1207969408219
 20
-236.750000491653
 30
0.0
 11
1071.974606795653
 21
-236.750000491653
 31
0.0
  0
LINE
  5
7168
  8
UMCL2
 62
     5
 10
1035.120796940821
 20
-217.750000491653
 30
0.0
 11
1071.974606795653
 21
-217.750000491653
 31
0.0
  0
TEXT
  5
7169
  8
UMCL2
 62
     5
 10
1077.974606795653
 20
-302.40497891932381
 30
0.0
 40
3.0
  1
159.5
 50
90.0
  7
ROMANS
  0
SOLID
  5
716A
  8
UMCL2
 62
     5
 10
1078.4536622625531
 20
-371.79557723265299
 30
0.0
 11
1079.495551328753
 21
-371.79557723265299
 31
0.0
 12
1078.974606795653
 22
-374.750000491653
 32
0.0
 13
1078.974606795653
 23
-374.750000491653
 33
0.0
  0
LINE
  5
716B
  8
UMCL2
 62
     5
 10
1029.620980346783
 20
-215.25000049165311
 30
0.0
 11
1080.3430696184059
 21
-215.250000491653
 31
0.0
  0
SOLID
  5
716C
  8
UMCL2
 62
     5
 10
1079.495551328753
 20
-218.20442375065321
 30
0.0
 11
1078.4536622625531
 21
-218.20442375065321
 31
0.0
 12
1078.974606795653
 22
-215.2500004916532
 32
0.0
 13
1078.974606795653
 23
-215.2500004916532
 33
0.0
  0
LINE
  5
716D
  8
UMCL2
 62
     5
 10
1035.1207969408219
 20
-277.75000049165311
 30
0.0
 11
1064.286727219471
 21
-277.75000049165311
 31
0.0
  0
SOLID
  5
716E
  8
UMCL2
 62
     5
 10
1063.495551328753
 20
-239.70442375065329
 30
0.0
 11
1062.4536622625531
 21
-239.70442375065329
 31
0.0
 12
1062.974606795653
 22
-236.75000049165331
 32
0.0
 13
1062.974606795653
 23
-236.75000049165331
 33
0.0
  0
LINE
  5
716F
  8
UMCL2
 62
     5
 10
1062.974606795653
 20
-277.75000049165311
 30
0.0
 11
1062.974606795653
 21
-236.750000491653
 31
0.0
  0
SOLID
  5
7170
  8
UMCL2
 62
     5
 10
1063.495551328753
 20
-274.79557723265287
 30
0.0
 11
1062.4536622625531
 21
-274.79557723265287
 31
0.0
 12
1062.974606795653
 22
-277.75000049165288
 32
0.0
 13
1062.974606795653
 23
-277.75000049165288
 33
0.0
  0
TEXT
  5
7171
  8
UMCL2
 62
     5
 10
1061.974606795653
 20
-260.50262459243498
 30
0.0
 40
3.0
  1
41
 50
90.0
  7
ROMANS
  0
LINE
  5
7172
  8
UMCL2
 62
     5
 10
1054.974606795653
 20
-374.750000491653
 30
0.0
 11
1054.974606795653
 21
-346.75000049165283
 31
0.0
  0
LINE
  5
7173
  8
UMCL2
 62
     5
 10
1062.974606795653
 20
-374.750000491653
 30
0.0
 11
1062.974606795653
 21
-281.75000049165311
 31
0.0
  0
LINE
  5
7174
  8
UMCL2
 62
     5
 10
1070.974606795653
 20
-374.750000491653
 30
0.0
 11
1070.974606795653
 21
-217.750000491653
 31
0.0
  0
LINE
  5
7175
  8
UMCL2
 62
     5
 10
1078.974606795653
 20
-374.750000491653
 30
0.0
 11
1078.974606795653
 21
-215.250000491653
 31
0.0
  0
LINE
  5
7176
  8
UMCL1
  6
CENTER
 62
     1
 10
1029.974606795653
 20
-292.75000049165322
 30
0.0
 11
1013.974606795653
 21
-292.75000049165322
 31
0.0
  0
LINE
  5
7177
  8
UMCL2
 62
     5
 10
931.85046535558138
 20
-247.28607912031319
 30
0.0
 11
954.10583581457593
 21
-247.2860791203133
 31
0.0
  0
SOLID
  5
7178
  8
UMCL2
 62
     5
 10
969.16505168720869
 20
-237.80185603900711
 30
0.0
 11
969.69424437775558
 21
-238.69934582866409
 31
0.0
 12
971.9746067956529
 22
-236.7500004916528
 32
0.0
 13
971.9746067956529
 23
-236.7500004916528
 33
0.0
  0
LINE
  5
7179
  8
UMCL2
 62
     5
 10
954.10583581457593
 20
-247.2860791203133
 30
0.0
 11
971.9746067956529
 21
-236.7500004916528
 31
0.0
  0
TEXT
  5
717A
  8
UMCL2
 62
     5
 10
932.21471326499795
 20
-246.28607912031319
 30
0.0
 40
3.0
  1
M8x1.25P
  7
ROMANS
  0
LINE
  5
717B
  8
UMCL2
 62
     5
 10
964.46397328179819
 20
-308.83410958696038
 30
0.0
 11
988.78939606115193
 21
-308.83410958696038
 31
0.0
  0
SOLID
  5
717C
  8
UMCL2
 62
     5
 10
1015.04383200937
 20
-296.6880956468911
 30
0.0
 11
1014.589413578324
 21
-295.75052606771658
 31
0.0
 12
1017.475233447807
 22
-294.9307433643217
 32
0.0
 13
1017.475233447807
 23
-294.9307433643217
 33
0.0
  0
TEXT
  5
717D
  8
UMCL2
 62
     5
 10
964.38046509498599
 20
-307.83410958696038
 30
0.0
 40
3.0
  1
2-PT 1/8
  7
ROMANS
  0
TEXT
  5
717E
  8
UMCL2
 62
     5
 10
1024.053767850588
 20
-311.29906233362351
 30
0.0
 40
3.0
  1
%%c46
  7
ROMANS
  0
SOLID
  5
717F
  8
UMCL2
 62
     5
 10
1042.0201835366529
 20
-312.82000686672347
 30
0.0
 11
1042.0201835366529
 21
-311.77811780052338
 31
0.0
 12
1044.974606795653
 22
-312.29906233362351
 32
0.0
 13
1044.974606795653
 23
-312.29906233362351
 33
0.0
  0
SOLID
  5
7180
  8
UMCL2
 62
     5
 10
1001.929030054653
 20
-311.77811780052338
 30
0.0
 11
1001.929030054653
 21
-312.82000686672347
 31
0.0
 12
998.9746067956529
 22
-312.29906233362351
 32
0.0
 13
998.9746067956529
 23
-312.29906233362351
 33
0.0
  0
LINE
  5
7181
  8
UMCL2
 62
     5
 10
998.9746067956529
 20
-312.29906233362351
 30
0.0
 11
1044.974606795653
 21
-312.29906233362351
 31
0.0
  0
TEXT
  5
7182
  8
UMCL2
 62
     5
 10
994.24524955239713
 20
-206.48488301183301
 30
0.0
 40
3.0
  1
50
  7
ROMANS
  0
SOLID
  5
7183
  8
UMCL2
 62
     5
 10
974.92903005465314
 20
-206.9639384787329
 30
0.0
 11
974.92903005465314
 21
-208.0058275449328
 31
0.0
 12
971.9746067956529
 22
-207.48488301183289
 32
0.0
 13
971.9746067956529
 23
-207.48488301183289
 33
0.0
  0
SOLID
  5
7184
  8
UMCL2
 62
     5
 10
1019.020183536653
 20
-208.005827544933
 30
0.0
 11
1019.020183536653
 21
-206.9639384787331
 31
0.0
 12
1021.974606795653
 22
-207.48488301183309
 32
0.0
 13
1021.974606795653
 23
-207.48488301183309
 33
0.0
  0
LINE
  5
7185
  8
UMCL2
 62
     5
 10
1021.974606795653
 20
-207.48488301183309
 30
0.0
 11
963.97460679565347
 21
-207.4848830118332
 31
0.0
  0
LINE
  5
7186
  8
UMCL2
 62
     5
 10
1021.974606795653
 20
-211.66539155658191
 30
0.0
 11
1021.974606795653
 21
-206.48488301183301
 31
0.0
  0
LINE
  5
7187
  8
UMCL2
 62
     5
 10
971.9746067956529
 20
-214.36931356034091
 30
0.0
 11
971.9746067956529
 21
-206.48488301183289
 31
0.0
  0
TEXT
  5
7188
  8
UMCL2
 62
     5
 10
966.91631390800922
 20
-206.48488301183289
 30
0.0
 40
3.0
  1
8
  7
ROMANS
  0
SOLID
  5
7189
  8
UMCL2
 62
     5
 10
969.02018353665471
 20
-208.00582754493271
 30
0.0
 11
969.02018353665471
 21
-206.96393847873259
 31
0.0
 12
971.97460679565472
 22
-207.48488301183261
 32
0.0
 13
971.97460679565472
 23
-207.48488301183261
 33
0.0
  0
TEXT
  5
718A
  8
UMCL2
 62
     5
 10
996.58048859996563
 20
-198.48488301183301
 30
0.0
 40
3.0
  1
70
  7
ROMANS
  0
SOLID
  5
718B
  8
UMCL2
 62
     5
 10
1031.0201835366529
 20
-200.00582754493311
 30
0.0
 11
1031.0201835366529
 21
-198.9639384787331
 31
0.0
 12
1033.974606795653
 22
-199.48488301183309
 32
0.0
 13
1033.974606795653
 23
-199.48488301183309
 33
0.0
  0
SOLID
  5
718C
  8
UMCL2
 62
     5
 10
966.92903005465348
 20
-198.9639384787329
 30
0.0
 11
966.92903005465348
 21
-200.00582754493291
 31
0.0
 12
963.97460679565347
 22
-199.48488301183289
 32
0.0
 13
963.97460679565347
 23
-199.48488301183289
 33
0.0
  0
LINE
  5
718D
  8
UMCL2
 62
     5
 10
963.97460679565347
 20
-216.47029775116781
 30
0.0
 11
963.97460679565347
 21
-198.48488301183289
 31
0.0
  0
LINE
  5
718E
  8
UMCL2
 62
     5
 10
1033.974606795653
 20
-216.61856904133029
 30
0.0
 11
1033.974606795653
 21
-198.48488301183309
 31
0.0
  0
LINE
  5
718F
  8
UMCL2
 62
     5
 10
963.97460679565347
 20
-199.48488301183301
 30
0.0
 11
1033.974606795653
 21
-199.48488301183301
 31
0.0
  0
LINE
  5
7190
  8
HIDDEN
 10
1015.474606795653
 20
-217.750000491653
 30
0.0
 11
1015.474606795653
 21
-224.75000049165291
 31
0.0
  0
LINE
  5
7191
  8
HIDDEN
 10
1028.474606795653
 20
-217.750000491653
 30
0.0
 11
1028.474606795653
 21
-224.7500004916532
 31
0.0
  0
LINE
  5
7192
  8
HIDDEN
 10
1013.974606795653
 20
-236.750000491653
 30
0.0
 11
1014.9246067956529
 21
-227.25000049165291
 31
0.0
  0
LINE
  5
7193
  8
HIDDEN
 10
1014.974606795654
 20
-224.75000049165291
 30
0.0
 11
1028.9746067956539
 21
-224.75000049165311
 31
0.0
  0
LINE
  5
7194
  8
HIDDEN
 10
1029.974606795653
 20
-236.750000491653
 30
0.0
 11
1029.024606795653
 21
-227.25000049165311
 31
0.0
  0
LINE
  5
7195
  8
HIDDEN
 10
1014.874606795653
 20
-227.750000491653
 30
0.0
 11
1029.0746067956529
 21
-227.750000491653
 31
0.0
  0
LINE
  5
7196
  8
HIDDEN
 10
1014.9246067956529
 20
-227.25000049165291
 30
0.0
 11
1029.024606795653
 21
-227.25000049165311
 31
0.0
  0
LINE
  5
7197
  8
UMCL1
  6
CENTER
 62
     1
 10
1019.974606795653
 20
-355.75000049165328
 30
0.0
 11
1003.974606795653
 21
-355.75000049165328
 31
0.0
  0
LINE
  5
7198
  8
UMCL1
  6
CENTER
 62
     1
 10
1011.974606795653
 20
-347.75000049165311
 30
0.0
 11
1011.974606795653
 21
-363.75000049165311
 31
0.0
  0
LINE
  5
7199
  8
UMCL1
 10
1033.974606795653
 20
-236.750000491653
 30
0.0
 11
1033.974606795653
 21
-217.750000491653
 31
0.0
  0
LINE
  5
719A
  8
HIDDEN
 10
968.57460679565338
 20
-217.7500004916528
 30
0.0
 11
968.57460679565338
 21
-236.7500004916528
 31
0.0
  0
LINE
  5
719B
  8
HIDDEN
 10
967.97460679565336
 20
-217.7500004916528
 30
0.0
 11
967.97460679565336
 21
-236.7500004916528
 31
0.0
  0
LINE
  5
719C
  8
HIDDEN
 10
975.37460679565345
 20
-217.7500004916528
 30
0.0
 11
975.37460679565299
 21
-236.7500004916528
 31
0.0
  0
LINE
  5
719D
  8
HIDDEN
 10
975.97460679565336
 20
-217.7500004916528
 30
0.0
 11
975.97460679565302
 21
-236.7500004916528
 31
0.0
  0
LINE
  5
719E
  8
UMCL1
 10
963.97460679565347
 20
-217.7500004916528
 30
0.0
 11
963.9746067956529
 21
-236.7500004916528
 31
0.0
  0
LINE
  5
719F
  8
UMCL1
 10
963.97460679565347
 20
-217.7500004916528
 30
0.0
 11
1033.974606795653
 21
-217.750000491653
 31
0.0
  0
LINE
  5
71A0
  8
UMCL1
 10
963.9746067956529
 20
-236.7500004916528
 30
0.0
 11
1033.974606795653
 21
-236.750000491653
 31
0.0
  0
LINE
  5
71A1
  8
UMCL1
 10
997.7746067956532
 20
-374.750000491653
 30
0.0
 11
1046.1746067956531
 21
-374.750000491653
 31
0.0
  0
LINE
  5
71A2
  8
UMCL1
 10
997.7746067956532
 20
-346.750000491653
 30
0.0
 11
1046.1746067956531
 21
-346.75000049165283
 31
0.0
  0
LINE
  5
71A3
  8
UMCL1
 10
1046.974606795653
 20
-373.95000049165299
 30
0.0
 11
1046.974606795653
 21
-347.55000049165278
 31
0.0
  0
LINE
  5
71A4
  8
UMCL1
 10
1044.974606795653
 20
-285.750000491653
 30
0.0
 11
1044.974606795653
 21
-346.750000491653
 31
0.0
  0
LINE
  5
71A5
  8
UMCL1
 10
996.9746067956529
 20
-347.55000049165301
 30
0.0
 11
996.9746067956529
 21
-373.95000049165299
 31
0.0
  0
LINE
  5
71A6
  8
UMCL1
 10
998.9746067956529
 20
-285.750000491653
 30
0.0
 11
998.9746067956529
 21
-346.750000491653
 31
0.0
  0
LINE
  5
71A7
  8
UMCL1
 10
1040.974606795653
 20
-281.75000049165311
 30
0.0
 11
1002.974606795653
 21
-281.750000491653
 31
0.0
  0
LINE
  5
71A8
  8
UMCL1
 10
1015.474606795653
 20
-217.750000491653
 30
0.0
 11
1015.474606795653
 21
-215.75000049165291
 31
0.0
  0
LINE
  5
71A9
  8
UMCL1
 10
1015.974606795653
 20
-215.25000049165291
 30
0.0
 11
1027.974606795653
 21
-215.25000049165291
 31
0.0
  0
LINE
  5
71AA
  8
UMCL1
 10
1028.474606795653
 20
-215.750000491653
 30
0.0
 11
1028.474606795653
 21
-217.750000491653
 31
0.0
  0
LINE
  5
71AB
  8
UMCL1
 10
1015.474606795653
 20
-215.750000491653
 30
0.0
 11
1028.474606795653
 21
-215.750000491653
 31
0.0
  0
LINE
  5
71AC
  8
UMCL1
 10
1015.474606795653
 20
-215.75000049165291
 30
0.0
 11
1015.974606795653
 21
-215.25000049165291
 31
0.0
  0
LINE
  5
71AD
  8
UMCL1
 10
1027.974606795653
 20
-215.25000049165291
 30
0.0
 11
1028.474606795653
 21
-215.750000491653
 31
0.0
  0
LINE
  5
71AE
  8
UMCL1
 10
1013.974606795653
 20
-236.75000049165291
 30
0.0
 11
1013.974606795653
 21
-281.75000049165311
 31
0.0
  0
LINE
  5
71AF
  8
UMCL1
 10
1029.974606795653
 20
-236.750000491653
 30
0.0
 11
1029.974606795653
 21
-281.75000049165311
 31
0.0
  0
POLYLINE
  5
71B0
  8
UMCL1
 66
     1
 10
0.0
 20
0.0
 30
0.0
  0
VERTEX
  5
78EA
  8
UMCL1
 10
996.9746067956529
 20
-165.71608013613741
 30
0.0
  0
VERTEX
  5
78EB
  8
UMCL1
 10
996.9746067956529
 20
-178.13781592507519
 30
0.0
  0
SEQEND
  5
78EC
  8
UMCL1
  0
LINE
  5
71B1
  8
UMCL1
 10
1033.974606795653
 20
-165.71608013613749
 30
0.0
 11
1033.974606795653
 21
-146.71608013613749
 31
0.0
  0
LINE
  5
71B2
  8
UMCL1
 10
963.97460679565347
 20
-146.71608013613729
 30
0.0
 11
963.9746067956529
 21
-165.71608013613729
 31
0.0
  0
LINE
  5
71B3
  8
UMCL1
 10
963.97460679565347
 20
-146.71608013613729
 30
0.0
 11
1033.974606795653
 21
-146.71608013613749
 31
0.0
  0
LINE
  5
71B4
  8
UMCL1
 10
963.9746067956529
 20
-165.71608013613729
 30
0.0
 11
1033.974606795653
 21
-165.71608013613749
 31
0.0
  0
CIRCLE
  5
71B5
  8
UMCL1
 10
971.97460679565347
 20
-156.21608013613741
 30
0.0
 40
3.3999999999999999
  0
CIRCLE
  5
71B6
  8
UMCL1
 10
1021.974606795653
 20
-156.21608013613749
 30
0.0
 40
6.5
  0
CIRCLE
  5
71B7
  8
UMCL1
 10
1021.974606795653
 20
-156.21608013613749
 30
0.0
 40
6.0
  0
POLYLINE
  5
71B8
  8
UMCL1
 66
     1
 10
0.0
 20
0.0
 30
0.0
 70
     1
  0
VERTEX
  5
78ED
  8
UMCL1
 10
1024.974606795653
 20
-157.9481309437063
 30
0.0
  0
VERTEX
  5
78EE
  8
UMCL1
 10
1024.974606795653
 20
-154.48402932856851
 30
0.0
  0
VERTEX
  5
78EF
  8
UMCL1
 10
1021.974606795653
 20
-152.7519785209997
 30
0.0
  0
VERTEX
  5
78F0
  8
UMCL1
 10
1018.974606795653
 20
-154.48402932856871
 30
0.0
  0
VERTEX
  5
78F1
  8
UMCL1
 10
1018.974606795653
 20
-157.94813094370639
 30
0.0
  0
VERTEX
  5
78F2
  8
UMCL1
 10
1021.974606795653
 20
-159.68018175127531
 30
0.0
  0
SEQEND
  5
78F3
  8
UMCL1
  0
ARC
  5
71B9
  8
UMCL1
 62
     7
 10
1021.974606795653
 20
-156.21608013613729
 30
0.0
 40
23.0
 50
204.39616528275059
 51
155.60383471724941
  0
CIRCLE
  5
71BA
  8
UMCL1
 10
1001.974606795653
 20
-136.21608013613729
 30
0.0
 40
2.7999999999999998
  0
CIRCLE
  5
71BB
  8
UMCL1
 10
1041.974606795653
 20
-136.21608013613729
 30
0.0
 40
2.7999999999999998
  0
CIRCLE
  5
71BC
  8
UMCL1
 10
1041.974606795653
 20
-176.21608013613729
 30
0.0
 40
2.7999999999999998
  0
CIRCLE
  5
71BD
  8
UMCL1
 10
1001.974606795653
 20
-176.21608013613729
 30
0.0
 40
2.7999999999999998
  0
LINE
  5
71BE
  8
UMCL1
 62
     4
 10
1044.974606795653
 20
-285.750000491653
 30
0.0
 11
998.9746067956529
 21
-285.750000491653
 31
0.0
  0
LINE
  5
71BF
  8
UMCL1
 10
996.9746067956529
 20
-347.55000049165301
 30
0.0
 11
1046.974606795653
 21
-347.55000049165301
 31
0.0
  0
LINE
  5
71C0
  8
UMCL1
 10
996.9746067956529
 20
-373.95000049165287
 30
0.0
 11
1046.974606795653
 21
-373.95000049165287
 31
0.0
  0
ARC
  5
71C1
  8
UMCL1
 10
1040.974606795653
 20
-285.75000049165311
 30
0.0
 40
4.0
 50
0.0
 51
90.0
  0
ARC
  5
71C2
  8
UMCL1
 10
1002.974606795653
 20
-285.750000491653
 30
0.0
 40
4.0
 50
90.0
 51
180.0
  0
LINE
  5
71C3
  8
UMCL1
 10
997.7746067956532
 20
-374.750000491653
 30
0.0
 11
996.9746067956529
 21
-373.95000049165299
 31
0.0
  0
LINE
  5
71C4
  8
UMCL1
 10
1046.1746067956531
 20
-374.750000491653
 30
0.0
 11
1046.974606795653
 21
-373.95000049165299
 31
0.0
  0
LINE
  5
71C5
  8
UMCL1
 10
997.7746067956532
 20
-346.750000491653
 30
0.0
 11
996.9746067956529
 21
-347.55000049165301
 31
0.0
  0
LINE
  5
71C6
  8
UMCL1
 10
1046.1746067956531
 20
-346.75000049165283
 30
0.0
 11
1046.974606795653
 21
-347.55000049165278
 31
0.0
  0
CIRCLE
  5
71C7
  8
UMCL1
 10
1011.974606795653
 20
-355.75000049165311
 30
0.0
 40
4.25
  0
CIRCLE
  5
71C8
  8
UMCL1
 10
1021.974606795653
 20
-292.750000491653
 30
0.0
 40
4.25
  0
POLYLINE
  5
71C9
  8
UMCL1
 66
     1
 10
0.0
 20
0.0
 30
0.0
  0
VERTEX
  5
78F4
  8
UMCL1
 10
1043.8963425845909
 20
-131.21608013613729
 30
0.0
  0
VERTEX
  5
78F5
  8
UMCL1
 10
1000.052871006715
 20
-131.21608013613729
 30
0.0
  0
SEQEND
  5
78F6
  8
UMCL1
  0
POLYLINE
  5
71CA
  8
UMCL1
 66
     1
 10
0.0
 20
0.0
 30
0.0
  0
VERTEX
  5
78F7
  8
UMCL1
 10
1046.974606795653
 20
-178.13781592507519
 30
0.0
  0
VERTEX
  5
78F8
  8
UMCL1
 10
1046.974606795653
 20
-134.2943443471994
 30
0.0
  0
SEQEND
  5
78F9
  8
UMCL1
  0
ARC
  5
71CB
  8
UMCL1
 10
1021.974606795653
 20
-156.21608013613729
 30
0.0
 40
33.25
 50
311.24653336867311
 51
318.75346663132689
  0
POLYLINE
  5
71CC
  8
UMCL1
 66
     1
 10
0.0
 20
0.0
 30
0.0
  0
VERTEX
  5
78FA
  8
UMCL1
 10
1000.052871006715
 20
-181.21608013613729
 30
0.0
  0
VERTEX
  5
78FB
  8
UMCL1
 10
1043.8963425845909
 20
-181.21608013613729
 30
0.0
  0
SEQEND
  5
78FC
  8
UMCL1
  0
ARC
  5
71CD
  8
UMCL1
 10
1021.974606795653
 20
-156.21608013613729
 30
0.0
 40
33.25
 50
221.24653336867311
 51
228.75346663132689
  0
POLYLINE
  5
71CE
  8
UMCL1
 66
     1
 10
0.0
 20
0.0
 30
0.0
  0
VERTEX
  5
78FD
  8
UMCL1
 10
996.9746067956529
 20
-134.2943443471994
 30
0.0
  0
VERTEX
  5
78FE
  8
UMCL1
 10
996.9746067956529
 20
-146.71608013613741
 30
0.0
  0
SEQEND
  5
78FF
  8
UMCL1
  0
ARC
  5
71CF
  8
UMCL1
 10
1021.974606795653
 20
-156.21608013613729
 30
0.0
 40
33.25
 50
41.24653336867307
 51
48.753466631326923
  0
ARC
  5
71D0
  8
UMCL1
 10
1021.974606795653
 20
-156.21608013613729
 30
0.0
 40
33.25
 50
131.246533368673
 51
138.75346663132689
  0
LINE
  5
71D1
  8
UMCL1
  6
CENTER
 62
     1
 10
971.9746067956529
 20
-238.9230180355122
 30
0.0
 11
971.9746067956529
 21
-215.62594683715199
 31
0.0
  0
LINE
  5
71D2
  8
UMCL1
  6
CENTER
 62
     1
 10
1001.974606795653
 20
-170.4160801361372
 30
0.0
 11
1001.974606795653
 21
-182.01608013613719
 31
0.0
  0
LINE
  5
71D3
  8
UMCL1
  6
CENTER
 62
     1
 10
1007.774606795653
 20
-176.21608013613729
 30
0.0
 11
996.17460679565318
 21
-176.21608013613729
 31
0.0
  0
LINE
  5
71D4
  8
UMCL1
  6
CENTER
 62
     1
 10
1041.974606795653
 20
-170.4160801361372
 30
0.0
 11
1041.974606795653
 21
-182.01608013613719
 31
0.0
  0
LINE
  5
71D5
  8
UMCL1
  6
CENTER
 62
     1
 10
1047.774606795653
 20
-176.21608013613729
 30
0.0
 11
1036.1746067956531
 21
-176.21608013613729
 31
0.0
  0
LINE
  5
71D6
  8
UMCL1
  6
CENTER
 62
     1
 10
1001.974606795653
 20
-130.41608013613731
 30
0.0
 11
1001.974606795653
 21
-142.0160801361373
 31
0.0
  0
LINE
  5
71D7
  8
UMCL1
  6
CENTER
 62
     1
 10
1007.774606795653
 20
-136.21608013613729
 30
0.0
 11
996.17460679565318
 21
-136.21608013613729
 31
0.0
  0
LINE
  5
71D8
  8
UMCL1
  6
CENTER
 62
     1
 10
1041.974606795653
 20
-130.41608013613731
 30
0.0
 11
1041.974606795653
 21
-142.0160801361373
 31
0.0
  0
LINE
  5
71D9
  8
UMCL1
  6
CENTER
 62
     1
 10
1047.774606795653
 20
-136.21608013613729
 30
0.0
 11
1036.1746067956531
 21
-136.21608013613729
 31
0.0
  0
LINE
  5
71DA
  8
UMCL1
  6
CENTER
 62
     1
 10
1021.974606795653
 20
-127.9331712456148
 30
0.0
 11
1021.974606795653
 21
-185.1972147736486
 31
0.0
  0
LINE
  5
71DB
  8
UMCL1
  6
CENTER
 62
     1
 10
1021.974606795653
 20
-212.7885279472525
 30
0.0
 11
1021.974606795653
 21
-378.5276263190616
 31
0.0
  0
LINE
  5
71DC
  8
UMCL1
  6
CENTER
 62
     1
 10
1001.974606795653
 20
-344.30319498273639
 30
0.0
 11
1001.974606795653
 21
-377.92373054989622
 31
0.0
  0
LINE
  5
71DD
  8
HIDDEN
 10
1004.774606795653
 20
-346.750000491653
 30
0.0
 11
1004.774606795653
 21
-374.750000491653
 31
0.0
  0
LINE
  5
71DE
  8
HIDDEN
 10
999.17460679565329
 20
-346.750000491653
 30
0.0
 11
999.17460679565329
 21
-374.750000491653
 31
0.0
  0
LINE
  5
71DF
  8
UMCL1
  6
CENTER
 62
     1
 10
1041.9746067956521
 20
-344.30319498273639
 30
0.0
 11
1041.9746067956521
 21
-377.92373054989622
 31
0.0
  0
LINE
  5
71E0
  8
HIDDEN
 10
1039.1746067956531
 20
-346.750000491653
 30
0.0
 11
1039.1746067956531
 21
-374.750000491653
 31
0.0
  0
LINE
  5
71E1
  8
HIDDEN
 10
1044.774606795653
 20
-346.750000491653
 30
0.0
 11
1044.774606795653
 21
-374.750000491653
 31
0.0
  0
ARC
  5
71E2
  8
HIDDEN
 10
1011.974606795653
 20
-355.75000049165311
 30
0.0
 40
5.0
 50
76.845591614189971
 51
11.05189005559853
  0
LINE
  5
71E3
  8
UMCL2
 62
     5
 10
988.78939606115193
 20
-308.83410958696038
 30
0.0
 11
1017.475233447807
 21
-294.93074336432181
 31
0.0
  0
ARC
  5
71E4
  8
HIDDEN
 10
1021.974606795653
 20
-292.750000491653
 30
0.0
 40
5.0
 50
77.498655826063526
 51
10.663004957300039
  0
LINE
  5
71E5
  8
UMCL1
  6
PHANTOM
 62
     6
 10
1033.974606795653
 20
-277.75000049165311
 30
0.0
 11
1033.974606795653
 21
-258.750000491653
 31
0.0
  0
LINE
  5
71E6
  8
UMCL1
  6
PHANTOM
 62
     6
 10
963.97460679565347
 20
-258.75000049165271
 30
0.0
 11
963.9746067956529
 21
-277.75000049165283
 31
0.0
  0
LINE
  5
71E7
  8
UMCL1
  6
PHANTOM
 62
     6
 10
963.97460679565347
 20
-258.75000049165271
 30
0.0
 11
1033.974606795653
 21
-258.750000491653
 31
0.0
  0
LINE
  5
71E8
  8
UMCL1
  6
PHANTOM
 62
     6
 10
963.9746067956529
 20
-277.75000049165283
 30
0.0
 11
1033.974606795653
 21
-277.75000049165311
 31
0.0
  0
ARC
  5
71E9
  8
HIDDEN
 10
971.97460679565347
 20
-156.21608013613741
 30
0.0
 40
4.0
 50
77.755380639250433
 51
12.66105144964253
  0
SOLID
  5
71EA
  8
UMCL2
 62
     5
 10
966.92903005465348
 20
-208.00582754493291
 30
0.0
 11
966.92903005465348
 21
-206.9639384787329
 31
0.0
 12
963.97460679565347
 22
-207.48488301183289
 32
0.0
 13
963.97460679565347
 23
-207.48488301183289
 33
0.0
  0
SOLID
  5
71EB
  8
UMCL2
 62
     5
 10
1063.495551328753
 20
-173.26165687713771
 30
0.0
 11
1062.4536622625531
 21
-173.26165687713771
 31
0.0
 12
1062.974606795653
 22
-176.21608013613769
 32
0.0
 13
1062.974606795653
 23
-176.21608013613769
 33
0.0
  0
LINE
  5
71EC
  8
UMCL2
 62
     5
 10
1049.2712918317909
 20
-176.2160801361378
 30
0.0
 11
1063.974606795653
 21
-176.21608013613769
 31
0.0
  0
SOLID
  5
71ED
  8
UMCL2
 62
     5
 10
1071.495551328753
 20
-178.2616568771378
 30
0.0
 11
1070.4536622625531
 21
-178.2616568771378
 31
0.0
 12
1070.974606795653
 22
-181.2160801361378
 32
0.0
 13
1070.974606795653
 23
-181.2160801361378
 33
0.0
  0
LINE
  5
71EE
  8
UMCL2
 62
     5
 10
1045.8740768614859
 20
-181.2160801361378
 30
0.0
 11
1071.974606795653
 21
-181.2160801361378
 31
0.0
  0
SOLID
  5
71EF
  8
UMCL2
 62
     5
 10
1055.495551328753
 20
-162.7616568771376
 30
0.0
 11
1054.4536622625531
 21
-162.7616568771376
 31
0.0
 12
1054.974606795653
 22
-165.71608013613761
 32
0.0
 13
1054.974606795653
 23
-165.71608013613761
 33
0.0
  0
LINE
  5
71F0
  8
UMCL2
 62
     5
 10
1035.9430770034701
 20
-165.71608013613769
 30
0.0
 11
1056.316513856035
 21
-165.71608013613769
 31
0.0
  0
LINE
  5
71F1
  8
HIDDEN
 10
1014.974606795654
 20
-217.750000491653
 30
0.0
 11
1014.974606795654
 21
-224.750000491653
 31
0.0
  0
LINE
  5
71F2
  8
HIDDEN
 10
1028.9746067956539
 20
-217.750000491653
 30
0.0
 11
1028.9746067956539
 21
-224.75000049165311
 31
0.0
  0
LINE
  5
71F3
  8
HIDDEN
 10
1017.474606795653
 20
-224.75000049165291
 30
0.0
 11
1017.474606795653
 21
-227.25000049165291
 31
0.0
  0
LINE
  5
71F4
  8
HIDDEN
 10
1026.474606795653
 20
-224.75000049165311
 30
0.0
 11
1026.474606795653
 21
-227.25000049165311
 31
0.0
  0
LINE
  5
71F5
  8
HIDDEN
 10
1018.574606795653
 20
-224.75000049165291
 30
0.0
 11
1018.574606795653
 21
-227.75000049165311
 31
0.0
  0
LINE
  5
71F6
  8
HIDDEN
 10
1017.974606795653
 20
-224.75000049165291
 30
0.0
 11
1017.974606795653
 21
-227.75000049165311
 31
0.0
  0
LINE
  5
71F7
  8
HIDDEN
 10
1025.3746067956531
 20
-224.75000049165311
 30
0.0
 11
1025.3746067956531
 21
-227.75000049165311
 31
0.0
  0
LINE
  5
71F8
  8
HIDDEN
 10
1025.974606795653
 20
-224.75000049165311
 30
0.0
 11
1025.974606795653
 21
-227.75000049165311
 31
0.0
  0
LINE
  5
71F9
  8
UMCL1
  6
CONTINUOUS
 10
1000.052871006715
 20
-347.55000049165301
 30
0.0
 11
1000.052871006715
 21
-373.95000049165287
 31
0.0
  0
LINE
  5
71FA
  8
UMCL1
 10
1000.852871006715
 20
-374.750000491653
 30
0.0
 11
1000.052871006715
 21
-373.95000049165299
 31
0.0
  0
LINE
  5
71FB
  8
UMCL1
 10
1000.852871006715
 20
-346.750000491653
 30
0.0
 11
1000.052871006715
 21
-347.55000049165301
 31
0.0
  0
LINE
  5
71FC
  8
UMCL1
  6
CONTINUOUS
 10
1043.89634258459
 20
-347.55000049165301
 30
0.0
 11
1043.89634258459
 21
-373.95000049165287
 31
0.0
  0
LINE
  5
71FD
  8
UMCL1
 10
1043.09634258459
 20
-374.750000491653
 30
0.0
 11
1043.89634258459
 21
-373.95000049165299
 31
0.0
  0
LINE
  5
71FE
  8
UMCL1
 10
1043.09634258459
 20
-346.750000491653
 30
0.0
 11
1043.89634258459
 21
-347.55000049165301
 31
0.0
  0
LINE
  5
71FF
  8
UMCL1
  6
CENTER
 62
     1
 10
1145.9598114382461
 20
-292.75000049165322
 30
0.0
 11
1129.9598114382461
 21
-292.75000049165322
 31
0.0
  0
LINE
  5
7200
  8
HIDDEN
 10
1147.9130197054681
 20
-217.750000491653
 30
0.0
 11
1147.9130197054681
 21
-224.75000049165291
 31
0.0
  0
LINE
  5
7201
  8
HIDDEN
 10
1160.9130197054681
 20
-217.750000491653
 30
0.0
 11
1160.9130197054681
 21
-224.7500004916532
 31
0.0
  0
LINE
  5
7202
  8
HIDDEN
 10
1146.4130197054681
 20
-236.750000491653
 30
0.0
 11
1147.363019705467
 21
-227.25000049165291
 31
0.0
  0
LINE
  5
7203
  8
HIDDEN
 10
1147.4130197054681
 20
-224.75000049165291
 30
0.0
 11
1161.4130197054681
 21
-224.75000049165311
 31
0.0
  0
LINE
  5
7204
  8
HIDDEN
 10
1162.4130197054681
 20
-236.750000491653
 30
0.0
 11
1161.463019705468
 21
-227.25000049165311
 31
0.0
  0
LINE
  5
7205
  8
HIDDEN
 10
1147.3130197054679
 20
-227.750000491653
 30
0.0
 11
1161.5130197054671
 21
-227.750000491653
 31
0.0
  0
LINE
  5
7206
  8
HIDDEN
 10
1147.363019705467
 20
-227.25000049165291
 30
0.0
 11
1161.463019705468
 21
-227.25000049165311
 31
0.0
  0
LINE
  5
7207
  8
UMCL1
 10
1163.9130197054681
 20
-236.750000491653
 30
0.0
 11
1163.9130197054681
 21
-217.750000491653
 31
0.0
  0
LINE
  5
7208
  8
UMCL1
 10
1130.213019705468
 20
-374.750000491653
 30
0.0
 11
1178.6130197054681
 21
-374.750000491653
 31
0.0
  0
LINE
  5
7209
  8
UMCL1
 10
1130.213019705468
 20
-346.750000491653
 30
0.0
 11
1178.6130197054681
 21
-346.75000049165283
 31
0.0
  0
LINE
  5
720A
  8
UMCL1
 10
1179.4130197054681
 20
-373.95000049165299
 30
0.0
 11
1179.4130197054681
 21
-347.55000049165278
 31
0.0
  0
LINE
  5
720B
  8
UMCL1
 10
1177.4130197054669
 20
-285.750000491653
 30
0.0
 11
1177.4130197054669
 21
-346.750000491653
 31
0.0
  0
LINE
  5
720C
  8
UMCL1
 10
1129.4130197054681
 20
-347.55000049165301
 30
0.0
 11
1129.4130197054681
 21
-373.95000049165299
 31
0.0
  0
LINE
  5
720D
  8
UMCL1
 10
1131.4130197054681
 20
-285.750000491653
 30
0.0
 11
1131.4130197054681
 21
-346.750000491653
 31
0.0
  0
LINE
  5
720E
  8
UMCL1
 10
1173.4130197054669
 20
-281.75000049165311
 30
0.0
 11
1135.4130197054681
 21
-281.750000491653
 31
0.0
  0
LINE
  5
720F
  8
UMCL1
 10
1147.9130197054681
 20
-217.750000491653
 30
0.0
 11
1147.9130197054681
 21
-215.75000049165291
 31
0.0
  0
LINE
  5
7210
  8
UMCL1
 10
1148.4130197054681
 20
-215.25000049165291
 30
0.0
 11
1160.4130197054681
 21
-215.25000049165291
 31
0.0
  0
LINE
  5
7211
  8
UMCL1
 10
1160.9130197054681
 20
-215.750000491653
 30
0.0
 11
1160.9130197054681
 21
-217.750000491653
 31
0.0
  0
LINE
  5
7212
  8
UMCL1
 10
1147.9130197054681
 20
-215.750000491653
 30
0.0
 11
1160.9130197054681
 21
-215.750000491653
 31
0.0
  0
LINE
  5
7213
  8
UMCL1
 10
1147.9130197054681
 20
-215.75000049165291
 30
0.0
 11
1148.4130197054681
 21
-215.25000049165291
 31
0.0
  0
LINE
  5
7214
  8
UMCL1
 10
1160.4130197054681
 20
-215.25000049165291
 30
0.0
 11
1160.9130197054681
 21
-215.750000491653
 31
0.0
  0
LINE
  5
7215
  8
UMCL1
 10
1146.4130197054681
 20
-236.75000049165291
 30
0.0
 11
1146.4130197054681
 21
-281.75000049165311
 31
0.0
  0
LINE
  5
7216
  8
UMCL1
 10
1162.4130197054681
 20
-236.750000491653
 30
0.0
 11
1162.4130197054681
 21
-281.75000049165311
 31
0.0
  0
LINE
  5
7217
  8
UMCL1
 62
     4
 10
1177.4130197054669
 20
-285.750000491653
 30
0.0
 11
1131.4130197054681
 21
-285.750000491653
 31
0.0
  0
LINE
  5
7218
  8
UMCL1
 10
1129.4130197054681
 20
-347.55000049165301
 30
0.0
 11
1179.4130197054681
 21
-347.55000049165301
 31
0.0
  0
LINE
  5
7219
  8
UMCL1
 10
1129.4130197054681
 20
-373.95000049165287
 30
0.0
 11
1179.4130197054681
 21
-373.95000049165287
 31
0.0
  0
ARC
  5
721A
  8
UMCL1
 10
1173.4130197054681
 20
-285.75000049165311
 30
0.0
 40
4.0
 50
0.0
 51
90.0
  0
ARC
  5
721B
  8
UMCL1
 10
1135.4130197054681
 20
-285.750000491653
 30
0.0
 40
4.0
 50
90.0
 51
180.0
  0
LINE
  5
721C
  8
UMCL1
 10
1130.213019705468
 20
-374.750000491653
 30
0.0
 11
1129.4130197054681
 21
-373.95000049165299
 31
0.0
  0
LINE
  5
721D
  8
UMCL1
 10
1178.6130197054681
 20
-374.750000491653
 30
0.0
 11
1179.4130197054681
 21
-373.95000049165299
 31
0.0
  0
LINE
  5
721E
  8
UMCL1
 10
1130.213019705468
 20
-346.750000491653
 30
0.0
 11
1129.4130197054681
 21
-347.55000049165301
 31
0.0
  0
LINE
  5
721F
  8
UMCL1
 10
1178.6130197054681
 20
-346.75000049165283
 30
0.0
 11
1179.4130197054681
 21
-347.55000049165278
 31
0.0
  0
LINE
  5
7220
  8
UMCL1
  6
CENTER
 62
     1
 10
1154.4130197054681
 20
-212.7885279472525
 30
0.0
 11
1154.4130197054669
 21
-378.5276263190616
 31
0.0
  0
LINE
  5
7221
  8
UMCL1
  6
CENTER
 62
     1
 10
1134.4130197054681
 20
-344.30319498273639
 30
0.0
 11
1134.4130197054681
 21
-377.92373054989622
 31
0.0
  0
LINE
  5
7222
  8
HIDDEN
 10
1137.213019705468
 20
-346.750000491653
 30
0.0
 11
1137.213019705468
 21
-374.750000491653
 31
0.0
  0
LINE
  5
7223
  8
HIDDEN
 10
1131.6130197054681
 20
-346.750000491653
 30
0.0
 11
1131.6130197054681
 21
-374.750000491653
 31
0.0
  0
LINE
  5
7224
  8
UMCL1
  6
CENTER
 62
     1
 10
1174.4130197054669
 20
-344.30319498273639
 30
0.0
 11
1174.4130197054669
 21
-377.92373054989622
 31
0.0
  0
LINE
  5
7225
  8
HIDDEN
 10
1171.613019705467
 20
-346.750000491653
 30
0.0
 11
1171.613019705467
 21
-374.750000491653
 31
0.0
  0
LINE
  5
7226
  8
HIDDEN
 10
1177.2130197054671
 20
-346.750000491653
 30
0.0
 11
1177.2130197054671
 21
-374.750000491653
 31
0.0
  0
LINE
  5
7227
  8
HIDDEN
 10
1147.4130197054681
 20
-217.750000491653
 30
0.0
 11
1147.4130197054681
 21
-224.750000491653
 31
0.0
  0
LINE
  5
7228
  8
HIDDEN
 10
1161.4130197054681
 20
-217.750000491653
 30
0.0
 11
1161.4130197054681
 21
-224.75000049165311
 31
0.0
  0
LINE
  5
7229
  8
HIDDEN
 10
1149.9130197054681
 20
-224.75000049165291
 30
0.0
 11
1149.9130197054681
 21
-227.25000049165291
 31
0.0
  0
LINE
  5
722A
  8
HIDDEN
 10
1158.9130197054681
 20
-224.75000049165311
 30
0.0
 11
1158.9130197054681
 21
-227.25000049165311
 31
0.0
  0
LINE
  5
722B
  8
HIDDEN
 10
1151.013019705468
 20
-224.75000049165291
 30
0.0
 11
1151.013019705468
 21
-227.75000049165311
 31
0.0
  0
LINE
  5
722C
  8
HIDDEN
 10
1150.4130197054681
 20
-224.75000049165291
 30
0.0
 11
1150.4130197054681
 21
-227.75000049165311
 31
0.0
  0
LINE
  5
722D
  8
HIDDEN
 10
1157.8130197054679
 20
-224.75000049165311
 30
0.0
 11
1157.8130197054679
 21
-227.75000049165311
 31
0.0
  0
LINE
  5
722E
  8
HIDDEN
 10
1158.4130197054681
 20
-224.75000049165311
 30
0.0
 11
1158.4130197054681
 21
-227.75000049165311
 31
0.0
  0
LINE
  5
722F
  8
UMCL1
  6
CONTINUOUS
 10
1132.4912839165299
 20
-347.55000049165301
 30
0.0
 11
1132.4912839165299
 21
-373.95000049165287
 31
0.0
  0
LINE
  5
7230
  8
UMCL1
 10
1133.2912839165299
 20
-374.750000491653
 30
0.0
 11
1132.4912839165299
 21
-373.95000049165299
 31
0.0
  0
LINE
  5
7231
  8
UMCL1
 10
1133.2912839165299
 20
-346.750000491653
 30
0.0
 11
1132.4912839165299
 21
-347.55000049165301
 31
0.0
  0
LINE
  5
7232
  8
UMCL1
  6
CONTINUOUS
 10
1176.334755494405
 20
-347.55000049165301
 30
0.0
 11
1176.334755494405
 21
-373.95000049165287
 31
0.0
  0
LINE
  5
7233
  8
UMCL1
 10
1175.5347554944051
 20
-374.750000491653
 30
0.0
 11
1176.334755494405
 21
-373.95000049165299
 31
0.0
  0
LINE
  5
7234
  8
UMCL1
 10
1175.5347554944051
 20
-346.750000491653
 30
0.0
 11
1176.334755494405
 21
-347.55000049165301
 31
0.0
  0
LINE
  5
7235
  8
UMCL1
 10
1144.9130197054681
 20
-236.750000491653
 30
0.0
 11
1144.9130197054681
 21
-217.750000491653
 31
0.0
  0
LINE
  5
7236
  8
UMCL1
 10
1144.9130197054681
 20
-217.750000491653
 30
0.0
 11
1163.9130197054681
 21
-217.750000491653
 31
0.0
  0
LINE
  5
7237
  8
UMCL1
 10
1144.9130197054681
 20
-236.750000491653
 30
0.0
 11
1163.9130197054681
 21
-236.750000491653
 31
0.0
  0
LINE
  5
7238
  8
HIDDEN
 10
1140.4130197054681
 20
-288.97167050520051
 30
0.0
 11
1131.4130197054681
 21
-288.50000049165322
 31
0.0
  0
LINE
  5
7239
  8
HIDDEN
 10
1140.4130197054681
 20
-288.22167050520039
 30
0.0
 11
1131.4130197054681
 21
-287.75000049165322
 31
0.0
  0
LINE
  5
723A
  8
HIDDEN
 10
1140.4130197054681
 20
-296.52833047810577
 30
0.0
 11
1131.4130197054681
 21
-297.00000049165311
 31
0.0
  0
LINE
  5
723B
  8
HIDDEN
 10
1140.4130197054681
 20
-297.27833047810577
 30
0.0
 11
1131.4130197054681
 21
-297.75000049165311
 31
0.0
  0
LINE
  5
723C
  8
UMCL1
  6
CENTER
 62
     1
 10
1143.9598114382461
 20
-355.75000049165328
 30
0.0
 11
1127.9598114382461
 21
-355.75000049165328
 31
0.0
  0
LINE
  5
723D
  8
HIDDEN
 10
1138.4130197054681
 20
-351.97167050520062
 30
0.0
 11
1129.4130197054681
 21
-351.50000049165328
 31
0.0
  0
LINE
  5
723E
  8
HIDDEN
 10
1138.4130197054681
 20
-351.22167050520062
 30
0.0
 11
1129.4130197054681
 21
-350.75000049165328
 31
0.0
  0
LINE
  5
723F
  8
HIDDEN
 10
1138.4130197054681
 20
-359.52833047810589
 30
0.0
 11
1129.4130197054681
 21
-360.00000049165322
 31
0.0
  0
LINE
  5
7240
  8
HIDDEN
 10
1138.4130197054681
 20
-360.27833047810589
 30
0.0
 11
1129.4130197054681
 21
-360.75000049165322
 31
0.0
  0
LINE
  5
7241
  8
LOGO
 62
     4
 10
1278.4467838371811
 20
239.58923811413979
 30
0.0
 11
1278.4467838371811
 21
-87.535524803282428
 31
0.0
  0
LINE
  5
7242
  8
LOGO
 62
     4
 10
865.94678383718076
 20
-87.535524803282428
 30
0.0
 11
1690.94678383718
 21
-87.535524803282428
 31
0.0
  0
TEXT
  5
7243
  8
0
 10
880.6870361150817
 20
212.20460299214881
 30
0.0
 40
9.6000000000000014
  1
MTAS-32-FA
 72
     1
 11
918.12703611508186
 21
217.0046029921489
 31
0.0
 73
     2
  0
LINE
  5
7244
  8
LOGO
 62
     4
 10
1278.4467838371811
 20
-87.535524803282428
 30
0.0
 11
1278.4467838371811
 21
-414.66028772070467
 31
0.0
  0
POINT
  5
7245
  8
0
 10
-616.39335279628062
 20
-1294.942781667701
 30
0.0
1001
GENIUS_GENOBJ-N-CRS_13
1002
{
1000
OWNER
1000
GEN
1002
}
1001
GENIUS_GENOLIS_13
1002
{
1000
ENT
1005
0
1005
0
1005
0
1005
6E46
1002
}
1001
GENIUS_GENOENT_13
1002
{
1000
MYREF
1005
7245
1002
}
1002
{
1000
GRP
1005
0
1002
}
1001
GENIUS_GENODEF_13
1002
{
1000
HIER
1070
    10
1002
}
1002
{
1000
MANEDIT
1070
     1
1002
}
1002
{
1000
NOSEL
1070
     0
1002
}
1002
{
1000
BEHIND
1070
     0
1002
}
1002
{
1000
OTHER
1070
     0
1002
}
1002
{
1000
REACTOR
1002
}
  0
POINT
  5
7246
  8
0
 10
-627.71793801913532
 20
-1286.0671951890649
 30
0.0
1001
GENIUS_GENOBJ-N-CRS_13
1002
{
1000
OWNER
1000
GEN
1002
}
1001
GENIUS_GENOLIS_13
1002
{
1000
ENT
1005
0
1005
0
1005
0
1005
6E45
1002
}
1001
GENIUS_GENOENT_13
1002
{
1000
MYREF
1005
7246
1002
}
1002
{
1000
GRP
1005
0
1002
}
1001
GENIUS_GENODEF_13
1002
{
1000
HIER
1070
    10
1002
}
1002
{
1000
MANEDIT
1070
     1
1002
}
1002
{
1000
NOSEL
1070
     0
1002
}
1002
{
1000
BEHIND
1070
     0
1002
}
1002
{
1000
OTHER
1070
     0
1002
}
1002
{
1000
REACTOR
1002
}
  0
POINT
  5
7247
  8
0
 10
-621.3592643212985
 20
-1294.942781667701
 30
0.0
1001
GENIUS_GENOBJ-N-CRS_13
1002
{
1000
OWNER
1000
GEN
1002
}
1001
GENIUS_GENOLIS_13
1002
{
1000
ENT
1005
0
1005
0
1005
0
1005
6E44
1002
}
1001
GENIUS_GENOENT_13
1002
{
1000
MYREF
1005
7247
1002
}
1002
{
1000
GRP
1005
0
1002
}
1001
GENIUS_GENODEF_13
1002
{
1000
HIER
1070
    10
1002
}
1002
{
1000
MANEDIT
1070
     1
1002
}
1002
{
1000
NOSEL
1070
     0
1002
}
1002
{
1000
BEHIND
1070
     0
1002
}
1002
{
1000
OTHER
1070
     0
1002
}
1002
{
1000
REACTOR
1002
}
  0
ENDSEC
  0
EOF
