  0
SECTION
  2
HEADER
  9
$ACADVER
  1
AC1015
  9
$ACADMAINTVER
 70
    20
  9
$DWGCODEPAGE
  3
ANSI_950
  9
$INSBASE
 10
0.0
 20
0.0
 30
0.0
  9
$EXTMIN
 10
133.640443027998
 20
272.1109389724061
 30
-0.0099973850932429
  9
$EXTMAX
 10
333.687745018033
 20
484.4665863539278
 30
131.0577263704094
  9
$LIMMIN
 10
0.0
 20
0.0
  9
$LIMMAX
 10
420.0
 20
297.0
  9
$ORTHOMODE
 70
     1
  9
$REGENMODE
 70
     1
  9
$FILLMODE
 70
     1
  9
$QTEXTMODE
 70
     0
  9
$MIRRTEXT
 70
     1
  9
$LTSCALE
 40
1.0
  9
$ATTMODE
 70
     1
  9
$TEXTSIZE
 40
3.0
  9
$TRACEWID
 40
1.0
  9
$TEXTSTYLE
  7
STANDARD
  9
$CLAYER
  8
0
  9
$CELTYPE
  6
ByLayer
  9
$CECOLOR
 62
   256
  9
$CELTSCALE
 40
1.0
  9
$DISPSILH
 70
     0
  9
$DIMSCALE
 40
1.0
  9
$DIMASZ
 40
3.0
  9
$DIMEXO
 40
1.0
  9
$DIMDLI
 40
8.0
  9
$DIMRND
 40
0.0
  9
$DIMDLE
 40
0.0
  9
$DIMEXE
 40
1.5
  9
$DIMTP
 40
0.1
  9
$DIMTM
 40
0.1
  9
$DIMTXT
 40
3.5
  9
$DIMCEN
 40
0.0
  9
$DIMTSZ
 40
0.0
  9
$DIMTOL
 70
     0
  9
$DIMLIM
 70
     0
  9
$DIMTIH
 70
     0
  9
$DIMTOH
 70
     0
  9
$DIMSE1
 70
     0
  9
$DIMSE2
 70
     0
  9
$DIMTAD
 70
     1
  9
$DIMZIN
 70
     8
  9
$DIMBLK
  1

  9
$DIMASO
 70
     1
  9
$DIMSHO
 70
     1
  9
$DIMPOST
  1

  9
$DIMAPOST
  1
"
  9
$DIMALT
 70
     0
  9
$DIMALTD
 70
     2
  9
$DIMALTF
 40
0.0393701
  9
$DIMLFAC
 40
1.0
  9
$DIMTOFL
 70
     1
  9
$DIMTVP
 40
0.0
  9
$DIMTIX
 70
     0
  9
$DIMSOXD
 70
     0
  9
$DIMSAH
 70
     0
  9
$DIMBLK1
  1

  9
$DIMBLK2
  1

  9
$DIMSTYLE
  2
AM_ISO
  9
$DIMCLRD
 70
   256
  9
$DIMCLRE
 70
   256
  9
$DIMCLRT
 70
   256
  9
$DIMTFAC
 40
0.6
  9
$DIMGAP
 40
0.7
  9
$DIMJUST
 70
     0
  9
$DIMSD1
 70
     0
  9
$DIMSD2
 70
     0
  9
$DIMTOLJ
 70
     0
  9
$DIMTZIN
 70
     8
  9
$DIMALTZ
 70
     0
  9
$DIMALTTZ
 70
     0
  9
$DIMUPT
 70
     0
  9
$DIMDEC
 70
     2
  9
$DIMTDEC
 70
     8
  9
$DIMALTU
 70
     2
  9
$DIMALTTD
 70
     2
  9
$DIMTXSTY
  7
STANDARD
  9
$DIMAUNIT
 70
     0
  9
$DIMADEC
 70
     0
  9
$DIMALTRND
 40
0.0
  9
$DIMAZIN
 70
     2
  9
$DIMDSEP
 70
    46
  9
$DIMATFIT
 70
     3
  9
$DIMFRAC
 70
     0
  9
$DIMLDRBLK
  1

  9
$DIMLUNIT
 70
     2
  9
$DIMLWD
 70
    -1
  9
$DIMLWE
 70
    -1
  9
$DIMTMOVE
 70
     0
  9
$LUNITS
 70
     2
  9
$LUPREC
 70
     2
  9
$SKETCHINC
 40
1.0
  9
$FILLETRAD
 40
2.5
  9
$AUNITS
 70
     0
  9
$AUPREC
 70
     0
  9
$MENU
  1
.
  9
$ELEVATION
 40
0.0
  9
$PELEVATION
 40
0.0
  9
$THICKNESS
 40
0.0
  9
$LIMCHECK
 70
     0
  9
$CHAMFERA
 40
0.0
  9
$CHAMFERB
 40
0.0
  9
$CHAMFERC
 40
20.0
  9
$CHAMFERD
 40
0.0
  9
$SKPOLY
 70
     0
  9
$TDCREATE
 40
2454097.385877268
  9
$TDUCREATE
 40
2454097.052543935
  9
$TDUPDATE
 40
2454097.695345046
  9
$TDUUPDATE
 40
2454097.362011713
  9
$TDINDWG
 40
0.1096739468
  9
$TDUSRTIMER
 40
0.1096739468
  9
$USRTIMER
 70
     1
  9
$ANGBASE
 50
0.0
  9
$ANGDIR
 70
     0
  9
$PDMODE
 70
     0
  9
$PDSIZE
 40
0.0
  9
$PLINEWID
 40
0.0
  9
$SPLFRAME
 70
     0
  9
$SPLINETYPE
 70
     6
  9
$SPLINESEGS
 70
     8
  9
$HANDSEED
  5
56BF
  9
$SURFTAB1
 70
     6
  9
$SURFTAB2
 70
     6
  9
$SURFTYPE
 70
     6
  9
$SURFU
 70
     6
  9
$SURFV
 70
     6
  9
$UCSBASE
  2

  9
$UCSNAME
  2

  9
$UCSORG
 10
0.0
 20
0.0
 30
0.0
  9
$UCSXDIR
 10
1.0
 20
0.0
 30
0.0
  9
$UCSYDIR
 10
0.0
 20
1.0
 30
0.0
  9
$UCSORTHOREF
  2

  9
$UCSORTHOVIEW
 70
     0
  9
$UCSORGTOP
 10
0.0
 20
0.0
 30
0.0
  9
$UCSORGBOTTOM
 10
0.0
 20
0.0
 30
0.0
  9
$UCSORGLEFT
 10
0.0
 20
0.0
 30
0.0
  9
$UCSORGRIGHT
 10
0.0
 20
0.0
 30
0.0
  9
$UCSORGFRONT
 10
0.0
 20
0.0
 30
0.0
  9
$UCSORGBACK
 10
0.0
 20
0.0
 30
0.0
  9
$PUCSBASE
  2

  9
$PUCSNAME
  2

  9
$PUCSORG
 10
0.0
 20
0.0
 30
0.0
  9
$PUCSXDIR
 10
1.0
 20
0.0
 30
0.0
  9
$PUCSYDIR
 10
0.0
 20
1.0
 30
0.0
  9
$PUCSORTHOREF
  2

  9
$PUCSORTHOVIEW
 70
     0
  9
$PUCSORGTOP
 10
0.0
 20
0.0
 30
0.0
  9
$PUCSORGBOTTOM
 10
0.0
 20
0.0
 30
0.0
  9
$PUCSORGLEFT
 10
0.0
 20
0.0
 30
0.0
  9
$PUCSORGRIGHT
 10
0.0
 20
0.0
 30
0.0
  9
$PUCSORGFRONT
 10
0.0
 20
0.0
 30
0.0
  9
$PUCSORGBACK
 10
0.0
 20
0.0
 30
0.0
  9
$USERI1
 70
     0
  9
$USERI2
 70
     0
  9
$USERI3
 70
     0
  9
$USERI4
 70
     0
  9
$USERI5
 70
     0
  9
$USERR1
 40
0.0
  9
$USERR2
 40
0.0
  9
$USERR3
 40
0.0
  9
$USERR4
 40
0.0
  9
$USERR5
 40
0.0
  9
$WORLDVIEW
 70
     1
  9
$SHADEDGE
 70
     3
  9
$SHADEDIF
 70
    70
  9
$TILEMODE
 70
     1
  9
$MAXACTVP
 70
    64
  9
$PINSBASE
 10
0.0
 20
0.0
 30
0.0
  9
$PLIMCHECK
 70
     0
  9
$PEXTMIN
 10
1.000000000000000E+20
 20
1.000000000000000E+20
 30
1.000000000000000E+20
  9
$PEXTMAX
 10
-1.000000000000000E+20
 20
-1.000000000000000E+20
 30
-1.000000000000000E+20
  9
$PLIMMIN
 10
0.0
 20
0.0
  9
$PLIMMAX
 10
420.0
 20
297.0
  9
$UNITMODE
 70
     0
  9
$VISRETAIN
 70
     1
  9
$PLINEGEN
 70
     0
  9
$PSLTSCALE
 70
     1
  9
$TREEDEPTH
 70
  3020
  9
$CMLSTYLE
  2
Standard
  9
$CMLJUST
 70
     0
  9
$CMLSCALE
 40
20.0
  9
$PROXYGRAPHICS
 70
     1
  9
$MEASUREMENT
 70
     1
  9
$CELWEIGHT
370
    -1
  9
$ENDCAPS
280
     0
  9
$JOINSTYLE
280
     0
  9
$LWDISPLAY
290
     0
  9
$INSUNITS
 70
     4
  9
$HYPERLINKBASE
  1

  9
$STYLESHEET
  1
彩色出圖.ctb
  9
$XEDIT
290
     1
  9
$CEPSNTYPE
380
     0
  9
$PSTYLEMODE
290
     1
  9
$FINGERPRINTGUID
  2
{EDA54BE1-F2ED-45D5-B6AB-060729E09D95}
  9
$VERSIONGUID
  2
{5BA70FBE-30C4-4A35-B345-303A35134A6C}
  9
$EXTNAMES
290
     1
  9
$PSVPSCALE
 40
0.0
  9
$OLESTARTUP
290
     0
  0
ENDSEC
  0
SECTION
  2
CLASSES
  0
CLASS
  1
ACDBDICTIONARYWDFLT
  2
AcDbDictionaryWithDefault
  3
ObjectDBX Classes
 90
        0
280
     0
281
     0
  0
CLASS
  1
ACDBPLACEHOLDER
  2
AcDbPlaceHolder
  3
ObjectDBX Classes
 90
        0
280
     0
281
     0
  0
CLASS
  1
LAYOUT
  2
AcDbLayout
  3
ObjectDBX Classes
 90
        0
280
     0
281
     0
  0
CLASS
  1
ACME_DOCUMENT
  2
AcMeDbDoc
  3
AcMeServices
 90
        0
280
     0
281
     0
  0
CLASS
  1
AMGSETTINGSOBJ
  2
AmgSettingsObj
  3
"AcadM|Product Description: AutoCAD Mechanical 2000|Company: Autodesk"
 90
        0
280
     0
281
     0
  0
CLASS
  1
ACMESCOPE
  2
AcMeScope
  3
AcMeServices
 90
        0
280
     0
281
     0
  0
CLASS
  1
ACMECOMMANDHISTORY
  2
AcMeCommandHistory
  3
AcMeServices
 90
        0
280
     0
281
     0
  0
CLASS
  1
ACIMSYSVARMAN
  2
AcImSysVarManager
  3
AcMeServices
 90
        0
280
     0
281
     0
  0
CLASS
  1
ACIMREALSYSVAR
  2
AcImRealSysVar
  3
AcMeServices
 90
        0
280
     0
281
     0
  0
CLASS
  1
ACIMINTSYSVAR
  2
AcImIntSysVar
  3
AcMeServices
 90
        0
280
     0
281
     0
  0
CLASS
  1
ACMEDRAWINGMAN
  2
AcMeDrawingMan
  3
AcMeServices
 90
        0
280
     0
281
     0
  0
CLASS
  1
ACMEVIEW
  2
AcMeView
  3
AcMeServices
 90
        0
280
     0
281
     0
  0
CLASS
  1
ACDBENTITYCACHE
  2
AcMeEntityCache
  3
AcMeServices
 90
        0
280
     0
281
     0
  0
CLASS
  1
GSMANAGER
  2
AcMeGSManager
  3
AcMeServices
 90
        0
280
     0
281
     0
  0
CLASS
  1
AMDTINTERNALREACTOR
  2
AmdtInternalReactor
  3
AcMeServices
 90
        0
280
     0
281
     0
  0
CLASS
  1
ACMESTATEMGR
  2
AcMeStateMgr
  3
AcMeServices
 90
        0
280
     0
281
     0
  0
CLASS
  1
ACGREFMASTER
  2
AcGrefMaster
  3
AcAttribServices
 90
        0
280
     0
281
     0
  0
CLASS
  1
ACME_DATABASE
  2
AcMeDbDatabase
  3
AcMeServices
 90
        0
280
     0
281
     0
  0
CLASS
  1
ACRFINSADJUSTERMGR
  2
AcRfInsAdjusterMgr
  3
AcMeServices
 90
        0
280
     0
281
     0
  0
CLASS
  1
ACGREFACADMASTER
  2
AcGrefacadMaster
  3
AcGrefServices
 90
        0
280
     0
281
     0
  0
CLASS
  1
AMIMASTER
  2
AmiMaster
  3
AmiServices
 90
        0
280
     0
281
     0
  0
CLASS
  1
ACMDATADICTIONARY
  2
AcmDataDictionary
  3
"AcmSymBB|Product Description: AutoCAD Mechanical 2004 DX|Company: Autodesk"
 90
        0
280
     0
281
     0
  0
CLASS
  1
ACMDATAENTRYBLOCK
  2
AcmDataEntryBlock
  3
"AcmSymBB|Product Description: AutoCAD Mechanical 2004 DX|Company: Autodesk"
 90
        0
280
     0
281
     0
  0
CLASS
  1
ACIMSTRSYSVAR
  2
AcImStrSysVar
  3
AcMeServices
 90
        0
280
     0
281
     0
  0
CLASS
  1
ACMSTANDARDISO
  2
AcmStandardISO
  3
"Amdt_StdImp|Product Description: AutoCAD Mechanical 2004 DX|Company: Autodesk"
 90
        0
280
     0
281
     0
  0
CLASS
  1
AMGOBJPROPCFG
  2
AmgObjPropCfg
  3
"AmgLay|Product Description: AutoCAD Mechanical 2000|Company: Autodesk"
 90
        1
280
     0
281
     0
  0
CLASS
  1
AMDTEDGESTANDARDISO
  2
AmdtEdgeStdISO
  3
"Amdt_StdImp|Product Description: AutoCAD Mechanical 2004 DX|Company: Autodesk"
 90
        0
280
     0
281
     0
  0
CLASS
  1
ACMSURFSTANDARDISO
  2
AcmSurfTextStdISO
  3
"Amdt_StdImp|Product Description: AutoCAD Mechanical 2004 DX|Company: Autodesk"
 90
        0
280
     0
281
     0
  0
CLASS
  1
ACMFCFSTANDARDISO
  2
AcmFCFStdISO
  3
"Amdt_StdImp|Product Description: AutoCAD Mechanical 2004 DX|Company: Autodesk"
 90
        0
280
     0
281
     0
  0
CLASS
  1
ACMWELDSTANDARDISO
  2
AcmWeldingStdISO
  3
"Amdt_StdImp|Product Description: AutoCAD Mechanical 2004 DX|Company: Autodesk"
 90
        0
280
     0
281
     0
  0
CLASS
  1
ACMIDSTANDARDISO
  2
AcmIdStdISO
  3
"Amdt_StdImp|Product Description: AutoCAD Mechanical 2004 DX|Company: Autodesk"
 90
        0
280
     0
281
     0
  0
CLASS
  1
ACMDATUMSTANDARDISO
  2
AcmDatumStdISO
  3
"Amdt_StdImp|Product Description: AutoCAD Mechanical 2004 DX|Company: Autodesk"
 90
        0
280
     0
281
     0
  0
CLASS
  1
ACMBOMSTANDARDISO
  2
AcmBOMStdISO
  3
"Amdt_StdImp|Product Description: AutoCAD Mechanical 2004 DX|Company: Autodesk"
 90
        0
280
     0
281
     0
  0
CLASS
  1
ACMDETAILSTANDARDISO
  2
AmdtDetailSymStdISO
  3
"Amdt_StdImp|Product Description: AutoCAD Mechanical 2004 DX|Company: Autodesk"
 90
        0
280
     0
281
     0
  0
CLASS
  1
ACMSECTIONSTANDARDISO
  2
AmdtSectionSymStdISO
  3
"Amdt_StdImp|Product Description: AutoCAD Mechanical 2004 DX|Company: Autodesk"
 90
        0
280
     0
281
     0
  0
CLASS
  1
ACMCENTERLINESTANDARDISO
  2
AmdtCenterLineStdISO
  3
"Amdt_StdImp|Product Description: AutoCAD Mechanical 2004 DX|Company: Autodesk"
 90
        0
280
     0
281
     0
  0
CLASS
  1
ACMNOTESTANDARDISO
  2
AmdtNoteStdISO
  3
"Amdt_StdImp|Product Description: AutoCAD Mechanical 2004 DX|Company: Autodesk"
 90
        0
280
     0
281
     0
  0
CLASS
  1
ACAMGLAYSTD
  2
AcAmgLayStd
  3
"AcAmgLayStd|Product Description: AutoCAD Mechanical 2000|Company: Autodesk"
 90
        0
280
     0
281
     0
  0
CLASS
  1
ACAMGDIMSTD
  2
AcAmgDimStd
  3
"AcAmgDimStd|Product Description: AutoCAD Mechanical 2000|Company: Autodesk"
 90
        0
280
     0
281
     0
  0
CLASS
  1
ACAMGHOLECHARTSTDISO
  2
AcAmgHoleChartStdISO
  3
ACMSYMBB_MODULE_NAME
 90
        0
280
     0
281
     0
  0
CLASS
  1
ACAMGTITLESTD
  2
AcAmgTitleStd
  3
"TITLEAPP"
 90
        0
280
     0
281
     0
  0
CLASS
  1
LAYER_INDEX
  2
AcDbLayerIndex
  3
ObjectDBX Classes
 90
    32768
280
     0
281
     0
  0
CLASS
  1
IDBUFFER
  2
AcDbIdBuffer
  3
ObjectDBX Classes
 90
    32768
280
     0
281
     0
  0
CLASS
  1
DICTIONARYVAR
  2
AcDbDictionaryVar
  3
ObjectDBX Classes
 90
        0
280
     0
281
     0
  0
CLASS
  1
AM_DRAWING_MGR
  2
AcDmDwgMgr
  3
AcMechDwgViewMgmt
 90
        0
280
     0
281
     0
  0
CLASS
  1
AM_DWG_DOCUMENT
  2
AcDmDwgDocument
  3
AcMechDwgViewMgmt
 90
        0
280
     0
281
     0
  0
CLASS
  1
AM_DWG_SHEET
  2
AcDmSheet
  3
AcMechDwgViewMgmt
 90
        0
280
     0
281
     0
  0
CLASS
  1
AM_VIEWDIMPARMAP
  2
AcDmViewDimParMap
  3
AcMechDwgViewMgmt
 90
        0
280
     0
281
     0
  0
CLASS
  1
AM_DWGMGR_NAME
  2
AcDmDwgMgrName
  3
AcMechDwgViewMgmt
 90
        0
280
     0
281
     0
  0
CLASS
  1
AMDTMENUSTATEMGR
  2
AmdtMenuStateMgr
  3
McadcomServices
 90
        0
280
     0
281
     0
  0
CLASS
  1
AMDTMCOMMENUSTATE
  2
AmdtMcomMenuState
  3
McadcomServices
 90
        0
280
     0
281
     0
  0
CLASS
  1
MAPIAMMOUDLE
  2
MApiAmModule
  3
MApiAmServices
 90
        0
280
     0
281
     0
  0
CLASS
  1
AMDTADMENUSTATE
  2
AmdtAdMenuState
  3
DesignerServices
 90
        0
280
     0
281
     0
  0
CLASS
  1
ADAPPL
  2
AcAdAppl
  3
DesignerServices
 90
        0
280
     0
281
     0
  0
CLASS
  1
DEPMGR
  2
AcAdDepMgr
  3
DesignerServices
 90
        0
280
     0
281
     0
  0
CLASS
  1
PARAMMGR
  2
AcAdParamMgr
  3
DesignerServices
 90
        0
280
     0
281
     0
  0
CLASS
  1
PARAMSCOPE
  2
AcAdParamScope
  3
DesignerServices
 90
        0
280
     0
281
     0
  0
CLASS
  1
NAMEDAPPL
  2
AcAdNamedAppl
  3
DesignerServices
 90
        0
280
     0
281
     0
  0
CLASS
  1
AMDTDMMENUSTATE
  2
AmdtDmMenuState
  3
AcMechDwgViewMgmt
 90
        0
280
     0
281
     0
  0
CLASS
  1
AMDTAMMENUSTATE
  2
AmdtAmMenuState
  3
DesignerAssemblies
 90
        0
280
     0
281
     0
  0
CLASS
  1
ACAMPROJECT
  2
AcAmProject
  3
DesignerAssemblies
 90
        0
280
     0
281
     0
  0
CLASS
  1
ACAMGRCOMPDEF
  2
AcAmGrCompDef
  3
DesignerAssemblies
 90
        0
280
     0
281
     0
  0
CLASS
  1
ACCMCONTEXT
  2
AcCmContext
  3
DesignerAssemblies
 90
        0
280
     0
281
     0
  0
CLASS
  1
ACAMCOMPDEF
  2
AcAmCompDef
  3
DesignerAssemblies
 90
        0
280
     0
281
     0
  0
CLASS
  1
ACAMCOMPDEFMGR
  2
AcAmCompDefMgr
  3
DesignerAssemblies
 90
        0
280
     0
281
     0
  0
CLASS
  1
AMCONTEXTMGR
  2
AcAmContextMgr
  3
DesignerAssemblies
 90
        0
280
     0
281
     0
  0
CLASS
  1
ACAMCONTEXTMODELER
  2
AcAmContextModeler
  3
DesignerAssemblies
 90
        0
280
     0
281
     0
  0
CLASS
  1
ACMTHREADLINESTANDARDISO
  2
AmdtThreadLineStdISO
  3
"Amdt_StdImp|Product Description: AutoCAD Mechanical 2004 DX|Company: Autodesk"
 90
        0
280
     0
281
     0
  0
CLASS
  1
CATALOGSTATE
  2
AcAmCatalogState
  3
DesignerAssemblies
 90
        0
280
     0
281
     0
  0
CLASS
  1
ACAMGRCOMPDEFSET
  2
AcAmGrCompDefSet
  3
DesignerAssemblies
 90
        0
280
     0
281
     0
  0
CLASS
  1
AMDTBROWSERDBTAB
  2
AmdtBrowserDbTab
  3
McadcomServices
 90
        0
280
     0
281
     0
  0
CLASS
  1
CBROWSERAPPOBJECT
  2
CBrowserAppObject
  3
McadcomServices
 90
        0
280
     0
281
     0
  0
CLASS
  1
DM_PLACEHOLDER
  2
AcDmSelsetPlaceholder
  3
AcMechDwgViewMgmt
 90
        0
280
     0
281
     0
  0
CLASS
  1
TABLESTYLE
  2
AcDbTableStyle
  3
ObjectDBX Classes
 90
     2047
280
     0
281
     0
  0
CLASS
  1
VAACXREFPANELOBJECT
  2
VaAcXREFPanelObject
  3
VAAC_ADDIN
 90
    32768
280
     0
281
     0
  0
CLASS
  1
VAACIMAGEINVENTORY
  2
VaAcImageInventory
  3
VAAC_ADDIN
 90
    32768
280
     0
281
     0
  0
CLASS
  1
AMDTNOTETEMPLATEDB
  2
AmdtNoteTemplateDB
  3
AMDT_STDIMP_MODULE_NAME
 90
        0
280
     0
281
     0
  0
CLASS
  1
ACMBOM
  2
AcmBom
  3
"AcmSymBB|Product Description: AutoCAD Mechanical 2004 DX|Company: Autodesk"
 90
    32768
280
     0
281
     0
  0
CLASS
  1
AMDTFORMULAUPDATEDISPATCHER
  2
AmdtFormulaUpdateDispatcher
  3
AcMeServices
 90
    32768
280
     0
281
     0
  0
CLASS
  1
ACMPARTLIST
  2
AcmPartList
  3
"AcmSymBB|Product Description: AutoCAD Mechanical 2004 DX|Company: Autodesk"
 90
    33791
280
     0
281
     1
  0
CLASS
  1
ACAMGFILTERDAT
  2
AcAmgFilterDat
  3
"AcadM|Product Description: AutoCAD Mechanical 2000|Company: Autodesk"
 90
        0
280
     0
281
     0
  0
CLASS
  1
DIMASSOC
  2
AcDbDimAssoc
  3
"AcDbDimAssoc|Product Desc:     AcDim ARX App For Dimension|Company:          Autodesk, Inc.|WEB Address:      www.autodesk.com"
 90
        0
280
     0
281
     0
  0
CLASS
  1
STDPART2D
  2
AmgStdPart
  3
"AmgStdPart|Product Description: AutoCAD Mechanical 2000|Company: Autodesk"
 90
    33791
280
     0
281
     1
  0
CLASS
  1
ACAMSTDPCOMPDEF
  2
AcAmStdpCompDef
  3
DesignerAssemblies
 90
    32768
280
     0
281
     0
  0
CLASS
  1
ACRFATTGENMGR
  2
AcRfAttGeneralMgr
  3
AcAttribServices
 90
        0
280
     0
281
     0
  0
CLASS
  1
ACRFOBJATTMGR
  2
AcRfObjAttGroupMgr
  3
AcAttribServices
 90
    32768
280
     0
281
     0
  0
CLASS
  1
ACRFMCADAPIATTHOLDER
  2
AcRfMCADAPIAttHolder
  3
AcAttribServices
 90
    32768
280
     0
281
     0
  0
CLASS
  1
AMDTSYSATTR
  2
AmdtSystemAttribute
  3
AcAttribServices
 90
    32768
280
     0
281
     0
  0
CLASS
  1
ACAMCOMP
  2
AcAmComp
  3
DesignerAssemblies
 90
    32768
280
     0
281
     0
  0
CLASS
  1
AC_AM_STDP_VIEW_DEF
  2
AcAmStdpViewDef
  3
DesignerAssemblies
 90
    32768
280
     0
281
     0
  0
CLASS
  1
AC_AM_MVD_DEP_MGR
  2
AcAmMVDdepMgr
  3
DesignerAssemblies
 90
        0
280
     0
281
     0
  0
CLASS
  1
AC_AM_MASTER_VIEW_DEF
  2
AcAmMasterViewDef
  3
DesignerAssemblies
 90
        0
280
     0
281
     0
  0
CLASS
  1
AC_AM_DIRTY_NODES
  2
AcAmDirtyNodes
  3
DesignerAssemblies
 90
        0
280
     0
281
     0
  0
CLASS
  1
AC_AM_MAPPER_CACHE
  2
AcAmMapperCache
  3
DesignerAssemblies
 90
        0
280
     0
281
     0
  0
CLASS
  1
ACAMMVDBACKUPOBJECT
  2
AcAmMVDBackupObject
  3
DesignerAssemblies
 90
        0
280
     0
281
     0
  0
CLASS
  1
AC_AM_COMP_VIEW_INST
  2
AcAmCompView
  3
DesignerAssemblies
 90
    32768
280
     0
281
     0
  0
CLASS
  1
AC_AM_2D_XREF_MGR
  2
AcAmXrefMgr2d
  3
DesignerAssemblies
 90
        0
280
     0
281
     0
  0
CLASS
  1
SORTENTSTABLE
  2
AcDbSortentsTable
  3
ObjectDBX Classes
 90
        0
280
     0
281
     0
  0
CLASS
  1
AMDTNOTE
  2
AmdtNote
  3
"AcmSymBB|Product Description: AutoCAD Mechanical 2004 DX|Company: Autodesk"
 90
     1023
280
     0
281
     1
  0
CLASS
  1
AC_AM_HIDE_SITUATION
  2
AcAmHideSituation
  3
DesignerAssemblies
 90
    32768
280
     0
281
     0
  0
CLASS
  1
ACMSTANDARDANSI
  2
AcmStandardANSI
  3
"Amdt_StdImp|Product Description: AutoCAD Mechanical 2004 DX|Company: Autodesk"
 90
        0
280
     0
281
     0
  0
CLASS
  1
ACMSURFSTANDARDANSI
  2
AcmSurfTextStdANSI
  3
"Amdt_StdImp|Product Description: AutoCAD Mechanical 2004 DX|Company: Autodesk"
 90
        0
280
     0
281
     0
  0
CLASS
  1
ACMFCFSTANDARDANSI
  2
AcmFCFStdANSI
  3
"Amdt_StdImp|Product Description: AutoCAD Mechanical 2004 DX|Company: Autodesk"
 90
        0
280
     0
281
     0
  0
CLASS
  1
ACMWELDSTANDARDANSI
  2
AcmWeldingStdANSI
  3
"Amdt_StdImp|Product Description: AutoCAD Mechanical 2004 DX|Company: Autodesk"
 90
        0
280
     0
281
     0
  0
CLASS
  1
ACMIDSTANDARDANSI
  2
AcmIdStdANSI
  3
"Amdt_StdImp|Product Description: AutoCAD Mechanical 2004 DX|Company: Autodesk"
 90
        0
280
     0
281
     0
  0
CLASS
  1
ACMDATUMSTANDARDANSI
  2
AcmDatumStdANSI
  3
"Amdt_StdImp|Product Description: AutoCAD Mechanical 2004 DX|Company: Autodesk"
 90
        0
280
     0
281
     0
  0
CLASS
  1
ACMBOMSTANDARDANSI
  2
AcmBOMStdANSI
  3
"Amdt_StdImp|Product Description: AutoCAD Mechanical 2004 DX|Company: Autodesk"
 90
        0
280
     0
281
     0
  0
CLASS
  1
ACMDETAILSTANDARDANSI
  2
AmdtDetailSymStdANSI
  3
"Amdt_StdImp|Product Description: AutoCAD Mechanical 2004 DX|Company: Autodesk"
 90
        0
280
     0
281
     0
  0
CLASS
  1
ACMSECTIONSTANDARDANSI
  2
AmdtSectionSymStdANSI
  3
"Amdt_StdImp|Product Description: AutoCAD Mechanical 2004 DX|Company: Autodesk"
 90
        0
280
     0
281
     0
  0
CLASS
  1
ACMCENTERLINESTANDARDANSI
  2
AmdtCenterLineStdANSI
  3
"Amdt_StdImp|Product Description: AutoCAD Mechanical 2004 DX|Company: Autodesk"
 90
        0
280
     0
281
     0
  0
CLASS
  1
ACMTHREADLINESTANDARDANSI
  2
AmdtThreadLineStdANSI
  3
"Amdt_StdImp|Product Description: AutoCAD Mechanical 2004 DX|Company: Autodesk"
 90
        0
280
     0
281
     0
  0
CLASS
  1
ACMNOTESTANDARDANSI
  2
AmdtNoteStdANSI
  3
"Amdt_StdImp|Product Description: AutoCAD Mechanical 2004 DX|Company: Autodesk"
 90
        0
280
     0
281
     0
  0
CLASS
  1
ACAMGHOLECHARTSTDANSI
  2
AcAmgHoleChartStdANSI
  3
ACMSYMBB_MODULE_NAME
 90
        0
280
     0
281
     0
  0
ENDSEC
  0
SECTION
  2
TABLES
  0
TABLE
  2
VPORT
  5
8
330
0
100
AcDbSymbolTable
 70
     3
  0
VPORT
  5
56B6
330
8
100
AcDbSymbolTableRecord
100
AcDbViewportTableRecord
  2
*Active
 70
     0
 10
0.0
 20
0.0
 11
1.0
 21
1.0
 12
233.6640940230155
 22
378.3141801090345
 13
0.0
 23
0.0
 14
2.5
 24
2.5
 15
10.0
 25
10.0
 16
0.0
 26
0.0
 36
1.0
 17
0.0
 27
0.0
 37
0.0
 40
214.0608868698482
 41
1.609210526315789
 42
50.0
 43
0.0
 44
0.0
 50
0.0
 51
0.0
 71
     0
 72
   100
 73
     1
 74
     0
 75
     0
 76
     0
 77
     0
 78
     0
281
     0
 65
     1
110
0.0
120
0.0
130
0.0
111
1.0
121
0.0
131
0.0
112
0.0
122
1.0
132
0.0
 79
     0
146
0.0
  0
ENDTAB
  0
TABLE
  2
LTYPE
  5
5
330
0
100
AcDbSymbolTable
 70
    16
  0
LTYPE
  5
14
330
5
100
AcDbSymbolTableRecord
100
AcDbLinetypeTableRecord
  2
ByBlock
 70
     0
  3

 72
    65
 73
     0
 40
0.0
  0
LTYPE
  5
15
330
5
100
AcDbSymbolTableRecord
100
AcDbLinetypeTableRecord
  2
ByLayer
 70
     0
  3

 72
    65
 73
     0
 40
0.0
  0
LTYPE
  5
16
330
5
100
AcDbSymbolTableRecord
100
AcDbLinetypeTableRecord
  2
Continuous
 70
     0
  3
Solid line
 72
    65
 73
     0
 40
0.0
  0
LTYPE
  5
64
330
5
100
AcDbSymbolTableRecord
100
AcDbLinetypeTableRecord
  2
AM_ISO02W050
 70
     0
  3
__ __ __ __ __ __ __ __ __ __ __ __ __ __ __
 72
    65
 73
     2
 40
7.5
 49
6.0
 74
     0
 49
-1.5
 74
     0
  0
LTYPE
  5
65
330
5
100
AcDbSymbolTableRecord
100
AcDbLinetypeTableRecord
  2
AM_ISO08W050
 70
     0
  3
____ . ____ . ____ . ____ . ____ . ____ . ____
 72
    65
 73
     4
 40
18.0
 49
12.0
 74
     0
 49
-1.5
 74
     0
 49
3.0
 74
     0
 49
-1.5
 74
     0
  0
LTYPE
  5
66
330
5
100
AcDbSymbolTableRecord
100
AcDbLinetypeTableRecord
  2
AM_ISO09W050
 70
     0
  3
_____ . . _____ . . _____ . . ____ .. ____
 72
    65
 73
     6
 40
22.5
 49
12.0
 74
     0
 49
-1.5
 74
     0
 49
3.0
 74
     0
 49
-1.5
 74
     0
 49
3.0
 74
     0
 49
-1.5
 74
     0
  0
LTYPE
  5
67
330
5
100
AcDbSymbolTableRecord
100
AcDbLinetypeTableRecord
  2
Amconstr
 70
     0
  3
_______________________
 72
    65
 73
     2
 40
9999.0
 49
9999.0
 74
     0
 49
0.0
 74
     0
  0
LTYPE
  5
68
330
5
100
AcDbSymbolTableRecord
100
AcDbLinetypeTableRecord
  2
AM_ISO08W050x2
 70
     0
  3
__ . __ . __ . __ . __ . __
 72
    65
 73
     4
 40
9.0
 49
6.0
 74
     0
 49
-0.75
 74
     0
 49
1.5
 74
     0
 49
-0.75
 74
     0
  0
LTYPE
  5
69
330
5
100
AcDbSymbolTableRecord
100
AcDbLinetypeTableRecord
  2
AM_ISO02W050x2
 70
     0
  3
 _ _ _ _ _ _ _ _ _ _ _ _
 72
    65
 73
     2
 40
3.75
 49
3.0
 74
     0
 49
-0.75
 74
     0
  0
LTYPE
  5
6C
330
5
100
AcDbSymbolTableRecord
100
AcDbLinetypeTableRecord
  2
Amzigzag
 70
     0
  3
/\/-/\/-/\/-/\/-/\/-/\/
 72
    65
 73
     2
 40
11.0001
 49
0.0001
 74
     4
 75
   135
340
6B
 46
0.04
 50
0.0
 44
0.0
 45
0.0
 49
-11.0
 74
     0
  0
LTYPE
  5
7A
330
5
100
AcDbSymbolTableRecord
100
AcDbLinetypeTableRecord
  2
ACISOWELD
 70
     0
  3
_ _ _ _ _
 72
    65
 73
     2
 40
2.0
 49
2.0
 74
     0
 49
-1.0
 74
     0
  0
LTYPE
  5
7B
330
5
100
AcDbSymbolTableRecord
100
AcDbLinetypeTableRecord
  2
ACISOTGB
 70
     0
  3
__ . . __ . .
 72
    65
 73
     6
 40
9.0
 49
4.0
 74
     0
 49
-1.0
 74
     0
 49
1.0
 74
     0
 49
-1.0
 74
     0
 49
1.0
 74
     0
 49
-1.0
 74
     0
  0
LTYPE
  5
7C
330
5
100
AcDbSymbolTableRecord
100
AcDbLinetypeTableRecord
  2
ACISOTGL
 70
     0
  3
_ _ _ _ _
 72
    65
 73
     2
 40
3.0
 49
2.0
 74
     0
 49
-1.0
 74
     0
  0
LTYPE
  5
7E
330
5
100
AcDbSymbolTableRecord
100
AcDbLinetypeTableRecord
  2
CENTER
 70
     0
  3
__ . __
 72
    65
 73
     4
 40
7.0
 49
4.0
 74
     0
 49
-1.0
 74
     0
 49
1.0
 74
     0
 49
-1.0
 74
     0
  0
LTYPE
  5
D8
330
5
100
AcDbSymbolTableRecord
100
AcDbLinetypeTableRecord
  2
HIDDEN
 70
     0
  3
Hidden __ __ __ __ __ __ __ __ __ __ __ __ __ _
 72
    65
 73
     2
 40
9.524999999999998
 49
6.349999999999999
 74
     0
 49
-3.174999999999999
 74
     0
  0
LTYPE
  5
D9
330
5
100
AcDbSymbolTableRecord
100
AcDbLinetypeTableRecord
  2
PHANTOM2
 70
     0
  3
Phantom (.5x) ___ _ _ ___ _ _ ___ _ _ ___ _ _
 72
    65
 73
     6
 40
31.75
 49
15.875
 74
     0
 49
-3.174999999999999
 74
     0
 49
3.174999999999999
 74
     0
 49
-3.174999999999999
 74
     0
 49
3.174999999999999
 74
     0
 49
-3.174999999999999
 74
     0
  0
LTYPE
  5
4C90
330
5
100
AcDbSymbolTableRecord
100
AcDbLinetypeTableRecord
  2
ACANSTGB
 70
     0
  3
__ . . __ . .
 72
    65
 73
     6
 40
0.35433070866
 49
0.15748031496
 74
     0
 49
-0.03937007874
 74
     0
 49
0.03937007874
 74
     0
 49
-0.03937007874
 74
     0
 49
0.03937007874
 74
     0
 49
-0.03937007874
 74
     0
  0
LTYPE
  5
4C91
330
5
100
AcDbSymbolTableRecord
100
AcDbLinetypeTableRecord
  2
ACANSTGL
 70
     0
  3
_ _ _ _ _
 72
    65
 73
     2
 40
0.11811023622
 49
0.07874015748
 74
     0
 49
-0.03937007874
 74
     0
  0
ENDTAB
  0
TABLE
  2
LAYER
  5
2
102
{ACAD_XDICTIONARY
360
3F9
102
}
330
0
100
AcDbSymbolTable
 70
     7
  0
LAYER
  5
10
330
2
100
AcDbSymbolTableRecord
100
AcDbLayerTableRecord
  2
0
 70
     0
 62
     7
  6
Continuous
370
    -3
390
F
  0
LAYER
  5
A7F
330
2
100
AcDbSymbolTableRecord
100
AcDbLayerTableRecord
  2
AM_VIS
 70
     0
 62
     7
  6
Continuous
370
    50
390
F
  0
LAYER
  5
100B
330
2
100
AcDbSymbolTableRecord
100
AcDbLayerTableRecord
  2
AM_5
 70
     0
 62
     5
  6
Continuous
370
    50
390
F
  0
LAYER
  5
1052
330
2
100
AcDbSymbolTableRecord
100
AcDbLayerTableRecord
  2
AM_0
 70
     0
 62
     7
  6
Continuous
370
    50
390
F
  0
LAYER
  5
1078
330
2
100
AcDbSymbolTableRecord
100
AcDbLayerTableRecord
  2
AM_7
 70
     0
 62
     1
  6
CENTER
370
    25
390
F
  0
LAYER
  5
11AC
330
2
100
AcDbSymbolTableRecord
100
AcDbLayerTableRecord
  2
Defpoints
 70
     0
 62
     7
  6
Continuous
290
     0
370
    -3
390
F
  0
LAYER
  5
4B53
330
2
100
AcDbSymbolTableRecord
100
AcDbLayerTableRecord
  2
LOGO
 70
     0
 62
     7
  6
Continuous
370
    -3
390
F
  0
ENDTAB
  0
TABLE
  2
STYLE
  5
3
330
0
100
AcDbSymbolTable
 70
     8
  0
STYLE
  5
11
330
3
100
AcDbSymbolTableRecord
100
AcDbTextStyleTableRecord
  2
STANDARD
 70
     0
 40
0.0
 41
1.0
 50
0.0
 71
     0
 42
3.0
  3
ISOCP.SHX
  4
CHINESET.SHX
  0
STYLE
  5
6B
330
3
100
AcDbSymbolTableRecord
100
AcDbTextStyleTableRecord
  2

 70
     1
 40
0.0
 41
1.0
 50
0.0
 71
     0
 42
2.5
  3
ltypeshp.shx
  4

  0
STYLE
  5
6D
330
3
100
AcDbSymbolTableRecord
100
AcDbTextStyleTableRecord
  2
ACISOTS
 70
     0
 40
1.0
 41
1.0
 50
0.0
 71
     0
 42
1.0
  3
isocp.shx
  4
chineset.shx
  0
STYLE
  5
79
330
3
100
AcDbSymbolTableRecord
100
AcDbTextStyleTableRecord
  2
ACISOGDT
 70
     0
 40
0.0
 41
1.0
 50
0.0
 71
     0
 42
2.5
  3
amgdt.shx
  4
chineset.shx
  0
STYLE
  5
4B54
330
3
100
AcDbSymbolTableRecord
100
AcDbTextStyleTableRecord
  2
CHINESET
 70
     0
 40
0.0
 41
1.0
 50
0.0
 71
     0
 42
3.0
  3
simplex.shx
  4
CHINESET.SHX
  0
STYLE
  5
4C92
330
3
100
AcDbSymbolTableRecord
100
AcDbTextStyleTableRecord
  2
ACANSTS
 70
     0
 40
1.0
 41
1.0
 50
0.0
 71
     0
 42
5.0
  3
romans.shx
  4
chineset.shx
  0
STYLE
  5
4C93
330
3
100
AcDbSymbolTableRecord
100
AcDbTextStyleTableRecord
  2
ACANSGDT
 70
     0
 40
0.0
 41
1.0
 50
0.0
 71
     0
 42
5.0
  3
amgdtans.shx
  4

  0
ENDTAB
  0
TABLE
  2
VIEW
  5
6
330
0
100
AcDbSymbolTable
 70
     0
  0
ENDTAB
  0
TABLE
  2
UCS
  5
7
330
0
100
AcDbSymbolTable
 70
     0
  0
ENDTAB
  0
TABLE
  2
APPID
  5
9
330
0
100
AcDbSymbolTable
 70
    31
  0
APPID
  5
12
330
9
100
AcDbSymbolTableRecord
100
AcDbRegAppTableRecord
  2
ACAD
 70
     0
  0
APPID
  5
46
330
9
100
AcDbSymbolTableRecord
100
AcDbRegAppTableRecord
  2
MCAD_NO_VIS
 70
     0
  0
APPID
  5
47
330
9
100
AcDbSymbolTableRecord
100
AcDbRegAppTableRecord
  2
ACAD_TEMP_GRAPHIC
 70
     0
  0
APPID
  5
58
330
9
100
AcDbSymbolTableRecord
100
AcDbRegAppTableRecord
  2
ACATTRIBSERVICES
 70
     0
  0
APPID
  5
EE
330
9
100
AcDbSymbolTableRecord
100
AcDbRegAppTableRecord
  2
AD_DRAW
 70
     0
  0
APPID
  5
10C
330
9
100
AcDbSymbolTableRecord
100
AcDbRegAppTableRecord
  2
DESIGNERASSEMBLIES
 70
     0
  0
APPID
  5
111
330
9
100
AcDbSymbolTableRecord
100
AcDbRegAppTableRecord
  2
ACADM_DIM_EDIT
 70
     0
  0
APPID
  5
112
330
9
100
AcDbSymbolTableRecord
100
AcDbRegAppTableRecord
  2
AMDT_DM_ADJ
 70
     0
  0
APPID
  5
22C
330
9
100
AcDbSymbolTableRecord
100
AcDbRegAppTableRecord
  2
ACAD_DSTYLE_DIMTEXT_FILL
 70
     0
  0
APPID
  5
452
330
9
100
AcDbSymbolTableRecord
100
AcDbRegAppTableRecord
  2
GENIUS_GENOENT_13
 70
     0
  0
APPID
  5
453
330
9
100
AcDbSymbolTableRecord
100
AcDbRegAppTableRecord
  2
GENIUS_GENOBJ-N-CRS_13
 70
     0
  0
APPID
  5
454
330
9
100
AcDbSymbolTableRecord
100
AcDbRegAppTableRecord
  2
GENIUS_GENOLIS_13
 70
     0
  0
APPID
  5
455
330
9
100
AcDbSymbolTableRecord
100
AcDbRegAppTableRecord
  2
GENIUS_GENODEF_13
 70
     0
  0
APPID
  5
456
330
9
100
AcDbSymbolTableRecord
100
AcDbRegAppTableRecord
  2
GENIUS_GENOREF_13
 70
     0
  0
APPID
  5
6F3
330
9
100
AcDbSymbolTableRecord
100
AcDbRegAppTableRecord
  2
ACAD_PSEXT
 70
     0
  0
APPID
  5
808
330
9
100
AcDbSymbolTableRecord
100
AcDbRegAppTableRecord
  2
GENIUS_GENDTOL_13
 70
     0
  0
APPID
  5
1059
330
9
100
AcDbSymbolTableRecord
100
AcDbRegAppTableRecord
  2
GEVID1167182300
 70
     0
  0
APPID
  5
105A
330
9
100
AcDbSymbolTableRecord
100
AcDbRegAppTableRecord
  2
GEVDC
 70
     0
  0
APPID
  5
1063
330
9
100
AcDbSymbolTableRecord
100
AcDbRegAppTableRecord
  2
AMG_2DHIDE
 70
     0
  0
APPID
  5
1064
330
9
100
AcDbSymbolTableRecord
100
AcDbRegAppTableRecord
  2
AMG_2DSTRUCT_BTR
 70
     0
  0
APPID
  5
1075
330
9
100
AcDbSymbolTableRecord
100
AcDbRegAppTableRecord
  2
ACADM_2DVIEW_IGN_NOTIFY
 70
     0
  0
APPID
  5
119A
330
9
100
AcDbSymbolTableRecord
100
AcDbRegAppTableRecord
  2
GENIUS_GENOBJ-N-CEN_13
 70
     0
  0
APPID
  5
119B
330
9
100
AcDbSymbolTableRecord
100
AcDbRegAppTableRecord
  2
GENIUS_GENCEN_19
 70
     0
  0
APPID
  5
39BE
330
9
100
AcDbSymbolTableRecord
100
AcDbRegAppTableRecord
  2
GEVID1167182301
 70
     0
  0
APPID
  5
39CB
330
9
100
AcDbSymbolTableRecord
100
AcDbRegAppTableRecord
  2
GEVID1167182302
 70
     0
  0
APPID
  5
39F2
330
9
100
AcDbSymbolTableRecord
100
AcDbRegAppTableRecord
  2
GEVID1167182303
 70
     0
  0
APPID
  5
3D45
330
9
100
AcDbSymbolTableRecord
100
AcDbRegAppTableRecord
  2
GENIUS_GENOBJ-N-HTC_13
 70
     0
  0
APPID
  5
3D46
330
9
100
AcDbSymbolTableRecord
100
AcDbRegAppTableRecord
  2
GENIUS_GENHATCH_13
 70
     0
  0
APPID
  5
4790
330
9
100
AcDbSymbolTableRecord
100
AcDbRegAppTableRecord
  2
GEVID1167182305
 70
     0
  0
APPID
  5
4B55
330
9
100
AcDbSymbolTableRecord
100
AcDbRegAppTableRecord
  2
GENIUS_GENREC_14
 70
     0
  0
APPID
  5
4B56
330
9
100
AcDbSymbolTableRecord
100
AcDbRegAppTableRecord
  2
GENIUS_GENOBJ-N-REC_13
 70
     0
  0
ENDTAB
  0
TABLE
  2
DIMSTYLE
  5
A
330
0
100
AcDbSymbolTable
 70
    15
100
AcDbDimStyleTable
 71
     3
340
81
340
8B
340
86
  0
DIMSTYLE
105
81
330
A
100
AcDbSymbolTableRecord
100
AcDbDimStyleTableRecord
  2
AM_ISO
 70
     0
  4
"
 41
3.0
 42
1.0
 43
8.0
 44
1.5
 47
0.1
 48
0.1
 73
     0
 74
     0
 77
     1
 78
     8
 79
     2
140
3.5
141
0.0
143
0.0393701
146
0.6
147
0.7
172
     1
176
   256
177
   256
178
   256
271
     2
272
     2
283
     0
284
     8
340
11
371
    -1
372
    -1
  0
DIMSTYLE
105
82
330
A
100
AcDbSymbolTableRecord
100
AcDbDimStyleTableRecord
  2
AM_ISO$3
 70
     0
  4
"
 41
3.0
 42
1.0
 43
8.0
 44
1.5
 47
0.1
 48
0.1
 73
     0
 77
     1
 78
     8
 79
     2
140
3.5
141
0.0
143
0.0393701
146
0.6
147
0.7
176
   256
177
   256
178
   256
271
     2
272
     2
283
     0
284
     8
288
     1
289
     0
340
11
371
    -1
372
    -1
  0
DIMSTYLE
105
83
330
A
100
AcDbSymbolTableRecord
100
AcDbDimStyleTableRecord
  2
AM_ISO$4
 70
     0
  4
"
 41
3.0
 42
1.0
 43
8.0
 44
1.5
 47
0.1
 48
0.1
 73
     0
 77
     1
 78
     8
 79
     2
140
3.5
141
0.0
143
0.0393701
146
0.6
147
0.7
176
   256
177
   256
178
   256
271
     2
272
     2
283
     0
284
     8
288
     1
289
     0
340
11
371
    -1
372
    -1
  0
DIMSTYLE
105
84
330
A
100
AcDbSymbolTableRecord
100
AcDbDimStyleTableRecord
  2
AM_ISO$6
 70
     0
  4
"
 41
3.0
 42
1.0
 43
8.0
 44
1.5
 47
0.1
 48
0.1
 73
     0
 74
     0
 78
     8
 79
     2
140
3.5
141
0.0
143
0.0393701
146
0.6
147
0.7
172
     1
176
   256
177
   256
178
   256
271
     2
272
     2
283
     0
284
     8
340
11
371
    -1
372
    -1
  0
DIMSTYLE
105
85
330
A
100
AcDbSymbolTableRecord
100
AcDbDimStyleTableRecord
  2
AM_ISO$7
 70
     0
  4
"
 41
3.0
 42
1.0
 43
8.0
 44
1.5
 47
0.1
 48
0.1
 73
     0
 74
     0
 77
     1
 78
     8
 79
     2
140
5.0
141
0.0
143
0.0393701
146
0.6
147
0.7
172
     1
176
   256
177
   256
178
   256
271
     2
272
     2
283
     0
284
     8
340
11
371
    -1
372
    -1
  0
DIMSTYLE
105
86
330
A
100
AcDbSymbolTableRecord
100
AcDbDimStyleTableRecord
  2
AM_ISO$SF
 70
     0
  4
"
 41
2.5
 42
1.0
 43
10.0
 44
1.0
 47
0.1
 48
0.1
 73
     0
 74
     0
 75
     1
 76
     1
 77
     1
 78
     8
 79
     2
140
3.5
141
0.0
143
0.0393701
146
0.71
147
1.5
172
     1
176
   256
177
   256
178
     2
271
     2
272
     3
274
     4
283
     0
284
     8
340
11
371
    -1
372
    -1
  0
DIMSTYLE
105
8B
330
A
100
AcDbSymbolTableRecord
100
AcDbDimStyleTableRecord
  2
AM_ISO$SH
 70
     0
  4
"
 41
2.5
 42
1.0
 43
10.0
 44
1.0
 47
0.1
 48
0.1
 73
     0
 74
     0
 75
     1
 76
     1
 77
     1
 78
     8
 79
     2
140
3.5
141
0.0
143
0.0393701
144
2.0
146
0.71
147
1.5
172
     1
173
     1
176
   256
177
   256
178
     2
271
     2
272
     3
274
     4
283
     0
284
     8
340
11
343
87
371
    -1
372
    -1
  0
DIMSTYLE
105
40B
102
{ACAD_REACTORS
330
52F9
330
52FA
330
52FB
330
52FE
330
5301
330
5304
330
5307
330
530B
330
530E
330
5311
330
5314
330
531B
330
531E
330
5321
102
}
330
A
100
AcDbSymbolTableRecord
100
AcDbDimStyleTableRecord
  2
AM_ISO$0
 70
     0
  4
"
 41
3.0
 42
1.0
 43
8.0
 44
1.5
 47
0.1
 48
0.1
 73
     0
 74
     0
 77
     1
 78
     8
 79
     2
140
3.5
141
0.0
143
0.0393701
146
0.6
147
0.7
172
     1
176
   256
177
   256
178
   256
271
     2
272
     2
283
     0
284
     8
340
11
371
    -1
372
    -1
  0
DIMSTYLE
105
4C95
330
A
100
AcDbSymbolTableRecord
100
AcDbDimStyleTableRecord
  2
AM_ANSI
 70
     0
  4
mm
 41
0.1
 42
0.05
 43
0.5
 44
0.1
 47
0.1
 48
0.1
 78
     7
 79
     2
140
0.12
141
0.0
146
0.71
147
0.06
176
   256
177
   256
178
     2
274
     4
284
     7
340
11
371
    -1
372
    -1
  0
DIMSTYLE
105
4C96
330
A
100
AcDbSymbolTableRecord
100
AcDbDimStyleTableRecord
  2
AM_ANSI$3
 70
     0
  4
mm
 41
0.1
 42
0.05
 43
0.5
 44
0.1
 47
0.1
 48
0.1
 78
     7
 79
     2
140
0.12
141
0.0
146
0.71
147
0.06
176
   256
177
   256
178
     2
274
     4
284
     7
288
     1
289
     0
340
11
371
    -1
372
    -1
  0
DIMSTYLE
105
4C97
330
A
100
AcDbSymbolTableRecord
100
AcDbDimStyleTableRecord
  2
AM_ANSI$4
 70
     0
  4
mm
 41
0.1
 42
0.05
 43
0.5
 44
0.1
 47
0.1
 48
0.1
 78
     7
 79
     2
140
0.12
141
0.0
146
0.71
147
0.06
176
   256
177
   256
178
     2
274
     4
284
     7
288
     1
289
     0
340
11
371
    -1
372
    -1
  0
DIMSTYLE
105
4C98
330
A
100
AcDbSymbolTableRecord
100
AcDbDimStyleTableRecord
  2
AM_ANSI$7
 70
     0
  4
mm
 41
0.1
 42
0.05
 43
0.5
 44
0.1
 47
0.1
 48
0.1
 78
     7
 79
     2
140
0.24
141
0.0
146
0.71
147
0.06
176
   256
177
   256
178
     2
274
     4
284
     7
340
11
371
    -1
372
    -1
  0
DIMSTYLE
105
4C99
330
A
100
AcDbSymbolTableRecord
100
AcDbDimStyleTableRecord
  2
AM_ANSI$SF
 70
     0
  4
mm
 41
0.1
 42
0.05
 43
0.5
 44
0.1
 47
0.1
 48
0.1
 75
     1
 76
     1
 78
     7
 79
     2
140
0.12
141
0.0
146
0.71
147
0.06
176
   256
177
   256
178
     2
274
     4
284
     7
340
11
371
    -1
372
    -1
  0
DIMSTYLE
105
4C9A
330
A
100
AcDbSymbolTableRecord
100
AcDbDimStyleTableRecord
  2
AM_ANSI$SH
 70
     0
  4
mm
 41
0.1
 42
0.05
 43
0.5
 44
0.1
 47
0.1
 48
0.1
 75
     1
 76
     1
 78
     7
 79
     2
140
0.12
141
0.0
146
0.71
147
0.06
173
     1
176
   256
177
   256
178
     2
274
     4
284
     7
340
11
343
87
371
    -1
372
    -1
  0
ENDTAB
  0
TABLE
  2
BLOCK_RECORD
  5
1
330
0
100
AcDbSymbolTable
 70
    24
  0
BLOCK_RECORD
  5
1F
102
{ACAD_XDICTIONARY
360
8F
102
}
330
1
100
AcDbSymbolTableRecord
100
AcDbBlockTableRecord
  2
*Model_Space
340
22
  0
BLOCK_RECORD
  5
1B
330
1
100
AcDbSymbolTableRecord
100
AcDbBlockTableRecord
  2
*Paper_Space
340
1E
  0
BLOCK_RECORD
  5
23
330
1
100
AcDbSymbolTableRecord
100
AcDbBlockTableRecord
  2
*Paper_Space0
340
26
  0
BLOCK_RECORD
  5
87
330
1
100
AcDbSymbolTableRecord
100
AcDbBlockTableRecord
  2
GENAXEH
340
0
  0
BLOCK_RECORD
  5
107B
330
1
100
AcDbSymbolTableRecord
100
AcDbBlockTableRecord
  2
*U4
340
0
  0
BLOCK_RECORD
  5
534E
330
1
100
AcDbSymbolTableRecord
100
AcDbBlockTableRecord
  2
*D5
340
0
  0
BLOCK_RECORD
  5
535A
330
1
100
AcDbSymbolTableRecord
100
AcDbBlockTableRecord
  2
*D6
340
0
  0
BLOCK_RECORD
  5
5366
330
1
100
AcDbSymbolTableRecord
100
AcDbBlockTableRecord
  2
*D7
340
0
  0
BLOCK_RECORD
  5
5386
330
1
100
AcDbSymbolTableRecord
100
AcDbBlockTableRecord
  2
*D8
340
0
  0
BLOCK_RECORD
  5
5392
330
1
100
AcDbSymbolTableRecord
100
AcDbBlockTableRecord
  2
*D9
340
0
  0
BLOCK_RECORD
  5
539E
330
1
100
AcDbSymbolTableRecord
100
AcDbBlockTableRecord
  2
*D10
340
0
  0
BLOCK_RECORD
  5
53AA
330
1
100
AcDbSymbolTableRecord
100
AcDbBlockTableRecord
  2
*D11
340
0
  0
BLOCK_RECORD
  5
53B6
330
1
100
AcDbSymbolTableRecord
100
AcDbBlockTableRecord
  2
*D12
340
0
  0
BLOCK_RECORD
  5
53C2
330
1
100
AcDbSymbolTableRecord
100
AcDbBlockTableRecord
  2
*D13
340
0
  0
BLOCK_RECORD
  5
53CE
330
1
100
AcDbSymbolTableRecord
100
AcDbBlockTableRecord
  2
*D14
340
0
  0
BLOCK_RECORD
  5
53DA
330
1
100
AcDbSymbolTableRecord
100
AcDbBlockTableRecord
  2
*D15
340
0
  0
BLOCK_RECORD
  5
53E8
330
1
100
AcDbSymbolTableRecord
100
AcDbBlockTableRecord
  2
*D16
340
0
  0
BLOCK_RECORD
  5
53F6
330
1
100
AcDbSymbolTableRecord
100
AcDbBlockTableRecord
  2
*D17
340
0
  0
BLOCK_RECORD
  5
5402
330
1
100
AcDbSymbolTableRecord
100
AcDbBlockTableRecord
  2
*D18
340
0
  0
BLOCK_RECORD
  5
5694
330
1
100
AcDbSymbolTableRecord
100
AcDbBlockTableRecord
  2
*S20
340
0
  0
BLOCK_RECORD
  5
569C
330
1
100
AcDbSymbolTableRecord
100
AcDbBlockTableRecord
  2
*S21
340
0
  0
BLOCK_RECORD
  5
56A4
330
1
100
AcDbSymbolTableRecord
100
AcDbBlockTableRecord
  2
*S22
340
0
  0
BLOCK_RECORD
  5
56AC
330
1
100
AcDbSymbolTableRecord
100
AcDbBlockTableRecord
  2
*S23
340
0
  0
ENDTAB
  0
ENDSEC
  0
SECTION
  2
BLOCKS
  0
BLOCK
  5
20
330
1F
100
AcDbEntity
  8
0
100
AcDbBlockBegin
  2
*Model_Space
 70
     0
 10
0.0
 20
0.0
 30
0.0
  3
*Model_Space
  1

  0
ENDBLK
  5
21
330
1F
100
AcDbEntity
  8
0
100
AcDbBlockEnd
  0
BLOCK
  5
1C
330
1B
100
AcDbEntity
 67
     1
  8
0
100
AcDbBlockBegin
  2
*Paper_Space
 70
     0
 10
0.0
 20
0.0
 30
0.0
  3
*Paper_Space
  1

  0
ENDBLK
  5
1D
330
1B
100
AcDbEntity
 67
     1
  8
0
100
AcDbBlockEnd
  0
BLOCK
  5
24
330
23
100
AcDbEntity
  8
0
100
AcDbBlockBegin
  2
*Paper_Space0
 70
     0
 10
0.0
 20
0.0
 30
0.0
  3
*Paper_Space0
  1

  0
ENDBLK
  5
25
330
23
100
AcDbEntity
  8
0
100
AcDbBlockEnd
  0
BLOCK
  5
89
330
87
100
AcDbEntity
  8
0
100
AcDbBlockBegin
  2
GENAXEH
 70
     0
 10
0.0
 20
0.0
 30
0.0
  3
GENAXEH
  1

  0
LINE
  5
88
330
87
100
AcDbEntity
  8
0
100
AcDbLine
 10
-1.0
 20
0.0
 30
0.0
 11
1.0
 21
0.0
 31
0.0
  0
ENDBLK
  5
8A
330
87
100
AcDbEntity
  8
0
100
AcDbBlockEnd
  0
BLOCK
  5
107C
330
107B
100
AcDbEntity
  8
0
100
AcDbBlockBegin
  2
*U4
 70
     1
 10
0.0
 20
0.0
 30
0.0
  3
*U4
  1

  0
ENDBLK
  5
107D
330
107B
100
AcDbEntity
  8
0
100
AcDbBlockEnd
  0
BLOCK
  5
5358
330
534E
100
AcDbEntity
  8
0
100
AcDbBlockBegin
  2
*D5
 70
     1
 10
0.0
 20
0.0
 30
0.0
  3
*D5
  1

  0
LINE
  5
559A
330
534E
100
AcDbEntity
  8
AM_5
100
AcDbLine
 10
193.1985697820329
 20
320.5278869263595
 30
0.0
 11
193.1985697820329
 21
309.5278869263595
 31
0.0
  0
LINE
  5
559B
330
534E
100
AcDbEntity
  8
AM_5
100
AcDbLine
 10
214.698569782033
 20
322.7778869263595
 30
0.0
 11
214.698569782033
 21
309.5278869263595
 31
0.0
  0
LINE
  5
559C
330
534E
100
AcDbEntity
  8
AM_5
100
AcDbLine
 10
196.1985697820329
 20
311.0278869263595
 30
0.0
 11
211.698569782033
 21
311.0278869263595
 31
0.0
  0
SOLID
  5
559D
330
534E
100
AcDbEntity
  8
AM_5
100
AcDbTrace
 10
196.1985697820329
 20
311.5278869263595
 30
0.0
 11
196.1985697820329
 21
310.5278869263595
 31
0.0
 12
193.1985697820329
 22
311.0278869263595
 32
0.0
 13
193.1985697820329
 23
311.0278869263595
 33
0.0
  0
SOLID
  5
559E
330
534E
100
AcDbEntity
  8
AM_5
100
AcDbTrace
 10
211.698569782033
 20
311.5278869263595
 30
0.0
 11
211.698569782033
 21
310.5278869263595
 31
0.0
 12
214.698569782033
 22
311.0278869263595
 32
0.0
 13
214.698569782033
 23
311.0278869263595
 33
0.0
  0
MTEXT
  5
559F
330
534E
100
AcDbEntity
  8
AM_5
100
AcDbMText
 10
203.9485697820329
 20
313.4782314145485
 30
0.0
 40
3.5
 41
0.0
 71
     5
 72
     1
  1
21.5
 73
     1
 44
1.0
1001
ACAD
1000
MTEXTBEGIN
1070
    73
1070
     1
1070
    44
1040
1.0
1070
    74
1070
     0
1000
MTEXTEND
  0
POINT
  5
55A0
330
534E
100
AcDbEntity
  8
Defpoints
 62
     0
100
AcDbPoint
 10
193.1985697820329
 20
321.5278869263595
 30
0.0
  0
POINT
  5
55A1
330
534E
100
AcDbEntity
  8
Defpoints
 62
     0
100
AcDbPoint
 10
214.698569782033
 20
323.7778869263595
 30
0.0
  0
POINT
  5
55A2
330
534E
100
AcDbEntity
  8
Defpoints
 62
     0
100
AcDbPoint
 10
214.698569782033
 20
311.0278869263595
 30
0.0
  0
ENDBLK
  5
5359
330
534E
100
AcDbEntity
  8
0
100
AcDbBlockEnd
  0
BLOCK
  5
5364
330
535A
100
AcDbEntity
  8
0
100
AcDbBlockBegin
  2
*D6
 70
     1
 10
0.0
 20
0.0
 30
0.0
  3
*D6
  1

  0
LINE
  5
55A3
330
535A
100
AcDbEntity
  8
AM_5
100
AcDbLine
 10
214.698569782033
 20
322.7778869263595
 30
0.0
 11
214.698569782033
 21
309.5278869263595
 31
0.0
  0
LINE
  5
55A4
330
535A
100
AcDbEntity
  8
AM_5
100
AcDbLine
 10
229.1985697820329
 20
323.2778869263595
 30
0.0
 11
229.1985697820329
 21
309.5278869263595
 31
0.0
  0
LINE
  5
55A5
330
535A
100
AcDbEntity
  8
AM_5
100
AcDbLine
 10
217.698569782033
 20
311.0278869263595
 30
0.0
 11
226.198569782033
 21
311.0278869263595
 31
0.0
  0
SOLID
  5
55A6
330
535A
100
AcDbEntity
  8
AM_5
100
AcDbTrace
 10
217.698569782033
 20
311.5278869263595
 30
0.0
 11
217.698569782033
 21
310.5278869263595
 31
0.0
 12
214.698569782033
 22
311.0278869263595
 32
0.0
 13
214.698569782033
 23
311.0278869263595
 33
0.0
  0
SOLID
  5
55A7
330
535A
100
AcDbEntity
  8
AM_5
100
AcDbTrace
 10
226.198569782033
 20
311.5278869263595
 30
0.0
 11
226.198569782033
 21
310.5278869263595
 31
0.0
 12
229.1985697820329
 22
311.0278869263595
 32
0.0
 13
229.1985697820329
 23
311.0278869263595
 33
0.0
  0
MTEXT
  5
55A8
330
535A
100
AcDbEntity
  8
AM_5
100
AcDbMText
 10
221.948569782033
 20
313.4778869263595
 30
0.0
 40
3.5
 41
0.0
 71
     5
 72
     1
  1
14.5
 73
     1
 44
1.0
1001
ACAD
1000
MTEXTBEGIN
1070
    73
1070
     1
1070
    44
1040
1.0
1070
    74
1070
     0
1000
MTEXTEND
  0
POINT
  5
55A9
330
535A
100
AcDbEntity
  8
Defpoints
 62
     0
100
AcDbPoint
 10
214.698569782033
 20
323.7778869263595
 30
0.0
  0
POINT
  5
55AA
330
535A
100
AcDbEntity
  8
Defpoints
 62
     0
100
AcDbPoint
 10
229.1985697820329
 20
324.2778869263595
 30
0.0
  0
POINT
  5
55AB
330
535A
100
AcDbEntity
  8
Defpoints
 62
     0
100
AcDbPoint
 10
229.1985697820329
 20
311.0278869263595
 30
0.0
  0
ENDBLK
  5
5365
330
535A
100
AcDbEntity
  8
0
100
AcDbBlockEnd
  0
BLOCK
  5
5372
330
5366
100
AcDbEntity
  8
0
100
AcDbBlockBegin
  2
*D7
 70
     1
 10
0.0
 20
0.0
 30
0.0
  3
*D7
  1

  0
LINE
  5
5613
330
5366
100
AcDbEntity
  8
AM_5
100
AcDbLine
 10
204.698569782033
 20
391.2331016841912
 30
0.0
 11
197.9559742020885
 21
391.2331016841912
 31
0.0
  0
LINE
  5
5614
330
5366
100
AcDbEntity
  8
AM_5
100
AcDbLine
 10
204.698569782033
 20
388.2331016841912
 30
0.0
 11
197.9559742020885
 21
388.2331016841912
 31
0.0
  0
LINE
  5
5615
330
5366
100
AcDbEntity
  8
AM_5
100
AcDbLine
 10
199.4559742020885
 20
385.2331016841912
 30
0.0
 11
199.4559742020885
 21
382.2331016841912
 31
0.0
  0
LINE
  5
5616
330
5366
100
AcDbEntity
  8
AM_5
100
AcDbLine
 10
199.4559742020885
 20
394.2331016841912
 30
0.0
 11
199.4559742020885
 21
400.1780764310218
 31
0.0
  0
LINE
  5
5617
330
5366
100
AcDbEntity
  8
AM_5
100
AcDbLine
 10
199.4559742020885
 20
388.2331016841912
 30
0.0
 11
199.4559742020885
 21
391.2331016841912
 31
0.0
  0
SOLID
  5
5618
330
5366
100
AcDbEntity
  8
AM_5
100
AcDbTrace
 10
198.9559742020885
 20
385.2331016841912
 30
0.0
 11
199.9559742020885
 21
385.2331016841912
 31
0.0
 12
199.4559742020885
 22
388.2331016841912
 32
0.0
 13
199.4559742020885
 23
388.2331016841912
 33
0.0
  0
SOLID
  5
5619
330
5366
100
AcDbEntity
  8
AM_5
100
AcDbTrace
 10
198.9559742020885
 20
394.2331016841912
 30
0.0
 11
199.9559742020885
 21
394.2331016841912
 31
0.0
 12
199.4559742020885
 22
391.2331016841912
 32
0.0
 13
199.4559742020885
 23
391.2331016841912
 33
0.0
  0
MTEXT
  5
561A
330
5366
100
AcDbEntity
  8
AM_5
100
AcDbMText
 10
197.0059742020884
 20
398.7055890576066
 30
0.0
 40
3.5
 41
0.0
 71
     5
 72
     1
  1
3
 11
0.0000000000000001
 21
1.0
 31
0.0
 73
     1
 44
1.0
1001
ACAD
1000
MTEXTBEGIN
1070
    73
1070
     1
1070
    44
1040
1.0
1070
    74
1070
     0
1000
MTEXTEND
  0
POINT
  5
561B
330
5366
100
AcDbEntity
  8
Defpoints
 62
     0
100
AcDbPoint
 10
205.698569782033
 20
391.2331016841912
 30
0.0
  0
POINT
  5
561C
330
5366
100
AcDbEntity
  8
Defpoints
 62
     0
100
AcDbPoint
 10
205.698569782033
 20
388.2331016841912
 30
0.0
  0
POINT
  5
561D
330
5366
100
AcDbEntity
  8
Defpoints
 62
     0
100
AcDbPoint
 10
199.4559742020885
 20
388.2331016841912
 30
0.0
  0
ENDBLK
  5
5373
330
5366
100
AcDbEntity
  8
0
100
AcDbBlockEnd
  0
BLOCK
  5
5390
330
5386
100
AcDbEntity
  8
0
100
AcDbBlockBegin
  2
*D8
 70
     1
 10
0.0
 20
0.0
 30
0.0
  3
*D8
  1

  0
LINE
  5
55AC
330
5386
100
AcDbEntity
  8
AM_5
100
AcDbLine
 10
255.698569782033
 20
364.2331016841912
 30
0.0
 11
266.1985697820329
 21
364.2331016841912
 31
0.0
  0
LINE
  5
55AD
330
5386
100
AcDbEntity
  8
AM_5
100
AcDbLine
 10
255.698569782033
 20
391.2331016841912
 30
0.0
 11
266.198569782033
 21
391.2331016841912
 31
0.0
  0
LINE
  5
55AE
330
5386
100
AcDbEntity
  8
AM_5
100
AcDbLine
 10
264.6985697820329
 20
367.2331016841912
 30
0.0
 11
264.698569782033
 21
388.2331016841912
 31
0.0
  0
SOLID
  5
55AF
330
5386
100
AcDbEntity
  8
AM_5
100
AcDbTrace
 10
264.1985697820329
 20
367.2331016841912
 30
0.0
 11
265.1985697820329
 21
367.2331016841912
 31
0.0
 12
264.6985697820329
 22
364.2331016841912
 32
0.0
 13
264.6985697820329
 23
364.2331016841912
 33
0.0
  0
SOLID
  5
55B0
330
5386
100
AcDbEntity
  8
AM_5
100
AcDbTrace
 10
264.1985697820329
 20
388.2331016841912
 30
0.0
 11
265.198569782033
 21
388.2331016841912
 31
0.0
 12
264.698569782033
 22
391.2331016841912
 32
0.0
 13
264.698569782033
 23
391.2331016841912
 33
0.0
  0
MTEXT
  5
55B1
330
5386
100
AcDbEntity
  8
AM_5
100
AcDbMText
 10
262.2482252938439
 20
377.7331016841912
 30
0.0
 40
3.5
 41
0.0
 71
     5
 72
     1
  1
27
 11
0.0000000000000001
 21
1.0
 31
0.0
 73
     1
 44
1.0
1001
ACAD
1000
MTEXTBEGIN
1070
    73
1070
     1
1070
    44
1040
1.0
1070
    74
1070
     0
1000
MTEXTEND
  0
POINT
  5
55B2
330
5386
100
AcDbEntity
  8
Defpoints
 62
     0
100
AcDbPoint
 10
254.698569782033
 20
364.2331016841912
 30
0.0
  0
POINT
  5
55B3
330
5386
100
AcDbEntity
  8
Defpoints
 62
     0
100
AcDbPoint
 10
254.698569782033
 20
391.2331016841912
 30
0.0
  0
POINT
  5
55B4
330
5386
100
AcDbEntity
  8
Defpoints
 62
     0
100
AcDbPoint
 10
264.698569782033
 20
391.2331016841912
 30
0.0
  0
ENDBLK
  5
5391
330
5386
100
AcDbEntity
  8
0
100
AcDbBlockEnd
  0
BLOCK
  5
539C
330
5392
100
AcDbEntity
  8
0
100
AcDbBlockBegin
  2
*D9
 70
     1
 10
0.0
 20
0.0
 30
0.0
  3
*D9
  1

  0
LINE
  5
55B5
330
5392
100
AcDbEntity
  8
AM_5
100
AcDbLine
 10
193.1985697820329
 20
443.264214291985
 30
0.0
 11
193.1985697820329
 21
454.264214291985
 31
0.0
  0
LINE
  5
55B6
330
5392
100
AcDbEntity
  8
AM_5
100
AcDbLine
 10
222.6985697820329
 20
442.014214291985
 30
0.0
 11
222.6985697820329
 21
454.264214291985
 31
0.0
  0
LINE
  5
55B7
330
5392
100
AcDbEntity
  8
AM_5
100
AcDbLine
 10
196.1985697820329
 20
452.764214291985
 30
0.0
 11
219.698569782033
 21
452.764214291985
 31
0.0
  0
SOLID
  5
55B8
330
5392
100
AcDbEntity
  8
AM_5
100
AcDbTrace
 10
196.1985697820329
 20
453.264214291985
 30
0.0
 11
196.1985697820329
 21
452.264214291985
 31
0.0
 12
193.1985697820329
 22
452.764214291985
 32
0.0
 13
193.1985697820329
 23
452.764214291985
 33
0.0
  0
SOLID
  5
55B9
330
5392
100
AcDbEntity
  8
AM_5
100
AcDbTrace
 10
219.698569782033
 20
453.264214291985
 30
0.0
 11
219.698569782033
 21
452.264214291985
 31
0.0
 12
222.6985697820329
 22
452.764214291985
 32
0.0
 13
222.6985697820329
 23
452.764214291985
 33
0.0
  0
MTEXT
  5
55BA
330
5392
100
AcDbEntity
  8
AM_5
100
AcDbMText
 10
207.9485697820329
 20
455.214558780174
 30
0.0
 40
3.5
 41
0.0
 71
     5
 72
     1
  1
29.5
 73
     1
 44
1.0
1001
ACAD
1000
MTEXTBEGIN
1070
    73
1070
     1
1070
    44
1040
1.0
1070
    74
1070
     0
1000
MTEXTEND
  0
POINT
  5
55BB
330
5392
100
AcDbEntity
  8
Defpoints
 62
     0
100
AcDbPoint
 10
193.1985697820329
 20
442.2642142919849
 30
0.0
  0
POINT
  5
55BC
330
5392
100
AcDbEntity
  8
Defpoints
 62
     0
100
AcDbPoint
 10
222.6985697820329
 20
441.014214291985
 30
0.0
  0
POINT
  5
55BD
330
5392
100
AcDbEntity
  8
Defpoints
 62
     0
100
AcDbPoint
 10
222.6985697820329
 20
452.764214291985
 30
0.0
  0
ENDBLK
  5
539D
330
5392
100
AcDbEntity
  8
0
100
AcDbBlockEnd
  0
BLOCK
  5
53A8
330
539E
100
AcDbEntity
  8
0
100
AcDbBlockBegin
  2
*D10
 70
     1
 10
0.0
 20
0.0
 30
0.0
  3
*D10
  1

  0
LINE
  5
55BE
330
539E
100
AcDbEntity
  8
AM_5
100
AcDbLine
 10
193.1985697820329
 20
424.264214291985
 30
0.0
 11
193.1985697820329
 21
413.2642142919849
 31
0.0
  0
LINE
  5
55BF
330
539E
100
AcDbEntity
  8
AM_5
100
AcDbLine
 10
208.698569782033
 20
422.264214291985
 30
0.0
 11
208.698569782033
 21
413.2642142919849
 31
0.0
  0
LINE
  5
55C0
330
539E
100
AcDbEntity
  8
AM_5
100
AcDbLine
 10
196.1985697820329
 20
414.764214291985
 30
0.0
 11
205.698569782033
 21
414.764214291985
 31
0.0
  0
SOLID
  5
55C1
330
539E
100
AcDbEntity
  8
AM_5
100
AcDbTrace
 10
196.1985697820329
 20
415.264214291985
 30
0.0
 11
196.1985697820329
 21
414.264214291985
 31
0.0
 12
193.1985697820329
 22
414.764214291985
 32
0.0
 13
193.1985697820329
 23
414.764214291985
 33
0.0
  0
SOLID
  5
55C2
330
539E
100
AcDbEntity
  8
AM_5
100
AcDbTrace
 10
205.698569782033
 20
415.264214291985
 30
0.0
 11
205.698569782033
 21
414.264214291985
 31
0.0
 12
208.698569782033
 22
414.764214291985
 32
0.0
 13
208.698569782033
 23
414.764214291985
 33
0.0
  0
MTEXT
  5
55C3
330
539E
100
AcDbEntity
  8
AM_5
100
AcDbMText
 10
200.948569782033
 20
417.214214291985
 30
0.0
 40
3.5
 41
0.0
 71
     5
 72
     1
  1
15.5
 73
     1
 44
1.0
1001
ACAD
1000
MTEXTBEGIN
1070
    73
1070
     1
1070
    44
1040
1.0
1070
    74
1070
     0
1000
MTEXTEND
  0
POINT
  5
55C4
330
539E
100
AcDbEntity
  8
Defpoints
 62
     0
100
AcDbPoint
 10
193.1985697820329
 20
425.2642142919849
 30
0.0
  0
POINT
  5
55C5
330
539E
100
AcDbEntity
  8
Defpoints
 62
     0
100
AcDbPoint
 10
208.698569782033
 20
423.264214291985
 30
0.0
  0
POINT
  5
55C6
330
539E
100
AcDbEntity
  8
Defpoints
 62
     0
100
AcDbPoint
 10
208.698569782033
 20
414.764214291985
 30
0.0
  0
ENDBLK
  5
53A9
330
539E
100
AcDbEntity
  8
0
100
AcDbBlockEnd
  0
BLOCK
  5
53B4
330
53AA
100
AcDbEntity
  8
0
100
AcDbBlockBegin
  2
*D11
 70
     1
 10
0.0
 20
0.0
 30
0.0
  3
*D11
  1

  0
LINE
  5
55C7
330
53AA
100
AcDbEntity
  8
AM_5
100
AcDbLine
 10
208.698569782033
 20
422.264214291985
 30
0.0
 11
208.698569782033
 21
413.264214291985
 31
0.0
  0
LINE
  5
55C8
330
53AA
100
AcDbEntity
  8
AM_5
100
AcDbLine
 10
231.698569782033
 20
435.264214291985
 30
0.0
 11
231.698569782033
 21
413.264214291985
 31
0.0
  0
LINE
  5
55C9
330
53AA
100
AcDbEntity
  8
AM_5
100
AcDbLine
 10
211.698569782033
 20
414.764214291985
 30
0.0
 11
228.698569782033
 21
414.764214291985
 31
0.0
  0
SOLID
  5
55CA
330
53AA
100
AcDbEntity
  8
AM_5
100
AcDbTrace
 10
211.698569782033
 20
415.264214291985
 30
0.0
 11
211.698569782033
 21
414.264214291985
 31
0.0
 12
208.698569782033
 22
414.764214291985
 32
0.0
 13
208.698569782033
 23
414.764214291985
 33
0.0
  0
SOLID
  5
55CB
330
53AA
100
AcDbEntity
  8
AM_5
100
AcDbTrace
 10
228.698569782033
 20
415.264214291985
 30
0.0
 11
228.698569782033
 21
414.264214291985
 31
0.0
 12
231.698569782033
 22
414.764214291985
 32
0.0
 13
231.698569782033
 23
414.764214291985
 33
0.0
  0
MTEXT
  5
55CC
330
53AA
100
AcDbEntity
  8
AM_5
100
AcDbMText
 10
220.198569782033
 20
417.2145587801741
 30
0.0
 40
3.5
 41
0.0
 71
     5
 72
     1
  1
23
 73
     1
 44
1.0
1001
ACAD
1000
MTEXTBEGIN
1070
    73
1070
     1
1070
    44
1040
1.0
1070
    74
1070
     0
1000
MTEXTEND
  0
POINT
  5
55CD
330
53AA
100
AcDbEntity
  8
Defpoints
 62
     0
100
AcDbPoint
 10
208.698569782033
 20
423.264214291985
 30
0.0
  0
POINT
  5
55CE
330
53AA
100
AcDbEntity
  8
Defpoints
 62
     0
100
AcDbPoint
 10
231.698569782033
 20
436.264214291985
 30
0.0
  0
POINT
  5
55CF
330
53AA
100
AcDbEntity
  8
Defpoints
 62
     0
100
AcDbPoint
 10
231.698569782033
 20
414.764214291985
 30
0.0
  0
ENDBLK
  5
53B5
330
53AA
100
AcDbEntity
  8
0
100
AcDbBlockEnd
  0
BLOCK
  5
53C0
330
53B6
100
AcDbEntity
  8
0
100
AcDbBlockBegin
  2
*D12
 70
     1
 10
0.0
 20
0.0
 30
0.0
  3
*D12
  1

  0
LINE
  5
55D0
330
53B6
100
AcDbEntity
  8
AM_5
100
AcDbLine
 10
203.698569782033
 20
427.264214291985
 30
0.0
 11
181.6985697820329
 21
427.264214291985
 31
0.0
  0
LINE
  5
55D1
330
53B6
100
AcDbEntity
  8
AM_5
100
AcDbLine
 10
226.6985697820329
 20
440.264214291985
 30
0.0
 11
181.6985697820329
 21
440.264214291985
 31
0.0
  0
LINE
  5
55D2
330
53B6
100
AcDbEntity
  8
AM_5
100
AcDbLine
 10
183.1985697820329
 20
430.2642142919849
 30
0.0
 11
183.1985697820329
 21
437.264214291985
 31
0.0
  0
SOLID
  5
55D3
330
53B6
100
AcDbEntity
  8
AM_5
100
AcDbTrace
 10
182.6985697820329
 20
430.2642142919849
 30
0.0
 11
183.6985697820329
 21
430.2642142919849
 31
0.0
 12
183.1985697820329
 22
427.264214291985
 32
0.0
 13
183.1985697820329
 23
427.264214291985
 33
0.0
  0
SOLID
  5
55D4
330
53B6
100
AcDbEntity
  8
AM_5
100
AcDbTrace
 10
182.6985697820329
 20
437.264214291985
 30
0.0
 11
183.6985697820329
 21
437.264214291985
 31
0.0
 12
183.1985697820329
 22
440.264214291985
 32
0.0
 13
183.1985697820329
 23
440.264214291985
 33
0.0
  0
MTEXT
  5
55D5
330
53B6
100
AcDbEntity
  8
AM_5
100
AcDbMText
 10
180.7485697820329
 20
433.764214291985
 30
0.0
 40
3.5
 41
0.0
 71
     5
 72
     1
  1
13
 11
0.0000000000000001
 21
1.0
 31
0.0
 73
     1
 44
1.0
1001
ACAD
1000
MTEXTBEGIN
1070
    73
1070
     1
1070
    44
1040
1.0
1070
    74
1070
     0
1000
MTEXTEND
  0
POINT
  5
55D6
330
53B6
100
AcDbEntity
  8
Defpoints
 62
     0
100
AcDbPoint
 10
204.698569782033
 20
427.264214291985
 30
0.0
  0
POINT
  5
55D7
330
53B6
100
AcDbEntity
  8
Defpoints
 62
     0
100
AcDbPoint
 10
227.698569782033
 20
440.264214291985
 30
0.0
  0
POINT
  5
55D8
330
53B6
100
AcDbEntity
  8
Defpoints
 62
     0
100
AcDbPoint
 10
183.1985697820329
 20
440.264214291985
 30
0.0
  0
ENDBLK
  5
53C1
330
53B6
100
AcDbEntity
  8
0
100
AcDbBlockEnd
  0
BLOCK
  5
53CC
330
53C2
100
AcDbEntity
  8
0
100
AcDbBlockBegin
  2
*D13
 70
     1
 10
0.0
 20
0.0
 30
0.0
  3
*D13
  1

  0
LINE
  5
55D9
330
53C2
100
AcDbEntity
  8
AM_5
100
AcDbLine
 10
193.1985697820329
 20
363.7331016841912
 30
0.0
 11
193.1985697820329
 21
352.7331016841912
 31
0.0
  0
LINE
  5
55DA
330
53C2
100
AcDbEntity
  8
AM_5
100
AcDbLine
 10
206.948569782033
 20
365.6331016841912
 30
0.0
 11
206.948569782033
 21
352.7331016841912
 31
0.0
  0
LINE
  5
55DB
330
53C2
100
AcDbEntity
  8
AM_5
100
AcDbLine
 10
196.1985697820329
 20
354.2331016841912
 30
0.0
 11
203.9485697820329
 21
354.2331016841912
 31
0.0
  0
SOLID
  5
55DC
330
53C2
100
AcDbEntity
  8
AM_5
100
AcDbTrace
 10
196.1985697820329
 20
354.7331016841912
 30
0.0
 11
196.1985697820329
 21
353.7331016841912
 31
0.0
 12
193.1985697820329
 22
354.2331016841912
 32
0.0
 13
193.1985697820329
 23
354.2331016841912
 33
0.0
  0
SOLID
  5
55DD
330
53C2
100
AcDbEntity
  8
AM_5
100
AcDbTrace
 10
203.9485697820329
 20
354.7331016841912
 30
0.0
 11
203.9485697820329
 21
353.7331016841912
 31
0.0
 12
206.948569782033
 22
354.2331016841912
 32
0.0
 13
206.948569782033
 23
354.2331016841912
 33
0.0
  0
MTEXT
  5
55DE
330
53C2
100
AcDbEntity
  8
AM_5
100
AcDbMText
 10
200.073569782033
 20
356.6831016841912
 30
0.0
 40
3.5
 41
0.0
 71
     5
 72
     1
  1
13.8
 73
     1
 44
1.0
1001
ACAD
1000
MTEXTBEGIN
1070
    73
1070
     1
1070
    44
1040
1.0
1070
    74
1070
     0
1000
MTEXTEND
  0
POINT
  5
55DF
330
53C2
100
AcDbEntity
  8
Defpoints
 62
     0
100
AcDbPoint
 10
193.1985697820329
 20
364.7331016841912
 30
0.0
  0
POINT
  5
55E0
330
53C2
100
AcDbEntity
  8
Defpoints
 62
     0
100
AcDbPoint
 10
206.948569782033
 20
366.6331016841912
 30
0.0
  0
POINT
  5
55E1
330
53C2
100
AcDbEntity
  8
Defpoints
 62
     0
100
AcDbPoint
 10
206.948569782033
 20
354.2331016841912
 30
0.0
  0
ENDBLK
  5
53CD
330
53C2
100
AcDbEntity
  8
0
100
AcDbBlockEnd
  0
BLOCK
  5
53D8
330
53CE
100
AcDbEntity
  8
0
100
AcDbBlockBegin
  2
*D14
 70
     1
 10
0.0
 20
0.0
 30
0.0
  3
*D14
  1

  0
LINE
  5
55E2
330
53CE
100
AcDbEntity
  8
AM_5
100
AcDbLine
 10
206.948569782033
 20
365.6331016841912
 30
0.0
 11
206.948569782033
 21
352.7331016841912
 31
0.0
  0
LINE
  5
55E3
330
53CE
100
AcDbEntity
  8
AM_5
100
AcDbLine
 10
221.948569782033
 20
365.6331016841912
 30
0.0
 11
221.948569782033
 21
352.7331016841912
 31
0.0
  0
LINE
  5
55E4
330
53CE
100
AcDbEntity
  8
AM_5
100
AcDbLine
 10
209.948569782033
 20
354.2331016841912
 30
0.0
 11
218.948569782033
 21
354.2331016841912
 31
0.0
  0
SOLID
  5
55E5
330
53CE
100
AcDbEntity
  8
AM_5
100
AcDbTrace
 10
209.948569782033
 20
354.7331016841912
 30
0.0
 11
209.948569782033
 21
353.7331016841912
 31
0.0
 12
206.948569782033
 22
354.2331016841912
 32
0.0
 13
206.948569782033
 23
354.2331016841912
 33
0.0
  0
SOLID
  5
55E6
330
53CE
100
AcDbEntity
  8
AM_5
100
AcDbTrace
 10
218.948569782033
 20
354.7331016841912
 30
0.0
 11
218.948569782033
 21
353.7331016841912
 31
0.0
 12
221.948569782033
 22
354.2331016841912
 32
0.0
 13
221.948569782033
 23
354.2331016841912
 33
0.0
  0
MTEXT
  5
55E7
330
53CE
100
AcDbEntity
  8
AM_5
100
AcDbMText
 10
214.4485697820329
 20
356.6831016841912
 30
0.0
 40
3.5
 41
0.0
 71
     5
 72
     1
  1
15
 73
     1
 44
1.0
1001
ACAD
1000
MTEXTBEGIN
1070
    73
1070
     1
1070
    44
1040
1.0
1070
    74
1070
     0
1000
MTEXTEND
  0
POINT
  5
55E8
330
53CE
100
AcDbEntity
  8
Defpoints
 62
     0
100
AcDbPoint
 10
206.948569782033
 20
366.6331016841912
 30
0.0
  0
POINT
  5
55E9
330
53CE
100
AcDbEntity
  8
Defpoints
 62
     0
100
AcDbPoint
 10
221.948569782033
 20
366.6331016841912
 30
0.0
  0
POINT
  5
55EA
330
53CE
100
AcDbEntity
  8
Defpoints
 62
     0
100
AcDbPoint
 10
221.948569782033
 20
354.2331016841912
 30
0.0
  0
ENDBLK
  5
53D9
330
53CE
100
AcDbEntity
  8
0
100
AcDbBlockEnd
  0
BLOCK
  5
53E6
330
53DA
100
AcDbEntity
  8
0
100
AcDbBlockBegin
  2
*D15
 70
     1
 10
0.0
 20
0.0
 30
0.0
  3
*D15
  1

  0
LINE
  5
55EB
330
53DA
100
AcDbEntity
  8
AM_5
100
AcDbLine
 10
192.6985697820329
 20
364.2331016841912
 30
0.0
 11
181.6985687820329
 21
364.2331016841912
 31
0.0
  0
LINE
  5
55EC
330
53DA
100
AcDbEntity
  8
AM_5
100
AcDbLine
 10
203.348569782033
 20
369.2331016841912
 30
0.0
 11
181.6985687820329
 21
369.2331016841912
 31
0.0
  0
LINE
  5
55ED
330
53DA
100
AcDbEntity
  8
AM_5
100
AcDbLine
 10
183.1985687820329
 20
361.2331016841912
 30
0.0
 11
183.1985687820329
 21
358.2331016841912
 31
0.0
  0
LINE
  5
55EE
330
53DA
100
AcDbEntity
  8
AM_5
100
AcDbLine
 10
183.1985687820329
 20
372.2331016841912
 30
0.0
 11
183.1985687820329
 21
375.2331016841912
 31
0.0
  0
LINE
  5
55EF
330
53DA
100
AcDbEntity
  8
AM_5
100
AcDbLine
 10
183.1985687820329
 20
364.2331016841912
 30
0.0
 11
183.1985687820329
 21
369.2331016841912
 31
0.0
  0
SOLID
  5
55F0
330
53DA
100
AcDbEntity
  8
AM_5
100
AcDbTrace
 10
182.6985687820329
 20
361.2331016841912
 30
0.0
 11
183.6985687820329
 21
361.2331016841912
 31
0.0
 12
183.1985687820329
 22
364.2331016841912
 32
0.0
 13
183.1985687820329
 23
364.2331016841912
 33
0.0
  0
SOLID
  5
55F1
330
53DA
100
AcDbEntity
  8
AM_5
100
AcDbTrace
 10
182.6985687820329
 20
372.2331016841912
 30
0.0
 11
183.6985687820329
 21
372.2331016841912
 31
0.0
 12
183.1985687820329
 22
369.2331016841912
 32
0.0
 13
183.1985687820329
 23
369.2331016841912
 33
0.0
  0
MTEXT
  5
55F2
330
53DA
100
AcDbEntity
  8
AM_5
100
AcDbMText
 10
180.7485687820329
 20
366.7331016841913
 30
0.0
 40
3.5
 41
0.0
 71
     5
 72
     1
  1
5
 11
0.0000000000000001
 21
1.0
 31
0.0
 73
     1
 44
1.0
1001
ACAD
1000
MTEXTBEGIN
1070
    73
1070
     1
1070
    44
1040
1.0
1070
    74
1070
     0
1000
MTEXTEND
  0
POINT
  5
55F3
330
53DA
100
AcDbEntity
  8
Defpoints
 62
     0
100
AcDbPoint
 10
193.6985697820329
 20
364.2331016841912
 30
0.0
  0
POINT
  5
55F4
330
53DA
100
AcDbEntity
  8
Defpoints
 62
     0
100
AcDbPoint
 10
204.348569782033
 20
369.2331016841912
 30
0.0
  0
POINT
  5
55F5
330
53DA
100
AcDbEntity
  8
Defpoints
 62
     0
100
AcDbPoint
 10
183.1985687820329
 20
369.2331016841912
 30
0.0
  0
ENDBLK
  5
53E7
330
53DA
100
AcDbEntity
  8
0
100
AcDbBlockEnd
  0
BLOCK
  5
53F4
330
53E8
100
AcDbEntity
  8
0
100
AcDbBlockBegin
  2
*D16
 70
     1
 10
0.0
 20
0.0
 30
0.0
  3
*D16
  1

  0
LINE
  5
55F6
330
53E8
100
AcDbEntity
  8
AM_5
100
AcDbLine
 10
258.807754859575
 20
330.0278869263595
 30
0.0
 11
266.198569782033
 21
330.0278869263595
 31
0.0
  0
LINE
  5
55F7
330
53E8
100
AcDbEntity
  8
AM_5
100
AcDbLine
 10
236.448569782033
 20
330.5278869263595
 30
0.0
 11
266.198569782033
 21
330.5278869263595
 31
0.0
  0
LINE
  5
55F8
330
53E8
100
AcDbEntity
  8
AM_5
100
AcDbLine
 10
264.698569782033
 20
327.0278869263595
 30
0.0
 11
264.698569782033
 21
324.0278869263595
 31
0.0
  0
LINE
  5
55F9
330
53E8
100
AcDbEntity
  8
AM_5
100
AcDbLine
 10
264.698569782033
 20
333.5278869263595
 30
0.0
 11
264.698569782033
 21
342.9756175787019
 31
0.0
  0
LINE
  5
55FA
330
53E8
100
AcDbEntity
  8
AM_5
100
AcDbLine
 10
264.698569782033
 20
330.0278869263595
 30
0.0
 11
264.698569782033
 21
330.5278869263595
 31
0.0
  0
SOLID
  5
55FB
330
53E8
100
AcDbEntity
  8
AM_5
100
AcDbTrace
 10
264.1985697820329
 20
327.0278869263595
 30
0.0
 11
265.198569782033
 21
327.0278869263595
 31
0.0
 12
264.698569782033
 22
330.0278869263595
 32
0.0
 13
264.698569782033
 23
330.0278869263595
 33
0.0
  0
SOLID
  5
55FC
330
53E8
100
AcDbEntity
  8
AM_5
100
AcDbTrace
 10
264.1985697820329
 20
333.5278869263595
 30
0.0
 11
265.198569782033
 21
333.5278869263595
 31
0.0
 12
264.698569782033
 22
330.5278869263595
 32
0.0
 13
264.698569782033
 23
330.5278869263595
 33
0.0
  0
MTEXT
  5
55FD
330
53E8
100
AcDbEntity
  8
AM_5
100
AcDbMText
 10
262.2485697820329
 20
339.7517522525308
 30
0.0
 40
3.5
 41
0.0
 71
     5
 72
     1
  1
0.5
 11
0.0000000000000001
 21
1.0
 31
0.0
 73
     1
 44
1.0
1001
ACAD
1000
MTEXTBEGIN
1070
    73
1070
     1
1070
    44
1040
1.0
1070
    74
1070
     0
1000
MTEXTEND
  0
POINT
  5
55FE
330
53E8
100
AcDbEntity
  8
Defpoints
 62
     0
100
AcDbPoint
 10
257.807754859575
 20
330.0278869263595
 30
0.0
  0
POINT
  5
55FF
330
53E8
100
AcDbEntity
  8
Defpoints
 62
     0
100
AcDbPoint
 10
235.4485697820329
 20
330.5278869263595
 30
0.0
  0
POINT
  5
5600
330
53E8
100
AcDbEntity
  8
Defpoints
 62
     0
100
AcDbPoint
 10
264.698569782033
 20
330.5278869263595
 30
0.0
  0
ENDBLK
  5
53F5
330
53E8
100
AcDbEntity
  8
0
100
AcDbBlockEnd
  0
BLOCK
  5
5400
330
53F6
100
AcDbEntity
  8
0
100
AcDbBlockBegin
  2
*D17
 70
     1
 10
0.0
 20
0.0
 30
0.0
  3
*D17
  1

  0
LINE
  5
5601
330
53F6
100
AcDbEntity
  8
AM_5
100
AcDbLine
 10
192.6985697820329
 20
442.7642142919849
 30
0.0
 11
173.698569782033
 21
442.7642142919849
 31
0.0
  0
LINE
  5
5602
330
53F6
100
AcDbEntity
  8
AM_5
100
AcDbLine
 10
192.6985697820329
 20
424.764214291985
 30
0.0
 11
173.698569782033
 21
424.764214291985
 31
0.0
  0
LINE
  5
5603
330
53F6
100
AcDbEntity
  8
AM_5
100
AcDbLine
 10
175.1985697820329
 20
439.764214291985
 30
0.0
 11
175.1985697820329
 21
427.764214291985
 31
0.0
  0
SOLID
  5
5604
330
53F6
100
AcDbEntity
  8
AM_5
100
AcDbTrace
 10
174.6985697820329
 20
439.764214291985
 30
0.0
 11
175.6985697820329
 21
439.764214291985
 31
0.0
 12
175.1985697820329
 22
442.7642142919849
 32
0.0
 13
175.1985697820329
 23
442.7642142919849
 33
0.0
  0
SOLID
  5
5605
330
53F6
100
AcDbEntity
  8
AM_5
100
AcDbTrace
 10
174.6985697820329
 20
427.764214291985
 30
0.0
 11
175.6985697820329
 21
427.764214291985
 31
0.0
 12
175.1985697820329
 22
424.764214291985
 32
0.0
 13
175.1985697820329
 23
424.764214291985
 33
0.0
  0
MTEXT
  5
5606
330
53F6
100
AcDbEntity
  8
AM_5
100
AcDbMText
 10
172.7485697820329
 20
433.764214291985
 30
0.0
 40
3.5
 41
0.0
 71
     5
 72
     1
  1
18
 11
0.0000000000000001
 21
1.0
 31
0.0
 73
     1
 44
1.0
1001
ACAD
1000
MTEXTBEGIN
1070
    73
1070
     1
1070
    44
1040
1.0
1070
    74
1070
     0
1000
MTEXTEND
  0
POINT
  5
5607
330
53F6
100
AcDbEntity
  8
Defpoints
 62
     0
100
AcDbPoint
 10
193.6985697820329
 20
442.7642142919849
 30
0.0
  0
POINT
  5
5608
330
53F6
100
AcDbEntity
  8
Defpoints
 62
     0
100
AcDbPoint
 10
193.6985697820329
 20
424.764214291985
 30
0.0
  0
POINT
  5
5609
330
53F6
100
AcDbEntity
  8
Defpoints
 62
     0
100
AcDbPoint
 10
175.1985697820329
 20
424.764214291985
 30
0.0
  0
ENDBLK
  5
5401
330
53F6
100
AcDbEntity
  8
0
100
AcDbBlockEnd
  0
BLOCK
  5
540C
330
5402
100
AcDbEntity
  8
0
100
AcDbBlockBegin
  2
*D18
 70
     1
 10
0.0
 20
0.0
 30
0.0
  3
*D18
  1

  0
LINE
  5
560A
330
5402
100
AcDbEntity
  8
AM_5
100
AcDbLine
 10
193.1985697820329
 20
424.264214291985
 30
0.0
 11
193.1985697820329
 21
405.2642142919848
 31
0.0
  0
LINE
  5
560B
330
5402
100
AcDbEntity
  8
AM_5
100
AcDbLine
 10
254.698569782033
 20
423.764214291985
 30
0.0
 11
254.698569782033
 21
405.2642142919848
 31
0.0
  0
LINE
  5
560C
330
5402
100
AcDbEntity
  8
AM_5
100
AcDbLine
 10
196.1985697820329
 20
406.7642142919849
 30
0.0
 11
251.6985697820329
 21
406.7642142919849
 31
0.0
  0
SOLID
  5
560D
330
5402
100
AcDbEntity
  8
AM_5
100
AcDbTrace
 10
196.1985697820329
 20
407.2642142919849
 30
0.0
 11
196.1985697820329
 21
406.2642142919848
 31
0.0
 12
193.1985697820329
 22
406.7642142919849
 32
0.0
 13
193.1985697820329
 23
406.7642142919849
 33
0.0
  0
SOLID
  5
560E
330
5402
100
AcDbEntity
  8
AM_5
100
AcDbTrace
 10
251.6985697820329
 20
407.2642142919849
 30
0.0
 11
251.6985697820329
 21
406.2642142919848
 31
0.0
 12
254.698569782033
 22
406.7642142919849
 32
0.0
 13
254.698569782033
 23
406.7642142919849
 33
0.0
  0
MTEXT
  5
560F
330
5402
100
AcDbEntity
  8
AM_5
100
AcDbMText
 10
223.948569782033
 20
409.2142142919849
 30
0.0
 40
3.5
 41
0.0
 71
     5
 72
     1
  1
61.5
 73
     1
 44
1.0
1001
ACAD
1000
MTEXTBEGIN
1070
    73
1070
     1
1070
    44
1040
1.0
1070
    74
1070
     0
1000
MTEXTEND
  0
POINT
  5
5610
330
5402
100
AcDbEntity
  8
Defpoints
 62
     0
100
AcDbPoint
 10
193.1985697820329
 20
425.2642142919849
 30
0.0
  0
POINT
  5
5611
330
5402
100
AcDbEntity
  8
Defpoints
 62
     0
100
AcDbPoint
 10
254.698569782033
 20
424.764214291985
 30
0.0
  0
POINT
  5
5612
330
5402
100
AcDbEntity
  8
Defpoints
 62
     0
100
AcDbPoint
 10
254.698569782033
 20
406.7642142919849
 30
0.0
  0
ENDBLK
  5
540D
330
5402
100
AcDbEntity
  8
0
100
AcDbBlockEnd
  0
BLOCK
  5
5699
330
5694
100
AcDbEntity
  8
0
100
AcDbBlockBegin
  2
*S20
 70
     1
 10
0.0
 20
0.0
 30
0.0
  3
*S20
  1

  0
LINE
  5
5695
330
5694
100
AcDbEntity
  8
AM_5
 62
     5
100
AcDbLine
 10
260.4399625671511
 20
345.2271759857372
 30
0.0
 11
242.462638642083
 21
345.2271759857372
 31
0.0
  0
LINE
  5
5696
330
5694
100
AcDbEntity
  8
AM_5
 62
     5
100
AcDbLine
 10
242.462638642083
 20
345.2271759857372
 30
0.0
 11
235.4437333373211
 21
336.5436660452421
 31
0.0
  0
TRACE
  5
5697
330
5694
100
AcDbEntity
  8
AM_5
 62
     5
370
    35
100
AcDbTrace
 10
235.0853776522202
 20
336.8333259450271
 30
0.0
 11
235.802089022422
 21
336.254006145457
 31
0.0
 12
233.2435479524207
 22
333.8216843641739
 32
0.0
 13
233.2435479524207
 23
333.8216843641739
 33
0.0
  0
MTEXT
  5
5698
330
5694
100
AcDbEntity
  8
AM_5
 62
     5
100
AcDbMText
 10
260.4399625671511
 20
350.2886297204601
 30
0.0
 40
3.5
 41
0.0
 71
     7
 72
     5
  1

  7
ACISOTS
 73
     1
 44
1.0
1001
ACAD
1000
MTEXTBEGIN
1070
    73
1070
     1
1070
    44
1040
1.0
1070
    74
1070
     0
1000
MTEXTEND
  0
ENDBLK
  5
569A
330
5694
100
AcDbEntity
  8
0
100
AcDbBlockEnd
  0
BLOCK
  5
56A1
330
569C
100
AcDbEntity
  8
0
100
AcDbBlockBegin
  2
*S21
 70
     1
 10
0.0
 20
0.0
 30
0.0
  3
*S21
  1

  0
LINE
  5
569D
330
569C
100
AcDbEntity
  8
AM_5
 62
     5
100
AcDbLine
 10
256.193121308591
 20
452.5514994108103
 30
0.0
 11
239.6593028057957
 21
452.5514994108103
 31
0.0
  0
LINE
  5
569E
330
569C
100
AcDbEntity
  8
AM_5
 62
     5
100
AcDbLine
 10
239.6593028057957
 20
452.5514994108103
 30
0.0
 11
234.7468208091996
 21
444.2556042148615
 31
0.0
  0
TRACE
  5
569F
330
569C
100
AcDbEntity
  8
AM_5
 62
     5
100
AcDbTrace
 10
234.3503369357576
 20
444.4903853740035
 30
0.0
 11
235.1433046826416
 21
444.0208230557196
 31
0.0
 12
232.9634808461003
 22
441.2440101890982
 32
0.0
 13
232.9634808461003
 23
441.2440101890982
 33
0.0
  0
MTEXT
  5
56A0
330
569C
100
AcDbEntity
  8
AM_5
 62
     5
100
AcDbMText
 10
256.193121308591
 20
457.6129531455332
 30
0.0
 40
3.5
 41
0.0
 71
     7
 72
     5
  1

  7
ACISOTS
 73
     1
 44
1.0
1001
ACAD
1000
MTEXTBEGIN
1070
    73
1070
     1
1070
    44
1040
1.0
1070
    74
1070
     0
1000
MTEXTEND
  0
ENDBLK
  5
56A2
330
569C
100
AcDbEntity
  8
0
100
AcDbBlockEnd
  0
BLOCK
  5
56A9
330
56A4
100
AcDbEntity
  8
0
100
AcDbBlockBegin
  2
*S22
 70
     1
 10
0.0
 20
0.0
 30
0.0
  3
*S22
  1

  0
LINE
  5
56A5
330
56A4
100
AcDbEntity
  8
AM_5
 62
     5
100
AcDbLine
 10
246.5504911208938
 20
353.3297183103417
 30
0.0
 11
230.960341310524
 21
353.3297183103417
 31
0.0
  0
LINE
  5
56A6
330
56A4
100
AcDbEntity
  8
AM_5
 62
     5
100
AcDbLine
 10
230.960341310524
 20
353.3297183103417
 30
0.0
 11
224.9467170278394
 21
364.9737351000791
 31
0.0
  0
TRACE
  5
56A7
330
56A4
100
AcDbEntity
  8
AM_5
 62
     5
370
    35
100
AcDbTrace
 10
225.3561243784823
 20
365.1851760512383
 30
0.0
 11
224.5373096771964
 21
364.7622941489199
 31
0.0
 12
223.3406635463074
 22
368.0834926813801
 32
0.0
 13
223.3406635463074
 23
368.0834926813801
 33
0.0
  0
MTEXT
  5
56A8
330
56A4
100
AcDbEntity
  8
AM_5
 62
     5
100
AcDbMText
 10
246.5504911208938
 20
358.3911720450645
 30
0.0
 40
3.5
 41
0.0
 71
     7
 72
     5
  1

  7
ACISOTS
 73
     1
 44
1.0
1001
ACAD
1000
MTEXTBEGIN
1070
    73
1070
     1
1070
    44
1040
1.0
1070
    74
1070
     0
1000
MTEXTEND
  0
ENDBLK
  5
56AA
330
56A4
100
AcDbEntity
  8
0
100
AcDbBlockEnd
  0
BLOCK
  5
56B1
330
56AC
100
AcDbEntity
  8
0
100
AcDbBlockBegin
  2
*S23
 70
     1
 10
0.0
 20
0.0
 30
0.0
  3
*S23
  1

  0
LINE
  5
56AD
330
56AC
100
AcDbEntity
  8
AM_5
 62
     5
100
AcDbLine
 10
264.8824504185586
 20
396.7708998660635
 30
0.0
 11
278.4411804791997
 21
396.7708998660635
 31
0.0
  0
LINE
  5
56AE
330
56AC
100
AcDbEntity
  8
AM_5
 62
     5
100
AcDbLine
 10
278.4411804791997
 20
396.7708998660635
 30
0.0
 11
285.6331573201429
 21
384.5626760406384
 31
0.0
  0
TRACE
  5
56AF
330
56AC
100
AcDbEntity
  8
AM_5
 62
     5
370
    35
100
AcDbTrace
 10
285.2361437555514
 20
384.3287917014493
 30
0.0
 11
286.0301708847345
 21
384.7965603798276
 31
0.0
 12
287.4096852593671
 22
381.5470586111299
 32
0.0
 13
287.4096852593671
 23
381.5470586111299
 33
0.0
  0
MTEXT
  5
56B0
330
56AC
100
AcDbEntity
  8
AM_5
 62
     5
100
AcDbMText
 10
264.8824504185586
 20
401.8323536007862
 30
0.0
 40
3.5
 41
0.0
 71
     7
 72
     5
  1

  7
ACISOTS
210
0.0
220
0.0
230
-1.0
 11
-1.0
 21
0.0
 31
0.0
 73
     1
 44
1.0
1001
ACAD
1000
MTEXTBEGIN
1070
    73
1070
     1
1070
    44
1040
1.0
1070
    74
1070
     0
1000
MTEXTEND
  0
ENDBLK
  5
56B2
330
56AC
100
AcDbEntity
  8
0
100
AcDbBlockEnd
  0
ENDSEC
  0
SECTION
  2
ENTITIES
  0
LWPOLYLINE
  5
4BF4
330
1F
100
AcDbEntity
  8
LOGO
 62
     4
100
AcDbPolyline
 90
        4
 70
     1
 43
0.0
 10
133.6613370027894
 20
292.1380370021814
 10
333.6613370027894
 20
292.1380370021814
 10
333.6613370027894
 20
484.4549014104134
 10
133.6613370027894
 20
484.4549014104134
1001
GENIUS_GENREC_14
1002
{
1000
PYDIR
1011
133.6613370027894
1021
484.4549014104134
1031
0.0
1002
}
1002
{
1000
PXDIR
1011
333.6613370027894
1021
292.1380370021814
1031
0.0
1002
}
1002
{
1000
PORI
1011
133.6613370027894
1021
292.1380370021814
1031
0.0
1002
}
1002
{
1000
PINS
1011
133.6613370027894
1021
292.1380370021814
1031
0.0
1002
}
1002
{
1000
PINS2
1011
333.6613370027894
1021
484.4549014104134
1031
0.0
1002
}
1002
{
1000
C
1070
     1
1002
}
1001
GENIUS_GENODEF_13
1002
{
1000
HIER
1070
     0
1002
}
1002
{
1000
MANEDIT
1070
     0
1002
}
1002
{
1000
NOSEL
1070
     0
1002
}
1002
{
1000
BEHIND
1070
     0
1002
}
1002
{
1000
OTHER
1070
     0
1002
}
1002
{
1000
REACTOR
1002
}
1001
GENIUS_GENOBJ-N-REC_13
1002
{
1000
OWNER
1000
GEN
1002
}
  0
LWPOLYLINE
  5
4BF5
330
1F
100
AcDbEntity
  8
LOGO
 62
     4
100
AcDbPolyline
 90
        4
 70
     1
 43
0.0
 10
133.6613370027894
 20
292.1380370021814
 10
333.6613370027894
 20
292.1380370021814
 10
333.6613370027894
 20
272.1409329297828
 10
133.6613370027894
 20
272.1409329297828
1001
GENIUS_GENREC_14
1002
{
1000
PYDIR
1011
133.6613370027894
1021
272.1409329297828
1031
0.0
1002
}
1002
{
1000
PXDIR
1011
333.6613370027894
1021
292.1380370021814
1031
0.0
1002
}
1002
{
1000
PORI
1011
133.6613370027894
1021
292.1380370021814
1031
0.0
1002
}
1002
{
1000
PINS
1011
133.6613370027894
1021
292.1380370021814
1031
0.0
1002
}
1002
{
1000
PINS2
1011
333.6613370027894
1021
272.1409329297828
1031
0.0
1002
}
1002
{
1000
C
1070
     1
1002
}
1001
GENIUS_GENOBJ-N-REC_13
1002
{
1000
OWNER
1000
GEN
1002
}
1001
GENIUS_GENODEF_13
1002
{
1000
HIER
1070
     0
1002
}
1002
{
1000
MANEDIT
1070
     0
1002
}
1002
{
1000
NOSEL
1070
     0
1002
}
1002
{
1000
BEHIND
1070
     0
1002
}
1002
{
1000
OTHER
1070
     0
1002
}
1002
{
1000
REACTOR
1002
}
  0
TEXT
  5
4BF6
330
1F
100
AcDbEntity
  8
LOGO
 62
     7
100
AcDbText
 10
178.8134739014967
 20
283.3776459878663
 30
0.0
 40
2.666280542986425
  1
Order example:
 41
0.8
  7
CHINESET
100
AcDbText
  0
TEXT
  5
4BF7
330
1F
100
AcDbEntity
  8
LOGO
 62
     7
100
AcDbText
 10
179.2918266801516
 20
287.1312169319606
 30
0.0
 40
3.999420814479637
  1
訂購代號：
  7
CHINESET
100
AcDbText
  0
LINE
  5
4BF8
330
1F
100
AcDbEntity
  8
LOGO
 62
     4
100
AcDbLine
 10
177.6549659620655
 20
272.1409329297831
 30
0.0
 11
177.6549659620655
 21
292.1380370021814
 31
0.0
  0
TEXT
  5
4BF9
330
1F
100
AcDbEntity
  8
LOGO
  6
Continuous
100
AcDbText
 10
140.8443866743168
 20
276.0693338465444
 30
0.0
 40
2.999565610859728
  1
金器工業股份有限公司
  7
CHINESET
100
AcDbText
  0
TEXT
  5
4BFA
330
1F
100
AcDbEntity
  8
LOGO
  6
Continuous
100
AcDbText
 10
135.3347780819585
 20
273.069180556
 30
0.0
 40
1.999710407239818
  1
MINDMAN INDUSTRIAL CO., LTD.
 41
0.85
  7
CHINESET
100
AcDbText
  0
LINE
  5
4BFB
330
1F
100
AcDbEntity
  8
LOGO
 62
     4
100
AcDbLine
 10
177.6549659620655
 20
288.1386161877017
 30
0.0
 11
148.3258799892146
 21
288.1386161877017
 31
0.0
  0
LINE
  5
4BFC
330
1F
100
AcDbEntity
  8
LOGO
 62
     4
100
AcDbLine
 10
177.6549659620655
 20
284.139195373222
 30
0.0
 11
148.3258799892146
 21
284.139195373222
 31
0.0
  0
LINE
  5
4BFD
330
1F
100
AcDbEntity
  8
LOGO
 62
     4
100
AcDbLine
 10
177.6549659620655
 20
280.1397745587426
 30
0.0
 11
133.6613370027894
 21
280.1397745587426
 31
0.0
  0
LINE
  5
4BFE
330
1F
100
AcDbEntity
  8
LOGO
 62
     4
100
AcDbLine
 10
148.3258799892146
 20
280.1397745587426
 30
0.0
 11
148.3258799892146
 21
292.1380370021814
 31
0.0
  0
TEXT
  5
4BFF
330
1F
100
AcDbEntity
  8
LOGO
100
AcDbText
 10
168.3709259398859
 20
281.1396297623622
 30
0.0
 40
1.999710407239818
  1
mm
  7
CHINESET
 72
     1
 11
170.846757872659
 21
282.1394849659821
 31
0.0
100
AcDbText
 73
     2
  0
TEXT
  5
4C00
330
1F
100
AcDbEntity
  8
LOGO
100
AcDbText
 10
167.3234585837127
 20
289.1384713913215
 30
0.0
 40
1.999710407239818
  1
1 : 1
  7
CHINESET
 72
     1
 11
170.846757872659
 21
290.1383265949414
 31
0.0
100
AcDbText
 73
     2
  0
LINE
  5
4C01
330
1F
100
AcDbEntity
  8
LOGO
 62
     4
100
AcDbLine
 10
164.3235632471333
 20
280.1397745587426
 30
0.0
 11
164.3235632471333
 21
292.1380370021814
 31
0.0
  0
CIRCLE
  5
4C02
330
1F
100
AcDbEntity
  8
LOGO
  6
Continuous
100
AcDbCircle
 10
168.0262771859616
 20
286.1431831756565
 30
0.0
 40
1.161078930320631
  0
CIRCLE
  5
4C03
330
1F
100
AcDbEntity
  8
LOGO
  6
Continuous
100
AcDbCircle
 10
168.0262771859616
 20
286.1431831756565
 30
0.0
 40
0.6802894686655972
  0
LINE
  5
4C04
330
1F
100
AcDbEntity
  8
LOGO
100
AcDbLine
 10
175.3226319099981
 20
284.9821042453357
 30
0.0
 11
175.3226319099981
 21
287.3042621059774
 31
0.0
  0
LINE
  5
4C05
330
1F
100
AcDbEntity
  8
LOGO
100
AcDbLine
 10
171.6827161125538
 20
285.4628937069911
 30
0.0
 11
171.6827161125538
 21
286.8234726443223
 31
0.0
  0
LINE
  5
4C06
330
1F
100
AcDbEntity
  8
LOGO
  6
Continuous
100
AcDbLine
 10
171.6827161125538
 20
286.8234726443223
 30
0.0
 11
175.3226319099981
 21
287.3042621059774
 31
0.0
  0
LINE
  5
4C07
330
1F
100
AcDbEntity
  8
LOGO
  6
Continuous
100
AcDbLine
 10
171.6827161125538
 20
285.4628937069911
 30
0.0
 11
175.3226319099981
 21
284.9821042453357
 31
0.0
  0
TEXT
  5
4C08
330
1F
100
AcDbEntity
  8
LOGO
100
AcDbText
 10
149.9747483473271
 20
289.1394555007739
 30
131.0577257600498
 40
1.999710407239818
  1
比例 Scale:
 41
0.9
  7
CHINESET
 72
     4
 11
156.3247216181739
 21
290.1383265949414
 31
131.0577257600498
100
AcDbText
  0
TEXT
  5
4C09
330
1F
100
AcDbEntity
  8
LOGO
100
AcDbText
 10
149.8595864533388
 20
285.1671797053557
 30
131.0577257600498
 40
1.999710407239818
  1
投影  View:
 41
0.9
  7
CHINESET
 72
     4
 11
156.3247216181739
 21
286.1389057804617
 31
131.0577257600498
100
AcDbText
  0
TEXT
  5
4C0A
330
1F
100
AcDbEntity
  8
LOGO
100
AcDbText
 10
150.0550938547609
 20
281.1396297623622
 30
131.0577257600498
 40
1.999710407239818
  1
單位  Unit:
 41
0.9
  7
CHINESET
 72
     4
 11
156.3247216181739
 21
282.1394849659821
 31
131.0577257600498
100
AcDbText
  0
SOLID
  5
4C0B
330
1F
100
AcDbEntity
  8
LOGO
 62
     5
100
AcDbTrace
 10
135.7360686432116
 20
283.464008474416
 30
0.0
 11
136.600690950901
 21
283.4640084744158
 31
0.0
 12
140.2082529933291
 22
291.6630131162985
 32
0.0
 13
141.0728753010189
 23
291.6630131162981
 33
0.0
  0
SOLID
  5
4C0C
330
1F
100
AcDbEntity
  8
LOGO
 62
     5
100
AcDbTrace
 10
136.9584656989113
 20
283.464008474416
 30
0.0
 11
137.8230880066007
 21
283.464008474416
 31
0.0
 12
141.0728753010189
 22
291.0070927449476
 32
0.0
 13
140.2082529933291
 23
287.8368109500864
 33
0.0
  0
SOLID
  5
4C0D
330
1F
100
AcDbEntity
  8
LOGO
 62
     2
100
AcDbTrace
 10
136.600690950901
 20
283.4640084744158
 30
0.0
 11
136.9584656989113
 21
283.464008474416
 31
0.0
 12
141.0728753010189
 22
291.6630131162981
 32
0.0
 13
141.4306500490288
 23
291.6630131162981
 33
0.0
  0
SOLID
  5
4C0E
330
1F
100
AcDbEntity
  8
LOGO
 62
     5
100
AcDbTrace
 10
134.3498670526232
 20
280.4825522410045
 30
0.0
 11
134.6480126759647
 21
280.4825522410045
 31
0.0
 12
135.4876139570942
 22
281.9732803577101
 32
0.0
 13
135.7857595804348
 23
281.9732803577101
 33
0.0
  0
SOLID
  5
4C0F
330
1F
100
AcDbEntity
  8
LOGO
 62
     5
100
AcDbTrace
 10
135.4876139570942
 20
281.9732803577101
 30
0.0
 11
135.7857595804348
 21
281.9732803577101
 31
0.0
 12
135.4876139570942
 22
280.4825522410045
 32
0.0
 13
135.7857595804348
 23
280.4825522410045
 33
0.0
  0
SOLID
  5
4C10
330
1F
100
AcDbEntity
  8
LOGO
 62
     5
100
AcDbTrace
 10
135.4876139570942
 20
280.4825522410045
 30
0.0
 11
135.7857595804348
 21
280.4825522410045
 31
0.0
 12
136.6253608615657
 22
281.9732803577101
 32
0.0
 13
136.9235064849067
 23
281.9732803577101
 33
0.0
  0
SOLID
  5
4C11
330
1F
100
AcDbEntity
  8
LOGO
 62
     5
100
AcDbTrace
 10
136.6253608615657
 20
281.9732803577101
 30
0.0
 11
136.9235064849067
 21
281.9732803577101
 31
0.0
 12
136.6253608615657
 22
280.4825522410045
 32
0.0
 13
136.9235064849067
 23
280.4825522410045
 33
0.0
  0
POLYLINE
  5
4C12
330
1F
100
AcDbEntity
  8
LOGO
 62
     5
100
AcDb2dPolyline
 66
     1
 10
0.0
 20
0.0
 30
0.0
 40
0.2986234208144796
 41
0.2986234208144796
  0
VERTEX
  5
4C13
330
4C12
100
AcDbEntity
  8
LOGO
 62
     5
100
AcDbVertex
100
AcDb2dVertex
 10
146.6191005913751
 20
281.3769891110278
 30
0.0
 42
1.0
  0
VERTEX
  5
4C14
330
4C12
100
AcDbEntity
  8
LOGO
 62
     5
100
AcDbVertex
100
AcDb2dVertex
 10
145.7232303289315
 20
281.3769891110278
 30
0.0
 42
1.0
  0
SEQEND
  5
4C15
330
4C12
100
AcDbEntity
  8
LOGO
 62
     5
  0
POLYLINE
  5
4C16
330
1F
100
AcDbEntity
  8
LOGO
 62
     5
100
AcDb2dPolyline
 66
     1
 10
0.0
 20
0.0
 30
0.0
 70
     1
  0
VERTEX
  5
4C17
330
4C16
100
AcDbEntity
  8
LOGO
 62
     5
100
AcDbVertex
100
AcDb2dVertex
 10
144.0344750359159
 20
281.227916299357
 30
0.0
 42
1.000000057330635
  0
VERTEX
  5
4C18
330
4C16
100
AcDbEntity
  8
LOGO
 62
     5
100
AcDbVertex
100
AcDb2dVertex
 10
144.9289119059394
 20
281.227916299357
 30
0.0
 42
1.000000057330635
  0
SEQEND
  5
4C19
330
4C16
100
AcDbEntity
  8
LOGO
 62
     5
  0
CIRCLE
  5
4C1A
330
1F
100
AcDbEntity
  8
LOGO
 62
     5
100
AcDbCircle
 10
144.4816934709283
 20
281.227916299357
 30
0.0
 40
0.4472184350117648
  0
POLYLINE
  5
4C1B
330
1F
100
AcDbEntity
  8
LOGO
 62
     5
100
AcDb2dPolyline
 66
     1
 10
0.0
 20
0.0
 30
0.0
 70
     1
 40
0.2986234208144796
 41
0.2986234208144796
  0
VERTEX
  5
4C1C
330
4C1B
100
AcDbEntity
  8
LOGO
 62
     5
100
AcDbVertex
100
AcDb2dVertex
 10
143.8844466292989
 20
281.227916299357
 30
0.0
 42
1.0
  0
VERTEX
  5
4C1D
330
4C1B
100
AcDbEntity
  8
LOGO
 62
     5
100
AcDbVertex
100
AcDb2dVertex
 10
145.0789403125568
 20
281.227916299357
 30
0.0
 42
1.0
  0
SEQEND
  5
4C1E
330
4C1B
100
AcDbEntity
  8
LOGO
 62
     5
  0
LINE
  5
4C1F
330
1F
100
AcDbEntity
  8
LOGO
100
AcDbLine
 10
146.7674567068352
 20
280.4825522410045
 30
0.0
 11
146.7674567068352
 21
281.3769891110278
 31
0.0
  0
SOLID
  5
4C20
330
1F
100
AcDbEntity
  8
LOGO
 62
     5
100
AcDbTrace
 10
144.9288820913784
 20
281.9732803577101
 30
0.0
 11
145.227027714719
 21
281.9732803577101
 31
0.0
 12
144.9288820913784
 22
280.4825522410045
 32
0.0
 13
145.227027714719
 23
280.4825522410045
 33
0.0
  0
SOLID
  5
4C21
330
1F
100
AcDbEntity
  8
LOGO
 62
     5
100
AcDbTrace
 10
145.5748742134706
 20
280.4825522410045
 30
0.0
 11
145.8730198368121
 21
280.4825522410045
 31
0.0
 12
145.5748742134706
 22
281.9732803577101
 32
0.0
 13
145.8730198368121
 23
281.9732803577101
 33
0.0
  0
SOLID
  5
4C22
330
1F
100
AcDbEntity
  8
LOGO
 62
     5
100
AcDbTrace
 10
146.4693110834946
 20
281.3769891110278
 30
0.0
 11
146.7674567068352
 21
281.3769891110278
 31
0.0
 12
146.4693110834946
 22
280.4825522410045
 32
0.0
 13
146.7674567068352
 23
280.4825522410045
 33
0.0
  0
SOLID
  5
4C23
330
1F
100
AcDbEntity
  8
LOGO
 62
     5
100
AcDbTrace
 10
145.5450596511364
 20
291.0070927449476
 30
0.0
 11
144.6804373434474
 21
287.8368109500864
 31
0.0
 12
145.5450596511364
 22
283.4640084744158
 32
0.0
 13
144.6804373434474
 23
283.4640084744158
 33
0.0
  0
SOLID
  5
4C24
330
1F
100
AcDbEntity
  8
LOGO
 62
     5
100
AcDbTrace
 10
145.9028343991463
 20
283.4640084744158
 30
0.0
 11
146.7674567068352
 21
283.4640084744158
 31
0.0
 12
145.9028343991463
 22
291.6630131162981
 32
0.0
 13
146.7674567068352
 23
291.6630131162985
 33
0.0
  0
SOLID
  5
4C25
330
1F
100
AcDbEntity
  8
LOGO
 62
     2
100
AcDbTrace
 10
145.5450596511364
 20
291.6630131162985
 30
0.0
 11
145.9028343991463
 21
291.6630131162981
 31
0.0
 12
145.5450596511364
 22
283.4640084744158
 32
0.0
 13
145.9028343991463
 23
283.4640084744158
 33
0.0
  0
POLYLINE
  5
4C26
330
1F
100
AcDbEntity
  8
LOGO
 62
     5
100
AcDb2dPolyline
 66
     1
 10
0.0
 20
0.0
 30
0.0
 40
0.2986234208144796
 41
0.2986234208144796
  0
VERTEX
  5
4C27
330
4C26
100
AcDbEntity
  8
LOGO
 62
     5
100
AcDbVertex
100
AcDb2dVertex
 10
142.3456601137768
 20
281.3769891110278
 30
0.0
 42
1.0
  0
VERTEX
  5
4C28
330
4C26
100
AcDbEntity
  8
LOGO
 62
     5
100
AcDbVertex
100
AcDb2dVertex
 10
141.4497898513332
 20
281.3769891110278
 30
0.0
 42
1.0
  0
SEQEND
  5
4C29
330
4C26
100
AcDbEntity
  8
LOGO
 62
     5
  0
POLYLINE
  5
4C2A
330
1F
100
AcDbEntity
  8
LOGO
 62
     5
100
AcDb2dPolyline
 66
     1
 10
0.0
 20
0.0
 30
0.0
 40
0.2986234208144796
 41
0.2986234208144796
  0
VERTEX
  5
4C2B
330
4C2A
100
AcDbEntity
  8
LOGO
 62
     5
100
AcDbVertex
100
AcDb2dVertex
 10
143.2400969837995
 20
281.3769891110278
 30
0.0
 42
1.0
  0
VERTEX
  5
4C2C
330
4C2A
100
AcDbEntity
  8
LOGO
 62
     5
100
AcDbVertex
100
AcDb2dVertex
 10
142.3442267213563
 20
281.3769891110278
 30
0.0
 42
1.0
  0
SEQEND
  5
4C2D
330
4C2A
100
AcDbEntity
  8
LOGO
 62
     5
  0
POLYLINE
  5
4C2E
330
1F
100
AcDbEntity
  8
LOGO
 62
     5
100
AcDb2dPolyline
 66
     1
 10
0.0
 20
0.0
 30
0.0
 40
0.2986234208144796
 41
0.2986234208144796
  0
VERTEX
  5
4C2F
330
4C2E
100
AcDbEntity
  8
LOGO
 62
     5
100
AcDbVertex
100
AcDb2dVertex
 10
138.9666565062011
 20
281.3769891110278
 30
0.0
 42
1.0
  0
VERTEX
  5
4C30
330
4C2E
100
AcDbEntity
  8
LOGO
 62
     5
100
AcDbVertex
100
AcDb2dVertex
 10
138.070786243758
 20
281.3769891110278
 30
0.0
 42
1.0
  0
SEQEND
  5
4C31
330
4C2E
100
AcDbEntity
  8
LOGO
 62
     5
  0
SOLID
  5
4C32
330
1F
100
AcDbEntity
  8
LOGO
 62
     5
100
AcDbTrace
 10
137.9224301282975
 20
281.9732803577101
 30
0.0
 11
138.2205757516381
 21
281.9732803577101
 31
0.0
 12
137.9224301282975
 22
280.4825522410045
 32
0.0
 13
138.2205757516381
 23
280.4825522410045
 33
0.0
  0
SOLID
  5
4C33
330
1F
100
AcDbEntity
  8
LOGO
 62
     5
100
AcDbTrace
 10
138.816866998321
 20
281.3769891110278
 30
0.0
 11
139.1150126216625
 21
281.3769891110278
 31
0.0
 12
138.816866998321
 22
280.4825522410045
 32
0.0
 13
139.1150126216625
 23
280.4825522410045
 33
0.0
  0
POLYLINE
  5
4C34
330
1F
100
AcDbEntity
  8
LOGO
 62
     5
100
AcDb2dPolyline
 66
     1
 10
0.0
 20
0.0
 30
0.0
 70
     1
 40
0.2986234208144796
 41
0.2986234208144796
  0
VERTEX
  5
4C35
330
4C34
100
AcDbEntity
  8
LOGO
 62
     5
100
AcDbVertex
100
AcDb2dVertex
 10
139.6110061517001
 20
281.227916299357
 30
0.0
 42
1.0
  0
VERTEX
  5
4C36
330
4C34
100
AcDbEntity
  8
LOGO
 62
     5
100
AcDbVertex
100
AcDb2dVertex
 10
140.8054998349585
 20
281.227916299357
 30
0.0
 42
1.0
  0
SEQEND
  5
4C37
330
4C34
100
AcDbEntity
  8
LOGO
 62
     5
  0
SOLID
  5
4C38
330
1F
100
AcDbEntity
  8
LOGO
 62
     5
100
AcDbTrace
 10
140.6554416137792
 20
282.4204987927221
 30
0.0
 11
140.9535872371202
 21
282.4204987927221
 31
0.0
 12
140.6554416137792
 22
280.4825522410045
 32
0.0
 13
140.9535872371202
 23
280.4825522410045
 33
0.0
  0
SOLID
  5
4C39
330
1F
100
AcDbEntity
  8
LOGO
 62
     5
100
AcDbTrace
 10
141.3014337358731
 20
281.9732803577101
 30
0.0
 11
141.5995793592137
 21
281.9732803577101
 31
0.0
 12
141.3014337358731
 22
280.4825522410045
 32
0.0
 13
141.5995793592137
 23
280.4825522410045
 33
0.0
  0
SOLID
  5
4C3A
330
1F
100
AcDbEntity
  8
LOGO
 62
     5
100
AcDbTrace
 10
142.1958706058958
 20
281.3769891110278
 30
0.0
 11
142.4940162292373
 21
281.3769891110278
 31
0.0
 12
142.1958706058958
 22
280.4825522410045
 32
0.0
 13
142.4940162292373
 23
280.4825522410045
 33
0.0
  0
SOLID
  5
4C3B
330
1F
100
AcDbEntity
  8
LOGO
 62
     5
100
AcDbTrace
 10
143.0903074759194
 20
281.3769891110278
 30
0.0
 11
143.3884530992604
 21
281.3769891110278
 31
0.0
 12
143.0903074759194
 22
280.482552241004
 32
0.0
 13
143.3884530992604
 23
280.482552241004
 33
0.0
  0
SOLID
  5
4C3C
330
1F
100
AcDbEntity
  8
LOGO
 62
     5
100
AcDbTrace
 10
137.276438006204
 20
282.181982294049
 30
0.0
 11
137.5745836295459
 21
282.181982294049
 31
0.0
 12
137.276438006204
 22
282.4204987927221
 32
0.0
 13
137.5745836295459
 23
282.4204987927221
 33
0.0
  0
SOLID
  5
4C3D
330
1F
100
AcDbEntity
  8
LOGO
 62
     5
100
AcDbTrace
 10
137.276438006204
 20
281.9732803577101
 30
0.0
 11
137.5745836295459
 21
281.9732803577101
 31
0.0
 12
137.276438006204
 22
280.482552241004
 32
0.0
 13
137.5745836295459
 23
280.4825522410045
 33
0.0
  0
SOLID
  5
4C3E
330
1F
100
AcDbEntity
  8
LOGO
 62
     5
100
AcDbTrace
 10
140.2082529933291
 20
283.464008474416
 30
0.0
 11
141.0728753010189
 21
283.464008474416
 31
0.0
 12
140.2082529933291
 22
287.8368109500864
 32
0.0
 13
141.0728753010189
 23
291.0070927449476
 33
0.0
  0
SOLID
  5
4C3F
330
1F
100
AcDbEntity
  8
LOGO
 62
     5
100
AcDbTrace
 10
141.4306500490288
 20
291.6630131162981
 30
0.0
 11
142.2952723567177
 21
291.6630131162985
 31
0.0
 12
141.4306500490288
 22
284.1199288457665
 32
0.0
 13
142.2952723567177
 23
287.2902106406277
 33
0.0
  0
SOLID
  5
4C40
330
1F
100
AcDbEntity
  8
LOGO
 62
     2
100
AcDbTrace
 10
141.0728753010189
 20
291.6630131162981
 30
0.0
 11
141.4306500490288
 21
291.6630131162981
 31
0.0
 12
141.0728753010189
 22
283.464008474416
 32
0.0
 13
141.4306500490288
 23
283.464008474416
 33
0.0
  0
SOLID
  5
4C41
330
1F
100
AcDbEntity
  8
LOGO
 62
     5
100
AcDbTrace
 10
141.4306500490288
 20
284.1199288457665
 30
0.0
 11
142.2952723567177
 21
287.2902106406277
 31
0.0
 12
145.5450596511364
 22
291.6630131162985
 32
0.0
 13
144.6804373434474
 23
291.6630131162985
 33
0.0
  0
SOLID
  5
4C42
330
1F
100
AcDbEntity
  8
LOGO
 62
     5
100
AcDbTrace
 10
141.4306500490288
 20
283.464008474416
 30
0.0
 11
142.2952723567177
 21
283.464008474416
 31
0.0
 12
145.5450596511364
 22
291.0070927449476
 32
0.0
 13
144.6804373434474
 23
287.8368109500864
 33
0.0
  0
SOLID
  5
4C43
330
1F
100
AcDbEntity
  8
LOGO
 62
     2
100
AcDbTrace
 10
141.0728753010189
 20
283.464008474416
 30
0.0
 11
141.4306500490288
 21
283.464008474416
 31
0.0
 12
145.5450596511364
 22
291.6630131162985
 32
0.0
 13
145.9028343991463
 23
291.6630131162981
 33
0.0
  0
LINE
  5
4C44
330
1F
100
AcDbEntity
  8
LOGO
 62
     4
100
AcDbLine
 10
218.4914978120478
 20
281.1396297623626
 30
0.0
 11
218.4914978120478
 21
273.8073582691495
 31
0.0
  0
LINE
  5
4C45
330
1F
100
AcDbEntity
  8
LOGO
 62
     4
100
AcDbLine
 10
205.1600950971156
 20
281.1396297623626
 30
0.0
 11
205.1600950971156
 21
273.8073582691495
 31
0.0
  0
LINE
  5
4C46
330
1F
100
AcDbEntity
  8
LOGO
 62
     4
100
AcDbLine
 10
218.4914978120478
 20
273.8073582691495
 30
0.0
 11
205.1600950971156
 21
273.8073582691495
 31
0.0
  0
LINE
  5
4C47
330
1F
100
AcDbEntity
  8
LOGO
 62
     4
100
AcDbLine
 10
220.8826265685207
 20
290.1383265949414
 30
0.0
 11
205.1600950971156
 21
290.1383265949414
 31
0.0
  0
LINE
  5
4C48
330
1F
100
AcDbEntity
  8
LOGO
 62
     4
100
AcDbLine
 10
220.8826265685207
 20
284.139195373222
 30
0.0
 11
205.1600950971156
 21
284.139195373222
 31
0.0
  0
LINE
  5
4C49
330
1F
100
AcDbEntity
  8
LOGO
 62
     4
100
AcDbLine
 10
205.1600950971156
 20
290.1383265949414
 30
0.0
 11
205.1600950971156
 21
284.139195373222
 31
0.0
  0
LINE
  5
4C4A
330
1F
100
AcDbEntity
  8
LOGO
 62
     4
100
AcDbLine
 10
220.8826265685207
 20
290.1383265949414
 30
0.0
 11
220.8826265685207
 21
284.139195373222
 31
0.0
  0
LINE
  5
4C4B
330
1F
100
AcDbEntity
  8
LOGO
 62
     4
100
AcDbLine
 10
212.5213608328181
 20
284.139195373222
 30
0.0
 11
212.5213608328181
 21
281.1396297623626
 31
0.0
  0
TEXT
  5
4C4C
330
1F
100
AcDbEntity
  8
LOGO
  6
Continuous
 62
     7
100
AcDbText
 10
206.2260467603955
 20
285.391505245027
 30
0.0
 40
3.5
  1
MVAA
  7
CHINESET
100
AcDbText
  0
LINE
  5
4C4D
330
1F
100
AcDbEntity
  8
LOGO
 62
     4
100
AcDbLine
 10
218.4914978120478
 20
281.1396297623626
 30
0.0
 11
205.1600950971156
 21
281.1396297623626
 31
0.0
  0
TEXT
  5
4C4E
330
1F
100
AcDbEntity
  8
LOGO
  6
Continuous
100
AcDbText
 10
209.4381000217586
 20
274.8422928419736
 30
131.0577257600498
 40
1.5
  1
Model
 41
0.8
  7
CHINESET
100
AcDbText
  0
TEXT
  5
4C4F
330
1F
100
AcDbEntity
  8
LOGO
100
AcDbText
 10
209.0388487837595
 20
277.622969568901
 30
131.0577257600498
 40
2.5
  1
型號
  7
CHINESET
100
AcDbText
  0
LINE
  5
4C50
330
1F
100
AcDbEntity
  8
LOGO
  6
Continuous
 62
     7
100
AcDbLine
 10
221.5203837995264
 20
287.1175111132077
 30
0.0
 11
224.1693812484659
 21
287.1175111132077
 31
0.0
  0
LINE
  5
4C5C
330
1F
100
AcDbEntity
  8
LOGO
 62
     4
100
AcDbLine
 10
234.0821833975849
 20
281.1396297623626
 30
0.0
 11
234.0821833975849
 21
273.8073582691495
 31
0.0
  0
LINE
  5
4C5D
330
1F
100
AcDbEntity
  8
LOGO
 62
     4
100
AcDbLine
 10
220.7507806826527
 20
281.1396297623626
 30
0.0
 11
220.7507806826527
 21
273.8073582691495
 31
0.0
  0
LINE
  5
4C5E
330
1F
100
AcDbEntity
  8
LOGO
 62
     4
100
AcDbLine
 10
234.0821833975849
 20
273.8073582691495
 30
0.0
 11
220.7507806826527
 21
273.8073582691495
 31
0.0
  0
LINE
  5
4C5F
330
1F
100
AcDbEntity
  8
LOGO
 62
     4
100
AcDbLine
 10
235.9097828851852
 20
290.1383265949414
 30
0.0
 11
225.6587883019053
 21
290.1383265949414
 31
0.0
  0
LINE
  5
4C60
330
1F
100
AcDbEntity
  8
LOGO
 62
     4
100
AcDbLine
 10
235.9097828851852
 20
284.139195373222
 30
0.0
 11
225.6587883019053
 21
284.139195373222
 31
0.0
  0
LINE
  5
4C61
330
1F
100
AcDbEntity
  8
LOGO
 62
     4
100
AcDbLine
 10
225.6587883019053
 20
290.1383265949414
 30
0.0
 11
225.6587883019053
 21
284.139195373222
 31
0.0
  0
LINE
  5
4C62
330
1F
100
AcDbEntity
  8
LOGO
 62
     4
100
AcDbLine
 10
235.9097828851852
 20
290.1383265949414
 30
0.0
 11
235.9097828851852
 21
284.139195373222
 31
0.0
  0
LINE
  5
4C63
330
1F
100
AcDbEntity
  8
LOGO
 62
     4
100
AcDbLine
 10
230.7842855935453
 20
284.139195373222
 30
0.0
 11
230.7842855935453
 21
281.1396297623626
 31
0.0
  0
TEXT
  5
4C64
330
1F
100
AcDbEntity
  8
LOGO
  6
Continuous
 62
     7
100
AcDbText
 10
226.45725662585
 20
285.391505245027
 30
0.0
 40
3.5
  1
180
  7
CHINESET
100
AcDbText
  0
LINE
  5
4C65
330
1F
100
AcDbEntity
  8
LOGO
 62
     4
100
AcDbLine
 10
234.0821833975849
 20
281.1396297623626
 30
0.0
 11
220.7507806826527
 21
281.1396297623626
 31
0.0
  0
LINE
  5
4C66
330
1F
100
AcDbEntity
  8
LOGO
  6
Continuous
 62
     7
100
AcDbLine
 10
237.1521432295403
 20
287.1175111132077
 30
0.0
 11
239.8011406784803
 21
287.1175111132077
 31
0.0
  0
TEXT
  5
4C73
330
1F
100
AcDbEntity
  8
LOGO
  6
Continuous
100
AcDbText
 10
222.5680235308869
 20
274.8422928419736
 30
131.0577257600498
 40
1.5
  1
Body width
 41
0.8
  7
CHINESET
100
AcDbText
  0
TEXT
  5
4C74
330
1F
100
AcDbEntity
  8
LOGO
100
AcDbText
 10
222.4571619649164
 20
277.622969568901
 30
131.0577257600498
 40
2.5
  1
本體寬幅
  7
CHINESET
100
AcDbText
  0
TEXT
  5
4C83
330
1F
100
AcDbEntity
  8
LOGO
100
AcDbText
 10
178.5815015533031
 20
273.2047709737044
 30
0.0
 40
2.0
  1
10612290
 41
0.7
  7
CHINESET
 72
     1
 11
183.4481682199698
 21
273.2047709737044
 31
0.0
100
AcDbText
  0
LINE
  5
4C84
330
1F
100
AcDbEntity
  8
LOGO
 62
     4
100
AcDbLine
 10
189.6549659620646
 20
276.1403537442632
 30
0.0
 11
189.6549659620655
 21
272.1409329297833
 31
0.0
  0
LINE
  5
4C85
330
1F
100
AcDbEntity
  8
LOGO
 62
     4
100
AcDbLine
 10
189.6549659620646
 20
276.1403537442632
 30
0.0
 11
177.6549659620655
 21
276.1403537442632
 31
0.0
  0
LINE
  5
4C86
330
1F
100
AcDbEntity
  8
LOGO
  6
AM_ISO08W050x2
 48
0.3
100
AcDbLine
 10
166.4257124947266
 20
286.1431831756565
 30
0.0
 11
169.6268418771965
 21
286.1431831756565
 31
0.0
1001
GENIUS_GENOREF_13
1005
4C8B
  0
LINE
  5
4C87
330
1F
100
AcDbEntity
  8
LOGO
  6
AM_ISO08W050x2
 48
0.3
100
AcDbLine
 10
168.0262771859616
 20
284.5426184844216
 30
0.0
 11
168.0262771859616
 21
287.7437478668915
 31
0.0
1001
GENIUS_GENOREF_13
1005
4C8A
  0
LINE
  5
4C88
330
1F
100
AcDbEntity
  8
LOGO
  6
CENTER
 48
0.5
100
AcDbLine
 10
171.3916240197445
 20
286.1431831756565
 30
0.0
 11
175.6891596477858
 21
286.1431831756565
 31
0.0
1001
GENIUS_GENOREF_13
1005
4C89
  0
POINT
  5
4C89
330
1F
100
AcDbEntity
  8
0
 60
     1
100
AcDbPoint
 10
-1938.679822737193
 20
-665.9923693759432
 30
0.0
1001
GENIUS_GENOBJ-N-CRS_13
1002
{
1000
OWNER
1000
GEN
1002
}
1001
GENIUS_GENOLIS_13
1002
{
1000
ENT
1005
0
1005
0
1005
0
1005
4C88
1002
}
1001
GENIUS_GENOENT_13
1002
{
1000
MYREF
1005
4C89
1002
}
1002
{
1000
GRP
1005
0
1002
}
1001
GENIUS_GENODEF_13
1002
{
1000
HIER
1070
    10
1002
}
1002
{
1000
MANEDIT
1070
     1
1002
}
1002
{
1000
NOSEL
1070
     0
1002
}
1002
{
1000
BEHIND
1070
     0
1002
}
1002
{
1000
OTHER
1070
     0
1002
}
1002
{
1000
REACTOR
1002
}
  0
POINT
  5
4C8A
330
1F
100
AcDbEntity
  8
0
 60
     1
100
AcDbPoint
 10
-1950.004407960048
 20
-657.1167828973069
 30
0.0
1001
GENIUS_GENOBJ-N-CRS_13
1002
{
1000
OWNER
1000
GEN
1002
}
1001
GENIUS_GENOLIS_13
1002
{
1000
ENT
1005
0
1005
0
1005
0
1005
4C87
1002
}
1001
GENIUS_GENOENT_13
1002
{
1000
MYREF
1005
4C8A
1002
}
1002
{
1000
GRP
1005
0
1002
}
1001
GENIUS_GENODEF_13
1002
{
1000
HIER
1070
    10
1002
}
1002
{
1000
MANEDIT
1070
     1
1002
}
1002
{
1000
NOSEL
1070
     0
1002
}
1002
{
1000
BEHIND
1070
     0
1002
}
1002
{
1000
OTHER
1070
     0
1002
}
1002
{
1000
REACTOR
1002
}
  0
POINT
  5
4C8B
330
1F
100
AcDbEntity
  8
0
 60
     1
100
AcDbPoint
 10
-1943.645734262211
 20
-665.9923693759432
 30
0.0
1001
GENIUS_GENOBJ-N-CRS_13
1002
{
1000
OWNER
1000
GEN
1002
}
1001
GENIUS_GENOLIS_13
1002
{
1000
ENT
1005
0
1005
0
1005
0
1005
4C86
1002
}
1001
GENIUS_GENOENT_13
1002
{
1000
MYREF
1005
4C8B
1002
}
1002
{
1000
GRP
1005
0
1002
}
1001
GENIUS_GENODEF_13
1002
{
1000
HIER
1070
    10
1002
}
1002
{
1000
MANEDIT
1070
     1
1002
}
1002
{
1000
NOSEL
1070
     0
1002
}
1002
{
1000
BEHIND
1070
     0
1002
}
1002
{
1000
OTHER
1070
     0
1002
}
1002
{
1000
REACTOR
1002
}
  0
LINE
  5
4EA8
330
1F
100
AcDbEntity
  8
LOGO
 62
     4
100
AcDbLine
 10
245.3072971398592
 20
281.1396297623626
 30
0.0
 11
245.3072971398592
 21
273.8073582691495
 31
0.0
  0
LINE
  5
4EA9
330
1F
100
AcDbEntity
  8
LOGO
 62
     4
100
AcDbLine
 10
235.2930848925616
 20
281.1396297623626
 30
0.0
 11
235.2930848925616
 21
273.8073582691495
 31
0.0
  0
LINE
  5
4EAA
330
1F
100
AcDbEntity
  8
LOGO
 62
     4
100
AcDbLine
 10
245.3072971398592
 20
273.8073582691495
 30
0.0
 11
235.2930848925616
 21
273.8073582691495
 31
0.0
  0
LINE
  5
4EAB
330
1F
100
AcDbEntity
  8
LOGO
 62
     4
100
AcDbLine
 10
245.1387420086883
 20
290.1383265949414
 30
0.0
 11
240.8800595655173
 21
290.1383265949414
 31
0.0
  0
LINE
  5
4EAC
330
1F
100
AcDbEntity
  8
LOGO
 62
     4
100
AcDbLine
 10
245.1387420086883
 20
284.139195373222
 30
0.0
 11
240.8800595655173
 21
284.139195373222
 31
0.0
  0
LINE
  5
4EAD
330
1F
100
AcDbEntity
  8
LOGO
 62
     4
100
AcDbLine
 10
240.8800595655173
 20
290.1383265949414
 30
0.0
 11
240.8800595655173
 21
284.139195373222
 31
0.0
  0
LINE
  5
4EAE
330
1F
100
AcDbEntity
  8
LOGO
 62
     4
100
AcDbLine
 10
245.1387420086883
 20
290.1383265949414
 30
0.0
 11
245.1387420086883
 21
284.139195373222
 31
0.0
  0
LINE
  5
4EAF
330
1F
100
AcDbEntity
  8
LOGO
 62
     4
100
AcDbLine
 10
243.0094007871028
 20
284.139195373222
 30
0.0
 11
243.0094007871028
 21
281.1396297623626
 31
0.0
  0
TEXT
  5
4EB0
330
1F
100
AcDbEntity
  8
LOGO
  6
Continuous
 62
     7
100
AcDbText
 10
241.678527889462
 20
285.391505245027
 30
0.0
 40
3.5
  1
3
  7
CHINESET
100
AcDbText
  0
LINE
  5
4EB1
330
1F
100
AcDbEntity
  8
LOGO
 62
     4
100
AcDbLine
 10
245.3072971398592
 20
281.1396297623626
 30
0.0
 11
235.2930848925616
 21
281.1396297623626
 31
0.0
  0
LINE
  5
4EB2
330
1F
100
AcDbEntity
  8
LOGO
 62
     4
100
AcDbLine
 10
266.3959403623485
 20
281.1396297623626
 30
0.0
 11
266.3959403623485
 21
273.8073582691495
 31
0.0
  0
LINE
  5
4EB3
330
1F
100
AcDbEntity
  8
LOGO
 62
     4
100
AcDbLine
 10
247.3382180795029
 20
281.1396297623626
 30
0.0
 11
247.3382180795029
 21
273.8073582691495
 31
0.0
  0
LINE
  5
4EB4
330
1F
100
AcDbEntity
  8
LOGO
 62
     4
100
AcDbLine
 10
266.3959403623485
 20
273.8073582691495
 30
0.0
 11
247.3382180795029
 21
273.8073582691495
 31
0.0
  0
LINE
  5
4EB5
330
1F
100
AcDbEntity
  8
LOGO
 62
     4
100
AcDbLine
 10
253.7567772346583
 20
290.1383265949414
 30
0.0
 11
245.8418647331473
 21
290.1383265949414
 31
0.0
  0
LINE
  5
4EB6
330
1F
100
AcDbEntity
  8
LOGO
 62
     4
100
AcDbLine
 10
253.7567772346583
 20
284.139195373222
 30
0.0
 11
245.8418647331473
 21
284.139195373222
 31
0.0
  0
LINE
  5
4EB7
330
1F
100
AcDbEntity
  8
LOGO
 62
     4
100
AcDbLine
 10
245.8418647331473
 20
290.1383265949414
 30
0.0
 11
245.8418647331473
 21
284.139195373222
 31
0.0
  0
LINE
  5
4EB8
330
1F
100
AcDbEntity
  8
LOGO
 62
     4
100
AcDbLine
 10
253.7567772346583
 20
290.1383265949414
 30
0.0
 11
253.7567772346583
 21
284.139195373222
 31
0.0
  0
LINE
  5
4EB9
330
1F
100
AcDbEntity
  8
LOGO
 62
     4
100
AcDbLine
 10
249.7993209839028
 20
284.139195373222
 30
0.0
 11
249.7993209839028
 21
281.1396297623626
 31
0.0
  0
TEXT
  5
4EBA
330
1F
100
AcDbEntity
  8
LOGO
  6
Continuous
 62
     7
100
AcDbText
 10
247.2578476056824
 20
285.391505245027
 30
0.0
 40
3.5
  1
A1
  7
CHINESET
100
AcDbText
  0
LINE
  5
4EBB
330
1F
100
AcDbEntity
  8
LOGO
 62
     4
100
AcDbLine
 10
266.3959403623485
 20
281.1396297623626
 30
0.0
 11
247.3382180795029
 21
281.1396297623626
 31
0.0
  0
TEXT
  5
4EBC
330
1F
100
AcDbEntity
  8
LOGO
  6
Continuous
100
AcDbText
 10
238.0854688924205
 20
274.8422928419736
 30
131.0577257600498
 40
1.5
  1
3 Way
 41
0.8
  7
CHINESET
100
AcDbText
  0
TEXT
  5
4EBD
330
1F
100
AcDbEntity
  8
LOGO
100
AcDbText
 10
236.6224256925448
 20
277.622969568901
 30
131.0577257600498
 40
2.5
  1
3方向
  7
CHINESET
100
AcDbText
  0
TEXT
  5
4EBE
330
1F
100
AcDbEntity
  8
LOGO
100
AcDbText
 10
249.6865819918805
 20
277.622969568901
 30
131.0577257600498
 40
2.5
  1
單動氣壓導引
  7
CHINESET
100
AcDbText
  0
TEXT
  5
4ECA
330
1F
100
AcDbEntity
  8
LOGO
  6
Continuous
100
AcDbText
 10
248.7214586075793
 20
274.8422928419736
 30
131.0577257600498
 40
1.5
  1
Single air operate
 41
0.8
  7
CHINESET
100
AcDbText
  0
LINE
  5
51D7
330
1F
100
AcDbEntity
  8
AM_VIS
100
AcDbLine
 10
202.698569782033
 20
339.0278869263595
 30
0.0
 11
237.698569782033
 21
339.0278869263595
 31
0.0
  0
LINE
  5
51D8
330
1F
100
AcDbEntity
  8
AM_VIS
100
AcDbLine
 10
202.698569782033
 20
321.0278869263595
 30
0.0
 11
237.698569782033
 21
321.0278869263595
 31
0.0
  0
LINE
  5
51D9
330
1F
100
AcDbEntity
  8
AM_VIS
100
AcDbLine
 10
237.698569782033
 20
321.0278869263595
 30
0.0
 11
237.698569782033
 21
339.0278869263595
 31
0.0
  0
LINE
  5
51DA
330
1F
100
AcDbEntity
  8
AM_VIS
100
AcDbLine
 10
202.698569782033
 20
321.0278869263595
 30
0.0
 11
202.698569782033
 21
339.0278869263595
 31
0.0
  0
CIRCLE
  5
51DB
330
1F
100
AcDbEntity
  8
AM_VIS
100
AcDbCircle
 10
231.698569782033
 20
323.5278869263595
 30
0.0
 40
1.6
  0
CIRCLE
  5
51DC
330
1F
100
AcDbEntity
  8
AM_VIS
100
AcDbCircle
 10
208.698569782033
 20
336.5278869263595
 30
0.0
 40
1.6
  0
LINE
  5
51DD
330
1F
100
AcDbEntity
  8
AM_VIS
100
AcDbLine
 10
196.1985697820329
 20
326.0278869263595
 30
0.0
 11
196.1985697820329
 21
321.5278869263595
 31
0.0
  0
LINE
  5
51DE
330
1F
100
AcDbEntity
  8
AM_VIS
100
AcDbLine
 10
202.698569782033
 20
339.0278869263595
 30
0.0
 11
193.6985697820329
 21
339.0278869263595
 31
0.0
  0
LINE
  5
51DF
330
1F
100
AcDbEntity
  8
AM_VIS
100
AcDbLine
 10
196.1985697820329
 20
321.0278869263595
 30
0.0
 11
202.698569782033
 21
321.0278869263595
 31
0.0
  0
LINE
  5
51E0
330
1F
100
AcDbEntity
  8
AM_VIS
100
AcDbLine
 10
195.098569782033
 20
321.0278869263595
 30
0.0
 11
193.6985697820329
 21
321.0278869263595
 31
0.0
  0
LINE
  5
51E1
330
1F
100
AcDbEntity
  8
AM_VIS
100
AcDbLine
 10
193.6985697820329
 20
326.0278869263595
 30
0.0
 11
196.1985697820329
 21
326.0278869263595
 31
0.0
  0
ARC
  5
51E2
330
1F
100
AcDbEntity
  8
AM_VIS
100
AcDbCircle
 10
193.6985697820329
 20
321.5278869263595
 30
0.0
 40
0.5
100
AcDbArc
 50
180.0
 51
270.0
  0
LINE
  5
51E3
330
1F
100
AcDbEntity
  8
AM_VIS
100
AcDbLine
 10
193.1985697820329
 20
323.4278869263595
 30
0.0
 11
193.1985697820329
 21
323.1788869263615
 31
0.0
  0
LINE
  5
51E4
330
1F
100
AcDbEntity
  8
AM_VIS
100
AcDbLine
 10
193.1985697820329
 20
322.3286375778084
 30
0.0
 11
193.1985697820329
 21
321.5278869263595
 31
0.0
  0
ARC
  5
51E5
330
1F
100
AcDbEntity
  8
AM_VIS
100
AcDbCircle
 10
193.6985697820329
 20
326.5278869263595
 30
0.0
 40
0.5
100
AcDbArc
 50
180.0
 51
270.0
  0
LINE
  5
51E6
330
1F
100
AcDbEntity
  8
AM_VIS
100
AcDbLine
 10
193.1985697820329
 20
338.5278869263595
 30
0.0
 11
193.1985697820329
 21
326.5278869263595
 31
0.0
  0
LINE
  5
51E7
330
1F
100
AcDbEntity
  8
AM_VIS
100
AcDbLine
 10
202.698569782033
 20
321.5278869263595
 30
0.0
 11
202.698569782033
 21
338.5278869263595
 31
0.0
  0
LINE
  5
51E8
330
1F
100
AcDbEntity
  8
AM_VIS
100
AcDbLine
 10
196.1985697820329
 20
321.0278869263595
 30
0.0
 11
196.1985697820329
 21
321.5278869263595
 31
0.0
  0
ARC
  5
51E9
330
1F
100
AcDbEntity
  8
AM_VIS
100
AcDbCircle
 10
193.6985697820329
 20
338.5278869263595
 30
0.0
 40
0.5
100
AcDbArc
 50
90.0
 51
180.0
  0
LINE
  5
51EA
330
1F
100
AcDbEntity
  8
AM_VIS
100
AcDbLine
 10
193.1985697820329
 20
326.5278869263595
 30
0.0
 11
193.1985697820329
 21
324.7271362749105
 31
0.0
  0
LINE
  5
51EB
330
1F
100
AcDbEntity
  8
AM_VIS
100
AcDbLine
 10
193.1985697820329
 20
323.8768869263615
 30
0.0
 11
193.1985697820329
 21
323.4278869263595
 31
0.0
  0
CIRCLE
  5
51EC
330
1F
100
AcDbEntity
  8
AM_VIS
100
AcDbCircle
 10
198.1985697820329
 20
330.0278869263595
 30
0.0
 40
1.199999999999999
  0
LINE
  5
51ED
330
1F
100
AcDbEntity
  8
AM_VIS
100
AcDbLine
 10
254.698569782033
 20
321.0278869263595
 30
0.0
 11
254.698569782033
 21
333.5278869263594
 31
0.0
  0
LINE
  5
51EE
330
1F
100
AcDbEntity
  8
AM_VIS
100
AcDbLine
 10
237.698569782033
 20
339.0278869263595
 30
0.0
 11
251.6985697820329
 21
339.0278869263595
 31
0.0
  0
LINE
  5
51EF
330
1F
100
AcDbEntity
  8
AM_VIS
100
AcDbLine
 10
251.6985697820329
 20
333.5278869263594
 30
0.0
 11
251.6985697820329
 21
339.0278869263594
 31
0.0
  0
LINE
  5
51F0
330
1F
100
AcDbEntity
  8
AM_VIS
100
AcDbLine
 10
254.698569782033
 20
333.5278869263594
 30
0.0
 11
251.6985697820329
 21
333.5278869263594
 31
0.0
  0
LINE
  5
51F1
330
1F
100
AcDbEntity
  8
AM_VIS
100
AcDbLine
 10
252.7985697820329
 20
339.0278869263595
 30
0.0
 11
254.698569782033
 21
339.0278869263595
 31
0.0
  0
LINE
  5
51F2
330
1F
100
AcDbEntity
  8
AM_VIS
100
AcDbLine
 10
254.698569782033
 20
339.0278869263595
 30
0.0
 11
254.698569782033
 21
337.7271362749106
 31
0.0
  0
LINE
  5
51F3
330
1F
100
AcDbEntity
  8
AM_VIS
100
AcDbLine
 10
254.698569782033
 20
336.8768869263595
 30
0.0
 11
254.698569782033
 21
336.2778869263595
 31
0.0
  0
LINE
  5
51F4
330
1F
100
AcDbEntity
  8
AM_VIS
100
AcDbLine
 10
237.698569782033
 20
321.0278869263595
 30
0.0
 11
237.698569782033
 21
339.0278869263595
 31
0.0
  0
LINE
  5
51F5
330
1F
100
AcDbEntity
  8
AM_VIS
100
AcDbLine
 10
237.698569782033
 20
321.0278869263595
 30
0.0
 11
254.698569782033
 21
321.0278869263595
 31
0.0
  0
LINE
  5
51F6
330
1F
100
AcDbEntity
  8
AM_VIS
100
AcDbLine
 10
254.698569782033
 20
333.5278869263595
 30
0.0
 11
254.698569782033
 21
335.3286375778084
 31
0.0
  0
LINE
  5
51F7
330
1F
100
AcDbEntity
  8
AM_VIS
100
AcDbLine
 10
254.698569782033
 20
336.1788869263595
 30
0.0
 11
254.698569782033
 21
336.2778869263595
 31
0.0
  0
LINE
  5
51F8
330
1F
100
AcDbEntity
  8
AM_VIS
100
AcDbLine
 10
195.6985697820329
 20
321.0209043653438
 30
0.0
 11
195.6985697820329
 21
320.9879581008284
 31
0.0
  0
ELLIPSE
  5
51F9
330
1F
100
AcDbEntity
  8
AM_VIS
100
AcDbEllipse
 10
195.3064158789412
 20
323.5278869263595
 30
0.0
 11
-4.416729559300744
 21
-0.0000000000000003
 31
0.0
210
0.0
220
0.0
230
1.0
 40
0.5773502691896143
 41
1.523720117048576
 42
1.659701699610174
  0
ELLIPSE
  5
51FA
330
1F
100
AcDbEntity
  8
AM_VIS
100
AcDbEllipse
 10
194.8907236851247
 20
323.5278869263595
 30
0.0
 11
-4.416729559300744
 21
-0.0000000000000003
 31
0.0
210
0.0
220
0.0
230
1.0
 40
0.5773502691896143
 41
1.617872536541216
 42
1.754737779028614
  0
LINE
  5
51FB
330
1F
100
AcDbEntity
  8
AM_VIS
100
AcDbLine
 10
195.6985697820329
 20
320.9778869263595
 30
0.0
 11
195.3064158789412
 21
320.9778869263595
 31
0.0
  0
LINE
  5
51FC
330
1F
100
AcDbEntity
  8
AM_VIS
100
AcDbLine
 10
195.6985697820329
 20
326.0278869263595
 30
0.0
 11
195.6985697820329
 21
321.0209043653438
 31
0.0
  0
LINE
  5
51FD
330
1F
100
AcDbEntity
  8
AM_VIS
100
AcDbLine
 10
195.6985697820329
 20
320.9879581008284
 30
0.0
 11
195.6985697820329
 21
320.9778869263595
 31
0.0
  0
LINE
  5
51FE
330
1F
100
AcDbEntity
  8
AM_VIS
100
AcDbLine
 10
195.098569782033
 20
326.0278869263595
 30
0.0
 11
195.098569782033
 21
320.9807120207042
 31
0.0
  0
LINE
  5
51FF
330
1F
100
AcDbEntity
  8
AM_VIS
100
AcDbLine
 10
252.798569782033
 20
321.0209043653438
 30
0.0
 11
252.798569782033
 21
320.9879581008284
 31
0.0
  0
ELLIPSE
  5
5200
330
1F
100
AcDbEntity
  8
AM_VIS
100
AcDbEllipse
 10
252.4064158789413
 20
323.5278869263595
 30
0.0
 11
-4.416729559300744
 21
-0.0000000000000003
 31
0.0
210
0.0
220
0.0
230
1.0
 40
0.5773502691896143
 41
1.523720117048576
 42
1.659701699610174
  0
ELLIPSE
  5
5201
330
1F
100
AcDbEntity
  8
AM_VIS
100
AcDbEllipse
 10
251.9907236851247
 20
323.5278869263595
 30
0.0
 11
-4.416729559300744
 21
-0.0000000000000003
 31
0.0
210
0.0
220
0.0
230
1.0
 40
0.5773502691896143
 41
1.617872536541216
 42
1.754737779028614
  0
LINE
  5
5202
330
1F
100
AcDbEntity
  8
AM_VIS
100
AcDbLine
 10
252.7985697820329
 20
320.9778869263595
 30
0.0
 11
252.4064158789413
 21
320.9778869263595
 31
0.0
  0
LINE
  5
5203
330
1F
100
AcDbEntity
  8
AM_VIS
100
AcDbLine
 10
252.7985697820329
 20
321.0278869263595
 30
0.0
 11
252.7985697820329
 21
321.0209043653438
 31
0.0
  0
LINE
  5
5204
330
1F
100
AcDbEntity
  8
AM_VIS
100
AcDbLine
 10
252.7985697820329
 20
320.9879581008284
 30
0.0
 11
252.7985697820329
 21
320.9778869263595
 31
0.0
  0
LINE
  5
5205
330
1F
100
AcDbEntity
  8
AM_VIS
100
AcDbLine
 10
252.198569782033
 20
321.0278869263595
 30
0.0
 11
252.198569782033
 21
320.9807120207042
 31
0.0
  0
LINE
  5
5206
330
1F
100
AcDbEntity
  8
AM_VIS
100
AcDbLine
 10
252.798569782033
 20
334.0209043653438
 30
0.0
 11
252.798569782033
 21
333.9879581008284
 31
0.0
  0
ELLIPSE
  5
5207
330
1F
100
AcDbEntity
  8
AM_VIS
100
AcDbEllipse
 10
252.4064158789413
 20
336.5278869263595
 30
0.0
 11
-4.416729559300744
 21
-0.0000000000000003
 31
0.0
210
0.0
220
0.0
230
1.0
 40
0.5773502691896143
 41
1.523720117048576
 42
1.659701699610174
  0
ELLIPSE
  5
5208
330
1F
100
AcDbEntity
  8
AM_VIS
100
AcDbEllipse
 10
251.9907236851247
 20
336.5278869263595
 30
0.0
 11
-4.416729559300744
 21
-0.0000000000000003
 31
0.0
210
0.0
220
0.0
230
1.0
 40
0.5773502691896143
 41
1.617872536541216
 42
1.754737779028614
  0
LINE
  5
5209
330
1F
100
AcDbEntity
  8
AM_VIS
100
AcDbLine
 10
252.7985697820329
 20
339.0778869263595
 30
0.0
 11
252.198569782033
 21
339.0778869263595
 31
0.0
  0
LINE
  5
520A
330
1F
100
AcDbEntity
  8
AM_VIS
100
AcDbLine
 10
252.7985697820329
 20
333.9778869263595
 30
0.0
 11
252.4064158789413
 21
333.9778869263595
 31
0.0
  0
LINE
  5
520B
330
1F
100
AcDbEntity
  8
AM_VIS
100
AcDbLine
 10
252.7985697820329
 20
339.0778869263595
 30
0.0
 11
252.7985697820329
 21
334.0209043653438
 31
0.0
  0
LINE
  5
520C
330
1F
100
AcDbEntity
  8
AM_VIS
100
AcDbLine
 10
252.7985697820329
 20
333.9879581008284
 30
0.0
 11
252.7985697820329
 21
333.9778869263595
 31
0.0
  0
LINE
  5
520D
330
1F
100
AcDbEntity
  8
AM_VIS
100
AcDbLine
 10
252.198569782033
 20
339.0778869263595
 30
0.0
 11
252.198569782033
 21
333.9807120207042
 31
0.0
  0
LINE
  5
520E
330
1F
100
AcDbEntity
  8
AM_VIS
100
AcDbLine
 10
195.6985697820329
 20
321.0278869263595
 30
0.0
 11
196.1985697820329
 21
321.0278869263595
 31
0.0
  0
LINE
  5
520F
330
1F
100
AcDbEntity
  8
AM_VIS
100
AcDbLine
 10
251.6985697820329
 20
334.0278869263595
 30
0.0
 11
252.198569782033
 21
334.0278869263595
 31
0.0
  0
LINE
  5
5210
330
1F
100
AcDbEntity
  8
AM_VIS
100
AcDbLine
 10
251.6985697820329
 20
339.0278869263595
 30
0.0
 11
252.198569782033
 21
339.0278869263595
 31
0.0
  0
LINE
  5
5211
330
1F
100
AcDbEntity
  8
AM_VIS
100
AcDbLine
 10
194.2751181925002
 20
321.099929605406
 30
0.0
 11
195.098569782033
 21
321.0278869263595
 31
0.0
  0
LINE
  5
5212
330
1F
100
AcDbEntity
  8
AM_VIS
100
AcDbLine
 10
194.2751181925002
 20
325.955844247313
 30
0.0
 11
195.0765807771819
 21
326.0259631377128
 31
0.0
  0
LINE
  5
5213
330
1F
100
AcDbEntity
  8
AM_VIS
100
AcDbLine
 10
193.23326766932
 20
322.1778869263595
 30
0.0
 11
193.2459278757857
 21
322.1877833022031
 31
0.0
  0
ARC
  5
5214
330
1F
100
AcDbEntity
  8
AM_VIS
100
AcDbCircle
 10
196.998569782033
 20
323.5278869263595
 30
0.0
 40
3.984745788629432
100
AcDbArc
 50
160.3478770841349
 51
168.9838463654508
  0
LINE
  5
5215
330
1F
100
AcDbEntity
  8
AM_VIS
100
AcDbLine
 10
193.2459278757857
 20
324.8679905505158
 30
0.0
 11
193.23326766932
 21
324.8778869263595
 31
0.0
  0
LINE
  5
5216
330
1F
100
AcDbEntity
  8
AM_VIS
100
AcDbLine
 10
193.2459278757858
 20
323.8768869263615
 30
0.0
 11
193.0872495138882
 21
323.8768869263615
 31
0.0
  0
LINE
  5
5217
330
1F
100
AcDbEntity
  8
AM_VIS
100
AcDbLine
 10
193.0872495138882
 20
323.1788869263615
 30
0.0
 11
193.2459278757855
 21
323.1788869263615
 31
0.0
  0
ELLIPSE
  5
5218
330
1F
100
AcDbEntity
  8
AM_VIS
100
AcDbEllipse
 10
196.2254843930292
 20
323.5278869263595
 30
0.0
 11
0.0
 21
-3.797925352448569
 31
0.0
210
0.0
220
0.0
230
1.0
 40
0.7878555911532165
 41
4.620366885743576
 42
4.804411075024757
  0
ARC
  5
5219
330
1F
100
AcDbEntity
  8
AM_VIS
100
AcDbCircle
 10
196.998569782033
 20
323.5278869263595
 30
0.0
 40
3.984745788629432
100
AcDbArc
 50
191.0161536345523
 51
199.652122915862
  0
LINE
  5
521A
330
1F
100
AcDbEntity
  8
AM_VIS
100
AcDbLine
 10
193.0872495138882
 20
322.7664588207578
 30
0.0
 11
193.0872495138882
 21
323.1788869263614
 31
0.0
  0
LINE
  5
521B
330
1F
100
AcDbEntity
  8
AM_VIS
100
AcDbLine
 10
193.0872495138882
 20
323.8768869263615
 30
0.0
 11
193.0872495138882
 21
324.2893150319611
 31
0.0
  0
ARC
  5
521C
330
1F
100
AcDbEntity
  8
AM_VIS
100
AcDbCircle
 10
194.3622739352479
 20
322.0961243034977
 30
0.0
 40
1.0
100
AcDbArc
 50
208.5062230151612
 51
265.0000000000003
  0
ARC
  5
521D
330
1F
100
AcDbEntity
  8
AM_VIS
100
AcDbCircle
 10
194.3622739352479
 20
324.9596495492212
 30
0.0
 40
1.0
100
AcDbArc
 50
94.99999999999975
 51
151.4937769848388
  0
ARC
  5
521E
330
1F
100
AcDbEntity
  8
AM_VIS
100
AcDbCircle
 10
196.998569782033
 20
323.5278869263595
 30
0.0
 40
4.0
100
AcDbArc
 50
151.4937769848416
 51
160.2753664412991
  0
ARC
  5
521F
330
1F
100
AcDbEntity
  8
AM_VIS
100
AcDbCircle
 10
196.998569782033
 20
323.5278869263595
 30
0.0
 40
4.0
100
AcDbArc
 50
199.7246335587009
 51
208.5062230151583
  0
LINE
  5
5220
330
1F
100
AcDbEntity
  8
AM_VIS
100
AcDbLine
 10
253.6220213715657
 20
338.955844247313
 30
0.0
 11
252.7985697820329
 21
339.0278869263595
 31
0.0
  0
LINE
  5
5221
330
1F
100
AcDbEntity
  8
AM_VIS
100
AcDbLine
 10
253.6220213715657
 20
334.099929605406
 30
0.0
 11
252.7985697820329
 21
334.0278869263595
 31
0.0
  0
LINE
  5
5222
330
1F
100
AcDbEntity
  8
AM_VIS
100
AcDbLine
 10
254.8098900501777
 20
336.8768869263595
 30
0.0
 11
254.6512116882802
 21
336.8768869263595
 31
0.0
  0
ELLIPSE
  5
5223
330
1F
100
AcDbEntity
  8
AM_VIS
100
AcDbEllipse
 10
251.6716551710366
 20
336.5278869263595
 30
0.0
 11
0.0
 21
-3.797925352448591
 31
0.0
210
0.0
220
0.0
230
1.0
 40
0.787855591153228
 41
1.478774232154308
 42
1.662818421435484
  0
ARC
  5
5224
330
1F
100
AcDbEntity
  8
AM_VIS
100
AcDbCircle
 10
250.8985697820329
 20
336.5278869263595
 30
0.0
 40
3.984745788629256
100
AcDbArc
 50
11.01615363453897
 51
19.65212291586199
  0
LINE
  5
5225
330
1F
100
AcDbEntity
  8
AM_VIS
100
AcDbLine
 10
254.6512116882801
 20
335.1877833022032
 30
0.0
 11
254.6638718947459
 21
335.1778869263595
 31
0.0
  0
LINE
  5
5226
330
1F
100
AcDbEntity
  8
AM_VIS
100
AcDbLine
 10
254.6638718947459
 20
337.8778869263595
 30
0.0
 11
254.6512116882801
 21
337.8679905505157
 31
0.0
  0
ARC
  5
5227
330
1F
100
AcDbEntity
  8
AM_VIS
100
AcDbCircle
 10
250.8985697820329
 20
336.5278869263595
 30
0.0
 40
3.984745788629256
100
AcDbArc
 50
340.347877084138
 51
348.9838463654604
  0
LINE
  5
5228
330
1F
100
AcDbEntity
  8
AM_VIS
100
AcDbLine
 10
254.6512116882802
 20
336.1788869263595
 30
0.0
 11
254.8098900501777
 21
336.1788869263595
 31
0.0
  0
LINE
  5
5229
330
1F
100
AcDbEntity
  8
AM_VIS
100
AcDbLine
 10
254.8098900501777
 20
336.1788869263595
 30
0.0
 11
254.8098900501777
 21
335.7664588207588
 31
0.0
  0
LINE
  5
522A
330
1F
100
AcDbEntity
  8
AM_VIS
100
AcDbLine
 10
254.8098900501777
 20
337.2893150319602
 30
0.0
 11
254.8098900501777
 21
336.8768869263595
 31
0.0
  0
ARC
  5
522B
330
1F
100
AcDbEntity
  8
AM_VIS
100
AcDbCircle
 10
253.534865628818
 20
337.9596495492212
 30
0.0
 40
1.0
100
AcDbArc
 50
28.5062230151612
 51
85.00000000000026
  0
ARC
  5
522C
330
1F
100
AcDbEntity
  8
AM_VIS
100
AcDbCircle
 10
253.534865628818
 20
335.0961243034978
 30
0.0
 40
1.0
100
AcDbArc
 50
274.9999999999997
 51
331.4937769848388
  0
ARC
  5
522D
330
1F
100
AcDbEntity
  8
AM_VIS
100
AcDbCircle
 10
250.8985697820329
 20
336.5278869263595
 30
0.0
 40
4.0
100
AcDbArc
 50
19.72463355870085
 51
28.50622301515834
  0
ARC
  5
522E
330
1F
100
AcDbEntity
  8
AM_VIS
100
AcDbCircle
 10
250.8985697820329
 20
336.5278869263595
 30
0.0
 40
4.0
100
AcDbArc
 50
331.4937769848417
 51
340.2753664412992
  0
CIRCLE
  5
522F
330
1F
100
AcDbEntity
  8
AM_VIS
100
AcDbCircle
 10
214.698569782033
 20
385.4331016841912
 30
0.0
 40
1.050000000000107
  0
LINE
  5
5230
330
1F
100
AcDbEntity
  8
AM_VIS
100
AcDbLine
 10
211.698569782033
 20
388.2331016841912
 30
0.0
 11
205.698569782033
 21
388.2331016841912
 31
0.0
  0
LINE
  5
5231
330
1F
100
AcDbEntity
  8
AM_VIS
100
AcDbLine
 10
211.698569782033
 20
391.2331016841912
 30
0.0
 11
211.698569782033
 21
388.2331016841912
 31
0.0
  0
LINE
  5
5232
330
1F
100
AcDbEntity
  8
AM_VIS
100
AcDbLine
 10
211.698569782033
 20
391.2331016841912
 30
0.0
 11
237.698569782033
 21
391.2331016841912
 31
0.0
  0
LINE
  5
5233
330
1F
100
AcDbEntity
  8
AM_VIS
100
AcDbLine
 10
202.698569782033
 20
364.2331016841912
 30
0.0
 11
237.698569782033
 21
364.2331016841912
 31
0.0
  0
LINE
  5
5234
330
1F
100
AcDbEntity
  8
AM_VIS
100
AcDbLine
 10
202.698569782033
 20
391.2331016841912
 30
0.0
 11
205.698569782033
 21
391.2331016841912
 31
0.0
  0
LINE
  5
5235
330
1F
100
AcDbEntity
  8
AM_VIS
100
AcDbLine
 10
205.698569782033
 20
388.2331016841912
 30
0.0
 11
205.698569782033
 21
391.2331016841912
 31
0.0
  0
LINE
  5
5236
330
1F
100
AcDbEntity
  8
AM_VIS
100
AcDbLine
 10
237.698569782033
 20
364.2331016841912
 30
0.0
 11
237.698569782033
 21
391.2331016841912
 31
0.0
  0
LINE
  5
5237
330
1F
100
AcDbEntity
  8
AM_VIS
100
AcDbLine
 10
202.698569782033
 20
364.2331016841912
 30
0.0
 11
202.698569782033
 21
391.2331016841912
 31
0.0
  0
LINE
  5
5238
330
1F
100
AcDbEntity
  8
AM_VIS
100
AcDbLine
 10
205.698569782033
 20
391.2331016841912
 30
0.0
 11
211.698569782033
 21
391.2331016841912
 31
0.0
  0
CIRCLE
  5
5239
330
1F
100
AcDbEntity
  8
AM_VIS
100
AcDbCircle
 10
206.948569782033
 20
369.2331016841912
 30
0.0
 40
1.6
  0
CIRCLE
  5
523A
330
1F
100
AcDbEntity
  8
AM_VIS
100
AcDbCircle
 10
214.698569782033
 20
385.4331016841912
 30
0.0
 40
1.05
  0
CIRCLE
  5
523B
330
1F
100
AcDbEntity
  8
AM_VIS
100
AcDbCircle
 10
221.948569782033
 20
369.2331016841912
 30
0.0
 40
1.6
  0
LINE
  5
523C
330
1F
100
AcDbEntity
  8
AM_VIS
100
AcDbLine
 10
193.6985697820329
 20
364.2331016841912
 30
0.0
 11
202.698569782033
 21
364.2331016841912
 31
0.0
  0
LINE
  5
523D
330
1F
100
AcDbEntity
  8
AM_VIS
100
AcDbLine
 10
196.1985697820329
 20
386.2331016841912
 30
0.0
 11
193.6985697820329
 21
386.2331016841912
 31
0.0
  0
LINE
  5
523E
330
1F
100
AcDbEntity
  8
AM_VIS
100
AcDbLine
 10
196.1985697820329
 20
390.7331016841912
 30
0.0
 11
196.1985697820329
 21
386.2331016841912
 31
0.0
  0
LINE
  5
523F
330
1F
100
AcDbEntity
  8
AM_VIS
100
AcDbLine
 10
202.698569782033
 20
391.2331016841912
 30
0.0
 11
196.1985697820329
 21
391.2331016841912
 31
0.0
  0
LINE
  5
5240
330
1F
100
AcDbEntity
  8
AM_VIS
100
AcDbLine
 10
193.6985697820329
 20
391.2331016841912
 30
0.0
 11
195.098569782033
 21
391.2331016841912
 31
0.0
  0
LINE
  5
5241
330
1F
100
AcDbEntity
  8
AM_VIS
100
AcDbLine
 10
193.1985697820329
 20
385.7331016841912
 30
0.0
 11
193.1985697820329
 21
364.7331016841912
 31
0.0
  0
ARC
  5
5242
330
1F
100
AcDbEntity
  8
AM_VIS
100
AcDbCircle
 10
193.6985697820329
 20
385.7331016841912
 30
0.0
 40
0.5
100
AcDbArc
 50
90.0
 51
180.0
  0
LINE
  5
5243
330
1F
100
AcDbEntity
  8
AM_VIS
100
AcDbLine
 10
193.1985697820329
 20
390.7331016841912
 30
0.0
 11
193.1985697820329
 21
389.9323510327422
 31
0.0
  0
LINE
  5
5244
330
1F
100
AcDbEntity
  8
AM_VIS
100
AcDbLine
 10
193.1985697820329
 20
389.0821016841912
 30
0.0
 11
193.1985697820329
 21
388.8331016841912
 31
0.0
  0
ARC
  5
5245
330
1F
100
AcDbEntity
  8
AM_VIS
100
AcDbCircle
 10
193.6985697820329
 20
390.7331016841912
 30
0.0
 40
0.5
100
AcDbArc
 50
90.0
 51
180.0
  0
LINE
  5
5246
330
1F
100
AcDbEntity
  8
AM_VIS
100
AcDbLine
 10
202.698569782033
 20
364.7331016841912
 30
0.0
 11
202.698569782033
 21
390.7331016841912
 31
0.0
  0
LINE
  5
5247
330
1F
100
AcDbEntity
  8
AM_VIS
100
AcDbLine
 10
196.1985697820329
 20
390.7331016841912
 30
0.0
 11
196.1985697820329
 21
391.2331016841912
 31
0.0
  0
LINE
  5
5248
330
1F
100
AcDbEntity
  8
AM_VIS
100
AcDbLine
 10
193.1985697820329
 20
388.8331016841912
 30
0.0
 11
193.1985697820329
 21
388.3841016841912
 31
0.0
  0
LINE
  5
5249
330
1F
100
AcDbEntity
  8
AM_VIS
100
AcDbLine
 10
193.1985697820329
 20
387.5338523356401
 30
0.0
 11
193.1985697820329
 21
385.7331016841912
 31
0.0
  0
ARC
  5
524A
102
{ACAD_REACTORS
330
530D
330
5313
102
}
330
1F
100
AcDbEntity
  8
AM_VIS
100
AcDbCircle
 10
193.6985697820329
 20
364.7331016841912
 30
0.0
 40
0.5
100
AcDbArc
 50
180.0
 51
270.0
  0
LINE
  5
524B
330
1F
100
AcDbEntity
  8
AM_VIS
100
AcDbLine
 10
237.698569782033
 20
364.2331016841912
 30
0.0
 11
251.6985697820329
 21
364.2331016841912
 31
0.0
  0
LINE
  5
524C
330
1F
100
AcDbEntity
  8
AM_VIS
100
AcDbLine
 10
237.698569782033
 20
391.2331016841912
 30
0.0
 11
254.698569782033
 21
391.2331016841912
 31
0.0
  0
LINE
  5
524D
102
{ACAD_REACTORS
330
52FD
102
}
330
1F
100
AcDbEntity
  8
AM_VIS
100
AcDbLine
 10
254.698569782033
 20
369.7331016841911
 30
0.0
 11
254.698569782033
 21
391.2331016841912
 31
0.0
  0
LINE
  5
524E
330
1F
100
AcDbEntity
  8
AM_VIS
100
AcDbLine
 10
251.6985697820329
 20
364.2331016841911
 30
0.0
 11
251.6985697820329
 21
369.7331016841911
 31
0.0
  0
LINE
  5
524F
330
1F
100
AcDbEntity
  8
AM_VIS
100
AcDbLine
 10
254.698569782033
 20
366.9831016841912
 30
0.0
 11
254.698569782033
 21
366.3841016841892
 31
0.0
  0
LINE
  5
5250
102
{ACAD_REACTORS
330
52FD
102
}
330
1F
100
AcDbEntity
  8
AM_VIS
100
AcDbLine
 10
254.698569782033
 20
365.5338523356402
 30
0.0
 11
254.698569782033
 21
364.2331016841912
 31
0.0
  0
LINE
  5
5251
330
1F
100
AcDbEntity
  8
AM_VIS
100
AcDbLine
 10
254.698569782033
 20
364.2331016841912
 30
0.0
 11
252.7985697820329
 21
364.2331016841912
 31
0.0
  0
LINE
  5
5252
330
1F
100
AcDbEntity
  8
AM_VIS
100
AcDbLine
 10
251.6985697820329
 20
369.7331016841911
 30
0.0
 11
254.698569782033
 21
369.7331016841911
 31
0.0
  0
LINE
  5
5253
330
1F
100
AcDbEntity
  8
AM_VIS
100
AcDbLine
 10
237.698569782033
 20
364.2331016841912
 30
0.0
 11
237.698569782033
 21
391.2331016841912
 31
0.0
  0
LINE
  5
5254
330
1F
100
AcDbEntity
  8
AM_VIS
100
AcDbLine
 10
254.698569782033
 20
366.9831016841912
 30
0.0
 11
254.698569782033
 21
367.0821016841892
 31
0.0
  0
LINE
  5
5255
330
1F
100
AcDbEntity
  8
AM_VIS
100
AcDbLine
 10
254.698569782033
 20
367.9323510327423
 30
0.0
 11
254.698569782033
 21
369.7331016841912
 31
0.0
  0
LINE
  5
5256
330
1F
100
AcDbEntity
  8
AM_VIS
100
AcDbLine
 10
252.7985697820329
 20
369.2831016841913
 30
0.0
 11
252.198569782033
 21
369.2831016841913
 31
0.0
  0
LINE
  5
5257
330
1F
100
AcDbEntity
  8
AM_VIS
100
AcDbLine
 10
252.7985697820329
 20
364.1831016841913
 30
0.0
 11
252.198569782033
 21
364.1831016841913
 31
0.0
  0
LINE
  5
5258
330
1F
100
AcDbEntity
  8
AM_VIS
100
AcDbLine
 10
252.7985697820329
 20
369.2831016841913
 30
0.0
 11
252.7985697820329
 21
364.1831016841913
 31
0.0
  0
LINE
  5
5259
330
1F
100
AcDbEntity
  8
AM_VIS
100
AcDbLine
 10
252.198569782033
 20
369.2831016841913
 30
0.0
 11
252.198569782033
 21
364.1831016841913
 31
0.0
  0
LINE
  5
525A
330
1F
100
AcDbEntity
  8
AM_VIS
100
AcDbLine
 10
195.6985697820329
 20
391.2831016841912
 30
0.0
 11
195.098569782033
 21
391.2831016841912
 31
0.0
  0
LINE
  5
525B
330
1F
100
AcDbEntity
  8
AM_VIS
100
AcDbLine
 10
195.6985697820329
 20
391.2831016841912
 30
0.0
 11
195.6985697820329
 21
386.2331016841912
 31
0.0
  0
LINE
  5
525C
330
1F
100
AcDbEntity
  8
AM_VIS
100
AcDbLine
 10
195.098569782033
 20
391.2831016841912
 30
0.0
 11
195.098569782033
 21
386.2331016841912
 31
0.0
  0
LINE
  5
525D
330
1F
100
AcDbEntity
  8
AM_VIS
100
AcDbLine
 10
195.6985697820329
 20
391.2331016841912
 30
0.0
 11
196.1985697820329
 21
391.2331016841912
 31
0.0
  0
LINE
  5
525E
330
1F
100
AcDbEntity
  8
AM_VIS
100
AcDbLine
 10
251.6985697820329
 20
364.2331016841912
 30
0.0
 11
252.198569782033
 21
364.2331016841912
 31
0.0
  0
LINE
  5
525F
330
1F
100
AcDbEntity
  8
AM_VIS
100
AcDbLine
 10
251.6985697820329
 20
369.2331016841912
 30
0.0
 11
252.198569782033
 21
369.2331016841912
 31
0.0
  0
LINE
  5
5260
330
1F
100
AcDbEntity
  8
AM_VIS
100
AcDbLine
 10
194.2751181925002
 20
386.3051443632377
 30
0.0
 11
195.0765807771819
 21
386.2350254728379
 31
0.0
  0
LINE
  5
5261
330
1F
100
AcDbEntity
  8
AM_VIS
100
AcDbLine
 10
194.2751181925002
 20
391.1610590051447
 30
0.0
 11
195.098569782033
 21
391.2331016841912
 31
0.0
  0
LINE
  5
5262
330
1F
100
AcDbEntity
  8
AM_VIS
100
AcDbLine
 10
193.0872495138882
 20
388.3841016841912
 30
0.0
 11
193.2459278757857
 21
388.3841016841912
 31
0.0
  0
ELLIPSE
  5
5263
330
1F
100
AcDbEntity
  8
AM_VIS
100
AcDbEllipse
 10
196.2254843930293
 20
388.7331016841912
 30
0.0
 11
0.0
 21
-3.797925352448591
 31
0.0
210
0.0
220
0.0
230
1.0
 40
0.787855591153228
 41
4.6203668857441
 42
4.80441107502528
  0
ARC
  5
5264
330
1F
100
AcDbEntity
  8
AM_VIS
100
AcDbCircle
 10
196.998569782033
 20
388.7331016841912
 30
0.0
 40
3.984745788629256
100
AcDbArc
 50
191.016153634539
 51
199.652122915862
  0
LINE
  5
5265
330
1F
100
AcDbEntity
  8
AM_VIS
100
AcDbLine
 10
193.2459278757858
 20
390.0732053083475
 30
0.0
 11
193.23326766932
 21
390.0831016841912
 31
0.0
  0
LINE
  5
5266
330
1F
100
AcDbEntity
  8
AM_VIS
100
AcDbLine
 10
193.23326766932
 20
387.3831016841912
 30
0.0
 11
193.2459278757858
 21
387.3929980600349
 31
0.0
  0
ARC
  5
5267
330
1F
100
AcDbEntity
  8
AM_VIS
100
AcDbCircle
 10
196.998569782033
 20
388.7331016841912
 30
0.0
 40
3.984745788629256
100
AcDbArc
 50
160.347877084138
 51
168.983846365461
  0
LINE
  5
5268
330
1F
100
AcDbEntity
  8
AM_VIS
100
AcDbLine
 10
193.2459278757857
 20
389.0821016841912
 30
0.0
 11
193.0872495138882
 21
389.0821016841912
 31
0.0
  0
LINE
  5
5269
330
1F
100
AcDbEntity
  8
AM_VIS
100
AcDbLine
 10
193.0872495138882
 20
389.0821016841912
 30
0.0
 11
193.0872495138882
 21
389.4945297897919
 31
0.0
  0
LINE
  5
526A
330
1F
100
AcDbEntity
  8
AM_VIS
100
AcDbLine
 10
193.0872495138882
 20
387.9716735785905
 30
0.0
 11
193.0872495138882
 21
388.3841016841912
 31
0.0
  0
ARC
  5
526B
330
1F
100
AcDbEntity
  8
AM_VIS
100
AcDbCircle
 10
194.3622739352479
 20
387.3013390613295
 30
0.0
 40
1.0
100
AcDbArc
 50
208.5062230151583
 51
265.0000000000003
  0
ARC
  5
526C
330
1F
100
AcDbEntity
  8
AM_VIS
100
AcDbCircle
 10
194.3622739352479
 20
390.1648643070529
 30
0.0
 40
1.0
100
AcDbArc
 50
94.99999999999975
 51
151.4937769848416
  0
ARC
  5
526D
330
1F
100
AcDbEntity
  8
AM_VIS
100
AcDbCircle
 10
196.998569782033
 20
388.7331016841912
 30
0.0
 40
4.0
100
AcDbArc
 50
199.7246335587009
 51
208.5062230151583
  0
ARC
  5
526E
330
1F
100
AcDbEntity
  8
AM_VIS
100
AcDbCircle
 10
196.998569782033
 20
388.7331016841912
 30
0.0
 40
4.0
100
AcDbArc
 50
151.4937769848416
 51
160.2753664412991
  0
LINE
  5
526F
330
1F
100
AcDbEntity
  8
AM_VIS
100
AcDbLine
 10
253.6220213715657
 20
369.1610590051447
 30
0.0
 11
252.7985697820329
 21
369.2331016841913
 31
0.0
  0
LINE
  5
5270
330
1F
100
AcDbEntity
  8
AM_VIS
100
AcDbLine
 10
253.6220213715657
 20
364.3051443632377
 30
0.0
 11
252.7985697820329
 21
364.2331016841912
 31
0.0
  0
LINE
  5
5271
330
1F
100
AcDbEntity
  8
AM_VIS
100
AcDbLine
 10
254.6638718947459
 20
368.0831016841912
 30
0.0
 11
254.6512116882802
 21
368.0732053083476
 31
0.0
  0
ARC
  5
5272
330
1F
100
AcDbEntity
  8
AM_VIS
100
AcDbCircle
 10
250.8985697820329
 20
366.7331016841912
 30
0.0
 40
3.984745788629432
100
AcDbArc
 50
340.347877084135
 51
348.9838463654476
  0
LINE
  5
5273
330
1F
100
AcDbEntity
  8
AM_VIS
100
AcDbLine
 10
254.6512116882802
 20
365.3929980600349
 30
0.0
 11
254.6638718947459
 21
365.3831016841912
 31
0.0
  0
LINE
  5
5274
330
1F
100
AcDbEntity
  8
AM_VIS
100
AcDbLine
 10
254.6512116882801
 20
366.3841016841892
 30
0.0
 11
254.8098900501777
 21
366.3841016841892
 31
0.0
  0
LINE
  5
5275
330
1F
100
AcDbEntity
  8
AM_VIS
100
AcDbLine
 10
254.8098900501777
 20
367.0821016841892
 30
0.0
 11
254.6512116882803
 21
367.0821016841892
 31
0.0
  0
ELLIPSE
  5
5276
330
1F
100
AcDbEntity
  8
AM_VIS
100
AcDbEllipse
 10
251.6716551710367
 20
366.7331016841912
 30
0.0
 11
0.0
 21
-3.797925352448569
 31
0.0
210
0.0
220
0.0
230
1.0
 40
0.7878555911532165
 41
1.478774232153783
 42
1.662818421434965
  0
ARC
  5
5277
330
1F
100
AcDbEntity
  8
AM_VIS
100
AcDbCircle
 10
250.8985697820329
 20
366.7331016841912
 30
0.0
 40
3.984745788629432
100
AcDbArc
 50
11.01615363454919
 51
19.65212291586506
  0
LINE
  5
5278
330
1F
100
AcDbEntity
  8
AM_VIS
100
AcDbLine
 10
254.8098900501777
 20
367.4945297897928
 30
0.0
 11
254.8098900501777
 21
367.0821016841892
 31
0.0
  0
LINE
  5
5279
330
1F
100
AcDbEntity
  8
AM_VIS
100
AcDbLine
 10
254.8098900501777
 20
366.3841016841892
 30
0.0
 11
254.8098900501777
 21
365.9716735785896
 31
0.0
  0
ARC
  5
527A
330
1F
100
AcDbEntity
  8
AM_VIS
100
AcDbCircle
 10
253.534865628818
 20
368.1648643070529
 30
0.0
 40
1.0
100
AcDbArc
 50
28.5062230151612
 51
85.00000000000026
  0
ARC
  5
527B
330
1F
100
AcDbEntity
  8
AM_VIS
100
AcDbCircle
 10
253.534865628818
 20
365.3013390613295
 30
0.0
 40
1.0
100
AcDbArc
 50
274.9999999999997
 51
331.4937769848388
  0
ARC
  5
527C
330
1F
100
AcDbEntity
  8
AM_VIS
100
AcDbCircle
 10
250.8985697820329
 20
366.7331016841912
 30
0.0
 40
4.0
100
AcDbArc
 50
331.4937769848417
 51
340.2753664412992
  0
ARC
  5
527D
330
1F
100
AcDbEntity
  8
AM_VIS
100
AcDbCircle
 10
250.8985697820329
 20
366.7331016841912
 30
0.0
 40
4.0
100
AcDbArc
 50
19.72463355870085
 51
28.50622301515834
  0
LINE
  5
527E
330
1F
100
AcDbEntity
  8
AM_VIS
100
AcDbLine
 10
228.698569782033
 20
440.264214291985
 30
0.0
 11
228.698569782033
 21
442.7642142919849
 31
0.0
  0
LINE
  5
527F
330
1F
100
AcDbEntity
  8
AM_VIS
100
AcDbLine
 10
211.698569782033
 20
427.264214291985
 30
0.0
 11
211.698569782033
 21
424.764214291985
 31
0.0
  0
LINE
  5
5280
330
1F
100
AcDbEntity
  8
AM_VIS
100
AcDbLine
 10
234.698569782033
 20
442.7642142919849
 30
0.0
 11
234.698569782033
 21
440.264214291985
 31
0.0
  0
ARC
  5
5281
330
1F
100
AcDbEntity
  8
AM_VIS
100
AcDbCircle
 10
231.698569782033
 20
440.264214291985
 30
0.0
 40
1.599999999999992
100
AcDbArc
 50
322.2387560929646
 51
37.76124390703542
  0
LINE
  5
5282
330
1F
100
AcDbEntity
  8
AM_VIS
100
AcDbLine
 10
205.698569782033
 20
424.7642142919849
 30
0.0
 11
205.698569782033
 21
427.264214291985
 31
0.0
  0
ARC
  5
5283
330
1F
100
AcDbEntity
  8
AM_VIS
100
AcDbCircle
 10
208.698569782033
 20
427.264214291985
 30
0.0
 40
1.599999999999995
100
AcDbArc
 50
142.2387560929646
 51
217.7612439070354
  0
LINE
  5
5284
330
1F
100
AcDbEntity
  8
AM_VIS
100
AcDbLine
 10
211.698569782033
 20
424.764214291985
 30
0.0
 11
205.698569782033
 21
424.764214291985
 31
0.0
  0
LINE
  5
5285
330
1F
100
AcDbEntity
  8
AM_VIS
100
AcDbLine
 10
211.698569782033
 20
424.764214291985
 30
0.0
 11
237.698569782033
 21
424.764214291985
 31
0.0
  0
LINE
  5
5286
330
1F
100
AcDbEntity
  8
AM_VIS
100
AcDbLine
 10
202.698569782033
 20
424.764214291985
 30
0.0
 11
205.698569782033
 21
424.764214291985
 31
0.0
  0
LINE
  5
5287
330
1F
100
AcDbEntity
  8
AM_VIS
100
AcDbLine
 10
228.698569782033
 20
442.7642142919849
 30
0.0
 11
234.698569782033
 21
442.7642142919849
 31
0.0
  0
LINE
  5
5288
330
1F
100
AcDbEntity
  8
AM_VIS
100
AcDbLine
 10
202.698569782033
 20
442.7642142919849
 30
0.0
 11
228.698569782033
 21
442.7642142919849
 31
0.0
  0
LINE
  5
5289
330
1F
100
AcDbEntity
  8
AM_VIS
100
AcDbLine
 10
234.698569782033
 20
442.7642142919849
 30
0.0
 11
237.698569782033
 21
442.7642142919849
 31
0.0
  0
LINE
  5
528A
330
1F
100
AcDbEntity
  8
AM_VIS
100
AcDbLine
 10
237.698569782033
 20
424.764214291985
 30
0.0
 11
237.698569782033
 21
442.7642142919849
 31
0.0
  0
LINE
  5
528B
330
1F
100
AcDbEntity
  8
AM_VIS
100
AcDbLine
 10
202.698569782033
 20
424.764214291985
 30
0.0
 11
202.698569782033
 21
442.7642142919849
 31
0.0
  0
ARC
  5
528C
330
1F
100
AcDbEntity
  8
AM_VIS
100
AcDbCircle
 10
231.698569782033
 20
440.264214291985
 30
0.0
 40
3.0
100
AcDbArc
 50
180.0
 51
0.0
  0
ARC
  5
528D
330
1F
100
AcDbEntity
  8
AM_VIS
100
AcDbCircle
 10
208.698569782033
 20
427.264214291985
 30
0.0
 40
3.0
100
AcDbArc
 50
0.0
 51
180.0
  0
ARC
  5
528E
330
1F
100
AcDbEntity
  8
AM_VIS
100
AcDbCircle
 10
231.698569782033
 20
440.264214291985
 30
0.0
 40
1.6
100
AcDbArc
 50
37.76124390703542
 51
322.2387560929646
  0
ARC
  5
528F
330
1F
100
AcDbEntity
  8
AM_VIS
100
AcDbCircle
 10
208.698569782033
 20
427.264214291985
 30
0.0
 40
1.6
100
AcDbArc
 50
217.7612439070354
 51
142.2387560929646
  0
LINE
  5
5290
102
{ACAD_REACTORS
330
531D
102
}
330
1F
100
AcDbEntity
  8
AM_VIS
100
AcDbLine
 10
195.098569782033
 20
424.764214291985
 30
0.0
 11
193.6985697820329
 21
424.764214291985
 31
0.0
  0
LINE
  5
5291
330
1F
100
AcDbEntity
  8
AM_VIS
100
AcDbLine
 10
196.1985697820329
 20
424.764214291985
 30
0.0
 11
202.698569782033
 21
424.764214291985
 31
0.0
  0
LINE
  5
5292
330
1F
100
AcDbEntity
  8
AM_VIS
100
AcDbLine
 10
196.1985697820329
 20
429.7642142919849
 30
0.0
 11
196.1985697820329
 21
425.2642142919849
 31
0.0
  0
LINE
  5
5293
330
1F
100
AcDbEntity
  8
AM_VIS
100
AcDbLine
 10
193.6985697820329
 20
429.7642142919849
 30
0.0
 11
196.1985697820329
 21
429.7642142919849
 31
0.0
  0
LINE
  5
5294
330
1F
100
AcDbEntity
  8
AM_VIS
100
AcDbLine
 10
202.698569782033
 20
442.7642142919849
 30
0.0
 11
193.6985697820329
 21
442.7642142919849
 31
0.0
  0
ARC
  5
5295
330
1F
100
AcDbEntity
  8
AM_VIS
100
AcDbCircle
 10
193.6985697820329
 20
425.2642142919849
 30
0.0
 40
0.5
100
AcDbArc
 50
180.0
 51
270.0
  0
LINE
  5
5296
330
1F
100
AcDbEntity
  8
AM_VIS
100
AcDbLine
 10
193.1985697820329
 20
427.164214291985
 30
0.0
 11
193.1985697820329
 21
426.9152142919829
 31
0.0
  0
LINE
  5
5297
102
{ACAD_REACTORS
330
5303
330
5320
102
}
330
1F
100
AcDbEntity
  8
AM_VIS
100
AcDbLine
 10
193.1985697820329
 20
426.0649649434339
 30
0.0
 11
193.1985697820329
 21
425.2642142919849
 31
0.0
  0
ARC
  5
5298
330
1F
100
AcDbEntity
  8
AM_VIS
100
AcDbCircle
 10
193.6985697820329
 20
430.2642142919849
 30
0.0
 40
0.5
100
AcDbArc
 50
180.0
 51
270.0
  0
LINE
  5
5299
330
1F
100
AcDbEntity
  8
AM_VIS
100
AcDbLine
 10
193.1985697820329
 20
442.2642142919849
 30
0.0
 11
193.1985697820329
 21
430.2642142919849
 31
0.0
  0
LINE
  5
529A
330
1F
100
AcDbEntity
  8
AM_VIS
100
AcDbLine
 10
202.698569782033
 20
425.2642142919849
 30
0.0
 11
202.698569782033
 21
442.2642142919849
 31
0.0
  0
LINE
  5
529B
330
1F
100
AcDbEntity
  8
AM_VIS
100
AcDbLine
 10
196.1985697820329
 20
424.764214291985
 30
0.0
 11
196.1985697820329
 21
425.2642142919849
 31
0.0
  0
LINE
  5
529C
330
1F
100
AcDbEntity
  8
AM_VIS
100
AcDbLine
 10
193.1985697820329
 20
430.2642142919849
 30
0.0
 11
193.1985697820329
 21
428.463463640536
 31
0.0
  0
LINE
  5
529D
330
1F
100
AcDbEntity
  8
AM_VIS
100
AcDbLine
 10
193.1985697820329
 20
427.613214291983
 30
0.0
 11
193.1985697820329
 21
427.164214291985
 31
0.0
  0
ARC
  5
529E
102
{ACAD_REACTORS
330
5300
330
531D
102
}
330
1F
100
AcDbEntity
  8
AM_VIS
100
AcDbCircle
 10
193.6985697820329
 20
442.2642142919849
 30
0.0
 40
0.5
100
AcDbArc
 50
90.0
 51
180.0
  0
CIRCLE
  5
529F
330
1F
100
AcDbEntity
  8
AM_VIS
100
AcDbCircle
 10
195.6985697820329
 20
433.7642142919849
 30
0.0
 40
0.65
  0
LINE
  5
52A0
330
1F
100
AcDbEntity
  8
AM_VIS
100
AcDbLine
 10
251.6985697820329
 20
437.264214291985
 30
0.0
 11
251.6985697820329
 21
442.7642142919849
 31
0.0
  0
LINE
  5
52A1
330
1F
100
AcDbEntity
  8
AM_VIS
100
AcDbLine
 10
254.698569782033
 20
437.264214291985
 30
0.0
 11
251.6985697820329
 21
437.264214291985
 31
0.0
  0
LINE
  5
52A2
330
1F
100
AcDbEntity
  8
AM_VIS
100
AcDbLine
 10
254.698569782033
 20
424.764214291985
 30
0.0
 11
254.698569782033
 21
437.264214291985
 31
0.0
  0
LINE
  5
52A3
330
1F
100
AcDbEntity
  8
AM_VIS
100
AcDbLine
 10
254.698569782033
 20
442.7642142919849
 30
0.0
 11
254.698569782033
 21
441.4634636405359
 31
0.0
  0
LINE
  5
52A4
330
1F
100
AcDbEntity
  8
AM_VIS
100
AcDbLine
 10
254.698569782033
 20
440.613214291985
 30
0.0
 11
254.698569782033
 21
440.0142142919849
 31
0.0
  0
LINE
  5
52A5
102
{ACAD_REACTORS
330
5320
102
}
330
1F
100
AcDbEntity
  8
AM_VIS
100
AcDbLine
 10
237.698569782033
 20
424.764214291985
 30
0.0
 11
254.698569782033
 21
424.764214291985
 31
0.0
  0
LINE
  5
52A6
330
1F
100
AcDbEntity
  8
AM_VIS
100
AcDbLine
 10
237.698569782033
 20
424.764214291985
 30
0.0
 11
237.698569782033
 21
442.7642142919849
 31
0.0
  0
LINE
  5
52A7
330
1F
100
AcDbEntity
  8
AM_VIS
100
AcDbLine
 10
252.7985697820329
 20
442.7642142919849
 30
0.0
 11
254.698569782033
 21
442.7642142919849
 31
0.0
  0
LINE
  5
52A8
330
1F
100
AcDbEntity
  8
AM_VIS
100
AcDbLine
 10
237.698569782033
 20
442.7642142919849
 30
0.0
 11
251.6985697820329
 21
442.7642142919849
 31
0.0
  0
LINE
  5
52A9
330
1F
100
AcDbEntity
  8
AM_VIS
100
AcDbLine
 10
254.698569782033
 20
437.264214291985
 30
0.0
 11
254.698569782033
 21
439.0649649434339
 31
0.0
  0
LINE
  5
52AA
330
1F
100
AcDbEntity
  8
AM_VIS
100
AcDbLine
 10
254.698569782033
 20
439.915214291985
 30
0.0
 11
254.698569782033
 21
440.0142142919849
 31
0.0
  0
ELLIPSE
  5
52AB
330
1F
100
AcDbEntity
  8
AM_VIS
100
AcDbEllipse
 10
252.4064158789413
 20
440.264214291985
 30
0.0
 11
-4.416729559300744
 21
0.0000000000000003
 31
0.0
210
0.0
220
0.0
230
1.0
 40
0.5773502691896143
 41
4.712388980384689
 42
4.75946519013101
  0
LINE
  5
52AC
330
1F
100
AcDbEntity
  8
AM_VIS
100
AcDbLine
 10
252.7985697820329
 20
442.8142142919849
 30
0.0
 11
252.4064158789413
 21
442.8142142919849
 31
0.0
  0
LINE
  5
52AD
330
1F
100
AcDbEntity
  8
AM_VIS
100
AcDbLine
 10
252.7985697820329
 20
437.7142142919849
 30
0.0
 11
252.198569782033
 21
437.7142142919849
 31
0.0
  0
LINE
  5
52AE
330
1F
100
AcDbEntity
  8
AM_VIS
100
AcDbLine
 10
252.7985697820329
 20
442.8142142919849
 30
0.0
 11
252.7985697820329
 21
437.7142142919849
 31
0.0
  0
LINE
  5
52AF
330
1F
100
AcDbEntity
  8
AM_VIS
100
AcDbLine
 10
252.198569782033
 20
442.8113891976403
 30
0.0
 11
252.198569782033
 21
437.714214291985
 31
0.0
  0
LINE
  5
52B0
330
1F
100
AcDbEntity
  8
AM_VIS
100
AcDbLine
 10
195.6985697820329
 20
424.7142142919849
 30
0.0
 11
195.098569782033
 21
424.7142142919849
 31
0.0
  0
LINE
  5
52B1
330
1F
100
AcDbEntity
  8
AM_VIS
100
AcDbLine
 10
195.6985697820329
 20
429.7642142919849
 30
0.0
 11
195.6985697820329
 21
424.7142142919849
 31
0.0
  0
LINE
  5
52B2
330
1F
100
AcDbEntity
  8
AM_VIS
100
AcDbLine
 10
195.098569782033
 20
429.7642142919849
 30
0.0
 11
195.098569782033
 21
424.7142142919849
 31
0.0
  0
LINE
  5
52B3
330
1F
100
AcDbEntity
  8
AM_VIS
100
AcDbLine
 10
195.6985697820329
 20
424.764214291985
 30
0.0
 11
196.1985697820329
 21
424.764214291985
 31
0.0
  0
LINE
  5
52B4
330
1F
100
AcDbEntity
  8
AM_VIS
100
AcDbLine
 10
252.198569782033
 20
442.7642142919849
 30
0.0
 11
251.6985697820329
 21
442.7642142919849
 31
0.0
  0
LINE
  5
52B5
330
1F
100
AcDbEntity
  8
AM_VIS
100
AcDbLine
 10
252.198569782033
 20
437.7642142919849
 30
0.0
 11
251.6985697820329
 21
437.7642142919849
 31
0.0
  0
LINE
  5
52B6
330
1F
100
AcDbEntity
  8
AM_VIS
100
AcDbLine
 10
194.2751181925002
 20
424.8362569710314
 30
0.0
 11
195.098569782033
 21
424.764214291985
 31
0.0
  0
LINE
  5
52B7
330
1F
100
AcDbEntity
  8
AM_VIS
100
AcDbLine
 10
194.2751181925002
 20
429.6921716129385
 30
0.0
 11
195.0765807771819
 21
429.7622905033382
 31
0.0
  0
ARC
  5
52B8
330
1F
100
AcDbEntity
  8
AM_VIS
100
AcDbCircle
 10
196.998569782033
 20
427.264214291985
 30
0.0
 40
3.984745788629432
100
AcDbArc
 50
160.3478770841349
 51
168.9838463654476
  0
LINE
  5
52B9
330
1F
100
AcDbEntity
  8
AM_VIS
100
AcDbLine
 10
193.2459278757857
 20
428.6043179161413
 30
0.0
 11
193.23326766932
 21
428.614214291985
 31
0.0
  0
LINE
  5
52BA
330
1F
100
AcDbEntity
  8
AM_VIS
100
AcDbLine
 10
193.23326766932
 20
425.9142142919849
 30
0.0
 11
193.2459278757857
 21
425.9241106678286
 31
0.0
  0
ELLIPSE
  5
52BB
330
1F
100
AcDbEntity
  8
AM_VIS
100
AcDbEllipse
 10
196.2254843930292
 20
427.264214291985
 30
0.0
 11
0.0
 21
-3.797925352448569
 31
0.0
210
0.0
220
0.0
230
1.0
 40
0.7878555911532167
 41
4.620366885744621
 42
4.804411075025802
  0
LINE
  5
52BC
330
1F
100
AcDbEntity
  8
AM_VIS
100
AcDbLine
 10
193.2459278757855
 20
427.613214291983
 30
0.0
 11
193.0872495138882
 21
427.613214291983
 31
0.0
  0
LINE
  5
52BD
330
1F
100
AcDbEntity
  8
AM_VIS
100
AcDbLine
 10
193.0872495138882
 20
426.9152142919829
 30
0.0
 11
193.2459278757858
 21
426.9152142919829
 31
0.0
  0
ARC
  5
52BE
330
1F
100
AcDbEntity
  8
AM_VIS
100
AcDbCircle
 10
196.998569782033
 20
427.264214291985
 30
0.0
 40
3.984745788629432
100
AcDbArc
 50
191.0161536345492
 51
199.652122915865
  0
LINE
  5
52BF
330
1F
100
AcDbEntity
  8
AM_VIS
100
AcDbLine
 10
193.0872495138882
 20
426.5027861863833
 30
0.0
 11
193.0872495138882
 21
426.9152142919829
 31
0.0
  0
LINE
  5
52C0
330
1F
100
AcDbEntity
  8
AM_VIS
100
AcDbLine
 10
193.0872495138882
 20
427.613214291983
 30
0.0
 11
193.0872495138882
 21
428.0256423975865
 31
0.0
  0
ARC
  5
52C1
330
1F
100
AcDbEntity
  8
AM_VIS
100
AcDbCircle
 10
194.3622739352479
 20
425.8324516691232
 30
0.0
 40
1.0
100
AcDbArc
 50
208.5062230151612
 51
265.0000000000003
  0
ARC
  5
52C2
330
1F
100
AcDbEntity
  8
AM_VIS
100
AcDbCircle
 10
194.3622739352479
 20
428.6959769148467
 30
0.0
 40
1.0
100
AcDbArc
 50
94.99999999999975
 51
151.4937769848388
  0
ARC
  5
52C3
330
1F
100
AcDbEntity
  8
AM_VIS
100
AcDbCircle
 10
196.998569782033
 20
427.264214291985
 30
0.0
 40
4.0
100
AcDbArc
 50
199.7246335587009
 51
208.5062230151583
  0
ARC
  5
52C4
330
1F
100
AcDbEntity
  8
AM_VIS
100
AcDbCircle
 10
196.998569782033
 20
427.264214291985
 30
0.0
 40
4.0
100
AcDbArc
 50
151.4937769848416
 51
160.2753664412991
  0
LINE
  5
52C5
330
1F
100
AcDbEntity
  8
AM_VIS
100
AcDbLine
 10
253.6220213715657
 20
442.6921716129385
 30
0.0
 11
252.7985697820329
 21
442.7642142919849
 31
0.0
  0
LINE
  5
52C6
330
1F
100
AcDbEntity
  8
AM_VIS
100
AcDbLine
 10
253.6220213715657
 20
437.8362569710315
 30
0.0
 11
252.7985697820329
 21
437.7642142919849
 31
0.0
  0
LINE
  5
52C7
330
1F
100
AcDbEntity
  8
AM_VIS
100
AcDbLine
 10
254.8098900501777
 20
440.613214291985
 30
0.0
 11
254.6512116882802
 21
440.613214291985
 31
0.0
  0
ELLIPSE
  5
52C8
330
1F
100
AcDbEntity
  8
AM_VIS
100
AcDbEllipse
 10
251.6716551710366
 20
440.264214291985
 30
0.0
 11
0.0
 21
-3.797925352448599
 31
0.0
210
0.0
220
0.0
230
1.0
 40
0.7878555911532376
 41
1.478774232154307
 42
1.662818421435485
  0
LINE
  5
52C9
330
1F
100
AcDbEntity
  8
AM_VIS
100
AcDbLine
 10
254.6638718947459
 20
441.614214291985
 30
0.0
 11
254.6512116882803
 21
441.6043179161414
 31
0.0
  0
ARC
  5
52CA
330
1F
100
AcDbEntity
  8
AM_VIS
100
AcDbCircle
 10
250.8985697820329
 20
440.264214291985
 30
0.0
 40
3.984745788629608
100
AcDbArc
 50
340.347877084135
 51
348.9838463654374
  0
ARC
  5
52CB
330
1F
100
AcDbEntity
  8
AM_VIS
100
AcDbCircle
 10
250.8985697820329
 20
440.264214291985
 30
0.0
 40
3.984745788629608
100
AcDbArc
 50
11.01615363456259
 51
19.65212291586506
  0
LINE
  5
52CC
330
1F
100
AcDbEntity
  8
AM_VIS
100
AcDbLine
 10
254.6512116882803
 20
438.9241106678285
 30
0.0
 11
254.6638718947459
 21
438.9142142919849
 31
0.0
  0
LINE
  5
52CD
330
1F
100
AcDbEntity
  8
AM_VIS
100
AcDbLine
 10
254.6512116882802
 20
439.915214291985
 30
0.0
 11
254.8098900501777
 21
439.915214291985
 31
0.0
  0
LINE
  5
52CE
330
1F
100
AcDbEntity
  8
AM_VIS
100
AcDbLine
 10
254.8098900501777
 20
441.0256423975875
 30
0.0
 11
254.8098900501777
 21
440.613214291985
 31
0.0
  0
LINE
  5
52CF
330
1F
100
AcDbEntity
  8
AM_VIS
100
AcDbLine
 10
254.8098900501777
 20
439.915214291985
 30
0.0
 11
254.8098900501777
 21
439.5027861863824
 31
0.0
  0
ARC
  5
52D0
330
1F
100
AcDbEntity
  8
AM_VIS
100
AcDbCircle
 10
253.534865628818
 20
441.6959769148466
 30
0.0
 40
1.0
100
AcDbArc
 50
28.5062230151612
 51
85.00000000000026
  0
ARC
  5
52D1
330
1F
100
AcDbEntity
  8
AM_VIS
100
AcDbCircle
 10
253.534865628818
 20
438.8324516691233
 30
0.0
 40
1.0
100
AcDbArc
 50
274.9999999999997
 51
331.4937769848388
  0
ARC
  5
52D2
330
1F
100
AcDbEntity
  8
AM_VIS
100
AcDbCircle
 10
250.8985697820329
 20
440.264214291985
 30
0.0
 40
4.0
100
AcDbArc
 50
331.4937769848417
 51
340.2753664412992
  0
ARC
  5
52D3
330
1F
100
AcDbEntity
  8
AM_VIS
100
AcDbCircle
 10
250.8985697820329
 20
440.264214291985
 30
0.0
 40
4.0
100
AcDbArc
 50
19.72463355870085
 51
28.50622301515834
  0
LINE
  5
52D4
330
1F
100
AcDbEntity
  8
AM_7
100
AcDbLine
 10
222.6985697820329
 20
434.764214291985
 30
0.0
 11
228.9485697820329
 21
434.764214291985
 31
0.0
1001
GENIUS_GENOREF_13
1005
534D
  0
LINE
  5
52D5
102
{ACAD_REACTORS
330
5300
102
}
330
1F
100
AcDbEntity
  8
AM_7
100
AcDbLine
 10
222.6985697820329
 20
434.764214291985
 30
0.0
 11
222.6985697820329
 21
441.014214291985
 31
0.0
1001
GENIUS_GENOREF_13
1005
534D
  0
LINE
  5
52D6
330
1F
100
AcDbEntity
  8
AM_7
100
AcDbLine
 10
222.6985697820329
 20
434.764214291985
 30
0.0
 11
216.4485697820329
 21
434.764214291985
 31
0.0
1001
GENIUS_GENOREF_13
1005
534D
  0
LINE
  5
52D7
330
1F
100
AcDbEntity
  8
AM_7
100
AcDbLine
 10
222.6985697820329
 20
434.764214291985
 30
0.0
 11
222.6985697820329
 21
428.514214291985
 31
0.0
1001
GENIUS_GENOREF_13
1005
534D
  0
LINE
  5
52D8
102
{ACAD_REACTORS
330
5316
102
}
330
1F
100
AcDbEntity
  8
AM_7
100
AcDbLine
 10
229.1985697820329
 20
330.5278869263595
 30
0.0
 11
235.4485697820329
 21
330.5278869263595
 31
0.0
1001
GENIUS_GENOREF_13
1005
534C
  0
LINE
  5
52D9
330
1F
100
AcDbEntity
  8
AM_7
100
AcDbLine
 10
229.1985697820329
 20
330.5278869263595
 30
0.0
 11
229.1985697820329
 21
336.7778869263595
 31
0.0
1001
GENIUS_GENOREF_13
1005
534C
  0
LINE
  5
52DA
330
1F
100
AcDbEntity
  8
AM_7
100
AcDbLine
 10
229.1985697820329
 20
330.5278869263595
 30
0.0
 11
222.9485697820329
 21
330.5278869263595
 31
0.0
1001
GENIUS_GENOREF_13
1005
534C
  0
LINE
  5
52DB
330
1F
100
AcDbEntity
  8
AM_7
100
AcDbLine
 10
229.1985697820329
 20
330.5278869263595
 30
0.0
 11
229.1985697820329
 21
324.2778869263595
 31
0.0
1001
GENIUS_GENOREF_13
1005
534C
  0
LINE
  5
52DC
330
1F
100
AcDbEntity
  8
AM_7
100
AcDbLine
 10
214.698569782033
 20
330.0278869263595
 30
0.0
 11
220.948569782033
 21
330.0278869263595
 31
0.0
1001
GENIUS_GENOREF_13
1005
534B
  0
LINE
  5
52DD
330
1F
100
AcDbEntity
  8
AM_7
100
AcDbLine
 10
214.698569782033
 20
330.0278869263595
 30
0.0
 11
214.698569782033
 21
336.2778869263595
 31
0.0
1001
GENIUS_GENOREF_13
1005
534B
  0
LINE
  5
52DE
330
1F
100
AcDbEntity
  8
AM_7
100
AcDbLine
 10
214.698569782033
 20
330.0278869263595
 30
0.0
 11
208.4485697820329
 21
330.0278869263595
 31
0.0
1001
GENIUS_GENOREF_13
1005
534B
  0
LINE
  5
52DF
330
1F
100
AcDbEntity
  8
AM_7
100
AcDbLine
 10
214.698569782033
 20
330.0278869263595
 30
0.0
 11
214.698569782033
 21
323.7778869263595
 31
0.0
1001
GENIUS_GENOREF_13
1005
534B
  0
LINE
  5
52E0
330
1F
100
AcDbEntity
  8
AM_7
  6
AM_ISO08W050x2
100
AcDbLine
 10
231.698569782033
 20
323.5278869263595
 30
0.0
 11
234.2985697820329
 21
323.5278869263595
 31
0.0
1001
GENIUS_GENOREF_13
1005
534A
  0
LINE
  5
52E1
330
1F
100
AcDbEntity
  8
AM_7
  6
AM_ISO08W050x2
100
AcDbLine
 10
231.698569782033
 20
323.5278869263595
 30
0.0
 11
231.698569782033
 21
326.1278869263595
 31
0.0
1001
GENIUS_GENOREF_13
1005
534A
  0
LINE
  5
52E2
330
1F
100
AcDbEntity
  8
AM_7
  6
AM_ISO08W050x2
100
AcDbLine
 10
231.698569782033
 20
323.5278869263595
 30
0.0
 11
229.098569782033
 21
323.5278869263595
 31
0.0
1001
GENIUS_GENOREF_13
1005
534A
  0
LINE
  5
52E3
330
1F
100
AcDbEntity
  8
AM_7
  6
AM_ISO08W050x2
100
AcDbLine
 10
231.698569782033
 20
323.5278869263595
 30
0.0
 11
231.698569782033
 21
320.9278869263595
 31
0.0
1001
GENIUS_GENOREF_13
1005
534A
  0
LINE
  5
52E4
330
1F
100
AcDbEntity
  8
AM_7
  6
AM_ISO08W050x2
100
AcDbLine
 10
208.698569782033
 20
336.5278869263595
 30
0.0
 11
211.2985697820329
 21
336.5278869263595
 31
0.0
1001
GENIUS_GENOREF_13
1005
5349
  0
LINE
  5
52E5
330
1F
100
AcDbEntity
  8
AM_7
  6
AM_ISO08W050x2
100
AcDbLine
 10
208.698569782033
 20
336.5278869263595
 30
0.0
 11
208.698569782033
 21
339.1278869263595
 31
0.0
1001
GENIUS_GENOREF_13
1005
5349
  0
LINE
  5
52E6
330
1F
100
AcDbEntity
  8
AM_7
  6
AM_ISO08W050x2
100
AcDbLine
 10
208.698569782033
 20
336.5278869263595
 30
0.0
 11
206.098569782033
 21
336.5278869263595
 31
0.0
1001
GENIUS_GENOREF_13
1005
5349
  0
LINE
  5
52E7
330
1F
100
AcDbEntity
  8
AM_7
  6
AM_ISO08W050x2
100
AcDbLine
 10
208.698569782033
 20
336.5278869263595
 30
0.0
 11
208.698569782033
 21
333.9278869263595
 31
0.0
1001
GENIUS_GENOREF_13
1005
5349
  0
LINE
  5
52E8
330
1F
100
AcDbEntity
  8
AM_7
  6
AM_ISO08W050x2
100
AcDbLine
 10
221.948569782033
 20
369.2331016841912
 30
0.0
 11
224.5485697820329
 21
369.2331016841912
 31
0.0
1001
GENIUS_GENOREF_13
1005
5348
  0
LINE
  5
52E9
330
1F
100
AcDbEntity
  8
AM_7
  6
AM_ISO08W050x2
100
AcDbLine
 10
221.948569782033
 20
369.2331016841912
 30
0.0
 11
221.948569782033
 21
371.8331016841912
 31
0.0
1001
GENIUS_GENOREF_13
1005
5348
  0
LINE
  5
52EA
330
1F
100
AcDbEntity
  8
AM_7
  6
AM_ISO08W050x2
100
AcDbLine
 10
221.948569782033
 20
369.2331016841912
 30
0.0
 11
219.348569782033
 21
369.2331016841912
 31
0.0
1001
GENIUS_GENOREF_13
1005
5348
  0
LINE
  5
52EB
102
{ACAD_REACTORS
330
5310
102
}
330
1F
100
AcDbEntity
  8
AM_7
  6
AM_ISO08W050x2
100
AcDbLine
 10
221.948569782033
 20
369.2331016841912
 30
0.0
 11
221.948569782033
 21
366.6331016841912
 31
0.0
1001
GENIUS_GENOREF_13
1005
5348
  0
LINE
  5
52EC
330
1F
100
AcDbEntity
  8
AM_7
  6
AM_ISO08W050x2
100
AcDbLine
 10
206.948569782033
 20
369.2331016841912
 30
0.0
 11
209.5485697820329
 21
369.2331016841912
 31
0.0
1001
GENIUS_GENOREF_13
1005
5347
  0
LINE
  5
52ED
330
1F
100
AcDbEntity
  8
AM_7
  6
AM_ISO08W050x2
100
AcDbLine
 10
206.948569782033
 20
369.2331016841912
 30
0.0
 11
206.948569782033
 21
371.8331016841912
 31
0.0
1001
GENIUS_GENOREF_13
1005
5347
  0
LINE
  5
52EE
102
{ACAD_REACTORS
330
5313
102
}
330
1F
100
AcDbEntity
  8
AM_7
  6
AM_ISO08W050x2
100
AcDbLine
 10
206.948569782033
 20
369.2331016841912
 30
0.0
 11
204.348569782033
 21
369.2331016841912
 31
0.0
1001
GENIUS_GENOREF_13
1005
5347
  0
LINE
  5
52EF
102
{ACAD_REACTORS
330
530D
330
5310
102
}
330
1F
100
AcDbEntity
  8
AM_7
  6
AM_ISO08W050x2
100
AcDbLine
 10
206.948569782033
 20
369.2331016841912
 30
0.0
 11
206.948569782033
 21
366.6331016841912
 31
0.0
1001
GENIUS_GENOREF_13
1005
5347
  0
LINE
  5
52F0
330
1F
100
AcDbEntity
  8
AM_7
  6
AM_ISO08W050x2
100
AcDbLine
 10
208.698569782033
 20
427.264214291985
 30
0.0
 11
212.698569782033
 21
427.264214291985
 31
0.0
1001
GENIUS_GENOREF_13
1005
5346
  0
LINE
  5
52F1
330
1F
100
AcDbEntity
  8
AM_7
  6
AM_ISO08W050x2
100
AcDbLine
 10
208.698569782033
 20
427.264214291985
 30
0.0
 11
208.698569782033
 21
431.264214291985
 31
0.0
1001
GENIUS_GENOREF_13
1005
5346
  0
LINE
  5
52F2
102
{ACAD_REACTORS
330
5309
102
}
330
1F
100
AcDbEntity
  8
AM_7
  6
AM_ISO08W050x2
100
AcDbLine
 10
208.698569782033
 20
427.264214291985
 30
0.0
 11
204.698569782033
 21
427.264214291985
 31
0.0
1001
GENIUS_GENOREF_13
1005
5346
  0
LINE
  5
52F3
102
{ACAD_REACTORS
330
5303
330
5306
102
}
330
1F
100
AcDbEntity
  8
AM_7
  6
AM_ISO08W050x2
100
AcDbLine
 10
208.698569782033
 20
427.264214291985
 30
0.0
 11
208.698569782033
 21
423.264214291985
 31
0.0
1001
GENIUS_GENOREF_13
1005
5346
  0
LINE
  5
52F4
330
1F
100
AcDbEntity
  8
AM_7
  6
AM_ISO08W050x2
100
AcDbLine
 10
231.698569782033
 20
440.264214291985
 30
0.0
 11
235.698569782033
 21
440.264214291985
 31
0.0
1001
GENIUS_GENOREF_13
1005
5345
  0
LINE
  5
52F5
330
1F
100
AcDbEntity
  8
AM_7
  6
AM_ISO08W050x2
100
AcDbLine
 10
231.698569782033
 20
440.264214291985
 30
0.0
 11
231.698569782033
 21
444.264214291985
 31
0.0
1001
GENIUS_GENOREF_13
1005
5345
  0
LINE
  5
52F6
102
{ACAD_REACTORS
330
5309
102
}
330
1F
100
AcDbEntity
  8
AM_7
  6
AM_ISO08W050x2
100
AcDbLine
 10
231.698569782033
 20
440.264214291985
 30
0.0
 11
227.698569782033
 21
440.264214291985
 31
0.0
1001
GENIUS_GENOREF_13
1005
5345
  0
LINE
  5
52F7
102
{ACAD_REACTORS
330
5306
102
}
330
1F
100
AcDbEntity
  8
AM_7
  6
AM_ISO08W050x2
100
AcDbLine
 10
231.698569782033
 20
440.264214291985
 30
0.0
 11
231.698569782033
 21
436.264214291985
 31
0.0
1001
GENIUS_GENOREF_13
1005
5345
  0
LINE
  5
52F8
102
{ACAD_REACTORS
330
5316
102
}
330
1F
100
AcDbEntity
  8
AM_7
100
AcDbLine
 10
190.8516917815111
 20
330.0278869263595
 30
0.0
 11
257.807754859575
 21
330.0278869263595
 31
0.0
1001
GENIUS_GENODEF_13
1002
{
1000
HIER
1070
     0
1002
}
1002
{
1000
MANEDIT
1070
     0
1002
}
1002
{
1000
NOSEL
1070
     0
1002
}
1002
{
1000
BEHIND
1070
     0
1002
}
1002
{
1000
OTHER
1070
     0
1002
}
1002
{
1000
REACTOR
1002
}
1001
GENIUS_GENOBJ-N-CEN_13
1002
{
1000
OWNER
1000
GEN
1002
}
1001
GENIUS_GENCEN_19
1002
{
1040
1.0
1002
}
  0
DIMENSION
  5
52F9
330
1F
100
AcDbEntity
  8
AM_5
100
AcDbDimension
  2
*D5
 10
214.698569782033
 20
311.0278869263595
 30
0.0
 11
203.9485697820329
 21
313.4782314145485
 31
0.0
 70
    32
 71
     5
 42
21.5
  3
AM_ISO$0
100
AcDbAlignedDimension
 13
193.1985697820329
 23
321.5278869263595
 33
0.0
 14
214.698569782033
 24
323.7778869263595
 34
0.0
100
AcDbRotatedDimension
1001
ACAD
1000
DSTYLE
1002
{
1070
    40
1040
1.0
1070
   144
1040
1.0
1070
   272
1070
     8
1002
}
  0
DIMENSION
  5
52FA
330
1F
100
AcDbEntity
  8
AM_5
100
AcDbDimension
  2
*D6
 10
229.1985697820329
 20
311.0278869263595
 30
0.0
 11
221.948569782033
 21
313.4778869263595
 31
0.0
 70
    32
 71
     5
 42
14.5
  3
AM_ISO$0
100
AcDbAlignedDimension
 13
214.698569782033
 23
323.7778869263595
 33
0.0
 14
229.1985697820329
 24
324.2778869263595
 34
0.0
100
AcDbRotatedDimension
1001
ACAD
1000
DSTYLE
1002
{
1070
    40
1040
1.0
1070
   144
1040
1.0
1070
   272
1070
     8
1002
}
  0
DIMENSION
  5
52FB
102
{ACAD_XDICTIONARY
360
52FC
102
}
102
{ACAD_REACTORS
330
52FD
102
}
330
1F
100
AcDbEntity
  8
AM_5
100
AcDbDimension
  2
*D8
 10
264.698569782033
 20
391.2331016841912
 30
0.0
 11
262.2482252938439
 21
377.7331016841912
 31
0.0
 70
    32
 71
     5
 42
27.0
  3
AM_ISO$0
100
AcDbAlignedDimension
 13
254.698569782033
 23
364.2331016841912
 33
0.0
 14
254.698569782033
 24
391.2331016841912
 34
0.0
 50
90.0
100
AcDbRotatedDimension
1001
ACAD
1000
DSTYLE
1002
{
1070
    40
1040
1.0
1070
   144
1040
1.0
1070
   272
1070
     8
1002
}
  0
DIMENSION
  5
52FE
102
{ACAD_XDICTIONARY
360
52FF
102
}
102
{ACAD_REACTORS
330
5300
102
}
330
1F
100
AcDbEntity
  8
AM_5
100
AcDbDimension
  2
*D9
 10
222.6985697820329
 20
452.764214291985
 30
0.0
 11
207.9485697820329
 21
455.214558780174
 31
0.0
 70
    32
 71
     5
 42
29.5
  3
AM_ISO$0
100
AcDbAlignedDimension
 13
193.1985697820329
 23
442.2642142919849
 33
0.0
 14
222.6985697820329
 24
441.014214291985
 34
0.0
100
AcDbRotatedDimension
1001
ACAD
1000
DSTYLE
1002
{
1070
    40
1040
1.0
1070
   144
1040
1.0
1070
   272
1070
     8
1002
}
  0
DIMENSION
  5
5301
102
{ACAD_XDICTIONARY
360
5302
102
}
102
{ACAD_REACTORS
330
5303
102
}
330
1F
100
AcDbEntity
  8
AM_5
100
AcDbDimension
  2
*D10
 10
208.698569782033
 20
414.764214291985
 30
0.0
 11
200.948569782033
 21
417.214214291985
 31
0.0
 70
    32
 71
     5
 42
15.5
  3
AM_ISO$0
100
AcDbAlignedDimension
 13
193.1985697820329
 23
425.2642142919849
 33
0.0
 14
208.698569782033
 24
423.264214291985
 34
0.0
100
AcDbRotatedDimension
1001
ACAD
1000
DSTYLE
1002
{
1070
    40
1040
1.0
1070
   144
1040
1.0
1070
   272
1070
     8
1002
}
  0
DIMENSION
  5
5304
102
{ACAD_XDICTIONARY
360
5305
102
}
102
{ACAD_REACTORS
330
5306
102
}
330
1F
100
AcDbEntity
  8
AM_5
100
AcDbDimension
  2
*D11
 10
231.698569782033
 20
414.764214291985
 30
0.0
 11
220.198569782033
 21
417.2145587801741
 31
0.0
 70
    32
 71
     5
 42
23.0
  3
AM_ISO$0
100
AcDbAlignedDimension
 13
208.698569782033
 23
423.264214291985
 33
0.0
 14
231.698569782033
 24
436.264214291985
 34
0.0
100
AcDbRotatedDimension
1001
ACAD
1000
DSTYLE
1002
{
1070
    40
1040
1.0
1070
   144
1040
1.0
1070
   272
1070
     8
1002
}
  0
DIMENSION
  5
5307
102
{ACAD_XDICTIONARY
360
5308
102
}
102
{ACAD_REACTORS
330
5309
102
}
330
1F
100
AcDbEntity
  8
AM_5
100
AcDbDimension
  2
*D12
 10
183.1985697820329
 20
440.264214291985
 30
0.0
 11
180.7485697820329
 21
433.764214291985
 31
0.0
 70
    32
 71
     5
 42
13.0
  3
AM_ISO$0
100
AcDbAlignedDimension
 13
204.698569782033
 23
427.264214291985
 33
0.0
 14
227.698569782033
 24
440.264214291985
 34
0.0
 50
90.0
100
AcDbRotatedDimension
1001
ACAD
1000
DSTYLE
1002
{
1070
    40
1040
1.0
1070
   144
1040
1.0
1070
   272
1070
     8
1002
}
  0
LINE
  5
530A
330
1F
100
AcDbEntity
  8
AM_7
100
AcDbLine
 10
191.6318116894796
 20
433.7642142919849
 30
0.0
 11
256.941013107736
 21
433.7642142919849
 31
0.0
1001
GENIUS_GENODEF_13
1002
{
1000
HIER
1070
     0
1002
}
1002
{
1000
MANEDIT
1070
     0
1002
}
1002
{
1000
NOSEL
1070
     0
1002
}
1002
{
1000
BEHIND
1070
     0
1002
}
1002
{
1000
OTHER
1070
     0
1002
}
1002
{
1000
REACTOR
1002
}
1001
GENIUS_GENOBJ-N-CEN_13
1002
{
1000
OWNER
1000
GEN
1002
}
1001
GENIUS_GENCEN_19
1002
{
1040
1.0
1002
}
  0
DIMENSION
  5
530B
102
{ACAD_XDICTIONARY
360
530C
102
}
102
{ACAD_REACTORS
330
530D
102
}
330
1F
100
AcDbEntity
  8
AM_5
100
AcDbDimension
  2
*D13
 10
206.948569782033
 20
354.2331016841912
 30
0.0
 11
200.073569782033
 21
356.6831016841912
 31
0.0
 70
    32
 71
     5
 42
13.75
  3
AM_ISO$0
100
AcDbAlignedDimension
 13
193.1985697820329
 23
364.7331016841912
 33
0.0
 14
206.948569782033
 24
366.6331016841912
 34
0.0
100
AcDbRotatedDimension
1001
ACAD
1000
DSTYLE
1002
{
1070
   271
1070
     1
1070
   272
1070
     8
1002
}
  0
DIMENSION
  5
530E
102
{ACAD_XDICTIONARY
360
530F
102
}
102
{ACAD_REACTORS
330
5310
102
}
330
1F
100
AcDbEntity
  8
AM_5
100
AcDbDimension
  2
*D14
 10
221.948569782033
 20
354.2331016841912
 30
0.0
 11
214.4485697820329
 21
356.6831016841912
 31
0.0
 70
    32
 71
     5
 42
15.0
  3
AM_ISO$0
100
AcDbAlignedDimension
 13
206.948569782033
 23
366.6331016841912
 33
0.0
 14
221.948569782033
 24
366.6331016841912
 34
0.0
100
AcDbRotatedDimension
1001
ACAD
1000
DSTYLE
1002
{
1070
    40
1040
1.0
1070
   144
1040
1.0
1070
   272
1070
     8
1002
}
  0
DIMENSION
  5
5311
102
{ACAD_XDICTIONARY
360
5312
102
}
102
{ACAD_REACTORS
330
5313
102
}
330
1F
100
AcDbEntity
  8
AM_5
100
AcDbDimension
  2
*D15
 10
183.1985687820329
 20
369.2331016841912
 30
0.0
 11
180.7485687820329
 21
366.7331016841913
 31
0.0
 70
    32
 71
     5
 42
5.0
  3
AM_ISO$0
100
AcDbAlignedDimension
 13
193.6985697820329
 23
364.2331016841912
 33
0.0
 14
204.348569782033
 24
369.2331016841912
 34
0.0
 50
90.0
100
AcDbRotatedDimension
1001
ACAD
1000
DSTYLE
1002
{
1070
    40
1040
1.0
1070
   144
1040
1.0
1002
}
  0
DIMENSION
  5
5314
102
{ACAD_XDICTIONARY
360
5315
102
}
102
{ACAD_REACTORS
330
5316
102
}
330
1F
100
AcDbEntity
  8
AM_5
100
AcDbDimension
  2
*D16
 10
264.698569782033
 20
330.5278869263595
 30
0.0
 11
262.2485697820329
 21
339.7517522525308
 31
0.0
 70
    32
 71
     5
 42
0.5
  3
AM_ISO$0
100
AcDbAlignedDimension
 13
257.807754859575
 23
330.0278869263595
 33
0.0
 14
235.4485697820329
 24
330.5278869263595
 34
0.0
 50
90.0
100
AcDbRotatedDimension
1001
ACAD
1000
DSTYLE
1002
{
1070
    40
1040
1.0
1070
   144
1040
1.0
1002
}
  0
TEXT
  5
5317
330
1F
100
AcDbEntity
  8
AM_5
100
AcDbText
 10
243.1723319751741
 20
346.191502250718
 30
0.0
 40
3.5
  1
3-PT1/8
100
AcDbText
  0
INSERT
  5
5318
330
1F
100
AcDbEntity
  8
AM_5
100
AcDbBlockReference
  2
*S20
 10
0.0
 20
0.0
 30
0.0
  0
TEXT
  5
5319
330
1F
100
AcDbEntity
  8
AM_5
100
AcDbText
 10
240.3689961388869
 20
453.515825675791
 30
0.0
 40
3.5
  1
2-%%c3.2
100
AcDbText
  0
INSERT
  5
531A
330
1F
100
AcDbEntity
  8
AM_5
100
AcDbBlockReference
  2
*S21
 10
0.0
 20
0.0
 30
0.0
  0
DIMENSION
  5
531B
102
{ACAD_XDICTIONARY
360
531C
102
}
102
{ACAD_REACTORS
330
531D
102
}
330
1F
100
AcDbEntity
  8
AM_5
100
AcDbDimension
  2
*D17
 10
175.1985697820329
 20
424.764214291985
 30
0.0
 11
172.7485697820329
 21
433.764214291985
 31
0.0
 70
    32
 71
     5
 42
18.0
  3
AM_ISO$0
100
AcDbAlignedDimension
 13
193.6985697820329
 23
442.7642142919849
 33
0.0
 14
193.6985697820329
 24
424.764214291985
 34
0.0
 50
90.0
100
AcDbRotatedDimension
1001
ACAD
1000
DSTYLE
1002
{
1070
    40
1040
1.0
1070
   144
1040
1.0
1002
}
  0
DIMENSION
  5
531E
102
{ACAD_XDICTIONARY
360
531F
102
}
102
{ACAD_REACTORS
330
5320
102
}
330
1F
100
AcDbEntity
  8
AM_5
100
AcDbDimension
  2
*D18
 10
254.698569782033
 20
406.7642142919849
 30
0.0
 11
223.948569782033
 21
409.2142142919849
 31
0.0
 70
    32
 71
     5
 42
61.5
  3
AM_ISO$0
100
AcDbAlignedDimension
 13
193.1985697820329
 23
425.2642142919849
 33
0.0
 14
254.698569782033
 24
424.764214291985
 34
0.0
100
AcDbRotatedDimension
1001
ACAD
1000
DSTYLE
1002
{
1070
    40
1040
1.0
1070
   144
1040
1.0
1002
}
  0
DIMENSION
  5
5321
330
1F
100
AcDbEntity
  8
AM_5
100
AcDbDimension
  2
*D7
 10
199.4559742020885
 20
388.2331016841912
 30
0.0
 11
199.4559742020884
 21
398.7055890576066
 31
0.0
 70
   160
 71
     5
 42
3.0
  3
AM_ISO$0
100
AcDbAlignedDimension
 13
205.698569782033
 23
391.2331016841912
 33
0.0
 14
205.698569782033
 24
388.2331016841912
 34
0.0
 50
90.0
100
AcDbRotatedDimension
1001
ACAD
1000
DSTYLE
1002
{
1070
    40
1040
1.0
1070
   144
1040
1.0
1002
}
  0
TEXT
  5
5322
330
1F
100
AcDbEntity
  8
AM_5
100
AcDbText
 10
231.6700346436151
 20
354.2940445753225
 30
0.0
 40
3.5
  1
2-%%c3.2
100
AcDbText
  0
INSERT
  5
5323
330
1F
100
AcDbEntity
  8
AM_5
100
AcDbBlockReference
  2
*S22
 10
0.0
 20
0.0
 30
0.0
  0
LINE
  5
5324
330
1F
100
AcDbEntity
  8
AM_VIS
100
AcDbLine
 10
219.7985697820329
 20
433.014214291985
 30
0.0
 11
219.7985697820329
 21
436.5142142919849
 31
0.0
  0
LINE
  5
5325
330
1F
100
AcDbEntity
  8
AM_VIS
100
AcDbLine
 10
223.7985697820329
 20
436.5142142919849
 30
0.0
 11
223.7985697820329
 21
433.014214291985
 31
0.0
  0
ARC
  5
5326
330
1F
100
AcDbEntity
  8
AM_VIS
100
AcDbCircle
 10
221.7985697820329
 20
433.014214291985
 30
0.0
 40
2.0
100
AcDbArc
 50
180.0
 51
0.0
  0
CIRCLE
  5
5327
330
1F
100
AcDbEntity
  8
AM_VIS
100
AcDbCircle
 10
222.6985697820329
 20
434.764214291985
 30
0.0
 40
5.049999999999999
  0
CIRCLE
  5
5328
330
1F
100
AcDbEntity
  8
AM_VIS
100
AcDbCircle
 10
222.6985697820329
 20
434.764214291985
 30
0.0
 40
4.049999999999999
  0
ARC
  5
5329
330
1F
100
AcDbEntity
  8
AM_VIS
100
AcDbCircle
 10
221.7985697820329
 20
436.5142142919849
 30
0.0
 40
2.0
100
AcDbArc
 50
0.0
 51
180.0
  0
LINE
  5
532A
330
1F
100
AcDbEntity
  8
AM_VIS
100
AcDbLine
 10
212.698569782033
 20
328.1778869263595
 30
0.0
 11
212.698569782033
 21
331.8778869263594
 31
0.0
  0
LINE
  5
532B
330
1F
100
AcDbEntity
  8
AM_VIS
100
AcDbLine
 10
227.198569782033
 20
328.6778869263595
 30
0.0
 11
227.198569782033
 21
332.3778869263595
 31
0.0
  0
LINE
  5
532C
330
1F
100
AcDbEntity
  8
AM_VIS
100
AcDbLine
 10
231.1985697820329
 20
332.3778869263595
 30
0.0
 11
231.1985697820329
 21
328.6778869263595
 31
0.0
  0
LINE
  5
532D
330
1F
100
AcDbEntity
  8
AM_VIS
100
AcDbLine
 10
216.6985697820329
 20
331.8778869263594
 30
0.0
 11
216.6985697820329
 21
328.1778869263595
 31
0.0
  0
CIRCLE
  5
532E
330
1F
100
AcDbEntity
  8
AM_VIS
100
AcDbCircle
 10
214.698569782033
 20
330.0278869263595
 30
0.0
 40
4.049999999999999
  0
CIRCLE
  5
532F
330
1F
100
AcDbEntity
  8
AM_VIS
100
AcDbCircle
 10
214.698569782033
 20
330.0278869263595
 30
0.0
 40
5.049999999999999
  0
CIRCLE
  5
5330
330
1F
100
AcDbEntity
  8
AM_VIS
100
AcDbCircle
 10
229.1985697820329
 20
330.5278869263595
 30
0.0
 40
5.049999999999999
  0
CIRCLE
  5
5331
330
1F
100
AcDbEntity
  8
AM_VIS
100
AcDbCircle
 10
229.1985697820329
 20
330.5278869263595
 30
0.0
 40
4.049999999999999
  0
ARC
  5
5332
330
1F
100
AcDbEntity
  8
AM_VIS
100
AcDbCircle
 10
214.698569782033
 20
328.1778869263595
 30
0.0
 40
2.0
100
AcDbArc
 50
180.0
 51
0.0
  0
ARC
  5
5333
330
1F
100
AcDbEntity
  8
AM_VIS
100
AcDbCircle
 10
229.1985697820329
 20
328.6778869263595
 30
0.0
 40
2.0
100
AcDbArc
 50
180.0
 51
0.0
  0
ARC
  5
5334
330
1F
100
AcDbEntity
  8
AM_VIS
100
AcDbCircle
 10
229.1985697820329
 20
332.3778869263595
 30
0.0
 40
2.0
100
AcDbArc
 50
0.0
 51
180.0
  0
ARC
  5
5335
330
1F
100
AcDbEntity
  8
AM_VIS
100
AcDbCircle
 10
214.698569782033
 20
331.8778869263594
 30
0.0
 40
2.0
100
AcDbArc
 50
0.0
 51
180.0
  0
POINT
  5
5336
330
1F
100
AcDbEntity
  8
AM_7
  6
AM_ISO08W050x2
100
AcDbPoint
 10
250.728569782033
 20
377.7331016841912
 30
0.0
  0
LINE
  5
5339
330
1F
100
AcDbEntity
  8
AM_0
  6
HIDDEN
 62
     3
 48
0.2
100
AcDbLine
 10
248.498569782033
 20
382.7893516841911
 30
0.0
 11
254.698569782033
 21
382.9831016841912
 31
0.0
  0
LINE
  5
533A
330
1F
100
AcDbEntity
  8
AM_0
  6
HIDDEN
 62
     3
 48
0.2
100
AcDbLine
 10
248.498569782033
 20
372.6768516841912
 30
0.0
 11
254.698569782033
 21
372.4831016841912
 31
0.0
  0
LINE
  5
533B
330
1F
100
AcDbEntity
  8
AM_0
  6
HIDDEN
 62
     3
 48
0.2
100
AcDbLine
 10
248.498569782033
 20
373.6438516841912
 30
0.0
 11
254.698569782033
 21
373.4501016841912
 31
0.0
  0
LINE
  5
533C
330
1F
100
AcDbEntity
  8
AM_0
  6
HIDDEN
 62
     3
 48
0.2
100
AcDbLine
 10
248.498569782033
 20
381.8223516841912
 30
0.0
 11
254.698569782033
 21
382.0161016841912
 31
0.0
  0
LINE
  5
533D
330
1F
100
AcDbEntity
  8
AM_7
  6
AM_ISO08W050x2
100
AcDbLine
 10
245.5452582768684
 20
377.7331016841912
 30
0.0
 11
256.103465781603
 21
377.7331016841912
 31
0.0
  0
POINT
  5
533E
330
1F
100
AcDbEntity
  8
AM_7
  6
AM_ISO08W050x2
100
AcDbPoint
 10
250.728569782033
 20
377.7331016841912
 30
0.0
  0
LINE
  5
533F
330
1F
100
AcDbEntity
  8
AM_0
  6
HIDDEN
 62
     3
 48
0.2
100
AcDbLine
 10
248.498569782033
 20
381.8223516841912
 30
0.0
 11
247.1379197820329
 21
381.8223516841911
 31
0.0
  0
LINE
  5
5340
330
1F
100
AcDbEntity
  8
AM_0
  6
HIDDEN
 62
     3
 48
0.2
100
AcDbLine
 10
248.498569782033
 20
373.6438516841912
 30
0.0
 11
247.1379197820329
 21
373.6438516841912
 31
0.0
  0
LINE
  5
5341
330
1F
100
AcDbEntity
  8
AM_0
  6
HIDDEN
 62
     3
 48
0.2
100
AcDbLine
 10
248.498569782033
 20
372.6768516841912
 30
0.0
 11
248.498569782033
 21
382.7893516841911
 31
0.0
  0
LINE
  5
5342
330
1F
100
AcDbEntity
  8
AM_0
  6
HIDDEN
 62
     3
 48
0.2
100
AcDbLine
 10
248.498569782033
 20
382.7893516841911
 30
0.0
 11
247.137919782033
 21
381.8223516841912
 31
0.0
  0
LINE
  5
5343
330
1F
100
AcDbEntity
  8
AM_0
  6
HIDDEN
 62
     3
 48
0.2
100
AcDbLine
 10
248.498569782033
 20
372.6768516841912
 30
0.0
 11
247.137919782033
 21
373.6438516841912
 31
0.0
  0
LINE
  5
5344
330
1F
100
AcDbEntity
  8
AM_0
  6
HIDDEN
 62
     3
 48
0.2
100
AcDbLine
 10
247.137919782033
 20
381.8223516841912
 30
0.0
 11
247.137919782033
 21
373.6438516841912
 31
0.0
  0
POINT
  5
5345
330
1F
100
AcDbEntity
  8
0
 60
     1
100
AcDbPoint
 10
209.9230294187508
 20
204.2133847135033
 30
0.0
1001
GENIUS_GENOLIS_13
1002
{
1000
ENT
1005
52F7
1005
52F6
1005
52F5
1005
52F4
1002
}
1001
GENIUS_GENOENT_13
1002
{
1000
MYREF
1005
5345
1002
}
1002
{
1000
GRP
1005
0
1002
}
1001
GENIUS_GENOBJ-N-CRS_13
1002
{
1000
OWNER
1000
GEN
1002
}
1001
GENIUS_GENODEF_13
1002
{
1000
HIER
1070
    10
1002
}
1002
{
1000
MANEDIT
1070
     0
1002
}
1002
{
1000
NOSEL
1070
     0
1002
}
1002
{
1000
BEHIND
1070
     0
1002
}
1002
{
1000
OTHER
1070
     0
1002
}
1002
{
1000
REACTOR
1002
}
  0
POINT
  5
5346
330
1F
100
AcDbEntity
  8
0
 60
     1
100
AcDbPoint
 10
209.9230294187508
 20
204.2133847135033
 30
0.0
1001
GENIUS_GENODEF_13
1002
{
1000
HIER
1070
    10
1002
}
1002
{
1000
MANEDIT
1070
     0
1002
}
1002
{
1000
NOSEL
1070
     0
1002
}
1002
{
1000
BEHIND
1070
     0
1002
}
1002
{
1000
OTHER
1070
     0
1002
}
1002
{
1000
REACTOR
1002
}
1001
GENIUS_GENOBJ-N-CRS_13
1002
{
1000
OWNER
1000
GEN
1002
}
1001
GENIUS_GENOLIS_13
1002
{
1000
ENT
1005
52F3
1005
52F2
1005
52F1
1005
52F0
1002
}
1001
GENIUS_GENOENT_13
1002
{
1000
MYREF
1005
5346
1002
}
1002
{
1000
GRP
1005
0
1002
}
  0
POINT
  5
5347
330
1F
100
AcDbEntity
  8
0
 60
     1
100
AcDbPoint
 10
209.9230294187508
 20
204.2133847135033
 30
0.0
1001
GENIUS_GENODEF_13
1002
{
1000
HIER
1070
    10
1002
}
1002
{
1000
MANEDIT
1070
     0
1002
}
1002
{
1000
NOSEL
1070
     0
1002
}
1002
{
1000
BEHIND
1070
     0
1002
}
1002
{
1000
OTHER
1070
     0
1002
}
1002
{
1000
REACTOR
1002
}
1001
GENIUS_GENOLIS_13
1002
{
1000
ENT
1005
52EF
1005
52EE
1005
52ED
1005
52EC
1002
}
1001
GENIUS_GENOENT_13
1002
{
1000
MYREF
1005
5347
1002
}
1002
{
1000
GRP
1005
0
1002
}
1001
GENIUS_GENOBJ-N-CRS_13
1002
{
1000
OWNER
1000
GEN
1002
}
  0
POINT
  5
5348
330
1F
100
AcDbEntity
  8
0
 60
     1
100
AcDbPoint
 10
209.9230294187508
 20
204.2133847135033
 30
0.0
1001
GENIUS_GENODEF_13
1002
{
1000
HIER
1070
    10
1002
}
1002
{
1000
MANEDIT
1070
     0
1002
}
1002
{
1000
NOSEL
1070
     0
1002
}
1002
{
1000
BEHIND
1070
     0
1002
}
1002
{
1000
OTHER
1070
     0
1002
}
1002
{
1000
REACTOR
1002
}
1001
GENIUS_GENOBJ-N-CRS_13
1002
{
1000
OWNER
1000
GEN
1002
}
1001
GENIUS_GENOENT_13
1002
{
1000
MYREF
1005
5348
1002
}
1002
{
1000
GRP
1005
0
1002
}
1001
GENIUS_GENOLIS_13
1002
{
1000
ENT
1005
52EB
1005
52EA
1005
52E9
1005
52E8
1002
}
  0
POINT
  5
5349
330
1F
100
AcDbEntity
  8
0
 60
     1
100
AcDbPoint
 10
209.9230294187508
 20
204.2133847135033
 30
0.0
1001
GENIUS_GENOENT_13
1002
{
1000
MYREF
1005
5349
1002
}
1002
{
1000
GRP
1005
0
1002
}
1001
GENIUS_GENOLIS_13
1002
{
1000
ENT
1005
52E7
1005
52E6
1005
52E5
1005
52E4
1002
}
1001
GENIUS_GENOBJ-N-CRS_13
1002
{
1000
OWNER
1000
GEN
1002
}
1001
GENIUS_GENODEF_13
1002
{
1000
HIER
1070
    10
1002
}
1002
{
1000
MANEDIT
1070
     0
1002
}
1002
{
1000
NOSEL
1070
     0
1002
}
1002
{
1000
BEHIND
1070
     0
1002
}
1002
{
1000
OTHER
1070
     0
1002
}
1002
{
1000
REACTOR
1002
}
  0
POINT
  5
534A
330
1F
100
AcDbEntity
  8
0
 60
     1
100
AcDbPoint
 10
209.9230294187508
 20
204.2133847135033
 30
0.0
1001
GENIUS_GENODEF_13
1002
{
1000
HIER
1070
    10
1002
}
1002
{
1000
MANEDIT
1070
     0
1002
}
1002
{
1000
NOSEL
1070
     0
1002
}
1002
{
1000
BEHIND
1070
     0
1002
}
1002
{
1000
OTHER
1070
     0
1002
}
1002
{
1000
REACTOR
1002
}
1001
GENIUS_GENOBJ-N-CRS_13
1002
{
1000
OWNER
1000
GEN
1002
}
1001
GENIUS_GENOENT_13
1002
{
1000
MYREF
1005
534A
1002
}
1002
{
1000
GRP
1005
0
1002
}
1001
GENIUS_GENOLIS_13
1002
{
1000
ENT
1005
52E3
1005
52E2
1005
52E1
1005
52E0
1002
}
  0
POINT
  5
534B
330
1F
100
AcDbEntity
  8
0
 60
     1
100
AcDbPoint
 10
209.9230294187508
 20
204.2133847135033
 30
0.0
1001
GENIUS_GENODEF_13
1002
{
1000
HIER
1070
    10
1002
}
1002
{
1000
MANEDIT
1070
     0
1002
}
1002
{
1000
NOSEL
1070
     0
1002
}
1002
{
1000
BEHIND
1070
     0
1002
}
1002
{
1000
OTHER
1070
     0
1002
}
1002
{
1000
REACTOR
1002
}
1001
GENIUS_GENOENT_13
1002
{
1000
MYREF
1005
534B
1002
}
1002
{
1000
GRP
1005
0
1002
}
1001
GENIUS_GENOLIS_13
1002
{
1000
ENT
1005
52DF
1005
52DE
1005
52DD
1005
52DC
1002
}
1001
GENIUS_GENOBJ-N-CRS_13
1002
{
1000
OWNER
1000
GEN
1002
}
  0
POINT
  5
534C
330
1F
100
AcDbEntity
  8
0
 60
     1
100
AcDbPoint
 10
209.9230294187508
 20
204.2133847135033
 30
0.0
1001
GENIUS_GENOLIS_13
1002
{
1000
ENT
1005
52DB
1005
52DA
1005
52D9
1005
52D8
1002
}
1001
GENIUS_GENOENT_13
1002
{
1000
MYREF
1005
534C
1002
}
1002
{
1000
GRP
1005
0
1002
}
1001
GENIUS_GENOBJ-N-CRS_13
1002
{
1000
OWNER
1000
GEN
1002
}
1001
GENIUS_GENODEF_13
1002
{
1000
HIER
1070
    10
1002
}
1002
{
1000
MANEDIT
1070
     0
1002
}
1002
{
1000
NOSEL
1070
     0
1002
}
1002
{
1000
BEHIND
1070
     0
1002
}
1002
{
1000
OTHER
1070
     0
1002
}
1002
{
1000
REACTOR
1002
}
  0
POINT
  5
534D
330
1F
100
AcDbEntity
  8
0
 60
     1
100
AcDbPoint
 10
209.9230294187508
 20
204.2133847135033
 30
0.0
1001
GENIUS_GENOLIS_13
1002
{
1000
ENT
1005
52D7
1005
52D6
1005
52D5
1005
52D4
1002
}
1001
GENIUS_GENOENT_13
1002
{
1000
MYREF
1005
534D
1002
}
1002
{
1000
GRP
1005
0
1002
}
1001
GENIUS_GENOBJ-N-CRS_13
1002
{
1000
OWNER
1000
GEN
1002
}
1001
GENIUS_GENODEF_13
1002
{
1000
HIER
1070
    10
1002
}
1002
{
1000
MANEDIT
1070
     0
1002
}
1002
{
1000
NOSEL
1070
     0
1002
}
1002
{
1000
BEHIND
1070
     0
1002
}
1002
{
1000
OTHER
1070
     0
1002
}
1002
{
1000
REACTOR
1002
}
  0
TEXT
  5
541A
330
1F
100
AcDbEntity
  8
AM_5
100
AcDbText
 10
265.3476245043032
 20
397.7352261310443
 30
0.0
 40
3.5
  1
PT1/8
100
AcDbText
  0
LINE
  5
541B
330
1F
100
AcDbEntity
  8
AM_VIS
100
AcDbLine
 10
284.1810727374069
 20
366.3841016841907
 30
0.0
 11
284.5300727374075
 21
366.7331016841912
 31
0.0
  0
LINE
  5
541C
330
1F
100
AcDbEntity
  8
AM_VIS
100
AcDbLine
 10
284.1810727374075
 20
367.0821016841892
 30
0.0
 11
284.1810727374075
 21
366.3841016841892
 31
0.0
  0
LINE
  5
541D
330
1F
100
AcDbEntity
  8
AM_VIS
100
AcDbLine
 10
284.5300727374075
 20
366.7331016841913
 30
0.0
 11
284.5300727374075
 21
367.0821016841892
 31
0.0
  0
LINE
  5
541E
330
1F
100
AcDbEntity
  8
AM_VIS
100
AcDbLine
 10
284.5300727374075
 20
366.7331016841913
 30
0.0
 11
284.1810727374081
 21
367.0821016841907
 31
0.0
  0
LINE
  5
541F
330
1F
100
AcDbEntity
  8
AM_VIS
100
AcDbLine
 10
284.8790727374074
 20
366.3841016841892
 30
0.0
 11
284.1810727374075
 21
366.3841016841892
 31
0.0
  0
LINE
  5
5420
330
1F
100
AcDbEntity
  8
AM_VIS
100
AcDbLine
 10
284.8790727374074
 20
366.3841016841892
 30
0.0
 11
284.8790727374074
 21
365.9716735785896
 31
0.0
  0
LINE
  5
5421
330
1F
100
AcDbEntity
  8
AM_VIS
100
AcDbLine
 10
284.8790727374074
 20
366.3841016841892
 30
0.0
 11
285.2915008430082
 21
366.3841016841892
 31
0.0
  0
LINE
  5
5422
330
1F
100
AcDbEntity
  8
AM_VIS
100
AcDbLine
 10
284.8790727374074
 20
367.4945297897928
 30
0.0
 11
284.8790727374074
 21
367.0821016841892
 31
0.0
  0
LINE
  5
5423
330
1F
100
AcDbEntity
  8
AM_VIS
100
AcDbLine
 10
284.8790727374074
 20
367.0821016841892
 30
0.0
 11
285.29150084301
 21
367.0821016841892
 31
0.0
  0
LINE
  5
5424
330
1F
100
AcDbEntity
  8
AM_VIS
100
AcDbLine
 10
284.1810727374075
 20
367.4945297897928
 30
0.0
 11
284.1810727374075
 21
367.0821016841892
 31
0.0
  0
LINE
  5
5425
330
1F
100
AcDbEntity
  8
AM_VIS
100
AcDbLine
 10
283.7686446318049
 20
367.0821016841892
 30
0.0
 11
284.1810727374075
 21
367.0821016841892
 31
0.0
  0
LINE
  5
5426
330
1F
100
AcDbEntity
  8
AM_VIS
100
AcDbLine
 10
284.1810727374075
 20
366.3841016841892
 30
0.0
 11
284.1810727374075
 21
365.9716735785896
 31
0.0
  0
LINE
  5
5427
330
1F
100
AcDbEntity
  8
AM_VIS
100
AcDbLine
 10
283.7686446318068
 20
366.3841016841892
 30
0.0
 11
284.1810727374075
 21
366.3841016841892
 31
0.0
  0
CIRCLE
  5
5428
330
1F
100
AcDbEntity
  8
AM_VIS
100
AcDbCircle
 10
284.5300727374075
 20
366.7331016841912
 30
0.0
 40
2.5
  0
LINE
  5
5429
330
1F
100
AcDbEntity
  8
AM_VIS
100
AcDbLine
 10
284.8790727374074
 20
367.4945297897928
 30
0.0
 11
284.8790727374074
 21
368.0732053083476
 31
0.0
  0
ELLIPSE
  5
542A
330
1F
100
AcDbEntity
  8
AM_VIS
100
AcDbEllipse
 10
284.5300727374075
 20
365.7441112906397
 30
0.0
 11
-3.797925352448599
 21
0.0000000000000005
 31
0.0
210
0.0
220
0.0
230
1.0
 40
0.6158600226419823
 41
4.6203668857441
 42
4.80441107502528
  0
LINE
  5
542B
330
1F
100
AcDbEntity
  8
AM_VIS
100
AcDbLine
 10
284.1810727374075
 20
365.9716735785896
 30
0.0
 11
284.1810727374075
 21
365.3929980600349
 31
0.0
  0
ELLIPSE
  5
542C
330
1F
100
AcDbEntity
  8
AM_VIS
100
AcDbEllipse
 10
284.5300727374075
 20
367.7220920777428
 30
0.0
 11
3.797925352448591
 21
-0.0000000000000005
 31
0.0
210
0.0
220
0.0
230
1.0
 40
0.6158600226419945
 41
4.6203668857441
 42
4.804411075025278
  0
LINE
  5
542D
330
1F
100
AcDbEntity
  8
AM_VIS
100
AcDbLine
 10
283.1899691132512
 20
366.3841016841892
 30
0.0
 11
283.7686446318068
 21
366.3841016841892
 31
0.0
  0
ELLIPSE
  5
542E
330
1F
100
AcDbEntity
  8
AM_VIS
100
AcDbEllipse
 10
283.5410823438558
 20
366.7331016841912
 30
0.0
 11
0.0000000000000011
 21
3.797925352448569
 31
0.0
210
0.0
220
0.0
230
1.0
 40
0.6158600226420087
 41
4.620366885743576
 42
4.804411075024757
  0
LINE
  5
542F
330
1F
100
AcDbEntity
  8
AM_VIS
100
AcDbLine
 10
283.7686446318049
 20
367.0821016841892
 30
0.0
 11
283.189969113251
 21
367.0821016841892
 31
0.0
  0
LINE
  5
5430
330
1F
100
AcDbEntity
  8
AM_VIS
100
AcDbLine
 10
285.8701763615639
 20
367.0821016841892
 30
0.0
 11
285.29150084301
 21
367.0821016841892
 31
0.0
  0
ELLIPSE
  5
5431
330
1F
100
AcDbEntity
  8
AM_VIS
100
AcDbEllipse
 10
285.5190631309591
 20
366.7331016841912
 30
0.0
 11
0.0000000000000002
 21
-3.797925352448569
 31
0.0
210
0.0
220
0.0
230
0.9999999999999998
 40
0.6158600226420093
 41
4.620366885744621
 42
4.804411075025802
  0
LINE
  5
5432
330
1F
100
AcDbEntity
  8
AM_VIS
100
AcDbLine
 10
285.2915008430081
 20
366.3841016841892
 30
0.0
 11
285.8701763615637
 21
366.3841016841892
 31
0.0
  0
LINE
  5
5433
330
1F
100
AcDbEntity
  8
AM_VIS
100
AcDbLine
 10
284.1810727374075
 20
368.0732053083476
 30
0.0
 11
284.1810727374075
 21
367.4945297897928
 31
0.0
  0
LINE
  5
5434
330
1F
100
AcDbEntity
  8
AM_VIS
100
AcDbLine
 10
284.8790727374074
 20
365.3929980600349
 30
0.0
 11
284.8790727374074
 21
365.9716735785896
 31
0.0
  0
ARC
  5
5435
330
1F
100
AcDbEntity
  8
AM_VIS
100
AcDbCircle
 10
284.5300727374075
 20
366.7331016841912
 30
0.0
 40
0.8376000000000374
100
AcDbArc
 50
294.6243183521657
 51
335.3756816476841
  0
ARC
  5
5436
330
1F
100
AcDbEntity
  8
AM_VIS
100
AcDbCircle
 10
284.5300727374075
 20
366.7331016841912
 30
0.0
 40
0.8376000000000374
100
AcDbArc
 50
24.62431835201131
 51
65.37568164783424
  0
ARC
  5
5437
330
1F
100
AcDbEntity
  8
AM_VIS
100
AcDbCircle
 10
284.5300727374075
 20
366.7331016841912
 30
0.0
 40
0.8376000000000374
100
AcDbArc
 50
114.6243183521657
 51
155.3756816479886
  0
ARC
  5
5438
330
1F
100
AcDbEntity
  8
AM_VIS
100
AcDbCircle
 10
284.5300727374075
 20
366.7331016841912
 30
0.0
 40
0.8376000000000374
100
AcDbArc
 50
204.6243183523159
 51
245.3756816478342
  0
LINE
  5
5439
330
1F
100
AcDbEntity
  8
AM_VIS
100
AcDbLine
 10
294.5300727374074
 20
391.2331016841912
 30
0.0
 11
297.0275789563512
 21
391.2331016841912
 31
0.0
  0
LINE
  5
543A
330
1F
100
AcDbEntity
  8
AM_VIS
100
AcDbLine
 10
298.0325665184637
 20
391.2331016841912
 30
0.0
 11
300.0300727374074
 21
391.2331016841912
 31
0.0
  0
LINE
  5
543B
330
1F
100
AcDbEntity
  8
AM_VIS
100
AcDbLine
 10
282.0300727374074
 20
391.2331016841912
 30
0.0
 11
294.5300727374074
 21
391.2331016841912
 31
0.0
  0
LINE
  5
543C
330
1F
100
AcDbEntity
  8
AM_VIS
100
AcDbLine
 10
294.5300727374074
 20
388.4831016841912
 30
0.0
 11
294.5300727374074
 21
391.2331016841912
 31
0.0
  0
LINE
  5
543D
330
1F
100
AcDbEntity
  8
AM_VIS
100
AcDbLine
 10
300.0300727374074
 20
385.7331016841912
 30
0.0
 11
297.2800727374074
 21
385.7331016841912
 31
0.0
  0
LINE
  5
543E
330
1F
100
AcDbEntity
  8
AM_VIS
100
AcDbLine
 10
300.0300727374075
 20
364.2331016841912
 30
0.0
 11
287.5300727374075
 21
364.2331016841912
 31
0.0
  0
LINE
  5
543F
330
1F
100
AcDbEntity
  8
AM_VIS
100
AcDbLine
 10
282.0300727374075
 20
369.7331016841911
 30
0.0
 11
282.0300727374074
 21
391.2331016841912
 31
0.0
  0
LINE
  5
5440
330
1F
100
AcDbEntity
  8
AM_VIS
100
AcDbLine
 10
287.5300727374074
 20
364.2331016841912
 30
0.0
 11
285.0325665184633
 21
364.2331016841912
 31
0.0
  0
LINE
  5
5441
330
1F
100
AcDbEntity
  8
AM_VIS
100
AcDbLine
 10
284.0275789563516
 20
364.2331016841912
 30
0.0
 11
282.0300727374075
 21
364.2331016841912
 31
0.0
  0
LINE
  5
5442
330
1F
100
AcDbEntity
  8
AM_VIS
100
AcDbLine
 10
282.0300727374075
 20
364.2331016841911
 30
0.0
 11
282.0300727374075
 21
366.2306079031351
 31
0.0
  0
LINE
  5
5443
330
1F
100
AcDbEntity
  8
AM_VIS
100
AcDbLine
 10
282.0300727374075
 20
367.2355954652473
 30
0.0
 11
282.0300727374075
 21
369.7331016841911
 31
0.0
  0
LINE
  5
5444
330
1F
100
AcDbEntity
  8
AM_VIS
100
AcDbLine
 10
287.5300727374074
 20
366.9831016841912
 30
0.0
 11
287.5300727374075
 21
364.2331016841912
 31
0.0
  0
LINE
  5
5445
330
1F
100
AcDbEntity
  8
AM_VIS
100
AcDbLine
 10
282.0300727374074
 20
369.7331016841911
 30
0.0
 11
284.7800727374074
 21
369.7331016841912
 31
0.0
  0
LINE
  5
5446
330
1F
100
AcDbEntity
  8
AM_VIS
100
AcDbLine
 10
300.0300727374074
 20
385.7331016841912
 30
0.0
 11
300.0300727374075
 21
364.2331016841912
 31
0.0
  0
LINE
  5
5447
330
1F
100
AcDbEntity
  8
AM_VIS
100
AcDbLine
 10
300.0300727374074
 20
391.2331016841912
 30
0.0
 11
300.0300727374074
 21
389.2355954652474
 31
0.0
  0
LINE
  5
5448
330
1F
100
AcDbEntity
  8
AM_VIS
100
AcDbLine
 10
300.0300727374074
 20
388.230607903135
 30
0.0
 11
300.0300727374074
 21
385.7331016841912
 31
0.0
  0
CIRCLE
  5
5449
330
1F
100
AcDbEntity
  8
AM_VIS
100
AcDbCircle
 10
291.0300727374074
 20
377.7331016841912
 30
0.0
 40
4.049999999999999
  0
CIRCLE
  5
544A
330
1F
100
AcDbEntity
  8
AM_VIS
100
AcDbCircle
 10
291.0300727374074
 20
377.7331016841912
 30
0.0
 40
5.299999999999999
  0
ARC
  5
544B
330
1F
100
AcDbEntity
  8
AM_VIS
100
AcDbCircle
 10
297.2800727374074
 20
388.4831016841912
 30
0.0
 40
2.75
100
AcDbArc
 50
180.0
 51
270.0
  0
ARC
  5
544C
330
1F
100
AcDbEntity
  8
AM_VIS
100
AcDbCircle
 10
284.7800727374075
 20
366.9831016841912
 30
0.0
 40
2.75
100
AcDbArc
 50
0.0
 51
90.0
  0
LINE
  5
544D
330
1F
100
AcDbEntity
  8
AM_VIS
100
AcDbLine
 10
300.0300727374075
 20
366.5066915226774
 30
0.0
 11
300.0700015629385
 21
366.5066915226774
 31
0.0
  0
LINE
  5
544E
330
1F
100
AcDbEntity
  8
AM_VIS
100
AcDbLine
 10
300.0370552984232
 20
366.2666915226775
 30
0.0
 11
300.0300727374075
 21
366.2666915226775
 31
0.0
  0
ARC
  5
544F
330
1F
100
AcDbEntity
  8
AM_VIS
100
AcDbCircle
 10
297.5300727374074
 20
366.7331016841912
 30
0.0
 40
2.550000000000011
100
AcDbArc
 50
349.4609311094996
 51
354.9060973616483
  0
ARC
  5
5450
330
1F
100
AcDbEntity
  8
AM_VIS
100
AcDbCircle
 10
297.5300727374074
 20
366.7331016841912
 30
0.0
 40
2.550000000000011
100
AcDbArc
 50
348.635123032965
 51
349.4609311094996
  0
ARC
  5
5451
330
1F
100
AcDbEntity
  8
AM_VIS
100
AcDbCircle
 10
297.5300727374074
 20
366.7331016841912
 30
0.0
 40
2.550000000000011
100
AcDbArc
 50
258.6351230329612
 51
281.3648769670388
  0
ARC
  5
5452
330
1F
100
AcDbEntity
  8
AM_VIS
100
AcDbCircle
 10
297.5300727374074
 20
366.7331016841912
 30
0.0
 40
2.550000000000011
100
AcDbArc
 50
354.9060973616483
 51
11.36487696703494
  0
LINE
  5
5453
330
1F
100
AcDbEntity
  8
AM_VIS
100
AcDbLine
 10
300.0197993165248
 20
388.5066915226774
 30
0.0
 11
300.0700015629385
 21
388.5066915226774
 31
0.0
  0
LINE
  5
5454
330
1F
100
AcDbEntity
  8
AM_VIS
100
AcDbLine
 10
300.0370552984231
 20
388.2666915226774
 30
0.0
 11
299.9861797304427
 21
388.2666915226774
 31
0.0
  0
ARC
  5
5455
330
1F
100
AcDbEntity
  8
AM_VIS
100
AcDbCircle
 10
297.5300727374074
 20
388.7331016841912
 30
0.0
 40
2.550000000000011
100
AcDbArc
 50
349.4609311094996
 51
354.9060973616483
  0
ARC
  5
5456
330
1F
100
AcDbEntity
  8
AM_VIS
100
AcDbCircle
 10
297.5300727374074
 20
388.7331016841912
 30
0.0
 40
2.550000000000011
100
AcDbArc
 50
354.9060973616483
 51
349.4609311094996
  0
LINE
  5
5457
330
1F
100
AcDbEntity
  8
AM_VIS
100
AcDbLine
 10
287.0197993165248
 20
366.5066915226774
 30
0.0
 11
287.0700015629385
 21
366.5066915226774
 31
0.0
  0
LINE
  5
5458
330
1F
100
AcDbEntity
  8
AM_VIS
100
AcDbLine
 10
287.0370552984231
 20
366.2666915226775
 30
0.0
 11
286.9861797304427
 21
366.2666915226775
 31
0.0
  0
ARC
  5
5459
330
1F
100
AcDbEntity
  8
AM_VIS
100
AcDbCircle
 10
284.5300727374075
 20
366.7331016841912
 30
0.0
 40
2.550000000000011
100
AcDbArc
 50
349.4609311094996
 51
354.9060973616483
  0
ARC
  5
545A
330
1F
100
AcDbEntity
  8
AM_VIS
100
AcDbCircle
 10
284.5300727374075
 20
366.7331016841912
 30
0.0
 40
2.550000000000011
100
AcDbArc
 50
354.9060973616483
 51
349.4609311094996
  0
ARC
  5
545B
330
1F
100
AcDbEntity
  8
AM_VIS
100
AcDbCircle
 10
284.5300727374075
 20
388.7331016841912
 30
0.0
 40
2.550000000000011
100
AcDbArc
 50
168.635123032965
 51
191.3648769670349
  0
ARC
  5
545C
330
1F
100
AcDbEntity
  8
AM_VIS
100
AcDbCircle
 10
284.5300727374075
 20
388.7331016841912
 30
0.0
 40
2.550000000000011
100
AcDbArc
 50
78.63512303296506
 51
101.3648769670349
  0
LINE
  5
545D
330
1F
100
AcDbEntity
  8
AM_VIS
100
AcDbLine
 10
297.8790727374075
 20
388.7331016841912
 30
0.0
 11
297.5300727374074
 21
388.7331016841912
 31
0.0
  0
LINE
  5
545E
330
1F
100
AcDbEntity
  8
AM_VIS
100
AcDbLine
 10
297.5300727374074
 20
388.7331016841912
 30
0.0
 11
297.1810727374075
 21
388.7331016841912
 31
0.0
  0
LINE
  5
545F
330
1F
100
AcDbEntity
  8
AM_VIS
100
AcDbLine
 10
297.5300727374074
 20
388.7331016841912
 30
0.0
 11
297.879072737408
 21
388.3841016841907
 31
0.0
  0
LINE
  5
5460
330
1F
100
AcDbEntity
  8
AM_VIS
100
AcDbLine
 10
297.8790727374069
 20
389.0821016841907
 30
0.0
 11
297.5300727374074
 21
388.7331016841912
 31
0.0
  0
LINE
  5
5461
330
1F
100
AcDbEntity
  8
AM_VIS
100
AcDbLine
 10
297.8790727374075
 20
388.3841016841892
 30
0.0
 11
297.8790727374075
 21
389.0821016841893
 31
0.0
  0
LINE
  5
5462
330
1F
100
AcDbEntity
  8
AM_VIS
100
AcDbLine
 10
297.1810727374075
 20
389.0821016841892
 30
0.0
 11
297.8790727374075
 21
389.0821016841892
 31
0.0
  0
LINE
  5
5463
330
1F
100
AcDbEntity
  8
AM_VIS
100
AcDbLine
 10
297.5300727374074
 20
388.3841016841892
 30
0.0
 11
297.5300727374074
 21
388.7331016841912
 31
0.0
  0
LINE
  5
5464
330
1F
100
AcDbEntity
  8
AM_VIS
100
AcDbLine
 10
297.1810727374069
 20
388.3841016841906
 30
0.0
 11
297.5300727374074
 21
388.7331016841912
 31
0.0
  0
LINE
  5
5465
330
1F
100
AcDbEntity
  8
AM_VIS
100
AcDbLine
 10
297.1810727374075
 20
389.0821016841893
 30
0.0
 11
297.1810727374075
 21
388.3841016841892
 31
0.0
  0
LINE
  5
5466
330
1F
100
AcDbEntity
  8
AM_VIS
100
AcDbLine
 10
297.5300727374074
 20
388.7331016841912
 30
0.0
 11
297.5300727374074
 21
389.0821016841892
 31
0.0
  0
LINE
  5
5467
330
1F
100
AcDbEntity
  8
AM_VIS
100
AcDbLine
 10
297.5300727374074
 20
388.7331016841912
 30
0.0
 11
297.181072737408
 21
389.0821016841907
 31
0.0
  0
LINE
  5
5468
330
1F
100
AcDbEntity
  8
AM_VIS
100
AcDbLine
 10
297.8790727374075
 20
388.3841016841892
 30
0.0
 11
297.1810727374075
 21
388.3841016841892
 31
0.0
  0
LINE
  5
5469
330
1F
100
AcDbEntity
  8
AM_VIS
100
AcDbLine
 10
297.8790727374075
 20
388.3841016841892
 30
0.0
 11
297.8790727374075
 21
387.9716735785896
 31
0.0
  0
LINE
  5
546A
330
1F
100
AcDbEntity
  8
AM_VIS
100
AcDbLine
 10
297.8790727374075
 20
388.3841016841892
 30
0.0
 11
298.2915008430081
 21
388.3841016841892
 31
0.0
  0
LINE
  5
546B
330
1F
100
AcDbEntity
  8
AM_VIS
100
AcDbLine
 10
297.8790727374075
 20
389.4945297897928
 30
0.0
 11
297.8790727374075
 21
389.0821016841892
 31
0.0
  0
LINE
  5
546C
330
1F
100
AcDbEntity
  8
AM_VIS
100
AcDbLine
 10
297.8790727374075
 20
389.0821016841892
 30
0.0
 11
298.29150084301
 21
389.0821016841892
 31
0.0
  0
LINE
  5
546D
330
1F
100
AcDbEntity
  8
AM_VIS
100
AcDbLine
 10
297.1810727374075
 20
389.4945297897928
 30
0.0
 11
297.1810727374075
 21
389.0821016841892
 31
0.0
  0
LINE
  5
546E
330
1F
100
AcDbEntity
  8
AM_VIS
100
AcDbLine
 10
296.7686446318049
 20
389.0821016841892
 30
0.0
 11
297.1810727374075
 21
389.0821016841892
 31
0.0
  0
LINE
  5
546F
330
1F
100
AcDbEntity
  8
AM_VIS
100
AcDbLine
 10
297.1810727374075
 20
388.3841016841892
 30
0.0
 11
297.1810727374075
 21
387.9716735785896
 31
0.0
  0
LINE
  5
5470
330
1F
100
AcDbEntity
  8
AM_VIS
100
AcDbLine
 10
296.7686446318067
 20
388.3841016841892
 30
0.0
 11
297.1810727374075
 21
388.3841016841892
 31
0.0
  0
CIRCLE
  5
5471
330
1F
100
AcDbEntity
  8
AM_VIS
100
AcDbCircle
 10
297.5300727374074
 20
388.7331016841912
 30
0.0
 40
2.5
  0
LINE
  5
5472
330
1F
100
AcDbEntity
  8
AM_VIS
100
AcDbLine
 10
297.8790727374075
 20
389.4945297897928
 30
0.0
 11
297.8790727374075
 21
390.0732053083475
 31
0.0
  0
ELLIPSE
  5
5473
330
1F
100
AcDbEntity
  8
AM_VIS
100
AcDbEllipse
 10
297.5300727374074
 20
387.7441112906396
 30
0.0
 11
-3.797925352448599
 21
0.0000000000000005
 31
0.0
210
0.0
220
0.0
230
1.0
 40
0.6158600226419823
 41
4.6203668857441
 42
4.804411075025278
  0
LINE
  5
5474
330
1F
100
AcDbEntity
  8
AM_VIS
100
AcDbLine
 10
297.1810727374075
 20
387.9716735785896
 30
0.0
 11
297.1810727374075
 21
387.3929980600349
 31
0.0
  0
ELLIPSE
  5
5475
330
1F
100
AcDbEntity
  8
AM_VIS
100
AcDbEllipse
 10
297.5300727374074
 20
389.7220920777428
 30
0.0
 11
3.797925352448591
 21
-0.0000000000000005
 31
0.0
210
0.0
220
0.0
230
1.0
 40
0.6158600226419945
 41
4.6203668857441
 42
4.804411075025278
  0
LINE
  5
5476
330
1F
100
AcDbEntity
  8
AM_VIS
100
AcDbLine
 10
296.1899691132512
 20
388.3841016841892
 30
0.0
 11
296.7686446318067
 21
388.3841016841892
 31
0.0
  0
ELLIPSE
  5
5477
330
1F
100
AcDbEntity
  8
AM_VIS
100
AcDbEllipse
 10
296.5410823438558
 20
388.7331016841912
 30
0.0
 11
0.0000000000000011
 21
3.797925352448569
 31
0.0
210
0.0
220
0.0
230
1.0
 40
0.6158600226420087
 41
4.620366885743576
 42
4.804411075024757
  0
LINE
  5
5478
330
1F
100
AcDbEntity
  8
AM_VIS
100
AcDbLine
 10
296.7686446318049
 20
389.0821016841892
 30
0.0
 11
296.189969113251
 21
389.0821016841892
 31
0.0
  0
LINE
  5
5479
330
1F
100
AcDbEntity
  8
AM_VIS
100
AcDbLine
 10
298.8701763615639
 20
389.0821016841892
 30
0.0
 11
298.2915008430099
 21
389.0821016841892
 31
0.0
  0
ELLIPSE
  5
547A
330
1F
100
AcDbEntity
  8
AM_VIS
100
AcDbEllipse
 10
298.519063130959
 20
388.7331016841912
 30
0.0
 11
0.0000000000000002
 21
-3.797925352448569
 31
0.0
210
0.0
220
0.0
230
0.9999999999999998
 40
0.6158600226420093
 41
4.620366885744621
 42
4.804411075025802
  0
LINE
  5
547B
330
1F
100
AcDbEntity
  8
AM_VIS
100
AcDbLine
 10
298.2915008430081
 20
388.3841016841892
 30
0.0
 11
298.8701763615637
 21
388.3841016841892
 31
0.0
  0
LINE
  5
547C
330
1F
100
AcDbEntity
  8
AM_VIS
100
AcDbLine
 10
297.1810727374075
 20
390.0732053083475
 30
0.0
 11
297.1810727374075
 21
389.4945297897928
 31
0.0
  0
LINE
  5
547D
330
1F
100
AcDbEntity
  8
AM_VIS
100
AcDbLine
 10
297.8790727374075
 20
387.3929980600349
 30
0.0
 11
297.8790727374075
 21
387.9716735785896
 31
0.0
  0
ARC
  5
547E
330
1F
100
AcDbEntity
  8
AM_VIS
100
AcDbCircle
 10
297.5300727374074
 20
388.7331016841912
 30
0.0
 40
0.8376000000000374
100
AcDbArc
 50
294.6243183521657
 51
335.3756816476841
  0
ARC
  5
547F
330
1F
100
AcDbEntity
  8
AM_VIS
100
AcDbCircle
 10
297.5300727374074
 20
388.7331016841912
 30
0.0
 40
0.8376000000000374
100
AcDbArc
 50
24.62431835201131
 51
65.37568164783424
  0
ARC
  5
5480
330
1F
100
AcDbEntity
  8
AM_VIS
100
AcDbCircle
 10
297.5300727374074
 20
388.7331016841912
 30
0.0
 40
0.8376000000000374
100
AcDbArc
 50
114.6243183521657
 51
155.3756816479886
  0
ARC
  5
5481
330
1F
100
AcDbEntity
  8
AM_VIS
100
AcDbCircle
 10
297.5300727374074
 20
388.7331016841912
 30
0.0
 40
0.8376000000000374
100
AcDbArc
 50
204.6243183523159
 51
245.3756816478342
  0
LINE
  5
5482
330
1F
100
AcDbEntity
  8
AM_VIS
100
AcDbLine
 10
284.8790727374074
 20
366.7331016841912
 30
0.0
 11
284.5300727374075
 21
366.7331016841912
 31
0.0
  0
LINE
  5
5483
330
1F
100
AcDbEntity
  8
AM_VIS
100
AcDbLine
 10
284.5300727374074
 20
366.7331016841912
 30
0.0
 11
284.1810727374075
 21
366.7331016841912
 31
0.0
  0
LINE
  5
5484
330
1F
100
AcDbEntity
  8
AM_VIS
100
AcDbLine
 10
284.5300727374074
 20
366.7331016841912
 30
0.0
 11
284.879072737408
 21
366.3841016841907
 31
0.0
  0
LINE
  5
5485
330
1F
100
AcDbEntity
  8
AM_VIS
100
AcDbLine
 10
284.8790727374069
 20
367.0821016841907
 30
0.0
 11
284.5300727374075
 21
366.7331016841913
 31
0.0
  0
LINE
  5
5486
330
1F
100
AcDbEntity
  8
AM_VIS
100
AcDbLine
 10
284.8790727374074
 20
366.3841016841892
 30
0.0
 11
284.8790727374074
 21
367.0821016841892
 31
0.0
  0
LINE
  5
5487
330
1F
100
AcDbEntity
  8
AM_VIS
100
AcDbLine
 10
284.1810727374075
 20
367.0821016841892
 30
0.0
 11
284.8790727374074
 21
367.0821016841892
 31
0.0
  0
LINE
  5
5488
330
1F
100
AcDbEntity
  8
AM_VIS
100
AcDbLine
 10
284.5300727374075
 20
366.3841016841892
 30
0.0
 11
284.5300727374075
 21
366.7331016841913
 31
0.0
  0
LINE
  5
5489
330
1F
100
AcDbEntity
  8
AM_7
100
AcDbLine
 10
291.0300727374074
 20
377.7331016841912
 30
0.0
 11
297.3300727374074
 21
377.7331016841912
 31
0.0
1001
GENIUS_GENOREF_13
1005
548E
  0
LINE
  5
548A
330
1F
100
AcDbEntity
  8
AM_7
100
AcDbLine
 10
291.0300727374074
 20
377.7331016841912
 30
0.0
 11
291.0300727374074
 21
384.0331016841912
 31
0.0
1001
GENIUS_GENOREF_13
1005
548E
  0
LINE
  5
548B
330
1F
100
AcDbEntity
  8
AM_7
100
AcDbLine
 10
291.0300727374074
 20
377.7331016841912
 30
0.0
 11
284.7300727374074
 21
377.7331016841912
 31
0.0
1001
GENIUS_GENOREF_13
1005
548E
  0
LINE
  5
548C
330
1F
100
AcDbEntity
  8
AM_7
100
AcDbLine
 10
291.0300727374074
 20
377.7331016841912
 30
0.0
 11
291.0300727374074
 21
371.4331016841912
 31
0.0
1001
GENIUS_GENOREF_13
1005
548E
  0
INSERT
  5
548D
330
1F
100
AcDbEntity
  8
AM_5
100
AcDbBlockReference
  2
*S23
 10
0.0
 20
0.0
 30
0.0
  0
POINT
  5
548E
330
1F
100
AcDbEntity
  8
0
 60
     1
100
AcDbPoint
 10
186.0388045795351
 20
40.94830402274749
 30
0.0
1001
GENIUS_GENOBJ-N-CRS_13
1002
{
1000
OWNER
1000
GEN
1002
}
1001
GENIUS_GENOENT_13
1002
{
1000
MYREF
1005
548E
1002
}
1002
{
1000
GRP
1005
0
1002
}
1001
GENIUS_GENOLIS_13
1002
{
1000
ENT
1005
548C
1005
548B
1005
548A
1005
5489
1002
}
1001
GENIUS_GENODEF_13
1002
{
1000
HIER
1070
    10
1002
}
1002
{
1000
MANEDIT
1070
     0
1002
}
1002
{
1000
NOSEL
1070
     0
1002
}
1002
{
1000
BEHIND
1070
     0
1002
}
1002
{
1000
OTHER
1070
     0
1002
}
1002
{
1000
REACTOR
1002
}
  0
ENDSEC
  0
SECTION
  2
OBJECTS
  0
DICTIONARY
  5
C
330
0
100
AcDbDictionary
281
     1
  3
ACAD_COLOR
350
BE
  3
ACAD_GROUP
350
D
  3
ACAD_LAYOUT
350
1A
  3
ACAD_MATERIAL
350
BD
  3
ACAD_MLINESTYLE
350
17
  3
ACAD_PLOTSETTINGS
350
19
  3
ACAD_PLOTSTYLENAME
350
E
  3
ACAD_TABLESTYLE
350
11A
  3
ACDBHEADERROUNDTRIPXREC
350
56B8
  3
AcDbVariableDictionary
350
94
  3
AcmDictionary
350
5B
  3
AMG
350
41
  3
AMGSNAPSETTINGS
350
1B8
  3
DWGPROPS
350
56B7
  0
DICTIONARY
  5
3F9
330
2
100
AcDbDictionary
280
     1
281
     1
  3
ACAD_LAYERFILTERS
360
240D
  3
ACAD_LAYERSTATES
360
A85
  3
ACLYDICTIONARY
360
240C
  3
AMLAYER_GROUPCOLORS
360
1053
  0
DICTIONARY
  5
8F
330
1F
100
AcDbDictionary
280
     1
281
     1
  3
ACAD_SORTENTS
360
1086
  0
DICTIONARY
  5
52FC
330
52FB
100
AcDbDictionary
280
     1
281
     1
  3
ACAD_DIMASSOC
360
52FD
  0
DICTIONARY
  5
52FF
330
52FE
100
AcDbDictionary
280
     1
281
     1
  3
ACAD_DIMASSOC
360
5300
  0
DICTIONARY
  5
5302
330
5301
100
AcDbDictionary
280
     1
281
     1
  3
ACAD_DIMASSOC
360
5303
  0
DICTIONARY
  5
5305
330
5304
100
AcDbDictionary
280
     1
281
     1
  3
ACAD_DIMASSOC
360
5306
  0
DICTIONARY
  5
5308
330
5307
100
AcDbDictionary
280
     1
281
     1
  3
ACAD_DIMASSOC
360
5309
  0
DICTIONARY
  5
530C
330
530B
100
AcDbDictionary
280
     1
281
     1
  3
ACAD_DIMASSOC
360
530D
  0
DICTIONARY
  5
530F
330
530E
100
AcDbDictionary
280
     1
281
     1
  3
ACAD_DIMASSOC
360
5310
  0
DICTIONARY
  5
5312
330
5311
100
AcDbDictionary
280
     1
281
     1
  3
ACAD_DIMASSOC
360
5313
  0
DICTIONARY
  5
5315
330
5314
100
AcDbDictionary
280
     1
281
     1
  3
ACAD_DIMASSOC
360
5316
  0
DICTIONARY
  5
531C
330
531B
100
AcDbDictionary
280
     1
281
     1
  3
ACAD_DIMASSOC
360
531D
  0
DICTIONARY
  5
531F
330
531E
100
AcDbDictionary
280
     1
281
     1
  3
ACAD_DIMASSOC
360
5320
  0
DICTIONARY
  5
BE
102
{ACAD_REACTORS
330
C
102
}
330
C
100
AcDbDictionary
281
     1
  0
DICTIONARY
  5
D
102
{ACAD_REACTORS
330
C
102
}
330
C
100
AcDbDictionary
281
     1
  0
DICTIONARY
  5
1A
102
{ACAD_REACTORS
330
C
102
}
330
C
100
AcDbDictionary
281
     1
  3
Model
350
22
  3
配置1
350
1E
  3
配置2
350
26
  0
DICTIONARY
  5
BD
102
{ACAD_REACTORS
330
C
102
}
330
C
100
AcDbDictionary
281
     1
  0
DICTIONARY
  5
17
102
{ACAD_REACTORS
330
C
102
}
330
C
100
AcDbDictionary
281
     1
  3
Standard
350
18
  0
DICTIONARY
  5
19
102
{ACAD_REACTORS
330
C
102
}
330
C
100
AcDbDictionary
281
     1
  0
ACDBDICTIONARYWDFLT
  5
E
102
{ACAD_REACTORS
330
C
102
}
330
C
100
AcDbDictionary
281
     1
  3
Normal
350
F
100
AcDbDictionaryWithDefault
340
F
  0
DICTIONARY
  5
11A
102
{ACAD_REACTORS
330
C
102
}
330
C
100
AcDbDictionary
281
     1
  3
Standard
350
11B
  0
DICTIONARY
  5
56B8
102
{ACAD_REACTORS
330
C
102
}
330
C
100
AcDbDictionary
281
     1
  0
DICTIONARY
  5
94
102
{ACAD_REACTORS
330
C
102
}
330
C
100
AcDbDictionary
281
     1
  3
CTABLESTYLE
350
138
  3
DIMASSOC
350
96
  3
INDEXCTL
350
95
  3
PROJECTNAME
350
56B5
  0
DICTIONARY
  5
5B
102
{ACAD_REACTORS
330
C
102
}
330
C
100
AcDbDictionary
281
     1
  3
AcmBOM
350
1B5
  3
AcmStdDictionary
350
61
  3
AMDTSECTSYM_ARROWCOLOR
350
123
  0
DICTIONARY
  5
41
102
{ACAD_REACTORS
330
C
102
}
330
C
100
AcDbDictionary
281
     1
  0
DICTIONARY
  5
1B8
102
{ACAD_REACTORS
330
C
102
}
330
C
100
AcDbDictionary
281
     1
  0
XRECORD
  5
56B7
102
{ACAD_REACTORS
330
C
102
}
330
C
100
AcDbXrecord
280
     1
  1
DWGPROPS COOKIE
  2

  3

  4

  6

  7

  8

  9

300
AmdtFileType=84
301
=
302
=
303
=
304
=
305
=
306
=
307
=
308
=
309
=
 40
0.1096735763888889
 41
2454097.385877268
 42
2454097.695345046
  1

 90
        1
  0
DICTIONARY
  5
240D
102
{ACAD_REACTORS
330
3F9
102
}
330
3F9
100
AcDbDictionary
281
     1
  0
DICTIONARY
  5
A85
102
{ACAD_REACTORS
330
3F9
102
}
330
3F9
100
AcDbDictionary
281
     1
  0
DICTIONARY
  5
240C
102
{ACAD_REACTORS
330
3F9
102
}
330
3F9
100
AcDbDictionary
281
     1
1001
ACAD
1000
<All
  0
DICTIONARY
  5
1053
102
{ACAD_REACTORS
330
3F9
102
}
330
3F9
100
AcDbDictionary
280
     1
281
     1
  0
SORTENTSTABLE
  5
1086
102
{ACAD_REACTORS
330
8F
102
}
330
8F
100
AcDbSortentsTable
330
1F
  0
DIMASSOC
  5
52FD
102
{ACAD_REACTORS
330
52FC
102
}
330
52FC
100
AcDbDimAssoc
330
52FB
 90
        3
 70
     0
 71
     0
  1
AcDbOsnapPointRef
 72
     1
331
5250
 73
     0
 91
        0
 40
0.0
 10
0.0
 20
0.0
 30
2.000000000000000E+50
 75
     0
  1
AcDbOsnapPointRef
 72
     1
331
524D
 73
     0
 91
        0
 40
0.0
 10
0.0
 20
0.0
 30
2.000000000000000E+50
 75
     0
  0
DIMASSOC
  5
5300
102
{ACAD_REACTORS
330
52FF
102
}
330
52FF
100
AcDbDimAssoc
330
52FE
 90
        3
 70
     0
 71
     0
  1
AcDbOsnapPointRef
 72
     1
331
529E
 73
     0
 91
        0
 40
0.0
 10
0.0
 20
0.0
 30
2.000000000000000E+50
 75
     0
  1
AcDbOsnapPointRef
 72
     1
331
52D5
 73
     0
 91
        0
 40
0.0
 10
0.0
 20
0.0
 30
2.000000000000000E+50
 75
     0
  0
DIMASSOC
  5
5303
102
{ACAD_REACTORS
330
5302
102
}
330
5302
100
AcDbDimAssoc
330
5301
 90
        3
 70
     0
 71
     0
  1
AcDbOsnapPointRef
 72
     1
331
5297
 73
     0
 91
        0
 40
0.0
 10
0.0
 20
0.0
 30
2.000000000000000E+50
 75
     0
  1
AcDbOsnapPointRef
 72
     1
331
52F3
 73
     0
 91
        0
 40
0.0
 10
0.0
 20
0.0
 30
2.000000000000000E+50
 75
     0
  0
DIMASSOC
  5
5306
102
{ACAD_REACTORS
330
5305
102
}
330
5305
100
AcDbDimAssoc
330
5304
 90
        3
 70
     0
 71
     0
  1
AcDbOsnapPointRef
 72
     1
331
52F3
 73
     0
 91
        0
 40
0.0
 10
0.0
 20
0.0
 30
2.000000000000000E+50
 75
     0
  1
AcDbOsnapPointRef
 72
     1
331
52F7
 73
     0
 91
        0
 40
0.0
 10
0.0
 20
0.0
 30
2.000000000000000E+50
 75
     0
  0
DIMASSOC
  5
5309
102
{ACAD_REACTORS
330
5308
102
}
330
5308
100
AcDbDimAssoc
330
5307
 90
        3
 70
     0
 71
     0
  1
AcDbOsnapPointRef
 72
     1
331
52F2
 73
     0
 91
        0
 40
0.0
 10
0.0
 20
0.0
 30
2.000000000000000E+50
 75
     0
  1
AcDbOsnapPointRef
 72
     1
331
52F6
 73
     0
 91
        0
 40
0.0
 10
0.0
 20
0.0
 30
2.000000000000000E+50
 75
     0
  0
DIMASSOC
  5
530D
102
{ACAD_REACTORS
330
530C
102
}
330
530C
100
AcDbDimAssoc
330
530B
 90
        3
 70
     0
 71
     0
  1
AcDbOsnapPointRef
 72
    13
331
524A
 73
     0
 91
        0
 40
0.0
 10
0.0
 20
0.0
 30
2.000000000000000E+50
 75
     0
  1
AcDbOsnapPointRef
 72
     1
331
52EF
 73
     0
 91
        0
 40
0.0
 10
0.0
 20
0.0
 30
2.000000000000000E+50
 75
     0
  0
DIMASSOC
  5
5310
102
{ACAD_REACTORS
330
530F
102
}
330
530F
100
AcDbDimAssoc
330
530E
 90
        3
 70
     0
 71
     0
  1
AcDbOsnapPointRef
 72
     1
331
52EF
 73
     0
 91
        0
 40
0.0
 10
0.0
 20
0.0
 30
2.000000000000000E+50
 75
     0
  1
AcDbOsnapPointRef
 72
     1
331
52EB
 73
     0
 91
        0
 40
0.0
 10
0.0
 20
0.0
 30
2.000000000000000E+50
 75
     0
  0
DIMASSOC
  5
5313
102
{ACAD_REACTORS
330
5312
102
}
330
5312
100
AcDbDimAssoc
330
5311
 90
        3
 70
     0
 71
     0
  1
AcDbOsnapPointRef
 72
     1
331
524A
 73
     0
 91
        0
 40
0.0
 10
0.0
 20
0.0
 30
2.000000000000000E+50
 75
     0
  1
AcDbOsnapPointRef
 72
     1
331
52EE
 73
     0
 91
        0
 40
0.0
 10
0.0
 20
0.0
 30
2.000000000000000E+50
 75
     0
  0
DIMASSOC
  5
5316
102
{ACAD_REACTORS
330
5315
102
}
330
5315
100
AcDbDimAssoc
330
5314
 90
        3
 70
     0
 71
     0
  1
AcDbOsnapPointRef
 72
     1
331
52F8
 73
     0
 91
        0
 40
0.0
 10
0.0
 20
0.0
 30
2.000000000000000E+50
 75
     0
  1
AcDbOsnapPointRef
 72
     1
331
52D8
 73
     0
 91
        0
 40
0.0
 10
0.0
 20
0.0
 30
2.000000000000000E+50
 75
     0
  0
DIMASSOC
  5
531D
102
{ACAD_REACTORS
330
531C
102
}
330
531C
100
AcDbDimAssoc
330
531B
 90
        3
 70
     0
 71
     0
  1
AcDbOsnapPointRef
 72
    13
331
529E
 73
     0
 91
        0
 40
0.0
 10
0.0
 20
0.0
 30
2.000000000000000E+50
 75
     0
  1
AcDbOsnapPointRef
 72
     1
331
5290
 73
     0
 91
        0
 40
0.0
 10
0.0
 20
0.0
 30
2.000000000000000E+50
 75
     0
  0
DIMASSOC
  5
5320
102
{ACAD_REACTORS
330
531F
102
}
330
531F
100
AcDbDimAssoc
330
531E
 90
        3
 70
     0
 71
     0
  1
AcDbOsnapPointRef
 72
     1
331
5297
 73
     0
 91
        0
 40
0.0
 10
0.0
 20
0.0
 30
2.000000000000000E+50
 75
     0
  1
AcDbOsnapPointRef
 72
     1
331
52A5
 73
     0
 91
        0
 40
0.0
 10
0.0
 20
0.0
 30
2.000000000000000E+50
 75
     0
  0
LAYOUT
  5
22
102
{ACAD_XDICTIONARY
360
56BB
102
}
102
{ACAD_REACTORS
330
1A
102
}
330
1A
100
AcDbPlotSettings
  1

  2
\\RD\EPSON Stylus C63 Series單色
  4
A4
  6

 40
3.757083177566528
 41
3.757076978683471
 42
3.757080078125
 43
3.757080078125
 44
209.9733276367187
 45
296.9683227539062
 46
0.0
 47
0.0
 48
0.0
 49
0.0
140
0.0
141
0.0
142
1.0
143
0.3405120737814363
 70
 11952
 72
     1
 73
     0
 74
     0
  7
彩色出圖.ctb
 75
     0
147
2.936753428137963
148
-2047.07469463503
149
-1261.649717473083
100
AcDbLayout
  1
Model
 70
     1
 71
     0
 10
0.0
 20
0.0
 11
12.0
 21
9.0
 12
0.0
 22
0.0
 32
0.0
 14
0.0
 24
0.0
 34
0.0
 15
0.0
 25
0.0
 35
0.0
146
0.0
 13
0.0
 23
0.0
 33
0.0
 16
1.0
 26
0.0
 36
0.0
 17
0.0
 27
1.0
 37
0.0
 76
     0
330
1F
1001
ACAD_PSEXT
1000
\\RD\EPSON Stylus C63 Series單色
1000
EPSON Stylus C63 Series
1000
\\RD
1000

1070
     0
  0
LAYOUT
  5
1E
102
{ACAD_XDICTIONARY
360
56B9
102
}
102
{ACAD_REACTORS
330
1A
102
}
330
1A
100
AcDbPlotSettings
  1

  2

  4

  6

 40
0.0
 41
0.0
 42
0.0
 43
0.0
 44
0.0
 45
0.0
 46
0.0
 47
0.0
 48
0.0
 49
0.0
140
0.0
141
0.0
142
1.0
143
1.0
 70
   688
 72
     0
 73
     0
 74
     5
  7
彩色出圖.ctb
 75
    16
147
1.0
148
0.0
149
0.0
100
AcDbLayout
  1
配置1
 70
     1
 71
     1
 10
0.0
 20
0.0
 11
420.0
 21
297.0
 12
0.0
 22
0.0
 32
0.0
 14
1.000000000000000E+20
 24
1.000000000000000E+20
 34
1.000000000000000E+20
 15
-1.000000000000000E+20
 25
-1.000000000000000E+20
 35
-1.000000000000000E+20
146
0.0
 13
0.0
 23
0.0
 33
0.0
 16
1.0
 26
0.0
 36
0.0
 17
0.0
 27
1.0
 37
0.0
 76
     0
330
1B
  0
LAYOUT
  5
26
102
{ACAD_XDICTIONARY
360
56BD
102
}
102
{ACAD_REACTORS
330
1A
102
}
330
1A
100
AcDbPlotSettings
  1

  2

  4

  6

 40
0.0
 41
0.0
 42
0.0
 43
0.0
 44
0.0
 45
0.0
 46
0.0
 47
0.0
 48
0.0
 49
0.0
140
0.0
141
0.0
142
1.0
143
1.0
 70
   688
 72
     0
 73
     0
 74
     5
  7
彩色出圖.ctb
 75
    16
147
1.0
148
0.0
149
0.0
100
AcDbLayout
  1
配置2
 70
     1
 71
     2
 10
0.0
 20
0.0
 11
12.0
 21
9.0
 12
0.0
 22
0.0
 32
0.0
 14
0.0
 24
0.0
 34
0.0
 15
0.0
 25
0.0
 35
0.0
146
0.0
 13
0.0
 23
0.0
 33
0.0
 16
1.0
 26
0.0
 36
0.0
 17
0.0
 27
1.0
 37
0.0
 76
     0
330
23
  0
MLINESTYLE
  5
18
102
{ACAD_REACTORS
330
17
102
}
330
17
100
AcDbMlineStyle
  2
STANDARD
 70
     0
  3

 62
   256
 51
90.0
 52
90.0
 71
     2
 49
0.5
 62
   256
  6
BYLAYER
 49
-0.5
 62
   256
  6
BYLAYER
  0
ACDBPLACEHOLDER
  5
F
102
{ACAD_REACTORS
330
E
102
}
330
E
  0
TABLESTYLE
  5
11B
102
{ACAD_REACTORS
330
11A
102
}
330
11A
100
AcDbTableStyle
  3
Standard
 70
     0
 71
     0
 40
1.5
 41
1.5
280
     0
281
     0
  7
STANDARD
140
4.5
170
     2
 62
     0
 63
     7
283
     0
274
    -2
284
     1
 64
     0
275
    -2
285
     1
 65
     0
276
    -2
286
     1
 66
     0
277
    -2
287
     1
 67
     0
278
    -2
288
     1
 68
     0
279
    -2
289
     1
 69
     0
  7
STANDARD
140
6.0
170
     5
 62
     0
 63
     7
283
     0
274
    -2
284
     1
 64
     0
275
    -2
285
     1
 65
     0
276
    -2
286
     1
 66
     0
277
    -2
287
     1
 67
     0
278
    -2
288
     1
 68
     0
279
    -2
289
     1
 69
     0
  7
STANDARD
140
4.5
170
     5
 62
     0
 63
     7
283
     0
274
    -2
284
     1
 64
     0
275
    -2
285
     1
 65
     0
276
    -2
286
     1
 66
     0
277
    -2
287
     1
 67
     0
278
    -2
288
     1
 68
     0
279
    -2
289
     1
 69
     0
  0
DICTIONARYVAR
  5
138
102
{ACAD_REACTORS
330
94
102
}
330
94
100
DictionaryVariables
280
     0
  1
STANDARD
  0
DICTIONARYVAR
  5
96
102
{ACAD_REACTORS
330
94
102
}
330
94
100
DictionaryVariables
280
     0
  1
2
  0
DICTIONARYVAR
  5
95
102
{ACAD_REACTORS
330
94
102
}
330
94
100
DictionaryVariables
280
     0
  1
0
  0
DICTIONARYVAR
  5
56B5
102
{ACAD_REACTORS
330
94
102
}
330
94
100
DictionaryVariables
280
     0
  1

  0
DICTIONARY
  5
1B5
102
{ACAD_REACTORS
330
5B
102
}
330
5B
100
AcDbDictionary
281
     1
  0
DICTIONARY
  5
61
102
{ACAD_REACTORS
330
5B
102
}
330
5B
100
AcDbDictionary
281
     1
  0
XRECORD
  5
123
102
{ACAD_REACTORS
330
5B
102
}
330
5B
100
AcDbXrecord
280
     1
 90
-1023410169
  0
DICTIONARY
  5
56BB
330
22
100
AcDbDictionary
280
     1
281
     1
  3
ACAD_XREC_ROUNDTRIP
360
56BC
  0
DICTIONARY
  5
56B9
330
1E
100
AcDbDictionary
280
     1
281
     1
  3
ACAD_XREC_ROUNDTRIP
360
56BA
  0
DICTIONARY
  5
56BD
330
26
100
AcDbDictionary
280
     1
281
     1
  3
ACAD_XREC_ROUNDTRIP
360
56BE
  0
XRECORD
  5
56BC
102
{ACAD_REACTORS
330
56BB
102
}
330
56BB
100
AcDbXrecord
280
     1
102
SHADEPLOT
 70
     0
102
SHADEPLOTRESLEVEL
 70
     2
102
SHADEPLOTCUSTOMDPI
 70
   300
  0
XRECORD
  5
56BA
102
{ACAD_REACTORS
330
56B9
102
}
330
56B9
100
AcDbXrecord
280
     1
102
SHADEPLOT
 70
     0
102
SHADEPLOTRESLEVEL
 70
     2
102
SHADEPLOTCUSTOMDPI
 70
   300
  0
XRECORD
  5
56BE
102
{ACAD_REACTORS
330
56BD
102
}
330
56BD
100
AcDbXrecord
280
     1
102
SHADEPLOT
 70
     0
102
SHADEPLOTRESLEVEL
 70
     2
102
SHADEPLOTCUSTOMDPI
 70
   300
  0
ENDSEC
  0
EOF
