  0
SECTION
  2
HEADER
  9
$ACADVER
  1
AC1015
  9
$ACADMAINTVER
 70
    20
  9
$DWGCODEPAGE
  3
ANSI_950
  9
$INSBASE
 10
0.0
 20
0.0
 30
0.0
  9
$EXTMIN
 10
133.640443027998
 20
272.1110240516352
 30
-0.0019983784608257
  9
$EXTMAX
 10
333.687745018033
 20
483.6496146572671
 30
131.0597259694776
  9
$LIMMIN
 10
0.0
 20
0.0
  9
$LIMMAX
 10
420.0
 20
297.0
  9
$ORTHOMODE
 70
     1
  9
$REGENMODE
 70
     1
  9
$FILLMODE
 70
     1
  9
$QTEXTMODE
 70
     0
  9
$MIRRTEXT
 70
     1
  9
$LTSCALE
 40
1.0
  9
$ATTMODE
 70
     1
  9
$TEXTSIZE
 40
3.0
  9
$TRACEWID
 40
1.0
  9
$TEXTSTYLE
  7
STANDARD
  9
$CLAYER
  8
0
  9
$CELTYPE
  6
ByLayer
  9
$CECOLOR
 62
   256
  9
$CELTSCALE
 40
1.0
  9
$DISPSILH
 70
     0
  9
$DIMSCALE
 40
1.0
  9
$DIMASZ
 40
3.0
  9
$DIMEXO
 40
1.0
  9
$DIMDLI
 40
8.0
  9
$DIMRND
 40
0.0
  9
$DIMDLE
 40
0.0
  9
$DIMEXE
 40
1.5
  9
$DIMTP
 40
0.1
  9
$DIMTM
 40
0.1
  9
$DIMTXT
 40
3.5
  9
$DIMCEN
 40
0.0
  9
$DIMTSZ
 40
0.0
  9
$DIMTOL
 70
     0
  9
$DIMLIM
 70
     0
  9
$DIMTIH
 70
     0
  9
$DIMTOH
 70
     0
  9
$DIMSE1
 70
     0
  9
$DIMSE2
 70
     0
  9
$DIMTAD
 70
     1
  9
$DIMZIN
 70
     8
  9
$DIMBLK
  1

  9
$DIMASO
 70
     1
  9
$DIMSHO
 70
     1
  9
$DIMPOST
  1

  9
$DIMAPOST
  1
"
  9
$DIMALT
 70
     0
  9
$DIMALTD
 70
     2
  9
$DIMALTF
 40
0.0393701
  9
$DIMLFAC
 40
1.0
  9
$DIMTOFL
 70
     1
  9
$DIMTVP
 40
0.0
  9
$DIMTIX
 70
     0
  9
$DIMSOXD
 70
     0
  9
$DIMSAH
 70
     0
  9
$DIMBLK1
  1

  9
$DIMBLK2
  1

  9
$DIMSTYLE
  2
AM_ISO
  9
$DIMCLRD
 70
   256
  9
$DIMCLRE
 70
   256
  9
$DIMCLRT
 70
   256
  9
$DIMTFAC
 40
0.6
  9
$DIMGAP
 40
0.7
  9
$DIMJUST
 70
     0
  9
$DIMSD1
 70
     0
  9
$DIMSD2
 70
     0
  9
$DIMTOLJ
 70
     0
  9
$DIMTZIN
 70
     8
  9
$DIMALTZ
 70
     0
  9
$DIMALTTZ
 70
     0
  9
$DIMUPT
 70
     0
  9
$DIMDEC
 70
     2
  9
$DIMTDEC
 70
     8
  9
$DIMALTU
 70
     2
  9
$DIMALTTD
 70
     2
  9
$DIMTXSTY
  7
STANDARD
  9
$DIMAUNIT
 70
     0
  9
$DIMADEC
 70
     0
  9
$DIMALTRND
 40
0.0
  9
$DIMAZIN
 70
     2
  9
$DIMDSEP
 70
    46
  9
$DIMATFIT
 70
     3
  9
$DIMFRAC
 70
     0
  9
$DIMLDRBLK
  1

  9
$DIMLUNIT
 70
     2
  9
$DIMLWD
 70
    -1
  9
$DIMLWE
 70
    -1
  9
$DIMTMOVE
 70
     0
  9
$LUNITS
 70
     2
  9
$LUPREC
 70
     2
  9
$SKETCHINC
 40
1.0
  9
$FILLETRAD
 40
2.5
  9
$AUNITS
 70
     0
  9
$AUPREC
 70
     0
  9
$MENU
  1
.
  9
$ELEVATION
 40
0.0
  9
$PELEVATION
 40
0.0
  9
$THICKNESS
 40
0.0
  9
$LIMCHECK
 70
     0
  9
$CHAMFERA
 40
0.0
  9
$CHAMFERB
 40
0.0
  9
$CHAMFERC
 40
20.0
  9
$CHAMFERD
 40
0.0
  9
$SKPOLY
 70
     0
  9
$TDCREATE
 40
2454097.385877268
  9
$TDUCREATE
 40
2454097.052543935
  9
$TDUPDATE
 40
2454097.695992651
  9
$TDUUPDATE
 40
2454097.362659317
  9
$TDINDWG
 40
0.1126779630
  9
$TDUSRTIMER
 40
0.1126779630
  9
$USRTIMER
 70
     1
  9
$ANGBASE
 50
0.0
  9
$ANGDIR
 70
     0
  9
$PDMODE
 70
     0
  9
$PDSIZE
 40
0.0
  9
$PLINEWID
 40
0.0
  9
$SPLFRAME
 70
     0
  9
$SPLINETYPE
 70
     6
  9
$SPLINESEGS
 70
     8
  9
$HANDSEED
  5
5C99
  9
$SURFTAB1
 70
     6
  9
$SURFTAB2
 70
     6
  9
$SURFTYPE
 70
     6
  9
$SURFU
 70
     6
  9
$SURFV
 70
     6
  9
$UCSBASE
  2

  9
$UCSNAME
  2

  9
$UCSORG
 10
0.0
 20
0.0
 30
0.0
  9
$UCSXDIR
 10
1.0
 20
0.0
 30
0.0
  9
$UCSYDIR
 10
0.0
 20
1.0
 30
0.0
  9
$UCSORTHOREF
  2

  9
$UCSORTHOVIEW
 70
     0
  9
$UCSORGTOP
 10
0.0
 20
0.0
 30
0.0
  9
$UCSORGBOTTOM
 10
0.0
 20
0.0
 30
0.0
  9
$UCSORGLEFT
 10
0.0
 20
0.0
 30
0.0
  9
$UCSORGRIGHT
 10
0.0
 20
0.0
 30
0.0
  9
$UCSORGFRONT
 10
0.0
 20
0.0
 30
0.0
  9
$UCSORGBACK
 10
0.0
 20
0.0
 30
0.0
  9
$PUCSBASE
  2

  9
$PUCSNAME
  2

  9
$PUCSORG
 10
0.0
 20
0.0
 30
0.0
  9
$PUCSXDIR
 10
1.0
 20
0.0
 30
0.0
  9
$PUCSYDIR
 10
0.0
 20
1.0
 30
0.0
  9
$PUCSORTHOREF
  2

  9
$PUCSORTHOVIEW
 70
     0
  9
$PUCSORGTOP
 10
0.0
 20
0.0
 30
0.0
  9
$PUCSORGBOTTOM
 10
0.0
 20
0.0
 30
0.0
  9
$PUCSORGLEFT
 10
0.0
 20
0.0
 30
0.0
  9
$PUCSORGRIGHT
 10
0.0
 20
0.0
 30
0.0
  9
$PUCSORGFRONT
 10
0.0
 20
0.0
 30
0.0
  9
$PUCSORGBACK
 10
0.0
 20
0.0
 30
0.0
  9
$USERI1
 70
     0
  9
$USERI2
 70
     0
  9
$USERI3
 70
     0
  9
$USERI4
 70
     0
  9
$USERI5
 70
     0
  9
$USERR1
 40
0.0
  9
$USERR2
 40
0.0
  9
$USERR3
 40
0.0
  9
$USERR4
 40
0.0
  9
$USERR5
 40
0.0
  9
$WORLDVIEW
 70
     1
  9
$SHADEDGE
 70
     3
  9
$SHADEDIF
 70
    70
  9
$TILEMODE
 70
     1
  9
$MAXACTVP
 70
    64
  9
$PINSBASE
 10
0.0
 20
0.0
 30
0.0
  9
$PLIMCHECK
 70
     0
  9
$PEXTMIN
 10
1.000000000000000E+20
 20
1.000000000000000E+20
 30
1.000000000000000E+20
  9
$PEXTMAX
 10
-1.000000000000000E+20
 20
-1.000000000000000E+20
 30
-1.000000000000000E+20
  9
$PLIMMIN
 10
0.0
 20
0.0
  9
$PLIMMAX
 10
420.0
 20
297.0
  9
$UNITMODE
 70
     0
  9
$VISRETAIN
 70
     1
  9
$PLINEGEN
 70
     0
  9
$PSLTSCALE
 70
     1
  9
$TREEDEPTH
 70
  3020
  9
$CMLSTYLE
  2
Standard
  9
$CMLJUST
 70
     0
  9
$CMLSCALE
 40
20.0
  9
$PROXYGRAPHICS
 70
     1
  9
$MEASUREMENT
 70
     1
  9
$CELWEIGHT
370
    -1
  9
$ENDCAPS
280
     0
  9
$JOINSTYLE
280
     0
  9
$LWDISPLAY
290
     0
  9
$INSUNITS
 70
     4
  9
$HYPERLINKBASE
  1

  9
$STYLESHEET
  1
彩色出圖.ctb
  9
$XEDIT
290
     1
  9
$CEPSNTYPE
380
     0
  9
$PSTYLEMODE
290
     1
  9
$FINGERPRINTGUID
  2
{EDA54BE1-F2ED-45D5-B6AB-060729E09D95}
  9
$VERSIONGUID
  2
{51408C64-BD2D-46DB-9BB3-0425A567AF01}
  9
$EXTNAMES
290
     1
  9
$PSVPSCALE
 40
0.0
  9
$OLESTARTUP
290
     0
  0
ENDSEC
  0
SECTION
  2
CLASSES
  0
CLASS
  1
ACDBDICTIONARYWDFLT
  2
AcDbDictionaryWithDefault
  3
ObjectDBX Classes
 90
        0
280
     0
281
     0
  0
CLASS
  1
ACDBPLACEHOLDER
  2
AcDbPlaceHolder
  3
ObjectDBX Classes
 90
        0
280
     0
281
     0
  0
CLASS
  1
LAYOUT
  2
AcDbLayout
  3
ObjectDBX Classes
 90
        0
280
     0
281
     0
  0
CLASS
  1
ACME_DOCUMENT
  2
AcMeDbDoc
  3
AcMeServices
 90
        0
280
     0
281
     0
  0
CLASS
  1
AMGSETTINGSOBJ
  2
AmgSettingsObj
  3
"AcadM|Product Description: AutoCAD Mechanical 2000|Company: Autodesk"
 90
        0
280
     0
281
     0
  0
CLASS
  1
ACMESCOPE
  2
AcMeScope
  3
AcMeServices
 90
        0
280
     0
281
     0
  0
CLASS
  1
ACMECOMMANDHISTORY
  2
AcMeCommandHistory
  3
AcMeServices
 90
        0
280
     0
281
     0
  0
CLASS
  1
ACIMSYSVARMAN
  2
AcImSysVarManager
  3
AcMeServices
 90
        0
280
     0
281
     0
  0
CLASS
  1
ACIMREALSYSVAR
  2
AcImRealSysVar
  3
AcMeServices
 90
        0
280
     0
281
     0
  0
CLASS
  1
ACIMINTSYSVAR
  2
AcImIntSysVar
  3
AcMeServices
 90
        0
280
     0
281
     0
  0
CLASS
  1
ACMEDRAWINGMAN
  2
AcMeDrawingMan
  3
AcMeServices
 90
        0
280
     0
281
     0
  0
CLASS
  1
ACMEVIEW
  2
AcMeView
  3
AcMeServices
 90
        0
280
     0
281
     0
  0
CLASS
  1
ACDBENTITYCACHE
  2
AcMeEntityCache
  3
AcMeServices
 90
        0
280
     0
281
     0
  0
CLASS
  1
GSMANAGER
  2
AcMeGSManager
  3
AcMeServices
 90
        0
280
     0
281
     0
  0
CLASS
  1
AMDTINTERNALREACTOR
  2
AmdtInternalReactor
  3
AcMeServices
 90
        0
280
     0
281
     0
  0
CLASS
  1
ACMESTATEMGR
  2
AcMeStateMgr
  3
AcMeServices
 90
        0
280
     0
281
     0
  0
CLASS
  1
ACGREFMASTER
  2
AcGrefMaster
  3
AcAttribServices
 90
        0
280
     0
281
     0
  0
CLASS
  1
ACME_DATABASE
  2
AcMeDbDatabase
  3
AcMeServices
 90
        0
280
     0
281
     0
  0
CLASS
  1
ACRFINSADJUSTERMGR
  2
AcRfInsAdjusterMgr
  3
AcMeServices
 90
        0
280
     0
281
     0
  0
CLASS
  1
ACGREFACADMASTER
  2
AcGrefacadMaster
  3
AcGrefServices
 90
        0
280
     0
281
     0
  0
CLASS
  1
AMIMASTER
  2
AmiMaster
  3
AmiServices
 90
        0
280
     0
281
     0
  0
CLASS
  1
ACMDATADICTIONARY
  2
AcmDataDictionary
  3
"AcmSymBB|Product Description: AutoCAD Mechanical 2004 DX|Company: Autodesk"
 90
        0
280
     0
281
     0
  0
CLASS
  1
ACMDATAENTRYBLOCK
  2
AcmDataEntryBlock
  3
"AcmSymBB|Product Description: AutoCAD Mechanical 2004 DX|Company: Autodesk"
 90
        0
280
     0
281
     0
  0
CLASS
  1
ACIMSTRSYSVAR
  2
AcImStrSysVar
  3
AcMeServices
 90
        0
280
     0
281
     0
  0
CLASS
  1
ACMSTANDARDISO
  2
AcmStandardISO
  3
"Amdt_StdImp|Product Description: AutoCAD Mechanical 2004 DX|Company: Autodesk"
 90
        0
280
     0
281
     0
  0
CLASS
  1
AMGOBJPROPCFG
  2
AmgObjPropCfg
  3
"AmgLay|Product Description: AutoCAD Mechanical 2000|Company: Autodesk"
 90
        1
280
     0
281
     0
  0
CLASS
  1
AMDTEDGESTANDARDISO
  2
AmdtEdgeStdISO
  3
"Amdt_StdImp|Product Description: AutoCAD Mechanical 2004 DX|Company: Autodesk"
 90
        0
280
     0
281
     0
  0
CLASS
  1
ACMSURFSTANDARDISO
  2
AcmSurfTextStdISO
  3
"Amdt_StdImp|Product Description: AutoCAD Mechanical 2004 DX|Company: Autodesk"
 90
        0
280
     0
281
     0
  0
CLASS
  1
ACMFCFSTANDARDISO
  2
AcmFCFStdISO
  3
"Amdt_StdImp|Product Description: AutoCAD Mechanical 2004 DX|Company: Autodesk"
 90
        0
280
     0
281
     0
  0
CLASS
  1
ACMWELDSTANDARDISO
  2
AcmWeldingStdISO
  3
"Amdt_StdImp|Product Description: AutoCAD Mechanical 2004 DX|Company: Autodesk"
 90
        0
280
     0
281
     0
  0
CLASS
  1
ACMIDSTANDARDISO
  2
AcmIdStdISO
  3
"Amdt_StdImp|Product Description: AutoCAD Mechanical 2004 DX|Company: Autodesk"
 90
        0
280
     0
281
     0
  0
CLASS
  1
ACMDATUMSTANDARDISO
  2
AcmDatumStdISO
  3
"Amdt_StdImp|Product Description: AutoCAD Mechanical 2004 DX|Company: Autodesk"
 90
        0
280
     0
281
     0
  0
CLASS
  1
ACMBOMSTANDARDISO
  2
AcmBOMStdISO
  3
"Amdt_StdImp|Product Description: AutoCAD Mechanical 2004 DX|Company: Autodesk"
 90
        0
280
     0
281
     0
  0
CLASS
  1
ACMDETAILSTANDARDISO
  2
AmdtDetailSymStdISO
  3
"Amdt_StdImp|Product Description: AutoCAD Mechanical 2004 DX|Company: Autodesk"
 90
        0
280
     0
281
     0
  0
CLASS
  1
ACMSECTIONSTANDARDISO
  2
AmdtSectionSymStdISO
  3
"Amdt_StdImp|Product Description: AutoCAD Mechanical 2004 DX|Company: Autodesk"
 90
        0
280
     0
281
     0
  0
CLASS
  1
ACMCENTERLINESTANDARDISO
  2
AmdtCenterLineStdISO
  3
"Amdt_StdImp|Product Description: AutoCAD Mechanical 2004 DX|Company: Autodesk"
 90
        0
280
     0
281
     0
  0
CLASS
  1
ACMNOTESTANDARDISO
  2
AmdtNoteStdISO
  3
"Amdt_StdImp|Product Description: AutoCAD Mechanical 2004 DX|Company: Autodesk"
 90
        0
280
     0
281
     0
  0
CLASS
  1
ACAMGLAYSTD
  2
AcAmgLayStd
  3
"AcAmgLayStd|Product Description: AutoCAD Mechanical 2000|Company: Autodesk"
 90
        0
280
     0
281
     0
  0
CLASS
  1
ACAMGDIMSTD
  2
AcAmgDimStd
  3
"AcAmgDimStd|Product Description: AutoCAD Mechanical 2000|Company: Autodesk"
 90
        0
280
     0
281
     0
  0
CLASS
  1
ACAMGHOLECHARTSTDISO
  2
AcAmgHoleChartStdISO
  3
ACMSYMBB_MODULE_NAME
 90
        0
280
     0
281
     0
  0
CLASS
  1
ACAMGTITLESTD
  2
AcAmgTitleStd
  3
"TITLEAPP"
 90
        0
280
     0
281
     0
  0
CLASS
  1
LAYER_INDEX
  2
AcDbLayerIndex
  3
ObjectDBX Classes
 90
    32768
280
     0
281
     0
  0
CLASS
  1
IDBUFFER
  2
AcDbIdBuffer
  3
ObjectDBX Classes
 90
    32768
280
     0
281
     0
  0
CLASS
  1
DICTIONARYVAR
  2
AcDbDictionaryVar
  3
ObjectDBX Classes
 90
        0
280
     0
281
     0
  0
CLASS
  1
AM_DRAWING_MGR
  2
AcDmDwgMgr
  3
AcMechDwgViewMgmt
 90
        0
280
     0
281
     0
  0
CLASS
  1
AM_DWG_DOCUMENT
  2
AcDmDwgDocument
  3
AcMechDwgViewMgmt
 90
        0
280
     0
281
     0
  0
CLASS
  1
AM_DWG_SHEET
  2
AcDmSheet
  3
AcMechDwgViewMgmt
 90
        0
280
     0
281
     0
  0
CLASS
  1
AM_VIEWDIMPARMAP
  2
AcDmViewDimParMap
  3
AcMechDwgViewMgmt
 90
        0
280
     0
281
     0
  0
CLASS
  1
AM_DWGMGR_NAME
  2
AcDmDwgMgrName
  3
AcMechDwgViewMgmt
 90
        0
280
     0
281
     0
  0
CLASS
  1
AMDTMENUSTATEMGR
  2
AmdtMenuStateMgr
  3
McadcomServices
 90
        0
280
     0
281
     0
  0
CLASS
  1
AMDTMCOMMENUSTATE
  2
AmdtMcomMenuState
  3
McadcomServices
 90
        0
280
     0
281
     0
  0
CLASS
  1
MAPIAMMOUDLE
  2
MApiAmModule
  3
MApiAmServices
 90
        0
280
     0
281
     0
  0
CLASS
  1
AMDTADMENUSTATE
  2
AmdtAdMenuState
  3
DesignerServices
 90
        0
280
     0
281
     0
  0
CLASS
  1
ADAPPL
  2
AcAdAppl
  3
DesignerServices
 90
        0
280
     0
281
     0
  0
CLASS
  1
DEPMGR
  2
AcAdDepMgr
  3
DesignerServices
 90
        0
280
     0
281
     0
  0
CLASS
  1
PARAMMGR
  2
AcAdParamMgr
  3
DesignerServices
 90
        0
280
     0
281
     0
  0
CLASS
  1
PARAMSCOPE
  2
AcAdParamScope
  3
DesignerServices
 90
        0
280
     0
281
     0
  0
CLASS
  1
NAMEDAPPL
  2
AcAdNamedAppl
  3
DesignerServices
 90
        0
280
     0
281
     0
  0
CLASS
  1
AMDTDMMENUSTATE
  2
AmdtDmMenuState
  3
AcMechDwgViewMgmt
 90
        0
280
     0
281
     0
  0
CLASS
  1
AMDTAMMENUSTATE
  2
AmdtAmMenuState
  3
DesignerAssemblies
 90
        0
280
     0
281
     0
  0
CLASS
  1
ACAMPROJECT
  2
AcAmProject
  3
DesignerAssemblies
 90
        0
280
     0
281
     0
  0
CLASS
  1
ACAMGRCOMPDEF
  2
AcAmGrCompDef
  3
DesignerAssemblies
 90
        0
280
     0
281
     0
  0
CLASS
  1
ACCMCONTEXT
  2
AcCmContext
  3
DesignerAssemblies
 90
        0
280
     0
281
     0
  0
CLASS
  1
ACAMCOMPDEF
  2
AcAmCompDef
  3
DesignerAssemblies
 90
        0
280
     0
281
     0
  0
CLASS
  1
ACAMCOMPDEFMGR
  2
AcAmCompDefMgr
  3
DesignerAssemblies
 90
        0
280
     0
281
     0
  0
CLASS
  1
AMCONTEXTMGR
  2
AcAmContextMgr
  3
DesignerAssemblies
 90
        0
280
     0
281
     0
  0
CLASS
  1
ACAMCONTEXTMODELER
  2
AcAmContextModeler
  3
DesignerAssemblies
 90
        0
280
     0
281
     0
  0
CLASS
  1
ACMTHREADLINESTANDARDISO
  2
AmdtThreadLineStdISO
  3
"Amdt_StdImp|Product Description: AutoCAD Mechanical 2004 DX|Company: Autodesk"
 90
        0
280
     0
281
     0
  0
CLASS
  1
CATALOGSTATE
  2
AcAmCatalogState
  3
DesignerAssemblies
 90
        0
280
     0
281
     0
  0
CLASS
  1
ACAMGRCOMPDEFSET
  2
AcAmGrCompDefSet
  3
DesignerAssemblies
 90
        0
280
     0
281
     0
  0
CLASS
  1
AMDTBROWSERDBTAB
  2
AmdtBrowserDbTab
  3
McadcomServices
 90
        0
280
     0
281
     0
  0
CLASS
  1
CBROWSERAPPOBJECT
  2
CBrowserAppObject
  3
McadcomServices
 90
        0
280
     0
281
     0
  0
CLASS
  1
DM_PLACEHOLDER
  2
AcDmSelsetPlaceholder
  3
AcMechDwgViewMgmt
 90
        0
280
     0
281
     0
  0
CLASS
  1
TABLESTYLE
  2
AcDbTableStyle
  3
ObjectDBX Classes
 90
     2047
280
     0
281
     0
  0
CLASS
  1
VAACXREFPANELOBJECT
  2
VaAcXREFPanelObject
  3
VAAC_ADDIN
 90
    32768
280
     0
281
     0
  0
CLASS
  1
VAACIMAGEINVENTORY
  2
VaAcImageInventory
  3
VAAC_ADDIN
 90
    32768
280
     0
281
     0
  0
CLASS
  1
AMDTNOTETEMPLATEDB
  2
AmdtNoteTemplateDB
  3
AMDT_STDIMP_MODULE_NAME
 90
        0
280
     0
281
     0
  0
CLASS
  1
ACMBOM
  2
AcmBom
  3
"AcmSymBB|Product Description: AutoCAD Mechanical 2004 DX|Company: Autodesk"
 90
    32768
280
     0
281
     0
  0
CLASS
  1
AMDTFORMULAUPDATEDISPATCHER
  2
AmdtFormulaUpdateDispatcher
  3
AcMeServices
 90
    32768
280
     0
281
     0
  0
CLASS
  1
ACMPARTLIST
  2
AcmPartList
  3
"AcmSymBB|Product Description: AutoCAD Mechanical 2004 DX|Company: Autodesk"
 90
    33791
280
     0
281
     1
  0
CLASS
  1
ACAMGFILTERDAT
  2
AcAmgFilterDat
  3
"AcadM|Product Description: AutoCAD Mechanical 2000|Company: Autodesk"
 90
        0
280
     0
281
     0
  0
CLASS
  1
DIMASSOC
  2
AcDbDimAssoc
  3
"AcDbDimAssoc|Product Desc:     AcDim ARX App For Dimension|Company:          Autodesk, Inc.|WEB Address:      www.autodesk.com"
 90
        0
280
     0
281
     0
  0
CLASS
  1
STDPART2D
  2
AmgStdPart
  3
"AmgStdPart|Product Description: AutoCAD Mechanical 2000|Company: Autodesk"
 90
    33791
280
     0
281
     1
  0
CLASS
  1
ACAMSTDPCOMPDEF
  2
AcAmStdpCompDef
  3
DesignerAssemblies
 90
    32768
280
     0
281
     0
  0
CLASS
  1
ACRFATTGENMGR
  2
AcRfAttGeneralMgr
  3
AcAttribServices
 90
        0
280
     0
281
     0
  0
CLASS
  1
ACRFOBJATTMGR
  2
AcRfObjAttGroupMgr
  3
AcAttribServices
 90
    32768
280
     0
281
     0
  0
CLASS
  1
ACRFMCADAPIATTHOLDER
  2
AcRfMCADAPIAttHolder
  3
AcAttribServices
 90
    32768
280
     0
281
     0
  0
CLASS
  1
AMDTSYSATTR
  2
AmdtSystemAttribute
  3
AcAttribServices
 90
    32768
280
     0
281
     0
  0
CLASS
  1
ACAMCOMP
  2
AcAmComp
  3
DesignerAssemblies
 90
    32768
280
     0
281
     0
  0
CLASS
  1
AC_AM_STDP_VIEW_DEF
  2
AcAmStdpViewDef
  3
DesignerAssemblies
 90
    32768
280
     0
281
     0
  0
CLASS
  1
AC_AM_MVD_DEP_MGR
  2
AcAmMVDdepMgr
  3
DesignerAssemblies
 90
        0
280
     0
281
     0
  0
CLASS
  1
AC_AM_MASTER_VIEW_DEF
  2
AcAmMasterViewDef
  3
DesignerAssemblies
 90
        0
280
     0
281
     0
  0
CLASS
  1
AC_AM_DIRTY_NODES
  2
AcAmDirtyNodes
  3
DesignerAssemblies
 90
        0
280
     0
281
     0
  0
CLASS
  1
AC_AM_MAPPER_CACHE
  2
AcAmMapperCache
  3
DesignerAssemblies
 90
        0
280
     0
281
     0
  0
CLASS
  1
ACAMMVDBACKUPOBJECT
  2
AcAmMVDBackupObject
  3
DesignerAssemblies
 90
        0
280
     0
281
     0
  0
CLASS
  1
AC_AM_COMP_VIEW_INST
  2
AcAmCompView
  3
DesignerAssemblies
 90
    32768
280
     0
281
     0
  0
CLASS
  1
AC_AM_2D_XREF_MGR
  2
AcAmXrefMgr2d
  3
DesignerAssemblies
 90
        0
280
     0
281
     0
  0
CLASS
  1
SORTENTSTABLE
  2
AcDbSortentsTable
  3
ObjectDBX Classes
 90
        0
280
     0
281
     0
  0
CLASS
  1
AMDTNOTE
  2
AmdtNote
  3
"AcmSymBB|Product Description: AutoCAD Mechanical 2004 DX|Company: Autodesk"
 90
     1023
280
     0
281
     1
  0
CLASS
  1
AC_AM_HIDE_SITUATION
  2
AcAmHideSituation
  3
DesignerAssemblies
 90
    32768
280
     0
281
     0
  0
CLASS
  1
ACMSTANDARDANSI
  2
AcmStandardANSI
  3
"Amdt_StdImp|Product Description: AutoCAD Mechanical 2004 DX|Company: Autodesk"
 90
        0
280
     0
281
     0
  0
CLASS
  1
ACMSURFSTANDARDANSI
  2
AcmSurfTextStdANSI
  3
"Amdt_StdImp|Product Description: AutoCAD Mechanical 2004 DX|Company: Autodesk"
 90
        0
280
     0
281
     0
  0
CLASS
  1
ACMFCFSTANDARDANSI
  2
AcmFCFStdANSI
  3
"Amdt_StdImp|Product Description: AutoCAD Mechanical 2004 DX|Company: Autodesk"
 90
        0
280
     0
281
     0
  0
CLASS
  1
ACMWELDSTANDARDANSI
  2
AcmWeldingStdANSI
  3
"Amdt_StdImp|Product Description: AutoCAD Mechanical 2004 DX|Company: Autodesk"
 90
        0
280
     0
281
     0
  0
CLASS
  1
ACMIDSTANDARDANSI
  2
AcmIdStdANSI
  3
"Amdt_StdImp|Product Description: AutoCAD Mechanical 2004 DX|Company: Autodesk"
 90
        0
280
     0
281
     0
  0
CLASS
  1
ACMDATUMSTANDARDANSI
  2
AcmDatumStdANSI
  3
"Amdt_StdImp|Product Description: AutoCAD Mechanical 2004 DX|Company: Autodesk"
 90
        0
280
     0
281
     0
  0
CLASS
  1
ACMBOMSTANDARDANSI
  2
AcmBOMStdANSI
  3
"Amdt_StdImp|Product Description: AutoCAD Mechanical 2004 DX|Company: Autodesk"
 90
        0
280
     0
281
     0
  0
CLASS
  1
ACMDETAILSTANDARDANSI
  2
AmdtDetailSymStdANSI
  3
"Amdt_StdImp|Product Description: AutoCAD Mechanical 2004 DX|Company: Autodesk"
 90
        0
280
     0
281
     0
  0
CLASS
  1
ACMSECTIONSTANDARDANSI
  2
AmdtSectionSymStdANSI
  3
"Amdt_StdImp|Product Description: AutoCAD Mechanical 2004 DX|Company: Autodesk"
 90
        0
280
     0
281
     0
  0
CLASS
  1
ACMCENTERLINESTANDARDANSI
  2
AmdtCenterLineStdANSI
  3
"Amdt_StdImp|Product Description: AutoCAD Mechanical 2004 DX|Company: Autodesk"
 90
        0
280
     0
281
     0
  0
CLASS
  1
ACMTHREADLINESTANDARDANSI
  2
AmdtThreadLineStdANSI
  3
"Amdt_StdImp|Product Description: AutoCAD Mechanical 2004 DX|Company: Autodesk"
 90
        0
280
     0
281
     0
  0
CLASS
  1
ACMNOTESTANDARDANSI
  2
AmdtNoteStdANSI
  3
"Amdt_StdImp|Product Description: AutoCAD Mechanical 2004 DX|Company: Autodesk"
 90
        0
280
     0
281
     0
  0
CLASS
  1
ACAMGHOLECHARTSTDANSI
  2
AcAmgHoleChartStdANSI
  3
ACMSYMBB_MODULE_NAME
 90
        0
280
     0
281
     0
  0
ENDSEC
  0
SECTION
  2
TABLES
  0
TABLE
  2
VPORT
  5
8
330
0
100
AcDbSymbolTable
 70
     3
  0
VPORT
  5
5C90
330
8
100
AcDbSymbolTableRecord
100
AcDbViewportTableRecord
  2
*Active
 70
     0
 10
0.0
 20
0.0
 11
1.0
 21
1.0
 12
233.6640940230154
 22
377.884136521366
 13
0.0
 23
0.0
 14
2.5
 24
2.5
 15
10.0
 25
10.0
 16
0.0
 26
0.0
 36
1.0
 17
0.0
 27
0.0
 37
0.0
 40
213.2162945168583
 41
1.609210526315789
 42
50.0
 43
0.0
 44
0.0
 50
0.0
 51
0.0
 71
     0
 72
   100
 73
     1
 74
     0
 75
     0
 76
     0
 77
     0
 78
     0
281
     0
 65
     1
110
0.0
120
0.0
130
0.0
111
1.0
121
0.0
131
0.0
112
0.0
122
1.0
132
0.0
 79
     0
146
0.0
  0
ENDTAB
  0
TABLE
  2
LTYPE
  5
5
330
0
100
AcDbSymbolTable
 70
    16
  0
LTYPE
  5
14
330
5
100
AcDbSymbolTableRecord
100
AcDbLinetypeTableRecord
  2
ByBlock
 70
     0
  3

 72
    65
 73
     0
 40
0.0
  0
LTYPE
  5
15
330
5
100
AcDbSymbolTableRecord
100
AcDbLinetypeTableRecord
  2
ByLayer
 70
     0
  3

 72
    65
 73
     0
 40
0.0
  0
LTYPE
  5
16
330
5
100
AcDbSymbolTableRecord
100
AcDbLinetypeTableRecord
  2
Continuous
 70
     0
  3
Solid line
 72
    65
 73
     0
 40
0.0
  0
LTYPE
  5
64
330
5
100
AcDbSymbolTableRecord
100
AcDbLinetypeTableRecord
  2
AM_ISO02W050
 70
     0
  3
__ __ __ __ __ __ __ __ __ __ __ __ __ __ __
 72
    65
 73
     2
 40
7.5
 49
6.0
 74
     0
 49
-1.5
 74
     0
  0
LTYPE
  5
65
330
5
100
AcDbSymbolTableRecord
100
AcDbLinetypeTableRecord
  2
AM_ISO08W050
 70
     0
  3
____ . ____ . ____ . ____ . ____ . ____ . ____
 72
    65
 73
     4
 40
18.0
 49
12.0
 74
     0
 49
-1.5
 74
     0
 49
3.0
 74
     0
 49
-1.5
 74
     0
  0
LTYPE
  5
66
330
5
100
AcDbSymbolTableRecord
100
AcDbLinetypeTableRecord
  2
AM_ISO09W050
 70
     0
  3
_____ . . _____ . . _____ . . ____ .. ____
 72
    65
 73
     6
 40
22.5
 49
12.0
 74
     0
 49
-1.5
 74
     0
 49
3.0
 74
     0
 49
-1.5
 74
     0
 49
3.0
 74
     0
 49
-1.5
 74
     0
  0
LTYPE
  5
67
330
5
100
AcDbSymbolTableRecord
100
AcDbLinetypeTableRecord
  2
Amconstr
 70
     0
  3
_______________________
 72
    65
 73
     2
 40
9999.0
 49
9999.0
 74
     0
 49
0.0
 74
     0
  0
LTYPE
  5
68
330
5
100
AcDbSymbolTableRecord
100
AcDbLinetypeTableRecord
  2
AM_ISO08W050x2
 70
     0
  3
__ . __ . __ . __ . __ . __
 72
    65
 73
     4
 40
9.0
 49
6.0
 74
     0
 49
-0.75
 74
     0
 49
1.5
 74
     0
 49
-0.75
 74
     0
  0
LTYPE
  5
69
330
5
100
AcDbSymbolTableRecord
100
AcDbLinetypeTableRecord
  2
AM_ISO02W050x2
 70
     0
  3
 _ _ _ _ _ _ _ _ _ _ _ _
 72
    65
 73
     2
 40
3.75
 49
3.0
 74
     0
 49
-0.75
 74
     0
  0
LTYPE
  5
6C
330
5
100
AcDbSymbolTableRecord
100
AcDbLinetypeTableRecord
  2
Amzigzag
 70
     0
  3
/\/-/\/-/\/-/\/-/\/-/\/
 72
    65
 73
     2
 40
11.0001
 49
0.0001
 74
     4
 75
   135
340
6B
 46
0.04
 50
0.0
 44
0.0
 45
0.0
 49
-11.0
 74
     0
  0
LTYPE
  5
7A
330
5
100
AcDbSymbolTableRecord
100
AcDbLinetypeTableRecord
  2
ACISOWELD
 70
     0
  3
_ _ _ _ _
 72
    65
 73
     2
 40
2.0
 49
2.0
 74
     0
 49
-1.0
 74
     0
  0
LTYPE
  5
7B
330
5
100
AcDbSymbolTableRecord
100
AcDbLinetypeTableRecord
  2
ACISOTGB
 70
     0
  3
__ . . __ . .
 72
    65
 73
     6
 40
9.0
 49
4.0
 74
     0
 49
-1.0
 74
     0
 49
1.0
 74
     0
 49
-1.0
 74
     0
 49
1.0
 74
     0
 49
-1.0
 74
     0
  0
LTYPE
  5
7C
330
5
100
AcDbSymbolTableRecord
100
AcDbLinetypeTableRecord
  2
ACISOTGL
 70
     0
  3
_ _ _ _ _
 72
    65
 73
     2
 40
3.0
 49
2.0
 74
     0
 49
-1.0
 74
     0
  0
LTYPE
  5
7E
330
5
100
AcDbSymbolTableRecord
100
AcDbLinetypeTableRecord
  2
CENTER
 70
     0
  3
__ . __
 72
    65
 73
     4
 40
7.0
 49
4.0
 74
     0
 49
-1.0
 74
     0
 49
1.0
 74
     0
 49
-1.0
 74
     0
  0
LTYPE
  5
D8
330
5
100
AcDbSymbolTableRecord
100
AcDbLinetypeTableRecord
  2
HIDDEN
 70
     0
  3
Hidden __ __ __ __ __ __ __ __ __ __ __ __ __ _
 72
    65
 73
     2
 40
9.524999999999998
 49
6.349999999999999
 74
     0
 49
-3.174999999999999
 74
     0
  0
LTYPE
  5
D9
330
5
100
AcDbSymbolTableRecord
100
AcDbLinetypeTableRecord
  2
PHANTOM2
 70
     0
  3
Phantom (.5x) ___ _ _ ___ _ _ ___ _ _ ___ _ _
 72
    65
 73
     6
 40
31.75
 49
15.875
 74
     0
 49
-3.174999999999999
 74
     0
 49
3.174999999999999
 74
     0
 49
-3.174999999999999
 74
     0
 49
3.174999999999999
 74
     0
 49
-3.174999999999999
 74
     0
  0
LTYPE
  5
4C90
330
5
100
AcDbSymbolTableRecord
100
AcDbLinetypeTableRecord
  2
ACANSTGB
 70
     0
  3
__ . . __ . .
 72
    65
 73
     6
 40
0.35433070866
 49
0.15748031496
 74
     0
 49
-0.03937007874
 74
     0
 49
0.03937007874
 74
     0
 49
-0.03937007874
 74
     0
 49
0.03937007874
 74
     0
 49
-0.03937007874
 74
     0
  0
LTYPE
  5
4C91
330
5
100
AcDbSymbolTableRecord
100
AcDbLinetypeTableRecord
  2
ACANSTGL
 70
     0
  3
_ _ _ _ _
 72
    65
 73
     2
 40
0.11811023622
 49
0.07874015748
 74
     0
 49
-0.03937007874
 74
     0
  0
ENDTAB
  0
TABLE
  2
LAYER
  5
2
102
{ACAD_XDICTIONARY
360
3F9
102
}
330
0
100
AcDbSymbolTable
 70
     7
  0
LAYER
  5
10
330
2
100
AcDbSymbolTableRecord
100
AcDbLayerTableRecord
  2
0
 70
     0
 62
     7
  6
Continuous
370
    -3
390
F
  0
LAYER
  5
A7F
330
2
100
AcDbSymbolTableRecord
100
AcDbLayerTableRecord
  2
AM_VIS
 70
     0
 62
     7
  6
Continuous
370
    50
390
F
  0
LAYER
  5
100B
330
2
100
AcDbSymbolTableRecord
100
AcDbLayerTableRecord
  2
AM_5
 70
     0
 62
     5
  6
Continuous
370
    50
390
F
  0
LAYER
  5
1052
330
2
100
AcDbSymbolTableRecord
100
AcDbLayerTableRecord
  2
AM_0
 70
     0
 62
     7
  6
Continuous
370
    50
390
F
  0
LAYER
  5
1078
330
2
100
AcDbSymbolTableRecord
100
AcDbLayerTableRecord
  2
AM_7
 70
     0
 62
     1
  6
CENTER
370
    25
390
F
  0
LAYER
  5
11AC
330
2
100
AcDbSymbolTableRecord
100
AcDbLayerTableRecord
  2
Defpoints
 70
     0
 62
     7
  6
Continuous
290
     0
370
    -3
390
F
  0
LAYER
  5
4B53
330
2
100
AcDbSymbolTableRecord
100
AcDbLayerTableRecord
  2
LOGO
 70
     0
 62
     7
  6
Continuous
370
    -3
390
F
  0
ENDTAB
  0
TABLE
  2
STYLE
  5
3
330
0
100
AcDbSymbolTable
 70
     8
  0
STYLE
  5
11
330
3
100
AcDbSymbolTableRecord
100
AcDbTextStyleTableRecord
  2
STANDARD
 70
     0
 40
0.0
 41
1.0
 50
0.0
 71
     0
 42
3.0
  3
ISOCP.SHX
  4
CHINESET.SHX
  0
STYLE
  5
6B
330
3
100
AcDbSymbolTableRecord
100
AcDbTextStyleTableRecord
  2

 70
     1
 40
0.0
 41
1.0
 50
0.0
 71
     0
 42
2.5
  3
ltypeshp.shx
  4

  0
STYLE
  5
6D
330
3
100
AcDbSymbolTableRecord
100
AcDbTextStyleTableRecord
  2
ACISOTS
 70
     0
 40
1.0
 41
1.0
 50
0.0
 71
     0
 42
1.0
  3
isocp.shx
  4
chineset.shx
  0
STYLE
  5
79
330
3
100
AcDbSymbolTableRecord
100
AcDbTextStyleTableRecord
  2
ACISOGDT
 70
     0
 40
0.0
 41
1.0
 50
0.0
 71
     0
 42
2.5
  3
amgdt.shx
  4
chineset.shx
  0
STYLE
  5
4B54
330
3
100
AcDbSymbolTableRecord
100
AcDbTextStyleTableRecord
  2
CHINESET
 70
     0
 40
0.0
 41
1.0
 50
0.0
 71
     0
 42
3.0
  3
simplex.shx
  4
CHINESET.SHX
  0
STYLE
  5
4C92
330
3
100
AcDbSymbolTableRecord
100
AcDbTextStyleTableRecord
  2
ACANSTS
 70
     0
 40
1.0
 41
1.0
 50
0.0
 71
     0
 42
5.0
  3
romans.shx
  4
chineset.shx
  0
STYLE
  5
4C93
330
3
100
AcDbSymbolTableRecord
100
AcDbTextStyleTableRecord
  2
ACANSGDT
 70
     0
 40
0.0
 41
1.0
 50
0.0
 71
     0
 42
5.0
  3
amgdtans.shx
  4

  0
ENDTAB
  0
TABLE
  2
VIEW
  5
6
330
0
100
AcDbSymbolTable
 70
     0
  0
ENDTAB
  0
TABLE
  2
UCS
  5
7
330
0
100
AcDbSymbolTable
 70
     0
  0
ENDTAB
  0
TABLE
  2
APPID
  5
9
330
0
100
AcDbSymbolTable
 70
    31
  0
APPID
  5
12
330
9
100
AcDbSymbolTableRecord
100
AcDbRegAppTableRecord
  2
ACAD
 70
     0
  0
APPID
  5
46
330
9
100
AcDbSymbolTableRecord
100
AcDbRegAppTableRecord
  2
MCAD_NO_VIS
 70
     0
  0
APPID
  5
47
330
9
100
AcDbSymbolTableRecord
100
AcDbRegAppTableRecord
  2
ACAD_TEMP_GRAPHIC
 70
     0
  0
APPID
  5
58
330
9
100
AcDbSymbolTableRecord
100
AcDbRegAppTableRecord
  2
ACATTRIBSERVICES
 70
     0
  0
APPID
  5
EE
330
9
100
AcDbSymbolTableRecord
100
AcDbRegAppTableRecord
  2
AD_DRAW
 70
     0
  0
APPID
  5
10C
330
9
100
AcDbSymbolTableRecord
100
AcDbRegAppTableRecord
  2
DESIGNERASSEMBLIES
 70
     0
  0
APPID
  5
111
330
9
100
AcDbSymbolTableRecord
100
AcDbRegAppTableRecord
  2
ACADM_DIM_EDIT
 70
     0
  0
APPID
  5
112
330
9
100
AcDbSymbolTableRecord
100
AcDbRegAppTableRecord
  2
AMDT_DM_ADJ
 70
     0
  0
APPID
  5
22C
330
9
100
AcDbSymbolTableRecord
100
AcDbRegAppTableRecord
  2
ACAD_DSTYLE_DIMTEXT_FILL
 70
     0
  0
APPID
  5
452
330
9
100
AcDbSymbolTableRecord
100
AcDbRegAppTableRecord
  2
GENIUS_GENOENT_13
 70
     0
  0
APPID
  5
453
330
9
100
AcDbSymbolTableRecord
100
AcDbRegAppTableRecord
  2
GENIUS_GENOBJ-N-CRS_13
 70
     0
  0
APPID
  5
454
330
9
100
AcDbSymbolTableRecord
100
AcDbRegAppTableRecord
  2
GENIUS_GENOLIS_13
 70
     0
  0
APPID
  5
455
330
9
100
AcDbSymbolTableRecord
100
AcDbRegAppTableRecord
  2
GENIUS_GENODEF_13
 70
     0
  0
APPID
  5
456
330
9
100
AcDbSymbolTableRecord
100
AcDbRegAppTableRecord
  2
GENIUS_GENOREF_13
 70
     0
  0
APPID
  5
6F3
330
9
100
AcDbSymbolTableRecord
100
AcDbRegAppTableRecord
  2
ACAD_PSEXT
 70
     0
  0
APPID
  5
808
330
9
100
AcDbSymbolTableRecord
100
AcDbRegAppTableRecord
  2
GENIUS_GENDTOL_13
 70
     0
  0
APPID
  5
1059
330
9
100
AcDbSymbolTableRecord
100
AcDbRegAppTableRecord
  2
GEVID1167182300
 70
     0
  0
APPID
  5
105A
330
9
100
AcDbSymbolTableRecord
100
AcDbRegAppTableRecord
  2
GEVDC
 70
     0
  0
APPID
  5
1063
330
9
100
AcDbSymbolTableRecord
100
AcDbRegAppTableRecord
  2
AMG_2DHIDE
 70
     0
  0
APPID
  5
1064
330
9
100
AcDbSymbolTableRecord
100
AcDbRegAppTableRecord
  2
AMG_2DSTRUCT_BTR
 70
     0
  0
APPID
  5
1075
330
9
100
AcDbSymbolTableRecord
100
AcDbRegAppTableRecord
  2
ACADM_2DVIEW_IGN_NOTIFY
 70
     0
  0
APPID
  5
119A
330
9
100
AcDbSymbolTableRecord
100
AcDbRegAppTableRecord
  2
GENIUS_GENOBJ-N-CEN_13
 70
     0
  0
APPID
  5
119B
330
9
100
AcDbSymbolTableRecord
100
AcDbRegAppTableRecord
  2
GENIUS_GENCEN_19
 70
     0
  0
APPID
  5
39BE
330
9
100
AcDbSymbolTableRecord
100
AcDbRegAppTableRecord
  2
GEVID1167182301
 70
     0
  0
APPID
  5
39CB
330
9
100
AcDbSymbolTableRecord
100
AcDbRegAppTableRecord
  2
GEVID1167182302
 70
     0
  0
APPID
  5
39F2
330
9
100
AcDbSymbolTableRecord
100
AcDbRegAppTableRecord
  2
GEVID1167182303
 70
     0
  0
APPID
  5
3D45
330
9
100
AcDbSymbolTableRecord
100
AcDbRegAppTableRecord
  2
GENIUS_GENOBJ-N-HTC_13
 70
     0
  0
APPID
  5
3D46
330
9
100
AcDbSymbolTableRecord
100
AcDbRegAppTableRecord
  2
GENIUS_GENHATCH_13
 70
     0
  0
APPID
  5
4790
330
9
100
AcDbSymbolTableRecord
100
AcDbRegAppTableRecord
  2
GEVID1167182305
 70
     0
  0
APPID
  5
4B55
330
9
100
AcDbSymbolTableRecord
100
AcDbRegAppTableRecord
  2
GENIUS_GENREC_14
 70
     0
  0
APPID
  5
4B56
330
9
100
AcDbSymbolTableRecord
100
AcDbRegAppTableRecord
  2
GENIUS_GENOBJ-N-REC_13
 70
     0
  0
ENDTAB
  0
TABLE
  2
DIMSTYLE
  5
A
330
0
100
AcDbSymbolTable
 70
    15
100
AcDbDimStyleTable
 71
     3
340
81
340
8B
340
86
  0
DIMSTYLE
105
81
330
A
100
AcDbSymbolTableRecord
100
AcDbDimStyleTableRecord
  2
AM_ISO
 70
     0
  4
"
 41
3.0
 42
1.0
 43
8.0
 44
1.5
 47
0.1
 48
0.1
 73
     0
 74
     0
 77
     1
 78
     8
 79
     2
140
3.5
141
0.0
143
0.0393701
146
0.6
147
0.7
172
     1
176
   256
177
   256
178
   256
271
     2
272
     2
283
     0
284
     8
340
11
371
    -1
372
    -1
  0
DIMSTYLE
105
82
330
A
100
AcDbSymbolTableRecord
100
AcDbDimStyleTableRecord
  2
AM_ISO$3
 70
     0
  4
"
 41
3.0
 42
1.0
 43
8.0
 44
1.5
 47
0.1
 48
0.1
 73
     0
 77
     1
 78
     8
 79
     2
140
3.5
141
0.0
143
0.0393701
146
0.6
147
0.7
176
   256
177
   256
178
   256
271
     2
272
     2
283
     0
284
     8
288
     1
289
     0
340
11
371
    -1
372
    -1
  0
DIMSTYLE
105
83
330
A
100
AcDbSymbolTableRecord
100
AcDbDimStyleTableRecord
  2
AM_ISO$4
 70
     0
  4
"
 41
3.0
 42
1.0
 43
8.0
 44
1.5
 47
0.1
 48
0.1
 73
     0
 77
     1
 78
     8
 79
     2
140
3.5
141
0.0
143
0.0393701
146
0.6
147
0.7
176
   256
177
   256
178
   256
271
     2
272
     2
283
     0
284
     8
288
     1
289
     0
340
11
371
    -1
372
    -1
  0
DIMSTYLE
105
84
330
A
100
AcDbSymbolTableRecord
100
AcDbDimStyleTableRecord
  2
AM_ISO$6
 70
     0
  4
"
 41
3.0
 42
1.0
 43
8.0
 44
1.5
 47
0.1
 48
0.1
 73
     0
 74
     0
 78
     8
 79
     2
140
3.5
141
0.0
143
0.0393701
146
0.6
147
0.7
172
     1
176
   256
177
   256
178
   256
271
     2
272
     2
283
     0
284
     8
340
11
371
    -1
372
    -1
  0
DIMSTYLE
105
85
330
A
100
AcDbSymbolTableRecord
100
AcDbDimStyleTableRecord
  2
AM_ISO$7
 70
     0
  4
"
 41
3.0
 42
1.0
 43
8.0
 44
1.5
 47
0.1
 48
0.1
 73
     0
 74
     0
 77
     1
 78
     8
 79
     2
140
5.0
141
0.0
143
0.0393701
146
0.6
147
0.7
172
     1
176
   256
177
   256
178
   256
271
     2
272
     2
283
     0
284
     8
340
11
371
    -1
372
    -1
  0
DIMSTYLE
105
86
330
A
100
AcDbSymbolTableRecord
100
AcDbDimStyleTableRecord
  2
AM_ISO$SF
 70
     0
  4
"
 41
2.5
 42
1.0
 43
10.0
 44
1.0
 47
0.1
 48
0.1
 73
     0
 74
     0
 75
     1
 76
     1
 77
     1
 78
     8
 79
     2
140
3.5
141
0.0
143
0.0393701
146
0.71
147
1.5
172
     1
176
   256
177
   256
178
     2
271
     2
272
     3
274
     4
283
     0
284
     8
340
11
371
    -1
372
    -1
  0
DIMSTYLE
105
8B
330
A
100
AcDbSymbolTableRecord
100
AcDbDimStyleTableRecord
  2
AM_ISO$SH
 70
     0
  4
"
 41
2.5
 42
1.0
 43
10.0
 44
1.0
 47
0.1
 48
0.1
 73
     0
 74
     0
 75
     1
 76
     1
 77
     1
 78
     8
 79
     2
140
3.5
141
0.0
143
0.0393701
144
2.0
146
0.71
147
1.5
172
     1
173
     1
176
   256
177
   256
178
     2
271
     2
272
     3
274
     4
283
     0
284
     8
340
11
343
87
371
    -1
372
    -1
  0
DIMSTYLE
105
40B
102
{ACAD_REACTORS
330
592D
330
592E
330
592F
330
5932
330
5933
330
5934
330
5935
330
5937
330
5938
330
5939
330
593A
330
593D
330
593E
330
5940
102
}
330
A
100
AcDbSymbolTableRecord
100
AcDbDimStyleTableRecord
  2
AM_ISO$0
 70
     0
  4
"
 41
3.0
 42
1.0
 43
8.0
 44
1.5
 47
0.1
 48
0.1
 73
     0
 74
     0
 77
     1
 78
     8
 79
     2
140
3.5
141
0.0
143
0.0393701
146
0.6
147
0.7
172
     1
176
   256
177
   256
178
   256
271
     2
272
     2
283
     0
284
     8
340
11
371
    -1
372
    -1
  0
DIMSTYLE
105
4C95
330
A
100
AcDbSymbolTableRecord
100
AcDbDimStyleTableRecord
  2
AM_ANSI
 70
     0
  4
mm
 41
0.1
 42
0.05
 43
0.5
 44
0.1
 47
0.1
 48
0.1
 78
     7
 79
     2
140
0.12
141
0.0
146
0.71
147
0.06
176
   256
177
   256
178
     2
274
     4
284
     7
340
11
371
    -1
372
    -1
  0
DIMSTYLE
105
4C96
330
A
100
AcDbSymbolTableRecord
100
AcDbDimStyleTableRecord
  2
AM_ANSI$3
 70
     0
  4
mm
 41
0.1
 42
0.05
 43
0.5
 44
0.1
 47
0.1
 48
0.1
 78
     7
 79
     2
140
0.12
141
0.0
146
0.71
147
0.06
176
   256
177
   256
178
     2
274
     4
284
     7
288
     1
289
     0
340
11
371
    -1
372
    -1
  0
DIMSTYLE
105
4C97
330
A
100
AcDbSymbolTableRecord
100
AcDbDimStyleTableRecord
  2
AM_ANSI$4
 70
     0
  4
mm
 41
0.1
 42
0.05
 43
0.5
 44
0.1
 47
0.1
 48
0.1
 78
     7
 79
     2
140
0.12
141
0.0
146
0.71
147
0.06
176
   256
177
   256
178
     2
274
     4
284
     7
288
     1
289
     0
340
11
371
    -1
372
    -1
  0
DIMSTYLE
105
4C98
330
A
100
AcDbSymbolTableRecord
100
AcDbDimStyleTableRecord
  2
AM_ANSI$7
 70
     0
  4
mm
 41
0.1
 42
0.05
 43
0.5
 44
0.1
 47
0.1
 48
0.1
 78
     7
 79
     2
140
0.24
141
0.0
146
0.71
147
0.06
176
   256
177
   256
178
     2
274
     4
284
     7
340
11
371
    -1
372
    -1
  0
DIMSTYLE
105
4C99
330
A
100
AcDbSymbolTableRecord
100
AcDbDimStyleTableRecord
  2
AM_ANSI$SF
 70
     0
  4
mm
 41
0.1
 42
0.05
 43
0.5
 44
0.1
 47
0.1
 48
0.1
 75
     1
 76
     1
 78
     7
 79
     2
140
0.12
141
0.0
146
0.71
147
0.06
176
   256
177
   256
178
     2
274
     4
284
     7
340
11
371
    -1
372
    -1
  0
DIMSTYLE
105
4C9A
330
A
100
AcDbSymbolTableRecord
100
AcDbDimStyleTableRecord
  2
AM_ANSI$SH
 70
     0
  4
mm
 41
0.1
 42
0.05
 43
0.5
 44
0.1
 47
0.1
 48
0.1
 75
     1
 76
     1
 78
     7
 79
     2
140
0.12
141
0.0
146
0.71
147
0.06
173
     1
176
   256
177
   256
178
     2
274
     4
284
     7
340
11
343
87
371
    -1
372
    -1
  0
ENDTAB
  0
TABLE
  2
BLOCK_RECORD
  5
1
330
0
100
AcDbSymbolTable
 70
    53
  0
BLOCK_RECORD
  5
1F
102
{ACAD_XDICTIONARY
360
8F
102
}
330
1
100
AcDbSymbolTableRecord
100
AcDbBlockTableRecord
  2
*Model_Space
340
22
  0
BLOCK_RECORD
  5
1B
330
1
100
AcDbSymbolTableRecord
100
AcDbBlockTableRecord
  2
*Paper_Space
340
1E
  0
BLOCK_RECORD
  5
23
330
1
100
AcDbSymbolTableRecord
100
AcDbBlockTableRecord
  2
*Paper_Space0
340
26
  0
BLOCK_RECORD
  5
87
330
1
100
AcDbSymbolTableRecord
100
AcDbBlockTableRecord
  2
GENAXEH
340
0
  0
BLOCK_RECORD
  5
107B
330
1
100
AcDbSymbolTableRecord
100
AcDbBlockTableRecord
  2
*U4
340
0
  0
BLOCK_RECORD
  5
597C
330
1
100
AcDbSymbolTableRecord
100
AcDbBlockTableRecord
  2
*D34
340
0
  0
BLOCK_RECORD
  5
5988
330
1
100
AcDbSymbolTableRecord
100
AcDbBlockTableRecord
  2
*D35
340
0
  0
BLOCK_RECORD
  5
5994
330
1
100
AcDbSymbolTableRecord
100
AcDbBlockTableRecord
  2
*D36
340
0
  0
BLOCK_RECORD
  5
59A0
330
1
100
AcDbSymbolTableRecord
100
AcDbBlockTableRecord
  2
*D37
340
0
  0
BLOCK_RECORD
  5
59AC
330
1
100
AcDbSymbolTableRecord
100
AcDbBlockTableRecord
  2
*D38
340
0
  0
BLOCK_RECORD
  5
59B8
330
1
100
AcDbSymbolTableRecord
100
AcDbBlockTableRecord
  2
*D39
340
0
  0
BLOCK_RECORD
  5
59C6
330
1
100
AcDbSymbolTableRecord
100
AcDbBlockTableRecord
  2
*D40
340
0
  0
BLOCK_RECORD
  5
59D2
330
1
100
AcDbSymbolTableRecord
100
AcDbBlockTableRecord
  2
*D41
340
0
  0
BLOCK_RECORD
  5
59DE
330
1
100
AcDbSymbolTableRecord
100
AcDbBlockTableRecord
  2
*D42
340
0
  0
BLOCK_RECORD
  5
59EA
330
1
100
AcDbSymbolTableRecord
100
AcDbBlockTableRecord
  2
*D43
340
0
  0
BLOCK_RECORD
  5
59F6
330
1
100
AcDbSymbolTableRecord
100
AcDbBlockTableRecord
  2
*D44
340
0
  0
BLOCK_RECORD
  5
5A02
330
1
100
AcDbSymbolTableRecord
100
AcDbBlockTableRecord
  2
*D45
340
0
  0
BLOCK_RECORD
  5
5A20
330
1
100
AcDbSymbolTableRecord
100
AcDbBlockTableRecord
  2
*D46
340
0
  0
BLOCK_RECORD
  5
5A8A
330
1
100
AcDbSymbolTableRecord
100
AcDbBlockTableRecord
  2
*D47
340
0
  0
BLOCK_RECORD
  5
5C6E
330
1
100
AcDbSymbolTableRecord
100
AcDbBlockTableRecord
  2
*S49
340
0
  0
BLOCK_RECORD
  5
5C76
330
1
100
AcDbSymbolTableRecord
100
AcDbBlockTableRecord
  2
*S50
340
0
  0
BLOCK_RECORD
  5
5C7E
330
1
100
AcDbSymbolTableRecord
100
AcDbBlockTableRecord
  2
*S51
340
0
  0
BLOCK_RECORD
  5
5C86
330
1
100
AcDbSymbolTableRecord
100
AcDbBlockTableRecord
  2
*S52
340
0
  0
ENDTAB
  0
ENDSEC
  0
SECTION
  2
BLOCKS
  0
BLOCK
  5
20
330
1F
100
AcDbEntity
  8
0
100
AcDbBlockBegin
  2
*Model_Space
 70
     0
 10
0.0
 20
0.0
 30
0.0
  3
*Model_Space
  1

  0
ENDBLK
  5
21
330
1F
100
AcDbEntity
  8
0
100
AcDbBlockEnd
  0
BLOCK
  5
1C
330
1B
100
AcDbEntity
 67
     1
  8
0
100
AcDbBlockBegin
  2
*Paper_Space
 70
     0
 10
0.0
 20
0.0
 30
0.0
  3
*Paper_Space
  1

  0
ENDBLK
  5
1D
330
1B
100
AcDbEntity
 67
     1
  8
0
100
AcDbBlockEnd
  0
BLOCK
  5
24
330
23
100
AcDbEntity
  8
0
100
AcDbBlockBegin
  2
*Paper_Space0
 70
     0
 10
0.0
 20
0.0
 30
0.0
  3
*Paper_Space0
  1

  0
ENDBLK
  5
25
330
23
100
AcDbEntity
  8
0
100
AcDbBlockEnd
  0
BLOCK
  5
89
330
87
100
AcDbEntity
  8
0
100
AcDbBlockBegin
  2
GENAXEH
 70
     0
 10
0.0
 20
0.0
 30
0.0
  3
GENAXEH
  1

  0
LINE
  5
88
330
87
100
AcDbEntity
  8
0
100
AcDbLine
 10
-1.0
 20
0.0
 30
0.0
 11
1.0
 21
0.0
 31
0.0
  0
ENDBLK
  5
8A
330
87
100
AcDbEntity
  8
0
100
AcDbBlockEnd
  0
BLOCK
  5
107C
330
107B
100
AcDbEntity
  8
0
100
AcDbBlockBegin
  2
*U4
 70
     1
 10
0.0
 20
0.0
 30
0.0
  3
*U4
  1

  0
ENDBLK
  5
107D
330
107B
100
AcDbEntity
  8
0
100
AcDbBlockEnd
  0
BLOCK
  5
5986
330
597C
100
AcDbEntity
  8
0
100
AcDbBlockBegin
  2
*D34
 70
     1
 10
0.0
 20
0.0
 30
0.0
  3
*D34
  1

  0
LINE
  5
5B92
330
597C
100
AcDbEntity
  8
AM_5
100
AcDbLine
 10
186.4455373462881
 20
322.2275651127499
 30
0.0
 11
186.4455373462881
 21
311.7275651127498
 31
0.0
  0
LINE
  5
5B93
330
597C
100
AcDbEntity
  8
AM_5
100
AcDbLine
 10
215.4455373462881
 20
324.9775651127498
 30
0.0
 11
215.4455373462881
 21
311.7275651127498
 31
0.0
  0
LINE
  5
5B94
330
597C
100
AcDbEntity
  8
AM_5
100
AcDbLine
 10
189.4455373462881
 20
313.2275651127498
 30
0.0
 11
212.4455373462881
 21
313.2275651127498
 31
0.0
  0
SOLID
  5
5B95
330
597C
100
AcDbEntity
  8
AM_5
100
AcDbTrace
 10
189.4455373462881
 20
313.7275651127498
 30
0.0
 11
189.4455373462881
 21
312.7275651127498
 31
0.0
 12
186.4455373462881
 22
313.2275651127498
 32
0.0
 13
186.4455373462881
 23
313.2275651127498
 33
0.0
  0
SOLID
  5
5B96
330
597C
100
AcDbEntity
  8
AM_5
100
AcDbTrace
 10
212.4455373462881
 20
313.7275651127498
 30
0.0
 11
212.4455373462881
 21
312.7275651127498
 31
0.0
 12
215.4455373462881
 22
313.2275651127498
 32
0.0
 13
215.4455373462881
 23
313.2275651127498
 33
0.0
  0
MTEXT
  5
5B97
330
597C
100
AcDbEntity
  8
AM_5
100
AcDbMText
 10
200.9455373462881
 20
315.6779096009388
 30
0.0
 40
3.5
 41
0.0
 71
     5
 72
     1
  1
29
 73
     1
 44
1.0
1001
ACAD
1000
MTEXTBEGIN
1070
    73
1070
     1
1070
    44
1040
1.0
1070
    74
1070
     0
1000
MTEXTEND
  0
POINT
  5
5B98
330
597C
100
AcDbEntity
  8
Defpoints
 62
     0
100
AcDbPoint
 10
186.4455373462881
 20
323.2275651127499
 30
0.0
  0
POINT
  5
5B99
330
597C
100
AcDbEntity
  8
Defpoints
 62
     0
100
AcDbPoint
 10
215.4455373462881
 20
325.9775651127498
 30
0.0
  0
POINT
  5
5B9A
330
597C
100
AcDbEntity
  8
Defpoints
 62
     0
100
AcDbPoint
 10
215.4455373462881
 20
313.2275651127498
 30
0.0
  0
ENDBLK
  5
5987
330
597C
100
AcDbEntity
  8
0
100
AcDbBlockEnd
  0
BLOCK
  5
5992
330
5988
100
AcDbEntity
  8
0
100
AcDbBlockBegin
  2
*D35
 70
     1
 10
0.0
 20
0.0
 30
0.0
  3
*D35
  1

  0
LINE
  5
5B9B
330
5988
100
AcDbEntity
  8
AM_5
100
AcDbLine
 10
215.4455373462881
 20
324.9775651127498
 30
0.0
 11
215.4455373462881
 21
311.7275651127498
 31
0.0
  0
LINE
  5
5B9C
330
5988
100
AcDbEntity
  8
AM_5
100
AcDbLine
 10
229.9455373462881
 20
325.4775651127498
 30
0.0
 11
229.9455373462881
 21
311.7275651127498
 31
0.0
  0
LINE
  5
5B9D
330
5988
100
AcDbEntity
  8
AM_5
100
AcDbLine
 10
218.4455373462881
 20
313.2275651127498
 30
0.0
 11
226.9455373462881
 21
313.2275651127498
 31
0.0
  0
SOLID
  5
5B9E
330
5988
100
AcDbEntity
  8
AM_5
100
AcDbTrace
 10
218.4455373462881
 20
313.7275651127498
 30
0.0
 11
218.4455373462881
 21
312.7275651127498
 31
0.0
 12
215.4455373462881
 22
313.2275651127498
 32
0.0
 13
215.4455373462881
 23
313.2275651127498
 33
0.0
  0
SOLID
  5
5B9F
330
5988
100
AcDbEntity
  8
AM_5
100
AcDbTrace
 10
226.9455373462881
 20
313.7275651127498
 30
0.0
 11
226.9455373462881
 21
312.7275651127498
 31
0.0
 12
229.9455373462881
 22
313.2275651127498
 32
0.0
 13
229.9455373462881
 23
313.2275651127498
 33
0.0
  0
MTEXT
  5
5BA0
330
5988
100
AcDbEntity
  8
AM_5
100
AcDbMText
 10
222.6955373462881
 20
315.6775651127498
 30
0.0
 40
3.5
 41
0.0
 71
     5
 72
     1
  1
14.5
 73
     1
 44
1.0
1001
ACAD
1000
MTEXTBEGIN
1070
    73
1070
     1
1070
    44
1040
1.0
1070
    74
1070
     0
1000
MTEXTEND
  0
POINT
  5
5BA1
330
5988
100
AcDbEntity
  8
Defpoints
 62
     0
100
AcDbPoint
 10
215.4455373462881
 20
325.9775651127498
 30
0.0
  0
POINT
  5
5BA2
330
5988
100
AcDbEntity
  8
Defpoints
 62
     0
100
AcDbPoint
 10
229.9455373462881
 20
326.4775651127498
 30
0.0
  0
POINT
  5
5BA3
330
5988
100
AcDbEntity
  8
Defpoints
 62
     0
100
AcDbPoint
 10
229.9455373462881
 20
313.2275651127498
 30
0.0
  0
ENDBLK
  5
5993
330
5988
100
AcDbEntity
  8
0
100
AcDbBlockEnd
  0
BLOCK
  5
599E
330
5994
100
AcDbEntity
  8
0
100
AcDbBlockBegin
  2
*D36
 70
     1
 10
0.0
 20
0.0
 30
0.0
  3
*D36
  1

  0
LINE
  5
5BAF
330
5994
100
AcDbEntity
  8
AM_5
100
AcDbLine
 10
256.4455373462881
 20
366.4327798705815
 30
0.0
 11
266.9455373462881
 21
366.4327798705815
 31
0.0
  0
LINE
  5
5BB0
330
5994
100
AcDbEntity
  8
AM_5
100
AcDbLine
 10
256.4455373462881
 20
393.4327798705815
 30
0.0
 11
266.9455373462881
 21
393.4327798705815
 31
0.0
  0
LINE
  5
5BB1
330
5994
100
AcDbEntity
  8
AM_5
100
AcDbLine
 10
265.4455373462881
 20
369.4327798705815
 30
0.0
 11
265.4455373462881
 21
390.4327798705815
 31
0.0
  0
SOLID
  5
5BB2
330
5994
100
AcDbEntity
  8
AM_5
100
AcDbTrace
 10
264.9455373462881
 20
369.4327798705815
 30
0.0
 11
265.945537346288
 21
369.4327798705815
 31
0.0
 12
265.4455373462881
 22
366.4327798705815
 32
0.0
 13
265.4455373462881
 23
366.4327798705815
 33
0.0
  0
SOLID
  5
5BB3
330
5994
100
AcDbEntity
  8
AM_5
100
AcDbTrace
 10
264.9455373462881
 20
390.4327798705815
 30
0.0
 11
265.9455373462881
 21
390.4327798705815
 31
0.0
 12
265.4455373462881
 22
393.4327798705815
 32
0.0
 13
265.4455373462881
 23
393.4327798705815
 33
0.0
  0
MTEXT
  5
5BB4
330
5994
100
AcDbEntity
  8
AM_5
100
AcDbMText
 10
262.995192858099
 20
379.9327798705816
 30
0.0
 40
3.5
 41
0.0
 71
     5
 72
     1
  1
27
 11
0.0000000000000001
 21
1.0
 31
0.0
 73
     1
 44
1.0
1001
ACAD
1000
MTEXTBEGIN
1070
    73
1070
     1
1070
    44
1040
1.0
1070
    74
1070
     0
1000
MTEXTEND
  0
POINT
  5
5BB5
330
5994
100
AcDbEntity
  8
Defpoints
 62
     0
100
AcDbPoint
 10
255.4455373462881
 20
366.4327798705815
 30
0.0
  0
POINT
  5
5BB6
330
5994
100
AcDbEntity
  8
Defpoints
 62
     0
100
AcDbPoint
 10
255.4455373462881
 20
393.4327798705815
 30
0.0
  0
POINT
  5
5BB7
330
5994
100
AcDbEntity
  8
Defpoints
 62
     0
100
AcDbPoint
 10
265.4455373462881
 20
393.4327798705815
 30
0.0
  0
ENDBLK
  5
599F
330
5994
100
AcDbEntity
  8
0
100
AcDbBlockEnd
  0
BLOCK
  5
59AA
330
59A0
100
AcDbEntity
  8
0
100
AcDbBlockBegin
  2
*D37
 70
     1
 10
0.0
 20
0.0
 30
0.0
  3
*D37
  1

  0
LINE
  5
5BB8
330
59A0
100
AcDbEntity
  8
AM_5
100
AcDbLine
 10
186.4455373462881
 20
365.4327798705815
 30
0.0
 11
186.4455373462881
 21
354.9327798705815
 31
0.0
  0
LINE
  5
5BB9
330
59A0
100
AcDbEntity
  8
AM_5
100
AcDbLine
 10
207.6955373462881
 20
367.8327798705815
 30
0.0
 11
207.6955373462881
 21
354.9327798705815
 31
0.0
  0
LINE
  5
5BBA
330
59A0
100
AcDbEntity
  8
AM_5
100
AcDbLine
 10
189.4455373462881
 20
356.4327798705815
 30
0.0
 11
204.6955373462881
 21
356.4327798705815
 31
0.0
  0
SOLID
  5
5BBB
330
59A0
100
AcDbEntity
  8
AM_5
100
AcDbTrace
 10
189.4455373462881
 20
356.9327798705815
 30
0.0
 11
189.4455373462881
 21
355.9327798705815
 31
0.0
 12
186.4455373462881
 22
356.4327798705815
 32
0.0
 13
186.4455373462881
 23
356.4327798705815
 33
0.0
  0
SOLID
  5
5BBC
330
59A0
100
AcDbEntity
  8
AM_5
100
AcDbTrace
 10
204.6955373462881
 20
356.9327798705815
 30
0.0
 11
204.6955373462881
 21
355.9327798705815
 31
0.0
 12
207.6955373462881
 22
356.4327798705815
 32
0.0
 13
207.6955373462881
 23
356.4327798705815
 33
0.0
  0
MTEXT
  5
5BBD
330
59A0
100
AcDbEntity
  8
AM_5
100
AcDbMText
 10
197.0705373462881
 20
358.8831243587705
 30
0.0
 40
3.5
 41
0.0
 71
     5
 72
     1
  1
21.3
 73
     1
 44
1.0
1001
ACAD
1000
MTEXTBEGIN
1070
    73
1070
     1
1070
    44
1040
1.0
1070
    74
1070
     0
1000
MTEXTEND
  0
POINT
  5
5BBE
330
59A0
100
AcDbEntity
  8
Defpoints
 62
     0
100
AcDbPoint
 10
186.4455373462881
 20
366.4327798705815
 30
0.0
  0
POINT
  5
5BBF
330
59A0
100
AcDbEntity
  8
Defpoints
 62
     0
100
AcDbPoint
 10
207.6955373462881
 20
368.8327798705815
 30
0.0
  0
POINT
  5
5BC0
330
59A0
100
AcDbEntity
  8
Defpoints
 62
     0
100
AcDbPoint
 10
207.6955373462881
 20
356.4327798705815
 30
0.0
  0
ENDBLK
  5
59AB
330
59A0
100
AcDbEntity
  8
0
100
AcDbBlockEnd
  0
BLOCK
  5
59B6
330
59AC
100
AcDbEntity
  8
0
100
AcDbBlockBegin
  2
*D38
 70
     1
 10
0.0
 20
0.0
 30
0.0
  3
*D38
  1

  0
LINE
  5
5BC1
330
59AC
100
AcDbEntity
  8
AM_5
100
AcDbLine
 10
207.6955373462881
 20
367.8327798705815
 30
0.0
 11
207.6955373462881
 21
354.9327798705815
 31
0.0
  0
LINE
  5
5BC2
330
59AC
100
AcDbEntity
  8
AM_5
100
AcDbLine
 10
222.6955373462881
 20
367.8327798705815
 30
0.0
 11
222.6955373462881
 21
354.9327798705815
 31
0.0
  0
LINE
  5
5BC3
330
59AC
100
AcDbEntity
  8
AM_5
100
AcDbLine
 10
210.6955373462881
 20
356.4327798705815
 30
0.0
 11
219.6955373462881
 21
356.4327798705815
 31
0.0
  0
SOLID
  5
5BC4
330
59AC
100
AcDbEntity
  8
AM_5
100
AcDbTrace
 10
210.6955373462881
 20
356.9327798705815
 30
0.0
 11
210.6955373462881
 21
355.9327798705815
 31
0.0
 12
207.6955373462881
 22
356.4327798705815
 32
0.0
 13
207.6955373462881
 23
356.4327798705815
 33
0.0
  0
SOLID
  5
5BC5
330
59AC
100
AcDbEntity
  8
AM_5
100
AcDbTrace
 10
219.6955373462881
 20
356.9327798705815
 30
0.0
 11
219.6955373462881
 21
355.9327798705815
 31
0.0
 12
222.6955373462881
 22
356.4327798705815
 32
0.0
 13
222.6955373462881
 23
356.4327798705815
 33
0.0
  0
MTEXT
  5
5BC6
330
59AC
100
AcDbEntity
  8
AM_5
100
AcDbMText
 10
215.1955373462881
 20
358.8827798705815
 30
0.0
 40
3.5
 41
0.0
 71
     5
 72
     1
  1
15
 73
     1
 44
1.0
1001
ACAD
1000
MTEXTBEGIN
1070
    73
1070
     1
1070
    44
1040
1.0
1070
    74
1070
     0
1000
MTEXTEND
  0
POINT
  5
5BC7
330
59AC
100
AcDbEntity
  8
Defpoints
 62
     0
100
AcDbPoint
 10
207.6955373462881
 20
368.8327798705815
 30
0.0
  0
POINT
  5
5BC8
330
59AC
100
AcDbEntity
  8
Defpoints
 62
     0
100
AcDbPoint
 10
222.6955373462881
 20
368.8327798705815
 30
0.0
  0
POINT
  5
5BC9
330
59AC
100
AcDbEntity
  8
Defpoints
 62
     0
100
AcDbPoint
 10
222.6955373462881
 20
356.4327798705815
 30
0.0
  0
ENDBLK
  5
59B7
330
59AC
100
AcDbEntity
  8
0
100
AcDbBlockEnd
  0
BLOCK
  5
59C4
330
59B8
100
AcDbEntity
  8
0
100
AcDbBlockBegin
  2
*D39
 70
     1
 10
0.0
 20
0.0
 30
0.0
  3
*D39
  1

  0
LINE
  5
5BCA
330
59B8
100
AcDbEntity
  8
AM_5
100
AcDbLine
 10
185.4455373462881
 20
366.4327798705815
 30
0.0
 11
177.101690521529
 21
366.4327798705815
 31
0.0
  0
LINE
  5
5BCB
330
59B8
100
AcDbEntity
  8
AM_5
100
AcDbLine
 10
204.0955373462881
 20
371.4327798705815
 30
0.0
 11
177.101690521529
 21
371.4327798705815
 31
0.0
  0
LINE
  5
5BCC
330
59B8
100
AcDbEntity
  8
AM_5
100
AcDbLine
 10
178.601690521529
 20
363.4327798705815
 30
0.0
 11
178.601690521529
 21
360.4327798705815
 31
0.0
  0
LINE
  5
5BCD
330
59B8
100
AcDbEntity
  8
AM_5
100
AcDbLine
 10
178.601690521529
 20
374.4327798705815
 30
0.0
 11
178.601690521529
 21
377.4327798705815
 31
0.0
  0
LINE
  5
5BCE
330
59B8
100
AcDbEntity
  8
AM_5
100
AcDbLine
 10
178.601690521529
 20
366.4327798705815
 30
0.0
 11
178.601690521529
 21
371.4327798705815
 31
0.0
  0
SOLID
  5
5BCF
330
59B8
100
AcDbEntity
  8
AM_5
100
AcDbTrace
 10
178.101690521529
 20
363.4327798705815
 30
0.0
 11
179.101690521529
 21
363.4327798705815
 31
0.0
 12
178.601690521529
 22
366.4327798705815
 32
0.0
 13
178.601690521529
 23
366.4327798705815
 33
0.0
  0
SOLID
  5
5BD0
330
59B8
100
AcDbEntity
  8
AM_5
100
AcDbTrace
 10
178.101690521529
 20
374.4327798705815
 30
0.0
 11
179.101690521529
 21
374.4327798705815
 31
0.0
 12
178.601690521529
 22
371.4327798705815
 32
0.0
 13
178.601690521529
 23
371.4327798705815
 33
0.0
  0
MTEXT
  5
5BD1
330
59B8
100
AcDbEntity
  8
AM_5
100
AcDbMText
 10
176.1516905215289
 20
368.9327798705816
 30
0.0
 40
3.5
 41
0.0
 71
     5
 72
     1
  1
5
 11
0.0000000000000001
 21
1.0
 31
0.0
 73
     1
 44
1.0
1001
ACAD
1000
MTEXTBEGIN
1070
    73
1070
     1
1070
    44
1040
1.0
1070
    74
1070
     0
1000
MTEXTEND
  0
POINT
  5
5BD2
330
59B8
100
AcDbEntity
  8
Defpoints
 62
     0
100
AcDbPoint
 10
186.4455373462881
 20
366.4327798705815
 30
0.0
  0
POINT
  5
5BD3
330
59B8
100
AcDbEntity
  8
Defpoints
 62
     0
100
AcDbPoint
 10
205.0955373462881
 20
371.4327798705815
 30
0.0
  0
POINT
  5
5BD4
330
59B8
100
AcDbEntity
  8
Defpoints
 62
     0
100
AcDbPoint
 10
178.601690521529
 20
371.4327798705815
 30
0.0
  0
ENDBLK
  5
59C5
330
59B8
100
AcDbEntity
  8
0
100
AcDbBlockEnd
  0
BLOCK
  5
59D0
330
59C6
100
AcDbEntity
  8
0
100
AcDbBlockBegin
  2
*D40
 70
     1
 10
0.0
 20
0.0
 30
0.0
  3
*D40
  1

  0
LINE
  5
5BD5
330
59C6
100
AcDbEntity
  8
AM_5
100
AcDbLine
 10
186.4455373462881
 20
445.9638924783753
 30
0.0
 11
186.4455373462881
 21
456.4638924783753
 31
0.0
  0
LINE
  5
5BD6
330
59C6
100
AcDbEntity
  8
AM_5
100
AcDbLine
 10
223.4455373462881
 20
444.2138924783753
 30
0.0
 11
223.4455373462881
 21
456.4638924783753
 31
0.0
  0
LINE
  5
5BD7
330
59C6
100
AcDbEntity
  8
AM_5
100
AcDbLine
 10
189.4455373462881
 20
454.9638924783753
 30
0.0
 11
220.4455373462881
 21
454.9638924783753
 31
0.0
  0
SOLID
  5
5BD8
330
59C6
100
AcDbEntity
  8
AM_5
100
AcDbTrace
 10
189.4455373462881
 20
455.4638924783753
 30
0.0
 11
189.4455373462881
 21
454.4638924783753
 31
0.0
 12
186.4455373462881
 22
454.9638924783753
 32
0.0
 13
186.4455373462881
 23
454.9638924783753
 33
0.0
  0
SOLID
  5
5BD9
330
59C6
100
AcDbEntity
  8
AM_5
100
AcDbTrace
 10
220.4455373462881
 20
455.4638924783753
 30
0.0
 11
220.4455373462881
 21
454.4638924783753
 31
0.0
 12
223.4455373462881
 22
454.9638924783753
 32
0.0
 13
223.4455373462881
 23
454.9638924783753
 33
0.0
  0
MTEXT
  5
5BDA
330
59C6
100
AcDbEntity
  8
AM_5
100
AcDbMText
 10
204.9455373462881
 20
457.4138924783753
 30
0.0
 40
3.5
 41
0.0
 71
     5
 72
     1
  1
37
 73
     1
 44
1.0
1001
ACAD
1000
MTEXTBEGIN
1070
    73
1070
     1
1070
    44
1040
1.0
1070
    74
1070
     0
1000
MTEXTEND
  0
POINT
  5
5BDB
330
59C6
100
AcDbEntity
  8
Defpoints
 62
     0
100
AcDbPoint
 10
186.4455373462881
 20
444.9638924783753
 30
0.0
  0
POINT
  5
5BDC
330
59C6
100
AcDbEntity
  8
Defpoints
 62
     0
100
AcDbPoint
 10
223.4455373462881
 20
443.2138924783753
 30
0.0
  0
POINT
  5
5BDD
330
59C6
100
AcDbEntity
  8
Defpoints
 62
     0
100
AcDbPoint
 10
223.4455373462881
 20
454.9638924783753
 30
0.0
  0
ENDBLK
  5
59D1
330
59C6
100
AcDbEntity
  8
0
100
AcDbBlockEnd
  0
BLOCK
  5
59DC
330
59D2
100
AcDbEntity
  8
0
100
AcDbBlockBegin
  2
*D41
 70
     1
 10
0.0
 20
0.0
 30
0.0
  3
*D41
  1

  0
LINE
  5
5BDE
330
59D2
100
AcDbEntity
  8
AM_5
100
AcDbLine
 10
186.4455373462881
 20
425.9638924783753
 30
0.0
 11
186.4455373462881
 21
415.4638924783752
 31
0.0
  0
LINE
  5
5BDF
330
59D2
100
AcDbEntity
  8
AM_5
100
AcDbLine
 10
209.4455373462881
 20
424.4638924783753
 30
0.0
 11
209.4455373462881
 21
415.4638924783752
 31
0.0
  0
LINE
  5
5BE0
330
59D2
100
AcDbEntity
  8
AM_5
100
AcDbLine
 10
189.4455373462881
 20
416.9638924783753
 30
0.0
 11
206.4455373462881
 21
416.9638924783753
 31
0.0
  0
SOLID
  5
5BE1
330
59D2
100
AcDbEntity
  8
AM_5
100
AcDbTrace
 10
189.4455373462881
 20
417.4638924783753
 30
0.0
 11
189.4455373462881
 21
416.4638924783753
 31
0.0
 12
186.4455373462881
 22
416.9638924783753
 32
0.0
 13
186.4455373462881
 23
416.9638924783753
 33
0.0
  0
SOLID
  5
5BE2
330
59D2
100
AcDbEntity
  8
AM_5
100
AcDbTrace
 10
206.4455373462881
 20
417.4638924783753
 30
0.0
 11
206.4455373462881
 21
416.4638924783753
 31
0.0
 12
209.4455373462881
 22
416.9638924783753
 32
0.0
 13
209.4455373462881
 23
416.9638924783753
 33
0.0
  0
MTEXT
  5
5BE3
330
59D2
100
AcDbEntity
  8
AM_5
100
AcDbMText
 10
197.9455373462881
 20
419.4142369665643
 30
0.0
 40
3.5
 41
0.0
 71
     5
 72
     1
  1
23
 73
     1
 44
1.0
1001
ACAD
1000
MTEXTBEGIN
1070
    73
1070
     1
1070
    44
1040
1.0
1070
    74
1070
     0
1000
MTEXTEND
  0
POINT
  5
5BE4
330
59D2
100
AcDbEntity
  8
Defpoints
 62
     0
100
AcDbPoint
 10
186.4455373462881
 20
426.9638924783753
 30
0.0
  0
POINT
  5
5BE5
330
59D2
100
AcDbEntity
  8
Defpoints
 62
     0
100
AcDbPoint
 10
209.4455373462881
 20
425.4638924783753
 30
0.0
  0
POINT
  5
5BE6
330
59D2
100
AcDbEntity
  8
Defpoints
 62
     0
100
AcDbPoint
 10
209.4455373462881
 20
416.9638924783753
 30
0.0
  0
ENDBLK
  5
59DD
330
59D2
100
AcDbEntity
  8
0
100
AcDbBlockEnd
  0
BLOCK
  5
59E8
330
59DE
100
AcDbEntity
  8
0
100
AcDbBlockBegin
  2
*D42
 70
     1
 10
0.0
 20
0.0
 30
0.0
  3
*D42
  1

  0
LINE
  5
5BE7
330
59DE
100
AcDbEntity
  8
AM_5
100
AcDbLine
 10
209.4455373462881
 20
424.4638924783753
 30
0.0
 11
209.4455373462881
 21
415.4638924783753
 31
0.0
  0
LINE
  5
5BE8
330
59DE
100
AcDbEntity
  8
AM_5
100
AcDbLine
 10
232.4455373462881
 20
437.4638924783753
 30
0.0
 11
232.4455373462881
 21
415.4638924783753
 31
0.0
  0
LINE
  5
5BE9
330
59DE
100
AcDbEntity
  8
AM_5
100
AcDbLine
 10
212.4455373462881
 20
416.9638924783753
 30
0.0
 11
229.4455373462881
 21
416.9638924783753
 31
0.0
  0
SOLID
  5
5BEA
330
59DE
100
AcDbEntity
  8
AM_5
100
AcDbTrace
 10
212.4455373462881
 20
417.4638924783754
 30
0.0
 11
212.4455373462881
 21
416.4638924783753
 31
0.0
 12
209.4455373462881
 22
416.9638924783753
 32
0.0
 13
209.4455373462881
 23
416.9638924783753
 33
0.0
  0
SOLID
  5
5BEB
330
59DE
100
AcDbEntity
  8
AM_5
100
AcDbTrace
 10
229.4455373462881
 20
417.4638924783754
 30
0.0
 11
229.4455373462881
 21
416.4638924783753
 31
0.0
 12
232.4455373462881
 22
416.9638924783753
 32
0.0
 13
232.4455373462881
 23
416.9638924783753
 33
0.0
  0
MTEXT
  5
5BEC
330
59DE
100
AcDbEntity
  8
AM_5
100
AcDbMText
 10
220.9455373462881
 20
419.4142369665644
 30
0.0
 40
3.5
 41
0.0
 71
     5
 72
     1
  1
23
 73
     1
 44
1.0
1001
ACAD
1000
MTEXTBEGIN
1070
    73
1070
     1
1070
    44
1040
1.0
1070
    74
1070
     0
1000
MTEXTEND
  0
POINT
  5
5BED
330
59DE
100
AcDbEntity
  8
Defpoints
 62
     0
100
AcDbPoint
 10
209.4455373462881
 20
425.4638924783753
 30
0.0
  0
POINT
  5
5BEE
330
59DE
100
AcDbEntity
  8
Defpoints
 62
     0
100
AcDbPoint
 10
232.4455373462881
 20
438.4638924783753
 30
0.0
  0
POINT
  5
5BEF
330
59DE
100
AcDbEntity
  8
Defpoints
 62
     0
100
AcDbPoint
 10
232.4455373462881
 20
416.9638924783753
 30
0.0
  0
ENDBLK
  5
59E9
330
59DE
100
AcDbEntity
  8
0
100
AcDbBlockEnd
  0
BLOCK
  5
59F4
330
59EA
100
AcDbEntity
  8
0
100
AcDbBlockBegin
  2
*D43
 70
     1
 10
0.0
 20
0.0
 30
0.0
  3
*D43
  1

  0
LINE
  5
5BF0
330
59EA
100
AcDbEntity
  8
AM_5
100
AcDbLine
 10
204.4455373462881
 20
429.4638924783753
 30
0.0
 11
174.9455373462881
 21
429.4638924783753
 31
0.0
  0
LINE
  5
5BF1
330
59EA
100
AcDbEntity
  8
AM_5
100
AcDbLine
 10
227.4455373462881
 20
442.4638924783753
 30
0.0
 11
174.9455373462881
 21
442.4638924783753
 31
0.0
  0
LINE
  5
5BF2
330
59EA
100
AcDbEntity
  8
AM_5
100
AcDbLine
 10
176.4455373462881
 20
432.4638924783753
 30
0.0
 11
176.4455373462881
 21
439.4638924783753
 31
0.0
  0
SOLID
  5
5BF3
330
59EA
100
AcDbEntity
  8
AM_5
100
AcDbTrace
 10
175.9455373462881
 20
432.4638924783753
 30
0.0
 11
176.9455373462881
 21
432.4638924783753
 31
0.0
 12
176.4455373462881
 22
429.4638924783753
 32
0.0
 13
176.4455373462881
 23
429.4638924783753
 33
0.0
  0
SOLID
  5
5BF4
330
59EA
100
AcDbEntity
  8
AM_5
100
AcDbTrace
 10
175.9455373462881
 20
439.4638924783753
 30
0.0
 11
176.9455373462881
 21
439.4638924783753
 31
0.0
 12
176.4455373462881
 22
442.4638924783753
 32
0.0
 13
176.4455373462881
 23
442.4638924783753
 33
0.0
  0
MTEXT
  5
5BF5
330
59EA
100
AcDbEntity
  8
AM_5
100
AcDbMText
 10
173.9955373462881
 20
435.9638924783753
 30
0.0
 40
3.5
 41
0.0
 71
     5
 72
     1
  1
13
 11
0.0000000000000001
 21
1.0
 31
0.0
 73
     1
 44
1.0
1001
ACAD
1000
MTEXTBEGIN
1070
    73
1070
     1
1070
    44
1040
1.0
1070
    74
1070
     0
1000
MTEXTEND
  0
POINT
  5
5BF6
330
59EA
100
AcDbEntity
  8
Defpoints
 62
     0
100
AcDbPoint
 10
205.4455373462881
 20
429.4638924783753
 30
0.0
  0
POINT
  5
5BF7
330
59EA
100
AcDbEntity
  8
Defpoints
 62
     0
100
AcDbPoint
 10
228.4455373462881
 20
442.4638924783753
 30
0.0
  0
POINT
  5
5BF8
330
59EA
100
AcDbEntity
  8
Defpoints
 62
     0
100
AcDbPoint
 10
176.4455373462881
 20
442.4638924783753
 30
0.0
  0
ENDBLK
  5
59F5
330
59EA
100
AcDbEntity
  8
0
100
AcDbBlockEnd
  0
BLOCK
  5
5A00
330
59F6
100
AcDbEntity
  8
0
100
AcDbBlockBegin
  2
*D44
 70
     1
 10
0.0
 20
0.0
 30
0.0
  3
*D44
  1

  0
LINE
  5
5BF9
330
59F6
100
AcDbEntity
  8
AM_5
100
AcDbLine
 10
185.4455373462881
 20
444.9638924783753
 30
0.0
 11
166.9455373462881
 21
444.9638924783753
 31
0.0
  0
LINE
  5
5BFA
330
59F6
100
AcDbEntity
  8
AM_5
100
AcDbLine
 10
185.4455373462881
 20
426.9638924783753
 30
0.0
 11
166.9455373462881
 21
426.9638924783753
 31
0.0
  0
LINE
  5
5BFB
330
59F6
100
AcDbEntity
  8
AM_5
100
AcDbLine
 10
168.4455373462881
 20
441.9638924783753
 30
0.0
 11
168.4455373462881
 21
429.9638924783753
 31
0.0
  0
SOLID
  5
5BFC
330
59F6
100
AcDbEntity
  8
AM_5
100
AcDbTrace
 10
167.9455373462881
 20
441.9638924783753
 30
0.0
 11
168.9455373462881
 21
441.9638924783753
 31
0.0
 12
168.4455373462881
 22
444.9638924783753
 32
0.0
 13
168.4455373462881
 23
444.9638924783753
 33
0.0
  0
SOLID
  5
5BFD
330
59F6
100
AcDbEntity
  8
AM_5
100
AcDbTrace
 10
167.9455373462881
 20
429.9638924783753
 30
0.0
 11
168.9455373462881
 21
429.9638924783753
 31
0.0
 12
168.4455373462881
 22
426.9638924783753
 32
0.0
 13
168.4455373462881
 23
426.9638924783753
 33
0.0
  0
MTEXT
  5
5BFE
330
59F6
100
AcDbEntity
  8
AM_5
100
AcDbMText
 10
165.995537346288
 20
435.9638924783753
 30
0.0
 40
3.5
 41
0.0
 71
     5
 72
     1
  1
18
 11
0.0000000000000001
 21
1.0
 31
0.0
 73
     1
 44
1.0
1001
ACAD
1000
MTEXTBEGIN
1070
    73
1070
     1
1070
    44
1040
1.0
1070
    74
1070
     0
1000
MTEXTEND
  0
POINT
  5
5BFF
330
59F6
100
AcDbEntity
  8
Defpoints
 62
     0
100
AcDbPoint
 10
186.4455373462881
 20
444.9638924783753
 30
0.0
  0
POINT
  5
5C00
330
59F6
100
AcDbEntity
  8
Defpoints
 62
     0
100
AcDbPoint
 10
186.4455373462881
 20
426.9638924783753
 30
0.0
  0
POINT
  5
5C01
330
59F6
100
AcDbEntity
  8
Defpoints
 62
     0
100
AcDbPoint
 10
168.4455373462881
 20
426.9638924783753
 30
0.0
  0
ENDBLK
  5
5A01
330
59F6
100
AcDbEntity
  8
0
100
AcDbBlockEnd
  0
BLOCK
  5
5A0C
330
5A02
100
AcDbEntity
  8
0
100
AcDbBlockBegin
  2
*D45
 70
     1
 10
0.0
 20
0.0
 30
0.0
  3
*D45
  1

  0
LINE
  5
5C02
330
5A02
100
AcDbEntity
  8
AM_5
100
AcDbLine
 10
186.4455373462881
 20
425.9638924783753
 30
0.0
 11
186.4455373462881
 21
407.4638924783752
 31
0.0
  0
LINE
  5
5C03
330
5A02
100
AcDbEntity
  8
AM_5
100
AcDbLine
 10
255.4455373462881
 20
425.9638924783753
 30
0.0
 11
255.4455373462881
 21
407.4638924783752
 31
0.0
  0
LINE
  5
5C04
330
5A02
100
AcDbEntity
  8
AM_5
100
AcDbLine
 10
189.4455373462881
 20
408.9638924783752
 30
0.0
 11
252.4455373462881
 21
408.9638924783752
 31
0.0
  0
SOLID
  5
5C05
330
5A02
100
AcDbEntity
  8
AM_5
100
AcDbTrace
 10
189.4455373462881
 20
409.4638924783752
 30
0.0
 11
189.4455373462881
 21
408.4638924783751
 31
0.0
 12
186.4455373462881
 22
408.9638924783752
 32
0.0
 13
186.4455373462881
 23
408.9638924783752
 33
0.0
  0
SOLID
  5
5C06
330
5A02
100
AcDbEntity
  8
AM_5
100
AcDbTrace
 10
252.4455373462881
 20
409.4638924783752
 30
0.0
 11
252.4455373462881
 21
408.4638924783751
 31
0.0
 12
255.4455373462881
 22
408.9638924783752
 32
0.0
 13
255.4455373462881
 23
408.9638924783752
 33
0.0
  0
MTEXT
  5
5C07
330
5A02
100
AcDbEntity
  8
AM_5
100
AcDbMText
 10
220.9455373462881
 20
411.4138924783752
 30
0.0
 40
3.5
 41
0.0
 71
     5
 72
     1
  1
69
 73
     1
 44
1.0
1001
ACAD
1000
MTEXTBEGIN
1070
    73
1070
     1
1070
    44
1040
1.0
1070
    74
1070
     0
1000
MTEXTEND
  0
POINT
  5
5C08
330
5A02
100
AcDbEntity
  8
Defpoints
 62
     0
100
AcDbPoint
 10
186.4455373462881
 20
426.9638924783753
 30
0.0
  0
POINT
  5
5C09
330
5A02
100
AcDbEntity
  8
Defpoints
 62
     0
100
AcDbPoint
 10
255.4455373462881
 20
426.9638924783753
 30
0.0
  0
POINT
  5
5C0A
330
5A02
100
AcDbEntity
  8
Defpoints
 62
     0
100
AcDbPoint
 10
255.4455373462881
 20
408.9638924783752
 30
0.0
  0
ENDBLK
  5
5A0D
330
5A02
100
AcDbEntity
  8
0
100
AcDbBlockEnd
  0
BLOCK
  5
5A2C
330
5A20
100
AcDbEntity
  8
0
100
AcDbBlockBegin
  2
*D46
 70
     1
 10
0.0
 20
0.0
 30
0.0
  3
*D46
  1

  0
LINE
  5
5BA4
330
5A20
100
AcDbEntity
  8
AM_5
100
AcDbLine
 10
259.5547224238302
 20
332.2275651127498
 30
0.0
 11
266.9455373462881
 21
332.2275651127498
 31
0.0
  0
LINE
  5
5BA5
330
5A20
100
AcDbEntity
  8
AM_5
100
AcDbLine
 10
237.1955373462881
 20
332.7275651127498
 30
0.0
 11
266.9455373462881
 21
332.7275651127498
 31
0.0
  0
LINE
  5
5BA6
330
5A20
100
AcDbEntity
  8
AM_5
100
AcDbLine
 10
265.4455373462881
 20
329.2275651127498
 30
0.0
 11
265.4455373462881
 21
326.2275651127498
 31
0.0
  0
LINE
  5
5BA7
330
5A20
100
AcDbEntity
  8
AM_5
100
AcDbLine
 10
265.4455373462881
 20
335.7275651127498
 30
0.0
 11
265.4455373462881
 21
345.1752957650922
 31
0.0
  0
LINE
  5
5BA8
330
5A20
100
AcDbEntity
  8
AM_5
100
AcDbLine
 10
265.4455373462881
 20
332.2275651127498
 30
0.0
 11
265.4455373462881
 21
332.7275651127498
 31
0.0
  0
SOLID
  5
5BA9
330
5A20
100
AcDbEntity
  8
AM_5
100
AcDbTrace
 10
264.9455373462881
 20
329.2275651127498
 30
0.0
 11
265.9455373462881
 21
329.2275651127498
 31
0.0
 12
265.4455373462881
 22
332.2275651127498
 32
0.0
 13
265.4455373462881
 23
332.2275651127498
 33
0.0
  0
SOLID
  5
5BAA
330
5A20
100
AcDbEntity
  8
AM_5
100
AcDbTrace
 10
264.9455373462881
 20
335.7275651127498
 30
0.0
 11
265.9455373462881
 21
335.7275651127498
 31
0.0
 12
265.4455373462881
 22
332.7275651127498
 32
0.0
 13
265.4455373462881
 23
332.7275651127498
 33
0.0
  0
MTEXT
  5
5BAB
330
5A20
100
AcDbEntity
  8
AM_5
100
AcDbMText
 10
262.9955373462881
 20
341.9514304389211
 30
0.0
 40
3.5
 41
0.0
 71
     5
 72
     1
  1
0.5
 11
0.0000000000000001
 21
1.0
 31
0.0
 73
     1
 44
1.0
1001
ACAD
1000
MTEXTBEGIN
1070
    73
1070
     1
1070
    44
1040
1.0
1070
    74
1070
     0
1000
MTEXTEND
  0
POINT
  5
5BAC
330
5A20
100
AcDbEntity
  8
Defpoints
 62
     0
100
AcDbPoint
 10
258.5547224238302
 20
332.2275651127498
 30
0.0
  0
POINT
  5
5BAD
330
5A20
100
AcDbEntity
  8
Defpoints
 62
     0
100
AcDbPoint
 10
236.1955373462881
 20
332.7275651127498
 30
0.0
  0
POINT
  5
5BAE
330
5A20
100
AcDbEntity
  8
Defpoints
 62
     0
100
AcDbPoint
 10
265.4455373462881
 20
332.7275651127498
 30
0.0
  0
ENDBLK
  5
5A2D
330
5A20
100
AcDbEntity
  8
0
100
AcDbBlockEnd
  0
BLOCK
  5
5A96
330
5A8A
100
AcDbEntity
  8
0
100
AcDbBlockBegin
  2
*D47
 70
     1
 10
0.0
 20
0.0
 30
0.0
  3
*D47
  1

  0
LINE
  5
5C0B
330
5A8A
100
AcDbEntity
  8
AM_5
100
AcDbLine
 10
205.4455373462881
 20
393.4327798705815
 30
0.0
 11
198.7029417663436
 21
393.4327798705815
 31
0.0
  0
LINE
  5
5C0C
330
5A8A
100
AcDbEntity
  8
AM_5
100
AcDbLine
 10
205.4455373462881
 20
390.4327798705815
 30
0.0
 11
198.7029417663436
 21
390.4327798705815
 31
0.0
  0
LINE
  5
5C0D
330
5A8A
100
AcDbEntity
  8
AM_5
100
AcDbLine
 10
200.2029417663437
 20
387.4327798705815
 30
0.0
 11
200.2029417663437
 21
384.4327798705815
 31
0.0
  0
LINE
  5
5C0E
330
5A8A
100
AcDbEntity
  8
AM_5
100
AcDbLine
 10
200.2029417663437
 20
396.4327798705815
 30
0.0
 11
200.2029417663437
 21
402.3777546174121
 31
0.0
  0
LINE
  5
5C0F
330
5A8A
100
AcDbEntity
  8
AM_5
100
AcDbLine
 10
200.2029417663437
 20
390.4327798705815
 30
0.0
 11
200.2029417663437
 21
393.4327798705815
 31
0.0
  0
SOLID
  5
5C10
330
5A8A
100
AcDbEntity
  8
AM_5
100
AcDbTrace
 10
199.7029417663436
 20
387.4327798705815
 30
0.0
 11
200.7029417663436
 21
387.4327798705815
 31
0.0
 12
200.2029417663437
 22
390.4327798705815
 32
0.0
 13
200.2029417663437
 23
390.4327798705815
 33
0.0
  0
SOLID
  5
5C11
330
5A8A
100
AcDbEntity
  8
AM_5
100
AcDbTrace
 10
199.7029417663436
 20
396.4327798705815
 30
0.0
 11
200.7029417663436
 21
396.4327798705815
 31
0.0
 12
200.2029417663437
 22
393.4327798705815
 32
0.0
 13
200.2029417663437
 23
393.4327798705815
 33
0.0
  0
MTEXT
  5
5C12
330
5A8A
100
AcDbEntity
  8
AM_5
100
AcDbMText
 10
197.7529417663436
 20
400.9052672439969
 30
0.0
 40
3.5
 41
0.0
 71
     5
 72
     1
  1
3
 11
0.0000000000000001
 21
1.0
 31
0.0
 73
     1
 44
1.0
1001
ACAD
1000
MTEXTBEGIN
1070
    73
1070
     1
1070
    44
1040
1.0
1070
    74
1070
     0
1000
MTEXTEND
  0
POINT
  5
5C13
330
5A8A
100
AcDbEntity
  8
Defpoints
 62
     0
100
AcDbPoint
 10
206.4455373462881
 20
393.4327798705815
 30
0.0
  0
POINT
  5
5C14
330
5A8A
100
AcDbEntity
  8
Defpoints
 62
     0
100
AcDbPoint
 10
206.4455373462881
 20
390.4327798705815
 30
0.0
  0
POINT
  5
5C15
330
5A8A
100
AcDbEntity
  8
Defpoints
 62
     0
100
AcDbPoint
 10
200.2029417663437
 20
390.4327798705815
 30
0.0
  0
ENDBLK
  5
5A97
330
5A8A
100
AcDbEntity
  8
0
100
AcDbBlockEnd
  0
BLOCK
  5
5C73
330
5C6E
100
AcDbEntity
  8
0
100
AcDbBlockBegin
  2
*S49
 70
     1
 10
0.0
 20
0.0
 30
0.0
  3
*S49
  1

  0
LINE
  5
5C6F
330
5C6E
100
AcDbEntity
  8
AM_5
 62
     5
100
AcDbLine
 10
256.2893150707326
 20
454.7511775972006
 30
0.0
 11
240.4062703700509
 21
454.7511775972006
 31
0.0
  0
LINE
  5
5C70
330
5C6E
100
AcDbEntity
  8
AM_5
 62
     5
100
AcDbLine
 10
240.4062703700509
 20
454.7511775972006
 30
0.0
 11
235.4937883734547
 21
446.4552824012518
 31
0.0
  0
TRACE
  5
5C71
330
5C6E
100
AcDbEntity
  8
AM_5
 62
     5
370
    35
100
AcDbTrace
 10
235.0973045000126
 20
446.6900635603937
 30
0.0
 11
235.8902722468967
 21
446.2205012421099
 31
0.0
 12
233.7104484103554
 22
443.4436883754885
 32
0.0
 13
233.7104484103554
 23
443.4436883754885
 33
0.0
  0
MTEXT
  5
5C72
330
5C6E
100
AcDbEntity
  8
AM_5
 62
     5
100
AcDbMText
 10
256.2893150707326
 20
459.8126313319235
 30
0.0
 40
3.5
 41
0.0
 71
     7
 72
     5
  1

  7
ACISOTS
 73
     1
 44
1.0
1001
ACAD
1000
MTEXTBEGIN
1070
    73
1070
     1
1070
    44
1040
1.0
1070
    74
1070
     0
1000
MTEXTEND
  0
ENDBLK
  5
5C74
330
5C6E
100
AcDbEntity
  8
0
100
AcDbBlockEnd
  0
BLOCK
  5
5C7B
330
5C76
100
AcDbEntity
  8
0
100
AcDbBlockBegin
  2
*S50
 70
     1
 10
0.0
 20
0.0
 30
0.0
  3
*S50
  1

  0
LINE
  5
5C77
330
5C76
100
AcDbEntity
  8
AM_5
 62
     5
100
AcDbLine
 10
261.9551968873626
 20
347.4268541721275
 30
0.0
 11
243.2096062063382
 21
347.4268541721275
 31
0.0
  0
LINE
  5
5C78
330
5C76
100
AcDbEntity
  8
AM_5
 62
     5
100
AcDbLine
 10
243.2096062063382
 20
347.4268541721275
 30
0.0
 11
236.1907009015762
 21
338.7433442316324
 31
0.0
  0
TRACE
  5
5C79
330
5C76
100
AcDbEntity
  8
AM_5
 62
     5
370
    35
100
AcDbTrace
 10
235.8323452164754
 20
339.0330041314174
 30
0.0
 11
236.5490565866771
 21
338.4536843318473
 31
0.0
 12
233.9905155166759
 22
336.0213625505642
 32
0.0
 13
233.9905155166759
 23
336.0213625505642
 33
0.0
  0
MTEXT
  5
5C7A
330
5C76
100
AcDbEntity
  8
AM_5
 62
     5
100
AcDbMText
 10
261.9551968873626
 20
352.4883079068504
 30
0.0
 40
3.5
 41
0.0
 71
     7
 72
     5
  1

  7
ACISOTS
 73
     1
 44
1.0
1001
ACAD
1000
MTEXTBEGIN
1070
    73
1070
     1
1070
    44
1040
1.0
1070
    74
1070
     0
1000
MTEXTEND
  0
ENDBLK
  5
5C7C
330
5C76
100
AcDbEntity
  8
0
100
AcDbBlockEnd
  0
BLOCK
  5
5C83
330
5C7E
100
AcDbEntity
  8
0
100
AcDbBlockBegin
  2
*S51
 70
     1
 10
0.0
 20
0.0
 30
0.0
  3
*S51
  1

  0
LINE
  5
5C7F
330
5C7E
100
AcDbEntity
  8
AM_5
 62
     5
100
AcDbLine
 10
248.0349717591742
 20
355.529396496732
 30
0.0
 11
231.7073088747791
 21
355.529396496732
 31
0.0
  0
LINE
  5
5C80
330
5C7E
100
AcDbEntity
  8
AM_5
 62
     5
100
AcDbLine
 10
231.7073088747791
 20
355.529396496732
 30
0.0
 11
225.6936845920945
 21
367.1734132864695
 31
0.0
  0
TRACE
  5
5C81
330
5C7E
100
AcDbEntity
  8
AM_5
 62
     5
370
    35
100
AcDbTrace
 10
226.1030919427374
 20
367.3848542376286
 30
0.0
 11
225.2842772414516
 21
366.9619723353102
 31
0.0
 12
224.0876311105625
 22
370.2831708677704
 32
0.0
 13
224.0876311105625
 23
370.2831708677704
 33
0.0
  0
MTEXT
  5
5C82
330
5C7E
100
AcDbEntity
  8
AM_5
 62
     5
100
AcDbMText
 10
248.0349717591742
 20
360.5908502314548
 30
0.0
 40
3.5
 41
0.0
 71
     7
 72
     5
  1

  7
ACISOTS
 73
     1
 44
1.0
1001
ACAD
1000
MTEXTBEGIN
1070
    73
1070
     1
1070
    44
1040
1.0
1070
    74
1070
     0
1000
MTEXTEND
  0
ENDBLK
  5
5C84
330
5C7E
100
AcDbEntity
  8
0
100
AcDbBlockEnd
  0
BLOCK
  5
5C8B
330
5C86
100
AcDbEntity
  8
0
100
AcDbBlockBegin
  2
*S52
 70
     1
 10
0.0
 20
0.0
 30
0.0
  3
*S52
  1

  0
LINE
  5
5C87
330
5C86
100
AcDbEntity
  8
AM_5
 62
     5
100
AcDbLine
 10
258.3962793244835
 20
398.9705780524538
 30
0.0
 11
277.2255136053981
 21
398.9705780524538
 31
0.0
  0
LINE
  5
5C88
330
5C86
100
AcDbEntity
  8
AM_5
 62
     5
100
AcDbLine
 10
277.2255136053981
 20
398.9705780524538
 30
0.0
 11
284.4174904463413
 21
386.7623542270287
 31
0.0
  0
TRACE
  5
5C89
330
5C86
100
AcDbEntity
  8
AM_5
 62
     5
370
    35
100
AcDbTrace
 10
284.0204768817498
 20
386.5284698878396
 30
0.0
 11
284.8145040109329
 21
386.9962385662179
 31
0.0
 12
286.1940183855655
 22
383.7467367975202
 32
0.0
 13
286.1940183855655
 23
383.7467367975202
 33
0.0
  0
MTEXT
  5
5C8A
330
5C86
100
AcDbEntity
  8
AM_5
 62
     5
100
AcDbMText
 10
258.3962793244835
 20
404.0320317871765
 30
0.0
 40
3.5
 41
0.0
 71
     7
 72
     5
  1

  7
ACISOTS
210
0.0
220
0.0
230
-1.0
 11
-1.0
 21
0.0
 31
0.0
 73
     1
 44
1.0
1001
ACAD
1000
MTEXTBEGIN
1070
    73
1070
     1
1070
    44
1040
1.0
1070
    74
1070
     0
1000
MTEXTEND
  0
ENDBLK
  5
5C8C
330
5C86
100
AcDbEntity
  8
0
100
AcDbBlockEnd
  0
ENDSEC
  0
SECTION
  2
ENTITIES
  0
LWPOLYLINE
  5
4BF4
330
1F
100
AcDbEntity
  8
LOGO
 62
     4
100
AcDbPolyline
 90
        4
 70
     1
 43
0.0
 10
133.6613370027894
 20
292.1380370021814
 10
333.6613370027894
 20
292.1380370021814
 10
333.6613370027894
 20
483.6170596451837
 10
133.6613370027894
 20
483.6170596451837
1001
GENIUS_GENREC_14
1002
{
1000
PYDIR
1011
133.6613370027894
1021
483.6170596451837
1031
0.0
1002
}
1002
{
1000
PXDIR
1011
333.6613370027894
1021
292.1380370021814
1031
0.0
1002
}
1002
{
1000
PORI
1011
133.6613370027894
1021
292.1380370021814
1031
0.0
1002
}
1002
{
1000
PINS
1011
133.6613370027894
1021
292.1380370021814
1031
0.0
1002
}
1002
{
1000
PINS2
1011
333.6613370027894
1021
483.6170596451837
1031
0.0
1002
}
1002
{
1000
C
1070
     1
1002
}
1001
GENIUS_GENODEF_13
1002
{
1000
HIER
1070
     0
1002
}
1002
{
1000
MANEDIT
1070
     0
1002
}
1002
{
1000
NOSEL
1070
     0
1002
}
1002
{
1000
BEHIND
1070
     0
1002
}
1002
{
1000
OTHER
1070
     0
1002
}
1002
{
1000
REACTOR
1002
}
1001
GENIUS_GENOBJ-N-REC_13
1002
{
1000
OWNER
1000
GEN
1002
}
  0
LWPOLYLINE
  5
4BF5
330
1F
100
AcDbEntity
  8
LOGO
 62
     4
100
AcDbPolyline
 90
        4
 70
     1
 43
0.0
 10
133.6613370027894
 20
292.1380370021814
 10
333.6613370027894
 20
292.1380370021814
 10
333.6613370027894
 20
272.1409329297828
 10
133.6613370027894
 20
272.1409329297828
1001
GENIUS_GENREC_14
1002
{
1000
PYDIR
1011
133.6613370027894
1021
272.1409329297828
1031
0.0
1002
}
1002
{
1000
PXDIR
1011
333.6613370027894
1021
292.1380370021814
1031
0.0
1002
}
1002
{
1000
PORI
1011
133.6613370027894
1021
292.1380370021814
1031
0.0
1002
}
1002
{
1000
PINS
1011
133.6613370027894
1021
292.1380370021814
1031
0.0
1002
}
1002
{
1000
PINS2
1011
333.6613370027894
1021
272.1409329297828
1031
0.0
1002
}
1002
{
1000
C
1070
     1
1002
}
1001
GENIUS_GENOBJ-N-REC_13
1002
{
1000
OWNER
1000
GEN
1002
}
1001
GENIUS_GENODEF_13
1002
{
1000
HIER
1070
     0
1002
}
1002
{
1000
MANEDIT
1070
     0
1002
}
1002
{
1000
NOSEL
1070
     0
1002
}
1002
{
1000
BEHIND
1070
     0
1002
}
1002
{
1000
OTHER
1070
     0
1002
}
1002
{
1000
REACTOR
1002
}
  0
TEXT
  5
4BF6
330
1F
100
AcDbEntity
  8
LOGO
 62
     7
100
AcDbText
 10
178.8134739014967
 20
283.3776459878663
 30
0.0
 40
2.666280542986425
  1
Order example:
 41
0.8
  7
CHINESET
100
AcDbText
  0
TEXT
  5
4BF7
330
1F
100
AcDbEntity
  8
LOGO
 62
     7
100
AcDbText
 10
179.2918266801516
 20
287.1312169319606
 30
0.0
 40
3.999420814479637
  1
訂購代號：
  7
CHINESET
100
AcDbText
  0
LINE
  5
4BF8
330
1F
100
AcDbEntity
  8
LOGO
 62
     4
100
AcDbLine
 10
177.6549659620655
 20
272.1409329297831
 30
0.0
 11
177.6549659620655
 21
292.1380370021814
 31
0.0
  0
TEXT
  5
4BF9
330
1F
100
AcDbEntity
  8
LOGO
  6
Continuous
100
AcDbText
 10
140.8443866743168
 20
276.0693338465444
 30
0.0
 40
2.999565610859728
  1
金器工業股份有限公司
  7
CHINESET
100
AcDbText
  0
TEXT
  5
4BFA
330
1F
100
AcDbEntity
  8
LOGO
  6
Continuous
100
AcDbText
 10
135.3347780819585
 20
273.069180556
 30
0.0
 40
1.999710407239818
  1
MINDMAN INDUSTRIAL CO., LTD.
 41
0.85
  7
CHINESET
100
AcDbText
  0
LINE
  5
4BFB
330
1F
100
AcDbEntity
  8
LOGO
 62
     4
100
AcDbLine
 10
177.6549659620655
 20
288.1386161877017
 30
0.0
 11
148.3258799892146
 21
288.1386161877017
 31
0.0
  0
LINE
  5
4BFC
330
1F
100
AcDbEntity
  8
LOGO
 62
     4
100
AcDbLine
 10
177.6549659620655
 20
284.139195373222
 30
0.0
 11
148.3258799892146
 21
284.139195373222
 31
0.0
  0
LINE
  5
4BFD
330
1F
100
AcDbEntity
  8
LOGO
 62
     4
100
AcDbLine
 10
177.6549659620655
 20
280.1397745587426
 30
0.0
 11
133.6613370027894
 21
280.1397745587426
 31
0.0
  0
LINE
  5
4BFE
330
1F
100
AcDbEntity
  8
LOGO
 62
     4
100
AcDbLine
 10
148.3258799892146
 20
280.1397745587426
 30
0.0
 11
148.3258799892146
 21
292.1380370021814
 31
0.0
  0
TEXT
  5
4BFF
330
1F
100
AcDbEntity
  8
LOGO
100
AcDbText
 10
168.3709259398859
 20
281.1396297623622
 30
0.0
 40
1.999710407239818
  1
mm
  7
CHINESET
 72
     1
 11
170.846757872659
 21
282.1394849659821
 31
0.0
100
AcDbText
 73
     2
  0
TEXT
  5
4C00
330
1F
100
AcDbEntity
  8
LOGO
100
AcDbText
 10
167.3234585837127
 20
289.1384713913215
 30
0.0
 40
1.999710407239818
  1
1 : 1
  7
CHINESET
 72
     1
 11
170.846757872659
 21
290.1383265949414
 31
0.0
100
AcDbText
 73
     2
  0
LINE
  5
4C01
330
1F
100
AcDbEntity
  8
LOGO
 62
     4
100
AcDbLine
 10
164.3235632471333
 20
280.1397745587426
 30
0.0
 11
164.3235632471333
 21
292.1380370021814
 31
0.0
  0
CIRCLE
  5
4C02
330
1F
100
AcDbEntity
  8
LOGO
  6
Continuous
100
AcDbCircle
 10
168.0262771859616
 20
286.1431831756565
 30
0.0
 40
1.161078930320631
  0
CIRCLE
  5
4C03
330
1F
100
AcDbEntity
  8
LOGO
  6
Continuous
100
AcDbCircle
 10
168.0262771859616
 20
286.1431831756565
 30
0.0
 40
0.6802894686655972
  0
LINE
  5
4C04
330
1F
100
AcDbEntity
  8
LOGO
100
AcDbLine
 10
175.3226319099981
 20
284.9821042453357
 30
0.0
 11
175.3226319099981
 21
287.3042621059774
 31
0.0
  0
LINE
  5
4C05
330
1F
100
AcDbEntity
  8
LOGO
100
AcDbLine
 10
171.6827161125538
 20
285.4628937069911
 30
0.0
 11
171.6827161125538
 21
286.8234726443223
 31
0.0
  0
LINE
  5
4C06
330
1F
100
AcDbEntity
  8
LOGO
  6
Continuous
100
AcDbLine
 10
171.6827161125538
 20
286.8234726443223
 30
0.0
 11
175.3226319099981
 21
287.3042621059774
 31
0.0
  0
LINE
  5
4C07
330
1F
100
AcDbEntity
  8
LOGO
  6
Continuous
100
AcDbLine
 10
171.6827161125538
 20
285.4628937069911
 30
0.0
 11
175.3226319099981
 21
284.9821042453357
 31
0.0
  0
TEXT
  5
4C08
330
1F
100
AcDbEntity
  8
LOGO
100
AcDbText
 10
149.9747483473271
 20
289.1394555007739
 30
131.0577257600498
 40
1.999710407239818
  1
比例 Scale:
 41
0.9
  7
CHINESET
 72
     4
 11
156.3247216181739
 21
290.1383265949414
 31
131.0577257600498
100
AcDbText
  0
TEXT
  5
4C09
330
1F
100
AcDbEntity
  8
LOGO
100
AcDbText
 10
149.8595864533388
 20
285.1671797053557
 30
131.0577257600498
 40
1.999710407239818
  1
投影  View:
 41
0.9
  7
CHINESET
 72
     4
 11
156.3247216181739
 21
286.1389057804617
 31
131.0577257600498
100
AcDbText
  0
TEXT
  5
4C0A
330
1F
100
AcDbEntity
  8
LOGO
100
AcDbText
 10
150.0550938547609
 20
281.1396297623622
 30
131.0577257600498
 40
1.999710407239818
  1
單位  Unit:
 41
0.9
  7
CHINESET
 72
     4
 11
156.3247216181739
 21
282.1394849659821
 31
131.0577257600498
100
AcDbText
  0
SOLID
  5
4C0B
330
1F
100
AcDbEntity
  8
LOGO
 62
     5
100
AcDbTrace
 10
135.7360686432116
 20
283.464008474416
 30
0.0
 11
136.600690950901
 21
283.4640084744158
 31
0.0
 12
140.2082529933291
 22
291.6630131162985
 32
0.0
 13
141.0728753010189
 23
291.6630131162981
 33
0.0
  0
SOLID
  5
4C0C
330
1F
100
AcDbEntity
  8
LOGO
 62
     5
100
AcDbTrace
 10
136.9584656989113
 20
283.464008474416
 30
0.0
 11
137.8230880066007
 21
283.464008474416
 31
0.0
 12
141.0728753010189
 22
291.0070927449476
 32
0.0
 13
140.2082529933291
 23
287.8368109500864
 33
0.0
  0
SOLID
  5
4C0D
330
1F
100
AcDbEntity
  8
LOGO
 62
     2
100
AcDbTrace
 10
136.600690950901
 20
283.4640084744158
 30
0.0
 11
136.9584656989113
 21
283.464008474416
 31
0.0
 12
141.0728753010189
 22
291.6630131162981
 32
0.0
 13
141.4306500490288
 23
291.6630131162981
 33
0.0
  0
SOLID
  5
4C0E
330
1F
100
AcDbEntity
  8
LOGO
 62
     5
100
AcDbTrace
 10
134.3498670526232
 20
280.4825522410045
 30
0.0
 11
134.6480126759647
 21
280.4825522410045
 31
0.0
 12
135.4876139570942
 22
281.9732803577101
 32
0.0
 13
135.7857595804348
 23
281.9732803577101
 33
0.0
  0
SOLID
  5
4C0F
330
1F
100
AcDbEntity
  8
LOGO
 62
     5
100
AcDbTrace
 10
135.4876139570942
 20
281.9732803577101
 30
0.0
 11
135.7857595804348
 21
281.9732803577101
 31
0.0
 12
135.4876139570942
 22
280.4825522410045
 32
0.0
 13
135.7857595804348
 23
280.4825522410045
 33
0.0
  0
SOLID
  5
4C10
330
1F
100
AcDbEntity
  8
LOGO
 62
     5
100
AcDbTrace
 10
135.4876139570942
 20
280.4825522410045
 30
0.0
 11
135.7857595804348
 21
280.4825522410045
 31
0.0
 12
136.6253608615657
 22
281.9732803577101
 32
0.0
 13
136.9235064849067
 23
281.9732803577101
 33
0.0
  0
SOLID
  5
4C11
330
1F
100
AcDbEntity
  8
LOGO
 62
     5
100
AcDbTrace
 10
136.6253608615657
 20
281.9732803577101
 30
0.0
 11
136.9235064849067
 21
281.9732803577101
 31
0.0
 12
136.6253608615657
 22
280.4825522410045
 32
0.0
 13
136.9235064849067
 23
280.4825522410045
 33
0.0
  0
POLYLINE
  5
4C12
330
1F
100
AcDbEntity
  8
LOGO
 62
     5
100
AcDb2dPolyline
 66
     1
 10
0.0
 20
0.0
 30
0.0
 40
0.2986234208144796
 41
0.2986234208144796
  0
VERTEX
  5
4C13
330
4C12
100
AcDbEntity
  8
LOGO
 62
     5
100
AcDbVertex
100
AcDb2dVertex
 10
146.6191005913751
 20
281.3769891110278
 30
0.0
 42
1.0
  0
VERTEX
  5
4C14
330
4C12
100
AcDbEntity
  8
LOGO
 62
     5
100
AcDbVertex
100
AcDb2dVertex
 10
145.7232303289315
 20
281.3769891110278
 30
0.0
 42
1.0
  0
SEQEND
  5
4C15
330
4C12
100
AcDbEntity
  8
LOGO
 62
     5
  0
POLYLINE
  5
4C16
330
1F
100
AcDbEntity
  8
LOGO
 62
     5
100
AcDb2dPolyline
 66
     1
 10
0.0
 20
0.0
 30
0.0
 70
     1
  0
VERTEX
  5
4C17
330
4C16
100
AcDbEntity
  8
LOGO
 62
     5
100
AcDbVertex
100
AcDb2dVertex
 10
144.0344750359159
 20
281.227916299357
 30
0.0
 42
1.000000057330635
  0
VERTEX
  5
4C18
330
4C16
100
AcDbEntity
  8
LOGO
 62
     5
100
AcDbVertex
100
AcDb2dVertex
 10
144.9289119059394
 20
281.227916299357
 30
0.0
 42
1.000000057330635
  0
SEQEND
  5
4C19
330
4C16
100
AcDbEntity
  8
LOGO
 62
     5
  0
CIRCLE
  5
4C1A
330
1F
100
AcDbEntity
  8
LOGO
 62
     5
100
AcDbCircle
 10
144.4816934709283
 20
281.227916299357
 30
0.0
 40
0.4472184350117648
  0
POLYLINE
  5
4C1B
330
1F
100
AcDbEntity
  8
LOGO
 62
     5
100
AcDb2dPolyline
 66
     1
 10
0.0
 20
0.0
 30
0.0
 70
     1
 40
0.2986234208144796
 41
0.2986234208144796
  0
VERTEX
  5
4C1C
330
4C1B
100
AcDbEntity
  8
LOGO
 62
     5
100
AcDbVertex
100
AcDb2dVertex
 10
143.8844466292989
 20
281.227916299357
 30
0.0
 42
1.0
  0
VERTEX
  5
4C1D
330
4C1B
100
AcDbEntity
  8
LOGO
 62
     5
100
AcDbVertex
100
AcDb2dVertex
 10
145.0789403125568
 20
281.227916299357
 30
0.0
 42
1.0
  0
SEQEND
  5
4C1E
330
4C1B
100
AcDbEntity
  8
LOGO
 62
     5
  0
LINE
  5
4C1F
330
1F
100
AcDbEntity
  8
LOGO
100
AcDbLine
 10
146.7674567068352
 20
280.4825522410045
 30
0.0
 11
146.7674567068352
 21
281.3769891110278
 31
0.0
  0
SOLID
  5
4C20
330
1F
100
AcDbEntity
  8
LOGO
 62
     5
100
AcDbTrace
 10
144.9288820913784
 20
281.9732803577101
 30
0.0
 11
145.227027714719
 21
281.9732803577101
 31
0.0
 12
144.9288820913784
 22
280.4825522410045
 32
0.0
 13
145.227027714719
 23
280.4825522410045
 33
0.0
  0
SOLID
  5
4C21
330
1F
100
AcDbEntity
  8
LOGO
 62
     5
100
AcDbTrace
 10
145.5748742134706
 20
280.4825522410045
 30
0.0
 11
145.8730198368121
 21
280.4825522410045
 31
0.0
 12
145.5748742134706
 22
281.9732803577101
 32
0.0
 13
145.8730198368121
 23
281.9732803577101
 33
0.0
  0
SOLID
  5
4C22
330
1F
100
AcDbEntity
  8
LOGO
 62
     5
100
AcDbTrace
 10
146.4693110834946
 20
281.3769891110278
 30
0.0
 11
146.7674567068352
 21
281.3769891110278
 31
0.0
 12
146.4693110834946
 22
280.4825522410045
 32
0.0
 13
146.7674567068352
 23
280.4825522410045
 33
0.0
  0
SOLID
  5
4C23
330
1F
100
AcDbEntity
  8
LOGO
 62
     5
100
AcDbTrace
 10
145.5450596511364
 20
291.0070927449476
 30
0.0
 11
144.6804373434474
 21
287.8368109500864
 31
0.0
 12
145.5450596511364
 22
283.4640084744158
 32
0.0
 13
144.6804373434474
 23
283.4640084744158
 33
0.0
  0
SOLID
  5
4C24
330
1F
100
AcDbEntity
  8
LOGO
 62
     5
100
AcDbTrace
 10
145.9028343991463
 20
283.4640084744158
 30
0.0
 11
146.7674567068352
 21
283.4640084744158
 31
0.0
 12
145.9028343991463
 22
291.6630131162981
 32
0.0
 13
146.7674567068352
 23
291.6630131162985
 33
0.0
  0
SOLID
  5
4C25
330
1F
100
AcDbEntity
  8
LOGO
 62
     2
100
AcDbTrace
 10
145.5450596511364
 20
291.6630131162985
 30
0.0
 11
145.9028343991463
 21
291.6630131162981
 31
0.0
 12
145.5450596511364
 22
283.4640084744158
 32
0.0
 13
145.9028343991463
 23
283.4640084744158
 33
0.0
  0
POLYLINE
  5
4C26
330
1F
100
AcDbEntity
  8
LOGO
 62
     5
100
AcDb2dPolyline
 66
     1
 10
0.0
 20
0.0
 30
0.0
 40
0.2986234208144796
 41
0.2986234208144796
  0
VERTEX
  5
4C27
330
4C26
100
AcDbEntity
  8
LOGO
 62
     5
100
AcDbVertex
100
AcDb2dVertex
 10
142.3456601137768
 20
281.3769891110278
 30
0.0
 42
1.0
  0
VERTEX
  5
4C28
330
4C26
100
AcDbEntity
  8
LOGO
 62
     5
100
AcDbVertex
100
AcDb2dVertex
 10
141.4497898513332
 20
281.3769891110278
 30
0.0
 42
1.0
  0
SEQEND
  5
4C29
330
4C26
100
AcDbEntity
  8
LOGO
 62
     5
  0
POLYLINE
  5
4C2A
330
1F
100
AcDbEntity
  8
LOGO
 62
     5
100
AcDb2dPolyline
 66
     1
 10
0.0
 20
0.0
 30
0.0
 40
0.2986234208144796
 41
0.2986234208144796
  0
VERTEX
  5
4C2B
330
4C2A
100
AcDbEntity
  8
LOGO
 62
     5
100
AcDbVertex
100
AcDb2dVertex
 10
143.2400969837995
 20
281.3769891110278
 30
0.0
 42
1.0
  0
VERTEX
  5
4C2C
330
4C2A
100
AcDbEntity
  8
LOGO
 62
     5
100
AcDbVertex
100
AcDb2dVertex
 10
142.3442267213563
 20
281.3769891110278
 30
0.0
 42
1.0
  0
SEQEND
  5
4C2D
330
4C2A
100
AcDbEntity
  8
LOGO
 62
     5
  0
POLYLINE
  5
4C2E
330
1F
100
AcDbEntity
  8
LOGO
 62
     5
100
AcDb2dPolyline
 66
     1
 10
0.0
 20
0.0
 30
0.0
 40
0.2986234208144796
 41
0.2986234208144796
  0
VERTEX
  5
4C2F
330
4C2E
100
AcDbEntity
  8
LOGO
 62
     5
100
AcDbVertex
100
AcDb2dVertex
 10
138.9666565062011
 20
281.3769891110278
 30
0.0
 42
1.0
  0
VERTEX
  5
4C30
330
4C2E
100
AcDbEntity
  8
LOGO
 62
     5
100
AcDbVertex
100
AcDb2dVertex
 10
138.070786243758
 20
281.3769891110278
 30
0.0
 42
1.0
  0
SEQEND
  5
4C31
330
4C2E
100
AcDbEntity
  8
LOGO
 62
     5
  0
SOLID
  5
4C32
330
1F
100
AcDbEntity
  8
LOGO
 62
     5
100
AcDbTrace
 10
137.9224301282975
 20
281.9732803577101
 30
0.0
 11
138.2205757516381
 21
281.9732803577101
 31
0.0
 12
137.9224301282975
 22
280.4825522410045
 32
0.0
 13
138.2205757516381
 23
280.4825522410045
 33
0.0
  0
SOLID
  5
4C33
330
1F
100
AcDbEntity
  8
LOGO
 62
     5
100
AcDbTrace
 10
138.816866998321
 20
281.3769891110278
 30
0.0
 11
139.1150126216625
 21
281.3769891110278
 31
0.0
 12
138.816866998321
 22
280.4825522410045
 32
0.0
 13
139.1150126216625
 23
280.4825522410045
 33
0.0
  0
POLYLINE
  5
4C34
330
1F
100
AcDbEntity
  8
LOGO
 62
     5
100
AcDb2dPolyline
 66
     1
 10
0.0
 20
0.0
 30
0.0
 70
     1
 40
0.2986234208144796
 41
0.2986234208144796
  0
VERTEX
  5
4C35
330
4C34
100
AcDbEntity
  8
LOGO
 62
     5
100
AcDbVertex
100
AcDb2dVertex
 10
139.6110061517001
 20
281.227916299357
 30
0.0
 42
1.0
  0
VERTEX
  5
4C36
330
4C34
100
AcDbEntity
  8
LOGO
 62
     5
100
AcDbVertex
100
AcDb2dVertex
 10
140.8054998349585
 20
281.227916299357
 30
0.0
 42
1.0
  0
SEQEND
  5
4C37
330
4C34
100
AcDbEntity
  8
LOGO
 62
     5
  0
SOLID
  5
4C38
330
1F
100
AcDbEntity
  8
LOGO
 62
     5
100
AcDbTrace
 10
140.6554416137792
 20
282.4204987927221
 30
0.0
 11
140.9535872371202
 21
282.4204987927221
 31
0.0
 12
140.6554416137792
 22
280.4825522410045
 32
0.0
 13
140.9535872371202
 23
280.4825522410045
 33
0.0
  0
SOLID
  5
4C39
330
1F
100
AcDbEntity
  8
LOGO
 62
     5
100
AcDbTrace
 10
141.3014337358731
 20
281.9732803577101
 30
0.0
 11
141.5995793592137
 21
281.9732803577101
 31
0.0
 12
141.3014337358731
 22
280.4825522410045
 32
0.0
 13
141.5995793592137
 23
280.4825522410045
 33
0.0
  0
SOLID
  5
4C3A
330
1F
100
AcDbEntity
  8
LOGO
 62
     5
100
AcDbTrace
 10
142.1958706058958
 20
281.3769891110278
 30
0.0
 11
142.4940162292373
 21
281.3769891110278
 31
0.0
 12
142.1958706058958
 22
280.4825522410045
 32
0.0
 13
142.4940162292373
 23
280.4825522410045
 33
0.0
  0
SOLID
  5
4C3B
330
1F
100
AcDbEntity
  8
LOGO
 62
     5
100
AcDbTrace
 10
143.0903074759194
 20
281.3769891110278
 30
0.0
 11
143.3884530992604
 21
281.3769891110278
 31
0.0
 12
143.0903074759194
 22
280.482552241004
 32
0.0
 13
143.3884530992604
 23
280.482552241004
 33
0.0
  0
SOLID
  5
4C3C
330
1F
100
AcDbEntity
  8
LOGO
 62
     5
100
AcDbTrace
 10
137.276438006204
 20
282.181982294049
 30
0.0
 11
137.5745836295459
 21
282.181982294049
 31
0.0
 12
137.276438006204
 22
282.4204987927221
 32
0.0
 13
137.5745836295459
 23
282.4204987927221
 33
0.0
  0
SOLID
  5
4C3D
330
1F
100
AcDbEntity
  8
LOGO
 62
     5
100
AcDbTrace
 10
137.276438006204
 20
281.9732803577101
 30
0.0
 11
137.5745836295459
 21
281.9732803577101
 31
0.0
 12
137.276438006204
 22
280.482552241004
 32
0.0
 13
137.5745836295459
 23
280.4825522410045
 33
0.0
  0
SOLID
  5
4C3E
330
1F
100
AcDbEntity
  8
LOGO
 62
     5
100
AcDbTrace
 10
140.2082529933291
 20
283.464008474416
 30
0.0
 11
141.0728753010189
 21
283.464008474416
 31
0.0
 12
140.2082529933291
 22
287.8368109500864
 32
0.0
 13
141.0728753010189
 23
291.0070927449476
 33
0.0
  0
SOLID
  5
4C3F
330
1F
100
AcDbEntity
  8
LOGO
 62
     5
100
AcDbTrace
 10
141.4306500490288
 20
291.6630131162981
 30
0.0
 11
142.2952723567177
 21
291.6630131162985
 31
0.0
 12
141.4306500490288
 22
284.1199288457665
 32
0.0
 13
142.2952723567177
 23
287.2902106406277
 33
0.0
  0
SOLID
  5
4C40
330
1F
100
AcDbEntity
  8
LOGO
 62
     2
100
AcDbTrace
 10
141.0728753010189
 20
291.6630131162981
 30
0.0
 11
141.4306500490288
 21
291.6630131162981
 31
0.0
 12
141.0728753010189
 22
283.464008474416
 32
0.0
 13
141.4306500490288
 23
283.464008474416
 33
0.0
  0
SOLID
  5
4C41
330
1F
100
AcDbEntity
  8
LOGO
 62
     5
100
AcDbTrace
 10
141.4306500490288
 20
284.1199288457665
 30
0.0
 11
142.2952723567177
 21
287.2902106406277
 31
0.0
 12
145.5450596511364
 22
291.6630131162985
 32
0.0
 13
144.6804373434474
 23
291.6630131162985
 33
0.0
  0
SOLID
  5
4C42
330
1F
100
AcDbEntity
  8
LOGO
 62
     5
100
AcDbTrace
 10
141.4306500490288
 20
283.464008474416
 30
0.0
 11
142.2952723567177
 21
283.464008474416
 31
0.0
 12
145.5450596511364
 22
291.0070927449476
 32
0.0
 13
144.6804373434474
 23
287.8368109500864
 33
0.0
  0
SOLID
  5
4C43
330
1F
100
AcDbEntity
  8
LOGO
 62
     2
100
AcDbTrace
 10
141.0728753010189
 20
283.464008474416
 30
0.0
 11
141.4306500490288
 21
283.464008474416
 31
0.0
 12
145.5450596511364
 22
291.6630131162985
 32
0.0
 13
145.9028343991463
 23
291.6630131162981
 33
0.0
  0
LINE
  5
4C44
330
1F
100
AcDbEntity
  8
LOGO
 62
     4
100
AcDbLine
 10
218.4914978120478
 20
281.1396297623626
 30
0.0
 11
218.4914978120478
 21
273.8073582691495
 31
0.0
  0
LINE
  5
4C45
330
1F
100
AcDbEntity
  8
LOGO
 62
     4
100
AcDbLine
 10
205.1600950971156
 20
281.1396297623626
 30
0.0
 11
205.1600950971156
 21
273.8073582691495
 31
0.0
  0
LINE
  5
4C46
330
1F
100
AcDbEntity
  8
LOGO
 62
     4
100
AcDbLine
 10
218.4914978120478
 20
273.8073582691495
 30
0.0
 11
205.1600950971156
 21
273.8073582691495
 31
0.0
  0
LINE
  5
4C47
330
1F
100
AcDbEntity
  8
LOGO
 62
     4
100
AcDbLine
 10
220.8826265685207
 20
290.1383265949414
 30
0.0
 11
205.1600950971156
 21
290.1383265949414
 31
0.0
  0
LINE
  5
4C48
330
1F
100
AcDbEntity
  8
LOGO
 62
     4
100
AcDbLine
 10
220.8826265685207
 20
284.139195373222
 30
0.0
 11
205.1600950971156
 21
284.139195373222
 31
0.0
  0
LINE
  5
4C49
330
1F
100
AcDbEntity
  8
LOGO
 62
     4
100
AcDbLine
 10
205.1600950971156
 20
290.1383265949414
 30
0.0
 11
205.1600950971156
 21
284.139195373222
 31
0.0
  0
LINE
  5
4C4A
330
1F
100
AcDbEntity
  8
LOGO
 62
     4
100
AcDbLine
 10
220.8826265685207
 20
290.1383265949414
 30
0.0
 11
220.8826265685207
 21
284.139195373222
 31
0.0
  0
LINE
  5
4C4B
330
1F
100
AcDbEntity
  8
LOGO
 62
     4
100
AcDbLine
 10
212.5213608328181
 20
284.139195373222
 30
0.0
 11
212.5213608328181
 21
281.1396297623626
 31
0.0
  0
TEXT
  5
4C4C
330
1F
100
AcDbEntity
  8
LOGO
  6
Continuous
 62
     7
100
AcDbText
 10
206.2260467603955
 20
285.391505245027
 30
0.0
 40
3.5
  1
MVAA
  7
CHINESET
100
AcDbText
  0
LINE
  5
4C4D
330
1F
100
AcDbEntity
  8
LOGO
 62
     4
100
AcDbLine
 10
218.4914978120478
 20
281.1396297623626
 30
0.0
 11
205.1600950971156
 21
281.1396297623626
 31
0.0
  0
TEXT
  5
4C4E
330
1F
100
AcDbEntity
  8
LOGO
  6
Continuous
100
AcDbText
 10
209.4381000217586
 20
274.8422928419736
 30
131.0577257600498
 40
1.5
  1
Model
 41
0.8
  7
CHINESET
100
AcDbText
  0
TEXT
  5
4C4F
330
1F
100
AcDbEntity
  8
LOGO
100
AcDbText
 10
209.0388487837595
 20
277.622969568901
 30
131.0577257600498
 40
2.5
  1
型號
  7
CHINESET
100
AcDbText
  0
LINE
  5
4C50
330
1F
100
AcDbEntity
  8
LOGO
  6
Continuous
 62
     7
100
AcDbLine
 10
221.5203837995264
 20
287.1175111132077
 30
0.0
 11
224.1693812484659
 21
287.1175111132077
 31
0.0
  0
LINE
  5
4C5C
330
1F
100
AcDbEntity
  8
LOGO
 62
     4
100
AcDbLine
 10
234.0821833975849
 20
281.1396297623626
 30
0.0
 11
234.0821833975849
 21
273.8073582691495
 31
0.0
  0
LINE
  5
4C5D
330
1F
100
AcDbEntity
  8
LOGO
 62
     4
100
AcDbLine
 10
220.7507806826527
 20
281.1396297623626
 30
0.0
 11
220.7507806826527
 21
273.8073582691495
 31
0.0
  0
LINE
  5
4C5E
330
1F
100
AcDbEntity
  8
LOGO
 62
     4
100
AcDbLine
 10
234.0821833975849
 20
273.8073582691495
 30
0.0
 11
220.7507806826527
 21
273.8073582691495
 31
0.0
  0
LINE
  5
4C5F
330
1F
100
AcDbEntity
  8
LOGO
 62
     4
100
AcDbLine
 10
235.9097828851852
 20
290.1383265949414
 30
0.0
 11
225.6587883019053
 21
290.1383265949414
 31
0.0
  0
LINE
  5
4C60
330
1F
100
AcDbEntity
  8
LOGO
 62
     4
100
AcDbLine
 10
235.9097828851852
 20
284.139195373222
 30
0.0
 11
225.6587883019053
 21
284.139195373222
 31
0.0
  0
LINE
  5
4C61
330
1F
100
AcDbEntity
  8
LOGO
 62
     4
100
AcDbLine
 10
225.6587883019053
 20
290.1383265949414
 30
0.0
 11
225.6587883019053
 21
284.139195373222
 31
0.0
  0
LINE
  5
4C62
330
1F
100
AcDbEntity
  8
LOGO
 62
     4
100
AcDbLine
 10
235.9097828851852
 20
290.1383265949414
 30
0.0
 11
235.9097828851852
 21
284.139195373222
 31
0.0
  0
LINE
  5
4C63
330
1F
100
AcDbEntity
  8
LOGO
 62
     4
100
AcDbLine
 10
230.7842855935453
 20
284.139195373222
 30
0.0
 11
230.7842855935453
 21
281.1396297623626
 31
0.0
  0
TEXT
  5
4C64
330
1F
100
AcDbEntity
  8
LOGO
  6
Continuous
 62
     7
100
AcDbText
 10
226.45725662585
 20
285.391505245027
 30
0.0
 40
3.5
  1
180
  7
CHINESET
100
AcDbText
  0
LINE
  5
4C65
330
1F
100
AcDbEntity
  8
LOGO
 62
     4
100
AcDbLine
 10
234.0821833975849
 20
281.1396297623626
 30
0.0
 11
220.7507806826527
 21
281.1396297623626
 31
0.0
  0
LINE
  5
4C66
330
1F
100
AcDbEntity
  8
LOGO
  6
Continuous
 62
     7
100
AcDbLine
 10
237.1521432295403
 20
287.1175111132077
 30
0.0
 11
239.8011406784803
 21
287.1175111132077
 31
0.0
  0
TEXT
  5
4C73
330
1F
100
AcDbEntity
  8
LOGO
  6
Continuous
100
AcDbText
 10
222.5680235308869
 20
274.8422928419736
 30
131.0577257600498
 40
1.5
  1
Body width
 41
0.8
  7
CHINESET
100
AcDbText
  0
TEXT
  5
4C74
330
1F
100
AcDbEntity
  8
LOGO
100
AcDbText
 10
222.4571619649164
 20
277.622969568901
 30
131.0577257600498
 40
2.5
  1
本體寬幅
  7
CHINESET
100
AcDbText
  0
TEXT
  5
4C83
330
1F
100
AcDbEntity
  8
LOGO
100
AcDbText
 10
178.5815015533031
 20
273.2047709737044
 30
0.0
 40
2.0
  1
10612305
 41
0.7
  7
CHINESET
 72
     1
 11
183.4481682199698
 21
273.2047709737044
 31
0.0
100
AcDbText
  0
LINE
  5
4C84
330
1F
100
AcDbEntity
  8
LOGO
 62
     4
100
AcDbLine
 10
189.6549659620646
 20
276.1403537442632
 30
0.0
 11
189.6549659620655
 21
272.1409329297833
 31
0.0
  0
LINE
  5
4C85
330
1F
100
AcDbEntity
  8
LOGO
 62
     4
100
AcDbLine
 10
189.6549659620646
 20
276.1403537442632
 30
0.0
 11
177.6549659620655
 21
276.1403537442632
 31
0.0
  0
LINE
  5
4C86
330
1F
100
AcDbEntity
  8
LOGO
  6
AM_ISO08W050x2
 48
0.3
100
AcDbLine
 10
166.4257124947266
 20
286.1431831756565
 30
0.0
 11
169.6268418771965
 21
286.1431831756565
 31
0.0
1001
GENIUS_GENOREF_13
1005
4C8B
  0
LINE
  5
4C87
330
1F
100
AcDbEntity
  8
LOGO
  6
AM_ISO08W050x2
 48
0.3
100
AcDbLine
 10
168.0262771859616
 20
284.5426184844216
 30
0.0
 11
168.0262771859616
 21
287.7437478668915
 31
0.0
1001
GENIUS_GENOREF_13
1005
4C8A
  0
LINE
  5
4C88
330
1F
100
AcDbEntity
  8
LOGO
  6
CENTER
 48
0.5
100
AcDbLine
 10
171.3916240197445
 20
286.1431831756565
 30
0.0
 11
175.6891596477858
 21
286.1431831756565
 31
0.0
1001
GENIUS_GENOREF_13
1005
4C89
  0
POINT
  5
4C89
330
1F
100
AcDbEntity
  8
0
 60
     1
100
AcDbPoint
 10
-1938.679822737193
 20
-665.9923693759432
 30
0.0
1001
GENIUS_GENOBJ-N-CRS_13
1002
{
1000
OWNER
1000
GEN
1002
}
1001
GENIUS_GENOLIS_13
1002
{
1000
ENT
1005
0
1005
0
1005
0
1005
4C88
1002
}
1001
GENIUS_GENOENT_13
1002
{
1000
MYREF
1005
4C89
1002
}
1002
{
1000
GRP
1005
0
1002
}
1001
GENIUS_GENODEF_13
1002
{
1000
HIER
1070
    10
1002
}
1002
{
1000
MANEDIT
1070
     1
1002
}
1002
{
1000
NOSEL
1070
     0
1002
}
1002
{
1000
BEHIND
1070
     0
1002
}
1002
{
1000
OTHER
1070
     0
1002
}
1002
{
1000
REACTOR
1002
}
  0
POINT
  5
4C8A
330
1F
100
AcDbEntity
  8
0
 60
     1
100
AcDbPoint
 10
-1950.004407960048
 20
-657.1167828973069
 30
0.0
1001
GENIUS_GENOBJ-N-CRS_13
1002
{
1000
OWNER
1000
GEN
1002
}
1001
GENIUS_GENOLIS_13
1002
{
1000
ENT
1005
0
1005
0
1005
0
1005
4C87
1002
}
1001
GENIUS_GENOENT_13
1002
{
1000
MYREF
1005
4C8A
1002
}
1002
{
1000
GRP
1005
0
1002
}
1001
GENIUS_GENODEF_13
1002
{
1000
HIER
1070
    10
1002
}
1002
{
1000
MANEDIT
1070
     1
1002
}
1002
{
1000
NOSEL
1070
     0
1002
}
1002
{
1000
BEHIND
1070
     0
1002
}
1002
{
1000
OTHER
1070
     0
1002
}
1002
{
1000
REACTOR
1002
}
  0
POINT
  5
4C8B
330
1F
100
AcDbEntity
  8
0
 60
     1
100
AcDbPoint
 10
-1943.645734262211
 20
-665.9923693759432
 30
0.0
1001
GENIUS_GENOBJ-N-CRS_13
1002
{
1000
OWNER
1000
GEN
1002
}
1001
GENIUS_GENOLIS_13
1002
{
1000
ENT
1005
0
1005
0
1005
0
1005
4C86
1002
}
1001
GENIUS_GENOENT_13
1002
{
1000
MYREF
1005
4C8B
1002
}
1002
{
1000
GRP
1005
0
1002
}
1001
GENIUS_GENODEF_13
1002
{
1000
HIER
1070
    10
1002
}
1002
{
1000
MANEDIT
1070
     1
1002
}
1002
{
1000
NOSEL
1070
     0
1002
}
1002
{
1000
BEHIND
1070
     0
1002
}
1002
{
1000
OTHER
1070
     0
1002
}
1002
{
1000
REACTOR
1002
}
  0
LINE
  5
4EA8
330
1F
100
AcDbEntity
  8
LOGO
 62
     4
100
AcDbLine
 10
245.3072971398592
 20
281.1396297623626
 30
0.0
 11
245.3072971398592
 21
273.8073582691495
 31
0.0
  0
LINE
  5
4EA9
330
1F
100
AcDbEntity
  8
LOGO
 62
     4
100
AcDbLine
 10
235.2930848925616
 20
281.1396297623626
 30
0.0
 11
235.2930848925616
 21
273.8073582691495
 31
0.0
  0
LINE
  5
4EAA
330
1F
100
AcDbEntity
  8
LOGO
 62
     4
100
AcDbLine
 10
245.3072971398592
 20
273.8073582691495
 30
0.0
 11
235.2930848925616
 21
273.8073582691495
 31
0.0
  0
LINE
  5
4EAB
330
1F
100
AcDbEntity
  8
LOGO
 62
     4
100
AcDbLine
 10
245.1387420086883
 20
290.1383265949414
 30
0.0
 11
240.8800595655173
 21
290.1383265949414
 31
0.0
  0
LINE
  5
4EAC
330
1F
100
AcDbEntity
  8
LOGO
 62
     4
100
AcDbLine
 10
245.1387420086883
 20
284.139195373222
 30
0.0
 11
240.8800595655173
 21
284.139195373222
 31
0.0
  0
LINE
  5
4EAD
330
1F
100
AcDbEntity
  8
LOGO
 62
     4
100
AcDbLine
 10
240.8800595655173
 20
290.1383265949414
 30
0.0
 11
240.8800595655173
 21
284.139195373222
 31
0.0
  0
LINE
  5
4EAE
330
1F
100
AcDbEntity
  8
LOGO
 62
     4
100
AcDbLine
 10
245.1387420086883
 20
290.1383265949414
 30
0.0
 11
245.1387420086883
 21
284.139195373222
 31
0.0
  0
LINE
  5
4EAF
330
1F
100
AcDbEntity
  8
LOGO
 62
     4
100
AcDbLine
 10
243.0094007871028
 20
284.139195373222
 30
0.0
 11
243.0094007871028
 21
281.1396297623626
 31
0.0
  0
TEXT
  5
4EB0
330
1F
100
AcDbEntity
  8
LOGO
  6
Continuous
 62
     7
100
AcDbText
 10
241.678527889462
 20
285.391505245027
 30
0.0
 40
3.5
  1
3
  7
CHINESET
100
AcDbText
  0
LINE
  5
4EB1
330
1F
100
AcDbEntity
  8
LOGO
 62
     4
100
AcDbLine
 10
245.3072971398592
 20
281.1396297623626
 30
0.0
 11
235.2930848925616
 21
281.1396297623626
 31
0.0
  0
LINE
  5
4EB2
330
1F
100
AcDbEntity
  8
LOGO
 62
     4
100
AcDbLine
 10
266.3959403623485
 20
281.1396297623626
 30
0.0
 11
266.3959403623485
 21
273.8073582691495
 31
0.0
  0
LINE
  5
4EB3
330
1F
100
AcDbEntity
  8
LOGO
 62
     4
100
AcDbLine
 10
247.3382180795029
 20
281.1396297623626
 30
0.0
 11
247.3382180795029
 21
273.8073582691495
 31
0.0
  0
LINE
  5
4EB4
330
1F
100
AcDbEntity
  8
LOGO
 62
     4
100
AcDbLine
 10
266.3959403623485
 20
273.8073582691495
 30
0.0
 11
247.3382180795029
 21
273.8073582691495
 31
0.0
  0
LINE
  5
4EB5
330
1F
100
AcDbEntity
  8
LOGO
 62
     4
100
AcDbLine
 10
253.7567772346583
 20
290.1383265949414
 30
0.0
 11
245.8418647331473
 21
290.1383265949414
 31
0.0
  0
LINE
  5
4EB6
330
1F
100
AcDbEntity
  8
LOGO
 62
     4
100
AcDbLine
 10
253.7567772346583
 20
284.139195373222
 30
0.0
 11
245.8418647331473
 21
284.139195373222
 31
0.0
  0
LINE
  5
4EB7
330
1F
100
AcDbEntity
  8
LOGO
 62
     4
100
AcDbLine
 10
245.8418647331473
 20
290.1383265949414
 30
0.0
 11
245.8418647331473
 21
284.139195373222
 31
0.0
  0
LINE
  5
4EB8
330
1F
100
AcDbEntity
  8
LOGO
 62
     4
100
AcDbLine
 10
253.7567772346583
 20
290.1383265949414
 30
0.0
 11
253.7567772346583
 21
284.139195373222
 31
0.0
  0
LINE
  5
4EB9
330
1F
100
AcDbEntity
  8
LOGO
 62
     4
100
AcDbLine
 10
249.7993209839028
 20
284.139195373222
 30
0.0
 11
249.7993209839028
 21
281.1396297623626
 31
0.0
  0
TEXT
  5
4EBA
330
1F
100
AcDbEntity
  8
LOGO
  6
Continuous
 62
     7
100
AcDbText
 10
247.2578476056824
 20
285.391505245027
 30
0.0
 40
3.5
  1
A2
  7
CHINESET
100
AcDbText
  0
LINE
  5
4EBB
330
1F
100
AcDbEntity
  8
LOGO
 62
     4
100
AcDbLine
 10
266.3959403623485
 20
281.1396297623626
 30
0.0
 11
247.3382180795029
 21
281.1396297623626
 31
0.0
  0
TEXT
  5
4EBC
330
1F
100
AcDbEntity
  8
LOGO
  6
Continuous
100
AcDbText
 10
238.0854688924205
 20
274.8422928419736
 30
131.0577257600498
 40
1.5
  1
3 Way
 41
0.8
  7
CHINESET
100
AcDbText
  0
TEXT
  5
4EBD
330
1F
100
AcDbEntity
  8
LOGO
100
AcDbText
 10
236.6224256925448
 20
277.622969568901
 30
131.0577257600498
 40
2.5
  1
3方向
  7
CHINESET
100
AcDbText
  0
TEXT
  5
4EBE
330
1F
100
AcDbEntity
  8
LOGO
100
AcDbText
 10
249.6865819918805
 20
277.622969568901
 30
131.0577257600498
 40
2.5
  1
複動氣壓導引
  7
CHINESET
100
AcDbText
  0
TEXT
  5
4ECA
330
1F
100
AcDbEntity
  8
LOGO
  6
Continuous
100
AcDbText
 10
248.7214586075793
 20
274.8422928419736
 30
131.0577257600498
 40
1.5
  1
Double air operate
 41
0.8
  7
CHINESET
100
AcDbText
  0
LINE
  5
5802
330
1F
100
AcDbEntity
  8
AM_VIS
100
AcDbLine
 10
212.4455373462881
 20
390.4327798705815
 30
0.0
 11
206.4455373462881
 21
390.4327798705815
 31
0.0
  0
LINE
  5
5803
330
1F
100
AcDbEntity
  8
AM_VIS
100
AcDbLine
 10
212.4455373462881
 20
393.4327798705815
 30
0.0
 11
212.4455373462881
 21
390.4327798705815
 31
0.0
  0
LINE
  5
5804
330
1F
100
AcDbEntity
  8
AM_VIS
100
AcDbLine
 10
212.4455373462881
 20
393.4327798705815
 30
0.0
 11
238.4455373462881
 21
393.4327798705815
 31
0.0
  0
LINE
  5
5805
330
1F
100
AcDbEntity
  8
AM_VIS
100
AcDbLine
 10
203.4455373462881
 20
366.4327798705815
 30
0.0
 11
238.4455373462881
 21
366.4327798705815
 31
0.0
  0
LINE
  5
5806
330
1F
100
AcDbEntity
  8
AM_VIS
100
AcDbLine
 10
203.4455373462881
 20
393.4327798705815
 30
0.0
 11
206.4455373462881
 21
393.4327798705815
 31
0.0
  0
LINE
  5
5807
102
{ACAD_REACTORS
330
5942
102
}
330
1F
100
AcDbEntity
  8
AM_VIS
100
AcDbLine
 10
206.4455373462881
 20
390.4327798705815
 30
0.0
 11
206.4455373462881
 21
393.4327798705815
 31
0.0
  0
LINE
  5
5808
330
1F
100
AcDbEntity
  8
AM_VIS
100
AcDbLine
 10
238.4455373462881
 20
366.4327798705815
 30
0.0
 11
238.4455373462881
 21
393.4327798705815
 31
0.0
  0
LINE
  5
5809
330
1F
100
AcDbEntity
  8
AM_VIS
100
AcDbLine
 10
203.4455373462881
 20
366.4327798705815
 30
0.0
 11
203.4455373462881
 21
393.4327798705815
 31
0.0
  0
LINE
  5
580A
102
{ACAD_REACTORS
330
5942
102
}
330
1F
100
AcDbEntity
  8
AM_VIS
100
AcDbLine
 10
206.4455373462881
 20
393.4327798705815
 30
0.0
 11
212.4455373462881
 21
393.4327798705815
 31
0.0
  0
LINE
  5
580B
330
1F
100
AcDbEntity
  8
AM_VIS
100
AcDbLine
 10
238.4455373462881
 20
366.4327798705815
 30
0.0
 11
252.4455373462881
 21
366.4327798705815
 31
0.0
  0
LINE
  5
580C
330
1F
100
AcDbEntity
  8
AM_VIS
100
AcDbLine
 10
238.4455373462881
 20
393.4327798705815
 30
0.0
 11
255.4455373462881
 21
393.4327798705815
 31
0.0
  0
LINE
  5
580D
330
1F
100
AcDbEntity
  8
AM_VIS
100
AcDbLine
 10
255.4455373462881
 20
371.9327798705815
 30
0.0
 11
255.4455373462881
 21
393.4327798705815
 31
0.0
  0
LINE
  5
580E
330
1F
100
AcDbEntity
  8
AM_VIS
100
AcDbLine
 10
252.4455373462881
 20
366.4327798705815
 30
0.0
 11
252.4455373462881
 21
371.9327798705815
 31
0.0
  0
LINE
  5
580F
330
1F
100
AcDbEntity
  8
AM_VIS
100
AcDbLine
 10
255.4455373462881
 20
369.1827798705815
 30
0.0
 11
255.4455373462881
 21
368.5837798705794
 31
0.0
  0
LINE
  5
5810
330
1F
100
AcDbEntity
  8
AM_VIS
100
AcDbLine
 10
255.4455373462881
 20
367.7335305220304
 30
0.0
 11
255.4455373462881
 21
366.4327798705815
 31
0.0
  0
LINE
  5
5811
330
1F
100
AcDbEntity
  8
AM_VIS
100
AcDbLine
 10
255.4455373462881
 20
366.4327798705815
 30
0.0
 11
253.5455373462881
 21
366.4327798705815
 31
0.0
  0
LINE
  5
5812
330
1F
100
AcDbEntity
  8
AM_VIS
100
AcDbLine
 10
252.4455373462881
 20
371.9327798705815
 30
0.0
 11
255.4455373462881
 21
371.9327798705815
 31
0.0
  0
LINE
  5
5813
330
1F
100
AcDbEntity
  8
AM_VIS
100
AcDbLine
 10
238.4455373462881
 20
366.4327798705815
 30
0.0
 11
238.4455373462881
 21
393.4327798705815
 31
0.0
  0
LINE
  5
5814
330
1F
100
AcDbEntity
  8
AM_VIS
100
AcDbLine
 10
255.4455373462881
 20
369.1827798705815
 30
0.0
 11
255.4455373462881
 21
369.2817798705795
 31
0.0
  0
LINE
  5
5815
330
1F
100
AcDbEntity
  8
AM_VIS
100
AcDbLine
 10
255.4455373462881
 20
370.1320292191325
 30
0.0
 11
255.4455373462881
 21
371.9327798705815
 31
0.0
  0
LINE
  5
5816
330
1F
100
AcDbEntity
  8
AM_VIS
100
AcDbLine
 10
188.9455373462881
 20
393.4827798705815
 30
0.0
 11
188.3455373462881
 21
393.4827798705815
 31
0.0
  0
LINE
  5
5817
330
1F
100
AcDbEntity
  8
AM_VIS
100
AcDbLine
 10
188.9455373462881
 20
388.3827798705815
 30
0.0
 11
188.3455373462881
 21
388.3827798705815
 31
0.0
  0
LINE
  5
5818
330
1F
100
AcDbEntity
  8
AM_VIS
100
AcDbLine
 10
188.9455373462881
 20
393.4827798705815
 30
0.0
 11
188.9455373462881
 21
388.3827798705815
 31
0.0
  0
LINE
  5
5819
330
1F
100
AcDbEntity
  8
AM_VIS
100
AcDbLine
 10
188.3455373462881
 20
393.4827798705815
 30
0.0
 11
188.3455373462881
 21
388.3827798705815
 31
0.0
  0
LINE
  5
581A
330
1F
100
AcDbEntity
  8
AM_VIS
100
AcDbLine
 10
253.5455373462881
 20
371.4827798705814
 30
0.0
 11
252.9455373462881
 21
371.4827798705814
 31
0.0
  0
LINE
  5
581B
330
1F
100
AcDbEntity
  8
AM_VIS
100
AcDbLine
 10
253.5455373462881
 20
366.3827798705814
 30
0.0
 11
252.9455373462881
 21
366.3827798705814
 31
0.0
  0
LINE
  5
581C
330
1F
100
AcDbEntity
  8
AM_VIS
100
AcDbLine
 10
253.5455373462881
 20
371.4827798705814
 30
0.0
 11
253.5455373462881
 21
366.3827798705814
 31
0.0
  0
LINE
  5
581D
330
1F
100
AcDbEntity
  8
AM_VIS
100
AcDbLine
 10
252.9455373462881
 20
371.4827798705814
 30
0.0
 11
252.9455373462881
 21
366.3827798705814
 31
0.0
  0
LINE
  5
581E
330
1F
100
AcDbEntity
  8
AM_VIS
100
AcDbLine
 10
188.9455373462881
 20
388.4327798705815
 30
0.0
 11
189.4455373462881
 21
388.4327798705815
 31
0.0
  0
LINE
  5
581F
330
1F
100
AcDbEntity
  8
AM_VIS
100
AcDbLine
 10
188.9455373462881
 20
393.4327798705815
 30
0.0
 11
189.4455373462881
 21
393.4327798705815
 31
0.0
  0
LINE
  5
5820
330
1F
100
AcDbEntity
  8
AM_VIS
100
AcDbLine
 10
252.4455373462881
 20
366.4327798705815
 30
0.0
 11
252.9455373462881
 21
366.4327798705815
 31
0.0
  0
LINE
  5
5821
330
1F
100
AcDbEntity
  8
AM_VIS
100
AcDbLine
 10
252.4455373462881
 20
371.4327798705815
 30
0.0
 11
252.9455373462881
 21
371.4327798705815
 31
0.0
  0
LINE
  5
5822
330
1F
100
AcDbEntity
  8
AM_VIS
100
AcDbLine
 10
254.3689889358209
 20
371.360737191535
 30
0.0
 11
253.5455373462881
 21
371.4327798705814
 31
0.0
  0
LINE
  5
5823
330
1F
100
AcDbEntity
  8
AM_VIS
100
AcDbLine
 10
254.3689889358209
 20
366.5048225496279
 30
0.0
 11
253.5455373462881
 21
366.4327798705814
 31
0.0
  0
LINE
  5
5824
330
1F
100
AcDbEntity
  8
AM_VIS
100
AcDbLine
 10
255.410839459001
 20
370.2827798705814
 30
0.0
 11
255.3981792525354
 21
370.2728834947378
 31
0.0
  0
ARC
  5
5825
330
1F
100
AcDbEntity
  8
AM_VIS
100
AcDbCircle
 10
251.6455373462882
 20
368.9327798705814
 30
0.0
 40
3.984745788629432
100
AcDbArc
 50
340.347877084138
 51
348.9838463654509
  0
LINE
  5
5826
330
1F
100
AcDbEntity
  8
AM_VIS
100
AcDbLine
 10
255.3981792525354
 20
367.5926762464251
 30
0.0
 11
255.410839459001
 21
367.5827798705814
 31
0.0
  0
LINE
  5
5827
330
1F
100
AcDbEntity
  8
AM_VIS
100
AcDbLine
 10
255.3981792525352
 20
368.5837798705794
 30
0.0
 11
255.5568576144329
 21
368.5837798705794
 31
0.0
  0
LINE
  5
5828
330
1F
100
AcDbEntity
  8
AM_VIS
100
AcDbLine
 10
255.5568576144329
 20
369.2817798705795
 30
0.0
 11
255.3981792525355
 21
369.2817798705795
 31
0.0
  0
ELLIPSE
  5
5829
330
1F
100
AcDbEntity
  8
AM_VIS
100
AcDbEllipse
 10
252.4186227352918
 20
368.9327798705814
 30
0.0
 11
0.0
 21
-3.797925352448569
 31
0.0
210
0.0
220
0.0
230
1.0
 40
0.7878555911532165
 41
1.478774232153783
 42
1.662818421434965
  0
ARC
  5
582A
330
1F
100
AcDbEntity
  8
AM_VIS
100
AcDbCircle
 10
251.6455373462882
 20
368.9327798705814
 30
0.0
 40
3.984745788629432
100
AcDbArc
 50
11.01615363454919
 51
19.65212291586199
  0
LINE
  5
582B
330
1F
100
AcDbEntity
  8
AM_VIS
100
AcDbLine
 10
255.556857614433
 20
369.6942079761831
 30
0.0
 11
255.556857614433
 21
369.2817798705795
 31
0.0
  0
LINE
  5
582C
330
1F
100
AcDbEntity
  8
AM_VIS
100
AcDbLine
 10
255.556857614433
 20
368.5837798705794
 30
0.0
 11
255.556857614433
 21
368.1713517649798
 31
0.0
  0
ARC
  5
582D
330
1F
100
AcDbEntity
  8
AM_VIS
100
AcDbCircle
 10
254.2818331930732
 20
370.3645424934431
 30
0.0
 40
1.0
100
AcDbArc
 50
28.5062230151612
 51
85.00000000000026
  0
ARC
  5
582E
330
1F
100
AcDbEntity
  8
AM_VIS
100
AcDbCircle
 10
254.2818331930732
 20
367.5010172477197
 30
0.0
 40
1.0
100
AcDbArc
 50
274.9999999999997
 51
331.4937769848388
  0
ARC
  5
582F
330
1F
100
AcDbEntity
  8
AM_VIS
100
AcDbCircle
 10
251.6455373462882
 20
368.9327798705814
 30
0.0
 40
4.0
100
AcDbArc
 50
331.4937769848388
 51
340.2753664412961
  0
ARC
  5
5830
330
1F
100
AcDbEntity
  8
AM_VIS
100
AcDbCircle
 10
251.6455373462882
 20
368.9327798705814
 30
0.0
 40
4.0
100
AcDbArc
 50
19.72463355870392
 51
28.5062230151612
  0
LINE
  5
5831
330
1F
100
AcDbEntity
  8
AM_VIS
100
AcDbLine
 10
203.4455373462881
 20
393.4327798705815
 30
0.0
 11
189.4455373462881
 21
393.4327798705815
 31
0.0
  0
LINE
  5
5832
330
1F
100
AcDbEntity
  8
AM_VIS
100
AcDbLine
 10
203.4455373462881
 20
366.4327798705815
 30
0.0
 11
186.4455373462881
 21
366.4327798705815
 31
0.0
  0
LINE
  5
5833
330
1F
100
AcDbEntity
  8
AM_VIS
100
AcDbLine
 10
186.4455373462881
 20
387.9327798705815
 30
0.0
 11
186.4455373462881
 21
366.4327798705815
 31
0.0
  0
LINE
  5
5834
330
1F
100
AcDbEntity
  8
AM_VIS
100
AcDbLine
 10
189.4455373462881
 20
393.4327798705815
 30
0.0
 11
189.4455373462881
 21
387.9327798705815
 31
0.0
  0
LINE
  5
5835
330
1F
100
AcDbEntity
  8
AM_VIS
100
AcDbLine
 10
186.4455373462881
 20
390.6827798705815
 30
0.0
 11
186.4455373462881
 21
391.2817798705835
 31
0.0
  0
LINE
  5
5836
330
1F
100
AcDbEntity
  8
AM_VIS
100
AcDbLine
 10
186.4455373462881
 20
392.1320292191325
 30
0.0
 11
186.4455373462881
 21
393.4327798705815
 31
0.0
  0
LINE
  5
5837
330
1F
100
AcDbEntity
  8
AM_VIS
100
AcDbLine
 10
186.4455373462881
 20
393.4327798705815
 30
0.0
 11
188.3455373462881
 21
393.4327798705815
 31
0.0
  0
LINE
  5
5838
330
1F
100
AcDbEntity
  8
AM_VIS
100
AcDbLine
 10
189.4455373462881
 20
387.9327798705815
 30
0.0
 11
186.4455373462881
 21
387.9327798705815
 31
0.0
  0
LINE
  5
5839
330
1F
100
AcDbEntity
  8
AM_VIS
100
AcDbLine
 10
203.4455373462881
 20
393.4327798705815
 30
0.0
 11
203.4455373462881
 21
366.4327798705815
 31
0.0
  0
LINE
  5
583A
330
1F
100
AcDbEntity
  8
AM_VIS
100
AcDbLine
 10
186.4455373462881
 20
390.6827798705815
 30
0.0
 11
186.4455373462881
 21
390.5837798705835
 31
0.0
  0
LINE
  5
583B
330
1F
100
AcDbEntity
  8
AM_VIS
100
AcDbLine
 10
186.4455373462881
 20
389.7335305220304
 30
0.0
 11
186.4455373462881
 21
387.9327798705815
 31
0.0
  0
LINE
  5
583C
330
1F
100
AcDbEntity
  8
AM_VIS
100
AcDbLine
 10
187.5220857567553
 20
388.504822549628
 30
0.0
 11
188.3455373462881
 21
388.4327798705815
 31
0.0
  0
LINE
  5
583D
330
1F
100
AcDbEntity
  8
AM_VIS
100
AcDbLine
 10
187.5220857567553
 20
393.360737191535
 30
0.0
 11
188.3455373462881
 21
393.4327798705815
 31
0.0
  0
LINE
  5
583E
330
1F
100
AcDbEntity
  8
AM_VIS
100
AcDbLine
 10
186.4802352335752
 20
389.5827798705815
 30
0.0
 11
186.4928954400408
 21
389.5926762464252
 31
0.0
  0
ARC
  5
583F
330
1F
100
AcDbEntity
  8
AM_VIS
100
AcDbCircle
 10
190.2455373462881
 20
390.9327798705815
 30
0.0
 40
3.984745788629432
100
AcDbArc
 50
160.347877084138
 51
168.9838463654508
  0
LINE
  5
5840
330
1F
100
AcDbEntity
  8
AM_VIS
100
AcDbLine
 10
186.4928954400408
 20
392.2728834947379
 30
0.0
 11
186.4802352335752
 21
392.2827798705815
 31
0.0
  0
LINE
  5
5841
330
1F
100
AcDbEntity
  8
AM_VIS
100
AcDbLine
 10
186.492895440041
 20
391.2817798705835
 30
0.0
 11
186.3342170781433
 21
391.2817798705835
 31
0.0
  0
LINE
  5
5842
330
1F
100
AcDbEntity
  8
AM_VIS
100
AcDbLine
 10
186.3342170781433
 20
390.5837798705835
 30
0.0
 11
186.4928954400406
 21
390.5837798705835
 31
0.0
  0
ELLIPSE
  5
5843
330
1F
100
AcDbEntity
  8
AM_VIS
100
AcDbEllipse
 10
189.4724519572844
 20
390.9327798705815
 30
0.0
 11
0.0
 21
-3.797925352448569
 31
0.0
210
0.0
220
0.0
230
1.0
 40
0.7878555911532165
 41
4.620366885743576
 42
4.804411075024757
  0
ARC
  5
5844
330
1F
100
AcDbEntity
  8
AM_VIS
100
AcDbCircle
 10
190.2455373462881
 20
390.9327798705815
 30
0.0
 40
3.984745788629432
100
AcDbArc
 50
191.0161536345523
 51
199.652122915862
  0
LINE
  5
5845
330
1F
100
AcDbEntity
  8
AM_VIS
100
AcDbLine
 10
186.3342170781433
 20
390.1713517649799
 30
0.0
 11
186.3342170781433
 21
390.5837798705835
 31
0.0
  0
LINE
  5
5846
330
1F
100
AcDbEntity
  8
AM_VIS
100
AcDbLine
 10
186.3342170781433
 20
391.2817798705835
 30
0.0
 11
186.3342170781433
 21
391.6942079761831
 31
0.0
  0
ARC
  5
5847
330
1F
100
AcDbEntity
  8
AM_VIS
100
AcDbCircle
 10
187.609241499503
 20
389.5010172477198
 30
0.0
 40
1.0
100
AcDbArc
 50
208.5062230151612
 51
265.0000000000003
  0
ARC
  5
5848
330
1F
100
AcDbEntity
  8
AM_VIS
100
AcDbCircle
 10
187.609241499503
 20
392.3645424934432
 30
0.0
 40
1.0
100
AcDbArc
 50
94.99999999999975
 51
151.4937769848388
  0
ARC
  5
5849
330
1F
100
AcDbEntity
  8
AM_VIS
100
AcDbCircle
 10
190.2455373462881
 20
390.9327798705815
 30
0.0
 40
4.0
100
AcDbArc
 50
151.4937769848388
 51
160.2753664412961
  0
ARC
  5
584A
330
1F
100
AcDbEntity
  8
AM_VIS
100
AcDbCircle
 10
190.2455373462881
 20
390.9327798705815
 30
0.0
 40
4.0
100
AcDbArc
 50
199.7246335587039
 51
208.5062230151612
  0
LINE
  5
584B
330
1F
100
AcDbEntity
  8
AM_VIS
100
AcDbLine
 10
203.4455373462881
 20
426.9638924783753
 30
0.0
 11
238.4455373462881
 21
426.9638924783753
 31
0.0
  0
LINE
  5
584C
330
1F
100
AcDbEntity
  8
AM_VIS
100
AcDbLine
 10
203.4455373462881
 20
444.9638924783753
 30
0.0
 11
238.4455373462881
 21
444.9638924783753
 31
0.0
  0
LINE
  5
584D
330
1F
100
AcDbEntity
  8
AM_VIS
100
AcDbLine
 10
235.4455373462881
 20
444.9638924783753
 30
0.0
 11
238.4455373462881
 21
444.9638924783753
 31
0.0
  0
LINE
  5
584E
330
1F
100
AcDbEntity
  8
AM_VIS
100
AcDbLine
 10
238.4455373462881
 20
426.9638924783753
 30
0.0
 11
238.4455373462881
 21
444.9638924783753
 31
0.0
  0
LINE
  5
584F
330
1F
100
AcDbEntity
  8
AM_VIS
100
AcDbLine
 10
203.4455373462881
 20
426.9638924783753
 30
0.0
 11
203.4455373462881
 21
444.9638924783753
 31
0.0
  0
LINE
  5
5850
330
1F
100
AcDbEntity
  8
AM_VIS
100
AcDbLine
 10
252.4455373462881
 20
439.4638924783753
 30
0.0
 11
252.4455373462881
 21
444.9638924783753
 31
0.0
  0
LINE
  5
5851
330
1F
100
AcDbEntity
  8
AM_VIS
100
AcDbLine
 10
255.4455373462881
 20
439.4638924783753
 30
0.0
 11
252.4455373462881
 21
439.4638924783753
 31
0.0
  0
LINE
  5
5852
330
1F
100
AcDbEntity
  8
AM_VIS
100
AcDbLine
 10
255.4455373462881
 20
426.9638924783753
 30
0.0
 11
255.4455373462881
 21
439.4638924783753
 31
0.0
  0
LINE
  5
5853
330
1F
100
AcDbEntity
  8
AM_VIS
100
AcDbLine
 10
255.4455373462881
 20
444.9638924783753
 30
0.0
 11
255.4455373462881
 21
443.6631418269263
 31
0.0
  0
LINE
  5
5854
330
1F
100
AcDbEntity
  8
AM_VIS
100
AcDbLine
 10
255.4455373462881
 20
442.8128924783753
 30
0.0
 11
255.4455373462881
 21
442.2138924783753
 31
0.0
  0
LINE
  5
5855
330
1F
100
AcDbEntity
  8
AM_VIS
100
AcDbLine
 10
238.4455373462881
 20
426.9638924783753
 30
0.0
 11
255.4455373462881
 21
426.9638924783753
 31
0.0
  0
LINE
  5
5856
330
1F
100
AcDbEntity
  8
AM_VIS
100
AcDbLine
 10
238.4455373462881
 20
426.9638924783753
 30
0.0
 11
238.4455373462881
 21
444.9638924783753
 31
0.0
  0
LINE
  5
5857
330
1F
100
AcDbEntity
  8
AM_VIS
100
AcDbLine
 10
253.5455373462881
 20
444.9638924783753
 30
0.0
 11
255.4455373462881
 21
444.9638924783753
 31
0.0
  0
LINE
  5
5858
330
1F
100
AcDbEntity
  8
AM_VIS
100
AcDbLine
 10
238.4455373462881
 20
444.9638924783753
 30
0.0
 11
252.4455373462881
 21
444.9638924783753
 31
0.0
  0
LINE
  5
5859
330
1F
100
AcDbEntity
  8
AM_VIS
100
AcDbLine
 10
255.4455373462881
 20
439.4638924783753
 30
0.0
 11
255.4455373462881
 21
441.2646431298242
 31
0.0
  0
LINE
  5
585A
330
1F
100
AcDbEntity
  8
AM_VIS
100
AcDbLine
 10
255.4455373462881
 20
442.1148924783753
 30
0.0
 11
255.4455373462881
 21
442.2138924783753
 31
0.0
  0
ELLIPSE
  5
585B
330
1F
100
AcDbEntity
  8
AM_VIS
100
AcDbEllipse
 10
188.5533834431964
 20
429.4638924783753
 30
0.0
 11
-4.416729559300744
 21
0.0000000000000003
 31
0.0
210
0.0
220
0.0
230
1.0
 40
0.5773502691896143
 41
4.712388980384689
 42
4.75946519013101
  0
LINE
  5
585C
330
1F
100
AcDbEntity
  8
AM_VIS
100
AcDbLine
 10
188.9455373462881
 20
432.0138924783753
 30
0.0
 11
188.5533834431964
 21
432.0138924783753
 31
0.0
  0
LINE
  5
585D
330
1F
100
AcDbEntity
  8
AM_VIS
100
AcDbLine
 10
188.9455373462881
 20
426.9138924783753
 30
0.0
 11
188.3455373462881
 21
426.9138924783753
 31
0.0
  0
LINE
  5
585E
330
1F
100
AcDbEntity
  8
AM_VIS
100
AcDbLine
 10
188.9455373462881
 20
432.0138924783753
 30
0.0
 11
188.9455373462881
 21
426.9138924783753
 31
0.0
  0
LINE
  5
585F
330
1F
100
AcDbEntity
  8
AM_VIS
100
AcDbLine
 10
188.3455373462881
 20
432.0110673840306
 30
0.0
 11
188.3455373462881
 21
426.9138924783753
 31
0.0
  0
ELLIPSE
  5
5860
330
1F
100
AcDbEntity
  8
AM_VIS
100
AcDbEllipse
 10
253.1533834431964
 20
442.4638924783753
 30
0.0
 11
-4.416729559300744
 21
0.0000000000000003
 31
0.0
210
0.0
220
0.0
230
1.0
 40
0.5773502691896143
 41
4.712388980384689
 42
4.75946519013101
  0
LINE
  5
5861
330
1F
100
AcDbEntity
  8
AM_VIS
100
AcDbLine
 10
253.5455373462881
 20
445.0138924783752
 30
0.0
 11
253.1533834431964
 21
445.0138924783752
 31
0.0
  0
LINE
  5
5862
330
1F
100
AcDbEntity
  8
AM_VIS
100
AcDbLine
 10
253.5455373462881
 20
439.9138924783753
 30
0.0
 11
252.9455373462881
 21
439.9138924783753
 31
0.0
  0
LINE
  5
5863
330
1F
100
AcDbEntity
  8
AM_VIS
100
AcDbLine
 10
253.5455373462881
 20
445.0138924783752
 30
0.0
 11
253.5455373462881
 21
439.9138924783753
 31
0.0
  0
LINE
  5
5864
330
1F
100
AcDbEntity
  8
AM_VIS
100
AcDbLine
 10
252.9455373462881
 20
445.0110673840306
 30
0.0
 11
252.9455373462881
 21
439.9138924783754
 31
0.0
  0
LINE
  5
5865
330
1F
100
AcDbEntity
  8
AM_VIS
100
AcDbLine
 10
253.5455373462881
 20
426.9138924783753
 30
0.0
 11
252.9455373462881
 21
426.9138924783753
 31
0.0
  0
LINE
  5
5866
330
1F
100
AcDbEntity
  8
AM_VIS
100
AcDbLine
 10
253.5455373462881
 20
426.9638924783753
 30
0.0
 11
253.5455373462881
 21
426.9138924783753
 31
0.0
  0
LINE
  5
5867
330
1F
100
AcDbEntity
  8
AM_VIS
100
AcDbLine
 10
252.9455373462881
 20
426.9638924783753
 30
0.0
 11
252.9455373462881
 21
426.9138924783753
 31
0.0
  0
LINE
  5
5868
330
1F
100
AcDbEntity
  8
AM_VIS
100
AcDbLine
 10
188.9455373462881
 20
426.9638924783753
 30
0.0
 11
189.4455373462881
 21
426.9638924783753
 31
0.0
  0
LINE
  5
5869
330
1F
100
AcDbEntity
  8
AM_VIS
100
AcDbLine
 10
188.9455373462881
 20
431.9638924783752
 30
0.0
 11
189.4455373462881
 21
431.9638924783752
 31
0.0
  0
LINE
  5
586A
330
1F
100
AcDbEntity
  8
AM_VIS
100
AcDbLine
 10
252.9455373462881
 20
444.9638924783753
 30
0.0
 11
252.4455373462881
 21
444.9638924783753
 31
0.0
  0
LINE
  5
586B
330
1F
100
AcDbEntity
  8
AM_VIS
100
AcDbLine
 10
252.9455373462881
 20
439.9638924783753
 30
0.0
 11
252.4455373462881
 21
439.9638924783753
 31
0.0
  0
LINE
  5
586C
330
1F
100
AcDbEntity
  8
AM_VIS
100
AcDbLine
 10
254.3689889358209
 20
444.8918497993288
 30
0.0
 11
253.5455373462881
 21
444.9638924783753
 31
0.0
  0
LINE
  5
586D
330
1F
100
AcDbEntity
  8
AM_VIS
100
AcDbLine
 10
254.3689889358209
 20
440.0359351574218
 30
0.0
 11
253.5455373462881
 21
439.9638924783753
 31
0.0
  0
LINE
  5
586E
330
1F
100
AcDbEntity
  8
AM_VIS
100
AcDbLine
 10
255.5568576144329
 20
442.8128924783753
 30
0.0
 11
255.3981792525354
 21
442.8128924783753
 31
0.0
  0
ELLIPSE
  5
586F
330
1F
100
AcDbEntity
  8
AM_VIS
100
AcDbEllipse
 10
252.4186227352917
 20
442.4638924783753
 30
0.0
 11
0.0
 21
-3.797925352448599
 31
0.0
210
0.0
220
0.0
230
1.0
 40
0.7878555911532376
 41
1.478774232154307
 42
1.662818421435485
  0
LINE
  5
5870
330
1F
100
AcDbEntity
  8
AM_VIS
100
AcDbLine
 10
255.410839459001
 20
443.8138924783753
 30
0.0
 11
255.3981792525355
 21
443.8039961025317
 31
0.0
  0
ARC
  5
5871
330
1F
100
AcDbEntity
  8
AM_VIS
100
AcDbCircle
 10
251.6455373462882
 20
442.4638924783753
 30
0.0
 40
3.984745788629608
100
AcDbArc
 50
340.347877084135
 51
348.9838463654374
  0
ARC
  5
5872
330
1F
100
AcDbEntity
  8
AM_VIS
100
AcDbCircle
 10
251.6455373462882
 20
442.4638924783753
 30
0.0
 40
3.984745788629608
100
AcDbArc
 50
11.01615363456259
 51
19.65212291586506
  0
LINE
  5
5873
330
1F
100
AcDbEntity
  8
AM_VIS
100
AcDbLine
 10
255.3981792525355
 20
441.1237888542188
 30
0.0
 11
255.410839459001
 21
441.1138924783752
 31
0.0
  0
LINE
  5
5874
330
1F
100
AcDbEntity
  8
AM_VIS
100
AcDbLine
 10
255.3981792525354
 20
442.1148924783753
 30
0.0
 11
255.5568576144329
 21
442.1148924783753
 31
0.0
  0
LINE
  5
5875
330
1F
100
AcDbEntity
  8
AM_VIS
100
AcDbLine
 10
255.556857614433
 20
443.2253205839778
 30
0.0
 11
255.556857614433
 21
442.8128924783753
 31
0.0
  0
LINE
  5
5876
330
1F
100
AcDbEntity
  8
AM_VIS
100
AcDbLine
 10
255.556857614433
 20
442.1148924783753
 30
0.0
 11
255.556857614433
 21
441.7024643727728
 31
0.0
  0
ARC
  5
5877
330
1F
100
AcDbEntity
  8
AM_VIS
100
AcDbCircle
 10
254.2818331930732
 20
443.895655101237
 30
0.0
 40
1.0
100
AcDbArc
 50
28.5062230151612
 51
85.00000000000026
  0
ARC
  5
5878
330
1F
100
AcDbEntity
  8
AM_VIS
100
AcDbCircle
 10
254.2818331930732
 20
441.0321298555136
 30
0.0
 40
1.0
100
AcDbArc
 50
274.9999999999997
 51
331.4937769848388
  0
ARC
  5
5879
330
1F
100
AcDbEntity
  8
AM_VIS
100
AcDbCircle
 10
251.6455373462882
 20
442.4638924783753
 30
0.0
 40
4.0
100
AcDbArc
 50
331.4937769848388
 51
340.2753664412961
  0
ARC
  5
587A
330
1F
100
AcDbEntity
  8
AM_VIS
100
AcDbCircle
 10
251.6455373462882
 20
442.4638924783753
 30
0.0
 40
3.999999999999999
100
AcDbArc
 50
19.72463355870392
 51
28.5062230151612
  0
LINE
  5
587B
330
1F
100
AcDbEntity
  8
AM_VIS
100
AcDbLine
 10
186.4455373462881
 20
444.9638924783753
 30
0.0
 11
186.4455373462881
 21
432.4638924783753
 31
0.0
  0
LINE
  5
587C
330
1F
100
AcDbEntity
  8
AM_VIS
100
AcDbLine
 10
203.4455373462881
 20
426.9638924783753
 30
0.0
 11
189.4455373462881
 21
426.9638924783753
 31
0.0
  0
LINE
  5
587D
330
1F
100
AcDbEntity
  8
AM_VIS
100
AcDbLine
 10
189.4455373462881
 20
432.4638924783753
 30
0.0
 11
189.4455373462881
 21
426.9638924783753
 31
0.0
  0
LINE
  5
587E
330
1F
100
AcDbEntity
  8
AM_VIS
100
AcDbLine
 10
186.4455373462881
 20
432.4638924783753
 30
0.0
 11
189.4455373462881
 21
432.4638924783753
 31
0.0
  0
LINE
  5
587F
330
1F
100
AcDbEntity
  8
AM_VIS
100
AcDbLine
 10
188.3455373462881
 20
426.9638924783753
 30
0.0
 11
186.4455373462881
 21
426.9638924783753
 31
0.0
  0
LINE
  5
5880
330
1F
100
AcDbEntity
  8
AM_VIS
100
AcDbLine
 10
186.4455373462881
 20
426.9638924783753
 30
0.0
 11
186.4455373462881
 21
428.2646431298243
 31
0.0
  0
LINE
  5
5881
330
1F
100
AcDbEntity
  8
AM_VIS
100
AcDbLine
 10
186.4455373462881
 20
429.1148924783753
 30
0.0
 11
186.4455373462881
 21
429.7138924783753
 31
0.0
  0
LINE
  5
5882
330
1F
100
AcDbEntity
  8
AM_VIS
100
AcDbLine
 10
203.4455373462881
 20
444.9638924783753
 30
0.0
 11
203.4455373462881
 21
426.9638924783753
 31
0.0
  0
LINE
  5
5883
330
1F
100
AcDbEntity
  8
AM_VIS
100
AcDbLine
 10
203.4455373462881
 20
444.9638924783753
 30
0.0
 11
186.4455373462881
 21
444.9638924783753
 31
0.0
  0
LINE
  5
5884
330
1F
100
AcDbEntity
  8
AM_VIS
100
AcDbLine
 10
186.4455373462881
 20
432.4638924783753
 30
0.0
 11
186.4455373462881
 21
430.6631418269263
 31
0.0
  0
LINE
  5
5885
330
1F
100
AcDbEntity
  8
AM_VIS
100
AcDbLine
 10
186.4455373462881
 20
429.8128924783752
 30
0.0
 11
186.4455373462881
 21
429.7138924783753
 31
0.0
  0
LINE
  5
5886
330
1F
100
AcDbEntity
  8
AM_VIS
100
AcDbLine
 10
187.5220857567553
 20
427.0359351574218
 30
0.0
 11
188.3455373462881
 21
426.9638924783753
 31
0.0
  0
LINE
  5
5887
330
1F
100
AcDbEntity
  8
AM_VIS
100
AcDbLine
 10
187.5220857567553
 20
431.8918497993288
 30
0.0
 11
188.3455373462881
 21
431.9638924783752
 31
0.0
  0
LINE
  5
5888
330
1F
100
AcDbEntity
  8
AM_VIS
100
AcDbLine
 10
186.3342170781433
 20
429.1148924783753
 30
0.0
 11
186.4928954400408
 21
429.1148924783753
 31
0.0
  0
ELLIPSE
  5
5889
330
1F
100
AcDbEntity
  8
AM_VIS
100
AcDbEllipse
 10
189.4724519572844
 20
429.4638924783753
 30
0.0
 11
0.0
 21
-3.797925352448591
 31
0.0
210
0.0
220
0.0
230
1.0
 40
0.787855591153228
 41
4.620366885744101
 42
4.804411075025278
  0
ARC
  5
588A
330
1F
100
AcDbEntity
  8
AM_VIS
100
AcDbCircle
 10
190.2455373462881
 20
429.4638924783753
 30
0.0
 40
3.984745788629256
100
AcDbArc
 50
191.016153634539
 51
199.652122915862
  0
LINE
  5
588B
330
1F
100
AcDbEntity
  8
AM_VIS
100
AcDbLine
 10
186.492895440041
 20
430.8039961025316
 30
0.0
 11
186.4802352335752
 21
430.8138924783754
 31
0.0
  0
LINE
  5
588C
330
1F
100
AcDbEntity
  8
AM_VIS
100
AcDbLine
 10
186.4802352335752
 20
428.1138924783753
 30
0.0
 11
186.492895440041
 21
428.123788854219
 31
0.0
  0
ARC
  5
588D
330
1F
100
AcDbEntity
  8
AM_VIS
100
AcDbCircle
 10
190.2455373462881
 20
429.4638924783753
 30
0.0
 40
3.984745788629256
100
AcDbArc
 50
160.347877084138
 51
168.983846365461
  0
LINE
  5
588E
330
1F
100
AcDbEntity
  8
AM_VIS
100
AcDbLine
 10
186.4928954400408
 20
429.8128924783752
 30
0.0
 11
186.3342170781433
 21
429.8128924783752
 31
0.0
  0
LINE
  5
588F
330
1F
100
AcDbEntity
  8
AM_VIS
100
AcDbLine
 10
186.3342170781433
 20
429.8128924783753
 30
0.0
 11
186.3342170781433
 21
430.2253205839759
 31
0.0
  0
LINE
  5
5890
330
1F
100
AcDbEntity
  8
AM_VIS
100
AcDbLine
 10
186.3342170781433
 20
428.7024643727746
 30
0.0
 11
186.3342170781433
 21
429.1148924783753
 31
0.0
  0
ARC
  5
5891
330
1F
100
AcDbEntity
  8
AM_VIS
100
AcDbCircle
 10
187.609241499503
 20
428.0321298555135
 30
0.0
 40
1.0
100
AcDbArc
 50
208.5062230151612
 51
265.0000000000003
  0
ARC
  5
5892
330
1F
100
AcDbEntity
  8
AM_VIS
100
AcDbCircle
 10
187.609241499503
 20
430.895655101237
 30
0.0
 40
1.0
100
AcDbArc
 50
94.99999999999975
 51
151.4937769848388
  0
ARC
  5
5893
330
1F
100
AcDbEntity
  8
AM_VIS
100
AcDbCircle
 10
190.2455373462881
 20
429.4638924783753
 30
0.0
 40
4.0
100
AcDbArc
 50
199.7246335587039
 51
208.5062230151612
  0
ARC
  5
5894
330
1F
100
AcDbEntity
  8
AM_VIS
100
AcDbCircle
 10
190.2455373462881
 20
429.4638924783753
 30
0.0
 40
4.0
100
AcDbArc
 50
151.4937769848388
 51
160.2753664412961
  0
LINE
  5
5895
330
1F
100
AcDbEntity
  8
AM_VIS
100
AcDbLine
 10
203.4455373462881
 20
341.2275651127498
 30
0.0
 11
238.4455373462881
 21
341.2275651127498
 31
0.0
  0
LINE
  5
5896
330
1F
100
AcDbEntity
  8
AM_VIS
100
AcDbLine
 10
203.4455373462881
 20
323.2275651127498
 30
0.0
 11
238.4455373462881
 21
323.2275651127498
 31
0.0
  0
LINE
  5
5897
330
1F
100
AcDbEntity
  8
AM_VIS
100
AcDbLine
 10
238.4455373462881
 20
323.2275651127498
 30
0.0
 11
238.4455373462881
 21
341.2275651127498
 31
0.0
  0
LINE
  5
5898
330
1F
100
AcDbEntity
  8
AM_VIS
100
AcDbLine
 10
203.4455373462881
 20
323.2275651127498
 30
0.0
 11
203.4455373462881
 21
341.2275651127498
 31
0.0
  0
LINE
  5
5899
330
1F
100
AcDbEntity
  8
AM_VIS
100
AcDbLine
 10
255.4455373462881
 20
323.2275651127498
 30
0.0
 11
255.4455373462881
 21
335.7275651127498
 31
0.0
  0
LINE
  5
589A
330
1F
100
AcDbEntity
  8
AM_VIS
100
AcDbLine
 10
238.4455373462881
 20
341.2275651127498
 30
0.0
 11
252.4455373462881
 21
341.2275651127498
 31
0.0
  0
LINE
  5
589B
330
1F
100
AcDbEntity
  8
AM_VIS
100
AcDbLine
 10
252.4455373462881
 20
335.7275651127498
 30
0.0
 11
252.4455373462881
 21
341.2275651127497
 31
0.0
  0
LINE
  5
589C
330
1F
100
AcDbEntity
  8
AM_VIS
100
AcDbLine
 10
255.4455373462881
 20
335.7275651127498
 30
0.0
 11
252.4455373462881
 21
335.7275651127498
 31
0.0
  0
LINE
  5
589D
330
1F
100
AcDbEntity
  8
AM_VIS
100
AcDbLine
 10
253.5455373462881
 20
341.2275651127498
 30
0.0
 11
255.4455373462881
 21
341.2275651127498
 31
0.0
  0
LINE
  5
589E
330
1F
100
AcDbEntity
  8
AM_VIS
100
AcDbLine
 10
255.4455373462881
 20
341.2275651127499
 30
0.0
 11
255.4455373462881
 21
339.9268144613009
 31
0.0
  0
LINE
  5
589F
330
1F
100
AcDbEntity
  8
AM_VIS
100
AcDbLine
 10
255.4455373462881
 20
339.0765651127498
 30
0.0
 11
255.4455373462881
 21
338.4775651127498
 31
0.0
  0
LINE
  5
58A0
330
1F
100
AcDbEntity
  8
AM_VIS
100
AcDbLine
 10
238.4455373462881
 20
323.2275651127498
 30
0.0
 11
238.4455373462881
 21
341.2275651127498
 31
0.0
  0
LINE
  5
58A1
330
1F
100
AcDbEntity
  8
AM_VIS
100
AcDbLine
 10
238.4455373462881
 20
323.2275651127498
 30
0.0
 11
255.4455373462881
 21
323.2275651127498
 31
0.0
  0
LINE
  5
58A2
330
1F
100
AcDbEntity
  8
AM_VIS
100
AcDbLine
 10
255.4455373462881
 20
335.7275651127498
 30
0.0
 11
255.4455373462881
 21
337.5283157641987
 31
0.0
  0
LINE
  5
58A3
330
1F
100
AcDbEntity
  8
AM_VIS
100
AcDbLine
 10
255.4455373462881
 20
338.3785651127498
 30
0.0
 11
255.4455373462881
 21
338.4775651127498
 31
0.0
  0
LINE
  5
58A4
330
1F
100
AcDbEntity
  8
AM_VIS
100
AcDbLine
 10
188.9455373462881
 20
341.2775651127498
 30
0.0
 11
188.3455373462881
 21
341.2775651127498
 31
0.0
  0
LINE
  5
58A5
330
1F
100
AcDbEntity
  8
AM_VIS
100
AcDbLine
 10
188.9455373462881
 20
341.2775651127498
 30
0.0
 11
188.9455373462881
 21
341.2275651127498
 31
0.0
  0
LINE
  5
58A6
330
1F
100
AcDbEntity
  8
AM_VIS
100
AcDbLine
 10
188.3455373462881
 20
341.2775651127498
 30
0.0
 11
188.3455373462881
 21
341.2275651127498
 31
0.0
  0
LINE
  5
58A7
330
1F
100
AcDbEntity
  8
AM_VIS
100
AcDbLine
 10
253.5455373462881
 20
323.2205825517341
 30
0.0
 11
253.5455373462881
 21
323.1876362872188
 31
0.0
  0
ELLIPSE
  5
58A8
330
1F
100
AcDbEntity
  8
AM_VIS
100
AcDbEllipse
 10
253.1533834431964
 20
325.7275651127498
 30
0.0
 11
-4.416729559300744
 21
-0.0000000000000003
 31
0.0
210
0.0
220
0.0
230
1.0
 40
0.5773502691896143
 41
1.523720117048576
 42
1.659701699610174
  0
ELLIPSE
  5
58A9
330
1F
100
AcDbEntity
  8
AM_VIS
100
AcDbEllipse
 10
252.7376912493799
 20
325.7275651127498
 30
0.0
 11
-4.416729559300744
 21
-0.0000000000000003
 31
0.0
210
0.0
220
0.0
230
1.0
 40
0.5773502691896143
 41
1.617872536541216
 42
1.754737779028614
  0
LINE
  5
58AA
330
1F
100
AcDbEntity
  8
AM_VIS
100
AcDbLine
 10
253.5455373462881
 20
323.1775651127498
 30
0.0
 11
253.1533834431964
 21
323.1775651127498
 31
0.0
  0
LINE
  5
58AB
330
1F
100
AcDbEntity
  8
AM_VIS
100
AcDbLine
 10
253.5455373462881
 20
323.2275651127498
 30
0.0
 11
253.5455373462881
 21
323.2205825517341
 31
0.0
  0
LINE
  5
58AC
330
1F
100
AcDbEntity
  8
AM_VIS
100
AcDbLine
 10
253.5455373462881
 20
323.1876362872188
 30
0.0
 11
253.5455373462881
 21
323.1775651127498
 31
0.0
  0
LINE
  5
58AD
330
1F
100
AcDbEntity
  8
AM_VIS
100
AcDbLine
 10
252.9455373462881
 20
323.2275651127498
 30
0.0
 11
252.9455373462881
 21
323.1803902070946
 31
0.0
  0
LINE
  5
58AE
330
1F
100
AcDbEntity
  8
AM_VIS
100
AcDbLine
 10
253.5455373462881
 20
336.2205825517341
 30
0.0
 11
253.5455373462881
 21
336.1876362872188
 31
0.0
  0
ELLIPSE
  5
58AF
330
1F
100
AcDbEntity
  8
AM_VIS
100
AcDbEllipse
 10
253.1533834431964
 20
338.7275651127498
 30
0.0
 11
-4.416729559300744
 21
-0.0000000000000003
 31
0.0
210
0.0
220
0.0
230
1.0
 40
0.5773502691896143
 41
1.523720117048576
 42
1.659701699610174
  0
ELLIPSE
  5
58B0
330
1F
100
AcDbEntity
  8
AM_VIS
100
AcDbEllipse
 10
252.7376912493799
 20
338.7275651127498
 30
0.0
 11
-4.416729559300744
 21
-0.0000000000000003
 31
0.0
210
0.0
220
0.0
230
1.0
 40
0.5773502691896143
 41
1.617872536541216
 42
1.754737779028614
  0
LINE
  5
58B1
330
1F
100
AcDbEntity
  8
AM_VIS
100
AcDbLine
 10
253.5455373462881
 20
341.2775651127498
 30
0.0
 11
252.9455373462881
 21
341.2775651127498
 31
0.0
  0
LINE
  5
58B2
330
1F
100
AcDbEntity
  8
AM_VIS
100
AcDbLine
 10
253.5455373462881
 20
336.1775651127498
 30
0.0
 11
253.1533834431964
 21
336.1775651127498
 31
0.0
  0
LINE
  5
58B3
330
1F
100
AcDbEntity
  8
AM_VIS
100
AcDbLine
 10
253.5455373462881
 20
341.2775651127498
 30
0.0
 11
253.5455373462881
 21
336.2205825517341
 31
0.0
  0
LINE
  5
58B4
330
1F
100
AcDbEntity
  8
AM_VIS
100
AcDbLine
 10
253.5455373462881
 20
336.1876362872188
 30
0.0
 11
253.5455373462881
 21
336.1775651127498
 31
0.0
  0
LINE
  5
58B5
330
1F
100
AcDbEntity
  8
AM_VIS
100
AcDbLine
 10
252.9455373462881
 20
341.2775651127498
 30
0.0
 11
252.9455373462881
 21
336.1803902070946
 31
0.0
  0
LINE
  5
58B6
330
1F
100
AcDbEntity
  8
AM_VIS
100
AcDbLine
 10
188.9455373462881
 20
323.2205825517341
 30
0.0
 11
188.9455373462881
 21
323.1876362872188
 31
0.0
  0
ELLIPSE
  5
58B7
330
1F
100
AcDbEntity
  8
AM_VIS
100
AcDbEllipse
 10
188.5533834431964
 20
325.7275651127498
 30
0.0
 11
-4.416729559300744
 21
-0.0000000000000003
 31
0.0
210
0.0
220
0.0
230
1.0
 40
0.5773502691896143
 41
1.523720117048576
 42
1.659701699610174
  0
ELLIPSE
  5
58B8
330
1F
100
AcDbEntity
  8
AM_VIS
100
AcDbEllipse
 10
188.1376912493798
 20
325.7275651127498
 30
0.0
 11
-4.416729559300744
 21
-0.0000000000000003
 31
0.0
210
0.0
220
0.0
230
1.0
 40
0.5773502691896143
 41
1.617872536541216
 42
1.754737779028614
  0
LINE
  5
58B9
330
1F
100
AcDbEntity
  8
AM_VIS
100
AcDbLine
 10
188.9455373462881
 20
328.2775651127498
 30
0.0
 11
188.3455373462881
 21
328.2775651127498
 31
0.0
  0
LINE
  5
58BA
330
1F
100
AcDbEntity
  8
AM_VIS
100
AcDbLine
 10
188.9455373462881
 20
323.1775651127498
 30
0.0
 11
188.5533834431964
 21
323.1775651127498
 31
0.0
  0
LINE
  5
58BB
330
1F
100
AcDbEntity
  8
AM_VIS
100
AcDbLine
 10
188.9455373462881
 20
328.2775651127498
 30
0.0
 11
188.9455373462881
 21
323.2205825517341
 31
0.0
  0
LINE
  5
58BC
330
1F
100
AcDbEntity
  8
AM_VIS
100
AcDbLine
 10
188.9455373462881
 20
323.1876362872188
 30
0.0
 11
188.9455373462881
 21
323.1775651127498
 31
0.0
  0
LINE
  5
58BD
330
1F
100
AcDbEntity
  8
AM_VIS
100
AcDbLine
 10
188.3455373462881
 20
328.2775651127498
 30
0.0
 11
188.3455373462881
 21
323.1803902070946
 31
0.0
  0
LINE
  5
58BE
330
1F
100
AcDbEntity
  8
AM_VIS
100
AcDbLine
 10
188.9455373462881
 20
323.2275651127498
 30
0.0
 11
189.4455373462881
 21
323.2275651127498
 31
0.0
  0
LINE
  5
58BF
330
1F
100
AcDbEntity
  8
AM_VIS
100
AcDbLine
 10
188.9455373462881
 20
328.2275651127498
 30
0.0
 11
189.4455373462881
 21
328.2275651127498
 31
0.0
  0
LINE
  5
58C0
330
1F
100
AcDbEntity
  8
AM_VIS
100
AcDbLine
 10
252.4455373462881
 20
336.2275651127498
 30
0.0
 11
252.9455373462881
 21
336.2275651127498
 31
0.0
  0
LINE
  5
58C1
330
1F
100
AcDbEntity
  8
AM_VIS
100
AcDbLine
 10
252.4455373462881
 20
341.2275651127498
 30
0.0
 11
252.9455373462881
 21
341.2275651127498
 31
0.0
  0
LINE
  5
58C2
330
1F
100
AcDbEntity
  8
AM_VIS
100
AcDbLine
 10
255.5568576144329
 20
326.0765651127498
 30
0.0
 11
255.4455373462881
 21
326.0765651127498
 31
0.0
  0
ARC
  5
58C3
330
1F
100
AcDbEntity
  8
AM_VIS
100
AcDbCircle
 10
251.6455373462882
 20
325.7275651127498
 30
0.0
 40
3.984745788629256
100
AcDbArc
 50
11.01615363453897
 51
17.51527592553235
  0
ARC
  5
58C4
330
1F
100
AcDbEntity
  8
AM_VIS
100
AcDbCircle
 10
251.6455373462882
 20
325.7275651127498
 30
0.0
 40
3.984745788629256
100
AcDbArc
 50
342.4847240744676
 51
348.9838463654604
  0
LINE
  5
58C5
330
1F
100
AcDbEntity
  8
AM_VIS
100
AcDbLine
 10
255.4455373462881
 20
325.3785651127498
 30
0.0
 11
255.5568576144329
 21
325.3785651127498
 31
0.0
  0
LINE
  5
58C6
330
1F
100
AcDbEntity
  8
AM_VIS
100
AcDbLine
 10
255.556857614433
 20
325.3785651127498
 30
0.0
 11
255.556857614433
 21
324.9661370071491
 31
0.0
  0
LINE
  5
58C7
330
1F
100
AcDbEntity
  8
AM_VIS
100
AcDbLine
 10
255.556857614433
 20
326.4889932183505
 30
0.0
 11
255.556857614433
 21
326.0765651127498
 31
0.0
  0
LINE
  5
58C8
330
1F
100
AcDbEntity
  8
AM_VIS
100
AcDbLine
 10
254.3689889358209
 20
341.1555224337032
 30
0.0
 11
253.5455373462881
 21
341.2275651127499
 31
0.0
  0
LINE
  5
58C9
330
1F
100
AcDbEntity
  8
AM_VIS
100
AcDbLine
 10
254.3689889358209
 20
336.2996077917963
 30
0.0
 11
253.5455373462881
 21
336.2275651127498
 31
0.0
  0
LINE
  5
58CA
330
1F
100
AcDbEntity
  8
AM_VIS
100
AcDbLine
 10
255.5568576144329
 20
339.0765651127498
 30
0.0
 11
255.3981792525354
 21
339.0765651127498
 31
0.0
  0
ELLIPSE
  5
58CB
330
1F
100
AcDbEntity
  8
AM_VIS
100
AcDbEllipse
 10
252.4186227352918
 20
338.7275651127498
 30
0.0
 11
0.0
 21
-3.797925352448591
 31
0.0
210
0.0
220
0.0
230
1.0
 40
0.787855591153228
 41
1.478774232154308
 42
1.662818421435484
  0
ARC
  5
58CC
330
1F
100
AcDbEntity
  8
AM_VIS
100
AcDbCircle
 10
251.6455373462882
 20
338.7275651127498
 30
0.0
 40
3.984745788629256
100
AcDbArc
 50
11.01615363453897
 51
19.65212291586199
  0
LINE
  5
58CD
330
1F
100
AcDbEntity
  8
AM_VIS
100
AcDbLine
 10
255.3981792525352
 20
337.3874614885935
 30
0.0
 11
255.410839459001
 21
337.3775651127498
 31
0.0
  0
LINE
  5
58CE
330
1F
100
AcDbEntity
  8
AM_VIS
100
AcDbLine
 10
255.410839459001
 20
340.0775651127498
 30
0.0
 11
255.3981792525352
 21
340.0676687369061
 31
0.0
  0
ARC
  5
58CF
330
1F
100
AcDbEntity
  8
AM_VIS
100
AcDbCircle
 10
251.6455373462882
 20
338.7275651127498
 30
0.0
 40
3.984745788629256
100
AcDbArc
 50
340.347877084138
 51
348.9838463654604
  0
LINE
  5
58D0
330
1F
100
AcDbEntity
  8
AM_VIS
100
AcDbLine
 10
255.3981792525354
 20
338.3785651127498
 30
0.0
 11
255.5568576144329
 21
338.3785651127498
 31
0.0
  0
LINE
  5
58D1
330
1F
100
AcDbEntity
  8
AM_VIS
100
AcDbLine
 10
255.556857614433
 20
338.3785651127498
 30
0.0
 11
255.556857614433
 21
337.9661370071491
 31
0.0
  0
LINE
  5
58D2
330
1F
100
AcDbEntity
  8
AM_VIS
100
AcDbLine
 10
255.556857614433
 20
339.4889932183505
 30
0.0
 11
255.556857614433
 21
339.0765651127498
 31
0.0
  0
ARC
  5
58D3
330
1F
100
AcDbEntity
  8
AM_VIS
100
AcDbCircle
 10
254.2818331930732
 20
340.1593277356115
 30
0.0
 40
1.0
100
AcDbArc
 50
28.5062230151612
 51
85.00000000000026
  0
ARC
  5
58D4
330
1F
100
AcDbEntity
  8
AM_VIS
100
AcDbCircle
 10
254.2818331930732
 20
337.2958024898881
 30
0.0
 40
1.0
100
AcDbArc
 50
274.9999999999997
 51
331.4937769848388
  0
ARC
  5
58D5
330
1F
100
AcDbEntity
  8
AM_VIS
100
AcDbCircle
 10
251.6455373462882
 20
338.7275651127498
 30
0.0
 40
4.0
100
AcDbArc
 50
19.72463355870392
 51
28.5062230151612
  0
ARC
  5
58D6
330
1F
100
AcDbEntity
  8
AM_VIS
100
AcDbCircle
 10
251.6455373462882
 20
338.7275651127498
 30
0.0
 40
4.0
100
AcDbArc
 50
331.4937769848388
 51
340.2753664412961
  0
LINE
  5
58D7
330
1F
100
AcDbEntity
  8
AM_VIS
100
AcDbLine
 10
189.4455373462881
 20
328.7275651127499
 30
0.0
 11
189.4455373462881
 21
323.2275651127499
 31
0.0
  0
LINE
  5
58D8
330
1F
100
AcDbEntity
  8
AM_VIS
100
AcDbLine
 10
186.4455373462881
 20
328.7275651127499
 30
0.0
 11
189.4455373462881
 21
328.7275651127499
 31
0.0
  0
LINE
  5
58D9
330
1F
100
AcDbEntity
  8
AM_VIS
100
AcDbLine
 10
186.4455373462881
 20
341.2275651127499
 30
0.0
 11
186.4455373462881
 21
328.7275651127499
 31
0.0
  0
LINE
  5
58DA
330
1F
100
AcDbEntity
  8
AM_VIS
100
AcDbLine
 10
186.4455373462881
 20
323.2275651127499
 30
0.0
 11
186.4455373462881
 21
324.5283157641988
 31
0.0
  0
LINE
  5
58DB
330
1F
100
AcDbEntity
  8
AM_VIS
100
AcDbLine
 10
186.4455373462881
 20
325.3785651127498
 30
0.0
 11
186.4455373462881
 21
325.9775651127498
 31
0.0
  0
LINE
  5
58DC
330
1F
100
AcDbEntity
  8
AM_VIS
100
AcDbLine
 10
203.4455373462881
 20
341.2275651127498
 30
0.0
 11
186.4455373462881
 21
341.2275651127498
 31
0.0
  0
LINE
  5
58DD
330
1F
100
AcDbEntity
  8
AM_VIS
100
AcDbLine
 10
203.4455373462881
 20
341.2275651127499
 30
0.0
 11
203.4455373462881
 21
323.2275651127499
 31
0.0
  0
LINE
  5
58DE
330
1F
100
AcDbEntity
  8
AM_VIS
100
AcDbLine
 10
188.3455373462881
 20
323.2275651127499
 30
0.0
 11
186.4455373462881
 21
323.2275651127499
 31
0.0
  0
LINE
  5
58DF
330
1F
100
AcDbEntity
  8
AM_VIS
100
AcDbLine
 10
203.4455373462881
 20
323.2275651127499
 30
0.0
 11
189.4455373462881
 21
323.2275651127499
 31
0.0
  0
LINE
  5
58E0
330
1F
100
AcDbEntity
  8
AM_VIS
100
AcDbLine
 10
186.4455373462881
 20
328.7275651127499
 30
0.0
 11
186.4455373462881
 21
326.9268144613008
 31
0.0
  0
LINE
  5
58E1
330
1F
100
AcDbEntity
  8
AM_VIS
100
AcDbLine
 10
186.4455373462881
 20
326.0765651127498
 30
0.0
 11
186.4455373462881
 21
325.9775651127498
 31
0.0
  0
LINE
  5
58E2
330
1F
100
AcDbEntity
  8
AM_VIS
100
AcDbLine
 10
186.3342170781433
 20
338.3785651127498
 30
0.0
 11
186.4455373462881
 21
338.3785651127498
 31
0.0
  0
ARC
  5
58E3
330
1F
100
AcDbEntity
  8
AM_VIS
100
AcDbCircle
 10
190.2455373462881
 20
338.7275651127498
 30
0.0
 40
3.984745788629608
100
AcDbArc
 50
162.4847240744542
 51
168.9838463654342
  0
ARC
  5
58E4
330
1F
100
AcDbEntity
  8
AM_VIS
100
AcDbCircle
 10
190.2455373462881
 20
338.7275651127498
 30
0.0
 40
3.984745788629608
100
AcDbArc
 50
191.0161536345626
 51
197.5152759255457
  0
LINE
  5
58E5
330
1F
100
AcDbEntity
  8
AM_VIS
100
AcDbLine
 10
186.4455373462881
 20
339.0765651127498
 30
0.0
 11
186.3342170781433
 21
339.0765651127498
 31
0.0
  0
LINE
  5
58E6
330
1F
100
AcDbEntity
  8
AM_VIS
100
AcDbLine
 10
186.3342170781433
 20
337.9661370071473
 30
0.0
 11
186.3342170781433
 21
338.3785651127498
 31
0.0
  0
LINE
  5
58E7
330
1F
100
AcDbEntity
  8
AM_VIS
100
AcDbLine
 10
186.3342170781433
 20
339.0765651127498
 30
0.0
 11
186.3342170781433
 21
339.4889932183523
 31
0.0
  0
LINE
  5
58E8
330
1F
100
AcDbEntity
  8
AM_VIS
100
AcDbLine
 10
187.5220857567553
 20
323.2996077917964
 30
0.0
 11
188.3455373462881
 21
323.2275651127498
 31
0.0
  0
LINE
  5
58E9
330
1F
100
AcDbEntity
  8
AM_VIS
100
AcDbLine
 10
187.5220857567553
 20
328.1555224337032
 30
0.0
 11
188.3455373462881
 21
328.2275651127499
 31
0.0
  0
LINE
  5
58EA
330
1F
100
AcDbEntity
  8
AM_VIS
100
AcDbLine
 10
186.3342170781433
 20
325.3785651127498
 30
0.0
 11
186.4928954400408
 21
325.3785651127498
 31
0.0
  0
ELLIPSE
  5
58EB
330
1F
100
AcDbEntity
  8
AM_VIS
100
AcDbEllipse
 10
189.4724519572845
 20
325.7275651127498
 30
0.0
 11
0.0
 21
-3.797925352448599
 31
0.0
210
0.0
220
0.0
230
1.0
 40
0.7878555911532376
 41
4.6203668857441
 42
4.804411075025279
  0
LINE
  5
58EC
330
1F
100
AcDbEntity
  8
AM_VIS
100
AcDbLine
 10
186.4802352335752
 20
324.3775651127498
 30
0.0
 11
186.4928954400406
 21
324.3874614885933
 31
0.0
  0
ARC
  5
58ED
330
1F
100
AcDbEntity
  8
AM_VIS
100
AcDbCircle
 10
190.2455373462881
 20
325.7275651127498
 30
0.0
 40
3.984745788629608
100
AcDbArc
 50
160.3478770841349
 51
168.9838463654342
  0
ARC
  5
58EE
330
1F
100
AcDbEntity
  8
AM_VIS
100
AcDbCircle
 10
190.2455373462881
 20
325.7275651127498
 30
0.0
 40
3.984745788629608
100
AcDbArc
 50
191.0161536345626
 51
199.652122915865
  0
LINE
  5
58EF
330
1F
100
AcDbEntity
  8
AM_VIS
100
AcDbLine
 10
186.4928954400406
 20
327.0676687369063
 30
0.0
 11
186.4802352335752
 21
327.0775651127498
 31
0.0
  0
LINE
  5
58F0
330
1F
100
AcDbEntity
  8
AM_VIS
100
AcDbLine
 10
186.4928954400408
 20
326.0765651127498
 30
0.0
 11
186.3342170781433
 21
326.0765651127498
 31
0.0
  0
LINE
  5
58F1
330
1F
100
AcDbEntity
  8
AM_VIS
100
AcDbLine
 10
186.3342170781433
 20
324.9661370071473
 30
0.0
 11
186.3342170781433
 21
325.3785651127498
 31
0.0
  0
LINE
  5
58F2
330
1F
100
AcDbEntity
  8
AM_VIS
100
AcDbLine
 10
186.3342170781433
 20
326.0765651127498
 30
0.0
 11
186.3342170781433
 21
326.4889932183523
 31
0.0
  0
ARC
  5
58F3
330
1F
100
AcDbEntity
  8
AM_VIS
100
AcDbCircle
 10
187.609241499503
 20
324.2958024898881
 30
0.0
 40
1.0
100
AcDbArc
 50
208.5062230151612
 51
265.0000000000003
  0
ARC
  5
58F4
330
1F
100
AcDbEntity
  8
AM_VIS
100
AcDbCircle
 10
187.609241499503
 20
327.1593277356115
 30
0.0
 40
1.0
100
AcDbArc
 50
94.99999999999975
 51
151.4937769848388
  0
ARC
  5
58F5
330
1F
100
AcDbEntity
  8
AM_VIS
100
AcDbCircle
 10
190.2455373462881
 20
325.7275651127498
 30
0.0
 40
4.0
100
AcDbArc
 50
151.4937769848388
 51
160.2753664412961
  0
ARC
  5
58F6
330
1F
100
AcDbEntity
  8
AM_VIS
100
AcDbCircle
 10
190.2455373462881
 20
325.7275651127498
 30
0.0
 40
3.999999999999999
100
AcDbArc
 50
199.7246335587039
 51
208.5062230151612
  0
LINE
  5
58F7
330
1F
100
AcDbEntity
  8
AM_VIS
100
AcDbLine
 10
229.4455373462881
 20
442.4638924783753
 30
0.0
 11
229.4455373462881
 21
444.9638924783753
 31
0.0
  0
LINE
  5
58F8
330
1F
100
AcDbEntity
  8
AM_VIS
100
AcDbLine
 10
212.4455373462881
 20
429.4638924783753
 30
0.0
 11
212.4455373462881
 21
426.9638924783753
 31
0.0
  0
LINE
  5
58F9
330
1F
100
AcDbEntity
  8
AM_VIS
100
AcDbLine
 10
235.4455373462881
 20
444.9638924783753
 30
0.0
 11
235.4455373462881
 21
442.4638924783753
 31
0.0
  0
ARC
  5
58FA
330
1F
100
AcDbEntity
  8
AM_VIS
100
AcDbCircle
 10
232.4455373462881
 20
442.4638924783753
 30
0.0
 40
1.599999999999992
100
AcDbArc
 50
322.2387560929671
 51
37.76124390703542
  0
LINE
  5
58FB
330
1F
100
AcDbEntity
  8
AM_VIS
100
AcDbLine
 10
206.4455373462881
 20
426.9638924783753
 30
0.0
 11
206.4455373462881
 21
429.4638924783753
 31
0.0
  0
ARC
  5
58FC
330
1F
100
AcDbEntity
  8
AM_VIS
100
AcDbCircle
 10
209.4455373462881
 20
429.4638924783753
 30
0.0
 40
1.599999999999995
100
AcDbArc
 50
142.2387560929646
 51
217.7612439070354
  0
LINE
  5
58FD
330
1F
100
AcDbEntity
  8
AM_VIS
100
AcDbLine
 10
212.4455373462881
 20
426.9638924783753
 30
0.0
 11
206.4455373462881
 21
426.9638924783753
 31
0.0
  0
LINE
  5
58FE
330
1F
100
AcDbEntity
  8
AM_VIS
100
AcDbLine
 10
229.4455373462881
 20
444.9638924783753
 30
0.0
 11
235.4455373462881
 21
444.9638924783753
 31
0.0
  0
ARC
  5
58FF
330
1F
100
AcDbEntity
  8
AM_VIS
100
AcDbCircle
 10
232.4455373462881
 20
442.4638924783753
 30
0.0
 40
3.0
100
AcDbArc
 50
180.0
 51
0.0
  0
ARC
  5
5900
330
1F
100
AcDbEntity
  8
AM_VIS
100
AcDbCircle
 10
209.4455373462881
 20
429.4638924783753
 30
0.0
 40
3.0
100
AcDbArc
 50
0.0
 51
180.0
  0
ARC
  5
5901
330
1F
100
AcDbEntity
  8
AM_VIS
100
AcDbCircle
 10
232.4455373462881
 20
442.4638924783753
 30
0.0
 40
1.6
100
AcDbArc
 50
37.76124390703542
 51
322.2387560929671
  0
ARC
  5
5902
330
1F
100
AcDbEntity
  8
AM_VIS
100
AcDbCircle
 10
209.4455373462881
 20
429.4638924783753
 30
0.0
 40
1.6
100
AcDbArc
 50
217.7612439070354
 51
142.2387560929646
  0
LINE
  5
5903
330
1F
100
AcDbEntity
  8
AM_7
100
AcDbLine
 10
223.4455373462881
 20
436.9638924783753
 30
0.0
 11
229.6955373462881
 21
436.9638924783753
 31
0.0
1001
GENIUS_GENOREF_13
1005
597B
  0
LINE
  5
5904
330
1F
100
AcDbEntity
  8
AM_7
100
AcDbLine
 10
223.4455373462881
 20
436.9638924783753
 30
0.0
 11
223.4455373462881
 21
443.2138924783753
 31
0.0
1001
GENIUS_GENOREF_13
1005
597B
  0
LINE
  5
5905
330
1F
100
AcDbEntity
  8
AM_7
100
AcDbLine
 10
223.4455373462881
 20
436.9638924783753
 30
0.0
 11
217.1955373462881
 21
436.9638924783753
 31
0.0
1001
GENIUS_GENOREF_13
1005
597B
  0
LINE
  5
5906
330
1F
100
AcDbEntity
  8
AM_7
100
AcDbLine
 10
223.4455373462881
 20
436.9638924783753
 30
0.0
 11
223.4455373462881
 21
430.7138924783753
 31
0.0
1001
GENIUS_GENOREF_13
1005
597B
  0
LINE
  5
5907
330
1F
100
AcDbEntity
  8
AM_7
  6
AM_ISO08W050x2
100
AcDbLine
 10
209.4455373462881
 20
429.4638924783753
 30
0.0
 11
213.4455373462881
 21
429.4638924783753
 31
0.0
1001
GENIUS_GENOREF_13
1005
597A
  0
LINE
  5
5908
330
1F
100
AcDbEntity
  8
AM_7
  6
AM_ISO08W050x2
100
AcDbLine
 10
209.4455373462881
 20
429.4638924783753
 30
0.0
 11
209.4455373462881
 21
433.4638924783753
 31
0.0
1001
GENIUS_GENOREF_13
1005
597A
  0
LINE
  5
5909
330
1F
100
AcDbEntity
  8
AM_7
  6
AM_ISO08W050x2
100
AcDbLine
 10
209.4455373462881
 20
429.4638924783753
 30
0.0
 11
205.4455373462881
 21
429.4638924783753
 31
0.0
1001
GENIUS_GENOREF_13
1005
597A
  0
LINE
  5
590A
330
1F
100
AcDbEntity
  8
AM_7
  6
AM_ISO08W050x2
100
AcDbLine
 10
209.4455373462881
 20
429.4638924783753
 30
0.0
 11
209.4455373462881
 21
425.4638924783753
 31
0.0
1001
GENIUS_GENOREF_13
1005
597A
  0
LINE
  5
590B
330
1F
100
AcDbEntity
  8
AM_7
  6
AM_ISO08W050x2
100
AcDbLine
 10
232.4455373462881
 20
442.4638924783753
 30
0.0
 11
232.4455373462881
 21
446.4638924783753
 31
0.0
  0
LINE
  5
590C
330
1F
100
AcDbEntity
  8
AM_7
  6
AM_ISO08W050x2
100
AcDbLine
 10
232.4455373462881
 20
442.4638924783753
 30
0.0
 11
228.4455373462881
 21
442.4638924783753
 31
0.0
  0
LINE
  5
590D
330
1F
100
AcDbEntity
  8
AM_7
  6
AM_ISO08W050x2
100
AcDbLine
 10
232.4455373462881
 20
442.4638924783753
 30
0.0
 11
232.4455373462881
 21
438.4638924783753
 31
0.0
  0
CIRCLE
  5
590E
330
1F
100
AcDbEntity
  8
AM_VIS
100
AcDbCircle
 10
215.4455373462881
 20
387.6327798705816
 30
0.0
 40
1.050000000000107
  0
CIRCLE
  5
590F
330
1F
100
AcDbEntity
  8
AM_VIS
100
AcDbCircle
 10
207.6955373462881
 20
371.4327798705815
 30
0.0
 40
1.6
  0
CIRCLE
  5
5910
330
1F
100
AcDbEntity
  8
AM_VIS
100
AcDbCircle
 10
215.4455373462881
 20
387.6327798705816
 30
0.0
 40
1.05
  0
CIRCLE
  5
5911
330
1F
100
AcDbEntity
  8
AM_VIS
100
AcDbCircle
 10
222.6955373462881
 20
371.4327798705815
 30
0.0
 40
1.6
  0
LINE
  5
5912
330
1F
100
AcDbEntity
  8
AM_7
  6
AM_ISO08W050x2
100
AcDbLine
 10
222.6955373462881
 20
371.4327798705815
 30
0.0
 11
225.2955373462881
 21
371.4327798705815
 31
0.0
1001
GENIUS_GENOREF_13
1005
5979
  0
LINE
  5
5913
330
1F
100
AcDbEntity
  8
AM_7
  6
AM_ISO08W050x2
100
AcDbLine
 10
222.6955373462881
 20
371.4327798705815
 30
0.0
 11
222.6955373462881
 21
374.0327798705815
 31
0.0
1001
GENIUS_GENOREF_13
1005
5979
  0
LINE
  5
5914
330
1F
100
AcDbEntity
  8
AM_7
  6
AM_ISO08W050x2
100
AcDbLine
 10
222.6955373462881
 20
371.4327798705815
 30
0.0
 11
220.0955373462881
 21
371.4327798705815
 31
0.0
1001
GENIUS_GENOREF_13
1005
5979
  0
LINE
  5
5915
330
1F
100
AcDbEntity
  8
AM_7
  6
AM_ISO08W050x2
100
AcDbLine
 10
222.6955373462881
 20
371.4327798705815
 30
0.0
 11
222.6955373462881
 21
368.8327798705815
 31
0.0
1001
GENIUS_GENOREF_13
1005
5979
  0
LINE
  5
5916
330
1F
100
AcDbEntity
  8
AM_7
  6
AM_ISO08W050x2
100
AcDbLine
 10
207.6955373462881
 20
371.4327798705815
 30
0.0
 11
210.2955373462882
 21
371.4327798705815
 31
0.0
1001
GENIUS_GENOREF_13
1005
5978
  0
LINE
  5
5917
330
1F
100
AcDbEntity
  8
AM_7
  6
AM_ISO08W050x2
100
AcDbLine
 10
207.6955373462881
 20
371.4327798705815
 30
0.0
 11
207.6955373462881
 21
374.0327798705815
 31
0.0
1001
GENIUS_GENOREF_13
1005
5978
  0
LINE
  5
5918
330
1F
100
AcDbEntity
  8
AM_7
  6
AM_ISO08W050x2
100
AcDbLine
 10
207.6955373462881
 20
371.4327798705815
 30
0.0
 11
205.0955373462881
 21
371.4327798705815
 31
0.0
1001
GENIUS_GENOREF_13
1005
5978
  0
LINE
  5
5919
330
1F
100
AcDbEntity
  8
AM_7
  6
AM_ISO08W050x2
100
AcDbLine
 10
207.6955373462881
 20
371.4327798705815
 30
0.0
 11
207.6955373462881
 21
368.8327798705815
 31
0.0
1001
GENIUS_GENOREF_13
1005
5978
  0
CIRCLE
  5
591A
330
1F
100
AcDbEntity
  8
AM_VIS
100
AcDbCircle
 10
232.4455373462881
 20
325.7275651127498
 30
0.0
 40
1.6
  0
CIRCLE
  5
591B
330
1F
100
AcDbEntity
  8
AM_VIS
100
AcDbCircle
 10
209.4455373462881
 20
338.7275651127498
 30
0.0
 40
1.6
  0
LINE
  5
591C
102
{ACAD_REACTORS
330
5931
102
}
330
1F
100
AcDbEntity
  8
AM_7
100
AcDbLine
 10
229.9455373462881
 20
332.7275651127498
 30
0.0
 11
236.1955373462881
 21
332.7275651127498
 31
0.0
1001
GENIUS_GENOREF_13
1005
5977
  0
LINE
  5
591D
330
1F
100
AcDbEntity
  8
AM_7
100
AcDbLine
 10
229.9455373462881
 20
332.7275651127498
 30
0.0
 11
229.9455373462881
 21
338.9775651127498
 31
0.0
1001
GENIUS_GENOREF_13
1005
5977
  0
LINE
  5
591E
330
1F
100
AcDbEntity
  8
AM_7
100
AcDbLine
 10
229.9455373462881
 20
332.7275651127498
 30
0.0
 11
223.6955373462881
 21
332.7275651127498
 31
0.0
1001
GENIUS_GENOREF_13
1005
5977
  0
LINE
  5
591F
330
1F
100
AcDbEntity
  8
AM_7
100
AcDbLine
 10
229.9455373462881
 20
332.7275651127498
 30
0.0
 11
229.9455373462881
 21
326.4775651127498
 31
0.0
1001
GENIUS_GENOREF_13
1005
5977
  0
LINE
  5
5920
330
1F
100
AcDbEntity
  8
AM_7
100
AcDbLine
 10
215.4455373462881
 20
332.2275651127498
 30
0.0
 11
221.6955373462881
 21
332.2275651127498
 31
0.0
1001
GENIUS_GENOREF_13
1005
5976
  0
LINE
  5
5921
330
1F
100
AcDbEntity
  8
AM_7
100
AcDbLine
 10
215.4455373462881
 20
332.2275651127498
 30
0.0
 11
215.4455373462881
 21
338.4775651127498
 31
0.0
1001
GENIUS_GENOREF_13
1005
5976
  0
LINE
  5
5922
330
1F
100
AcDbEntity
  8
AM_7
100
AcDbLine
 10
215.4455373462881
 20
332.2275651127498
 30
0.0
 11
209.1955373462881
 21
332.2275651127498
 31
0.0
1001
GENIUS_GENOREF_13
1005
5976
  0
LINE
  5
5923
330
1F
100
AcDbEntity
  8
AM_7
100
AcDbLine
 10
215.4455373462881
 20
332.2275651127498
 30
0.0
 11
215.4455373462881
 21
325.9775651127498
 31
0.0
1001
GENIUS_GENOREF_13
1005
5976
  0
LINE
  5
5924
330
1F
100
AcDbEntity
  8
AM_7
  6
AM_ISO08W050x2
100
AcDbLine
 10
232.4455373462881
 20
325.7275651127498
 30
0.0
 11
235.0455373462882
 21
325.7275651127498
 31
0.0
1001
GENIUS_GENOREF_13
1005
5975
  0
LINE
  5
5925
330
1F
100
AcDbEntity
  8
AM_7
  6
AM_ISO08W050x2
100
AcDbLine
 10
232.4455373462881
 20
325.7275651127498
 30
0.0
 11
232.4455373462881
 21
328.3275651127498
 31
0.0
1001
GENIUS_GENOREF_13
1005
5975
  0
LINE
  5
5926
330
1F
100
AcDbEntity
  8
AM_7
  6
AM_ISO08W050x2
100
AcDbLine
 10
232.4455373462881
 20
325.7275651127498
 30
0.0
 11
229.8455373462881
 21
325.7275651127498
 31
0.0
1001
GENIUS_GENOREF_13
1005
5975
  0
LINE
  5
5927
330
1F
100
AcDbEntity
  8
AM_7
  6
AM_ISO08W050x2
100
AcDbLine
 10
232.4455373462881
 20
325.7275651127498
 30
0.0
 11
232.4455373462881
 21
323.1275651127498
 31
0.0
1001
GENIUS_GENOREF_13
1005
5975
  0
LINE
  5
5928
330
1F
100
AcDbEntity
  8
AM_7
  6
AM_ISO08W050x2
100
AcDbLine
 10
209.4455373462881
 20
338.7275651127498
 30
0.0
 11
212.0455373462881
 21
338.7275651127498
 31
0.0
1001
GENIUS_GENOREF_13
1005
5974
  0
LINE
  5
5929
330
1F
100
AcDbEntity
  8
AM_7
  6
AM_ISO08W050x2
100
AcDbLine
 10
209.4455373462881
 20
338.7275651127498
 30
0.0
 11
209.4455373462881
 21
341.3275651127498
 31
0.0
1001
GENIUS_GENOREF_13
1005
5974
  0
LINE
  5
592A
330
1F
100
AcDbEntity
  8
AM_7
  6
AM_ISO08W050x2
100
AcDbLine
 10
209.4455373462881
 20
338.7275651127498
 30
0.0
 11
206.8455373462881
 21
338.7275651127498
 31
0.0
1001
GENIUS_GENOREF_13
1005
5974
  0
LINE
  5
592B
330
1F
100
AcDbEntity
  8
AM_7
  6
AM_ISO08W050x2
100
AcDbLine
 10
209.4455373462881
 20
338.7275651127498
 30
0.0
 11
209.4455373462881
 21
336.1275651127499
 31
0.0
1001
GENIUS_GENOREF_13
1005
5974
  0
LINE
  5
592C
102
{ACAD_REACTORS
330
5931
102
}
330
1F
100
AcDbEntity
  8
AM_7
100
AcDbLine
 10
183.213059381534
 20
332.2275651127498
 30
0.0
 11
258.5547224238302
 21
332.2275651127498
 31
0.0
1001
GENIUS_GENODEF_13
1002
{
1000
HIER
1070
     0
1002
}
1002
{
1000
MANEDIT
1070
     0
1002
}
1002
{
1000
NOSEL
1070
     0
1002
}
1002
{
1000
BEHIND
1070
     0
1002
}
1002
{
1000
OTHER
1070
     0
1002
}
1002
{
1000
REACTOR
1002
}
1001
GENIUS_GENOBJ-N-CEN_13
1002
{
1000
OWNER
1000
GEN
1002
}
1001
GENIUS_GENCEN_19
1002
{
1040
1.0
1002
}
  0
DIMENSION
  5
592D
330
1F
100
AcDbEntity
  8
AM_5
100
AcDbDimension
  2
*D34
 10
215.4455373462881
 20
313.2275651127498
 30
0.0
 11
200.9455373462881
 21
315.6779096009388
 31
0.0
 70
    32
 71
     5
 42
29.0
  3
AM_ISO$0
100
AcDbAlignedDimension
 13
186.4455373462881
 23
323.2275651127499
 33
0.0
 14
215.4455373462881
 24
325.9775651127498
 34
0.0
100
AcDbRotatedDimension
1001
ACAD
1000
DSTYLE
1002
{
1070
    40
1040
1.0
1070
   144
1040
1.0
1070
   272
1070
     8
1002
}
  0
DIMENSION
  5
592E
330
1F
100
AcDbEntity
  8
AM_5
100
AcDbDimension
  2
*D35
 10
229.9455373462881
 20
313.2275651127498
 30
0.0
 11
222.6955373462881
 21
315.6775651127498
 31
0.0
 70
    32
 71
     5
 42
14.5
  3
AM_ISO$0
100
AcDbAlignedDimension
 13
215.4455373462881
 23
325.9775651127498
 33
0.0
 14
229.9455373462881
 24
326.4775651127498
 34
0.0
100
AcDbRotatedDimension
1001
ACAD
1000
DSTYLE
1002
{
1070
    40
1040
1.0
1070
   144
1040
1.0
1070
   272
1070
     8
1002
}
  0
DIMENSION
  5
592F
102
{ACAD_XDICTIONARY
360
5930
102
}
102
{ACAD_REACTORS
330
5931
102
}
330
1F
100
AcDbEntity
  8
AM_5
100
AcDbDimension
  2
*D46
 10
265.4455373462881
 20
332.7275651127498
 30
0.0
 11
262.9955373462881
 21
341.9514304389211
 31
0.0
 70
    32
 71
     5
 42
0.5
  3
AM_ISO$0
100
AcDbAlignedDimension
 13
258.5547224238302
 23
332.2275651127498
 33
0.0
 14
236.1955373462881
 24
332.7275651127498
 34
0.0
 50
90.0
100
AcDbRotatedDimension
1001
ACAD
1000
DSTYLE
1002
{
1070
    40
1040
1.0
1070
   144
1040
1.0
1002
}
  0
DIMENSION
  5
5932
330
1F
100
AcDbEntity
  8
AM_5
100
AcDbDimension
  2
*D36
 10
265.4455373462881
 20
393.4327798705815
 30
0.0
 11
262.995192858099
 21
379.9327798705816
 31
0.0
 70
    32
 71
     5
 42
27.0
  3
AM_ISO$0
100
AcDbAlignedDimension
 13
255.4455373462881
 23
366.4327798705815
 33
0.0
 14
255.4455373462881
 24
393.4327798705815
 34
0.0
 50
90.0
100
AcDbRotatedDimension
1001
ACAD
1000
DSTYLE
1002
{
1070
    40
1040
1.0
1070
   144
1040
1.0
1070
   272
1070
     8
1002
}
  0
DIMENSION
  5
5933
330
1F
100
AcDbEntity
  8
AM_5
100
AcDbDimension
  2
*D37
 10
207.6955373462881
 20
356.4327798705815
 30
0.0
 11
197.0705373462881
 21
358.8831243587705
 31
0.0
 70
    32
 71
     5
 42
21.25
  3
AM_ISO$0
100
AcDbAlignedDimension
 13
186.4455373462881
 23
366.4327798705815
 33
0.0
 14
207.6955373462881
 24
368.8327798705815
 34
0.0
100
AcDbRotatedDimension
1001
ACAD
1000
DSTYLE
1002
{
1070
   271
1070
     1
1070
   272
1070
     8
1002
}
  0
DIMENSION
  5
5934
330
1F
100
AcDbEntity
  8
AM_5
100
AcDbDimension
  2
*D38
 10
222.6955373462881
 20
356.4327798705815
 30
0.0
 11
215.1955373462881
 21
358.8827798705815
 31
0.0
 70
    32
 71
     5
 42
15.0
  3
AM_ISO$0
100
AcDbAlignedDimension
 13
207.6955373462881
 23
368.8327798705815
 33
0.0
 14
222.6955373462881
 24
368.8327798705815
 34
0.0
100
AcDbRotatedDimension
1001
ACAD
1000
DSTYLE
1002
{
1070
    40
1040
1.0
1070
   144
1040
1.0
1070
   272
1070
     8
1002
}
  0
DIMENSION
  5
5935
330
1F
100
AcDbEntity
  8
AM_5
100
AcDbDimension
  2
*D39
 10
178.601690521529
 20
371.4327798705815
 30
0.0
 11
176.1516905215289
 21
368.9327798705816
 31
0.0
 70
    32
 71
     5
 42
5.0
  3
AM_ISO$0
100
AcDbAlignedDimension
 13
186.4455373462881
 23
366.4327798705815
 33
0.0
 14
205.0955373462881
 24
371.4327798705815
 34
0.0
 50
90.0
100
AcDbRotatedDimension
1001
ACAD
1000
DSTYLE
1002
{
1070
    40
1040
1.0
1070
   144
1040
1.0
1002
}
  0
LINE
  5
5936
330
1F
100
AcDbEntity
  8
AM_7
  6
AM_ISO08W050x2
100
AcDbLine
 10
232.4455373462881
 20
442.4638924783753
 30
0.0
 11
236.4455373462881
 21
442.4638924783753
 31
0.0
  0
DIMENSION
  5
5937
330
1F
100
AcDbEntity
  8
AM_5
100
AcDbDimension
  2
*D40
 10
223.4455373462881
 20
454.9638924783753
 30
0.0
 11
204.9455373462881
 21
457.4138924783753
 31
0.0
 70
    32
 71
     5
 42
37.0
  3
AM_ISO$0
100
AcDbAlignedDimension
 13
186.4455373462881
 23
444.9638924783753
 33
0.0
 14
223.4455373462881
 24
443.2138924783753
 34
0.0
100
AcDbRotatedDimension
1001
ACAD
1000
DSTYLE
1002
{
1070
    40
1040
1.0
1070
   144
1040
1.0
1070
   272
1070
     8
1002
}
  0
DIMENSION
  5
5938
330
1F
100
AcDbEntity
  8
AM_5
100
AcDbDimension
  2
*D41
 10
209.4455373462881
 20
416.9638924783753
 30
0.0
 11
197.9455373462881
 21
419.4142369665643
 31
0.0
 70
    32
 71
     5
 42
23.0
  3
AM_ISO$0
100
AcDbAlignedDimension
 13
186.4455373462881
 23
426.9638924783753
 33
0.0
 14
209.4455373462881
 24
425.4638924783753
 34
0.0
100
AcDbRotatedDimension
1001
ACAD
1000
DSTYLE
1002
{
1070
    40
1040
1.0
1070
   144
1040
1.0
1070
   272
1070
     8
1002
}
  0
DIMENSION
  5
5939
330
1F
100
AcDbEntity
  8
AM_5
100
AcDbDimension
  2
*D42
 10
232.4455373462881
 20
416.9638924783753
 30
0.0
 11
220.9455373462881
 21
419.4142369665644
 31
0.0
 70
    32
 71
     5
 42
23.0
  3
AM_ISO$0
100
AcDbAlignedDimension
 13
209.4455373462881
 23
425.4638924783753
 33
0.0
 14
232.4455373462881
 24
438.4638924783753
 34
0.0
100
AcDbRotatedDimension
1001
ACAD
1000
DSTYLE
1002
{
1070
    40
1040
1.0
1070
   144
1040
1.0
1070
   272
1070
     8
1002
}
  0
DIMENSION
  5
593A
330
1F
100
AcDbEntity
  8
AM_5
100
AcDbDimension
  2
*D43
 10
176.4455373462881
 20
442.4638924783753
 30
0.0
 11
173.9955373462881
 21
435.9638924783753
 31
0.0
 70
    32
 71
     5
 42
13.0
  3
AM_ISO$0
100
AcDbAlignedDimension
 13
205.4455373462881
 23
429.4638924783753
 33
0.0
 14
228.4455373462881
 24
442.4638924783753
 34
0.0
 50
90.0
100
AcDbRotatedDimension
1001
ACAD
1000
DSTYLE
1002
{
1070
    40
1040
1.0
1070
   144
1040
1.0
1070
   272
1070
     8
1002
}
  0
TEXT
  5
593B
330
1F
100
AcDbEntity
  8
AM_5
100
AcDbText
 10
241.115963703142
 20
455.7155038621814
 30
0.0
 40
3.5
  1
2-%%c3.2
100
AcDbText
  0
INSERT
  5
593C
330
1F
100
AcDbEntity
  8
AM_5
100
AcDbBlockReference
  2
*S49
 10
0.0
 20
0.0
 30
0.0
  0
DIMENSION
  5
593D
330
1F
100
AcDbEntity
  8
AM_5
100
AcDbDimension
  2
*D44
 10
168.4455373462881
 20
426.9638924783753
 30
0.0
 11
165.995537346288
 21
435.9638924783753
 31
0.0
 70
    32
 71
     5
 42
18.0
  3
AM_ISO$0
100
AcDbAlignedDimension
 13
186.4455373462881
 23
444.9638924783753
 33
0.0
 14
186.4455373462881
 24
426.9638924783753
 34
0.0
 50
90.0
100
AcDbRotatedDimension
1001
ACAD
1000
DSTYLE
1002
{
1070
    40
1040
1.0
1070
   144
1040
1.0
1002
}
  0
DIMENSION
  5
593E
330
1F
100
AcDbEntity
  8
AM_5
100
AcDbDimension
  2
*D45
 10
255.4455373462881
 20
408.9638924783752
 30
0.0
 11
220.9455373462881
 21
411.4138924783752
 31
0.0
 70
    32
 71
     5
 42
69.0
  3
AM_ISO$0
100
AcDbAlignedDimension
 13
186.4455373462881
 23
426.9638924783753
 33
0.0
 14
255.4455373462881
 24
426.9638924783753
 34
0.0
100
AcDbRotatedDimension
1001
ACAD
1000
DSTYLE
1002
{
1070
    40
1040
1.0
1070
   144
1040
1.0
1002
}
  0
LINE
  5
593F
330
1F
100
AcDbEntity
  8
AM_7
100
AcDbLine
 10
185.083628328513
 20
435.9638924783753
 30
0.0
 11
259.6112251382773
 21
435.9638924783753
 31
0.0
1001
GENIUS_GENOBJ-N-CEN_13
1002
{
1000
OWNER
1000
GEN
1002
}
1001
GENIUS_GENODEF_13
1002
{
1000
HIER
1070
     0
1002
}
1002
{
1000
MANEDIT
1070
     0
1002
}
1002
{
1000
NOSEL
1070
     0
1002
}
1002
{
1000
BEHIND
1070
     0
1002
}
1002
{
1000
OTHER
1070
     0
1002
}
1002
{
1000
REACTOR
1002
}
1001
GENIUS_GENCEN_19
1002
{
1040
1.0
1002
}
  0
DIMENSION
  5
5940
102
{ACAD_XDICTIONARY
360
5941
102
}
102
{ACAD_REACTORS
330
5942
102
}
330
1F
100
AcDbEntity
  8
AM_5
100
AcDbDimension
  2
*D47
 10
200.2029417663437
 20
390.4327798705815
 30
0.0
 11
200.2029417663436
 21
400.9052672439969
 31
0.0
 70
   160
 71
     5
 42
3.0
  3
AM_ISO$0
100
AcDbAlignedDimension
 13
206.4455373462881
 23
393.4327798705815
 33
0.0
 14
206.4455373462881
 24
390.4327798705815
 34
0.0
 50
90.0
100
AcDbRotatedDimension
1001
ACAD
1000
DSTYLE
1002
{
1070
    40
1040
1.0
1070
   144
1040
1.0
1002
}
  0
TEXT
  5
5943
330
1F
100
AcDbEntity
  8
AM_5
100
AcDbText
 10
243.9192995394293
 20
348.3911804371083
 30
0.0
 40
3.5
  1
3-PT1/8
100
AcDbText
  0
INSERT
  5
5944
330
1F
100
AcDbEntity
  8
AM_5
100
AcDbBlockReference
  2
*S50
 10
0.0
 20
0.0
 30
0.0
  0
TEXT
  5
5945
330
1F
100
AcDbEntity
  8
AM_5
100
AcDbText
 10
232.4170022078703
 20
356.4937227617128
 30
0.0
 40
3.5
  1
2-%%c3.2
100
AcDbText
  0
INSERT
  5
5946
330
1F
100
AcDbEntity
  8
AM_5
100
AcDbBlockReference
  2
*S51
 10
0.0
 20
0.0
 30
0.0
  0
LINE
  5
5947
330
1F
100
AcDbEntity
  8
AM_VIS
100
AcDbLine
 10
213.4455373462881
 20
330.3775651127498
 30
0.0
 11
213.4455373462881
 21
334.0775651127497
 31
0.0
  0
LINE
  5
5948
330
1F
100
AcDbEntity
  8
AM_VIS
100
AcDbLine
 10
227.9455373462881
 20
330.8775651127498
 30
0.0
 11
227.9455373462881
 21
334.5775651127498
 31
0.0
  0
LINE
  5
5949
330
1F
100
AcDbEntity
  8
AM_VIS
100
AcDbLine
 10
231.9455373462881
 20
334.5775651127498
 30
0.0
 11
231.9455373462881
 21
330.8775651127498
 31
0.0
  0
LINE
  5
594A
330
1F
100
AcDbEntity
  8
AM_VIS
100
AcDbLine
 10
217.4455373462881
 20
334.0775651127497
 30
0.0
 11
217.4455373462881
 21
330.3775651127498
 31
0.0
  0
CIRCLE
  5
594B
330
1F
100
AcDbEntity
  8
AM_VIS
100
AcDbCircle
 10
215.4455373462881
 20
332.2275651127498
 30
0.0
 40
4.049999999999999
  0
CIRCLE
  5
594C
330
1F
100
AcDbEntity
  8
AM_VIS
100
AcDbCircle
 10
215.4455373462881
 20
332.2275651127498
 30
0.0
 40
5.049999999999999
  0
CIRCLE
  5
594D
330
1F
100
AcDbEntity
  8
AM_VIS
100
AcDbCircle
 10
229.9455373462881
 20
332.7275651127498
 30
0.0
 40
5.049999999999999
  0
CIRCLE
  5
594E
330
1F
100
AcDbEntity
  8
AM_VIS
100
AcDbCircle
 10
229.9455373462881
 20
332.7275651127498
 30
0.0
 40
4.049999999999999
  0
ARC
  5
594F
330
1F
100
AcDbEntity
  8
AM_VIS
100
AcDbCircle
 10
215.4455373462881
 20
330.3775651127498
 30
0.0
 40
2.0
100
AcDbArc
 50
180.0
 51
0.0
  0
ARC
  5
5950
330
1F
100
AcDbEntity
  8
AM_VIS
100
AcDbCircle
 10
229.9455373462881
 20
330.8775651127498
 30
0.0
 40
2.0
100
AcDbArc
 50
180.0
 51
0.0
  0
ARC
  5
5951
330
1F
100
AcDbEntity
  8
AM_VIS
100
AcDbCircle
 10
229.9455373462881
 20
334.5775651127498
 30
0.0
 40
2.0
100
AcDbArc
 50
0.0
 51
180.0
  0
ARC
  5
5952
330
1F
100
AcDbEntity
  8
AM_VIS
100
AcDbCircle
 10
215.4455373462881
 20
334.0775651127497
 30
0.0
 40
2.0
100
AcDbArc
 50
0.0
 51
180.0
  0
LINE
  5
5953
330
1F
100
AcDbEntity
  8
AM_7
100
AcDbLine
 10
223.4455373462881
 20
436.9638924783753
 30
0.0
 11
223.4455373462881
 21
430.7138924783753
 31
0.0
  0
LINE
  5
5954
330
1F
100
AcDbEntity
  8
AM_VIS
100
AcDbLine
 10
220.5455373462882
 20
435.2138924783753
 30
0.0
 11
220.5455373462882
 21
438.7138924783753
 31
0.0
  0
LINE
  5
5955
330
1F
100
AcDbEntity
  8
AM_VIS
100
AcDbLine
 10
224.5455373462881
 20
438.7138924783753
 30
0.0
 11
224.5455373462881
 21
435.2138924783753
 31
0.0
  0
ARC
  5
5956
330
1F
100
AcDbEntity
  8
AM_VIS
100
AcDbCircle
 10
222.5455373462882
 20
435.2138924783753
 30
0.0
 40
2.0
100
AcDbArc
 50
180.0
 51
0.0
  0
CIRCLE
  5
5957
330
1F
100
AcDbEntity
  8
AM_VIS
100
AcDbCircle
 10
223.4455373462881
 20
436.9638924783753
 30
0.0
 40
5.049999999999999
  0
CIRCLE
  5
5958
330
1F
100
AcDbEntity
  8
AM_VIS
100
AcDbCircle
 10
223.4455373462881
 20
436.9638924783753
 30
0.0
 40
4.049999999999999
  0
ARC
  5
5959
330
1F
100
AcDbEntity
  8
AM_VIS
100
AcDbCircle
 10
222.5455373462882
 20
438.7138924783753
 30
0.0
 40
2.0
100
AcDbArc
 50
0.0
 51
180.0
  0
LINE
  5
595C
330
1F
100
AcDbEntity
  8
AM_0
  6
HIDDEN
 62
     3
 48
0.2
100
AcDbLine
 10
249.2455373462881
 20
384.9890298705815
 30
0.0
 11
255.4455373462881
 21
385.1827798705815
 31
0.0
  0
LINE
  5
595D
330
1F
100
AcDbEntity
  8
AM_0
  6
HIDDEN
 62
     3
 48
0.2
100
AcDbLine
 10
249.2455373462881
 20
374.8765298705815
 30
0.0
 11
255.4455373462881
 21
374.6827798705815
 31
0.0
  0
LINE
  5
595E
330
1F
100
AcDbEntity
  8
AM_0
  6
HIDDEN
 62
     3
 48
0.2
100
AcDbLine
 10
249.2455373462881
 20
375.8435298705815
 30
0.0
 11
255.4455373462881
 21
375.6497798705815
 31
0.0
  0
LINE
  5
595F
330
1F
100
AcDbEntity
  8
AM_0
  6
HIDDEN
 62
     3
 48
0.2
100
AcDbLine
 10
249.2455373462881
 20
384.0220298705815
 30
0.0
 11
255.4455373462881
 21
384.2157798705815
 31
0.0
  0
LINE
  5
5960
330
1F
100
AcDbEntity
  8
AM_7
  6
AM_ISO08W050x2
100
AcDbLine
 10
246.2922258411236
 20
379.9327798705815
 30
0.0
 11
256.8504333458581
 21
379.9327798705815
 31
0.0
  0
POINT
  5
5961
330
1F
100
AcDbEntity
  8
AM_7
  6
AM_ISO08W050x2
100
AcDbPoint
 10
251.4755373462881
 20
379.9327798705815
 30
0.0
  0
LINE
  5
5962
330
1F
100
AcDbEntity
  8
AM_0
  6
HIDDEN
 62
     3
 48
0.2
100
AcDbLine
 10
249.2455373462881
 20
384.0220298705815
 30
0.0
 11
247.8848873462881
 21
384.0220298705814
 31
0.0
  0
LINE
  5
5963
330
1F
100
AcDbEntity
  8
AM_0
  6
HIDDEN
 62
     3
 48
0.2
100
AcDbLine
 10
249.2455373462881
 20
375.8435298705815
 30
0.0
 11
247.8848873462881
 21
375.8435298705815
 31
0.0
  0
LINE
  5
5964
330
1F
100
AcDbEntity
  8
AM_0
  6
HIDDEN
 62
     3
 48
0.2
100
AcDbLine
 10
249.2455373462881
 20
374.8765298705815
 30
0.0
 11
249.2455373462881
 21
384.9890298705815
 31
0.0
  0
LINE
  5
5965
330
1F
100
AcDbEntity
  8
AM_0
  6
HIDDEN
 62
     3
 48
0.2
100
AcDbLine
 10
249.2455373462881
 20
384.9890298705815
 30
0.0
 11
247.8848873462881
 21
384.0220298705815
 31
0.0
  0
LINE
  5
5966
330
1F
100
AcDbEntity
  8
AM_0
  6
HIDDEN
 62
     3
 48
0.2
100
AcDbLine
 10
249.2455373462881
 20
374.8765298705815
 30
0.0
 11
247.8848873462881
 21
375.8435298705815
 31
0.0
  0
LINE
  5
5967
330
1F
100
AcDbEntity
  8
AM_0
  6
HIDDEN
 62
     3
 48
0.2
100
AcDbLine
 10
247.8848873462881
 20
384.0220298705815
 30
0.0
 11
247.8848873462881
 21
375.8435298705815
 31
0.0
  0
LINE
  5
5968
330
1F
100
AcDbEntity
  8
AM_0
  6
HIDDEN
 62
     3
 48
0.2
100
AcDbLine
 10
192.6455373462881
 20
384.9890298705815
 30
0.0
 11
186.4455373462881
 21
385.1827798705815
 31
0.0
  0
LINE
  5
5969
330
1F
100
AcDbEntity
  8
AM_0
  6
HIDDEN
 62
     3
 48
0.2
100
AcDbLine
 10
192.6455373462881
 20
374.8765298705815
 30
0.0
 11
186.4455373462881
 21
374.6827798705815
 31
0.0
  0
LINE
  5
596A
330
1F
100
AcDbEntity
  8
AM_0
  6
HIDDEN
 62
     3
 48
0.2
100
AcDbLine
 10
192.6455373462881
 20
375.8435298705815
 30
0.0
 11
186.4455373462881
 21
375.6497798705815
 31
0.0
  0
LINE
  5
596B
330
1F
100
AcDbEntity
  8
AM_0
  6
HIDDEN
 62
     3
 48
0.2
100
AcDbLine
 10
192.6455373462881
 20
384.0220298705815
 30
0.0
 11
186.4455373462881
 21
384.2157798705815
 31
0.0
  0
LINE
  5
596C
330
1F
100
AcDbEntity
  8
AM_7
  6
AM_ISO08W050x2
100
AcDbLine
 10
195.5988488514526
 20
379.9327798705815
 30
0.0
 11
185.040641346718
 21
379.9327798705815
 31
0.0
  0
POINT
  5
596D
330
1F
100
AcDbEntity
  8
AM_7
  6
AM_ISO08W050x2
100
AcDbPoint
 10
190.4155373462881
 20
379.9327798705815
 30
0.0
  0
LINE
  5
596E
330
1F
100
AcDbEntity
  8
AM_0
  6
HIDDEN
 62
     3
 48
0.2
100
AcDbLine
 10
192.6455373462881
 20
384.0220298705815
 30
0.0
 11
194.0061873462881
 21
384.0220298705814
 31
0.0
  0
LINE
  5
596F
330
1F
100
AcDbEntity
  8
AM_0
  6
HIDDEN
 62
     3
 48
0.2
100
AcDbLine
 10
192.6455373462881
 20
375.8435298705815
 30
0.0
 11
194.0061873462881
 21
375.8435298705815
 31
0.0
  0
LINE
  5
5970
330
1F
100
AcDbEntity
  8
AM_0
  6
HIDDEN
 62
     3
 48
0.2
100
AcDbLine
 10
192.6455373462881
 20
374.8765298705815
 30
0.0
 11
192.6455373462881
 21
384.9890298705815
 31
0.0
  0
LINE
  5
5971
330
1F
100
AcDbEntity
  8
AM_0
  6
HIDDEN
 62
     3
 48
0.2
100
AcDbLine
 10
192.6455373462881
 20
384.9890298705815
 30
0.0
 11
194.0061873462881
 21
384.0220298705815
 31
0.0
  0
LINE
  5
5972
330
1F
100
AcDbEntity
  8
AM_0
  6
HIDDEN
 62
     3
 48
0.2
100
AcDbLine
 10
192.6455373462881
 20
374.8765298705815
 30
0.0
 11
194.0061873462881
 21
375.8435298705815
 31
0.0
  0
LINE
  5
5973
330
1F
100
AcDbEntity
  8
AM_0
  6
HIDDEN
 62
     3
 48
0.2
100
AcDbLine
 10
194.0061873462881
 20
384.0220298705815
 30
0.0
 11
194.0061873462881
 21
375.8435298705815
 31
0.0
  0
POINT
  5
5974
330
1F
100
AcDbEntity
  8
0
 60
     1
100
AcDbPoint
 10
244.0250745249552
 20
213.5902752229443
 30
0.0
1001
GENIUS_GENOENT_13
1002
{
1000
MYREF
1005
5974
1002
}
1002
{
1000
GRP
1005
0
1002
}
1001
GENIUS_GENOLIS_13
1002
{
1000
ENT
1005
592B
1005
592A
1005
5929
1005
5928
1002
}
1001
GENIUS_GENOBJ-N-CRS_13
1002
{
1000
OWNER
1000
GEN
1002
}
1001
GENIUS_GENODEF_13
1002
{
1000
HIER
1070
    10
1002
}
1002
{
1000
MANEDIT
1070
     0
1002
}
1002
{
1000
NOSEL
1070
     0
1002
}
1002
{
1000
BEHIND
1070
     0
1002
}
1002
{
1000
OTHER
1070
     0
1002
}
1002
{
1000
REACTOR
1002
}
  0
POINT
  5
5975
330
1F
100
AcDbEntity
  8
0
 60
     1
100
AcDbPoint
 10
244.0250745249552
 20
213.5902752229443
 30
0.0
1001
GENIUS_GENODEF_13
1002
{
1000
HIER
1070
    10
1002
}
1002
{
1000
MANEDIT
1070
     0
1002
}
1002
{
1000
NOSEL
1070
     0
1002
}
1002
{
1000
BEHIND
1070
     0
1002
}
1002
{
1000
OTHER
1070
     0
1002
}
1002
{
1000
REACTOR
1002
}
1001
GENIUS_GENOBJ-N-CRS_13
1002
{
1000
OWNER
1000
GEN
1002
}
1001
GENIUS_GENOENT_13
1002
{
1000
MYREF
1005
5975
1002
}
1002
{
1000
GRP
1005
0
1002
}
1001
GENIUS_GENOLIS_13
1002
{
1000
ENT
1005
5927
1005
5926
1005
5925
1005
5924
1002
}
  0
POINT
  5
5976
330
1F
100
AcDbEntity
  8
0
 60
     1
100
AcDbPoint
 10
244.0250745249552
 20
213.5902752229443
 30
0.0
1001
GENIUS_GENODEF_13
1002
{
1000
HIER
1070
    10
1002
}
1002
{
1000
MANEDIT
1070
     0
1002
}
1002
{
1000
NOSEL
1070
     0
1002
}
1002
{
1000
BEHIND
1070
     0
1002
}
1002
{
1000
OTHER
1070
     0
1002
}
1002
{
1000
REACTOR
1002
}
1001
GENIUS_GENOENT_13
1002
{
1000
MYREF
1005
5976
1002
}
1002
{
1000
GRP
1005
0
1002
}
1001
GENIUS_GENOLIS_13
1002
{
1000
ENT
1005
5923
1005
5922
1005
5921
1005
5920
1002
}
1001
GENIUS_GENOBJ-N-CRS_13
1002
{
1000
OWNER
1000
GEN
1002
}
  0
POINT
  5
5977
330
1F
100
AcDbEntity
  8
0
 60
     1
100
AcDbPoint
 10
244.0250745249552
 20
213.5902752229443
 30
0.0
1001
GENIUS_GENOLIS_13
1002
{
1000
ENT
1005
591F
1005
591E
1005
591D
1005
591C
1002
}
1001
GENIUS_GENOENT_13
1002
{
1000
MYREF
1005
5977
1002
}
1002
{
1000
GRP
1005
0
1002
}
1001
GENIUS_GENOBJ-N-CRS_13
1002
{
1000
OWNER
1000
GEN
1002
}
1001
GENIUS_GENODEF_13
1002
{
1000
HIER
1070
    10
1002
}
1002
{
1000
MANEDIT
1070
     0
1002
}
1002
{
1000
NOSEL
1070
     0
1002
}
1002
{
1000
BEHIND
1070
     0
1002
}
1002
{
1000
OTHER
1070
     0
1002
}
1002
{
1000
REACTOR
1002
}
  0
POINT
  5
5978
330
1F
100
AcDbEntity
  8
0
 60
     1
100
AcDbPoint
 10
244.0250745249552
 20
216.080685170678
 30
0.0
1001
GENIUS_GENODEF_13
1002
{
1000
HIER
1070
    10
1002
}
1002
{
1000
MANEDIT
1070
     0
1002
}
1002
{
1000
NOSEL
1070
     0
1002
}
1002
{
1000
BEHIND
1070
     0
1002
}
1002
{
1000
OTHER
1070
     0
1002
}
1002
{
1000
REACTOR
1002
}
1001
GENIUS_GENOLIS_13
1002
{
1000
ENT
1005
5919
1005
5918
1005
5917
1005
5916
1002
}
1001
GENIUS_GENOENT_13
1002
{
1000
MYREF
1005
5978
1002
}
1002
{
1000
GRP
1005
0
1002
}
1001
GENIUS_GENOBJ-N-CRS_13
1002
{
1000
OWNER
1000
GEN
1002
}
  0
POINT
  5
5979
330
1F
100
AcDbEntity
  8
0
 60
     1
100
AcDbPoint
 10
244.0250745249552
 20
216.080685170678
 30
0.0
1001
GENIUS_GENODEF_13
1002
{
1000
HIER
1070
    10
1002
}
1002
{
1000
MANEDIT
1070
     0
1002
}
1002
{
1000
NOSEL
1070
     0
1002
}
1002
{
1000
BEHIND
1070
     0
1002
}
1002
{
1000
OTHER
1070
     0
1002
}
1002
{
1000
REACTOR
1002
}
1001
GENIUS_GENOBJ-N-CRS_13
1002
{
1000
OWNER
1000
GEN
1002
}
1001
GENIUS_GENOENT_13
1002
{
1000
MYREF
1005
5979
1002
}
1002
{
1000
GRP
1005
0
1002
}
1001
GENIUS_GENOLIS_13
1002
{
1000
ENT
1005
5915
1005
5914
1005
5913
1005
5912
1002
}
  0
POINT
  5
597A
330
1F
100
AcDbEntity
  8
0
 60
     1
100
AcDbPoint
 10
244.0250745249552
 20
205.9339169139037
 30
0.0
1001
GENIUS_GENODEF_13
1002
{
1000
HIER
1070
    10
1002
}
1002
{
1000
MANEDIT
1070
     0
1002
}
1002
{
1000
NOSEL
1070
     0
1002
}
1002
{
1000
BEHIND
1070
     0
1002
}
1002
{
1000
OTHER
1070
     0
1002
}
1002
{
1000
REACTOR
1002
}
1001
GENIUS_GENOBJ-N-CRS_13
1002
{
1000
OWNER
1000
GEN
1002
}
1001
GENIUS_GENOLIS_13
1002
{
1000
ENT
1005
590A
1005
5909
1005
5908
1005
5907
1002
}
1001
GENIUS_GENOENT_13
1002
{
1000
MYREF
1005
597A
1002
}
1002
{
1000
GRP
1005
0
1002
}
  0
POINT
  5
597B
330
1F
100
AcDbEntity
  8
0
 60
     1
100
AcDbPoint
 10
244.0250745249552
 20
205.9339169139037
 30
0.0
1001
GENIUS_GENOLIS_13
1002
{
1000
ENT
1005
5906
1005
5905
1005
5904
1005
5903
1002
}
1001
GENIUS_GENOENT_13
1002
{
1000
MYREF
1005
597B
1002
}
1002
{
1000
GRP
1005
0
1002
}
1001
GENIUS_GENOBJ-N-CRS_13
1002
{
1000
OWNER
1000
GEN
1002
}
1001
GENIUS_GENODEF_13
1002
{
1000
HIER
1070
    10
1002
}
1002
{
1000
MANEDIT
1070
     0
1002
}
1002
{
1000
NOSEL
1070
     0
1002
}
1002
{
1000
BEHIND
1070
     0
1002
}
1002
{
1000
OTHER
1070
     0
1002
}
1002
{
1000
REACTOR
1002
}
  0
TEXT
  5
5A99
330
1F
100
AcDbEntity
  8
AM_5
100
AcDbText
 10
259.7286661565963
 20
399.9349043174346
 30
0.0
 40
3.5
  1
2-PT1/8
100
AcDbText
  0
LINE
  5
5A9A
330
1F
100
AcDbEntity
  8
AM_VIS
100
AcDbLine
 10
282.9654058636053
 20
368.583779870581
 30
0.0
 11
283.3144058636059
 21
368.9327798705815
 31
0.0
  0
LINE
  5
5A9B
330
1F
100
AcDbEntity
  8
AM_VIS
100
AcDbLine
 10
282.9654058636059
 20
369.2817798705795
 30
0.0
 11
282.9654058636059
 21
368.5837798705795
 31
0.0
  0
LINE
  5
5A9C
330
1F
100
AcDbEntity
  8
AM_VIS
100
AcDbLine
 10
283.3144058636059
 20
368.9327798705816
 30
0.0
 11
283.3144058636059
 21
369.2817798705795
 31
0.0
  0
LINE
  5
5A9D
330
1F
100
AcDbEntity
  8
AM_VIS
100
AcDbLine
 10
283.3144058636059
 20
368.9327798705816
 30
0.0
 11
282.9654058636064
 21
369.281779870581
 31
0.0
  0
LINE
  5
5A9E
330
1F
100
AcDbEntity
  8
AM_VIS
100
AcDbLine
 10
283.6634058636059
 20
368.5837798705795
 30
0.0
 11
282.9654058636059
 21
368.5837798705795
 31
0.0
  0
LINE
  5
5A9F
330
1F
100
AcDbEntity
  8
AM_VIS
100
AcDbLine
 10
283.6634058636059
 20
368.5837798705795
 30
0.0
 11
283.6634058636059
 21
368.1713517649799
 31
0.0
  0
LINE
  5
5AA0
330
1F
100
AcDbEntity
  8
AM_VIS
100
AcDbLine
 10
283.6634058636059
 20
368.5837798705795
 30
0.0
 11
284.0758339692066
 21
368.5837798705795
 31
0.0
  0
LINE
  5
5AA1
330
1F
100
AcDbEntity
  8
AM_VIS
100
AcDbLine
 10
283.6634058636059
 20
369.6942079761831
 30
0.0
 11
283.6634058636059
 21
369.2817798705795
 31
0.0
  0
LINE
  5
5AA2
330
1F
100
AcDbEntity
  8
AM_VIS
100
AcDbLine
 10
283.6634058636059
 20
369.2817798705795
 30
0.0
 11
284.0758339692084
 21
369.2817798705795
 31
0.0
  0
LINE
  5
5AA3
330
1F
100
AcDbEntity
  8
AM_VIS
100
AcDbLine
 10
282.9654058636059
 20
369.6942079761831
 30
0.0
 11
282.9654058636059
 21
369.2817798705795
 31
0.0
  0
LINE
  5
5AA4
330
1F
100
AcDbEntity
  8
AM_VIS
100
AcDbLine
 10
282.5529777580034
 20
369.2817798705795
 30
0.0
 11
282.9654058636059
 21
369.2817798705795
 31
0.0
  0
LINE
  5
5AA5
330
1F
100
AcDbEntity
  8
AM_VIS
100
AcDbLine
 10
282.9654058636059
 20
368.5837798705795
 30
0.0
 11
282.9654058636059
 21
368.1713517649799
 31
0.0
  0
LINE
  5
5AA6
330
1F
100
AcDbEntity
  8
AM_VIS
100
AcDbLine
 10
282.5529777580052
 20
368.5837798705795
 30
0.0
 11
282.9654058636059
 21
368.5837798705795
 31
0.0
  0
CIRCLE
  5
5AA7
330
1F
100
AcDbEntity
  8
AM_VIS
100
AcDbCircle
 10
283.3144058636059
 20
368.9327798705815
 30
0.0
 40
2.5
  0
LINE
  5
5AA8
330
1F
100
AcDbEntity
  8
AM_VIS
100
AcDbLine
 10
283.6634058636059
 20
369.6942079761831
 30
0.0
 11
283.6634058636059
 21
370.2728834947379
 31
0.0
  0
ELLIPSE
  5
5AA9
330
1F
100
AcDbEntity
  8
AM_VIS
100
AcDbEllipse
 10
283.3144058636059
 20
367.94378947703
 30
0.0
 11
-3.797925352448599
 21
0.0000000000000005
 31
0.0
210
0.0
220
0.0
230
1.0
 40
0.6158600226419823
 41
4.6203668857441
 42
4.80441107502528
  0
LINE
  5
5AAA
330
1F
100
AcDbEntity
  8
AM_VIS
100
AcDbLine
 10
282.9654058636059
 20
368.1713517649799
 30
0.0
 11
282.9654058636059
 21
367.5926762464252
 31
0.0
  0
ELLIPSE
  5
5AAB
330
1F
100
AcDbEntity
  8
AM_VIS
100
AcDbEllipse
 10
283.3144058636059
 20
369.9217702641331
 30
0.0
 11
3.797925352448591
 21
-0.0000000000000005
 31
0.0
210
0.0
220
0.0
230
1.0
 40
0.6158600226419945
 41
4.6203668857441
 42
4.804411075025278
  0
LINE
  5
5AAC
330
1F
100
AcDbEntity
  8
AM_VIS
100
AcDbLine
 10
281.9743022394496
 20
368.5837798705795
 30
0.0
 11
282.5529777580052
 21
368.5837798705795
 31
0.0
  0
ELLIPSE
  5
5AAD
330
1F
100
AcDbEntity
  8
AM_VIS
100
AcDbEllipse
 10
282.3254154700542
 20
368.9327798705815
 30
0.0
 11
0.0000000000000011
 21
3.797925352448569
 31
0.0
210
0.0
220
0.0
230
1.0
 40
0.6158600226420087
 41
4.620366885743576
 42
4.804411075024757
  0
LINE
  5
5AAE
330
1F
100
AcDbEntity
  8
AM_VIS
100
AcDbLine
 10
282.5529777580034
 20
369.2817798705795
 30
0.0
 11
281.9743022394494
 21
369.2817798705795
 31
0.0
  0
LINE
  5
5AAF
330
1F
100
AcDbEntity
  8
AM_VIS
100
AcDbLine
 10
284.6545094877624
 20
369.2817798705795
 30
0.0
 11
284.0758339692084
 21
369.2817798705795
 31
0.0
  0
ELLIPSE
  5
5AB0
330
1F
100
AcDbEntity
  8
AM_VIS
100
AcDbEllipse
 10
284.3033962571575
 20
368.9327798705815
 30
0.0
 11
0.0000000000000002
 21
-3.797925352448569
 31
0.0
210
0.0
220
0.0
230
0.9999999999999998
 40
0.6158600226420093
 41
4.620366885744621
 42
4.804411075025802
  0
LINE
  5
5AB1
330
1F
100
AcDbEntity
  8
AM_VIS
100
AcDbLine
 10
284.0758339692065
 20
368.5837798705795
 30
0.0
 11
284.6545094877622
 21
368.5837798705795
 31
0.0
  0
LINE
  5
5AB2
330
1F
100
AcDbEntity
  8
AM_VIS
100
AcDbLine
 10
282.9654058636059
 20
370.2728834947379
 30
0.0
 11
282.9654058636059
 21
369.6942079761831
 31
0.0
  0
LINE
  5
5AB3
330
1F
100
AcDbEntity
  8
AM_VIS
100
AcDbLine
 10
283.6634058636059
 20
367.5926762464252
 30
0.0
 11
283.6634058636059
 21
368.1713517649799
 31
0.0
  0
ARC
  5
5AB4
330
1F
100
AcDbEntity
  8
AM_VIS
100
AcDbCircle
 10
283.3144058636059
 20
368.9327798705815
 30
0.0
 40
0.8376000000000374
100
AcDbArc
 50
294.6243183521657
 51
335.3756816476841
  0
ARC
  5
5AB5
330
1F
100
AcDbEntity
  8
AM_VIS
100
AcDbCircle
 10
283.3144058636059
 20
368.9327798705815
 30
0.0
 40
0.8376000000000374
100
AcDbArc
 50
24.62431835201131
 51
65.37568164783424
  0
ARC
  5
5AB6
330
1F
100
AcDbEntity
  8
AM_VIS
100
AcDbCircle
 10
283.3144058636059
 20
368.9327798705815
 30
0.0
 40
0.8376000000000374
100
AcDbArc
 50
114.6243183521657
 51
155.3756816479886
  0
ARC
  5
5AB7
330
1F
100
AcDbEntity
  8
AM_VIS
100
AcDbCircle
 10
283.3144058636059
 20
368.9327798705815
 30
0.0
 40
0.8376000000000374
100
AcDbArc
 50
204.6243183523159
 51
245.3756816478342
  0
LINE
  5
5AB8
330
1F
100
AcDbEntity
  8
AM_VIS
100
AcDbLine
 10
293.3144058636058
 20
393.4327798705815
 30
0.0
 11
295.8119120825497
 21
393.4327798705815
 31
0.0
  0
LINE
  5
5AB9
330
1F
100
AcDbEntity
  8
AM_VIS
100
AcDbLine
 10
296.8168996446621
 20
393.4327798705815
 30
0.0
 11
298.8144058636058
 21
393.4327798705815
 31
0.0
  0
LINE
  5
5ABA
330
1F
100
AcDbEntity
  8
AM_VIS
100
AcDbLine
 10
280.8144058636058
 20
393.4327798705815
 30
0.0
 11
293.3144058636058
 21
393.4327798705815
 31
0.0
  0
LINE
  5
5ABB
330
1F
100
AcDbEntity
  8
AM_VIS
100
AcDbLine
 10
293.3144058636058
 20
390.6827798705815
 30
0.0
 11
293.3144058636058
 21
393.4327798705815
 31
0.0
  0
LINE
  5
5ABC
330
1F
100
AcDbEntity
  8
AM_VIS
100
AcDbLine
 10
298.8144058636058
 20
387.9327798705815
 30
0.0
 11
296.0644058636058
 21
387.9327798705815
 31
0.0
  0
LINE
  5
5ABD
330
1F
100
AcDbEntity
  8
AM_VIS
100
AcDbLine
 10
298.8144058636059
 20
366.4327798705815
 30
0.0
 11
286.3144058636059
 21
366.4327798705815
 31
0.0
  0
LINE
  5
5ABE
330
1F
100
AcDbEntity
  8
AM_VIS
100
AcDbLine
 10
280.8144058636059
 20
371.9327798705815
 30
0.0
 11
280.8144058636058
 21
393.4327798705815
 31
0.0
  0
LINE
  5
5ABF
330
1F
100
AcDbEntity
  8
AM_VIS
100
AcDbLine
 10
286.3144058636059
 20
366.4327798705815
 30
0.0
 11
283.8168996446618
 21
366.4327798705815
 31
0.0
  0
LINE
  5
5AC0
330
1F
100
AcDbEntity
  8
AM_VIS
100
AcDbLine
 10
282.81191208255
 20
366.4327798705815
 30
0.0
 11
280.8144058636059
 21
366.4327798705815
 31
0.0
  0
LINE
  5
5AC1
330
1F
100
AcDbEntity
  8
AM_VIS
100
AcDbLine
 10
280.8144058636059
 20
366.4327798705814
 30
0.0
 11
280.8144058636059
 21
368.4302860895254
 31
0.0
  0
LINE
  5
5AC2
330
1F
100
AcDbEntity
  8
AM_VIS
100
AcDbLine
 10
280.8144058636059
 20
369.4352736516377
 30
0.0
 11
280.8144058636059
 21
371.9327798705815
 31
0.0
  0
LINE
  5
5AC3
330
1F
100
AcDbEntity
  8
AM_VIS
100
AcDbLine
 10
286.3144058636059
 20
369.1827798705815
 30
0.0
 11
286.3144058636059
 21
366.4327798705815
 31
0.0
  0
LINE
  5
5AC4
330
1F
100
AcDbEntity
  8
AM_VIS
100
AcDbLine
 10
280.8144058636058
 20
371.9327798705815
 30
0.0
 11
283.5644058636058
 21
371.9327798705815
 31
0.0
  0
LINE
  5
5AC5
330
1F
100
AcDbEntity
  8
AM_VIS
100
AcDbLine
 10
298.8144058636058
 20
387.9327798705815
 30
0.0
 11
298.8144058636059
 21
366.4327798705815
 31
0.0
  0
LINE
  5
5AC6
330
1F
100
AcDbEntity
  8
AM_VIS
100
AcDbLine
 10
298.8144058636058
 20
393.4327798705815
 30
0.0
 11
298.8144058636058
 21
391.4352736516377
 31
0.0
  0
LINE
  5
5AC7
330
1F
100
AcDbEntity
  8
AM_VIS
100
AcDbLine
 10
298.8144058636058
 20
390.4302860895254
 30
0.0
 11
298.8144058636058
 21
387.9327798705815
 31
0.0
  0
CIRCLE
  5
5AC8
330
1F
100
AcDbEntity
  8
AM_VIS
100
AcDbCircle
 10
289.8144058636058
 20
379.9327798705815
 30
0.0
 40
4.049999999999999
  0
CIRCLE
  5
5AC9
330
1F
100
AcDbEntity
  8
AM_VIS
100
AcDbCircle
 10
289.8144058636058
 20
379.9327798705815
 30
0.0
 40
5.299999999999999
  0
ARC
  5
5ACA
330
1F
100
AcDbEntity
  8
AM_VIS
100
AcDbCircle
 10
296.0644058636058
 20
390.6827798705815
 30
0.0
 40
2.75
100
AcDbArc
 50
180.0
 51
270.0
  0
ARC
  5
5ACB
330
1F
100
AcDbEntity
  8
AM_VIS
100
AcDbCircle
 10
283.5644058636059
 20
369.1827798705815
 30
0.0
 40
2.75
100
AcDbArc
 50
0.0
 51
90.0
  0
LINE
  5
5ACC
330
1F
100
AcDbEntity
  8
AM_VIS
100
AcDbLine
 10
298.8144058636059
 20
368.7063697090677
 30
0.0
 11
298.8543346891369
 21
368.7063697090677
 31
0.0
  0
LINE
  5
5ACD
330
1F
100
AcDbEntity
  8
AM_VIS
100
AcDbLine
 10
298.8213884246216
 20
368.4663697090678
 30
0.0
 11
298.8144058636059
 21
368.4663697090678
 31
0.0
  0
ARC
  5
5ACE
330
1F
100
AcDbEntity
  8
AM_VIS
100
AcDbCircle
 10
296.3144058636059
 20
368.9327798705815
 30
0.0
 40
2.550000000000011
100
AcDbArc
 50
349.4609311094996
 51
354.9060973616483
  0
ARC
  5
5ACF
330
1F
100
AcDbEntity
  8
AM_VIS
100
AcDbCircle
 10
296.3144058636059
 20
368.9327798705815
 30
0.0
 40
2.550000000000011
100
AcDbArc
 50
348.635123032965
 51
349.4609311094996
  0
ARC
  5
5AD0
330
1F
100
AcDbEntity
  8
AM_VIS
100
AcDbCircle
 10
296.3144058636059
 20
368.9327798705815
 30
0.0
 40
2.550000000000011
100
AcDbArc
 50
258.6351230329612
 51
281.3648769670388
  0
ARC
  5
5AD1
330
1F
100
AcDbEntity
  8
AM_VIS
100
AcDbCircle
 10
296.3144058636059
 20
368.9327798705815
 30
0.0
 40
2.550000000000011
100
AcDbArc
 50
354.9060973616483
 51
11.36487696703494
  0
LINE
  5
5AD2
330
1F
100
AcDbEntity
  8
AM_VIS
100
AcDbLine
 10
298.8041324427232
 20
390.7063697090677
 30
0.0
 11
298.8543346891369
 21
390.7063697090677
 31
0.0
  0
LINE
  5
5AD3
330
1F
100
AcDbEntity
  8
AM_VIS
100
AcDbLine
 10
298.8213884246215
 20
390.4663697090677
 30
0.0
 11
298.7705128566411
 21
390.4663697090677
 31
0.0
  0
ARC
  5
5AD4
330
1F
100
AcDbEntity
  8
AM_VIS
100
AcDbCircle
 10
296.3144058636058
 20
390.9327798705815
 30
0.0
 40
2.550000000000011
100
AcDbArc
 50
349.4609311094996
 51
354.9060973616483
  0
ARC
  5
5AD5
330
1F
100
AcDbEntity
  8
AM_VIS
100
AcDbCircle
 10
296.3144058636058
 20
390.9327798705815
 30
0.0
 40
2.550000000000011
100
AcDbArc
 50
354.9060973616483
 51
349.4609311094996
  0
LINE
  5
5AD6
330
1F
100
AcDbEntity
  8
AM_VIS
100
AcDbLine
 10
285.8041324427232
 20
368.7063697090678
 30
0.0
 11
285.8543346891369
 21
368.7063697090678
 31
0.0
  0
LINE
  5
5AD7
330
1F
100
AcDbEntity
  8
AM_VIS
100
AcDbLine
 10
285.8213884246215
 20
368.4663697090678
 30
0.0
 11
285.7705128566411
 21
368.4663697090678
 31
0.0
  0
ARC
  5
5AD8
330
1F
100
AcDbEntity
  8
AM_VIS
100
AcDbCircle
 10
283.3144058636059
 20
368.9327798705815
 30
0.0
 40
2.550000000000011
100
AcDbArc
 50
349.4609311094996
 51
354.9060973616483
  0
ARC
  5
5AD9
330
1F
100
AcDbEntity
  8
AM_VIS
100
AcDbCircle
 10
283.3144058636059
 20
368.9327798705815
 30
0.0
 40
2.550000000000011
100
AcDbArc
 50
354.9060973616483
 51
349.4609311094996
  0
ARC
  5
5ADA
330
1F
100
AcDbEntity
  8
AM_VIS
100
AcDbCircle
 10
283.3144058636059
 20
390.9327798705815
 30
0.0
 40
2.550000000000011
100
AcDbArc
 50
168.635123032965
 51
191.3648769670349
  0
ARC
  5
5ADB
330
1F
100
AcDbEntity
  8
AM_VIS
100
AcDbCircle
 10
283.3144058636059
 20
390.9327798705815
 30
0.0
 40
2.550000000000011
100
AcDbArc
 50
78.63512303296506
 51
101.3648769670349
  0
LINE
  5
5ADC
330
1F
100
AcDbEntity
  8
AM_VIS
100
AcDbLine
 10
296.6634058636059
 20
390.9327798705815
 30
0.0
 11
296.3144058636059
 21
390.9327798705815
 31
0.0
  0
LINE
  5
5ADD
330
1F
100
AcDbEntity
  8
AM_VIS
100
AcDbLine
 10
296.3144058636058
 20
390.9327798705815
 30
0.0
 11
295.9654058636059
 21
390.9327798705815
 31
0.0
  0
LINE
  5
5ADE
330
1F
100
AcDbEntity
  8
AM_VIS
100
AcDbLine
 10
296.3144058636058
 20
390.9327798705815
 30
0.0
 11
296.6634058636064
 21
390.583779870581
 31
0.0
  0
LINE
  5
5ADF
330
1F
100
AcDbEntity
  8
AM_VIS
100
AcDbLine
 10
296.6634058636053
 20
391.281779870581
 30
0.0
 11
296.3144058636059
 21
390.9327798705815
 31
0.0
  0
LINE
  5
5AE0
330
1F
100
AcDbEntity
  8
AM_VIS
100
AcDbLine
 10
296.6634058636059
 20
390.5837798705795
 30
0.0
 11
296.6634058636059
 21
391.2817798705796
 31
0.0
  0
LINE
  5
5AE1
330
1F
100
AcDbEntity
  8
AM_VIS
100
AcDbLine
 10
295.9654058636059
 20
391.2817798705795
 30
0.0
 11
296.6634058636059
 21
391.2817798705795
 31
0.0
  0
LINE
  5
5AE2
330
1F
100
AcDbEntity
  8
AM_VIS
100
AcDbLine
 10
296.3144058636058
 20
390.5837798705795
 30
0.0
 11
296.3144058636058
 21
390.9327798705815
 31
0.0
  0
LINE
  5
5AE3
330
1F
100
AcDbEntity
  8
AM_VIS
100
AcDbLine
 10
295.9654058636053
 20
390.5837798705809
 30
0.0
 11
296.3144058636059
 21
390.9327798705815
 31
0.0
  0
LINE
  5
5AE4
330
1F
100
AcDbEntity
  8
AM_VIS
100
AcDbLine
 10
295.9654058636059
 20
391.2817798705796
 30
0.0
 11
295.9654058636059
 21
390.5837798705795
 31
0.0
  0
LINE
  5
5AE5
330
1F
100
AcDbEntity
  8
AM_VIS
100
AcDbLine
 10
296.3144058636058
 20
390.9327798705815
 30
0.0
 11
296.3144058636058
 21
391.2817798705795
 31
0.0
  0
LINE
  5
5AE6
330
1F
100
AcDbEntity
  8
AM_VIS
100
AcDbLine
 10
296.3144058636059
 20
390.9327798705815
 30
0.0
 11
295.9654058636065
 21
391.281779870581
 31
0.0
  0
LINE
  5
5AE7
330
1F
100
AcDbEntity
  8
AM_VIS
100
AcDbLine
 10
296.6634058636059
 20
390.5837798705795
 30
0.0
 11
295.9654058636059
 21
390.5837798705795
 31
0.0
  0
LINE
  5
5AE8
330
1F
100
AcDbEntity
  8
AM_VIS
100
AcDbLine
 10
296.6634058636059
 20
390.5837798705795
 30
0.0
 11
296.6634058636059
 21
390.1713517649799
 31
0.0
  0
LINE
  5
5AE9
330
1F
100
AcDbEntity
  8
AM_VIS
100
AcDbLine
 10
296.6634058636059
 20
390.5837798705795
 30
0.0
 11
297.0758339692066
 21
390.5837798705795
 31
0.0
  0
LINE
  5
5AEA
330
1F
100
AcDbEntity
  8
AM_VIS
100
AcDbLine
 10
296.6634058636059
 20
391.6942079761831
 30
0.0
 11
296.6634058636059
 21
391.2817798705795
 31
0.0
  0
LINE
  5
5AEB
330
1F
100
AcDbEntity
  8
AM_VIS
100
AcDbLine
 10
296.6634058636059
 20
391.2817798705795
 30
0.0
 11
297.0758339692084
 21
391.2817798705795
 31
0.0
  0
LINE
  5
5AEC
330
1F
100
AcDbEntity
  8
AM_VIS
100
AcDbLine
 10
295.9654058636059
 20
391.6942079761831
 30
0.0
 11
295.9654058636059
 21
391.2817798705795
 31
0.0
  0
LINE
  5
5AED
330
1F
100
AcDbEntity
  8
AM_VIS
100
AcDbLine
 10
295.5529777580034
 20
391.2817798705795
 30
0.0
 11
295.9654058636059
 21
391.2817798705795
 31
0.0
  0
LINE
  5
5AEE
330
1F
100
AcDbEntity
  8
AM_VIS
100
AcDbLine
 10
295.9654058636059
 20
390.5837798705795
 30
0.0
 11
295.9654058636059
 21
390.1713517649799
 31
0.0
  0
LINE
  5
5AEF
330
1F
100
AcDbEntity
  8
AM_VIS
100
AcDbLine
 10
295.5529777580052
 20
390.5837798705795
 30
0.0
 11
295.9654058636059
 21
390.5837798705795
 31
0.0
  0
CIRCLE
  5
5AF0
330
1F
100
AcDbEntity
  8
AM_VIS
100
AcDbCircle
 10
296.3144058636058
 20
390.9327798705815
 30
0.0
 40
2.5
  0
LINE
  5
5AF1
330
1F
100
AcDbEntity
  8
AM_VIS
100
AcDbLine
 10
296.6634058636059
 20
391.6942079761831
 30
0.0
 11
296.6634058636059
 21
392.2728834947379
 31
0.0
  0
ELLIPSE
  5
5AF2
330
1F
100
AcDbEntity
  8
AM_VIS
100
AcDbEllipse
 10
296.3144058636058
 20
389.9437894770299
 30
0.0
 11
-3.797925352448599
 21
0.0000000000000005
 31
0.0
210
0.0
220
0.0
230
1.0
 40
0.6158600226419823
 41
4.6203668857441
 42
4.804411075025278
  0
LINE
  5
5AF3
330
1F
100
AcDbEntity
  8
AM_VIS
100
AcDbLine
 10
295.9654058636059
 20
390.1713517649799
 30
0.0
 11
295.9654058636059
 21
389.5926762464252
 31
0.0
  0
ELLIPSE
  5
5AF4
330
1F
100
AcDbEntity
  8
AM_VIS
100
AcDbEllipse
 10
296.3144058636058
 20
391.9217702641331
 30
0.0
 11
3.797925352448591
 21
-0.0000000000000005
 31
0.0
210
0.0
220
0.0
230
1.0
 40
0.6158600226419945
 41
4.6203668857441
 42
4.804411075025278
  0
LINE
  5
5AF5
330
1F
100
AcDbEntity
  8
AM_VIS
100
AcDbLine
 10
294.9743022394496
 20
390.5837798705795
 30
0.0
 11
295.5529777580052
 21
390.5837798705795
 31
0.0
  0
ELLIPSE
  5
5AF6
330
1F
100
AcDbEntity
  8
AM_VIS
100
AcDbEllipse
 10
295.3254154700542
 20
390.9327798705815
 30
0.0
 11
0.0000000000000011
 21
3.797925352448569
 31
0.0
210
0.0
220
0.0
230
1.0
 40
0.6158600226420087
 41
4.620366885743576
 42
4.804411075024757
  0
LINE
  5
5AF7
330
1F
100
AcDbEntity
  8
AM_VIS
100
AcDbLine
 10
295.5529777580034
 20
391.2817798705795
 30
0.0
 11
294.9743022394494
 21
391.2817798705795
 31
0.0
  0
LINE
  5
5AF8
330
1F
100
AcDbEntity
  8
AM_VIS
100
AcDbLine
 10
297.6545094877624
 20
391.2817798705795
 30
0.0
 11
297.0758339692084
 21
391.2817798705795
 31
0.0
  0
ELLIPSE
  5
5AF9
330
1F
100
AcDbEntity
  8
AM_VIS
100
AcDbEllipse
 10
297.3033962571575
 20
390.9327798705815
 30
0.0
 11
0.0000000000000002
 21
-3.797925352448569
 31
0.0
210
0.0
220
0.0
230
0.9999999999999998
 40
0.6158600226420093
 41
4.620366885744621
 42
4.804411075025802
  0
LINE
  5
5AFA
330
1F
100
AcDbEntity
  8
AM_VIS
100
AcDbLine
 10
297.0758339692066
 20
390.5837798705795
 30
0.0
 11
297.6545094877621
 21
390.5837798705795
 31
0.0
  0
LINE
  5
5AFB
330
1F
100
AcDbEntity
  8
AM_VIS
100
AcDbLine
 10
295.9654058636059
 20
392.2728834947379
 30
0.0
 11
295.9654058636059
 21
391.6942079761831
 31
0.0
  0
LINE
  5
5AFC
330
1F
100
AcDbEntity
  8
AM_VIS
100
AcDbLine
 10
296.6634058636059
 20
389.5926762464252
 30
0.0
 11
296.6634058636059
 21
390.1713517649799
 31
0.0
  0
ARC
  5
5AFD
330
1F
100
AcDbEntity
  8
AM_VIS
100
AcDbCircle
 10
296.3144058636058
 20
390.9327798705815
 30
0.0
 40
0.8376000000000374
100
AcDbArc
 50
294.6243183521657
 51
335.3756816476841
  0
ARC
  5
5AFE
330
1F
100
AcDbEntity
  8
AM_VIS
100
AcDbCircle
 10
296.3144058636058
 20
390.9327798705815
 30
0.0
 40
0.8376000000000374
100
AcDbArc
 50
24.62431835201131
 51
65.37568164783424
  0
ARC
  5
5AFF
330
1F
100
AcDbEntity
  8
AM_VIS
100
AcDbCircle
 10
296.3144058636058
 20
390.9327798705815
 30
0.0
 40
0.8376000000000374
100
AcDbArc
 50
114.6243183521657
 51
155.3756816479886
  0
ARC
  5
5B00
330
1F
100
AcDbEntity
  8
AM_VIS
100
AcDbCircle
 10
296.3144058636058
 20
390.9327798705815
 30
0.0
 40
0.8376000000000374
100
AcDbArc
 50
204.6243183523159
 51
245.3756816478342
  0
LINE
  5
5B01
330
1F
100
AcDbEntity
  8
AM_VIS
100
AcDbLine
 10
283.6634058636059
 20
368.9327798705815
 30
0.0
 11
283.3144058636059
 21
368.9327798705815
 31
0.0
  0
LINE
  5
5B02
330
1F
100
AcDbEntity
  8
AM_VIS
100
AcDbLine
 10
283.3144058636058
 20
368.9327798705815
 30
0.0
 11
282.9654058636059
 21
368.9327798705815
 31
0.0
  0
LINE
  5
5B03
330
1F
100
AcDbEntity
  8
AM_VIS
100
AcDbLine
 10
283.3144058636058
 20
368.9327798705815
 30
0.0
 11
283.6634058636064
 21
368.583779870581
 31
0.0
  0
LINE
  5
5B04
330
1F
100
AcDbEntity
  8
AM_VIS
100
AcDbLine
 10
283.6634058636054
 20
369.281779870581
 30
0.0
 11
283.3144058636059
 21
368.9327798705816
 31
0.0
  0
LINE
  5
5B05
330
1F
100
AcDbEntity
  8
AM_VIS
100
AcDbLine
 10
283.6634058636059
 20
368.5837798705795
 30
0.0
 11
283.6634058636059
 21
369.2817798705795
 31
0.0
  0
LINE
  5
5B06
330
1F
100
AcDbEntity
  8
AM_VIS
100
AcDbLine
 10
282.9654058636059
 20
369.2817798705795
 30
0.0
 11
283.6634058636059
 21
369.2817798705795
 31
0.0
  0
LINE
  5
5B07
330
1F
100
AcDbEntity
  8
AM_VIS
100
AcDbLine
 10
283.3144058636059
 20
368.5837798705795
 30
0.0
 11
283.3144058636059
 21
368.9327798705816
 31
0.0
  0
LINE
  5
5B08
330
1F
100
AcDbEntity
  8
AM_7
100
AcDbLine
 10
289.8144058636058
 20
379.9327798705815
 30
0.0
 11
296.1144058636058
 21
379.9327798705815
 31
0.0
1001
GENIUS_GENOREF_13
1005
5B0D
  0
LINE
  5
5B09
330
1F
100
AcDbEntity
  8
AM_7
100
AcDbLine
 10
289.8144058636058
 20
379.9327798705815
 30
0.0
 11
289.8144058636058
 21
386.2327798705815
 31
0.0
1001
GENIUS_GENOREF_13
1005
5B0D
  0
LINE
  5
5B0A
330
1F
100
AcDbEntity
  8
AM_7
100
AcDbLine
 10
289.8144058636058
 20
379.9327798705815
 30
0.0
 11
283.5144058636058
 21
379.9327798705815
 31
0.0
1001
GENIUS_GENOREF_13
1005
5B0D
  0
LINE
  5
5B0B
330
1F
100
AcDbEntity
  8
AM_7
100
AcDbLine
 10
289.8144058636058
 20
379.9327798705815
 30
0.0
 11
289.8144058636058
 21
373.6327798705815
 31
0.0
1001
GENIUS_GENOREF_13
1005
5B0D
  0
INSERT
  5
5B0C
330
1F
100
AcDbEntity
  8
AM_5
100
AcDbBlockReference
  2
*S52
 10
0.0
 20
0.0
 30
0.0
  0
POINT
  5
5B0D
330
1F
100
AcDbEntity
  8
0
 60
     1
100
AcDbPoint
 10
383.1838247555669
 20
52.81560447992217
 30
0.0
1001
GENIUS_GENOBJ-N-CRS_13
1002
{
1000
OWNER
1000
GEN
1002
}
1001
GENIUS_GENOENT_13
1002
{
1000
MYREF
1005
5B0D
1002
}
1002
{
1000
GRP
1005
0
1002
}
1001
GENIUS_GENOLIS_13
1002
{
1000
ENT
1005
5B0B
1005
5B0A
1005
5B09
1005
5B08
1002
}
1001
GENIUS_GENODEF_13
1002
{
1000
HIER
1070
    10
1002
}
1002
{
1000
MANEDIT
1070
     0
1002
}
1002
{
1000
NOSEL
1070
     0
1002
}
1002
{
1000
BEHIND
1070
     0
1002
}
1002
{
1000
OTHER
1070
     0
1002
}
1002
{
1000
REACTOR
1002
}
  0
ENDSEC
  0
SECTION
  2
OBJECTS
  0
DICTIONARY
  5
C
330
0
100
AcDbDictionary
281
     1
  3
ACAD_COLOR
350
BE
  3
ACAD_GROUP
350
D
  3
ACAD_LAYOUT
350
1A
  3
ACAD_MATERIAL
350
BD
  3
ACAD_MLINESTYLE
350
17
  3
ACAD_PLOTSETTINGS
350
19
  3
ACAD_PLOTSTYLENAME
350
E
  3
ACAD_TABLESTYLE
350
11A
  3
ACDBHEADERROUNDTRIPXREC
350
5C92
  3
AcDbVariableDictionary
350
94
  3
AcmDictionary
350
5B
  3
AMG
350
41
  3
AMGSNAPSETTINGS
350
1B8
  3
DWGPROPS
350
5C91
  0
DICTIONARY
  5
3F9
330
2
100
AcDbDictionary
280
     1
281
     1
  3
ACAD_LAYERFILTERS
360
240D
  3
ACAD_LAYERSTATES
360
A85
  3
ACLYDICTIONARY
360
240C
  3
AMLAYER_GROUPCOLORS
360
1053
  0
DICTIONARY
  5
8F
330
1F
100
AcDbDictionary
280
     1
281
     1
  3
ACAD_SORTENTS
360
1086
  0
DICTIONARY
  5
5930
330
592F
100
AcDbDictionary
280
     1
281
     1
  3
ACAD_DIMASSOC
360
5931
  0
DICTIONARY
  5
5941
330
5940
100
AcDbDictionary
280
     1
281
     1
  3
ACAD_DIMASSOC
360
5942
  0
DICTIONARY
  5
BE
102
{ACAD_REACTORS
330
C
102
}
330
C
100
AcDbDictionary
281
     1
  0
DICTIONARY
  5
D
102
{ACAD_REACTORS
330
C
102
}
330
C
100
AcDbDictionary
281
     1
  0
DICTIONARY
  5
1A
102
{ACAD_REACTORS
330
C
102
}
330
C
100
AcDbDictionary
281
     1
  3
Model
350
22
  3
配置1
350
1E
  3
配置2
350
26
  0
DICTIONARY
  5
BD
102
{ACAD_REACTORS
330
C
102
}
330
C
100
AcDbDictionary
281
     1
  0
DICTIONARY
  5
17
102
{ACAD_REACTORS
330
C
102
}
330
C
100
AcDbDictionary
281
     1
  3
Standard
350
18
  0
DICTIONARY
  5
19
102
{ACAD_REACTORS
330
C
102
}
330
C
100
AcDbDictionary
281
     1
  0
ACDBDICTIONARYWDFLT
  5
E
102
{ACAD_REACTORS
330
C
102
}
330
C
100
AcDbDictionary
281
     1
  3
Normal
350
F
100
AcDbDictionaryWithDefault
340
F
  0
DICTIONARY
  5
11A
102
{ACAD_REACTORS
330
C
102
}
330
C
100
AcDbDictionary
281
     1
  3
Standard
350
11B
  0
DICTIONARY
  5
5C92
102
{ACAD_REACTORS
330
C
102
}
330
C
100
AcDbDictionary
281
     1
  0
DICTIONARY
  5
94
102
{ACAD_REACTORS
330
C
102
}
330
C
100
AcDbDictionary
281
     1
  3
CTABLESTYLE
350
138
  3
DIMASSOC
350
96
  3
INDEXCTL
350
95
  3
PROJECTNAME
350
5C8F
  0
DICTIONARY
  5
5B
102
{ACAD_REACTORS
330
C
102
}
330
C
100
AcDbDictionary
281
     1
  3
AcmBOM
350
1B5
  3
AcmStdDictionary
350
61
  3
AMDTSECTSYM_ARROWCOLOR
350
123
  0
DICTIONARY
  5
41
102
{ACAD_REACTORS
330
C
102
}
330
C
100
AcDbDictionary
281
     1
  0
DICTIONARY
  5
1B8
102
{ACAD_REACTORS
330
C
102
}
330
C
100
AcDbDictionary
281
     1
  0
XRECORD
  5
5C91
102
{ACAD_REACTORS
330
C
102
}
330
C
100
AcDbXrecord
280
     1
  1
DWGPROPS COOKIE
  2

  3

  4

  6

  7

  8

  9

300
AmdtFileType=84
301
=
302
=
303
=
304
=
305
=
306
=
307
=
308
=
309
=
 40
0.1126775925925926
 41
2454097.385877268
 42
2454097.695992651
  1

 90
        1
  0
DICTIONARY
  5
240D
102
{ACAD_REACTORS
330
3F9
102
}
330
3F9
100
AcDbDictionary
281
     1
  0
DICTIONARY
  5
A85
102
{ACAD_REACTORS
330
3F9
102
}
330
3F9
100
AcDbDictionary
281
     1
  0
DICTIONARY
  5
240C
102
{ACAD_REACTORS
330
3F9
102
}
330
3F9
100
AcDbDictionary
281
     1
1001
ACAD
1000
<All
  0
DICTIONARY
  5
1053
102
{ACAD_REACTORS
330
3F9
102
}
330
3F9
100
AcDbDictionary
280
     1
281
     1
  0
SORTENTSTABLE
  5
1086
102
{ACAD_REACTORS
330
8F
102
}
330
8F
100
AcDbSortentsTable
330
1F
  0
DIMASSOC
  5
5931
102
{ACAD_REACTORS
330
5930
102
}
330
5930
100
AcDbDimAssoc
330
592F
 90
        3
 70
     0
 71
     0
  1
AcDbOsnapPointRef
 72
     1
331
592C
 73
     0
 91
        0
 40
0.0
 10
0.0
 20
0.0
 30
2.000000000000000E+50
 75
     0
  1
AcDbOsnapPointRef
 72
     1
331
591C
 73
     0
 91
        0
 40
0.0
 10
0.0
 20
0.0
 30
2.000000000000000E+50
 75
     0
  0
DIMASSOC
  5
5942
102
{ACAD_REACTORS
330
5941
102
}
330
5941
100
AcDbDimAssoc
330
5940
 90
        3
 70
     0
 71
     0
  1
AcDbOsnapPointRef
 72
    13
331
580A
 73
     0
 91
        0
 40
0.0
 10
0.0
 20
0.0
 30
2.000000000000000E+50
 75
     0
  1
AcDbOsnapPointRef
 72
    13
331
5807
 73
     0
 91
        0
 40
0.0
 10
0.0
 20
0.0
 30
2.000000000000000E+50
 75
     0
  0
LAYOUT
  5
22
102
{ACAD_XDICTIONARY
360
5C95
102
}
102
{ACAD_REACTORS
330
1A
102
}
330
1A
100
AcDbPlotSettings
  1

  2
\\RD\EPSON Stylus C63 Series單色
  4
A4
  6

 40
3.757083177566528
 41
3.757076978683471
 42
3.757080078125
 43
3.757080078125
 44
209.9733276367187
 45
296.9683227539062
 46
0.0
 47
0.0
 48
0.0
 49
0.0
140
0.0
141
0.0
142
1.0
143
0.3405120737814363
 70
 11952
 72
     1
 73
     0
 74
     0
  7
單色出圖.ctb
 75
     0
147
2.936753428137963
148
-2047.07469463503
149
-1261.649717473083
100
AcDbLayout
  1
Model
 70
     1
 71
     0
 10
0.0
 20
0.0
 11
12.0
 21
9.0
 12
0.0
 22
0.0
 32
0.0
 14
0.0
 24
0.0
 34
0.0
 15
0.0
 25
0.0
 35
0.0
146
0.0
 13
0.0
 23
0.0
 33
0.0
 16
1.0
 26
0.0
 36
0.0
 17
0.0
 27
1.0
 37
0.0
 76
     0
330
1F
1001
ACAD_PSEXT
1000
\\RD\EPSON Stylus C63 Series單色
1000
EPSON Stylus C63 Series
1000
\\RD
1000

1070
     0
  0
LAYOUT
  5
1E
102
{ACAD_XDICTIONARY
360
5C93
102
}
102
{ACAD_REACTORS
330
1A
102
}
330
1A
100
AcDbPlotSettings
  1

  2

  4

  6

 40
0.0
 41
0.0
 42
0.0
 43
0.0
 44
0.0
 45
0.0
 46
0.0
 47
0.0
 48
0.0
 49
0.0
140
0.0
141
0.0
142
1.0
143
1.0
 70
   688
 72
     0
 73
     0
 74
     5
  7
單色出圖.ctb
 75
    16
147
1.0
148
0.0
149
0.0
100
AcDbLayout
  1
配置1
 70
     1
 71
     1
 10
0.0
 20
0.0
 11
420.0
 21
297.0
 12
0.0
 22
0.0
 32
0.0
 14
1.000000000000000E+20
 24
1.000000000000000E+20
 34
1.000000000000000E+20
 15
-1.000000000000000E+20
 25
-1.000000000000000E+20
 35
-1.000000000000000E+20
146
0.0
 13
0.0
 23
0.0
 33
0.0
 16
1.0
 26
0.0
 36
0.0
 17
0.0
 27
1.0
 37
0.0
 76
     0
330
1B
  0
LAYOUT
  5
26
102
{ACAD_XDICTIONARY
360
5C97
102
}
102
{ACAD_REACTORS
330
1A
102
}
330
1A
100
AcDbPlotSettings
  1

  2

  4

  6

 40
0.0
 41
0.0
 42
0.0
 43
0.0
 44
0.0
 45
0.0
 46
0.0
 47
0.0
 48
0.0
 49
0.0
140
0.0
141
0.0
142
1.0
143
1.0
 70
   688
 72
     0
 73
     0
 74
     5
  7
單色出圖.ctb
 75
    16
147
1.0
148
0.0
149
0.0
100
AcDbLayout
  1
配置2
 70
     1
 71
     2
 10
0.0
 20
0.0
 11
12.0
 21
9.0
 12
0.0
 22
0.0
 32
0.0
 14
0.0
 24
0.0
 34
0.0
 15
0.0
 25
0.0
 35
0.0
146
0.0
 13
0.0
 23
0.0
 33
0.0
 16
1.0
 26
0.0
 36
0.0
 17
0.0
 27
1.0
 37
0.0
 76
     0
330
23
  0
MLINESTYLE
  5
18
102
{ACAD_REACTORS
330
17
102
}
330
17
100
AcDbMlineStyle
  2
STANDARD
 70
     0
  3

 62
   256
 51
90.0
 52
90.0
 71
     2
 49
0.5
 62
   256
  6
BYLAYER
 49
-0.5
 62
   256
  6
BYLAYER
  0
ACDBPLACEHOLDER
  5
F
102
{ACAD_REACTORS
330
E
102
}
330
E
  0
TABLESTYLE
  5
11B
102
{ACAD_REACTORS
330
11A
102
}
330
11A
100
AcDbTableStyle
  3
Standard
 70
     0
 71
     0
 40
1.5
 41
1.5
280
     0
281
     0
  7
STANDARD
140
4.5
170
     2
 62
     0
 63
     7
283
     0
274
    -2
284
     1
 64
     0
275
    -2
285
     1
 65
     0
276
    -2
286
     1
 66
     0
277
    -2
287
     1
 67
     0
278
    -2
288
     1
 68
     0
279
    -2
289
     1
 69
     0
  7
STANDARD
140
6.0
170
     5
 62
     0
 63
     7
283
     0
274
    -2
284
     1
 64
     0
275
    -2
285
     1
 65
     0
276
    -2
286
     1
 66
     0
277
    -2
287
     1
 67
     0
278
    -2
288
     1
 68
     0
279
    -2
289
     1
 69
     0
  7
STANDARD
140
4.5
170
     5
 62
     0
 63
     7
283
     0
274
    -2
284
     1
 64
     0
275
    -2
285
     1
 65
     0
276
    -2
286
     1
 66
     0
277
    -2
287
     1
 67
     0
278
    -2
288
     1
 68
     0
279
    -2
289
     1
 69
     0
  0
DICTIONARYVAR
  5
138
102
{ACAD_REACTORS
330
94
102
}
330
94
100
DictionaryVariables
280
     0
  1
STANDARD
  0
DICTIONARYVAR
  5
96
102
{ACAD_REACTORS
330
94
102
}
330
94
100
DictionaryVariables
280
     0
  1
2
  0
DICTIONARYVAR
  5
95
102
{ACAD_REACTORS
330
94
102
}
330
94
100
DictionaryVariables
280
     0
  1
0
  0
DICTIONARYVAR
  5
5C8F
102
{ACAD_REACTORS
330
94
102
}
330
94
100
DictionaryVariables
280
     0
  1

  0
DICTIONARY
  5
1B5
102
{ACAD_REACTORS
330
5B
102
}
330
5B
100
AcDbDictionary
281
     1
  0
DICTIONARY
  5
61
102
{ACAD_REACTORS
330
5B
102
}
330
5B
100
AcDbDictionary
281
     1
  0
XRECORD
  5
123
102
{ACAD_REACTORS
330
5B
102
}
330
5B
100
AcDbXrecord
280
     1
 90
-1023410169
  0
DICTIONARY
  5
5C95
330
22
100
AcDbDictionary
280
     1
281
     1
  3
ACAD_XREC_ROUNDTRIP
360
5C96
  0
DICTIONARY
  5
5C93
330
1E
100
AcDbDictionary
280
     1
281
     1
  3
ACAD_XREC_ROUNDTRIP
360
5C94
  0
DICTIONARY
  5
5C97
330
26
100
AcDbDictionary
280
     1
281
     1
  3
ACAD_XREC_ROUNDTRIP
360
5C98
  0
XRECORD
  5
5C96
102
{ACAD_REACTORS
330
5C95
102
}
330
5C95
100
AcDbXrecord
280
     1
102
SHADEPLOT
 70
     0
102
SHADEPLOTRESLEVEL
 70
     2
102
SHADEPLOTCUSTOMDPI
 70
   300
  0
XRECORD
  5
5C94
102
{ACAD_REACTORS
330
5C93
102
}
330
5C93
100
AcDbXrecord
280
     1
102
SHADEPLOT
 70
     0
102
SHADEPLOTRESLEVEL
 70
     2
102
SHADEPLOTCUSTOMDPI
 70
   300
  0
XRECORD
  5
5C98
102
{ACAD_REACTORS
330
5C97
102
}
330
5C97
100
AcDbXrecord
280
     1
102
SHADEPLOT
 70
     0
102
SHADEPLOTRESLEVEL
 70
     2
102
SHADEPLOTCUSTOMDPI
 70
   300
  0
ENDSEC
  0
EOF
