  0
SECTION
  2
HEADER
  9
$ACADVER
  1
AC1015
  9
$ACADMAINTVER
 70
    20
  9
$DWGCODEPAGE
  3
ANSI_950
  9
$INSBASE
 10
0.0
 20
0.0
 30
0.0
  9
$EXTMIN
 10
133.640443027998
 20
272.1024690003874
 30
-0.0019983784608257
  9
$EXTMAX
 10
333.687745018033
 20
514.5043292531315
 30
131.0597259694776
  9
$LIMMIN
 10
0.0
 20
0.0
  9
$LIMMAX
 10
420.0
 20
297.0
  9
$ORTHOMODE
 70
     1
  9
$REGENMODE
 70
     1
  9
$FILLMODE
 70
     1
  9
$QTEXTMODE
 70
     0
  9
$MIRRTEXT
 70
     1
  9
$LTSCALE
 40
1.0
  9
$ATTMODE
 70
     1
  9
$TEXTSIZE
 40
3.0
  9
$TRACEWID
 40
1.0
  9
$TEXTSTYLE
  7
STANDARD
  9
$CLAYER
  8
0
  9
$CELTYPE
  6
ByLayer
  9
$CECOLOR
 62
   256
  9
$CELTSCALE
 40
1.0
  9
$DISPSILH
 70
     0
  9
$DIMSCALE
 40
1.0
  9
$DIMASZ
 40
3.0
  9
$DIMEXO
 40
1.0
  9
$DIMDLI
 40
8.0
  9
$DIMRND
 40
0.0
  9
$DIMDLE
 40
0.0
  9
$DIMEXE
 40
1.5
  9
$DIMTP
 40
0.1
  9
$DIMTM
 40
0.1
  9
$DIMTXT
 40
3.5
  9
$DIMCEN
 40
0.0
  9
$DIMTSZ
 40
0.0
  9
$DIMTOL
 70
     0
  9
$DIMLIM
 70
     0
  9
$DIMTIH
 70
     0
  9
$DIMTOH
 70
     0
  9
$DIMSE1
 70
     0
  9
$DIMSE2
 70
     0
  9
$DIMTAD
 70
     1
  9
$DIMZIN
 70
     8
  9
$DIMBLK
  1

  9
$DIMASO
 70
     1
  9
$DIMSHO
 70
     1
  9
$DIMPOST
  1

  9
$DIMAPOST
  1
"
  9
$DIMALT
 70
     0
  9
$DIMALTD
 70
     2
  9
$DIMALTF
 40
0.0393701
  9
$DIMLFAC
 40
1.0
  9
$DIMTOFL
 70
     1
  9
$DIMTVP
 40
0.0
  9
$DIMTIX
 70
     0
  9
$DIMSOXD
 70
     0
  9
$DIMSAH
 70
     0
  9
$DIMBLK1
  1

  9
$DIMBLK2
  1

  9
$DIMSTYLE
  2
AM_ISO
  9
$DIMCLRD
 70
   256
  9
$DIMCLRE
 70
   256
  9
$DIMCLRT
 70
   256
  9
$DIMTFAC
 40
0.6
  9
$DIMGAP
 40
0.7
  9
$DIMJUST
 70
     0
  9
$DIMSD1
 70
     0
  9
$DIMSD2
 70
     0
  9
$DIMTOLJ
 70
     0
  9
$DIMTZIN
 70
     8
  9
$DIMALTZ
 70
     0
  9
$DIMALTTZ
 70
     0
  9
$DIMUPT
 70
     0
  9
$DIMDEC
 70
     2
  9
$DIMTDEC
 70
     8
  9
$DIMALTU
 70
     2
  9
$DIMALTTD
 70
     2
  9
$DIMTXSTY
  7
STANDARD
  9
$DIMAUNIT
 70
     0
  9
$DIMADEC
 70
     0
  9
$DIMALTRND
 40
0.0
  9
$DIMAZIN
 70
     2
  9
$DIMDSEP
 70
    46
  9
$DIMATFIT
 70
     3
  9
$DIMFRAC
 70
     0
  9
$DIMLDRBLK
  1

  9
$DIMLUNIT
 70
     2
  9
$DIMLWD
 70
    -1
  9
$DIMLWE
 70
    -1
  9
$DIMTMOVE
 70
     0
  9
$LUNITS
 70
     2
  9
$LUPREC
 70
     2
  9
$SKETCHINC
 40
1.0
  9
$FILLETRAD
 40
2.5
  9
$AUNITS
 70
     0
  9
$AUPREC
 70
     0
  9
$MENU
  1
.
  9
$ELEVATION
 40
0.0
  9
$PELEVATION
 40
0.0
  9
$THICKNESS
 40
0.0
  9
$LIMCHECK
 70
     0
  9
$CHAMFERA
 40
0.0
  9
$CHAMFERB
 40
0.0
  9
$CHAMFERC
 40
20.0
  9
$CHAMFERD
 40
0.0
  9
$SKPOLY
 70
     0
  9
$TDCREATE
 40
2454097.385877268
  9
$TDUCREATE
 40
2454097.052543935
  9
$TDUPDATE
 40
2454097.696294665
  9
$TDUUPDATE
 40
2454097.362961331
  9
$TDINDWG
 40
0.1092909144
  9
$TDUSRTIMER
 40
0.1092909144
  9
$USRTIMER
 70
     1
  9
$ANGBASE
 50
0.0
  9
$ANGDIR
 70
     0
  9
$PDMODE
 70
     0
  9
$PDSIZE
 40
0.0
  9
$PLINEWID
 40
0.0
  9
$SPLFRAME
 70
     0
  9
$SPLINETYPE
 70
     6
  9
$SPLINESEGS
 70
     8
  9
$HANDSEED
  5
5019
  9
$SURFTAB1
 70
     6
  9
$SURFTAB2
 70
     6
  9
$SURFTYPE
 70
     6
  9
$SURFU
 70
     6
  9
$SURFV
 70
     6
  9
$UCSBASE
  2

  9
$UCSNAME
  2

  9
$UCSORG
 10
0.0
 20
0.0
 30
0.0
  9
$UCSXDIR
 10
1.0
 20
0.0
 30
0.0
  9
$UCSYDIR
 10
0.0
 20
1.0
 30
0.0
  9
$UCSORTHOREF
  2

  9
$UCSORTHOVIEW
 70
     0
  9
$UCSORGTOP
 10
0.0
 20
0.0
 30
0.0
  9
$UCSORGBOTTOM
 10
0.0
 20
0.0
 30
0.0
  9
$UCSORGLEFT
 10
0.0
 20
0.0
 30
0.0
  9
$UCSORGRIGHT
 10
0.0
 20
0.0
 30
0.0
  9
$UCSORGFRONT
 10
0.0
 20
0.0
 30
0.0
  9
$UCSORGBACK
 10
0.0
 20
0.0
 30
0.0
  9
$PUCSBASE
  2

  9
$PUCSNAME
  2

  9
$PUCSORG
 10
0.0
 20
0.0
 30
0.0
  9
$PUCSXDIR
 10
1.0
 20
0.0
 30
0.0
  9
$PUCSYDIR
 10
0.0
 20
1.0
 30
0.0
  9
$PUCSORTHOREF
  2

  9
$PUCSORTHOVIEW
 70
     0
  9
$PUCSORGTOP
 10
0.0
 20
0.0
 30
0.0
  9
$PUCSORGBOTTOM
 10
0.0
 20
0.0
 30
0.0
  9
$PUCSORGLEFT
 10
0.0
 20
0.0
 30
0.0
  9
$PUCSORGRIGHT
 10
0.0
 20
0.0
 30
0.0
  9
$PUCSORGFRONT
 10
0.0
 20
0.0
 30
0.0
  9
$PUCSORGBACK
 10
0.0
 20
0.0
 30
0.0
  9
$USERI1
 70
     0
  9
$USERI2
 70
     0
  9
$USERI3
 70
     0
  9
$USERI4
 70
     0
  9
$USERI5
 70
     0
  9
$USERR1
 40
0.0
  9
$USERR2
 40
0.0
  9
$USERR3
 40
0.0
  9
$USERR4
 40
0.0
  9
$USERR5
 40
0.0
  9
$WORLDVIEW
 70
     1
  9
$SHADEDGE
 70
     3
  9
$SHADEDIF
 70
    70
  9
$TILEMODE
 70
     1
  9
$MAXACTVP
 70
    64
  9
$PINSBASE
 10
0.0
 20
0.0
 30
0.0
  9
$PLIMCHECK
 70
     0
  9
$PEXTMIN
 10
1.000000000000000E+20
 20
1.000000000000000E+20
 30
1.000000000000000E+20
  9
$PEXTMAX
 10
-1.000000000000000E+20
 20
-1.000000000000000E+20
 30
-1.000000000000000E+20
  9
$PLIMMIN
 10
0.0
 20
0.0
  9
$PLIMMAX
 10
420.0
 20
297.0
  9
$UNITMODE
 70
     0
  9
$VISRETAIN
 70
     1
  9
$PLINEGEN
 70
     0
  9
$PSLTSCALE
 70
     1
  9
$TREEDEPTH
 70
  3020
  9
$CMLSTYLE
  2
Standard
  9
$CMLJUST
 70
     0
  9
$CMLSCALE
 40
20.0
  9
$PROXYGRAPHICS
 70
     1
  9
$MEASUREMENT
 70
     1
  9
$CELWEIGHT
370
    -1
  9
$ENDCAPS
280
     0
  9
$JOINSTYLE
280
     0
  9
$LWDISPLAY
290
     0
  9
$INSUNITS
 70
     4
  9
$HYPERLINKBASE
  1

  9
$STYLESHEET
  1
彩色出圖.ctb
  9
$XEDIT
290
     1
  9
$CEPSNTYPE
380
     0
  9
$PSTYLEMODE
290
     1
  9
$FINGERPRINTGUID
  2
{EDA54BE1-F2ED-45D5-B6AB-060729E09D95}
  9
$VERSIONGUID
  2
{8B85F2C2-15EF-40F9-803A-C7C18BAEC5C6}
  9
$EXTNAMES
290
     1
  9
$PSVPSCALE
 40
0.0
  9
$OLESTARTUP
290
     0
  0
ENDSEC
  0
SECTION
  2
CLASSES
  0
CLASS
  1
ACDBDICTIONARYWDFLT
  2
AcDbDictionaryWithDefault
  3
ObjectDBX Classes
 90
        0
280
     0
281
     0
  0
CLASS
  1
ACDBPLACEHOLDER
  2
AcDbPlaceHolder
  3
ObjectDBX Classes
 90
        0
280
     0
281
     0
  0
CLASS
  1
LAYOUT
  2
AcDbLayout
  3
ObjectDBX Classes
 90
        0
280
     0
281
     0
  0
CLASS
  1
ACME_DOCUMENT
  2
AcMeDbDoc
  3
AcMeServices
 90
        0
280
     0
281
     0
  0
CLASS
  1
AMGSETTINGSOBJ
  2
AmgSettingsObj
  3
"AcadM|Product Description: AutoCAD Mechanical 2000|Company: Autodesk"
 90
        0
280
     0
281
     0
  0
CLASS
  1
ACMESCOPE
  2
AcMeScope
  3
AcMeServices
 90
        0
280
     0
281
     0
  0
CLASS
  1
ACMECOMMANDHISTORY
  2
AcMeCommandHistory
  3
AcMeServices
 90
        0
280
     0
281
     0
  0
CLASS
  1
ACIMSYSVARMAN
  2
AcImSysVarManager
  3
AcMeServices
 90
        0
280
     0
281
     0
  0
CLASS
  1
ACIMREALSYSVAR
  2
AcImRealSysVar
  3
AcMeServices
 90
        0
280
     0
281
     0
  0
CLASS
  1
ACIMINTSYSVAR
  2
AcImIntSysVar
  3
AcMeServices
 90
        0
280
     0
281
     0
  0
CLASS
  1
ACMEDRAWINGMAN
  2
AcMeDrawingMan
  3
AcMeServices
 90
        0
280
     0
281
     0
  0
CLASS
  1
ACMEVIEW
  2
AcMeView
  3
AcMeServices
 90
        0
280
     0
281
     0
  0
CLASS
  1
ACDBENTITYCACHE
  2
AcMeEntityCache
  3
AcMeServices
 90
        0
280
     0
281
     0
  0
CLASS
  1
GSMANAGER
  2
AcMeGSManager
  3
AcMeServices
 90
        0
280
     0
281
     0
  0
CLASS
  1
AMDTINTERNALREACTOR
  2
AmdtInternalReactor
  3
AcMeServices
 90
        0
280
     0
281
     0
  0
CLASS
  1
ACMESTATEMGR
  2
AcMeStateMgr
  3
AcMeServices
 90
        0
280
     0
281
     0
  0
CLASS
  1
ACGREFMASTER
  2
AcGrefMaster
  3
AcAttribServices
 90
        0
280
     0
281
     0
  0
CLASS
  1
ACME_DATABASE
  2
AcMeDbDatabase
  3
AcMeServices
 90
        0
280
     0
281
     0
  0
CLASS
  1
ACRFINSADJUSTERMGR
  2
AcRfInsAdjusterMgr
  3
AcMeServices
 90
        0
280
     0
281
     0
  0
CLASS
  1
ACGREFACADMASTER
  2
AcGrefacadMaster
  3
AcGrefServices
 90
        0
280
     0
281
     0
  0
CLASS
  1
AMIMASTER
  2
AmiMaster
  3
AmiServices
 90
        0
280
     0
281
     0
  0
CLASS
  1
ACMDATADICTIONARY
  2
AcmDataDictionary
  3
"AcmSymBB|Product Description: AutoCAD Mechanical 2004 DX|Company: Autodesk"
 90
        0
280
     0
281
     0
  0
CLASS
  1
ACMDATAENTRYBLOCK
  2
AcmDataEntryBlock
  3
"AcmSymBB|Product Description: AutoCAD Mechanical 2004 DX|Company: Autodesk"
 90
        0
280
     0
281
     0
  0
CLASS
  1
ACIMSTRSYSVAR
  2
AcImStrSysVar
  3
AcMeServices
 90
        0
280
     0
281
     0
  0
CLASS
  1
ACMSTANDARDISO
  2
AcmStandardISO
  3
"Amdt_StdImp|Product Description: AutoCAD Mechanical 2004 DX|Company: Autodesk"
 90
        0
280
     0
281
     0
  0
CLASS
  1
AMGOBJPROPCFG
  2
AmgObjPropCfg
  3
"AmgLay|Product Description: AutoCAD Mechanical 2000|Company: Autodesk"
 90
        1
280
     0
281
     0
  0
CLASS
  1
AMDTEDGESTANDARDISO
  2
AmdtEdgeStdISO
  3
"Amdt_StdImp|Product Description: AutoCAD Mechanical 2004 DX|Company: Autodesk"
 90
        0
280
     0
281
     0
  0
CLASS
  1
ACMSURFSTANDARDISO
  2
AcmSurfTextStdISO
  3
"Amdt_StdImp|Product Description: AutoCAD Mechanical 2004 DX|Company: Autodesk"
 90
        0
280
     0
281
     0
  0
CLASS
  1
ACMFCFSTANDARDISO
  2
AcmFCFStdISO
  3
"Amdt_StdImp|Product Description: AutoCAD Mechanical 2004 DX|Company: Autodesk"
 90
        0
280
     0
281
     0
  0
CLASS
  1
ACMWELDSTANDARDISO
  2
AcmWeldingStdISO
  3
"Amdt_StdImp|Product Description: AutoCAD Mechanical 2004 DX|Company: Autodesk"
 90
        0
280
     0
281
     0
  0
CLASS
  1
ACMIDSTANDARDISO
  2
AcmIdStdISO
  3
"Amdt_StdImp|Product Description: AutoCAD Mechanical 2004 DX|Company: Autodesk"
 90
        0
280
     0
281
     0
  0
CLASS
  1
ACMDATUMSTANDARDISO
  2
AcmDatumStdISO
  3
"Amdt_StdImp|Product Description: AutoCAD Mechanical 2004 DX|Company: Autodesk"
 90
        0
280
     0
281
     0
  0
CLASS
  1
ACMBOMSTANDARDISO
  2
AcmBOMStdISO
  3
"Amdt_StdImp|Product Description: AutoCAD Mechanical 2004 DX|Company: Autodesk"
 90
        0
280
     0
281
     0
  0
CLASS
  1
ACMDETAILSTANDARDISO
  2
AmdtDetailSymStdISO
  3
"Amdt_StdImp|Product Description: AutoCAD Mechanical 2004 DX|Company: Autodesk"
 90
        0
280
     0
281
     0
  0
CLASS
  1
ACMSECTIONSTANDARDISO
  2
AmdtSectionSymStdISO
  3
"Amdt_StdImp|Product Description: AutoCAD Mechanical 2004 DX|Company: Autodesk"
 90
        0
280
     0
281
     0
  0
CLASS
  1
ACMCENTERLINESTANDARDISO
  2
AmdtCenterLineStdISO
  3
"Amdt_StdImp|Product Description: AutoCAD Mechanical 2004 DX|Company: Autodesk"
 90
        0
280
     0
281
     0
  0
CLASS
  1
ACMNOTESTANDARDISO
  2
AmdtNoteStdISO
  3
"Amdt_StdImp|Product Description: AutoCAD Mechanical 2004 DX|Company: Autodesk"
 90
        0
280
     0
281
     0
  0
CLASS
  1
ACAMGLAYSTD
  2
AcAmgLayStd
  3
"AcAmgLayStd|Product Description: AutoCAD Mechanical 2000|Company: Autodesk"
 90
        0
280
     0
281
     0
  0
CLASS
  1
ACAMGDIMSTD
  2
AcAmgDimStd
  3
"AcAmgDimStd|Product Description: AutoCAD Mechanical 2000|Company: Autodesk"
 90
        0
280
     0
281
     0
  0
CLASS
  1
ACAMGHOLECHARTSTDISO
  2
AcAmgHoleChartStdISO
  3
ACMSYMBB_MODULE_NAME
 90
        0
280
     0
281
     0
  0
CLASS
  1
ACAMGTITLESTD
  2
AcAmgTitleStd
  3
"TITLEAPP"
 90
        0
280
     0
281
     0
  0
CLASS
  1
LAYER_INDEX
  2
AcDbLayerIndex
  3
ObjectDBX Classes
 90
    32768
280
     0
281
     0
  0
CLASS
  1
IDBUFFER
  2
AcDbIdBuffer
  3
ObjectDBX Classes
 90
    32768
280
     0
281
     0
  0
CLASS
  1
DICTIONARYVAR
  2
AcDbDictionaryVar
  3
ObjectDBX Classes
 90
        0
280
     0
281
     0
  0
CLASS
  1
AM_DRAWING_MGR
  2
AcDmDwgMgr
  3
AcMechDwgViewMgmt
 90
        0
280
     0
281
     0
  0
CLASS
  1
AM_DWG_DOCUMENT
  2
AcDmDwgDocument
  3
AcMechDwgViewMgmt
 90
        0
280
     0
281
     0
  0
CLASS
  1
AM_DWG_SHEET
  2
AcDmSheet
  3
AcMechDwgViewMgmt
 90
        0
280
     0
281
     0
  0
CLASS
  1
AM_VIEWDIMPARMAP
  2
AcDmViewDimParMap
  3
AcMechDwgViewMgmt
 90
        0
280
     0
281
     0
  0
CLASS
  1
AM_DWGMGR_NAME
  2
AcDmDwgMgrName
  3
AcMechDwgViewMgmt
 90
        0
280
     0
281
     0
  0
CLASS
  1
AMDTMENUSTATEMGR
  2
AmdtMenuStateMgr
  3
McadcomServices
 90
        0
280
     0
281
     0
  0
CLASS
  1
AMDTMCOMMENUSTATE
  2
AmdtMcomMenuState
  3
McadcomServices
 90
        0
280
     0
281
     0
  0
CLASS
  1
MAPIAMMOUDLE
  2
MApiAmModule
  3
MApiAmServices
 90
        0
280
     0
281
     0
  0
CLASS
  1
AMDTADMENUSTATE
  2
AmdtAdMenuState
  3
DesignerServices
 90
        0
280
     0
281
     0
  0
CLASS
  1
ADAPPL
  2
AcAdAppl
  3
DesignerServices
 90
        0
280
     0
281
     0
  0
CLASS
  1
DEPMGR
  2
AcAdDepMgr
  3
DesignerServices
 90
        0
280
     0
281
     0
  0
CLASS
  1
PARAMMGR
  2
AcAdParamMgr
  3
DesignerServices
 90
        0
280
     0
281
     0
  0
CLASS
  1
PARAMSCOPE
  2
AcAdParamScope
  3
DesignerServices
 90
        0
280
     0
281
     0
  0
CLASS
  1
NAMEDAPPL
  2
AcAdNamedAppl
  3
DesignerServices
 90
        0
280
     0
281
     0
  0
CLASS
  1
AMDTDMMENUSTATE
  2
AmdtDmMenuState
  3
AcMechDwgViewMgmt
 90
        0
280
     0
281
     0
  0
CLASS
  1
AMDTAMMENUSTATE
  2
AmdtAmMenuState
  3
DesignerAssemblies
 90
        0
280
     0
281
     0
  0
CLASS
  1
ACAMPROJECT
  2
AcAmProject
  3
DesignerAssemblies
 90
        0
280
     0
281
     0
  0
CLASS
  1
ACAMGRCOMPDEF
  2
AcAmGrCompDef
  3
DesignerAssemblies
 90
        0
280
     0
281
     0
  0
CLASS
  1
ACCMCONTEXT
  2
AcCmContext
  3
DesignerAssemblies
 90
        0
280
     0
281
     0
  0
CLASS
  1
ACAMCOMPDEF
  2
AcAmCompDef
  3
DesignerAssemblies
 90
        0
280
     0
281
     0
  0
CLASS
  1
ACAMCOMPDEFMGR
  2
AcAmCompDefMgr
  3
DesignerAssemblies
 90
        0
280
     0
281
     0
  0
CLASS
  1
AMCONTEXTMGR
  2
AcAmContextMgr
  3
DesignerAssemblies
 90
        0
280
     0
281
     0
  0
CLASS
  1
ACAMCONTEXTMODELER
  2
AcAmContextModeler
  3
DesignerAssemblies
 90
        0
280
     0
281
     0
  0
CLASS
  1
ACMTHREADLINESTANDARDISO
  2
AmdtThreadLineStdISO
  3
"Amdt_StdImp|Product Description: AutoCAD Mechanical 2004 DX|Company: Autodesk"
 90
        0
280
     0
281
     0
  0
CLASS
  1
CATALOGSTATE
  2
AcAmCatalogState
  3
DesignerAssemblies
 90
        0
280
     0
281
     0
  0
CLASS
  1
ACAMGRCOMPDEFSET
  2
AcAmGrCompDefSet
  3
DesignerAssemblies
 90
        0
280
     0
281
     0
  0
CLASS
  1
AMDTBROWSERDBTAB
  2
AmdtBrowserDbTab
  3
McadcomServices
 90
        0
280
     0
281
     0
  0
CLASS
  1
CBROWSERAPPOBJECT
  2
CBrowserAppObject
  3
McadcomServices
 90
        0
280
     0
281
     0
  0
CLASS
  1
DM_PLACEHOLDER
  2
AcDmSelsetPlaceholder
  3
AcMechDwgViewMgmt
 90
        0
280
     0
281
     0
  0
CLASS
  1
TABLESTYLE
  2
AcDbTableStyle
  3
ObjectDBX Classes
 90
     2047
280
     0
281
     0
  0
CLASS
  1
VAACXREFPANELOBJECT
  2
VaAcXREFPanelObject
  3
VAAC_ADDIN
 90
    32768
280
     0
281
     0
  0
CLASS
  1
VAACIMAGEINVENTORY
  2
VaAcImageInventory
  3
VAAC_ADDIN
 90
    32768
280
     0
281
     0
  0
CLASS
  1
AMDTNOTETEMPLATEDB
  2
AmdtNoteTemplateDB
  3
AMDT_STDIMP_MODULE_NAME
 90
        0
280
     0
281
     0
  0
CLASS
  1
ACMBOM
  2
AcmBom
  3
"AcmSymBB|Product Description: AutoCAD Mechanical 2004 DX|Company: Autodesk"
 90
    32768
280
     0
281
     0
  0
CLASS
  1
AMDTFORMULAUPDATEDISPATCHER
  2
AmdtFormulaUpdateDispatcher
  3
AcMeServices
 90
    32768
280
     0
281
     0
  0
CLASS
  1
ACMPARTLIST
  2
AcmPartList
  3
"AcmSymBB|Product Description: AutoCAD Mechanical 2004 DX|Company: Autodesk"
 90
    33791
280
     0
281
     1
  0
CLASS
  1
ACAMGFILTERDAT
  2
AcAmgFilterDat
  3
"AcadM|Product Description: AutoCAD Mechanical 2000|Company: Autodesk"
 90
        0
280
     0
281
     0
  0
CLASS
  1
DIMASSOC
  2
AcDbDimAssoc
  3
"AcDbDimAssoc|Product Desc:     AcDim ARX App For Dimension|Company:          Autodesk, Inc.|WEB Address:      www.autodesk.com"
 90
        0
280
     0
281
     0
  0
CLASS
  1
STDPART2D
  2
AmgStdPart
  3
"AmgStdPart|Product Description: AutoCAD Mechanical 2000|Company: Autodesk"
 90
    33791
280
     0
281
     1
  0
CLASS
  1
ACAMSTDPCOMPDEF
  2
AcAmStdpCompDef
  3
DesignerAssemblies
 90
    32768
280
     0
281
     0
  0
CLASS
  1
ACRFATTGENMGR
  2
AcRfAttGeneralMgr
  3
AcAttribServices
 90
        0
280
     0
281
     0
  0
CLASS
  1
ACRFOBJATTMGR
  2
AcRfObjAttGroupMgr
  3
AcAttribServices
 90
    32768
280
     0
281
     0
  0
CLASS
  1
ACRFMCADAPIATTHOLDER
  2
AcRfMCADAPIAttHolder
  3
AcAttribServices
 90
    32768
280
     0
281
     0
  0
CLASS
  1
AMDTSYSATTR
  2
AmdtSystemAttribute
  3
AcAttribServices
 90
    32768
280
     0
281
     0
  0
CLASS
  1
ACAMCOMP
  2
AcAmComp
  3
DesignerAssemblies
 90
    32768
280
     0
281
     0
  0
CLASS
  1
AC_AM_STDP_VIEW_DEF
  2
AcAmStdpViewDef
  3
DesignerAssemblies
 90
    32768
280
     0
281
     0
  0
CLASS
  1
AC_AM_MVD_DEP_MGR
  2
AcAmMVDdepMgr
  3
DesignerAssemblies
 90
        0
280
     0
281
     0
  0
CLASS
  1
AC_AM_MASTER_VIEW_DEF
  2
AcAmMasterViewDef
  3
DesignerAssemblies
 90
        0
280
     0
281
     0
  0
CLASS
  1
AC_AM_DIRTY_NODES
  2
AcAmDirtyNodes
  3
DesignerAssemblies
 90
        0
280
     0
281
     0
  0
CLASS
  1
AC_AM_MAPPER_CACHE
  2
AcAmMapperCache
  3
DesignerAssemblies
 90
        0
280
     0
281
     0
  0
CLASS
  1
ACAMMVDBACKUPOBJECT
  2
AcAmMVDBackupObject
  3
DesignerAssemblies
 90
        0
280
     0
281
     0
  0
CLASS
  1
AC_AM_COMP_VIEW_INST
  2
AcAmCompView
  3
DesignerAssemblies
 90
    32768
280
     0
281
     0
  0
CLASS
  1
AC_AM_2D_XREF_MGR
  2
AcAmXrefMgr2d
  3
DesignerAssemblies
 90
        0
280
     0
281
     0
  0
CLASS
  1
SORTENTSTABLE
  2
AcDbSortentsTable
  3
ObjectDBX Classes
 90
        0
280
     0
281
     0
  0
CLASS
  1
AMDTNOTE
  2
AmdtNote
  3
"AcmSymBB|Product Description: AutoCAD Mechanical 2004 DX|Company: Autodesk"
 90
     1023
280
     0
281
     1
  0
CLASS
  1
AC_AM_HIDE_SITUATION
  2
AcAmHideSituation
  3
DesignerAssemblies
 90
    32768
280
     0
281
     0
  0
CLASS
  1
ACMSTANDARDANSI
  2
AcmStandardANSI
  3
"Amdt_StdImp|Product Description: AutoCAD Mechanical 2004 DX|Company: Autodesk"
 90
        0
280
     0
281
     0
  0
CLASS
  1
ACMSURFSTANDARDANSI
  2
AcmSurfTextStdANSI
  3
"Amdt_StdImp|Product Description: AutoCAD Mechanical 2004 DX|Company: Autodesk"
 90
        0
280
     0
281
     0
  0
CLASS
  1
ACMFCFSTANDARDANSI
  2
AcmFCFStdANSI
  3
"Amdt_StdImp|Product Description: AutoCAD Mechanical 2004 DX|Company: Autodesk"
 90
        0
280
     0
281
     0
  0
CLASS
  1
ACMWELDSTANDARDANSI
  2
AcmWeldingStdANSI
  3
"Amdt_StdImp|Product Description: AutoCAD Mechanical 2004 DX|Company: Autodesk"
 90
        0
280
     0
281
     0
  0
CLASS
  1
ACMIDSTANDARDANSI
  2
AcmIdStdANSI
  3
"Amdt_StdImp|Product Description: AutoCAD Mechanical 2004 DX|Company: Autodesk"
 90
        0
280
     0
281
     0
  0
CLASS
  1
ACMDATUMSTANDARDANSI
  2
AcmDatumStdANSI
  3
"Amdt_StdImp|Product Description: AutoCAD Mechanical 2004 DX|Company: Autodesk"
 90
        0
280
     0
281
     0
  0
CLASS
  1
ACMBOMSTANDARDANSI
  2
AcmBOMStdANSI
  3
"Amdt_StdImp|Product Description: AutoCAD Mechanical 2004 DX|Company: Autodesk"
 90
        0
280
     0
281
     0
  0
CLASS
  1
ACMDETAILSTANDARDANSI
  2
AmdtDetailSymStdANSI
  3
"Amdt_StdImp|Product Description: AutoCAD Mechanical 2004 DX|Company: Autodesk"
 90
        0
280
     0
281
     0
  0
CLASS
  1
ACMSECTIONSTANDARDANSI
  2
AmdtSectionSymStdANSI
  3
"Amdt_StdImp|Product Description: AutoCAD Mechanical 2004 DX|Company: Autodesk"
 90
        0
280
     0
281
     0
  0
CLASS
  1
ACMCENTERLINESTANDARDANSI
  2
AmdtCenterLineStdANSI
  3
"Amdt_StdImp|Product Description: AutoCAD Mechanical 2004 DX|Company: Autodesk"
 90
        0
280
     0
281
     0
  0
CLASS
  1
ACMTHREADLINESTANDARDANSI
  2
AmdtThreadLineStdANSI
  3
"Amdt_StdImp|Product Description: AutoCAD Mechanical 2004 DX|Company: Autodesk"
 90
        0
280
     0
281
     0
  0
CLASS
  1
ACMNOTESTANDARDANSI
  2
AmdtNoteStdANSI
  3
"Amdt_StdImp|Product Description: AutoCAD Mechanical 2004 DX|Company: Autodesk"
 90
        0
280
     0
281
     0
  0
CLASS
  1
ACAMGHOLECHARTSTDANSI
  2
AcAmgHoleChartStdANSI
  3
ACMSYMBB_MODULE_NAME
 90
        0
280
     0
281
     0
  0
ENDSEC
  0
SECTION
  2
TABLES
  0
TABLE
  2
VPORT
  5
8
330
0
100
AcDbSymbolTable
 70
     3
  0
VPORT
  5
5010
330
8
100
AcDbSymbolTableRecord
100
AcDbViewportTableRecord
  2
*Active
 70
     0
 10
0.0
 20
0.0
 11
1.0
 21
1.0
 12
233.6640940230155
 22
393.33065007419
 13
0.0
 23
0.0
 14
2.5
 24
2.5
 15
10.0
 25
10.0
 16
0.0
 26
0.0
 36
1.0
 17
0.0
 27
0.0
 37
0.0
 40
244.3055882497463
 41
1.609210526315789
 42
50.0
 43
0.0
 44
0.0
 50
0.0
 51
0.0
 71
     0
 72
   100
 73
     1
 74
     0
 75
     0
 76
     0
 77
     0
 78
     0
281
     0
 65
     1
110
0.0
120
0.0
130
0.0
111
1.0
121
0.0
131
0.0
112
0.0
122
1.0
132
0.0
 79
     0
146
0.0
  0
ENDTAB
  0
TABLE
  2
LTYPE
  5
5
330
0
100
AcDbSymbolTable
 70
    16
  0
LTYPE
  5
14
330
5
100
AcDbSymbolTableRecord
100
AcDbLinetypeTableRecord
  2
ByBlock
 70
     0
  3

 72
    65
 73
     0
 40
0.0
  0
LTYPE
  5
15
330
5
100
AcDbSymbolTableRecord
100
AcDbLinetypeTableRecord
  2
ByLayer
 70
     0
  3

 72
    65
 73
     0
 40
0.0
  0
LTYPE
  5
16
330
5
100
AcDbSymbolTableRecord
100
AcDbLinetypeTableRecord
  2
Continuous
 70
     0
  3
Solid line
 72
    65
 73
     0
 40
0.0
  0
LTYPE
  5
64
330
5
100
AcDbSymbolTableRecord
100
AcDbLinetypeTableRecord
  2
AM_ISO02W050
 70
     0
  3
__ __ __ __ __ __ __ __ __ __ __ __ __ __ __
 72
    65
 73
     2
 40
7.5
 49
6.0
 74
     0
 49
-1.5
 74
     0
  0
LTYPE
  5
65
330
5
100
AcDbSymbolTableRecord
100
AcDbLinetypeTableRecord
  2
AM_ISO08W050
 70
     0
  3
____ . ____ . ____ . ____ . ____ . ____ . ____
 72
    65
 73
     4
 40
18.0
 49
12.0
 74
     0
 49
-1.5
 74
     0
 49
3.0
 74
     0
 49
-1.5
 74
     0
  0
LTYPE
  5
66
330
5
100
AcDbSymbolTableRecord
100
AcDbLinetypeTableRecord
  2
AM_ISO09W050
 70
     0
  3
_____ . . _____ . . _____ . . ____ .. ____
 72
    65
 73
     6
 40
22.5
 49
12.0
 74
     0
 49
-1.5
 74
     0
 49
3.0
 74
     0
 49
-1.5
 74
     0
 49
3.0
 74
     0
 49
-1.5
 74
     0
  0
LTYPE
  5
67
330
5
100
AcDbSymbolTableRecord
100
AcDbLinetypeTableRecord
  2
Amconstr
 70
     0
  3
_______________________
 72
    65
 73
     2
 40
9999.0
 49
9999.0
 74
     0
 49
0.0
 74
     0
  0
LTYPE
  5
68
330
5
100
AcDbSymbolTableRecord
100
AcDbLinetypeTableRecord
  2
AM_ISO08W050x2
 70
     0
  3
__ . __ . __ . __ . __ . __
 72
    65
 73
     4
 40
9.0
 49
6.0
 74
     0
 49
-0.75
 74
     0
 49
1.5
 74
     0
 49
-0.75
 74
     0
  0
LTYPE
  5
69
330
5
100
AcDbSymbolTableRecord
100
AcDbLinetypeTableRecord
  2
AM_ISO02W050x2
 70
     0
  3
 _ _ _ _ _ _ _ _ _ _ _ _
 72
    65
 73
     2
 40
3.75
 49
3.0
 74
     0
 49
-0.75
 74
     0
  0
LTYPE
  5
6C
330
5
100
AcDbSymbolTableRecord
100
AcDbLinetypeTableRecord
  2
Amzigzag
 70
     0
  3
/\/-/\/-/\/-/\/-/\/-/\/
 72
    65
 73
     2
 40
11.0001
 49
0.0001
 74
     4
 75
   135
340
6B
 46
0.04
 50
0.0
 44
0.0
 45
0.0
 49
-11.0
 74
     0
  0
LTYPE
  5
7A
330
5
100
AcDbSymbolTableRecord
100
AcDbLinetypeTableRecord
  2
ACISOWELD
 70
     0
  3
_ _ _ _ _
 72
    65
 73
     2
 40
2.0
 49
2.0
 74
     0
 49
-1.0
 74
     0
  0
LTYPE
  5
7B
330
5
100
AcDbSymbolTableRecord
100
AcDbLinetypeTableRecord
  2
ACISOTGB
 70
     0
  3
__ . . __ . .
 72
    65
 73
     6
 40
9.0
 49
4.0
 74
     0
 49
-1.0
 74
     0
 49
1.0
 74
     0
 49
-1.0
 74
     0
 49
1.0
 74
     0
 49
-1.0
 74
     0
  0
LTYPE
  5
7C
330
5
100
AcDbSymbolTableRecord
100
AcDbLinetypeTableRecord
  2
ACISOTGL
 70
     0
  3
_ _ _ _ _
 72
    65
 73
     2
 40
3.0
 49
2.0
 74
     0
 49
-1.0
 74
     0
  0
LTYPE
  5
7E
330
5
100
AcDbSymbolTableRecord
100
AcDbLinetypeTableRecord
  2
CENTER
 70
     0
  3
__ . __
 72
    65
 73
     4
 40
7.0
 49
4.0
 74
     0
 49
-1.0
 74
     0
 49
1.0
 74
     0
 49
-1.0
 74
     0
  0
LTYPE
  5
D8
330
5
100
AcDbSymbolTableRecord
100
AcDbLinetypeTableRecord
  2
HIDDEN
 70
     0
  3
Hidden __ __ __ __ __ __ __ __ __ __ __ __ __ _
 72
    65
 73
     2
 40
9.524999999999998
 49
6.349999999999999
 74
     0
 49
-3.174999999999999
 74
     0
  0
LTYPE
  5
D9
330
5
100
AcDbSymbolTableRecord
100
AcDbLinetypeTableRecord
  2
PHANTOM2
 70
     0
  3
Phantom (.5x) ___ _ _ ___ _ _ ___ _ _ ___ _ _
 72
    65
 73
     6
 40
31.75
 49
15.875
 74
     0
 49
-3.174999999999999
 74
     0
 49
3.174999999999999
 74
     0
 49
-3.174999999999999
 74
     0
 49
3.174999999999999
 74
     0
 49
-3.174999999999999
 74
     0
  0
LTYPE
  5
4C90
330
5
100
AcDbSymbolTableRecord
100
AcDbLinetypeTableRecord
  2
ACANSTGB
 70
     0
  3
__ . . __ . .
 72
    65
 73
     6
 40
0.35433070866
 49
0.15748031496
 74
     0
 49
-0.03937007874
 74
     0
 49
0.03937007874
 74
     0
 49
-0.03937007874
 74
     0
 49
0.03937007874
 74
     0
 49
-0.03937007874
 74
     0
  0
LTYPE
  5
4C91
330
5
100
AcDbSymbolTableRecord
100
AcDbLinetypeTableRecord
  2
ACANSTGL
 70
     0
  3
_ _ _ _ _
 72
    65
 73
     2
 40
0.11811023622
 49
0.07874015748
 74
     0
 49
-0.03937007874
 74
     0
  0
ENDTAB
  0
TABLE
  2
LAYER
  5
2
102
{ACAD_XDICTIONARY
360
3F9
102
}
330
0
100
AcDbSymbolTable
 70
     7
  0
LAYER
  5
10
330
2
100
AcDbSymbolTableRecord
100
AcDbLayerTableRecord
  2
0
 70
     0
 62
     7
  6
Continuous
370
    -3
390
F
  0
LAYER
  5
A7F
330
2
100
AcDbSymbolTableRecord
100
AcDbLayerTableRecord
  2
AM_VIS
 70
     0
 62
     7
  6
Continuous
370
    50
390
F
  0
LAYER
  5
100B
330
2
100
AcDbSymbolTableRecord
100
AcDbLayerTableRecord
  2
AM_5
 70
     0
 62
     5
  6
Continuous
370
    50
390
F
  0
LAYER
  5
1052
330
2
100
AcDbSymbolTableRecord
100
AcDbLayerTableRecord
  2
AM_0
 70
     0
 62
     7
  6
Continuous
370
    50
390
F
  0
LAYER
  5
1078
330
2
100
AcDbSymbolTableRecord
100
AcDbLayerTableRecord
  2
AM_7
 70
     0
 62
     1
  6
CENTER
370
    25
390
F
  0
LAYER
  5
11AC
330
2
100
AcDbSymbolTableRecord
100
AcDbLayerTableRecord
  2
Defpoints
 70
     0
 62
     7
  6
Continuous
290
     0
370
    -3
390
F
  0
LAYER
  5
4B53
330
2
100
AcDbSymbolTableRecord
100
AcDbLayerTableRecord
  2
LOGO
 70
     0
 62
     7
  6
Continuous
370
    -3
390
F
  0
ENDTAB
  0
TABLE
  2
STYLE
  5
3
330
0
100
AcDbSymbolTable
 70
     8
  0
STYLE
  5
11
330
3
100
AcDbSymbolTableRecord
100
AcDbTextStyleTableRecord
  2
STANDARD
 70
     0
 40
0.0
 41
1.0
 50
0.0
 71
     0
 42
3.0
  3
ISOCP.SHX
  4
CHINESET.SHX
  0
STYLE
  5
6B
330
3
100
AcDbSymbolTableRecord
100
AcDbTextStyleTableRecord
  2

 70
     1
 40
0.0
 41
1.0
 50
0.0
 71
     0
 42
2.5
  3
ltypeshp.shx
  4

  0
STYLE
  5
6D
330
3
100
AcDbSymbolTableRecord
100
AcDbTextStyleTableRecord
  2
ACISOTS
 70
     0
 40
1.0
 41
1.0
 50
0.0
 71
     0
 42
1.0
  3
isocp.shx
  4
chineset.shx
  0
STYLE
  5
79
330
3
100
AcDbSymbolTableRecord
100
AcDbTextStyleTableRecord
  2
ACISOGDT
 70
     0
 40
0.0
 41
1.0
 50
0.0
 71
     0
 42
2.5
  3
amgdt.shx
  4
chineset.shx
  0
STYLE
  5
4B54
330
3
100
AcDbSymbolTableRecord
100
AcDbTextStyleTableRecord
  2
CHINESET
 70
     0
 40
0.0
 41
1.0
 50
0.0
 71
     0
 42
3.0
  3
simplex.shx
  4
CHINESET.SHX
  0
STYLE
  5
4C92
330
3
100
AcDbSymbolTableRecord
100
AcDbTextStyleTableRecord
  2
ACANSTS
 70
     0
 40
1.0
 41
1.0
 50
0.0
 71
     0
 42
5.0
  3
romans.shx
  4
chineset.shx
  0
STYLE
  5
4C93
330
3
100
AcDbSymbolTableRecord
100
AcDbTextStyleTableRecord
  2
ACANSGDT
 70
     0
 40
0.0
 41
1.0
 50
0.0
 71
     0
 42
5.0
  3
amgdtans.shx
  4

  0
ENDTAB
  0
TABLE
  2
VIEW
  5
6
330
0
100
AcDbSymbolTable
 70
     0
  0
ENDTAB
  0
TABLE
  2
UCS
  5
7
330
0
100
AcDbSymbolTable
 70
     0
  0
ENDTAB
  0
TABLE
  2
APPID
  5
9
330
0
100
AcDbSymbolTable
 70
    31
  0
APPID
  5
12
330
9
100
AcDbSymbolTableRecord
100
AcDbRegAppTableRecord
  2
ACAD
 70
     0
  0
APPID
  5
46
330
9
100
AcDbSymbolTableRecord
100
AcDbRegAppTableRecord
  2
MCAD_NO_VIS
 70
     0
  0
APPID
  5
47
330
9
100
AcDbSymbolTableRecord
100
AcDbRegAppTableRecord
  2
ACAD_TEMP_GRAPHIC
 70
     0
  0
APPID
  5
58
330
9
100
AcDbSymbolTableRecord
100
AcDbRegAppTableRecord
  2
ACATTRIBSERVICES
 70
     0
  0
APPID
  5
EE
330
9
100
AcDbSymbolTableRecord
100
AcDbRegAppTableRecord
  2
AD_DRAW
 70
     0
  0
APPID
  5
10C
330
9
100
AcDbSymbolTableRecord
100
AcDbRegAppTableRecord
  2
DESIGNERASSEMBLIES
 70
     0
  0
APPID
  5
111
330
9
100
AcDbSymbolTableRecord
100
AcDbRegAppTableRecord
  2
ACADM_DIM_EDIT
 70
     0
  0
APPID
  5
112
330
9
100
AcDbSymbolTableRecord
100
AcDbRegAppTableRecord
  2
AMDT_DM_ADJ
 70
     0
  0
APPID
  5
22C
330
9
100
AcDbSymbolTableRecord
100
AcDbRegAppTableRecord
  2
ACAD_DSTYLE_DIMTEXT_FILL
 70
     0
  0
APPID
  5
452
330
9
100
AcDbSymbolTableRecord
100
AcDbRegAppTableRecord
  2
GENIUS_GENOENT_13
 70
     0
  0
APPID
  5
453
330
9
100
AcDbSymbolTableRecord
100
AcDbRegAppTableRecord
  2
GENIUS_GENOBJ-N-CRS_13
 70
     0
  0
APPID
  5
454
330
9
100
AcDbSymbolTableRecord
100
AcDbRegAppTableRecord
  2
GENIUS_GENOLIS_13
 70
     0
  0
APPID
  5
455
330
9
100
AcDbSymbolTableRecord
100
AcDbRegAppTableRecord
  2
GENIUS_GENODEF_13
 70
     0
  0
APPID
  5
456
330
9
100
AcDbSymbolTableRecord
100
AcDbRegAppTableRecord
  2
GENIUS_GENOREF_13
 70
     0
  0
APPID
  5
6F3
330
9
100
AcDbSymbolTableRecord
100
AcDbRegAppTableRecord
  2
ACAD_PSEXT
 70
     0
  0
APPID
  5
808
330
9
100
AcDbSymbolTableRecord
100
AcDbRegAppTableRecord
  2
GENIUS_GENDTOL_13
 70
     0
  0
APPID
  5
1059
330
9
100
AcDbSymbolTableRecord
100
AcDbRegAppTableRecord
  2
GEVID1167182300
 70
     0
  0
APPID
  5
105A
330
9
100
AcDbSymbolTableRecord
100
AcDbRegAppTableRecord
  2
GEVDC
 70
     0
  0
APPID
  5
1063
330
9
100
AcDbSymbolTableRecord
100
AcDbRegAppTableRecord
  2
AMG_2DHIDE
 70
     0
  0
APPID
  5
1064
330
9
100
AcDbSymbolTableRecord
100
AcDbRegAppTableRecord
  2
AMG_2DSTRUCT_BTR
 70
     0
  0
APPID
  5
1075
330
9
100
AcDbSymbolTableRecord
100
AcDbRegAppTableRecord
  2
ACADM_2DVIEW_IGN_NOTIFY
 70
     0
  0
APPID
  5
119A
330
9
100
AcDbSymbolTableRecord
100
AcDbRegAppTableRecord
  2
GENIUS_GENOBJ-N-CEN_13
 70
     0
  0
APPID
  5
119B
330
9
100
AcDbSymbolTableRecord
100
AcDbRegAppTableRecord
  2
GENIUS_GENCEN_19
 70
     0
  0
APPID
  5
39BE
330
9
100
AcDbSymbolTableRecord
100
AcDbRegAppTableRecord
  2
GEVID1167182301
 70
     0
  0
APPID
  5
39CB
330
9
100
AcDbSymbolTableRecord
100
AcDbRegAppTableRecord
  2
GEVID1167182302
 70
     0
  0
APPID
  5
39F2
330
9
100
AcDbSymbolTableRecord
100
AcDbRegAppTableRecord
  2
GEVID1167182303
 70
     0
  0
APPID
  5
3D45
330
9
100
AcDbSymbolTableRecord
100
AcDbRegAppTableRecord
  2
GENIUS_GENOBJ-N-HTC_13
 70
     0
  0
APPID
  5
3D46
330
9
100
AcDbSymbolTableRecord
100
AcDbRegAppTableRecord
  2
GENIUS_GENHATCH_13
 70
     0
  0
APPID
  5
4790
330
9
100
AcDbSymbolTableRecord
100
AcDbRegAppTableRecord
  2
GEVID1167182305
 70
     0
  0
APPID
  5
4B55
330
9
100
AcDbSymbolTableRecord
100
AcDbRegAppTableRecord
  2
GENIUS_GENREC_14
 70
     0
  0
APPID
  5
4B56
330
9
100
AcDbSymbolTableRecord
100
AcDbRegAppTableRecord
  2
GENIUS_GENOBJ-N-REC_13
 70
     0
  0
ENDTAB
  0
TABLE
  2
DIMSTYLE
  5
A
330
0
100
AcDbSymbolTable
 70
    15
100
AcDbDimStyleTable
 71
     3
340
81
340
8B
340
86
  0
DIMSTYLE
105
81
330
A
100
AcDbSymbolTableRecord
100
AcDbDimStyleTableRecord
  2
AM_ISO
 70
     0
  4
"
 41
3.0
 42
1.0
 43
8.0
 44
1.5
 47
0.1
 48
0.1
 73
     0
 74
     0
 77
     1
 78
     8
 79
     2
140
3.5
141
0.0
143
0.0393701
146
0.6
147
0.7
172
     1
176
   256
177
   256
178
   256
271
     2
272
     2
283
     0
284
     8
340
11
371
    -1
372
    -1
  0
DIMSTYLE
105
82
330
A
100
AcDbSymbolTableRecord
100
AcDbDimStyleTableRecord
  2
AM_ISO$3
 70
     0
  4
"
 41
3.0
 42
1.0
 43
8.0
 44
1.5
 47
0.1
 48
0.1
 73
     0
 77
     1
 78
     8
 79
     2
140
3.5
141
0.0
143
0.0393701
146
0.6
147
0.7
176
   256
177
   256
178
   256
271
     2
272
     2
283
     0
284
     8
288
     1
289
     0
340
11
371
    -1
372
    -1
  0
DIMSTYLE
105
83
330
A
100
AcDbSymbolTableRecord
100
AcDbDimStyleTableRecord
  2
AM_ISO$4
 70
     0
  4
"
 41
3.0
 42
1.0
 43
8.0
 44
1.5
 47
0.1
 48
0.1
 73
     0
 77
     1
 78
     8
 79
     2
140
3.5
141
0.0
143
0.0393701
146
0.6
147
0.7
176
   256
177
   256
178
   256
271
     2
272
     2
283
     0
284
     8
288
     1
289
     0
340
11
371
    -1
372
    -1
  0
DIMSTYLE
105
84
330
A
100
AcDbSymbolTableRecord
100
AcDbDimStyleTableRecord
  2
AM_ISO$6
 70
     0
  4
"
 41
3.0
 42
1.0
 43
8.0
 44
1.5
 47
0.1
 48
0.1
 73
     0
 74
     0
 78
     8
 79
     2
140
3.5
141
0.0
143
0.0393701
146
0.6
147
0.7
172
     1
176
   256
177
   256
178
   256
271
     2
272
     2
283
     0
284
     8
340
11
371
    -1
372
    -1
  0
DIMSTYLE
105
85
330
A
100
AcDbSymbolTableRecord
100
AcDbDimStyleTableRecord
  2
AM_ISO$7
 70
     0
  4
"
 41
3.0
 42
1.0
 43
8.0
 44
1.5
 47
0.1
 48
0.1
 73
     0
 74
     0
 77
     1
 78
     8
 79
     2
140
5.0
141
0.0
143
0.0393701
146
0.6
147
0.7
172
     1
176
   256
177
   256
178
   256
271
     2
272
     2
283
     0
284
     8
340
11
371
    -1
372
    -1
  0
DIMSTYLE
105
86
330
A
100
AcDbSymbolTableRecord
100
AcDbDimStyleTableRecord
  2
AM_ISO$SF
 70
     0
  4
"
 41
2.5
 42
1.0
 43
10.0
 44
1.0
 47
0.1
 48
0.1
 73
     0
 74
     0
 75
     1
 76
     1
 77
     1
 78
     8
 79
     2
140
3.5
141
0.0
143
0.0393701
146
0.71
147
1.5
172
     1
176
   256
177
   256
178
     2
271
     2
272
     3
274
     4
283
     0
284
     8
340
11
371
    -1
372
    -1
  0
DIMSTYLE
105
8B
330
A
100
AcDbSymbolTableRecord
100
AcDbDimStyleTableRecord
  2
AM_ISO$SH
 70
     0
  4
"
 41
2.5
 42
1.0
 43
10.0
 44
1.0
 47
0.1
 48
0.1
 73
     0
 74
     0
 75
     1
 76
     1
 77
     1
 78
     8
 79
     2
140
3.5
141
0.0
143
0.0393701
144
2.0
146
0.71
147
1.5
172
     1
173
     1
176
   256
177
   256
178
     2
271
     2
272
     3
274
     4
283
     0
284
     8
340
11
343
87
371
    -1
372
    -1
  0
DIMSTYLE
105
40B
102
{ACAD_REACTORS
330
24C6
330
24C9
330
24CC
330
24CF
330
24D4
330
24D7
330
25FB
330
25F2
330
25F5
330
25F8
330
25EF
330
26C8
330
26C9
330
271E
330
273A
330
276B
102
}
330
A
100
AcDbSymbolTableRecord
100
AcDbDimStyleTableRecord
  2
AM_ISO$0
 70
     0
  4
"
 41
3.0
 42
1.0
 43
8.0
 44
1.5
 47
0.1
 48
0.1
 73
     0
 74
     0
 77
     1
 78
     8
 79
     2
140
3.5
141
0.0
143
0.0393701
146
0.6
147
0.7
172
     1
176
   256
177
   256
178
   256
271
     2
272
     2
283
     0
284
     8
340
11
371
    -1
372
    -1
  0
DIMSTYLE
105
4C95
330
A
100
AcDbSymbolTableRecord
100
AcDbDimStyleTableRecord
  2
AM_ANSI
 70
     0
  4
mm
 41
0.1
 42
0.05
 43
0.5
 44
0.1
 47
0.1
 48
0.1
 78
     7
 79
     2
140
0.12
141
0.0
146
0.71
147
0.06
176
   256
177
   256
178
     2
274
     4
284
     7
340
11
371
    -1
372
    -1
  0
DIMSTYLE
105
4C96
330
A
100
AcDbSymbolTableRecord
100
AcDbDimStyleTableRecord
  2
AM_ANSI$3
 70
     0
  4
mm
 41
0.1
 42
0.05
 43
0.5
 44
0.1
 47
0.1
 48
0.1
 78
     7
 79
     2
140
0.12
141
0.0
146
0.71
147
0.06
176
   256
177
   256
178
     2
274
     4
284
     7
288
     1
289
     0
340
11
371
    -1
372
    -1
  0
DIMSTYLE
105
4C97
330
A
100
AcDbSymbolTableRecord
100
AcDbDimStyleTableRecord
  2
AM_ANSI$4
 70
     0
  4
mm
 41
0.1
 42
0.05
 43
0.5
 44
0.1
 47
0.1
 48
0.1
 78
     7
 79
     2
140
0.12
141
0.0
146
0.71
147
0.06
176
   256
177
   256
178
     2
274
     4
284
     7
288
     1
289
     0
340
11
371
    -1
372
    -1
  0
DIMSTYLE
105
4C98
330
A
100
AcDbSymbolTableRecord
100
AcDbDimStyleTableRecord
  2
AM_ANSI$7
 70
     0
  4
mm
 41
0.1
 42
0.05
 43
0.5
 44
0.1
 47
0.1
 48
0.1
 78
     7
 79
     2
140
0.24
141
0.0
146
0.71
147
0.06
176
   256
177
   256
178
     2
274
     4
284
     7
340
11
371
    -1
372
    -1
  0
DIMSTYLE
105
4C99
330
A
100
AcDbSymbolTableRecord
100
AcDbDimStyleTableRecord
  2
AM_ANSI$SF
 70
     0
  4
mm
 41
0.1
 42
0.05
 43
0.5
 44
0.1
 47
0.1
 48
0.1
 75
     1
 76
     1
 78
     7
 79
     2
140
0.12
141
0.0
146
0.71
147
0.06
176
   256
177
   256
178
     2
274
     4
284
     7
340
11
371
    -1
372
    -1
  0
DIMSTYLE
105
4C9A
330
A
100
AcDbSymbolTableRecord
100
AcDbDimStyleTableRecord
  2
AM_ANSI$SH
 70
     0
  4
mm
 41
0.1
 42
0.05
 43
0.5
 44
0.1
 47
0.1
 48
0.1
 75
     1
 76
     1
 78
     7
 79
     2
140
0.12
141
0.0
146
0.71
147
0.06
173
     1
176
   256
177
   256
178
     2
274
     4
284
     7
340
11
343
87
371
    -1
372
    -1
  0
ENDTAB
  0
TABLE
  2
BLOCK_RECORD
  5
1
330
0
100
AcDbSymbolTable
 70
    27
  0
BLOCK_RECORD
  5
1F
102
{ACAD_XDICTIONARY
360
8F
102
}
330
1
100
AcDbSymbolTableRecord
100
AcDbBlockTableRecord
  2
*Model_Space
340
22
  0
BLOCK_RECORD
  5
1B
330
1
100
AcDbSymbolTableRecord
100
AcDbBlockTableRecord
  2
*Paper_Space
340
1E
  0
BLOCK_RECORD
  5
23
330
1
100
AcDbSymbolTableRecord
100
AcDbBlockTableRecord
  2
*Paper_Space0
340
26
  0
BLOCK_RECORD
  5
87
330
1
100
AcDbSymbolTableRecord
100
AcDbBlockTableRecord
  2
GENAXEH
340
0
  0
BLOCK_RECORD
  5
107B
330
1
100
AcDbSymbolTableRecord
100
AcDbBlockTableRecord
  2
*U4
340
0
  0
BLOCK_RECORD
  5
24DA
330
1
100
AcDbSymbolTableRecord
100
AcDbBlockTableRecord
  2
*D5
340
0
  0
BLOCK_RECORD
  5
24E6
330
1
100
AcDbSymbolTableRecord
100
AcDbBlockTableRecord
  2
*D6
340
0
  0
BLOCK_RECORD
  5
24F2
330
1
100
AcDbSymbolTableRecord
100
AcDbBlockTableRecord
  2
*D7
340
0
  0
BLOCK_RECORD
  5
24FE
330
1
100
AcDbSymbolTableRecord
100
AcDbBlockTableRecord
  2
*D8
340
0
  0
BLOCK_RECORD
  5
250A
330
1
100
AcDbSymbolTableRecord
100
AcDbBlockTableRecord
  2
*D9
340
0
  0
BLOCK_RECORD
  5
2516
330
1
100
AcDbSymbolTableRecord
100
AcDbBlockTableRecord
  2
*D10
340
0
  0
BLOCK_RECORD
  5
25FE
330
1
100
AcDbSymbolTableRecord
100
AcDbBlockTableRecord
  2
*D11
340
0
  0
BLOCK_RECORD
  5
2617
330
1
100
AcDbSymbolTableRecord
100
AcDbBlockTableRecord
  2
*D12
340
0
  0
BLOCK_RECORD
  5
2623
330
1
100
AcDbSymbolTableRecord
100
AcDbBlockTableRecord
  2
*D13
340
0
  0
BLOCK_RECORD
  5
262F
330
1
100
AcDbSymbolTableRecord
100
AcDbBlockTableRecord
  2
*D14
340
0
  0
BLOCK_RECORD
  5
263D
330
1
100
AcDbSymbolTableRecord
100
AcDbBlockTableRecord
  2
*D15
340
0
  0
BLOCK_RECORD
  5
26CA
330
1
100
AcDbSymbolTableRecord
100
AcDbBlockTableRecord
  2
*D16
340
0
  0
BLOCK_RECORD
  5
26D6
330
1
100
AcDbSymbolTableRecord
100
AcDbBlockTableRecord
  2
*D17
340
0
  0
BLOCK_RECORD
  5
271F
330
1
100
AcDbSymbolTableRecord
100
AcDbBlockTableRecord
  2
*D18
340
0
  0
BLOCK_RECORD
  5
273F
330
1
100
AcDbSymbolTableRecord
100
AcDbBlockTableRecord
  2
*D19
340
0
  0
BLOCK_RECORD
  5
276C
330
1
100
AcDbSymbolTableRecord
100
AcDbBlockTableRecord
  2
*D20
340
0
  0
BLOCK_RECORD
  5
4FE6
330
1
100
AcDbSymbolTableRecord
100
AcDbBlockTableRecord
  2
*S22
340
0
  0
BLOCK_RECORD
  5
4FEE
330
1
100
AcDbSymbolTableRecord
100
AcDbBlockTableRecord
  2
*S23
340
0
  0
BLOCK_RECORD
  5
4FF6
330
1
100
AcDbSymbolTableRecord
100
AcDbBlockTableRecord
  2
*S24
340
0
  0
BLOCK_RECORD
  5
4FFE
330
1
100
AcDbSymbolTableRecord
100
AcDbBlockTableRecord
  2
*S25
340
0
  0
BLOCK_RECORD
  5
5006
330
1
100
AcDbSymbolTableRecord
100
AcDbBlockTableRecord
  2
*S26
340
0
  0
ENDTAB
  0
ENDSEC
  0
SECTION
  2
BLOCKS
  0
BLOCK
  5
20
330
1F
100
AcDbEntity
  8
0
100
AcDbBlockBegin
  2
*Model_Space
 70
     0
 10
0.0
 20
0.0
 30
0.0
  3
*Model_Space
  1

  0
ENDBLK
  5
21
330
1F
100
AcDbEntity
  8
0
100
AcDbBlockEnd
  0
BLOCK
  5
1C
330
1B
100
AcDbEntity
 67
     1
  8
0
100
AcDbBlockBegin
  2
*Paper_Space
 70
     0
 10
0.0
 20
0.0
 30
0.0
  3
*Paper_Space
  1

  0
ENDBLK
  5
1D
330
1B
100
AcDbEntity
 67
     1
  8
0
100
AcDbBlockEnd
  0
BLOCK
  5
24
330
23
100
AcDbEntity
  8
0
100
AcDbBlockBegin
  2
*Paper_Space0
 70
     0
 10
0.0
 20
0.0
 30
0.0
  3
*Paper_Space0
  1

  0
ENDBLK
  5
25
330
23
100
AcDbEntity
  8
0
100
AcDbBlockEnd
  0
BLOCK
  5
89
330
87
100
AcDbEntity
  8
0
100
AcDbBlockBegin
  2
GENAXEH
 70
     0
 10
0.0
 20
0.0
 30
0.0
  3
GENAXEH
  1

  0
LINE
  5
88
330
87
100
AcDbEntity
  8
0
100
AcDbLine
 10
-1.0
 20
0.0
 30
0.0
 11
1.0
 21
0.0
 31
0.0
  0
ENDBLK
  5
8A
330
87
100
AcDbEntity
  8
0
100
AcDbBlockEnd
  0
BLOCK
  5
107C
330
107B
100
AcDbEntity
  8
0
100
AcDbBlockBegin
  2
*U4
 70
     1
 10
0.0
 20
0.0
 30
0.0
  3
*U4
  1

  0
ENDBLK
  5
107D
330
107B
100
AcDbEntity
  8
0
100
AcDbBlockEnd
  0
BLOCK
  5
24E4
330
24DA
100
AcDbEntity
  8
0
100
AcDbBlockBegin
  2
*D5
 70
     1
 10
0.0
 20
0.0
 30
0.0
  3
*D5
  1

  0
LINE
  5
4ECE
330
24DA
100
AcDbEntity
  8
AM_5
100
AcDbLine
 10
198.0684902203453
 20
450.4870557208106
 30
0.0
 11
198.0684902203453
 21
472.4870557208106
 31
0.0
  0
LINE
  5
4ECF
330
24DA
100
AcDbEntity
  8
AM_5
100
AcDbLine
 10
223.0684902203453
 20
460.2370557208106
 30
0.0
 11
223.0684902203453
 21
472.4870557208106
 31
0.0
  0
LINE
  5
4ED0
330
24DA
100
AcDbEntity
  8
AM_5
100
AcDbLine
 10
201.0684902203453
 20
470.9870557208106
 30
0.0
 11
220.0684902203453
 21
470.9870557208106
 31
0.0
  0
SOLID
  5
4ED1
330
24DA
100
AcDbEntity
  8
AM_5
100
AcDbTrace
 10
201.0684902203453
 20
471.4870557208106
 30
0.0
 11
201.0684902203453
 21
470.4870557208106
 31
0.0
 12
198.0684902203453
 22
470.9870557208106
 32
0.0
 13
198.0684902203453
 23
470.9870557208106
 33
0.0
  0
SOLID
  5
4ED2
330
24DA
100
AcDbEntity
  8
AM_5
100
AcDbTrace
 10
220.0684902203453
 20
471.4870557208106
 30
0.0
 11
220.0684902203453
 21
470.4870557208106
 31
0.0
 12
223.0684902203453
 22
470.9870557208106
 32
0.0
 13
223.0684902203453
 23
470.9870557208106
 33
0.0
  0
MTEXT
  5
4ED3
330
24DA
100
AcDbEntity
  8
AM_5
100
AcDbMText
 10
210.5684902203453
 20
473.4374002089996
 30
0.0
 40
3.5
 41
0.0
 71
     5
 72
     1
  1
25
 73
     1
 44
1.0
1001
ACAD
1000
MTEXTBEGIN
1070
    73
1070
     1
1070
    44
1040
1.0
1070
    74
1070
     0
1000
MTEXTEND
  0
POINT
  5
4ED4
330
24DA
100
AcDbEntity
  8
Defpoints
 62
     0
100
AcDbPoint
 10
198.0684902203453
 20
449.4870557208106
 30
0.0
  0
POINT
  5
4ED5
330
24DA
100
AcDbEntity
  8
Defpoints
 62
     0
100
AcDbPoint
 10
223.0684902203453
 20
459.2370557208106
 30
0.0
  0
POINT
  5
4ED6
330
24DA
100
AcDbEntity
  8
Defpoints
 62
     0
100
AcDbPoint
 10
223.0684902203453
 20
470.9870557208106
 30
0.0
  0
ENDBLK
  5
24E5
330
24DA
100
AcDbEntity
  8
0
100
AcDbBlockEnd
  0
BLOCK
  5
24F0
330
24E6
100
AcDbEntity
  8
0
100
AcDbBlockBegin
  2
*D6
 70
     1
 10
0.0
 20
0.0
 30
0.0
  3
*D6
  1

  0
LINE
  5
4ED7
330
24E6
100
AcDbEntity
  8
AM_5
100
AcDbLine
 10
182.5684902203453
 20
442.4870557208106
 30
0.0
 11
182.5684902203453
 21
431.4870557208106
 31
0.0
  0
LINE
  5
4ED8
330
24E6
100
AcDbEntity
  8
AM_5
100
AcDbLine
 10
198.0684902203453
 20
440.4870557208106
 30
0.0
 11
198.0684902203453
 21
431.4870557208106
 31
0.0
  0
LINE
  5
4ED9
330
24E6
100
AcDbEntity
  8
AM_5
100
AcDbLine
 10
185.5684902203453
 20
432.9870557208106
 30
0.0
 11
195.0684902203453
 21
432.9870557208106
 31
0.0
  0
SOLID
  5
4EDA
330
24E6
100
AcDbEntity
  8
AM_5
100
AcDbTrace
 10
185.5684902203453
 20
433.4870557208106
 30
0.0
 11
185.5684902203453
 21
432.4870557208106
 31
0.0
 12
182.5684902203453
 22
432.9870557208106
 32
0.0
 13
182.5684902203453
 23
432.9870557208106
 33
0.0
  0
SOLID
  5
4EDB
330
24E6
100
AcDbEntity
  8
AM_5
100
AcDbTrace
 10
195.0684902203453
 20
433.4870557208106
 30
0.0
 11
195.0684902203453
 21
432.4870557208106
 31
0.0
 12
198.0684902203453
 22
432.9870557208106
 32
0.0
 13
198.0684902203453
 23
432.9870557208106
 33
0.0
  0
MTEXT
  5
4EDC
330
24E6
100
AcDbEntity
  8
AM_5
100
AcDbMText
 10
190.3184902203453
 20
435.4370557208106
 30
0.0
 40
3.5
 41
0.0
 71
     5
 72
     1
  1
15.5
 73
     1
 44
1.0
1001
ACAD
1000
MTEXTBEGIN
1070
    73
1070
     1
1070
    44
1040
1.0
1070
    74
1070
     0
1000
MTEXTEND
  0
POINT
  5
4EDD
330
24E6
100
AcDbEntity
  8
Defpoints
 62
     0
100
AcDbPoint
 10
182.5684902203453
 20
443.4870557208106
 30
0.0
  0
POINT
  5
4EDE
330
24E6
100
AcDbEntity
  8
Defpoints
 62
     0
100
AcDbPoint
 10
198.0684902203453
 20
441.4870557208106
 30
0.0
  0
POINT
  5
4EDF
330
24E6
100
AcDbEntity
  8
Defpoints
 62
     0
100
AcDbPoint
 10
198.0684902203453
 20
432.9870557208106
 30
0.0
  0
ENDBLK
  5
24F1
330
24E6
100
AcDbEntity
  8
0
100
AcDbBlockEnd
  0
BLOCK
  5
24FC
330
24F2
100
AcDbEntity
  8
0
100
AcDbBlockBegin
  2
*D7
 70
     1
 10
0.0
 20
0.0
 30
0.0
  3
*D7
  1

  0
LINE
  5
4EE0
330
24F2
100
AcDbEntity
  8
AM_5
100
AcDbLine
 10
198.0684902203453
 20
440.4870557208106
 30
0.0
 11
198.0684902203453
 21
431.4870557208107
 31
0.0
  0
LINE
  5
4EE1
330
24F2
100
AcDbEntity
  8
AM_5
100
AcDbLine
 10
232.0684902203453
 20
453.4870557208106
 30
0.0
 11
232.0684902203453
 21
431.4870557208107
 31
0.0
  0
LINE
  5
4EE2
330
24F2
100
AcDbEntity
  8
AM_5
100
AcDbLine
 10
201.0684902203453
 20
432.9870557208106
 30
0.0
 11
229.0684902203453
 21
432.9870557208106
 31
0.0
  0
SOLID
  5
4EE3
330
24F2
100
AcDbEntity
  8
AM_5
100
AcDbTrace
 10
201.0684902203453
 20
433.4870557208106
 30
0.0
 11
201.0684902203453
 21
432.4870557208106
 31
0.0
 12
198.0684902203453
 22
432.9870557208106
 32
0.0
 13
198.0684902203453
 23
432.9870557208106
 33
0.0
  0
SOLID
  5
4EE4
330
24F2
100
AcDbEntity
  8
AM_5
100
AcDbTrace
 10
229.0684902203453
 20
433.4870557208106
 30
0.0
 11
229.0684902203453
 21
432.4870557208106
 31
0.0
 12
232.0684902203453
 22
432.9870557208106
 32
0.0
 13
232.0684902203453
 23
432.9870557208106
 33
0.0
  0
MTEXT
  5
4EE5
330
24F2
100
AcDbEntity
  8
AM_5
100
AcDbMText
 10
215.0684902203453
 20
435.4370557208106
 30
0.0
 40
3.5
 41
0.0
 71
     5
 72
     1
  1
34
 73
     1
 44
1.0
1001
ACAD
1000
MTEXTBEGIN
1070
    73
1070
     1
1070
    44
1040
1.0
1070
    74
1070
     0
1000
MTEXTEND
  0
POINT
  5
4EE6
330
24F2
100
AcDbEntity
  8
Defpoints
 62
     0
100
AcDbPoint
 10
198.0684902203453
 20
441.4870557208106
 30
0.0
  0
POINT
  5
4EE7
330
24F2
100
AcDbEntity
  8
Defpoints
 62
     0
100
AcDbPoint
 10
232.0684902203453
 20
454.4870557208106
 30
0.0
  0
POINT
  5
4EE8
330
24F2
100
AcDbEntity
  8
Defpoints
 62
     0
100
AcDbPoint
 10
232.0684902203453
 20
432.9870557208106
 30
0.0
  0
ENDBLK
  5
24FD
330
24F2
100
AcDbEntity
  8
0
100
AcDbBlockEnd
  0
BLOCK
  5
2508
330
24FE
100
AcDbEntity
  8
0
100
AcDbBlockBegin
  2
*D8
 70
     1
 10
0.0
 20
0.0
 30
0.0
  3
*D8
  1

  0
LINE
  5
4EE9
330
24FE
100
AcDbEntity
  8
AM_5
100
AcDbLine
 10
193.0684902203453
 20
445.4870557208106
 30
0.0
 11
171.0684902203453
 21
445.4870557208106
 31
0.0
  0
LINE
  5
4EEA
330
24FE
100
AcDbEntity
  8
AM_5
100
AcDbLine
 10
227.0684902203453
 20
458.4870557208106
 30
0.0
 11
171.0684902203453
 21
458.4870557208106
 31
0.0
  0
LINE
  5
4EEB
330
24FE
100
AcDbEntity
  8
AM_5
100
AcDbLine
 10
172.5684902203453
 20
448.4870557208106
 30
0.0
 11
172.5684902203453
 21
455.4870557208106
 31
0.0
  0
SOLID
  5
4EEC
330
24FE
100
AcDbEntity
  8
AM_5
100
AcDbTrace
 10
172.0684902203453
 20
448.4870557208106
 30
0.0
 11
173.0684902203453
 21
448.4870557208106
 31
0.0
 12
172.5684902203453
 22
445.4870557208106
 32
0.0
 13
172.5684902203453
 23
445.4870557208106
 33
0.0
  0
SOLID
  5
4EED
330
24FE
100
AcDbEntity
  8
AM_5
100
AcDbTrace
 10
172.0684902203453
 20
455.4870557208106
 30
0.0
 11
173.0684902203453
 21
455.4870557208106
 31
0.0
 12
172.5684902203453
 22
458.4870557208106
 32
0.0
 13
172.5684902203453
 23
458.4870557208106
 33
0.0
  0
MTEXT
  5
4EEE
330
24FE
100
AcDbEntity
  8
AM_5
100
AcDbMText
 10
170.1184902203452
 20
451.9870557208107
 30
0.0
 40
3.5
 41
0.0
 71
     5
 72
     1
  1
13
 11
0.0000000000000001
 21
1.0
 31
0.0
 73
     1
 44
1.0
1001
ACAD
1000
MTEXTBEGIN
1070
    73
1070
     1
1070
    44
1040
1.0
1070
    74
1070
     0
1000
MTEXTEND
  0
POINT
  5
4EEF
330
24FE
100
AcDbEntity
  8
Defpoints
 62
     0
100
AcDbPoint
 10
194.0684902203453
 20
445.4870557208106
 30
0.0
  0
POINT
  5
4EF0
330
24FE
100
AcDbEntity
  8
Defpoints
 62
     0
100
AcDbPoint
 10
228.0684902203453
 20
458.4870557208106
 30
0.0
  0
POINT
  5
4EF1
330
24FE
100
AcDbEntity
  8
Defpoints
 62
     0
100
AcDbPoint
 10
172.5684902203453
 20
458.4870557208106
 30
0.0
  0
ENDBLK
  5
2509
330
24FE
100
AcDbEntity
  8
0
100
AcDbBlockEnd
  0
BLOCK
  5
2514
330
250A
100
AcDbEntity
  8
0
100
AcDbBlockBegin
  2
*D9
 70
     1
 10
0.0
 20
0.0
 30
0.0
  3
*D9
  1

  0
LINE
  5
4EF2
330
250A
100
AcDbEntity
  8
AM_5
100
AcDbLine
 10
182.5684902203453
 20
460.9870557208106
 30
0.0
 11
163.0684902203453
 21
460.9870557208106
 31
0.0
  0
LINE
  5
4EF3
330
250A
100
AcDbEntity
  8
AM_5
100
AcDbLine
 10
182.5684902203453
 20
442.9870557208106
 30
0.0
 11
163.0684902203453
 21
442.9870557208106
 31
0.0
  0
LINE
  5
4EF4
330
250A
100
AcDbEntity
  8
AM_5
100
AcDbLine
 10
164.5684902203453
 20
457.9870557208106
 30
0.0
 11
164.5684902203453
 21
445.9870557208106
 31
0.0
  0
SOLID
  5
4EF5
330
250A
100
AcDbEntity
  8
AM_5
100
AcDbTrace
 10
164.0684902203453
 20
457.9870557208106
 30
0.0
 11
165.0684902203453
 21
457.9870557208106
 31
0.0
 12
164.5684902203453
 22
460.9870557208106
 32
0.0
 13
164.5684902203453
 23
460.9870557208106
 33
0.0
  0
SOLID
  5
4EF6
330
250A
100
AcDbEntity
  8
AM_5
100
AcDbTrace
 10
164.0684902203453
 20
445.9870557208106
 30
0.0
 11
165.0684902203453
 21
445.9870557208106
 31
0.0
 12
164.5684902203453
 22
442.9870557208106
 32
0.0
 13
164.5684902203453
 23
442.9870557208106
 33
0.0
  0
MTEXT
  5
4EF7
330
250A
100
AcDbEntity
  8
AM_5
100
AcDbMText
 10
162.1184902203452
 20
451.9870557208107
 30
0.0
 40
3.5
 41
0.0
 71
     5
 72
     1
  1
18
 11
0.0000000000000001
 21
1.0
 31
0.0
 73
     1
 44
1.0
1001
ACAD
1000
MTEXTBEGIN
1070
    73
1070
     1
1070
    44
1040
1.0
1070
    74
1070
     0
1000
MTEXTEND
  0
POINT
  5
4EF8
330
250A
100
AcDbEntity
  8
Defpoints
 62
     0
100
AcDbPoint
 10
183.5684902203453
 20
460.9870557208106
 30
0.0
  0
POINT
  5
4EF9
330
250A
100
AcDbEntity
  8
Defpoints
 62
     0
100
AcDbPoint
 10
183.5684902203453
 20
442.9870557208106
 30
0.0
  0
POINT
  5
4EFA
330
250A
100
AcDbEntity
  8
Defpoints
 62
     0
100
AcDbPoint
 10
164.5684902203453
 20
442.9870557208106
 30
0.0
  0
ENDBLK
  5
2515
330
250A
100
AcDbEntity
  8
0
100
AcDbBlockEnd
  0
BLOCK
  5
2520
330
2516
100
AcDbEntity
  8
0
100
AcDbBlockBegin
  2
*D10
 70
     1
 10
0.0
 20
0.0
 30
0.0
  3
*D10
  1

  0
LINE
  5
4EFB
330
2516
100
AcDbEntity
  8
AM_5
100
AcDbLine
 10
182.5684902203453
 20
442.4870557208106
 30
0.0
 11
182.5684902203453
 21
423.4870557208105
 31
0.0
  0
LINE
  5
4EFC
330
2516
100
AcDbEntity
  8
AM_5
100
AcDbLine
 10
255.0684902203453
 20
441.9870557208106
 30
0.0
 11
255.0684902203453
 21
423.4870557208105
 31
0.0
  0
LINE
  5
4EFD
330
2516
100
AcDbEntity
  8
AM_5
100
AcDbLine
 10
185.5684902203453
 20
424.9870557208105
 30
0.0
 11
252.0684902203453
 21
424.9870557208105
 31
0.0
  0
SOLID
  5
4EFE
330
2516
100
AcDbEntity
  8
AM_5
100
AcDbTrace
 10
185.5684902203453
 20
425.4870557208105
 30
0.0
 11
185.5684902203453
 21
424.4870557208105
 31
0.0
 12
182.5684902203453
 22
424.9870557208105
 32
0.0
 13
182.5684902203453
 23
424.9870557208105
 33
0.0
  0
SOLID
  5
4EFF
330
2516
100
AcDbEntity
  8
AM_5
100
AcDbTrace
 10
252.0684902203453
 20
425.4870557208105
 30
0.0
 11
252.0684902203453
 21
424.4870557208105
 31
0.0
 12
255.0684902203453
 22
424.9870557208105
 32
0.0
 13
255.0684902203453
 23
424.9870557208105
 33
0.0
  0
MTEXT
  5
4F00
330
2516
100
AcDbEntity
  8
AM_5
100
AcDbMText
 10
218.8184902203453
 20
427.4374002089995
 30
0.0
 40
3.5
 41
0.0
 71
     5
 72
     1
  1
72.5
 73
     1
 44
1.0
1001
ACAD
1000
MTEXTBEGIN
1070
    73
1070
     1
1070
    44
1040
1.0
1070
    74
1070
     0
1000
MTEXTEND
  0
POINT
  5
4F01
330
2516
100
AcDbEntity
  8
Defpoints
 62
     0
100
AcDbPoint
 10
182.5684902203453
 20
443.4870557208106
 30
0.0
  0
POINT
  5
4F02
330
2516
100
AcDbEntity
  8
Defpoints
 62
     0
100
AcDbPoint
 10
255.0684902203453
 20
442.9870557208106
 30
0.0
  0
POINT
  5
4F03
330
2516
100
AcDbEntity
  8
Defpoints
 62
     0
100
AcDbPoint
 10
255.0684902203453
 20
424.9870557208105
 30
0.0
  0
ENDBLK
  5
2521
330
2516
100
AcDbEntity
  8
0
100
AcDbBlockEnd
  0
BLOCK
  5
260A
330
25FE
100
AcDbEntity
  8
0
100
AcDbBlockBegin
  2
*D11
 70
     1
 10
0.0
 20
0.0
 30
0.0
  3
*D11
  1

  0
LINE
  5
4F2A
330
25FE
100
AcDbEntity
  8
AM_5
100
AcDbLine
 10
202.0684902203453
 20
405.9683074789023
 30
0.0
 11
205.3186087578247
 21
405.9683074789023
 31
0.0
  0
LINE
  5
4F2B
330
25FE
100
AcDbEntity
  8
AM_5
100
AcDbLine
 10
202.0684902203453
 20
402.9683074789024
 30
0.0
 11
205.3186087578247
 21
402.9683074789024
 31
0.0
  0
LINE
  5
4F2C
330
25FE
100
AcDbEntity
  8
AM_5
100
AcDbLine
 10
203.8186087578247
 20
399.9683074789024
 30
0.0
 11
203.8186087578247
 21
396.9683074789024
 31
0.0
  0
LINE
  5
4F2D
330
25FE
100
AcDbEntity
  8
AM_5
100
AcDbLine
 10
203.8186087578247
 20
408.9683074789023
 30
0.0
 11
203.8186087578247
 21
414.9132822257329
 31
0.0
  0
LINE
  5
4F2E
330
25FE
100
AcDbEntity
  8
AM_5
100
AcDbLine
 10
203.8186087578247
 20
402.9683074789024
 30
0.0
 11
203.8186087578247
 21
405.9683074789023
 31
0.0
  0
SOLID
  5
4F2F
330
25FE
100
AcDbEntity
  8
AM_5
100
AcDbTrace
 10
203.3186087578247
 20
399.9683074789024
 30
0.0
 11
204.3186087578247
 21
399.9683074789024
 31
0.0
 12
203.8186087578247
 22
402.9683074789024
 32
0.0
 13
203.8186087578247
 23
402.9683074789024
 33
0.0
  0
SOLID
  5
4F30
330
25FE
100
AcDbEntity
  8
AM_5
100
AcDbTrace
 10
203.3186087578247
 20
408.9683074789023
 30
0.0
 11
204.3186087578247
 21
408.9683074789023
 31
0.0
 12
203.8186087578247
 22
405.9683074789023
 32
0.0
 13
203.8186087578247
 23
405.9683074789023
 33
0.0
  0
MTEXT
  5
4F31
330
25FE
100
AcDbEntity
  8
AM_5
100
AcDbMText
 10
201.3686087578246
 20
413.4407948523176
 30
0.0
 40
3.5
 41
0.0
 71
     5
 72
     1
  1
3
 11
0.0000000000000001
 21
1.0
 31
0.0
 73
     1
 44
1.0
1001
ACAD
1000
MTEXTBEGIN
1070
    73
1070
     1
1070
    44
1040
1.0
1070
    74
1070
     0
1000
MTEXTEND
  0
POINT
  5
4F32
330
25FE
100
AcDbEntity
  8
Defpoints
 62
     0
100
AcDbPoint
 10
201.0684902203453
 20
405.9683074789023
 30
0.0
  0
POINT
  5
4F33
330
25FE
100
AcDbEntity
  8
Defpoints
 62
     0
100
AcDbPoint
 10
201.0684902203453
 20
402.9683074789024
 30
0.0
  0
POINT
  5
4F34
330
25FE
100
AcDbEntity
  8
Defpoints
 62
     0
100
AcDbPoint
 10
203.8186087578247
 20
402.9683074789024
 30
0.0
  0
ENDBLK
  5
260B
330
25FE
100
AcDbEntity
  8
0
100
AcDbBlockEnd
  0
BLOCK
  5
2621
330
2617
100
AcDbEntity
  8
0
100
AcDbBlockBegin
  2
*D12
 70
     1
 10
0.0
 20
0.0
 30
0.0
  3
*D12
  1

  0
LINE
  5
4F0D
330
2617
100
AcDbEntity
  8
AM_5
100
AcDbLine
 10
182.5684902203453
 20
378.4683074789024
 30
0.0
 11
182.5684902203453
 21
366.0241571472422
 31
0.0
  0
LINE
  5
4F0E
330
2617
100
AcDbEntity
  8
AM_5
100
AcDbLine
 10
207.8184902203453
 20
380.3683074789024
 30
0.0
 11
207.8184902203453
 21
366.0241571472422
 31
0.0
  0
LINE
  5
4F0F
330
2617
100
AcDbEntity
  8
AM_5
100
AcDbLine
 10
185.5684902203453
 20
367.5241571472422
 30
0.0
 11
204.8184902203453
 21
367.5241571472422
 31
0.0
  0
SOLID
  5
4F10
330
2617
100
AcDbEntity
  8
AM_5
100
AcDbTrace
 10
185.5684902203453
 20
368.0241571472422
 30
0.0
 11
185.5684902203453
 21
367.0241571472423
 31
0.0
 12
182.5684902203453
 22
367.5241571472422
 32
0.0
 13
182.5684902203453
 23
367.5241571472422
 33
0.0
  0
SOLID
  5
4F11
330
2617
100
AcDbEntity
  8
AM_5
100
AcDbTrace
 10
204.8184902203453
 20
368.0241571472422
 30
0.0
 11
204.8184902203453
 21
367.0241571472423
 31
0.0
 12
207.8184902203453
 22
367.5241571472422
 32
0.0
 13
207.8184902203453
 23
367.5241571472422
 33
0.0
  0
MTEXT
  5
4F12
330
2617
100
AcDbEntity
  8
AM_5
100
AcDbMText
 10
195.1934902203453
 20
369.9745016354313
 30
0.0
 40
3.5
 41
0.0
 71
     5
 72
     1
  1
25.3
 73
     1
 44
1.0
1001
ACAD
1000
MTEXTBEGIN
1070
    73
1070
     1
1070
    44
1040
1.0
1070
    74
1070
     0
1000
MTEXTEND
  0
POINT
  5
4F13
330
2617
100
AcDbEntity
  8
Defpoints
 62
     0
100
AcDbPoint
 10
182.5684902203453
 20
379.4683074789024
 30
0.0
  0
POINT
  5
4F14
330
2617
100
AcDbEntity
  8
Defpoints
 62
     0
100
AcDbPoint
 10
207.8184902203453
 20
381.3683074789024
 30
0.0
  0
POINT
  5
4F15
330
2617
100
AcDbEntity
  8
Defpoints
 62
     0
100
AcDbPoint
 10
207.8184902203453
 20
367.5241571472422
 30
0.0
  0
ENDBLK
  5
2622
330
2617
100
AcDbEntity
  8
0
100
AcDbBlockEnd
  0
BLOCK
  5
262D
330
2623
100
AcDbEntity
  8
0
100
AcDbBlockBegin
  2
*D13
 70
     1
 10
0.0
 20
0.0
 30
0.0
  3
*D13
  1

  0
LINE
  5
4F16
330
2623
100
AcDbEntity
  8
AM_5
100
AcDbLine
 10
207.8184902203453
 20
380.3683074789024
 30
0.0
 11
207.8184902203453
 21
366.0241571472422
 31
0.0
  0
LINE
  5
4F17
330
2623
100
AcDbEntity
  8
AM_5
100
AcDbLine
 10
222.3184902203453
 20
380.3683074789024
 30
0.0
 11
222.3184902203453
 21
366.0241571472422
 31
0.0
  0
LINE
  5
4F18
330
2623
100
AcDbEntity
  8
AM_5
100
AcDbLine
 10
210.8184902203453
 20
367.5241571472422
 30
0.0
 11
219.3184902203453
 21
367.5241571472422
 31
0.0
  0
SOLID
  5
4F19
330
2623
100
AcDbEntity
  8
AM_5
100
AcDbTrace
 10
210.8184902203453
 20
368.0241571472422
 30
0.0
 11
210.8184902203453
 21
367.0241571472423
 31
0.0
 12
207.8184902203453
 22
367.5241571472422
 32
0.0
 13
207.8184902203453
 23
367.5241571472422
 33
0.0
  0
SOLID
  5
4F1A
330
2623
100
AcDbEntity
  8
AM_5
100
AcDbTrace
 10
219.3184902203453
 20
368.0241571472422
 30
0.0
 11
219.3184902203453
 21
367.0241571472423
 31
0.0
 12
222.3184902203453
 22
367.5241571472422
 32
0.0
 13
222.3184902203453
 23
367.5241571472422
 33
0.0
  0
MTEXT
  5
4F1B
330
2623
100
AcDbEntity
  8
AM_5
100
AcDbMText
 10
215.0684902203453
 20
369.9741571472423
 30
0.0
 40
3.5
 41
0.0
 71
     5
 72
     1
  1
14.5
 73
     1
 44
1.0
1001
ACAD
1000
MTEXTBEGIN
1070
    73
1070
     1
1070
    44
1040
1.0
1070
    74
1070
     0
1000
MTEXTEND
  0
POINT
  5
4F1C
330
2623
100
AcDbEntity
  8
Defpoints
 62
     0
100
AcDbPoint
 10
207.8184902203453
 20
381.3683074789024
 30
0.0
  0
POINT
  5
4F1D
330
2623
100
AcDbEntity
  8
Defpoints
 62
     0
100
AcDbPoint
 10
222.3184902203453
 20
381.3683074789024
 30
0.0
  0
POINT
  5
4F1E
330
2623
100
AcDbEntity
  8
Defpoints
 62
     0
100
AcDbPoint
 10
222.3184902203453
 20
367.5241571472422
 30
0.0
  0
ENDBLK
  5
262E
330
2623
100
AcDbEntity
  8
0
100
AcDbBlockEnd
  0
BLOCK
  5
263B
330
262F
100
AcDbEntity
  8
0
100
AcDbBlockBegin
  2
*D14
 70
     1
 10
0.0
 20
0.0
 30
0.0
  3
*D14
  1

  0
LINE
  5
4F1F
330
262F
100
AcDbEntity
  8
AM_5
100
AcDbLine
 10
195.0684902203453
 20
378.9683074789024
 30
0.0
 11
199.8531179384101
 21
378.9683074789024
 31
0.0
  0
LINE
  5
4F20
330
262F
100
AcDbEntity
  8
AM_5
100
AcDbLine
 10
203.7184902203453
 20
383.9683074789024
 30
0.0
 11
196.8531179384101
 21
383.9683074789024
 31
0.0
  0
LINE
  5
4F21
330
262F
100
AcDbEntity
  8
AM_5
100
AcDbLine
 10
198.3531179384101
 20
375.9683074789024
 30
0.0
 11
198.3531179384101
 21
372.9683074789024
 31
0.0
  0
LINE
  5
4F22
330
262F
100
AcDbEntity
  8
AM_5
100
AcDbLine
 10
198.3531179384101
 20
386.9683074789024
 30
0.0
 11
198.3531179384101
 21
389.9683074789024
 31
0.0
  0
LINE
  5
4F23
330
262F
100
AcDbEntity
  8
AM_5
100
AcDbLine
 10
198.3531179384101
 20
378.9683074789024
 30
0.0
 11
198.3531179384101
 21
383.9683074789024
 31
0.0
  0
SOLID
  5
4F24
330
262F
100
AcDbEntity
  8
AM_5
100
AcDbTrace
 10
197.8531179384101
 20
375.9683074789024
 30
0.0
 11
198.8531179384101
 21
375.9683074789024
 31
0.0
 12
198.3531179384101
 22
378.9683074789024
 32
0.0
 13
198.3531179384101
 23
378.9683074789024
 33
0.0
  0
SOLID
  5
4F25
330
262F
100
AcDbEntity
  8
AM_5
100
AcDbTrace
 10
197.8531179384101
 20
386.9683074789024
 30
0.0
 11
198.8531179384101
 21
386.9683074789024
 31
0.0
 12
198.3531179384101
 22
383.9683074789024
 32
0.0
 13
198.3531179384101
 23
383.9683074789024
 33
0.0
  0
MTEXT
  5
4F26
330
262F
100
AcDbEntity
  8
AM_5
100
AcDbMText
 10
195.9031179384101
 20
381.4683074789024
 30
0.0
 40
3.5
 41
0.0
 71
     5
 72
     1
  1
5
 11
0.0000000000000001
 21
1.0
 31
0.0
 73
     1
 44
1.0
1001
ACAD
1000
MTEXTBEGIN
1070
    73
1070
     1
1070
    44
1040
1.0
1070
    74
1070
     0
1000
MTEXTEND
  0
POINT
  5
4F27
330
262F
100
AcDbEntity
  8
Defpoints
 62
     0
100
AcDbPoint
 10
194.0684902203453
 20
378.9683074789024
 30
0.0
  0
POINT
  5
4F28
330
262F
100
AcDbEntity
  8
Defpoints
 62
     0
100
AcDbPoint
 10
204.7184902203453
 20
383.9683074789024
 30
0.0
  0
POINT
  5
4F29
330
262F
100
AcDbEntity
  8
Defpoints
 62
     0
100
AcDbPoint
 10
198.3531179384101
 20
383.9683074789024
 30
0.0
  0
ENDBLK
  5
263C
330
262F
100
AcDbEntity
  8
0
100
AcDbBlockEnd
  0
BLOCK
  5
2647
330
263D
100
AcDbEntity
  8
0
100
AcDbBlockBegin
  2
*D15
 70
     1
 10
0.0
 20
0.0
 30
0.0
  3
*D15
  1

  0
LINE
  5
4F04
330
263D
100
AcDbEntity
  8
AM_5
100
AcDbLine
 10
256.0684902203453
 20
378.9683074789024
 30
0.0
 11
266.5684902203452
 21
378.9683074789024
 31
0.0
  0
LINE
  5
4F05
330
263D
100
AcDbEntity
  8
AM_5
100
AcDbLine
 10
256.0684902203453
 20
405.9683074789023
 30
0.0
 11
266.5684902203453
 21
405.9683074789023
 31
0.0
  0
LINE
  5
4F06
330
263D
100
AcDbEntity
  8
AM_5
100
AcDbLine
 10
265.0684902203453
 20
381.9683074789024
 30
0.0
 11
265.0684902203453
 21
402.9683074789024
 31
0.0
  0
SOLID
  5
4F07
330
263D
100
AcDbEntity
  8
AM_5
100
AcDbTrace
 10
264.5684902203452
 20
381.9683074789024
 30
0.0
 11
265.5684902203453
 21
381.9683074789024
 31
0.0
 12
265.0684902203453
 22
378.9683074789024
 32
0.0
 13
265.0684902203453
 23
378.9683074789024
 33
0.0
  0
SOLID
  5
4F08
330
263D
100
AcDbEntity
  8
AM_5
100
AcDbTrace
 10
264.5684902203453
 20
402.9683074789024
 30
0.0
 11
265.5684902203453
 21
402.9683074789024
 31
0.0
 12
265.0684902203453
 22
405.9683074789023
 32
0.0
 13
265.0684902203453
 23
405.9683074789023
 33
0.0
  0
MTEXT
  5
4F09
330
263D
100
AcDbEntity
  8
AM_5
100
AcDbMText
 10
262.6181457321562
 20
392.4683074789024
 30
0.0
 40
3.5
 41
0.0
 71
     5
 72
     1
  1
27
 11
0.0000000000000001
 21
1.0
 31
0.0
 73
     1
 44
1.0
1001
ACAD
1000
MTEXTBEGIN
1070
    73
1070
     1
1070
    44
1040
1.0
1070
    74
1070
     0
1000
MTEXTEND
  0
POINT
  5
4F0A
330
263D
100
AcDbEntity
  8
Defpoints
 62
     0
100
AcDbPoint
 10
255.0684902203453
 20
378.9683074789024
 30
0.0
  0
POINT
  5
4F0B
330
263D
100
AcDbEntity
  8
Defpoints
 62
     0
100
AcDbPoint
 10
255.0684902203453
 20
405.9683074789023
 30
0.0
  0
POINT
  5
4F0C
330
263D
100
AcDbEntity
  8
Defpoints
 62
     0
100
AcDbPoint
 10
265.0684902203453
 20
405.9683074789023
 30
0.0
  0
ENDBLK
  5
2648
330
263D
100
AcDbEntity
  8
0
100
AcDbBlockEnd
  0
BLOCK
  5
26D4
330
26CA
100
AcDbEntity
  8
0
100
AcDbBlockBegin
  2
*D16
 70
     1
 10
0.0
 20
0.0
 30
0.0
  3
*D16
  1

  0
LINE
  5
4F35
330
26CA
100
AcDbEntity
  8
AM_5
100
AcDbLine
 10
182.5684902203453
 20
322.5501863058163
 30
0.0
 11
182.5684902203453
 21
311.5501863058163
 31
0.0
  0
LINE
  5
4F36
330
26CA
100
AcDbEntity
  8
AM_5
100
AcDbLine
 10
200.5684902203453
 20
324.3001863058163
 30
0.0
 11
200.5684902203453
 21
311.5501863058163
 31
0.0
  0
LINE
  5
4F37
330
26CA
100
AcDbEntity
  8
AM_5
100
AcDbLine
 10
185.5684902203453
 20
313.0501863058163
 30
0.0
 11
197.5684902203453
 21
313.0501863058163
 31
0.0
  0
SOLID
  5
4F38
330
26CA
100
AcDbEntity
  8
AM_5
100
AcDbTrace
 10
185.5684902203453
 20
313.5501863058163
 30
0.0
 11
185.5684902203453
 21
312.5501863058163
 31
0.0
 12
182.5684902203453
 22
313.0501863058163
 32
0.0
 13
182.5684902203453
 23
313.0501863058163
 33
0.0
  0
SOLID
  5
4F39
330
26CA
100
AcDbEntity
  8
AM_5
100
AcDbTrace
 10
197.5684902203453
 20
313.5501863058163
 30
0.0
 11
197.5684902203453
 21
312.5501863058163
 31
0.0
 12
200.5684902203453
 22
313.0501863058163
 32
0.0
 13
200.5684902203453
 23
313.0501863058163
 33
0.0
  0
MTEXT
  5
4F3A
330
26CA
100
AcDbEntity
  8
AM_5
100
AcDbMText
 10
191.5684902203453
 20
315.5001863058163
 30
0.0
 40
3.5
 41
0.0
 71
     5
 72
     1
  1
18
 73
     1
 44
1.0
1001
ACAD
1000
MTEXTBEGIN
1070
    73
1070
     1
1070
    44
1040
1.0
1070
    74
1070
     0
1000
MTEXTEND
  0
POINT
  5
4F3B
330
26CA
100
AcDbEntity
  8
Defpoints
 62
     0
100
AcDbPoint
 10
182.5684902203453
 20
323.5501863058163
 30
0.0
  0
POINT
  5
4F3C
330
26CA
100
AcDbEntity
  8
Defpoints
 62
     0
100
AcDbPoint
 10
200.5684902203453
 20
325.3001863058163
 30
0.0
  0
POINT
  5
4F3D
330
26CA
100
AcDbEntity
  8
Defpoints
 62
     0
100
AcDbPoint
 10
200.5684902203453
 20
313.0501863058163
 30
0.0
  0
ENDBLK
  5
26D5
330
26CA
100
AcDbEntity
  8
0
100
AcDbBlockEnd
  0
BLOCK
  5
26E0
330
26D6
100
AcDbEntity
  8
0
100
AcDbBlockBegin
  2
*D17
 70
     1
 10
0.0
 20
0.0
 30
0.0
  3
*D17
  1

  0
LINE
  5
4F3E
330
26D6
100
AcDbEntity
  8
AM_5
100
AcDbLine
 10
200.5684902203453
 20
324.3001863058163
 30
0.0
 11
200.5684902203453
 21
311.5501863058163
 31
0.0
  0
LINE
  5
4F3F
330
26D6
100
AcDbEntity
  8
AM_5
100
AcDbLine
 10
229.5684902203453
 20
325.3001863058163
 30
0.0
 11
229.5684902203453
 21
311.5501863058163
 31
0.0
  0
LINE
  5
4F40
330
26D6
100
AcDbEntity
  8
AM_5
100
AcDbLine
 10
203.5684902203453
 20
313.0501863058163
 30
0.0
 11
226.5684902203453
 21
313.0501863058163
 31
0.0
  0
SOLID
  5
4F41
330
26D6
100
AcDbEntity
  8
AM_5
100
AcDbTrace
 10
203.5684902203453
 20
313.5501863058163
 30
0.0
 11
203.5684902203453
 21
312.5501863058163
 31
0.0
 12
200.5684902203453
 22
313.0501863058163
 32
0.0
 13
200.5684902203453
 23
313.0501863058163
 33
0.0
  0
SOLID
  5
4F42
330
26D6
100
AcDbEntity
  8
AM_5
100
AcDbTrace
 10
226.5684902203453
 20
313.5501863058163
 30
0.0
 11
226.5684902203453
 21
312.5501863058163
 31
0.0
 12
229.5684902203453
 22
313.0501863058163
 32
0.0
 13
229.5684902203453
 23
313.0501863058163
 33
0.0
  0
MTEXT
  5
4F43
330
26D6
100
AcDbEntity
  8
AM_5
100
AcDbMText
 10
215.0684902203453
 20
315.5005307940053
 30
0.0
 40
3.5
 41
0.0
 71
     5
 72
     1
  1
29
 73
     1
 44
1.0
1001
ACAD
1000
MTEXTBEGIN
1070
    73
1070
     1
1070
    44
1040
1.0
1070
    74
1070
     0
1000
MTEXTEND
  0
POINT
  5
4F44
330
26D6
100
AcDbEntity
  8
Defpoints
 62
     0
100
AcDbPoint
 10
200.5684902203453
 20
325.3001863058163
 30
0.0
  0
POINT
  5
4F45
330
26D6
100
AcDbEntity
  8
Defpoints
 62
     0
100
AcDbPoint
 10
229.5684902203453
 20
326.3001863058163
 30
0.0
  0
POINT
  5
4F46
330
26D6
100
AcDbEntity
  8
Defpoints
 62
     0
100
AcDbPoint
 10
229.5684902203453
 20
313.0501863058163
 30
0.0
  0
ENDBLK
  5
26E1
330
26D6
100
AcDbEntity
  8
0
100
AcDbBlockEnd
  0
BLOCK
  5
2729
330
271F
100
AcDbEntity
  8
0
100
AcDbBlockBegin
  2
*D18
 70
     1
 10
0.0
 20
0.0
 30
0.0
  3
*D18
  1

  0
LINE
  5
4F47
330
271F
100
AcDbEntity
  8
AM_5
100
AcDbLine
 10
182.5684902203453
 20
341.5501863058163
 30
0.0
 11
182.5684902203453
 21
352.6501873058163
 31
0.0
  0
LINE
  5
4F48
330
271F
100
AcDbEntity
  8
AM_5
100
AcDbLine
 10
215.0684902203453
 20
339.3001863058163
 30
0.0
 11
215.0684902203453
 21
352.6501873058163
 31
0.0
  0
LINE
  5
4F49
330
271F
100
AcDbEntity
  8
AM_5
100
AcDbLine
 10
185.5684902203453
 20
351.1501873058163
 30
0.0
 11
212.0684902203453
 21
351.1501873058163
 31
0.0
  0
SOLID
  5
4F4A
330
271F
100
AcDbEntity
  8
AM_5
100
AcDbTrace
 10
185.5684902203453
 20
351.6501873058163
 30
0.0
 11
185.5684902203453
 21
350.6501873058163
 31
0.0
 12
182.5684902203453
 22
351.1501873058163
 32
0.0
 13
182.5684902203453
 23
351.1501873058163
 33
0.0
  0
SOLID
  5
4F4B
330
271F
100
AcDbEntity
  8
AM_5
100
AcDbTrace
 10
212.0684902203453
 20
351.6501873058163
 30
0.0
 11
212.0684902203453
 21
350.6501873058163
 31
0.0
 12
215.0684902203453
 22
351.1501873058163
 32
0.0
 13
215.0684902203453
 23
351.1501873058163
 33
0.0
  0
MTEXT
  5
4F4C
330
271F
100
AcDbEntity
  8
AM_5
100
AcDbMText
 10
198.8184902203453
 20
353.6005317940053
 30
0.0
 40
3.5
 41
0.0
 71
     5
 72
     1
  1
32.5
 73
     1
 44
1.0
1001
ACAD
1000
MTEXTBEGIN
1070
    73
1070
     1
1070
    44
1040
1.0
1070
    74
1070
     0
1000
MTEXTEND
  0
POINT
  5
4F4D
330
271F
100
AcDbEntity
  8
Defpoints
 62
     0
100
AcDbPoint
 10
182.5684902203453
 20
340.5501863058163
 30
0.0
  0
POINT
  5
4F4E
330
271F
100
AcDbEntity
  8
Defpoints
 62
     0
100
AcDbPoint
 10
215.0684902203453
 20
338.3001863058163
 30
0.0
  0
POINT
  5
4F4F
330
271F
100
AcDbEntity
  8
Defpoints
 62
     0
100
AcDbPoint
 10
215.0684902203453
 20
351.1501873058163
 30
0.0
  0
ENDBLK
  5
272A
330
271F
100
AcDbEntity
  8
0
100
AcDbBlockEnd
  0
BLOCK
  5
274B
330
273F
100
AcDbEntity
  8
0
100
AcDbBlockBegin
  2
*D19
 70
     1
 10
0.0
 20
0.0
 30
0.0
  3
*D19
  1

  0
LINE
  5
4F50
330
273F
100
AcDbEntity
  8
AM_5
100
AcDbLine
 10
259.1776752978874
 20
332.0501863058163
 30
0.0
 11
266.5684902203453
 21
332.0501863058163
 31
0.0
  0
LINE
  5
4F51
330
273F
100
AcDbEntity
  8
AM_5
100
AcDbLine
 10
236.8184902203453
 20
332.5501863058163
 30
0.0
 11
266.5684902203453
 21
332.5501863058163
 31
0.0
  0
LINE
  5
4F52
330
273F
100
AcDbEntity
  8
AM_5
100
AcDbLine
 10
265.0684902203453
 20
329.0501863058163
 30
0.0
 11
265.0684902203453
 21
326.0501863058163
 31
0.0
  0
LINE
  5
4F53
330
273F
100
AcDbEntity
  8
AM_5
100
AcDbLine
 10
265.0684902203453
 20
335.5501863058163
 30
0.0
 11
265.0684902203453
 21
344.9979169581587
 31
0.0
  0
LINE
  5
4F54
330
273F
100
AcDbEntity
  8
AM_5
100
AcDbLine
 10
265.0684902203453
 20
332.0501863058163
 30
0.0
 11
265.0684902203453
 21
332.5501863058163
 31
0.0
  0
SOLID
  5
4F55
330
273F
100
AcDbEntity
  8
AM_5
100
AcDbTrace
 10
264.5684902203453
 20
329.0501863058163
 30
0.0
 11
265.5684902203453
 21
329.0501863058163
 31
0.0
 12
265.0684902203453
 22
332.0501863058163
 32
0.0
 13
265.0684902203453
 23
332.0501863058163
 33
0.0
  0
SOLID
  5
4F56
330
273F
100
AcDbEntity
  8
AM_5
100
AcDbTrace
 10
264.5684902203453
 20
335.5501863058163
 30
0.0
 11
265.5684902203453
 21
335.5501863058163
 31
0.0
 12
265.0684902203453
 22
332.5501863058163
 32
0.0
 13
265.0684902203453
 23
332.5501863058163
 33
0.0
  0
MTEXT
  5
4F57
330
273F
100
AcDbEntity
  8
AM_5
100
AcDbMText
 10
262.6184902203453
 20
341.7740516319875
 30
0.0
 40
3.5
 41
0.0
 71
     5
 72
     1
  1
0.5
 11
0.0000000000000001
 21
1.0
 31
0.0
 73
     1
 44
1.0
1001
ACAD
1000
MTEXTBEGIN
1070
    73
1070
     1
1070
    44
1040
1.0
1070
    74
1070
     0
1000
MTEXTEND
  0
POINT
  5
4F58
330
273F
100
AcDbEntity
  8
Defpoints
 62
     0
100
AcDbPoint
 10
258.1776752978874
 20
332.0501863058163
 30
0.0
  0
POINT
  5
4F59
330
273F
100
AcDbEntity
  8
Defpoints
 62
     0
100
AcDbPoint
 10
235.8184902203453
 20
332.5501863058163
 30
0.0
  0
POINT
  5
4F5A
330
273F
100
AcDbEntity
  8
Defpoints
 62
     0
100
AcDbPoint
 10
265.0684902203453
 20
332.5501863058163
 30
0.0
  0
ENDBLK
  5
274C
330
273F
100
AcDbEntity
  8
0
100
AcDbBlockEnd
  0
BLOCK
  5
2778
330
276C
100
AcDbEntity
  8
0
100
AcDbBlockBegin
  2
*D20
 70
     1
 10
0.0
 20
0.0
 30
0.0
  3
*D20
  1

  0
LINE
  5
4F5B
330
276C
100
AcDbEntity
  8
AM_5
100
AcDbLine
 10
179.9102375205138
 20
332.0501863058163
 30
0.0
 11
171.0684892103453
 21
332.0501863058163
 31
0.0
  0
LINE
  5
4F5C
330
276C
100
AcDbEntity
  8
AM_5
100
AcDbLine
 10
193.3184902203453
 20
331.5501863058163
 30
0.0
 11
171.0684892103453
 21
331.5501863058163
 31
0.0
  0
LINE
  5
4F5D
330
276C
100
AcDbEntity
  8
AM_5
100
AcDbLine
 10
172.5684892103453
 20
335.0501863058163
 30
0.0
 11
172.5684892103453
 21
338.0501863058163
 31
0.0
  0
LINE
  5
4F5E
330
276C
100
AcDbEntity
  8
AM_5
100
AcDbLine
 10
172.5684892103453
 20
328.5501863058163
 30
0.0
 11
172.5684892103453
 21
319.1024556534739
 31
0.0
  0
LINE
  5
4F5F
330
276C
100
AcDbEntity
  8
AM_5
100
AcDbLine
 10
172.5684892103453
 20
332.0501863058163
 30
0.0
 11
172.5684892103453
 21
331.5501863058163
 31
0.0
  0
SOLID
  5
4F60
330
276C
100
AcDbEntity
  8
AM_5
100
AcDbTrace
 10
172.0684892103453
 20
335.0501863058163
 30
0.0
 11
173.0684892103453
 21
335.0501863058163
 31
0.0
 12
172.5684892103453
 22
332.0501863058163
 32
0.0
 13
172.5684892103453
 23
332.0501863058163
 33
0.0
  0
SOLID
  5
4F61
330
276C
100
AcDbEntity
  8
AM_5
100
AcDbTrace
 10
172.0684892103453
 20
328.5501863058163
 30
0.0
 11
173.0684892103453
 21
328.5501863058163
 31
0.0
 12
172.5684892103453
 22
331.5501863058163
 32
0.0
 13
172.5684892103453
 23
331.5501863058163
 33
0.0
  0
MTEXT
  5
4F62
330
276C
100
AcDbEntity
  8
AM_5
100
AcDbMText
 10
170.1184892103453
 20
322.3263209796451
 30
0.0
 40
3.5
 41
0.0
 71
     5
 72
     1
  1
0.5
 11
0.0000000000000001
 21
1.0
 31
0.0
 73
     1
 44
1.0
1001
ACAD
1000
MTEXTBEGIN
1070
    73
1070
     1
1070
    44
1040
1.0
1070
    74
1070
     0
1000
MTEXTEND
  0
POINT
  5
4F63
330
276C
100
AcDbEntity
  8
Defpoints
 62
     0
100
AcDbPoint
 10
180.9102375205138
 20
332.0501863058163
 30
0.0
  0
POINT
  5
4F64
330
276C
100
AcDbEntity
  8
Defpoints
 62
     0
100
AcDbPoint
 10
194.3184902203453
 20
331.5501863058163
 30
0.0
  0
POINT
  5
4F65
330
276C
100
AcDbEntity
  8
Defpoints
 62
     0
100
AcDbPoint
 10
172.5684892103453
 20
331.5501863058163
 30
0.0
  0
ENDBLK
  5
2779
330
276C
100
AcDbEntity
  8
0
100
AcDbBlockEnd
  0
BLOCK
  5
4FEB
330
4FE6
100
AcDbEntity
  8
0
100
AcDbBlockBegin
  2
*S22
 70
     1
 10
0.0
 20
0.0
 30
0.0
  3
*S22
  1

  0
LINE
  5
4FE7
330
4FE6
100
AcDbEntity
  8
AM_5
 62
     5
100
AcDbLine
 10
255.0829377260541
 20
470.774340839636
 30
0.0
 11
240.0292232441081
 21
470.774340839636
 31
0.0
  0
LINE
  5
4FE8
330
4FE6
100
AcDbEntity
  8
AM_5
 62
     5
100
AcDbLine
 10
240.0292232441081
 20
470.774340839636
 30
0.0
 11
235.1167412475119
 21
462.4784456436871
 31
0.0
  0
TRACE
  5
4FE9
330
4FE6
100
AcDbEntity
  8
AM_5
 62
     5
370
    35
100
AcDbTrace
 10
234.7202573740699
 20
462.7132268028291
 30
0.0
 11
235.5132251209539
 21
462.2436644845453
 31
0.0
 12
233.3334012844126
 22
459.4668516179239
 32
0.0
 13
233.3334012844126
 23
459.4668516179239
 33
0.0
  0
MTEXT
  5
4FEA
330
4FE6
100
AcDbEntity
  8
AM_5
 62
     5
100
AcDbMText
 10
255.0829377260541
 20
475.8357945743588
 30
0.0
 40
3.5
 41
0.0
 71
     7
 72
     5
  1

  7
ACISOTS
 73
     1
 44
1.0
1001
ACAD
1000
MTEXTBEGIN
1070
    73
1070
     1
1070
    44
1040
1.0
1070
    74
1070
     0
1000
MTEXTEND
  0
ENDBLK
  5
4FEC
330
4FE6
100
AcDbEntity
  8
0
100
AcDbBlockEnd
  0
BLOCK
  5
4FF3
330
4FEE
100
AcDbEntity
  8
0
100
AcDbBlockBegin
  2
*S23
 70
     1
 10
0.0
 20
0.0
 30
0.0
  3
*S23
  1

  0
LINE
  5
4FEF
330
4FEE
100
AcDbEntity
  8
AM_5
 62
     5
100
AcDbLine
 10
244.6234493446589
 20
368.0649241050529
 30
0.0
 11
231.3302617488363
 21
368.0649241050529
 31
0.0
  0
LINE
  5
4FF0
330
4FEE
100
AcDbEntity
  8
AM_5
 62
     5
100
AcDbLine
 10
231.3302617488363
 20
368.0649241050529
 30
0.0
 11
225.3166374661517
 21
379.7089408947903
 31
0.0
  0
TRACE
  5
4FF1
330
4FEE
100
AcDbEntity
  8
AM_5
 62
     5
370
    35
100
AcDbTrace
 10
225.7260448167947
 20
379.9203818459495
 30
0.0
 11
224.9072301155087
 21
379.497499943631
 31
0.0
 12
223.7105839846198
 22
382.8186984760913
 32
0.0
 13
223.7105839846198
 23
382.8186984760913
 33
0.0
  0
MTEXT
  5
4FF2
330
4FEE
100
AcDbEntity
  8
AM_5
 62
     5
100
AcDbMText
 10
244.6234493446589
 20
373.1263778397757
 30
0.0
 40
3.5
 41
0.0
 71
     7
 72
     5
  1

  7
ACISOTS
 73
     1
 44
1.0
1001
ACAD
1000
MTEXTBEGIN
1070
    73
1070
     1
1070
    44
1040
1.0
1070
    74
1070
     0
1000
MTEXTEND
  0
ENDBLK
  5
4FF4
330
4FEE
100
AcDbEntity
  8
0
100
AcDbBlockEnd
  0
BLOCK
  5
4FFB
330
4FF6
100
AcDbEntity
  8
0
100
AcDbBlockBegin
  2
*S24
 70
     1
 10
0.0
 20
0.0
 30
0.0
  3
*S24
  1

  0
LINE
  5
4FF7
330
4FF6
100
AcDbEntity
  8
AM_5
 62
     5
100
AcDbLine
 10
259.0045473992188
 20
347.249475365194
 30
0.0
 11
242.8325590803954
 21
347.249475365194
 31
0.0
  0
LINE
  5
4FF8
330
4FF6
100
AcDbEntity
  8
AM_5
 62
     5
100
AcDbLine
 10
242.8325590803954
 20
347.249475365194
 30
0.0
 11
235.8136537756335
 21
338.5659654246989
 31
0.0
  0
TRACE
  5
4FF9
330
4FF6
100
AcDbEntity
  8
AM_5
 62
     5
370
    35
100
AcDbTrace
 10
235.4552980905325
 20
338.8556253244839
 30
0.0
 11
236.1720094607343
 21
338.2763055249138
 31
0.0
 12
233.6134683907331
 22
335.8439837436307
 32
0.0
 13
233.6134683907331
 23
335.8439837436307
 33
0.0
  0
MTEXT
  5
4FFA
330
4FF6
100
AcDbEntity
  8
AM_5
 62
     5
100
AcDbMText
 10
259.0045473992188
 20
352.3109290999169
 30
0.0
 40
3.5
 41
0.0
 71
     7
 72
     5
  1

  7
ACISOTS
 73
     1
 44
1.0
1001
ACAD
1000
MTEXTBEGIN
1070
    73
1070
     1
1070
    44
1040
1.0
1070
    74
1070
     0
1000
MTEXTEND
  0
ENDBLK
  5
4FFC
330
4FF6
100
AcDbEntity
  8
0
100
AcDbBlockEnd
  0
BLOCK
  5
5003
330
4FFE
100
AcDbEntity
  8
0
100
AcDbBlockBegin
  2
*S25
 70
     1
 10
0.0
 20
0.0
 30
0.0
  3
*S25
  1

  0
LINE
  5
4FFF
330
4FFE
100
AcDbEntity
  8
AM_5
 62
     5
100
AcDbLine
 10
253.8535648799498
 20
432.4966101936775
 30
0.0
 11
235.8292189058832
 21
432.4966101936775
 31
0.0
  0
LINE
  5
5000
330
4FFE
100
AcDbEntity
  8
AM_5
 62
     5
100
AcDbLine
 10
235.8292189058832
 20
432.4966101936775
 30
0.0
 11
228.7694026559507
 21
446.4531587466624
 31
0.0
  0
TRACE
  5
5001
330
4FFE
100
AcDbEntity
  8
AM_5
 62
     5
370
    35
100
AcDbTrace
 10
229.1805747617518
 20
446.6611470972946
 30
0.0
 11
228.3582305501496
 21
446.2451703960302
 31
0.0
 12
227.1895742791885
 22
449.5763209742736
 32
0.0
 13
227.1895742791885
 23
449.5763209742736
 33
0.0
  0
MTEXT
  5
5002
330
4FFE
100
AcDbEntity
  8
AM_5
 62
     5
100
AcDbMText
 10
253.8535648799498
 20
437.5580639284003
 30
0.0
 40
3.5
 41
0.0
 71
     7
 72
     5
  1

  7
ACISOTS
 73
     1
 44
1.0
1001
ACAD
1000
MTEXTBEGIN
1070
    73
1070
     1
1070
    44
1040
1.0
1070
    74
1070
     0
1000
MTEXTEND
  0
ENDBLK
  5
5004
330
4FFE
100
AcDbEntity
  8
0
100
AcDbBlockEnd
  0
BLOCK
  5
500B
330
5006
100
AcDbEntity
  8
0
100
AcDbBlockBegin
  2
*S26
 70
     1
 10
0.0
 20
0.0
 30
0.0
  3
*S26
  1

  0
LINE
  5
5007
330
5006
100
AcDbEntity
  8
AM_5
 62
     5
100
AcDbLine
 10
269.9672643247744
 20
411.5061056607746
 30
0.0
 11
283.5259943854156
 21
411.5061056607746
 31
0.0
  0
LINE
  5
5008
330
5006
100
AcDbEntity
  8
AM_5
 62
     5
100
AcDbLine
 10
283.5259943854156
 20
411.5061056607746
 30
0.0
 11
290.7179712263588
 21
399.2978818353496
 31
0.0
  0
TRACE
  5
5009
330
5006
100
AcDbEntity
  8
AM_5
 62
     5
370
    35
100
AcDbTrace
 10
290.3209576617673
 20
399.0639974961605
 30
0.0
 11
291.1149847909503
 21
399.5317661745387
 31
0.0
 12
292.494499165583
 22
396.282264405841
 32
0.0
 13
292.494499165583
 23
396.282264405841
 33
0.0
  0
MTEXT
  5
500A
330
5006
100
AcDbEntity
  8
AM_5
 62
     5
100
AcDbMText
 10
269.9672643247744
 20
416.5675593954975
 30
0.0
 40
3.5
 41
0.0
 71
     7
 72
     5
  1

  7
ACISOTS
210
0.0
220
0.0
230
-1.0
 11
-1.0
 21
0.0
 31
0.0
 73
     1
 44
1.0
1001
ACAD
1000
MTEXTBEGIN
1070
    73
1070
     1
1070
    44
1040
1.0
1070
    74
1070
     0
1000
MTEXTEND
  0
ENDBLK
  5
500C
330
5006
100
AcDbEntity
  8
0
100
AcDbBlockEnd
  0
ENDSEC
  0
SECTION
  2
ENTITIES
  0
LINE
  5
21DD
330
1F
100
AcDbEntity
  8
AM_VIS
100
AcDbLine
 10
184.1450386308125
 20
323.1222289848628
 30
0.0
 11
184.9684902203453
 21
323.0501863058163
 31
0.0
  0
LINE
  5
21DE
330
1F
100
AcDbEntity
  8
AM_VIS
100
AcDbLine
 10
184.1450386308125
 20
327.9781436267698
 30
0.0
 11
184.9465012154942
 21
328.0482625171696
 31
0.0
  0
ARC
  5
21DF
330
1F
100
AcDbEntity
  8
AM_VIS
100
AcDbCircle
 10
186.8684902203453
 20
325.5501863058163
 30
0.0
 40
3.984745788629432
100
AcDbArc
 50
160.3478770841344
 51
168.9838463654473
  0
LINE
  5
21E0
330
1F
100
AcDbEntity
  8
AM_VIS
100
AcDbLine
 10
183.115848314098
 20
326.8902899299726
 30
0.0
 11
183.1031881076325
 21
326.9001863058163
 31
0.0
  0
LINE
  5
21E1
330
1F
100
AcDbEntity
  8
AM_VIS
100
AcDbLine
 10
183.1031881076324
 20
324.2001863058163
 30
0.0
 11
183.115848314098
 21
324.2100826816599
 31
0.0
  0
ELLIPSE
  5
21E2
330
1F
100
AcDbEntity
  8
AM_VIS
100
AcDbEllipse
 10
186.0954048313416
 20
325.5501863058163
 30
0.0
 11
0.0
 21
-3.797925352448569
 31
0.0
210
0.0
220
0.0
230
1.0
 40
0.7878555911532167
 41
4.620366885744621
 42
4.804411075025802
  0
LINE
  5
21E3
330
1F
100
AcDbEntity
  8
AM_VIS
100
AcDbLine
 10
183.1158483140979
 20
325.8991863058143
 30
0.0
 11
182.9571699522005
 21
325.8991863058143
 31
0.0
  0
LINE
  5
21E4
330
1F
100
AcDbEntity
  8
AM_VIS
100
AcDbLine
 10
182.9571699522005
 20
325.2011863058143
 30
0.0
 11
183.1158483140982
 21
325.2011863058143
 31
0.0
  0
ARC
  5
21E5
330
1F
100
AcDbEntity
  8
AM_VIS
100
AcDbCircle
 10
186.8684902203453
 20
325.5501863058163
 30
0.0
 40
3.984745788629432
100
AcDbArc
 50
191.0161536345523
 51
199.6521229158656
  0
LINE
  5
21E6
330
1F
100
AcDbEntity
  8
AM_VIS
100
AcDbLine
 10
182.9571699522005
 20
324.7887582002147
 30
0.0
 11
182.9571699522005
 21
325.2011863058143
 31
0.0
  0
LINE
  5
21E7
330
1F
100
AcDbEntity
  8
AM_VIS
100
AcDbLine
 10
182.9571699522005
 20
325.8991863058144
 30
0.0
 11
182.9571699522005
 21
326.3116144114179
 31
0.0
  0
ARC
  5
21E8
330
1F
100
AcDbEntity
  8
AM_VIS
100
AcDbCircle
 10
184.2321943735602
 20
324.1184236829546
 30
0.0
 40
1.0
100
AcDbArc
 50
208.5062230151612
 51
265.0000000000003
  0
ARC
  5
21E9
330
1F
100
AcDbEntity
  8
AM_VIS
100
AcDbCircle
 10
184.2321943735602
 20
326.981948928678
 30
0.0
 40
1.0
100
AcDbArc
 50
94.99999999999975
 51
151.4937769848388
  0
ARC
  5
21EA
330
1F
100
AcDbEntity
  8
AM_VIS
100
AcDbCircle
 10
186.8684902203453
 20
325.5501863058163
 30
0.0
 40
4.0
100
AcDbArc
 50
199.7246335587003
 51
208.5062230151604
  0
ARC
  5
21EB
330
1F
100
AcDbEntity
  8
AM_VIS
100
AcDbCircle
 10
186.8684902203453
 20
325.5501863058163
 30
0.0
 40
4.0
100
AcDbArc
 50
151.4937769848395
 51
160.2753664412997
  0
LINE
  5
21EC
330
1F
100
AcDbEntity
  8
AM_VIS
100
AcDbLine
 10
253.4919418098781
 20
340.9781436267698
 30
0.0
 11
252.6684902203454
 21
341.0501863058163
 31
0.0
  0
LINE
  5
21ED
330
1F
100
AcDbEntity
  8
AM_VIS
100
AcDbLine
 10
253.4919418098781
 20
336.1222289848628
 30
0.0
 11
252.6684902203454
 21
336.0501863058163
 31
0.0
  0
LINE
  5
21EE
330
1F
100
AcDbEntity
  8
AM_VIS
100
AcDbLine
 10
254.5337923330582
 20
339.9001863058162
 30
0.0
 11
254.5211321265926
 21
339.8902899299726
 31
0.0
  0
ARC
  5
21EF
330
1F
100
AcDbEntity
  8
AM_VIS
100
AcDbCircle
 10
250.7684902203453
 20
338.5501863058163
 30
0.0
 40
3.984745788629432
100
AcDbArc
 50
340.3478770841344
 51
348.9838463654476
  0
LINE
  5
21F0
330
1F
100
AcDbEntity
  8
AM_VIS
100
AcDbLine
 10
254.5211321265926
 20
337.2100826816599
 30
0.0
 11
254.5337923330582
 21
337.2001863058163
 31
0.0
  0
LINE
  5
21F1
330
1F
100
AcDbEntity
  8
AM_VIS
100
AcDbLine
 10
254.5211321265924
 20
338.2011863058143
 30
0.0
 11
254.6798104884901
 21
338.2011863058143
 31
0.0
  0
LINE
  5
21F2
330
1F
100
AcDbEntity
  8
AM_VIS
100
AcDbLine
 10
254.6798104884901
 20
338.8991863058143
 30
0.0
 11
254.5211321265928
 21
338.8991863058143
 31
0.0
  0
ELLIPSE
  5
21F3
330
1F
100
AcDbEntity
  8
AM_VIS
100
AcDbEllipse
 10
251.541575609349
 20
338.5501863058163
 30
0.0
 11
0.0
 21
-3.797925352448569
 31
0.0
210
0.0
220
0.0
230
1.0
 40
0.7878555911532165
 41
1.478774232153783
 42
1.662818421434965
  0
ARC
  5
21F4
330
1F
100
AcDbEntity
  8
AM_VIS
100
AcDbCircle
 10
250.7684902203453
 20
338.5501863058163
 30
0.0
 40
3.984745788629432
100
AcDbArc
 50
11.01615363455269
 51
19.65212291586561
  0
LINE
  5
21F5
330
1F
100
AcDbEntity
  8
AM_VIS
100
AcDbLine
 10
254.6798104884901
 20
339.3116144114179
 30
0.0
 11
254.6798104884901
 21
338.8991863058143
 31
0.0
  0
LINE
  5
21F6
330
1F
100
AcDbEntity
  8
AM_VIS
100
AcDbLine
 10
254.6798104884901
 20
338.2011863058143
 30
0.0
 11
254.6798104884901
 21
337.7887582002147
 31
0.0
  0
ARC
  5
21F7
330
1F
100
AcDbEntity
  8
AM_VIS
100
AcDbCircle
 10
253.4047860671304
 20
339.981948928678
 30
0.0
 40
1.0
100
AcDbArc
 50
28.5062230151612
 51
85.00000000000026
  0
ARC
  5
21F8
330
1F
100
AcDbEntity
  8
AM_VIS
100
AcDbCircle
 10
253.4047860671304
 20
337.1184236829546
 30
0.0
 40
1.0
100
AcDbArc
 50
274.9999999999997
 51
331.4937769848388
  0
ARC
  5
21F9
330
1F
100
AcDbEntity
  8
AM_VIS
100
AcDbCircle
 10
250.7684902203453
 20
338.5501863058163
 30
0.0
 40
4.0
100
AcDbArc
 50
331.4937769848388
 51
340.2753664412997
  0
ARC
  5
21FA
330
1F
100
AcDbEntity
  8
AM_VIS
100
AcDbCircle
 10
250.7684902203453
 20
338.5501863058163
 30
0.0
 40
4.0
100
AcDbArc
 50
19.7246335587003
 51
28.50622301516041
  0
LINE
  5
21FE
330
1F
100
AcDbEntity
  8
AM_VIS
100
AcDbLine
 10
252.6684902203454
 20
341.1501863058163
 30
0.0
 11
252.0684902203453
 21
341.1501863058163
 31
0.0
  0
LINE
  5
21FF
330
1F
100
AcDbEntity
  8
AM_VIS
100
AcDbLine
 10
252.6684902203454
 20
335.9501863058163
 30
0.0
 11
252.0684902203453
 21
335.9501863058163
 31
0.0
  0
LINE
  5
2200
330
1F
100
AcDbEntity
  8
AM_VIS
100
AcDbLine
 10
252.6684902203454
 20
341.1501863058163
 30
0.0
 11
252.6684902203454
 21
335.9501863058163
 31
0.0
  0
LINE
  5
2201
330
1F
100
AcDbEntity
  8
AM_VIS
100
AcDbLine
 10
252.0684902203453
 20
339.2643291486706
 30
0.0
 11
252.0684902203453
 21
337.836043462962
 31
0.0
  0
LINE
  5
2202
330
1F
100
AcDbEntity
  8
AM_VIS
100
AcDbLine
 10
252.0684902203453
 20
341.1501863058163
 30
0.0
 11
252.0684902203453
 21
341.0501863058163
 31
0.0
  0
LINE
  5
2203
330
1F
100
AcDbEntity
  8
AM_VIS
100
AcDbLine
 10
185.5684902203453
 20
341.1501863058163
 30
0.0
 11
184.9684902203453
 21
341.1501863058163
 31
0.0
  0
LINE
  5
2204
330
1F
100
AcDbEntity
  8
AM_VIS
100
AcDbLine
 10
185.5684902203453
 20
341.1501863058163
 30
0.0
 11
185.5684902203453
 21
341.0501863058163
 31
0.0
  0
LINE
  5
2205
330
1F
100
AcDbEntity
  8
AM_VIS
100
AcDbLine
 10
184.9684902203453
 20
341.1501863058163
 30
0.0
 11
184.9684902203453
 21
341.0501863058163
 31
0.0
  0
LINE
  5
2206
330
1F
100
AcDbEntity
  8
AM_VIS
100
AcDbLine
 10
185.5684902203453
 20
322.9501863058163
 30
0.0
 11
184.9684902203453
 21
322.9501863058163
 31
0.0
  0
LINE
  5
2207
330
1F
100
AcDbEntity
  8
AM_VIS
100
AcDbLine
 10
185.5684902203453
 20
323.0501863058163
 30
0.0
 11
185.5684902203453
 21
322.9501863058163
 31
0.0
  0
LINE
  5
2208
330
1F
100
AcDbEntity
  8
AM_VIS
100
AcDbLine
 10
185.5684902203453
 20
326.2643291486705
 30
0.0
 11
185.5684902203453
 21
324.8360434629621
 31
0.0
  0
LINE
  5
2209
330
1F
100
AcDbEntity
  8
AM_VIS
100
AcDbLine
 10
184.9684902203453
 20
328.0501863058163
 30
0.0
 11
184.9684902203453
 21
322.9501863058163
 31
0.0
  0
LINE
  5
220A
330
1F
100
AcDbEntity
  8
AM_VIS
100
AcDbLine
 10
255.0684902203453
 20
323.0501863058163
 30
0.0
 11
255.0684902203453
 21
335.5501863058163
 31
0.0
  0
LINE
  5
220B
330
1F
100
AcDbEntity
  8
AM_VIS
100
AcDbLine
 10
238.0684902203453
 20
341.0501863058163
 30
0.0
 11
252.0684902203453
 21
341.0501863058163
 31
0.0
  0
LINE
  5
220C
330
1F
100
AcDbEntity
  8
AM_VIS
100
AcDbLine
 10
252.0684902203453
 20
335.5501863058163
 30
0.0
 11
252.0684902203453
 21
337.836043462962
 31
0.0
  0
LINE
  5
220D
330
1F
100
AcDbEntity
  8
AM_VIS
100
AcDbLine
 10
252.0684902203453
 20
339.2643291486705
 30
0.0
 11
252.0684902203453
 21
341.0501863058163
 31
0.0
  0
LINE
  5
220E
330
1F
100
AcDbEntity
  8
AM_VIS
100
AcDbLine
 10
255.0684902203453
 20
335.5501863058163
 30
0.0
 11
252.0684902203453
 21
335.5501863058163
 31
0.0
  0
LINE
  5
220F
330
1F
100
AcDbEntity
  8
AM_VIS
100
AcDbLine
 10
252.6684902203454
 20
341.0501863058163
 30
0.0
 11
255.0684902203453
 21
341.0501863058163
 31
0.0
  0
LINE
  5
2210
330
1F
100
AcDbEntity
  8
AM_VIS
100
AcDbLine
 10
255.0684902203453
 20
341.0501863058163
 30
0.0
 11
255.0684902203453
 21
338.3001863058163
 31
0.0
  0
LINE
  5
2211
330
1F
100
AcDbEntity
  8
AM_VIS
100
AcDbLine
 10
238.0684902203453
 20
323.0501863058163
 30
0.0
 11
238.0684902203453
 21
341.0501863058163
 31
0.0
  0
LINE
  5
2212
330
1F
100
AcDbEntity
  8
AM_VIS
100
AcDbLine
 10
238.0684902203453
 20
323.0501863058163
 30
0.0
 11
255.0684902203453
 21
323.0501863058163
 31
0.0
  0
LINE
  5
2213
330
1F
100
AcDbEntity
  8
AM_VIS
100
AcDbLine
 10
255.0684902203453
 20
335.5501863058163
 30
0.0
 11
255.0684902203453
 21
338.3001863058163
 31
0.0
  0
LINE
  5
2214
330
1F
100
AcDbEntity
  8
AM_VIS
100
AcDbLine
 10
185.5684902203453
 20
328.0501863058163
 30
0.0
 11
185.5684902203453
 21
326.2643291486705
 31
0.0
  0
LINE
  5
2215
330
1F
100
AcDbEntity
  8
AM_VIS
100
AcDbLine
 10
185.5684902203453
 20
324.8360434629621
 30
0.0
 11
185.5684902203453
 21
323.5501863058163
 31
0.0
  0
LINE
  5
2216
330
1F
100
AcDbEntity
  8
AM_VIS
100
AcDbLine
 10
192.0684902203453
 20
341.0501863058163
 30
0.0
 11
183.0684902203453
 21
341.0501863058163
 31
0.0
  0
LINE
  5
2217
330
1F
100
AcDbEntity
  8
AM_VIS
100
AcDbLine
 10
185.5684902203453
 20
323.0501863058163
 30
0.0
 11
192.0684902203453
 21
323.0501863058163
 31
0.0
  0
LINE
  5
2218
330
1F
100
AcDbEntity
  8
AM_VIS
100
AcDbLine
 10
184.9684902203453
 20
323.0501863058163
 30
0.0
 11
183.0684902203453
 21
323.0501863058163
 31
0.0
  0
LINE
  5
2219
330
1F
100
AcDbEntity
  8
AM_VIS
100
AcDbLine
 10
183.0684902203453
 20
328.0501863058163
 30
0.0
 11
185.5684902203453
 21
328.0501863058163
 31
0.0
  0
ARC
  5
221A
330
1F
100
AcDbEntity
  8
AM_VIS
100
AcDbCircle
 10
183.0684902203453
 20
323.5501863058163
 30
0.0
 40
0.5
100
AcDbArc
 50
180.0
 51
270.0
  0
LINE
  5
221B
330
1F
100
AcDbEntity
  8
AM_VIS
100
AcDbLine
 10
182.5684902203453
 20
325.4501863058163
 30
0.0
 11
182.5684902203453
 21
323.5501863058163
 31
0.0
  0
ARC
  5
221C
330
1F
100
AcDbEntity
  8
AM_VIS
100
AcDbCircle
 10
183.0684902203453
 20
328.5501863058163
 30
0.0
 40
0.5
100
AcDbArc
 50
180.0
 51
270.0
  0
LINE
  5
221D
330
1F
100
AcDbEntity
  8
AM_VIS
100
AcDbLine
 10
182.5684902203453
 20
340.5501863058163
 30
0.0
 11
182.5684902203453
 21
328.5501863058163
 31
0.0
  0
LINE
  5
221E
330
1F
100
AcDbEntity
  8
AM_VIS
100
AcDbLine
 10
192.0684902203453
 20
323.5501863058163
 30
0.0
 11
192.0684902203453
 21
340.5501863058163
 31
0.0
  0
LINE
  5
221F
330
1F
100
AcDbEntity
  8
AM_VIS
100
AcDbLine
 10
185.5684902203453
 20
323.0501863058163
 30
0.0
 11
185.5684902203453
 21
323.5501863058163
 31
0.0
  0
ARC
  5
2220
102
{ACAD_REACTORS
330
272C
102
}
330
1F
100
AcDbEntity
  8
AM_VIS
100
AcDbCircle
 10
183.0684902203453
 20
340.5501863058163
 30
0.0
 40
0.5
100
AcDbArc
 50
90.0
 51
180.0
  0
LINE
  5
2221
330
1F
100
AcDbEntity
  8
AM_VIS
100
AcDbLine
 10
182.5684902203453
 20
328.5501863058163
 30
0.0
 11
182.5684902203453
 21
325.4501863058163
 31
0.0
  0
LINE
  5
2222
330
1F
100
AcDbEntity
  8
AM_VIS
100
AcDbLine
 10
192.0684902203453
 20
323.5501863058163
 30
0.0
 11
192.0684902203453
 21
323.0501863058163
 31
0.0
  0
LINE
  5
2223
330
1F
100
AcDbEntity
  8
AM_VIS
100
AcDbLine
 10
192.0684902203453
 20
341.0501863058163
 30
0.0
 11
192.0684902203453
 21
340.5501863058163
 31
0.0
  0
CIRCLE
  5
2224
330
1F
100
AcDbEntity
  8
AM_VIS
100
AcDbCircle
 10
187.5684902203453
 20
332.0501863058163
 30
0.0
 40
1.199999999999999
  0
LINE
  5
224F
330
1F
100
AcDbEntity
  8
AM_VIS
100
AcDbLine
 10
238.0684902203453
 20
341.0501863058164
 30
0.0
 11
192.0684902203453
 21
341.0501863058164
 31
0.0
  0
LINE
  5
2250
330
1F
100
AcDbEntity
  8
AM_VIS
100
AcDbLine
 10
192.0684902203453
 20
323.0501863058163
 30
0.0
 11
238.0684902203453
 21
323.0501863058163
 31
0.0
  0
LINE
  5
225C
330
1F
100
AcDbEntity
  8
AM_VIS
100
AcDbLine
 10
238.0684902203453
 20
323.5501863058163
 30
0.0
 11
238.0684902203453
 21
340.5501863058163
 31
0.0
  0
LINE
  5
225D
330
1F
100
AcDbEntity
  8
AM_VIS
100
AcDbLine
 10
192.0684902203453
 20
323.5501863058163
 30
0.0
 11
192.0684902203453
 21
340.5501863058163
 31
0.0
  0
CIRCLE
  5
226C
330
1F
100
AcDbEntity
  8
AM_VIS
100
AcDbCircle
 10
198.0684902203453
 20
338.5501863058163
 30
0.0
 40
1.6
  0
CIRCLE
  5
226D
330
1F
100
AcDbEntity
  8
AM_VIS
100
AcDbCircle
 10
232.0684902203453
 20
325.5501863058163
 30
0.0
 40
1.6
  0
LINE
  5
2272
330
1F
100
AcDbEntity
  8
AM_VIS
100
AcDbLine
 10
192.0684902203453
 20
340.5501863058163
 30
0.0
 11
192.0684902203453
 21
341.0501863058164
 31
0.0
  0
LINE
  5
2273
330
1F
100
AcDbEntity
  8
AM_VIS
100
AcDbLine
 10
192.0684902203453
 20
323.0501863058163
 30
0.0
 11
192.0684902203453
 21
323.5501863058163
 31
0.0
  0
LINE
  5
22D6
330
1F
100
AcDbEntity
  8
AM_VIS
100
AcDbLine
 10
184.1450386308125
 20
401.0403501579488
 30
0.0
 11
184.9465012154943
 21
400.970231267549
 31
0.0
  0
LINE
  5
22D7
330
1F
100
AcDbEntity
  8
AM_VIS
100
AcDbLine
 10
184.1450386308125
 20
405.8962647998558
 30
0.0
 11
184.9684902203453
 21
405.9683074789023
 31
0.0
  0
LINE
  5
22D8
330
1F
100
AcDbEntity
  8
AM_VIS
100
AcDbLine
 10
182.9571699522005
 20
403.1193074789023
 30
0.0
 11
183.115848314098
 21
403.1193074789023
 31
0.0
  0
ELLIPSE
  5
22D9
330
1F
100
AcDbEntity
  8
AM_VIS
100
AcDbEllipse
 10
186.0954048313417
 20
403.4683074789024
 30
0.0
 11
0.0
 21
-3.797925352448599
 31
0.0
210
0.0
220
0.0
230
1.0
 40
0.7878555911532376
 41
4.6203668857441
 42
4.804411075025278
  0
LINE
  5
22DA
330
1F
100
AcDbEntity
  8
AM_VIS
100
AcDbLine
 10
183.1031881076324
 20
402.1183074789023
 30
0.0
 11
183.1158483140979
 21
402.1282038547458
 31
0.0
  0
ARC
  5
22DB
330
1F
100
AcDbEntity
  8
AM_VIS
100
AcDbCircle
 10
186.8684902203453
 20
403.4683074789024
 30
0.0
 40
3.984745788629608
100
AcDbArc
 50
160.3478770841344
 51
168.9838463654342
  0
ARC
  5
22DC
330
1F
100
AcDbEntity
  8
AM_VIS
100
AcDbCircle
 10
186.8684902203453
 20
403.4683074789024
 30
0.0
 40
3.984745788629608
100
AcDbArc
 50
191.0161536345626
 51
199.6521229158656
  0
LINE
  5
22DD
330
1F
100
AcDbEntity
  8
AM_VIS
100
AcDbLine
 10
183.1158483140979
 20
404.8084111030588
 30
0.0
 11
183.1031881076324
 21
404.8183074789023
 31
0.0
  0
LINE
  5
22DE
330
1F
100
AcDbEntity
  8
AM_VIS
100
AcDbLine
 10
183.115848314098
 20
403.8173074789024
 30
0.0
 11
182.9571699522005
 21
403.8173074789024
 31
0.0
  0
LINE
  5
22DF
330
1F
100
AcDbEntity
  8
AM_VIS
100
AcDbLine
 10
182.9571699522005
 20
402.7068793732999
 30
0.0
 11
182.9571699522005
 21
403.1193074789023
 31
0.0
  0
LINE
  5
22E0
330
1F
100
AcDbEntity
  8
AM_VIS
100
AcDbLine
 10
182.9571699522005
 20
403.8173074789024
 30
0.0
 11
182.9571699522005
 21
404.2297355845049
 31
0.0
  0
ARC
  5
22E1
330
1F
100
AcDbEntity
  8
AM_VIS
100
AcDbCircle
 10
184.2321943735602
 20
402.0365448560406
 30
0.0
 40
1.0
100
AcDbArc
 50
208.5062230151612
 51
265.0000000000003
  0
ARC
  5
22E2
330
1F
100
AcDbEntity
  8
AM_VIS
100
AcDbCircle
 10
184.2321943735602
 20
404.9000701017641
 30
0.0
 40
1.0
100
AcDbArc
 50
94.99999999999975
 51
151.4937769848388
  0
ARC
  5
22E3
330
1F
100
AcDbEntity
  8
AM_VIS
100
AcDbCircle
 10
186.8684902203453
 20
403.4683074789024
 30
0.0
 40
4.0
100
AcDbArc
 50
151.4937769848395
 51
160.2753664412997
  0
ARC
  5
22E4
330
1F
100
AcDbEntity
  8
AM_VIS
100
AcDbCircle
 10
186.8684902203453
 20
403.4683074789024
 30
0.0
 40
4.0
100
AcDbArc
 50
199.7246335587003
 51
208.5062230151604
  0
LINE
  5
22E5
330
1F
100
AcDbEntity
  8
AM_VIS
100
AcDbLine
 10
253.4919418098781
 20
383.8962647998559
 30
0.0
 11
252.6684902203454
 21
383.9683074789024
 31
0.0
  0
LINE
  5
22E6
330
1F
100
AcDbEntity
  8
AM_VIS
100
AcDbLine
 10
253.4919418098781
 20
379.0403501579489
 30
0.0
 11
252.6684902203454
 21
378.9683074789024
 31
0.0
  0
LINE
  5
22E7
330
1F
100
AcDbEntity
  8
AM_VIS
100
AcDbLine
 10
254.6798104884901
 20
381.8173074789024
 30
0.0
 11
254.5211321265926
 21
381.8173074789024
 31
0.0
  0
ELLIPSE
  5
22E8
330
1F
100
AcDbEntity
  8
AM_VIS
100
AcDbEllipse
 10
251.5415756093489
 20
381.4683074789024
 30
0.0
 11
0.0
 21
-3.797925352448599
 31
0.0
210
0.0
220
0.0
230
1.0
 40
0.7878555911532376
 41
1.478774232154307
 42
1.662818421435485
  0
LINE
  5
22E9
330
1F
100
AcDbEntity
  8
AM_VIS
100
AcDbLine
 10
254.5337923330582
 20
382.8183074789024
 30
0.0
 11
254.5211321265928
 21
382.8084111030589
 31
0.0
  0
ARC
  5
22EA
330
1F
100
AcDbEntity
  8
AM_VIS
100
AcDbCircle
 10
250.7684902203453
 20
381.4683074789024
 30
0.0
 40
3.984745788629608
100
AcDbArc
 50
340.3478770841344
 51
348.9838463654374
  0
ARC
  5
22EB
330
1F
100
AcDbEntity
  8
AM_VIS
100
AcDbCircle
 10
250.7684902203453
 20
381.4683074789024
 30
0.0
 40
3.984745788629608
100
AcDbArc
 50
11.01615363456259
 51
19.65212291586561
  0
LINE
  5
22EC
330
1F
100
AcDbEntity
  8
AM_VIS
100
AcDbLine
 10
254.5211321265928
 20
380.1282038547459
 30
0.0
 11
254.5337923330582
 21
380.1183074789023
 31
0.0
  0
LINE
  5
22ED
330
1F
100
AcDbEntity
  8
AM_VIS
100
AcDbLine
 10
254.5211321265926
 20
381.1193074789024
 30
0.0
 11
254.6798104884901
 21
381.1193074789024
 31
0.0
  0
LINE
  5
22EE
330
1F
100
AcDbEntity
  8
AM_VIS
100
AcDbLine
 10
254.6798104884901
 20
382.2297355845049
 30
0.0
 11
254.6798104884901
 21
381.8173074789024
 31
0.0
  0
LINE
  5
22EF
330
1F
100
AcDbEntity
  8
AM_VIS
100
AcDbLine
 10
254.6798104884901
 20
381.1193074789023
 30
0.0
 11
254.6798104884901
 21
380.7068793732998
 31
0.0
  0
ARC
  5
22F0
330
1F
100
AcDbEntity
  8
AM_VIS
100
AcDbCircle
 10
253.4047860671304
 20
382.9000701017641
 30
0.0
 40
1.0
100
AcDbArc
 50
28.5062230151612
 51
85.00000000000026
  0
ARC
  5
22F1
330
1F
100
AcDbEntity
  8
AM_VIS
100
AcDbCircle
 10
253.4047860671304
 20
380.0365448560407
 30
0.0
 40
1.0
100
AcDbArc
 50
274.9999999999997
 51
331.4937769848388
  0
ARC
  5
22F2
330
1F
100
AcDbEntity
  8
AM_VIS
100
AcDbCircle
 10
250.7684902203453
 20
381.4683074789024
 30
0.0
 40
4.0
100
AcDbArc
 50
331.4937769848396
 51
340.2753664412997
  0
ARC
  5
22F3
330
1F
100
AcDbEntity
  8
AM_VIS
100
AcDbCircle
 10
250.7684902203453
 20
381.4683074789024
 30
0.0
 40
4.0
100
AcDbArc
 50
19.7246335587003
 51
28.50622301516041
  0
ELLIPSE
  5
22F8
330
1F
100
AcDbEntity
  8
AM_VIS
100
AcDbEllipse
 10
252.3981875106799
 20
381.4683074789024
 30
0.0
 11
-7.143441290581794
 21
-0.0000000000000006
 31
0.0
210
0.0
220
0.0
230
1.0
 40
0.3639702342662129
 41
4.712388980384691
 42
4.758559228246637
  0
LINE
  5
22F9
330
1F
100
AcDbEntity
  8
AM_VIS
100
AcDbLine
 10
252.6684902203454
 20
384.0683074789024
 30
0.0
 11
252.3981875106799
 21
384.0683074789024
 31
0.0
  0
LINE
  5
22FA
330
1F
100
AcDbEntity
  8
AM_VIS
100
AcDbLine
 10
252.6684902203454
 20
378.8683074789024
 30
0.0
 11
252.0684902203453
 21
378.8683074789024
 31
0.0
  0
LINE
  5
22FB
330
1F
100
AcDbEntity
  8
AM_VIS
100
AcDbLine
 10
252.6684902203454
 20
384.0683074789024
 30
0.0
 11
252.6684902203454
 21
378.8683074789024
 31
0.0
  0
LINE
  5
22FC
330
1F
100
AcDbEntity
  8
AM_VIS
100
AcDbLine
 10
252.0684902203453
 20
378.9683074789024
 30
0.0
 11
252.0684902203453
 21
378.8683074789024
 31
0.0
  0
LINE
  5
22FD
330
1F
100
AcDbEntity
  8
AM_VIS
100
AcDbLine
 10
252.0684902203453
 20
382.1824503217566
 30
0.0
 11
252.0684902203453
 21
380.7541646360481
 31
0.0
  0
ELLIPSE
  5
22FE
330
1F
100
AcDbEntity
  8
AM_VIS
100
AcDbEllipse
 10
185.2981875106799
 20
403.4683074789024
 30
0.0
 11
-7.143441290581794
 21
-0.0000000000000006
 31
0.0
210
0.0
220
0.0
230
1.0
 40
0.3639702342662129
 41
4.712388980384689
 42
4.758559228246636
  0
LINE
  5
22FF
330
1F
100
AcDbEntity
  8
AM_VIS
100
AcDbLine
 10
185.5684902203453
 20
406.0683074789023
 30
0.0
 11
185.2981875106799
 21
406.0683074789023
 31
0.0
  0
LINE
  5
2300
330
1F
100
AcDbEntity
  8
AM_VIS
100
AcDbLine
 10
185.5684902203453
 20
404.1824503217566
 30
0.0
 11
185.5684902203453
 21
402.754164636048
 31
0.0
  0
LINE
  5
2301
330
1F
100
AcDbEntity
  8
AM_VIS
100
AcDbLine
 10
185.5684902203453
 20
406.0683074789023
 30
0.0
 11
185.5684902203453
 21
405.9683074789023
 31
0.0
  0
LINE
  5
2302
330
1F
100
AcDbEntity
  8
AM_VIS
100
AcDbLine
 10
184.9684902203453
 20
406.065536771822
 30
0.0
 11
184.9684902203453
 21
400.9683074789023
 31
0.0
  0
LINE
  5
2306
330
1F
100
AcDbEntity
  8
AM_VIS
100
AcDbLine
 10
238.0684902203453
 20
378.9683074789024
 30
0.0
 11
252.0684902203453
 21
378.9683074789024
 31
0.0
  0
LINE
  5
2307
330
1F
100
AcDbEntity
  8
AM_VIS
100
AcDbLine
 10
238.0684902203453
 20
405.9683074789023
 30
0.0
 11
255.0684902203453
 21
405.9683074789023
 31
0.0
  0
LINE
  5
2308
330
1F
100
AcDbEntity
  8
AM_VIS
100
AcDbLine
 10
255.0684902203453
 20
384.4683074789024
 30
0.0
 11
255.0684902203453
 21
405.9683074789023
 31
0.0
  0
LINE
  5
2309
330
1F
100
AcDbEntity
  8
AM_VIS
100
AcDbLine
 10
252.0684902203453
 20
378.9683074789024
 30
0.0
 11
252.0684902203453
 21
380.7541646360481
 31
0.0
  0
LINE
  5
230A
330
1F
100
AcDbEntity
  8
AM_VIS
100
AcDbLine
 10
252.0684902203453
 20
382.1824503217566
 30
0.0
 11
252.0684902203453
 21
384.4683074789024
 31
0.0
  0
LINE
  5
230B
330
1F
100
AcDbEntity
  8
AM_VIS
100
AcDbLine
 10
255.0684902203453
 20
381.7183074789024
 30
0.0
 11
255.0684902203453
 21
378.9683074789024
 31
0.0
  0
LINE
  5
230C
330
1F
100
AcDbEntity
  8
AM_VIS
100
AcDbLine
 10
255.0684902203453
 20
378.9683074789024
 30
0.0
 11
252.6684902203454
 21
378.9683074789024
 31
0.0
  0
LINE
  5
230D
330
1F
100
AcDbEntity
  8
AM_VIS
100
AcDbLine
 10
252.0684902203453
 20
384.4683074789024
 30
0.0
 11
255.0684902203453
 21
384.4683074789024
 31
0.0
  0
LINE
  5
230E
330
1F
100
AcDbEntity
  8
AM_VIS
100
AcDbLine
 10
238.0684902203453
 20
378.9683074789024
 30
0.0
 11
238.0684902203453
 21
405.9683074789023
 31
0.0
  0
LINE
  5
230F
330
1F
100
AcDbEntity
  8
AM_VIS
100
AcDbLine
 10
255.0684902203453
 20
381.7183074789024
 30
0.0
 11
255.0684902203453
 21
384.4683074789024
 31
0.0
  0
LINE
  5
2310
330
1F
100
AcDbEntity
  8
AM_VIS
100
AcDbLine
 10
183.0684902203453
 20
378.9683074789024
 30
0.0
 11
192.0684902203453
 21
378.9683074789024
 31
0.0
  0
LINE
  5
2311
330
1F
100
AcDbEntity
  8
AM_VIS
100
AcDbLine
 10
185.5684902203453
 20
400.9683074789023
 30
0.0
 11
183.0684902203453
 21
400.9683074789023
 31
0.0
  0
LINE
  5
2312
330
1F
100
AcDbEntity
  8
AM_VIS
100
AcDbLine
 10
185.5684902203453
 20
405.4683074789023
 30
0.0
 11
185.5684902203453
 21
404.1824503217567
 31
0.0
  0
LINE
  5
2313
330
1F
100
AcDbEntity
  8
AM_VIS
100
AcDbLine
 10
185.5684902203453
 20
402.754164636048
 30
0.0
 11
185.5684902203453
 21
400.9683074789023
 31
0.0
  0
LINE
  5
2314
330
1F
100
AcDbEntity
  8
AM_VIS
100
AcDbLine
 10
192.0684902203453
 20
405.9683074789023
 30
0.0
 11
185.5684902203453
 21
405.9683074789023
 31
0.0
  0
LINE
  5
2315
330
1F
100
AcDbEntity
  8
AM_VIS
100
AcDbLine
 10
183.0684902203453
 20
405.9683074789023
 30
0.0
 11
184.9684902203453
 21
405.9683074789023
 31
0.0
  0
LINE
  5
2316
330
1F
100
AcDbEntity
  8
AM_VIS
100
AcDbLine
 10
182.5684902203453
 20
400.4683074789023
 30
0.0
 11
182.5684902203453
 21
379.4683074789024
 31
0.0
  0
ARC
  5
2317
330
1F
100
AcDbEntity
  8
AM_VIS
100
AcDbCircle
 10
183.0684902203453
 20
400.4683074789023
 30
0.0
 40
0.5
100
AcDbArc
 50
90.0
 51
180.0
  0
LINE
  5
2318
330
1F
100
AcDbEntity
  8
AM_VIS
100
AcDbLine
 10
182.5684902203453
 20
405.4683074789023
 30
0.0
 11
182.5684902203453
 21
403.5683074789024
 31
0.0
  0
ARC
  5
2319
330
1F
100
AcDbEntity
  8
AM_VIS
100
AcDbCircle
 10
183.0684902203453
 20
405.4683074789023
 30
0.0
 40
0.5000000000000001
100
AcDbArc
 50
90.0
 51
180.0
  0
LINE
  5
231A
330
1F
100
AcDbEntity
  8
AM_VIS
100
AcDbLine
 10
192.0684902203453
 20
379.4683074789024
 30
0.0
 11
192.0684902203453
 21
405.4683074789023
 31
0.0
  0
LINE
  5
231B
330
1F
100
AcDbEntity
  8
AM_VIS
100
AcDbLine
 10
185.5684902203453
 20
405.4683074789023
 30
0.0
 11
185.5684902203453
 21
405.9683074789023
 31
0.0
  0
LINE
  5
231C
330
1F
100
AcDbEntity
  8
AM_VIS
100
AcDbLine
 10
182.5684902203453
 20
403.5683074789024
 30
0.0
 11
182.5684902203453
 21
400.4683074789023
 31
0.0
  0
ARC
  5
231D
330
1F
100
AcDbEntity
  8
AM_VIS
100
AcDbCircle
 10
183.0684902203453
 20
379.4683074789024
 30
0.0
 40
0.5
100
AcDbArc
 50
180.0
 51
270.0
  0
LINE
  5
231E
330
1F
100
AcDbEntity
  8
AM_VIS
100
AcDbLine
 10
192.0684902203453
 20
379.4683074789024
 30
0.0
 11
192.0684902203453
 21
378.9683074789024
 31
0.0
  0
LINE
  5
231F
330
1F
100
AcDbEntity
  8
AM_VIS
100
AcDbLine
 10
192.0684902203453
 20
405.9683074789023
 30
0.0
 11
192.0684902203453
 21
405.4683074789023
 31
0.0
  0
LINE
  5
2320
330
1F
100
AcDbEntity
  8
AM_VIS
100
AcDbLine
 10
195.0684902203453
 20
402.9683074789024
 30
0.0
 11
195.0684902203453
 21
405.4683074789023
 31
0.0
  0
LINE
  5
2321
330
1F
100
AcDbEntity
  8
AM_VIS
100
AcDbLine
 10
201.0684902203453
 20
402.9683074789024
 30
0.0
 11
195.0684902203453
 21
402.9683074789024
 31
0.0
  0
LINE
  5
2322
330
1F
100
AcDbEntity
  8
AM_VIS
100
AcDbLine
 10
201.0684902203453
 20
405.4683074789023
 30
0.0
 11
201.0684902203453
 21
402.9683074789024
 31
0.0
  0
LINE
  5
2323
330
1F
100
AcDbEntity
  8
AM_VIS
100
AcDbLine
 10
192.0684902203453
 20
378.9683074789024
 30
0.0
 11
238.0684902203453
 21
378.9683074789024
 31
0.0
  0
LINE
  5
2324
330
1F
100
AcDbEntity
  8
AM_VIS
100
AcDbLine
 10
238.0684902203453
 20
405.9683074789023
 30
0.0
 11
201.0684902203453
 21
405.9683074789023
 31
0.0
  0
LINE
  5
2325
330
1F
100
AcDbEntity
  8
AM_VIS
100
AcDbLine
 10
195.0684902203453
 20
405.9683074789023
 30
0.0
 11
192.0684902203453
 21
405.9683074789023
 31
0.0
  0
LINE
  5
2327
330
1F
100
AcDbEntity
  8
AM_VIS
100
AcDbLine
 10
238.0684902203453
 20
379.4683074789024
 30
0.0
 11
238.0684902203453
 21
405.4683074789023
 31
0.0
  0
LINE
  5
2328
330
1F
100
AcDbEntity
  8
AM_VIS
100
AcDbLine
 10
192.0684902203453
 20
379.4683074789024
 30
0.0
 11
192.0684902203453
 21
405.4683074789023
 31
0.0
  0
CIRCLE
  5
2329
330
1F
100
AcDbEntity
  8
AM_VIS
100
AcDbCircle
 10
222.3184902203453
 20
383.9683074789024
 30
0.0
 40
1.6
  0
CIRCLE
  5
232C
330
1F
100
AcDbEntity
  8
AM_VIS
100
AcDbCircle
 10
207.8184902203453
 20
383.9683074789024
 30
0.0
 40
1.6
  0
LINE
  5
232D
330
1F
100
AcDbEntity
  8
AM_VIS
100
AcDbLine
 10
201.0684902203453
 20
405.4683074789023
 30
0.0
 11
201.0684902203453
 21
405.9683074789023
 31
0.0
  0
LINE
  5
232E
330
1F
100
AcDbEntity
  8
AM_VIS
100
AcDbLine
 10
195.0684902203453
 20
405.9683074789023
 30
0.0
 11
195.0684902203453
 21
405.4683074789023
 31
0.0
  0
LINE
  5
232F
330
1F
100
AcDbEntity
  8
AM_VIS
100
AcDbLine
 10
195.0684902203453
 20
405.9683074789023
 30
0.0
 11
201.0684902203453
 21
405.9683074789023
 31
0.0
  0
LINE
  5
2330
330
1F
100
AcDbEntity
  8
AM_VIS
100
AcDbLine
 10
192.0684902203453
 20
405.4683074789023
 30
0.0
 11
192.0684902203453
 21
405.9683074789023
 31
0.0
  0
LINE
  5
2331
330
1F
100
AcDbEntity
  8
AM_VIS
100
AcDbLine
 10
192.0684902203453
 20
378.9683074789024
 30
0.0
 11
192.0684902203453
 21
379.4683074789024
 31
0.0
  0
LINE
  5
2332
330
1F
100
AcDbEntity
  8
AM_VIS
100
AcDbLine
 10
184.1450386308125
 20
443.0590983998571
 30
0.0
 11
184.9684902203453
 21
442.9870557208106
 31
0.0
  0
LINE
  5
2333
330
1F
100
AcDbEntity
  8
AM_VIS
100
AcDbLine
 10
184.1450386308125
 20
447.9150130417641
 30
0.0
 11
184.9465012154943
 21
447.985131932164
 31
0.0
  0
LINE
  5
2334
330
1F
100
AcDbEntity
  8
AM_VIS
100
AcDbLine
 10
184.9684902203453
 20
445.6070557208106
 30
0.0
 11
184.9684902203453
 21
445.3670557208106
 31
0.0
  0
LINE
  5
2335
330
1F
100
AcDbEntity
  8
AM_VIS
100
AcDbLine
 10
183.1031881076324
 20
444.1370557208106
 30
0.0
 11
183.115848314098
 21
444.1469520966543
 31
0.0
  0
ARC
  5
2336
330
1F
100
AcDbEntity
  8
AM_VIS
100
AcDbCircle
 10
186.8684902203453
 20
445.4870557208106
 30
0.0
 40
3.984745788629432
100
AcDbArc
 50
160.3478770841344
 51
168.9838463654476
  0
LINE
  5
2337
330
1F
100
AcDbEntity
  8
AM_VIS
100
AcDbLine
 10
183.115848314098
 20
446.827159344967
 30
0.0
 11
183.1031881076324
 21
446.8370557208106
 31
0.0
  0
LINE
  5
2338
330
1F
100
AcDbEntity
  8
AM_VIS
100
AcDbLine
 10
183.1158483140982
 20
445.8360557208126
 30
0.0
 11
182.9571699522005
 21
445.8360557208126
 31
0.0
  0
LINE
  5
2339
330
1F
100
AcDbEntity
  8
AM_VIS
100
AcDbLine
 10
182.9571699522005
 20
445.1380557208126
 30
0.0
 11
183.1158483140979
 21
445.1380557208126
 31
0.0
  0
ELLIPSE
  5
233A
330
1F
100
AcDbEntity
  8
AM_VIS
100
AcDbEllipse
 10
186.0954048313416
 20
445.4870557208106
 30
0.0
 11
0.0
 21
-3.797925352448569
 31
0.0
210
0.0
220
0.0
230
1.0
 40
0.7878555911532165
 41
4.620366885743576
 42
4.804411075024757
  0
ARC
  5
233B
330
1F
100
AcDbEntity
  8
AM_VIS
100
AcDbCircle
 10
186.8684902203453
 20
445.4870557208106
 30
0.0
 40
3.984745788629432
100
AcDbArc
 50
191.0161536345527
 51
199.6521229158656
  0
LINE
  5
233C
330
1F
100
AcDbEntity
  8
AM_VIS
100
AcDbLine
 10
182.9571699522005
 20
444.7256276152089
 30
0.0
 11
182.9571699522005
 21
445.1380557208126
 31
0.0
  0
LINE
  5
233D
330
1F
100
AcDbEntity
  8
AM_VIS
100
AcDbLine
 10
182.9571699522005
 20
445.8360557208126
 30
0.0
 11
182.9571699522005
 21
446.2484838264122
 31
0.0
  0
ARC
  5
233E
330
1F
100
AcDbEntity
  8
AM_VIS
100
AcDbCircle
 10
184.2321943735602
 20
444.0552930979489
 30
0.0
 40
1.0
100
AcDbArc
 50
208.5062230151612
 51
265.0000000000003
  0
ARC
  5
233F
330
1F
100
AcDbEntity
  8
AM_VIS
100
AcDbCircle
 10
184.2321943735602
 20
446.9188183436723
 30
0.0
 40
1.0
100
AcDbArc
 50
94.99999999999975
 51
151.4937769848388
  0
ARC
  5
2340
330
1F
100
AcDbEntity
  8
AM_VIS
100
AcDbCircle
 10
186.8684902203453
 20
445.4870557208106
 30
0.0
 40
4.0
100
AcDbArc
 50
151.4937769848395
 51
160.2753664412997
  0
ARC
  5
2341
330
1F
100
AcDbEntity
  8
AM_VIS
100
AcDbCircle
 10
186.8684902203453
 20
445.4870557208106
 30
0.0
 40
4.0
100
AcDbArc
 50
199.7246335587003
 51
208.5062230151604
  0
LINE
  5
2342
330
1F
100
AcDbEntity
  8
AM_VIS
100
AcDbLine
 10
253.4919418098781
 20
460.9150130417641
 30
0.0
 11
252.6684902203454
 21
460.9870557208106
 31
0.0
  0
LINE
  5
2343
330
1F
100
AcDbEntity
  8
AM_VIS
100
AcDbLine
 10
253.4919418098781
 20
456.0590983998571
 30
0.0
 11
252.6684902203454
 21
455.9870557208106
 31
0.0
  0
LINE
  5
2344
330
1F
100
AcDbEntity
  8
AM_VIS
100
AcDbLine
 10
252.6684902203454
 20
458.5854378613703
 30
0.0
 11
252.6684902203454
 21
458.8254378613703
 31
0.0
  0
ARC
  5
2345
330
1F
100
AcDbEntity
  8
AM_VIS
100
AcDbCircle
 10
250.7684902203453
 20
458.4870557208106
 30
0.0
 40
3.984745788629432
100
AcDbArc
 50
340.3478770841344
 51
348.9838463654473
  0
LINE
  5
2346
330
1F
100
AcDbEntity
  8
AM_VIS
100
AcDbLine
 10
254.5211321265926
 20
457.1469520966543
 30
0.0
 11
254.5337923330582
 21
457.1370557208106
 31
0.0
  0
LINE
  5
2347
330
1F
100
AcDbEntity
  8
AM_VIS
100
AcDbLine
 10
254.5337923330582
 20
459.8370557208106
 30
0.0
 11
254.5211321265926
 21
459.827159344967
 31
0.0
  0
ELLIPSE
  5
2348
330
1F
100
AcDbEntity
  8
AM_VIS
100
AcDbEllipse
 10
251.541575609349
 20
458.4870557208106
 30
0.0
 11
0.0
 21
-3.797925352448569
 31
0.0
210
0.0
220
0.0
230
1.0
 40
0.7878555911532167
 41
1.478774232154828
 42
1.662818421436009
  0
LINE
  5
2349
330
1F
100
AcDbEntity
  8
AM_VIS
100
AcDbLine
 10
254.5211321265928
 20
458.1380557208126
 30
0.0
 11
254.6798104884901
 21
458.1380557208126
 31
0.0
  0
LINE
  5
234A
330
1F
100
AcDbEntity
  8
AM_VIS
100
AcDbLine
 10
254.6798104884901
 20
458.8360557208126
 30
0.0
 11
254.5211321265924
 21
458.8360557208126
 31
0.0
  0
ARC
  5
234B
330
1F
100
AcDbEntity
  8
AM_VIS
100
AcDbCircle
 10
250.7684902203453
 20
458.4870557208106
 30
0.0
 40
3.984745788629432
100
AcDbArc
 50
11.01615363455238
 51
19.65212291586561
  0
LINE
  5
234C
330
1F
100
AcDbEntity
  8
AM_VIS
100
AcDbLine
 10
254.6798104884901
 20
459.2484838264121
 30
0.0
 11
254.6798104884901
 21
458.8360557208126
 31
0.0
  0
LINE
  5
234D
330
1F
100
AcDbEntity
  8
AM_VIS
100
AcDbLine
 10
254.6798104884901
 20
458.1380557208126
 30
0.0
 11
254.6798104884901
 21
457.725627615209
 31
0.0
  0
ARC
  5
234E
330
1F
100
AcDbEntity
  8
AM_VIS
100
AcDbCircle
 10
253.4047860671304
 20
459.9188183436723
 30
0.0
 40
1.0
100
AcDbArc
 50
28.5062230151612
 51
85.00000000000026
  0
ARC
  5
234F
330
1F
100
AcDbEntity
  8
AM_VIS
100
AcDbCircle
 10
253.4047860671304
 20
457.0552930979489
 30
0.0
 40
1.0
100
AcDbArc
 50
274.9999999999997
 51
331.4937769848388
  0
ARC
  5
2350
330
1F
100
AcDbEntity
  8
AM_VIS
100
AcDbCircle
 10
250.7684902203453
 20
458.4870557208106
 30
0.0
 40
4.0
100
AcDbArc
 50
19.7246335587003
 51
28.5062230151612
  0
ARC
  5
2351
330
1F
100
AcDbEntity
  8
AM_VIS
100
AcDbCircle
 10
250.7684902203453
 20
458.4870557208106
 30
0.0
 40
4.0
100
AcDbArc
 50
331.4937769848396
 51
340.2753664412997
  0
LINE
  5
2352
330
1F
100
AcDbEntity
  8
AM_VIS
100
AcDbLine
 10
252.0684902203453
 20
458.3670557208106
 30
0.0
 11
252.6684902203454
 21
458.5854378613703
 31
0.0
  0
LINE
  5
2353
330
1F
100
AcDbEntity
  8
AM_VIS
100
AcDbLine
 10
252.6684902203453
 20
458.8254378613703
 30
0.0
 11
252.0684902203453
 21
458.6070557208106
 31
0.0
  0
LINE
  5
2354
330
1F
100
AcDbEntity
  8
AM_VIS
100
AcDbLine
 10
252.6684902203454
 20
461.0870557208106
 30
0.0
 11
252.0684902203453
 21
461.0870557208106
 31
0.0
  0
LINE
  5
2355
330
1F
100
AcDbEntity
  8
AM_VIS
100
AcDbLine
 10
252.6684902203454
 20
455.8870557208106
 30
0.0
 11
252.0684902203453
 21
455.8870557208106
 31
0.0
  0
LINE
  5
2356
330
1F
100
AcDbEntity
  8
AM_VIS
100
AcDbLine
 10
252.6684902203454
 20
461.0870557208106
 30
0.0
 11
252.6684902203454
 21
458.8254378613703
 31
0.0
  0
LINE
  5
2357
330
1F
100
AcDbEntity
  8
AM_VIS
100
AcDbLine
 10
252.6684902203454
 20
458.5854378613703
 30
0.0
 11
252.6684902203454
 21
455.8870557208106
 31
0.0
  0
LINE
  5
2358
330
1F
100
AcDbEntity
  8
AM_VIS
100
AcDbLine
 10
252.0684902203453
 20
459.2011985636649
 30
0.0
 11
252.0684902203453
 21
458.6070557208106
 31
0.0
  0
LINE
  5
2359
330
1F
100
AcDbEntity
  8
AM_VIS
100
AcDbLine
 10
252.0684902203453
 20
461.0870557208106
 30
0.0
 11
252.0684902203453
 21
460.9870557208106
 31
0.0
  0
LINE
  5
235A
330
1F
100
AcDbEntity
  8
AM_VIS
100
AcDbLine
 10
252.0684902203453
 20
458.3670557208106
 30
0.0
 11
252.0684902203453
 21
457.7729128779564
 31
0.0
  0
CIRCLE
  5
235E
330
1F
100
AcDbEntity
  8
AM_VIS
100
AcDbCircle
 10
185.0684902203453
 20
451.9870557208106
 30
0.0
 40
0.0500000000000113
  0
LINE
  5
235F
330
1F
100
AcDbEntity
  8
AM_VIS
100
AcDbLine
 10
184.9684902203453
 20
445.3670557208106
 30
0.0
 11
185.5684902203453
 21
445.5854378613703
 31
0.0
  0
LINE
  5
2360
330
1F
100
AcDbEntity
  8
AM_VIS
100
AcDbLine
 10
185.5684902203453
 20
445.8254378613703
 30
0.0
 11
184.9684902203453
 21
445.6070557208106
 31
0.0
  0
LINE
  5
2361
330
1F
100
AcDbEntity
  8
AM_VIS
100
AcDbLine
 10
185.5684902203453
 20
442.8870557208106
 30
0.0
 11
184.9684902203453
 21
442.8870557208106
 31
0.0
  0
LINE
  5
2362
330
1F
100
AcDbEntity
  8
AM_VIS
100
AcDbLine
 10
185.5684902203453
 20
446.2011985636649
 30
0.0
 11
185.5684902203453
 21
445.8254378613704
 31
0.0
  0
LINE
  5
2363
330
1F
100
AcDbEntity
  8
AM_VIS
100
AcDbLine
 10
185.5684902203453
 20
442.9870557208106
 30
0.0
 11
185.5684902203453
 21
442.8870557208106
 31
0.0
  0
LINE
  5
2364
330
1F
100
AcDbEntity
  8
AM_VIS
100
AcDbLine
 10
185.5684902203453
 20
445.5854378613703
 30
0.0
 11
185.5684902203453
 21
444.7729128779563
 31
0.0
  0
LINE
  5
2365
330
1F
100
AcDbEntity
  8
AM_VIS
100
AcDbLine
 10
184.9684902203453
 20
447.9870557208106
 30
0.0
 11
184.9684902203453
 21
445.6070557208106
 31
0.0
  0
LINE
  5
2366
330
1F
100
AcDbEntity
  8
AM_VIS
100
AcDbLine
 10
184.9684902203453
 20
445.3670557208106
 30
0.0
 11
184.9684902203453
 21
442.8870557208106
 31
0.0
  0
LINE
  5
236A
330
1F
100
AcDbEntity
  8
AM_VIS
100
AcDbLine
 10
252.0684902203453
 20
455.4870557208106
 30
0.0
 11
252.0684902203453
 21
457.7729128779564
 31
0.0
  0
LINE
  5
236B
330
1F
100
AcDbEntity
  8
AM_VIS
100
AcDbLine
 10
252.0684902203453
 20
458.3670557208106
 30
0.0
 11
252.0684902203453
 21
458.6070557208106
 31
0.0
  0
LINE
  5
236C
330
1F
100
AcDbEntity
  8
AM_VIS
100
AcDbLine
 10
252.0684902203453
 20
459.2011985636649
 30
0.0
 11
252.0684902203453
 21
460.9870557208106
 31
0.0
  0
LINE
  5
236D
330
1F
100
AcDbEntity
  8
AM_VIS
100
AcDbLine
 10
255.0684902203453
 20
455.4870557208106
 30
0.0
 11
252.0684902203453
 21
455.4870557208106
 31
0.0
  0
LINE
  5
236E
330
1F
100
AcDbEntity
  8
AM_VIS
100
AcDbLine
 10
255.0684902203453
 20
442.9870557208106
 30
0.0
 11
255.0684902203453
 21
455.4870557208106
 31
0.0
  0
LINE
  5
236F
330
1F
100
AcDbEntity
  8
AM_VIS
100
AcDbLine
 10
255.0684902203453
 20
460.9870557208106
 30
0.0
 11
255.0684902203453
 21
458.2370557208106
 31
0.0
  0
LINE
  5
2370
330
1F
100
AcDbEntity
  8
AM_VIS
100
AcDbLine
 10
238.0684902203453
 20
442.9870557208106
 30
0.0
 11
255.0684902203453
 21
442.9870557208106
 31
0.0
  0
LINE
  5
2371
330
1F
100
AcDbEntity
  8
AM_VIS
100
AcDbLine
 10
238.0684902203453
 20
442.9870557208106
 30
0.0
 11
238.0684902203453
 21
460.9870557208106
 31
0.0
  0
LINE
  5
2372
330
1F
100
AcDbEntity
  8
AM_VIS
100
AcDbLine
 10
252.6684902203454
 20
460.9870557208106
 30
0.0
 11
255.0684902203453
 21
460.9870557208106
 31
0.0
  0
LINE
  5
2373
330
1F
100
AcDbEntity
  8
AM_VIS
100
AcDbLine
 10
238.0684902203453
 20
460.9870557208106
 30
0.0
 11
252.0684902203453
 21
460.9870557208106
 31
0.0
  0
LINE
  5
2374
330
1F
100
AcDbEntity
  8
AM_VIS
100
AcDbLine
 10
255.0684902203453
 20
455.4870557208106
 30
0.0
 11
255.0684902203453
 21
458.2370557208106
 31
0.0
  0
LINE
  5
2375
330
1F
100
AcDbEntity
  8
AM_VIS
100
AcDbLine
 10
184.9684902203453
 20
442.9870557208106
 30
0.0
 11
183.0684902203453
 21
442.9870557208106
 31
0.0
  0
LINE
  5
2376
330
1F
100
AcDbEntity
  8
AM_VIS
100
AcDbLine
 10
185.5684902203453
 20
442.9870557208106
 30
0.0
 11
192.0684902203453
 21
442.9870557208106
 31
0.0
  0
LINE
  5
2377
330
1F
100
AcDbEntity
  8
AM_VIS
100
AcDbLine
 10
185.5684902203453
 20
447.9870557208106
 30
0.0
 11
185.5684902203453
 21
446.2011985636649
 31
0.0
  0
LINE
  5
2378
330
1F
100
AcDbEntity
  8
AM_VIS
100
AcDbLine
 10
185.5684902203453
 20
445.8254378613704
 30
0.0
 11
185.5684902203453
 21
445.5854378613703
 31
0.0
  0
LINE
  5
2379
330
1F
100
AcDbEntity
  8
AM_VIS
100
AcDbLine
 10
185.5684902203453
 20
444.7729128779563
 30
0.0
 11
185.5684902203453
 21
443.4870557208106
 31
0.0
  0
LINE
  5
237A
330
1F
100
AcDbEntity
  8
AM_VIS
100
AcDbLine
 10
183.0684902203453
 20
447.9870557208106
 30
0.0
 11
185.5684902203453
 21
447.9870557208106
 31
0.0
  0
LINE
  5
237B
330
1F
100
AcDbEntity
  8
AM_VIS
100
AcDbLine
 10
192.0684902203453
 20
460.9870557208106
 30
0.0
 11
183.0684902203453
 21
460.9870557208106
 31
0.0
  0
ARC
  5
237C
330
1F
100
AcDbEntity
  8
AM_VIS
100
AcDbCircle
 10
183.0684902203453
 20
443.4870557208106
 30
0.0
 40
0.5000000000000001
100
AcDbArc
 50
180.0
 51
270.0
  0
LINE
  5
237D
330
1F
100
AcDbEntity
  8
AM_VIS
100
AcDbLine
 10
182.5684902203453
 20
445.3870557208106
 30
0.0
 11
182.5684902203453
 21
443.4870557208106
 31
0.0
  0
ARC
  5
237E
330
1F
100
AcDbEntity
  8
AM_VIS
100
AcDbCircle
 10
183.0684902203453
 20
448.4870557208106
 30
0.0
 40
0.5000000000000001
100
AcDbArc
 50
180.0
 51
270.0
  0
LINE
  5
237F
330
1F
100
AcDbEntity
  8
AM_VIS
100
AcDbLine
 10
182.5684902203453
 20
460.4870557208106
 30
0.0
 11
182.5684902203453
 21
448.4870557208106
 31
0.0
  0
LINE
  5
2380
330
1F
100
AcDbEntity
  8
AM_VIS
100
AcDbLine
 10
192.0684902203453
 20
443.4870557208106
 30
0.0
 11
192.0684902203453
 21
460.4870557208106
 31
0.0
  0
LINE
  5
2381
330
1F
100
AcDbEntity
  8
AM_VIS
100
AcDbLine
 10
185.5684902203453
 20
442.9870557208106
 30
0.0
 11
185.5684902203453
 21
443.4870557208106
 31
0.0
  0
LINE
  5
2382
330
1F
100
AcDbEntity
  8
AM_VIS
100
AcDbLine
 10
182.5684902203453
 20
448.4870557208106
 30
0.0
 11
182.5684902203453
 21
445.3870557208106
 31
0.0
  0
ARC
  5
2383
330
1F
100
AcDbEntity
  8
AM_VIS
100
AcDbCircle
 10
183.0684902203453
 20
460.4870557208106
 30
0.0
 40
0.5
100
AcDbArc
 50
90.0
 51
180.0
  0
CIRCLE
  5
2384
330
1F
100
AcDbEntity
  8
AM_VIS
100
AcDbCircle
 10
185.0684902203453
 20
451.9870557208106
 30
0.0
 40
0.65
  0
LINE
  5
2385
330
1F
100
AcDbEntity
  8
AM_VIS
100
AcDbLine
 10
185.0684902203453
 20
452.0370557208106
 30
0.0
 11
185.0684902203453
 21
451.9370557208106
 31
0.0
  0
LINE
  5
2386
330
1F
100
AcDbEntity
  8
AM_VIS
100
AcDbLine
 10
192.0684902203453
 20
460.9870557208106
 30
0.0
 11
192.0684902203453
 21
460.4870557208106
 31
0.0
  0
LINE
  5
2387
330
1F
100
AcDbEntity
  8
AM_VIS
100
AcDbLine
 10
192.0684902203453
 20
443.4870557208106
 30
0.0
 11
192.0684902203453
 21
442.9870557208106
 31
0.0
  0
LINE
  5
2393
330
1F
100
AcDbEntity
  8
AM_VIS
100
AcDbLine
 10
229.0684902203453
 20
460.9870557208106
 30
0.0
 11
235.0684902203453
 21
460.9870557208106
 31
0.0
  0
LINE
  5
2394
330
1F
100
AcDbEntity
  8
AM_VIS
100
AcDbLine
 10
201.0684902203453
 20
442.9870557208105
 30
0.0
 11
195.0684902203453
 21
442.9870557208105
 31
0.0
  0
LINE
  5
2396
330
1F
100
AcDbEntity
  8
AM_VIS
100
AcDbLine
 10
201.0684902203453
 20
442.9870557208105
 30
0.0
 11
238.0684902203453
 21
442.9870557208105
 31
0.0
  0
LINE
  5
2397
330
1F
100
AcDbEntity
  8
AM_VIS
100
AcDbLine
 10
192.0684902203453
 20
442.9870557208105
 30
0.0
 11
195.0684902203453
 21
442.9870557208105
 31
0.0
  0
LINE
  5
2398
330
1F
100
AcDbEntity
  8
AM_VIS
100
AcDbLine
 10
229.0684902203453
 20
460.9870557208106
 30
0.0
 11
192.0684902203453
 21
460.9870557208106
 31
0.0
  0
LINE
  5
2399
330
1F
100
AcDbEntity
  8
AM_VIS
100
AcDbLine
 10
201.0684902203453
 20
445.4870557208106
 30
0.0
 11
201.0684902203453
 21
443.4870557208106
 31
0.0
  0
LINE
  5
239A
330
1F
100
AcDbEntity
  8
AM_VIS
100
AcDbLine
 10
195.0684902203453
 20
443.4870557208106
 30
0.0
 11
195.0684902203453
 21
445.4870557208106
 31
0.0
  0
LINE
  5
239B
330
1F
100
AcDbEntity
  8
AM_VIS
100
AcDbLine
 10
229.0684902203453
 20
458.4870557208106
 30
0.0
 11
229.0684902203453
 21
460.4870557208106
 31
0.0
  0
LINE
  5
239C
330
1F
100
AcDbEntity
  8
AM_VIS
100
AcDbLine
 10
235.0684902203453
 20
460.4870557208106
 30
0.0
 11
235.0684902203453
 21
458.4870557208106
 31
0.0
  0
LINE
  5
239D
330
1F
100
AcDbEntity
  8
AM_VIS
100
AcDbLine
 10
238.0684902203453
 20
460.9870557208106
 30
0.0
 11
235.0684902203453
 21
460.9870557208106
 31
0.0
  0
ARC
  5
239F
330
1F
100
AcDbEntity
  8
AM_VIS
100
AcDbCircle
 10
198.0684902203453
 20
445.4870557208106
 30
0.0
 40
1.600000000000008
100
AcDbArc
 50
142.2387560929671
 51
217.7612439070364
  0
ARC
  5
23A2
330
1F
100
AcDbEntity
  8
AM_VIS
100
AcDbCircle
 10
232.0684902203453
 20
458.4870557208106
 30
0.0
 40
1.600000000000033
100
AcDbArc
 50
322.2387560929636
 51
37.76124390703642
  0
LINE
  5
23AB
330
1F
100
AcDbEntity
  8
AM_VIS
100
AcDbLine
 10
238.0684902203453
 20
443.4870557208106
 30
0.0
 11
238.0684902203453
 21
460.4870557208106
 31
0.0
  0
LINE
  5
23AC
330
1F
100
AcDbEntity
  8
AM_VIS
100
AcDbLine
 10
192.0684902203453
 20
443.4870557208106
 30
0.0
 11
192.0684902203453
 21
460.4870557208106
 31
0.0
  0
ARC
  5
23B3
330
1F
100
AcDbEntity
  8
AM_VIS
100
AcDbCircle
 10
232.0684902203453
 20
458.4870557208106
 30
0.0
 40
1.6
100
AcDbArc
 50
37.76124390703642
 51
322.2387560929636
  0
ARC
  5
23B4
330
1F
100
AcDbEntity
  8
AM_VIS
100
AcDbCircle
 10
198.0684902203453
 20
445.4870557208106
 30
0.0
 40
1.6
100
AcDbArc
 50
217.7612439070364
 51
142.2387560929671
  0
LINE
  5
23B7
330
1F
100
AcDbEntity
  8
AM_VIS
100
AcDbLine
 10
201.0684902203453
 20
442.9870557208105
 30
0.0
 11
201.0684902203453
 21
443.4870557208106
 31
0.0
  0
LINE
  5
23B8
330
1F
100
AcDbEntity
  8
AM_VIS
100
AcDbLine
 10
195.0684902203453
 20
443.4870557208106
 30
0.0
 11
195.0684902203453
 21
442.9870557208105
 31
0.0
  0
LINE
  5
23B9
330
1F
100
AcDbEntity
  8
AM_VIS
100
AcDbLine
 10
229.0684902203453
 20
460.9870557208106
 30
0.0
 11
229.0684902203453
 21
460.4870557208106
 31
0.0
  0
ARC
  5
23BB
330
1F
100
AcDbEntity
  8
AM_VIS
100
AcDbCircle
 10
198.0684902203453
 20
445.4870557208106
 30
0.0
 40
3.0
100
AcDbArc
 50
0.0
 51
180.0
  0
ARC
  5
23BC
330
1F
100
AcDbEntity
  8
AM_VIS
100
AcDbCircle
 10
232.0684902203453
 20
458.4870557208106
 30
0.0
 40
3.0
100
AcDbArc
 50
180.0
 51
0.0
  0
LINE
  5
23BE
330
1F
100
AcDbEntity
  8
AM_VIS
100
AcDbLine
 10
235.0684902203453
 20
460.4870557208106
 30
0.0
 11
235.0684902203453
 21
460.9870557208106
 31
0.0
  0
LINE
  5
23C1
330
1F
100
AcDbEntity
  8
AM_VIS
100
AcDbLine
 10
192.0684902203453
 20
442.9870557208105
 30
0.0
 11
192.0684902203453
 21
443.4870557208106
 31
0.0
  0
LINE
  5
23C2
330
1F
100
AcDbEntity
  8
AM_VIS
100
AcDbLine
 10
192.0684902203453
 20
460.4870557208106
 30
0.0
 11
192.0684902203453
 21
460.9870557208106
 31
0.0
  0
TEXT
  5
2417
330
1F
100
AcDbEntity
  8
AM_5
100
AcDbText
 10
270.432438410519
 20
412.4704319257554
 30
0.0
 40
3.5
  1
PT1/8
100
AcDbText
  0
LINE
  5
241C
330
1F
100
AcDbEntity
  8
AM_7
100
AcDbLine
 10
223.0684902203453
 20
452.9870557208106
 30
0.0
 11
229.3184902203453
 21
452.9870557208106
 31
0.0
1001
GENIUS_GENOREF_13
1005
2420
  0
LINE
  5
241D
330
1F
100
AcDbEntity
  8
AM_7
100
AcDbLine
 10
223.0684902203453
 20
452.9870557208106
 30
0.0
 11
223.0684902203453
 21
459.2370557208106
 31
0.0
1001
GENIUS_GENOREF_13
1005
2420
  0
LINE
  5
241E
330
1F
100
AcDbEntity
  8
AM_7
100
AcDbLine
 10
223.0684902203453
 20
452.9870557208106
 30
0.0
 11
216.8184902203453
 21
452.9870557208106
 31
0.0
1001
GENIUS_GENOREF_13
1005
2420
  0
LINE
  5
241F
330
1F
100
AcDbEntity
  8
AM_7
100
AcDbLine
 10
223.0684902203453
 20
452.9870557208106
 30
0.0
 11
223.0684902203453
 21
446.7370557208106
 31
0.0
1001
GENIUS_GENOREF_13
1005
2420
  0
POINT
  5
2420
330
1F
100
AcDbEntity
  8
0
 60
     1
100
AcDbPoint
 10
-10.57137761620873
 20
209.0234825698111
 30
0.0
1001
GENIUS_GENOLIS_13
1002
{
1000
ENT
1005
241F
1005
241E
1005
241D
1005
241C
1002
}
1001
GENIUS_GENOENT_13
1002
{
1000
MYREF
1005
2420
1002
}
1002
{
1000
GRP
1005
0
1002
}
1001
GENIUS_GENOBJ-N-CRS_13
1002
{
1000
OWNER
1000
GEN
1002
}
1001
GENIUS_GENODEF_13
1002
{
1000
HIER
1070
    10
1002
}
1002
{
1000
MANEDIT
1070
     0
1002
}
1002
{
1000
NOSEL
1070
     0
1002
}
1002
{
1000
BEHIND
1070
     0
1002
}
1002
{
1000
OTHER
1070
     0
1002
}
1002
{
1000
REACTOR
1002
}
  0
LINE
  5
2423
330
1F
100
AcDbEntity
  8
AM_7
100
AcDbLine
 10
207.0684902203453
 20
450.9870557208106
 30
0.0
 11
213.3184902203453
 21
450.9870557208106
 31
0.0
1001
GENIUS_GENOREF_13
1005
2427
  0
LINE
  5
2424
330
1F
100
AcDbEntity
  8
AM_7
100
AcDbLine
 10
207.0684902203453
 20
450.9870557208106
 30
0.0
 11
207.0684902203453
 21
457.2370557208106
 31
0.0
1001
GENIUS_GENOREF_13
1005
2427
  0
LINE
  5
2425
330
1F
100
AcDbEntity
  8
AM_7
100
AcDbLine
 10
207.0684902203453
 20
450.9870557208106
 30
0.0
 11
200.8184902203453
 21
450.9870557208106
 31
0.0
1001
GENIUS_GENOREF_13
1005
2427
  0
LINE
  5
2426
330
1F
100
AcDbEntity
  8
AM_7
100
AcDbLine
 10
207.0684902203453
 20
450.9870557208106
 30
0.0
 11
207.0684902203453
 21
444.7370557208106
 31
0.0
1001
GENIUS_GENOREF_13
1005
2427
  0
POINT
  5
2427
330
1F
100
AcDbEntity
  8
0
 60
     1
100
AcDbPoint
 10
-26.57137761620874
 20
207.0234825698111
 30
0.0
1001
GENIUS_GENOLIS_13
1002
{
1000
ENT
1005
2426
1005
2425
1005
2424
1005
2423
1002
}
1001
GENIUS_GENOENT_13
1002
{
1000
MYREF
1005
2427
1002
}
1002
{
1000
GRP
1005
0
1002
}
1001
GENIUS_GENOBJ-N-CRS_13
1002
{
1000
OWNER
1000
GEN
1002
}
1001
GENIUS_GENODEF_13
1002
{
1000
HIER
1070
    10
1002
}
1002
{
1000
MANEDIT
1070
     0
1002
}
1002
{
1000
NOSEL
1070
     0
1002
}
1002
{
1000
BEHIND
1070
     0
1002
}
1002
{
1000
OTHER
1070
     0
1002
}
1002
{
1000
REACTOR
1002
}
  0
LINE
  5
2435
330
1F
100
AcDbEntity
  8
AM_7
  6
AM_ISO08W050x2
100
AcDbLine
 10
207.8184902203453
 20
383.9683074789024
 30
0.0
 11
210.4184902203453
 21
383.9683074789024
 31
0.0
1001
GENIUS_GENOREF_13
1005
2439
  0
LINE
  5
2436
330
1F
100
AcDbEntity
  8
AM_7
  6
AM_ISO08W050x2
100
AcDbLine
 10
207.8184902203453
 20
383.9683074789024
 30
0.0
 11
207.8184902203453
 21
386.5683074789024
 31
0.0
1001
GENIUS_GENOREF_13
1005
2439
  0
LINE
  5
2437
330
1F
100
AcDbEntity
  8
AM_7
  6
AM_ISO08W050x2
100
AcDbLine
 10
207.8184902203453
 20
383.9683074789024
 30
0.0
 11
205.2184902203453
 21
383.9683074789024
 31
0.0
1001
GENIUS_GENOREF_13
1005
2439
  0
LINE
  5
2438
330
1F
100
AcDbEntity
  8
AM_7
  6
AM_ISO08W050x2
100
AcDbLine
 10
207.8184902203453
 20
383.9683074789024
 30
0.0
 11
207.8184902203453
 21
381.3683074789024
 31
0.0
1001
GENIUS_GENOREF_13
1005
2439
  0
POINT
  5
2439
330
1F
100
AcDbEntity
  8
0
 60
     1
100
AcDbPoint
 10
0.0
 20
0.0
 30
0.0
1001
GENIUS_GENOLIS_13
1002
{
1000
ENT
1005
2438
1005
2437
1005
2436
1005
2435
1002
}
1001
GENIUS_GENODEF_13
1002
{
1000
HIER
1070
    10
1002
}
1002
{
1000
MANEDIT
1070
     0
1002
}
1002
{
1000
NOSEL
1070
     0
1002
}
1002
{
1000
BEHIND
1070
     0
1002
}
1002
{
1000
OTHER
1070
     0
1002
}
1002
{
1000
REACTOR
1002
}
1001
GENIUS_GENOBJ-N-CRS_13
1002
{
1000
OWNER
1000
GEN
1002
}
1001
GENIUS_GENOENT_13
1002
{
1000
MYREF
1005
2439
1002
}
1002
{
1000
GRP
1005
0
1002
}
  0
LINE
  5
2447
330
1F
100
AcDbEntity
  8
AM_7
  6
AM_ISO08W050x2
100
AcDbLine
 10
222.3184902203453
 20
383.9683074789024
 30
0.0
 11
224.9184902203453
 21
383.9683074789024
 31
0.0
1001
GENIUS_GENOREF_13
1005
244B
  0
LINE
  5
2448
330
1F
100
AcDbEntity
  8
AM_7
  6
AM_ISO08W050x2
100
AcDbLine
 10
222.3184902203453
 20
383.9683074789024
 30
0.0
 11
222.3184902203453
 21
386.5683074789024
 31
0.0
1001
GENIUS_GENOREF_13
1005
244B
  0
LINE
  5
2449
330
1F
100
AcDbEntity
  8
AM_7
  6
AM_ISO08W050x2
100
AcDbLine
 10
222.3184902203453
 20
383.9683074789024
 30
0.0
 11
219.7184902203453
 21
383.9683074789024
 31
0.0
1001
GENIUS_GENOREF_13
1005
244B
  0
LINE
  5
244A
330
1F
100
AcDbEntity
  8
AM_7
  6
AM_ISO08W050x2
100
AcDbLine
 10
222.3184902203453
 20
383.9683074789024
 30
0.0
 11
222.3184902203453
 21
381.3683074789024
 31
0.0
1001
GENIUS_GENOREF_13
1005
244B
  0
POINT
  5
244B
330
1F
100
AcDbEntity
  8
0
 60
     1
100
AcDbPoint
 10
0.0
 20
0.0
 30
0.0
1001
GENIUS_GENOENT_13
1002
{
1000
MYREF
1005
244B
1002
}
1002
{
1000
GRP
1005
0
1002
}
1001
GENIUS_GENOBJ-N-CRS_13
1002
{
1000
OWNER
1000
GEN
1002
}
1001
GENIUS_GENODEF_13
1002
{
1000
HIER
1070
    10
1002
}
1002
{
1000
MANEDIT
1070
     0
1002
}
1002
{
1000
NOSEL
1070
     0
1002
}
1002
{
1000
BEHIND
1070
     0
1002
}
1002
{
1000
OTHER
1070
     0
1002
}
1002
{
1000
REACTOR
1002
}
1001
GENIUS_GENOLIS_13
1002
{
1000
ENT
1005
244A
1005
2449
1005
2448
1005
2447
1002
}
  0
LINE
  5
2451
330
1F
100
AcDbEntity
  8
AM_7
100
AcDbLine
 10
229.5684902203453
 20
332.5501863058163
 30
0.0
 11
235.8184902203453
 21
332.5501863058163
 31
0.0
1001
GENIUS_GENOREF_13
1005
2455
  0
LINE
  5
2452
330
1F
100
AcDbEntity
  8
AM_7
100
AcDbLine
 10
229.5684902203453
 20
332.5501863058163
 30
0.0
 11
229.5684902203453
 21
338.8001863058163
 31
0.0
1001
GENIUS_GENOREF_13
1005
2455
  0
LINE
  5
2453
330
1F
100
AcDbEntity
  8
AM_7
100
AcDbLine
 10
229.5684902203453
 20
332.5501863058163
 30
0.0
 11
223.3184902203453
 21
332.5501863058163
 31
0.0
1001
GENIUS_GENOREF_13
1005
2455
  0
LINE
  5
2454
330
1F
100
AcDbEntity
  8
AM_7
100
AcDbLine
 10
229.5684902203453
 20
332.5501863058163
 30
0.0
 11
229.5684902203453
 21
326.3001863058163
 31
0.0
1001
GENIUS_GENOREF_13
1005
2455
  0
POINT
  5
2455
330
1F
100
AcDbEntity
  8
0
 60
     1
100
AcDbPoint
 10
-4.071377616208735
 20
108.1322331586805
 30
0.0
1001
GENIUS_GENOLIS_13
1002
{
1000
ENT
1005
2454
1005
2453
1005
2452
1005
2451
1002
}
1001
GENIUS_GENOENT_13
1002
{
1000
MYREF
1005
2455
1002
}
1002
{
1000
GRP
1005
0
1002
}
1001
GENIUS_GENOBJ-N-CRS_13
1002
{
1000
OWNER
1000
GEN
1002
}
1001
GENIUS_GENODEF_13
1002
{
1000
HIER
1070
    10
1002
}
1002
{
1000
MANEDIT
1070
     0
1002
}
1002
{
1000
NOSEL
1070
     0
1002
}
1002
{
1000
BEHIND
1070
     0
1002
}
1002
{
1000
OTHER
1070
     0
1002
}
1002
{
1000
REACTOR
1002
}
  0
LINE
  5
2458
330
1F
100
AcDbEntity
  8
AM_7
100
AcDbLine
 10
215.0684902203453
 20
332.0501863058163
 30
0.0
 11
221.3184902203453
 21
332.0501863058163
 31
0.0
1001
GENIUS_GENOREF_13
1005
245C
  0
LINE
  5
2459
102
{ACAD_REACTORS
330
272C
102
}
330
1F
100
AcDbEntity
  8
AM_7
100
AcDbLine
 10
215.0684902203453
 20
332.0501863058163
 30
0.0
 11
215.0684902203453
 21
338.3001863058163
 31
0.0
1001
GENIUS_GENOREF_13
1005
245C
  0
LINE
  5
245A
330
1F
100
AcDbEntity
  8
AM_7
100
AcDbLine
 10
215.0684902203453
 20
332.0501863058163
 30
0.0
 11
208.8184902203453
 21
332.0501863058163
 31
0.0
1001
GENIUS_GENOREF_13
1005
245C
  0
LINE
  5
245B
330
1F
100
AcDbEntity
  8
AM_7
100
AcDbLine
 10
215.0684902203453
 20
332.0501863058163
 30
0.0
 11
215.0684902203453
 21
325.8001863058163
 31
0.0
1001
GENIUS_GENOREF_13
1005
245C
  0
POINT
  5
245C
330
1F
100
AcDbEntity
  8
0
 60
     1
100
AcDbPoint
 10
-18.57137761620873
 20
107.6322331586805
 30
0.0
1001
GENIUS_GENOLIS_13
1002
{
1000
ENT
1005
245B
1005
245A
1005
2459
1005
2458
1002
}
1001
GENIUS_GENOENT_13
1002
{
1000
MYREF
1005
245C
1002
}
1002
{
1000
GRP
1005
0
1002
}
1001
GENIUS_GENOBJ-N-CRS_13
1002
{
1000
OWNER
1000
GEN
1002
}
1001
GENIUS_GENODEF_13
1002
{
1000
HIER
1070
    10
1002
}
1002
{
1000
MANEDIT
1070
     0
1002
}
1002
{
1000
NOSEL
1070
     0
1002
}
1002
{
1000
BEHIND
1070
     0
1002
}
1002
{
1000
OTHER
1070
     0
1002
}
1002
{
1000
REACTOR
1002
}
  0
LINE
  5
245F
330
1F
100
AcDbEntity
  8
AM_7
100
AcDbLine
 10
200.5684902203453
 20
331.5501863058163
 30
0.0
 11
206.8184902203453
 21
331.5501863058163
 31
0.0
1001
GENIUS_GENOREF_13
1005
2463
  0
LINE
  5
2460
330
1F
100
AcDbEntity
  8
AM_7
100
AcDbLine
 10
200.5684902203453
 20
331.5501863058163
 30
0.0
 11
200.5684902203453
 21
337.8001863058163
 31
0.0
1001
GENIUS_GENOREF_13
1005
2463
  0
LINE
  5
2461
102
{ACAD_REACTORS
330
277B
102
}
330
1F
100
AcDbEntity
  8
AM_7
100
AcDbLine
 10
200.5684902203453
 20
331.5501863058163
 30
0.0
 11
194.3184902203453
 21
331.5501863058163
 31
0.0
1001
GENIUS_GENOREF_13
1005
2463
  0
LINE
  5
2462
330
1F
100
AcDbEntity
  8
AM_7
100
AcDbLine
 10
200.5684902203453
 20
331.5501863058163
 30
0.0
 11
200.5684902203453
 21
325.3001863058163
 31
0.0
1001
GENIUS_GENOREF_13
1005
2463
  0
POINT
  5
2463
330
1F
100
AcDbEntity
  8
0
 60
     1
100
AcDbPoint
 10
-33.07137761620874
 20
107.1322331586805
 30
0.0
1001
GENIUS_GENOLIS_13
1002
{
1000
ENT
1005
2462
1005
2461
1005
2460
1005
245F
1002
}
1001
GENIUS_GENOENT_13
1002
{
1000
MYREF
1005
2463
1002
}
1002
{
1000
GRP
1005
0
1002
}
1001
GENIUS_GENOBJ-N-CRS_13
1002
{
1000
OWNER
1000
GEN
1002
}
1001
GENIUS_GENODEF_13
1002
{
1000
HIER
1070
    10
1002
}
1002
{
1000
MANEDIT
1070
     0
1002
}
1002
{
1000
NOSEL
1070
     0
1002
}
1002
{
1000
BEHIND
1070
     0
1002
}
1002
{
1000
OTHER
1070
     0
1002
}
1002
{
1000
REACTOR
1002
}
  0
LINE
  5
2471
330
1F
100
AcDbEntity
  8
AM_7
  6
AM_ISO08W050x2
100
AcDbLine
 10
198.0684902203453
 20
338.5501863058163
 30
0.0
 11
200.6684902203454
 21
338.5501863058163
 31
0.0
1001
GENIUS_GENOREF_13
1005
2475
  0
LINE
  5
2472
330
1F
100
AcDbEntity
  8
AM_7
  6
AM_ISO08W050x2
100
AcDbLine
 10
198.0684902203453
 20
338.5501863058163
 30
0.0
 11
198.0684902203453
 21
341.1501863058163
 31
0.0
1001
GENIUS_GENOREF_13
1005
2475
  0
LINE
  5
2473
330
1F
100
AcDbEntity
  8
AM_7
  6
AM_ISO08W050x2
100
AcDbLine
 10
198.0684902203453
 20
338.5501863058163
 30
0.0
 11
195.4684902203453
 21
338.5501863058163
 31
0.0
1001
GENIUS_GENOREF_13
1005
2475
  0
LINE
  5
2474
330
1F
100
AcDbEntity
  8
AM_7
  6
AM_ISO08W050x2
100
AcDbLine
 10
198.0684902203453
 20
338.5501863058163
 30
0.0
 11
198.0684902203453
 21
335.9501863058163
 31
0.0
1001
GENIUS_GENOREF_13
1005
2475
  0
POINT
  5
2475
330
1F
100
AcDbEntity
  8
0
 60
     1
100
AcDbPoint
 10
0.0
 20
0.0
 30
0.0
1001
GENIUS_GENOLIS_13
1002
{
1000
ENT
1005
2474
1005
2473
1005
2472
1005
2471
1002
}
1001
GENIUS_GENOENT_13
1002
{
1000
MYREF
1005
2475
1002
}
1002
{
1000
GRP
1005
0
1002
}
1001
GENIUS_GENOBJ-N-CRS_13
1002
{
1000
OWNER
1000
GEN
1002
}
1001
GENIUS_GENODEF_13
1002
{
1000
HIER
1070
    10
1002
}
1002
{
1000
MANEDIT
1070
     0
1002
}
1002
{
1000
NOSEL
1070
     0
1002
}
1002
{
1000
BEHIND
1070
     0
1002
}
1002
{
1000
OTHER
1070
     0
1002
}
1002
{
1000
REACTOR
1002
}
  0
LINE
  5
2483
330
1F
100
AcDbEntity
  8
AM_7
  6
AM_ISO08W050x2
100
AcDbLine
 10
232.0684902203453
 20
325.5501863058163
 30
0.0
 11
234.6684902203453
 21
325.5501863058163
 31
0.0
1001
GENIUS_GENOREF_13
1005
2487
  0
LINE
  5
2484
330
1F
100
AcDbEntity
  8
AM_7
  6
AM_ISO08W050x2
100
AcDbLine
 10
232.0684902203453
 20
325.5501863058163
 30
0.0
 11
232.0684902203453
 21
328.1501863058163
 31
0.0
1001
GENIUS_GENOREF_13
1005
2487
  0
LINE
  5
2485
330
1F
100
AcDbEntity
  8
AM_7
  6
AM_ISO08W050x2
100
AcDbLine
 10
232.0684902203453
 20
325.5501863058163
 30
0.0
 11
229.4684902203453
 21
325.5501863058163
 31
0.0
1001
GENIUS_GENOREF_13
1005
2487
  0
LINE
  5
2486
330
1F
100
AcDbEntity
  8
AM_7
  6
AM_ISO08W050x2
100
AcDbLine
 10
232.0684902203453
 20
325.5501863058163
 30
0.0
 11
232.0684902203453
 21
322.9501863058163
 31
0.0
1001
GENIUS_GENOREF_13
1005
2487
  0
POINT
  5
2487
330
1F
100
AcDbEntity
  8
0
 60
     1
100
AcDbPoint
 10
0.0
 20
0.0
 30
0.0
1001
GENIUS_GENOBJ-N-CRS_13
1002
{
1000
OWNER
1000
GEN
1002
}
1001
GENIUS_GENODEF_13
1002
{
1000
HIER
1070
    10
1002
}
1002
{
1000
MANEDIT
1070
     0
1002
}
1002
{
1000
NOSEL
1070
     0
1002
}
1002
{
1000
BEHIND
1070
     0
1002
}
1002
{
1000
OTHER
1070
     0
1002
}
1002
{
1000
REACTOR
1002
}
1001
GENIUS_GENOENT_13
1002
{
1000
MYREF
1005
2487
1002
}
1002
{
1000
GRP
1005
0
1002
}
1001
GENIUS_GENOLIS_13
1002
{
1000
ENT
1005
2486
1005
2485
1005
2484
1005
2483
1002
}
  0
LINE
  5
2495
330
1F
100
AcDbEntity
  8
AM_7
  6
AM_ISO08W050x2
100
AcDbLine
 10
198.0684902203453
 20
445.4870557208106
 30
0.0
 11
202.0684902203453
 21
445.4870557208106
 31
0.0
1001
GENIUS_GENOREF_13
1005
2499
  0
LINE
  5
2496
330
1F
100
AcDbEntity
  8
AM_7
  6
AM_ISO08W050x2
100
AcDbLine
 10
198.0684902203453
 20
445.4870557208106
 30
0.0
 11
198.0684902203453
 21
449.4870557208106
 31
0.0
1001
GENIUS_GENOREF_13
1005
2499
  0
LINE
  5
2497
330
1F
100
AcDbEntity
  8
AM_7
  6
AM_ISO08W050x2
100
AcDbLine
 10
198.0684902203453
 20
445.4870557208106
 30
0.0
 11
194.0684902203453
 21
445.4870557208106
 31
0.0
1001
GENIUS_GENOREF_13
1005
2499
  0
LINE
  5
2498
330
1F
100
AcDbEntity
  8
AM_7
  6
AM_ISO08W050x2
100
AcDbLine
 10
198.0684902203453
 20
445.4870557208106
 30
0.0
 11
198.0684902203453
 21
441.4870557208106
 31
0.0
1001
GENIUS_GENOREF_13
1005
2499
  0
POINT
  5
2499
330
1F
100
AcDbEntity
  8
0
 60
     1
100
AcDbPoint
 10
0.0
 20
0.0
 30
0.0
1001
GENIUS_GENODEF_13
1002
{
1000
HIER
1070
    10
1002
}
1002
{
1000
MANEDIT
1070
     0
1002
}
1002
{
1000
NOSEL
1070
     0
1002
}
1002
{
1000
BEHIND
1070
     0
1002
}
1002
{
1000
OTHER
1070
     0
1002
}
1002
{
1000
REACTOR
1002
}
1001
GENIUS_GENOLIS_13
1002
{
1000
ENT
1005
2498
1005
2497
1005
2496
1005
2495
1002
}
1001
GENIUS_GENOENT_13
1002
{
1000
MYREF
1005
2499
1002
}
1002
{
1000
GRP
1005
0
1002
}
1001
GENIUS_GENOBJ-N-CRS_13
1002
{
1000
OWNER
1000
GEN
1002
}
  0
LINE
  5
24A7
330
1F
100
AcDbEntity
  8
AM_7
  6
AM_ISO08W050x2
100
AcDbLine
 10
232.0684902203453
 20
458.4870557208106
 30
0.0
 11
236.0684902203453
 21
458.4870557208106
 31
0.0
1001
GENIUS_GENOREF_13
1005
24AB
  0
LINE
  5
24A8
330
1F
100
AcDbEntity
  8
AM_7
  6
AM_ISO08W050x2
100
AcDbLine
 10
232.0684902203453
 20
458.4870557208106
 30
0.0
 11
232.0684902203453
 21
462.4870557208106
 31
0.0
1001
GENIUS_GENOREF_13
1005
24AB
  0
LINE
  5
24A9
330
1F
100
AcDbEntity
  8
AM_7
  6
AM_ISO08W050x2
100
AcDbLine
 10
232.0684902203453
 20
458.4870557208106
 30
0.0
 11
228.0684902203453
 21
458.4870557208106
 31
0.0
1001
GENIUS_GENOREF_13
1005
24AB
  0
LINE
  5
24AA
330
1F
100
AcDbEntity
  8
AM_7
  6
AM_ISO08W050x2
100
AcDbLine
 10
232.0684902203453
 20
458.4870557208106
 30
0.0
 11
232.0684902203453
 21
454.4870557208106
 31
0.0
1001
GENIUS_GENOREF_13
1005
24AB
  0
POINT
  5
24AB
330
1F
100
AcDbEntity
  8
0
 60
     1
100
AcDbPoint
 10
0.0
 20
0.0
 30
0.0
1001
GENIUS_GENOLIS_13
1002
{
1000
ENT
1005
24AA
1005
24A9
1005
24A8
1005
24A7
1002
}
1001
GENIUS_GENOENT_13
1002
{
1000
MYREF
1005
24AB
1002
}
1002
{
1000
GRP
1005
0
1002
}
1001
GENIUS_GENOBJ-N-CRS_13
1002
{
1000
OWNER
1000
GEN
1002
}
1001
GENIUS_GENODEF_13
1002
{
1000
HIER
1070
    10
1002
}
1002
{
1000
MANEDIT
1070
     0
1002
}
1002
{
1000
NOSEL
1070
     0
1002
}
1002
{
1000
BEHIND
1070
     0
1002
}
1002
{
1000
OTHER
1070
     0
1002
}
1002
{
1000
REACTOR
1002
}
  0
LINE
  5
24B8
102
{ACAD_REACTORS
330
277B
102
}
330
1F
100
AcDbEntity
  8
AM_7
100
AcDbLine
 10
180.9102375205138
 20
332.0501863058163
 30
0.0
 11
258.4283269884541
 21
332.0501863058163
 31
0.0
1001
GENIUS_GENOBJ-N-CEN_13
1002
{
1000
OWNER
1000
GEN
1002
}
1001
GENIUS_GENODEF_13
1002
{
1000
HIER
1070
     0
1002
}
1002
{
1000
MANEDIT
1070
     0
1002
}
1002
{
1000
NOSEL
1070
     0
1002
}
1002
{
1000
BEHIND
1070
     0
1002
}
1002
{
1000
OTHER
1070
     0
1002
}
1002
{
1000
REACTOR
1002
}
1001
GENIUS_GENCEN_19
1002
{
1040
1.0
1002
}
  0
LINE
  5
24C5
330
1F
100
AcDbEntity
  8
AM_7
100
AcDbLine
 10
179.1057207586377
 20
451.9870557208106
 30
0.0
 11
256.5578323533543
 21
451.9870557208106
 31
0.0
1001
GENIUS_GENOBJ-N-CEN_13
1002
{
1000
OWNER
1000
GEN
1002
}
1001
GENIUS_GENODEF_13
1002
{
1000
HIER
1070
     0
1002
}
1002
{
1000
MANEDIT
1070
     0
1002
}
1002
{
1000
NOSEL
1070
     0
1002
}
1002
{
1000
BEHIND
1070
     0
1002
}
1002
{
1000
OTHER
1070
     0
1002
}
1002
{
1000
REACTOR
1002
}
1001
GENIUS_GENCEN_19
1002
{
1040
1.0
1002
}
  0
DIMENSION
  5
24C6
330
1F
100
AcDbEntity
  8
AM_5
100
AcDbDimension
  2
*D5
 10
223.0684902203453
 20
470.9870557208106
 30
0.0
 11
210.5684902203453
 21
473.4374002089996
 31
0.0
 70
    32
 71
     5
 42
25.0
  3
AM_ISO$0
100
AcDbAlignedDimension
 13
198.0684902203453
 23
449.4870557208106
 33
0.0
 14
223.0684902203453
 24
459.2370557208106
 34
0.0
100
AcDbRotatedDimension
1001
ACAD
1000
DSTYLE
1002
{
1070
    40
1040
1.0
1070
   144
1040
1.0
1070
   272
1070
     8
1002
}
  0
DIMENSION
  5
24C9
330
1F
100
AcDbEntity
  8
AM_5
100
AcDbDimension
  2
*D6
 10
198.0684902203453
 20
432.9870557208106
 30
0.0
 11
190.3184902203453
 21
435.4370557208106
 31
0.0
 70
    32
 71
     5
 42
15.5
  3
AM_ISO$0
100
AcDbAlignedDimension
 13
182.5684902203453
 23
443.4870557208106
 33
0.0
 14
198.0684902203453
 24
441.4870557208106
 34
0.0
100
AcDbRotatedDimension
1001
ACAD
1000
DSTYLE
1002
{
1070
    40
1040
1.0
1070
   144
1040
1.0
1070
   272
1070
     8
1002
}
  0
DIMENSION
  5
24CC
330
1F
100
AcDbEntity
  8
AM_5
100
AcDbDimension
  2
*D7
 10
232.0684902203453
 20
432.9870557208106
 30
0.0
 11
215.0684902203453
 21
435.4370557208106
 31
0.0
 70
    32
 71
     5
 42
34.0
  3
AM_ISO$0
100
AcDbAlignedDimension
 13
198.0684902203453
 23
441.4870557208106
 33
0.0
 14
232.0684902203453
 24
454.4870557208106
 34
0.0
100
AcDbRotatedDimension
1001
ACAD
1000
DSTYLE
1002
{
1070
    40
1040
1.0
1070
   144
1040
1.0
1070
   272
1070
     8
1002
}
  0
DIMENSION
  5
24CF
330
1F
100
AcDbEntity
  8
AM_5
100
AcDbDimension
  2
*D8
 10
172.5684902203453
 20
458.4870557208106
 30
0.0
 11
170.1184902203452
 21
451.9870557208107
 31
0.0
 70
    32
 71
     5
 42
13.0
  3
AM_ISO$0
100
AcDbAlignedDimension
 13
194.0684902203453
 23
445.4870557208106
 33
0.0
 14
228.0684902203453
 24
458.4870557208106
 34
0.0
 50
90.0
100
AcDbRotatedDimension
1001
ACAD
1000
DSTYLE
1002
{
1070
    40
1040
1.0
1070
   144
1040
1.0
1070
   272
1070
     8
1002
}
  0
TEXT
  5
24D2
330
1F
100
AcDbEntity
  8
AM_5
100
AcDbText
 10
240.7389165771992
 20
471.7386671046167
 30
0.0
 40
3.5
  1
2-%%c3.2
100
AcDbText
  0
INSERT
  5
24D3
330
1F
100
AcDbEntity
  8
AM_5
100
AcDbBlockReference
  2
*S22
 10
0.0
 20
0.0
 30
0.0
  0
DIMENSION
  5
24D4
330
1F
100
AcDbEntity
  8
AM_5
100
AcDbDimension
  2
*D9
 10
164.5684902203453
 20
442.9870557208106
 30
0.0
 11
162.1184902203452
 21
451.9870557208107
 31
0.0
 70
    32
 71
     5
 42
18.0
  3
AM_ISO$0
100
AcDbAlignedDimension
 13
183.5684902203453
 23
460.9870557208106
 33
0.0
 14
183.5684902203453
 24
442.9870557208106
 34
0.0
 50
90.0
100
AcDbRotatedDimension
1001
ACAD
1000
DSTYLE
1002
{
1070
    40
1040
1.0
1070
   144
1040
1.0
1002
}
  0
DIMENSION
  5
24D7
330
1F
100
AcDbEntity
  8
AM_5
100
AcDbDimension
  2
*D10
 10
255.0684902203453
 20
424.9870557208105
 30
0.0
 11
218.8184902203453
 21
427.4374002089995
 31
0.0
 70
    32
 71
     5
 42
72.5
  3
AM_ISO$0
100
AcDbAlignedDimension
 13
182.5684902203453
 23
443.4870557208106
 33
0.0
 14
255.0684902203453
 24
442.9870557208106
 34
0.0
100
AcDbRotatedDimension
1001
ACAD
1000
DSTYLE
1002
{
1070
    40
1040
1.0
1070
   144
1040
1.0
1002
}
  0
DIMENSION
  5
25EF
330
1F
100
AcDbEntity
  8
AM_5
100
AcDbDimension
  2
*D15
 10
265.0684902203453
 20
405.9683074789023
 30
0.0
 11
262.6181457321562
 21
392.4683074789024
 31
0.0
 70
    32
 71
     5
 42
27.0
  3
AM_ISO$0
100
AcDbAlignedDimension
 13
255.0684902203453
 23
378.9683074789024
 33
0.0
 14
255.0684902203453
 24
405.9683074789023
 34
0.0
 50
90.0
100
AcDbRotatedDimension
1001
ACAD
1000
DSTYLE
1002
{
1070
    40
1040
1.0
1070
   144
1040
1.0
1070
   272
1070
     8
1002
}
  0
DIMENSION
  5
25F2
330
1F
100
AcDbEntity
  8
AM_5
100
AcDbDimension
  2
*D12
 10
207.8184902203453
 20
367.5241571472422
 30
0.0
 11
195.1934902203453
 21
369.9745016354313
 31
0.0
 70
    32
 71
     5
 42
25.25
  3
AM_ISO$0
100
AcDbAlignedDimension
 13
182.5684902203453
 23
379.4683074789024
 33
0.0
 14
207.8184902203453
 24
381.3683074789024
 34
0.0
100
AcDbRotatedDimension
1001
ACAD
1000
DSTYLE
1002
{
1070
   271
1070
     1
1070
   272
1070
     8
1002
}
  0
DIMENSION
  5
25F5
330
1F
100
AcDbEntity
  8
AM_5
100
AcDbDimension
  2
*D13
 10
222.3184902203453
 20
367.5241571472422
 30
0.0
 11
215.0684902203453
 21
369.9741571472423
 31
0.0
 70
    32
 71
     5
 42
14.5
  3
AM_ISO$0
100
AcDbAlignedDimension
 13
207.8184902203453
 23
381.3683074789024
 33
0.0
 14
222.3184902203453
 24
381.3683074789024
 34
0.0
100
AcDbRotatedDimension
1001
ACAD
1000
DSTYLE
1002
{
1070
    40
1040
1.0
1070
   144
1040
1.0
1070
   272
1070
     8
1002
}
  0
DIMENSION
  5
25F8
330
1F
100
AcDbEntity
  8
AM_5
100
AcDbDimension
  2
*D14
 10
198.3531179384101
 20
383.9683074789024
 30
0.0
 11
195.9031179384101
 21
381.4683074789024
 31
0.0
 70
    32
 71
     5
 42
5.0
  3
AM_ISO$0
100
AcDbAlignedDimension
 13
194.0684902203453
 23
378.9683074789024
 33
0.0
 14
204.7184902203453
 24
383.9683074789024
 34
0.0
 50
90.0
100
AcDbRotatedDimension
1001
ACAD
1000
DSTYLE
1002
{
1070
    40
1040
1.0
1070
   144
1040
1.0
1002
}
  0
DIMENSION
  5
25FB
330
1F
100
AcDbEntity
  8
AM_5
100
AcDbDimension
  2
*D11
 10
203.8186087578247
 20
402.9683074789024
 30
0.0
 11
203.8186087578246
 21
413.4407948523176
 31
0.0
 70
   160
 71
     5
 42
3.0
  3
AM_ISO$0
100
AcDbAlignedDimension
 13
201.0684902203453
 23
405.9683074789023
 33
0.0
 14
201.0684902203453
 24
402.9683074789024
 34
0.0
 50
90.0
100
AcDbRotatedDimension
1001
ACAD
1000
DSTYLE
1002
{
1070
    40
1040
1.0
1070
   144
1040
1.0
1002
}
  0
TEXT
  5
25FC
330
1F
100
AcDbEntity
  8
AM_5
100
AcDbText
 10
232.0399550819275
 20
369.0292503700336
 30
0.0
 40
3.5
  1
2-%%c3.2
100
AcDbText
  0
INSERT
  5
25FD
330
1F
100
AcDbEntity
  8
AM_5
100
AcDbBlockReference
  2
*S23
 10
0.0
 20
0.0
 30
0.0
  0
DIMENSION
  5
26C8
330
1F
100
AcDbEntity
  8
AM_5
100
AcDbDimension
  2
*D16
 10
200.5684902203453
 20
313.0501863058163
 30
0.0
 11
191.5684902203453
 21
315.5001863058163
 31
0.0
 70
    32
 71
     5
 42
18.0
  3
AM_ISO$0
100
AcDbAlignedDimension
 13
182.5684902203453
 23
323.5501863058163
 33
0.0
 14
200.5684902203453
 24
325.3001863058163
 34
0.0
100
AcDbRotatedDimension
1001
ACAD
1000
DSTYLE
1002
{
1070
    40
1040
1.0
1070
   144
1040
1.0
1070
   272
1070
     8
1002
}
  0
DIMENSION
  5
26C9
330
1F
100
AcDbEntity
  8
AM_5
100
AcDbDimension
  2
*D17
 10
229.5684902203453
 20
313.0501863058163
 30
0.0
 11
215.0684902203453
 21
315.5005307940053
 31
0.0
 70
    32
 71
     5
 42
29.0
  3
AM_ISO$0
100
AcDbAlignedDimension
 13
200.5684902203453
 23
325.3001863058163
 33
0.0
 14
229.5684902203453
 24
326.3001863058163
 34
0.0
100
AcDbRotatedDimension
1001
ACAD
1000
DSTYLE
1002
{
1070
    40
1040
1.0
1070
   144
1040
1.0
1070
   272
1070
     8
1002
}
  0
DIMENSION
  5
271E
102
{ACAD_XDICTIONARY
360
272B
102
}
102
{ACAD_REACTORS
330
272C
102
}
330
1F
100
AcDbEntity
  8
AM_5
100
AcDbDimension
  2
*D18
 10
215.0684902203453
 20
351.1501873058163
 30
0.0
 11
198.8184902203453
 21
353.6005317940053
 31
0.0
 70
    32
 71
     5
 42
32.5
  3
AM_ISO$0
100
AcDbAlignedDimension
 13
182.5684902203453
 23
340.5501863058163
 33
0.0
 14
215.0684902203453
 24
338.3001863058163
 34
0.0
100
AcDbRotatedDimension
1001
ACAD
1000
DSTYLE
1002
{
1070
    40
1040
1.0
1070
   144
1040
1.0
1002
}
  0
DIMENSION
  5
273A
330
1F
100
AcDbEntity
  8
AM_5
100
AcDbDimension
  2
*D19
 10
265.0684902203453
 20
332.5501863058163
 30
0.0
 11
262.6184902203453
 21
341.7740516319875
 31
0.0
 70
    32
 71
     5
 42
0.5
  3
AM_ISO$0
100
AcDbAlignedDimension
 13
258.1776752978874
 23
332.0501863058163
 33
0.0
 14
235.8184902203453
 24
332.5501863058163
 34
0.0
 50
90.0
100
AcDbRotatedDimension
1001
ACAD
1000
DSTYLE
1002
{
1070
    40
1040
1.0
1070
   144
1040
1.0
1002
}
  0
TEXT
  5
273D
330
1F
100
AcDbEntity
  8
AM_5
100
AcDbText
 10
243.5422524134865
 20
348.2138016301748
 30
0.0
 40
3.5
  1
3-PT1/8
100
AcDbText
  0
INSERT
  5
273E
330
1F
100
AcDbEntity
  8
AM_5
100
AcDbBlockReference
  2
*S24
 10
0.0
 20
0.0
 30
0.0
  0
DIMENSION
  5
276B
102
{ACAD_XDICTIONARY
360
277A
102
}
102
{ACAD_REACTORS
330
277B
102
}
330
1F
100
AcDbEntity
  8
AM_5
100
AcDbDimension
  2
*D20
 10
172.5684892103453
 20
331.5501863058163
 30
0.0
 11
170.1184892103453
 21
322.3263209796451
 31
0.0
 70
    32
 71
     5
 42
0.5
  3
AM_ISO$0
100
AcDbAlignedDimension
 13
180.9102375205138
 23
332.0501863058163
 33
0.0
 14
194.3184902203453
 24
331.5501863058163
 34
0.0
 50
90.0
100
AcDbRotatedDimension
1001
ACAD
1000
DSTYLE
1002
{
1070
    40
1040
1.0
1070
   144
1040
1.0
1002
}
  0
LINE
  5
3524
330
1F
100
AcDbEntity
  8
AM_VIS
100
AcDbLine
 10
209.9684902203453
 20
453.9701063418367
 30
0.0
 11
209.9684902203453
 21
451.9870557208106
 31
0.0
  0
LINE
  5
3525
330
1F
100
AcDbEntity
  8
AM_VIS
100
AcDbLine
 10
205.9684902203453
 20
451.9870557208106
 30
0.0
 11
205.9684902203453
 21
454.9993606702884
 31
0.0
  0
LINE
  5
3526
330
1F
100
AcDbEntity
  8
AM_VIS
100
AcDbLine
 10
205.9684902203453
 20
446.9747507713328
 30
0.0
 11
205.9684902203453
 21
451.9870557208106
 31
0.0
  0
LINE
  5
3527
330
1F
100
AcDbEntity
  8
AM_VIS
100
AcDbLine
 10
209.9684902203453
 20
451.9870557208106
 30
0.0
 11
209.9684902203453
 21
448.0040050997845
 31
0.0
  0
LINE
  5
3528
330
1F
100
AcDbEntity
  8
AM_VIS
100
AcDbLine
 10
208.7621817529463
 20
447.1870557208106
 30
0.0
 11
205.9684902203453
 21
447.1870557208106
 31
0.0
  0
ARC
  5
3529
330
1F
100
AcDbEntity
  8
AM_VIS
100
AcDbCircle
 10
207.0684902203453
 20
450.9870557208106
 30
0.0
 40
4.160359480574259
100
AcDbArc
 50
115.6361664333364
 51
244.3638335666636
  0
ARC
  5
352B
330
1F
100
AcDbEntity
  8
AM_VIS
100
AcDbCircle
 10
207.0684902203453
 20
450.9870557208106
 30
0.0
 40
4.160359480574259
100
AcDbArc
 50
329.9181038753543
 51
30.08189612464564
  0
ARC
  5
352C
330
1F
100
AcDbEntity
  8
AM_VIS
100
AcDbCircle
 10
207.0684902203453
 20
450.9870557208106
 30
0.0
 40
4.160359480574259
100
AcDbArc
 50
30.08189612464564
 51
115.6361664333364
  0
CIRCLE
  5
352D
330
1F
100
AcDbEntity
  8
AM_VIS
100
AcDbCircle
 10
207.0684902203453
 20
450.9870557208106
 30
0.0
 40
5.299999999999999
  0
ARC
  5
352E
330
1F
100
AcDbEntity
  8
AM_VIS
100
AcDbCircle
 10
207.0684902203453
 20
450.9870557208106
 30
0.0
 40
4.160359480574259
100
AcDbArc
 50
244.3638335666636
 51
329.9181038753543
  0
LINE
  5
3530
330
1F
100
AcDbEntity
  8
AM_VIS
100
AcDbLine
 10
220.1684902203453
 20
451.9870557208106
 30
0.0
 11
220.1684902203453
 21
455.9701063418367
 31
0.0
  0
LINE
  5
3531
330
1F
100
AcDbEntity
  8
AM_VIS
100
AcDbLine
 10
220.1684902203453
 20
450.0040050997846
 30
0.0
 11
220.1684902203453
 21
451.9870557208106
 31
0.0
  0
LINE
  5
3532
330
1F
100
AcDbEntity
  8
AM_VIS
100
AcDbLine
 10
224.1684902203453
 20
456.9993606702884
 30
0.0
 11
224.1684902203453
 21
451.9870557208106
 31
0.0
  0
LINE
  5
3533
330
1F
100
AcDbEntity
  8
AM_VIS
100
AcDbLine
 10
224.1684902203453
 20
451.9870557208106
 30
0.0
 11
224.1684902203453
 21
448.9747507713328
 31
0.0
  0
LINE
  5
3534
330
1F
100
AcDbEntity
  8
AM_VIS
100
AcDbLine
 10
221.3747986877444
 20
456.7870557208106
 30
0.0
 11
224.1684902203453
 21
456.7870557208106
 31
0.0
  0
ARC
  5
3535
330
1F
100
AcDbEntity
  8
AM_VIS
100
AcDbCircle
 10
223.0684902203453
 20
452.9870557208106
 30
0.0
 40
4.160359480574259
100
AcDbArc
 50
149.9181038753544
 51
210.0818961246456
  0
ARC
  5
3537
330
1F
100
AcDbEntity
  8
AM_VIS
100
AcDbCircle
 10
223.0684902203453
 20
452.9870557208106
 30
0.0
 40
4.160359480574259
100
AcDbArc
 50
295.6361664333364
 51
64.3638335666636
  0
ARC
  5
3538
330
1F
100
AcDbEntity
  8
AM_VIS
100
AcDbCircle
 10
223.0684902203453
 20
452.9870557208106
 30
0.0
 40
4.160359480574259
100
AcDbArc
 50
64.3638335666636
 51
149.9181038753544
  0
CIRCLE
  5
3539
330
1F
100
AcDbEntity
  8
AM_VIS
100
AcDbCircle
 10
223.0684902203453
 20
452.9870557208106
 30
0.0
 40
5.3
  0
ARC
  5
353A
330
1F
100
AcDbEntity
  8
AM_VIS
100
AcDbCircle
 10
223.0684902203453
 20
452.9870557208106
 30
0.0
 40
4.160359480574259
100
AcDbArc
 50
210.0818961246456
 51
295.6361664333364
  0
LINE
  5
353C
330
1F
100
AcDbEntity
  8
AM_VIS
100
AcDbLine
 10
198.5684902203453
 20
332.0501863058163
 30
0.0
 11
198.5684902203453
 21
335.1982804668275
 31
0.0
  0
LINE
  5
353D
330
1F
100
AcDbEntity
  8
AM_VIS
100
AcDbLine
 10
202.5684902203453
 20
335.1982804668275
 30
0.0
 11
202.5684902203453
 21
332.0501863058163
 31
0.0
  0
LINE
  5
353E
330
1F
100
AcDbEntity
  8
AM_VIS
100
AcDbLine
 10
198.5684902203453
 20
327.9020921448051
 30
0.0
 11
198.5684902203453
 21
332.0501863058163
 31
0.0
  0
LINE
  5
353F
330
1F
100
AcDbEntity
  8
AM_VIS
100
AcDbLine
 10
202.5684902203453
 20
332.0501863058163
 30
0.0
 11
202.5684902203453
 21
327.9020921448051
 31
0.0
  0
LINE
  5
3540
330
1F
100
AcDbEntity
  8
AM_VIS
100
AcDbLine
 10
201.7124268477876
 20
327.5501863058163
 30
0.0
 11
199.424553592903
 21
327.5501863058163
 31
0.0
  0
ARC
  5
3541
330
1F
100
AcDbEntity
  8
AM_VIS
100
AcDbCircle
 10
200.5684902203453
 20
331.5501863058163
 30
0.0
 40
4.160359480574259
100
AcDbArc
 50
136.1446731910425
 51
223.8553268089575
  0
ARC
  5
3543
330
1F
100
AcDbEntity
  8
AM_VIS
100
AcDbCircle
 10
200.5684902203453
 20
331.5501863058163
 30
0.0
 40
4.160359480574259
100
AcDbArc
 50
316.1446731910425
 51
43.85532680895751
  0
ARC
  5
3544
330
1F
100
AcDbEntity
  8
AM_VIS
100
AcDbCircle
 10
200.5684902203453
 20
331.5501863058163
 30
0.0
 40
4.160359480574259
100
AcDbArc
 50
43.85532680895751
 51
136.1446731910425
  0
CIRCLE
  5
3545
330
1F
100
AcDbEntity
  8
AM_VIS
100
AcDbCircle
 10
200.5684902203453
 20
331.5501863058163
 30
0.0
 40
5.3
  0
ARC
  5
3546
330
1F
100
AcDbEntity
  8
AM_VIS
100
AcDbCircle
 10
200.5684902203453
 20
331.5501863058163
 30
0.0
 40
4.160359480574259
100
AcDbArc
 50
223.8553268089575
 51
316.1446731910425
  0
LINE
  5
3547
330
1F
100
AcDbEntity
  8
AM_VIS
100
AcDbLine
 10
217.0684902203453
 20
330.3798569969672
 30
0.0
 11
217.0684902203453
 21
328.4020921448051
 31
0.0
  0
LINE
  5
3548
330
1F
100
AcDbEntity
  8
AM_VIS
100
AcDbLine
 10
217.0684902203453
 20
335.6982804668275
 30
0.0
 11
217.0684902203453
 21
333.7205156146652
 31
0.0
  0
LINE
  5
3549
330
1F
100
AcDbEntity
  8
AM_VIS
100
AcDbLine
 10
213.0684902203453
 20
328.4020921448051
 30
0.0
 11
213.0684902203453
 21
330.3798569969672
 31
0.0
  0
LINE
  5
354A
330
1F
100
AcDbEntity
  8
AM_VIS
100
AcDbLine
 10
213.0684902203453
 20
333.7205156146653
 30
0.0
 11
213.0684902203453
 21
335.6982804668275
 31
0.0
  0
ARC
  5
354B
330
1F
100
AcDbEntity
  8
AM_VIS
100
AcDbCircle
 10
243.3315174430164
 20
332.0501863058163
 30
0.0
 40
30.30908802125414
100
AcDbArc
 50
176.840837667035
 51
183.159162332965
  0
ARC
  5
354C
330
1F
100
AcDbEntity
  8
AM_VIS
100
AcDbCircle
 10
186.8054629976735
 20
332.0501863058163
 30
0.0
 40
30.30908802125488
100
AcDbArc
 50
356.840837667035
 51
3.159162332964999
  0
ARC
  5
354E
330
1F
100
AcDbEntity
  8
AM_VIS
100
AcDbCircle
 10
215.0684902203453
 20
332.0501863058163
 30
0.0
 40
4.160359480574259
100
AcDbArc
 50
136.1446731910425
 51
223.8553268089575
  0
ARC
  5
3550
330
1F
100
AcDbEntity
  8
AM_VIS
100
AcDbCircle
 10
215.0684902203453
 20
332.0501863058163
 30
0.0
 40
4.160359480574259
100
AcDbArc
 50
316.1446731910425
 51
43.85532680895751
  0
ARC
  5
3551
330
1F
100
AcDbEntity
  8
AM_VIS
100
AcDbCircle
 10
215.0684902203453
 20
332.0501863058163
 30
0.0
 40
4.160359480574259
100
AcDbArc
 50
223.8553268089575
 51
316.1446731910425
  0
CIRCLE
  5
3552
330
1F
100
AcDbEntity
  8
AM_VIS
100
AcDbCircle
 10
215.0684902203453
 20
332.0501863058163
 30
0.0
 40
5.299999999999999
  0
ARC
  5
3553
330
1F
100
AcDbEntity
  8
AM_VIS
100
AcDbCircle
 10
215.0684902203453
 20
332.0501863058163
 30
0.0
 40
4.160359480574259
100
AcDbArc
 50
43.85532680895751
 51
136.1446731910425
  0
LINE
  5
3554
330
1F
100
AcDbEntity
  8
AM_VIS
100
AcDbLine
 10
227.5684902203453
 20
328.9020921448051
 30
0.0
 11
227.5684902203453
 21
332.0501863058163
 31
0.0
  0
LINE
  5
3555
330
1F
100
AcDbEntity
  8
AM_VIS
100
AcDbLine
 10
231.5684902203453
 20
332.0501863058163
 30
0.0
 11
231.5684902203453
 21
328.9020921448051
 31
0.0
  0
LINE
  5
3556
330
1F
100
AcDbEntity
  8
AM_VIS
100
AcDbLine
 10
231.5684902203453
 20
336.1982804668275
 30
0.0
 11
231.5684902203453
 21
332.0501863058163
 31
0.0
  0
LINE
  5
3557
330
1F
100
AcDbEntity
  8
AM_VIS
100
AcDbLine
 10
227.5684902203453
 20
332.0501863058163
 30
0.0
 11
227.5684902203453
 21
336.1982804668275
 31
0.0
  0
LINE
  5
3558
330
1F
100
AcDbEntity
  8
AM_VIS
100
AcDbLine
 10
228.424553592907
 20
336.5501863058163
 30
0.0
 11
230.7124268477837
 21
336.5501863058163
 31
0.0
  0
ARC
  5
3559
330
1F
100
AcDbEntity
  8
AM_VIS
100
AcDbCircle
 10
229.5684902203453
 20
332.5501863058163
 30
0.0
 40
4.160359480574259
100
AcDbArc
 50
136.1446731910425
 51
223.8553268089575
  0
ARC
  5
355B
330
1F
100
AcDbEntity
  8
AM_VIS
100
AcDbCircle
 10
229.5684902203453
 20
332.5501863058163
 30
0.0
 40
4.160359480574259
100
AcDbArc
 50
316.1446731910425
 51
43.85532680895751
  0
ARC
  5
355C
330
1F
100
AcDbEntity
  8
AM_VIS
100
AcDbCircle
 10
229.5684902203453
 20
332.5501863058163
 30
0.0
 40
4.160359480574259
100
AcDbArc
 50
223.8553268089575
 51
316.1446731910425
  0
CIRCLE
  5
355D
330
1F
100
AcDbEntity
  8
AM_VIS
100
AcDbCircle
 10
229.5684902203453
 20
332.5501863058163
 30
0.0
 40
5.299999999999998
  0
ARC
  5
355E
330
1F
100
AcDbEntity
  8
AM_VIS
100
AcDbCircle
 10
229.5684902203453
 20
332.5501863058163
 30
0.0
 40
4.160359480574259
100
AcDbArc
 50
43.85532680895751
 51
136.1446731910425
  0
TEXT
  5
4755
330
1F
100
AcDbEntity
  8
AM_5
100
AcDbText
 10
236.5389122389743
 20
433.4609364586582
 30
0.0
 40
3.5
  1
2-PT1/8
100
AcDbText
  0
INSERT
  5
4756
330
1F
100
AcDbEntity
  8
AM_5
100
AcDbBlockReference
  2
*S25
 10
0.0
 20
0.0
 30
0.0
  0
LINE
  5
4809
330
1F
100
AcDbEntity
  8
AM_0
  6
HIDDEN
 62
     3
 48
0.2
100
AcDbLine
 10
248.8684902203453
 20
397.5245574789024
 30
0.0
 11
255.0684902203453
 21
397.7183074789024
 31
0.0
  0
LINE
  5
480A
330
1F
100
AcDbEntity
  8
AM_0
  6
HIDDEN
 62
     3
 48
0.2
100
AcDbLine
 10
248.8684902203453
 20
387.4120574789024
 30
0.0
 11
255.0684902203453
 21
387.2183074789024
 31
0.0
  0
LINE
  5
480B
330
1F
100
AcDbEntity
  8
AM_0
  6
HIDDEN
 62
     3
 48
0.2
100
AcDbLine
 10
248.8684902203453
 20
388.3790574789024
 30
0.0
 11
255.0684902203453
 21
388.1853074789024
 31
0.0
  0
LINE
  5
480C
330
1F
100
AcDbEntity
  8
AM_0
  6
HIDDEN
 62
     3
 48
0.2
100
AcDbLine
 10
248.8684902203453
 20
396.5575574789024
 30
0.0
 11
255.0684902203453
 21
396.7513074789024
 31
0.0
  0
LINE
  5
480D
330
1F
100
AcDbEntity
  8
AM_7
  6
AM_ISO08W050x2
100
AcDbLine
 10
245.9151787151808
 20
392.4683074789024
 30
0.0
 11
256.4733862199154
 21
392.4683074789024
 31
0.0
  0
POINT
  5
480E
330
1F
100
AcDbEntity
  8
AM_7
  6
AM_ISO08W050x2
100
AcDbPoint
 10
251.0984902203453
 20
392.4683074789024
 30
0.0
  0
LINE
  5
480F
330
1F
100
AcDbEntity
  8
AM_0
  6
HIDDEN
 62
     3
 48
0.2
100
AcDbLine
 10
248.8684902203453
 20
396.5575574789024
 30
0.0
 11
247.5078402203453
 21
396.5575574789023
 31
0.0
  0
LINE
  5
4810
330
1F
100
AcDbEntity
  8
AM_0
  6
HIDDEN
 62
     3
 48
0.2
100
AcDbLine
 10
248.8684902203453
 20
388.3790574789024
 30
0.0
 11
247.5078402203453
 21
388.3790574789024
 31
0.0
  0
LINE
  5
4811
330
1F
100
AcDbEntity
  8
AM_0
  6
HIDDEN
 62
     3
 48
0.2
100
AcDbLine
 10
248.8684902203453
 20
387.4120574789024
 30
0.0
 11
248.8684902203453
 21
397.5245574789024
 31
0.0
  0
LINE
  5
4812
330
1F
100
AcDbEntity
  8
AM_0
  6
HIDDEN
 62
     3
 48
0.2
100
AcDbLine
 10
248.8684902203453
 20
397.5245574789024
 30
0.0
 11
247.5078402203453
 21
396.5575574789024
 31
0.0
  0
LINE
  5
4813
330
1F
100
AcDbEntity
  8
AM_0
  6
HIDDEN
 62
     3
 48
0.2
100
AcDbLine
 10
248.8684902203453
 20
387.4120574789024
 30
0.0
 11
247.5078402203453
 21
388.3790574789024
 31
0.0
  0
LINE
  5
4814
330
1F
100
AcDbEntity
  8
AM_0
  6
HIDDEN
 62
     3
 48
0.2
100
AcDbLine
 10
247.5078402203453
 20
396.5575574789024
 30
0.0
 11
247.5078402203453
 21
388.3790574789024
 31
0.0
  0
LINE
  5
4ADE
330
1F
100
AcDbEntity
  8
AM_VIS
100
AcDbLine
 10
289.2658866436228
 20
381.1193074789019
 30
0.0
 11
289.6148866436233
 21
381.4683074789024
 31
0.0
  0
LINE
  5
4ADF
330
1F
100
AcDbEntity
  8
AM_VIS
100
AcDbLine
 10
289.2658866436233
 20
381.8173074789005
 30
0.0
 11
289.2658866436233
 21
381.1193074789004
 31
0.0
  0
LINE
  5
4AE0
330
1F
100
AcDbEntity
  8
AM_VIS
100
AcDbLine
 10
289.6148866436233
 20
381.4683074789025
 30
0.0
 11
289.6148866436233
 21
381.8173074789004
 31
0.0
  0
LINE
  5
4AE1
330
1F
100
AcDbEntity
  8
AM_VIS
100
AcDbLine
 10
289.6148866436233
 20
381.4683074789025
 30
0.0
 11
289.2658866436239
 21
381.8173074789019
 31
0.0
  0
LINE
  5
4AE2
330
1F
100
AcDbEntity
  8
AM_VIS
100
AcDbLine
 10
289.9638866436233
 20
381.1193074789004
 30
0.0
 11
289.2658866436233
 21
381.1193074789004
 31
0.0
  0
LINE
  5
4AE3
330
1F
100
AcDbEntity
  8
AM_VIS
100
AcDbLine
 10
289.9638866436233
 20
381.1193074789004
 30
0.0
 11
289.9638866436233
 21
380.7068793733008
 31
0.0
  0
LINE
  5
4AE4
330
1F
100
AcDbEntity
  8
AM_VIS
100
AcDbLine
 10
289.9638866436233
 20
381.1193074789004
 30
0.0
 11
290.376314749224
 21
381.1193074789004
 31
0.0
  0
LINE
  5
4AE5
330
1F
100
AcDbEntity
  8
AM_VIS
100
AcDbLine
 10
289.9638866436233
 20
382.229735584504
 30
0.0
 11
289.9638866436233
 21
381.8173074789004
 31
0.0
  0
LINE
  5
4AE6
330
1F
100
AcDbEntity
  8
AM_VIS
100
AcDbLine
 10
289.9638866436233
 20
381.8173074789004
 30
0.0
 11
290.3763147492258
 21
381.8173074789004
 31
0.0
  0
LINE
  5
4AE7
330
1F
100
AcDbEntity
  8
AM_VIS
100
AcDbLine
 10
289.2658866436233
 20
382.229735584504
 30
0.0
 11
289.2658866436233
 21
381.8173074789004
 31
0.0
  0
LINE
  5
4AE8
330
1F
100
AcDbEntity
  8
AM_VIS
100
AcDbLine
 10
288.8534585380208
 20
381.8173074789004
 30
0.0
 11
289.2658866436233
 21
381.8173074789004
 31
0.0
  0
LINE
  5
4AE9
330
1F
100
AcDbEntity
  8
AM_VIS
100
AcDbLine
 10
289.2658866436233
 20
381.1193074789004
 30
0.0
 11
289.2658866436233
 21
380.7068793733008
 31
0.0
  0
LINE
  5
4AEA
330
1F
100
AcDbEntity
  8
AM_VIS
100
AcDbLine
 10
288.8534585380226
 20
381.1193074789004
 30
0.0
 11
289.2658866436233
 21
381.1193074789004
 31
0.0
  0
CIRCLE
  5
4AEB
330
1F
100
AcDbEntity
  8
AM_VIS
100
AcDbCircle
 10
289.6148866436233
 20
381.4683074789024
 30
0.0
 40
2.5
  0
LINE
  5
4AEC
330
1F
100
AcDbEntity
  8
AM_VIS
100
AcDbLine
 10
289.9638866436233
 20
382.229735584504
 30
0.0
 11
289.9638866436233
 21
382.8084111030587
 31
0.0
  0
ELLIPSE
  5
4AED
330
1F
100
AcDbEntity
  8
AM_VIS
100
AcDbEllipse
 10
289.6148866436233
 20
380.4793170853508
 30
0.0
 11
-3.797925352448599
 21
0.0000000000000005
 31
0.0
210
0.0
220
0.0
230
1.0
 40
0.6158600226419823
 41
4.6203668857441
 42
4.80441107502528
  0
LINE
  5
4AEE
330
1F
100
AcDbEntity
  8
AM_VIS
100
AcDbLine
 10
289.2658866436233
 20
380.7068793733008
 30
0.0
 11
289.2658866436233
 21
380.1282038547461
 31
0.0
  0
ELLIPSE
  5
4AEF
330
1F
100
AcDbEntity
  8
AM_VIS
100
AcDbEllipse
 10
289.6148866436233
 20
382.457297872454
 30
0.0
 11
3.797925352448591
 21
-0.0000000000000005
 31
0.0
210
0.0
220
0.0
230
1.0
 40
0.6158600226419945
 41
4.6203668857441
 42
4.804411075025278
  0
LINE
  5
4AF0
330
1F
100
AcDbEntity
  8
AM_VIS
100
AcDbLine
 10
288.274783019467
 20
381.1193074789004
 30
0.0
 11
288.8534585380226
 21
381.1193074789004
 31
0.0
  0
ELLIPSE
  5
4AF1
330
1F
100
AcDbEntity
  8
AM_VIS
100
AcDbEllipse
 10
288.6258962500717
 20
381.4683074789024
 30
0.0
 11
0.0000000000000011
 21
3.797925352448569
 31
0.0
210
0.0
220
0.0
230
1.0
 40
0.6158600226420087
 41
4.620366885743576
 42
4.804411075024757
  0
LINE
  5
4AF2
330
1F
100
AcDbEntity
  8
AM_VIS
100
AcDbLine
 10
288.8534585380208
 20
381.8173074789004
 30
0.0
 11
288.2747830194668
 21
381.8173074789004
 31
0.0
  0
LINE
  5
4AF3
330
1F
100
AcDbEntity
  8
AM_VIS
100
AcDbLine
 10
290.9549902677798
 20
381.8173074789004
 30
0.0
 11
290.3763147492258
 21
381.8173074789004
 31
0.0
  0
ELLIPSE
  5
4AF4
330
1F
100
AcDbEntity
  8
AM_VIS
100
AcDbEllipse
 10
290.6038770371749
 20
381.4683074789024
 30
0.0
 11
0.0000000000000002
 21
-3.797925352448569
 31
0.0
210
0.0
220
0.0
230
0.9999999999999998
 40
0.6158600226420093
 41
4.620366885744621
 42
4.804411075025802
  0
LINE
  5
4AF5
330
1F
100
AcDbEntity
  8
AM_VIS
100
AcDbLine
 10
290.376314749224
 20
381.1193074789004
 30
0.0
 11
290.9549902677796
 21
381.1193074789004
 31
0.0
  0
LINE
  5
4AF6
330
1F
100
AcDbEntity
  8
AM_VIS
100
AcDbLine
 10
289.2658866436233
 20
382.8084111030587
 30
0.0
 11
289.2658866436233
 21
382.229735584504
 31
0.0
  0
LINE
  5
4AF7
330
1F
100
AcDbEntity
  8
AM_VIS
100
AcDbLine
 10
289.9638866436233
 20
380.1282038547461
 30
0.0
 11
289.9638866436233
 21
380.7068793733008
 31
0.0
  0
ARC
  5
4AF8
330
1F
100
AcDbEntity
  8
AM_VIS
100
AcDbCircle
 10
289.6148866436233
 20
381.4683074789024
 30
0.0
 40
0.8376000000000374
100
AcDbArc
 50
294.6243183521657
 51
335.3756816476841
  0
ARC
  5
4AF9
330
1F
100
AcDbEntity
  8
AM_VIS
100
AcDbCircle
 10
289.6148866436233
 20
381.4683074789024
 30
0.0
 40
0.8376000000000374
100
AcDbArc
 50
24.62431835201131
 51
65.37568164783424
  0
ARC
  5
4AFA
330
1F
100
AcDbEntity
  8
AM_VIS
100
AcDbCircle
 10
289.6148866436233
 20
381.4683074789024
 30
0.0
 40
0.8376000000000374
100
AcDbArc
 50
114.6243183521657
 51
155.3756816479886
  0
ARC
  5
4AFB
330
1F
100
AcDbEntity
  8
AM_VIS
100
AcDbCircle
 10
289.6148866436233
 20
381.4683074789024
 30
0.0
 40
0.8376000000000374
100
AcDbArc
 50
204.6243183523159
 51
245.3756816478342
  0
LINE
  5
4AFC
330
1F
100
AcDbEntity
  8
AM_VIS
100
AcDbLine
 10
299.6148866436233
 20
405.9683074789023
 30
0.0
 11
302.1123928625671
 21
405.9683074789023
 31
0.0
  0
LINE
  5
4AFD
330
1F
100
AcDbEntity
  8
AM_VIS
100
AcDbLine
 10
303.1173804246795
 20
405.9683074789023
 30
0.0
 11
305.1148866436232
 21
405.9683074789023
 31
0.0
  0
LINE
  5
4AFE
330
1F
100
AcDbEntity
  8
AM_VIS
100
AcDbLine
 10
287.1148866436233
 20
405.9683074789023
 30
0.0
 11
299.6148866436233
 21
405.9683074789023
 31
0.0
  0
LINE
  5
4AFF
330
1F
100
AcDbEntity
  8
AM_VIS
100
AcDbLine
 10
299.6148866436233
 20
403.2183074789023
 30
0.0
 11
299.6148866436233
 21
405.9683074789023
 31
0.0
  0
LINE
  5
4B00
330
1F
100
AcDbEntity
  8
AM_VIS
100
AcDbLine
 10
305.1148866436232
 20
400.4683074789023
 30
0.0
 11
302.3648866436233
 21
400.4683074789023
 31
0.0
  0
LINE
  5
4B01
330
1F
100
AcDbEntity
  8
AM_VIS
100
AcDbLine
 10
305.1148866436233
 20
378.9683074789024
 30
0.0
 11
292.6148866436234
 21
378.9683074789024
 31
0.0
  0
LINE
  5
4B02
330
1F
100
AcDbEntity
  8
AM_VIS
100
AcDbLine
 10
287.1148866436233
 20
384.4683074789023
 30
0.0
 11
287.1148866436233
 21
405.9683074789023
 31
0.0
  0
LINE
  5
4B03
330
1F
100
AcDbEntity
  8
AM_VIS
100
AcDbLine
 10
292.6148866436233
 20
378.9683074789024
 30
0.0
 11
290.1173804246792
 21
378.9683074789024
 31
0.0
  0
LINE
  5
4B04
330
1F
100
AcDbEntity
  8
AM_VIS
100
AcDbLine
 10
289.1123928625674
 20
378.9683074789024
 30
0.0
 11
287.1148866436233
 21
378.9683074789024
 31
0.0
  0
LINE
  5
4B05
330
1F
100
AcDbEntity
  8
AM_VIS
100
AcDbLine
 10
287.1148866436233
 20
378.9683074789023
 30
0.0
 11
287.1148866436233
 21
380.9658136978463
 31
0.0
  0
LINE
  5
4B06
330
1F
100
AcDbEntity
  8
AM_VIS
100
AcDbLine
 10
287.1148866436233
 20
381.9708012599585
 30
0.0
 11
287.1148866436233
 21
384.4683074789023
 31
0.0
  0
LINE
  5
4B07
330
1F
100
AcDbEntity
  8
AM_VIS
100
AcDbLine
 10
292.6148866436233
 20
381.7183074789024
 30
0.0
 11
292.6148866436234
 21
378.9683074789024
 31
0.0
  0
LINE
  5
4B08
330
1F
100
AcDbEntity
  8
AM_VIS
100
AcDbLine
 10
287.1148866436233
 20
384.4683074789023
 30
0.0
 11
289.8648866436233
 21
384.4683074789024
 31
0.0
  0
LINE
  5
4B09
330
1F
100
AcDbEntity
  8
AM_VIS
100
AcDbLine
 10
305.1148866436232
 20
400.4683074789023
 30
0.0
 11
305.1148866436233
 21
378.9683074789024
 31
0.0
  0
LINE
  5
4B0A
330
1F
100
AcDbEntity
  8
AM_VIS
100
AcDbLine
 10
305.1148866436232
 20
405.9683074789023
 30
0.0
 11
305.1148866436232
 21
403.9708012599586
 31
0.0
  0
LINE
  5
4B0B
330
1F
100
AcDbEntity
  8
AM_VIS
100
AcDbLine
 10
305.1148866436232
 20
402.9658136978461
 30
0.0
 11
305.1148866436232
 21
400.4683074789023
 31
0.0
  0
CIRCLE
  5
4B0C
330
1F
100
AcDbEntity
  8
AM_VIS
100
AcDbCircle
 10
296.1148866436233
 20
392.4683074789024
 30
0.0
 40
4.049999999999999
  0
CIRCLE
  5
4B0D
330
1F
100
AcDbEntity
  8
AM_VIS
100
AcDbCircle
 10
296.1148866436233
 20
392.4683074789024
 30
0.0
 40
5.299999999999999
  0
ARC
  5
4B0E
330
1F
100
AcDbEntity
  8
AM_VIS
100
AcDbCircle
 10
302.3648866436233
 20
403.2183074789023
 30
0.0
 40
2.75
100
AcDbArc
 50
180.0
 51
270.0
  0
ARC
  5
4B0F
330
1F
100
AcDbEntity
  8
AM_VIS
100
AcDbCircle
 10
289.8648866436233
 20
381.7183074789024
 30
0.0
 40
2.75
100
AcDbArc
 50
0.0
 51
90.0
  0
LINE
  5
4B10
330
1F
100
AcDbEntity
  8
AM_VIS
100
AcDbLine
 10
305.1148866436233
 20
381.2418973173886
 30
0.0
 11
305.1548154691543
 21
381.2418973173886
 31
0.0
  0
LINE
  5
4B11
330
1F
100
AcDbEntity
  8
AM_VIS
100
AcDbLine
 10
305.121869204639
 20
381.0018973173886
 30
0.0
 11
305.1148866436233
 21
381.0018973173886
 31
0.0
  0
ARC
  5
4B12
330
1F
100
AcDbEntity
  8
AM_VIS
100
AcDbCircle
 10
302.6148866436233
 20
381.4683074789024
 30
0.0
 40
2.550000000000011
100
AcDbArc
 50
349.4609311094996
 51
354.9060973616483
  0
ARC
  5
4B13
330
1F
100
AcDbEntity
  8
AM_VIS
100
AcDbCircle
 10
302.6148866436233
 20
381.4683074789024
 30
0.0
 40
2.550000000000011
100
AcDbArc
 50
348.635123032965
 51
349.4609311094996
  0
ARC
  5
4B14
330
1F
100
AcDbEntity
  8
AM_VIS
100
AcDbCircle
 10
302.6148866436233
 20
381.4683074789024
 30
0.0
 40
2.550000000000011
100
AcDbArc
 50
258.6351230329612
 51
281.3648769670388
  0
ARC
  5
4B15
330
1F
100
AcDbEntity
  8
AM_VIS
100
AcDbCircle
 10
302.6148866436233
 20
381.4683074789024
 30
0.0
 40
2.550000000000011
100
AcDbArc
 50
354.9060973616483
 51
11.36487696703494
  0
LINE
  5
4B16
330
1F
100
AcDbEntity
  8
AM_VIS
100
AcDbLine
 10
305.1046132227406
 20
403.2418973173886
 30
0.0
 11
305.1548154691543
 21
403.2418973173886
 31
0.0
  0
LINE
  5
4B17
330
1F
100
AcDbEntity
  8
AM_VIS
100
AcDbLine
 10
305.121869204639
 20
403.0018973173886
 30
0.0
 11
305.0709936366585
 21
403.0018973173886
 31
0.0
  0
ARC
  5
4B18
330
1F
100
AcDbEntity
  8
AM_VIS
100
AcDbCircle
 10
302.6148866436233
 20
403.4683074789024
 30
0.0
 40
2.550000000000011
100
AcDbArc
 50
349.4609311094996
 51
354.9060973616483
  0
ARC
  5
4B19
330
1F
100
AcDbEntity
  8
AM_VIS
100
AcDbCircle
 10
302.6148866436233
 20
403.4683074789024
 30
0.0
 40
2.550000000000011
100
AcDbArc
 50
354.9060973616483
 51
349.4609311094996
  0
LINE
  5
4B1A
330
1F
100
AcDbEntity
  8
AM_VIS
100
AcDbLine
 10
292.1046132227406
 20
381.2418973173886
 30
0.0
 11
292.1548154691544
 21
381.2418973173886
 31
0.0
  0
LINE
  5
4B1B
330
1F
100
AcDbEntity
  8
AM_VIS
100
AcDbLine
 10
292.121869204639
 20
381.0018973173886
 30
0.0
 11
292.0709936366586
 21
381.0018973173886
 31
0.0
  0
ARC
  5
4B1C
330
1F
100
AcDbEntity
  8
AM_VIS
100
AcDbCircle
 10
289.6148866436233
 20
381.4683074789024
 30
0.0
 40
2.550000000000011
100
AcDbArc
 50
349.4609311094996
 51
354.9060973616483
  0
ARC
  5
4B1D
330
1F
100
AcDbEntity
  8
AM_VIS
100
AcDbCircle
 10
289.6148866436233
 20
381.4683074789024
 30
0.0
 40
2.550000000000011
100
AcDbArc
 50
354.9060973616483
 51
349.4609311094996
  0
ARC
  5
4B1E
330
1F
100
AcDbEntity
  8
AM_VIS
100
AcDbCircle
 10
289.6148866436233
 20
403.4683074789024
 30
0.0
 40
2.550000000000011
100
AcDbArc
 50
168.635123032965
 51
191.3648769670349
  0
ARC
  5
4B1F
330
1F
100
AcDbEntity
  8
AM_VIS
100
AcDbCircle
 10
289.6148866436233
 20
403.4683074789024
 30
0.0
 40
2.550000000000011
100
AcDbArc
 50
78.63512303296506
 51
101.3648769670349
  0
LINE
  5
4B20
330
1F
100
AcDbEntity
  8
AM_VIS
100
AcDbLine
 10
302.9638866436233
 20
403.4683074789024
 30
0.0
 11
302.6148866436233
 21
403.4683074789024
 31
0.0
  0
LINE
  5
4B21
330
1F
100
AcDbEntity
  8
AM_VIS
100
AcDbLine
 10
302.6148866436233
 20
403.4683074789024
 30
0.0
 11
302.2658866436233
 21
403.4683074789024
 31
0.0
  0
LINE
  5
4B22
330
1F
100
AcDbEntity
  8
AM_VIS
100
AcDbLine
 10
302.6148866436233
 20
403.4683074789024
 30
0.0
 11
302.9638866436238
 21
403.1193074789018
 31
0.0
  0
LINE
  5
4B23
330
1F
100
AcDbEntity
  8
AM_VIS
100
AcDbLine
 10
302.9638866436227
 20
403.8173074789018
 30
0.0
 11
302.6148866436233
 21
403.4683074789024
 31
0.0
  0
LINE
  5
4B24
330
1F
100
AcDbEntity
  8
AM_VIS
100
AcDbLine
 10
302.9638866436233
 20
403.1193074789004
 30
0.0
 11
302.9638866436233
 21
403.8173074789004
 31
0.0
  0
LINE
  5
4B25
330
1F
100
AcDbEntity
  8
AM_VIS
100
AcDbLine
 10
302.2658866436233
 20
403.8173074789003
 30
0.0
 11
302.9638866436233
 21
403.8173074789003
 31
0.0
  0
LINE
  5
4B26
330
1F
100
AcDbEntity
  8
AM_VIS
100
AcDbLine
 10
302.6148866436233
 20
403.1193074789004
 30
0.0
 11
302.6148866436233
 21
403.4683074789024
 31
0.0
  0
LINE
  5
4B27
330
1F
100
AcDbEntity
  8
AM_VIS
100
AcDbLine
 10
302.2658866436227
 20
403.1193074789018
 30
0.0
 11
302.6148866436233
 21
403.4683074789024
 31
0.0
  0
LINE
  5
4B28
330
1F
100
AcDbEntity
  8
AM_VIS
100
AcDbLine
 10
302.2658866436233
 20
403.8173074789004
 30
0.0
 11
302.2658866436233
 21
403.1193074789004
 31
0.0
  0
LINE
  5
4B29
330
1F
100
AcDbEntity
  8
AM_VIS
100
AcDbLine
 10
302.6148866436233
 20
403.4683074789024
 30
0.0
 11
302.6148866436233
 21
403.8173074789003
 31
0.0
  0
LINE
  5
4B2A
330
1F
100
AcDbEntity
  8
AM_VIS
100
AcDbLine
 10
302.6148866436233
 20
403.4683074789024
 30
0.0
 11
302.2658866436239
 21
403.8173074789018
 31
0.0
  0
LINE
  5
4B2B
330
1F
100
AcDbEntity
  8
AM_VIS
100
AcDbLine
 10
302.9638866436233
 20
403.1193074789004
 30
0.0
 11
302.2658866436233
 21
403.1193074789004
 31
0.0
  0
LINE
  5
4B2C
330
1F
100
AcDbEntity
  8
AM_VIS
100
AcDbLine
 10
302.9638866436233
 20
403.1193074789004
 30
0.0
 11
302.9638866436233
 21
402.7068793733008
 31
0.0
  0
LINE
  5
4B2D
330
1F
100
AcDbEntity
  8
AM_VIS
100
AcDbLine
 10
302.9638866436233
 20
403.1193074789004
 30
0.0
 11
303.376314749224
 21
403.1193074789004
 31
0.0
  0
LINE
  5
4B2E
330
1F
100
AcDbEntity
  8
AM_VIS
100
AcDbLine
 10
302.9638866436233
 20
404.229735584504
 30
0.0
 11
302.9638866436233
 21
403.8173074789003
 31
0.0
  0
LINE
  5
4B2F
330
1F
100
AcDbEntity
  8
AM_VIS
100
AcDbLine
 10
302.9638866436233
 20
403.8173074789003
 30
0.0
 11
303.3763147492259
 21
403.8173074789003
 31
0.0
  0
LINE
  5
4B30
330
1F
100
AcDbEntity
  8
AM_VIS
100
AcDbLine
 10
302.2658866436233
 20
404.229735584504
 30
0.0
 11
302.2658866436233
 21
403.8173074789003
 31
0.0
  0
LINE
  5
4B31
330
1F
100
AcDbEntity
  8
AM_VIS
100
AcDbLine
 10
301.8534585380208
 20
403.8173074789003
 30
0.0
 11
302.2658866436233
 21
403.8173074789003
 31
0.0
  0
LINE
  5
4B32
330
1F
100
AcDbEntity
  8
AM_VIS
100
AcDbLine
 10
302.2658866436233
 20
403.1193074789004
 30
0.0
 11
302.2658866436233
 21
402.7068793733008
 31
0.0
  0
LINE
  5
4B33
330
1F
100
AcDbEntity
  8
AM_VIS
100
AcDbLine
 10
301.8534585380226
 20
403.1193074789004
 30
0.0
 11
302.2658866436233
 21
403.1193074789004
 31
0.0
  0
CIRCLE
  5
4B34
330
1F
100
AcDbEntity
  8
AM_VIS
100
AcDbCircle
 10
302.6148866436233
 20
403.4683074789024
 30
0.0
 40
2.5
  0
LINE
  5
4B35
330
1F
100
AcDbEntity
  8
AM_VIS
100
AcDbLine
 10
302.9638866436233
 20
404.229735584504
 30
0.0
 11
302.9638866436233
 21
404.8084111030587
 31
0.0
  0
ELLIPSE
  5
4B36
330
1F
100
AcDbEntity
  8
AM_VIS
100
AcDbEllipse
 10
302.6148866436233
 20
402.4793170853508
 30
0.0
 11
-3.797925352448599
 21
0.0000000000000005
 31
0.0
210
0.0
220
0.0
230
1.0
 40
0.6158600226419823
 41
4.6203668857441
 42
4.804411075025278
  0
LINE
  5
4B37
330
1F
100
AcDbEntity
  8
AM_VIS
100
AcDbLine
 10
302.2658866436233
 20
402.7068793733008
 30
0.0
 11
302.2658866436233
 21
402.128203854746
 31
0.0
  0
ELLIPSE
  5
4B38
330
1F
100
AcDbEntity
  8
AM_VIS
100
AcDbEllipse
 10
302.6148866436233
 20
404.457297872454
 30
0.0
 11
3.797925352448591
 21
-0.0000000000000005
 31
0.0
210
0.0
220
0.0
230
1.0
 40
0.6158600226419945
 41
4.6203668857441
 42
4.804411075025278
  0
LINE
  5
4B39
330
1F
100
AcDbEntity
  8
AM_VIS
100
AcDbLine
 10
301.2747830194671
 20
403.1193074789004
 30
0.0
 11
301.8534585380226
 21
403.1193074789004
 31
0.0
  0
ELLIPSE
  5
4B3A
330
1F
100
AcDbEntity
  8
AM_VIS
100
AcDbEllipse
 10
301.6258962500717
 20
403.4683074789024
 30
0.0
 11
0.0000000000000011
 21
3.797925352448569
 31
0.0
210
0.0
220
0.0
230
1.0
 40
0.6158600226420087
 41
4.620366885743576
 42
4.804411075024757
  0
LINE
  5
4B3B
330
1F
100
AcDbEntity
  8
AM_VIS
100
AcDbLine
 10
301.8534585380208
 20
403.8173074789003
 30
0.0
 11
301.2747830194669
 21
403.8173074789003
 31
0.0
  0
LINE
  5
4B3C
330
1F
100
AcDbEntity
  8
AM_VIS
100
AcDbLine
 10
303.9549902677798
 20
403.8173074789003
 30
0.0
 11
303.3763147492258
 21
403.8173074789003
 31
0.0
  0
ELLIPSE
  5
4B3D
330
1F
100
AcDbEntity
  8
AM_VIS
100
AcDbEllipse
 10
303.6038770371749
 20
403.4683074789024
 30
0.0
 11
0.0000000000000002
 21
-3.797925352448569
 31
0.0
210
0.0
220
0.0
230
0.9999999999999998
 40
0.6158600226420093
 41
4.620366885744621
 42
4.804411075025802
  0
LINE
  5
4B3E
330
1F
100
AcDbEntity
  8
AM_VIS
100
AcDbLine
 10
303.376314749224
 20
403.1193074789004
 30
0.0
 11
303.9549902677796
 21
403.1193074789004
 31
0.0
  0
LINE
  5
4B3F
330
1F
100
AcDbEntity
  8
AM_VIS
100
AcDbLine
 10
302.2658866436233
 20
404.8084111030587
 30
0.0
 11
302.2658866436233
 21
404.229735584504
 31
0.0
  0
LINE
  5
4B40
330
1F
100
AcDbEntity
  8
AM_VIS
100
AcDbLine
 10
302.9638866436233
 20
402.128203854746
 30
0.0
 11
302.9638866436233
 21
402.7068793733008
 31
0.0
  0
ARC
  5
4B41
330
1F
100
AcDbEntity
  8
AM_VIS
100
AcDbCircle
 10
302.6148866436233
 20
403.4683074789024
 30
0.0
 40
0.8376000000000374
100
AcDbArc
 50
294.6243183521657
 51
335.3756816476841
  0
ARC
  5
4B42
330
1F
100
AcDbEntity
  8
AM_VIS
100
AcDbCircle
 10
302.6148866436233
 20
403.4683074789024
 30
0.0
 40
0.8376000000000374
100
AcDbArc
 50
24.62431835201131
 51
65.37568164783424
  0
ARC
  5
4B43
330
1F
100
AcDbEntity
  8
AM_VIS
100
AcDbCircle
 10
302.6148866436233
 20
403.4683074789024
 30
0.0
 40
0.8376000000000374
100
AcDbArc
 50
114.6243183521657
 51
155.3756816479886
  0
ARC
  5
4B44
330
1F
100
AcDbEntity
  8
AM_VIS
100
AcDbCircle
 10
302.6148866436233
 20
403.4683074789024
 30
0.0
 40
0.8376000000000374
100
AcDbArc
 50
204.6243183523159
 51
245.3756816478342
  0
LINE
  5
4B45
330
1F
100
AcDbEntity
  8
AM_VIS
100
AcDbLine
 10
289.9638866436233
 20
381.4683074789024
 30
0.0
 11
289.6148866436233
 21
381.4683074789024
 31
0.0
  0
LINE
  5
4B46
330
1F
100
AcDbEntity
  8
AM_VIS
100
AcDbLine
 10
289.6148866436233
 20
381.4683074789024
 30
0.0
 11
289.2658866436233
 21
381.4683074789024
 31
0.0
  0
LINE
  5
4B47
330
1F
100
AcDbEntity
  8
AM_VIS
100
AcDbLine
 10
289.6148866436233
 20
381.4683074789024
 30
0.0
 11
289.9638866436238
 21
381.1193074789019
 31
0.0
  0
LINE
  5
4B48
330
1F
100
AcDbEntity
  8
AM_VIS
100
AcDbLine
 10
289.9638866436228
 20
381.8173074789019
 30
0.0
 11
289.6148866436234
 21
381.4683074789024
 31
0.0
  0
LINE
  5
4B49
330
1F
100
AcDbEntity
  8
AM_VIS
100
AcDbLine
 10
289.9638866436233
 20
381.1193074789004
 30
0.0
 11
289.9638866436233
 21
381.8173074789005
 31
0.0
  0
LINE
  5
4B4A
330
1F
100
AcDbEntity
  8
AM_VIS
100
AcDbLine
 10
289.2658866436233
 20
381.8173074789004
 30
0.0
 11
289.9638866436233
 21
381.8173074789004
 31
0.0
  0
LINE
  5
4B4B
330
1F
100
AcDbEntity
  8
AM_VIS
100
AcDbLine
 10
289.6148866436233
 20
381.1193074789004
 30
0.0
 11
289.6148866436233
 21
381.4683074789025
 31
0.0
  0
LINE
  5
4B4C
330
1F
100
AcDbEntity
  8
AM_7
100
AcDbLine
 10
296.1148866436233
 20
392.4683074789024
 30
0.0
 11
302.4148866436233
 21
392.4683074789024
 31
0.0
1001
GENIUS_GENOREF_13
1005
4B50
  0
LINE
  5
4B4D
330
1F
100
AcDbEntity
  8
AM_7
100
AcDbLine
 10
296.1148866436233
 20
392.4683074789024
 30
0.0
 11
296.1148866436233
 21
398.7683074789024
 31
0.0
1001
GENIUS_GENOREF_13
1005
4B50
  0
LINE
  5
4B4E
330
1F
100
AcDbEntity
  8
AM_7
100
AcDbLine
 10
296.1148866436233
 20
392.4683074789024
 30
0.0
 11
289.8148866436232
 21
392.4683074789024
 31
0.0
1001
GENIUS_GENOREF_13
1005
4B50
  0
LINE
  5
4B4F
330
1F
100
AcDbEntity
  8
AM_7
100
AcDbLine
 10
296.1148866436233
 20
392.4683074789024
 30
0.0
 11
296.1148866436233
 21
386.1683074789024
 31
0.0
1001
GENIUS_GENOREF_13
1005
4B50
  0
POINT
  5
4B50
330
1F
100
AcDbEntity
  8
0
 60
     1
100
AcDbPoint
 10
-7.35258899726773
 20
47.97849940652656
 30
0.0
1001
GENIUS_GENOBJ-N-CRS_13
1002
{
1000
OWNER
1000
GEN
1002
}
1001
GENIUS_GENOENT_13
1002
{
1000
MYREF
1005
4B50
1002
}
1002
{
1000
GRP
1005
0
1002
}
1001
GENIUS_GENOLIS_13
1002
{
1000
ENT
1005
4B4F
1005
4B4E
1005
4B4D
1005
4B4C
1002
}
1001
GENIUS_GENODEF_13
1002
{
1000
HIER
1070
    10
1002
}
1002
{
1000
MANEDIT
1070
     0
1002
}
1002
{
1000
NOSEL
1070
     0
1002
}
1002
{
1000
BEHIND
1070
     0
1002
}
1002
{
1000
OTHER
1070
     0
1002
}
1002
{
1000
REACTOR
1002
}
  0
LWPOLYLINE
  5
4BF4
330
1F
100
AcDbEntity
  8
LOGO
 62
     4
100
AcDbPolyline
 90
        4
 70
     1
 43
0.0
 10
133.6613370027894
 20
292.1380370021814
 10
333.6613370027894
 20
292.1380370021814
 10
333.6613370027894
 20
514.5017398418369
 10
133.6613370027894
 20
514.5017398418369
1001
GENIUS_GENREC_14
1002
{
1000
PYDIR
1011
133.6613370027894
1021
514.5017398418369
1031
0.0
1002
}
1002
{
1000
PXDIR
1011
333.6613370027894
1021
292.1380370021814
1031
0.0
1002
}
1002
{
1000
PORI
1011
133.6613370027894
1021
292.1380370021814
1031
0.0
1002
}
1002
{
1000
PINS
1011
133.6613370027894
1021
292.1380370021814
1031
0.0
1002
}
1002
{
1000
PINS2
1011
333.6613370027894
1021
514.5017398418369
1031
0.0
1002
}
1002
{
1000
C
1070
     1
1002
}
1001
GENIUS_GENODEF_13
1002
{
1000
HIER
1070
     0
1002
}
1002
{
1000
MANEDIT
1070
     0
1002
}
1002
{
1000
NOSEL
1070
     0
1002
}
1002
{
1000
BEHIND
1070
     0
1002
}
1002
{
1000
OTHER
1070
     0
1002
}
1002
{
1000
REACTOR
1002
}
1001
GENIUS_GENOBJ-N-REC_13
1002
{
1000
OWNER
1000
GEN
1002
}
  0
LWPOLYLINE
  5
4BF5
330
1F
100
AcDbEntity
  8
LOGO
 62
     4
100
AcDbPolyline
 90
        4
 70
     1
 43
0.0
 10
133.6613370027894
 20
292.1380370021814
 10
333.6613370027894
 20
292.1380370021814
 10
333.6613370027894
 20
272.1409329297828
 10
133.6613370027894
 20
272.1409329297828
1001
GENIUS_GENREC_14
1002
{
1000
PYDIR
1011
133.6613370027894
1021
272.1409329297828
1031
0.0
1002
}
1002
{
1000
PXDIR
1011
333.6613370027894
1021
292.1380370021814
1031
0.0
1002
}
1002
{
1000
PORI
1011
133.6613370027894
1021
292.1380370021814
1031
0.0
1002
}
1002
{
1000
PINS
1011
133.6613370027894
1021
292.1380370021814
1031
0.0
1002
}
1002
{
1000
PINS2
1011
333.6613370027894
1021
272.1409329297828
1031
0.0
1002
}
1002
{
1000
C
1070
     1
1002
}
1001
GENIUS_GENOBJ-N-REC_13
1002
{
1000
OWNER
1000
GEN
1002
}
1001
GENIUS_GENODEF_13
1002
{
1000
HIER
1070
     0
1002
}
1002
{
1000
MANEDIT
1070
     0
1002
}
1002
{
1000
NOSEL
1070
     0
1002
}
1002
{
1000
BEHIND
1070
     0
1002
}
1002
{
1000
OTHER
1070
     0
1002
}
1002
{
1000
REACTOR
1002
}
  0
TEXT
  5
4BF6
330
1F
100
AcDbEntity
  8
LOGO
 62
     7
100
AcDbText
 10
178.8134739014967
 20
283.3776459878663
 30
0.0
 40
2.666280542986425
  1
Order example:
 41
0.8
  7
CHINESET
100
AcDbText
  0
TEXT
  5
4BF7
330
1F
100
AcDbEntity
  8
LOGO
 62
     7
100
AcDbText
 10
179.2918266801516
 20
287.1312169319606
 30
0.0
 40
3.999420814479637
  1
訂購代號：
  7
CHINESET
100
AcDbText
  0
LINE
  5
4BF8
330
1F
100
AcDbEntity
  8
LOGO
 62
     4
100
AcDbLine
 10
177.6549659620655
 20
272.1409329297831
 30
0.0
 11
177.6549659620655
 21
292.1380370021814
 31
0.0
  0
TEXT
  5
4BF9
330
1F
100
AcDbEntity
  8
LOGO
  6
Continuous
100
AcDbText
 10
140.8443866743168
 20
276.0693338465444
 30
0.0
 40
2.999565610859728
  1
金器工業股份有限公司
  7
CHINESET
100
AcDbText
  0
TEXT
  5
4BFA
330
1F
100
AcDbEntity
  8
LOGO
  6
Continuous
100
AcDbText
 10
135.3347780819585
 20
273.069180556
 30
0.0
 40
1.999710407239818
  1
MINDMAN INDUSTRIAL CO., LTD.
 41
0.85
  7
CHINESET
100
AcDbText
  0
LINE
  5
4BFB
330
1F
100
AcDbEntity
  8
LOGO
 62
     4
100
AcDbLine
 10
177.6549659620655
 20
288.1386161877017
 30
0.0
 11
148.3258799892146
 21
288.1386161877017
 31
0.0
  0
LINE
  5
4BFC
330
1F
100
AcDbEntity
  8
LOGO
 62
     4
100
AcDbLine
 10
177.6549659620655
 20
284.139195373222
 30
0.0
 11
148.3258799892146
 21
284.139195373222
 31
0.0
  0
LINE
  5
4BFD
330
1F
100
AcDbEntity
  8
LOGO
 62
     4
100
AcDbLine
 10
177.6549659620655
 20
280.1397745587426
 30
0.0
 11
133.6613370027894
 21
280.1397745587426
 31
0.0
  0
LINE
  5
4BFE
330
1F
100
AcDbEntity
  8
LOGO
 62
     4
100
AcDbLine
 10
148.3258799892146
 20
280.1397745587426
 30
0.0
 11
148.3258799892146
 21
292.1380370021814
 31
0.0
  0
TEXT
  5
4BFF
330
1F
100
AcDbEntity
  8
LOGO
100
AcDbText
 10
168.3709259398859
 20
281.1396297623622
 30
0.0
 40
1.999710407239818
  1
mm
  7
CHINESET
 72
     1
 11
170.846757872659
 21
282.1394849659821
 31
0.0
100
AcDbText
 73
     2
  0
TEXT
  5
4C00
330
1F
100
AcDbEntity
  8
LOGO
100
AcDbText
 10
167.3234585837127
 20
289.1384713913215
 30
0.0
 40
1.999710407239818
  1
1 : 1
  7
CHINESET
 72
     1
 11
170.846757872659
 21
290.1383265949414
 31
0.0
100
AcDbText
 73
     2
  0
LINE
  5
4C01
330
1F
100
AcDbEntity
  8
LOGO
 62
     4
100
AcDbLine
 10
164.3235632471333
 20
280.1397745587426
 30
0.0
 11
164.3235632471333
 21
292.1380370021814
 31
0.0
  0
CIRCLE
  5
4C02
330
1F
100
AcDbEntity
  8
LOGO
  6
Continuous
100
AcDbCircle
 10
168.0262771859616
 20
286.1431831756565
 30
0.0
 40
1.161078930320631
  0
CIRCLE
  5
4C03
330
1F
100
AcDbEntity
  8
LOGO
  6
Continuous
100
AcDbCircle
 10
168.0262771859616
 20
286.1431831756565
 30
0.0
 40
0.6802894686655972
  0
LINE
  5
4C04
330
1F
100
AcDbEntity
  8
LOGO
100
AcDbLine
 10
175.3226319099981
 20
284.9821042453357
 30
0.0
 11
175.3226319099981
 21
287.3042621059774
 31
0.0
  0
LINE
  5
4C05
330
1F
100
AcDbEntity
  8
LOGO
100
AcDbLine
 10
171.6827161125538
 20
285.4628937069911
 30
0.0
 11
171.6827161125538
 21
286.8234726443223
 31
0.0
  0
LINE
  5
4C06
330
1F
100
AcDbEntity
  8
LOGO
  6
Continuous
100
AcDbLine
 10
171.6827161125538
 20
286.8234726443223
 30
0.0
 11
175.3226319099981
 21
287.3042621059774
 31
0.0
  0
LINE
  5
4C07
330
1F
100
AcDbEntity
  8
LOGO
  6
Continuous
100
AcDbLine
 10
171.6827161125538
 20
285.4628937069911
 30
0.0
 11
175.3226319099981
 21
284.9821042453357
 31
0.0
  0
TEXT
  5
4C08
330
1F
100
AcDbEntity
  8
LOGO
100
AcDbText
 10
149.9747483473271
 20
289.1394555007739
 30
131.0577257600498
 40
1.999710407239818
  1
比例 Scale:
 41
0.9
  7
CHINESET
 72
     4
 11
156.3247216181739
 21
290.1383265949414
 31
131.0577257600498
100
AcDbText
  0
TEXT
  5
4C09
330
1F
100
AcDbEntity
  8
LOGO
100
AcDbText
 10
149.8595864533388
 20
285.1671797053557
 30
131.0577257600498
 40
1.999710407239818
  1
投影  View:
 41
0.9
  7
CHINESET
 72
     4
 11
156.3247216181739
 21
286.1389057804617
 31
131.0577257600498
100
AcDbText
  0
TEXT
  5
4C0A
330
1F
100
AcDbEntity
  8
LOGO
100
AcDbText
 10
150.0550938547609
 20
281.1396297623622
 30
131.0577257600498
 40
1.999710407239818
  1
單位  Unit:
 41
0.9
  7
CHINESET
 72
     4
 11
156.3247216181739
 21
282.1394849659821
 31
131.0577257600498
100
AcDbText
  0
SOLID
  5
4C0B
330
1F
100
AcDbEntity
  8
LOGO
 62
     5
100
AcDbTrace
 10
135.7360686432116
 20
283.464008474416
 30
0.0
 11
136.600690950901
 21
283.4640084744158
 31
0.0
 12
140.2082529933291
 22
291.6630131162985
 32
0.0
 13
141.0728753010189
 23
291.6630131162981
 33
0.0
  0
SOLID
  5
4C0C
330
1F
100
AcDbEntity
  8
LOGO
 62
     5
100
AcDbTrace
 10
136.9584656989113
 20
283.464008474416
 30
0.0
 11
137.8230880066007
 21
283.464008474416
 31
0.0
 12
141.0728753010189
 22
291.0070927449476
 32
0.0
 13
140.2082529933291
 23
287.8368109500864
 33
0.0
  0
SOLID
  5
4C0D
330
1F
100
AcDbEntity
  8
LOGO
 62
     2
100
AcDbTrace
 10
136.600690950901
 20
283.4640084744158
 30
0.0
 11
136.9584656989113
 21
283.464008474416
 31
0.0
 12
141.0728753010189
 22
291.6630131162981
 32
0.0
 13
141.4306500490288
 23
291.6630131162981
 33
0.0
  0
SOLID
  5
4C0E
330
1F
100
AcDbEntity
  8
LOGO
 62
     5
100
AcDbTrace
 10
134.3498670526232
 20
280.4825522410045
 30
0.0
 11
134.6480126759647
 21
280.4825522410045
 31
0.0
 12
135.4876139570942
 22
281.9732803577101
 32
0.0
 13
135.7857595804348
 23
281.9732803577101
 33
0.0
  0
SOLID
  5
4C0F
330
1F
100
AcDbEntity
  8
LOGO
 62
     5
100
AcDbTrace
 10
135.4876139570942
 20
281.9732803577101
 30
0.0
 11
135.7857595804348
 21
281.9732803577101
 31
0.0
 12
135.4876139570942
 22
280.4825522410045
 32
0.0
 13
135.7857595804348
 23
280.4825522410045
 33
0.0
  0
SOLID
  5
4C10
330
1F
100
AcDbEntity
  8
LOGO
 62
     5
100
AcDbTrace
 10
135.4876139570942
 20
280.4825522410045
 30
0.0
 11
135.7857595804348
 21
280.4825522410045
 31
0.0
 12
136.6253608615657
 22
281.9732803577101
 32
0.0
 13
136.9235064849067
 23
281.9732803577101
 33
0.0
  0
SOLID
  5
4C11
330
1F
100
AcDbEntity
  8
LOGO
 62
     5
100
AcDbTrace
 10
136.6253608615657
 20
281.9732803577101
 30
0.0
 11
136.9235064849067
 21
281.9732803577101
 31
0.0
 12
136.6253608615657
 22
280.4825522410045
 32
0.0
 13
136.9235064849067
 23
280.4825522410045
 33
0.0
  0
POLYLINE
  5
4C12
330
1F
100
AcDbEntity
  8
LOGO
 62
     5
100
AcDb2dPolyline
 66
     1
 10
0.0
 20
0.0
 30
0.0
 40
0.2986234208144796
 41
0.2986234208144796
  0
VERTEX
  5
4C13
330
4C12
100
AcDbEntity
  8
LOGO
 62
     5
100
AcDbVertex
100
AcDb2dVertex
 10
146.6191005913751
 20
281.3769891110278
 30
0.0
 42
1.0
  0
VERTEX
  5
4C14
330
4C12
100
AcDbEntity
  8
LOGO
 62
     5
100
AcDbVertex
100
AcDb2dVertex
 10
145.7232303289315
 20
281.3769891110278
 30
0.0
 42
1.0
  0
SEQEND
  5
4C15
330
4C12
100
AcDbEntity
  8
LOGO
 62
     5
  0
POLYLINE
  5
4C16
330
1F
100
AcDbEntity
  8
LOGO
 62
     5
100
AcDb2dPolyline
 66
     1
 10
0.0
 20
0.0
 30
0.0
 70
     1
  0
VERTEX
  5
4C17
330
4C16
100
AcDbEntity
  8
LOGO
 62
     5
100
AcDbVertex
100
AcDb2dVertex
 10
144.0344750359159
 20
281.227916299357
 30
0.0
 42
1.000000057330635
  0
VERTEX
  5
4C18
330
4C16
100
AcDbEntity
  8
LOGO
 62
     5
100
AcDbVertex
100
AcDb2dVertex
 10
144.9289119059394
 20
281.227916299357
 30
0.0
 42
1.000000057330635
  0
SEQEND
  5
4C19
330
4C16
100
AcDbEntity
  8
LOGO
 62
     5
  0
CIRCLE
  5
4C1A
330
1F
100
AcDbEntity
  8
LOGO
 62
     5
100
AcDbCircle
 10
144.4816934709283
 20
281.227916299357
 30
0.0
 40
0.4472184350117648
  0
POLYLINE
  5
4C1B
330
1F
100
AcDbEntity
  8
LOGO
 62
     5
100
AcDb2dPolyline
 66
     1
 10
0.0
 20
0.0
 30
0.0
 70
     1
 40
0.2986234208144796
 41
0.2986234208144796
  0
VERTEX
  5
4C1C
330
4C1B
100
AcDbEntity
  8
LOGO
 62
     5
100
AcDbVertex
100
AcDb2dVertex
 10
143.8844466292989
 20
281.227916299357
 30
0.0
 42
1.0
  0
VERTEX
  5
4C1D
330
4C1B
100
AcDbEntity
  8
LOGO
 62
     5
100
AcDbVertex
100
AcDb2dVertex
 10
145.0789403125568
 20
281.227916299357
 30
0.0
 42
1.0
  0
SEQEND
  5
4C1E
330
4C1B
100
AcDbEntity
  8
LOGO
 62
     5
  0
LINE
  5
4C1F
330
1F
100
AcDbEntity
  8
LOGO
100
AcDbLine
 10
146.7674567068352
 20
280.4825522410045
 30
0.0
 11
146.7674567068352
 21
281.3769891110278
 31
0.0
  0
SOLID
  5
4C20
330
1F
100
AcDbEntity
  8
LOGO
 62
     5
100
AcDbTrace
 10
144.9288820913784
 20
281.9732803577101
 30
0.0
 11
145.227027714719
 21
281.9732803577101
 31
0.0
 12
144.9288820913784
 22
280.4825522410045
 32
0.0
 13
145.227027714719
 23
280.4825522410045
 33
0.0
  0
SOLID
  5
4C21
330
1F
100
AcDbEntity
  8
LOGO
 62
     5
100
AcDbTrace
 10
145.5748742134706
 20
280.4825522410045
 30
0.0
 11
145.8730198368121
 21
280.4825522410045
 31
0.0
 12
145.5748742134706
 22
281.9732803577101
 32
0.0
 13
145.8730198368121
 23
281.9732803577101
 33
0.0
  0
SOLID
  5
4C22
330
1F
100
AcDbEntity
  8
LOGO
 62
     5
100
AcDbTrace
 10
146.4693110834946
 20
281.3769891110278
 30
0.0
 11
146.7674567068352
 21
281.3769891110278
 31
0.0
 12
146.4693110834946
 22
280.4825522410045
 32
0.0
 13
146.7674567068352
 23
280.4825522410045
 33
0.0
  0
SOLID
  5
4C23
330
1F
100
AcDbEntity
  8
LOGO
 62
     5
100
AcDbTrace
 10
145.5450596511364
 20
291.0070927449476
 30
0.0
 11
144.6804373434474
 21
287.8368109500864
 31
0.0
 12
145.5450596511364
 22
283.4640084744158
 32
0.0
 13
144.6804373434474
 23
283.4640084744158
 33
0.0
  0
SOLID
  5
4C24
330
1F
100
AcDbEntity
  8
LOGO
 62
     5
100
AcDbTrace
 10
145.9028343991463
 20
283.4640084744158
 30
0.0
 11
146.7674567068352
 21
283.4640084744158
 31
0.0
 12
145.9028343991463
 22
291.6630131162981
 32
0.0
 13
146.7674567068352
 23
291.6630131162985
 33
0.0
  0
SOLID
  5
4C25
330
1F
100
AcDbEntity
  8
LOGO
 62
     2
100
AcDbTrace
 10
145.5450596511364
 20
291.6630131162985
 30
0.0
 11
145.9028343991463
 21
291.6630131162981
 31
0.0
 12
145.5450596511364
 22
283.4640084744158
 32
0.0
 13
145.9028343991463
 23
283.4640084744158
 33
0.0
  0
POLYLINE
  5
4C26
330
1F
100
AcDbEntity
  8
LOGO
 62
     5
100
AcDb2dPolyline
 66
     1
 10
0.0
 20
0.0
 30
0.0
 40
0.2986234208144796
 41
0.2986234208144796
  0
VERTEX
  5
4C27
330
4C26
100
AcDbEntity
  8
LOGO
 62
     5
100
AcDbVertex
100
AcDb2dVertex
 10
142.3456601137768
 20
281.3769891110278
 30
0.0
 42
1.0
  0
VERTEX
  5
4C28
330
4C26
100
AcDbEntity
  8
LOGO
 62
     5
100
AcDbVertex
100
AcDb2dVertex
 10
141.4497898513332
 20
281.3769891110278
 30
0.0
 42
1.0
  0
SEQEND
  5
4C29
330
4C26
100
AcDbEntity
  8
LOGO
 62
     5
  0
POLYLINE
  5
4C2A
330
1F
100
AcDbEntity
  8
LOGO
 62
     5
100
AcDb2dPolyline
 66
     1
 10
0.0
 20
0.0
 30
0.0
 40
0.2986234208144796
 41
0.2986234208144796
  0
VERTEX
  5
4C2B
330
4C2A
100
AcDbEntity
  8
LOGO
 62
     5
100
AcDbVertex
100
AcDb2dVertex
 10
143.2400969837995
 20
281.3769891110278
 30
0.0
 42
1.0
  0
VERTEX
  5
4C2C
330
4C2A
100
AcDbEntity
  8
LOGO
 62
     5
100
AcDbVertex
100
AcDb2dVertex
 10
142.3442267213563
 20
281.3769891110278
 30
0.0
 42
1.0
  0
SEQEND
  5
4C2D
330
4C2A
100
AcDbEntity
  8
LOGO
 62
     5
  0
POLYLINE
  5
4C2E
330
1F
100
AcDbEntity
  8
LOGO
 62
     5
100
AcDb2dPolyline
 66
     1
 10
0.0
 20
0.0
 30
0.0
 40
0.2986234208144796
 41
0.2986234208144796
  0
VERTEX
  5
4C2F
330
4C2E
100
AcDbEntity
  8
LOGO
 62
     5
100
AcDbVertex
100
AcDb2dVertex
 10
138.9666565062011
 20
281.3769891110278
 30
0.0
 42
1.0
  0
VERTEX
  5
4C30
330
4C2E
100
AcDbEntity
  8
LOGO
 62
     5
100
AcDbVertex
100
AcDb2dVertex
 10
138.070786243758
 20
281.3769891110278
 30
0.0
 42
1.0
  0
SEQEND
  5
4C31
330
4C2E
100
AcDbEntity
  8
LOGO
 62
     5
  0
SOLID
  5
4C32
330
1F
100
AcDbEntity
  8
LOGO
 62
     5
100
AcDbTrace
 10
137.9224301282975
 20
281.9732803577101
 30
0.0
 11
138.2205757516381
 21
281.9732803577101
 31
0.0
 12
137.9224301282975
 22
280.4825522410045
 32
0.0
 13
138.2205757516381
 23
280.4825522410045
 33
0.0
  0
SOLID
  5
4C33
330
1F
100
AcDbEntity
  8
LOGO
 62
     5
100
AcDbTrace
 10
138.816866998321
 20
281.3769891110278
 30
0.0
 11
139.1150126216625
 21
281.3769891110278
 31
0.0
 12
138.816866998321
 22
280.4825522410045
 32
0.0
 13
139.1150126216625
 23
280.4825522410045
 33
0.0
  0
POLYLINE
  5
4C34
330
1F
100
AcDbEntity
  8
LOGO
 62
     5
100
AcDb2dPolyline
 66
     1
 10
0.0
 20
0.0
 30
0.0
 70
     1
 40
0.2986234208144796
 41
0.2986234208144796
  0
VERTEX
  5
4C35
330
4C34
100
AcDbEntity
  8
LOGO
 62
     5
100
AcDbVertex
100
AcDb2dVertex
 10
139.6110061517001
 20
281.227916299357
 30
0.0
 42
1.0
  0
VERTEX
  5
4C36
330
4C34
100
AcDbEntity
  8
LOGO
 62
     5
100
AcDbVertex
100
AcDb2dVertex
 10
140.8054998349585
 20
281.227916299357
 30
0.0
 42
1.0
  0
SEQEND
  5
4C37
330
4C34
100
AcDbEntity
  8
LOGO
 62
     5
  0
SOLID
  5
4C38
330
1F
100
AcDbEntity
  8
LOGO
 62
     5
100
AcDbTrace
 10
140.6554416137792
 20
282.4204987927221
 30
0.0
 11
140.9535872371202
 21
282.4204987927221
 31
0.0
 12
140.6554416137792
 22
280.4825522410045
 32
0.0
 13
140.9535872371202
 23
280.4825522410045
 33
0.0
  0
SOLID
  5
4C39
330
1F
100
AcDbEntity
  8
LOGO
 62
     5
100
AcDbTrace
 10
141.3014337358731
 20
281.9732803577101
 30
0.0
 11
141.5995793592137
 21
281.9732803577101
 31
0.0
 12
141.3014337358731
 22
280.4825522410045
 32
0.0
 13
141.5995793592137
 23
280.4825522410045
 33
0.0
  0
SOLID
  5
4C3A
330
1F
100
AcDbEntity
  8
LOGO
 62
     5
100
AcDbTrace
 10
142.1958706058958
 20
281.3769891110278
 30
0.0
 11
142.4940162292373
 21
281.3769891110278
 31
0.0
 12
142.1958706058958
 22
280.4825522410045
 32
0.0
 13
142.4940162292373
 23
280.4825522410045
 33
0.0
  0
SOLID
  5
4C3B
330
1F
100
AcDbEntity
  8
LOGO
 62
     5
100
AcDbTrace
 10
143.0903074759194
 20
281.3769891110278
 30
0.0
 11
143.3884530992604
 21
281.3769891110278
 31
0.0
 12
143.0903074759194
 22
280.482552241004
 32
0.0
 13
143.3884530992604
 23
280.482552241004
 33
0.0
  0
SOLID
  5
4C3C
330
1F
100
AcDbEntity
  8
LOGO
 62
     5
100
AcDbTrace
 10
137.276438006204
 20
282.181982294049
 30
0.0
 11
137.5745836295459
 21
282.181982294049
 31
0.0
 12
137.276438006204
 22
282.4204987927221
 32
0.0
 13
137.5745836295459
 23
282.4204987927221
 33
0.0
  0
SOLID
  5
4C3D
330
1F
100
AcDbEntity
  8
LOGO
 62
     5
100
AcDbTrace
 10
137.276438006204
 20
281.9732803577101
 30
0.0
 11
137.5745836295459
 21
281.9732803577101
 31
0.0
 12
137.276438006204
 22
280.482552241004
 32
0.0
 13
137.5745836295459
 23
280.4825522410045
 33
0.0
  0
SOLID
  5
4C3E
330
1F
100
AcDbEntity
  8
LOGO
 62
     5
100
AcDbTrace
 10
140.2082529933291
 20
283.464008474416
 30
0.0
 11
141.0728753010189
 21
283.464008474416
 31
0.0
 12
140.2082529933291
 22
287.8368109500864
 32
0.0
 13
141.0728753010189
 23
291.0070927449476
 33
0.0
  0
SOLID
  5
4C3F
330
1F
100
AcDbEntity
  8
LOGO
 62
     5
100
AcDbTrace
 10
141.4306500490288
 20
291.6630131162981
 30
0.0
 11
142.2952723567177
 21
291.6630131162985
 31
0.0
 12
141.4306500490288
 22
284.1199288457665
 32
0.0
 13
142.2952723567177
 23
287.2902106406277
 33
0.0
  0
SOLID
  5
4C40
330
1F
100
AcDbEntity
  8
LOGO
 62
     2
100
AcDbTrace
 10
141.0728753010189
 20
291.6630131162981
 30
0.0
 11
141.4306500490288
 21
291.6630131162981
 31
0.0
 12
141.0728753010189
 22
283.464008474416
 32
0.0
 13
141.4306500490288
 23
283.464008474416
 33
0.0
  0
SOLID
  5
4C41
330
1F
100
AcDbEntity
  8
LOGO
 62
     5
100
AcDbTrace
 10
141.4306500490288
 20
284.1199288457665
 30
0.0
 11
142.2952723567177
 21
287.2902106406277
 31
0.0
 12
145.5450596511364
 22
291.6630131162985
 32
0.0
 13
144.6804373434474
 23
291.6630131162985
 33
0.0
  0
SOLID
  5
4C42
330
1F
100
AcDbEntity
  8
LOGO
 62
     5
100
AcDbTrace
 10
141.4306500490288
 20
283.464008474416
 30
0.0
 11
142.2952723567177
 21
283.464008474416
 31
0.0
 12
145.5450596511364
 22
291.0070927449476
 32
0.0
 13
144.6804373434474
 23
287.8368109500864
 33
0.0
  0
SOLID
  5
4C43
330
1F
100
AcDbEntity
  8
LOGO
 62
     2
100
AcDbTrace
 10
141.0728753010189
 20
283.464008474416
 30
0.0
 11
141.4306500490288
 21
283.464008474416
 31
0.0
 12
145.5450596511364
 22
291.6630131162985
 32
0.0
 13
145.9028343991463
 23
291.6630131162981
 33
0.0
  0
LINE
  5
4C44
330
1F
100
AcDbEntity
  8
LOGO
 62
     4
100
AcDbLine
 10
218.4914978120478
 20
281.1396297623626
 30
0.0
 11
218.4914978120478
 21
273.8073582691495
 31
0.0
  0
LINE
  5
4C45
330
1F
100
AcDbEntity
  8
LOGO
 62
     4
100
AcDbLine
 10
205.1600950971156
 20
281.1396297623626
 30
0.0
 11
205.1600950971156
 21
273.8073582691495
 31
0.0
  0
LINE
  5
4C46
330
1F
100
AcDbEntity
  8
LOGO
 62
     4
100
AcDbLine
 10
218.4914978120478
 20
273.8073582691495
 30
0.0
 11
205.1600950971156
 21
273.8073582691495
 31
0.0
  0
LINE
  5
4C47
330
1F
100
AcDbEntity
  8
LOGO
 62
     4
100
AcDbLine
 10
220.8826265685207
 20
290.1383265949414
 30
0.0
 11
205.1600950971156
 21
290.1383265949414
 31
0.0
  0
LINE
  5
4C48
330
1F
100
AcDbEntity
  8
LOGO
 62
     4
100
AcDbLine
 10
220.8826265685207
 20
284.139195373222
 30
0.0
 11
205.1600950971156
 21
284.139195373222
 31
0.0
  0
LINE
  5
4C49
330
1F
100
AcDbEntity
  8
LOGO
 62
     4
100
AcDbLine
 10
205.1600950971156
 20
290.1383265949414
 30
0.0
 11
205.1600950971156
 21
284.139195373222
 31
0.0
  0
LINE
  5
4C4A
330
1F
100
AcDbEntity
  8
LOGO
 62
     4
100
AcDbLine
 10
220.8826265685207
 20
290.1383265949414
 30
0.0
 11
220.8826265685207
 21
284.139195373222
 31
0.0
  0
LINE
  5
4C4B
330
1F
100
AcDbEntity
  8
LOGO
 62
     4
100
AcDbLine
 10
212.5213608328181
 20
284.139195373222
 30
0.0
 11
212.5213608328181
 21
281.1396297623626
 31
0.0
  0
TEXT
  5
4C4C
330
1F
100
AcDbEntity
  8
LOGO
  6
Continuous
 62
     7
100
AcDbText
 10
206.2260467603955
 20
285.391505245027
 30
0.0
 40
3.5
  1
MVAA
  7
CHINESET
100
AcDbText
  0
LINE
  5
4C4D
330
1F
100
AcDbEntity
  8
LOGO
 62
     4
100
AcDbLine
 10
218.4914978120478
 20
281.1396297623626
 30
0.0
 11
205.1600950971156
 21
281.1396297623626
 31
0.0
  0
TEXT
  5
4C4E
330
1F
100
AcDbEntity
  8
LOGO
  6
Continuous
100
AcDbText
 10
209.4381000217586
 20
274.8422928419736
 30
131.0577257600498
 40
1.5
  1
Model
 41
0.8
  7
CHINESET
100
AcDbText
  0
TEXT
  5
4C4F
330
1F
100
AcDbEntity
  8
LOGO
100
AcDbText
 10
209.0388487837595
 20
277.622969568901
 30
131.0577257600498
 40
2.5
  1
型號
  7
CHINESET
100
AcDbText
  0
LINE
  5
4C50
330
1F
100
AcDbEntity
  8
LOGO
  6
Continuous
 62
     7
100
AcDbLine
 10
221.5203837995264
 20
287.1175111132077
 30
0.0
 11
224.1693812484659
 21
287.1175111132077
 31
0.0
  0
LINE
  5
4C5C
330
1F
100
AcDbEntity
  8
LOGO
 62
     4
100
AcDbLine
 10
234.0821833975849
 20
281.1396297623626
 30
0.0
 11
234.0821833975849
 21
273.8073582691495
 31
0.0
  0
LINE
  5
4C5D
330
1F
100
AcDbEntity
  8
LOGO
 62
     4
100
AcDbLine
 10
220.7507806826527
 20
281.1396297623626
 30
0.0
 11
220.7507806826527
 21
273.8073582691495
 31
0.0
  0
LINE
  5
4C5E
330
1F
100
AcDbEntity
  8
LOGO
 62
     4
100
AcDbLine
 10
234.0821833975849
 20
273.8073582691495
 30
0.0
 11
220.7507806826527
 21
273.8073582691495
 31
0.0
  0
LINE
  5
4C5F
330
1F
100
AcDbEntity
  8
LOGO
 62
     4
100
AcDbLine
 10
235.9097828851852
 20
290.1383265949414
 30
0.0
 11
225.6587883019053
 21
290.1383265949414
 31
0.0
  0
LINE
  5
4C60
330
1F
100
AcDbEntity
  8
LOGO
 62
     4
100
AcDbLine
 10
235.9097828851852
 20
284.139195373222
 30
0.0
 11
225.6587883019053
 21
284.139195373222
 31
0.0
  0
LINE
  5
4C61
330
1F
100
AcDbEntity
  8
LOGO
 62
     4
100
AcDbLine
 10
225.6587883019053
 20
290.1383265949414
 30
0.0
 11
225.6587883019053
 21
284.139195373222
 31
0.0
  0
LINE
  5
4C62
330
1F
100
AcDbEntity
  8
LOGO
 62
     4
100
AcDbLine
 10
235.9097828851852
 20
290.1383265949414
 30
0.0
 11
235.9097828851852
 21
284.139195373222
 31
0.0
  0
LINE
  5
4C63
330
1F
100
AcDbEntity
  8
LOGO
 62
     4
100
AcDbLine
 10
230.7842855935453
 20
284.139195373222
 30
0.0
 11
230.7842855935453
 21
281.1396297623626
 31
0.0
  0
TEXT
  5
4C64
330
1F
100
AcDbEntity
  8
LOGO
  6
Continuous
 62
     7
100
AcDbText
 10
226.45725662585
 20
285.391505245027
 30
0.0
 40
3.5
  1
180
  7
CHINESET
100
AcDbText
  0
LINE
  5
4C65
330
1F
100
AcDbEntity
  8
LOGO
 62
     4
100
AcDbLine
 10
234.0821833975849
 20
281.1396297623626
 30
0.0
 11
220.7507806826527
 21
281.1396297623626
 31
0.0
  0
LINE
  5
4C66
330
1F
100
AcDbEntity
  8
LOGO
  6
Continuous
 62
     7
100
AcDbLine
 10
237.1521432295403
 20
287.1175111132077
 30
0.0
 11
239.8011406784803
 21
287.1175111132077
 31
0.0
  0
TEXT
  5
4C73
330
1F
100
AcDbEntity
  8
LOGO
  6
Continuous
100
AcDbText
 10
222.5680235308869
 20
274.8422928419736
 30
131.0577257600498
 40
1.5
  1
Body width
 41
0.8
  7
CHINESET
100
AcDbText
  0
TEXT
  5
4C74
330
1F
100
AcDbEntity
  8
LOGO
100
AcDbText
 10
222.4571619649164
 20
277.622969568901
 30
131.0577257600498
 40
2.5
  1
本體寬幅
  7
CHINESET
100
AcDbText
  0
TEXT
  5
4C83
330
1F
100
AcDbEntity
  8
LOGO
100
AcDbText
 10
178.7148348866365
 20
273.2047709737044
 30
0.0
 40
2.0
  1
10612310
 41
0.7
  7
CHINESET
 72
     1
 11
183.4481682199698
 21
273.2047709737044
 31
0.0
100
AcDbText
  0
LINE
  5
4C84
330
1F
100
AcDbEntity
  8
LOGO
 62
     4
100
AcDbLine
 10
189.6549659620646
 20
276.1403537442632
 30
0.0
 11
189.6549659620655
 21
272.1409329297833
 31
0.0
  0
LINE
  5
4C85
330
1F
100
AcDbEntity
  8
LOGO
 62
     4
100
AcDbLine
 10
189.6549659620646
 20
276.1403537442632
 30
0.0
 11
177.6549659620655
 21
276.1403537442632
 31
0.0
  0
LINE
  5
4C86
330
1F
100
AcDbEntity
  8
LOGO
  6
AM_ISO08W050x2
 48
0.3
100
AcDbLine
 10
166.4257124947266
 20
286.1431831756565
 30
0.0
 11
169.6268418771965
 21
286.1431831756565
 31
0.0
1001
GENIUS_GENOREF_13
1005
4C8B
  0
LINE
  5
4C87
330
1F
100
AcDbEntity
  8
LOGO
  6
AM_ISO08W050x2
 48
0.3
100
AcDbLine
 10
168.0262771859616
 20
284.5426184844216
 30
0.0
 11
168.0262771859616
 21
287.7437478668915
 31
0.0
1001
GENIUS_GENOREF_13
1005
4C8A
  0
LINE
  5
4C88
330
1F
100
AcDbEntity
  8
LOGO
  6
CENTER
 48
0.5
100
AcDbLine
 10
171.3916240197445
 20
286.1431831756565
 30
0.0
 11
175.6891596477858
 21
286.1431831756565
 31
0.0
1001
GENIUS_GENOREF_13
1005
4C89
  0
POINT
  5
4C89
330
1F
100
AcDbEntity
  8
0
 60
     1
100
AcDbPoint
 10
-1938.679822737193
 20
-665.9923693759432
 30
0.0
1001
GENIUS_GENOBJ-N-CRS_13
1002
{
1000
OWNER
1000
GEN
1002
}
1001
GENIUS_GENOLIS_13
1002
{
1000
ENT
1005
0
1005
0
1005
0
1005
4C88
1002
}
1001
GENIUS_GENOENT_13
1002
{
1000
MYREF
1005
4C89
1002
}
1002
{
1000
GRP
1005
0
1002
}
1001
GENIUS_GENODEF_13
1002
{
1000
HIER
1070
    10
1002
}
1002
{
1000
MANEDIT
1070
     1
1002
}
1002
{
1000
NOSEL
1070
     0
1002
}
1002
{
1000
BEHIND
1070
     0
1002
}
1002
{
1000
OTHER
1070
     0
1002
}
1002
{
1000
REACTOR
1002
}
  0
POINT
  5
4C8A
330
1F
100
AcDbEntity
  8
0
 60
     1
100
AcDbPoint
 10
-1950.004407960048
 20
-657.1167828973069
 30
0.0
1001
GENIUS_GENOBJ-N-CRS_13
1002
{
1000
OWNER
1000
GEN
1002
}
1001
GENIUS_GENOLIS_13
1002
{
1000
ENT
1005
0
1005
0
1005
0
1005
4C87
1002
}
1001
GENIUS_GENOENT_13
1002
{
1000
MYREF
1005
4C8A
1002
}
1002
{
1000
GRP
1005
0
1002
}
1001
GENIUS_GENODEF_13
1002
{
1000
HIER
1070
    10
1002
}
1002
{
1000
MANEDIT
1070
     1
1002
}
1002
{
1000
NOSEL
1070
     0
1002
}
1002
{
1000
BEHIND
1070
     0
1002
}
1002
{
1000
OTHER
1070
     0
1002
}
1002
{
1000
REACTOR
1002
}
  0
POINT
  5
4C8B
330
1F
100
AcDbEntity
  8
0
 60
     1
100
AcDbPoint
 10
-1943.645734262211
 20
-665.9923693759432
 30
0.0
1001
GENIUS_GENOBJ-N-CRS_13
1002
{
1000
OWNER
1000
GEN
1002
}
1001
GENIUS_GENOLIS_13
1002
{
1000
ENT
1005
0
1005
0
1005
0
1005
4C86
1002
}
1001
GENIUS_GENOENT_13
1002
{
1000
MYREF
1005
4C8B
1002
}
1002
{
1000
GRP
1005
0
1002
}
1001
GENIUS_GENODEF_13
1002
{
1000
HIER
1070
    10
1002
}
1002
{
1000
MANEDIT
1070
     1
1002
}
1002
{
1000
NOSEL
1070
     0
1002
}
1002
{
1000
BEHIND
1070
     0
1002
}
1002
{
1000
OTHER
1070
     0
1002
}
1002
{
1000
REACTOR
1002
}
  0
LINE
  5
4EA8
330
1F
100
AcDbEntity
  8
LOGO
 62
     4
100
AcDbLine
 10
245.3072971398592
 20
281.1396297623626
 30
0.0
 11
245.3072971398592
 21
273.8073582691495
 31
0.0
  0
LINE
  5
4EA9
330
1F
100
AcDbEntity
  8
LOGO
 62
     4
100
AcDbLine
 10
235.2930848925616
 20
281.1396297623626
 30
0.0
 11
235.2930848925616
 21
273.8073582691495
 31
0.0
  0
LINE
  5
4EAA
330
1F
100
AcDbEntity
  8
LOGO
 62
     4
100
AcDbLine
 10
245.3072971398592
 20
273.8073582691495
 30
0.0
 11
235.2930848925616
 21
273.8073582691495
 31
0.0
  0
LINE
  5
4EAB
330
1F
100
AcDbEntity
  8
LOGO
 62
     4
100
AcDbLine
 10
245.1387420086883
 20
290.1383265949414
 30
0.0
 11
240.8800595655173
 21
290.1383265949414
 31
0.0
  0
LINE
  5
4EAC
330
1F
100
AcDbEntity
  8
LOGO
 62
     4
100
AcDbLine
 10
245.1387420086883
 20
284.139195373222
 30
0.0
 11
240.8800595655173
 21
284.139195373222
 31
0.0
  0
LINE
  5
4EAD
330
1F
100
AcDbEntity
  8
LOGO
 62
     4
100
AcDbLine
 10
240.8800595655173
 20
290.1383265949414
 30
0.0
 11
240.8800595655173
 21
284.139195373222
 31
0.0
  0
LINE
  5
4EAE
330
1F
100
AcDbEntity
  8
LOGO
 62
     4
100
AcDbLine
 10
245.1387420086883
 20
290.1383265949414
 30
0.0
 11
245.1387420086883
 21
284.139195373222
 31
0.0
  0
LINE
  5
4EAF
330
1F
100
AcDbEntity
  8
LOGO
 62
     4
100
AcDbLine
 10
243.0094007871028
 20
284.139195373222
 30
0.0
 11
243.0094007871028
 21
281.1396297623626
 31
0.0
  0
TEXT
  5
4EB0
330
1F
100
AcDbEntity
  8
LOGO
  6
Continuous
 62
     7
100
AcDbText
 10
241.678527889462
 20
285.391505245027
 30
0.0
 40
3.5
  1
4
  7
CHINESET
100
AcDbText
  0
LINE
  5
4EB1
330
1F
100
AcDbEntity
  8
LOGO
 62
     4
100
AcDbLine
 10
245.3072971398592
 20
281.1396297623626
 30
0.0
 11
235.2930848925616
 21
281.1396297623626
 31
0.0
  0
LINE
  5
4EB2
330
1F
100
AcDbEntity
  8
LOGO
 62
     4
100
AcDbLine
 10
266.3959403623485
 20
281.1396297623626
 30
0.0
 11
266.3959403623485
 21
273.8073582691495
 31
0.0
  0
LINE
  5
4EB3
330
1F
100
AcDbEntity
  8
LOGO
 62
     4
100
AcDbLine
 10
247.3382180795029
 20
281.1396297623626
 30
0.0
 11
247.3382180795029
 21
273.8073582691495
 31
0.0
  0
LINE
  5
4EB4
330
1F
100
AcDbEntity
  8
LOGO
 62
     4
100
AcDbLine
 10
266.3959403623485
 20
273.8073582691495
 30
0.0
 11
247.3382180795029
 21
273.8073582691495
 31
0.0
  0
LINE
  5
4EB5
330
1F
100
AcDbEntity
  8
LOGO
 62
     4
100
AcDbLine
 10
253.7567772346583
 20
290.1383265949414
 30
0.0
 11
245.8418647331473
 21
290.1383265949414
 31
0.0
  0
LINE
  5
4EB6
330
1F
100
AcDbEntity
  8
LOGO
 62
     4
100
AcDbLine
 10
253.7567772346583
 20
284.139195373222
 30
0.0
 11
245.8418647331473
 21
284.139195373222
 31
0.0
  0
LINE
  5
4EB7
330
1F
100
AcDbEntity
  8
LOGO
 62
     4
100
AcDbLine
 10
245.8418647331473
 20
290.1383265949414
 30
0.0
 11
245.8418647331473
 21
284.139195373222
 31
0.0
  0
LINE
  5
4EB8
330
1F
100
AcDbEntity
  8
LOGO
 62
     4
100
AcDbLine
 10
253.7567772346583
 20
290.1383265949414
 30
0.0
 11
253.7567772346583
 21
284.139195373222
 31
0.0
  0
LINE
  5
4EB9
330
1F
100
AcDbEntity
  8
LOGO
 62
     4
100
AcDbLine
 10
249.7993209839028
 20
284.139195373222
 30
0.0
 11
249.7993209839028
 21
281.1396297623626
 31
0.0
  0
TEXT
  5
4EBA
330
1F
100
AcDbEntity
  8
LOGO
  6
Continuous
 62
     7
100
AcDbText
 10
247.2578476056824
 20
285.391505245027
 30
0.0
 40
3.5
  1
A1
  7
CHINESET
100
AcDbText
  0
LINE
  5
4EBB
330
1F
100
AcDbEntity
  8
LOGO
 62
     4
100
AcDbLine
 10
266.3959403623485
 20
281.1396297623626
 30
0.0
 11
247.3382180795029
 21
281.1396297623626
 31
0.0
  0
TEXT
  5
4EBC
330
1F
100
AcDbEntity
  8
LOGO
  6
Continuous
100
AcDbText
 10
238.0854688924205
 20
274.8422928419736
 30
131.0577257600498
 40
1.5
  1
4 Way
 41
0.8
  7
CHINESET
100
AcDbText
  0
TEXT
  5
4EBD
330
1F
100
AcDbEntity
  8
LOGO
100
AcDbText
 10
236.6224256925448
 20
277.622969568901
 30
131.0577257600498
 40
2.5
  1
4方向
  7
CHINESET
100
AcDbText
  0
TEXT
  5
4EBE
330
1F
100
AcDbEntity
  8
LOGO
100
AcDbText
 10
249.6865819918805
 20
277.622969568901
 30
131.0577257600498
 40
2.5
  1
單動氣壓導引
  7
CHINESET
100
AcDbText
  0
TEXT
  5
4ECA
330
1F
100
AcDbEntity
  8
LOGO
  6
Continuous
100
AcDbText
 10
248.7214586075793
 20
274.8422928419736
 30
131.0577257600498
 40
1.5
  1
Single air operate
 41
0.8
  7
CHINESET
100
AcDbText
  0
INSERT
  5
4F66
330
1F
100
AcDbEntity
  8
AM_5
100
AcDbBlockReference
  2
*S26
 10
0.0
 20
0.0
 30
0.0
  0
ENDSEC
  0
SECTION
  2
OBJECTS
  0
DICTIONARY
  5
C
330
0
100
AcDbDictionary
281
     1
  3
ACAD_COLOR
350
BE
  3
ACAD_GROUP
350
D
  3
ACAD_LAYOUT
350
1A
  3
ACAD_MATERIAL
350
BD
  3
ACAD_MLINESTYLE
350
17
  3
ACAD_PLOTSETTINGS
350
19
  3
ACAD_PLOTSTYLENAME
350
E
  3
ACAD_TABLESTYLE
350
11A
  3
ACDBHEADERROUNDTRIPXREC
350
5012
  3
AcDbVariableDictionary
350
94
  3
AcmDictionary
350
5B
  3
AMG
350
41
  3
AMGSNAPSETTINGS
350
1B8
  3
DWGPROPS
350
5011
  0
DICTIONARY
  5
3F9
330
2
100
AcDbDictionary
280
     1
281
     1
  3
ACAD_LAYERFILTERS
360
240D
  3
ACAD_LAYERSTATES
360
A85
  3
ACLYDICTIONARY
360
240C
  3
AMLAYER_GROUPCOLORS
360
1053
  0
DICTIONARY
  5
8F
330
1F
100
AcDbDictionary
280
     1
281
     1
  3
ACAD_SORTENTS
360
1086
  0
DICTIONARY
  5
272B
330
271E
100
AcDbDictionary
280
     1
281
     1
  3
ACAD_DIMASSOC
360
272C
  0
DICTIONARY
  5
277A
330
276B
100
AcDbDictionary
280
     1
281
     1
  3
ACAD_DIMASSOC
360
277B
  0
DICTIONARY
  5
BE
102
{ACAD_REACTORS
330
C
102
}
330
C
100
AcDbDictionary
281
     1
  0
DICTIONARY
  5
D
102
{ACAD_REACTORS
330
C
102
}
330
C
100
AcDbDictionary
281
     1
  0
DICTIONARY
  5
1A
102
{ACAD_REACTORS
330
C
102
}
330
C
100
AcDbDictionary
281
     1
  3
Model
350
22
  3
配置1
350
1E
  3
配置2
350
26
  0
DICTIONARY
  5
BD
102
{ACAD_REACTORS
330
C
102
}
330
C
100
AcDbDictionary
281
     1
  0
DICTIONARY
  5
17
102
{ACAD_REACTORS
330
C
102
}
330
C
100
AcDbDictionary
281
     1
  3
Standard
350
18
  0
DICTIONARY
  5
19
102
{ACAD_REACTORS
330
C
102
}
330
C
100
AcDbDictionary
281
     1
  0
ACDBDICTIONARYWDFLT
  5
E
102
{ACAD_REACTORS
330
C
102
}
330
C
100
AcDbDictionary
281
     1
  3
Normal
350
F
100
AcDbDictionaryWithDefault
340
F
  0
DICTIONARY
  5
11A
102
{ACAD_REACTORS
330
C
102
}
330
C
100
AcDbDictionary
281
     1
  3
Standard
350
11B
  0
DICTIONARY
  5
5012
102
{ACAD_REACTORS
330
C
102
}
330
C
100
AcDbDictionary
281
     1
  0
DICTIONARY
  5
94
102
{ACAD_REACTORS
330
C
102
}
330
C
100
AcDbDictionary
281
     1
  3
CTABLESTYLE
350
138
  3
DIMASSOC
350
96
  3
INDEXCTL
350
95
  3
PROJECTNAME
350
500F
  0
DICTIONARY
  5
5B
102
{ACAD_REACTORS
330
C
102
}
330
C
100
AcDbDictionary
281
     1
  3
AcmBOM
350
1B5
  3
AcmStdDictionary
350
61
  3
AMDTSECTSYM_ARROWCOLOR
350
123
  0
DICTIONARY
  5
41
102
{ACAD_REACTORS
330
C
102
}
330
C
100
AcDbDictionary
281
     1
  0
DICTIONARY
  5
1B8
102
{ACAD_REACTORS
330
C
102
}
330
C
100
AcDbDictionary
281
     1
  0
XRECORD
  5
5011
102
{ACAD_REACTORS
330
C
102
}
330
C
100
AcDbXrecord
280
     1
  1
DWGPROPS COOKIE
  2

  3

  4

  6

  7

  8

  9

300
AmdtFileType=84
301
=
302
=
303
=
304
=
305
=
306
=
307
=
308
=
309
=
 40
0.1092905555555556
 41
2454097.385877268
 42
2454097.696294665
  1

 90
        1
  0
DICTIONARY
  5
240D
102
{ACAD_REACTORS
330
3F9
102
}
330
3F9
100
AcDbDictionary
281
     1
  0
DICTIONARY
  5
A85
102
{ACAD_REACTORS
330
3F9
102
}
330
3F9
100
AcDbDictionary
281
     1
  0
DICTIONARY
  5
240C
102
{ACAD_REACTORS
330
3F9
102
}
330
3F9
100
AcDbDictionary
281
     1
1001
ACAD
1000
<All
  0
DICTIONARY
  5
1053
102
{ACAD_REACTORS
330
3F9
102
}
330
3F9
100
AcDbDictionary
280
     1
281
     1
  0
SORTENTSTABLE
  5
1086
102
{ACAD_REACTORS
330
8F
102
}
330
8F
100
AcDbSortentsTable
330
1F
331
3541
  5
3541
331
2379
  5
2379
331
2342
  5
2342
331
3549
  5
3549
331
2447
  5
2447
331
2381
  5
2381
331
234A
  5
234A
331
230B
  5
230B
331
3551
  5
3551
331
25FC
  5
25FC
331
2313
  5
2313
331
3559
  5
3559
331
2352
  5
2352
331
2399
  5
2399
331
235A
  5
235A
331
231B
  5
231B
331
245F
  5
245F
331
2272
  5
2272
331
220B
  5
220B
331
2213
  5
2213
331
22DA
  5
22DA
331
221B
  5
221B
331
21E4
  5
21E4
331
22E2
  5
22E2
331
2223
  5
2223
331
21EC
  5
21EC
331
2362
  5
2362
331
2323
  5
2323
331
3532
  5
3532
331
24C6
  5
24C6
331
236A
  5
236A
331
353A
  5
353A
331
2438
  5
2438
331
2372
  5
2372
331
2333
  5
2333
331
23B9
  5
23B9
331
233B
  5
233B
331
2497
  5
2497
331
22EA
  5
22EA
331
21F4
  5
21F4
331
22F2
  5
22F2
331
22FA
  5
22FA
331
2204
  5
2204
331
23C1
  5
23C1
331
237A
  5
237A
331
2343
  5
2343
331
354A
  5
354A
331
276B
  5
276B
331
25F5
  5
25F5
331
2448
  5
2448
331
2382
  5
2382
331
234B
  5
234B
331
230C
  5
230C
331
3552
  5
3552
331
25FD
  5
25FD
331
24A7
  5
24A7
331
2353
  5
2353
331
2314
  5
2314
331
2458
  5
2458
331
239A
  5
239A
331
231C
  5
231C
331
2273
  5
2273
331
220C
  5
220C
331
2214
  5
2214
331
21DD
  5
21DD
331
22DB
  5
22DB
331
221C
  5
221C
331
21E5
  5
21E5
331
22E3
  5
22E3
331
2224
  5
2224
331
21ED
  5
21ED
331
352B
  5
352B
331
2460
  5
2460
331
23A2
  5
23A2
331
2363
  5
2363
331
2324
  5
2324
331
3533
  5
3533
331
236B
  5
236B
331
232C
  5
232C
331
24CF
  5
24CF
331
2373
  5
2373
331
2334
  5
2334
331
24D7
  5
24D7
331
233C
  5
233C
331
22EB
  5
22EB
331
21F5
  5
21F5
331
22F3
  5
22F3
331
22FB
  5
22FB
331
225C
  5
225C
331
2205
  5
2205
331
226C
  5
226C
331
3543
  5
3543
331
2498
  5
2498
331
23C2
  5
23C2
331
237B
  5
237B
331
2344
  5
2344
331
354B
  5
354B
331
2449
  5
2449
331
2383
  5
2383
331
234C
  5
234C
331
230D
  5
230D
331
3553
  5
3553
331
24A8
  5
24A8
331
2451
  5
2451
331
2393
  5
2393
331
2354
  5
2354
331
355B
  5
355B
331
3524
  5
3524
331
2315
  5
2315
331
24B8
  5
24B8
331
2459
  5
2459
331
239B
  5
239B
331
231D
  5
231D
331
220D
  5
220D
331
2215
  5
2215
331
21DE
  5
21DE
331
22DC
  5
22DC
331
221D
  5
221D
331
21E6
  5
21E6
331
22E4
  5
22E4
331
21EE
  5
21EE
331
352C
  5
352C
331
2461
  5
2461
331
2364
  5
2364
331
2325
  5
2325
331
3534
  5
3534
331
2471
  5
2471
331
23AB
  5
23AB
331
236C
  5
236C
331
232D
  5
232D
331
353C
  5
353C
331
23B3
  5
23B3
331
2374
  5
2374
331
273D
  5
273D
331
2335
  5
2335
331
23BB
  5
23BB
331
233D
  5
233D
331
25EF
  5
25EF
331
22EC
  5
22EC
331
21F6
  5
21F6
331
21FE
  5
21FE
331
22FC
  5
22FC
331
225D
  5
225D
331
2206
  5
2206
331
226D
  5
226D
331
3544
  5
3544
331
237C
  5
237C
331
2345
  5
2345
331
2306
  5
2306
331
354C
  5
354C
331
244A
  5
244A
331
2384
  5
2384
331
234D
  5
234D
331
230E
  5
230E
331
3554
  5
3554
331
24A9
  5
24A9
331
2452
  5
2452
331
2394
  5
2394
331
2355
  5
2355
331
355C
  5
355C
331
3525
  5
3525
331
2316
  5
2316
331
245A
  5
245A
331
239C
  5
239C
331
231E
  5
231E
331
220E
  5
220E
331
2216
  5
2216
331
21DF
  5
21DF
331
22DD
  5
22DD
331
221E
  5
221E
331
21E7
  5
21E7
331
22E5
  5
22E5
331
21EF
  5
21EF
331
352D
  5
352D
331
2462
  5
2462
331
2423
  5
2423
331
2365
  5
2365
331
3535
  5
3535
331
271E
  5
271E
331
2472
  5
2472
331
23AC
  5
23AC
331
236D
  5
236D
331
232E
  5
232E
331
353D
  5
353D
331
24C9
  5
24C9
331
23B4
  5
23B4
331
2375
  5
2375
331
273E
  5
273E
331
2336
  5
2336
331
23BC
  5
23BC
331
233E
  5
233E
331
22ED
  5
22ED
331
21F7
  5
21F7
331
21FF
  5
21FF
331
2207
  5
2207
331
22FD
  5
22FD
331
3545
  5
3545
331
237D
  5
237D
331
2346
  5
2346
331
2307
  5
2307
331
2385
  5
2385
331
234E
  5
234E
331
230F
  5
230F
331
3555
  5
3555
331
25F8
  5
25F8
331
24AA
  5
24AA
331
2453
  5
2453
331
2356
  5
2356
331
355D
  5
355D
331
3526
  5
3526
331
2317
  5
2317
331
245B
  5
245B
331
241C
  5
241C
331
239D
  5
239D
331
235E
  5
235E
331
231F
  5
231F
331
220F
  5
220F
331
22D6
  5
22D6
331
2217
  5
2217
331
21E0
  5
21E0
331
221F
  5
221F
331
21E8
  5
21E8
331
22DE
  5
22DE
331
22E6
  5
22E6
331
352E
  5
352E
331
2424
  5
2424
331
2366
  5
2366
331
2327
  5
2327
331
236E
  5
236E
331
232F
  5
232F
331
353E
  5
353E
331
2473
  5
2473
331
24D2
  5
24D2
331
2483
  5
2483
331
2376
  5
2376
331
2337
  5
2337
331
233F
  5
233F
331
21F0
  5
21F0
331
22EE
  5
22EE
331
224F
  5
224F
331
21F8
  5
21F8
331
2200
  5
2200
331
22FE
  5
22FE
331
2300
  5
2300
331
4755
  5
4755
331
3546
  5
3546
331
237E
  5
237E
331
2347
  5
2347
331
2308
  5
2308
331
354E
  5
354E
331
26C8
  5
26C8
331
2386
  5
2386
331
234F
  5
234F
331
2310
  5
2310
331
3556
  5
3556
331
2454
  5
2454
331
2396
  5
2396
331
2357
  5
2357
331
355E
  5
355E
331
3527
  5
3527
331
2318
  5
2318
331
241D
  5
241D
331
235F
  5
235F
331
2208
  5
2208
331
2210
  5
2210
331
22D7
  5
22D7
331
2218
  5
2218
331
21E1
  5
21E1
331
22DF
  5
22DF
331
21E9
  5
21E9
331
2220
  5
2220
331
22E7
  5
22E7
331
2320
  5
2320
331
2425
  5
2425
331
2328
  5
2328
331
3537
  5
3537
331
2474
  5
2474
331
236F
  5
236F
331
2330
  5
2330
331
353F
  5
353F
331
2435
  5
2435
331
24D3
  5
24D3
331
2484
  5
2484
331
2377
  5
2377
331
2338
  5
2338
331
23BE
  5
23BE
331
21F1
  5
21F1
331
22EF
  5
22EF
331
2250
  5
2250
331
21F9
  5
21F9
331
2201
  5
2201
331
22FF
  5
22FF
331
2340
  5
2340
331
2301
  5
2301
331
4756
  5
4756
331
3547
  5
3547
331
25F2
  5
25F2
331
237F
  5
237F
331
2348
  5
2348
331
2309
  5
2309
331
26C9
  5
26C9
331
2387
  5
2387
331
2350
  5
2350
331
2311
  5
2311
331
3557
  5
3557
331
2397
  5
2397
331
2358
  5
2358
331
2319
  5
2319
331
241E
  5
241E
331
239F
  5
239F
331
2209
  5
2209
331
2211
  5
2211
331
22D8
  5
22D8
331
2219
  5
2219
331
21E2
  5
21E2
331
22E0
  5
22E0
331
2221
  5
2221
331
21EA
  5
21EA
331
3528
  5
3528
331
2360
  5
2360
331
2321
  5
2321
331
3530
  5
3530
331
2426
  5
2426
331
2329
  5
2329
331
3538
  5
3538
331
24CC
  5
24CC
331
2370
  5
2370
331
2331
  5
2331
331
2436
  5
2436
331
24D4
  5
24D4
331
2485
  5
2485
331
23B7
  5
23B7
331
2339
  5
2339
331
2495
  5
2495
331
22E8
  5
22E8
331
21F2
  5
21F2
331
22F0
  5
22F0
331
21FA
  5
21FA
331
22F8
  5
22F8
331
2202
  5
2202
331
3540
  5
3540
331
2378
  5
2378
331
2341
  5
2341
331
2302
  5
2302
331
3548
  5
3548
331
2380
  5
2380
331
2349
  5
2349
331
230A
  5
230A
331
3550
  5
3550
331
2351
  5
2351
331
2312
  5
2312
331
3558
  5
3558
331
25FB
  5
25FB
331
2417
  5
2417
331
2398
  5
2398
331
2359
  5
2359
331
231A
  5
231A
331
241F
  5
241F
331
220A
  5
220A
331
2212
  5
2212
331
22D9
  5
22D9
331
221A
  5
221A
331
21E3
  5
21E3
331
22E1
  5
22E1
331
2222
  5
2222
331
21EB
  5
21EB
331
3529
  5
3529
331
2361
  5
2361
331
2322
  5
2322
331
3531
  5
3531
331
24C5
  5
24C5
331
3539
  5
3539
331
2437
  5
2437
331
2332
  5
2332
331
273A
  5
273A
331
2371
  5
2371
331
2486
  5
2486
331
23B8
  5
23B8
331
233A
  5
233A
331
2496
  5
2496
331
22E9
  5
22E9
331
21F3
  5
21F3
331
22F1
  5
22F1
331
22F9
  5
22F9
331
2203
  5
2203
  0
DIMASSOC
  5
272C
102
{ACAD_REACTORS
330
272B
102
}
330
272B
100
AcDbDimAssoc
330
271E
 90
        3
 70
     0
 71
     0
  1
AcDbOsnapPointRef
 72
     1
331
2220
 73
     0
 91
        0
 40
0.0
 10
0.0
 20
0.0
 30
2.000000000000000E+50
 75
     0
  1
AcDbOsnapPointRef
 72
     1
331
2459
 73
     0
 91
        0
 40
0.0
 10
0.0
 20
0.0
 30
2.000000000000000E+50
 75
     0
  0
DIMASSOC
  5
277B
102
{ACAD_REACTORS
330
277A
102
}
330
277A
100
AcDbDimAssoc
330
276B
 90
        3
 70
     0
 71
     0
  1
AcDbOsnapPointRef
 72
    13
331
24B8
 73
     0
 91
        0
 40
0.0
 10
0.0
 20
0.0
 30
2.000000000000000E+50
 75
     0
  1
AcDbOsnapPointRef
 72
     1
331
2461
 73
     0
 91
        0
 40
0.0
 10
0.0
 20
0.0
 30
2.000000000000000E+50
 75
     0
  0
LAYOUT
  5
22
102
{ACAD_XDICTIONARY
360
5015
102
}
102
{ACAD_REACTORS
330
1A
102
}
330
1A
100
AcDbPlotSettings
  1

  2
\\RD\EPSON Stylus C63 Series單色
  4
A4
  6

 40
3.757083177566528
 41
3.757076978683471
 42
3.757080078125
 43
3.757080078125
 44
209.9733276367187
 45
296.9683227539062
 46
0.0
 47
0.0
 48
0.0
 49
0.0
140
0.0
141
0.0
142
1.0
143
0.3405120737814363
 70
 11952
 72
     1
 73
     0
 74
     0
  7
單色出圖.ctb
 75
     0
147
2.936753428137963
148
-2047.07469463503
149
-1261.649717473083
100
AcDbLayout
  1
Model
 70
     1
 71
     0
 10
0.0
 20
0.0
 11
12.0
 21
9.0
 12
0.0
 22
0.0
 32
0.0
 14
0.0
 24
0.0
 34
0.0
 15
0.0
 25
0.0
 35
0.0
146
0.0
 13
0.0
 23
0.0
 33
0.0
 16
1.0
 26
0.0
 36
0.0
 17
0.0
 27
1.0
 37
0.0
 76
     0
330
1F
1001
ACAD_PSEXT
1000
\\RD\EPSON Stylus C63 Series單色
1000
EPSON Stylus C63 Series
1000
\\RD
1000

1070
     0
  0
LAYOUT
  5
1E
102
{ACAD_XDICTIONARY
360
5013
102
}
102
{ACAD_REACTORS
330
1A
102
}
330
1A
100
AcDbPlotSettings
  1

  2

  4

  6

 40
0.0
 41
0.0
 42
0.0
 43
0.0
 44
0.0
 45
0.0
 46
0.0
 47
0.0
 48
0.0
 49
0.0
140
0.0
141
0.0
142
1.0
143
1.0
 70
   688
 72
     0
 73
     0
 74
     5
  7
單色出圖.ctb
 75
    16
147
1.0
148
0.0
149
0.0
100
AcDbLayout
  1
配置1
 70
     1
 71
     1
 10
0.0
 20
0.0
 11
420.0
 21
297.0
 12
0.0
 22
0.0
 32
0.0
 14
1.000000000000000E+20
 24
1.000000000000000E+20
 34
1.000000000000000E+20
 15
-1.000000000000000E+20
 25
-1.000000000000000E+20
 35
-1.000000000000000E+20
146
0.0
 13
0.0
 23
0.0
 33
0.0
 16
1.0
 26
0.0
 36
0.0
 17
0.0
 27
1.0
 37
0.0
 76
     0
330
1B
  0
LAYOUT
  5
26
102
{ACAD_XDICTIONARY
360
5017
102
}
102
{ACAD_REACTORS
330
1A
102
}
330
1A
100
AcDbPlotSettings
  1

  2

  4

  6

 40
0.0
 41
0.0
 42
0.0
 43
0.0
 44
0.0
 45
0.0
 46
0.0
 47
0.0
 48
0.0
 49
0.0
140
0.0
141
0.0
142
1.0
143
1.0
 70
   688
 72
     0
 73
     0
 74
     5
  7
單色出圖.ctb
 75
    16
147
1.0
148
0.0
149
0.0
100
AcDbLayout
  1
配置2
 70
     1
 71
     2
 10
0.0
 20
0.0
 11
12.0
 21
9.0
 12
0.0
 22
0.0
 32
0.0
 14
0.0
 24
0.0
 34
0.0
 15
0.0
 25
0.0
 35
0.0
146
0.0
 13
0.0
 23
0.0
 33
0.0
 16
1.0
 26
0.0
 36
0.0
 17
0.0
 27
1.0
 37
0.0
 76
     0
330
23
  0
MLINESTYLE
  5
18
102
{ACAD_REACTORS
330
17
102
}
330
17
100
AcDbMlineStyle
  2
STANDARD
 70
     0
  3

 62
   256
 51
90.0
 52
90.0
 71
     2
 49
0.5
 62
   256
  6
BYLAYER
 49
-0.5
 62
   256
  6
BYLAYER
  0
ACDBPLACEHOLDER
  5
F
102
{ACAD_REACTORS
330
E
102
}
330
E
  0
TABLESTYLE
  5
11B
102
{ACAD_REACTORS
330
11A
102
}
330
11A
100
AcDbTableStyle
  3
Standard
 70
     0
 71
     0
 40
1.5
 41
1.5
280
     0
281
     0
  7
STANDARD
140
4.5
170
     2
 62
     0
 63
     7
283
     0
274
    -2
284
     1
 64
     0
275
    -2
285
     1
 65
     0
276
    -2
286
     1
 66
     0
277
    -2
287
     1
 67
     0
278
    -2
288
     1
 68
     0
279
    -2
289
     1
 69
     0
  7
STANDARD
140
6.0
170
     5
 62
     0
 63
     7
283
     0
274
    -2
284
     1
 64
     0
275
    -2
285
     1
 65
     0
276
    -2
286
     1
 66
     0
277
    -2
287
     1
 67
     0
278
    -2
288
     1
 68
     0
279
    -2
289
     1
 69
     0
  7
STANDARD
140
4.5
170
     5
 62
     0
 63
     7
283
     0
274
    -2
284
     1
 64
     0
275
    -2
285
     1
 65
     0
276
    -2
286
     1
 66
     0
277
    -2
287
     1
 67
     0
278
    -2
288
     1
 68
     0
279
    -2
289
     1
 69
     0
  0
DICTIONARYVAR
  5
138
102
{ACAD_REACTORS
330
94
102
}
330
94
100
DictionaryVariables
280
     0
  1
STANDARD
  0
DICTIONARYVAR
  5
96
102
{ACAD_REACTORS
330
94
102
}
330
94
100
DictionaryVariables
280
     0
  1
2
  0
DICTIONARYVAR
  5
95
102
{ACAD_REACTORS
330
94
102
}
330
94
100
DictionaryVariables
280
     0
  1
0
  0
DICTIONARYVAR
  5
500F
102
{ACAD_REACTORS
330
94
102
}
330
94
100
DictionaryVariables
280
     0
  1

  0
DICTIONARY
  5
1B5
102
{ACAD_REACTORS
330
5B
102
}
330
5B
100
AcDbDictionary
281
     1
  0
DICTIONARY
  5
61
102
{ACAD_REACTORS
330
5B
102
}
330
5B
100
AcDbDictionary
281
     1
  0
XRECORD
  5
123
102
{ACAD_REACTORS
330
5B
102
}
330
5B
100
AcDbXrecord
280
     1
 90
-1023410169
  0
DICTIONARY
  5
5015
330
22
100
AcDbDictionary
280
     1
281
     1
  3
ACAD_XREC_ROUNDTRIP
360
5016
  0
DICTIONARY
  5
5013
330
1E
100
AcDbDictionary
280
     1
281
     1
  3
ACAD_XREC_ROUNDTRIP
360
5014
  0
DICTIONARY
  5
5017
330
26
100
AcDbDictionary
280
     1
281
     1
  3
ACAD_XREC_ROUNDTRIP
360
5018
  0
XRECORD
  5
5016
102
{ACAD_REACTORS
330
5015
102
}
330
5015
100
AcDbXrecord
280
     1
102
SHADEPLOT
 70
     0
102
SHADEPLOTRESLEVEL
 70
     2
102
SHADEPLOTCUSTOMDPI
 70
   300
  0
XRECORD
  5
5014
102
{ACAD_REACTORS
330
5013
102
}
330
5013
100
AcDbXrecord
280
     1
102
SHADEPLOT
 70
     0
102
SHADEPLOTRESLEVEL
 70
     2
102
SHADEPLOTCUSTOMDPI
 70
   300
  0
XRECORD
  5
5018
102
{ACAD_REACTORS
330
5017
102
}
330
5017
100
AcDbXrecord
280
     1
102
SHADEPLOT
 70
     0
102
SHADEPLOTRESLEVEL
 70
     2
102
SHADEPLOTCUSTOMDPI
 70
   300
  0
ENDSEC
  0
EOF
