  0
SECTION
  2
HEADER
  9
$ACADVER
  1
AC1015
  9
$ACADMAINTVER
 70
    20
  9
$DWGCODEPAGE
  3
ANSI_950
  9
$INSBASE
 10
0.0
 20
0.0
 30
0.0
  9
$EXTMIN
 10
133.640443027998
 20
272.1334188759781
 30
-0.0079987625891818
  9
$EXTMAX
 10
333.687745018033
 20
514.5278812724018
 30
131.0657257432464
  9
$LIMMIN
 10
0.0
 20
0.0
  9
$LIMMAX
 10
420.0
 20
297.0
  9
$ORTHOMODE
 70
     1
  9
$REGENMODE
 70
     1
  9
$FILLMODE
 70
     1
  9
$QTEXTMODE
 70
     0
  9
$MIRRTEXT
 70
     1
  9
$LTSCALE
 40
1.0
  9
$ATTMODE
 70
     1
  9
$TEXTSIZE
 40
3.0
  9
$TRACEWID
 40
1.0
  9
$TEXTSTYLE
  7
STANDARD
  9
$CLAYER
  8
0
  9
$CELTYPE
  6
ByLayer
  9
$CECOLOR
 62
   256
  9
$CELTSCALE
 40
1.0
  9
$DISPSILH
 70
     0
  9
$DIMSCALE
 40
1.0
  9
$DIMASZ
 40
3.0
  9
$DIMEXO
 40
1.0
  9
$DIMDLI
 40
8.0
  9
$DIMRND
 40
0.0
  9
$DIMDLE
 40
0.0
  9
$DIMEXE
 40
1.5
  9
$DIMTP
 40
0.1
  9
$DIMTM
 40
0.1
  9
$DIMTXT
 40
3.5
  9
$DIMCEN
 40
0.0
  9
$DIMTSZ
 40
0.0
  9
$DIMTOL
 70
     0
  9
$DIMLIM
 70
     0
  9
$DIMTIH
 70
     0
  9
$DIMTOH
 70
     0
  9
$DIMSE1
 70
     0
  9
$DIMSE2
 70
     0
  9
$DIMTAD
 70
     1
  9
$DIMZIN
 70
     8
  9
$DIMBLK
  1

  9
$DIMASO
 70
     1
  9
$DIMSHO
 70
     1
  9
$DIMPOST
  1

  9
$DIMAPOST
  1
"
  9
$DIMALT
 70
     0
  9
$DIMALTD
 70
     2
  9
$DIMALTF
 40
0.0393701
  9
$DIMLFAC
 40
1.0
  9
$DIMTOFL
 70
     1
  9
$DIMTVP
 40
0.0
  9
$DIMTIX
 70
     0
  9
$DIMSOXD
 70
     0
  9
$DIMSAH
 70
     0
  9
$DIMBLK1
  1

  9
$DIMBLK2
  1

  9
$DIMSTYLE
  2
AM_ISO
  9
$DIMCLRD
 70
   256
  9
$DIMCLRE
 70
   256
  9
$DIMCLRT
 70
   256
  9
$DIMTFAC
 40
0.6
  9
$DIMGAP
 40
0.7
  9
$DIMJUST
 70
     0
  9
$DIMSD1
 70
     0
  9
$DIMSD2
 70
     0
  9
$DIMTOLJ
 70
     0
  9
$DIMTZIN
 70
     8
  9
$DIMALTZ
 70
     0
  9
$DIMALTTZ
 70
     0
  9
$DIMUPT
 70
     0
  9
$DIMDEC
 70
     2
  9
$DIMTDEC
 70
     8
  9
$DIMALTU
 70
     2
  9
$DIMALTTD
 70
     2
  9
$DIMTXSTY
  7
STANDARD
  9
$DIMAUNIT
 70
     0
  9
$DIMADEC
 70
     0
  9
$DIMALTRND
 40
0.0
  9
$DIMAZIN
 70
     2
  9
$DIMDSEP
 70
    46
  9
$DIMATFIT
 70
     3
  9
$DIMFRAC
 70
     0
  9
$DIMLDRBLK
  1

  9
$DIMLUNIT
 70
     2
  9
$DIMLWD
 70
    -1
  9
$DIMLWE
 70
    -1
  9
$DIMTMOVE
 70
     0
  9
$LUNITS
 70
     2
  9
$LUPREC
 70
     2
  9
$SKETCHINC
 40
1.0
  9
$FILLETRAD
 40
2.5
  9
$AUNITS
 70
     0
  9
$AUPREC
 70
     0
  9
$MENU
  1
.
  9
$ELEVATION
 40
0.0
  9
$PELEVATION
 40
0.0
  9
$THICKNESS
 40
0.0
  9
$LIMCHECK
 70
     0
  9
$CHAMFERA
 40
0.0
  9
$CHAMFERB
 40
0.0
  9
$CHAMFERC
 40
20.0
  9
$CHAMFERD
 40
0.0
  9
$SKPOLY
 70
     0
  9
$TDCREATE
 40
2454097.385877268
  9
$TDUCREATE
 40
2454097.052543935
  9
$TDUPDATE
 40
2454097.695685579
  9
$TDUUPDATE
 40
2454097.362352245
  9
$TDINDWG
 40
0.1102356481
  9
$TDUSRTIMER
 40
0.1102356481
  9
$USRTIMER
 70
     1
  9
$ANGBASE
 50
0.0
  9
$ANGDIR
 70
     0
  9
$PDMODE
 70
     0
  9
$PDSIZE
 40
0.0
  9
$PLINEWID
 40
0.0
  9
$SPLFRAME
 70
     0
  9
$SPLINETYPE
 70
     6
  9
$SPLINESEGS
 70
     8
  9
$HANDSEED
  5
5641
  9
$SURFTAB1
 70
     6
  9
$SURFTAB2
 70
     6
  9
$SURFTYPE
 70
     6
  9
$SURFU
 70
     6
  9
$SURFV
 70
     6
  9
$UCSBASE
  2

  9
$UCSNAME
  2

  9
$UCSORG
 10
0.0
 20
0.0
 30
0.0
  9
$UCSXDIR
 10
1.0
 20
0.0
 30
0.0
  9
$UCSYDIR
 10
0.0
 20
1.0
 30
0.0
  9
$UCSORTHOREF
  2

  9
$UCSORTHOVIEW
 70
     0
  9
$UCSORGTOP
 10
0.0
 20
0.0
 30
0.0
  9
$UCSORGBOTTOM
 10
0.0
 20
0.0
 30
0.0
  9
$UCSORGLEFT
 10
0.0
 20
0.0
 30
0.0
  9
$UCSORGRIGHT
 10
0.0
 20
0.0
 30
0.0
  9
$UCSORGFRONT
 10
0.0
 20
0.0
 30
0.0
  9
$UCSORGBACK
 10
0.0
 20
0.0
 30
0.0
  9
$PUCSBASE
  2

  9
$PUCSNAME
  2

  9
$PUCSORG
 10
0.0
 20
0.0
 30
0.0
  9
$PUCSXDIR
 10
1.0
 20
0.0
 30
0.0
  9
$PUCSYDIR
 10
0.0
 20
1.0
 30
0.0
  9
$PUCSORTHOREF
  2

  9
$PUCSORTHOVIEW
 70
     0
  9
$PUCSORGTOP
 10
0.0
 20
0.0
 30
0.0
  9
$PUCSORGBOTTOM
 10
0.0
 20
0.0
 30
0.0
  9
$PUCSORGLEFT
 10
0.0
 20
0.0
 30
0.0
  9
$PUCSORGRIGHT
 10
0.0
 20
0.0
 30
0.0
  9
$PUCSORGFRONT
 10
0.0
 20
0.0
 30
0.0
  9
$PUCSORGBACK
 10
0.0
 20
0.0
 30
0.0
  9
$USERI1
 70
     0
  9
$USERI2
 70
     0
  9
$USERI3
 70
     0
  9
$USERI4
 70
     0
  9
$USERI5
 70
     0
  9
$USERR1
 40
0.0
  9
$USERR2
 40
0.0
  9
$USERR3
 40
0.0
  9
$USERR4
 40
0.0
  9
$USERR5
 40
0.0
  9
$WORLDVIEW
 70
     1
  9
$SHADEDGE
 70
     3
  9
$SHADEDIF
 70
    70
  9
$TILEMODE
 70
     1
  9
$MAXACTVP
 70
    64
  9
$PINSBASE
 10
0.0
 20
0.0
 30
0.0
  9
$PLIMCHECK
 70
     0
  9
$PEXTMIN
 10
1.000000000000000E+20
 20
1.000000000000000E+20
 30
1.000000000000000E+20
  9
$PEXTMAX
 10
-1.000000000000000E+20
 20
-1.000000000000000E+20
 30
-1.000000000000000E+20
  9
$PLIMMIN
 10
0.0
 20
0.0
  9
$PLIMMAX
 10
420.0
 20
297.0
  9
$UNITMODE
 70
     0
  9
$VISRETAIN
 70
     1
  9
$PLINEGEN
 70
     0
  9
$PSLTSCALE
 70
     1
  9
$TREEDEPTH
 70
  3020
  9
$CMLSTYLE
  2
Standard
  9
$CMLJUST
 70
     0
  9
$CMLSCALE
 40
20.0
  9
$PROXYGRAPHICS
 70
     1
  9
$MEASUREMENT
 70
     1
  9
$CELWEIGHT
370
    -1
  9
$ENDCAPS
280
     0
  9
$JOINSTYLE
280
     0
  9
$LWDISPLAY
290
     0
  9
$INSUNITS
 70
     4
  9
$HYPERLINKBASE
  1

  9
$STYLESHEET
  1
彩色出圖.ctb
  9
$XEDIT
290
     1
  9
$CEPSNTYPE
380
     0
  9
$PSTYLEMODE
290
     1
  9
$FINGERPRINTGUID
  2
{EDA54BE1-F2ED-45D5-B6AB-060729E09D95}
  9
$VERSIONGUID
  2
{8D641718-23CA-4C8A-9CDF-97CEDB8A499E}
  9
$EXTNAMES
290
     1
  9
$PSVPSCALE
 40
0.0
  9
$OLESTARTUP
290
     0
  0
ENDSEC
  0
SECTION
  2
CLASSES
  0
CLASS
  1
ACDBDICTIONARYWDFLT
  2
AcDbDictionaryWithDefault
  3
ObjectDBX Classes
 90
        0
280
     0
281
     0
  0
CLASS
  1
ACDBPLACEHOLDER
  2
AcDbPlaceHolder
  3
ObjectDBX Classes
 90
        0
280
     0
281
     0
  0
CLASS
  1
LAYOUT
  2
AcDbLayout
  3
ObjectDBX Classes
 90
        0
280
     0
281
     0
  0
CLASS
  1
ACME_DOCUMENT
  2
AcMeDbDoc
  3
AcMeServices
 90
        0
280
     0
281
     0
  0
CLASS
  1
AMGSETTINGSOBJ
  2
AmgSettingsObj
  3
"AcadM|Product Description: AutoCAD Mechanical 2000|Company: Autodesk"
 90
        0
280
     0
281
     0
  0
CLASS
  1
ACMESCOPE
  2
AcMeScope
  3
AcMeServices
 90
        0
280
     0
281
     0
  0
CLASS
  1
ACMECOMMANDHISTORY
  2
AcMeCommandHistory
  3
AcMeServices
 90
        0
280
     0
281
     0
  0
CLASS
  1
ACIMSYSVARMAN
  2
AcImSysVarManager
  3
AcMeServices
 90
        0
280
     0
281
     0
  0
CLASS
  1
ACIMREALSYSVAR
  2
AcImRealSysVar
  3
AcMeServices
 90
        0
280
     0
281
     0
  0
CLASS
  1
ACIMINTSYSVAR
  2
AcImIntSysVar
  3
AcMeServices
 90
        0
280
     0
281
     0
  0
CLASS
  1
ACMEDRAWINGMAN
  2
AcMeDrawingMan
  3
AcMeServices
 90
        0
280
     0
281
     0
  0
CLASS
  1
ACMEVIEW
  2
AcMeView
  3
AcMeServices
 90
        0
280
     0
281
     0
  0
CLASS
  1
ACDBENTITYCACHE
  2
AcMeEntityCache
  3
AcMeServices
 90
        0
280
     0
281
     0
  0
CLASS
  1
GSMANAGER
  2
AcMeGSManager
  3
AcMeServices
 90
        0
280
     0
281
     0
  0
CLASS
  1
AMDTINTERNALREACTOR
  2
AmdtInternalReactor
  3
AcMeServices
 90
        0
280
     0
281
     0
  0
CLASS
  1
ACMESTATEMGR
  2
AcMeStateMgr
  3
AcMeServices
 90
        0
280
     0
281
     0
  0
CLASS
  1
ACGREFMASTER
  2
AcGrefMaster
  3
AcAttribServices
 90
        0
280
     0
281
     0
  0
CLASS
  1
ACME_DATABASE
  2
AcMeDbDatabase
  3
AcMeServices
 90
        0
280
     0
281
     0
  0
CLASS
  1
ACRFINSADJUSTERMGR
  2
AcRfInsAdjusterMgr
  3
AcMeServices
 90
        0
280
     0
281
     0
  0
CLASS
  1
ACGREFACADMASTER
  2
AcGrefacadMaster
  3
AcGrefServices
 90
        0
280
     0
281
     0
  0
CLASS
  1
AMIMASTER
  2
AmiMaster
  3
AmiServices
 90
        0
280
     0
281
     0
  0
CLASS
  1
ACMDATADICTIONARY
  2
AcmDataDictionary
  3
"AcmSymBB|Product Description: AutoCAD Mechanical 2004 DX|Company: Autodesk"
 90
        0
280
     0
281
     0
  0
CLASS
  1
ACMDATAENTRYBLOCK
  2
AcmDataEntryBlock
  3
"AcmSymBB|Product Description: AutoCAD Mechanical 2004 DX|Company: Autodesk"
 90
        0
280
     0
281
     0
  0
CLASS
  1
ACIMSTRSYSVAR
  2
AcImStrSysVar
  3
AcMeServices
 90
        0
280
     0
281
     0
  0
CLASS
  1
ACMSTANDARDISO
  2
AcmStandardISO
  3
"Amdt_StdImp|Product Description: AutoCAD Mechanical 2004 DX|Company: Autodesk"
 90
        0
280
     0
281
     0
  0
CLASS
  1
AMGOBJPROPCFG
  2
AmgObjPropCfg
  3
"AmgLay|Product Description: AutoCAD Mechanical 2000|Company: Autodesk"
 90
        1
280
     0
281
     0
  0
CLASS
  1
AMDTEDGESTANDARDISO
  2
AmdtEdgeStdISO
  3
"Amdt_StdImp|Product Description: AutoCAD Mechanical 2004 DX|Company: Autodesk"
 90
        0
280
     0
281
     0
  0
CLASS
  1
ACMSURFSTANDARDISO
  2
AcmSurfTextStdISO
  3
"Amdt_StdImp|Product Description: AutoCAD Mechanical 2004 DX|Company: Autodesk"
 90
        0
280
     0
281
     0
  0
CLASS
  1
ACMFCFSTANDARDISO
  2
AcmFCFStdISO
  3
"Amdt_StdImp|Product Description: AutoCAD Mechanical 2004 DX|Company: Autodesk"
 90
        0
280
     0
281
     0
  0
CLASS
  1
ACMWELDSTANDARDISO
  2
AcmWeldingStdISO
  3
"Amdt_StdImp|Product Description: AutoCAD Mechanical 2004 DX|Company: Autodesk"
 90
        0
280
     0
281
     0
  0
CLASS
  1
ACMIDSTANDARDISO
  2
AcmIdStdISO
  3
"Amdt_StdImp|Product Description: AutoCAD Mechanical 2004 DX|Company: Autodesk"
 90
        0
280
     0
281
     0
  0
CLASS
  1
ACMDATUMSTANDARDISO
  2
AcmDatumStdISO
  3
"Amdt_StdImp|Product Description: AutoCAD Mechanical 2004 DX|Company: Autodesk"
 90
        0
280
     0
281
     0
  0
CLASS
  1
ACMBOMSTANDARDISO
  2
AcmBOMStdISO
  3
"Amdt_StdImp|Product Description: AutoCAD Mechanical 2004 DX|Company: Autodesk"
 90
        0
280
     0
281
     0
  0
CLASS
  1
ACMDETAILSTANDARDISO
  2
AmdtDetailSymStdISO
  3
"Amdt_StdImp|Product Description: AutoCAD Mechanical 2004 DX|Company: Autodesk"
 90
        0
280
     0
281
     0
  0
CLASS
  1
ACMSECTIONSTANDARDISO
  2
AmdtSectionSymStdISO
  3
"Amdt_StdImp|Product Description: AutoCAD Mechanical 2004 DX|Company: Autodesk"
 90
        0
280
     0
281
     0
  0
CLASS
  1
ACMCENTERLINESTANDARDISO
  2
AmdtCenterLineStdISO
  3
"Amdt_StdImp|Product Description: AutoCAD Mechanical 2004 DX|Company: Autodesk"
 90
        0
280
     0
281
     0
  0
CLASS
  1
ACMNOTESTANDARDISO
  2
AmdtNoteStdISO
  3
"Amdt_StdImp|Product Description: AutoCAD Mechanical 2004 DX|Company: Autodesk"
 90
        0
280
     0
281
     0
  0
CLASS
  1
ACAMGLAYSTD
  2
AcAmgLayStd
  3
"AcAmgLayStd|Product Description: AutoCAD Mechanical 2000|Company: Autodesk"
 90
        0
280
     0
281
     0
  0
CLASS
  1
ACAMGDIMSTD
  2
AcAmgDimStd
  3
"AcAmgDimStd|Product Description: AutoCAD Mechanical 2000|Company: Autodesk"
 90
        0
280
     0
281
     0
  0
CLASS
  1
ACAMGHOLECHARTSTDISO
  2
AcAmgHoleChartStdISO
  3
ACMSYMBB_MODULE_NAME
 90
        0
280
     0
281
     0
  0
CLASS
  1
ACAMGTITLESTD
  2
AcAmgTitleStd
  3
"TITLEAPP"
 90
        0
280
     0
281
     0
  0
CLASS
  1
LAYER_INDEX
  2
AcDbLayerIndex
  3
ObjectDBX Classes
 90
    32768
280
     0
281
     0
  0
CLASS
  1
IDBUFFER
  2
AcDbIdBuffer
  3
ObjectDBX Classes
 90
    32768
280
     0
281
     0
  0
CLASS
  1
DICTIONARYVAR
  2
AcDbDictionaryVar
  3
ObjectDBX Classes
 90
        0
280
     0
281
     0
  0
CLASS
  1
AM_DRAWING_MGR
  2
AcDmDwgMgr
  3
AcMechDwgViewMgmt
 90
        0
280
     0
281
     0
  0
CLASS
  1
AM_DWG_DOCUMENT
  2
AcDmDwgDocument
  3
AcMechDwgViewMgmt
 90
        0
280
     0
281
     0
  0
CLASS
  1
AM_DWG_SHEET
  2
AcDmSheet
  3
AcMechDwgViewMgmt
 90
        0
280
     0
281
     0
  0
CLASS
  1
AM_VIEWDIMPARMAP
  2
AcDmViewDimParMap
  3
AcMechDwgViewMgmt
 90
        0
280
     0
281
     0
  0
CLASS
  1
AM_DWGMGR_NAME
  2
AcDmDwgMgrName
  3
AcMechDwgViewMgmt
 90
        0
280
     0
281
     0
  0
CLASS
  1
AMDTMENUSTATEMGR
  2
AmdtMenuStateMgr
  3
McadcomServices
 90
        0
280
     0
281
     0
  0
CLASS
  1
AMDTMCOMMENUSTATE
  2
AmdtMcomMenuState
  3
McadcomServices
 90
        0
280
     0
281
     0
  0
CLASS
  1
MAPIAMMOUDLE
  2
MApiAmModule
  3
MApiAmServices
 90
        0
280
     0
281
     0
  0
CLASS
  1
AMDTADMENUSTATE
  2
AmdtAdMenuState
  3
DesignerServices
 90
        0
280
     0
281
     0
  0
CLASS
  1
ADAPPL
  2
AcAdAppl
  3
DesignerServices
 90
        0
280
     0
281
     0
  0
CLASS
  1
DEPMGR
  2
AcAdDepMgr
  3
DesignerServices
 90
        0
280
     0
281
     0
  0
CLASS
  1
PARAMMGR
  2
AcAdParamMgr
  3
DesignerServices
 90
        0
280
     0
281
     0
  0
CLASS
  1
PARAMSCOPE
  2
AcAdParamScope
  3
DesignerServices
 90
        0
280
     0
281
     0
  0
CLASS
  1
NAMEDAPPL
  2
AcAdNamedAppl
  3
DesignerServices
 90
        0
280
     0
281
     0
  0
CLASS
  1
AMDTDMMENUSTATE
  2
AmdtDmMenuState
  3
AcMechDwgViewMgmt
 90
        0
280
     0
281
     0
  0
CLASS
  1
AMDTAMMENUSTATE
  2
AmdtAmMenuState
  3
DesignerAssemblies
 90
        0
280
     0
281
     0
  0
CLASS
  1
ACAMPROJECT
  2
AcAmProject
  3
DesignerAssemblies
 90
        0
280
     0
281
     0
  0
CLASS
  1
ACAMGRCOMPDEF
  2
AcAmGrCompDef
  3
DesignerAssemblies
 90
        0
280
     0
281
     0
  0
CLASS
  1
ACCMCONTEXT
  2
AcCmContext
  3
DesignerAssemblies
 90
        0
280
     0
281
     0
  0
CLASS
  1
ACAMCOMPDEF
  2
AcAmCompDef
  3
DesignerAssemblies
 90
        0
280
     0
281
     0
  0
CLASS
  1
ACAMCOMPDEFMGR
  2
AcAmCompDefMgr
  3
DesignerAssemblies
 90
        0
280
     0
281
     0
  0
CLASS
  1
AMCONTEXTMGR
  2
AcAmContextMgr
  3
DesignerAssemblies
 90
        0
280
     0
281
     0
  0
CLASS
  1
ACAMCONTEXTMODELER
  2
AcAmContextModeler
  3
DesignerAssemblies
 90
        0
280
     0
281
     0
  0
CLASS
  1
ACMTHREADLINESTANDARDISO
  2
AmdtThreadLineStdISO
  3
"Amdt_StdImp|Product Description: AutoCAD Mechanical 2004 DX|Company: Autodesk"
 90
        0
280
     0
281
     0
  0
CLASS
  1
CATALOGSTATE
  2
AcAmCatalogState
  3
DesignerAssemblies
 90
        0
280
     0
281
     0
  0
CLASS
  1
ACAMGRCOMPDEFSET
  2
AcAmGrCompDefSet
  3
DesignerAssemblies
 90
        0
280
     0
281
     0
  0
CLASS
  1
AMDTBROWSERDBTAB
  2
AmdtBrowserDbTab
  3
McadcomServices
 90
        0
280
     0
281
     0
  0
CLASS
  1
CBROWSERAPPOBJECT
  2
CBrowserAppObject
  3
McadcomServices
 90
        0
280
     0
281
     0
  0
CLASS
  1
DM_PLACEHOLDER
  2
AcDmSelsetPlaceholder
  3
AcMechDwgViewMgmt
 90
        0
280
     0
281
     0
  0
CLASS
  1
TABLESTYLE
  2
AcDbTableStyle
  3
ObjectDBX Classes
 90
     2047
280
     0
281
     0
  0
CLASS
  1
VAACXREFPANELOBJECT
  2
VaAcXREFPanelObject
  3
VAAC_ADDIN
 90
    32768
280
     0
281
     0
  0
CLASS
  1
VAACIMAGEINVENTORY
  2
VaAcImageInventory
  3
VAAC_ADDIN
 90
    32768
280
     0
281
     0
  0
CLASS
  1
AMDTNOTETEMPLATEDB
  2
AmdtNoteTemplateDB
  3
AMDT_STDIMP_MODULE_NAME
 90
        0
280
     0
281
     0
  0
CLASS
  1
ACMBOM
  2
AcmBom
  3
"AcmSymBB|Product Description: AutoCAD Mechanical 2004 DX|Company: Autodesk"
 90
    32768
280
     0
281
     0
  0
CLASS
  1
AMDTFORMULAUPDATEDISPATCHER
  2
AmdtFormulaUpdateDispatcher
  3
AcMeServices
 90
    32768
280
     0
281
     0
  0
CLASS
  1
ACMPARTLIST
  2
AcmPartList
  3
"AcmSymBB|Product Description: AutoCAD Mechanical 2004 DX|Company: Autodesk"
 90
    33791
280
     0
281
     1
  0
CLASS
  1
ACAMGFILTERDAT
  2
AcAmgFilterDat
  3
"AcadM|Product Description: AutoCAD Mechanical 2000|Company: Autodesk"
 90
        0
280
     0
281
     0
  0
CLASS
  1
DIMASSOC
  2
AcDbDimAssoc
  3
"AcDbDimAssoc|Product Desc:     AcDim ARX App For Dimension|Company:          Autodesk, Inc.|WEB Address:      www.autodesk.com"
 90
        0
280
     0
281
     0
  0
CLASS
  1
STDPART2D
  2
AmgStdPart
  3
"AmgStdPart|Product Description: AutoCAD Mechanical 2000|Company: Autodesk"
 90
    33791
280
     0
281
     1
  0
CLASS
  1
ACAMSTDPCOMPDEF
  2
AcAmStdpCompDef
  3
DesignerAssemblies
 90
    32768
280
     0
281
     0
  0
CLASS
  1
ACRFATTGENMGR
  2
AcRfAttGeneralMgr
  3
AcAttribServices
 90
        0
280
     0
281
     0
  0
CLASS
  1
ACRFOBJATTMGR
  2
AcRfObjAttGroupMgr
  3
AcAttribServices
 90
    32768
280
     0
281
     0
  0
CLASS
  1
ACRFMCADAPIATTHOLDER
  2
AcRfMCADAPIAttHolder
  3
AcAttribServices
 90
    32768
280
     0
281
     0
  0
CLASS
  1
AMDTSYSATTR
  2
AmdtSystemAttribute
  3
AcAttribServices
 90
    32768
280
     0
281
     0
  0
CLASS
  1
ACAMCOMP
  2
AcAmComp
  3
DesignerAssemblies
 90
    32768
280
     0
281
     0
  0
CLASS
  1
AC_AM_STDP_VIEW_DEF
  2
AcAmStdpViewDef
  3
DesignerAssemblies
 90
    32768
280
     0
281
     0
  0
CLASS
  1
AC_AM_MVD_DEP_MGR
  2
AcAmMVDdepMgr
  3
DesignerAssemblies
 90
        0
280
     0
281
     0
  0
CLASS
  1
AC_AM_MASTER_VIEW_DEF
  2
AcAmMasterViewDef
  3
DesignerAssemblies
 90
        0
280
     0
281
     0
  0
CLASS
  1
AC_AM_DIRTY_NODES
  2
AcAmDirtyNodes
  3
DesignerAssemblies
 90
        0
280
     0
281
     0
  0
CLASS
  1
AC_AM_MAPPER_CACHE
  2
AcAmMapperCache
  3
DesignerAssemblies
 90
        0
280
     0
281
     0
  0
CLASS
  1
ACAMMVDBACKUPOBJECT
  2
AcAmMVDBackupObject
  3
DesignerAssemblies
 90
        0
280
     0
281
     0
  0
CLASS
  1
AC_AM_COMP_VIEW_INST
  2
AcAmCompView
  3
DesignerAssemblies
 90
    32768
280
     0
281
     0
  0
CLASS
  1
AC_AM_2D_XREF_MGR
  2
AcAmXrefMgr2d
  3
DesignerAssemblies
 90
        0
280
     0
281
     0
  0
CLASS
  1
SORTENTSTABLE
  2
AcDbSortentsTable
  3
ObjectDBX Classes
 90
        0
280
     0
281
     0
  0
CLASS
  1
AMDTNOTE
  2
AmdtNote
  3
"AcmSymBB|Product Description: AutoCAD Mechanical 2004 DX|Company: Autodesk"
 90
     1023
280
     0
281
     1
  0
CLASS
  1
AC_AM_HIDE_SITUATION
  2
AcAmHideSituation
  3
DesignerAssemblies
 90
    32768
280
     0
281
     0
  0
CLASS
  1
ACMSTANDARDANSI
  2
AcmStandardANSI
  3
"Amdt_StdImp|Product Description: AutoCAD Mechanical 2004 DX|Company: Autodesk"
 90
        0
280
     0
281
     0
  0
CLASS
  1
ACMSURFSTANDARDANSI
  2
AcmSurfTextStdANSI
  3
"Amdt_StdImp|Product Description: AutoCAD Mechanical 2004 DX|Company: Autodesk"
 90
        0
280
     0
281
     0
  0
CLASS
  1
ACMFCFSTANDARDANSI
  2
AcmFCFStdANSI
  3
"Amdt_StdImp|Product Description: AutoCAD Mechanical 2004 DX|Company: Autodesk"
 90
        0
280
     0
281
     0
  0
CLASS
  1
ACMWELDSTANDARDANSI
  2
AcmWeldingStdANSI
  3
"Amdt_StdImp|Product Description: AutoCAD Mechanical 2004 DX|Company: Autodesk"
 90
        0
280
     0
281
     0
  0
CLASS
  1
ACMIDSTANDARDANSI
  2
AcmIdStdANSI
  3
"Amdt_StdImp|Product Description: AutoCAD Mechanical 2004 DX|Company: Autodesk"
 90
        0
280
     0
281
     0
  0
CLASS
  1
ACMDATUMSTANDARDANSI
  2
AcmDatumStdANSI
  3
"Amdt_StdImp|Product Description: AutoCAD Mechanical 2004 DX|Company: Autodesk"
 90
        0
280
     0
281
     0
  0
CLASS
  1
ACMBOMSTANDARDANSI
  2
AcmBOMStdANSI
  3
"Amdt_StdImp|Product Description: AutoCAD Mechanical 2004 DX|Company: Autodesk"
 90
        0
280
     0
281
     0
  0
CLASS
  1
ACMDETAILSTANDARDANSI
  2
AmdtDetailSymStdANSI
  3
"Amdt_StdImp|Product Description: AutoCAD Mechanical 2004 DX|Company: Autodesk"
 90
        0
280
     0
281
     0
  0
CLASS
  1
ACMSECTIONSTANDARDANSI
  2
AmdtSectionSymStdANSI
  3
"Amdt_StdImp|Product Description: AutoCAD Mechanical 2004 DX|Company: Autodesk"
 90
        0
280
     0
281
     0
  0
CLASS
  1
ACMCENTERLINESTANDARDANSI
  2
AmdtCenterLineStdANSI
  3
"Amdt_StdImp|Product Description: AutoCAD Mechanical 2004 DX|Company: Autodesk"
 90
        0
280
     0
281
     0
  0
CLASS
  1
ACMTHREADLINESTANDARDANSI
  2
AmdtThreadLineStdANSI
  3
"Amdt_StdImp|Product Description: AutoCAD Mechanical 2004 DX|Company: Autodesk"
 90
        0
280
     0
281
     0
  0
CLASS
  1
ACMNOTESTANDARDANSI
  2
AmdtNoteStdANSI
  3
"Amdt_StdImp|Product Description: AutoCAD Mechanical 2004 DX|Company: Autodesk"
 90
        0
280
     0
281
     0
  0
CLASS
  1
ACAMGHOLECHARTSTDANSI
  2
AcAmgHoleChartStdANSI
  3
ACMSYMBB_MODULE_NAME
 90
        0
280
     0
281
     0
  0
ENDSEC
  0
SECTION
  2
TABLES
  0
TABLE
  2
VPORT
  5
8
330
0
100
AcDbSymbolTable
 70
     3
  0
VPORT
  5
5638
330
8
100
AcDbSymbolTableRecord
100
AcDbViewportTableRecord
  2
*Active
 70
     0
 10
0.0
 20
0.0
 11
1.0
 21
1.0
 12
233.6623606438586
 22
393.3204234023018
 13
0.0
 23
0.0
 14
2.5
 24
2.5
 15
10.0
 25
10.0
 16
0.0
 26
0.0
 36
1.0
 17
0.0
 27
0.0
 37
0.0
 40
244.3097379445782
 41
1.609210526315789
 42
50.0
 43
0.0
 44
0.0
 50
0.0
 51
0.0
 71
     0
 72
   100
 73
     1
 74
     0
 75
     0
 76
     0
 77
     0
 78
     0
281
     0
 65
     1
110
0.0
120
0.0
130
0.0
111
1.0
121
0.0
131
0.0
112
0.0
122
1.0
132
0.0
 79
     0
146
0.0
  0
ENDTAB
  0
TABLE
  2
LTYPE
  5
5
330
0
100
AcDbSymbolTable
 70
    16
  0
LTYPE
  5
14
330
5
100
AcDbSymbolTableRecord
100
AcDbLinetypeTableRecord
  2
ByBlock
 70
     0
  3

 72
    65
 73
     0
 40
0.0
  0
LTYPE
  5
15
330
5
100
AcDbSymbolTableRecord
100
AcDbLinetypeTableRecord
  2
ByLayer
 70
     0
  3

 72
    65
 73
     0
 40
0.0
  0
LTYPE
  5
16
330
5
100
AcDbSymbolTableRecord
100
AcDbLinetypeTableRecord
  2
Continuous
 70
     0
  3
Solid line
 72
    65
 73
     0
 40
0.0
  0
LTYPE
  5
64
330
5
100
AcDbSymbolTableRecord
100
AcDbLinetypeTableRecord
  2
AM_ISO02W050
 70
     0
  3
__ __ __ __ __ __ __ __ __ __ __ __ __ __ __
 72
    65
 73
     2
 40
7.5
 49
6.0
 74
     0
 49
-1.5
 74
     0
  0
LTYPE
  5
65
330
5
100
AcDbSymbolTableRecord
100
AcDbLinetypeTableRecord
  2
AM_ISO08W050
 70
     0
  3
____ . ____ . ____ . ____ . ____ . ____ . ____
 72
    65
 73
     4
 40
18.0
 49
12.0
 74
     0
 49
-1.5
 74
     0
 49
3.0
 74
     0
 49
-1.5
 74
     0
  0
LTYPE
  5
66
330
5
100
AcDbSymbolTableRecord
100
AcDbLinetypeTableRecord
  2
AM_ISO09W050
 70
     0
  3
_____ . . _____ . . _____ . . ____ .. ____
 72
    65
 73
     6
 40
22.5
 49
12.0
 74
     0
 49
-1.5
 74
     0
 49
3.0
 74
     0
 49
-1.5
 74
     0
 49
3.0
 74
     0
 49
-1.5
 74
     0
  0
LTYPE
  5
67
330
5
100
AcDbSymbolTableRecord
100
AcDbLinetypeTableRecord
  2
Amconstr
 70
     0
  3
_______________________
 72
    65
 73
     2
 40
9999.0
 49
9999.0
 74
     0
 49
0.0
 74
     0
  0
LTYPE
  5
68
330
5
100
AcDbSymbolTableRecord
100
AcDbLinetypeTableRecord
  2
AM_ISO08W050x2
 70
     0
  3
__ . __ . __ . __ . __ . __
 72
    65
 73
     4
 40
9.0
 49
6.0
 74
     0
 49
-0.75
 74
     0
 49
1.5
 74
     0
 49
-0.75
 74
     0
  0
LTYPE
  5
69
330
5
100
AcDbSymbolTableRecord
100
AcDbLinetypeTableRecord
  2
AM_ISO02W050x2
 70
     0
  3
 _ _ _ _ _ _ _ _ _ _ _ _
 72
    65
 73
     2
 40
3.75
 49
3.0
 74
     0
 49
-0.75
 74
     0
  0
LTYPE
  5
6C
330
5
100
AcDbSymbolTableRecord
100
AcDbLinetypeTableRecord
  2
Amzigzag
 70
     0
  3
/\/-/\/-/\/-/\/-/\/-/\/
 72
    65
 73
     2
 40
11.0001
 49
0.0001
 74
     4
 75
   135
340
6B
 46
0.04
 50
0.0
 44
0.0
 45
0.0
 49
-11.0
 74
     0
  0
LTYPE
  5
7A
330
5
100
AcDbSymbolTableRecord
100
AcDbLinetypeTableRecord
  2
ACISOWELD
 70
     0
  3
_ _ _ _ _
 72
    65
 73
     2
 40
2.0
 49
2.0
 74
     0
 49
-1.0
 74
     0
  0
LTYPE
  5
7B
330
5
100
AcDbSymbolTableRecord
100
AcDbLinetypeTableRecord
  2
ACISOTGB
 70
     0
  3
__ . . __ . .
 72
    65
 73
     6
 40
9.0
 49
4.0
 74
     0
 49
-1.0
 74
     0
 49
1.0
 74
     0
 49
-1.0
 74
     0
 49
1.0
 74
     0
 49
-1.0
 74
     0
  0
LTYPE
  5
7C
330
5
100
AcDbSymbolTableRecord
100
AcDbLinetypeTableRecord
  2
ACISOTGL
 70
     0
  3
_ _ _ _ _
 72
    65
 73
     2
 40
3.0
 49
2.0
 74
     0
 49
-1.0
 74
     0
  0
LTYPE
  5
7E
330
5
100
AcDbSymbolTableRecord
100
AcDbLinetypeTableRecord
  2
CENTER
 70
     0
  3
__ . __
 72
    65
 73
     4
 40
7.0
 49
4.0
 74
     0
 49
-1.0
 74
     0
 49
1.0
 74
     0
 49
-1.0
 74
     0
  0
LTYPE
  5
D8
330
5
100
AcDbSymbolTableRecord
100
AcDbLinetypeTableRecord
  2
HIDDEN
 70
     0
  3
Hidden __ __ __ __ __ __ __ __ __ __ __ __ __ _
 72
    65
 73
     2
 40
9.524999999999998
 49
6.349999999999999
 74
     0
 49
-3.174999999999999
 74
     0
  0
LTYPE
  5
D9
330
5
100
AcDbSymbolTableRecord
100
AcDbLinetypeTableRecord
  2
PHANTOM2
 70
     0
  3
Phantom (.5x) ___ _ _ ___ _ _ ___ _ _ ___ _ _
 72
    65
 73
     6
 40
31.75
 49
15.875
 74
     0
 49
-3.174999999999999
 74
     0
 49
3.174999999999999
 74
     0
 49
-3.174999999999999
 74
     0
 49
3.174999999999999
 74
     0
 49
-3.174999999999999
 74
     0
  0
LTYPE
  5
4C90
330
5
100
AcDbSymbolTableRecord
100
AcDbLinetypeTableRecord
  2
ACANSTGB
 70
     0
  3
__ . . __ . .
 72
    65
 73
     6
 40
0.35433070866
 49
0.15748031496
 74
     0
 49
-0.03937007874
 74
     0
 49
0.03937007874
 74
     0
 49
-0.03937007874
 74
     0
 49
0.03937007874
 74
     0
 49
-0.03937007874
 74
     0
  0
LTYPE
  5
4C91
330
5
100
AcDbSymbolTableRecord
100
AcDbLinetypeTableRecord
  2
ACANSTGL
 70
     0
  3
_ _ _ _ _
 72
    65
 73
     2
 40
0.11811023622
 49
0.07874015748
 74
     0
 49
-0.03937007874
 74
     0
  0
ENDTAB
  0
TABLE
  2
LAYER
  5
2
102
{ACAD_XDICTIONARY
360
3F9
102
}
330
0
100
AcDbSymbolTable
 70
     7
  0
LAYER
  5
10
330
2
100
AcDbSymbolTableRecord
100
AcDbLayerTableRecord
  2
0
 70
     0
 62
     7
  6
Continuous
370
    -3
390
F
  0
LAYER
  5
A7F
330
2
100
AcDbSymbolTableRecord
100
AcDbLayerTableRecord
  2
AM_VIS
 70
     0
 62
     7
  6
Continuous
370
    50
390
F
  0
LAYER
  5
100B
330
2
100
AcDbSymbolTableRecord
100
AcDbLayerTableRecord
  2
AM_5
 70
     0
 62
     5
  6
Continuous
370
    50
390
F
  0
LAYER
  5
1052
330
2
100
AcDbSymbolTableRecord
100
AcDbLayerTableRecord
  2
AM_0
 70
     0
 62
     7
  6
Continuous
370
    50
390
F
  0
LAYER
  5
1078
330
2
100
AcDbSymbolTableRecord
100
AcDbLayerTableRecord
  2
AM_7
 70
     0
 62
     1
  6
CENTER
370
    25
390
F
  0
LAYER
  5
11AC
330
2
100
AcDbSymbolTableRecord
100
AcDbLayerTableRecord
  2
Defpoints
 70
     0
 62
     7
  6
Continuous
290
     0
370
    -3
390
F
  0
LAYER
  5
4B53
330
2
100
AcDbSymbolTableRecord
100
AcDbLayerTableRecord
  2
LOGO
 70
     0
 62
     7
  6
Continuous
370
    -3
390
F
  0
ENDTAB
  0
TABLE
  2
STYLE
  5
3
330
0
100
AcDbSymbolTable
 70
     8
  0
STYLE
  5
11
330
3
100
AcDbSymbolTableRecord
100
AcDbTextStyleTableRecord
  2
STANDARD
 70
     0
 40
0.0
 41
1.0
 50
0.0
 71
     0
 42
3.0
  3
ISOCP.SHX
  4
CHINESET.SHX
  0
STYLE
  5
6B
330
3
100
AcDbSymbolTableRecord
100
AcDbTextStyleTableRecord
  2

 70
     1
 40
0.0
 41
1.0
 50
0.0
 71
     0
 42
2.5
  3
ltypeshp.shx
  4

  0
STYLE
  5
6D
330
3
100
AcDbSymbolTableRecord
100
AcDbTextStyleTableRecord
  2
ACISOTS
 70
     0
 40
1.0
 41
1.0
 50
0.0
 71
     0
 42
1.0
  3
isocp.shx
  4
chineset.shx
  0
STYLE
  5
79
330
3
100
AcDbSymbolTableRecord
100
AcDbTextStyleTableRecord
  2
ACISOGDT
 70
     0
 40
0.0
 41
1.0
 50
0.0
 71
     0
 42
2.5
  3
amgdt.shx
  4
chineset.shx
  0
STYLE
  5
4B54
330
3
100
AcDbSymbolTableRecord
100
AcDbTextStyleTableRecord
  2
CHINESET
 70
     0
 40
0.0
 41
1.0
 50
0.0
 71
     0
 42
3.0
  3
simplex.shx
  4
CHINESET.SHX
  0
STYLE
  5
4C92
330
3
100
AcDbSymbolTableRecord
100
AcDbTextStyleTableRecord
  2
ACANSTS
 70
     0
 40
1.0
 41
1.0
 50
0.0
 71
     0
 42
5.0
  3
romans.shx
  4
chineset.shx
  0
STYLE
  5
4C93
330
3
100
AcDbSymbolTableRecord
100
AcDbTextStyleTableRecord
  2
ACANSGDT
 70
     0
 40
0.0
 41
1.0
 50
0.0
 71
     0
 42
5.0
  3
amgdtans.shx
  4

  0
ENDTAB
  0
TABLE
  2
VIEW
  5
6
330
0
100
AcDbSymbolTable
 70
     0
  0
ENDTAB
  0
TABLE
  2
UCS
  5
7
330
0
100
AcDbSymbolTable
 70
     0
  0
ENDTAB
  0
TABLE
  2
APPID
  5
9
330
0
100
AcDbSymbolTable
 70
    31
  0
APPID
  5
12
330
9
100
AcDbSymbolTableRecord
100
AcDbRegAppTableRecord
  2
ACAD
 70
     0
  0
APPID
  5
46
330
9
100
AcDbSymbolTableRecord
100
AcDbRegAppTableRecord
  2
MCAD_NO_VIS
 70
     0
  0
APPID
  5
47
330
9
100
AcDbSymbolTableRecord
100
AcDbRegAppTableRecord
  2
ACAD_TEMP_GRAPHIC
 70
     0
  0
APPID
  5
58
330
9
100
AcDbSymbolTableRecord
100
AcDbRegAppTableRecord
  2
ACATTRIBSERVICES
 70
     0
  0
APPID
  5
EE
330
9
100
AcDbSymbolTableRecord
100
AcDbRegAppTableRecord
  2
AD_DRAW
 70
     0
  0
APPID
  5
10C
330
9
100
AcDbSymbolTableRecord
100
AcDbRegAppTableRecord
  2
DESIGNERASSEMBLIES
 70
     0
  0
APPID
  5
111
330
9
100
AcDbSymbolTableRecord
100
AcDbRegAppTableRecord
  2
ACADM_DIM_EDIT
 70
     0
  0
APPID
  5
112
330
9
100
AcDbSymbolTableRecord
100
AcDbRegAppTableRecord
  2
AMDT_DM_ADJ
 70
     0
  0
APPID
  5
22C
330
9
100
AcDbSymbolTableRecord
100
AcDbRegAppTableRecord
  2
ACAD_DSTYLE_DIMTEXT_FILL
 70
     0
  0
APPID
  5
452
330
9
100
AcDbSymbolTableRecord
100
AcDbRegAppTableRecord
  2
GENIUS_GENOENT_13
 70
     0
  0
APPID
  5
453
330
9
100
AcDbSymbolTableRecord
100
AcDbRegAppTableRecord
  2
GENIUS_GENOBJ-N-CRS_13
 70
     0
  0
APPID
  5
454
330
9
100
AcDbSymbolTableRecord
100
AcDbRegAppTableRecord
  2
GENIUS_GENOLIS_13
 70
     0
  0
APPID
  5
455
330
9
100
AcDbSymbolTableRecord
100
AcDbRegAppTableRecord
  2
GENIUS_GENODEF_13
 70
     0
  0
APPID
  5
456
330
9
100
AcDbSymbolTableRecord
100
AcDbRegAppTableRecord
  2
GENIUS_GENOREF_13
 70
     0
  0
APPID
  5
6F3
330
9
100
AcDbSymbolTableRecord
100
AcDbRegAppTableRecord
  2
ACAD_PSEXT
 70
     0
  0
APPID
  5
808
330
9
100
AcDbSymbolTableRecord
100
AcDbRegAppTableRecord
  2
GENIUS_GENDTOL_13
 70
     0
  0
APPID
  5
1059
330
9
100
AcDbSymbolTableRecord
100
AcDbRegAppTableRecord
  2
GEVID1167182300
 70
     0
  0
APPID
  5
105A
330
9
100
AcDbSymbolTableRecord
100
AcDbRegAppTableRecord
  2
GEVDC
 70
     0
  0
APPID
  5
1063
330
9
100
AcDbSymbolTableRecord
100
AcDbRegAppTableRecord
  2
AMG_2DHIDE
 70
     0
  0
APPID
  5
1064
330
9
100
AcDbSymbolTableRecord
100
AcDbRegAppTableRecord
  2
AMG_2DSTRUCT_BTR
 70
     0
  0
APPID
  5
1075
330
9
100
AcDbSymbolTableRecord
100
AcDbRegAppTableRecord
  2
ACADM_2DVIEW_IGN_NOTIFY
 70
     0
  0
APPID
  5
119A
330
9
100
AcDbSymbolTableRecord
100
AcDbRegAppTableRecord
  2
GENIUS_GENOBJ-N-CEN_13
 70
     0
  0
APPID
  5
119B
330
9
100
AcDbSymbolTableRecord
100
AcDbRegAppTableRecord
  2
GENIUS_GENCEN_19
 70
     0
  0
APPID
  5
39BE
330
9
100
AcDbSymbolTableRecord
100
AcDbRegAppTableRecord
  2
GEVID1167182301
 70
     0
  0
APPID
  5
39CB
330
9
100
AcDbSymbolTableRecord
100
AcDbRegAppTableRecord
  2
GEVID1167182302
 70
     0
  0
APPID
  5
39F2
330
9
100
AcDbSymbolTableRecord
100
AcDbRegAppTableRecord
  2
GEVID1167182303
 70
     0
  0
APPID
  5
3D45
330
9
100
AcDbSymbolTableRecord
100
AcDbRegAppTableRecord
  2
GENIUS_GENOBJ-N-HTC_13
 70
     0
  0
APPID
  5
3D46
330
9
100
AcDbSymbolTableRecord
100
AcDbRegAppTableRecord
  2
GENIUS_GENHATCH_13
 70
     0
  0
APPID
  5
4790
330
9
100
AcDbSymbolTableRecord
100
AcDbRegAppTableRecord
  2
GEVID1167182305
 70
     0
  0
APPID
  5
4B55
330
9
100
AcDbSymbolTableRecord
100
AcDbRegAppTableRecord
  2
GENIUS_GENREC_14
 70
     0
  0
APPID
  5
4B56
330
9
100
AcDbSymbolTableRecord
100
AcDbRegAppTableRecord
  2
GENIUS_GENOBJ-N-REC_13
 70
     0
  0
ENDTAB
  0
TABLE
  2
DIMSTYLE
  5
A
330
0
100
AcDbSymbolTable
 70
    15
100
AcDbDimStyleTable
 71
     3
340
81
340
8B
340
86
  0
DIMSTYLE
105
81
330
A
100
AcDbSymbolTableRecord
100
AcDbDimStyleTableRecord
  2
AM_ISO
 70
     0
  4
"
 41
3.0
 42
1.0
 43
8.0
 44
1.5
 47
0.1
 48
0.1
 73
     0
 74
     0
 77
     1
 78
     8
 79
     2
140
3.5
141
0.0
143
0.0393701
146
0.6
147
0.7
172
     1
176
   256
177
   256
178
   256
271
     2
272
     2
283
     0
284
     8
340
11
371
    -1
372
    -1
  0
DIMSTYLE
105
82
330
A
100
AcDbSymbolTableRecord
100
AcDbDimStyleTableRecord
  2
AM_ISO$3
 70
     0
  4
"
 41
3.0
 42
1.0
 43
8.0
 44
1.5
 47
0.1
 48
0.1
 73
     0
 77
     1
 78
     8
 79
     2
140
3.5
141
0.0
143
0.0393701
146
0.6
147
0.7
176
   256
177
   256
178
   256
271
     2
272
     2
283
     0
284
     8
288
     1
289
     0
340
11
371
    -1
372
    -1
  0
DIMSTYLE
105
83
330
A
100
AcDbSymbolTableRecord
100
AcDbDimStyleTableRecord
  2
AM_ISO$4
 70
     0
  4
"
 41
3.0
 42
1.0
 43
8.0
 44
1.5
 47
0.1
 48
0.1
 73
     0
 77
     1
 78
     8
 79
     2
140
3.5
141
0.0
143
0.0393701
146
0.6
147
0.7
176
   256
177
   256
178
   256
271
     2
272
     2
283
     0
284
     8
288
     1
289
     0
340
11
371
    -1
372
    -1
  0
DIMSTYLE
105
84
330
A
100
AcDbSymbolTableRecord
100
AcDbDimStyleTableRecord
  2
AM_ISO$6
 70
     0
  4
"
 41
3.0
 42
1.0
 43
8.0
 44
1.5
 47
0.1
 48
0.1
 73
     0
 74
     0
 78
     8
 79
     2
140
3.5
141
0.0
143
0.0393701
146
0.6
147
0.7
172
     1
176
   256
177
   256
178
   256
271
     2
272
     2
283
     0
284
     8
340
11
371
    -1
372
    -1
  0
DIMSTYLE
105
85
330
A
100
AcDbSymbolTableRecord
100
AcDbDimStyleTableRecord
  2
AM_ISO$7
 70
     0
  4
"
 41
3.0
 42
1.0
 43
8.0
 44
1.5
 47
0.1
 48
0.1
 73
     0
 74
     0
 77
     1
 78
     8
 79
     2
140
5.0
141
0.0
143
0.0393701
146
0.6
147
0.7
172
     1
176
   256
177
   256
178
   256
271
     2
272
     2
283
     0
284
     8
340
11
371
    -1
372
    -1
  0
DIMSTYLE
105
86
330
A
100
AcDbSymbolTableRecord
100
AcDbDimStyleTableRecord
  2
AM_ISO$SF
 70
     0
  4
"
 41
2.5
 42
1.0
 43
10.0
 44
1.0
 47
0.1
 48
0.1
 73
     0
 74
     0
 75
     1
 76
     1
 77
     1
 78
     8
 79
     2
140
3.5
141
0.0
143
0.0393701
146
0.71
147
1.5
172
     1
176
   256
177
   256
178
     2
271
     2
272
     3
274
     4
283
     0
284
     8
340
11
371
    -1
372
    -1
  0
DIMSTYLE
105
8B
330
A
100
AcDbSymbolTableRecord
100
AcDbDimStyleTableRecord
  2
AM_ISO$SH
 70
     0
  4
"
 41
2.5
 42
1.0
 43
10.0
 44
1.0
 47
0.1
 48
0.1
 73
     0
 74
     0
 75
     1
 76
     1
 77
     1
 78
     8
 79
     2
140
3.5
141
0.0
143
0.0393701
144
2.0
146
0.71
147
1.5
172
     1
173
     1
176
   256
177
   256
178
     2
271
     2
272
     3
274
     4
283
     0
284
     8
340
11
343
87
371
    -1
372
    -1
  0
DIMSTYLE
105
40B
102
{ACAD_REACTORS
330
5341
330
5281
330
5282
330
5283
330
5284
330
5287
330
5288
330
5289
330
528A
330
528B
330
528E
330
528F
330
5290
330
5291
330
5296
102
}
330
A
100
AcDbSymbolTableRecord
100
AcDbDimStyleTableRecord
  2
AM_ISO$0
 70
     0
  4
"
 41
3.0
 42
1.0
 43
8.0
 44
1.5
 47
0.1
 48
0.1
 73
     0
 74
     0
 77
     1
 78
     8
 79
     2
140
3.5
141
0.0
143
0.0393701
146
0.6
147
0.7
172
     1
176
   256
177
   256
178
   256
271
     2
272
     2
283
     0
284
     8
340
11
371
    -1
372
    -1
  0
DIMSTYLE
105
4C95
330
A
100
AcDbSymbolTableRecord
100
AcDbDimStyleTableRecord
  2
AM_ANSI
 70
     0
  4
mm
 41
0.1
 42
0.05
 43
0.5
 44
0.1
 47
0.1
 48
0.1
 78
     7
 79
     2
140
0.12
141
0.0
146
0.71
147
0.06
176
   256
177
   256
178
     2
274
     4
284
     7
340
11
371
    -1
372
    -1
  0
DIMSTYLE
105
4C96
330
A
100
AcDbSymbolTableRecord
100
AcDbDimStyleTableRecord
  2
AM_ANSI$3
 70
     0
  4
mm
 41
0.1
 42
0.05
 43
0.5
 44
0.1
 47
0.1
 48
0.1
 78
     7
 79
     2
140
0.12
141
0.0
146
0.71
147
0.06
176
   256
177
   256
178
     2
274
     4
284
     7
288
     1
289
     0
340
11
371
    -1
372
    -1
  0
DIMSTYLE
105
4C97
330
A
100
AcDbSymbolTableRecord
100
AcDbDimStyleTableRecord
  2
AM_ANSI$4
 70
     0
  4
mm
 41
0.1
 42
0.05
 43
0.5
 44
0.1
 47
0.1
 48
0.1
 78
     7
 79
     2
140
0.12
141
0.0
146
0.71
147
0.06
176
   256
177
   256
178
     2
274
     4
284
     7
288
     1
289
     0
340
11
371
    -1
372
    -1
  0
DIMSTYLE
105
4C98
330
A
100
AcDbSymbolTableRecord
100
AcDbDimStyleTableRecord
  2
AM_ANSI$7
 70
     0
  4
mm
 41
0.1
 42
0.05
 43
0.5
 44
0.1
 47
0.1
 48
0.1
 78
     7
 79
     2
140
0.24
141
0.0
146
0.71
147
0.06
176
   256
177
   256
178
     2
274
     4
284
     7
340
11
371
    -1
372
    -1
  0
DIMSTYLE
105
4C99
330
A
100
AcDbSymbolTableRecord
100
AcDbDimStyleTableRecord
  2
AM_ANSI$SF
 70
     0
  4
mm
 41
0.1
 42
0.05
 43
0.5
 44
0.1
 47
0.1
 48
0.1
 75
     1
 76
     1
 78
     7
 79
     2
140
0.12
141
0.0
146
0.71
147
0.06
176
   256
177
   256
178
     2
274
     4
284
     7
340
11
371
    -1
372
    -1
  0
DIMSTYLE
105
4C9A
330
A
100
AcDbSymbolTableRecord
100
AcDbDimStyleTableRecord
  2
AM_ANSI$SH
 70
     0
  4
mm
 41
0.1
 42
0.05
 43
0.5
 44
0.1
 47
0.1
 48
0.1
 75
     1
 76
     1
 78
     7
 79
     2
140
0.12
141
0.0
146
0.71
147
0.06
173
     1
176
   256
177
   256
178
     2
274
     4
284
     7
340
11
343
87
371
    -1
372
    -1
  0
ENDTAB
  0
TABLE
  2
BLOCK_RECORD
  5
1
330
0
100
AcDbSymbolTable
 70
    26
  0
BLOCK_RECORD
  5
1F
102
{ACAD_XDICTIONARY
360
8F
102
}
330
1
100
AcDbSymbolTableRecord
100
AcDbBlockTableRecord
  2
*Model_Space
340
22
  0
BLOCK_RECORD
  5
1B
330
1
100
AcDbSymbolTableRecord
100
AcDbBlockTableRecord
  2
*Paper_Space
340
1E
  0
BLOCK_RECORD
  5
23
330
1
100
AcDbSymbolTableRecord
100
AcDbBlockTableRecord
  2
*Paper_Space0
340
26
  0
BLOCK_RECORD
  5
87
330
1
100
AcDbSymbolTableRecord
100
AcDbBlockTableRecord
  2
GENAXEH
340
0
  0
BLOCK_RECORD
  5
107B
330
1
100
AcDbSymbolTableRecord
100
AcDbBlockTableRecord
  2
*U4
340
0
  0
BLOCK_RECORD
  5
5364
330
1
100
AcDbSymbolTableRecord
100
AcDbBlockTableRecord
  2
*D5
340
0
  0
BLOCK_RECORD
  5
5370
330
1
100
AcDbSymbolTableRecord
100
AcDbBlockTableRecord
  2
*D6
340
0
  0
BLOCK_RECORD
  5
537C
330
1
100
AcDbSymbolTableRecord
100
AcDbBlockTableRecord
  2
*D7
340
0
  0
BLOCK_RECORD
  5
5388
330
1
100
AcDbSymbolTableRecord
100
AcDbBlockTableRecord
  2
*D8
340
0
  0
BLOCK_RECORD
  5
5394
330
1
100
AcDbSymbolTableRecord
100
AcDbBlockTableRecord
  2
*D9
340
0
  0
BLOCK_RECORD
  5
53A0
330
1
100
AcDbSymbolTableRecord
100
AcDbBlockTableRecord
  2
*D10
340
0
  0
BLOCK_RECORD
  5
53AC
330
1
100
AcDbSymbolTableRecord
100
AcDbBlockTableRecord
  2
*D11
340
0
  0
BLOCK_RECORD
  5
53B8
330
1
100
AcDbSymbolTableRecord
100
AcDbBlockTableRecord
  2
*D12
340
0
  0
BLOCK_RECORD
  5
53C4
330
1
100
AcDbSymbolTableRecord
100
AcDbBlockTableRecord
  2
*D13
340
0
  0
BLOCK_RECORD
  5
53D2
330
1
100
AcDbSymbolTableRecord
100
AcDbBlockTableRecord
  2
*D14
340
0
  0
BLOCK_RECORD
  5
53E0
330
1
100
AcDbSymbolTableRecord
100
AcDbBlockTableRecord
  2
*D15
340
0
  0
BLOCK_RECORD
  5
53EC
330
1
100
AcDbSymbolTableRecord
100
AcDbBlockTableRecord
  2
*D16
340
0
  0
BLOCK_RECORD
  5
53F8
330
1
100
AcDbSymbolTableRecord
100
AcDbBlockTableRecord
  2
*D17
340
0
  0
BLOCK_RECORD
  5
5404
330
1
100
AcDbSymbolTableRecord
100
AcDbBlockTableRecord
  2
*D18
340
0
  0
BLOCK_RECORD
  5
5496
330
1
100
AcDbSymbolTableRecord
100
AcDbBlockTableRecord
  2
*D19
340
0
  0
BLOCK_RECORD
  5
560E
330
1
100
AcDbSymbolTableRecord
100
AcDbBlockTableRecord
  2
*S21
340
0
  0
BLOCK_RECORD
  5
5616
330
1
100
AcDbSymbolTableRecord
100
AcDbBlockTableRecord
  2
*S22
340
0
  0
BLOCK_RECORD
  5
561E
330
1
100
AcDbSymbolTableRecord
100
AcDbBlockTableRecord
  2
*S23
340
0
  0
BLOCK_RECORD
  5
5626
330
1
100
AcDbSymbolTableRecord
100
AcDbBlockTableRecord
  2
*S24
340
0
  0
BLOCK_RECORD
  5
562E
330
1
100
AcDbSymbolTableRecord
100
AcDbBlockTableRecord
  2
*S25
340
0
  0
ENDTAB
  0
ENDSEC
  0
SECTION
  2
BLOCKS
  0
BLOCK
  5
20
330
1F
100
AcDbEntity
  8
0
100
AcDbBlockBegin
  2
*Model_Space
 70
     0
 10
0.0
 20
0.0
 30
0.0
  3
*Model_Space
  1

  0
ENDBLK
  5
21
330
1F
100
AcDbEntity
  8
0
100
AcDbBlockEnd
  0
BLOCK
  5
1C
330
1B
100
AcDbEntity
 67
     1
  8
0
100
AcDbBlockBegin
  2
*Paper_Space
 70
     0
 10
0.0
 20
0.0
 30
0.0
  3
*Paper_Space
  1

  0
ENDBLK
  5
1D
330
1B
100
AcDbEntity
 67
     1
  8
0
100
AcDbBlockEnd
  0
BLOCK
  5
24
330
23
100
AcDbEntity
  8
0
100
AcDbBlockBegin
  2
*Paper_Space0
 70
     0
 10
0.0
 20
0.0
 30
0.0
  3
*Paper_Space0
  1

  0
ENDBLK
  5
25
330
23
100
AcDbEntity
  8
0
100
AcDbBlockEnd
  0
BLOCK
  5
89
330
87
100
AcDbEntity
  8
0
100
AcDbBlockBegin
  2
GENAXEH
 70
     0
 10
0.0
 20
0.0
 30
0.0
  3
GENAXEH
  1

  0
LINE
  5
88
330
87
100
AcDbEntity
  8
0
100
AcDbLine
 10
-1.0
 20
0.0
 30
0.0
 11
1.0
 21
0.0
 31
0.0
  0
ENDBLK
  5
8A
330
87
100
AcDbEntity
  8
0
100
AcDbBlockEnd
  0
BLOCK
  5
107C
330
107B
100
AcDbEntity
  8
0
100
AcDbBlockBegin
  2
*U4
 70
     1
 10
0.0
 20
0.0
 30
0.0
  3
*U4
  1

  0
ENDBLK
  5
107D
330
107B
100
AcDbEntity
  8
0
100
AcDbBlockEnd
  0
BLOCK
  5
536E
330
5364
100
AcDbEntity
  8
0
100
AcDbBlockBegin
  2
*D5
 70
     1
 10
0.0
 20
0.0
 30
0.0
  3
*D5
  1

  0
LINE
  5
55A4
330
5364
100
AcDbEntity
  8
AM_5
100
AcDbLine
 10
177.983635892018
 20
389.4557747441501
 30
0.0
 11
177.983635892018
 21
377.4557747441501
 31
0.0
  0
LINE
  5
55A5
330
5364
100
AcDbEntity
  8
AM_5
100
AcDbLine
 10
210.7336358920179
 20
391.85577474415
 30
0.0
 11
210.7336358920179
 21
377.4557747441501
 31
0.0
  0
LINE
  5
55A6
330
5364
100
AcDbEntity
  8
AM_5
100
AcDbLine
 10
180.983635892018
 20
378.95577474415
 30
0.0
 11
207.733635892018
 21
378.95577474415
 31
0.0
  0
SOLID
  5
55A7
330
5364
100
AcDbEntity
  8
AM_5
100
AcDbTrace
 10
180.983635892018
 20
379.4557747441501
 30
0.0
 11
180.983635892018
 21
378.4557747441501
 31
0.0
 12
177.983635892018
 22
378.95577474415
 32
0.0
 13
177.983635892018
 23
378.95577474415
 33
0.0
  0
SOLID
  5
55A8
330
5364
100
AcDbEntity
  8
AM_5
100
AcDbTrace
 10
207.733635892018
 20
379.4557747441501
 30
0.0
 11
207.733635892018
 21
378.4557747441501
 31
0.0
 12
210.7336358920179
 22
378.95577474415
 32
0.0
 13
210.7336358920179
 23
378.95577474415
 33
0.0
  0
MTEXT
  5
55A9
330
5364
100
AcDbEntity
  8
AM_5
100
AcDbMText
 10
194.358635892018
 20
381.4061192323391
 30
0.0
 40
3.5
 41
0.0
 71
     5
 72
     1
  1
32.8
 73
     1
 44
1.0
1001
ACAD
1000
MTEXTBEGIN
1070
    73
1070
     1
1070
    44
1040
1.0
1070
    74
1070
     0
1000
MTEXTEND
  0
POINT
  5
55AA
330
5364
100
AcDbEntity
  8
Defpoints
 62
     0
100
AcDbPoint
 10
177.983635892018
 20
390.4557747441501
 30
0.0
  0
POINT
  5
55AB
330
5364
100
AcDbEntity
  8
Defpoints
 62
     0
100
AcDbPoint
 10
210.7336358920179
 20
392.85577474415
 30
0.0
  0
POINT
  5
55AC
330
5364
100
AcDbEntity
  8
Defpoints
 62
     0
100
AcDbPoint
 10
210.7336358920179
 20
378.95577474415
 30
0.0
  0
ENDBLK
  5
536F
330
5364
100
AcDbEntity
  8
0
100
AcDbBlockEnd
  0
BLOCK
  5
537A
330
5370
100
AcDbEntity
  8
0
100
AcDbBlockBegin
  2
*D6
 70
     1
 10
0.0
 20
0.0
 30
0.0
  3
*D6
  1

  0
LINE
  5
551E
330
5370
100
AcDbEntity
  8
AM_5
100
AcDbLine
 10
200.9836358920179
 20
461.9745229860583
 30
0.0
 11
200.9836358920179
 21
483.9745229860583
 31
0.0
  0
LINE
  5
551F
330
5370
100
AcDbEntity
  8
AM_5
100
AcDbLine
 10
225.9836358920179
 20
471.7245229860583
 30
0.0
 11
225.9836358920179
 21
483.9745229860583
 31
0.0
  0
LINE
  5
5520
330
5370
100
AcDbEntity
  8
AM_5
100
AcDbLine
 10
203.9836358920179
 20
482.4745229860583
 30
0.0
 11
222.9836358920179
 21
482.4745229860583
 31
0.0
  0
SOLID
  5
5521
330
5370
100
AcDbEntity
  8
AM_5
100
AcDbTrace
 10
203.9836358920179
 20
482.9745229860583
 30
0.0
 11
203.9836358920179
 21
481.9745229860583
 31
0.0
 12
200.9836358920179
 22
482.4745229860583
 32
0.0
 13
200.9836358920179
 23
482.4745229860583
 33
0.0
  0
SOLID
  5
5522
330
5370
100
AcDbEntity
  8
AM_5
100
AcDbTrace
 10
222.9836358920179
 20
482.9745229860583
 30
0.0
 11
222.9836358920179
 21
481.9745229860583
 31
0.0
 12
225.9836358920179
 22
482.4745229860583
 32
0.0
 13
225.9836358920179
 23
482.4745229860583
 33
0.0
  0
MTEXT
  5
5523
330
5370
100
AcDbEntity
  8
AM_5
100
AcDbMText
 10
213.4836358920179
 20
484.9248674742473
 30
0.0
 40
3.5
 41
0.0
 71
     5
 72
     1
  1
25
 73
     1
 44
1.0
1001
ACAD
1000
MTEXTBEGIN
1070
    73
1070
     1
1070
    44
1040
1.0
1070
    74
1070
     0
1000
MTEXTEND
  0
POINT
  5
5524
330
5370
100
AcDbEntity
  8
Defpoints
 62
     0
100
AcDbPoint
 10
200.9836358920179
 20
460.9745229860583
 30
0.0
  0
POINT
  5
5525
330
5370
100
AcDbEntity
  8
Defpoints
 62
     0
100
AcDbPoint
 10
225.9836358920179
 20
470.7245229860583
 30
0.0
  0
POINT
  5
5526
330
5370
100
AcDbEntity
  8
Defpoints
 62
     0
100
AcDbPoint
 10
225.9836358920179
 20
482.4745229860583
 30
0.0
  0
ENDBLK
  5
537B
330
5370
100
AcDbEntity
  8
0
100
AcDbBlockEnd
  0
BLOCK
  5
5386
330
537C
100
AcDbEntity
  8
0
100
AcDbBlockBegin
  2
*D7
 70
     1
 10
0.0
 20
0.0
 30
0.0
  3
*D7
  1

  0
LINE
  5
5527
330
537C
100
AcDbEntity
  8
AM_5
100
AcDbLine
 10
177.9836358920179
 20
453.4745229860583
 30
0.0
 11
177.9836358920179
 21
442.9745229860583
 31
0.0
  0
LINE
  5
5528
330
537C
100
AcDbEntity
  8
AM_5
100
AcDbLine
 10
200.9836358920179
 20
451.9745229860583
 30
0.0
 11
200.9836358920179
 21
442.9745229860583
 31
0.0
  0
LINE
  5
5529
330
537C
100
AcDbEntity
  8
AM_5
100
AcDbLine
 10
180.9836358920179
 20
444.4745229860583
 30
0.0
 11
197.9836358920179
 21
444.4745229860583
 31
0.0
  0
SOLID
  5
552A
330
537C
100
AcDbEntity
  8
AM_5
100
AcDbTrace
 10
180.9836358920179
 20
444.9745229860583
 30
0.0
 11
180.9836358920179
 21
443.9745229860583
 31
0.0
 12
177.9836358920179
 22
444.4745229860583
 32
0.0
 13
177.9836358920179
 23
444.4745229860583
 33
0.0
  0
SOLID
  5
552B
330
537C
100
AcDbEntity
  8
AM_5
100
AcDbTrace
 10
197.9836358920179
 20
444.9745229860583
 30
0.0
 11
197.9836358920179
 21
443.9745229860583
 31
0.0
 12
200.9836358920179
 22
444.4745229860583
 32
0.0
 13
200.9836358920179
 23
444.4745229860583
 33
0.0
  0
MTEXT
  5
552C
330
537C
100
AcDbEntity
  8
AM_5
100
AcDbMText
 10
189.4836358920179
 20
446.9248674742472
 30
0.0
 40
3.5
 41
0.0
 71
     5
 72
     1
  1
23
 73
     1
 44
1.0
1001
ACAD
1000
MTEXTBEGIN
1070
    73
1070
     1
1070
    44
1040
1.0
1070
    74
1070
     0
1000
MTEXTEND
  0
POINT
  5
552D
330
537C
100
AcDbEntity
  8
Defpoints
 62
     0
100
AcDbPoint
 10
177.9836358920179
 20
454.4745229860583
 30
0.0
  0
POINT
  5
552E
330
537C
100
AcDbEntity
  8
Defpoints
 62
     0
100
AcDbPoint
 10
200.9836358920179
 20
452.9745229860583
 30
0.0
  0
POINT
  5
552F
330
537C
100
AcDbEntity
  8
Defpoints
 62
     0
100
AcDbPoint
 10
200.9836358920179
 20
444.4745229860583
 30
0.0
  0
ENDBLK
  5
5387
330
537C
100
AcDbEntity
  8
0
100
AcDbBlockEnd
  0
BLOCK
  5
5392
330
5388
100
AcDbEntity
  8
0
100
AcDbBlockBegin
  2
*D8
 70
     1
 10
0.0
 20
0.0
 30
0.0
  3
*D8
  1

  0
LINE
  5
5530
330
5388
100
AcDbEntity
  8
AM_5
100
AcDbLine
 10
200.9836358920179
 20
451.9745229860583
 30
0.0
 11
200.9836358920179
 21
442.9745229860584
 31
0.0
  0
LINE
  5
5531
330
5388
100
AcDbEntity
  8
AM_5
100
AcDbLine
 10
234.9836358920179
 20
464.9745229860583
 30
0.0
 11
234.9836358920179
 21
442.9745229860584
 31
0.0
  0
LINE
  5
5532
330
5388
100
AcDbEntity
  8
AM_5
100
AcDbLine
 10
203.9836358920179
 20
444.4745229860584
 30
0.0
 11
231.9836358920179
 21
444.4745229860584
 31
0.0
  0
SOLID
  5
5533
330
5388
100
AcDbEntity
  8
AM_5
100
AcDbTrace
 10
203.9836358920179
 20
444.9745229860583
 30
0.0
 11
203.9836358920179
 21
443.9745229860584
 31
0.0
 12
200.9836358920179
 22
444.4745229860584
 32
0.0
 13
200.9836358920179
 23
444.4745229860584
 33
0.0
  0
SOLID
  5
5534
330
5388
100
AcDbEntity
  8
AM_5
100
AcDbTrace
 10
231.9836358920179
 20
444.9745229860583
 30
0.0
 11
231.9836358920179
 21
443.9745229860584
 31
0.0
 12
234.9836358920179
 22
444.4745229860584
 32
0.0
 13
234.9836358920179
 23
444.4745229860584
 33
0.0
  0
MTEXT
  5
5535
330
5388
100
AcDbEntity
  8
AM_5
100
AcDbMText
 10
217.9836358920179
 20
446.9245229860583
 30
0.0
 40
3.5
 41
0.0
 71
     5
 72
     1
  1
34
 73
     1
 44
1.0
1001
ACAD
1000
MTEXTBEGIN
1070
    73
1070
     1
1070
    44
1040
1.0
1070
    74
1070
     0
1000
MTEXTEND
  0
POINT
  5
5536
330
5388
100
AcDbEntity
  8
Defpoints
 62
     0
100
AcDbPoint
 10
200.9836358920179
 20
452.9745229860583
 30
0.0
  0
POINT
  5
5537
330
5388
100
AcDbEntity
  8
Defpoints
 62
     0
100
AcDbPoint
 10
234.9836358920179
 20
465.9745229860583
 30
0.0
  0
POINT
  5
5538
330
5388
100
AcDbEntity
  8
Defpoints
 62
     0
100
AcDbPoint
 10
234.9836358920179
 20
444.4745229860584
 30
0.0
  0
ENDBLK
  5
5393
330
5388
100
AcDbEntity
  8
0
100
AcDbBlockEnd
  0
BLOCK
  5
539E
330
5394
100
AcDbEntity
  8
0
100
AcDbBlockBegin
  2
*D9
 70
     1
 10
0.0
 20
0.0
 30
0.0
  3
*D9
  1

  0
LINE
  5
5539
330
5394
100
AcDbEntity
  8
AM_5
100
AcDbLine
 10
195.9836358920179
 20
456.9745229860583
 30
0.0
 11
166.4836358920179
 21
456.9745229860583
 31
0.0
  0
LINE
  5
553A
330
5394
100
AcDbEntity
  8
AM_5
100
AcDbLine
 10
229.9836358920179
 20
469.9745229860583
 30
0.0
 11
166.4836358920179
 21
469.9745229860583
 31
0.0
  0
LINE
  5
553B
330
5394
100
AcDbEntity
  8
AM_5
100
AcDbLine
 10
167.9836358920179
 20
459.9745229860583
 30
0.0
 11
167.9836358920179
 21
466.9745229860583
 31
0.0
  0
SOLID
  5
553C
330
5394
100
AcDbEntity
  8
AM_5
100
AcDbTrace
 10
167.4836358920179
 20
459.9745229860583
 30
0.0
 11
168.4836358920179
 21
459.9745229860583
 31
0.0
 12
167.9836358920179
 22
456.9745229860583
 32
0.0
 13
167.9836358920179
 23
456.9745229860583
 33
0.0
  0
SOLID
  5
553D
330
5394
100
AcDbEntity
  8
AM_5
100
AcDbTrace
 10
167.4836358920179
 20
466.9745229860583
 30
0.0
 11
168.4836358920179
 21
466.9745229860583
 31
0.0
 12
167.9836358920179
 22
469.9745229860583
 32
0.0
 13
167.9836358920179
 23
469.9745229860583
 33
0.0
  0
MTEXT
  5
553E
330
5394
100
AcDbEntity
  8
AM_5
100
AcDbMText
 10
165.5336358920178
 20
463.4745229860583
 30
0.0
 40
3.5
 41
0.0
 71
     5
 72
     1
  1
13
 11
0.0000000000000001
 21
1.0
 31
0.0
 73
     1
 44
1.0
1001
ACAD
1000
MTEXTBEGIN
1070
    73
1070
     1
1070
    44
1040
1.0
1070
    74
1070
     0
1000
MTEXTEND
  0
POINT
  5
553F
330
5394
100
AcDbEntity
  8
Defpoints
 62
     0
100
AcDbPoint
 10
196.9836358920179
 20
456.9745229860583
 30
0.0
  0
POINT
  5
5540
330
5394
100
AcDbEntity
  8
Defpoints
 62
     0
100
AcDbPoint
 10
230.9836358920179
 20
469.9745229860583
 30
0.0
  0
POINT
  5
5541
330
5394
100
AcDbEntity
  8
Defpoints
 62
     0
100
AcDbPoint
 10
167.9836358920179
 20
469.9745229860583
 30
0.0
  0
ENDBLK
  5
539F
330
5394
100
AcDbEntity
  8
0
100
AcDbBlockEnd
  0
BLOCK
  5
53AA
330
53A0
100
AcDbEntity
  8
0
100
AcDbBlockBegin
  2
*D10
 70
     1
 10
0.0
 20
0.0
 30
0.0
  3
*D10
  1

  0
LINE
  5
5542
330
53A0
100
AcDbEntity
  8
AM_5
100
AcDbLine
 10
177.9836358920179
 20
453.4745229860583
 30
0.0
 11
177.9836358920179
 21
434.9745229860582
 31
0.0
  0
LINE
  5
5543
330
53A0
100
AcDbEntity
  8
AM_5
100
AcDbLine
 10
257.9836358920179
 20
453.4745229860583
 30
0.0
 11
257.9836358920179
 21
434.9745229860582
 31
0.0
  0
LINE
  5
5544
330
53A0
100
AcDbEntity
  8
AM_5
100
AcDbLine
 10
180.9836358920179
 20
436.4745229860582
 30
0.0
 11
254.9836358920179
 21
436.4745229860582
 31
0.0
  0
SOLID
  5
5545
330
53A0
100
AcDbEntity
  8
AM_5
100
AcDbTrace
 10
180.9836358920179
 20
436.9745229860582
 30
0.0
 11
180.9836358920179
 21
435.9745229860582
 31
0.0
 12
177.9836358920179
 22
436.4745229860582
 32
0.0
 13
177.9836358920179
 23
436.4745229860582
 33
0.0
  0
SOLID
  5
5546
330
53A0
100
AcDbEntity
  8
AM_5
100
AcDbTrace
 10
254.9836358920179
 20
436.9745229860582
 30
0.0
 11
254.9836358920179
 21
435.9745229860582
 31
0.0
 12
257.9836358920179
 22
436.4745229860582
 32
0.0
 13
257.9836358920179
 23
436.4745229860582
 33
0.0
  0
MTEXT
  5
5547
330
53A0
100
AcDbEntity
  8
AM_5
100
AcDbMText
 10
217.9836358920179
 20
438.9245229860581
 30
0.0
 40
3.5
 41
0.0
 71
     5
 72
     1
  1
80
 73
     1
 44
1.0
1001
ACAD
1000
MTEXTBEGIN
1070
    73
1070
     1
1070
    44
1040
1.0
1070
    74
1070
     0
1000
MTEXTEND
  0
POINT
  5
5548
330
53A0
100
AcDbEntity
  8
Defpoints
 62
     0
100
AcDbPoint
 10
177.9836358920179
 20
454.4745229860583
 30
0.0
  0
POINT
  5
5549
330
53A0
100
AcDbEntity
  8
Defpoints
 62
     0
100
AcDbPoint
 10
257.9836358920179
 20
454.4745229860583
 30
0.0
  0
POINT
  5
554A
330
53A0
100
AcDbEntity
  8
Defpoints
 62
     0
100
AcDbPoint
 10
257.9836358920179
 20
436.4745229860582
 30
0.0
  0
ENDBLK
  5
53AB
330
53A0
100
AcDbEntity
  8
0
100
AcDbBlockEnd
  0
BLOCK
  5
53B6
330
53AC
100
AcDbEntity
  8
0
100
AcDbBlockBegin
  2
*D11
 70
     1
 10
0.0
 20
0.0
 30
0.0
  3
*D11
  1

  0
LINE
  5
554B
330
53AC
100
AcDbEntity
  8
AM_5
100
AcDbLine
 10
258.983635892018
 20
390.4557747441501
 30
0.0
 11
269.483635892018
 21
390.4557747441501
 31
0.0
  0
LINE
  5
554C
330
53AC
100
AcDbEntity
  8
AM_5
100
AcDbLine
 10
258.983635892018
 20
417.45577474415
 30
0.0
 11
269.483635892018
 21
417.45577474415
 31
0.0
  0
LINE
  5
554D
330
53AC
100
AcDbEntity
  8
AM_5
100
AcDbLine
 10
267.983635892018
 20
393.45577474415
 30
0.0
 11
267.983635892018
 21
414.45577474415
 31
0.0
  0
SOLID
  5
554E
330
53AC
100
AcDbEntity
  8
AM_5
100
AcDbTrace
 10
267.483635892018
 20
393.45577474415
 30
0.0
 11
268.483635892018
 21
393.45577474415
 31
0.0
 12
267.983635892018
 22
390.4557747441501
 32
0.0
 13
267.983635892018
 23
390.4557747441501
 33
0.0
  0
SOLID
  5
554F
330
53AC
100
AcDbEntity
  8
AM_5
100
AcDbTrace
 10
267.483635892018
 20
414.45577474415
 30
0.0
 11
268.483635892018
 21
414.45577474415
 31
0.0
 12
267.983635892018
 22
417.45577474415
 32
0.0
 13
267.983635892018
 23
417.45577474415
 33
0.0
  0
MTEXT
  5
5550
330
53AC
100
AcDbEntity
  8
AM_5
100
AcDbMText
 10
265.5332914038289
 20
403.95577474415
 30
0.0
 40
3.5
 41
0.0
 71
     5
 72
     1
  1
27
 11
0.0000000000000001
 21
1.0
 31
0.0
 73
     1
 44
1.0
1001
ACAD
1000
MTEXTBEGIN
1070
    73
1070
     1
1070
    44
1040
1.0
1070
    74
1070
     0
1000
MTEXTEND
  0
POINT
  5
5551
330
53AC
100
AcDbEntity
  8
Defpoints
 62
     0
100
AcDbPoint
 10
257.983635892018
 20
390.4557747441501
 30
0.0
  0
POINT
  5
5552
330
53AC
100
AcDbEntity
  8
Defpoints
 62
     0
100
AcDbPoint
 10
257.983635892018
 20
417.45577474415
 30
0.0
  0
POINT
  5
5553
330
53AC
100
AcDbEntity
  8
Defpoints
 62
     0
100
AcDbPoint
 10
267.983635892018
 20
417.45577474415
 30
0.0
  0
ENDBLK
  5
53B7
330
53AC
100
AcDbEntity
  8
0
100
AcDbBlockEnd
  0
BLOCK
  5
53C2
330
53B8
100
AcDbEntity
  8
0
100
AcDbBlockBegin
  2
*D12
 70
     1
 10
0.0
 20
0.0
 30
0.0
  3
*D12
  1

  0
LINE
  5
5554
330
53B8
100
AcDbEntity
  8
AM_5
100
AcDbLine
 10
210.7336358920179
 20
391.85577474415
 30
0.0
 11
210.7336358920179
 21
377.5116244124899
 31
0.0
  0
LINE
  5
5555
330
53B8
100
AcDbEntity
  8
AM_5
100
AcDbLine
 10
225.2336358920179
 20
391.85577474415
 30
0.0
 11
225.2336358920179
 21
377.5116244124899
 31
0.0
  0
LINE
  5
5556
330
53B8
100
AcDbEntity
  8
AM_5
100
AcDbLine
 10
213.733635892018
 20
379.0116244124899
 30
0.0
 11
222.233635892018
 21
379.0116244124899
 31
0.0
  0
SOLID
  5
5557
330
53B8
100
AcDbEntity
  8
AM_5
100
AcDbTrace
 10
213.733635892018
 20
379.51162441249
 30
0.0
 11
213.733635892018
 21
378.5116244124899
 31
0.0
 12
210.7336358920179
 22
379.0116244124899
 32
0.0
 13
210.7336358920179
 23
379.0116244124899
 33
0.0
  0
SOLID
  5
5558
330
53B8
100
AcDbEntity
  8
AM_5
100
AcDbTrace
 10
222.233635892018
 20
379.51162441249
 30
0.0
 11
222.233635892018
 21
378.5116244124899
 31
0.0
 12
225.2336358920179
 22
379.0116244124899
 32
0.0
 13
225.2336358920179
 23
379.0116244124899
 33
0.0
  0
MTEXT
  5
5559
330
53B8
100
AcDbEntity
  8
AM_5
100
AcDbMText
 10
217.983635892018
 20
381.4616244124899
 30
0.0
 40
3.5
 41
0.0
 71
     5
 72
     1
  1
14.5
 73
     1
 44
1.0
1001
ACAD
1000
MTEXTBEGIN
1070
    73
1070
     1
1070
    44
1040
1.0
1070
    74
1070
     0
1000
MTEXTEND
  0
POINT
  5
555A
330
53B8
100
AcDbEntity
  8
Defpoints
 62
     0
100
AcDbPoint
 10
210.7336358920179
 20
392.85577474415
 30
0.0
  0
POINT
  5
555B
330
53B8
100
AcDbEntity
  8
Defpoints
 62
     0
100
AcDbPoint
 10
225.2336358920179
 20
392.85577474415
 30
0.0
  0
POINT
  5
555C
330
53B8
100
AcDbEntity
  8
Defpoints
 62
     0
100
AcDbPoint
 10
225.2336358920179
 20
379.0116244124899
 30
0.0
  0
ENDBLK
  5
53C3
330
53B8
100
AcDbEntity
  8
0
100
AcDbBlockEnd
  0
BLOCK
  5
53D0
330
53C4
100
AcDbEntity
  8
0
100
AcDbBlockBegin
  2
*D13
 70
     1
 10
0.0
 20
0.0
 30
0.0
  3
*D13
  1

  0
LINE
  5
555D
330
53C4
100
AcDbEntity
  8
AM_5
100
AcDbLine
 10
197.9836358920179
 20
390.4557747441501
 30
0.0
 11
202.7682636100828
 21
390.4557747441501
 31
0.0
  0
LINE
  5
555E
330
53C4
100
AcDbEntity
  8
AM_5
100
AcDbLine
 10
206.6336358920179
 20
395.4557747441501
 30
0.0
 11
199.7682636100828
 21
395.4557747441501
 31
0.0
  0
LINE
  5
555F
330
53C4
100
AcDbEntity
  8
AM_5
100
AcDbLine
 10
201.2682636100828
 20
387.45577474415
 30
0.0
 11
201.2682636100828
 21
384.4557747441501
 31
0.0
  0
LINE
  5
5560
330
53C4
100
AcDbEntity
  8
AM_5
100
AcDbLine
 10
201.2682636100828
 20
398.4557747441501
 30
0.0
 11
201.2682636100828
 21
401.45577474415
 31
0.0
  0
LINE
  5
5561
330
53C4
100
AcDbEntity
  8
AM_5
100
AcDbLine
 10
201.2682636100828
 20
390.4557747441501
 30
0.0
 11
201.2682636100828
 21
395.4557747441501
 31
0.0
  0
SOLID
  5
5562
330
53C4
100
AcDbEntity
  8
AM_5
100
AcDbTrace
 10
200.7682636100828
 20
387.45577474415
 30
0.0
 11
201.7682636100828
 21
387.45577474415
 31
0.0
 12
201.2682636100828
 22
390.4557747441501
 32
0.0
 13
201.2682636100828
 23
390.4557747441501
 33
0.0
  0
SOLID
  5
5563
330
53C4
100
AcDbEntity
  8
AM_5
100
AcDbTrace
 10
200.7682636100828
 20
398.4557747441501
 30
0.0
 11
201.7682636100828
 21
398.4557747441501
 31
0.0
 12
201.2682636100828
 22
395.4557747441501
 32
0.0
 13
201.2682636100828
 23
395.4557747441501
 33
0.0
  0
MTEXT
  5
5564
330
53C4
100
AcDbEntity
  8
AM_5
100
AcDbMText
 10
198.8182636100827
 20
392.9557747441501
 30
0.0
 40
3.5
 41
0.0
 71
     5
 72
     1
  1
5
 11
0.0000000000000001
 21
1.0
 31
0.0
 73
     1
 44
1.0
1001
ACAD
1000
MTEXTBEGIN
1070
    73
1070
     1
1070
    44
1040
1.0
1070
    74
1070
     0
1000
MTEXTEND
  0
POINT
  5
5565
330
53C4
100
AcDbEntity
  8
Defpoints
 62
     0
100
AcDbPoint
 10
196.9836358920179
 20
390.4557747441501
 30
0.0
  0
POINT
  5
5566
330
53C4
100
AcDbEntity
  8
Defpoints
 62
     0
100
AcDbPoint
 10
207.6336358920179
 20
395.4557747441501
 30
0.0
  0
POINT
  5
5567
330
53C4
100
AcDbEntity
  8
Defpoints
 62
     0
100
AcDbPoint
 10
201.2682636100828
 20
395.4557747441501
 30
0.0
  0
ENDBLK
  5
53D1
330
53C4
100
AcDbEntity
  8
0
100
AcDbBlockEnd
  0
BLOCK
  5
53DE
330
53D2
100
AcDbEntity
  8
0
100
AcDbBlockBegin
  2
*D14
 70
     1
 10
0.0
 20
0.0
 30
0.0
  3
*D14
  1

  0
LINE
  5
5568
330
53D2
100
AcDbEntity
  8
AM_5
100
AcDbLine
 10
204.983635892018
 20
417.45577474415
 30
0.0
 11
208.4043716455456
 21
417.45577474415
 31
0.0
  0
LINE
  5
5569
330
53D2
100
AcDbEntity
  8
AM_5
100
AcDbLine
 10
204.983635892018
 20
414.45577474415
 30
0.0
 11
208.4043716455456
 21
414.45577474415
 31
0.0
  0
LINE
  5
556A
330
53D2
100
AcDbEntity
  8
AM_5
100
AcDbLine
 10
206.9043716455456
 20
411.45577474415
 30
0.0
 11
206.9043716455456
 21
408.45577474415
 31
0.0
  0
LINE
  5
556B
330
53D2
100
AcDbEntity
  8
AM_5
100
AcDbLine
 10
206.9043716455456
 20
420.4557747441501
 30
0.0
 11
206.9043716455456
 21
426.4007494909807
 31
0.0
  0
LINE
  5
556C
330
53D2
100
AcDbEntity
  8
AM_5
100
AcDbLine
 10
206.9043716455456
 20
414.45577474415
 30
0.0
 11
206.9043716455456
 21
417.45577474415
 31
0.0
  0
SOLID
  5
556D
330
53D2
100
AcDbEntity
  8
AM_5
100
AcDbTrace
 10
206.4043716455456
 20
411.45577474415
 30
0.0
 11
207.4043716455455
 21
411.45577474415
 31
0.0
 12
206.9043716455456
 22
414.45577474415
 32
0.0
 13
206.9043716455456
 23
414.45577474415
 33
0.0
  0
SOLID
  5
556E
330
53D2
100
AcDbEntity
  8
AM_5
100
AcDbTrace
 10
206.4043716455456
 20
420.4557747441501
 30
0.0
 11
207.4043716455455
 21
420.4557747441501
 31
0.0
 12
206.9043716455456
 22
417.45577474415
 32
0.0
 13
206.9043716455456
 23
417.45577474415
 33
0.0
  0
MTEXT
  5
556F
330
53D2
100
AcDbEntity
  8
AM_5
100
AcDbMText
 10
204.4543716455455
 20
424.9282621175654
 30
0.0
 40
3.5
 41
0.0
 71
     5
 72
     1
  1
3
 11
0.0000000000000001
 21
1.0
 31
0.0
 73
     1
 44
1.0
1001
ACAD
1000
MTEXTBEGIN
1070
    73
1070
     1
1070
    44
1040
1.0
1070
    74
1070
     0
1000
MTEXTEND
  0
POINT
  5
5570
330
53D2
100
AcDbEntity
  8
Defpoints
 62
     0
100
AcDbPoint
 10
203.983635892018
 20
417.45577474415
 30
0.0
  0
POINT
  5
5571
330
53D2
100
AcDbEntity
  8
Defpoints
 62
     0
100
AcDbPoint
 10
203.983635892018
 20
414.45577474415
 30
0.0
  0
POINT
  5
5572
330
53D2
100
AcDbEntity
  8
Defpoints
 62
     0
100
AcDbPoint
 10
206.9043716455456
 20
414.45577474415
 30
0.0
  0
ENDBLK
  5
53DF
330
53D2
100
AcDbEntity
  8
0
100
AcDbBlockEnd
  0
BLOCK
  5
53EA
330
53E0
100
AcDbEntity
  8
0
100
AcDbBlockBegin
  2
*D15
 70
     1
 10
0.0
 20
0.0
 30
0.0
  3
*D15
  1

  0
LINE
  5
5573
330
53E0
100
AcDbEntity
  8
AM_5
100
AcDbLine
 10
177.9836358920179
 20
333.537653571064
 30
0.0
 11
177.9836358920179
 21
323.037653571064
 31
0.0
  0
LINE
  5
5574
330
53E0
100
AcDbEntity
  8
AM_5
100
AcDbLine
 10
203.483635892018
 20
335.787653571064
 30
0.0
 11
203.483635892018
 21
323.037653571064
 31
0.0
  0
LINE
  5
5575
330
53E0
100
AcDbEntity
  8
AM_5
100
AcDbLine
 10
180.9836358920179
 20
324.537653571064
 30
0.0
 11
200.4836358920179
 21
324.537653571064
 31
0.0
  0
SOLID
  5
5576
330
53E0
100
AcDbEntity
  8
AM_5
100
AcDbTrace
 10
180.9836358920179
 20
325.037653571064
 30
0.0
 11
180.9836358920179
 21
324.037653571064
 31
0.0
 12
177.9836358920179
 22
324.537653571064
 32
0.0
 13
177.9836358920179
 23
324.537653571064
 33
0.0
  0
SOLID
  5
5577
330
53E0
100
AcDbEntity
  8
AM_5
100
AcDbTrace
 10
200.4836358920179
 20
325.037653571064
 30
0.0
 11
200.4836358920179
 21
324.037653571064
 31
0.0
 12
203.483635892018
 22
324.537653571064
 32
0.0
 13
203.483635892018
 23
324.537653571064
 33
0.0
  0
MTEXT
  5
5578
330
53E0
100
AcDbEntity
  8
AM_5
100
AcDbMText
 10
190.7336358920179
 20
326.987998059253
 30
0.0
 40
3.5
 41
0.0
 71
     5
 72
     1
  1
25.5
 73
     1
 44
1.0
1001
ACAD
1000
MTEXTBEGIN
1070
    73
1070
     1
1070
    44
1040
1.0
1070
    74
1070
     0
1000
MTEXTEND
  0
POINT
  5
5579
330
53E0
100
AcDbEntity
  8
Defpoints
 62
     0
100
AcDbPoint
 10
177.9836358920179
 20
334.537653571064
 30
0.0
  0
POINT
  5
557A
330
53E0
100
AcDbEntity
  8
Defpoints
 62
     0
100
AcDbPoint
 10
203.483635892018
 20
336.787653571064
 30
0.0
  0
POINT
  5
557B
330
53E0
100
AcDbEntity
  8
Defpoints
 62
     0
100
AcDbPoint
 10
203.483635892018
 20
324.537653571064
 30
0.0
  0
ENDBLK
  5
53EB
330
53E0
100
AcDbEntity
  8
0
100
AcDbBlockEnd
  0
BLOCK
  5
53F6
330
53EC
100
AcDbEntity
  8
0
100
AcDbBlockBegin
  2
*D16
 70
     1
 10
0.0
 20
0.0
 30
0.0
  3
*D16
  1

  0
LINE
  5
557C
330
53EC
100
AcDbEntity
  8
AM_5
100
AcDbLine
 10
203.483635892018
 20
335.787653571064
 30
0.0
 11
203.483635892018
 21
323.037653571064
 31
0.0
  0
LINE
  5
557D
330
53EC
100
AcDbEntity
  8
AM_5
100
AcDbLine
 10
232.483635892018
 20
336.787653571064
 30
0.0
 11
232.483635892018
 21
323.037653571064
 31
0.0
  0
LINE
  5
557E
330
53EC
100
AcDbEntity
  8
AM_5
100
AcDbLine
 10
206.4836358920179
 20
324.537653571064
 30
0.0
 11
229.4836358920179
 21
324.537653571064
 31
0.0
  0
SOLID
  5
557F
330
53EC
100
AcDbEntity
  8
AM_5
100
AcDbTrace
 10
206.4836358920179
 20
325.037653571064
 30
0.0
 11
206.4836358920179
 21
324.037653571064
 31
0.0
 12
203.483635892018
 22
324.537653571064
 32
0.0
 13
203.483635892018
 23
324.537653571064
 33
0.0
  0
SOLID
  5
5580
330
53EC
100
AcDbEntity
  8
AM_5
100
AcDbTrace
 10
229.4836358920179
 20
325.037653571064
 30
0.0
 11
229.4836358920179
 21
324.037653571064
 31
0.0
 12
232.483635892018
 22
324.537653571064
 32
0.0
 13
232.483635892018
 23
324.537653571064
 33
0.0
  0
MTEXT
  5
5581
330
53EC
100
AcDbEntity
  8
AM_5
100
AcDbMText
 10
217.983635892018
 20
326.987998059253
 30
0.0
 40
3.5
 41
0.0
 71
     5
 72
     1
  1
29
 73
     1
 44
1.0
1001
ACAD
1000
MTEXTBEGIN
1070
    73
1070
     1
1070
    44
1040
1.0
1070
    74
1070
     0
1000
MTEXTEND
  0
POINT
  5
5582
330
53EC
100
AcDbEntity
  8
Defpoints
 62
     0
100
AcDbPoint
 10
203.483635892018
 20
336.787653571064
 30
0.0
  0
POINT
  5
5583
330
53EC
100
AcDbEntity
  8
Defpoints
 62
     0
100
AcDbPoint
 10
232.483635892018
 20
337.787653571064
 30
0.0
  0
POINT
  5
5584
330
53EC
100
AcDbEntity
  8
Defpoints
 62
     0
100
AcDbPoint
 10
232.483635892018
 20
324.537653571064
 30
0.0
  0
ENDBLK
  5
53F7
330
53EC
100
AcDbEntity
  8
0
100
AcDbBlockEnd
  0
BLOCK
  5
5402
330
53F8
100
AcDbEntity
  8
0
100
AcDbBlockBegin
  2
*D17
 70
     1
 10
0.0
 20
0.0
 30
0.0
  3
*D17
  1

  0
LINE
  5
5585
330
53F8
100
AcDbEntity
  8
AM_5
100
AcDbLine
 10
177.9836358920179
 20
353.537653571064
 30
0.0
 11
177.9836358920179
 21
364.137654571064
 31
0.0
  0
LINE
  5
5586
330
53F8
100
AcDbEntity
  8
AM_5
100
AcDbLine
 10
217.983635892018
 20
350.787653571064
 30
0.0
 11
217.983635892018
 21
364.137654571064
 31
0.0
  0
LINE
  5
5587
330
53F8
100
AcDbEntity
  8
AM_5
100
AcDbLine
 10
180.9836358920179
 20
362.637654571064
 30
0.0
 11
214.9836358920179
 21
362.637654571064
 31
0.0
  0
SOLID
  5
5588
330
53F8
100
AcDbEntity
  8
AM_5
100
AcDbTrace
 10
180.9836358920179
 20
363.137654571064
 30
0.0
 11
180.9836358920179
 21
362.137654571064
 31
0.0
 12
177.9836358920179
 22
362.637654571064
 32
0.0
 13
177.9836358920179
 23
362.637654571064
 33
0.0
  0
SOLID
  5
5589
330
53F8
100
AcDbEntity
  8
AM_5
100
AcDbTrace
 10
214.9836358920179
 20
363.137654571064
 30
0.0
 11
214.9836358920179
 21
362.137654571064
 31
0.0
 12
217.983635892018
 22
362.637654571064
 32
0.0
 13
217.983635892018
 23
362.637654571064
 33
0.0
  0
MTEXT
  5
558A
330
53F8
100
AcDbEntity
  8
AM_5
100
AcDbMText
 10
197.9836358920179
 20
365.087654571064
 30
0.0
 40
3.5
 41
0.0
 71
     5
 72
     1
  1
40
 73
     1
 44
1.0
1001
ACAD
1000
MTEXTBEGIN
1070
    73
1070
     1
1070
    44
1040
1.0
1070
    74
1070
     0
1000
MTEXTEND
  0
POINT
  5
558B
330
53F8
100
AcDbEntity
  8
Defpoints
 62
     0
100
AcDbPoint
 10
177.9836358920179
 20
352.537653571064
 30
0.0
  0
POINT
  5
558C
330
53F8
100
AcDbEntity
  8
Defpoints
 62
     0
100
AcDbPoint
 10
217.983635892018
 20
349.787653571064
 30
0.0
  0
POINT
  5
558D
330
53F8
100
AcDbEntity
  8
Defpoints
 62
     0
100
AcDbPoint
 10
217.983635892018
 20
362.637654571064
 30
0.0
  0
ENDBLK
  5
5403
330
53F8
100
AcDbEntity
  8
0
100
AcDbBlockEnd
  0
BLOCK
  5
5410
330
5404
100
AcDbEntity
  8
0
100
AcDbBlockBegin
  2
*D18
 70
     1
 10
0.0
 20
0.0
 30
0.0
  3
*D18
  1

  0
LINE
  5
558E
330
5404
100
AcDbEntity
  8
AM_5
100
AcDbLine
 10
262.09282096956
 20
343.537653571064
 30
0.0
 11
269.483635892018
 21
343.537653571064
 31
0.0
  0
LINE
  5
558F
330
5404
100
AcDbEntity
  8
AM_5
100
AcDbLine
 10
239.7336358920179
 20
344.037653571064
 30
0.0
 11
269.483635892018
 21
344.037653571064
 31
0.0
  0
LINE
  5
5590
330
5404
100
AcDbEntity
  8
AM_5
100
AcDbLine
 10
267.983635892018
 20
340.537653571064
 30
0.0
 11
267.983635892018
 21
337.537653571064
 31
0.0
  0
LINE
  5
5591
330
5404
100
AcDbEntity
  8
AM_5
100
AcDbLine
 10
267.983635892018
 20
347.037653571064
 30
0.0
 11
267.983635892018
 21
356.4853842234064
 31
0.0
  0
LINE
  5
5592
330
5404
100
AcDbEntity
  8
AM_5
100
AcDbLine
 10
267.983635892018
 20
343.537653571064
 30
0.0
 11
267.983635892018
 21
344.037653571064
 31
0.0
  0
SOLID
  5
5593
330
5404
100
AcDbEntity
  8
AM_5
100
AcDbTrace
 10
267.483635892018
 20
340.537653571064
 30
0.0
 11
268.483635892018
 21
340.537653571064
 31
0.0
 12
267.983635892018
 22
343.537653571064
 32
0.0
 13
267.983635892018
 23
343.537653571064
 33
0.0
  0
SOLID
  5
5594
330
5404
100
AcDbEntity
  8
AM_5
100
AcDbTrace
 10
267.483635892018
 20
347.037653571064
 30
0.0
 11
268.483635892018
 21
347.037653571064
 31
0.0
 12
267.983635892018
 22
344.037653571064
 32
0.0
 13
267.983635892018
 23
344.037653571064
 33
0.0
  0
MTEXT
  5
5595
330
5404
100
AcDbEntity
  8
AM_5
100
AcDbMText
 10
265.5336358920179
 20
353.2615188972353
 30
0.0
 40
3.5
 41
0.0
 71
     5
 72
     1
  1
0.5
 11
0.0000000000000001
 21
1.0
 31
0.0
 73
     1
 44
1.0
1001
ACAD
1000
MTEXTBEGIN
1070
    73
1070
     1
1070
    44
1040
1.0
1070
    74
1070
     0
1000
MTEXTEND
  0
POINT
  5
5596
330
5404
100
AcDbEntity
  8
Defpoints
 62
     0
100
AcDbPoint
 10
261.09282096956
 20
343.537653571064
 30
0.0
  0
POINT
  5
5597
330
5404
100
AcDbEntity
  8
Defpoints
 62
     0
100
AcDbPoint
 10
238.733635892018
 20
344.037653571064
 30
0.0
  0
POINT
  5
5598
330
5404
100
AcDbEntity
  8
Defpoints
 62
     0
100
AcDbPoint
 10
267.983635892018
 20
344.037653571064
 30
0.0
  0
ENDBLK
  5
5411
330
5404
100
AcDbEntity
  8
0
100
AcDbBlockEnd
  0
BLOCK
  5
54A2
330
5496
100
AcDbEntity
  8
0
100
AcDbBlockBegin
  2
*D19
 70
     1
 10
0.0
 20
0.0
 30
0.0
  3
*D19
  1

  0
LINE
  5
5599
330
5496
100
AcDbEntity
  8
AM_5
100
AcDbLine
 10
182.8253831921865
 20
343.537653571064
 30
0.0
 11
166.4836358920179
 21
343.537653571064
 31
0.0
  0
LINE
  5
559A
330
5496
100
AcDbEntity
  8
AM_5
100
AcDbLine
 10
196.2336358920179
 20
343.037653571064
 30
0.0
 11
166.4836358920179
 21
343.037653571064
 31
0.0
  0
LINE
  5
559B
330
5496
100
AcDbEntity
  8
AM_5
100
AcDbLine
 10
167.9836358920179
 20
346.537653571064
 30
0.0
 11
167.9836358920179
 21
349.537653571064
 31
0.0
  0
LINE
  5
559C
330
5496
100
AcDbEntity
  8
AM_5
100
AcDbLine
 10
167.9836358920179
 20
340.037653571064
 30
0.0
 11
167.9836358920179
 21
330.5899229187216
 31
0.0
  0
LINE
  5
559D
330
5496
100
AcDbEntity
  8
AM_5
100
AcDbLine
 10
167.9836358920179
 20
343.537653571064
 30
0.0
 11
167.9836358920179
 21
343.037653571064
 31
0.0
  0
SOLID
  5
559E
330
5496
100
AcDbEntity
  8
AM_5
100
AcDbTrace
 10
167.4836358920179
 20
346.537653571064
 30
0.0
 11
168.4836358920179
 21
346.537653571064
 31
0.0
 12
167.9836358920179
 22
343.537653571064
 32
0.0
 13
167.9836358920179
 23
343.537653571064
 33
0.0
  0
SOLID
  5
559F
330
5496
100
AcDbEntity
  8
AM_5
100
AcDbTrace
 10
167.4836358920179
 20
340.037653571064
 30
0.0
 11
168.4836358920179
 21
340.037653571064
 31
0.0
 12
167.9836358920179
 22
343.037653571064
 32
0.0
 13
167.9836358920179
 23
343.037653571064
 33
0.0
  0
MTEXT
  5
55A0
330
5496
100
AcDbEntity
  8
AM_5
100
AcDbMText
 10
165.5336358920179
 20
333.8137882448928
 30
0.0
 40
3.5
 41
0.0
 71
     5
 72
     1
  1
0.5
 11
0.0000000000000001
 21
1.0
 31
0.0
 73
     1
 44
1.0
1001
ACAD
1000
MTEXTBEGIN
1070
    73
1070
     1
1070
    44
1040
1.0
1070
    74
1070
     0
1000
MTEXTEND
  0
POINT
  5
55A1
330
5496
100
AcDbEntity
  8
Defpoints
 62
     0
100
AcDbPoint
 10
183.8253831921865
 20
343.537653571064
 30
0.0
  0
POINT
  5
55A2
330
5496
100
AcDbEntity
  8
Defpoints
 62
     0
100
AcDbPoint
 10
197.2336358920179
 20
343.037653571064
 30
0.0
  0
POINT
  5
55A3
330
5496
100
AcDbEntity
  8
Defpoints
 62
     0
100
AcDbPoint
 10
167.9836358920179
 20
343.037653571064
 30
0.0
  0
ENDBLK
  5
54A3
330
5496
100
AcDbEntity
  8
0
100
AcDbBlockEnd
  0
BLOCK
  5
5613
330
560E
100
AcDbEntity
  8
0
100
AcDbBlockBegin
  2
*S21
 70
     1
 10
0.0
 20
0.0
 30
0.0
  3
*S21
  1

  0
LINE
  5
560F
330
560E
100
AcDbEntity
  8
AM_5
 62
     5
100
AcDbLine
 10
258.2641417906067
 20
482.2618081048837
 30
0.0
 11
242.9443689157807
 21
482.2618081048837
 31
0.0
  0
LINE
  5
5610
330
560E
100
AcDbEntity
  8
AM_5
 62
     5
100
AcDbLine
 10
242.9443689157807
 20
482.2618081048837
 30
0.0
 11
238.0318869191845
 21
473.9659129089348
 31
0.0
  0
TRACE
  5
5611
330
560E
100
AcDbEntity
  8
AM_5
 62
     5
370
    35
100
AcDbTrace
 10
237.6354030457424
 20
474.2006940680767
 30
0.0
 11
238.4283707926265
 21
473.7311317497929
 31
0.0
 12
236.2485469560852
 22
470.9543188831715
 32
0.0
 13
236.2485469560852
 23
470.9543188831715
 33
0.0
  0
MTEXT
  5
5612
330
560E
100
AcDbEntity
  8
AM_5
 62
     5
100
AcDbMText
 10
258.2641417906067
 20
487.3232618396065
 30
0.0
 40
3.5
 41
0.0
 71
     7
 72
     5
  1

  7
ACISOTS
 73
     1
 44
1.0
1001
ACAD
1000
MTEXTBEGIN
1070
    73
1070
     1
1070
    44
1040
1.0
1070
    74
1070
     0
1000
MTEXTEND
  0
ENDBLK
  5
5614
330
560E
100
AcDbEntity
  8
0
100
AcDbBlockEnd
  0
BLOCK
  5
561B
330
5616
100
AcDbEntity
  8
0
100
AcDbBlockBegin
  2
*S22
 70
     1
 10
0.0
 20
0.0
 30
0.0
  3
*S22
  1

  0
LINE
  5
5617
330
5616
100
AcDbEntity
  8
AM_5
 62
     5
100
AcDbLine
 10
249.6654077993593
 20
379.5523913703006
 30
0.0
 11
234.245407420509
 21
379.5523913703006
 31
0.0
  0
LINE
  5
5618
330
5616
100
AcDbEntity
  8
AM_5
 62
     5
100
AcDbLine
 10
234.245407420509
 20
379.5523913703006
 30
0.0
 11
228.2317831378243
 21
391.196408160038
 31
0.0
  0
TRACE
  5
5619
330
5616
100
AcDbEntity
  8
AM_5
 62
     5
370
    35
100
AcDbTrace
 10
228.6411904884673
 20
391.4078491111972
 30
0.0
 11
227.8223757871814
 21
390.9849672088787
 31
0.0
 12
226.6257296562924
 22
394.306165741339
 32
0.0
 13
226.6257296562924
 23
394.306165741339
 33
0.0
  0
MTEXT
  5
561A
330
5616
100
AcDbEntity
  8
AM_5
 62
     5
100
AcDbMText
 10
249.6654077993593
 20
384.6138451050234
 30
0.0
 40
3.5
 41
0.0
 71
     7
 72
     5
  1

  7
ACISOTS
 73
     1
 44
1.0
1001
ACAD
1000
MTEXTBEGIN
1070
    73
1070
     1
1070
    44
1040
1.0
1070
    74
1070
     0
1000
MTEXTEND
  0
ENDBLK
  5
561C
330
5616
100
AcDbEntity
  8
0
100
AcDbBlockEnd
  0
BLOCK
  5
5623
330
561E
100
AcDbEntity
  8
0
100
AcDbBlockBegin
  2
*S23
 70
     1
 10
0.0
 20
0.0
 30
0.0
  3
*S23
  1

  0
LINE
  5
561F
330
561E
100
AcDbEntity
  8
AM_5
 62
     5
100
AcDbLine
 10
264.5148700801166
 20
358.7369426304416
 30
0.0
 11
245.747704752068
 21
358.7369426304416
 31
0.0
  0
LINE
  5
5620
330
561E
100
AcDbEntity
  8
AM_5
 62
     5
100
AcDbLine
 10
245.747704752068
 20
358.7369426304416
 30
0.0
 11
238.7287994473061
 21
350.0534326899465
 31
0.0
  0
TRACE
  5
5621
330
561E
100
AcDbEntity
  8
AM_5
 62
     5
370
    35
100
AcDbTrace
 10
238.3704437622052
 20
350.3430925897315
 30
0.0
 11
239.087155132407
 21
349.7637727901615
 31
0.0
 12
236.5286140624057
 22
347.3314510088783
 32
0.0
 13
236.5286140624057
 23
347.3314510088783
 33
0.0
  0
MTEXT
  5
5622
330
561E
100
AcDbEntity
  8
AM_5
 62
     5
100
AcDbMText
 10
264.5148700801166
 20
363.7983963651645
 30
0.0
 40
3.5
 41
0.0
 71
     7
 72
     5
  1

  7
ACISOTS
 73
     1
 44
1.0
1001
ACAD
1000
MTEXTBEGIN
1070
    73
1070
     1
1070
    44
1040
1.0
1070
    74
1070
     0
1000
MTEXTEND
  0
ENDBLK
  5
5624
330
561E
100
AcDbEntity
  8
0
100
AcDbBlockEnd
  0
BLOCK
  5
562B
330
5626
100
AcDbEntity
  8
0
100
AcDbBlockBegin
  2
*S24
 70
     1
 10
0.0
 20
0.0
 30
0.0
  3
*S24
  1

  0
LINE
  5
5627
330
5626
100
AcDbEntity
  8
AM_5
 62
     5
100
AcDbLine
 10
256.7687105516224
 20
443.9840774589251
 30
0.0
 11
238.7443645775558
 21
443.9840774589251
 31
0.0
  0
LINE
  5
5628
330
5626
100
AcDbEntity
  8
AM_5
 62
     5
100
AcDbLine
 10
238.7443645775558
 20
443.9840774589251
 30
0.0
 11
231.6845483276233
 21
457.9406260119101
 31
0.0
  0
TRACE
  5
5629
330
5626
100
AcDbEntity
  8
AM_5
 62
     5
370
    35
100
AcDbTrace
 10
232.0957204334243
 20
458.1486143625423
 30
0.0
 11
231.2733762218222
 21
457.7326376612779
 31
0.0
 12
230.1047199508611
 22
461.0637882395212
 32
0.0
 13
230.1047199508611
 23
461.0637882395212
 33
0.0
  0
MTEXT
  5
562A
330
5626
100
AcDbEntity
  8
AM_5
 62
     5
100
AcDbMText
 10
256.7687105516224
 20
449.045531193648
 30
0.0
 40
3.5
 41
0.0
 71
     7
 72
     5
  1

  7
ACISOTS
 73
     1
 44
1.0
1001
ACAD
1000
MTEXTBEGIN
1070
    73
1070
     1
1070
    44
1040
1.0
1070
    74
1070
     0
1000
MTEXTEND
  0
ENDBLK
  5
562C
330
5626
100
AcDbEntity
  8
0
100
AcDbBlockEnd
  0
BLOCK
  5
5633
330
562E
100
AcDbEntity
  8
0
100
AcDbBlockBegin
  2
*S25
 70
     1
 10
0.0
 20
0.0
 30
0.0
  3
*S25
  1

  0
LINE
  5
562F
330
562E
100
AcDbEntity
  8
AM_5
 62
     5
100
AcDbLine
 10
267.6119057761736
 20
422.9935729260223
 30
0.0
 11
286.4411400570882
 21
422.9935729260223
 31
0.0
  0
LINE
  5
5630
330
562E
100
AcDbEntity
  8
AM_5
 62
     5
100
AcDbLine
 10
286.4411400570882
 20
422.9935729260223
 30
0.0
 11
293.6331168980314
 21
410.7853491005973
 31
0.0
  0
TRACE
  5
5631
330
562E
100
AcDbEntity
  8
AM_5
 62
     5
370
    35
100
AcDbTrace
 10
293.2361033334398
 20
410.5514647614081
 30
0.0
 11
294.0301304626229
 21
411.0192334397864
 31
0.0
 12
295.4096448372556
 22
407.7697316710887
 32
0.0
 13
295.4096448372556
 23
407.7697316710887
 33
0.0
  0
MTEXT
  5
5632
330
562E
100
AcDbEntity
  8
AM_5
 62
     5
100
AcDbMText
 10
267.6119057761736
 20
428.0550266607451
 30
0.0
 40
3.5
 41
0.0
 71
     7
 72
     5
  1

  7
ACISOTS
210
0.0
220
0.0
230
-1.0
 11
-1.0
 21
0.0
 31
0.0
 73
     1
 44
1.0
1001
ACAD
1000
MTEXTBEGIN
1070
    73
1070
     1
1070
    44
1040
1.0
1070
    74
1070
     0
1000
MTEXTEND
  0
ENDBLK
  5
5634
330
562E
100
AcDbEntity
  8
0
100
AcDbBlockEnd
  0
ENDSEC
  0
SECTION
  2
ENTITIES
  0
LWPOLYLINE
  5
4BF4
330
1F
100
AcDbEntity
  8
LOGO
 62
     4
100
AcDbPolyline
 90
        4
 70
     1
 43
0.0
 10
133.6613370027894
 20
292.1380370021814
 10
333.6613370027894
 20
292.1380370021814
 10
333.6613370027894
 20
514.5017398418369
 10
133.6613370027894
 20
514.5017398418369
1001
GENIUS_GENREC_14
1002
{
1000
PYDIR
1011
133.6613370027894
1021
514.5017398418369
1031
0.0
1002
}
1002
{
1000
PXDIR
1011
333.6613370027894
1021
292.1380370021814
1031
0.0
1002
}
1002
{
1000
PORI
1011
133.6613370027894
1021
292.1380370021814
1031
0.0
1002
}
1002
{
1000
PINS
1011
133.6613370027894
1021
292.1380370021814
1031
0.0
1002
}
1002
{
1000
PINS2
1011
333.6613370027894
1021
514.5017398418369
1031
0.0
1002
}
1002
{
1000
C
1070
     1
1002
}
1001
GENIUS_GENODEF_13
1002
{
1000
HIER
1070
     0
1002
}
1002
{
1000
MANEDIT
1070
     0
1002
}
1002
{
1000
NOSEL
1070
     0
1002
}
1002
{
1000
BEHIND
1070
     0
1002
}
1002
{
1000
OTHER
1070
     0
1002
}
1002
{
1000
REACTOR
1002
}
1001
GENIUS_GENOBJ-N-REC_13
1002
{
1000
OWNER
1000
GEN
1002
}
  0
LWPOLYLINE
  5
4BF5
330
1F
100
AcDbEntity
  8
LOGO
 62
     4
100
AcDbPolyline
 90
        4
 70
     1
 43
0.0
 10
133.6613370027894
 20
292.1380370021814
 10
333.6613370027894
 20
292.1380370021814
 10
333.6613370027894
 20
272.1409329297828
 10
133.6613370027894
 20
272.1409329297828
1001
GENIUS_GENREC_14
1002
{
1000
PYDIR
1011
133.6613370027894
1021
272.1409329297828
1031
0.0
1002
}
1002
{
1000
PXDIR
1011
333.6613370027894
1021
292.1380370021814
1031
0.0
1002
}
1002
{
1000
PORI
1011
133.6613370027894
1021
292.1380370021814
1031
0.0
1002
}
1002
{
1000
PINS
1011
133.6613370027894
1021
292.1380370021814
1031
0.0
1002
}
1002
{
1000
PINS2
1011
333.6613370027894
1021
272.1409329297828
1031
0.0
1002
}
1002
{
1000
C
1070
     1
1002
}
1001
GENIUS_GENOBJ-N-REC_13
1002
{
1000
OWNER
1000
GEN
1002
}
1001
GENIUS_GENODEF_13
1002
{
1000
HIER
1070
     0
1002
}
1002
{
1000
MANEDIT
1070
     0
1002
}
1002
{
1000
NOSEL
1070
     0
1002
}
1002
{
1000
BEHIND
1070
     0
1002
}
1002
{
1000
OTHER
1070
     0
1002
}
1002
{
1000
REACTOR
1002
}
  0
TEXT
  5
4BF6
330
1F
100
AcDbEntity
  8
LOGO
 62
     7
100
AcDbText
 10
178.8134739014967
 20
283.3776459878663
 30
0.0
 40
2.666280542986425
  1
Order example:
 41
0.8
  7
CHINESET
100
AcDbText
  0
TEXT
  5
4BF7
330
1F
100
AcDbEntity
  8
LOGO
 62
     7
100
AcDbText
 10
179.2918266801516
 20
287.1312169319606
 30
0.0
 40
3.999420814479637
  1
訂購代號：
  7
CHINESET
100
AcDbText
  0
LINE
  5
4BF8
330
1F
100
AcDbEntity
  8
LOGO
 62
     4
100
AcDbLine
 10
177.6549659620655
 20
272.1409329297831
 30
0.0
 11
177.6549659620655
 21
292.1380370021814
 31
0.0
  0
TEXT
  5
4BF9
330
1F
100
AcDbEntity
  8
LOGO
  6
Continuous
100
AcDbText
 10
140.8443866743168
 20
276.0693338465444
 30
0.0
 40
2.999565610859728
  1
金器工業股份有限公司
  7
CHINESET
100
AcDbText
  0
TEXT
  5
4BFA
330
1F
100
AcDbEntity
  8
LOGO
  6
Continuous
100
AcDbText
 10
135.3347780819585
 20
273.069180556
 30
0.0
 40
1.999710407239818
  1
MINDMAN INDUSTRIAL CO., LTD.
 41
0.85
  7
CHINESET
100
AcDbText
  0
LINE
  5
4BFB
330
1F
100
AcDbEntity
  8
LOGO
 62
     4
100
AcDbLine
 10
177.6549659620655
 20
288.1386161877017
 30
0.0
 11
148.3258799892146
 21
288.1386161877017
 31
0.0
  0
LINE
  5
4BFC
330
1F
100
AcDbEntity
  8
LOGO
 62
     4
100
AcDbLine
 10
177.6549659620655
 20
284.139195373222
 30
0.0
 11
148.3258799892146
 21
284.139195373222
 31
0.0
  0
LINE
  5
4BFD
330
1F
100
AcDbEntity
  8
LOGO
 62
     4
100
AcDbLine
 10
177.6549659620655
 20
280.1397745587426
 30
0.0
 11
133.6613370027894
 21
280.1397745587426
 31
0.0
  0
LINE
  5
4BFE
330
1F
100
AcDbEntity
  8
LOGO
 62
     4
100
AcDbLine
 10
148.3258799892146
 20
280.1397745587426
 30
0.0
 11
148.3258799892146
 21
292.1380370021814
 31
0.0
  0
TEXT
  5
4BFF
330
1F
100
AcDbEntity
  8
LOGO
100
AcDbText
 10
168.3709259398859
 20
281.1396297623622
 30
0.0
 40
1.999710407239818
  1
mm
  7
CHINESET
 72
     1
 11
170.846757872659
 21
282.1394849659821
 31
0.0
100
AcDbText
 73
     2
  0
TEXT
  5
4C00
330
1F
100
AcDbEntity
  8
LOGO
100
AcDbText
 10
167.3234585837127
 20
289.1384713913215
 30
0.0
 40
1.999710407239818
  1
1 : 1
  7
CHINESET
 72
     1
 11
170.846757872659
 21
290.1383265949414
 31
0.0
100
AcDbText
 73
     2
  0
LINE
  5
4C01
330
1F
100
AcDbEntity
  8
LOGO
 62
     4
100
AcDbLine
 10
164.3235632471333
 20
280.1397745587426
 30
0.0
 11
164.3235632471333
 21
292.1380370021814
 31
0.0
  0
CIRCLE
  5
4C02
330
1F
100
AcDbEntity
  8
LOGO
  6
Continuous
100
AcDbCircle
 10
168.0262771859616
 20
286.1431831756565
 30
0.0
 40
1.161078930320631
  0
CIRCLE
  5
4C03
330
1F
100
AcDbEntity
  8
LOGO
  6
Continuous
100
AcDbCircle
 10
168.0262771859616
 20
286.1431831756565
 30
0.0
 40
0.6802894686655972
  0
LINE
  5
4C04
330
1F
100
AcDbEntity
  8
LOGO
100
AcDbLine
 10
175.3226319099981
 20
284.9821042453357
 30
0.0
 11
175.3226319099981
 21
287.3042621059774
 31
0.0
  0
LINE
  5
4C05
330
1F
100
AcDbEntity
  8
LOGO
100
AcDbLine
 10
171.6827161125538
 20
285.4628937069911
 30
0.0
 11
171.6827161125538
 21
286.8234726443223
 31
0.0
  0
LINE
  5
4C06
330
1F
100
AcDbEntity
  8
LOGO
  6
Continuous
100
AcDbLine
 10
171.6827161125538
 20
286.8234726443223
 30
0.0
 11
175.3226319099981
 21
287.3042621059774
 31
0.0
  0
LINE
  5
4C07
330
1F
100
AcDbEntity
  8
LOGO
  6
Continuous
100
AcDbLine
 10
171.6827161125538
 20
285.4628937069911
 30
0.0
 11
175.3226319099981
 21
284.9821042453357
 31
0.0
  0
TEXT
  5
4C08
330
1F
100
AcDbEntity
  8
LOGO
100
AcDbText
 10
149.9747483473271
 20
289.1394555007739
 30
131.0577257600498
 40
1.999710407239818
  1
比例 Scale:
 41
0.9
  7
CHINESET
 72
     4
 11
156.3247216181739
 21
290.1383265949414
 31
131.0577257600498
100
AcDbText
  0
TEXT
  5
4C09
330
1F
100
AcDbEntity
  8
LOGO
100
AcDbText
 10
149.8595864533388
 20
285.1671797053557
 30
131.0577257600498
 40
1.999710407239818
  1
投影  View:
 41
0.9
  7
CHINESET
 72
     4
 11
156.3247216181739
 21
286.1389057804617
 31
131.0577257600498
100
AcDbText
  0
TEXT
  5
4C0A
330
1F
100
AcDbEntity
  8
LOGO
100
AcDbText
 10
150.0550938547609
 20
281.1396297623622
 30
131.0577257600498
 40
1.999710407239818
  1
單位  Unit:
 41
0.9
  7
CHINESET
 72
     4
 11
156.3247216181739
 21
282.1394849659821
 31
131.0577257600498
100
AcDbText
  0
SOLID
  5
4C0B
330
1F
100
AcDbEntity
  8
LOGO
 62
     5
100
AcDbTrace
 10
135.7360686432116
 20
283.464008474416
 30
0.0
 11
136.600690950901
 21
283.4640084744158
 31
0.0
 12
140.2082529933291
 22
291.6630131162985
 32
0.0
 13
141.0728753010189
 23
291.6630131162981
 33
0.0
  0
SOLID
  5
4C0C
330
1F
100
AcDbEntity
  8
LOGO
 62
     5
100
AcDbTrace
 10
136.9584656989113
 20
283.464008474416
 30
0.0
 11
137.8230880066007
 21
283.464008474416
 31
0.0
 12
141.0728753010189
 22
291.0070927449476
 32
0.0
 13
140.2082529933291
 23
287.8368109500864
 33
0.0
  0
SOLID
  5
4C0D
330
1F
100
AcDbEntity
  8
LOGO
 62
     2
100
AcDbTrace
 10
136.600690950901
 20
283.4640084744158
 30
0.0
 11
136.9584656989113
 21
283.464008474416
 31
0.0
 12
141.0728753010189
 22
291.6630131162981
 32
0.0
 13
141.4306500490288
 23
291.6630131162981
 33
0.0
  0
SOLID
  5
4C0E
330
1F
100
AcDbEntity
  8
LOGO
 62
     5
100
AcDbTrace
 10
134.3498670526232
 20
280.4825522410045
 30
0.0
 11
134.6480126759647
 21
280.4825522410045
 31
0.0
 12
135.4876139570942
 22
281.9732803577101
 32
0.0
 13
135.7857595804348
 23
281.9732803577101
 33
0.0
  0
SOLID
  5
4C0F
330
1F
100
AcDbEntity
  8
LOGO
 62
     5
100
AcDbTrace
 10
135.4876139570942
 20
281.9732803577101
 30
0.0
 11
135.7857595804348
 21
281.9732803577101
 31
0.0
 12
135.4876139570942
 22
280.4825522410045
 32
0.0
 13
135.7857595804348
 23
280.4825522410045
 33
0.0
  0
SOLID
  5
4C10
330
1F
100
AcDbEntity
  8
LOGO
 62
     5
100
AcDbTrace
 10
135.4876139570942
 20
280.4825522410045
 30
0.0
 11
135.7857595804348
 21
280.4825522410045
 31
0.0
 12
136.6253608615657
 22
281.9732803577101
 32
0.0
 13
136.9235064849067
 23
281.9732803577101
 33
0.0
  0
SOLID
  5
4C11
330
1F
100
AcDbEntity
  8
LOGO
 62
     5
100
AcDbTrace
 10
136.6253608615657
 20
281.9732803577101
 30
0.0
 11
136.9235064849067
 21
281.9732803577101
 31
0.0
 12
136.6253608615657
 22
280.4825522410045
 32
0.0
 13
136.9235064849067
 23
280.4825522410045
 33
0.0
  0
POLYLINE
  5
4C12
330
1F
100
AcDbEntity
  8
LOGO
 62
     5
100
AcDb2dPolyline
 66
     1
 10
0.0
 20
0.0
 30
0.0
 40
0.2986234208144796
 41
0.2986234208144796
  0
VERTEX
  5
4C13
330
4C12
100
AcDbEntity
  8
LOGO
 62
     5
100
AcDbVertex
100
AcDb2dVertex
 10
146.6191005913751
 20
281.3769891110278
 30
0.0
 42
1.0
  0
VERTEX
  5
4C14
330
4C12
100
AcDbEntity
  8
LOGO
 62
     5
100
AcDbVertex
100
AcDb2dVertex
 10
145.7232303289315
 20
281.3769891110278
 30
0.0
 42
1.0
  0
SEQEND
  5
4C15
330
4C12
100
AcDbEntity
  8
LOGO
 62
     5
  0
POLYLINE
  5
4C16
330
1F
100
AcDbEntity
  8
LOGO
 62
     5
100
AcDb2dPolyline
 66
     1
 10
0.0
 20
0.0
 30
0.0
 70
     1
  0
VERTEX
  5
4C17
330
4C16
100
AcDbEntity
  8
LOGO
 62
     5
100
AcDbVertex
100
AcDb2dVertex
 10
144.0344750359159
 20
281.227916299357
 30
0.0
 42
1.000000057330635
  0
VERTEX
  5
4C18
330
4C16
100
AcDbEntity
  8
LOGO
 62
     5
100
AcDbVertex
100
AcDb2dVertex
 10
144.9289119059394
 20
281.227916299357
 30
0.0
 42
1.000000057330635
  0
SEQEND
  5
4C19
330
4C16
100
AcDbEntity
  8
LOGO
 62
     5
  0
CIRCLE
  5
4C1A
330
1F
100
AcDbEntity
  8
LOGO
 62
     5
100
AcDbCircle
 10
144.4816934709283
 20
281.227916299357
 30
0.0
 40
0.4472184350117648
  0
POLYLINE
  5
4C1B
330
1F
100
AcDbEntity
  8
LOGO
 62
     5
100
AcDb2dPolyline
 66
     1
 10
0.0
 20
0.0
 30
0.0
 70
     1
 40
0.2986234208144796
 41
0.2986234208144796
  0
VERTEX
  5
4C1C
330
4C1B
100
AcDbEntity
  8
LOGO
 62
     5
100
AcDbVertex
100
AcDb2dVertex
 10
143.8844466292989
 20
281.227916299357
 30
0.0
 42
1.0
  0
VERTEX
  5
4C1D
330
4C1B
100
AcDbEntity
  8
LOGO
 62
     5
100
AcDbVertex
100
AcDb2dVertex
 10
145.0789403125568
 20
281.227916299357
 30
0.0
 42
1.0
  0
SEQEND
  5
4C1E
330
4C1B
100
AcDbEntity
  8
LOGO
 62
     5
  0
LINE
  5
4C1F
330
1F
100
AcDbEntity
  8
LOGO
100
AcDbLine
 10
146.7674567068352
 20
280.4825522410045
 30
0.0
 11
146.7674567068352
 21
281.3769891110278
 31
0.0
  0
SOLID
  5
4C20
330
1F
100
AcDbEntity
  8
LOGO
 62
     5
100
AcDbTrace
 10
144.9288820913784
 20
281.9732803577101
 30
0.0
 11
145.227027714719
 21
281.9732803577101
 31
0.0
 12
144.9288820913784
 22
280.4825522410045
 32
0.0
 13
145.227027714719
 23
280.4825522410045
 33
0.0
  0
SOLID
  5
4C21
330
1F
100
AcDbEntity
  8
LOGO
 62
     5
100
AcDbTrace
 10
145.5748742134706
 20
280.4825522410045
 30
0.0
 11
145.8730198368121
 21
280.4825522410045
 31
0.0
 12
145.5748742134706
 22
281.9732803577101
 32
0.0
 13
145.8730198368121
 23
281.9732803577101
 33
0.0
  0
SOLID
  5
4C22
330
1F
100
AcDbEntity
  8
LOGO
 62
     5
100
AcDbTrace
 10
146.4693110834946
 20
281.3769891110278
 30
0.0
 11
146.7674567068352
 21
281.3769891110278
 31
0.0
 12
146.4693110834946
 22
280.4825522410045
 32
0.0
 13
146.7674567068352
 23
280.4825522410045
 33
0.0
  0
SOLID
  5
4C23
330
1F
100
AcDbEntity
  8
LOGO
 62
     5
100
AcDbTrace
 10
145.5450596511364
 20
291.0070927449476
 30
0.0
 11
144.6804373434474
 21
287.8368109500864
 31
0.0
 12
145.5450596511364
 22
283.4640084744158
 32
0.0
 13
144.6804373434474
 23
283.4640084744158
 33
0.0
  0
SOLID
  5
4C24
330
1F
100
AcDbEntity
  8
LOGO
 62
     5
100
AcDbTrace
 10
145.9028343991463
 20
283.4640084744158
 30
0.0
 11
146.7674567068352
 21
283.4640084744158
 31
0.0
 12
145.9028343991463
 22
291.6630131162981
 32
0.0
 13
146.7674567068352
 23
291.6630131162985
 33
0.0
  0
SOLID
  5
4C25
330
1F
100
AcDbEntity
  8
LOGO
 62
     2
100
AcDbTrace
 10
145.5450596511364
 20
291.6630131162985
 30
0.0
 11
145.9028343991463
 21
291.6630131162981
 31
0.0
 12
145.5450596511364
 22
283.4640084744158
 32
0.0
 13
145.9028343991463
 23
283.4640084744158
 33
0.0
  0
POLYLINE
  5
4C26
330
1F
100
AcDbEntity
  8
LOGO
 62
     5
100
AcDb2dPolyline
 66
     1
 10
0.0
 20
0.0
 30
0.0
 40
0.2986234208144796
 41
0.2986234208144796
  0
VERTEX
  5
4C27
330
4C26
100
AcDbEntity
  8
LOGO
 62
     5
100
AcDbVertex
100
AcDb2dVertex
 10
142.3456601137768
 20
281.3769891110278
 30
0.0
 42
1.0
  0
VERTEX
  5
4C28
330
4C26
100
AcDbEntity
  8
LOGO
 62
     5
100
AcDbVertex
100
AcDb2dVertex
 10
141.4497898513332
 20
281.3769891110278
 30
0.0
 42
1.0
  0
SEQEND
  5
4C29
330
4C26
100
AcDbEntity
  8
LOGO
 62
     5
  0
POLYLINE
  5
4C2A
330
1F
100
AcDbEntity
  8
LOGO
 62
     5
100
AcDb2dPolyline
 66
     1
 10
0.0
 20
0.0
 30
0.0
 40
0.2986234208144796
 41
0.2986234208144796
  0
VERTEX
  5
4C2B
330
4C2A
100
AcDbEntity
  8
LOGO
 62
     5
100
AcDbVertex
100
AcDb2dVertex
 10
143.2400969837995
 20
281.3769891110278
 30
0.0
 42
1.0
  0
VERTEX
  5
4C2C
330
4C2A
100
AcDbEntity
  8
LOGO
 62
     5
100
AcDbVertex
100
AcDb2dVertex
 10
142.3442267213563
 20
281.3769891110278
 30
0.0
 42
1.0
  0
SEQEND
  5
4C2D
330
4C2A
100
AcDbEntity
  8
LOGO
 62
     5
  0
POLYLINE
  5
4C2E
330
1F
100
AcDbEntity
  8
LOGO
 62
     5
100
AcDb2dPolyline
 66
     1
 10
0.0
 20
0.0
 30
0.0
 40
0.2986234208144796
 41
0.2986234208144796
  0
VERTEX
  5
4C2F
330
4C2E
100
AcDbEntity
  8
LOGO
 62
     5
100
AcDbVertex
100
AcDb2dVertex
 10
138.9666565062011
 20
281.3769891110278
 30
0.0
 42
1.0
  0
VERTEX
  5
4C30
330
4C2E
100
AcDbEntity
  8
LOGO
 62
     5
100
AcDbVertex
100
AcDb2dVertex
 10
138.070786243758
 20
281.3769891110278
 30
0.0
 42
1.0
  0
SEQEND
  5
4C31
330
4C2E
100
AcDbEntity
  8
LOGO
 62
     5
  0
SOLID
  5
4C32
330
1F
100
AcDbEntity
  8
LOGO
 62
     5
100
AcDbTrace
 10
137.9224301282975
 20
281.9732803577101
 30
0.0
 11
138.2205757516381
 21
281.9732803577101
 31
0.0
 12
137.9224301282975
 22
280.4825522410045
 32
0.0
 13
138.2205757516381
 23
280.4825522410045
 33
0.0
  0
SOLID
  5
4C33
330
1F
100
AcDbEntity
  8
LOGO
 62
     5
100
AcDbTrace
 10
138.816866998321
 20
281.3769891110278
 30
0.0
 11
139.1150126216625
 21
281.3769891110278
 31
0.0
 12
138.816866998321
 22
280.4825522410045
 32
0.0
 13
139.1150126216625
 23
280.4825522410045
 33
0.0
  0
POLYLINE
  5
4C34
330
1F
100
AcDbEntity
  8
LOGO
 62
     5
100
AcDb2dPolyline
 66
     1
 10
0.0
 20
0.0
 30
0.0
 70
     1
 40
0.2986234208144796
 41
0.2986234208144796
  0
VERTEX
  5
4C35
330
4C34
100
AcDbEntity
  8
LOGO
 62
     5
100
AcDbVertex
100
AcDb2dVertex
 10
139.6110061517001
 20
281.227916299357
 30
0.0
 42
1.0
  0
VERTEX
  5
4C36
330
4C34
100
AcDbEntity
  8
LOGO
 62
     5
100
AcDbVertex
100
AcDb2dVertex
 10
140.8054998349585
 20
281.227916299357
 30
0.0
 42
1.0
  0
SEQEND
  5
4C37
330
4C34
100
AcDbEntity
  8
LOGO
 62
     5
  0
SOLID
  5
4C38
330
1F
100
AcDbEntity
  8
LOGO
 62
     5
100
AcDbTrace
 10
140.6554416137792
 20
282.4204987927221
 30
0.0
 11
140.9535872371202
 21
282.4204987927221
 31
0.0
 12
140.6554416137792
 22
280.4825522410045
 32
0.0
 13
140.9535872371202
 23
280.4825522410045
 33
0.0
  0
SOLID
  5
4C39
330
1F
100
AcDbEntity
  8
LOGO
 62
     5
100
AcDbTrace
 10
141.3014337358731
 20
281.9732803577101
 30
0.0
 11
141.5995793592137
 21
281.9732803577101
 31
0.0
 12
141.3014337358731
 22
280.4825522410045
 32
0.0
 13
141.5995793592137
 23
280.4825522410045
 33
0.0
  0
SOLID
  5
4C3A
330
1F
100
AcDbEntity
  8
LOGO
 62
     5
100
AcDbTrace
 10
142.1958706058958
 20
281.3769891110278
 30
0.0
 11
142.4940162292373
 21
281.3769891110278
 31
0.0
 12
142.1958706058958
 22
280.4825522410045
 32
0.0
 13
142.4940162292373
 23
280.4825522410045
 33
0.0
  0
SOLID
  5
4C3B
330
1F
100
AcDbEntity
  8
LOGO
 62
     5
100
AcDbTrace
 10
143.0903074759194
 20
281.3769891110278
 30
0.0
 11
143.3884530992604
 21
281.3769891110278
 31
0.0
 12
143.0903074759194
 22
280.482552241004
 32
0.0
 13
143.3884530992604
 23
280.482552241004
 33
0.0
  0
SOLID
  5
4C3C
330
1F
100
AcDbEntity
  8
LOGO
 62
     5
100
AcDbTrace
 10
137.276438006204
 20
282.181982294049
 30
0.0
 11
137.5745836295459
 21
282.181982294049
 31
0.0
 12
137.276438006204
 22
282.4204987927221
 32
0.0
 13
137.5745836295459
 23
282.4204987927221
 33
0.0
  0
SOLID
  5
4C3D
330
1F
100
AcDbEntity
  8
LOGO
 62
     5
100
AcDbTrace
 10
137.276438006204
 20
281.9732803577101
 30
0.0
 11
137.5745836295459
 21
281.9732803577101
 31
0.0
 12
137.276438006204
 22
280.482552241004
 32
0.0
 13
137.5745836295459
 23
280.4825522410045
 33
0.0
  0
SOLID
  5
4C3E
330
1F
100
AcDbEntity
  8
LOGO
 62
     5
100
AcDbTrace
 10
140.2082529933291
 20
283.464008474416
 30
0.0
 11
141.0728753010189
 21
283.464008474416
 31
0.0
 12
140.2082529933291
 22
287.8368109500864
 32
0.0
 13
141.0728753010189
 23
291.0070927449476
 33
0.0
  0
SOLID
  5
4C3F
330
1F
100
AcDbEntity
  8
LOGO
 62
     5
100
AcDbTrace
 10
141.4306500490288
 20
291.6630131162981
 30
0.0
 11
142.2952723567177
 21
291.6630131162985
 31
0.0
 12
141.4306500490288
 22
284.1199288457665
 32
0.0
 13
142.2952723567177
 23
287.2902106406277
 33
0.0
  0
SOLID
  5
4C40
330
1F
100
AcDbEntity
  8
LOGO
 62
     2
100
AcDbTrace
 10
141.0728753010189
 20
291.6630131162981
 30
0.0
 11
141.4306500490288
 21
291.6630131162981
 31
0.0
 12
141.0728753010189
 22
283.464008474416
 32
0.0
 13
141.4306500490288
 23
283.464008474416
 33
0.0
  0
SOLID
  5
4C41
330
1F
100
AcDbEntity
  8
LOGO
 62
     5
100
AcDbTrace
 10
141.4306500490288
 20
284.1199288457665
 30
0.0
 11
142.2952723567177
 21
287.2902106406277
 31
0.0
 12
145.5450596511364
 22
291.6630131162985
 32
0.0
 13
144.6804373434474
 23
291.6630131162985
 33
0.0
  0
SOLID
  5
4C42
330
1F
100
AcDbEntity
  8
LOGO
 62
     5
100
AcDbTrace
 10
141.4306500490288
 20
283.464008474416
 30
0.0
 11
142.2952723567177
 21
283.464008474416
 31
0.0
 12
145.5450596511364
 22
291.0070927449476
 32
0.0
 13
144.6804373434474
 23
287.8368109500864
 33
0.0
  0
SOLID
  5
4C43
330
1F
100
AcDbEntity
  8
LOGO
 62
     2
100
AcDbTrace
 10
141.0728753010189
 20
283.464008474416
 30
0.0
 11
141.4306500490288
 21
283.464008474416
 31
0.0
 12
145.5450596511364
 22
291.6630131162985
 32
0.0
 13
145.9028343991463
 23
291.6630131162981
 33
0.0
  0
LINE
  5
4C44
330
1F
100
AcDbEntity
  8
LOGO
 62
     4
100
AcDbLine
 10
218.4914978120478
 20
281.1396297623626
 30
0.0
 11
218.4914978120478
 21
273.8073582691495
 31
0.0
  0
LINE
  5
4C45
330
1F
100
AcDbEntity
  8
LOGO
 62
     4
100
AcDbLine
 10
205.1600950971156
 20
281.1396297623626
 30
0.0
 11
205.1600950971156
 21
273.8073582691495
 31
0.0
  0
LINE
  5
4C46
330
1F
100
AcDbEntity
  8
LOGO
 62
     4
100
AcDbLine
 10
218.4914978120478
 20
273.8073582691495
 30
0.0
 11
205.1600950971156
 21
273.8073582691495
 31
0.0
  0
LINE
  5
4C47
330
1F
100
AcDbEntity
  8
LOGO
 62
     4
100
AcDbLine
 10
220.8826265685207
 20
290.1383265949414
 30
0.0
 11
205.1600950971156
 21
290.1383265949414
 31
0.0
  0
LINE
  5
4C48
330
1F
100
AcDbEntity
  8
LOGO
 62
     4
100
AcDbLine
 10
220.8826265685207
 20
284.139195373222
 30
0.0
 11
205.1600950971156
 21
284.139195373222
 31
0.0
  0
LINE
  5
4C49
330
1F
100
AcDbEntity
  8
LOGO
 62
     4
100
AcDbLine
 10
205.1600950971156
 20
290.1383265949414
 30
0.0
 11
205.1600950971156
 21
284.139195373222
 31
0.0
  0
LINE
  5
4C4A
330
1F
100
AcDbEntity
  8
LOGO
 62
     4
100
AcDbLine
 10
220.8826265685207
 20
290.1383265949414
 30
0.0
 11
220.8826265685207
 21
284.139195373222
 31
0.0
  0
LINE
  5
4C4B
330
1F
100
AcDbEntity
  8
LOGO
 62
     4
100
AcDbLine
 10
212.5213608328181
 20
284.139195373222
 30
0.0
 11
212.5213608328181
 21
281.1396297623626
 31
0.0
  0
TEXT
  5
4C4C
330
1F
100
AcDbEntity
  8
LOGO
  6
Continuous
 62
     7
100
AcDbText
 10
206.2260467603955
 20
285.391505245027
 30
0.0
 40
3.5
  1
MVAA
  7
CHINESET
100
AcDbText
  0
LINE
  5
4C4D
330
1F
100
AcDbEntity
  8
LOGO
 62
     4
100
AcDbLine
 10
218.4914978120478
 20
281.1396297623626
 30
0.0
 11
205.1600950971156
 21
281.1396297623626
 31
0.0
  0
TEXT
  5
4C4E
330
1F
100
AcDbEntity
  8
LOGO
  6
Continuous
100
AcDbText
 10
209.4381000217586
 20
274.8422928419736
 30
131.0577257600498
 40
1.5
  1
Model
 41
0.8
  7
CHINESET
100
AcDbText
  0
TEXT
  5
4C4F
330
1F
100
AcDbEntity
  8
LOGO
100
AcDbText
 10
209.0388487837595
 20
277.622969568901
 30
131.0577257600498
 40
2.5
  1
型號
  7
CHINESET
100
AcDbText
  0
LINE
  5
4C50
330
1F
100
AcDbEntity
  8
LOGO
  6
Continuous
 62
     7
100
AcDbLine
 10
221.5203837995264
 20
287.1175111132077
 30
0.0
 11
224.1693812484659
 21
287.1175111132077
 31
0.0
  0
LINE
  5
4C5C
330
1F
100
AcDbEntity
  8
LOGO
 62
     4
100
AcDbLine
 10
234.0821833975849
 20
281.1396297623626
 30
0.0
 11
234.0821833975849
 21
273.8073582691495
 31
0.0
  0
LINE
  5
4C5D
330
1F
100
AcDbEntity
  8
LOGO
 62
     4
100
AcDbLine
 10
220.7507806826527
 20
281.1396297623626
 30
0.0
 11
220.7507806826527
 21
273.8073582691495
 31
0.0
  0
LINE
  5
4C5E
330
1F
100
AcDbEntity
  8
LOGO
 62
     4
100
AcDbLine
 10
234.0821833975849
 20
273.8073582691495
 30
0.0
 11
220.7507806826527
 21
273.8073582691495
 31
0.0
  0
LINE
  5
4C5F
330
1F
100
AcDbEntity
  8
LOGO
 62
     4
100
AcDbLine
 10
235.9097828851852
 20
290.1383265949414
 30
0.0
 11
225.6587883019053
 21
290.1383265949414
 31
0.0
  0
LINE
  5
4C60
330
1F
100
AcDbEntity
  8
LOGO
 62
     4
100
AcDbLine
 10
235.9097828851852
 20
284.139195373222
 30
0.0
 11
225.6587883019053
 21
284.139195373222
 31
0.0
  0
LINE
  5
4C61
330
1F
100
AcDbEntity
  8
LOGO
 62
     4
100
AcDbLine
 10
225.6587883019053
 20
290.1383265949414
 30
0.0
 11
225.6587883019053
 21
284.139195373222
 31
0.0
  0
LINE
  5
4C62
330
1F
100
AcDbEntity
  8
LOGO
 62
     4
100
AcDbLine
 10
235.9097828851852
 20
290.1383265949414
 30
0.0
 11
235.9097828851852
 21
284.139195373222
 31
0.0
  0
LINE
  5
4C63
330
1F
100
AcDbEntity
  8
LOGO
 62
     4
100
AcDbLine
 10
230.7842855935453
 20
284.139195373222
 30
0.0
 11
230.7842855935453
 21
281.1396297623626
 31
0.0
  0
TEXT
  5
4C64
330
1F
100
AcDbEntity
  8
LOGO
  6
Continuous
 62
     7
100
AcDbText
 10
226.45725662585
 20
285.391505245027
 30
0.0
 40
3.5
  1
180
  7
CHINESET
100
AcDbText
  0
LINE
  5
4C65
330
1F
100
AcDbEntity
  8
LOGO
 62
     4
100
AcDbLine
 10
234.0821833975849
 20
281.1396297623626
 30
0.0
 11
220.7507806826527
 21
281.1396297623626
 31
0.0
  0
LINE
  5
4C66
330
1F
100
AcDbEntity
  8
LOGO
  6
Continuous
 62
     7
100
AcDbLine
 10
237.1521432295403
 20
287.1175111132077
 30
0.0
 11
239.8011406784803
 21
287.1175111132077
 31
0.0
  0
TEXT
  5
4C73
330
1F
100
AcDbEntity
  8
LOGO
  6
Continuous
100
AcDbText
 10
222.5680235308869
 20
274.8422928419736
 30
131.0577257600498
 40
1.5
  1
Body width
 41
0.8
  7
CHINESET
100
AcDbText
  0
TEXT
  5
4C74
330
1F
100
AcDbEntity
  8
LOGO
100
AcDbText
 10
222.4571619649164
 20
277.622969568901
 30
131.0577257600498
 40
2.5
  1
本體寬幅
  7
CHINESET
100
AcDbText
  0
TEXT
  5
4C83
330
1F
100
AcDbEntity
  8
LOGO
100
AcDbText
 10
178.5815015533031
 20
273.2047709737044
 30
0.0
 40
2.0
  1
10612300
 41
0.7
  7
CHINESET
 72
     1
 11
183.4481682199698
 21
273.2047709737044
 31
0.0
100
AcDbText
  0
LINE
  5
4C84
330
1F
100
AcDbEntity
  8
LOGO
 62
     4
100
AcDbLine
 10
189.6549659620646
 20
276.1403537442632
 30
0.0
 11
189.6549659620655
 21
272.1409329297833
 31
0.0
  0
LINE
  5
4C85
330
1F
100
AcDbEntity
  8
LOGO
 62
     4
100
AcDbLine
 10
189.6549659620646
 20
276.1403537442632
 30
0.0
 11
177.6549659620655
 21
276.1403537442632
 31
0.0
  0
LINE
  5
4C86
330
1F
100
AcDbEntity
  8
LOGO
  6
AM_ISO08W050x2
 48
0.3
100
AcDbLine
 10
166.4257124947266
 20
286.1431831756565
 30
0.0
 11
169.6268418771965
 21
286.1431831756565
 31
0.0
1001
GENIUS_GENOREF_13
1005
4C8B
  0
LINE
  5
4C87
330
1F
100
AcDbEntity
  8
LOGO
  6
AM_ISO08W050x2
 48
0.3
100
AcDbLine
 10
168.0262771859616
 20
284.5426184844216
 30
0.0
 11
168.0262771859616
 21
287.7437478668915
 31
0.0
1001
GENIUS_GENOREF_13
1005
4C8A
  0
LINE
  5
4C88
330
1F
100
AcDbEntity
  8
LOGO
  6
CENTER
 48
0.5
100
AcDbLine
 10
171.3916240197445
 20
286.1431831756565
 30
0.0
 11
175.6891596477858
 21
286.1431831756565
 31
0.0
1001
GENIUS_GENOREF_13
1005
4C89
  0
POINT
  5
4C89
330
1F
100
AcDbEntity
  8
0
 60
     1
100
AcDbPoint
 10
-1938.679822737193
 20
-665.9923693759432
 30
0.0
1001
GENIUS_GENOBJ-N-CRS_13
1002
{
1000
OWNER
1000
GEN
1002
}
1001
GENIUS_GENOLIS_13
1002
{
1000
ENT
1005
0
1005
0
1005
0
1005
4C88
1002
}
1001
GENIUS_GENOENT_13
1002
{
1000
MYREF
1005
4C89
1002
}
1002
{
1000
GRP
1005
0
1002
}
1001
GENIUS_GENODEF_13
1002
{
1000
HIER
1070
    10
1002
}
1002
{
1000
MANEDIT
1070
     1
1002
}
1002
{
1000
NOSEL
1070
     0
1002
}
1002
{
1000
BEHIND
1070
     0
1002
}
1002
{
1000
OTHER
1070
     0
1002
}
1002
{
1000
REACTOR
1002
}
  0
POINT
  5
4C8A
330
1F
100
AcDbEntity
  8
0
 60
     1
100
AcDbPoint
 10
-1950.004407960048
 20
-657.1167828973069
 30
0.0
1001
GENIUS_GENOBJ-N-CRS_13
1002
{
1000
OWNER
1000
GEN
1002
}
1001
GENIUS_GENOLIS_13
1002
{
1000
ENT
1005
0
1005
0
1005
0
1005
4C87
1002
}
1001
GENIUS_GENOENT_13
1002
{
1000
MYREF
1005
4C8A
1002
}
1002
{
1000
GRP
1005
0
1002
}
1001
GENIUS_GENODEF_13
1002
{
1000
HIER
1070
    10
1002
}
1002
{
1000
MANEDIT
1070
     1
1002
}
1002
{
1000
NOSEL
1070
     0
1002
}
1002
{
1000
BEHIND
1070
     0
1002
}
1002
{
1000
OTHER
1070
     0
1002
}
1002
{
1000
REACTOR
1002
}
  0
POINT
  5
4C8B
330
1F
100
AcDbEntity
  8
0
 60
     1
100
AcDbPoint
 10
-1943.645734262211
 20
-665.9923693759432
 30
0.0
1001
GENIUS_GENOBJ-N-CRS_13
1002
{
1000
OWNER
1000
GEN
1002
}
1001
GENIUS_GENOLIS_13
1002
{
1000
ENT
1005
0
1005
0
1005
0
1005
4C86
1002
}
1001
GENIUS_GENOENT_13
1002
{
1000
MYREF
1005
4C8B
1002
}
1002
{
1000
GRP
1005
0
1002
}
1001
GENIUS_GENODEF_13
1002
{
1000
HIER
1070
    10
1002
}
1002
{
1000
MANEDIT
1070
     1
1002
}
1002
{
1000
NOSEL
1070
     0
1002
}
1002
{
1000
BEHIND
1070
     0
1002
}
1002
{
1000
OTHER
1070
     0
1002
}
1002
{
1000
REACTOR
1002
}
  0
LINE
  5
4EA8
330
1F
100
AcDbEntity
  8
LOGO
 62
     4
100
AcDbLine
 10
245.3072971398592
 20
281.1396297623626
 30
0.0
 11
245.3072971398592
 21
273.8073582691495
 31
0.0
  0
LINE
  5
4EA9
330
1F
100
AcDbEntity
  8
LOGO
 62
     4
100
AcDbLine
 10
235.2930848925616
 20
281.1396297623626
 30
0.0
 11
235.2930848925616
 21
273.8073582691495
 31
0.0
  0
LINE
  5
4EAA
330
1F
100
AcDbEntity
  8
LOGO
 62
     4
100
AcDbLine
 10
245.3072971398592
 20
273.8073582691495
 30
0.0
 11
235.2930848925616
 21
273.8073582691495
 31
0.0
  0
LINE
  5
4EAB
330
1F
100
AcDbEntity
  8
LOGO
 62
     4
100
AcDbLine
 10
245.1387420086883
 20
290.1383265949414
 30
0.0
 11
240.8800595655173
 21
290.1383265949414
 31
0.0
  0
LINE
  5
4EAC
330
1F
100
AcDbEntity
  8
LOGO
 62
     4
100
AcDbLine
 10
245.1387420086883
 20
284.139195373222
 30
0.0
 11
240.8800595655173
 21
284.139195373222
 31
0.0
  0
LINE
  5
4EAD
330
1F
100
AcDbEntity
  8
LOGO
 62
     4
100
AcDbLine
 10
240.8800595655173
 20
290.1383265949414
 30
0.0
 11
240.8800595655173
 21
284.139195373222
 31
0.0
  0
LINE
  5
4EAE
330
1F
100
AcDbEntity
  8
LOGO
 62
     4
100
AcDbLine
 10
245.1387420086883
 20
290.1383265949414
 30
0.0
 11
245.1387420086883
 21
284.139195373222
 31
0.0
  0
LINE
  5
4EAF
330
1F
100
AcDbEntity
  8
LOGO
 62
     4
100
AcDbLine
 10
243.0094007871028
 20
284.139195373222
 30
0.0
 11
243.0094007871028
 21
281.1396297623626
 31
0.0
  0
TEXT
  5
4EB0
330
1F
100
AcDbEntity
  8
LOGO
  6
Continuous
 62
     7
100
AcDbText
 10
241.678527889462
 20
285.391505245027
 30
0.0
 40
3.5
  1
4
  7
CHINESET
100
AcDbText
  0
LINE
  5
4EB1
330
1F
100
AcDbEntity
  8
LOGO
 62
     4
100
AcDbLine
 10
245.3072971398592
 20
281.1396297623626
 30
0.0
 11
235.2930848925616
 21
281.1396297623626
 31
0.0
  0
LINE
  5
4EB2
330
1F
100
AcDbEntity
  8
LOGO
 62
     4
100
AcDbLine
 10
266.3959403623485
 20
281.1396297623626
 30
0.0
 11
266.3959403623485
 21
273.8073582691495
 31
0.0
  0
LINE
  5
4EB3
330
1F
100
AcDbEntity
  8
LOGO
 62
     4
100
AcDbLine
 10
247.3382180795029
 20
281.1396297623626
 30
0.0
 11
247.3382180795029
 21
273.8073582691495
 31
0.0
  0
LINE
  5
4EB4
330
1F
100
AcDbEntity
  8
LOGO
 62
     4
100
AcDbLine
 10
266.3959403623485
 20
273.8073582691495
 30
0.0
 11
247.3382180795029
 21
273.8073582691495
 31
0.0
  0
LINE
  5
4EB5
330
1F
100
AcDbEntity
  8
LOGO
 62
     4
100
AcDbLine
 10
253.7567772346583
 20
290.1383265949414
 30
0.0
 11
245.8418647331473
 21
290.1383265949414
 31
0.0
  0
LINE
  5
4EB6
330
1F
100
AcDbEntity
  8
LOGO
 62
     4
100
AcDbLine
 10
253.7567772346583
 20
284.139195373222
 30
0.0
 11
245.8418647331473
 21
284.139195373222
 31
0.0
  0
LINE
  5
4EB7
330
1F
100
AcDbEntity
  8
LOGO
 62
     4
100
AcDbLine
 10
245.8418647331473
 20
290.1383265949414
 30
0.0
 11
245.8418647331473
 21
284.139195373222
 31
0.0
  0
LINE
  5
4EB8
330
1F
100
AcDbEntity
  8
LOGO
 62
     4
100
AcDbLine
 10
253.7567772346583
 20
290.1383265949414
 30
0.0
 11
253.7567772346583
 21
284.139195373222
 31
0.0
  0
LINE
  5
4EB9
330
1F
100
AcDbEntity
  8
LOGO
 62
     4
100
AcDbLine
 10
249.7993209839028
 20
284.139195373222
 30
0.0
 11
249.7993209839028
 21
281.1396297623626
 31
0.0
  0
TEXT
  5
4EBA
330
1F
100
AcDbEntity
  8
LOGO
  6
Continuous
 62
     7
100
AcDbText
 10
247.2578476056824
 20
285.391505245027
 30
0.0
 40
3.5
  1
A2
  7
CHINESET
100
AcDbText
  0
LINE
  5
4EBB
330
1F
100
AcDbEntity
  8
LOGO
 62
     4
100
AcDbLine
 10
266.3959403623485
 20
281.1396297623626
 30
0.0
 11
247.3382180795029
 21
281.1396297623626
 31
0.0
  0
TEXT
  5
4EBC
330
1F
100
AcDbEntity
  8
LOGO
  6
Continuous
100
AcDbText
 10
238.0854688924205
 20
274.8422928419736
 30
131.0577257600498
 40
1.5
  1
4 Way
 41
0.8
  7
CHINESET
100
AcDbText
  0
TEXT
  5
4EBD
330
1F
100
AcDbEntity
  8
LOGO
100
AcDbText
 10
236.6224256925448
 20
277.622969568901
 30
131.0577257600498
 40
2.5
  1
4方向
  7
CHINESET
100
AcDbText
  0
TEXT
  5
4EBE
330
1F
100
AcDbEntity
  8
LOGO
100
AcDbText
 10
249.6865819918805
 20
277.622969568901
 30
131.0577257600498
 40
2.5
  1
複動氣壓導引
  7
CHINESET
100
AcDbText
  0
TEXT
  5
4ECA
330
1F
100
AcDbEntity
  8
LOGO
  6
Continuous
100
AcDbText
 10
248.7214586075793
 20
274.8422928419736
 30
131.0577257600498
 40
1.5
  1
Double air operate
 41
0.8
  7
CHINESET
100
AcDbText
  0
LINE
  5
51C8
330
1F
100
AcDbEntity
  8
AM_VIS
100
AcDbLine
 10
256.4070874815507
 20
352.4656108920175
 30
0.0
 11
255.583635892018
 21
352.537653571064
 31
0.0
  0
LINE
  5
51C9
330
1F
100
AcDbEntity
  8
AM_VIS
100
AcDbLine
 10
256.4070874815507
 20
347.6096962501105
 30
0.0
 11
255.583635892018
 21
347.537653571064
 31
0.0
  0
LINE
  5
51CA
330
1F
100
AcDbEntity
  8
AM_VIS
100
AcDbLine
 10
257.4489380047309
 20
351.387653571064
 30
0.0
 11
257.4362777982653
 21
351.3777571952203
 31
0.0
  0
ARC
  5
51CB
330
1F
100
AcDbEntity
  8
AM_VIS
100
AcDbCircle
 10
253.683635892018
 20
350.037653571064
 30
0.0
 40
3.984745788629432
100
AcDbArc
 50
340.347877084135
 51
348.9838463654476
  0
LINE
  5
51CC
330
1F
100
AcDbEntity
  8
AM_VIS
100
AcDbLine
 10
257.4362777982653
 20
348.6975499469076
 30
0.0
 11
257.4489380047309
 21
348.6876535710639
 31
0.0
  0
LINE
  5
51CD
330
1F
100
AcDbEntity
  8
AM_VIS
100
AcDbLine
 10
257.4362777982651
 20
349.6886535710619
 30
0.0
 11
257.5949561601628
 21
349.6886535710619
 31
0.0
  0
LINE
  5
51CE
330
1F
100
AcDbEntity
  8
AM_VIS
100
AcDbLine
 10
257.5949561601628
 20
350.386653571062
 30
0.0
 11
257.4362777982654
 21
350.386653571062
 31
0.0
  0
ELLIPSE
  5
51CF
330
1F
100
AcDbEntity
  8
AM_VIS
100
AcDbEllipse
 10
254.4567212810217
 20
350.037653571064
 30
0.0
 11
0.0
 21
-3.797925352448569
 31
0.0
210
0.0
220
0.0
230
1.0
 40
0.7878555911532165
 41
1.478774232153783
 42
1.662818421434965
  0
ARC
  5
51D0
330
1F
100
AcDbEntity
  8
AM_VIS
100
AcDbCircle
 10
253.683635892018
 20
350.037653571064
 30
0.0
 40
3.984745788629432
100
AcDbArc
 50
11.01615363455238
 51
19.65212291586506
  0
LINE
  5
51D1
330
1F
100
AcDbEntity
  8
AM_VIS
100
AcDbLine
 10
257.5949561601628
 20
350.7990816766656
 30
0.0
 11
257.5949561601628
 21
350.386653571062
 31
0.0
  0
LINE
  5
51D2
330
1F
100
AcDbEntity
  8
AM_VIS
100
AcDbLine
 10
257.5949561601628
 20
349.6886535710619
 30
0.0
 11
257.5949561601628
 21
349.2762254654623
 31
0.0
  0
ARC
  5
51D3
330
1F
100
AcDbEntity
  8
AM_VIS
100
AcDbCircle
 10
256.319931738803
 20
351.4694161939257
 30
0.0
 40
1.0
100
AcDbArc
 50
28.5062230151612
 51
85.00000000000026
  0
ARC
  5
51D4
330
1F
100
AcDbEntity
  8
AM_VIS
100
AcDbCircle
 10
256.319931738803
 20
348.6058909482023
 30
0.0
 40
1.0
100
AcDbArc
 50
274.9999999999997
 51
331.4937769848388
  0
ARC
  5
51D5
330
1F
100
AcDbEntity
  8
AM_VIS
100
AcDbCircle
 10
253.683635892018
 20
350.037653571064
 30
0.0
 40
4.0
100
AcDbArc
 50
331.4937769848388
 51
340.2753664413002
  0
ARC
  5
51D6
330
1F
100
AcDbEntity
  8
AM_VIS
100
AcDbCircle
 10
253.683635892018
 20
350.037653571064
 30
0.0
 40
4.0
100
AcDbArc
 50
19.72463355869975
 51
28.5062230151612
  0
LINE
  5
51D7
330
1F
100
AcDbEntity
  8
AM_VIS
100
AcDbLine
 10
255.583635892018
 20
352.637653571064
 30
0.0
 11
254.983635892018
 21
352.637653571064
 31
0.0
  0
LINE
  5
51D8
330
1F
100
AcDbEntity
  8
AM_VIS
100
AcDbLine
 10
255.583635892018
 20
347.437653571064
 30
0.0
 11
254.983635892018
 21
347.437653571064
 31
0.0
  0
LINE
  5
51D9
330
1F
100
AcDbEntity
  8
AM_VIS
100
AcDbLine
 10
255.583635892018
 20
352.637653571064
 30
0.0
 11
255.583635892018
 21
347.437653571064
 31
0.0
  0
LINE
  5
51DA
330
1F
100
AcDbEntity
  8
AM_VIS
100
AcDbLine
 10
254.983635892018
 20
350.7517964139183
 30
0.0
 11
254.983635892018
 21
349.3235107282097
 31
0.0
  0
LINE
  5
51DB
330
1F
100
AcDbEntity
  8
AM_VIS
100
AcDbLine
 10
254.983635892018
 20
352.637653571064
 30
0.0
 11
254.983635892018
 21
352.537653571064
 31
0.0
  0
LINE
  5
51DC
330
1F
100
AcDbEntity
  8
AM_VIS
100
AcDbLine
 10
257.983635892018
 20
334.537653571064
 30
0.0
 11
257.983635892018
 21
347.037653571064
 31
0.0
  0
LINE
  5
51DD
330
1F
100
AcDbEntity
  8
AM_VIS
100
AcDbLine
 10
240.983635892018
 20
352.537653571064
 30
0.0
 11
254.983635892018
 21
352.537653571064
 31
0.0
  0
LINE
  5
51DE
330
1F
100
AcDbEntity
  8
AM_VIS
100
AcDbLine
 10
254.983635892018
 20
347.037653571064
 30
0.0
 11
254.983635892018
 21
349.3235107282097
 31
0.0
  0
LINE
  5
51DF
330
1F
100
AcDbEntity
  8
AM_VIS
100
AcDbLine
 10
254.983635892018
 20
350.7517964139182
 30
0.0
 11
254.983635892018
 21
352.537653571064
 31
0.0
  0
LINE
  5
51E0
330
1F
100
AcDbEntity
  8
AM_VIS
100
AcDbLine
 10
257.983635892018
 20
347.037653571064
 30
0.0
 11
254.983635892018
 21
347.037653571064
 31
0.0
  0
LINE
  5
51E1
330
1F
100
AcDbEntity
  8
AM_VIS
100
AcDbLine
 10
255.583635892018
 20
352.537653571064
 30
0.0
 11
257.983635892018
 21
352.537653571064
 31
0.0
  0
LINE
  5
51E2
330
1F
100
AcDbEntity
  8
AM_VIS
100
AcDbLine
 10
257.983635892018
 20
352.537653571064
 30
0.0
 11
257.983635892018
 21
349.787653571064
 31
0.0
  0
LINE
  5
51E3
330
1F
100
AcDbEntity
  8
AM_VIS
100
AcDbLine
 10
240.983635892018
 20
334.537653571064
 30
0.0
 11
240.983635892018
 21
352.537653571064
 31
0.0
  0
LINE
  5
51E4
330
1F
100
AcDbEntity
  8
AM_VIS
100
AcDbLine
 10
240.983635892018
 20
334.537653571064
 30
0.0
 11
257.983635892018
 21
334.537653571064
 31
0.0
  0
LINE
  5
51E5
330
1F
100
AcDbEntity
  8
AM_VIS
100
AcDbLine
 10
257.983635892018
 20
347.037653571064
 30
0.0
 11
257.983635892018
 21
349.787653571064
 31
0.0
  0
LINE
  5
51E6
330
1F
100
AcDbEntity
  8
AM_VIS
100
AcDbLine
 10
194.9836358920179
 20
335.037653571064
 30
0.0
 11
194.9836358920179
 21
352.037653571064
 31
0.0
  0
LINE
  5
51E7
330
1F
100
AcDbEntity
  8
AM_VIS
100
AcDbLine
 10
194.9836358920179
 20
335.037653571064
 30
0.0
 11
194.9836358920179
 21
334.537653571064
 31
0.0
  0
LINE
  5
51E8
330
1F
100
AcDbEntity
  8
AM_VIS
100
AcDbLine
 10
194.9836358920179
 20
352.537653571064
 30
0.0
 11
194.9836358920179
 21
352.037653571064
 31
0.0
  0
LINE
  5
51E9
330
1F
100
AcDbEntity
  8
AM_VIS
100
AcDbLine
 10
240.983635892018
 20
352.537653571064
 30
0.0
 11
194.9836358920179
 21
352.537653571064
 31
0.0
  0
LINE
  5
51EA
330
1F
100
AcDbEntity
  8
AM_VIS
100
AcDbLine
 10
194.9836358920179
 20
334.537653571064
 30
0.0
 11
240.983635892018
 21
334.537653571064
 31
0.0
  0
LINE
  5
51EB
330
1F
100
AcDbEntity
  8
AM_VIS
100
AcDbLine
 10
240.983635892018
 20
335.037653571064
 30
0.0
 11
240.983635892018
 21
352.037653571064
 31
0.0
  0
LINE
  5
51EC
330
1F
100
AcDbEntity
  8
AM_VIS
100
AcDbLine
 10
194.9836358920179
 20
335.037653571064
 30
0.0
 11
194.9836358920179
 21
352.037653571064
 31
0.0
  0
CIRCLE
  5
51ED
330
1F
100
AcDbEntity
  8
AM_VIS
100
AcDbCircle
 10
200.983635892018
 20
350.037653571064
 30
0.0
 40
1.6
  0
CIRCLE
  5
51EE
330
1F
100
AcDbEntity
  8
AM_VIS
100
AcDbCircle
 10
234.983635892018
 20
337.037653571064
 30
0.0
 40
1.6
  0
LINE
  5
51EF
330
1F
100
AcDbEntity
  8
AM_VIS
100
AcDbLine
 10
194.9836358920179
 20
352.037653571064
 30
0.0
 11
194.9836358920179
 21
352.537653571064
 31
0.0
  0
LINE
  5
51F0
330
1F
100
AcDbEntity
  8
AM_VIS
100
AcDbLine
 10
194.9836358920179
 20
334.537653571064
 30
0.0
 11
194.9836358920179
 21
335.037653571064
 31
0.0
  0
LINE
  5
51F1
330
1F
100
AcDbEntity
  8
AM_VIS
100
AcDbLine
 10
256.4070874815507
 20
395.3837320651036
 30
0.0
 11
255.583635892018
 21
395.4557747441501
 31
0.0
  0
LINE
  5
51F2
330
1F
100
AcDbEntity
  8
AM_VIS
100
AcDbLine
 10
256.4070874815507
 20
390.5278174231966
 30
0.0
 11
255.583635892018
 21
390.4557747441501
 31
0.0
  0
LINE
  5
51F3
330
1F
100
AcDbEntity
  8
AM_VIS
100
AcDbLine
 10
257.5949561601628
 20
393.30477474415
 30
0.0
 11
257.4362777982653
 21
393.30477474415
 31
0.0
  0
ELLIPSE
  5
51F4
330
1F
100
AcDbEntity
  8
AM_VIS
100
AcDbEllipse
 10
254.4567212810215
 20
392.9557747441501
 30
0.0
 11
0.0
 21
-3.797925352448599
 31
0.0
210
0.0
220
0.0
230
1.0
 40
0.7878555911532376
 41
1.478774232154307
 42
1.662818421435485
  0
LINE
  5
51F5
330
1F
100
AcDbEntity
  8
AM_VIS
100
AcDbLine
 10
257.4489380047309
 20
394.3057747441501
 30
0.0
 11
257.4362777982654
 21
394.2958783683065
 31
0.0
  0
ARC
  5
51F6
330
1F
100
AcDbEntity
  8
AM_VIS
100
AcDbCircle
 10
253.683635892018
 20
392.9557747441501
 30
0.0
 40
3.984745788629608
100
AcDbArc
 50
340.347877084135
 51
348.9838463654374
  0
ARC
  5
51F7
330
1F
100
AcDbEntity
  8
AM_VIS
100
AcDbCircle
 10
253.683635892018
 20
392.9557747441501
 30
0.0
 40
3.984745788629608
100
AcDbArc
 50
11.01615363456259
 51
19.65212291586506
  0
LINE
  5
51F8
330
1F
100
AcDbEntity
  8
AM_VIS
100
AcDbLine
 10
257.4362777982654
 20
391.6156711199936
 30
0.0
 11
257.4489380047309
 21
391.6057747441501
 31
0.0
  0
LINE
  5
51F9
330
1F
100
AcDbEntity
  8
AM_VIS
100
AcDbLine
 10
257.4362777982653
 20
392.6067747441501
 30
0.0
 11
257.5949561601628
 21
392.6067747441501
 31
0.0
  0
LINE
  5
51FA
330
1F
100
AcDbEntity
  8
AM_VIS
100
AcDbLine
 10
257.5949561601628
 20
393.7172028497526
 30
0.0
 11
257.5949561601628
 21
393.30477474415
 31
0.0
  0
LINE
  5
51FB
330
1F
100
AcDbEntity
  8
AM_VIS
100
AcDbLine
 10
257.5949561601628
 20
392.60677474415
 30
0.0
 11
257.5949561601628
 21
392.1943466385475
 31
0.0
  0
ARC
  5
51FC
330
1F
100
AcDbEntity
  8
AM_VIS
100
AcDbCircle
 10
256.319931738803
 20
394.3875373670118
 30
0.0
 40
1.0
100
AcDbArc
 50
28.5062230151612
 51
85.00000000000026
  0
ARC
  5
51FD
330
1F
100
AcDbEntity
  8
AM_VIS
100
AcDbCircle
 10
256.319931738803
 20
391.5240121212884
 30
0.0
 40
1.0
100
AcDbArc
 50
274.9999999999997
 51
331.4937769848388
  0
ARC
  5
51FE
330
1F
100
AcDbEntity
  8
AM_VIS
100
AcDbCircle
 10
253.683635892018
 20
392.9557747441501
 30
0.0
 40
4.0
100
AcDbArc
 50
331.4937769848388
 51
340.2753664413002
  0
ARC
  5
51FF
330
1F
100
AcDbEntity
  8
AM_VIS
100
AcDbCircle
 10
253.683635892018
 20
392.9557747441501
 30
0.0
 40
4.0
100
AcDbArc
 50
19.72463355869975
 51
28.5062230151612
  0
ELLIPSE
  5
5200
330
1F
100
AcDbEntity
  8
AM_VIS
100
AcDbEllipse
 10
255.3133331823525
 20
392.9557747441501
 30
0.0
 11
-7.143441290581794
 21
-0.0000000000000006
 31
0.0
210
0.0
220
0.0
230
1.0
 40
0.3639702342662129
 41
4.712388980384691
 42
4.758559228246637
  0
LINE
  5
5201
330
1F
100
AcDbEntity
  8
AM_VIS
100
AcDbLine
 10
255.583635892018
 20
395.55577474415
 30
0.0
 11
255.3133331823525
 21
395.55577474415
 31
0.0
  0
LINE
  5
5202
330
1F
100
AcDbEntity
  8
AM_VIS
100
AcDbLine
 10
255.583635892018
 20
390.35577474415
 30
0.0
 11
254.983635892018
 21
390.35577474415
 31
0.0
  0
LINE
  5
5203
330
1F
100
AcDbEntity
  8
AM_VIS
100
AcDbLine
 10
255.583635892018
 20
395.55577474415
 30
0.0
 11
255.583635892018
 21
390.35577474415
 31
0.0
  0
LINE
  5
5204
330
1F
100
AcDbEntity
  8
AM_VIS
100
AcDbLine
 10
254.983635892018
 20
390.4557747441501
 30
0.0
 11
254.983635892018
 21
390.35577474415
 31
0.0
  0
LINE
  5
5205
330
1F
100
AcDbEntity
  8
AM_VIS
100
AcDbLine
 10
254.983635892018
 20
393.6699175870043
 30
0.0
 11
254.983635892018
 21
392.2416319012958
 31
0.0
  0
LINE
  5
5206
330
1F
100
AcDbEntity
  8
AM_VIS
100
AcDbLine
 10
240.983635892018
 20
390.4557747441501
 30
0.0
 11
254.983635892018
 21
390.4557747441501
 31
0.0
  0
LINE
  5
5207
330
1F
100
AcDbEntity
  8
AM_VIS
100
AcDbLine
 10
240.983635892018
 20
417.45577474415
 30
0.0
 11
257.983635892018
 21
417.45577474415
 31
0.0
  0
LINE
  5
5208
330
1F
100
AcDbEntity
  8
AM_VIS
100
AcDbLine
 10
257.983635892018
 20
395.9557747441501
 30
0.0
 11
257.983635892018
 21
417.45577474415
 31
0.0
  0
LINE
  5
5209
330
1F
100
AcDbEntity
  8
AM_VIS
100
AcDbLine
 10
254.983635892018
 20
390.4557747441501
 30
0.0
 11
254.983635892018
 21
392.2416319012958
 31
0.0
  0
LINE
  5
520A
330
1F
100
AcDbEntity
  8
AM_VIS
100
AcDbLine
 10
254.983635892018
 20
393.6699175870043
 30
0.0
 11
254.983635892018
 21
395.9557747441501
 31
0.0
  0
LINE
  5
520B
330
1F
100
AcDbEntity
  8
AM_VIS
100
AcDbLine
 10
257.983635892018
 20
393.2057747441501
 30
0.0
 11
257.983635892018
 21
390.4557747441501
 31
0.0
  0
LINE
  5
520C
330
1F
100
AcDbEntity
  8
AM_VIS
100
AcDbLine
 10
257.983635892018
 20
390.4557747441501
 30
0.0
 11
255.583635892018
 21
390.4557747441501
 31
0.0
  0
LINE
  5
520D
330
1F
100
AcDbEntity
  8
AM_VIS
100
AcDbLine
 10
254.983635892018
 20
395.9557747441501
 30
0.0
 11
257.983635892018
 21
395.9557747441501
 31
0.0
  0
LINE
  5
520E
330
1F
100
AcDbEntity
  8
AM_VIS
100
AcDbLine
 10
240.983635892018
 20
390.4557747441501
 30
0.0
 11
240.983635892018
 21
417.45577474415
 31
0.0
  0
LINE
  5
520F
330
1F
100
AcDbEntity
  8
AM_VIS
100
AcDbLine
 10
257.983635892018
 20
393.2057747441501
 30
0.0
 11
257.983635892018
 21
395.9557747441501
 31
0.0
  0
LINE
  5
5210
330
1F
100
AcDbEntity
  8
AM_VIS
100
AcDbLine
 10
194.9836358920179
 20
390.9557747441501
 30
0.0
 11
194.9836358920179
 21
416.95577474415
 31
0.0
  0
LINE
  5
5211
330
1F
100
AcDbEntity
  8
AM_VIS
100
AcDbLine
 10
194.9836358920179
 20
417.45577474415
 30
0.0
 11
194.9836358920179
 21
416.95577474415
 31
0.0
  0
LINE
  5
5212
330
1F
100
AcDbEntity
  8
AM_VIS
100
AcDbLine
 10
197.9836358920179
 20
414.45577474415
 30
0.0
 11
197.9836358920179
 21
416.95577474415
 31
0.0
  0
LINE
  5
5213
330
1F
100
AcDbEntity
  8
AM_VIS
100
AcDbLine
 10
203.983635892018
 20
414.45577474415
 30
0.0
 11
197.9836358920179
 21
414.45577474415
 31
0.0
  0
LINE
  5
5214
330
1F
100
AcDbEntity
  8
AM_VIS
100
AcDbLine
 10
203.983635892018
 20
416.95577474415
 30
0.0
 11
203.983635892018
 21
414.45577474415
 31
0.0
  0
LINE
  5
5215
330
1F
100
AcDbEntity
  8
AM_VIS
100
AcDbLine
 10
194.9836358920179
 20
390.4557747441501
 30
0.0
 11
240.983635892018
 21
390.4557747441501
 31
0.0
  0
LINE
  5
5216
330
1F
100
AcDbEntity
  8
AM_VIS
100
AcDbLine
 10
240.983635892018
 20
417.45577474415
 30
0.0
 11
203.983635892018
 21
417.45577474415
 31
0.0
  0
LINE
  5
5217
330
1F
100
AcDbEntity
  8
AM_VIS
100
AcDbLine
 10
197.9836358920179
 20
417.45577474415
 30
0.0
 11
194.9836358920179
 21
417.45577474415
 31
0.0
  0
LINE
  5
5218
330
1F
100
AcDbEntity
  8
AM_VIS
100
AcDbLine
 10
240.983635892018
 20
390.9557747441501
 30
0.0
 11
240.983635892018
 21
416.95577474415
 31
0.0
  0
LINE
  5
5219
330
1F
100
AcDbEntity
  8
AM_VIS
100
AcDbLine
 10
194.9836358920179
 20
390.4557747441501
 30
0.0
 11
194.9836358920179
 21
416.95577474415
 31
0.0
  0
CIRCLE
  5
521A
330
1F
100
AcDbEntity
  8
AM_VIS
100
AcDbCircle
 10
225.2336358920179
 20
395.4557747441501
 30
0.0
 40
1.6
  0
CIRCLE
  5
521B
330
1F
100
AcDbEntity
  8
AM_VIS
100
AcDbCircle
 10
210.7336358920179
 20
395.4557747441501
 30
0.0
 40
1.6
  0
LINE
  5
521C
330
1F
100
AcDbEntity
  8
AM_VIS
100
AcDbLine
 10
203.983635892018
 20
416.95577474415
 30
0.0
 11
203.983635892018
 21
417.45577474415
 31
0.0
  0
LINE
  5
521D
330
1F
100
AcDbEntity
  8
AM_VIS
100
AcDbLine
 10
197.9836358920179
 20
417.45577474415
 30
0.0
 11
197.9836358920179
 21
416.95577474415
 31
0.0
  0
LINE
  5
521E
330
1F
100
AcDbEntity
  8
AM_VIS
100
AcDbLine
 10
197.9836358920179
 20
417.45577474415
 30
0.0
 11
203.983635892018
 21
417.45577474415
 31
0.0
  0
LINE
  5
521F
330
1F
100
AcDbEntity
  8
AM_VIS
100
AcDbLine
 10
194.9836358920179
 20
416.95577474415
 30
0.0
 11
194.9836358920179
 21
417.45577474415
 31
0.0
  0
LINE
  5
5220
330
1F
100
AcDbEntity
  8
AM_VIS
100
AcDbLine
 10
256.4070874815507
 20
472.4024803070118
 30
0.0
 11
255.5836358920179
 21
472.4745229860583
 31
0.0
  0
LINE
  5
5221
330
1F
100
AcDbEntity
  8
AM_VIS
100
AcDbLine
 10
256.4070874815507
 20
467.5465656651048
 30
0.0
 11
255.5836358920179
 21
467.4745229860583
 31
0.0
  0
LINE
  5
5222
330
1F
100
AcDbEntity
  8
AM_VIS
100
AcDbLine
 10
255.5836358920179
 20
470.072905126618
 30
0.0
 11
255.5836358920179
 21
470.3129051266181
 31
0.0
  0
ARC
  5
5223
330
1F
100
AcDbEntity
  8
AM_VIS
100
AcDbCircle
 10
253.6836358920179
 20
469.9745229860583
 30
0.0
 40
3.984745788629432
100
AcDbArc
 50
340.347877084135
 51
348.9838463654476
  0
LINE
  5
5224
330
1F
100
AcDbEntity
  8
AM_VIS
100
AcDbLine
 10
257.4362777982652
 20
468.634419361902
 30
0.0
 11
257.4489380047308
 21
468.6245229860583
 31
0.0
  0
LINE
  5
5225
330
1F
100
AcDbEntity
  8
AM_VIS
100
AcDbLine
 10
257.4489380047308
 20
471.3245229860583
 30
0.0
 11
257.4362777982652
 21
471.3146266102147
 31
0.0
  0
ELLIPSE
  5
5226
330
1F
100
AcDbEntity
  8
AM_VIS
100
AcDbEllipse
 10
254.4567212810216
 20
469.9745229860583
 30
0.0
 11
0.0
 21
-3.797925352448569
 31
0.0
210
0.0
220
0.0
230
1.0
 40
0.7878555911532167
 41
1.478774232154828
 42
1.662818421436009
  0
LINE
  5
5227
330
1F
100
AcDbEntity
  8
AM_VIS
100
AcDbLine
 10
257.4362777982653
 20
469.6255229860603
 30
0.0
 11
257.5949561601627
 21
469.6255229860603
 31
0.0
  0
LINE
  5
5228
330
1F
100
AcDbEntity
  8
AM_VIS
100
AcDbLine
 10
257.5949561601627
 20
470.3235229860602
 30
0.0
 11
257.436277798265
 21
470.3235229860602
 31
0.0
  0
ARC
  5
5229
330
1F
100
AcDbEntity
  8
AM_VIS
100
AcDbCircle
 10
253.6836358920179
 20
469.9745229860583
 30
0.0
 40
3.984745788629432
100
AcDbArc
 50
11.01615363455238
 51
19.65212291586506
  0
LINE
  5
522A
330
1F
100
AcDbEntity
  8
AM_VIS
100
AcDbLine
 10
257.5949561601627
 20
470.7359510916599
 30
0.0
 11
257.5949561601627
 21
470.3235229860602
 31
0.0
  0
LINE
  5
522B
330
1F
100
AcDbEntity
  8
AM_VIS
100
AcDbLine
 10
257.5949561601627
 20
469.6255229860603
 30
0.0
 11
257.5949561601627
 21
469.2130948804567
 31
0.0
  0
ARC
  5
522C
330
1F
100
AcDbEntity
  8
AM_VIS
100
AcDbCircle
 10
256.319931738803
 20
471.40628560892
 30
0.0
 40
1.0
100
AcDbArc
 50
28.5062230151612
 51
85.00000000000026
  0
ARC
  5
522D
330
1F
100
AcDbEntity
  8
AM_VIS
100
AcDbCircle
 10
256.319931738803
 20
468.5427603631966
 30
0.0
 40
1.0
100
AcDbArc
 50
274.9999999999997
 51
331.4937769848388
  0
ARC
  5
522E
330
1F
100
AcDbEntity
  8
AM_VIS
100
AcDbCircle
 10
253.6836358920179
 20
469.9745229860583
 30
0.0
 40
4.0
100
AcDbArc
 50
19.72463355869975
 51
28.5062230151612
  0
ARC
  5
522F
330
1F
100
AcDbEntity
  8
AM_VIS
100
AcDbCircle
 10
253.6836358920179
 20
469.9745229860583
 30
0.0
 40
4.0
100
AcDbArc
 50
331.4937769848388
 51
340.2753664413002
  0
LINE
  5
5230
330
1F
100
AcDbEntity
  8
AM_VIS
100
AcDbLine
 10
254.9836358920179
 20
469.8545229860583
 30
0.0
 11
255.5836358920179
 21
470.072905126618
 31
0.0
  0
LINE
  5
5231
330
1F
100
AcDbEntity
  8
AM_VIS
100
AcDbLine
 10
255.5836358920179
 20
470.3129051266181
 30
0.0
 11
254.9836358920179
 21
470.0945229860583
 31
0.0
  0
LINE
  5
5232
330
1F
100
AcDbEntity
  8
AM_VIS
100
AcDbLine
 10
255.5836358920179
 20
472.5745229860583
 30
0.0
 11
254.9836358920179
 21
472.5745229860583
 31
0.0
  0
LINE
  5
5233
330
1F
100
AcDbEntity
  8
AM_VIS
100
AcDbLine
 10
255.5836358920179
 20
467.3745229860583
 30
0.0
 11
254.9836358920179
 21
467.3745229860583
 31
0.0
  0
LINE
  5
5234
330
1F
100
AcDbEntity
  8
AM_VIS
100
AcDbLine
 10
255.5836358920179
 20
472.5745229860583
 30
0.0
 11
255.5836358920179
 21
470.3129051266181
 31
0.0
  0
LINE
  5
5235
330
1F
100
AcDbEntity
  8
AM_VIS
100
AcDbLine
 10
255.5836358920179
 20
470.072905126618
 30
0.0
 11
255.5836358920179
 21
467.3745229860583
 31
0.0
  0
LINE
  5
5236
330
1F
100
AcDbEntity
  8
AM_VIS
100
AcDbLine
 10
254.9836358920179
 20
470.6886658289126
 30
0.0
 11
254.9836358920179
 21
470.0945229860583
 31
0.0
  0
LINE
  5
5237
330
1F
100
AcDbEntity
  8
AM_VIS
100
AcDbLine
 10
254.9836358920179
 20
472.5745229860583
 30
0.0
 11
254.9836358920179
 21
472.4745229860583
 31
0.0
  0
LINE
  5
5238
330
1F
100
AcDbEntity
  8
AM_VIS
100
AcDbLine
 10
254.9836358920179
 20
469.8545229860583
 30
0.0
 11
254.9836358920179
 21
469.260380143204
 31
0.0
  0
LINE
  5
5239
330
1F
100
AcDbEntity
  8
AM_VIS
100
AcDbLine
 10
254.9836358920179
 20
466.9745229860583
 30
0.0
 11
254.9836358920179
 21
469.260380143204
 31
0.0
  0
LINE
  5
523A
330
1F
100
AcDbEntity
  8
AM_VIS
100
AcDbLine
 10
254.9836358920179
 20
469.8545229860583
 30
0.0
 11
254.9836358920179
 21
470.0945229860583
 31
0.0
  0
LINE
  5
523B
330
1F
100
AcDbEntity
  8
AM_VIS
100
AcDbLine
 10
254.9836358920179
 20
470.6886658289126
 30
0.0
 11
254.9836358920179
 21
472.4745229860583
 31
0.0
  0
LINE
  5
523C
330
1F
100
AcDbEntity
  8
AM_VIS
100
AcDbLine
 10
257.9836358920179
 20
466.9745229860583
 30
0.0
 11
254.9836358920179
 21
466.9745229860583
 31
0.0
  0
LINE
  5
523D
330
1F
100
AcDbEntity
  8
AM_VIS
100
AcDbLine
 10
257.9836358920179
 20
454.4745229860583
 30
0.0
 11
257.9836358920179
 21
466.9745229860583
 31
0.0
  0
LINE
  5
523E
330
1F
100
AcDbEntity
  8
AM_VIS
100
AcDbLine
 10
257.9836358920179
 20
472.4745229860583
 30
0.0
 11
257.9836358920179
 21
469.7245229860583
 31
0.0
  0
LINE
  5
523F
330
1F
100
AcDbEntity
  8
AM_VIS
100
AcDbLine
 10
240.9836358920179
 20
454.4745229860583
 30
0.0
 11
257.9836358920179
 21
454.4745229860583
 31
0.0
  0
LINE
  5
5240
330
1F
100
AcDbEntity
  8
AM_VIS
100
AcDbLine
 10
240.9836358920179
 20
454.4745229860583
 30
0.0
 11
240.9836358920179
 21
472.4745229860583
 31
0.0
  0
LINE
  5
5241
330
1F
100
AcDbEntity
  8
AM_VIS
100
AcDbLine
 10
255.5836358920179
 20
472.4745229860583
 30
0.0
 11
257.9836358920179
 21
472.4745229860583
 31
0.0
  0
LINE
  5
5242
330
1F
100
AcDbEntity
  8
AM_VIS
100
AcDbLine
 10
240.9836358920179
 20
472.4745229860583
 30
0.0
 11
254.9836358920179
 21
472.4745229860583
 31
0.0
  0
LINE
  5
5243
330
1F
100
AcDbEntity
  8
AM_VIS
100
AcDbLine
 10
257.9836358920179
 20
466.9745229860583
 30
0.0
 11
257.9836358920179
 21
469.7245229860583
 31
0.0
  0
LINE
  5
5244
330
1F
100
AcDbEntity
  8
AM_VIS
100
AcDbLine
 10
194.9836358920179
 20
454.9745229860583
 30
0.0
 11
194.9836358920179
 21
471.9745229860583
 31
0.0
  0
LINE
  5
5245
330
1F
100
AcDbEntity
  8
AM_VIS
100
AcDbLine
 10
194.9836358920179
 20
472.4745229860583
 30
0.0
 11
194.9836358920179
 21
471.9745229860583
 31
0.0
  0
LINE
  5
5246
330
1F
100
AcDbEntity
  8
AM_VIS
100
AcDbLine
 10
194.9836358920179
 20
454.9745229860583
 30
0.0
 11
194.9836358920179
 21
454.4745229860583
 31
0.0
  0
LINE
  5
5247
330
1F
100
AcDbEntity
  8
AM_VIS
100
AcDbLine
 10
231.9836358920179
 20
472.4745229860583
 30
0.0
 11
237.9836358920179
 21
472.4745229860583
 31
0.0
  0
LINE
  5
5248
330
1F
100
AcDbEntity
  8
AM_VIS
100
AcDbLine
 10
203.9836358920179
 20
454.4745229860582
 30
0.0
 11
197.9836358920179
 21
454.4745229860582
 31
0.0
  0
LINE
  5
5249
330
1F
100
AcDbEntity
  8
AM_VIS
100
AcDbLine
 10
203.9836358920179
 20
454.4745229860582
 30
0.0
 11
240.9836358920179
 21
454.4745229860582
 31
0.0
  0
LINE
  5
524A
330
1F
100
AcDbEntity
  8
AM_VIS
100
AcDbLine
 10
194.9836358920179
 20
454.4745229860582
 30
0.0
 11
197.9836358920179
 21
454.4745229860582
 31
0.0
  0
LINE
  5
524B
330
1F
100
AcDbEntity
  8
AM_VIS
100
AcDbLine
 10
231.9836358920179
 20
472.4745229860583
 30
0.0
 11
194.9836358920179
 21
472.4745229860583
 31
0.0
  0
LINE
  5
524C
330
1F
100
AcDbEntity
  8
AM_VIS
100
AcDbLine
 10
203.9836358920179
 20
456.9745229860583
 30
0.0
 11
203.9836358920179
 21
454.9745229860582
 31
0.0
  0
LINE
  5
524D
330
1F
100
AcDbEntity
  8
AM_VIS
100
AcDbLine
 10
197.9836358920179
 20
454.9745229860582
 30
0.0
 11
197.9836358920179
 21
456.9745229860583
 31
0.0
  0
LINE
  5
524E
330
1F
100
AcDbEntity
  8
AM_VIS
100
AcDbLine
 10
231.9836358920179
 20
469.9745229860583
 30
0.0
 11
231.9836358920179
 21
471.9745229860583
 31
0.0
  0
LINE
  5
524F
330
1F
100
AcDbEntity
  8
AM_VIS
100
AcDbLine
 10
237.9836358920179
 20
471.9745229860583
 30
0.0
 11
237.9836358920179
 21
469.9745229860583
 31
0.0
  0
LINE
  5
5250
330
1F
100
AcDbEntity
  8
AM_VIS
100
AcDbLine
 10
240.9836358920179
 20
472.4745229860583
 30
0.0
 11
237.9836358920179
 21
472.4745229860583
 31
0.0
  0
ARC
  5
5251
330
1F
100
AcDbEntity
  8
AM_VIS
100
AcDbCircle
 10
200.9836358920179
 20
456.9745229860583
 30
0.0
 40
1.600000000000008
100
AcDbArc
 50
142.2387560929671
 51
217.7612439070374
  0
ARC
  5
5252
330
1F
100
AcDbEntity
  8
AM_VIS
100
AcDbCircle
 10
234.9836358920179
 20
469.9745229860583
 30
0.0
 40
1.600000000000033
100
AcDbArc
 50
322.2387560929626
 51
37.76124390703741
  0
LINE
  5
5253
330
1F
100
AcDbEntity
  8
AM_VIS
100
AcDbLine
 10
240.9836358920179
 20
454.9745229860582
 30
0.0
 11
240.9836358920179
 21
471.9745229860583
 31
0.0
  0
LINE
  5
5254
330
1F
100
AcDbEntity
  8
AM_VIS
100
AcDbLine
 10
194.9836358920179
 20
454.9745229860582
 30
0.0
 11
194.9836358920179
 21
471.9745229860583
 31
0.0
  0
ARC
  5
5255
330
1F
100
AcDbEntity
  8
AM_VIS
100
AcDbCircle
 10
234.9836358920179
 20
469.9745229860583
 30
0.0
 40
1.6
100
AcDbArc
 50
37.76124390703741
 51
322.2387560929626
  0
ARC
  5
5256
330
1F
100
AcDbEntity
  8
AM_VIS
100
AcDbCircle
 10
200.9836358920179
 20
456.9745229860583
 30
0.0
 40
1.6
100
AcDbArc
 50
217.7612439070374
 51
142.2387560929671
  0
LINE
  5
5257
330
1F
100
AcDbEntity
  8
AM_VIS
100
AcDbLine
 10
203.9836358920179
 20
454.4745229860582
 30
0.0
 11
203.9836358920179
 21
454.9745229860582
 31
0.0
  0
LINE
  5
5258
330
1F
100
AcDbEntity
  8
AM_VIS
100
AcDbLine
 10
197.9836358920179
 20
454.9745229860582
 30
0.0
 11
197.9836358920179
 21
454.4745229860582
 31
0.0
  0
LINE
  5
5259
330
1F
100
AcDbEntity
  8
AM_VIS
100
AcDbLine
 10
231.9836358920179
 20
472.4745229860583
 30
0.0
 11
231.9836358920179
 21
471.9745229860583
 31
0.0
  0
ARC
  5
525A
330
1F
100
AcDbEntity
  8
AM_VIS
100
AcDbCircle
 10
200.9836358920179
 20
456.9745229860583
 30
0.0
 40
3.0
100
AcDbArc
 50
0.0
 51
180.0
  0
ARC
  5
525B
330
1F
100
AcDbEntity
  8
AM_VIS
100
AcDbCircle
 10
234.9836358920179
 20
469.9745229860583
 30
0.0
 40
3.0
100
AcDbArc
 50
180.0
 51
0.0
  0
LINE
  5
525C
330
1F
100
AcDbEntity
  8
AM_VIS
100
AcDbLine
 10
237.9836358920179
 20
471.9745229860583
 30
0.0
 11
237.9836358920179
 21
472.4745229860583
 31
0.0
  0
LINE
  5
525D
330
1F
100
AcDbEntity
  8
AM_VIS
100
AcDbLine
 10
194.9836358920179
 20
454.4745229860582
 30
0.0
 11
194.9836358920179
 21
454.9745229860582
 31
0.0
  0
LINE
  5
525E
330
1F
100
AcDbEntity
  8
AM_VIS
100
AcDbLine
 10
194.9836358920179
 20
471.9745229860583
 30
0.0
 11
194.9836358920179
 21
472.4745229860583
 31
0.0
  0
LINE
  5
525F
330
1F
100
AcDbEntity
  8
AM_7
100
AcDbLine
 10
225.9836358920179
 20
464.4745229860583
 30
0.0
 11
232.2336358920179
 21
464.4745229860583
 31
0.0
1001
GENIUS_GENOREF_13
1005
5363
  0
LINE
  5
5260
330
1F
100
AcDbEntity
  8
AM_7
100
AcDbLine
 10
225.9836358920179
 20
464.4745229860583
 30
0.0
 11
225.9836358920179
 21
470.7245229860583
 31
0.0
1001
GENIUS_GENOREF_13
1005
5363
  0
LINE
  5
5261
330
1F
100
AcDbEntity
  8
AM_7
100
AcDbLine
 10
225.9836358920179
 20
464.4745229860583
 30
0.0
 11
219.7336358920179
 21
464.4745229860583
 31
0.0
1001
GENIUS_GENOREF_13
1005
5363
  0
LINE
  5
5262
330
1F
100
AcDbEntity
  8
AM_7
100
AcDbLine
 10
225.9836358920179
 20
464.4745229860583
 30
0.0
 11
225.9836358920179
 21
458.2245229860583
 31
0.0
1001
GENIUS_GENOREF_13
1005
5363
  0
LINE
  5
5263
330
1F
100
AcDbEntity
  8
AM_7
100
AcDbLine
 10
209.9836358920179
 20
462.4745229860583
 30
0.0
 11
216.2336358920179
 21
462.4745229860583
 31
0.0
1001
GENIUS_GENOREF_13
1005
5362
  0
LINE
  5
5264
330
1F
100
AcDbEntity
  8
AM_7
100
AcDbLine
 10
209.9836358920179
 20
462.4745229860583
 30
0.0
 11
209.9836358920179
 21
468.7245229860583
 31
0.0
1001
GENIUS_GENOREF_13
1005
5362
  0
LINE
  5
5265
330
1F
100
AcDbEntity
  8
AM_7
100
AcDbLine
 10
209.9836358920179
 20
462.4745229860583
 30
0.0
 11
203.7336358920179
 21
462.4745229860583
 31
0.0
1001
GENIUS_GENOREF_13
1005
5362
  0
LINE
  5
5266
330
1F
100
AcDbEntity
  8
AM_7
100
AcDbLine
 10
209.9836358920179
 20
462.4745229860583
 30
0.0
 11
209.9836358920179
 21
456.2245229860583
 31
0.0
1001
GENIUS_GENOREF_13
1005
5362
  0
LINE
  5
5267
330
1F
100
AcDbEntity
  8
AM_7
  6
AM_ISO08W050x2
100
AcDbLine
 10
210.7336358920179
 20
395.4557747441501
 30
0.0
 11
213.333635892018
 21
395.4557747441501
 31
0.0
1001
GENIUS_GENOREF_13
1005
5361
  0
LINE
  5
5268
330
1F
100
AcDbEntity
  8
AM_7
  6
AM_ISO08W050x2
100
AcDbLine
 10
210.7336358920179
 20
395.4557747441501
 30
0.0
 11
210.7336358920179
 21
398.0557747441501
 31
0.0
1001
GENIUS_GENOREF_13
1005
5361
  0
LINE
  5
5269
330
1F
100
AcDbEntity
  8
AM_7
  6
AM_ISO08W050x2
100
AcDbLine
 10
210.7336358920179
 20
395.4557747441501
 30
0.0
 11
208.1336358920179
 21
395.4557747441501
 31
0.0
1001
GENIUS_GENOREF_13
1005
5361
  0
LINE
  5
526A
330
1F
100
AcDbEntity
  8
AM_7
  6
AM_ISO08W050x2
100
AcDbLine
 10
210.7336358920179
 20
395.4557747441501
 30
0.0
 11
210.7336358920179
 21
392.85577474415
 31
0.0
1001
GENIUS_GENOREF_13
1005
5361
  0
LINE
  5
526B
330
1F
100
AcDbEntity
  8
AM_7
  6
AM_ISO08W050x2
100
AcDbLine
 10
225.2336358920179
 20
395.4557747441501
 30
0.0
 11
227.833635892018
 21
395.4557747441501
 31
0.0
1001
GENIUS_GENOREF_13
1005
5360
  0
LINE
  5
526C
330
1F
100
AcDbEntity
  8
AM_7
  6
AM_ISO08W050x2
100
AcDbLine
 10
225.2336358920179
 20
395.4557747441501
 30
0.0
 11
225.2336358920179
 21
398.0557747441501
 31
0.0
1001
GENIUS_GENOREF_13
1005
5360
  0
LINE
  5
526D
330
1F
100
AcDbEntity
  8
AM_7
  6
AM_ISO08W050x2
100
AcDbLine
 10
225.2336358920179
 20
395.4557747441501
 30
0.0
 11
222.6336358920179
 21
395.4557747441501
 31
0.0
1001
GENIUS_GENOREF_13
1005
5360
  0
LINE
  5
526E
330
1F
100
AcDbEntity
  8
AM_7
  6
AM_ISO08W050x2
100
AcDbLine
 10
225.2336358920179
 20
395.4557747441501
 30
0.0
 11
225.2336358920179
 21
392.85577474415
 31
0.0
1001
GENIUS_GENOREF_13
1005
5360
  0
LINE
  5
526F
330
1F
100
AcDbEntity
  8
AM_7
  6
AM_ISO08W050x2
100
AcDbLine
 10
200.983635892018
 20
350.037653571064
 30
0.0
 11
203.583635892018
 21
350.037653571064
 31
0.0
1001
GENIUS_GENOREF_13
1005
535F
  0
LINE
  5
5270
330
1F
100
AcDbEntity
  8
AM_7
  6
AM_ISO08W050x2
100
AcDbLine
 10
200.983635892018
 20
350.037653571064
 30
0.0
 11
200.983635892018
 21
352.637653571064
 31
0.0
1001
GENIUS_GENOREF_13
1005
535F
  0
LINE
  5
5271
330
1F
100
AcDbEntity
  8
AM_7
  6
AM_ISO08W050x2
100
AcDbLine
 10
200.983635892018
 20
350.037653571064
 30
0.0
 11
198.3836358920179
 21
350.037653571064
 31
0.0
1001
GENIUS_GENOREF_13
1005
535F
  0
LINE
  5
5272
330
1F
100
AcDbEntity
  8
AM_7
  6
AM_ISO08W050x2
100
AcDbLine
 10
200.983635892018
 20
350.037653571064
 30
0.0
 11
200.983635892018
 21
347.437653571064
 31
0.0
1001
GENIUS_GENOREF_13
1005
535F
  0
LINE
  5
5273
330
1F
100
AcDbEntity
  8
AM_7
  6
AM_ISO08W050x2
100
AcDbLine
 10
234.983635892018
 20
337.037653571064
 30
0.0
 11
237.583635892018
 21
337.037653571064
 31
0.0
1001
GENIUS_GENOREF_13
1005
535E
  0
LINE
  5
5274
330
1F
100
AcDbEntity
  8
AM_7
  6
AM_ISO08W050x2
100
AcDbLine
 10
234.983635892018
 20
337.037653571064
 30
0.0
 11
234.983635892018
 21
339.637653571064
 31
0.0
1001
GENIUS_GENOREF_13
1005
535E
  0
LINE
  5
5275
330
1F
100
AcDbEntity
  8
AM_7
  6
AM_ISO08W050x2
100
AcDbLine
 10
234.983635892018
 20
337.037653571064
 30
0.0
 11
232.3836358920179
 21
337.037653571064
 31
0.0
1001
GENIUS_GENOREF_13
1005
535E
  0
LINE
  5
5276
330
1F
100
AcDbEntity
  8
AM_7
  6
AM_ISO08W050x2
100
AcDbLine
 10
234.983635892018
 20
337.037653571064
 30
0.0
 11
234.983635892018
 21
334.4376535710639
 31
0.0
1001
GENIUS_GENOREF_13
1005
535E
  0
LINE
  5
5277
330
1F
100
AcDbEntity
  8
AM_7
  6
AM_ISO08W050x2
100
AcDbLine
 10
200.9836358920179
 20
456.9745229860583
 30
0.0
 11
204.9836358920179
 21
456.9745229860583
 31
0.0
1001
GENIUS_GENOREF_13
1005
535D
  0
LINE
  5
5278
330
1F
100
AcDbEntity
  8
AM_7
  6
AM_ISO08W050x2
100
AcDbLine
 10
200.9836358920179
 20
456.9745229860583
 30
0.0
 11
200.9836358920179
 21
460.9745229860583
 31
0.0
1001
GENIUS_GENOREF_13
1005
535D
  0
LINE
  5
5279
330
1F
100
AcDbEntity
  8
AM_7
  6
AM_ISO08W050x2
100
AcDbLine
 10
200.9836358920179
 20
456.9745229860583
 30
0.0
 11
196.9836358920179
 21
456.9745229860583
 31
0.0
1001
GENIUS_GENOREF_13
1005
535D
  0
LINE
  5
527A
330
1F
100
AcDbEntity
  8
AM_7
  6
AM_ISO08W050x2
100
AcDbLine
 10
200.9836358920179
 20
456.9745229860583
 30
0.0
 11
200.9836358920179
 21
452.9745229860583
 31
0.0
1001
GENIUS_GENOREF_13
1005
535D
  0
LINE
  5
527B
330
1F
100
AcDbEntity
  8
AM_7
  6
AM_ISO08W050x2
100
AcDbLine
 10
234.9836358920179
 20
469.9745229860583
 30
0.0
 11
238.9836358920179
 21
469.9745229860583
 31
0.0
1001
GENIUS_GENOREF_13
1005
535C
  0
LINE
  5
527C
330
1F
100
AcDbEntity
  8
AM_7
  6
AM_ISO08W050x2
100
AcDbLine
 10
234.9836358920179
 20
469.9745229860583
 30
0.0
 11
234.9836358920179
 21
473.9745229860583
 31
0.0
1001
GENIUS_GENOREF_13
1005
535C
  0
LINE
  5
527D
330
1F
100
AcDbEntity
  8
AM_7
  6
AM_ISO08W050x2
100
AcDbLine
 10
234.9836358920179
 20
469.9745229860583
 30
0.0
 11
230.9836358920179
 21
469.9745229860583
 31
0.0
1001
GENIUS_GENOREF_13
1005
535C
  0
LINE
  5
527E
330
1F
100
AcDbEntity
  8
AM_7
  6
AM_ISO08W050x2
100
AcDbLine
 10
234.9836358920179
 20
469.9745229860583
 30
0.0
 11
234.9836358920179
 21
465.9745229860583
 31
0.0
1001
GENIUS_GENOREF_13
1005
535C
  0
LINE
  5
527F
102
{ACAD_REACTORS
330
5298
102
}
330
1F
100
AcDbEntity
  8
AM_7
100
AcDbLine
 10
183.8253831921865
 20
343.537653571064
 30
0.0
 11
261.3434726601267
 21
343.537653571064
 31
0.0
1001
GENIUS_GENOBJ-N-CEN_13
1002
{
1000
OWNER
1000
GEN
1002
}
1001
GENIUS_GENODEF_13
1002
{
1000
HIER
1070
     0
1002
}
1002
{
1000
MANEDIT
1070
     0
1002
}
1002
{
1000
NOSEL
1070
     0
1002
}
1002
{
1000
BEHIND
1070
     0
1002
}
1002
{
1000
OTHER
1070
     0
1002
}
1002
{
1000
REACTOR
1002
}
1001
GENIUS_GENCEN_19
1002
{
1040
1.0
1002
}
  0
LINE
  5
5280
330
1F
100
AcDbEntity
  8
AM_7
100
AcDbLine
 10
175.5277739343443
 20
463.4745229860583
 30
0.0
 11
259.4729780250269
 21
463.4745229860583
 31
0.0
1001
GENIUS_GENOBJ-N-CEN_13
1002
{
1000
OWNER
1000
GEN
1002
}
1001
GENIUS_GENODEF_13
1002
{
1000
HIER
1070
     0
1002
}
1002
{
1000
MANEDIT
1070
     0
1002
}
1002
{
1000
NOSEL
1070
     0
1002
}
1002
{
1000
BEHIND
1070
     0
1002
}
1002
{
1000
OTHER
1070
     0
1002
}
1002
{
1000
REACTOR
1002
}
1001
GENIUS_GENCEN_19
1002
{
1040
1.0
1002
}
  0
DIMENSION
  5
5281
330
1F
100
AcDbEntity
  8
AM_5
100
AcDbDimension
  2
*D6
 10
225.9836358920179
 20
482.4745229860583
 30
0.0
 11
213.4836358920179
 21
484.9248674742473
 31
0.0
 70
    32
 71
     5
 42
25.0
  3
AM_ISO$0
100
AcDbAlignedDimension
 13
200.9836358920179
 23
460.9745229860583
 33
0.0
 14
225.9836358920179
 24
470.7245229860583
 34
0.0
100
AcDbRotatedDimension
1001
ACAD
1000
DSTYLE
1002
{
1070
    40
1040
1.0
1070
   144
1040
1.0
1070
   272
1070
     8
1002
}
  0
DIMENSION
  5
5282
330
1F
100
AcDbEntity
  8
AM_5
100
AcDbDimension
  2
*D7
 10
200.9836358920179
 20
444.4745229860583
 30
0.0
 11
189.4836358920179
 21
446.9248674742472
 31
0.0
 70
    32
 71
     5
 42
23.0
  3
AM_ISO$0
100
AcDbAlignedDimension
 13
177.9836358920179
 23
454.4745229860583
 33
0.0
 14
200.9836358920179
 24
452.9745229860583
 34
0.0
100
AcDbRotatedDimension
1001
ACAD
1000
DSTYLE
1002
{
1070
    40
1040
1.0
1070
   144
1040
1.0
1070
   272
1070
     8
1002
}
  0
DIMENSION
  5
5283
330
1F
100
AcDbEntity
  8
AM_5
100
AcDbDimension
  2
*D8
 10
234.9836358920179
 20
444.4745229860584
 30
0.0
 11
217.9836358920179
 21
446.9245229860583
 31
0.0
 70
    32
 71
     5
 42
34.0
  3
AM_ISO$0
100
AcDbAlignedDimension
 13
200.9836358920179
 23
452.9745229860583
 33
0.0
 14
234.9836358920179
 24
465.9745229860583
 34
0.0
100
AcDbRotatedDimension
1001
ACAD
1000
DSTYLE
1002
{
1070
    40
1040
1.0
1070
   144
1040
1.0
1070
   272
1070
     8
1002
}
  0
DIMENSION
  5
5284
330
1F
100
AcDbEntity
  8
AM_5
100
AcDbDimension
  2
*D9
 10
167.9836358920179
 20
469.9745229860583
 30
0.0
 11
165.5336358920178
 21
463.4745229860583
 31
0.0
 70
    32
 71
     5
 42
13.0
  3
AM_ISO$0
100
AcDbAlignedDimension
 13
196.9836358920179
 23
456.9745229860583
 33
0.0
 14
230.9836358920179
 24
469.9745229860583
 34
0.0
 50
90.0
100
AcDbRotatedDimension
1001
ACAD
1000
DSTYLE
1002
{
1070
    40
1040
1.0
1070
   144
1040
1.0
1070
   272
1070
     8
1002
}
  0
TEXT
  5
5285
330
1F
100
AcDbEntity
  8
AM_5
100
AcDbText
 10
243.6540622488718
 20
483.2261343698644
 30
0.0
 40
3.5
  1
2-%%c3.2
100
AcDbText
  0
INSERT
  5
5286
330
1F
100
AcDbEntity
  8
AM_5
100
AcDbBlockReference
  2
*S21
 10
0.0
 20
0.0
 30
0.0
  0
DIMENSION
  5
5287
330
1F
100
AcDbEntity
  8
AM_5
100
AcDbDimension
  2
*D10
 10
257.9836358920179
 20
436.4745229860582
 30
0.0
 11
217.9836358920179
 21
438.9245229860581
 31
0.0
 70
    32
 71
     5
 42
80.0
  3
AM_ISO$0
100
AcDbAlignedDimension
 13
177.9836358920179
 23
454.4745229860583
 33
0.0
 14
257.9836358920179
 24
454.4745229860583
 34
0.0
100
AcDbRotatedDimension
1001
ACAD
1000
DSTYLE
1002
{
1070
    40
1040
1.0
1070
   144
1040
1.0
1002
}
  0
DIMENSION
  5
5288
330
1F
100
AcDbEntity
  8
AM_5
100
AcDbDimension
  2
*D11
 10
267.983635892018
 20
417.45577474415
 30
0.0
 11
265.5332914038289
 21
403.95577474415
 31
0.0
 70
    32
 71
     5
 42
27.0
  3
AM_ISO$0
100
AcDbAlignedDimension
 13
257.983635892018
 23
390.4557747441501
 33
0.0
 14
257.983635892018
 24
417.45577474415
 34
0.0
 50
90.0
100
AcDbRotatedDimension
1001
ACAD
1000
DSTYLE
1002
{
1070
    40
1040
1.0
1070
   144
1040
1.0
1070
   272
1070
     8
1002
}
  0
DIMENSION
  5
5289
330
1F
100
AcDbEntity
  8
AM_5
100
AcDbDimension
  2
*D12
 10
225.2336358920179
 20
379.0116244124899
 30
0.0
 11
217.983635892018
 21
381.4616244124899
 31
0.0
 70
    32
 71
     5
 42
14.5
  3
AM_ISO$0
100
AcDbAlignedDimension
 13
210.7336358920179
 23
392.85577474415
 33
0.0
 14
225.2336358920179
 24
392.85577474415
 34
0.0
100
AcDbRotatedDimension
1001
ACAD
1000
DSTYLE
1002
{
1070
    40
1040
1.0
1070
   144
1040
1.0
1070
   272
1070
     8
1002
}
  0
DIMENSION
  5
528A
330
1F
100
AcDbEntity
  8
AM_5
100
AcDbDimension
  2
*D13
 10
201.2682636100828
 20
395.4557747441501
 30
0.0
 11
198.8182636100827
 21
392.9557747441501
 31
0.0
 70
    32
 71
     5
 42
5.0
  3
AM_ISO$0
100
AcDbAlignedDimension
 13
196.9836358920179
 23
390.4557747441501
 33
0.0
 14
207.6336358920179
 24
395.4557747441501
 34
0.0
 50
90.0
100
AcDbRotatedDimension
1001
ACAD
1000
DSTYLE
1002
{
1070
    40
1040
1.0
1070
   144
1040
1.0
1002
}
  0
DIMENSION
  5
528B
330
1F
100
AcDbEntity
  8
AM_5
100
AcDbDimension
  2
*D14
 10
206.9043716455456
 20
414.45577474415
 30
0.0
 11
206.9043716455455
 21
424.9282621175654
 31
0.0
 70
   160
 71
     5
 42
3.0
  3
AM_ISO$0
100
AcDbAlignedDimension
 13
203.983635892018
 23
417.45577474415
 33
0.0
 14
203.983635892018
 24
414.45577474415
 34
0.0
 50
90.0
100
AcDbRotatedDimension
1001
ACAD
1000
DSTYLE
1002
{
1070
    40
1040
1.0
1070
   144
1040
1.0
1002
}
  0
TEXT
  5
528C
330
1F
100
AcDbEntity
  8
AM_5
100
AcDbText
 10
234.9551007536001
 20
380.5167176352814
 30
0.0
 40
3.5
  1
2-%%c3.2
100
AcDbText
  0
INSERT
  5
528D
330
1F
100
AcDbEntity
  8
AM_5
100
AcDbBlockReference
  2
*S22
 10
0.0
 20
0.0
 30
0.0
  0
DIMENSION
  5
528E
330
1F
100
AcDbEntity
  8
AM_5
100
AcDbDimension
  2
*D15
 10
203.483635892018
 20
324.537653571064
 30
0.0
 11
190.7336358920179
 21
326.987998059253
 31
0.0
 70
    32
 71
     5
 42
25.5
  3
AM_ISO$0
100
AcDbAlignedDimension
 13
177.9836358920179
 23
334.537653571064
 33
0.0
 14
203.483635892018
 24
336.787653571064
 34
0.0
100
AcDbRotatedDimension
1001
ACAD
1000
DSTYLE
1002
{
1070
    40
1040
1.0
1070
   144
1040
1.0
1070
   272
1070
     8
1002
}
  0
DIMENSION
  5
528F
330
1F
100
AcDbEntity
  8
AM_5
100
AcDbDimension
  2
*D16
 10
232.483635892018
 20
324.537653571064
 30
0.0
 11
217.983635892018
 21
326.987998059253
 31
0.0
 70
    32
 71
     5
 42
29.0
  3
AM_ISO$0
100
AcDbAlignedDimension
 13
203.483635892018
 23
336.787653571064
 33
0.0
 14
232.483635892018
 24
337.787653571064
 34
0.0
100
AcDbRotatedDimension
1001
ACAD
1000
DSTYLE
1002
{
1070
    40
1040
1.0
1070
   144
1040
1.0
1070
   272
1070
     8
1002
}
  0
DIMENSION
  5
5290
330
1F
100
AcDbEntity
  8
AM_5
100
AcDbDimension
  2
*D17
 10
217.983635892018
 20
362.637654571064
 30
0.0
 11
197.9836358920179
 21
365.087654571064
 31
0.0
 70
    32
 71
     5
 42
40.0
  3
AM_ISO$0
100
AcDbAlignedDimension
 13
177.9836358920179
 23
352.537653571064
 33
0.0
 14
217.983635892018
 24
349.787653571064
 34
0.0
100
AcDbRotatedDimension
1001
ACAD
1000
DSTYLE
1002
{
1070
    40
1040
1.0
1070
   144
1040
1.0
1002
}
  0
DIMENSION
  5
5291
330
1F
100
AcDbEntity
  8
AM_5
100
AcDbDimension
  2
*D18
 10
267.983635892018
 20
344.037653571064
 30
0.0
 11
265.5336358920179
 21
353.2615188972353
 31
0.0
 70
    32
 71
     5
 42
0.5
  3
AM_ISO$0
100
AcDbAlignedDimension
 13
261.09282096956
 23
343.537653571064
 33
0.0
 14
238.733635892018
 24
344.037653571064
 34
0.0
 50
90.0
100
AcDbRotatedDimension
1001
ACAD
1000
DSTYLE
1002
{
1070
    40
1040
1.0
1070
   144
1040
1.0
1002
}
  0
TEXT
  5
5292
330
1F
100
AcDbEntity
  8
AM_5
100
AcDbText
 10
246.4573980851591
 20
359.7012688954225
 30
0.0
 40
3.5
  1
3-PT1/8
100
AcDbText
  0
INSERT
  5
5293
330
1F
100
AcDbEntity
  8
AM_5
100
AcDbBlockReference
  2
*S23
 10
0.0
 20
0.0
 30
0.0
  0
TEXT
  5
5294
330
1F
100
AcDbEntity
  8
AM_5
100
AcDbText
 10
239.4540579106468
 20
444.9484037239059
 30
0.0
 40
3.5
  1
2-PT1/8
100
AcDbText
  0
INSERT
  5
5295
330
1F
100
AcDbEntity
  8
AM_5
100
AcDbBlockReference
  2
*S24
 10
0.0
 20
0.0
 30
0.0
  0
DIMENSION
  5
5296
102
{ACAD_XDICTIONARY
360
5297
102
}
102
{ACAD_REACTORS
330
5298
102
}
330
1F
100
AcDbEntity
  8
AM_5
100
AcDbDimension
  2
*D19
 10
167.9836358920179
 20
343.037653571064
 30
0.0
 11
165.5336358920179
 21
333.8137882448928
 31
0.0
 70
    32
 71
     5
 42
0.5
  3
AM_ISO$0
100
AcDbAlignedDimension
 13
183.8253831921865
 23
343.537653571064
 33
0.0
 14
197.2336358920179
 24
343.037653571064
 34
0.0
 50
90.0
100
AcDbRotatedDimension
1001
ACAD
1000
DSTYLE
1002
{
1070
    40
1040
1.0
1070
   144
1040
1.0
1002
}
  0
LINE
  5
5299
330
1F
100
AcDbEntity
  8
AM_VIS
100
AcDbLine
 10
180.3836358920179
 20
334.4376535710639
 30
0.0
 11
180.9836358920179
 21
334.4376535710639
 31
0.0
  0
LINE
  5
529A
330
1F
100
AcDbEntity
  8
AM_VIS
100
AcDbLine
 10
180.3836358920179
 20
334.537653571064
 30
0.0
 11
180.3836358920179
 21
334.4376535710639
 31
0.0
  0
LINE
  5
529B
330
1F
100
AcDbEntity
  8
AM_VIS
100
AcDbLine
 10
180.9836358920179
 20
334.537653571064
 30
0.0
 11
180.9836358920179
 21
334.4376535710639
 31
0.0
  0
LINE
  5
529C
330
1F
100
AcDbEntity
  8
AM_VIS
100
AcDbLine
 10
177.9836358920179
 20
334.537653571064
 30
0.0
 11
177.9836358920179
 21
352.537653571064
 31
0.0
  0
LINE
  5
529D
330
1F
100
AcDbEntity
  8
AM_VIS
100
AcDbLine
 10
194.9836358920179
 20
352.537653571064
 30
0.0
 11
177.9836358920179
 21
352.537653571064
 31
0.0
  0
LINE
  5
529E
330
1F
100
AcDbEntity
  8
AM_VIS
100
AcDbLine
 10
194.9836358920179
 20
334.537653571064
 30
0.0
 11
194.9836358920179
 21
352.537653571064
 31
0.0
  0
LINE
  5
529F
330
1F
100
AcDbEntity
  8
AM_VIS
100
AcDbLine
 10
194.9836358920179
 20
334.537653571064
 30
0.0
 11
177.9836358920179
 21
334.537653571064
 31
0.0
  0
LINE
  5
52A0
330
1F
100
AcDbEntity
  8
AM_VIS
100
AcDbLine
 10
194.9836358920179
 20
335.037653571064
 30
0.0
 11
194.9836358920179
 21
352.037653571064
 31
0.0
  0
LINE
  5
52A1
330
1F
100
AcDbEntity
  8
AM_VIS
100
AcDbLine
 10
179.5601843024852
 20
334.6096962501105
 30
0.0
 11
180.3836358920179
 21
334.537653571064
 31
0.0
  0
LINE
  5
52A2
330
1F
100
AcDbEntity
  8
AM_VIS
100
AcDbLine
 10
179.5601843024852
 20
339.4656108920175
 30
0.0
 11
180.3836358920179
 21
339.537653571064
 31
0.0
  0
LINE
  5
52A3
330
1F
100
AcDbEntity
  8
AM_VIS
100
AcDbLine
 10
178.518333779305
 20
335.687653571064
 30
0.0
 11
178.5309939857706
 21
335.6975499469077
 31
0.0
  0
ARC
  5
52A4
330
1F
100
AcDbEntity
  8
AM_VIS
100
AcDbCircle
 10
182.2836358920179
 20
337.037653571064
 30
0.0
 40
3.984745788629432
100
AcDbArc
 50
160.3478770841349
 51
168.9838463654476
  0
LINE
  5
52A5
330
1F
100
AcDbEntity
  8
AM_VIS
100
AcDbLine
 10
178.5309939857706
 20
338.3777571952204
 30
0.0
 11
178.518333779305
 21
338.3876535710641
 31
0.0
  0
LINE
  5
52A6
330
1F
100
AcDbEntity
  8
AM_VIS
100
AcDbLine
 10
178.5309939857708
 20
337.3866535710661
 30
0.0
 11
178.3723156238731
 21
337.3866535710661
 31
0.0
  0
LINE
  5
52A7
330
1F
100
AcDbEntity
  8
AM_VIS
100
AcDbLine
 10
178.3723156238731
 20
336.688653571066
 30
0.0
 11
178.5309939857705
 21
336.688653571066
 31
0.0
  0
ELLIPSE
  5
52A8
330
1F
100
AcDbEntity
  8
AM_VIS
100
AcDbEllipse
 10
181.5105505030142
 20
337.037653571064
 30
0.0
 11
0.0
 21
3.797925352448571
 31
0.0
210
0.0
220
0.0
230
1.0
 40
0.7878555911532165
 41
1.478774232153783
 42
1.662818421434965
  0
ARC
  5
52A9
330
1F
100
AcDbEntity
  8
AM_VIS
100
AcDbCircle
 10
182.2836358920179
 20
337.037653571064
 30
0.0
 40
3.984745788629432
100
AcDbArc
 50
191.0161536345523
 51
199.652122915865
  0
LINE
  5
52AA
330
1F
100
AcDbEntity
  8
AM_VIS
100
AcDbLine
 10
178.3723156238731
 20
336.2762254654624
 30
0.0
 11
178.3723156238731
 21
336.688653571066
 31
0.0
  0
LINE
  5
52AB
330
1F
100
AcDbEntity
  8
AM_VIS
100
AcDbLine
 10
178.3723156238731
 20
337.3866535710661
 30
0.0
 11
178.3723156238731
 21
337.7990816766657
 31
0.0
  0
ARC
  5
52AC
330
1F
100
AcDbEntity
  8
AM_VIS
100
AcDbCircle
 10
179.6473400452328
 20
335.6058909482023
 30
0.0
 40
1.0
100
AcDbArc
 50
208.5062230151612
 51
265.0000000000003
  0
ARC
  5
52AD
330
1F
100
AcDbEntity
  8
AM_VIS
100
AcDbCircle
 10
179.6473400452328
 20
338.4694161939257
 30
0.0
 40
1.0
100
AcDbArc
 50
94.99999999999975
 51
151.4937769848388
  0
ARC
  5
52AE
330
1F
100
AcDbEntity
  8
AM_VIS
100
AcDbCircle
 10
182.2836358920179
 20
337.037653571064
 30
0.0
 40
4.0
100
AcDbArc
 50
151.4937769848388
 51
160.2753664413002
  0
ARC
  5
52AF
330
1F
100
AcDbEntity
  8
AM_VIS
100
AcDbCircle
 10
182.2836358920179
 20
337.037653571064
 30
0.0
 40
4.0
100
AcDbArc
 50
199.7246335587009
 51
208.5062230151612
  0
LINE
  5
52B0
330
1F
100
AcDbEntity
  8
AM_VIS
100
AcDbLine
 10
180.3836358920179
 20
334.437653571064
 30
0.0
 11
180.9836358920179
 21
334.437653571064
 31
0.0
  0
LINE
  5
52B1
330
1F
100
AcDbEntity
  8
AM_VIS
100
AcDbLine
 10
180.3836358920179
 20
339.637653571064
 30
0.0
 11
180.9836358920179
 21
339.637653571064
 31
0.0
  0
LINE
  5
52B2
330
1F
100
AcDbEntity
  8
AM_VIS
100
AcDbLine
 10
180.3836358920179
 20
334.437653571064
 30
0.0
 11
180.3836358920179
 21
339.637653571064
 31
0.0
  0
LINE
  5
52B3
330
1F
100
AcDbEntity
  8
AM_VIS
100
AcDbLine
 10
180.9836358920179
 20
336.3235107282097
 30
0.0
 11
180.9836358920179
 21
337.7517964139183
 31
0.0
  0
LINE
  5
52B4
330
1F
100
AcDbEntity
  8
AM_VIS
100
AcDbLine
 10
180.9836358920179
 20
334.437653571064
 30
0.0
 11
180.9836358920179
 21
334.537653571064
 31
0.0
  0
LINE
  5
52B5
330
1F
100
AcDbEntity
  8
AM_VIS
100
AcDbLine
 10
180.9836358920179
 20
340.037653571064
 30
0.0
 11
180.9836358920179
 21
337.7517964139183
 31
0.0
  0
LINE
  5
52B6
330
1F
100
AcDbEntity
  8
AM_VIS
100
AcDbLine
 10
180.9836358920179
 20
336.3235107282098
 30
0.0
 11
180.9836358920179
 21
334.537653571064
 31
0.0
  0
LINE
  5
52B7
330
1F
100
AcDbEntity
  8
AM_VIS
100
AcDbLine
 10
177.9836358920179
 20
340.037653571064
 30
0.0
 11
180.9836358920179
 21
340.037653571064
 31
0.0
  0
LINE
  5
52B8
330
1F
100
AcDbEntity
  8
AM_VIS
100
AcDbLine
 10
180.3836358920179
 20
334.537653571064
 30
0.0
 11
177.9836358920179
 21
334.537653571064
 31
0.0
  0
LINE
  5
52B9
330
1F
100
AcDbEntity
  8
AM_VIS
100
AcDbLine
 10
177.9836358920179
 20
334.537653571064
 30
0.0
 11
177.9836358920179
 21
337.287653571064
 31
0.0
  0
LINE
  5
52BA
330
1F
100
AcDbEntity
  8
AM_VIS
100
AcDbLine
 10
177.9836358920179
 20
340.037653571064
 30
0.0
 11
177.9836358920179
 21
337.287653571064
 31
0.0
  0
ELLIPSE
  5
52BB
330
1F
100
AcDbEntity
  8
AM_VIS
100
AcDbEllipse
 10
180.6539386016833
 20
414.95577474415
 30
0.0
 11
7.143441290581794
 21
-0.0000000000000006
 31
0.0
210
0.0
220
0.0
230
-1.0
 40
0.3639702342662129
 41
4.712388980384689
 42
4.758559228246635
  0
LINE
  5
52BC
330
1F
100
AcDbEntity
  8
AM_VIS
100
AcDbLine
 10
180.3836358920179
 20
417.55577474415
 30
0.0
 11
180.6539386016833
 21
417.55577474415
 31
0.0
  0
LINE
  5
52BD
330
1F
100
AcDbEntity
  8
AM_VIS
100
AcDbLine
 10
180.3836358920179
 20
417.55577474415
 30
0.0
 11
180.3836358920179
 21
417.45577474415
 31
0.0
  0
LINE
  5
52BE
330
1F
100
AcDbEntity
  8
AM_VIS
100
AcDbLine
 10
180.9836358920179
 20
417.5530040370697
 30
0.0
 11
180.9836358920179
 21
417.45577474415
 31
0.0
  0
LINE
  5
52BF
330
1F
100
AcDbEntity
  8
AM_VIS
100
AcDbLine
 10
194.9836358920179
 20
390.4557747441501
 30
0.0
 11
177.983635892018
 21
390.4557747441501
 31
0.0
  0
LINE
  5
52C0
330
1F
100
AcDbEntity
  8
AM_VIS
100
AcDbLine
 10
194.9836358920179
 20
417.45577474415
 30
0.0
 11
177.9836358920179
 21
417.45577474415
 31
0.0
  0
LINE
  5
52C1
330
1F
100
AcDbEntity
  8
AM_VIS
100
AcDbLine
 10
177.983635892018
 20
390.4557747441501
 30
0.0
 11
177.9836358920179
 21
417.45577474415
 31
0.0
  0
LINE
  5
52C2
330
1F
100
AcDbEntity
  8
AM_VIS
100
AcDbLine
 10
194.9836358920179
 20
390.4557747441501
 30
0.0
 11
194.9836358920179
 21
417.45577474415
 31
0.0
  0
LINE
  5
52C3
330
1F
100
AcDbEntity
  8
AM_VIS
100
AcDbLine
 10
194.9836358920179
 20
390.9557747441501
 30
0.0
 11
194.9836358920179
 21
416.95577474415
 31
0.0
  0
LINE
  5
52C4
330
1F
100
AcDbEntity
  8
AM_VIS
100
AcDbLine
 10
179.5601843024852
 20
412.0278174231966
 30
0.0
 11
180.3836358920179
 21
411.9557747441501
 31
0.0
  0
LINE
  5
52C5
330
1F
100
AcDbEntity
  8
AM_VIS
100
AcDbLine
 10
179.5601843024852
 20
416.8837320651036
 30
0.0
 11
180.3836358920179
 21
416.95577474415
 31
0.0
  0
LINE
  5
52C6
330
1F
100
AcDbEntity
  8
AM_VIS
100
AcDbLine
 10
178.3723156238731
 20
414.1067747441501
 30
0.0
 11
178.5309939857706
 21
414.1067747441501
 31
0.0
  0
ELLIPSE
  5
52C7
330
1F
100
AcDbEntity
  8
AM_VIS
100
AcDbEllipse
 10
181.5105505030143
 20
414.4557747441501
 30
0.0
 11
0.0
 21
3.797925352448601
 31
0.0
210
0.0
220
0.0
230
1.0
 40
0.7878555911532376
 41
1.478774232154307
 42
1.662818421435485
  0
LINE
  5
52C8
330
1F
100
AcDbEntity
  8
AM_VIS
100
AcDbLine
 10
178.518333779305
 20
413.10577474415
 30
0.0
 11
178.5309939857705
 21
413.1156711199936
 31
0.0
  0
ARC
  5
52C9
330
1F
100
AcDbEntity
  8
AM_VIS
100
AcDbCircle
 10
182.2836358920179
 20
414.4557747441501
 30
0.0
 40
3.984745788629608
100
AcDbArc
 50
160.3478770841349
 51
168.9838463654374
  0
ARC
  5
52CA
330
1F
100
AcDbEntity
  8
AM_VIS
100
AcDbCircle
 10
182.2836358920179
 20
414.4557747441501
 30
0.0
 40
3.984745788629608
100
AcDbArc
 50
191.0161536345626
 51
199.652122915865
  0
LINE
  5
52CB
330
1F
100
AcDbEntity
  8
AM_VIS
100
AcDbLine
 10
178.5309939857705
 20
415.7958783683065
 30
0.0
 11
178.518333779305
 21
415.8057747441501
 31
0.0
  0
LINE
  5
52CC
330
1F
100
AcDbEntity
  8
AM_VIS
100
AcDbLine
 10
178.5309939857706
 20
414.80477474415
 30
0.0
 11
178.3723156238731
 21
414.80477474415
 31
0.0
  0
LINE
  5
52CD
330
1F
100
AcDbEntity
  8
AM_VIS
100
AcDbLine
 10
178.3723156238731
 20
413.6943466385475
 30
0.0
 11
178.3723156238731
 21
414.1067747441501
 31
0.0
  0
LINE
  5
52CE
330
1F
100
AcDbEntity
  8
AM_VIS
100
AcDbLine
 10
178.3723156238731
 20
414.8047747441501
 30
0.0
 11
178.3723156238731
 21
415.2172028497526
 31
0.0
  0
ARC
  5
52CF
330
1F
100
AcDbEntity
  8
AM_VIS
100
AcDbCircle
 10
179.6473400452328
 20
413.0240121212883
 30
0.0
 40
1.0
100
AcDbArc
 50
208.5062230151612
 51
265.0000000000003
  0
ARC
  5
52D0
330
1F
100
AcDbEntity
  8
AM_VIS
100
AcDbCircle
 10
179.6473400452328
 20
415.8875373670118
 30
0.0
 40
1.0
100
AcDbArc
 50
94.99999999999975
 51
151.4937769848388
  0
ARC
  5
52D1
330
1F
100
AcDbEntity
  8
AM_VIS
100
AcDbCircle
 10
182.2836358920179
 20
414.4557747441501
 30
0.0
 40
4.0
100
AcDbArc
 50
151.4937769848388
 51
160.2753664413002
  0
ARC
  5
52D2
330
1F
100
AcDbEntity
  8
AM_VIS
100
AcDbCircle
 10
182.2836358920179
 20
414.4557747441501
 30
0.0
 40
4.0
100
AcDbArc
 50
199.7246335587009
 51
208.5062230151612
  0
ELLIPSE
  5
52D3
330
1F
100
AcDbEntity
  8
AM_VIS
100
AcDbEllipse
 10
180.6539386016833
 20
414.4557747441501
 30
0.0
 11
7.143441290581794
 21
0.0000000000000006
 31
0.0
210
0.0
220
0.0
230
1.0
 40
0.3639702342662129
 41
4.712388980384691
 42
4.758559228246637
  0
LINE
  5
52D4
330
1F
100
AcDbEntity
  8
AM_VIS
100
AcDbLine
 10
180.3836358920179
 20
411.8557747441501
 30
0.0
 11
180.6539386016833
 21
411.8557747441501
 31
0.0
  0
LINE
  5
52D5
330
1F
100
AcDbEntity
  8
AM_VIS
100
AcDbLine
 10
180.3836358920179
 20
417.0557747441501
 30
0.0
 11
180.9836358920179
 21
417.0557747441501
 31
0.0
  0
LINE
  5
52D6
330
1F
100
AcDbEntity
  8
AM_VIS
100
AcDbLine
 10
180.3836358920179
 20
411.8557747441501
 30
0.0
 11
180.3836358920179
 21
417.0557747441501
 31
0.0
  0
LINE
  5
52D7
330
1F
100
AcDbEntity
  8
AM_VIS
100
AcDbLine
 10
180.9836358920179
 20
416.95577474415
 30
0.0
 11
180.9836358920179
 21
417.0557747441501
 31
0.0
  0
LINE
  5
52D8
330
1F
100
AcDbEntity
  8
AM_VIS
100
AcDbLine
 10
180.9836358920179
 20
413.7416319012959
 30
0.0
 11
180.9836358920179
 21
415.1699175870044
 31
0.0
  0
LINE
  5
52D9
330
1F
100
AcDbEntity
  8
AM_VIS
100
AcDbLine
 10
180.9836358920179
 20
416.95577474415
 30
0.0
 11
180.9836358920179
 21
415.1699175870043
 31
0.0
  0
LINE
  5
52DA
330
1F
100
AcDbEntity
  8
AM_VIS
100
AcDbLine
 10
180.9836358920179
 20
413.7416319012959
 30
0.0
 11
180.9836358920179
 21
411.4557747441501
 31
0.0
  0
LINE
  5
52DB
330
1F
100
AcDbEntity
  8
AM_VIS
100
AcDbLine
 10
177.9836358920179
 20
414.2057747441501
 30
0.0
 11
177.9836358920179
 21
416.95577474415
 31
0.0
  0
LINE
  5
52DC
330
1F
100
AcDbEntity
  8
AM_VIS
100
AcDbLine
 10
177.9836358920179
 20
416.95577474415
 30
0.0
 11
180.3836358920179
 21
416.95577474415
 31
0.0
  0
LINE
  5
52DD
330
1F
100
AcDbEntity
  8
AM_VIS
100
AcDbLine
 10
180.9836358920179
 20
411.4557747441501
 30
0.0
 11
177.9836358920179
 21
411.4557747441501
 31
0.0
  0
LINE
  5
52DE
330
1F
100
AcDbEntity
  8
AM_VIS
100
AcDbLine
 10
177.9836358920179
 20
414.2057747441501
 30
0.0
 11
177.9836358920179
 21
411.4557747441501
 31
0.0
  0
LINE
  5
52DF
330
1F
100
AcDbEntity
  8
AM_VIS
100
AcDbLine
 10
177.9836358920179
 20
454.4745229860583
 30
0.0
 11
177.9836358920179
 21
472.4745229860582
 31
0.0
  0
LINE
  5
52E0
330
1F
100
AcDbEntity
  8
AM_VIS
100
AcDbLine
 10
194.9836358920179
 20
454.4745229860583
 30
0.0
 11
177.9836358920179
 21
454.4745229860583
 31
0.0
  0
LINE
  5
52E1
330
1F
100
AcDbEntity
  8
AM_VIS
100
AcDbLine
 10
194.9836358920179
 20
472.4745229860583
 30
0.0
 11
177.9836358920179
 21
472.4745229860582
 31
0.0
  0
LINE
  5
52E2
330
1F
100
AcDbEntity
  8
AM_VIS
100
AcDbLine
 10
179.5601843024851
 20
454.5465656651048
 30
0.0
 11
180.3836358920179
 21
454.4745229860583
 31
0.0
  0
LINE
  5
52E3
330
1F
100
AcDbEntity
  8
AM_VIS
100
AcDbLine
 10
179.5601843024851
 20
459.4024803070118
 30
0.0
 11
180.3836358920179
 21
459.4745229860583
 31
0.0
  0
LINE
  5
52E4
330
1F
100
AcDbEntity
  8
AM_VIS
100
AcDbLine
 10
180.3836358920179
 20
456.8761408454986
 30
0.0
 11
180.3836358920179
 21
456.6361408454985
 31
0.0
  0
ARC
  5
52E5
330
1F
100
AcDbEntity
  8
AM_VIS
100
AcDbCircle
 10
182.2836358920178
 20
456.9745229860583
 30
0.0
 40
3.984745788629432
100
AcDbArc
 50
160.3478770841349
 51
168.9838463654476
  0
LINE
  5
52E6
330
1F
100
AcDbEntity
  8
AM_VIS
100
AcDbLine
 10
178.5309939857706
 20
458.3146266102146
 30
0.0
 11
178.5183337793049
 21
458.3245229860583
 31
0.0
  0
LINE
  5
52E7
330
1F
100
AcDbEntity
  8
AM_VIS
100
AcDbLine
 10
178.5183337793049
 20
455.6245229860583
 30
0.0
 11
178.5309939857706
 21
455.6344193619019
 31
0.0
  0
ELLIPSE
  5
52E8
330
1F
100
AcDbEntity
  8
AM_VIS
100
AcDbEllipse
 10
181.5105505030142
 20
456.9745229860583
 30
0.0
 11
0.0
 21
3.797925352448569
 31
0.0
210
0.0
220
0.0
230
1.0
 40
0.7878555911532167
 41
1.478774232154828
 42
1.662818421436009
  0
LINE
  5
52E9
330
1F
100
AcDbEntity
  8
AM_VIS
100
AcDbLine
 10
178.5309939857704
 20
457.3235229860563
 30
0.0
 11
178.3723156238731
 21
457.3235229860563
 31
0.0
  0
LINE
  5
52EA
330
1F
100
AcDbEntity
  8
AM_VIS
100
AcDbLine
 10
178.3723156238731
 20
456.6255229860563
 30
0.0
 11
178.5309939857708
 21
456.6255229860563
 31
0.0
  0
ARC
  5
52EB
330
1F
100
AcDbEntity
  8
AM_VIS
100
AcDbCircle
 10
182.2836358920178
 20
456.9745229860583
 30
0.0
 40
3.984745788629432
100
AcDbArc
 50
191.0161536345523
 51
199.652122915865
  0
LINE
  5
52EC
330
1F
100
AcDbEntity
  8
AM_VIS
100
AcDbLine
 10
178.3723156238731
 20
456.2130948804568
 30
0.0
 11
178.3723156238731
 21
456.6255229860563
 31
0.0
  0
LINE
  5
52ED
330
1F
100
AcDbEntity
  8
AM_VIS
100
AcDbLine
 10
178.3723156238731
 20
457.3235229860563
 30
0.0
 11
178.3723156238731
 21
457.7359510916599
 31
0.0
  0
ARC
  5
52EE
330
1F
100
AcDbEntity
  8
AM_VIS
100
AcDbCircle
 10
179.6473400452328
 20
455.5427603631966
 30
0.0
 40
1.0
100
AcDbArc
 50
208.5062230151612
 51
265.0000000000003
  0
ARC
  5
52EF
330
1F
100
AcDbEntity
  8
AM_VIS
100
AcDbCircle
 10
179.6473400452328
 20
458.40628560892
 30
0.0
 40
1.0
100
AcDbArc
 50
94.99999999999975
 51
151.4937769848388
  0
ARC
  5
52F0
330
1F
100
AcDbEntity
  8
AM_VIS
100
AcDbCircle
 10
182.2836358920178
 20
456.9745229860583
 30
0.0
 40
4.0
100
AcDbArc
 50
199.7246335586997
 51
208.5062230151612
  0
ARC
  5
52F1
330
1F
100
AcDbEntity
  8
AM_VIS
100
AcDbCircle
 10
182.2836358920178
 20
456.9745229860583
 30
0.0
 40
4.0
100
AcDbArc
 50
151.4937769848388
 51
160.2753664413002
  0
LINE
  5
52F2
330
1F
100
AcDbEntity
  8
AM_VIS
100
AcDbLine
 10
180.9836358920179
 20
457.0945229860583
 30
0.0
 11
180.3836358920179
 21
456.8761408454986
 31
0.0
  0
LINE
  5
52F3
330
1F
100
AcDbEntity
  8
AM_VIS
100
AcDbLine
 10
180.3836358920179
 20
456.6361408454985
 30
0.0
 11
180.9836358920179
 21
456.8545229860583
 31
0.0
  0
LINE
  5
52F4
330
1F
100
AcDbEntity
  8
AM_VIS
100
AcDbLine
 10
180.3836358920179
 20
454.3745229860583
 30
0.0
 11
180.9836358920179
 21
454.3745229860583
 31
0.0
  0
LINE
  5
52F5
330
1F
100
AcDbEntity
  8
AM_VIS
100
AcDbLine
 10
180.3836358920179
 20
459.5745229860583
 30
0.0
 11
180.9836358920179
 21
459.5745229860583
 31
0.0
  0
LINE
  5
52F6
330
1F
100
AcDbEntity
  8
AM_VIS
100
AcDbLine
 10
180.3836358920179
 20
454.3745229860583
 30
0.0
 11
180.3836358920179
 21
456.6361408454985
 31
0.0
  0
LINE
  5
52F7
330
1F
100
AcDbEntity
  8
AM_VIS
100
AcDbLine
 10
180.3836358920179
 20
456.8761408454986
 30
0.0
 11
180.3836358920179
 21
459.5745229860583
 31
0.0
  0
LINE
  5
52F8
330
1F
100
AcDbEntity
  8
AM_VIS
100
AcDbLine
 10
180.9836358920179
 20
456.260380143204
 30
0.0
 11
180.9836358920179
 21
456.8545229860583
 31
0.0
  0
LINE
  5
52F9
330
1F
100
AcDbEntity
  8
AM_VIS
100
AcDbLine
 10
180.9836358920179
 20
454.3745229860583
 30
0.0
 11
180.9836358920179
 21
454.4745229860583
 31
0.0
  0
LINE
  5
52FA
330
1F
100
AcDbEntity
  8
AM_VIS
100
AcDbLine
 10
180.9836358920179
 20
457.0945229860583
 30
0.0
 11
180.9836358920179
 21
457.6886658289125
 31
0.0
  0
LINE
  5
52FB
330
1F
100
AcDbEntity
  8
AM_VIS
100
AcDbLine
 10
180.9836358920179
 20
459.9745229860583
 30
0.0
 11
180.9836358920179
 21
457.6886658289125
 31
0.0
  0
LINE
  5
52FC
330
1F
100
AcDbEntity
  8
AM_VIS
100
AcDbLine
 10
180.9836358920179
 20
457.0945229860583
 30
0.0
 11
180.9836358920179
 21
456.8545229860583
 31
0.0
  0
LINE
  5
52FD
330
1F
100
AcDbEntity
  8
AM_VIS
100
AcDbLine
 10
180.9836358920179
 20
456.260380143204
 30
0.0
 11
180.9836358920179
 21
454.4745229860583
 31
0.0
  0
LINE
  5
52FE
330
1F
100
AcDbEntity
  8
AM_VIS
100
AcDbLine
 10
177.9836358920179
 20
459.9745229860583
 30
0.0
 11
180.9836358920179
 21
459.9745229860583
 31
0.0
  0
LINE
  5
52FF
330
1F
100
AcDbEntity
  8
AM_VIS
100
AcDbLine
 10
177.9836358920179
 20
454.4745229860583
 30
0.0
 11
177.9836358920179
 21
457.2245229860583
 31
0.0
  0
LINE
  5
5300
330
1F
100
AcDbEntity
  8
AM_VIS
100
AcDbLine
 10
180.3836358920179
 20
454.4745229860583
 30
0.0
 11
177.9836358920179
 21
454.4745229860583
 31
0.0
  0
LINE
  5
5301
330
1F
100
AcDbEntity
  8
AM_VIS
100
AcDbLine
 10
177.9836358920179
 20
459.9745229860583
 30
0.0
 11
177.9836358920179
 21
457.2245229860583
 31
0.0
  0
LINE
  5
5302
330
1F
100
AcDbEntity
  8
AM_VIS
100
AcDbLine
 10
212.8836358920179
 20
465.4575736070843
 30
0.0
 11
212.8836358920179
 21
463.4745229860583
 31
0.0
  0
LINE
  5
5303
330
1F
100
AcDbEntity
  8
AM_VIS
100
AcDbLine
 10
208.8836358920179
 20
463.4745229860583
 30
0.0
 11
208.8836358920179
 21
466.4868279355361
 31
0.0
  0
LINE
  5
5304
330
1F
100
AcDbEntity
  8
AM_VIS
100
AcDbLine
 10
208.8836358920179
 20
458.4622180365805
 30
0.0
 11
208.8836358920179
 21
463.4745229860583
 31
0.0
  0
LINE
  5
5305
330
1F
100
AcDbEntity
  8
AM_VIS
100
AcDbLine
 10
212.8836358920179
 20
463.4745229860583
 30
0.0
 11
212.8836358920179
 21
459.4914723650322
 31
0.0
  0
LINE
  5
5306
330
1F
100
AcDbEntity
  8
AM_VIS
100
AcDbLine
 10
211.6773274246189
 20
458.6745229860583
 30
0.0
 11
208.8836358920179
 21
458.6745229860583
 31
0.0
  0
ARC
  5
5307
330
1F
100
AcDbEntity
  8
AM_VIS
100
AcDbCircle
 10
209.9836358920179
 20
462.4745229860583
 30
0.0
 40
4.160359480574259
100
AcDbArc
 50
115.6361664333364
 51
244.3638335666636
  0
ARC
  5
5308
330
1F
100
AcDbEntity
  8
AM_VIS
100
AcDbCircle
 10
209.9836358920179
 20
462.4745229860583
 30
0.0
 40
4.160359480574259
100
AcDbArc
 50
329.9181038753546
 51
30.08189612464543
  0
ARC
  5
5309
330
1F
100
AcDbEntity
  8
AM_VIS
100
AcDbCircle
 10
209.9836358920179
 20
462.4745229860583
 30
0.0
 40
4.160359480574259
100
AcDbArc
 50
30.08189612464543
 51
115.6361664333364
  0
CIRCLE
  5
530A
330
1F
100
AcDbEntity
  8
AM_VIS
100
AcDbCircle
 10
209.9836358920179
 20
462.4745229860583
 30
0.0
 40
5.299999999999999
  0
ARC
  5
530B
330
1F
100
AcDbEntity
  8
AM_VIS
100
AcDbCircle
 10
209.9836358920179
 20
462.4745229860583
 30
0.0
 40
4.160359480574259
100
AcDbArc
 50
244.3638335666636
 51
329.9181038753546
  0
LINE
  5
530C
330
1F
100
AcDbEntity
  8
AM_VIS
100
AcDbLine
 10
223.0836358920179
 20
463.4745229860583
 30
0.0
 11
223.0836358920179
 21
467.4575736070844
 31
0.0
  0
LINE
  5
530D
330
1F
100
AcDbEntity
  8
AM_VIS
100
AcDbLine
 10
223.0836358920179
 20
461.4914723650322
 30
0.0
 11
223.0836358920179
 21
463.4745229860583
 31
0.0
  0
LINE
  5
530E
330
1F
100
AcDbEntity
  8
AM_VIS
100
AcDbLine
 10
227.0836358920179
 20
468.4868279355361
 30
0.0
 11
227.0836358920179
 21
463.4745229860583
 31
0.0
  0
LINE
  5
530F
330
1F
100
AcDbEntity
  8
AM_VIS
100
AcDbLine
 10
227.0836358920179
 20
463.4745229860583
 30
0.0
 11
227.0836358920179
 21
460.4622180365804
 31
0.0
  0
LINE
  5
5310
330
1F
100
AcDbEntity
  8
AM_VIS
100
AcDbLine
 10
224.2899443594169
 20
468.2745229860583
 30
0.0
 11
227.0836358920179
 21
468.2745229860583
 31
0.0
  0
ARC
  5
5311
330
1F
100
AcDbEntity
  8
AM_VIS
100
AcDbCircle
 10
225.9836358920179
 20
464.4745229860583
 30
0.0
 40
4.160359480574259
100
AcDbArc
 50
149.9181038753546
 51
210.0818961246454
  0
ARC
  5
5312
330
1F
100
AcDbEntity
  8
AM_VIS
100
AcDbCircle
 10
225.9836358920179
 20
464.4745229860583
 30
0.0
 40
4.160359480574259
100
AcDbArc
 50
295.6361664333364
 51
64.3638335666636
  0
ARC
  5
5313
330
1F
100
AcDbEntity
  8
AM_VIS
100
AcDbCircle
 10
225.9836358920179
 20
464.4745229860583
 30
0.0
 40
4.160359480574259
100
AcDbArc
 50
64.3638335666636
 51
149.9181038753546
  0
CIRCLE
  5
5314
330
1F
100
AcDbEntity
  8
AM_VIS
100
AcDbCircle
 10
225.9836358920179
 20
464.4745229860583
 30
0.0
 40
5.3
  0
ARC
  5
5315
330
1F
100
AcDbEntity
  8
AM_VIS
100
AcDbCircle
 10
225.9836358920179
 20
464.4745229860583
 30
0.0
 40
4.160359480574259
100
AcDbArc
 50
210.0818961246454
 51
295.6361664333364
  0
LINE
  5
5316
330
1F
100
AcDbEntity
  8
AM_7
100
AcDbLine
 10
232.483635892018
 20
344.037653571064
 30
0.0
 11
238.733635892018
 21
344.037653571064
 31
0.0
  0
LINE
  5
5317
330
1F
100
AcDbEntity
  8
AM_7
100
AcDbLine
 10
232.483635892018
 20
344.037653571064
 30
0.0
 11
226.233635892018
 21
344.037653571064
 31
0.0
  0
LINE
  5
5318
330
1F
100
AcDbEntity
  8
AM_7
100
AcDbLine
 10
217.983635892018
 20
343.537653571064
 30
0.0
 11
224.233635892018
 21
343.537653571064
 31
0.0
  0
LINE
  5
5319
330
1F
100
AcDbEntity
  8
AM_7
100
AcDbLine
 10
217.983635892018
 20
343.537653571064
 30
0.0
 11
211.733635892018
 21
343.537653571064
 31
0.0
  0
LINE
  5
531A
330
1F
100
AcDbEntity
  8
AM_7
100
AcDbLine
 10
203.483635892018
 20
343.037653571064
 30
0.0
 11
209.733635892018
 21
343.037653571064
 31
0.0
  0
LINE
  5
531B
330
1F
100
AcDbEntity
  8
AM_7
100
AcDbLine
 10
203.483635892018
 20
343.037653571064
 30
0.0
 11
203.483635892018
 21
349.287653571064
 31
0.0
  0
LINE
  5
531C
330
1F
100
AcDbEntity
  8
AM_7
100
AcDbLine
 10
203.483635892018
 20
343.037653571064
 30
0.0
 11
197.2336358920179
 21
343.037653571064
 31
0.0
  0
LINE
  5
531D
330
1F
100
AcDbEntity
  8
AM_VIS
100
AcDbLine
 10
201.483635892018
 20
343.537653571064
 30
0.0
 11
201.483635892018
 21
346.6857477320752
 31
0.0
  0
LINE
  5
531E
330
1F
100
AcDbEntity
  8
AM_VIS
100
AcDbLine
 10
205.483635892018
 20
346.6857477320752
 30
0.0
 11
205.483635892018
 21
343.537653571064
 31
0.0
  0
LINE
  5
531F
330
1F
100
AcDbEntity
  8
AM_VIS
100
AcDbLine
 10
201.483635892018
 20
339.3895594100527
 30
0.0
 11
201.483635892018
 21
343.537653571064
 31
0.0
  0
LINE
  5
5320
330
1F
100
AcDbEntity
  8
AM_VIS
100
AcDbLine
 10
205.483635892018
 20
343.537653571064
 30
0.0
 11
205.483635892018
 21
339.3895594100527
 31
0.0
  0
LINE
  5
5321
330
1F
100
AcDbEntity
  8
AM_VIS
100
AcDbLine
 10
204.6275725194603
 20
339.037653571064
 30
0.0
 11
202.3396992645757
 21
339.037653571064
 31
0.0
  0
ARC
  5
5322
330
1F
100
AcDbEntity
  8
AM_VIS
100
AcDbCircle
 10
203.483635892018
 20
343.037653571064
 30
0.0
 40
4.160359480574259
100
AcDbArc
 50
136.1446731910419
 51
223.8553268089581
  0
ARC
  5
5323
330
1F
100
AcDbEntity
  8
AM_VIS
100
AcDbCircle
 10
203.483635892018
 20
343.037653571064
 30
0.0
 40
4.160359480574259
100
AcDbArc
 50
316.144673191042
 51
43.85532680895807
  0
ARC
  5
5324
330
1F
100
AcDbEntity
  8
AM_VIS
100
AcDbCircle
 10
203.483635892018
 20
343.037653571064
 30
0.0
 40
4.160359480574259
100
AcDbArc
 50
43.85532680895807
 51
136.1446731910419
  0
CIRCLE
  5
5325
330
1F
100
AcDbEntity
  8
AM_VIS
100
AcDbCircle
 10
203.483635892018
 20
343.037653571064
 30
0.0
 40
5.3
  0
ARC
  5
5326
330
1F
100
AcDbEntity
  8
AM_VIS
100
AcDbCircle
 10
203.483635892018
 20
343.037653571064
 30
0.0
 40
4.160359480574259
100
AcDbArc
 50
223.8553268089581
 51
316.144673191042
  0
LINE
  5
5327
330
1F
100
AcDbEntity
  8
AM_VIS
100
AcDbLine
 10
219.983635892018
 20
341.8673242622149
 30
0.0
 11
219.983635892018
 21
339.8895594100527
 31
0.0
  0
LINE
  5
5328
330
1F
100
AcDbEntity
  8
AM_VIS
100
AcDbLine
 10
219.983635892018
 20
347.1857477320752
 30
0.0
 11
219.983635892018
 21
345.207982879913
 31
0.0
  0
LINE
  5
5329
330
1F
100
AcDbEntity
  8
AM_VIS
100
AcDbLine
 10
215.983635892018
 20
339.8895594100527
 30
0.0
 11
215.983635892018
 21
341.8673242622149
 31
0.0
  0
LINE
  5
532A
330
1F
100
AcDbEntity
  8
AM_VIS
100
AcDbLine
 10
215.983635892018
 20
345.207982879913
 30
0.0
 11
215.983635892018
 21
347.1857477320752
 31
0.0
  0
ARC
  5
532B
330
1F
100
AcDbEntity
  8
AM_VIS
100
AcDbCircle
 10
246.2466631146891
 20
343.537653571064
 30
0.0
 40
30.30908802125414
100
AcDbArc
 50
176.8408376670349
 51
183.159162332965
  0
ARC
  5
532C
330
1F
100
AcDbEntity
  8
AM_VIS
100
AcDbCircle
 10
189.7206086693461
 20
343.537653571064
 30
0.0
 40
30.30908802125488
100
AcDbArc
 50
356.840837667035
 51
3.159162332965065
  0
ARC
  5
532D
330
1F
100
AcDbEntity
  8
AM_VIS
100
AcDbCircle
 10
217.983635892018
 20
343.537653571064
 30
0.0
 40
4.160359480574259
100
AcDbArc
 50
136.1446731910419
 51
223.8553268089581
  0
ARC
  5
532E
330
1F
100
AcDbEntity
  8
AM_VIS
100
AcDbCircle
 10
217.983635892018
 20
343.537653571064
 30
0.0
 40
4.160359480574259
100
AcDbArc
 50
316.144673191042
 51
43.85532680895807
  0
ARC
  5
532F
330
1F
100
AcDbEntity
  8
AM_VIS
100
AcDbCircle
 10
217.983635892018
 20
343.537653571064
 30
0.0
 40
4.160359480574259
100
AcDbArc
 50
223.8553268089581
 51
316.144673191042
  0
CIRCLE
  5
5330
330
1F
100
AcDbEntity
  8
AM_VIS
100
AcDbCircle
 10
217.983635892018
 20
343.537653571064
 30
0.0
 40
5.299999999999999
  0
ARC
  5
5331
330
1F
100
AcDbEntity
  8
AM_VIS
100
AcDbCircle
 10
217.983635892018
 20
343.537653571064
 30
0.0
 40
4.160359480574259
100
AcDbArc
 50
43.85532680895807
 51
136.1446731910419
  0
LINE
  5
5332
330
1F
100
AcDbEntity
  8
AM_VIS
100
AcDbLine
 10
230.483635892018
 20
340.3895594100528
 30
0.0
 11
230.483635892018
 21
343.537653571064
 31
0.0
  0
LINE
  5
5333
330
1F
100
AcDbEntity
  8
AM_VIS
100
AcDbLine
 10
234.483635892018
 20
343.537653571064
 30
0.0
 11
234.483635892018
 21
340.3895594100528
 31
0.0
  0
LINE
  5
5334
330
1F
100
AcDbEntity
  8
AM_VIS
100
AcDbLine
 10
234.483635892018
 20
347.6857477320752
 30
0.0
 11
234.483635892018
 21
343.537653571064
 31
0.0
  0
LINE
  5
5335
330
1F
100
AcDbEntity
  8
AM_VIS
100
AcDbLine
 10
230.483635892018
 20
343.537653571064
 30
0.0
 11
230.483635892018
 21
347.6857477320752
 31
0.0
  0
LINE
  5
5336
330
1F
100
AcDbEntity
  8
AM_VIS
100
AcDbLine
 10
231.3396992645796
 20
348.037653571064
 30
0.0
 11
233.6275725194563
 21
348.037653571064
 31
0.0
  0
ARC
  5
5337
330
1F
100
AcDbEntity
  8
AM_VIS
100
AcDbCircle
 10
232.483635892018
 20
344.037653571064
 30
0.0
 40
4.160359480574259
100
AcDbArc
 50
136.1446731910419
 51
223.8553268089581
  0
ARC
  5
5338
330
1F
100
AcDbEntity
  8
AM_VIS
100
AcDbCircle
 10
232.483635892018
 20
344.037653571064
 30
0.0
 40
4.160359480574259
100
AcDbArc
 50
316.144673191042
 51
43.85532680895807
  0
ARC
  5
5339
330
1F
100
AcDbEntity
  8
AM_VIS
100
AcDbCircle
 10
232.483635892018
 20
344.037653571064
 30
0.0
 40
4.160359480574259
100
AcDbArc
 50
223.8553268089581
 51
316.144673191042
  0
CIRCLE
  5
533A
330
1F
100
AcDbEntity
  8
AM_VIS
100
AcDbCircle
 10
232.483635892018
 20
344.037653571064
 30
0.0
 40
5.299999999999998
  0
ARC
  5
533B
330
1F
100
AcDbEntity
  8
AM_VIS
100
AcDbCircle
 10
232.483635892018
 20
344.037653571064
 30
0.0
 40
4.160359480574259
100
AcDbArc
 50
43.85532680895807
 51
136.1446731910419
  0
LINE
  5
533C
330
1F
100
AcDbEntity
  8
AM_7
100
AcDbLine
 10
217.983635892018
 20
343.537653571064
 30
0.0
 11
217.983635892018
 21
349.787653571064
 31
0.0
  0
LINE
  5
533D
330
1F
100
AcDbEntity
  8
AM_7
100
AcDbLine
 10
217.983635892018
 20
343.537653571064
 30
0.0
 11
217.983635892018
 21
337.287653571064
 31
0.0
  0
LINE
  5
533E
330
1F
100
AcDbEntity
  8
AM_7
100
AcDbLine
 10
203.483635892018
 20
343.037653571064
 30
0.0
 11
203.483635892018
 21
336.787653571064
 31
0.0
  0
DIMENSION
  5
5341
330
1F
100
AcDbEntity
  8
AM_5
100
AcDbDimension
  2
*D5
 10
210.7336358920179
 20
378.95577474415
 30
0.0
 11
194.358635892018
 21
381.4061192323391
 31
0.0
 70
    32
  1
32.8
 71
     5
 42
32.74999999999995
  3
AM_ISO$0
100
AcDbAlignedDimension
 13
177.983635892018
 23
390.4557747441501
 33
0.0
 14
210.7336358920179
 24
392.85577474415
 34
0.0
100
AcDbRotatedDimension
1001
ACAD
1000
DSTYLE
1002
{
1070
   271
1070
     1
1070
   272
1070
     8
1002
}
  0
LINE
  5
5342
330
1F
100
AcDbEntity
  8
AM_0
  6
HIDDEN
 62
     3
 48
0.2
100
AcDbLine
 10
251.783635892018
 20
409.01202474415
 30
0.0
 11
257.983635892018
 21
409.20577474415
 31
0.0
  0
LINE
  5
5343
330
1F
100
AcDbEntity
  8
AM_0
  6
HIDDEN
 62
     3
 48
0.2
100
AcDbLine
 10
251.783635892018
 20
398.8995247441501
 30
0.0
 11
257.983635892018
 21
398.7057747441501
 31
0.0
  0
LINE
  5
5344
330
1F
100
AcDbEntity
  8
AM_0
  6
HIDDEN
 62
     3
 48
0.2
100
AcDbLine
 10
251.783635892018
 20
399.8665247441501
 30
0.0
 11
257.983635892018
 21
399.67277474415
 31
0.0
  0
LINE
  5
5345
330
1F
100
AcDbEntity
  8
AM_0
  6
HIDDEN
 62
     3
 48
0.2
100
AcDbLine
 10
251.783635892018
 20
408.04502474415
 30
0.0
 11
257.983635892018
 21
408.23877474415
 31
0.0
  0
LINE
  5
5346
330
1F
100
AcDbEntity
  8
AM_7
  6
AM_ISO08W050x2
100
AcDbLine
 10
248.8303243868534
 20
403.95577474415
 30
0.0
 11
259.388531891588
 21
403.95577474415
 31
0.0
  0
POINT
  5
5347
330
1F
100
AcDbEntity
  8
AM_7
  6
AM_ISO08W050x2
100
AcDbPoint
 10
254.0136358920179
 20
403.95577474415
 30
0.0
  0
LINE
  5
5348
330
1F
100
AcDbEntity
  8
AM_0
  6
HIDDEN
 62
     3
 48
0.2
100
AcDbLine
 10
251.783635892018
 20
408.04502474415
 30
0.0
 11
250.4229858920179
 21
408.04502474415
 31
0.0
  0
LINE
  5
5349
330
1F
100
AcDbEntity
  8
AM_0
  6
HIDDEN
 62
     3
 48
0.2
100
AcDbLine
 10
251.783635892018
 20
399.8665247441501
 30
0.0
 11
250.4229858920179
 21
399.8665247441501
 31
0.0
  0
LINE
  5
534A
330
1F
100
AcDbEntity
  8
AM_0
  6
HIDDEN
 62
     3
 48
0.2
100
AcDbLine
 10
251.783635892018
 20
398.8995247441501
 30
0.0
 11
251.783635892018
 21
409.01202474415
 31
0.0
  0
LINE
  5
534B
330
1F
100
AcDbEntity
  8
AM_0
  6
HIDDEN
 62
     3
 48
0.2
100
AcDbLine
 10
251.783635892018
 20
409.01202474415
 30
0.0
 11
250.4229858920179
 21
408.04502474415
 31
0.0
  0
LINE
  5
534C
330
1F
100
AcDbEntity
  8
AM_0
  6
HIDDEN
 62
     3
 48
0.2
100
AcDbLine
 10
251.783635892018
 20
398.8995247441501
 30
0.0
 11
250.4229858920179
 21
399.8665247441501
 31
0.0
  0
LINE
  5
534D
330
1F
100
AcDbEntity
  8
AM_0
  6
HIDDEN
 62
     3
 48
0.2
100
AcDbLine
 10
250.4229858920179
 20
408.04502474415
 30
0.0
 11
250.4229858920179
 21
399.8665247441501
 31
0.0
  0
LINE
  5
534E
330
1F
100
AcDbEntity
  8
AM_0
  6
HIDDEN
 62
     3
 48
0.2
100
AcDbLine
 10
184.1836358920179
 20
409.01202474415
 30
0.0
 11
177.9836358920179
 21
409.20577474415
 31
0.0
  0
LINE
  5
534F
330
1F
100
AcDbEntity
  8
AM_0
  6
HIDDEN
 62
     3
 48
0.2
100
AcDbLine
 10
184.1836358920179
 20
398.8995247441501
 30
0.0
 11
177.9836358920179
 21
398.7057747441501
 31
0.0
  0
LINE
  5
5350
330
1F
100
AcDbEntity
  8
AM_0
  6
HIDDEN
 62
     3
 48
0.2
100
AcDbLine
 10
184.1836358920179
 20
399.8665247441501
 30
0.0
 11
177.9836358920179
 21
399.67277474415
 31
0.0
  0
LINE
  5
5351
330
1F
100
AcDbEntity
  8
AM_0
  6
HIDDEN
 62
     3
 48
0.2
100
AcDbLine
 10
184.1836358920179
 20
408.04502474415
 30
0.0
 11
177.9836358920179
 21
408.23877474415
 31
0.0
  0
LINE
  5
5352
330
1F
100
AcDbEntity
  8
AM_7
  6
AM_ISO08W050x2
100
AcDbLine
 10
187.1369473971825
 20
403.95577474415
 30
0.0
 11
176.5787398924479
 21
403.95577474415
 31
0.0
  0
POINT
  5
5353
330
1F
100
AcDbEntity
  8
AM_7
  6
AM_ISO08W050x2
100
AcDbPoint
 10
181.953635892018
 20
403.95577474415
 30
0.0
  0
LINE
  5
5354
330
1F
100
AcDbEntity
  8
AM_0
  6
HIDDEN
 62
     3
 48
0.2
100
AcDbLine
 10
184.1836358920179
 20
408.04502474415
 30
0.0
 11
185.5442858920179
 21
408.04502474415
 31
0.0
  0
LINE
  5
5355
330
1F
100
AcDbEntity
  8
AM_0
  6
HIDDEN
 62
     3
 48
0.2
100
AcDbLine
 10
184.1836358920179
 20
399.8665247441501
 30
0.0
 11
185.5442858920179
 21
399.8665247441501
 31
0.0
  0
LINE
  5
5356
330
1F
100
AcDbEntity
  8
AM_0
  6
HIDDEN
 62
     3
 48
0.2
100
AcDbLine
 10
184.1836358920179
 20
398.8995247441501
 30
0.0
 11
184.1836358920179
 21
409.01202474415
 31
0.0
  0
LINE
  5
5357
330
1F
100
AcDbEntity
  8
AM_0
  6
HIDDEN
 62
     3
 48
0.2
100
AcDbLine
 10
184.1836358920179
 20
409.01202474415
 30
0.0
 11
185.5442858920179
 21
408.04502474415
 31
0.0
  0
LINE
  5
5358
330
1F
100
AcDbEntity
  8
AM_0
  6
HIDDEN
 62
     3
 48
0.2
100
AcDbLine
 10
184.1836358920179
 20
398.8995247441501
 30
0.0
 11
185.5442858920179
 21
399.8665247441501
 31
0.0
  0
LINE
  5
5359
330
1F
100
AcDbEntity
  8
AM_0
  6
HIDDEN
 62
     3
 48
0.2
100
AcDbLine
 10
185.5442858920179
 20
408.04502474415
 30
0.0
 11
185.5442858920179
 21
399.8665247441501
 31
0.0
  0
LINE
  5
535A
330
1F
100
AcDbEntity
  8
AM_7
100
AcDbLine
 10
232.483635892018
 20
344.037653571064
 30
0.0
 11
232.483635892018
 21
350.287653571064
 31
0.0
  0
LINE
  5
535B
330
1F
100
AcDbEntity
  8
AM_7
100
AcDbLine
 10
232.483635892018
 20
344.037653571064
 30
0.0
 11
232.483635892018
 21
337.787653571064
 31
0.0
  0
POINT
  5
535C
330
1F
100
AcDbEntity
  8
0
 60
     1
100
AcDbPoint
 10
314.6818702021236
 20
11.48746726524769
 30
0.0
1001
GENIUS_GENOLIS_13
1002
{
1000
ENT
1005
527E
1005
527D
1005
527C
1005
527B
1002
}
1001
GENIUS_GENOENT_13
1002
{
1000
MYREF
1005
535C
1002
}
1002
{
1000
GRP
1005
0
1002
}
1001
GENIUS_GENOBJ-N-CRS_13
1002
{
1000
OWNER
1000
GEN
1002
}
1001
GENIUS_GENODEF_13
1002
{
1000
HIER
1070
    10
1002
}
1002
{
1000
MANEDIT
1070
     0
1002
}
1002
{
1000
NOSEL
1070
     0
1002
}
1002
{
1000
BEHIND
1070
     0
1002
}
1002
{
1000
OTHER
1070
     0
1002
}
1002
{
1000
REACTOR
1002
}
  0
POINT
  5
535D
330
1F
100
AcDbEntity
  8
0
 60
     1
100
AcDbPoint
 10
314.6818702021236
 20
11.48746726524769
 30
0.0
1001
GENIUS_GENODEF_13
1002
{
1000
HIER
1070
    10
1002
}
1002
{
1000
MANEDIT
1070
     0
1002
}
1002
{
1000
NOSEL
1070
     0
1002
}
1002
{
1000
BEHIND
1070
     0
1002
}
1002
{
1000
OTHER
1070
     0
1002
}
1002
{
1000
REACTOR
1002
}
1001
GENIUS_GENOLIS_13
1002
{
1000
ENT
1005
527A
1005
5279
1005
5278
1005
5277
1002
}
1001
GENIUS_GENOENT_13
1002
{
1000
MYREF
1005
535D
1002
}
1002
{
1000
GRP
1005
0
1002
}
1001
GENIUS_GENOBJ-N-CRS_13
1002
{
1000
OWNER
1000
GEN
1002
}
  0
POINT
  5
535E
330
1F
100
AcDbEntity
  8
0
 60
     1
100
AcDbPoint
 10
314.6818702021236
 20
11.48746726524769
 30
0.0
1001
GENIUS_GENOBJ-N-CRS_13
1002
{
1000
OWNER
1000
GEN
1002
}
1001
GENIUS_GENODEF_13
1002
{
1000
HIER
1070
    10
1002
}
1002
{
1000
MANEDIT
1070
     0
1002
}
1002
{
1000
NOSEL
1070
     0
1002
}
1002
{
1000
BEHIND
1070
     0
1002
}
1002
{
1000
OTHER
1070
     0
1002
}
1002
{
1000
REACTOR
1002
}
1001
GENIUS_GENOENT_13
1002
{
1000
MYREF
1005
535E
1002
}
1002
{
1000
GRP
1005
0
1002
}
1001
GENIUS_GENOLIS_13
1002
{
1000
ENT
1005
5276
1005
5275
1005
5274
1005
5273
1002
}
  0
POINT
  5
535F
330
1F
100
AcDbEntity
  8
0
 60
     1
100
AcDbPoint
 10
314.6818702021236
 20
11.48746726524769
 30
0.0
1001
GENIUS_GENOLIS_13
1002
{
1000
ENT
1005
5272
1005
5271
1005
5270
1005
526F
1002
}
1001
GENIUS_GENOENT_13
1002
{
1000
MYREF
1005
535F
1002
}
1002
{
1000
GRP
1005
0
1002
}
1001
GENIUS_GENOBJ-N-CRS_13
1002
{
1000
OWNER
1000
GEN
1002
}
1001
GENIUS_GENODEF_13
1002
{
1000
HIER
1070
    10
1002
}
1002
{
1000
MANEDIT
1070
     0
1002
}
1002
{
1000
NOSEL
1070
     0
1002
}
1002
{
1000
BEHIND
1070
     0
1002
}
1002
{
1000
OTHER
1070
     0
1002
}
1002
{
1000
REACTOR
1002
}
  0
POINT
  5
5360
330
1F
100
AcDbEntity
  8
0
 60
     1
100
AcDbPoint
 10
314.6818702021236
 20
11.48746726524769
 30
0.0
1001
GENIUS_GENOENT_13
1002
{
1000
MYREF
1005
5360
1002
}
1002
{
1000
GRP
1005
0
1002
}
1001
GENIUS_GENOBJ-N-CRS_13
1002
{
1000
OWNER
1000
GEN
1002
}
1001
GENIUS_GENODEF_13
1002
{
1000
HIER
1070
    10
1002
}
1002
{
1000
MANEDIT
1070
     0
1002
}
1002
{
1000
NOSEL
1070
     0
1002
}
1002
{
1000
BEHIND
1070
     0
1002
}
1002
{
1000
OTHER
1070
     0
1002
}
1002
{
1000
REACTOR
1002
}
1001
GENIUS_GENOLIS_13
1002
{
1000
ENT
1005
526E
1005
526D
1005
526C
1005
526B
1002
}
  0
POINT
  5
5361
330
1F
100
AcDbEntity
  8
0
 60
     1
100
AcDbPoint
 10
314.6818702021236
 20
11.48746726524769
 30
0.0
1001
GENIUS_GENOLIS_13
1002
{
1000
ENT
1005
526A
1005
5269
1005
5268
1005
5267
1002
}
1001
GENIUS_GENODEF_13
1002
{
1000
HIER
1070
    10
1002
}
1002
{
1000
MANEDIT
1070
     0
1002
}
1002
{
1000
NOSEL
1070
     0
1002
}
1002
{
1000
BEHIND
1070
     0
1002
}
1002
{
1000
OTHER
1070
     0
1002
}
1002
{
1000
REACTOR
1002
}
1001
GENIUS_GENOBJ-N-CRS_13
1002
{
1000
OWNER
1000
GEN
1002
}
1001
GENIUS_GENOENT_13
1002
{
1000
MYREF
1005
5361
1002
}
1002
{
1000
GRP
1005
0
1002
}
  0
POINT
  5
5362
330
1F
100
AcDbEntity
  8
0
 60
     1
100
AcDbPoint
 10
288.1104925859149
 20
218.5109498350588
 30
0.0
1001
GENIUS_GENOLIS_13
1002
{
1000
ENT
1005
5266
1005
5265
1005
5264
1005
5263
1002
}
1001
GENIUS_GENOENT_13
1002
{
1000
MYREF
1005
5362
1002
}
1002
{
1000
GRP
1005
0
1002
}
1001
GENIUS_GENOBJ-N-CRS_13
1002
{
1000
OWNER
1000
GEN
1002
}
1001
GENIUS_GENODEF_13
1002
{
1000
HIER
1070
    10
1002
}
1002
{
1000
MANEDIT
1070
     0
1002
}
1002
{
1000
NOSEL
1070
     0
1002
}
1002
{
1000
BEHIND
1070
     0
1002
}
1002
{
1000
OTHER
1070
     0
1002
}
1002
{
1000
REACTOR
1002
}
  0
POINT
  5
5363
330
1F
100
AcDbEntity
  8
0
 60
     1
100
AcDbPoint
 10
304.1104925859149
 20
220.5109498350588
 30
0.0
1001
GENIUS_GENOLIS_13
1002
{
1000
ENT
1005
5262
1005
5261
1005
5260
1005
525F
1002
}
1001
GENIUS_GENOENT_13
1002
{
1000
MYREF
1005
5363
1002
}
1002
{
1000
GRP
1005
0
1002
}
1001
GENIUS_GENOBJ-N-CRS_13
1002
{
1000
OWNER
1000
GEN
1002
}
1001
GENIUS_GENODEF_13
1002
{
1000
HIER
1070
    10
1002
}
1002
{
1000
MANEDIT
1070
     0
1002
}
1002
{
1000
NOSEL
1070
     0
1002
}
1002
{
1000
BEHIND
1070
     0
1002
}
1002
{
1000
OTHER
1070
     0
1002
}
1002
{
1000
REACTOR
1002
}
  0
TEXT
  5
54A8
330
1F
100
AcDbEntity
  8
AM_5
100
AcDbText
 10
268.9442926082864
 20
423.9578991910031
 30
0.0
 40
3.5
  1
2-PT1/8
100
AcDbText
  0
LINE
  5
54A9
330
1F
100
AcDbEntity
  8
AM_VIS
100
AcDbLine
 10
292.1810323152954
 20
392.6067747441496
 30
0.0
 11
292.530032315296
 21
392.9557747441501
 31
0.0
  0
LINE
  5
54AA
330
1F
100
AcDbEntity
  8
AM_VIS
100
AcDbLine
 10
292.181032315296
 20
393.3047747441481
 30
0.0
 11
292.181032315296
 21
392.6067747441481
 31
0.0
  0
LINE
  5
54AB
330
1F
100
AcDbEntity
  8
AM_VIS
100
AcDbLine
 10
292.530032315296
 20
392.9557747441502
 30
0.0
 11
292.530032315296
 21
393.3047747441481
 31
0.0
  0
LINE
  5
54AC
330
1F
100
AcDbEntity
  8
AM_VIS
100
AcDbLine
 10
292.530032315296
 20
392.9557747441502
 30
0.0
 11
292.1810323152966
 21
393.3047747441495
 31
0.0
  0
LINE
  5
54AD
330
1F
100
AcDbEntity
  8
AM_VIS
100
AcDbLine
 10
292.8790323152959
 20
392.6067747441481
 30
0.0
 11
292.181032315296
 21
392.6067747441481
 31
0.0
  0
LINE
  5
54AE
330
1F
100
AcDbEntity
  8
AM_VIS
100
AcDbLine
 10
292.8790323152959
 20
392.6067747441481
 30
0.0
 11
292.8790323152959
 21
392.1943466385485
 31
0.0
  0
LINE
  5
54AF
330
1F
100
AcDbEntity
  8
AM_VIS
100
AcDbLine
 10
292.8790323152959
 20
392.6067747441481
 30
0.0
 11
293.2914604208967
 21
392.6067747441481
 31
0.0
  0
LINE
  5
54B0
330
1F
100
AcDbEntity
  8
AM_VIS
100
AcDbLine
 10
292.8790323152959
 20
393.7172028497517
 30
0.0
 11
292.8790323152959
 21
393.3047747441481
 31
0.0
  0
LINE
  5
54B1
330
1F
100
AcDbEntity
  8
AM_VIS
100
AcDbLine
 10
292.8790323152959
 20
393.3047747441481
 30
0.0
 11
293.2914604208985
 21
393.3047747441481
 31
0.0
  0
LINE
  5
54B2
330
1F
100
AcDbEntity
  8
AM_VIS
100
AcDbLine
 10
292.181032315296
 20
393.7172028497517
 30
0.0
 11
292.181032315296
 21
393.3047747441481
 31
0.0
  0
LINE
  5
54B3
330
1F
100
AcDbEntity
  8
AM_VIS
100
AcDbLine
 10
291.7686042096934
 20
393.3047747441481
 30
0.0
 11
292.181032315296
 21
393.3047747441481
 31
0.0
  0
LINE
  5
54B4
330
1F
100
AcDbEntity
  8
AM_VIS
100
AcDbLine
 10
292.181032315296
 20
392.6067747441481
 30
0.0
 11
292.181032315296
 21
392.1943466385485
 31
0.0
  0
LINE
  5
54B5
330
1F
100
AcDbEntity
  8
AM_VIS
100
AcDbLine
 10
291.7686042096952
 20
392.6067747441481
 30
0.0
 11
292.181032315296
 21
392.6067747441481
 31
0.0
  0
CIRCLE
  5
54B6
330
1F
100
AcDbEntity
  8
AM_VIS
100
AcDbCircle
 10
292.530032315296
 20
392.9557747441501
 30
0.0
 40
2.5
  0
LINE
  5
54B7
330
1F
100
AcDbEntity
  8
AM_VIS
100
AcDbLine
 10
292.8790323152959
 20
393.7172028497517
 30
0.0
 11
292.8790323152959
 21
394.2958783683065
 31
0.0
  0
ELLIPSE
  5
54B8
330
1F
100
AcDbEntity
  8
AM_VIS
100
AcDbEllipse
 10
292.530032315296
 20
391.9667843505985
 30
0.0
 11
-3.797925352448599
 21
0.0000000000000005
 31
0.0
210
0.0
220
0.0
230
1.0
 40
0.6158600226419823
 41
4.6203668857441
 42
4.80441107502528
  0
LINE
  5
54B9
330
1F
100
AcDbEntity
  8
AM_VIS
100
AcDbLine
 10
292.181032315296
 20
392.1943466385485
 30
0.0
 11
292.181032315296
 21
391.6156711199938
 31
0.0
  0
ELLIPSE
  5
54BA
330
1F
100
AcDbEntity
  8
AM_VIS
100
AcDbEllipse
 10
292.530032315296
 20
393.9447651377017
 30
0.0
 11
3.797925352448591
 21
-0.0000000000000005
 31
0.0
210
0.0
220
0.0
230
1.0
 40
0.6158600226419945
 41
4.6203668857441
 42
4.804411075025278
  0
LINE
  5
54BB
330
1F
100
AcDbEntity
  8
AM_VIS
100
AcDbLine
 10
291.1899286911397
 20
392.6067747441481
 30
0.0
 11
291.7686042096952
 21
392.6067747441481
 31
0.0
  0
ELLIPSE
  5
54BC
330
1F
100
AcDbEntity
  8
AM_VIS
100
AcDbEllipse
 10
291.5410419217443
 20
392.9557747441501
 30
0.0
 11
0.0000000000000011
 21
3.797925352448569
 31
0.0
210
0.0
220
0.0
230
1.0
 40
0.6158600226420087
 41
4.620366885743576
 42
4.804411075024757
  0
LINE
  5
54BD
330
1F
100
AcDbEntity
  8
AM_VIS
100
AcDbLine
 10
291.7686042096934
 20
393.3047747441481
 30
0.0
 11
291.1899286911395
 21
393.3047747441481
 31
0.0
  0
LINE
  5
54BE
330
1F
100
AcDbEntity
  8
AM_VIS
100
AcDbLine
 10
293.8701359394524
 20
393.3047747441481
 30
0.0
 11
293.2914604208985
 21
393.3047747441481
 31
0.0
  0
ELLIPSE
  5
54BF
330
1F
100
AcDbEntity
  8
AM_VIS
100
AcDbEllipse
 10
293.5190227088476
 20
392.9557747441501
 30
0.0
 11
0.0000000000000002
 21
-3.797925352448569
 31
0.0
210
0.0
220
0.0
230
0.9999999999999998
 40
0.6158600226420093
 41
4.620366885744621
 42
4.804411075025802
  0
LINE
  5
54C0
330
1F
100
AcDbEntity
  8
AM_VIS
100
AcDbLine
 10
293.2914604208966
 20
392.6067747441481
 30
0.0
 11
293.8701359394522
 21
392.6067747441481
 31
0.0
  0
LINE
  5
54C1
330
1F
100
AcDbEntity
  8
AM_VIS
100
AcDbLine
 10
292.181032315296
 20
394.2958783683065
 30
0.0
 11
292.181032315296
 21
393.7172028497517
 31
0.0
  0
LINE
  5
54C2
330
1F
100
AcDbEntity
  8
AM_VIS
100
AcDbLine
 10
292.8790323152959
 20
391.6156711199938
 30
0.0
 11
292.8790323152959
 21
392.1943466385485
 31
0.0
  0
ARC
  5
54C3
330
1F
100
AcDbEntity
  8
AM_VIS
100
AcDbCircle
 10
292.530032315296
 20
392.9557747441501
 30
0.0
 40
0.8376000000000374
100
AcDbArc
 50
294.6243183521657
 51
335.3756816476841
  0
ARC
  5
54C4
330
1F
100
AcDbEntity
  8
AM_VIS
100
AcDbCircle
 10
292.530032315296
 20
392.9557747441501
 30
0.0
 40
0.8376000000000374
100
AcDbArc
 50
24.62431835201131
 51
65.37568164783424
  0
ARC
  5
54C5
330
1F
100
AcDbEntity
  8
AM_VIS
100
AcDbCircle
 10
292.530032315296
 20
392.9557747441501
 30
0.0
 40
0.8376000000000374
100
AcDbArc
 50
114.6243183521657
 51
155.3756816479886
  0
ARC
  5
54C6
330
1F
100
AcDbEntity
  8
AM_VIS
100
AcDbCircle
 10
292.530032315296
 20
392.9557747441501
 30
0.0
 40
0.8376000000000374
100
AcDbArc
 50
204.6243183523159
 51
245.3756816478342
  0
LINE
  5
54C7
330
1F
100
AcDbEntity
  8
AM_VIS
100
AcDbLine
 10
302.5300323152959
 20
417.45577474415
 30
0.0
 11
305.0275385342398
 21
417.45577474415
 31
0.0
  0
LINE
  5
54C8
330
1F
100
AcDbEntity
  8
AM_VIS
100
AcDbLine
 10
306.0325260963522
 20
417.45577474415
 30
0.0
 11
308.0300323152959
 21
417.45577474415
 31
0.0
  0
LINE
  5
54C9
330
1F
100
AcDbEntity
  8
AM_VIS
100
AcDbLine
 10
290.0300323152959
 20
417.45577474415
 30
0.0
 11
302.5300323152959
 21
417.45577474415
 31
0.0
  0
LINE
  5
54CA
330
1F
100
AcDbEntity
  8
AM_VIS
100
AcDbLine
 10
302.5300323152959
 20
414.70577474415
 30
0.0
 11
302.5300323152959
 21
417.45577474415
 31
0.0
  0
LINE
  5
54CB
330
1F
100
AcDbEntity
  8
AM_VIS
100
AcDbLine
 10
308.0300323152959
 20
411.9557747441501
 30
0.0
 11
305.2800323152959
 21
411.9557747441501
 31
0.0
  0
LINE
  5
54CC
330
1F
100
AcDbEntity
  8
AM_VIS
100
AcDbLine
 10
308.030032315296
 20
390.4557747441501
 30
0.0
 11
295.530032315296
 21
390.4557747441501
 31
0.0
  0
LINE
  5
54CD
330
1F
100
AcDbEntity
  8
AM_VIS
100
AcDbLine
 10
290.030032315296
 20
395.95577474415
 30
0.0
 11
290.0300323152959
 21
417.45577474415
 31
0.0
  0
LINE
  5
54CE
330
1F
100
AcDbEntity
  8
AM_VIS
100
AcDbLine
 10
295.530032315296
 20
390.4557747441501
 30
0.0
 11
293.0325260963518
 21
390.4557747441501
 31
0.0
  0
LINE
  5
54CF
330
1F
100
AcDbEntity
  8
AM_VIS
100
AcDbLine
 10
292.0275385342401
 20
390.4557747441501
 30
0.0
 11
290.030032315296
 21
390.4557747441501
 31
0.0
  0
LINE
  5
54D0
330
1F
100
AcDbEntity
  8
AM_VIS
100
AcDbLine
 10
290.030032315296
 20
390.45577474415
 30
0.0
 11
290.030032315296
 21
392.453280963094
 31
0.0
  0
LINE
  5
54D1
330
1F
100
AcDbEntity
  8
AM_VIS
100
AcDbLine
 10
290.030032315296
 20
393.4582685252062
 30
0.0
 11
290.030032315296
 21
395.95577474415
 31
0.0
  0
LINE
  5
54D2
330
1F
100
AcDbEntity
  8
AM_VIS
100
AcDbLine
 10
295.530032315296
 20
393.2057747441501
 30
0.0
 11
295.530032315296
 21
390.4557747441501
 31
0.0
  0
LINE
  5
54D3
330
1F
100
AcDbEntity
  8
AM_VIS
100
AcDbLine
 10
290.0300323152959
 20
395.95577474415
 30
0.0
 11
292.7800323152959
 21
395.9557747441501
 31
0.0
  0
LINE
  5
54D4
330
1F
100
AcDbEntity
  8
AM_VIS
100
AcDbLine
 10
308.0300323152959
 20
411.9557747441501
 30
0.0
 11
308.030032315296
 21
390.4557747441501
 31
0.0
  0
LINE
  5
54D5
330
1F
100
AcDbEntity
  8
AM_VIS
100
AcDbLine
 10
308.0300323152959
 20
417.45577474415
 30
0.0
 11
308.0300323152959
 21
415.4582685252062
 31
0.0
  0
LINE
  5
54D6
330
1F
100
AcDbEntity
  8
AM_VIS
100
AcDbLine
 10
308.0300323152959
 20
414.4532809630939
 30
0.0
 11
308.0300323152959
 21
411.9557747441501
 31
0.0
  0
CIRCLE
  5
54D7
330
1F
100
AcDbEntity
  8
AM_VIS
100
AcDbCircle
 10
299.0300323152959
 20
403.95577474415
 30
0.0
 40
4.049999999999999
  0
CIRCLE
  5
54D8
330
1F
100
AcDbEntity
  8
AM_VIS
100
AcDbCircle
 10
299.0300323152959
 20
403.95577474415
 30
0.0
 40
5.299999999999999
  0
ARC
  5
54D9
330
1F
100
AcDbEntity
  8
AM_VIS
100
AcDbCircle
 10
305.2800323152959
 20
414.70577474415
 30
0.0
 40
2.75
100
AcDbArc
 50
180.0
 51
270.0
  0
ARC
  5
54DA
330
1F
100
AcDbEntity
  8
AM_VIS
100
AcDbCircle
 10
292.7800323152959
 20
393.2057747441501
 30
0.0
 40
2.75
100
AcDbArc
 50
0.0
 51
90.0
  0
LINE
  5
54DB
330
1F
100
AcDbEntity
  8
AM_VIS
100
AcDbLine
 10
308.030032315296
 20
392.7293645826363
 30
0.0
 11
308.069961140827
 21
392.7293645826363
 31
0.0
  0
LINE
  5
54DC
330
1F
100
AcDbEntity
  8
AM_VIS
100
AcDbLine
 10
308.0370148763117
 20
392.4893645826363
 30
0.0
 11
308.030032315296
 21
392.4893645826363
 31
0.0
  0
ARC
  5
54DD
330
1F
100
AcDbEntity
  8
AM_VIS
100
AcDbCircle
 10
305.5300323152959
 20
392.9557747441501
 30
0.0
 40
2.550000000000011
100
AcDbArc
 50
349.4609311094996
 51
354.9060973616483
  0
ARC
  5
54DE
330
1F
100
AcDbEntity
  8
AM_VIS
100
AcDbCircle
 10
305.5300323152959
 20
392.9557747441501
 30
0.0
 40
2.550000000000011
100
AcDbArc
 50
348.635123032965
 51
349.4609311094996
  0
ARC
  5
54DF
330
1F
100
AcDbEntity
  8
AM_VIS
100
AcDbCircle
 10
305.5300323152959
 20
392.9557747441501
 30
0.0
 40
2.550000000000011
100
AcDbArc
 50
258.6351230329612
 51
281.3648769670388
  0
ARC
  5
54E0
330
1F
100
AcDbEntity
  8
AM_VIS
100
AcDbCircle
 10
305.5300323152959
 20
392.9557747441501
 30
0.0
 40
2.550000000000011
100
AcDbArc
 50
354.9060973616483
 51
11.36487696703494
  0
LINE
  5
54E1
330
1F
100
AcDbEntity
  8
AM_VIS
100
AcDbLine
 10
308.0197588944133
 20
414.7293645826363
 30
0.0
 11
308.069961140827
 21
414.7293645826363
 31
0.0
  0
LINE
  5
54E2
330
1F
100
AcDbEntity
  8
AM_VIS
100
AcDbLine
 10
308.0370148763116
 20
414.4893645826362
 30
0.0
 11
307.9861393083312
 21
414.4893645826362
 31
0.0
  0
ARC
  5
54E3
330
1F
100
AcDbEntity
  8
AM_VIS
100
AcDbCircle
 10
305.5300323152959
 20
414.95577474415
 30
0.0
 40
2.550000000000011
100
AcDbArc
 50
349.4609311094996
 51
354.9060973616483
  0
ARC
  5
54E4
330
1F
100
AcDbEntity
  8
AM_VIS
100
AcDbCircle
 10
305.5300323152959
 20
414.95577474415
 30
0.0
 40
2.550000000000011
100
AcDbArc
 50
354.9060973616483
 51
349.4609311094996
  0
LINE
  5
54E5
330
1F
100
AcDbEntity
  8
AM_VIS
100
AcDbLine
 10
295.0197588944133
 20
392.7293645826363
 30
0.0
 11
295.069961140827
 21
392.7293645826363
 31
0.0
  0
LINE
  5
54E6
330
1F
100
AcDbEntity
  8
AM_VIS
100
AcDbLine
 10
295.0370148763116
 20
392.4893645826363
 30
0.0
 11
294.9861393083312
 21
392.4893645826363
 31
0.0
  0
ARC
  5
54E7
330
1F
100
AcDbEntity
  8
AM_VIS
100
AcDbCircle
 10
292.530032315296
 20
392.9557747441501
 30
0.0
 40
2.550000000000011
100
AcDbArc
 50
349.4609311094996
 51
354.9060973616483
  0
ARC
  5
54E8
330
1F
100
AcDbEntity
  8
AM_VIS
100
AcDbCircle
 10
292.530032315296
 20
392.9557747441501
 30
0.0
 40
2.550000000000011
100
AcDbArc
 50
354.9060973616483
 51
349.4609311094996
  0
ARC
  5
54E9
330
1F
100
AcDbEntity
  8
AM_VIS
100
AcDbCircle
 10
292.530032315296
 20
414.95577474415
 30
0.0
 40
2.550000000000011
100
AcDbArc
 50
168.635123032965
 51
191.3648769670349
  0
ARC
  5
54EA
330
1F
100
AcDbEntity
  8
AM_VIS
100
AcDbCircle
 10
292.530032315296
 20
414.95577474415
 30
0.0
 40
2.550000000000011
100
AcDbArc
 50
78.63512303296506
 51
101.3648769670349
  0
LINE
  5
54EB
330
1F
100
AcDbEntity
  8
AM_VIS
100
AcDbLine
 10
305.879032315296
 20
414.95577474415
 30
0.0
 11
305.5300323152959
 21
414.95577474415
 31
0.0
  0
LINE
  5
54EC
330
1F
100
AcDbEntity
  8
AM_VIS
100
AcDbLine
 10
305.5300323152959
 20
414.95577474415
 30
0.0
 11
305.181032315296
 21
414.95577474415
 31
0.0
  0
LINE
  5
54ED
330
1F
100
AcDbEntity
  8
AM_VIS
100
AcDbLine
 10
305.5300323152959
 20
414.95577474415
 30
0.0
 11
305.8790323152964
 21
414.6067747441495
 31
0.0
  0
LINE
  5
54EE
330
1F
100
AcDbEntity
  8
AM_VIS
100
AcDbLine
 10
305.8790323152954
 20
415.3047747441495
 30
0.0
 11
305.5300323152959
 21
414.9557747441501
 31
0.0
  0
LINE
  5
54EF
330
1F
100
AcDbEntity
  8
AM_VIS
100
AcDbLine
 10
305.879032315296
 20
414.606774744148
 30
0.0
 11
305.879032315296
 21
415.3047747441481
 31
0.0
  0
LINE
  5
54F0
330
1F
100
AcDbEntity
  8
AM_VIS
100
AcDbLine
 10
305.181032315296
 20
415.3047747441481
 30
0.0
 11
305.879032315296
 21
415.3047747441481
 31
0.0
  0
LINE
  5
54F1
330
1F
100
AcDbEntity
  8
AM_VIS
100
AcDbLine
 10
305.5300323152959
 20
414.606774744148
 30
0.0
 11
305.5300323152959
 21
414.9557747441501
 31
0.0
  0
LINE
  5
54F2
330
1F
100
AcDbEntity
  8
AM_VIS
100
AcDbLine
 10
305.1810323152954
 20
414.6067747441494
 30
0.0
 11
305.5300323152959
 21
414.95577474415
 31
0.0
  0
LINE
  5
54F3
330
1F
100
AcDbEntity
  8
AM_VIS
100
AcDbLine
 10
305.181032315296
 20
415.3047747441481
 30
0.0
 11
305.181032315296
 21
414.606774744148
 31
0.0
  0
LINE
  5
54F4
330
1F
100
AcDbEntity
  8
AM_VIS
100
AcDbLine
 10
305.5300323152959
 20
414.9557747441501
 30
0.0
 11
305.5300323152959
 21
415.3047747441481
 31
0.0
  0
LINE
  5
54F5
330
1F
100
AcDbEntity
  8
AM_VIS
100
AcDbLine
 10
305.5300323152959
 20
414.9557747441501
 30
0.0
 11
305.1810323152965
 21
415.3047747441495
 31
0.0
  0
LINE
  5
54F6
330
1F
100
AcDbEntity
  8
AM_VIS
100
AcDbLine
 10
305.879032315296
 20
414.606774744148
 30
0.0
 11
305.181032315296
 21
414.606774744148
 31
0.0
  0
LINE
  5
54F7
330
1F
100
AcDbEntity
  8
AM_VIS
100
AcDbLine
 10
305.879032315296
 20
414.606774744148
 30
0.0
 11
305.879032315296
 21
414.1943466385485
 31
0.0
  0
LINE
  5
54F8
330
1F
100
AcDbEntity
  8
AM_VIS
100
AcDbLine
 10
305.879032315296
 20
414.606774744148
 30
0.0
 11
306.2914604208966
 21
414.606774744148
 31
0.0
  0
LINE
  5
54F9
330
1F
100
AcDbEntity
  8
AM_VIS
100
AcDbLine
 10
305.879032315296
 20
415.7172028497517
 30
0.0
 11
305.879032315296
 21
415.3047747441481
 31
0.0
  0
LINE
  5
54FA
330
1F
100
AcDbEntity
  8
AM_VIS
100
AcDbLine
 10
305.879032315296
 20
415.3047747441481
 30
0.0
 11
306.2914604208985
 21
415.3047747441481
 31
0.0
  0
LINE
  5
54FB
330
1F
100
AcDbEntity
  8
AM_VIS
100
AcDbLine
 10
305.181032315296
 20
415.7172028497517
 30
0.0
 11
305.181032315296
 21
415.3047747441481
 31
0.0
  0
LINE
  5
54FC
330
1F
100
AcDbEntity
  8
AM_VIS
100
AcDbLine
 10
304.7686042096934
 20
415.3047747441481
 30
0.0
 11
305.181032315296
 21
415.3047747441481
 31
0.0
  0
LINE
  5
54FD
330
1F
100
AcDbEntity
  8
AM_VIS
100
AcDbLine
 10
305.181032315296
 20
414.606774744148
 30
0.0
 11
305.181032315296
 21
414.1943466385485
 31
0.0
  0
LINE
  5
54FE
330
1F
100
AcDbEntity
  8
AM_VIS
100
AcDbLine
 10
304.7686042096952
 20
414.606774744148
 30
0.0
 11
305.181032315296
 21
414.606774744148
 31
0.0
  0
CIRCLE
  5
54FF
330
1F
100
AcDbEntity
  8
AM_VIS
100
AcDbCircle
 10
305.5300323152959
 20
414.95577474415
 30
0.0
 40
2.5
  0
LINE
  5
5500
330
1F
100
AcDbEntity
  8
AM_VIS
100
AcDbLine
 10
305.879032315296
 20
415.7172028497517
 30
0.0
 11
305.879032315296
 21
416.2958783683064
 31
0.0
  0
ELLIPSE
  5
5501
330
1F
100
AcDbEntity
  8
AM_VIS
100
AcDbEllipse
 10
305.5300323152959
 20
413.9667843505985
 30
0.0
 11
-3.797925352448599
 21
0.0000000000000005
 31
0.0
210
0.0
220
0.0
230
1.0
 40
0.6158600226419823
 41
4.6203668857441
 42
4.804411075025278
  0
LINE
  5
5502
330
1F
100
AcDbEntity
  8
AM_VIS
100
AcDbLine
 10
305.181032315296
 20
414.1943466385485
 30
0.0
 11
305.181032315296
 21
413.6156711199937
 31
0.0
  0
ELLIPSE
  5
5503
330
1F
100
AcDbEntity
  8
AM_VIS
100
AcDbEllipse
 10
305.5300323152959
 20
415.9447651377016
 30
0.0
 11
3.797925352448591
 21
-0.0000000000000005
 31
0.0
210
0.0
220
0.0
230
1.0
 40
0.6158600226419945
 41
4.6203668857441
 42
4.804411075025278
  0
LINE
  5
5504
330
1F
100
AcDbEntity
  8
AM_VIS
100
AcDbLine
 10
304.1899286911397
 20
414.606774744148
 30
0.0
 11
304.7686042096952
 21
414.606774744148
 31
0.0
  0
ELLIPSE
  5
5505
330
1F
100
AcDbEntity
  8
AM_VIS
100
AcDbEllipse
 10
304.5410419217443
 20
414.95577474415
 30
0.0
 11
0.0000000000000011
 21
3.797925352448569
 31
0.0
210
0.0
220
0.0
230
1.0
 40
0.6158600226420087
 41
4.620366885743576
 42
4.804411075024757
  0
LINE
  5
5506
330
1F
100
AcDbEntity
  8
AM_VIS
100
AcDbLine
 10
304.7686042096934
 20
415.3047747441481
 30
0.0
 11
304.1899286911395
 21
415.3047747441481
 31
0.0
  0
LINE
  5
5507
330
1F
100
AcDbEntity
  8
AM_VIS
100
AcDbLine
 10
306.8701359394524
 20
415.3047747441481
 30
0.0
 11
306.2914604208984
 21
415.3047747441481
 31
0.0
  0
ELLIPSE
  5
5508
330
1F
100
AcDbEntity
  8
AM_VIS
100
AcDbEllipse
 10
306.5190227088475
 20
414.95577474415
 30
0.0
 11
0.0000000000000002
 21
-3.797925352448569
 31
0.0
210
0.0
220
0.0
230
0.9999999999999998
 40
0.6158600226420093
 41
4.620366885744621
 42
4.804411075025802
  0
LINE
  5
5509
330
1F
100
AcDbEntity
  8
AM_VIS
100
AcDbLine
 10
306.2914604208966
 20
414.606774744148
 30
0.0
 11
306.8701359394522
 21
414.606774744148
 31
0.0
  0
LINE
  5
550A
330
1F
100
AcDbEntity
  8
AM_VIS
100
AcDbLine
 10
305.181032315296
 20
416.2958783683064
 30
0.0
 11
305.181032315296
 21
415.7172028497517
 31
0.0
  0
LINE
  5
550B
330
1F
100
AcDbEntity
  8
AM_VIS
100
AcDbLine
 10
305.879032315296
 20
413.6156711199937
 30
0.0
 11
305.879032315296
 21
414.1943466385485
 31
0.0
  0
ARC
  5
550C
330
1F
100
AcDbEntity
  8
AM_VIS
100
AcDbCircle
 10
305.5300323152959
 20
414.95577474415
 30
0.0
 40
0.8376000000000374
100
AcDbArc
 50
294.6243183521657
 51
335.3756816476841
  0
ARC
  5
550D
330
1F
100
AcDbEntity
  8
AM_VIS
100
AcDbCircle
 10
305.5300323152959
 20
414.95577474415
 30
0.0
 40
0.8376000000000374
100
AcDbArc
 50
24.62431835201131
 51
65.37568164783424
  0
ARC
  5
550E
330
1F
100
AcDbEntity
  8
AM_VIS
100
AcDbCircle
 10
305.5300323152959
 20
414.95577474415
 30
0.0
 40
0.8376000000000374
100
AcDbArc
 50
114.6243183521657
 51
155.3756816479886
  0
ARC
  5
550F
330
1F
100
AcDbEntity
  8
AM_VIS
100
AcDbCircle
 10
305.5300323152959
 20
414.95577474415
 30
0.0
 40
0.8376000000000374
100
AcDbArc
 50
204.6243183523159
 51
245.3756816478342
  0
LINE
  5
5510
330
1F
100
AcDbEntity
  8
AM_VIS
100
AcDbLine
 10
292.8790323152959
 20
392.9557747441501
 30
0.0
 11
292.530032315296
 21
392.9557747441501
 31
0.0
  0
LINE
  5
5511
330
1F
100
AcDbEntity
  8
AM_VIS
100
AcDbLine
 10
292.5300323152959
 20
392.9557747441501
 30
0.0
 11
292.181032315296
 21
392.9557747441501
 31
0.0
  0
LINE
  5
5512
330
1F
100
AcDbEntity
  8
AM_VIS
100
AcDbLine
 10
292.5300323152959
 20
392.9557747441501
 30
0.0
 11
292.8790323152965
 21
392.6067747441496
 31
0.0
  0
LINE
  5
5513
330
1F
100
AcDbEntity
  8
AM_VIS
100
AcDbLine
 10
292.8790323152954
 20
393.3047747441495
 30
0.0
 11
292.530032315296
 21
392.9557747441501
 31
0.0
  0
LINE
  5
5514
330
1F
100
AcDbEntity
  8
AM_VIS
100
AcDbLine
 10
292.8790323152959
 20
392.6067747441481
 30
0.0
 11
292.8790323152959
 21
393.3047747441481
 31
0.0
  0
LINE
  5
5515
330
1F
100
AcDbEntity
  8
AM_VIS
100
AcDbLine
 10
292.181032315296
 20
393.3047747441481
 30
0.0
 11
292.8790323152959
 21
393.3047747441481
 31
0.0
  0
LINE
  5
5516
330
1F
100
AcDbEntity
  8
AM_VIS
100
AcDbLine
 10
292.530032315296
 20
392.6067747441481
 30
0.0
 11
292.530032315296
 21
392.9557747441502
 31
0.0
  0
LINE
  5
5517
330
1F
100
AcDbEntity
  8
AM_7
100
AcDbLine
 10
299.0300323152959
 20
403.95577474415
 30
0.0
 11
305.3300323152959
 21
403.95577474415
 31
0.0
1001
GENIUS_GENOREF_13
1005
551C
  0
LINE
  5
5518
330
1F
100
AcDbEntity
  8
AM_7
100
AcDbLine
 10
299.0300323152959
 20
403.95577474415
 30
0.0
 11
299.0300323152959
 21
410.25577474415
 31
0.0
1001
GENIUS_GENOREF_13
1005
551C
  0
LINE
  5
5519
330
1F
100
AcDbEntity
  8
AM_7
100
AcDbLine
 10
299.0300323152959
 20
403.95577474415
 30
0.0
 11
292.7300323152959
 21
403.95577474415
 31
0.0
1001
GENIUS_GENOREF_13
1005
551C
  0
LINE
  5
551A
330
1F
100
AcDbEntity
  8
AM_7
100
AcDbLine
 10
299.0300323152959
 20
403.95577474415
 30
0.0
 11
299.0300323152959
 21
397.6557747441501
 31
0.0
1001
GENIUS_GENOREF_13
1005
551C
  0
INSERT
  5
551B
330
1F
100
AcDbEntity
  8
AM_5
100
AcDbBlockReference
  2
*S25
 10
0.0
 20
0.0
 30
0.0
  0
POINT
  5
551C
330
1F
100
AcDbEntity
  8
0
 60
     1
100
AcDbPoint
 10
194.5278504723312
 20
59.46596667177425
 30
0.0
1001
GENIUS_GENOBJ-N-CRS_13
1002
{
1000
OWNER
1000
GEN
1002
}
1001
GENIUS_GENOENT_13
1002
{
1000
MYREF
1005
551C
1002
}
1002
{
1000
GRP
1005
0
1002
}
1001
GENIUS_GENOLIS_13
1002
{
1000
ENT
1005
551A
1005
5519
1005
5518
1005
5517
1002
}
1001
GENIUS_GENODEF_13
1002
{
1000
HIER
1070
    10
1002
}
1002
{
1000
MANEDIT
1070
     0
1002
}
1002
{
1000
NOSEL
1070
     0
1002
}
1002
{
1000
BEHIND
1070
     0
1002
}
1002
{
1000
OTHER
1070
     0
1002
}
1002
{
1000
REACTOR
1002
}
  0
ENDSEC
  0
SECTION
  2
OBJECTS
  0
DICTIONARY
  5
C
330
0
100
AcDbDictionary
281
     1
  3
ACAD_COLOR
350
BE
  3
ACAD_GROUP
350
D
  3
ACAD_LAYOUT
350
1A
  3
ACAD_MATERIAL
350
BD
  3
ACAD_MLINESTYLE
350
17
  3
ACAD_PLOTSETTINGS
350
19
  3
ACAD_PLOTSTYLENAME
350
E
  3
ACAD_TABLESTYLE
350
11A
  3
ACDBHEADERROUNDTRIPXREC
350
563A
  3
AcDbVariableDictionary
350
94
  3
AcmDictionary
350
5B
  3
AMG
350
41
  3
AMGSNAPSETTINGS
350
1B8
  3
DWGPROPS
350
5639
  0
DICTIONARY
  5
3F9
330
2
100
AcDbDictionary
280
     1
281
     1
  3
ACAD_LAYERFILTERS
360
240D
  3
ACAD_LAYERSTATES
360
A85
  3
ACLYDICTIONARY
360
240C
  3
AMLAYER_GROUPCOLORS
360
1053
  0
DICTIONARY
  5
8F
330
1F
100
AcDbDictionary
280
     1
281
     1
  3
ACAD_SORTENTS
360
1086
  0
DICTIONARY
  5
5297
330
5296
100
AcDbDictionary
280
     1
281
     1
  3
ACAD_DIMASSOC
360
5298
  0
DICTIONARY
  5
BE
102
{ACAD_REACTORS
330
C
102
}
330
C
100
AcDbDictionary
281
     1
  0
DICTIONARY
  5
D
102
{ACAD_REACTORS
330
C
102
}
330
C
100
AcDbDictionary
281
     1
  0
DICTIONARY
  5
1A
102
{ACAD_REACTORS
330
C
102
}
330
C
100
AcDbDictionary
281
     1
  3
Model
350
22
  3
配置1
350
1E
  3
配置2
350
26
  0
DICTIONARY
  5
BD
102
{ACAD_REACTORS
330
C
102
}
330
C
100
AcDbDictionary
281
     1
  0
DICTIONARY
  5
17
102
{ACAD_REACTORS
330
C
102
}
330
C
100
AcDbDictionary
281
     1
  3
Standard
350
18
  0
DICTIONARY
  5
19
102
{ACAD_REACTORS
330
C
102
}
330
C
100
AcDbDictionary
281
     1
  0
ACDBDICTIONARYWDFLT
  5
E
102
{ACAD_REACTORS
330
C
102
}
330
C
100
AcDbDictionary
281
     1
  3
Normal
350
F
100
AcDbDictionaryWithDefault
340
F
  0
DICTIONARY
  5
11A
102
{ACAD_REACTORS
330
C
102
}
330
C
100
AcDbDictionary
281
     1
  3
Standard
350
11B
  0
DICTIONARY
  5
563A
102
{ACAD_REACTORS
330
C
102
}
330
C
100
AcDbDictionary
281
     1
  0
DICTIONARY
  5
94
102
{ACAD_REACTORS
330
C
102
}
330
C
100
AcDbDictionary
281
     1
  3
CTABLESTYLE
350
138
  3
DIMASSOC
350
96
  3
INDEXCTL
350
95
  3
PROJECTNAME
350
5637
  0
DICTIONARY
  5
5B
102
{ACAD_REACTORS
330
C
102
}
330
C
100
AcDbDictionary
281
     1
  3
AcmBOM
350
1B5
  3
AcmStdDictionary
350
61
  3
AMDTSECTSYM_ARROWCOLOR
350
123
  0
DICTIONARY
  5
41
102
{ACAD_REACTORS
330
C
102
}
330
C
100
AcDbDictionary
281
     1
  0
DICTIONARY
  5
1B8
102
{ACAD_REACTORS
330
C
102
}
330
C
100
AcDbDictionary
281
     1
  0
XRECORD
  5
5639
102
{ACAD_REACTORS
330
C
102
}
330
C
100
AcDbXrecord
280
     1
  1
DWGPROPS COOKIE
  2

  3

  4

  6

  7

  8

  9

300
AmdtFileType=84
301
=
302
=
303
=
304
=
305
=
306
=
307
=
308
=
309
=
 40
0.110235462962963
 41
2454097.385877268
 42
2454097.695685579
  1

 90
        1
  0
DICTIONARY
  5
240D
102
{ACAD_REACTORS
330
3F9
102
}
330
3F9
100
AcDbDictionary
281
     1
  0
DICTIONARY
  5
A85
102
{ACAD_REACTORS
330
3F9
102
}
330
3F9
100
AcDbDictionary
281
     1
  0
DICTIONARY
  5
240C
102
{ACAD_REACTORS
330
3F9
102
}
330
3F9
100
AcDbDictionary
281
     1
1001
ACAD
1000
<All
  0
DICTIONARY
  5
1053
102
{ACAD_REACTORS
330
3F9
102
}
330
3F9
100
AcDbDictionary
280
     1
281
     1
  0
SORTENTSTABLE
  5
1086
102
{ACAD_REACTORS
330
8F
102
}
330
8F
100
AcDbSortentsTable
330
1F
  0
DIMASSOC
  5
5298
102
{ACAD_REACTORS
330
5297
102
}
330
5297
100
AcDbDimAssoc
330
5296
 90
        1
 70
     0
 71
     0
  1
AcDbOsnapPointRef
 72
    13
331
527F
 73
     0
 91
        0
 40
0.0
 10
0.0
 20
0.0
 30
2.000000000000000E+50
 75
     0
  0
LAYOUT
  5
22
102
{ACAD_XDICTIONARY
360
563D
102
}
102
{ACAD_REACTORS
330
1A
102
}
330
1A
100
AcDbPlotSettings
  1

  2
\\RD\EPSON Stylus C63 Series單色
  4
A4
  6

 40
3.757083177566528
 41
3.757076978683471
 42
3.757080078125
 43
3.757080078125
 44
209.9733276367187
 45
296.9683227539062
 46
0.0
 47
0.0
 48
0.0
 49
0.0
140
0.0
141
0.0
142
1.0
143
0.3405120737814363
 70
 11952
 72
     1
 73
     0
 74
     0
  7
單色出圖.ctb
 75
     0
147
2.936753428137963
148
-2047.07469463503
149
-1261.649717473083
100
AcDbLayout
  1
Model
 70
     1
 71
     0
 10
0.0
 20
0.0
 11
12.0
 21
9.0
 12
0.0
 22
0.0
 32
0.0
 14
0.0
 24
0.0
 34
0.0
 15
0.0
 25
0.0
 35
0.0
146
0.0
 13
0.0
 23
0.0
 33
0.0
 16
1.0
 26
0.0
 36
0.0
 17
0.0
 27
1.0
 37
0.0
 76
     0
330
1F
1001
ACAD_PSEXT
1000
\\RD\EPSON Stylus C63 Series單色
1000
EPSON Stylus C63 Series
1000
\\RD
1000

1070
     0
  0
LAYOUT
  5
1E
102
{ACAD_XDICTIONARY
360
563B
102
}
102
{ACAD_REACTORS
330
1A
102
}
330
1A
100
AcDbPlotSettings
  1

  2

  4

  6

 40
0.0
 41
0.0
 42
0.0
 43
0.0
 44
0.0
 45
0.0
 46
0.0
 47
0.0
 48
0.0
 49
0.0
140
0.0
141
0.0
142
1.0
143
1.0
 70
   688
 72
     0
 73
     0
 74
     5
  7
單色出圖.ctb
 75
    16
147
1.0
148
0.0
149
0.0
100
AcDbLayout
  1
配置1
 70
     1
 71
     1
 10
0.0
 20
0.0
 11
420.0
 21
297.0
 12
0.0
 22
0.0
 32
0.0
 14
1.000000000000000E+20
 24
1.000000000000000E+20
 34
1.000000000000000E+20
 15
-1.000000000000000E+20
 25
-1.000000000000000E+20
 35
-1.000000000000000E+20
146
0.0
 13
0.0
 23
0.0
 33
0.0
 16
1.0
 26
0.0
 36
0.0
 17
0.0
 27
1.0
 37
0.0
 76
     0
330
1B
  0
LAYOUT
  5
26
102
{ACAD_XDICTIONARY
360
563F
102
}
102
{ACAD_REACTORS
330
1A
102
}
330
1A
100
AcDbPlotSettings
  1

  2

  4

  6

 40
0.0
 41
0.0
 42
0.0
 43
0.0
 44
0.0
 45
0.0
 46
0.0
 47
0.0
 48
0.0
 49
0.0
140
0.0
141
0.0
142
1.0
143
1.0
 70
   688
 72
     0
 73
     0
 74
     5
  7
單色出圖.ctb
 75
    16
147
1.0
148
0.0
149
0.0
100
AcDbLayout
  1
配置2
 70
     1
 71
     2
 10
0.0
 20
0.0
 11
12.0
 21
9.0
 12
0.0
 22
0.0
 32
0.0
 14
0.0
 24
0.0
 34
0.0
 15
0.0
 25
0.0
 35
0.0
146
0.0
 13
0.0
 23
0.0
 33
0.0
 16
1.0
 26
0.0
 36
0.0
 17
0.0
 27
1.0
 37
0.0
 76
     0
330
23
  0
MLINESTYLE
  5
18
102
{ACAD_REACTORS
330
17
102
}
330
17
100
AcDbMlineStyle
  2
STANDARD
 70
     0
  3

 62
   256
 51
90.0
 52
90.0
 71
     2
 49
0.5
 62
   256
  6
BYLAYER
 49
-0.5
 62
   256
  6
BYLAYER
  0
ACDBPLACEHOLDER
  5
F
102
{ACAD_REACTORS
330
E
102
}
330
E
  0
TABLESTYLE
  5
11B
102
{ACAD_REACTORS
330
11A
102
}
330
11A
100
AcDbTableStyle
  3
Standard
 70
     0
 71
     0
 40
1.5
 41
1.5
280
     0
281
     0
  7
STANDARD
140
4.5
170
     2
 62
     0
 63
     7
283
     0
274
    -2
284
     1
 64
     0
275
    -2
285
     1
 65
     0
276
    -2
286
     1
 66
     0
277
    -2
287
     1
 67
     0
278
    -2
288
     1
 68
     0
279
    -2
289
     1
 69
     0
  7
STANDARD
140
6.0
170
     5
 62
     0
 63
     7
283
     0
274
    -2
284
     1
 64
     0
275
    -2
285
     1
 65
     0
276
    -2
286
     1
 66
     0
277
    -2
287
     1
 67
     0
278
    -2
288
     1
 68
     0
279
    -2
289
     1
 69
     0
  7
STANDARD
140
4.5
170
     5
 62
     0
 63
     7
283
     0
274
    -2
284
     1
 64
     0
275
    -2
285
     1
 65
     0
276
    -2
286
     1
 66
     0
277
    -2
287
     1
 67
     0
278
    -2
288
     1
 68
     0
279
    -2
289
     1
 69
     0
  0
DICTIONARYVAR
  5
138
102
{ACAD_REACTORS
330
94
102
}
330
94
100
DictionaryVariables
280
     0
  1
STANDARD
  0
DICTIONARYVAR
  5
96
102
{ACAD_REACTORS
330
94
102
}
330
94
100
DictionaryVariables
280
     0
  1
2
  0
DICTIONARYVAR
  5
95
102
{ACAD_REACTORS
330
94
102
}
330
94
100
DictionaryVariables
280
     0
  1
0
  0
DICTIONARYVAR
  5
5637
102
{ACAD_REACTORS
330
94
102
}
330
94
100
DictionaryVariables
280
     0
  1

  0
DICTIONARY
  5
1B5
102
{ACAD_REACTORS
330
5B
102
}
330
5B
100
AcDbDictionary
281
     1
  0
DICTIONARY
  5
61
102
{ACAD_REACTORS
330
5B
102
}
330
5B
100
AcDbDictionary
281
     1
  0
XRECORD
  5
123
102
{ACAD_REACTORS
330
5B
102
}
330
5B
100
AcDbXrecord
280
     1
 90
-1023410169
  0
DICTIONARY
  5
563D
330
22
100
AcDbDictionary
280
     1
281
     1
  3
ACAD_XREC_ROUNDTRIP
360
563E
  0
DICTIONARY
  5
563B
330
1E
100
AcDbDictionary
280
     1
281
     1
  3
ACAD_XREC_ROUNDTRIP
360
563C
  0
DICTIONARY
  5
563F
330
26
100
AcDbDictionary
280
     1
281
     1
  3
ACAD_XREC_ROUNDTRIP
360
5640
  0
XRECORD
  5
563E
102
{ACAD_REACTORS
330
563D
102
}
330
563D
100
AcDbXrecord
280
     1
102
SHADEPLOT
 70
     0
102
SHADEPLOTRESLEVEL
 70
     2
102
SHADEPLOTCUSTOMDPI
 70
   300
  0
XRECORD
  5
563C
102
{ACAD_REACTORS
330
563B
102
}
330
563B
100
AcDbXrecord
280
     1
102
SHADEPLOT
 70
     0
102
SHADEPLOTRESLEVEL
 70
     2
102
SHADEPLOTCUSTOMDPI
 70
   300
  0
XRECORD
  5
5640
102
{ACAD_REACTORS
330
563F
102
}
330
563F
100
AcDbXrecord
280
     1
102
SHADEPLOT
 70
     0
102
SHADEPLOTRESLEVEL
 70
     2
102
SHADEPLOTCUSTOMDPI
 70
   300
  0
ENDSEC
  0
EOF
