  0
SECTION
  2
HEADER
  9
$ACADVER
  1
AC1015
  9
$ACADMAINTVER
 70
    20
  9
$DWGCODEPAGE
  3
ANSI_950
  9
$INSBASE
 10
0.0
 20
0.0
 30
0.0
  9
$EXTMIN
 10
167.0297252934307
 20
144.9504005072403
 30
-0.0097559307547499
  9
$EXTMAX
 10
411.0086069244525
 20
418.496543468249
 30
159.8582443745227
  9
$LIMMIN
 10
0.0
 20
0.0
  9
$LIMMAX
 10
420.0
 20
297.0
  9
$ORTHOMODE
 70
     1
  9
$REGENMODE
 70
     1
  9
$FILLMODE
 70
     1
  9
$QTEXTMODE
 70
     0
  9
$MIRRTEXT
 70
     1
  9
$LTSCALE
 40
1.0
  9
$ATTMODE
 70
     1
  9
$TEXTSIZE
 40
3.0
  9
$TRACEWID
 40
1.0
  9
$TEXTSTYLE
  7
STANDARD
  9
$CLAYER
  8
0
  9
$CELTYPE
  6
ByLayer
  9
$CECOLOR
 62
   256
  9
$CELTSCALE
 40
1.0
  9
$DISPSILH
 70
     0
  9
$DIMSCALE
 40
1.0
  9
$DIMASZ
 40
3.0
  9
$DIMEXO
 40
1.5
  9
$DIMDLI
 40
8.0
  9
$DIMRND
 40
0.0
  9
$DIMDLE
 40
0.0
  9
$DIMEXE
 40
1.5
  9
$DIMTP
 40
0.1
  9
$DIMTM
 40
0.1
  9
$DIMTXT
 40
3.5
  9
$DIMCEN
 40
0.0
  9
$DIMTSZ
 40
0.0
  9
$DIMTOL
 70
     0
  9
$DIMLIM
 70
     0
  9
$DIMTIH
 70
     0
  9
$DIMTOH
 70
     0
  9
$DIMSE1
 70
     0
  9
$DIMSE2
 70
     0
  9
$DIMTAD
 70
     1
  9
$DIMZIN
 70
     8
  9
$DIMBLK
  1

  9
$DIMASO
 70
     1
  9
$DIMSHO
 70
     1
  9
$DIMPOST
  1

  9
$DIMAPOST
  1
"
  9
$DIMALT
 70
     0
  9
$DIMALTD
 70
     2
  9
$DIMALTF
 40
0.0393701
  9
$DIMLFAC
 40
1.0
  9
$DIMTOFL
 70
     1
  9
$DIMTVP
 40
0.0
  9
$DIMTIX
 70
     0
  9
$DIMSOXD
 70
     0
  9
$DIMSAH
 70
     0
  9
$DIMBLK1
  1

  9
$DIMBLK2
  1

  9
$DIMSTYLE
  2
AM_ISO
  9
$DIMCLRD
 70
   256
  9
$DIMCLRE
 70
   256
  9
$DIMCLRT
 70
   256
  9
$DIMTFAC
 40
0.6
  9
$DIMGAP
 40
1.0
  9
$DIMJUST
 70
     0
  9
$DIMSD1
 70
     0
  9
$DIMSD2
 70
     0
  9
$DIMTOLJ
 70
     0
  9
$DIMTZIN
 70
     8
  9
$DIMALTZ
 70
     0
  9
$DIMALTTZ
 70
     0
  9
$DIMUPT
 70
     0
  9
$DIMDEC
 70
     2
  9
$DIMTDEC
 70
     8
  9
$DIMALTU
 70
     2
  9
$DIMALTTD
 70
     2
  9
$DIMTXSTY
  7
STANDARD
  9
$DIMAUNIT
 70
     0
  9
$DIMADEC
 70
     0
  9
$DIMALTRND
 40
0.0
  9
$DIMAZIN
 70
     2
  9
$DIMDSEP
 70
    46
  9
$DIMATFIT
 70
     3
  9
$DIMFRAC
 70
     0
  9
$DIMLDRBLK
  1

  9
$DIMLUNIT
 70
     2
  9
$DIMLWD
 70
    -1
  9
$DIMLWE
 70
    -1
  9
$DIMTMOVE
 70
     0
  9
$LUNITS
 70
     2
  9
$LUPREC
 70
     2
  9
$SKETCHINC
 40
1.0
  9
$FILLETRAD
 40
2.5
  9
$AUNITS
 70
     0
  9
$AUPREC
 70
     0
  9
$MENU
  1
.
  9
$ELEVATION
 40
0.0
  9
$PELEVATION
 40
0.0
  9
$THICKNESS
 40
0.0
  9
$LIMCHECK
 70
     0
  9
$CHAMFERA
 40
2.5
  9
$CHAMFERB
 40
2.5
  9
$CHAMFERC
 40
20.0
  9
$CHAMFERD
 40
0.0
  9
$SKPOLY
 70
     0
  9
$TDCREATE
 40
2454377.552484618
  9
$TDUCREATE
 40
2454377.219151285
  9
$TDUPDATE
 40
2454377.556474607
  9
$TDUUPDATE
 40
2454377.223141273
  9
$TDINDWG
 40
0.0025464815
  9
$TDUSRTIMER
 40
0.0025463079
  9
$USRTIMER
 70
     1
  9
$ANGBASE
 50
0.0
  9
$ANGDIR
 70
     0
  9
$PDMODE
 70
     0
  9
$PDSIZE
 40
0.0
  9
$PLINEWID
 40
0.0
  9
$SPLFRAME
 70
     0
  9
$SPLINETYPE
 70
     6
  9
$SPLINESEGS
 70
     8
  9
$HANDSEED
  5
11A5
  9
$SURFTAB1
 70
     6
  9
$SURFTAB2
 70
     6
  9
$SURFTYPE
 70
     6
  9
$SURFU
 70
     6
  9
$SURFV
 70
     6
  9
$UCSBASE
  2

  9
$UCSNAME
  2

  9
$UCSORG
 10
0.0
 20
0.0
 30
0.0
  9
$UCSXDIR
 10
1.0
 20
0.0
 30
0.0
  9
$UCSYDIR
 10
0.0
 20
1.0
 30
0.0
  9
$UCSORTHOREF
  2

  9
$UCSORTHOVIEW
 70
     0
  9
$UCSORGTOP
 10
0.0
 20
0.0
 30
0.0
  9
$UCSORGBOTTOM
 10
0.0
 20
0.0
 30
0.0
  9
$UCSORGLEFT
 10
0.0
 20
0.0
 30
0.0
  9
$UCSORGRIGHT
 10
0.0
 20
0.0
 30
0.0
  9
$UCSORGFRONT
 10
0.0
 20
0.0
 30
0.0
  9
$UCSORGBACK
 10
0.0
 20
0.0
 30
0.0
  9
$PUCSBASE
  2

  9
$PUCSNAME
  2

  9
$PUCSORG
 10
0.0
 20
0.0
 30
0.0
  9
$PUCSXDIR
 10
1.0
 20
0.0
 30
0.0
  9
$PUCSYDIR
 10
0.0
 20
1.0
 30
0.0
  9
$PUCSORTHOREF
  2

  9
$PUCSORTHOVIEW
 70
     0
  9
$PUCSORGTOP
 10
0.0
 20
0.0
 30
0.0
  9
$PUCSORGBOTTOM
 10
0.0
 20
0.0
 30
0.0
  9
$PUCSORGLEFT
 10
0.0
 20
0.0
 30
0.0
  9
$PUCSORGRIGHT
 10
0.0
 20
0.0
 30
0.0
  9
$PUCSORGFRONT
 10
0.0
 20
0.0
 30
0.0
  9
$PUCSORGBACK
 10
0.0
 20
0.0
 30
0.0
  9
$USERI1
 70
     0
  9
$USERI2
 70
     0
  9
$USERI3
 70
     0
  9
$USERI4
 70
     0
  9
$USERI5
 70
     0
  9
$USERR1
 40
0.0
  9
$USERR2
 40
0.0
  9
$USERR3
 40
0.0
  9
$USERR4
 40
0.0
  9
$USERR5
 40
0.0
  9
$WORLDVIEW
 70
     1
  9
$SHADEDGE
 70
     3
  9
$SHADEDIF
 70
    70
  9
$TILEMODE
 70
     1
  9
$MAXACTVP
 70
    64
  9
$PINSBASE
 10
0.0
 20
0.0
 30
0.0
  9
$PLIMCHECK
 70
     0
  9
$PEXTMIN
 10
1.000000000000000E+20
 20
1.000000000000000E+20
 30
1.000000000000000E+20
  9
$PEXTMAX
 10
-1.000000000000000E+20
 20
-1.000000000000000E+20
 30
-1.000000000000000E+20
  9
$PLIMMIN
 10
0.0
 20
0.0
  9
$PLIMMAX
 10
420.0
 20
297.0
  9
$UNITMODE
 70
     0
  9
$VISRETAIN
 70
     1
  9
$PLINEGEN
 70
     0
  9
$PSLTSCALE
 70
     1
  9
$TREEDEPTH
 70
  3020
  9
$CMLSTYLE
  2
Standard
  9
$CMLJUST
 70
     0
  9
$CMLSCALE
 40
20.0
  9
$PROXYGRAPHICS
 70
     1
  9
$MEASUREMENT
 70
     1
  9
$CELWEIGHT
370
    -1
  9
$ENDCAPS
280
     0
  9
$JOINSTYLE
280
     0
  9
$LWDISPLAY
290
     0
  9
$INSUNITS
 70
     4
  9
$HYPERLINKBASE
  1

  9
$STYLESHEET
  1
彩色出圖.ctb
  9
$XEDIT
290
     1
  9
$CEPSNTYPE
380
     0
  9
$PSTYLEMODE
290
     1
  9
$FINGERPRINTGUID
  2
{6139D771-8767-477A-B5B4-4C1907C293BB}
  9
$VERSIONGUID
  2
{6BEA9A3F-6DE2-498E-B643-E4C8676DC99C}
  9
$EXTNAMES
290
     1
  9
$PSVPSCALE
 40
0.0
  9
$OLESTARTUP
290
     0
  0
ENDSEC
  0
SECTION
  2
CLASSES
  0
CLASS
  1
ACDBDICTIONARYWDFLT
  2
AcDbDictionaryWithDefault
  3
ObjectDBX Classes
 90
        0
280
     0
281
     0
  0
CLASS
  1
ACDBPLACEHOLDER
  2
AcDbPlaceHolder
  3
ObjectDBX Classes
 90
        0
280
     0
281
     0
  0
CLASS
  1
LAYOUT
  2
AcDbLayout
  3
ObjectDBX Classes
 90
        0
280
     0
281
     0
  0
CLASS
  1
ACME_DOCUMENT
  2
AcMeDbDoc
  3
AcMeServices
 90
        0
280
     0
281
     0
  0
CLASS
  1
AMGSETTINGSOBJ
  2
AmgSettingsObj
  3
"AcadM|Product Description: AutoCAD Mechanical 2000|Company: Autodesk"
 90
        0
280
     0
281
     0
  0
CLASS
  1
ACMESCOPE
  2
AcMeScope
  3
AcMeServices
 90
        0
280
     0
281
     0
  0
CLASS
  1
ACMECOMMANDHISTORY
  2
AcMeCommandHistory
  3
AcMeServices
 90
        0
280
     0
281
     0
  0
CLASS
  1
ACIMSYSVARMAN
  2
AcImSysVarManager
  3
AcMeServices
 90
        0
280
     0
281
     0
  0
CLASS
  1
ACIMREALSYSVAR
  2
AcImRealSysVar
  3
AcMeServices
 90
        0
280
     0
281
     0
  0
CLASS
  1
ACIMINTSYSVAR
  2
AcImIntSysVar
  3
AcMeServices
 90
        0
280
     0
281
     0
  0
CLASS
  1
ACMEDRAWINGMAN
  2
AcMeDrawingMan
  3
AcMeServices
 90
        0
280
     0
281
     0
  0
CLASS
  1
ACMEVIEW
  2
AcMeView
  3
AcMeServices
 90
        0
280
     0
281
     0
  0
CLASS
  1
ACDBENTITYCACHE
  2
AcMeEntityCache
  3
AcMeServices
 90
        0
280
     0
281
     0
  0
CLASS
  1
GSMANAGER
  2
AcMeGSManager
  3
AcMeServices
 90
        0
280
     0
281
     0
  0
CLASS
  1
AMDTINTERNALREACTOR
  2
AmdtInternalReactor
  3
AcMeServices
 90
        0
280
     0
281
     0
  0
CLASS
  1
ACMESTATEMGR
  2
AcMeStateMgr
  3
AcMeServices
 90
        0
280
     0
281
     0
  0
CLASS
  1
ACGREFMASTER
  2
AcGrefMaster
  3
AcAttribServices
 90
        0
280
     0
281
     0
  0
CLASS
  1
ACME_DATABASE
  2
AcMeDbDatabase
  3
AcMeServices
 90
        0
280
     0
281
     0
  0
CLASS
  1
ACRFINSADJUSTERMGR
  2
AcRfInsAdjusterMgr
  3
AcMeServices
 90
        0
280
     0
281
     0
  0
CLASS
  1
ACGREFACADMASTER
  2
AcGrefacadMaster
  3
AcGrefServices
 90
        0
280
     0
281
     0
  0
CLASS
  1
AMIMASTER
  2
AmiMaster
  3
AmiServices
 90
        0
280
     0
281
     0
  0
CLASS
  1
ACMDATADICTIONARY
  2
AcmDataDictionary
  3
"AcmSymBB|Product Description: AutoCAD Mechanical 2004 DX|Company: Autodesk"
 90
        0
280
     0
281
     0
  0
CLASS
  1
ACMDATAENTRYBLOCK
  2
AcmDataEntryBlock
  3
"AcmSymBB|Product Description: AutoCAD Mechanical 2004 DX|Company: Autodesk"
 90
        0
280
     0
281
     0
  0
CLASS
  1
ACIMSTRSYSVAR
  2
AcImStrSysVar
  3
AcMeServices
 90
        0
280
     0
281
     0
  0
CLASS
  1
ACMSTANDARDISO
  2
AcmStandardISO
  3
"Amdt_StdImp|Product Description: AutoCAD Mechanical 2004 DX|Company: Autodesk"
 90
        0
280
     0
281
     0
  0
CLASS
  1
AMGOBJPROPCFG
  2
AmgObjPropCfg
  3
"AmgLay|Product Description: AutoCAD Mechanical 2000|Company: Autodesk"
 90
        1
280
     0
281
     0
  0
CLASS
  1
AMDTEDGESTANDARDISO
  2
AmdtEdgeStdISO
  3
"Amdt_StdImp|Product Description: AutoCAD Mechanical 2004 DX|Company: Autodesk"
 90
        0
280
     0
281
     0
  0
CLASS
  1
ACMSURFSTANDARDISO
  2
AcmSurfTextStdISO
  3
"Amdt_StdImp|Product Description: AutoCAD Mechanical 2004 DX|Company: Autodesk"
 90
        0
280
     0
281
     0
  0
CLASS
  1
ACMFCFSTANDARDISO
  2
AcmFCFStdISO
  3
"Amdt_StdImp|Product Description: AutoCAD Mechanical 2004 DX|Company: Autodesk"
 90
        0
280
     0
281
     0
  0
CLASS
  1
ACMWELDSTANDARDISO
  2
AcmWeldingStdISO
  3
"Amdt_StdImp|Product Description: AutoCAD Mechanical 2004 DX|Company: Autodesk"
 90
        0
280
     0
281
     0
  0
CLASS
  1
ACMIDSTANDARDISO
  2
AcmIdStdISO
  3
"Amdt_StdImp|Product Description: AutoCAD Mechanical 2004 DX|Company: Autodesk"
 90
        0
280
     0
281
     0
  0
CLASS
  1
ACMDATUMSTANDARDISO
  2
AcmDatumStdISO
  3
"Amdt_StdImp|Product Description: AutoCAD Mechanical 2004 DX|Company: Autodesk"
 90
        0
280
     0
281
     0
  0
CLASS
  1
ACMBOMSTANDARDISO
  2
AcmBOMStdISO
  3
"Amdt_StdImp|Product Description: AutoCAD Mechanical 2004 DX|Company: Autodesk"
 90
        0
280
     0
281
     0
  0
CLASS
  1
ACMDETAILSTANDARDISO
  2
AmdtDetailSymStdISO
  3
"Amdt_StdImp|Product Description: AutoCAD Mechanical 2004 DX|Company: Autodesk"
 90
        0
280
     0
281
     0
  0
CLASS
  1
ACMSECTIONSTANDARDISO
  2
AmdtSectionSymStdISO
  3
"Amdt_StdImp|Product Description: AutoCAD Mechanical 2004 DX|Company: Autodesk"
 90
        0
280
     0
281
     0
  0
CLASS
  1
ACMCENTERLINESTANDARDISO
  2
AmdtCenterLineStdISO
  3
"Amdt_StdImp|Product Description: AutoCAD Mechanical 2004 DX|Company: Autodesk"
 90
        0
280
     0
281
     0
  0
CLASS
  1
ACMNOTESTANDARDISO
  2
AmdtNoteStdISO
  3
"Amdt_StdImp|Product Description: AutoCAD Mechanical 2004 DX|Company: Autodesk"
 90
        0
280
     0
281
     0
  0
CLASS
  1
ACAMGLAYSTD
  2
AcAmgLayStd
  3
"AcAmgLayStd|Product Description: AutoCAD Mechanical 2000|Company: Autodesk"
 90
        0
280
     0
281
     0
  0
CLASS
  1
ACAMGDIMSTD
  2
AcAmgDimStd
  3
"AcAmgDimStd|Product Description: AutoCAD Mechanical 2000|Company: Autodesk"
 90
        0
280
     0
281
     0
  0
CLASS
  1
ACAMGHOLECHARTSTDISO
  2
AcAmgHoleChartStdISO
  3
ACMSYMBB_MODULE_NAME
 90
        0
280
     0
281
     0
  0
CLASS
  1
ACAMGTITLESTD
  2
AcAmgTitleStd
  3
"TITLEAPP"
 90
        0
280
     0
281
     0
  0
CLASS
  1
LAYER_INDEX
  2
AcDbLayerIndex
  3
ObjectDBX Classes
 90
    32768
280
     0
281
     0
  0
CLASS
  1
IDBUFFER
  2
AcDbIdBuffer
  3
ObjectDBX Classes
 90
    32768
280
     0
281
     0
  0
CLASS
  1
DICTIONARYVAR
  2
AcDbDictionaryVar
  3
ObjectDBX Classes
 90
        0
280
     0
281
     0
  0
CLASS
  1
AM_DRAWING_MGR
  2
AcDmDwgMgr
  3
AcMechDwgViewMgmt
 90
        0
280
     0
281
     0
  0
CLASS
  1
AM_DWG_DOCUMENT
  2
AcDmDwgDocument
  3
AcMechDwgViewMgmt
 90
        0
280
     0
281
     0
  0
CLASS
  1
AM_DWG_SHEET
  2
AcDmSheet
  3
AcMechDwgViewMgmt
 90
        0
280
     0
281
     0
  0
CLASS
  1
AM_VIEWDIMPARMAP
  2
AcDmViewDimParMap
  3
AcMechDwgViewMgmt
 90
        0
280
     0
281
     0
  0
CLASS
  1
AM_DWGMGR_NAME
  2
AcDmDwgMgrName
  3
AcMechDwgViewMgmt
 90
        0
280
     0
281
     0
  0
CLASS
  1
AMDTMENUSTATEMGR
  2
AmdtMenuStateMgr
  3
McadcomServices
 90
        0
280
     0
281
     0
  0
CLASS
  1
AMDTMCOMMENUSTATE
  2
AmdtMcomMenuState
  3
McadcomServices
 90
        0
280
     0
281
     0
  0
CLASS
  1
MAPIAMMOUDLE
  2
MApiAmModule
  3
MApiAmServices
 90
        0
280
     0
281
     0
  0
CLASS
  1
AMDTADMENUSTATE
  2
AmdtAdMenuState
  3
DesignerServices
 90
        0
280
     0
281
     0
  0
CLASS
  1
ADAPPL
  2
AcAdAppl
  3
DesignerServices
 90
        0
280
     0
281
     0
  0
CLASS
  1
DEPMGR
  2
AcAdDepMgr
  3
DesignerServices
 90
        0
280
     0
281
     0
  0
CLASS
  1
PARAMMGR
  2
AcAdParamMgr
  3
DesignerServices
 90
        0
280
     0
281
     0
  0
CLASS
  1
PARAMSCOPE
  2
AcAdParamScope
  3
DesignerServices
 90
        0
280
     0
281
     0
  0
CLASS
  1
NAMEDAPPL
  2
AcAdNamedAppl
  3
DesignerServices
 90
        0
280
     0
281
     0
  0
CLASS
  1
AMDTDMMENUSTATE
  2
AmdtDmMenuState
  3
AcMechDwgViewMgmt
 90
        0
280
     0
281
     0
  0
CLASS
  1
AMDTAMMENUSTATE
  2
AmdtAmMenuState
  3
DesignerAssemblies
 90
        0
280
     0
281
     0
  0
CLASS
  1
ACAMPROJECT
  2
AcAmProject
  3
DesignerAssemblies
 90
        0
280
     0
281
     0
  0
CLASS
  1
ACAMGRCOMPDEF
  2
AcAmGrCompDef
  3
DesignerAssemblies
 90
        0
280
     0
281
     0
  0
CLASS
  1
ACCMCONTEXT
  2
AcCmContext
  3
DesignerAssemblies
 90
        0
280
     0
281
     0
  0
CLASS
  1
ACAMCOMPDEF
  2
AcAmCompDef
  3
DesignerAssemblies
 90
        0
280
     0
281
     0
  0
CLASS
  1
ACAMCOMPDEFMGR
  2
AcAmCompDefMgr
  3
DesignerAssemblies
 90
        0
280
     0
281
     0
  0
CLASS
  1
AMCONTEXTMGR
  2
AcAmContextMgr
  3
DesignerAssemblies
 90
        0
280
     0
281
     0
  0
CLASS
  1
ACAMCONTEXTMODELER
  2
AcAmContextModeler
  3
DesignerAssemblies
 90
        0
280
     0
281
     0
  0
CLASS
  1
ACMTHREADLINESTANDARDISO
  2
AmdtThreadLineStdISO
  3
"Amdt_StdImp|Product Description: AutoCAD Mechanical 2004 DX|Company: Autodesk"
 90
        0
280
     0
281
     0
  0
CLASS
  1
CATALOGSTATE
  2
AcAmCatalogState
  3
DesignerAssemblies
 90
        0
280
     0
281
     0
  0
CLASS
  1
ACAMGRCOMPDEFSET
  2
AcAmGrCompDefSet
  3
DesignerAssemblies
 90
        0
280
     0
281
     0
  0
CLASS
  1
AMDTBROWSERDBTAB
  2
AmdtBrowserDbTab
  3
McadcomServices
 90
        0
280
     0
281
     0
  0
CLASS
  1
CBROWSERAPPOBJECT
  2
CBrowserAppObject
  3
McadcomServices
 90
        0
280
     0
281
     0
  0
CLASS
  1
DM_PLACEHOLDER
  2
AcDmSelsetPlaceholder
  3
AcMechDwgViewMgmt
 90
        0
280
     0
281
     0
  0
CLASS
  1
TABLESTYLE
  2
AcDbTableStyle
  3
ObjectDBX Classes
 90
     2047
280
     0
281
     0
  0
CLASS
  1
VAACXREFPANELOBJECT
  2
VaAcXREFPanelObject
  3
VAAC_ADDIN
 90
    32768
280
     0
281
     0
  0
CLASS
  1
VAACIMAGEINVENTORY
  2
VaAcImageInventory
  3
VAAC_ADDIN
 90
    32768
280
     0
281
     0
  0
CLASS
  1
AMDTNOTETEMPLATEDB
  2
AmdtNoteTemplateDB
  3
AMDT_STDIMP_MODULE_NAME
 90
        0
280
     0
281
     0
  0
CLASS
  1
ACMBOM
  2
AcmBom
  3
"AcmSymBB|Product Description: AutoCAD Mechanical 2004 DX|Company: Autodesk"
 90
    32768
280
     0
281
     0
  0
CLASS
  1
AMDTFORMULAUPDATEDISPATCHER
  2
AmdtFormulaUpdateDispatcher
  3
AcMeServices
 90
    32768
280
     0
281
     0
  0
CLASS
  1
ACMPARTLIST
  2
AcmPartList
  3
"AcmSymBB|Product Description: AutoCAD Mechanical 2004 DX|Company: Autodesk"
 90
    33791
280
     0
281
     1
  0
CLASS
  1
ACAMGFILTERDAT
  2
AcAmgFilterDat
  3
"AcadM|Product Description: AutoCAD Mechanical 2000|Company: Autodesk"
 90
        0
280
     0
281
     0
  0
CLASS
  1
DIMASSOC
  2
AcDbDimAssoc
  3
"AcDbDimAssoc|Product Desc:     AcDim ARX App For Dimension|Company:          Autodesk, Inc.|WEB Address:      www.autodesk.com"
 90
    32768
280
     0
281
     0
  0
CLASS
  1
AMDTNOTE
  2
AmdtNote
  3
"AcmSymBB|Product Description: AutoCAD Mechanical 2004 DX|Company: Autodesk"
 90
     1023
280
     0
281
     1
  0
CLASS
  1
SORTENTSTABLE
  2
AcDbSortentsTable
  3
ObjectDBX Classes
 90
    32768
280
     0
281
     0
  0
CLASS
  1
ACRFATTGENMGR
  2
AcRfAttGeneralMgr
  3
AcAttribServices
 90
        0
280
     0
281
     0
  0
ENDSEC
  0
SECTION
  2
TABLES
  0
TABLE
  2
VPORT
  5
8
330
0
100
AcDbSymbolTable
 70
     3
  0
VPORT
  5
119C
330
8
100
AcDbSymbolTableRecord
100
AcDbViewportTableRecord
  2
*Active
 70
     0
 10
0.0
 20
0.0
 11
1.0
 21
1.0
 12
289.0191661089417
 22
281.7368566044972
 13
0.0
 23
0.0
 14
2.5
 24
2.5
 15
10.0
 25
10.0
 16
0.0
 26
0.0
 36
1.0
 17
0.0
 27
0.0
 37
0.0
 40
275.8198922258234
 41
1.421195652173913
 42
50.0
 43
0.0
 44
0.0
 50
0.0
 51
0.0
 71
     0
 72
   100
 73
     1
 74
     3
 75
     0
 76
     0
 77
     0
 78
     0
281
     0
 65
     1
110
0.0
120
0.0
130
0.0
111
1.0
121
0.0
131
0.0
112
0.0
122
1.0
132
0.0
 79
     0
146
0.0
  0
ENDTAB
  0
TABLE
  2
LTYPE
  5
5
330
0
100
AcDbSymbolTable
 70
    14
  0
LTYPE
  5
14
330
5
100
AcDbSymbolTableRecord
100
AcDbLinetypeTableRecord
  2
ByBlock
 70
     0
  3

 72
    65
 73
     0
 40
0.0
  0
LTYPE
  5
15
330
5
100
AcDbSymbolTableRecord
100
AcDbLinetypeTableRecord
  2
ByLayer
 70
     0
  3

 72
    65
 73
     0
 40
0.0
  0
LTYPE
  5
16
330
5
100
AcDbSymbolTableRecord
100
AcDbLinetypeTableRecord
  2
Continuous
 70
     0
  3
Solid line
 72
    65
 73
     0
 40
0.0
  0
LTYPE
  5
64
330
5
100
AcDbSymbolTableRecord
100
AcDbLinetypeTableRecord
  2
AM_ISO02W050
 70
     0
  3
__ __ __ __ __ __ __ __ __ __ __ __ __ __ __
 72
    65
 73
     2
 40
7.5
 49
6.0
 74
     0
 49
-1.5
 74
     0
  0
LTYPE
  5
65
330
5
100
AcDbSymbolTableRecord
100
AcDbLinetypeTableRecord
  2
AM_ISO08W050
 70
     0
  3
____ . ____ . ____ . ____ . ____ . ____ . ____
 72
    65
 73
     4
 40
18.0
 49
12.0
 74
     0
 49
-1.5
 74
     0
 49
3.0
 74
     0
 49
-1.5
 74
     0
  0
LTYPE
  5
66
330
5
100
AcDbSymbolTableRecord
100
AcDbLinetypeTableRecord
  2
AM_ISO09W050
 70
     0
  3
_____ . . _____ . . _____ . . ____ .. ____
 72
    65
 73
     6
 40
22.5
 49
12.0
 74
     0
 49
-1.5
 74
     0
 49
3.0
 74
     0
 49
-1.5
 74
     0
 49
3.0
 74
     0
 49
-1.5
 74
     0
  0
LTYPE
  5
67
330
5
100
AcDbSymbolTableRecord
100
AcDbLinetypeTableRecord
  2
Amconstr
 70
     0
  3
_______________________
 72
    65
 73
     2
 40
9999.0
 49
9999.0
 74
     0
 49
0.0
 74
     0
  0
LTYPE
  5
68
330
5
100
AcDbSymbolTableRecord
100
AcDbLinetypeTableRecord
  2
AM_ISO08W050x2
 70
     0
  3
__ . __ . __ . __ . __ . __
 72
    65
 73
     4
 40
9.0
 49
6.0
 74
     0
 49
-0.75
 74
     0
 49
1.5
 74
     0
 49
-0.75
 74
     0
  0
LTYPE
  5
69
330
5
100
AcDbSymbolTableRecord
100
AcDbLinetypeTableRecord
  2
AM_ISO02W050x2
 70
     0
  3
 _ _ _ _ _ _ _ _ _ _ _ _
 72
    65
 73
     2
 40
3.75
 49
3.0
 74
     0
 49
-0.75
 74
     0
  0
LTYPE
  5
6C
330
5
100
AcDbSymbolTableRecord
100
AcDbLinetypeTableRecord
  2
Amzigzag
 70
     0
  3
/\/-/\/-/\/-/\/-/\/-/\/
 72
    65
 73
     2
 40
11.0001
 49
0.0001
 74
     4
 75
   135
340
6B
 46
0.04
 50
0.0
 44
0.0
 45
0.0
 49
-11.0
 74
     0
  0
LTYPE
  5
7A
330
5
100
AcDbSymbolTableRecord
100
AcDbLinetypeTableRecord
  2
ACISOWELD
 70
     0
  3
_ _ _ _ _
 72
    65
 73
     2
 40
2.0
 49
2.0
 74
     0
 49
-1.0
 74
     0
  0
LTYPE
  5
7B
330
5
100
AcDbSymbolTableRecord
100
AcDbLinetypeTableRecord
  2
ACISOTGB
 70
     0
  3
__ . . __ . .
 72
    65
 73
     6
 40
9.0
 49
4.0
 74
     0
 49
-1.0
 74
     0
 49
1.0
 74
     0
 49
-1.0
 74
     0
 49
1.0
 74
     0
 49
-1.0
 74
     0
  0
LTYPE
  5
7C
330
5
100
AcDbSymbolTableRecord
100
AcDbLinetypeTableRecord
  2
ACISOTGL
 70
     0
  3
_ _ _ _ _
 72
    65
 73
     2
 40
3.0
 49
2.0
 74
     0
 49
-1.0
 74
     0
  0
LTYPE
  5
7E
330
5
100
AcDbSymbolTableRecord
100
AcDbLinetypeTableRecord
  2
CENTER
 70
     0
  3
__ . __
 72
    65
 73
     4
 40
7.0
 49
4.0
 74
     0
 49
-1.0
 74
     0
 49
1.0
 74
     0
 49
-1.0
 74
     0
  0
LTYPE
  5
D8
330
5
100
AcDbSymbolTableRecord
100
AcDbLinetypeTableRecord
  2
HIDDEN
 70
     0
  3
Hidden __ __ __ __ __ __ __ __ __ __ __ __ __ _
 72
    65
 73
     2
 40
9.524999999999998
 49
6.349999999999999
 74
     0
 49
-3.174999999999999
 74
     0
  0
LTYPE
  5
D9
330
5
100
AcDbSymbolTableRecord
100
AcDbLinetypeTableRecord
  2
PHANTOM2
 70
     0
  3
Phantom (.5x) ___ _ _ ___ _ _ ___ _ _ ___ _ _
 72
    65
 73
     6
 40
31.75
 49
15.875
 74
     0
 49
-3.174999999999999
 74
     0
 49
3.174999999999999
 74
     0
 49
-3.174999999999999
 74
     0
 49
3.174999999999999
 74
     0
 49
-3.174999999999999
 74
     0
  0
ENDTAB
  0
TABLE
  2
LAYER
  5
2
102
{ACAD_XDICTIONARY
360
3F9
102
}
330
0
100
AcDbSymbolTable
 70
     7
  0
LAYER
  5
10
330
2
100
AcDbSymbolTableRecord
100
AcDbLayerTableRecord
  2
0
 70
     0
 62
     7
  6
Continuous
370
    -3
390
F
  0
LAYER
  5
ACA
330
2
100
AcDbSymbolTableRecord
100
AcDbLayerTableRecord
  2
LOGO
 70
     0
 62
     7
  6
Continuous
370
    -3
390
F
  0
LAYER
  5
CBB
330
2
100
AcDbSymbolTableRecord
100
AcDbLayerTableRecord
  2
AM_VIS
 70
     0
 62
     7
  6
Continuous
370
    50
390
F
  0
LAYER
  5
CBC
330
2
100
AcDbSymbolTableRecord
100
AcDbLayerTableRecord
  2
Defpoints
 70
     0
 62
     7
  6
Continuous
290
     0
370
    -3
390
F
  0
LAYER
  5
CBD
330
2
100
AcDbSymbolTableRecord
100
AcDbLayerTableRecord
  2
AM_7
 70
     0
 62
     1
  6
CENTER
370
    25
390
F
  0
LAYER
  5
CBE
330
2
100
AcDbSymbolTableRecord
100
AcDbLayerTableRecord
  2
AM_5
 70
     0
 62
     5
  6
Continuous
370
    50
390
F
  0
LAYER
  5
CC0
330
2
100
AcDbSymbolTableRecord
100
AcDbLayerTableRecord
  2
AM_4
 70
     0
 62
     3
  6
Continuous
370
    25
390
F
  0
ENDTAB
  0
TABLE
  2
STYLE
  5
3
330
0
100
AcDbSymbolTable
 70
     6
  0
STYLE
  5
11
330
3
100
AcDbSymbolTableRecord
100
AcDbTextStyleTableRecord
  2
STANDARD
 70
     0
 40
0.0
 41
1.0
 50
0.0
 71
     0
 42
3.0
  3
ISOCP.SHX
  4
CHINESET.SHX
  0
STYLE
  5
6B
330
3
100
AcDbSymbolTableRecord
100
AcDbTextStyleTableRecord
  2

 70
     1
 40
0.0
 41
1.0
 50
0.0
 71
     0
 42
2.5
  3
ltypeshp.shx
  4

  0
STYLE
  5
6D
330
3
100
AcDbSymbolTableRecord
100
AcDbTextStyleTableRecord
  2
ACISOTS
 70
     0
 40
1.0
 41
1.0
 50
0.0
 71
     0
 42
1.0
  3
isocp.shx
  4
chineset.shx
  0
STYLE
  5
79
330
3
100
AcDbSymbolTableRecord
100
AcDbTextStyleTableRecord
  2
ACISOGDT
 70
     0
 40
0.0
 41
1.0
 50
0.0
 71
     0
 42
2.5
  3
amgdt.shx
  4
chineset.shx
  0
STYLE
  5
ACB
330
3
100
AcDbSymbolTableRecord
100
AcDbTextStyleTableRecord
  2
CHINESET
 70
     0
 40
0.0
 41
1.0
 50
0.0
 71
     0
 42
3.0
  3
simplex.shx
  4
CHINESET.SHX
  0
ENDTAB
  0
TABLE
  2
VIEW
  5
6
330
0
100
AcDbSymbolTable
 70
     0
  0
ENDTAB
  0
TABLE
  2
UCS
  5
7
330
0
100
AcDbSymbolTable
 70
     0
  0
ENDTAB
  0
TABLE
  2
APPID
  5
9
330
0
100
AcDbSymbolTable
 70
    21
  0
APPID
  5
12
330
9
100
AcDbSymbolTableRecord
100
AcDbRegAppTableRecord
  2
ACAD
 70
     0
  0
APPID
  5
46
330
9
100
AcDbSymbolTableRecord
100
AcDbRegAppTableRecord
  2
MCAD_NO_VIS
 70
     0
  0
APPID
  5
47
330
9
100
AcDbSymbolTableRecord
100
AcDbRegAppTableRecord
  2
ACAD_TEMP_GRAPHIC
 70
     0
  0
APPID
  5
58
330
9
100
AcDbSymbolTableRecord
100
AcDbRegAppTableRecord
  2
ACATTRIBSERVICES
 70
     0
  0
APPID
  5
EE
330
9
100
AcDbSymbolTableRecord
100
AcDbRegAppTableRecord
  2
AD_DRAW
 70
     0
  0
APPID
  5
10C
330
9
100
AcDbSymbolTableRecord
100
AcDbRegAppTableRecord
  2
DESIGNERASSEMBLIES
 70
     0
  0
APPID
  5
111
330
9
100
AcDbSymbolTableRecord
100
AcDbRegAppTableRecord
  2
ACADM_DIM_EDIT
 70
     0
  0
APPID
  5
112
330
9
100
AcDbSymbolTableRecord
100
AcDbRegAppTableRecord
  2
AMDT_DM_ADJ
 70
     0
  0
APPID
  5
22C
330
9
100
AcDbSymbolTableRecord
100
AcDbRegAppTableRecord
  2
ACAD_DSTYLE_DIMTEXT_FILL
 70
     0
  0
APPID
  5
452
330
9
100
AcDbSymbolTableRecord
100
AcDbRegAppTableRecord
  2
GENIUS_GENOENT_13
 70
     0
  0
APPID
  5
453
330
9
100
AcDbSymbolTableRecord
100
AcDbRegAppTableRecord
  2
GENIUS_GENOBJ-N-CRS_13
 70
     0
  0
APPID
  5
454
330
9
100
AcDbSymbolTableRecord
100
AcDbRegAppTableRecord
  2
GENIUS_GENOLIS_13
 70
     0
  0
APPID
  5
455
330
9
100
AcDbSymbolTableRecord
100
AcDbRegAppTableRecord
  2
GENIUS_GENODEF_13
 70
     0
  0
APPID
  5
456
330
9
100
AcDbSymbolTableRecord
100
AcDbRegAppTableRecord
  2
GENIUS_GENOREF_13
 70
     0
  0
APPID
  5
6F3
330
9
100
AcDbSymbolTableRecord
100
AcDbRegAppTableRecord
  2
ACAD_PSEXT
 70
     0
  0
APPID
  5
808
330
9
100
AcDbSymbolTableRecord
100
AcDbRegAppTableRecord
  2
GENIUS_GENDTOL_13
 70
     0
  0
APPID
  5
ACC
330
9
100
AcDbSymbolTableRecord
100
AcDbRegAppTableRecord
  2
GENIUS_GENREC_14
 70
     0
  0
APPID
  5
ACD
330
9
100
AcDbSymbolTableRecord
100
AcDbRegAppTableRecord
  2
GENIUS_GENOBJ-N-REC_13
 70
     0
  0
APPID
  5
CC1
330
9
100
AcDbSymbolTableRecord
100
AcDbRegAppTableRecord
  2
GENIUS_GENOBJ-N-CEN_13
 70
     0
  0
APPID
  5
CC2
330
9
100
AcDbSymbolTableRecord
100
AcDbRegAppTableRecord
  2
GENIUS_GENCEN_19
 70
     0
  0
APPID
  5
CC3
330
9
100
AcDbSymbolTableRecord
100
AcDbRegAppTableRecord
  2
AcAecLayerStandard
 70
     0
  0
ENDTAB
  0
TABLE
  2
DIMSTYLE
  5
A
330
0
100
AcDbSymbolTable
 70
     9
100
AcDbDimStyleTable
 71
     3
340
81
340
8B
340
86
  0
DIMSTYLE
105
81
330
A
100
AcDbSymbolTableRecord
100
AcDbDimStyleTableRecord
  2
AM_ISO
 70
     0
  4
"
 41
3.0
 42
1.5
 43
8.0
 44
1.5
 47
0.1
 48
0.1
 73
     0
 74
     0
 77
     1
 78
     8
 79
     2
140
3.5
141
0.0
143
0.0393701
146
0.6
147
1.0
172
     1
176
   256
177
   256
178
   256
271
     2
272
     2
283
     0
284
     8
340
11
371
    -1
372
    -1
  0
DIMSTYLE
105
82
330
A
100
AcDbSymbolTableRecord
100
AcDbDimStyleTableRecord
  2
AM_ISO$3
 70
     0
  4
"
 41
3.0
 42
1.5
 43
8.0
 44
1.5
 47
0.1
 48
0.1
 73
     0
 77
     1
 78
     8
 79
     2
140
3.5
141
0.0
143
0.0393701
146
0.6
147
1.0
176
   256
177
   256
178
   256
271
     2
272
     2
283
     0
284
     8
288
     1
289
     0
340
11
371
    -1
372
    -1
  0
DIMSTYLE
105
83
330
A
100
AcDbSymbolTableRecord
100
AcDbDimStyleTableRecord
  2
AM_ISO$4
 70
     0
  4
"
 41
3.0
 42
1.5
 43
8.0
 44
1.5
 47
0.1
 48
0.1
 73
     0
 77
     1
 78
     8
 79
     2
140
3.5
141
0.0
143
0.0393701
146
0.6
147
1.0
176
   256
177
   256
178
   256
271
     2
272
     2
283
     0
284
     8
288
     1
289
     0
340
11
371
    -1
372
    -1
  0
DIMSTYLE
105
84
330
A
100
AcDbSymbolTableRecord
100
AcDbDimStyleTableRecord
  2
AM_ISO$6
 70
     0
  4
"
 41
3.0
 42
1.5
 43
8.0
 44
1.5
 47
0.1
 48
0.1
 73
     0
 74
     0
 78
     8
 79
     2
140
3.5
141
0.0
143
0.0393701
146
0.6
147
1.0
172
     1
176
   256
177
   256
178
   256
271
     2
272
     2
283
     0
284
     8
340
11
371
    -1
372
    -1
  0
DIMSTYLE
105
85
330
A
100
AcDbSymbolTableRecord
100
AcDbDimStyleTableRecord
  2
AM_ISO$7
 70
     0
  4
"
 41
3.0
 42
1.5
 43
8.0
 44
1.5
 47
0.1
 48
0.1
 73
     0
 74
     0
 77
     1
 78
     8
 79
     2
140
5.0
141
0.0
143
0.0393701
146
0.6
147
1.0
172
     1
176
   256
177
   256
178
   256
271
     2
272
     2
283
     0
284
     8
340
11
371
    -1
372
    -1
  0
DIMSTYLE
105
86
330
A
100
AcDbSymbolTableRecord
100
AcDbDimStyleTableRecord
  2
AM_ISO$SF
 70
     0
  4
"
 41
2.5
 42
1.0
 43
10.0
 44
1.0
 47
0.1
 48
0.1
 73
     0
 74
     0
 75
     1
 76
     1
 77
     1
 78
     8
 79
     2
140
3.5
141
0.0
143
0.0393701
146
0.71
147
1.5
172
     1
176
   256
177
   256
178
     2
271
     2
272
     3
274
     4
283
     0
284
     8
340
11
371
    -1
372
    -1
  0
DIMSTYLE
105
8B
330
A
100
AcDbSymbolTableRecord
100
AcDbDimStyleTableRecord
  2
AM_ISO$SH
 70
     0
  4
"
 41
2.5
 42
1.0
 43
10.0
 44
1.0
 47
0.1
 48
0.1
 73
     0
 74
     0
 75
     1
 76
     1
 77
     1
 78
     8
 79
     2
140
3.5
141
0.0
143
0.0393701
144
2.0
146
0.71
147
1.5
172
     1
173
     1
176
   256
177
   256
178
     2
271
     2
272
     3
274
     4
283
     0
284
     8
340
11
343
87
371
    -1
372
    -1
  0
DIMSTYLE
105
40B
102
{ACAD_REACTORS
330
FBA
330
FBB
330
FBC
330
FBD
330
FBE
330
FBF
330
FC0
330
FC1
330
FC2
330
FCB
330
FCC
330
FCF
330
FD0
330
FD1
102
}
330
A
100
AcDbSymbolTableRecord
100
AcDbDimStyleTableRecord
  2
AM_ISO$0
 70
     0
  4
"
 41
3.0
 42
1.5
 43
8.0
 44
1.5
 47
0.1
 48
0.1
 73
     0
 74
     0
 77
     1
 78
     8
 79
     2
140
3.5
141
0.0
143
0.0393701
146
0.6
147
1.0
172
     1
176
   256
177
   256
178
   256
271
     2
272
     2
283
     0
284
     8
340
11
371
    -1
372
    -1
  0
ENDTAB
  0
TABLE
  2
BLOCK_RECORD
  5
1
330
0
100
AcDbSymbolTable
 70
    23
  0
BLOCK_RECORD
  5
1F
102
{ACAD_XDICTIONARY
360
8F
102
}
330
1
100
AcDbSymbolTableRecord
100
AcDbBlockTableRecord
  2
*Model_Space
340
22
  0
BLOCK_RECORD
  5
1B
330
1
100
AcDbSymbolTableRecord
100
AcDbBlockTableRecord
  2
*Paper_Space
340
1E
  0
BLOCK_RECORD
  5
23
330
1
100
AcDbSymbolTableRecord
100
AcDbBlockTableRecord
  2
*Paper_Space0
340
26
  0
BLOCK_RECORD
  5
87
330
1
100
AcDbSymbolTableRecord
100
AcDbBlockTableRecord
  2
GENAXEH
340
0
  0
BLOCK_RECORD
  5
FE6
330
1
100
AcDbSymbolTableRecord
100
AcDbBlockTableRecord
  2
*D3
340
0
  0
BLOCK_RECORD
  5
FF2
330
1
100
AcDbSymbolTableRecord
100
AcDbBlockTableRecord
  2
*D4
340
0
  0
BLOCK_RECORD
  5
FFE
330
1
100
AcDbSymbolTableRecord
100
AcDbBlockTableRecord
  2
*D5
340
0
  0
BLOCK_RECORD
  5
100A
330
1
100
AcDbSymbolTableRecord
100
AcDbBlockTableRecord
  2
*D6
340
0
  0
BLOCK_RECORD
  5
1016
330
1
100
AcDbSymbolTableRecord
100
AcDbBlockTableRecord
  2
*D7
340
0
  0
BLOCK_RECORD
  5
1024
330
1
100
AcDbSymbolTableRecord
100
AcDbBlockTableRecord
  2
*D8
340
0
  0
BLOCK_RECORD
  5
1032
330
1
100
AcDbSymbolTableRecord
100
AcDbBlockTableRecord
  2
*D9
340
0
  0
BLOCK_RECORD
  5
103E
330
1
100
AcDbSymbolTableRecord
100
AcDbBlockTableRecord
  2
*D10
340
0
  0
BLOCK_RECORD
  5
104A
330
1
100
AcDbSymbolTableRecord
100
AcDbBlockTableRecord
  2
*D11
340
0
  0
BLOCK_RECORD
  5
1056
330
1
100
AcDbSymbolTableRecord
100
AcDbBlockTableRecord
  2
*D12
340
0
  0
BLOCK_RECORD
  5
1064
330
1
100
AcDbSymbolTableRecord
100
AcDbBlockTableRecord
  2
*D13
340
0
  0
BLOCK_RECORD
  5
1070
330
1
100
AcDbSymbolTableRecord
100
AcDbBlockTableRecord
  2
*D14
340
0
  0
BLOCK_RECORD
  5
107C
330
1
100
AcDbSymbolTableRecord
100
AcDbBlockTableRecord
  2
*D15
340
0
  0
BLOCK_RECORD
  5
1088
330
1
100
AcDbSymbolTableRecord
100
AcDbBlockTableRecord
  2
*D16
340
0
  0
BLOCK_RECORD
  5
1172
330
1
100
AcDbSymbolTableRecord
100
AcDbBlockTableRecord
  2
*S18
340
0
  0
BLOCK_RECORD
  5
117A
330
1
100
AcDbSymbolTableRecord
100
AcDbBlockTableRecord
  2
*S19
340
0
  0
BLOCK_RECORD
  5
1182
330
1
100
AcDbSymbolTableRecord
100
AcDbBlockTableRecord
  2
*S20
340
0
  0
BLOCK_RECORD
  5
118A
330
1
100
AcDbSymbolTableRecord
100
AcDbBlockTableRecord
  2
*S21
340
0
  0
BLOCK_RECORD
  5
1192
330
1
100
AcDbSymbolTableRecord
100
AcDbBlockTableRecord
  2
*S22
340
0
  0
ENDTAB
  0
ENDSEC
  0
SECTION
  2
BLOCKS
  0
BLOCK
  5
20
330
1F
100
AcDbEntity
  8
0
100
AcDbBlockBegin
  2
*Model_Space
 70
     0
 10
0.0
 20
0.0
 30
0.0
  3
*Model_Space
  1

  0
ENDBLK
  5
21
330
1F
100
AcDbEntity
  8
0
100
AcDbBlockEnd
  0
BLOCK
  5
1C
330
1B
100
AcDbEntity
 67
     1
  8
0
100
AcDbBlockBegin
  2
*Paper_Space
 70
     0
 10
0.0
 20
0.0
 30
0.0
  3
*Paper_Space
  1

  0
ENDBLK
  5
1D
330
1B
100
AcDbEntity
 67
     1
  8
0
100
AcDbBlockEnd
  0
BLOCK
  5
24
330
23
100
AcDbEntity
  8
0
100
AcDbBlockBegin
  2
*Paper_Space0
 70
     0
 10
0.0
 20
0.0
 30
0.0
  3
*Paper_Space0
  1

  0
ENDBLK
  5
25
330
23
100
AcDbEntity
  8
0
100
AcDbBlockEnd
  0
BLOCK
  5
89
330
87
100
AcDbEntity
  8
0
100
AcDbBlockBegin
  2
GENAXEH
 70
     0
 10
0.0
 20
0.0
 30
0.0
  3
GENAXEH
  1

  0
LINE
  5
88
330
87
100
AcDbEntity
  8
0
100
AcDbLine
 10
-1.0
 20
0.0
 30
0.0
 11
1.0
 21
0.0
 31
0.0
  0
ENDBLK
  5
8A
330
87
100
AcDbEntity
  8
0
100
AcDbBlockEnd
  0
BLOCK
  5
FF0
330
FE6
100
AcDbEntity
  8
0
100
AcDbBlockBegin
  2
*D3
 70
     1
 10
0.0
 20
0.0
 30
0.0
  3
*D3
  1

  0
LINE
  5
1094
330
FE6
100
AcDbEntity
  8
AM_5
100
AcDbLine
 10
253.7900375400092
 20
360.2120797114488
 30
0.0
 11
208.7900375400092
 21
360.2120797114488
 31
0.0
  0
LINE
  5
1095
330
FE6
100
AcDbEntity
  8
AM_5
100
AcDbLine
 10
278.7900375400091
 20
343.2120797114488
 30
0.0
 11
208.7900375400092
 21
343.2120797114488
 31
0.0
  0
LINE
  5
1096
330
FE6
100
AcDbEntity
  8
AM_5
100
AcDbLine
 10
210.8900375400092
 20
356.0120797114488
 30
0.0
 11
210.8900375400092
 21
347.4120797114488
 31
0.0
  0
SOLID
  5
1097
330
FE6
100
AcDbEntity
  8
AM_5
100
AcDbTrace
 10
210.1900375400092
 20
356.0120797114488
 30
0.0
 11
211.5900375400092
 21
356.0120797114488
 31
0.0
 12
210.8900375400092
 22
360.2120797114488
 32
0.0
 13
210.8900375400092
 23
360.2120797114488
 33
0.0
  0
SOLID
  5
1098
330
FE6
100
AcDbEntity
  8
AM_5
100
AcDbTrace
 10
210.1900375400092
 20
347.4120797114488
 30
0.0
 11
211.5900375400092
 21
347.4120797114488
 31
0.0
 12
210.8900375400092
 22
343.2120797114488
 32
0.0
 13
210.8900375400092
 23
343.2120797114488
 33
0.0
  0
MTEXT
  5
1099
330
FE6
100
AcDbEntity
  8
AM_5
100
AcDbMText
 10
207.0400375400091
 20
351.7120797114488
 30
0.0
 40
4.899999999999999
 41
0.0
 71
     5
 72
     1
  1
17
 11
0.0000000000000001
 21
1.0
 31
0.0
 73
     1
 44
1.0
1001
ACAD
1000
MTEXTBEGIN
1070
    73
1070
     1
1070
    44
1040
1.0
1070
    74
1070
     0
1000
MTEXTEND
  0
POINT
  5
109A
330
FE6
100
AcDbEntity
  8
Defpoints
 62
     0
100
AcDbPoint
 10
255.8900375400092
 20
360.2120797114488
 30
0.0
  0
POINT
  5
109B
330
FE6
100
AcDbEntity
  8
Defpoints
 62
     0
100
AcDbPoint
 10
280.8900375400092
 20
343.2120797114488
 30
0.0
  0
POINT
  5
109C
330
FE6
100
AcDbEntity
  8
Defpoints
 62
     0
100
AcDbPoint
 10
210.8900375400092
 20
343.2120797114488
 30
0.0
  0
ENDBLK
  5
FF1
330
FE6
100
AcDbEntity
  8
0
100
AcDbBlockEnd
  0
BLOCK
  5
FFC
330
FF2
100
AcDbEntity
  8
0
100
AcDbBlockBegin
  2
*D4
 70
     1
 10
0.0
 20
0.0
 30
0.0
  3
*D4
  1

  0
LINE
  5
109D
330
FF2
100
AcDbEntity
  8
AM_5
100
AcDbLine
 10
230.7900375400092
 20
362.8620797114487
 30
0.0
 11
198.7900375400092
 21
362.8620797114487
 31
0.0
  0
LINE
  5
109E
330
FF2
100
AcDbEntity
  8
AM_5
100
AcDbLine
 10
230.7900375400092
 20
340.5620797114487
 30
0.0
 11
198.7900375400092
 21
340.5620797114487
 31
0.0
  0
LINE
  5
109F
330
FF2
100
AcDbEntity
  8
AM_5
100
AcDbLine
 10
200.8900375400092
 20
358.6620797114488
 30
0.0
 11
200.8900375400092
 21
344.7620797114487
 31
0.0
  0
SOLID
  5
10A0
330
FF2
100
AcDbEntity
  8
AM_5
100
AcDbTrace
 10
200.1900375400092
 20
358.6620797114488
 30
0.0
 11
201.5900375400092
 21
358.6620797114488
 31
0.0
 12
200.8900375400092
 22
362.8620797114487
 32
0.0
 13
200.8900375400092
 23
362.8620797114487
 33
0.0
  0
SOLID
  5
10A1
330
FF2
100
AcDbEntity
  8
AM_5
100
AcDbTrace
 10
200.1900375400092
 20
344.7620797114487
 30
0.0
 11
201.5900375400092
 21
344.7620797114487
 31
0.0
 12
200.8900375400092
 22
340.5620797114487
 32
0.0
 13
200.8900375400092
 23
340.5620797114487
 33
0.0
  0
MTEXT
  5
10A2
330
FF2
100
AcDbEntity
  8
AM_5
100
AcDbMText
 10
197.0395552565445
 20
351.7120797114488
 30
0.0
 40
4.899999999999999
 41
0.0
 71
     5
 72
     1
  1
22.3
 11
0.0000000000000001
 21
1.0
 31
0.0
 73
     1
 44
1.0
1001
ACAD
1000
MTEXTBEGIN
1070
    73
1070
     1
1070
    44
1040
1.0
1070
    74
1070
     0
1000
MTEXTEND
  0
POINT
  5
10A3
330
FF2
100
AcDbEntity
  8
Defpoints
 62
     0
100
AcDbPoint
 10
232.8900375400092
 20
362.8620797114487
 30
0.0
  0
POINT
  5
10A4
330
FF2
100
AcDbEntity
  8
Defpoints
 62
     0
100
AcDbPoint
 10
232.8900375400092
 20
340.5620797114487
 30
0.0
  0
POINT
  5
10A5
330
FF2
100
AcDbEntity
  8
Defpoints
 62
     0
100
AcDbPoint
 10
200.8900375400092
 20
340.5620797114487
 30
0.0
  0
ENDBLK
  5
FFD
330
FF2
100
AcDbEntity
  8
0
100
AcDbBlockEnd
  0
BLOCK
  5
1008
330
FFE
100
AcDbEntity
  8
0
100
AcDbBlockBegin
  2
*D5
 70
     1
 10
0.0
 20
0.0
 30
0.0
  3
*D5
  1

  0
LINE
  5
10A6
330
FFE
100
AcDbEntity
  8
AM_5
100
AcDbLine
 10
232.8900375400092
 20
364.9620797114488
 30
0.0
 11
232.8900375400092
 21
374.3120797114488
 31
0.0
  0
LINE
  5
10A7
330
FFE
100
AcDbEntity
  8
AM_5
100
AcDbLine
 10
259.8900375400092
 20
366.3120797114488
 30
0.0
 11
259.8900375400092
 21
374.3120797114488
 31
0.0
  0
LINE
  5
10A8
330
FFE
100
AcDbEntity
  8
AM_5
100
AcDbLine
 10
237.0900375400092
 20
372.2120797114488
 30
0.0
 11
255.6900375400092
 21
372.2120797114488
 31
0.0
  0
SOLID
  5
10A9
330
FFE
100
AcDbEntity
  8
AM_5
100
AcDbTrace
 10
237.0900375400092
 20
372.9120797114488
 30
0.0
 11
237.0900375400092
 21
371.5120797114488
 31
0.0
 12
232.8900375400092
 22
372.2120797114488
 32
0.0
 13
232.8900375400092
 23
372.2120797114488
 33
0.0
  0
SOLID
  5
10AA
330
FFE
100
AcDbEntity
  8
AM_5
100
AcDbTrace
 10
255.6900375400092
 20
372.9120797114488
 30
0.0
 11
255.6900375400092
 21
371.5120797114488
 31
0.0
 12
259.8900375400092
 22
372.2120797114488
 32
0.0
 13
259.8900375400092
 23
372.2120797114488
 33
0.0
  0
MTEXT
  5
10AB
330
FFE
100
AcDbEntity
  8
AM_5
100
AcDbMText
 10
246.3900375400092
 20
376.0625619949133
 30
0.0
 40
4.899999999999999
 41
0.0
 71
     5
 72
     1
  1
27
 73
     1
 44
1.0
1001
ACAD
1000
MTEXTBEGIN
1070
    73
1070
     1
1070
    44
1040
1.0
1070
    74
1070
     0
1000
MTEXTEND
  0
POINT
  5
10AC
330
FFE
100
AcDbEntity
  8
Defpoints
 62
     0
100
AcDbPoint
 10
232.8900375400092
 20
362.8620797114487
 30
0.0
  0
POINT
  5
10AD
330
FFE
100
AcDbEntity
  8
Defpoints
 62
     0
100
AcDbPoint
 10
259.8900375400092
 20
364.2120797114488
 30
0.0
  0
POINT
  5
10AE
330
FFE
100
AcDbEntity
  8
Defpoints
 62
     0
100
AcDbPoint
 10
259.8900375400092
 20
372.2120797114488
 30
0.0
  0
ENDBLK
  5
1009
330
FFE
100
AcDbEntity
  8
0
100
AcDbBlockEnd
  0
BLOCK
  5
1014
330
100A
100
AcDbEntity
  8
0
100
AcDbBlockBegin
  2
*D6
 70
     1
 10
0.0
 20
0.0
 30
0.0
  3
*D6
  1

  0
LINE
  5
10AF
330
100A
100
AcDbEntity
  8
AM_5
100
AcDbLine
 10
259.8900375400092
 20
366.3120797114488
 30
0.0
 11
259.8900375400092
 21
374.3120797114488
 31
0.0
  0
LINE
  5
10B0
330
100A
100
AcDbEntity
  8
AM_5
100
AcDbLine
 10
285.3900375400092
 20
350.3120797114482
 30
0.0
 11
285.3900375400092
 21
374.3120797114488
 31
0.0
  0
LINE
  5
10B1
330
100A
100
AcDbEntity
  8
AM_5
100
AcDbLine
 10
264.0900375400092
 20
372.2120797114488
 30
0.0
 11
281.1900375400092
 21
372.2120797114488
 31
0.0
  0
SOLID
  5
10B2
330
100A
100
AcDbEntity
  8
AM_5
100
AcDbTrace
 10
264.0900375400092
 20
372.9120797114488
 30
0.0
 11
264.0900375400092
 21
371.5120797114488
 31
0.0
 12
259.8900375400092
 22
372.2120797114488
 32
0.0
 13
259.8900375400092
 23
372.2120797114488
 33
0.0
  0
SOLID
  5
10B3
330
100A
100
AcDbEntity
  8
AM_5
100
AcDbTrace
 10
281.1900375400092
 20
372.9120797114488
 30
0.0
 11
281.1900375400092
 21
371.5120797114488
 31
0.0
 12
285.3900375400092
 22
372.2120797114488
 32
0.0
 13
285.3900375400092
 23
372.2120797114488
 33
0.0
  0
MTEXT
  5
10B4
330
100A
100
AcDbEntity
  8
AM_5
100
AcDbMText
 10
272.6400375400092
 20
376.0625619949133
 30
0.0
 40
4.899999999999999
 41
0.0
 71
     5
 72
     1
  1
25.5
 73
     1
 44
1.0
1001
ACAD
1000
MTEXTBEGIN
1070
    73
1070
     1
1070
    44
1040
1.0
1070
    74
1070
     0
1000
MTEXTEND
  0
POINT
  5
10B5
330
100A
100
AcDbEntity
  8
Defpoints
 62
     0
100
AcDbPoint
 10
259.8900375400092
 20
364.2120797114488
 30
0.0
  0
POINT
  5
10B6
330
100A
100
AcDbEntity
  8
Defpoints
 62
     0
100
AcDbPoint
 10
285.3900375400092
 20
348.2120797114482
 30
0.0
  0
POINT
  5
10B7
330
100A
100
AcDbEntity
  8
Defpoints
 62
     0
100
AcDbPoint
 10
285.3900375400092
 20
372.2120797114488
 30
0.0
  0
ENDBLK
  5
1015
330
100A
100
AcDbEntity
  8
0
100
AcDbBlockEnd
  0
BLOCK
  5
1022
330
1016
100
AcDbEntity
  8
0
100
AcDbBlockBegin
  2
*D7
 70
     1
 10
0.0
 20
0.0
 30
0.0
  3
*D7
  1

  0
LINE
  5
10B8
330
1016
100
AcDbEntity
  8
AM_5
100
AcDbLine
 10
242.4123719257351
 20
351.7120797114488
 30
0.0
 11
218.790037540009
 21
351.7120797114488
 31
0.0
  0
LINE
  5
10B9
330
1016
100
AcDbEntity
  8
AM_5
100
AcDbLine
 10
262.5900375400091
 20
349.7120797114488
 30
0.0
 11
218.790037540009
 21
349.7120797114488
 31
0.0
  0
LINE
  5
10BA
330
1016
100
AcDbEntity
  8
AM_5
100
AcDbLine
 10
220.890037540009
 20
355.9120797114488
 30
0.0
 11
220.890037540009
 21
360.1120797114488
 31
0.0
  0
LINE
  5
10BB
330
1016
100
AcDbEntity
  8
AM_5
100
AcDbLine
 10
220.890037540009
 20
345.5120797114488
 30
0.0
 11
220.890037540009
 21
336.1333612075118
 31
0.0
  0
LINE
  5
10BC
330
1016
100
AcDbEntity
  8
AM_5
100
AcDbLine
 10
220.890037540009
 20
351.7120797114488
 30
0.0
 11
220.890037540009
 21
349.7120797114488
 31
0.0
  0
SOLID
  5
10BD
330
1016
100
AcDbEntity
  8
AM_5
100
AcDbTrace
 10
220.190037540009
 20
355.9120797114488
 30
0.0
 11
221.590037540009
 21
355.9120797114488
 31
0.0
 12
220.890037540009
 22
351.7120797114488
 32
0.0
 13
220.890037540009
 23
351.7120797114488
 33
0.0
  0
SOLID
  5
10BE
330
1016
100
AcDbEntity
  8
AM_5
100
AcDbTrace
 10
220.190037540009
 20
345.5120797114488
 30
0.0
 11
221.590037540009
 21
345.5120797114488
 31
0.0
 12
220.890037540009
 22
349.7120797114488
 32
0.0
 13
220.890037540009
 23
349.7120797114488
 33
0.0
  0
MTEXT
  5
10BF
330
1016
100
AcDbEntity
  8
AM_5
100
AcDbMText
 10
217.0395552565444
 20
338.7227204594803
 30
0.0
 40
4.899999999999999
 41
0.0
 71
     5
 72
     1
  1
2
 11
0.0000000000000001
 21
1.0
 31
0.0
 73
     1
 44
1.0
1001
ACAD
1000
MTEXTBEGIN
1070
    73
1070
     1
1070
    44
1040
1.0
1070
    74
1070
     0
1000
MTEXTEND
  0
POINT
  5
10C0
330
1016
100
AcDbEntity
  8
Defpoints
 62
     0
100
AcDbPoint
 10
244.5123719257351
 20
351.7120797114488
 30
0.0
  0
POINT
  5
10C1
330
1016
100
AcDbEntity
  8
Defpoints
 62
     0
100
AcDbPoint
 10
264.6900375400091
 20
349.7120797114488
 30
0.0
  0
POINT
  5
10C2
330
1016
100
AcDbEntity
  8
Defpoints
 62
     0
100
AcDbPoint
 10
220.890037540009
 20
349.7120797114488
 30
0.0
  0
ENDBLK
  5
1023
330
1016
100
AcDbEntity
  8
0
100
AcDbBlockEnd
  0
BLOCK
  5
1030
330
1024
100
AcDbEntity
  8
0
100
AcDbBlockBegin
  2
*D8
 70
     1
 10
0.0
 20
0.0
 30
0.0
  3
*D8
  1

  0
LINE
  5
10C3
330
1024
100
AcDbEntity
  8
AM_5
100
AcDbLine
 10
254.6900375400093
 20
290.6489902939143
 30
0.0
 11
218.7900375400092
 21
290.6489902939143
 31
0.0
  0
LINE
  5
10C4
330
1024
100
AcDbEntity
  8
AM_5
100
AcDbLine
 10
230.7900375400092
 20
299.1489902939144
 30
0.0
 11
218.7900375400092
 21
299.1489902939144
 31
0.0
  0
LINE
  5
10C5
330
1024
100
AcDbEntity
  8
AM_5
100
AcDbLine
 10
220.8900375400092
 20
303.3489902939144
 30
0.0
 11
220.8900375400092
 21
307.5489902939144
 31
0.0
  0
LINE
  5
10C6
330
1024
100
AcDbEntity
  8
AM_5
100
AcDbLine
 10
220.8900375400092
 20
286.4489902939143
 30
0.0
 11
220.8900375400092
 21
272.3860256483515
 31
0.0
  0
LINE
  5
10C7
330
1024
100
AcDbEntity
  8
AM_5
100
AcDbLine
 10
220.8900375400092
 20
299.1489902939144
 30
0.0
 11
220.8900375400092
 21
290.6489902939143
 31
0.0
  0
SOLID
  5
10C8
330
1024
100
AcDbEntity
  8
AM_5
100
AcDbTrace
 10
220.1900375400092
 20
303.3489902939144
 30
0.0
 11
221.5900375400092
 21
303.3489902939144
 31
0.0
 12
220.8900375400092
 22
299.1489902939144
 32
0.0
 13
220.8900375400092
 23
299.1489902939144
 33
0.0
  0
SOLID
  5
10C9
330
1024
100
AcDbEntity
  8
AM_5
100
AcDbTrace
 10
220.1900375400092
 20
286.4489902939143
 30
0.0
 11
221.5900375400092
 21
286.4489902939143
 31
0.0
 12
220.8900375400092
 22
290.6489902939143
 32
0.0
 13
220.8900375400092
 23
290.6489902939143
 33
0.0
  0
MTEXT
  5
10CA
330
1024
100
AcDbEntity
  8
AM_5
100
AcDbMText
 10
217.0400375400092
 20
277.317507971133
 30
0.0
 40
4.899999999999999
 41
0.0
 71
     5
 72
     1
  1
8.5
 11
0.0000000000000001
 21
1.0
 31
0.0
 73
     1
 44
1.0
1001
ACAD
1000
MTEXTBEGIN
1070
    73
1070
     1
1070
    44
1040
1.0
1070
    74
1070
     0
1000
MTEXTEND
  0
POINT
  5
10CB
330
1024
100
AcDbEntity
  8
Defpoints
 62
     0
100
AcDbPoint
 10
256.7900375400093
 20
290.6489902939143
 30
0.0
  0
POINT
  5
10CC
330
1024
100
AcDbEntity
  8
Defpoints
 62
     0
100
AcDbPoint
 10
232.8900375400092
 20
299.1489902939144
 30
0.0
  0
POINT
  5
10CD
330
1024
100
AcDbEntity
  8
Defpoints
 62
     0
100
AcDbPoint
 10
220.8900375400092
 20
299.1489902939144
 30
0.0
  0
ENDBLK
  5
1031
330
1024
100
AcDbEntity
  8
0
100
AcDbBlockEnd
  0
BLOCK
  5
103C
330
1032
100
AcDbEntity
  8
0
100
AcDbBlockBegin
  2
*D9
 70
     1
 10
0.0
 20
0.0
 30
0.0
  3
*D9
  1

  0
LINE
  5
10CE
330
1032
100
AcDbEntity
  8
AM_5
100
AcDbLine
 10
232.8900375400092
 20
211.502376841861
 30
0.0
 11
232.8900375400092
 21
199.5023768418603
 31
0.0
  0
LINE
  5
10CF
330
1032
100
AcDbEntity
  8
AM_5
100
AcDbLine
 10
263.3900375400092
 20
214.9523768418609
 30
0.0
 11
263.3900375400092
 21
199.5023768418603
 31
0.0
  0
LINE
  5
10D0
330
1032
100
AcDbEntity
  8
AM_5
100
AcDbLine
 10
237.0900375400092
 20
201.6023768418603
 30
0.0
 11
259.1900375400092
 21
201.6023768418603
 31
0.0
  0
SOLID
  5
10D1
330
1032
100
AcDbEntity
  8
AM_5
100
AcDbTrace
 10
237.0900375400092
 20
202.3023768418603
 30
0.0
 11
237.0900375400092
 21
200.9023768418603
 31
0.0
 12
232.8900375400092
 22
201.6023768418603
 32
0.0
 13
232.8900375400092
 23
201.6023768418603
 33
0.0
  0
SOLID
  5
10D2
330
1032
100
AcDbEntity
  8
AM_5
100
AcDbTrace
 10
259.1900375400092
 20
202.3023768418603
 30
0.0
 11
259.1900375400092
 21
200.9023768418603
 31
0.0
 12
263.3900375400092
 22
201.6023768418603
 32
0.0
 13
263.3900375400092
 23
201.6023768418603
 33
0.0
  0
MTEXT
  5
10D3
330
1032
100
AcDbEntity
  8
AM_5
100
AcDbMText
 10
248.1400375400092
 20
205.4523768418603
 30
0.0
 40
4.899999999999999
 41
0.0
 71
     5
 72
     1
  1
30.5
 73
     1
 44
1.0
1001
ACAD
1000
MTEXTBEGIN
1070
    73
1070
     1
1070
    44
1040
1.0
1070
    74
1070
     0
1000
MTEXTEND
  0
POINT
  5
10D4
330
1032
100
AcDbEntity
  8
Defpoints
 62
     0
100
AcDbPoint
 10
232.8900375400092
 20
213.602376841861
 30
0.0
  0
POINT
  5
10D5
330
1032
100
AcDbEntity
  8
Defpoints
 62
     0
100
AcDbPoint
 10
263.3900375400092
 20
217.0523768418608
 30
0.0
  0
POINT
  5
10D6
330
1032
100
AcDbEntity
  8
Defpoints
 62
     0
100
AcDbPoint
 10
263.3900375400092
 20
201.6023768418603
 30
0.0
  0
ENDBLK
  5
103D
330
1032
100
AcDbEntity
  8
0
100
AcDbBlockEnd
  0
BLOCK
  5
1048
330
103E
100
AcDbEntity
  8
0
100
AcDbBlockBegin
  2
*D10
 70
     1
 10
0.0
 20
0.0
 30
0.0
  3
*D10
  1

  0
LINE
  5
10D7
330
103E
100
AcDbEntity
  8
AM_5
100
AcDbLine
 10
263.3900375400092
 20
214.9523768418609
 30
0.0
 11
263.3900375400092
 21
199.5023768418604
 31
0.0
  0
LINE
  5
10D8
330
103E
100
AcDbEntity
  8
AM_5
100
AcDbLine
 10
281.3900375400092
 20
214.9523768418609
 30
0.0
 11
281.3900375400092
 21
199.5023768418604
 31
0.0
  0
LINE
  5
10D9
330
103E
100
AcDbEntity
  8
AM_5
100
AcDbLine
 10
267.5900375400092
 20
201.6023768418604
 30
0.0
 11
277.1900375400092
 21
201.6023768418604
 31
0.0
  0
SOLID
  5
10DA
330
103E
100
AcDbEntity
  8
AM_5
100
AcDbTrace
 10
267.5900375400092
 20
202.3023768418604
 30
0.0
 11
267.5900375400092
 21
200.9023768418604
 31
0.0
 12
263.3900375400092
 22
201.6023768418604
 32
0.0
 13
263.3900375400092
 23
201.6023768418604
 33
0.0
  0
SOLID
  5
10DB
330
103E
100
AcDbEntity
  8
AM_5
100
AcDbTrace
 10
277.1900375400092
 20
202.3023768418604
 30
0.0
 11
277.1900375400092
 21
200.9023768418604
 31
0.0
 12
281.3900375400092
 22
201.6023768418604
 32
0.0
 13
281.3900375400092
 23
201.6023768418604
 33
0.0
  0
MTEXT
  5
10DC
330
103E
100
AcDbEntity
  8
AM_5
100
AcDbMText
 10
272.3900375400092
 20
205.4523768418604
 30
0.0
 40
4.899999999999999
 41
0.0
 71
     5
 72
     1
  1
18
 73
     1
 44
1.0
1001
ACAD
1000
MTEXTBEGIN
1070
    73
1070
     1
1070
    44
1040
1.0
1070
    74
1070
     0
1000
MTEXTEND
  0
POINT
  5
10DD
330
103E
100
AcDbEntity
  8
Defpoints
 62
     0
100
AcDbPoint
 10
263.3900375400092
 20
217.0523768418608
 30
0.0
  0
POINT
  5
10DE
330
103E
100
AcDbEntity
  8
Defpoints
 62
     0
100
AcDbPoint
 10
281.3900375400092
 20
217.0523768418608
 30
0.0
  0
POINT
  5
10DF
330
103E
100
AcDbEntity
  8
Defpoints
 62
     0
100
AcDbPoint
 10
281.3900375400092
 20
201.6023768418604
 30
0.0
  0
ENDBLK
  5
1049
330
103E
100
AcDbEntity
  8
0
100
AcDbBlockEnd
  0
BLOCK
  5
1054
330
104A
100
AcDbEntity
  8
0
100
AcDbBlockBegin
  2
*D11
 70
     1
 10
0.0
 20
0.0
 30
0.0
  3
*D11
  1

  0
LINE
  5
10E0
330
104A
100
AcDbEntity
  8
AM_5
100
AcDbLine
 10
232.8900375400092
 20
338.4620797114488
 30
0.0
 11
232.8900375400092
 21
326.4620797114482
 31
0.0
  0
LINE
  5
10E1
330
104A
100
AcDbEntity
  8
AM_5
100
AcDbLine
 10
272.3900375400092
 20
339.9120797114487
 30
0.0
 11
272.3900375400092
 21
326.4620797114482
 31
0.0
  0
LINE
  5
10E2
330
104A
100
AcDbEntity
  8
AM_5
100
AcDbLine
 10
237.0900375400092
 20
328.5620797114483
 30
0.0
 11
268.1900375400092
 21
328.5620797114483
 31
0.0
  0
SOLID
  5
10E3
330
104A
100
AcDbEntity
  8
AM_5
100
AcDbTrace
 10
237.0900375400092
 20
329.2620797114482
 30
0.0
 11
237.0900375400092
 21
327.8620797114482
 31
0.0
 12
232.8900375400092
 22
328.5620797114483
 32
0.0
 13
232.8900375400092
 23
328.5620797114483
 33
0.0
  0
SOLID
  5
10E4
330
104A
100
AcDbEntity
  8
AM_5
100
AcDbTrace
 10
268.1900375400092
 20
329.2620797114482
 30
0.0
 11
268.1900375400092
 21
327.8620797114482
 31
0.0
 12
272.3900375400092
 22
328.5620797114483
 32
0.0
 13
272.3900375400092
 23
328.5620797114483
 33
0.0
  0
MTEXT
  5
10E5
330
104A
100
AcDbEntity
  8
AM_5
100
AcDbMText
 10
252.6400375400092
 20
332.4120797114483
 30
0.0
 40
4.899999999999999
 41
0.0
 71
     5
 72
     1
  1
39.5
 73
     1
 44
1.0
1001
ACAD
1000
MTEXTBEGIN
1070
    73
1070
     1
1070
    44
1040
1.0
1070
    74
1070
     0
1000
MTEXTEND
  0
POINT
  5
10E6
330
104A
100
AcDbEntity
  8
Defpoints
 62
     0
100
AcDbPoint
 10
232.8900375400092
 20
340.5620797114488
 30
0.0
  0
POINT
  5
10E7
330
104A
100
AcDbEntity
  8
Defpoints
 62
     0
100
AcDbPoint
 10
272.3900375400092
 20
342.0120797114488
 30
0.0
  0
POINT
  5
10E8
330
104A
100
AcDbEntity
  8
Defpoints
 62
     0
100
AcDbPoint
 10
272.3900375400092
 20
328.5620797114483
 30
0.0
  0
ENDBLK
  5
1055
330
104A
100
AcDbEntity
  8
0
100
AcDbBlockEnd
  0
BLOCK
  5
1062
330
1056
100
AcDbEntity
  8
0
100
AcDbBlockBegin
  2
*D12
 70
     1
 10
0.0
 20
0.0
 30
0.0
  3
*D12
  1

  0
LINE
  5
10E9
330
1056
100
AcDbEntity
  8
AM_5
100
AcDbLine
 10
313.9900375400092
 20
299.1489902939142
 30
0.0
 11
325.9900375400093
 21
299.1489902939142
 31
0.0
  0
LINE
  5
10EA
330
1056
100
AcDbEntity
  8
AM_5
100
AcDbLine
 10
290.4900375400092
 20
296.148990293914
 30
0.0
 11
325.9900375400093
 21
296.148990293914
 31
0.0
  0
LINE
  5
10EB
330
1056
100
AcDbEntity
  8
AM_5
100
AcDbLine
 10
323.8900375400092
 20
303.3489902939142
 30
0.0
 11
323.8900375400092
 21
307.5489902939142
 31
0.0
  0
LINE
  5
10EC
330
1056
100
AcDbEntity
  8
AM_5
100
AcDbLine
 10
323.8900375400092
 20
291.948990293914
 30
0.0
 11
323.8900375400092
 21
282.7860256483512
 31
0.0
  0
LINE
  5
10ED
330
1056
100
AcDbEntity
  8
AM_5
100
AcDbLine
 10
323.8900375400092
 20
299.1489902939142
 30
0.0
 11
323.8900375400092
 21
296.148990293914
 31
0.0
  0
SOLID
  5
10EE
330
1056
100
AcDbEntity
  8
AM_5
100
AcDbTrace
 10
323.1900375400093
 20
303.3489902939142
 30
0.0
 11
324.5900375400093
 21
303.3489902939142
 31
0.0
 12
323.8900375400092
 22
299.1489902939142
 32
0.0
 13
323.8900375400092
 23
299.1489902939142
 33
0.0
  0
SOLID
  5
10EF
330
1056
100
AcDbEntity
  8
AM_5
100
AcDbTrace
 10
323.1900375400093
 20
291.948990293914
 30
0.0
 11
324.5900375400093
 21
291.948990293914
 31
0.0
 12
323.8900375400092
 22
296.148990293914
 32
0.0
 13
323.8900375400092
 23
296.148990293914
 33
0.0
  0
MTEXT
  5
10F0
330
1056
100
AcDbEntity
  8
AM_5
100
AcDbMText
 10
320.0400375400092
 20
285.2675079711326
 30
0.0
 40
4.899999999999999
 41
0.0
 71
     5
 72
     1
  1
3
 11
0.0000000000000001
 21
1.0
 31
0.0
 73
     1
 44
1.0
1001
ACAD
1000
MTEXTBEGIN
1070
    73
1070
     1
1070
    44
1040
1.0
1070
    74
1070
     0
1000
MTEXTEND
  0
POINT
  5
10F1
330
1056
100
AcDbEntity
  8
Defpoints
 62
     0
100
AcDbPoint
 10
311.8900375400092
 20
299.1489902939142
 30
0.0
  0
POINT
  5
10F2
330
1056
100
AcDbEntity
  8
Defpoints
 62
     0
100
AcDbPoint
 10
288.3900375400092
 20
296.148990293914
 30
0.0
  0
POINT
  5
10F3
330
1056
100
AcDbEntity
  8
Defpoints
 62
     0
100
AcDbPoint
 10
323.8900375400092
 20
296.148990293914
 30
0.0
  0
ENDBLK
  5
1063
330
1056
100
AcDbEntity
  8
0
100
AcDbBlockEnd
  0
BLOCK
  5
106E
330
1064
100
AcDbEntity
  8
0
100
AcDbBlockBegin
  2
*D13
 70
     1
 10
0.0
 20
0.0
 30
0.0
  3
*D13
  1

  0
LINE
  5
10F4
330
1064
100
AcDbEntity
  8
AM_5
100
AcDbLine
 10
259.8900375400092
 20
295.8489902939143
 30
0.0
 11
259.8900375400092
 21
310.2489902939141
 31
0.0
  0
LINE
  5
10F5
330
1064
100
AcDbEntity
  8
AM_5
100
AcDbLine
 10
284.8900375400092
 20
295.8489902939143
 30
0.0
 11
284.8900375400092
 21
310.2489902939141
 31
0.0
  0
LINE
  5
10F6
330
1064
100
AcDbEntity
  8
AM_5
100
AcDbLine
 10
264.0900375400092
 20
308.148990293914
 30
0.0
 11
280.6900375400092
 21
308.148990293914
 31
0.0
  0
SOLID
  5
10F7
330
1064
100
AcDbEntity
  8
AM_5
100
AcDbTrace
 10
264.0900375400092
 20
308.848990293914
 30
0.0
 11
264.0900375400092
 21
307.4489902939141
 31
0.0
 12
259.8900375400092
 22
308.148990293914
 32
0.0
 13
259.8900375400092
 23
308.148990293914
 33
0.0
  0
SOLID
  5
10F8
330
1064
100
AcDbEntity
  8
AM_5
100
AcDbTrace
 10
280.6900375400092
 20
308.848990293914
 30
0.0
 11
280.6900375400092
 21
307.4489902939141
 31
0.0
 12
284.8900375400092
 22
308.148990293914
 32
0.0
 13
284.8900375400092
 23
308.148990293914
 33
0.0
  0
MTEXT
  5
10F9
330
1064
100
AcDbEntity
  8
AM_5
100
AcDbMText
 10
272.3900375400092
 20
311.9994725773786
 30
0.0
 40
4.899999999999999
 41
0.0
 71
     5
 72
     1
  1
25
 73
     1
 44
1.0
1001
ACAD
1000
MTEXTBEGIN
1070
    73
1070
     1
1070
    44
1040
1.0
1070
    74
1070
     0
1000
MTEXTEND
  0
POINT
  5
10FA
330
1064
100
AcDbEntity
  8
Defpoints
 62
     0
100
AcDbPoint
 10
259.8900375400092
 20
293.7489902939142
 30
0.0
  0
POINT
  5
10FB
330
1064
100
AcDbEntity
  8
Defpoints
 62
     0
100
AcDbPoint
 10
284.8900375400092
 20
293.7489902939142
 30
0.0
  0
POINT
  5
10FC
330
1064
100
AcDbEntity
  8
Defpoints
 62
     0
100
AcDbPoint
 10
284.8900375400092
 20
308.148990293914
 30
0.0
  0
ENDBLK
  5
106F
330
1064
100
AcDbEntity
  8
0
100
AcDbBlockEnd
  0
BLOCK
  5
107A
330
1070
100
AcDbEntity
  8
0
100
AcDbBlockBegin
  2
*D14
 70
     1
 10
0.0
 20
0.0
 30
0.0
  3
*D14
  1

  0
LINE
  5
10FD
330
1070
100
AcDbEntity
  8
AM_5
100
AcDbLine
 10
358.1884249195408
 20
264.1489902939142
 30
0.0
 11
370.1884249195408
 21
264.1489902939142
 31
0.0
  0
LINE
  5
10FE
330
1070
100
AcDbEntity
  8
AM_5
100
AcDbLine
 10
353.8884249195413
 20
281.6489902939142
 30
0.0
 11
370.1884249195408
 21
281.6489902939142
 31
0.0
  0
LINE
  5
10FF
330
1070
100
AcDbEntity
  8
AM_5
100
AcDbLine
 10
368.0884249195408
 20
268.3489902939143
 30
0.0
 11
368.0884249195408
 21
277.4489902939142
 31
0.0
  0
SOLID
  5
1100
330
1070
100
AcDbEntity
  8
AM_5
100
AcDbTrace
 10
367.3884249195408
 20
268.3489902939143
 30
0.0
 11
368.7884249195408
 21
268.3489902939143
 31
0.0
 12
368.0884249195408
 22
264.1489902939142
 32
0.0
 13
368.0884249195408
 23
264.1489902939142
 33
0.0
  0
SOLID
  5
1101
330
1070
100
AcDbEntity
  8
AM_5
100
AcDbTrace
 10
367.3884249195408
 20
277.4489902939142
 30
0.0
 11
368.7884249195408
 21
277.4489902939142
 31
0.0
 12
368.0884249195408
 22
281.6489902939142
 32
0.0
 13
368.0884249195408
 23
281.6489902939142
 33
0.0
  0
MTEXT
  5
1102
330
1070
100
AcDbEntity
  8
AM_5
100
AcDbMText
 10
364.2384249195407
 20
272.8989902939143
 30
0.0
 40
4.899999999999999
 41
0.0
 71
     5
 72
     1
  1
17.5
 11
0.0000000000000001
 21
1.0
 31
0.0
 73
     1
 44
1.0
1001
ACAD
1000
MTEXTBEGIN
1070
    73
1070
     1
1070
    44
1040
1.0
1070
    74
1070
     0
1000
MTEXTEND
  0
POINT
  5
1103
330
1070
100
AcDbEntity
  8
Defpoints
 62
     0
100
AcDbPoint
 10
356.0884249195408
 20
264.1489902939142
 30
0.0
  0
POINT
  5
1104
330
1070
100
AcDbEntity
  8
Defpoints
 62
     0
100
AcDbPoint
 10
351.7884249195413
 20
281.6489902939142
 30
0.0
  0
POINT
  5
1105
330
1070
100
AcDbEntity
  8
Defpoints
 62
     0
100
AcDbPoint
 10
368.0884249195408
 20
281.6489902939142
 30
0.0
  0
ENDBLK
  5
107B
330
1070
100
AcDbEntity
  8
0
100
AcDbBlockEnd
  0
BLOCK
  5
1086
330
107C
100
AcDbEntity
  8
0
100
AcDbBlockBegin
  2
*D15
 70
     1
 10
0.0
 20
0.0
 30
0.0
  3
*D15
  1

  0
LINE
  5
1106
330
107C
100
AcDbEntity
  8
AM_5
100
AcDbLine
 10
232.8900375400092
 20
301.2489902939144
 30
0.0
 11
232.8900375400092
 21
310.2489902939141
 31
0.0
  0
LINE
  5
1107
330
107C
100
AcDbEntity
  8
AM_5
100
AcDbLine
 10
259.8900375400092
 20
295.8489902939143
 30
0.0
 11
259.8900375400092
 21
310.2489902939141
 31
0.0
  0
LINE
  5
1108
330
107C
100
AcDbEntity
  8
AM_5
100
AcDbLine
 10
237.0900375400092
 20
308.148990293914
 30
0.0
 11
255.6900375400092
 21
308.148990293914
 31
0.0
  0
SOLID
  5
1109
330
107C
100
AcDbEntity
  8
AM_5
100
AcDbTrace
 10
237.0900375400092
 20
308.848990293914
 30
0.0
 11
237.0900375400092
 21
307.4489902939141
 31
0.0
 12
232.8900375400092
 22
308.148990293914
 32
0.0
 13
232.8900375400092
 23
308.148990293914
 33
0.0
  0
SOLID
  5
110A
330
107C
100
AcDbEntity
  8
AM_5
100
AcDbTrace
 10
255.6900375400092
 20
308.848990293914
 30
0.0
 11
255.6900375400092
 21
307.4489902939141
 31
0.0
 12
259.8900375400092
 22
308.148990293914
 32
0.0
 13
259.8900375400092
 23
308.148990293914
 33
0.0
  0
MTEXT
  5
110B
330
107C
100
AcDbEntity
  8
AM_5
100
AcDbMText
 10
246.3900375400092
 20
311.9994725773786
 30
0.0
 40
4.899999999999999
 41
0.0
 71
     5
 72
     1
  1
27
 73
     1
 44
1.0
1001
ACAD
1000
MTEXTBEGIN
1070
    73
1070
     1
1070
    44
1040
1.0
1070
    74
1070
     0
1000
MTEXTEND
  0
POINT
  5
110C
330
107C
100
AcDbEntity
  8
Defpoints
 62
     0
100
AcDbPoint
 10
232.8900375400092
 20
299.1489902939144
 30
0.0
  0
POINT
  5
110D
330
107C
100
AcDbEntity
  8
Defpoints
 62
     0
100
AcDbPoint
 10
259.8900375400092
 20
293.7489902939142
 30
0.0
  0
POINT
  5
110E
330
107C
100
AcDbEntity
  8
Defpoints
 62
     0
100
AcDbPoint
 10
259.8900375400092
 20
308.148990293914
 30
0.0
  0
ENDBLK
  5
1087
330
107C
100
AcDbEntity
  8
0
100
AcDbBlockEnd
  0
BLOCK
  5
1092
330
1088
100
AcDbEntity
  8
0
100
AcDbBlockBegin
  2
*D16
 70
     1
 10
0.0
 20
0.0
 30
0.0
  3
*D16
  1

  0
LINE
  5
110F
330
1088
100
AcDbEntity
  8
AM_5
100
AcDbLine
 10
232.8900375400092
 20
262.0489902939143
 30
0.0
 11
232.8900375400092
 21
250.0489902939139
 31
0.0
  0
LINE
  5
1110
330
1088
100
AcDbEntity
  8
AM_5
100
AcDbLine
 10
311.8900375400092
 20
262.0489902939142
 30
0.0
 11
311.8900375400092
 21
250.0489902939139
 31
0.0
  0
LINE
  5
1111
330
1088
100
AcDbEntity
  8
AM_5
100
AcDbLine
 10
237.0900375400092
 20
252.1489902939139
 30
0.0
 11
307.6900375400092
 21
252.1489902939139
 31
0.0
  0
SOLID
  5
1112
330
1088
100
AcDbEntity
  8
AM_5
100
AcDbTrace
 10
237.0900375400092
 20
252.8489902939139
 30
0.0
 11
237.0900375400092
 21
251.4489902939139
 31
0.0
 12
232.8900375400092
 22
252.1489902939139
 32
0.0
 13
232.8900375400092
 23
252.1489902939139
 33
0.0
  0
SOLID
  5
1113
330
1088
100
AcDbEntity
  8
AM_5
100
AcDbTrace
 10
307.6900375400092
 20
252.8489902939139
 30
0.0
 11
307.6900375400092
 21
251.4489902939139
 31
0.0
 12
311.8900375400092
 22
252.1489902939139
 32
0.0
 13
311.8900375400092
 23
252.1489902939139
 33
0.0
  0
MTEXT
  5
1114
330
1088
100
AcDbEntity
  8
AM_5
100
AcDbMText
 10
272.3900375400092
 20
255.9989902939139
 30
0.0
 40
4.899999999999999
 41
0.0
 71
     5
 72
     1
  1
79
 73
     1
 44
1.0
1001
ACAD
1000
MTEXTBEGIN
1070
    73
1070
     1
1070
    44
1040
1.0
1070
    74
1070
     0
1000
MTEXTEND
  0
POINT
  5
1115
330
1088
100
AcDbEntity
  8
Defpoints
 62
     0
100
AcDbPoint
 10
232.8900375400092
 20
264.1489902939143
 30
0.0
  0
POINT
  5
1116
330
1088
100
AcDbEntity
  8
Defpoints
 62
     0
100
AcDbPoint
 10
311.8900375400092
 20
264.1489902939142
 30
0.0
  0
POINT
  5
1117
330
1088
100
AcDbEntity
  8
Defpoints
 62
     0
100
AcDbPoint
 10
311.8900375400092
 20
252.1489902939139
 30
0.0
  0
ENDBLK
  5
1093
330
1088
100
AcDbEntity
  8
0
100
AcDbBlockEnd
  0
BLOCK
  5
1177
330
1172
100
AcDbEntity
  8
0
100
AcDbBlockBegin
  2
*S18
 70
     1
 10
0.0
 20
0.0
 30
0.0
  3
*S18
  1

  0
LINE
  5
1173
330
1172
100
AcDbEntity
  8
AM_5
 62
     5
100
AcDbLine
 10
330.183903762796
 20
328.3844316384222
 30
0.0
 11
296.6851431751154
 21
328.3844316384222
 31
0.0
  0
LINE
  5
1174
330
1172
100
AcDbEntity
  8
AM_5
 62
     5
100
AcDbLine
 10
296.6851431751154
 20
328.3844316384222
 30
0.0
 11
289.3594378553298
 21
338.156978125063
 31
0.0
  0
TRACE
  5
1175
330
1172
100
AcDbEntity
  8
AM_5
 62
     5
370
    35
100
AcDbTrace
 10
289.8756095493475
 20
338.5439112268863
 30
0.0
 11
288.8432661613121
 21
337.7700450232397
 31
0.0
 12
286.4203891426928
 22
342.0776914102634
 32
0.0
 13
286.4203891426928
 23
342.0776914102634
 33
0.0
  0
MTEXT
  5
1176
330
1172
100
AcDbEntity
  8
AM_5
 62
     5
100
AcDbMText
 10
330.183903762796
 20
336.0318126414179
 30
0.0
 40
4.899999999999999
 41
0.0
 71
     7
 72
     5
  1

  7
ACISOTS
 73
     1
 44
1.0
1001
ACAD
1000
MTEXTBEGIN
1070
    73
1070
     1
1070
    44
1040
1.0
1070
    74
1070
     0
1000
MTEXTEND
  0
ENDBLK
  5
1178
330
1172
100
AcDbEntity
  8
0
100
AcDbBlockEnd
  0
BLOCK
  5
117F
330
117A
100
AcDbEntity
  8
0
100
AcDbBlockBegin
  2
*S19
 70
     1
 10
0.0
 20
0.0
 30
0.0
  3
*S19
  1

  0
LINE
  5
117B
330
117A
100
AcDbEntity
  8
AM_5
 62
     5
100
AcDbLine
 10
315.0125946667001
 20
371.8390196379384
 30
0.0
 11
295.1707788351821
 21
371.8390196379384
 31
0.0
  0
LINE
  5
117C
330
117A
100
AcDbEntity
  8
AM_5
 62
     5
100
AcDbLine
 10
295.1707788351821
 20
371.8390196379384
 30
0.0
 11
280.1200589194107
 21
357.8456734385144
 31
0.0
  0
TRACE
  5
117D
330
117A
100
AcDbEntity
  8
AM_5
 62
     5
370
    35
100
AcDbTrace
 10
279.6808039056126
 20
358.3181197061946
 30
0.0
 11
280.5593139332088
 21
357.3732271708343
 31
0.0
 12
276.5314732226264
 22
354.5092003460357
 32
0.0
 13
276.5314732226264
 23
354.5092003460357
 33
0.0
  0
MTEXT
  5
117E
330
117A
100
AcDbEntity
  8
AM_5
 62
     5
100
AcDbMText
 10
315.0125946667001
 20
379.2459911686214
 30
0.0
 40
4.899999999999999
 41
0.0
 71
     7
 72
     5
  1

  7
ACISOTS
 73
     1
 44
1.0
1001
ACAD
1000
MTEXTBEGIN
1070
    73
1070
     1
1070
    44
1040
1.0
1070
    74
1070
     0
1000
MTEXTEND
  0
ENDBLK
  5
1180
330
117A
100
AcDbEntity
  8
0
100
AcDbBlockEnd
  0
BLOCK
  5
1187
330
1182
100
AcDbEntity
  8
0
100
AcDbBlockBegin
  2
*S20
 70
     1
 10
0.0
 20
0.0
 30
0.0
  3
*S20
  1

  0
LINE
  5
1183
330
1182
100
AcDbEntity
  8
AM_5
 62
     5
100
AcDbLine
 10
326.6658968243437
 20
310.1922166851538
 30
0.0
 11
293.167136236663
 21
310.1922166851538
 31
0.0
  0
LINE
  5
1184
330
1182
100
AcDbEntity
  8
AM_5
 62
     5
100
AcDbLine
 10
293.167136236663
 20
310.1922166851538
 30
0.0
 11
287.8211481166801
 21
296.5742599366493
 31
0.0
  0
TRACE
  5
1185
330
1182
100
AcDbEntity
  8
AM_5
 62
     5
370
    35
100
AcDbTrace
 10
287.220664041153
 20
296.8099913898543
 30
0.0
 11
288.4216321922072
 21
296.3385284834444
 31
0.0
 12
286.0305899535113
 22
292.0131305299881
 32
0.0
 13
286.0305899535113
 23
292.0131305299881
 33
0.0
  0
MTEXT
  5
1186
330
1182
100
AcDbEntity
  8
AM_5
 62
     5
100
AcDbMText
 10
326.6658968243437
 20
317.8395976881496
 30
0.0
 40
4.899999999999999
 41
0.0
 71
     7
 72
     5
  1

  7
ACISOTS
 73
     1
 44
1.0
1001
ACAD
1000
MTEXTBEGIN
1070
    73
1070
     1
1070
    44
1040
1.0
1070
    74
1070
     0
1000
MTEXTEND
  0
ENDBLK
  5
1188
330
1182
100
AcDbEntity
  8
0
100
AcDbBlockEnd
  0
BLOCK
  5
118F
330
118A
100
AcDbEntity
  8
0
100
AcDbBlockBegin
  2
*S21
 70
     1
 10
0.0
 20
0.0
 30
0.0
  3
*S21
  1

  0
LINE
  5
118B
330
118A
100
AcDbEntity
  8
AM_5
 62
     5
100
AcDbLine
 10
324.2045762350983
 20
200.6032198689049
 30
0.0
 11
298.8868299788639
 21
200.6032198689049
 31
0.0
  0
LINE
  5
118C
330
118A
100
AcDbEntity
  8
AM_5
 62
     5
100
AcDbLine
 10
298.8868299788639
 20
200.6032198689049
 30
0.0
 11
289.2052371989453
 21
217.2382533734023
 31
0.0
  0
TRACE
  5
118D
330
118A
100
AcDbEntity
  8
AM_5
 62
     5
370
    35
100
AcDbTrace
 10
289.7627818052064
 20
217.5627444441898
 30
0.0
 11
288.6476925926841
 21
216.9137623026148
 31
0.0
 12
286.7404828024714
 22
221.4732251283332
 32
0.0
 13
286.7404828024714
 23
221.4732251283332
 33
0.0
  0
MTEXT
  5
118E
330
118A
100
AcDbEntity
  8
AM_5
 62
     5
100
AcDbMText
 10
324.2045762350983
 20
208.8846377925876
 30
0.0
 40
4.899999999999999
 41
0.0
 71
     7
 72
     5
  1

  7
ACISOTS
 73
     1
 44
1.0
1001
ACAD
1000
MTEXTBEGIN
1070
    73
1070
     1
1070
    44
1040
1.0
1070
    74
1070
     0
1000
MTEXTEND
  0
ENDBLK
  5
1190
330
118A
100
AcDbEntity
  8
0
100
AcDbBlockEnd
  0
BLOCK
  5
1197
330
1192
100
AcDbEntity
  8
0
100
AcDbBlockBegin
  2
*S22
 70
     1
 10
0.0
 20
0.0
 30
0.0
  3
*S22
  1

  0
LINE
  5
1193
330
1192
100
AcDbEntity
  8
AM_5
 62
     5
100
AcDbLine
 10
379.3081336215835
 20
306.7904433970761
 30
0.0
 11
352.0143755034299
 21
306.7904433970761
 31
0.0
  0
LINE
  5
1194
330
1192
100
AcDbEntity
  8
AM_5
 62
     5
100
AcDbLine
 10
352.0143755034299
 20
306.7904433970761
 30
0.0
 11
348.3087411513126
 21
290.4012347683613
 31
0.0
  0
TRACE
  5
1195
330
1192
100
AcDbEntity
  8
AM_5
 62
     5
370
    35
100
AcDbTrace
 10
347.6795268494538
 20
290.5435014381337
 30
0.0
 11
348.9379554531713
 21
290.258968098589
 31
0.0
 12
347.2281185044642
 22
285.6218776259081
 32
0.0
 13
347.2281185044642
 23
285.6218776259081
 33
0.0
  0
MTEXT
  5
1196
330
1192
100
AcDbEntity
  8
AM_5
 62
     5
100
AcDbMText
 10
379.3081336215835
 20
316.9467041778561
 30
0.0
 40
4.899999999999999
 41
0.0
 71
     7
 72
     5
  1

  7
ACISOTS
 73
     1
 44
1.0
1001
ACAD
1000
MTEXTBEGIN
1070
    73
1070
     1
1070
    44
1040
1.0
1070
    74
1070
     0
1000
MTEXTEND
  0
ENDBLK
  5
1198
330
1192
100
AcDbEntity
  8
0
100
AcDbBlockEnd
  0
ENDSEC
  0
SECTION
  2
ENTITIES
  0
LINE
  5
B70
330
1F
100
AcDbEntity
  8
LOGO
 62
     4
100
AcDbLine
 10
410.9798066968217
 20
169.3638480077192
 30
0.0
 11
167.0438066968216
 21
169.3638480077192
 31
0.0
  0
LWPOLYLINE
  5
B71
330
1F
100
AcDbEntity
  8
LOGO
 62
     4
100
AcDbPolyline
 90
        4
 70
     1
 43
0.0
 10
167.0438066968217
 20
169.3638480077192
 10
410.9798066968217
 20
169.3638480077192
 10
410.9798066968217
 20
418.4886086296563
 10
167.0438066968217
 20
418.4886086296563
1001
GENIUS_GENREC_14
1002
{
1000
PYDIR
1011
167.0438066968217
1021
418.4886086296563
1031
0.0
1002
}
1002
{
1000
PXDIR
1011
410.9798066968217
1021
169.3638480077192
1031
0.0
1002
}
1002
{
1000
PORI
1011
167.0438066968217
1021
169.3638480077192
1031
0.0
1002
}
1002
{
1000
PINS
1011
167.0438066968217
1021
169.3638480077192
1031
0.0
1002
}
1002
{
1000
PINS2
1011
410.9798066968217
1021
418.4886086296563
1031
0.0
1002
}
1002
{
1000
C
1070
     1
1002
}
1001
GENIUS_GENODEF_13
1002
{
1000
HIER
1070
     0
1002
}
1002
{
1000
MANEDIT
1070
     0
1002
}
1002
{
1000
NOSEL
1070
     0
1002
}
1002
{
1000
BEHIND
1070
     0
1002
}
1002
{
1000
OTHER
1070
     0
1002
}
1002
{
1000
REACTOR
1002
}
1001
GENIUS_GENOBJ-N-REC_13
1002
{
1000
OWNER
1000
GEN
1002
}
  0
LWPOLYLINE
  5
B72
330
1F
100
AcDbEntity
  8
LOGO
 62
     4
100
AcDbPolyline
 90
        4
 70
     1
 43
0.0
 10
167.0438066968217
 20
169.3638480077192
 10
410.9798066968217
 20
169.3638480077192
 10
410.9798066968217
 20
144.9737801126965
 10
167.0438066968217
 20
144.9737801126965
1001
GENIUS_GENREC_14
1002
{
1000
PYDIR
1011
167.0438066968217
1021
144.9737801126965
1031
0.0
1002
}
1002
{
1000
PXDIR
1011
410.9798066968217
1021
169.3638480077192
1031
0.0
1002
}
1002
{
1000
PORI
1011
167.0438066968217
1021
169.3638480077192
1031
0.0
1002
}
1002
{
1000
PINS
1011
167.0438066968217
1021
169.3638480077192
1031
0.0
1002
}
1002
{
1000
PINS2
1011
410.9798066968217
1021
144.9737801126965
1031
0.0
1002
}
1002
{
1000
C
1070
     1
1002
}
1001
GENIUS_GENOBJ-N-REC_13
1002
{
1000
OWNER
1000
GEN
1002
}
1001
GENIUS_GENODEF_13
1002
{
1000
HIER
1070
     0
1002
}
1002
{
1000
MANEDIT
1070
     0
1002
}
1002
{
1000
NOSEL
1070
     0
1002
}
1002
{
1000
BEHIND
1070
     0
1002
}
1002
{
1000
OTHER
1070
     0
1002
}
1002
{
1000
REACTOR
1002
}
  0
TEXT
  5
B73
330
1F
100
AcDbEntity
  8
LOGO
 62
     7
100
AcDbText
 10
222.114965029437
 20
158.6789742953797
 30
0.0
 40
3.252009052669683
  1
Order example:
 41
0.8
  7
CHINESET
100
AcDbText
  0
TEXT
  5
B74
330
1F
100
AcDbEntity
  8
LOGO
 62
     7
100
AcDbText
 10
222.6984023465069
 20
163.2571297044724
 30
0.0
 40
4.878013579004523
  1
訂購代號：
  7
CHINESET
100
AcDbText
  0
LINE
  5
B75
330
1F
100
AcDbEntity
  8
LOGO
 62
     4
100
AcDbLine
 10
220.7019560658715
 20
144.9737801126965
 30
0.0
 11
220.7019560658715
 21
169.3638480077192
 31
0.0
  0
TEXT
  5
B76
330
1F
100
AcDbEntity
  8
LOGO
  6
Continuous
100
AcDbText
 10
175.8048287201901
 20
149.7651721428519
 30
0.0
 40
3.658510184253393
  1
金器工業股份有限公司
  7
CHINESET
100
AcDbText
  0
TEXT
  5
B77
330
1F
100
AcDbEntity
  8
LOGO
  6
Continuous
100
AcDbText
 10
169.0848693122627
 20
146.1059451774406
 30
0.0
 40
2.439006789502261
  1
MINDMAN INDUSTRIAL CO., LTD.
 41
0.85
  7
CHINESET
100
AcDbText
  0
LINE
  5
B78
330
1F
100
AcDbEntity
  8
LOGO
 62
     4
100
AcDbLine
 10
220.7019560658715
 20
164.485834428715
 30
0.0
 11
184.9298564865048
 21
164.485834428715
 31
0.0
  0
LINE
  5
B79
330
1F
100
AcDbEntity
  8
LOGO
 62
     4
100
AcDbLine
 10
220.7019560658715
 20
159.6078208497102
 30
0.0
 11
184.9298564865048
 21
159.6078208497102
 31
0.0
  0
LINE
  5
B7A
330
1F
100
AcDbEntity
  8
LOGO
 62
     4
100
AcDbLine
 10
220.7019560658715
 20
154.7298072707061
 30
0.0
 11
167.0438066968216
 21
154.7298072707061
 31
0.0
  0
LINE
  5
B7B
330
1F
100
AcDbEntity
  8
LOGO
 62
     4
100
AcDbLine
 10
184.9298564865048
 20
154.7298072707061
 30
0.0
 11
184.9298564865048
 21
169.3638480077192
 31
0.0
  0
TEXT
  5
B7C
330
1F
100
AcDbEntity
  8
LOGO
100
AcDbText
 10
209.3783981316196
 20
155.9493106654565
 30
0.0
 40
2.439006789502261
  1
mm
  7
CHINESET
 72
     1
 11
212.3981208233843
 21
157.1688140602077
 31
0.0
100
AcDbText
 73
     2
  0
TEXT
  5
B7D
330
1F
100
AcDbEntity
  8
LOGO
100
AcDbText
 10
208.1008231466422
 20
165.7053378234656
 30
0.0
 40
2.439006789502261
  1
1 : 1
  7
CHINESET
 72
     1
 11
212.3981208233843
 21
166.9248412182167
 31
0.0
100
AcDbText
 73
     2
  0
LINE
  5
B7E
330
1F
100
AcDbEntity
  8
LOGO
 62
     4
100
AcDbLine
 10
204.4419108025228
 20
154.7298072707061
 30
0.0
 11
204.4419108025228
 21
169.3638480077192
 31
0.0
  0
TEXT
  5
B7F
330
1F
100
AcDbEntity
  8
LOGO
100
AcDbText
 10
186.9409482455274
 20
165.7065381220824
 30
159.8484869550175
 40
2.439006789502261
  1
比例 Scale:
 41
0.9
  7
CHINESET
 72
     4
 11
194.6858836445138
 21
166.9248412182167
 31
159.8484869550175
100
AcDbText
  0
TEXT
  5
B80
330
1F
100
AcDbEntity
  8
LOGO
100
AcDbText
 10
186.8004875866677
 20
160.8616327799272
 30
159.8484869550175
 40
2.439006789502261
  1
投影  View:
 41
0.9
  7
CHINESET
 72
     4
 11
194.6858836445138
 21
162.0468276392125
 31
159.8484869550175
100
AcDbText
  0
TEXT
  5
B81
330
1F
100
AcDbEntity
  8
LOGO
100
AcDbText
 10
187.0389440540342
 20
155.9493106654565
 30
159.8484869550175
 40
2.439006789502261
  1
單位  Unit:
 41
0.9
  7
CHINESET
 72
     4
 11
194.6858836445138
 21
157.1688140602077
 31
159.8484869550175
100
AcDbText
  0
SOLID
  5
B82
330
1F
100
AcDbEntity
  8
LOGO
 62
     5
100
AcDbTrace
 10
169.5743153840118
 20
158.7843088929746
 30
0.0
 11
170.6288779202544
 21
158.784308892974
 31
0.0
 12
175.0289491921631
 22
168.7844708745855
 32
0.0
 13
176.0835117284063
 23
168.7844708745851
 33
0.0
  0
SOLID
  5
B83
330
1F
100
AcDbEntity
  8
LOGO
 62
     5
100
AcDbTrace
 10
171.0652486249076
 20
158.7843088929746
 30
0.0
 11
172.1198111611502
 21
158.7843088929746
 31
0.0
 12
176.0835117284063
 22
167.9844579160563
 32
0.0
 13
175.0289491921631
 23
164.1177286165
 33
0.0
  0
SOLID
  5
B84
330
1F
100
AcDbEntity
  8
LOGO
 62
     2
100
AcDbTrace
 10
170.6288779202544
 20
158.784308892974
 30
0.0
 11
171.0652486249076
 21
158.7843088929746
 31
0.0
 12
176.0835117284063
 22
168.7844708745851
 32
0.0
 13
176.5198824330589
 23
168.7844708745851
 33
0.0
  0
SOLID
  5
B85
330
1F
100
AcDbEntity
  8
LOGO
 62
     5
100
AcDbTrace
 10
167.8835930280031
 20
155.1478863542074
 30
0.0
 11
168.2472352818802
 21
155.1478863542074
 31
0.0
 12
169.2712801724482
 22
156.9660976235903
 32
0.0
 13
169.6349224263244
 23
156.9660976235903
 33
0.0
  0
SOLID
  5
B86
330
1F
100
AcDbEntity
  8
LOGO
 62
     5
100
AcDbTrace
 10
169.2712801724482
 20
156.9660976235903
 30
0.0
 11
169.6349224263244
 21
156.9660976235903
 31
0.0
 12
169.2712801724482
 22
155.1478863542074
 32
0.0
 13
169.6349224263244
 23
155.1478863542074
 33
0.0
  0
SOLID
  5
B87
330
1F
100
AcDbEntity
  8
LOGO
 62
     5
100
AcDbTrace
 10
169.2712801724482
 20
155.1478863542074
 30
0.0
 11
169.6349224263244
 21
155.1478863542074
 31
0.0
 12
170.6589673168939
 22
156.9660976235903
 32
0.0
 13
171.0226095707705
 23
156.9660976235903
 33
0.0
  0
SOLID
  5
B88
330
1F
100
AcDbEntity
  8
LOGO
 62
     5
100
AcDbTrace
 10
170.6589673168939
 20
156.9660976235903
 30
0.0
 11
171.0226095707705
 21
156.9660976235903
 31
0.0
 12
170.6589673168939
 22
155.1478863542074
 32
0.0
 13
171.0226095707705
 23
155.1478863542074
 33
0.0
  0
POLYLINE
  5
B89
330
1F
100
AcDbEntity
  8
LOGO
 62
     5
100
AcDb2dPolyline
 66
     1
 10
0.0
 20
0.0
 30
0.0
 40
0.3642250138990044
 41
0.3642250138990044
  0
VERTEX
  5
B8A
330
B89
100
AcDbEntity
  8
LOGO
 62
     5
100
AcDbVertex
100
AcDb2dVertex
 10
182.848131790548
 20
156.2388131158374
 30
0.0
 42
1.0
  0
VERTEX
  5
B8B
330
B89
100
AcDbEntity
  8
LOGO
 62
     5
100
AcDbVertex
100
AcDb2dVertex
 10
181.7554567488507
 20
156.2388131158374
 30
0.0
 42
1.0
  0
SEQEND
  5
B8C
330
B89
100
AcDbEntity
  8
LOGO
 62
     5
  0
POLYLINE
  5
B8D
330
1F
100
AcDbEntity
  8
LOGO
 62
     5
100
AcDb2dPolyline
 66
     1
 10
0.0
 20
0.0
 30
0.0
 70
     1
  0
VERTEX
  5
B8E
330
B8D
100
AcDbEntity
  8
LOGO
 62
     5
100
AcDbVertex
100
AcDb2dVertex
 10
179.6957156930652
 20
156.0569919888984
 30
0.0
 42
1.000000057330635
  0
VERTEX
  5
B8F
330
B8D
100
AcDbEntity
  8
LOGO
 62
     5
100
AcDbVertex
100
AcDb2dVertex
 10
180.7866424546958
 20
156.0569919888984
 30
0.0
 42
1.000000057330635
  0
SEQEND
  5
B90
330
B8D
100
AcDbEntity
  8
LOGO
 62
     5
  0
CIRCLE
  5
B91
330
1F
100
AcDbEntity
  8
LOGO
 62
     5
100
AcDbCircle
 10
180.2411790738814
 20
156.0569919888984
 30
0.0
 40
0.5454633808151491
  0
POLYLINE
  5
B92
330
1F
100
AcDbEntity
  8
LOGO
 62
     5
100
AcDb2dPolyline
 66
     1
 10
0.0
 20
0.0
 30
0.0
 70
     1
 40
0.3642250138990044
 41
0.3642250138990044
  0
VERTEX
  5
B93
330
B92
100
AcDbEntity
  8
LOGO
 62
     5
100
AcDbVertex
100
AcDb2dVertex
 10
179.5127290460829
 20
156.0569919888984
 30
0.0
 42
1.0
  0
VERTEX
  5
B94
330
B92
100
AcDbEntity
  8
LOGO
 62
     5
100
AcDbVertex
100
AcDb2dVertex
 10
180.9696291016788
 20
156.0569919888984
 30
0.0
 42
1.0
  0
SEQEND
  5
B95
330
B92
100
AcDbEntity
  8
LOGO
 62
     5
  0
LINE
  5
B96
330
1F
100
AcDbEntity
  8
LOGO
100
AcDbLine
 10
183.0290787774522
 20
155.1478863542074
 30
0.0
 11
183.0290787774522
 21
156.2388131158374
 31
0.0
  0
SOLID
  5
B97
330
1F
100
AcDbEntity
  8
LOGO
 62
     5
100
AcDbTrace
 10
180.7866060904719
 20
156.9660976235903
 30
0.0
 11
181.1502483443479
 21
156.9660976235903
 31
0.0
 12
180.7866060904719
 22
155.1478863542074
 32
0.0
 13
181.1502483443479
 23
155.1478863542074
 33
0.0
  0
SOLID
  5
B98
330
1F
100
AcDbEntity
  8
LOGO
 62
     5
100
AcDbTrace
 10
181.5745097619453
 20
155.1478863542074
 30
0.0
 11
181.9381520158224
 21
155.1478863542074
 31
0.0
 12
181.5745097619453
 22
156.9660976235903
 32
0.0
 13
181.9381520158224
 23
156.9660976235903
 33
0.0
  0
SOLID
  5
B99
330
1F
100
AcDbEntity
  8
LOGO
 62
     5
100
AcDbTrace
 10
182.6654365235762
 20
156.2388131158374
 30
0.0
 11
183.0290787774522
 21
156.2388131158374
 31
0.0
 12
182.6654365235762
 22
155.1478863542074
 32
0.0
 13
183.0290787774522
 23
155.1478863542074
 33
0.0
  0
SOLID
  5
B9A
330
1F
100
AcDbEntity
  8
LOGO
 62
     5
100
AcDbTrace
 10
181.5381455365576
 20
167.9844579160563
 30
0.0
 11
180.4835830003155
 21
164.1177286165
 31
0.0
 12
181.5381455365576
 22
158.784308892974
 32
0.0
 13
180.4835830003155
 23
158.784308892974
 33
0.0
  0
SOLID
  5
B9B
330
1F
100
AcDbEntity
  8
LOGO
 62
     5
100
AcDbTrace
 10
181.9745162412102
 20
158.784308892974
 30
0.0
 11
183.0290787774522
 21
158.784308892974
 31
0.0
 12
181.9745162412102
 22
168.7844708745851
 32
0.0
 13
183.0290787774522
 23
168.7844708745855
 33
0.0
  0
SOLID
  5
B9C
330
1F
100
AcDbEntity
  8
LOGO
 62
     2
100
AcDbTrace
 10
181.5381455365576
 20
168.7844708745855
 30
0.0
 11
181.9745162412102
 21
168.7844708745851
 31
0.0
 12
181.5381455365576
 22
158.784308892974
 32
0.0
 13
181.9745162412102
 23
158.784308892974
 33
0.0
  0
POLYLINE
  5
B9D
330
1F
100
AcDbEntity
  8
LOGO
 62
     5
100
AcDb2dPolyline
 66
     1
 10
0.0
 20
0.0
 30
0.0
 40
0.3642250138990044
 41
0.3642250138990044
  0
VERTEX
  5
B9E
330
B9D
100
AcDbEntity
  8
LOGO
 62
     5
100
AcDbVertex
100
AcDb2dVertex
 10
177.6359019088308
 20
156.2388131158374
 30
0.0
 42
1.0
  0
VERTEX
  5
B9F
330
B9D
100
AcDbEntity
  8
LOGO
 62
     5
100
AcDbVertex
100
AcDb2dVertex
 10
176.5432268671336
 20
156.2388131158374
 30
0.0
 42
1.0
  0
SEQEND
  5
BA0
330
B9D
100
AcDbEntity
  8
LOGO
 62
     5
  0
POLYLINE
  5
BA1
330
1F
100
AcDbEntity
  8
LOGO
 62
     5
100
AcDb2dPolyline
 66
     1
 10
0.0
 20
0.0
 30
0.0
 40
0.3642250138990044
 41
0.3642250138990044
  0
VERTEX
  5
BA2
330
BA1
100
AcDbEntity
  8
LOGO
 62
     5
100
AcDbVertex
100
AcDb2dVertex
 10
178.7268286704601
 20
156.2388131158374
 30
0.0
 42
1.0
  0
VERTEX
  5
BA3
330
BA1
100
AcDbEntity
  8
LOGO
 62
     5
100
AcDbVertex
100
AcDb2dVertex
 10
177.6341536287634
 20
156.2388131158374
 30
0.0
 42
1.0
  0
SEQEND
  5
BA4
330
BA1
100
AcDbEntity
  8
LOGO
 62
     5
  0
POLYLINE
  5
BA5
330
1F
100
AcDbEntity
  8
LOGO
 62
     5
100
AcDb2dPolyline
 66
     1
 10
0.0
 20
0.0
 30
0.0
 40
0.3642250138990044
 41
0.3642250138990044
  0
VERTEX
  5
BA6
330
BA5
100
AcDbEntity
  8
LOGO
 62
     5
100
AcDbVertex
100
AcDb2dVertex
 10
173.5145987887429
 20
156.2388131158374
 30
0.0
 42
1.0
  0
VERTEX
  5
BA7
330
BA5
100
AcDbEntity
  8
LOGO
 62
     5
100
AcDbVertex
100
AcDb2dVertex
 10
172.4219237470463
 20
156.2388131158374
 30
0.0
 42
1.0
  0
SEQEND
  5
BA8
330
BA5
100
AcDbEntity
  8
LOGO
 62
     5
  0
SOLID
  5
BA9
330
1F
100
AcDbEntity
  8
LOGO
 62
     5
100
AcDbTrace
 10
172.2409767601414
 20
156.9660976235903
 30
0.0
 11
172.6046190140173
 21
156.9660976235903
 31
0.0
 12
172.2409767601414
 22
155.1478863542074
 32
0.0
 13
172.6046190140173
 23
155.1478863542074
 33
0.0
  0
SOLID
  5
BAA
330
1F
100
AcDbEntity
  8
LOGO
 62
     5
100
AcDbTrace
 10
173.3319035217718
 20
156.2388131158374
 30
0.0
 11
173.6955457756489
 21
156.2388131158374
 31
0.0
 12
173.3319035217718
 22
155.1478863542074
 32
0.0
 13
173.6955457756489
 23
155.1478863542074
 33
0.0
  0
POLYLINE
  5
BAB
330
1F
100
AcDbEntity
  8
LOGO
 62
     5
100
AcDb2dPolyline
 66
     1
 10
0.0
 20
0.0
 30
0.0
 70
     1
 40
0.3642250138990044
 41
0.3642250138990044
  0
VERTEX
  5
BAC
330
BAB
100
AcDbEntity
  8
LOGO
 62
     5
100
AcDbVertex
100
AcDb2dVertex
 10
174.3004991643652
 20
156.0569919888984
 30
0.0
 42
1.0
  0
VERTEX
  5
BAD
330
BAB
100
AcDbEntity
  8
LOGO
 62
     5
100
AcDbVertex
100
AcDb2dVertex
 10
175.7573992199616
 20
156.0569919888984
 30
0.0
 42
1.0
  0
SEQEND
  5
BAE
330
BAB
100
AcDbEntity
  8
LOGO
 62
     5
  0
SOLID
  5
BAF
330
1F
100
AcDbEntity
  8
LOGO
 62
     5
100
AcDbTrace
 10
175.5743762087536
 20
157.5115610044061
 30
0.0
 11
175.9380184626302
 21
157.5115610044061
 31
0.0
 12
175.5743762087536
 22
155.1478863542074
 32
0.0
 13
175.9380184626302
 23
155.1478863542074
 33
0.0
  0
SOLID
  5
BB0
330
1F
100
AcDbEntity
  8
LOGO
 62
     5
100
AcDbTrace
 10
176.3622798802291
 20
156.9660976235903
 30
0.0
 11
176.7259221341053
 21
156.9660976235903
 31
0.0
 12
176.3622798802291
 22
155.1478863542074
 32
0.0
 13
176.7259221341053
 23
155.1478863542074
 33
0.0
  0
SOLID
  5
BB1
330
1F
100
AcDbEntity
  8
LOGO
 62
     5
100
AcDbTrace
 10
177.4532066418585
 20
156.2388131158374
 30
0.0
 11
177.8168488957355
 21
156.2388131158374
 31
0.0
 12
177.4532066418585
 22
155.1478863542074
 32
0.0
 13
177.8168488957355
 23
155.1478863542074
 33
0.0
  0
SOLID
  5
BB2
330
1F
100
AcDbEntity
  8
LOGO
 62
     5
100
AcDbTrace
 10
178.5441334034889
 20
156.2388131158374
 30
0.0
 11
178.9077756573654
 21
156.2388131158374
 31
0.0
 12
178.5441334034889
 22
155.1478863542066
 32
0.0
 13
178.9077756573654
 23
155.1478863542066
 33
0.0
  0
SOLID
  5
BB3
330
1F
100
AcDbEntity
  8
LOGO
 62
     5
100
AcDbTrace
 10
171.4530730886663
 20
157.2206472013045
 30
0.0
 11
171.816715342544
 21
157.2206472013045
 31
0.0
 12
171.4530730886663
 22
157.5115610044061
 32
0.0
 13
171.816715342544
 23
157.5115610044061
 33
0.0
  0
SOLID
  5
BB4
330
1F
100
AcDbEntity
  8
LOGO
 62
     5
100
AcDbTrace
 10
171.4530730886663
 20
156.9660976235903
 30
0.0
 11
171.816715342544
 21
156.9660976235903
 31
0.0
 12
171.4530730886663
 22
155.1478863542066
 32
0.0
 13
171.816715342544
 23
155.1478863542074
 33
0.0
  0
SOLID
  5
BB5
330
1F
100
AcDbEntity
  8
LOGO
 62
     5
100
AcDbTrace
 10
175.0289491921631
 20
158.7843088929746
 30
0.0
 11
176.0835117284063
 21
158.7843088929746
 31
0.0
 12
175.0289491921631
 22
164.1177286165
 32
0.0
 13
176.0835117284063
 23
167.9844579160563
 33
0.0
  0
SOLID
  5
BB6
330
1F
100
AcDbEntity
  8
LOGO
 62
     5
100
AcDbTrace
 10
176.5198824330589
 20
168.7844708745851
 30
0.0
 11
177.5744449693011
 21
168.7844708745855
 31
0.0
 12
176.5198824330589
 22
159.5843218515035
 32
0.0
 13
177.5744449693011
 23
163.4510511510598
 33
0.0
  0
SOLID
  5
BB7
330
1F
100
AcDbEntity
  8
LOGO
 62
     2
100
AcDbTrace
 10
176.0835117284063
 20
168.7844708745851
 30
0.0
 11
176.5198824330589
 21
168.7844708745851
 31
0.0
 12
176.0835117284063
 22
158.7843088929746
 32
0.0
 13
176.5198824330589
 23
158.7843088929746
 33
0.0
  0
SOLID
  5
BB8
330
1F
100
AcDbEntity
  8
LOGO
 62
     5
100
AcDbTrace
 10
176.5198824330589
 20
159.5843218515035
 30
0.0
 11
177.5744449693011
 21
163.4510511510598
 31
0.0
 12
181.5381455365576
 22
168.7844708745855
 32
0.0
 13
180.4835830003155
 23
168.7844708745855
 33
0.0
  0
SOLID
  5
BB9
330
1F
100
AcDbEntity
  8
LOGO
 62
     5
100
AcDbTrace
 10
176.5198824330589
 20
158.7843088929746
 30
0.0
 11
177.5744449693011
 21
158.7843088929746
 31
0.0
 12
181.5381455365576
 22
167.9844579160563
 32
0.0
 13
180.4835830003155
 23
164.1177286165
 33
0.0
  0
SOLID
  5
BBA
330
1F
100
AcDbEntity
  8
LOGO
 62
     2
100
AcDbTrace
 10
176.0835117284063
 20
158.7843088929746
 30
0.0
 11
176.5198824330589
 21
158.7843088929746
 31
0.0
 12
181.5381455365576
 22
168.7844708745855
 32
0.0
 13
181.9745162412102
 23
168.7844708745851
 33
0.0
  0
LINE
  5
BBB
330
1F
100
AcDbEntity
  8
LOGO
 62
     4
100
AcDbLine
 10
265.8158965539793
 20
155.9493106654575
 30
0.0
 11
265.8158965539793
 21
147.0062857706148
 31
0.0
  0
LINE
  5
BBC
330
1F
100
AcDbEntity
  8
LOGO
 62
     4
100
AcDbLine
 10
254.2494119693095
 20
155.9493106654575
 30
0.0
 11
254.2494119693095
 21
147.0062857706148
 31
0.0
  0
LINE
  5
BBD
330
1F
100
AcDbEntity
  8
LOGO
 62
     4
100
AcDbLine
 10
265.8158965539793
 20
147.0062857706148
 30
0.0
 11
254.2494119693095
 21
147.0062857706148
 31
0.0
  0
LINE
  5
BBE
330
1F
100
AcDbEntity
  8
LOGO
 62
     4
100
AcDbLine
 10
273.600365833325
 20
166.9248412182167
 30
0.0
 11
254.2494119693095
 21
166.9248412182167
 31
0.0
  0
LINE
  5
BBF
330
1F
100
AcDbEntity
  8
LOGO
 62
     4
100
AcDbLine
 10
273.600365833325
 20
159.6078208497102
 30
0.0
 11
254.2494119693095
 21
159.6078208497102
 31
0.0
  0
LINE
  5
BC0
330
1F
100
AcDbEntity
  8
LOGO
 62
     4
100
AcDbLine
 10
254.2494119693095
 20
166.9248412182167
 30
0.0
 11
254.2494119693095
 21
159.6078208497102
 31
0.0
  0
LINE
  5
BC1
330
1F
100
AcDbEntity
  8
LOGO
 62
     4
100
AcDbLine
 10
273.600365833325
 20
166.9248412182167
 30
0.0
 11
273.600365833325
 21
159.6078208497102
 31
0.0
  0
LINE
  5
BC2
330
1F
100
AcDbEntity
  8
LOGO
 62
     4
100
AcDbLine
 10
263.2278005618311
 20
159.6078208497102
 30
0.0
 11
263.2278005618311
 21
155.9493106654575
 31
0.0
  0
TEXT
  5
BC3
330
1F
100
AcDbEntity
  8
LOGO
  6
Continuous
 62
     7
100
AcDbText
 10
255.5495318939788
 20
161.1352381541537
 30
0.0
 40
4.268880000000001
  1
MVAA
  7
CHINESET
100
AcDbText
  0
LINE
  5
BC4
330
1F
100
AcDbEntity
  8
LOGO
 62
     4
100
AcDbLine
 10
265.8158965539793
 20
155.9493106654575
 30
0.0
 11
254.2494119693095
 21
155.9493106654575
 31
0.0
  0
TEXT
  5
BC5
330
1F
100
AcDbEntity
  8
LOGO
  6
Continuous
100
AcDbText
 10
256.3517742714096
 20
148.268574770397
 30
159.8484869550175
 40
1.829519999999999
  1
Model
 41
0.8
  7
CHINESET
100
AcDbText
  0
TEXT
  5
BC6
330
1F
100
AcDbEntity
  8
LOGO
100
AcDbText
 10
255.8648155214466
 20
151.6601105606964
 30
159.8484869550175
 40
3.0492
  1
型號
  7
CHINESET
100
AcDbText
  0
LINE
  5
BC7
330
1F
100
AcDbEntity
  8
LOGO
  6
Continuous
 62
     7
100
AcDbLine
 10
274.3782255728381
 20
163.2404129914557
 30
0.0
 11
277.6091547813607
 21
163.2404129914557
 31
0.0
  0
LINE
  5
BC8
330
1F
100
AcDbEntity
  8
LOGO
 62
     4
100
AcDbLine
 10
282.5363650705688
 20
155.9493106654575
 30
0.0
 11
282.5363650705688
 21
147.0062857706148
 31
0.0
  0
LINE
  5
BC9
330
1F
100
AcDbEntity
  8
LOGO
 62
     4
100
AcDbLine
 10
267.7213425824731
 20
155.9493106654575
 30
0.0
 11
267.7213425824731
 21
147.0062857706148
 31
0.0
  0
LINE
  5
BCA
330
1F
100
AcDbEntity
  8
LOGO
 62
     4
100
AcDbLine
 10
282.5363650705688
 20
147.0062857706148
 30
0.0
 11
267.7213425824731
 21
147.0062857706148
 31
0.0
  0
LINE
  5
BCB
330
1F
100
AcDbEntity
  8
LOGO
 62
     4
100
AcDbLine
 10
287.4050991898838
 20
166.9248412182167
 30
0.0
 11
278.6283426342071
 21
166.9248412182167
 31
0.0
  0
LINE
  5
BCC
330
1F
100
AcDbEntity
  8
LOGO
 62
     4
100
AcDbLine
 10
287.4050991898838
 20
159.6078208497102
 30
0.0
 11
278.6283426342071
 21
159.6078208497102
 31
0.0
  0
LINE
  5
BCD
330
1F
100
AcDbEntity
  8
LOGO
 62
     4
100
AcDbLine
 10
278.6283426342071
 20
166.9248412182167
 30
0.0
 11
278.6283426342071
 21
159.6078208497102
 31
0.0
  0
LINE
  5
BCE
330
1F
100
AcDbEntity
  8
LOGO
 62
     4
100
AcDbLine
 10
287.4050991898838
 20
166.9248412182167
 30
0.0
 11
287.4050991898838
 21
159.6078208497102
 31
0.0
  0
LINE
  5
BCF
330
1F
100
AcDbEntity
  8
LOGO
 62
     4
100
AcDbLine
 10
283.0167209120456
 20
159.6078208497102
 30
0.0
 11
283.0167209120456
 21
157.7785657575838
 31
0.0
  0
TEXT
  5
BD0
330
1F
100
AcDbEntity
  8
LOGO
  6
Continuous
 62
     7
100
AcDbText
 10
279.8177742034283
 20
161.1352381541537
 30
0.0
 40
4.268880000000001
  1
220
  7
CHINESET
100
AcDbText
  0
LINE
  5
BD1
330
1F
100
AcDbEntity
  8
LOGO
 62
     4
100
AcDbLine
 10
282.5363650705688
 20
155.9493106654575
 30
0.0
 11
267.7213425824731
 21
155.9493106654575
 31
0.0
  0
LINE
  5
BD2
330
1F
100
AcDbEntity
  8
LOGO
  6
Continuous
 62
     7
100
AcDbLine
 10
292.3527432897514
 20
163.2404129914557
 30
0.0
 11
295.5836724982741
 21
163.2404129914557
 31
0.0
  0
LINE
  5
BD3
330
1F
100
AcDbEntity
  8
LOGO
 62
     4
100
AcDbLine
 10
296.734487860516
 20
155.9493106654575
 30
0.0
 11
296.734487860516
 21
147.0062857706148
 31
0.0
  0
LINE
  5
BD4
330
1F
100
AcDbEntity
  8
LOGO
 62
     4
100
AcDbLine
 10
284.5203534667321
 20
155.9493106654575
 30
0.0
 11
284.5203534667321
 21
147.0062857706148
 31
0.0
  0
LINE
  5
BD5
330
1F
100
AcDbEntity
  8
LOGO
 62
     4
100
AcDbLine
 10
296.734487860516
 20
147.0062857706148
 30
0.0
 11
284.5203534667321
 21
147.0062857706148
 31
0.0
  0
LINE
  5
BD6
330
1F
100
AcDbEntity
  8
LOGO
 62
     4
100
AcDbLine
 10
301.7970901534074
 20
166.9248412182167
 30
0.0
 11
296.6028603511205
 21
166.9248412182167
 31
0.0
  0
LINE
  5
BD7
330
1F
100
AcDbEntity
  8
LOGO
 62
     4
100
AcDbLine
 10
301.7970901534074
 20
159.6078208497102
 30
0.0
 11
296.6028603511205
 21
159.6078208497102
 31
0.0
  0
LINE
  5
BD8
330
1F
100
AcDbEntity
  8
LOGO
 62
     4
100
AcDbLine
 10
296.6028603511205
 20
166.9248412182167
 30
0.0
 11
296.6028603511205
 21
159.6078208497102
 31
0.0
  0
LINE
  5
BD9
330
1F
100
AcDbEntity
  8
LOGO
 62
     4
100
AcDbLine
 10
301.7970901534074
 20
166.9248412182167
 30
0.0
 11
301.7970901534074
 21
159.6078208497102
 31
0.0
  0
LINE
  5
BDA
330
1F
100
AcDbEntity
  8
LOGO
 62
     4
100
AcDbLine
 10
299.1999752522639
 20
159.6078208497102
 30
0.0
 11
299.1999752522639
 21
157.7785657575838
 31
0.0
  0
TEXT
  5
BDB
330
1F
100
AcDbEntity
  8
LOGO
  6
Continuous
 62
     7
100
AcDbText
 10
297.5767361964695
 20
161.1352381541537
 30
0.0
 40
4.268880000000001
  1
3
  7
CHINESET
100
AcDbText
  0
LINE
  5
BDC
330
1F
100
AcDbEntity
  8
LOGO
 62
     4
100
AcDbLine
 10
296.734487860516
 20
155.9493106654575
 30
0.0
 11
284.5203534667321
 21
155.9493106654575
 31
0.0
  0
LINE
  5
BDD
330
1F
100
AcDbEntity
  8
LOGO
 62
     4
100
AcDbLine
 10
321.7347141002286
 20
155.9493106654575
 30
0.0
 11
321.7347141002286
 21
147.0062857706148
 31
0.0
  0
LINE
  5
BDE
330
1F
100
AcDbEntity
  8
LOGO
 62
     4
100
AcDbLine
 10
299.2115615121806
 20
155.9493106654575
 30
0.0
 11
299.2115615121806
 21
147.0062857706148
 31
0.0
  0
LINE
  5
BDF
330
1F
100
AcDbEntity
  8
LOGO
 62
     4
100
AcDbLine
 10
321.7347141002286
 20
147.0062857706148
 30
0.0
 11
299.2115615121806
 21
147.0062857706148
 31
0.0
  0
LINE
  5
BE0
330
1F
100
AcDbEntity
  8
LOGO
 62
     4
100
AcDbLine
 10
312.8830440748633
 20
166.9248412182167
 30
0.0
 11
303.2293835950204
 21
166.9248412182167
 31
0.0
  0
LINE
  5
BE1
330
1F
100
AcDbEntity
  8
LOGO
 62
     4
100
AcDbLine
 10
312.8830440748633
 20
159.6078208497102
 30
0.0
 11
303.2293835950204
 21
159.6078208497102
 31
0.0
  0
LINE
  5
BE2
330
1F
100
AcDbEntity
  8
LOGO
 62
     4
100
AcDbLine
 10
303.2293835950204
 20
166.9248412182167
 30
0.0
 11
303.2293835950204
 21
159.6078208497102
 31
0.0
  0
LINE
  5
BE3
330
1F
100
AcDbEntity
  8
LOGO
 62
     4
100
AcDbLine
 10
312.8830440748633
 20
166.9248412182167
 30
0.0
 11
312.8830440748633
 21
159.6078208497102
 31
0.0
  0
LINE
  5
BE4
330
1F
100
AcDbEntity
  8
LOGO
 62
     4
100
AcDbLine
 10
308.056213834942
 20
159.6078208497102
 30
0.0
 11
308.056213834942
 21
155.9493106654575
 31
0.0
  0
TEXT
  5
BE5
330
1F
100
AcDbEntity
  8
LOGO
  6
Continuous
 62
     7
100
AcDbText
 10
304.2611565163867
 20
161.1352381541537
 30
0.0
 40
4.268880000000001
  1
A2
  7
CHINESET
100
AcDbText
  0
LINE
  5
BE6
330
1F
100
AcDbEntity
  8
LOGO
 62
     4
100
AcDbLine
 10
321.7347141002286
 20
155.9493106654575
 30
0.0
 11
299.2115615121806
 21
155.9493106654575
 31
0.0
  0
TEXT
  5
BE7
330
1F
100
AcDbEntity
  8
LOGO
  6
Continuous
100
AcDbText
 10
268.8837565918593
 20
148.268574770397
 30
159.8484869550175
 40
1.829519999999999
  1
Body width
 41
0.8
  7
CHINESET
100
AcDbText
  0
TEXT
  5
BE8
330
1F
100
AcDbEntity
  8
LOGO
100
AcDbText
 10
268.8665218798082
 20
151.6601105606964
 30
159.8484869550175
 40
3.0492
  1
本體寬度
  7
CHINESET
100
AcDbText
  0
TEXT
  5
BE9
330
1F
100
AcDbEntity
  8
LOGO
  6
Continuous
100
AcDbText
 10
286.9684806214993
 20
148.268574770397
 30
159.8484869550175
 40
1.829519999999999
  1
3 Way
 41
0.8
  7
CHINESET
100
AcDbText
  0
TEXT
  5
BEA
330
1F
100
AcDbEntity
  8
LOGO
100
AcDbText
 10
286.1417238536556
 20
151.6601105606964
 30
159.8484869550175
 40
3.0492
  1
3方向
  7
CHINESET
100
AcDbText
  0
TEXT
  5
BEB
330
1F
100
AcDbEntity
  8
LOGO
  6
Continuous
100
AcDbText
 10
300.538087008383
 20
148.268574770397
 30
159.8484869550175
 40
1.829519999999999
  1
Double air operate
 41
0.8
  7
CHINESET
100
AcDbText
  0
TEXT
  5
BEC
330
1F
100
AcDbEntity
  8
LOGO
100
AcDbText
 10
300.6102425774509
 20
151.6601105606964
 30
159.8484869550175
 40
3.0492
  1
複動氣壓引導
  7
CHINESET
100
AcDbText
  0
TEXT
  5
BED
330
1F
100
AcDbEntity
  8
LOGO
100
AcDbText
 10
221.8320329957925
 20
146.2713220981064
 30
0.0
 40
2.439359999999999
  1
10710030
 41
0.7
  7
CHINESET
 72
     1
 11
227.7678089957925
 21
146.2713220981064
 31
0.0
100
AcDbText
  0
LINE
  5
BEE
330
1F
100
AcDbEntity
  8
LOGO
 62
     4
100
AcDbLine
 10
235.3381160658705
 20
149.8517936917017
 30
0.0
 11
235.3381160658714
 21
144.9737801126971
 31
0.0
  0
LINE
  5
BEF
330
1F
100
AcDbEntity
  8
LOGO
 62
     4
100
AcDbLine
 10
235.3381160658705
 20
149.8517936917017
 30
0.0
 11
220.7019560658715
 21
149.8517936917017
 31
0.0
  0
CIRCLE
  5
BF0
330
1F
100
AcDbEntity
  8
LOGO
  6
Continuous
100
AcDbCircle
 10
208.9580369394331
 20
162.0520446925834
 30
0.0
 40
1.416144749733467
  0
CIRCLE
  5
BF1
330
1F
100
AcDbEntity
  8
LOGO
  6
Continuous
100
AcDbCircle
 10
208.9580369394331
 20
162.0520446925834
 30
0.0
 40
0.8297354591420555
  0
LINE
  5
BF2
330
1F
100
AcDbEntity
  8
LOGO
100
AcDbLine
 10
217.8572548692461
 20
160.6358999428497
 30
0.0
 11
217.8572548692461
 21
163.4681894423173
 31
0.0
  0
LINE
  5
BF3
330
1F
100
AcDbEntity
  8
LOGO
100
AcDbLine
 10
213.4177223694193
 20
161.2223092334417
 30
0.0
 11
213.4177223694193
 21
162.8817801517258
 31
0.0
  0
LINE
  5
BF4
330
1F
100
AcDbEntity
  8
LOGO
  6
Continuous
100
AcDbLine
 10
213.4177223694193
 20
162.8817801517258
 30
0.0
 11
217.8572548692461
 21
163.4681894423173
 31
0.0
  0
LINE
  5
BF5
330
1F
100
AcDbEntity
  8
LOGO
  6
Continuous
100
AcDbLine
 10
213.4177223694193
 20
161.2223092334417
 30
0.0
 11
217.8572548692461
 21
160.6358999428497
 31
0.0
  0
LINE
  5
BF6
330
1F
100
AcDbEntity
  8
LOGO
  6
AM_ISO08W050x2
 48
0.3
100
AcDbLine
 10
207.0058601968277
 20
162.0520446925834
 30
0.0
 11
210.9102136820385
 21
162.0520446925834
 31
0.0
1001
GENIUS_GENOREF_13
1005
C0B
  0
LINE
  5
BF7
330
1F
100
AcDbEntity
  8
LOGO
  6
AM_ISO08W050x2
 48
0.3
100
AcDbLine
 10
208.9580369394331
 20
160.0998679499779
 30
0.0
 11
208.9580369394331
 21
164.0042214351888
 31
0.0
1001
GENIUS_GENOREF_13
1005
C0A
  0
LINE
  5
BF8
330
1F
100
AcDbEntity
  8
LOGO
  6
CENTER
 48
0.5
100
AcDbLine
 10
213.0626831656615
 20
162.0520446925834
 30
0.0
 11
218.3043014204709
 21
162.0520446925834
 31
0.0
1001
GENIUS_GENOREF_13
1005
C09
  0
LINE
  5
BF9
330
1F
100
AcDbEntity
  8
LOGO
 62
     4
100
AcDbLine
 10
283.0167209120456
 20
157.7785657575838
 30
0.0
 11
275.1288538265206
 21
157.7785657575838
 31
0.0
  0
LINE
  5
BFA
330
1F
100
AcDbEntity
  8
LOGO
 62
     4
100
AcDbLine
 10
275.1288538265206
 20
155.9493106654575
 30
0.0
 11
275.1288538265206
 21
157.7785657575838
 31
0.0
  0
LINE
  5
BFB
330
1F
100
AcDbEntity
  8
LOGO
 62
     4
100
AcDbLine
 10
299.1999752522639
 20
157.7785657575838
 30
0.0
 11
290.6274206636243
 21
157.7785657575838
 31
0.0
  0
LINE
  5
BFC
330
1F
100
AcDbEntity
  8
LOGO
 62
     4
100
AcDbLine
 10
290.6274206636243
 20
155.9493106654575
 30
0.0
 11
290.6274206636243
 21
157.7785657575838
 31
0.0
  0
POINT
  5
C09
330
1F
100
AcDbEntity
  8
0
 60
     1
100
AcDbPoint
 10
-1145.467533806469
 20
-923.41182714551
 30
0.0
1001
GENIUS_GENOBJ-N-CRS_13
1002
{
1000
OWNER
1000
GEN
1002
}
1001
GENIUS_GENOLIS_13
1002
{
1000
ENT
1005
0
1005
0
1005
0
1005
BF8
1002
}
1001
GENIUS_GENOENT_13
1002
{
1000
MYREF
1005
C09
1002
}
1002
{
1000
GRP
1005
0
1002
}
1001
GENIUS_GENODEF_13
1002
{
1000
HIER
1070
    10
1002
}
1002
{
1000
MANEDIT
1070
     1
1002
}
1002
{
1000
NOSEL
1070
     0
1002
}
1002
{
1000
BEHIND
1070
     0
1002
}
1002
{
1000
OTHER
1070
     0
1002
}
1002
{
1000
REACTOR
1002
}
  0
POINT
  5
C0A
330
1F
100
AcDbEntity
  8
0
 60
     1
100
AcDbPoint
 10
-1156.792119029324
 20
-914.5362406668738
 30
0.0
1001
GENIUS_GENOBJ-N-CRS_13
1002
{
1000
OWNER
1000
GEN
1002
}
1001
GENIUS_GENOLIS_13
1002
{
1000
ENT
1005
0
1005
0
1005
0
1005
BF7
1002
}
1001
GENIUS_GENOENT_13
1002
{
1000
MYREF
1005
C0A
1002
}
1002
{
1000
GRP
1005
0
1002
}
1001
GENIUS_GENODEF_13
1002
{
1000
HIER
1070
    10
1002
}
1002
{
1000
MANEDIT
1070
     1
1002
}
1002
{
1000
NOSEL
1070
     0
1002
}
1002
{
1000
BEHIND
1070
     0
1002
}
1002
{
1000
OTHER
1070
     0
1002
}
1002
{
1000
REACTOR
1002
}
  0
POINT
  5
C0B
330
1F
100
AcDbEntity
  8
0
 60
     1
100
AcDbPoint
 10
-1150.433445331487
 20
-923.41182714551
 30
0.0
1001
GENIUS_GENOBJ-N-CRS_13
1002
{
1000
OWNER
1000
GEN
1002
}
1001
GENIUS_GENOLIS_13
1002
{
1000
ENT
1005
0
1005
0
1005
0
1005
BF6
1002
}
1001
GENIUS_GENOENT_13
1002
{
1000
MYREF
1005
C0B
1002
}
1002
{
1000
GRP
1005
0
1002
}
1001
GENIUS_GENODEF_13
1002
{
1000
HIER
1070
    10
1002
}
1002
{
1000
MANEDIT
1070
     1
1002
}
1002
{
1000
NOSEL
1070
     0
1002
}
1002
{
1000
BEHIND
1070
     0
1002
}
1002
{
1000
OTHER
1070
     0
1002
}
1002
{
1000
REACTOR
1002
}
  0
LINE
  5
E58
330
1F
100
AcDbEntity
  8
AM_VIS
100
AcDbLine
 10
235.7018701384802
 20
264.935443739214
 30
0.0
 11
236.6900375400092
 21
264.8489902939143
 31
0.0
  0
LINE
  5
E59
330
1F
100
AcDbEntity
  8
AM_VIS
100
AcDbLine
 10
235.7018701384802
 20
270.3625368486147
 30
0.0
 11
236.6900375400092
 21
270.4489902939144
 31
0.0
  0
LINE
  5
E5A
330
1F
100
AcDbEntity
  8
AM_VIS
100
AcDbLine
 10
234.302805091045
 20
267.3964902939143
 30
0.0
 11
234.5256968382468
 21
267.3964902939143
 31
0.0
  0
ELLIPSE
  5
E5B
330
1F
100
AcDbEntity
  8
AM_VIS
100
AcDbEllipse
 10
238.1827757476176
 20
267.6489902939143
 30
0.0
 11
0.0
 21
-4.670872363903953
 31
0.0
210
0.0
220
0.0
230
1.0
 40
0.7841006838457007
 41
4.658304192146687
 42
4.7664737686227
  0
LINE
  5
E5C
330
1F
100
AcDbEntity
  8
AM_VIS
100
AcDbLine
 10
234.5256968382468
 20
267.9014902939144
 30
0.0
 11
234.302805091045
 21
267.9014902939144
 31
0.0
  0
LINE
  5
E5D
330
1F
100
AcDbEntity
  8
AM_VIS
100
AcDbLine
 10
234.5203415329245
 20
266.1489902939143
 30
0.0
 11
234.5256968382468
 21
266.1532291406782
 31
0.0
  0
ARC
  5
E5E
330
1F
100
AcDbEntity
  8
AM_VIS
100
AcDbCircle
 10
239.2900375400093
 20
267.6489902939143
 30
0.0
 40
4.993620304949203
100
AcDbArc
 50
162.5703586381471
 51
177.101630595618
  0
ARC
  5
E5F
330
1F
100
AcDbEntity
  8
AM_VIS
100
AcDbCircle
 10
239.2900375400093
 20
267.6489902939143
 30
0.0
 40
4.993620304949203
100
AcDbArc
 50
182.8983694043819
 51
197.4296413618528
  0
LINE
  5
E60
330
1F
100
AcDbEntity
  8
AM_VIS
100
AcDbLine
 10
234.5256968382468
 20
269.1447514471505
 30
0.0
 11
234.5203415329245
 21
269.1489902939143
 31
0.0
  0
ARC
  5
E61
330
1F
100
AcDbEntity
  8
AM_VIS
100
AcDbCircle
 10
235.8064570297774
 20
266.1308773769241
 30
0.0
 40
1.199999999999999
100
AcDbArc
 50
203.5471372370763
 51
265.0000000000003
  0
ARC
  5
E62
330
1F
100
AcDbEntity
  8
AM_VIS
100
AcDbCircle
 10
235.8064570297774
 20
269.1671032109046
 30
0.0
 40
1.199999999999999
100
AcDbArc
 50
94.99999999999975
 51
156.4528627629237
  0
ARC
  5
E63
330
1F
100
AcDbEntity
  8
AM_VIS
100
AcDbCircle
 10
239.2900375400093
 20
267.6489902939143
 30
0.0
 40
5.0
100
AcDbArc
 50
156.4528627629237
 51
162.5423968762788
  0
ARC
  5
E64
330
1F
100
AcDbEntity
  8
AM_VIS
100
AcDbCircle
 10
239.2900375400093
 20
267.6489902939143
 30
0.0
 40
5.0
100
AcDbArc
 50
197.4576031237212
 51
203.5471372370763
  0
LINE
  5
E65
330
1F
100
AcDbEntity
  8
AM_VIS
100
AcDbLine
 10
232.8900375400092
 20
299.1489902939144
 30
0.0
 11
232.8900375400092
 21
270.8989902939144
 31
0.0
  0
LINE
  5
E66
330
1F
100
AcDbEntity
  8
AM_VIS
100
AcDbLine
 10
253.3900375400092
 20
299.1489902939144
 30
0.0
 11
232.8900375400092
 21
299.1489902939144
 31
0.0
  0
LINE
  5
E67
330
1F
100
AcDbEntity
  8
AM_VIS
100
AcDbLine
 10
253.3900375400092
 20
264.1489902939144
 30
0.0
 11
253.3900375400092
 21
299.1489902939144
 31
0.0
  0
LINE
  5
E68
330
1F
100
AcDbEntity
  8
AM_VIS
100
AcDbLine
 10
253.3900375400092
 20
264.1489902939144
 30
0.0
 11
237.3900375400092
 21
264.1489902939144
 31
0.0
  0
LINE
  5
E69
330
1F
100
AcDbEntity
  8
AM_VIS
100
AcDbLine
 10
237.3900375400092
 20
270.8989902939144
 30
0.0
 11
237.3900375400092
 21
264.1489902939144
 31
0.0
  0
LINE
  5
E6A
330
1F
100
AcDbEntity
  8
AM_VIS
100
AcDbLine
 10
232.8900375400092
 20
270.8989902939144
 30
0.0
 11
237.3900375400092
 21
270.8989902939144
 31
0.0
  0
LINE
  5
E6B
330
1F
100
AcDbEntity
  8
AM_VIS
100
AcDbLine
 10
237.3900375400092
 20
264.1489902939143
 30
0.0
 11
232.8900375400092
 21
264.1489902939143
 31
0.0
  0
LINE
  5
E6C
330
1F
100
AcDbEntity
  8
AM_VIS
100
AcDbLine
 10
232.8900375400092
 20
264.1489902939143
 30
0.0
 11
232.8900375400092
 21
267.6489902939143
 31
0.0
  0
LINE
  5
E6D
330
1F
100
AcDbEntity
  8
AM_VIS
100
AcDbLine
 10
232.8900375400092
 20
267.6489902939143
 30
0.0
 11
232.8900375400092
 21
270.8989902939143
 31
0.0
  0
LINE
  5
E6E
330
1F
100
AcDbEntity
  8
AM_VIS
100
AcDbLine
 10
309.0782049415381
 20
298.3625368486146
 30
0.0
 11
308.0900375400092
 21
298.4489902939142
 31
0.0
  0
LINE
  5
E6F
330
1F
100
AcDbEntity
  8
AM_VIS
100
AcDbLine
 10
309.0782049415381
 20
292.9354437392138
 30
0.0
 11
308.0900375400092
 21
292.8489902939142
 31
0.0
  0
LINE
  5
E70
330
1F
100
AcDbEntity
  8
AM_VIS
100
AcDbLine
 10
310.4772699889734
 20
295.9014902939143
 30
0.0
 11
310.2543782417715
 21
295.9014902939143
 31
0.0
  0
ELLIPSE
  5
E71
330
1F
100
AcDbEntity
  8
AM_VIS
100
AcDbEllipse
 10
306.5972993324008
 20
295.6489902939142
 30
0.0
 11
0.0
 21
-4.670872363903953
 31
0.0
210
0.0
220
0.0
230
1.0
 40
0.7841006838457007
 41
1.516711538556886
 42
1.624881115032899
  0
LINE
  5
E72
330
1F
100
AcDbEntity
  8
AM_VIS
100
AcDbLine
 10
310.2543782417715
 20
295.3964902939143
 30
0.0
 11
310.4772699889734
 21
295.3964902939143
 31
0.0
  0
LINE
  5
E73
330
1F
100
AcDbEntity
  8
AM_VIS
100
AcDbLine
 10
310.2597335470939
 20
297.1489902939142
 30
0.0
 11
310.2543782417717
 21
297.1447514471504
 31
0.0
  0
ARC
  5
E74
330
1F
100
AcDbEntity
  8
AM_VIS
100
AcDbCircle
 10
305.4900375400091
 20
295.6489902939142
 30
0.0
 40
4.993620304949203
100
AcDbArc
 50
342.5703586381472
 51
357.101630595618
  0
ARC
  5
E75
330
1F
100
AcDbEntity
  8
AM_VIS
100
AcDbCircle
 10
305.4900375400091
 20
295.6489902939142
 30
0.0
 40
4.993620304949203
100
AcDbArc
 50
2.898369404381977
 51
17.42964136185284
  0
LINE
  5
E76
330
1F
100
AcDbEntity
  8
AM_VIS
100
AcDbLine
 10
310.2543782417717
 20
294.1532291406781
 30
0.0
 11
310.2597335470939
 21
294.1489902939143
 31
0.0
  0
ARC
  5
E77
330
1F
100
AcDbEntity
  8
AM_VIS
100
AcDbCircle
 10
308.9736180502411
 20
297.1671032109045
 30
0.0
 40
1.2
100
AcDbArc
 50
23.54713723707629
 51
85.00000000000026
  0
ARC
  5
E78
330
1F
100
AcDbEntity
  8
AM_VIS
100
AcDbCircle
 10
308.9736180502411
 20
294.130877376924
 30
0.0
 40
1.199999999999999
100
AcDbArc
 50
274.9999999999997
 51
336.4528627629237
  0
ARC
  5
E79
330
1F
100
AcDbEntity
  8
AM_VIS
100
AcDbCircle
 10
305.4900375400091
 20
295.6489902939142
 30
0.0
 40
5.0
100
AcDbArc
 50
336.4528627629237
 51
342.5423968762772
  0
ARC
  5
E7A
330
1F
100
AcDbEntity
  8
AM_VIS
100
AcDbCircle
 10
305.4900375400091
 20
295.6489902939142
 30
0.0
 40
5.0
100
AcDbArc
 50
17.45760312372119
 51
23.54713723707629
  0
ELLIPSE
  5
E7B
330
1F
100
AcDbEntity
  8
AM_VIS
100
AcDbEllipse
 10
307.7746843787329
 20
295.6489902939142
 30
0.0
 11
-8.105058387392032
 21
0.0000000000000108
 31
0.0
210
0.0
220
0.0
230
1.0
 40
0.3639702342661606
 41
4.71238898038469
 42
4.759864439802202
  0
LINE
  5
E7C
330
1F
100
AcDbEntity
  8
AM_VIS
100
AcDbLine
 10
308.0900375400092
 20
298.5989902939143
 30
0.0
 11
307.7746843787329
 21
298.5989902939143
 31
0.0
  0
LINE
  5
E7D
330
1F
100
AcDbEntity
  8
AM_VIS
100
AcDbLine
 10
308.0900375400092
 20
292.6989902939143
 30
0.0
 11
307.3900375400092
 21
292.6989902939143
 31
0.0
  0
LINE
  5
E7E
330
1F
100
AcDbEntity
  8
AM_VIS
100
AcDbLine
 10
308.0900375400092
 20
298.5989902939143
 30
0.0
 11
308.0900375400092
 21
292.6989902939143
 31
0.0
  0
LINE
  5
E7F
330
1F
100
AcDbEntity
  8
AM_VIS
100
AcDbLine
 10
311.8900375400092
 20
264.1489902939142
 30
0.0
 11
311.8900375400092
 21
292.3989902939142
 31
0.0
  0
LINE
  5
E80
330
1F
100
AcDbEntity
  8
AM_VIS
100
AcDbLine
 10
291.3900375400092
 20
299.1489902939142
 30
0.0
 11
291.3900375400092
 21
264.1489902939142
 31
0.0
  0
LINE
  5
E81
330
1F
100
AcDbEntity
  8
AM_VIS
100
AcDbLine
 10
291.3900375400092
 20
299.1489902939142
 30
0.0
 11
307.3900375400092
 21
299.1489902939142
 31
0.0
  0
LINE
  5
E82
330
1F
100
AcDbEntity
  8
AM_VIS
100
AcDbLine
 10
307.3900375400092
 20
292.3989902939142
 30
0.0
 11
307.3900375400092
 21
299.1489902939142
 31
0.0
  0
LINE
  5
E83
330
1F
100
AcDbEntity
  8
AM_VIS
100
AcDbLine
 10
311.8900375400092
 20
292.3989902939142
 30
0.0
 11
307.3900375400092
 21
292.3989902939142
 31
0.0
  0
LINE
  5
E84
330
1F
100
AcDbEntity
  8
AM_VIS
100
AcDbLine
 10
307.3900375400092
 20
299.1489902939142
 30
0.0
 11
311.8900375400092
 21
299.1489902939142
 31
0.0
  0
LINE
  5
E85
330
1F
100
AcDbEntity
  8
AM_VIS
100
AcDbLine
 10
311.8900375400092
 20
299.1489902939142
 30
0.0
 11
311.8900375400092
 21
295.6489902939142
 31
0.0
  0
LINE
  5
E86
330
1F
100
AcDbEntity
  8
AM_VIS
100
AcDbLine
 10
291.3900375400092
 20
264.1489902939142
 30
0.0
 11
311.8900375400092
 21
264.1489902939142
 31
0.0
  0
LINE
  5
E87
330
1F
100
AcDbEntity
  8
AM_VIS
100
AcDbLine
 10
311.8900375400092
 20
295.6489902939142
 30
0.0
 11
311.8900375400092
 21
292.3989902939142
 31
0.0
  0
ELLIPSE
  5
E88
330
1F
100
AcDbEntity
  8
AM_VIS
100
AcDbEllipse
 10
237.0053907012855
 20
267.6489902939143
 30
0.0
 11
8.105058387392032
 21
0.0000000000000153
 31
0.0
210
0.0
220
0.0
230
1.0
 40
0.3639702342661606
 41
4.71238898038469
 42
4.75986443980221
  0
LINE
  5
E89
330
1F
100
AcDbEntity
  8
AM_VIS
100
AcDbLine
 10
236.6900375400094
 20
264.6989902939144
 30
0.0
 11
237.0053907012855
 21
264.6989902939144
 31
0.0
  0
LINE
  5
E8A
330
1F
100
AcDbEntity
  8
AM_VIS
100
AcDbLine
 10
236.6900375400094
 20
270.5989902939144
 30
0.0
 11
237.3900375400092
 21
270.5989902939144
 31
0.0
  0
LINE
  5
E8B
330
1F
100
AcDbEntity
  8
AM_VIS
100
AcDbLine
 10
236.6900375400094
 20
264.6989902939144
 30
0.0
 11
236.6900375400094
 21
270.5989902939144
 31
0.0
  0
LINE
  5
E8C
330
1F
100
AcDbEntity
  8
AM_VIS
100
AcDbLine
 10
287.8900375400092
 20
296.1489902939143
 30
0.0
 11
281.8900375400092
 21
296.1489902939143
 31
0.0
  0
LINE
  5
E8D
330
1F
100
AcDbEntity
  8
AM_VIS
100
AcDbLine
 10
287.8900375400092
 20
298.1489902939143
 30
0.0
 11
287.8900375400092
 21
296.1489902939143
 31
0.0
  0
LINE
  5
E8E
330
1F
100
AcDbEntity
  8
AM_VIS
100
AcDbLine
 10
281.8900375400092
 20
296.1489902939143
 30
0.0
 11
281.8900375400092
 21
298.1489902939143
 31
0.0
  0
LINE
  5
E8F
330
1F
100
AcDbEntity
  8
AM_VIS
100
AcDbLine
 10
291.3900375400092
 20
299.1489902939143
 30
0.0
 11
287.8900375400092
 21
299.1489902939143
 31
0.0
  0
LINE
  5
E90
330
1F
100
AcDbEntity
  8
AM_VIS
100
AcDbLine
 10
281.8900375400092
 20
299.1489902939143
 30
0.0
 11
253.3900375400092
 21
299.1489902939143
 31
0.0
  0
CIRCLE
  5
E91
330
1F
100
AcDbEntity
  8
AM_VIS
100
AcDbCircle
 10
263.8900375400092
 20
294.6489902939143
 30
0.0
 40
1.050000000000016
  0
LINE
  5
E92
330
1F
100
AcDbEntity
  8
AM_VIS
100
AcDbLine
 10
253.3900375400092
 20
298.1489902939143
 30
0.0
 11
253.3900375400092
 21
265.1489902939143
 31
0.0
  0
LINE
  5
E93
330
1F
100
AcDbEntity
  8
AM_VIS
100
AcDbLine
 10
291.3900375400092
 20
265.1489902939143
 30
0.0
 11
291.3900375400092
 21
298.1489902939143
 31
0.0
  0
LINE
  5
E94
330
1F
100
AcDbEntity
  8
AM_VIS
100
AcDbLine
 10
253.3900375400092
 20
264.1489902939143
 30
0.0
 11
291.3900375400092
 21
264.1489902939143
 31
0.0
  0
LINE
  5
E95
330
1F
100
AcDbEntity
  8
AM_VIS
100
AcDbLine
 10
287.8900375400092
 20
298.1489902939143
 30
0.0
 11
287.8900375400092
 21
299.1489902939143
 31
0.0
  0
CIRCLE
  5
E96
330
1F
100
AcDbEntity
  8
AM_VIS
100
AcDbCircle
 10
284.8900375400092
 20
290.6489902939143
 30
0.0
 40
2.1
  0
CIRCLE
  5
E97
330
1F
100
AcDbEntity
  8
AM_VIS
100
AcDbCircle
 10
259.8900375400092
 20
290.6489902939143
 30
0.0
 40
2.1
  0
LINE
  5
E98
330
1F
100
AcDbEntity
  8
AM_VIS
100
AcDbLine
 10
281.8900375400092
 20
299.1489902939143
 30
0.0
 11
281.8900375400092
 21
298.1489902939143
 31
0.0
  0
LINE
  5
E99
330
1F
100
AcDbEntity
  8
AM_VIS
100
AcDbLine
 10
281.8900375400092
 20
299.1489902939143
 30
0.0
 11
287.8900375400092
 21
299.1489902939143
 31
0.0
  0
CIRCLE
  5
E9A
330
1F
100
AcDbEntity
  8
AM_VIS
100
AcDbCircle
 10
263.8900375400092
 20
294.6489902939143
 30
0.0
 40
1.05
  0
LINE
  5
E9B
330
1F
100
AcDbEntity
  8
AM_VIS
100
AcDbLine
 10
235.7018701384802
 20
355.9985331567485
 30
0.0
 11
236.6900375400092
 21
355.9120797114488
 31
0.0
  0
LINE
  5
E9C
330
1F
100
AcDbEntity
  8
AM_VIS
100
AcDbLine
 10
235.7018701384802
 20
361.4256262661491
 30
0.0
 11
236.6900375400092
 21
361.5120797114487
 31
0.0
  0
ARC
  5
E9D
330
1F
100
AcDbEntity
  8
AM_VIS
100
AcDbCircle
 10
239.2900375400093
 20
358.7120797114488
 30
0.0
 40
4.993620304949105
100
AcDbArc
 50
162.5703586381471
 51
177.1016305955952
  0
LINE
  5
E9E
330
1F
100
AcDbEntity
  8
AM_VIS
100
AcDbLine
 10
234.5256968382468
 20
360.2078408646849
 30
0.0
 11
234.5203415329245
 21
360.2120797114488
 31
0.0
  0
LINE
  5
E9F
330
1F
100
AcDbEntity
  8
AM_VIS
100
AcDbLine
 10
234.5203415329245
 20
357.2120797114488
 30
0.0
 11
234.5256968382468
 21
357.2163185582127
 31
0.0
  0
ARC
  5
EA0
330
1F
100
AcDbEntity
  8
AM_VIS
100
AcDbCircle
 10
239.2900375400093
 20
358.7120797114488
 30
0.0
 40
4.993620304949105
100
AcDbArc
 50
182.8983694043592
 51
197.4296413618528
  0
LINE
  5
EA1
330
1F
100
AcDbEntity
  8
AM_VIS
100
AcDbLine
 10
234.5256968382468
 20
358.9645797114507
 30
0.0
 11
234.3028050910452
 21
358.9645797114507
 31
0.0
  0
LINE
  5
EA2
330
1F
100
AcDbEntity
  8
AM_VIS
100
AcDbLine
 10
234.302805091045
 20
358.4595797114508
 30
0.0
 11
234.5256968382466
 21
358.4595797114508
 31
0.0
  0
ELLIPSE
  5
EA3
330
1F
100
AcDbEntity
  8
AM_VIS
100
AcDbEllipse
 10
238.1827757476174
 20
358.7120797114488
 30
0.0
 11
0.0
 21
-4.670872363903926
 31
0.0
210
0.0
220
0.0
230
1.0
 40
0.7841006838456919
 41
4.65830419214626
 42
4.766473768622273
  0
ARC
  5
EA4
330
1F
100
AcDbEntity
  8
AM_VIS
100
AcDbCircle
 10
235.8064570297772
 20
357.1939667944585
 30
0.0
 40
1.199999999999999
100
AcDbArc
 50
203.5471372370763
 51
265.0000000000003
  0
ARC
  5
EA5
330
1F
100
AcDbEntity
  8
AM_VIS
100
AcDbCircle
 10
235.8064570297772
 20
360.2301926284391
 30
0.0
 40
1.199999999999999
100
AcDbArc
 50
94.99999999999975
 51
156.4528627629237
  0
ARC
  5
EA6
330
1F
100
AcDbEntity
  8
AM_VIS
100
AcDbCircle
 10
239.2900375400093
 20
358.7120797114488
 30
0.0
 40
5.0
100
AcDbArc
 50
197.4576031237212
 51
203.5471372370763
  0
ARC
  5
EA7
330
1F
100
AcDbEntity
  8
AM_VIS
100
AcDbCircle
 10
239.2900375400093
 20
358.7120797114488
 30
0.0
 40
5.0
100
AcDbArc
 50
156.4528627629237
 51
162.5423968762788
  0
LINE
  5
EA8
330
1F
100
AcDbEntity
  8
AM_VIS
100
AcDbLine
 10
253.3900375400092
 20
353.7120797114488
 30
0.0
 11
253.3900375400092
 21
362.8620797114487
 31
0.0
  0
LINE
  5
EA9
330
1F
100
AcDbEntity
  8
AM_VIS
100
AcDbLine
 10
252.9900375400091
 20
353.7120797114488
 30
0.0
 11
253.3900375400092
 21
353.7120797114488
 31
0.0
  0
LINE
  5
EAA
330
1F
100
AcDbEntity
  8
AM_VIS
100
AcDbLine
 10
252.9900375400091
 20
349.7120797114488
 30
0.0
 11
252.9900375400091
 21
353.7120797114488
 31
0.0
  0
LINE
  5
EAB
330
1F
100
AcDbEntity
  8
AM_VIS
100
AcDbLine
 10
253.3900375400092
 20
349.7120797114488
 30
0.0
 11
252.9900375400091
 21
349.7120797114488
 31
0.0
  0
LINE
  5
EAC
330
1F
100
AcDbEntity
  8
AM_VIS
100
AcDbLine
 10
253.3900375400092
 20
340.5620797114488
 30
0.0
 11
253.3900375400092
 21
349.7120797114488
 31
0.0
  0
LINE
  5
EAD
330
1F
100
AcDbEntity
  8
AM_VIS
100
AcDbLine
 10
232.8900375400092
 20
355.4620797114488
 30
0.0
 11
232.8900375400092
 21
340.5620797114488
 31
0.0
  0
LINE
  5
EAE
330
1F
100
AcDbEntity
  8
AM_VIS
100
AcDbLine
 10
253.3900375400092
 20
362.8620797114487
 30
0.0
 11
237.3900375400092
 21
362.8620797114487
 31
0.0
  0
LINE
  5
EAF
330
1F
100
AcDbEntity
  8
AM_VIS
100
AcDbLine
 10
237.3900375400092
 20
362.8620797114487
 30
0.0
 11
237.3900375400092
 21
355.4620797114488
 31
0.0
  0
LINE
  5
EB0
330
1F
100
AcDbEntity
  8
AM_VIS
100
AcDbLine
 10
232.8900375400092
 20
358.7120797114488
 30
0.0
 11
232.8900375400092
 21
362.8620797114487
 31
0.0
  0
LINE
  5
EB1
330
1F
100
AcDbEntity
  8
AM_VIS
100
AcDbLine
 10
232.8900375400092
 20
362.8620797114487
 30
0.0
 11
237.3900375400092
 21
362.8620797114487
 31
0.0
  0
LINE
  5
EB2
330
1F
100
AcDbEntity
  8
AM_VIS
100
AcDbLine
 10
237.3900375400092
 20
355.4620797114488
 30
0.0
 11
232.8900375400092
 21
355.4620797114488
 31
0.0
  0
LINE
  5
EB3
330
1F
100
AcDbEntity
  8
AM_VIS
100
AcDbLine
 10
253.3900375400092
 20
340.5620797114488
 30
0.0
 11
232.8900375400092
 21
340.5620797114488
 31
0.0
  0
LINE
  5
EB4
330
1F
100
AcDbEntity
  8
AM_VIS
100
AcDbLine
 10
232.8900375400092
 20
355.4620797114488
 30
0.0
 11
232.8900375400092
 21
358.7120797114488
 31
0.0
  0
LINE
  5
EB5
330
1F
100
AcDbEntity
  8
AM_VIS
100
AcDbLine
 10
309.0782049415381
 20
347.4256262661492
 30
0.0
 11
308.0900375400092
 21
347.5120797114489
 31
0.0
  0
LINE
  5
EB6
330
1F
100
AcDbEntity
  8
AM_VIS
100
AcDbLine
 10
309.0782049415381
 20
341.9985331567485
 30
0.0
 11
308.0900375400092
 21
341.9120797114488
 31
0.0
  0
LINE
  5
EB7
330
1F
100
AcDbEntity
  8
AM_VIS
100
AcDbLine
 10
308.0900375400092
 20
344.8268588754352
 30
0.0
 11
308.0900375400092
 21
345.1068588754352
 31
0.0
  0
LINE
  5
EB8
330
1F
100
AcDbEntity
  8
AM_VIS
100
AcDbLine
 10
307.3967625400091
 20
344.5745274112742
 30
0.0
 11
307.3967625400091
 21
344.8545274112742
 31
0.0
  0
LINE
  5
EB9
330
1F
100
AcDbEntity
  8
AM_VIS
100
AcDbLine
 10
310.2597335470939
 20
346.2120797114488
 30
0.0
 11
310.2543782417715
 21
346.2078408646849
 31
0.0
  0
ARC
  5
EBA
330
1F
100
AcDbEntity
  8
AM_VIS
100
AcDbCircle
 10
305.4900375400091
 20
344.7120797114488
 30
0.0
 40
4.993620304949105
100
AcDbArc
 50
2.898369404404828
 51
17.42964136185284
  0
ARC
  5
EBB
330
1F
100
AcDbEntity
  8
AM_VIS
100
AcDbCircle
 10
305.4900375400091
 20
344.7120797114488
 30
0.0
 40
4.993620304949105
100
AcDbArc
 50
342.5703586381472
 51
357.1016305956408
  0
LINE
  5
EBC
330
1F
100
AcDbEntity
  8
AM_VIS
100
AcDbLine
 10
310.2543782417715
 20
343.2163185582127
 30
0.0
 11
310.2597335470939
 21
343.2120797114488
 31
0.0
  0
ELLIPSE
  5
EBD
330
1F
100
AcDbEntity
  8
AM_VIS
100
AcDbEllipse
 10
306.597299332401
 20
344.7120797114488
 30
0.0
 11
0.0
 21
-4.670872363903926
 31
0.0
210
0.0
220
0.0
230
1.0
 40
0.7841006838456919
 41
1.516711538557312
 42
1.624881115033326
  0
LINE
  5
EBE
330
1F
100
AcDbEntity
  8
AM_VIS
100
AcDbLine
 10
310.2543782417717
 20
344.4595797114508
 30
0.0
 11
310.4772699889734
 21
344.4595797114508
 31
0.0
  0
LINE
  5
EBF
330
1F
100
AcDbEntity
  8
AM_VIS
100
AcDbLine
 10
310.4772699889732
 20
344.9645797114508
 30
0.0
 11
310.2543782417715
 21
344.9645797114508
 31
0.0
  0
ARC
  5
EC0
330
1F
100
AcDbEntity
  8
AM_VIS
100
AcDbCircle
 10
308.9736180502411
 20
346.2301926284391
 30
0.0
 40
1.2
100
AcDbArc
 50
23.54713723707629
 51
85.00000000000026
  0
ARC
  5
EC1
330
1F
100
AcDbEntity
  8
AM_VIS
100
AcDbCircle
 10
308.9736180502411
 20
343.1939667944585
 30
0.0
 40
1.199999999999999
100
AcDbArc
 50
274.9999999999997
 51
336.4528627629237
  0
ARC
  5
EC2
330
1F
100
AcDbEntity
  8
AM_VIS
100
AcDbCircle
 10
305.4900375400091
 20
344.7120797114488
 30
0.0
 40
5.0
100
AcDbArc
 50
336.4528627629237
 51
342.5423968762772
  0
ARC
  5
EC3
330
1F
100
AcDbEntity
  8
AM_VIS
100
AcDbCircle
 10
305.4900375400091
 20
344.7120797114488
 30
0.0
 40
5.0
100
AcDbArc
 50
17.45760312372119
 51
23.54713723707629
  0
LINE
  5
EC4
330
1F
100
AcDbEntity
  8
AM_VIS
100
AcDbLine
 10
307.3900375400092
 20
344.5720797114489
 30
0.0
 11
308.0900375400092
 21
344.8268588754352
 31
0.0
  0
LINE
  5
EC5
330
1F
100
AcDbEntity
  8
AM_VIS
100
AcDbLine
 10
308.0900375400092
 20
345.1068588754352
 30
0.0
 11
307.3900375400092
 21
344.8520797114488
 31
0.0
  0
LINE
  5
EC6
330
1F
100
AcDbEntity
  8
AM_VIS
100
AcDbLine
 10
308.0900375400092
 20
347.6620797114488
 30
0.0
 11
307.3900375400092
 21
347.6620797114488
 31
0.0
  0
LINE
  5
EC7
330
1F
100
AcDbEntity
  8
AM_VIS
100
AcDbLine
 10
308.0900375400092
 20
341.7620797114488
 30
0.0
 11
307.3900375400092
 21
341.7620797114488
 31
0.0
  0
LINE
  5
EC8
330
1F
100
AcDbEntity
  8
AM_VIS
100
AcDbLine
 10
308.0900375400092
 20
347.6620797114488
 30
0.0
 11
308.0900375400092
 21
345.1068588754352
 31
0.0
  0
LINE
  5
EC9
330
1F
100
AcDbEntity
  8
AM_VIS
100
AcDbLine
 10
308.0900375400092
 20
344.8268588754352
 30
0.0
 11
308.0900375400092
 21
341.7620797114488
 31
0.0
  0
LINE
  5
ECA
330
1F
100
AcDbEntity
  8
AM_VIS
100
AcDbLine
 10
291.3900375400092
 20
349.7120797114488
 30
0.0
 11
291.3900375400092
 21
340.5620797114488
 31
0.0
  0
LINE
  5
ECB
330
1F
100
AcDbEntity
  8
AM_VIS
100
AcDbLine
 10
291.7900375400093
 20
349.7120797114488
 30
0.0
 11
291.3900375400092
 21
349.7120797114488
 31
0.0
  0
LINE
  5
ECC
330
1F
100
AcDbEntity
  8
AM_VIS
100
AcDbLine
 10
291.7900375400093
 20
353.7120797114488
 30
0.0
 11
291.7900375400093
 21
349.7120797114488
 31
0.0
  0
LINE
  5
ECD
330
1F
100
AcDbEntity
  8
AM_VIS
100
AcDbLine
 10
291.3900375400092
 20
353.7120797114488
 30
0.0
 11
291.7900375400093
 21
353.7120797114488
 31
0.0
  0
LINE
  5
ECE
330
1F
100
AcDbEntity
  8
AM_VIS
100
AcDbLine
 10
291.3900375400092
 20
362.8620797114489
 30
0.0
 11
291.3900375400092
 21
353.7120797114488
 31
0.0
  0
LINE
  5
ECF
330
1F
100
AcDbEntity
  8
AM_VIS
100
AcDbLine
 10
311.8900375400092
 20
347.9620797114488
 30
0.0
 11
311.8900375400092
 21
362.8620797114489
 31
0.0
  0
LINE
  5
ED0
330
1F
100
AcDbEntity
  8
AM_VIS
100
AcDbLine
 10
291.3900375400092
 20
340.5620797114488
 30
0.0
 11
307.3900375400092
 21
340.5620797114488
 31
0.0
  0
LINE
  5
ED1
330
1F
100
AcDbEntity
  8
AM_VIS
100
AcDbLine
 10
307.3900375400092
 20
340.5620797114488
 30
0.0
 11
307.3900375400092
 21
347.9620797114488
 31
0.0
  0
LINE
  5
ED2
330
1F
100
AcDbEntity
  8
AM_VIS
100
AcDbLine
 10
311.8900375400092
 20
344.7120797114488
 30
0.0
 11
311.8900375400092
 21
340.5620797114488
 31
0.0
  0
LINE
  5
ED3
330
1F
100
AcDbEntity
  8
AM_VIS
100
AcDbLine
 10
311.8900375400092
 20
340.5620797114488
 30
0.0
 11
307.3900375400092
 21
340.5620797114488
 31
0.0
  0
LINE
  5
ED4
330
1F
100
AcDbEntity
  8
AM_VIS
100
AcDbLine
 10
307.3900375400092
 20
347.9620797114488
 30
0.0
 11
311.8900375400092
 21
347.9620797114488
 31
0.0
  0
LINE
  5
ED5
330
1F
100
AcDbEntity
  8
AM_VIS
100
AcDbLine
 10
291.3900375400092
 20
362.8620797114489
 30
0.0
 11
311.8900375400092
 21
362.8620797114489
 31
0.0
  0
LINE
  5
ED6
330
1F
100
AcDbEntity
  8
AM_VIS
100
AcDbLine
 10
311.8900375400092
 20
347.9620797114488
 30
0.0
 11
311.8900375400092
 21
344.7120797114488
 31
0.0
  0
LINE
  5
ED7
330
1F
100
AcDbEntity
  8
AM_VIS
100
AcDbLine
 10
236.6900375400092
 20
355.7620797114487
 30
0.0
 11
237.3900375400092
 21
355.7620797114487
 31
0.0
  0
LINE
  5
ED8
330
1F
100
AcDbEntity
  8
AM_VIS
100
AcDbLine
 10
236.6900375400092
 20
361.6620797114488
 30
0.0
 11
237.3900375400092
 21
361.6620797114488
 31
0.0
  0
LINE
  5
ED9
330
1F
100
AcDbEntity
  8
AM_VIS
100
AcDbLine
 10
236.6900375400092
 20
355.7620797114487
 30
0.0
 11
236.6900375400092
 21
361.6620797114488
 31
0.0
  0
CIRCLE
  5
EDA
330
1F
100
AcDbEntity
  8
AM_VIS
100
AcDbCircle
 10
259.8900375400092
 20
360.2120797114488
 30
0.0
 40
1.60000000000004
  0
CIRCLE
  5
EDB
330
1F
100
AcDbEntity
  8
AM_VIS
100
AcDbCircle
 10
284.8900375400092
 20
343.2120797114488
 30
0.0
 40
1.600000000000041
  0
LINE
  5
EDC
330
1F
100
AcDbEntity
  8
AM_VIS
100
AcDbLine
 10
287.8900375400092
 20
340.5620797114488
 30
0.0
 11
281.8900375400092
 21
340.5620797114488
 31
0.0
  0
LINE
  5
EDD
330
1F
100
AcDbEntity
  8
AM_VIS
100
AcDbLine
 10
287.8900375400092
 20
340.5620797114488
 30
0.0
 11
291.3900375400092
 21
340.5620797114488
 31
0.0
  0
LINE
  5
EDE
330
1F
100
AcDbEntity
  8
AM_VIS
100
AcDbLine
 10
253.3900375400092
 20
340.5620797114488
 30
0.0
 11
281.8900375400092
 21
340.5620797114488
 31
0.0
  0
LINE
  5
EDF
330
1F
100
AcDbEntity
  8
AM_VIS
100
AcDbLine
 10
291.3900375400092
 20
362.8620797114487
 30
0.0
 11
262.8900375400092
 21
362.8620797114489
 31
0.0
  0
LINE
  5
EE0
330
1F
100
AcDbEntity
  8
AM_VIS
100
AcDbLine
 10
256.8900375400092
 20
362.8620797114489
 30
0.0
 11
253.3900375400092
 21
362.8620797114489
 31
0.0
  0
LINE
  5
EE1
330
1F
100
AcDbEntity
  8
AM_VIS
100
AcDbLine
 10
256.8900375400092
 20
360.2120797114488
 30
0.0
 11
256.8900375400092
 21
361.8620797114489
 31
0.0
  0
LINE
  5
EE2
330
1F
100
AcDbEntity
  8
AM_VIS
100
AcDbLine
 10
262.8900375400092
 20
361.8620797114489
 30
0.0
 11
262.8900375400092
 21
360.2120797114488
 31
0.0
  0
LINE
  5
EE3
330
1F
100
AcDbEntity
  8
AM_VIS
100
AcDbLine
 10
287.8900375400092
 20
343.2120797114488
 30
0.0
 11
287.8900375400092
 21
341.5620797114488
 31
0.0
  0
LINE
  5
EE4
330
1F
100
AcDbEntity
  8
AM_VIS
100
AcDbLine
 10
281.8900375400092
 20
341.5620797114488
 30
0.0
 11
281.8900375400092
 21
343.2120797114488
 31
0.0
  0
LINE
  5
EE5
330
1F
100
AcDbEntity
  8
AM_VIS
100
AcDbLine
 10
270.1400375400092
 20
346.7120797114488
 30
0.0
 11
270.1400375400092
 21
352.7120797114488
 31
0.0
  0
LINE
  5
EE6
330
1F
100
AcDbEntity
  8
AM_VIS
100
AcDbLine
 10
274.6400375400092
 20
352.7120797114488
 30
0.0
 11
274.6400375400092
 21
346.7120797114488
 31
0.0
  0
LINE
  5
EE7
330
1F
100
AcDbEntity
  8
AM_VIS
100
AcDbLine
 10
256.8900375400092
 20
362.8620797114489
 30
0.0
 11
262.8900375400092
 21
362.8620797114489
 31
0.0
  0
LINE
  5
EE8
330
1F
100
AcDbEntity
  8
AM_VIS
100
AcDbLine
 10
253.3900375400092
 20
361.8620797114489
 30
0.0
 11
253.3900375400092
 21
341.5620797114488
 31
0.0
  0
LINE
  5
EE9
330
1F
100
AcDbEntity
  8
AM_VIS
100
AcDbLine
 10
291.3900375400092
 20
341.5620797114488
 30
0.0
 11
291.3900375400092
 21
361.8620797114489
 31
0.0
  0
CIRCLE
  5
EEA
330
1F
100
AcDbEntity
  8
AM_VIS
100
AcDbCircle
 10
284.8900375400092
 20
343.2120797114488
 30
0.0
 40
1.6
  0
LINE
  5
EEB
330
1F
100
AcDbEntity
  8
AM_VIS
100
AcDbLine
 10
287.8900375400092
 20
340.5620797114488
 30
0.0
 11
287.8900375400092
 21
341.5620797114488
 31
0.0
  0
LINE
  5
EEC
330
1F
100
AcDbEntity
  8
AM_VIS
100
AcDbLine
 10
281.8900375400092
 20
341.5620797114488
 30
0.0
 11
281.8900375400092
 21
340.5620797114488
 31
0.0
  0
LINE
  5
EED
330
1F
100
AcDbEntity
  8
AM_VIS
100
AcDbLine
 10
262.8900375400092
 20
361.8620797114489
 30
0.0
 11
262.8900375400092
 21
362.8620797114489
 31
0.0
  0
LINE
  5
EEE
330
1F
100
AcDbEntity
  8
AM_VIS
100
AcDbLine
 10
256.8900375400092
 20
362.8620797114489
 30
0.0
 11
256.8900375400092
 21
361.8620797114489
 31
0.0
  0
ARC
  5
EEF
330
1F
100
AcDbEntity
  8
AM_VIS
100
AcDbCircle
 10
259.8900375400092
 20
360.2120797114488
 30
0.0
 40
3.0
100
AcDbArc
 50
180.0
 51
0.0
  0
ARC
  5
EF0
330
1F
100
AcDbEntity
  8
AM_VIS
100
AcDbCircle
 10
284.8900375400092
 20
343.2120797114488
 30
0.0
 40
3.0
100
AcDbArc
 50
0.0
 51
180.0
  0
CIRCLE
  5
EF1
330
1F
100
AcDbEntity
  8
AM_VIS
100
AcDbCircle
 10
272.3900375400092
 20
349.7120797114488
 30
0.0
 40
6.699999999999999
  0
CIRCLE
  5
EF2
330
1F
100
AcDbEntity
  8
AM_VIS
100
AcDbCircle
 10
272.3900375400092
 20
349.7120797114488
 30
0.0
 40
5.449999999999999
  0
ARC
  5
EF3
330
1F
100
AcDbEntity
  8
AM_VIS
100
AcDbCircle
 10
272.3900375400092
 20
346.7120797114488
 30
0.0
 40
2.249999999999996
100
AcDbArc
 50
180.0
 51
0.0
  0
ARC
  5
EF4
330
1F
100
AcDbEntity
  8
AM_VIS
100
AcDbCircle
 10
272.3900375400092
 20
352.7120797114488
 30
0.0
 40
2.25
100
AcDbArc
 50
0.0
 51
180.0
  0
CIRCLE
  5
EF5
330
1F
100
AcDbEntity
  8
AM_VIS
100
AcDbCircle
 10
259.8900375400092
 20
360.2120797114488
 30
0.0
 40
1.6
  0
LINE
  5
EF6
330
1F
100
AcDbEntity
  8
AM_VIS
100
AcDbLine
 10
235.7018701384802
 20
229.0388302871604
 30
0.0
 11
236.6900375400092
 21
228.9523768418608
 31
0.0
  0
LINE
  5
EF7
330
1F
100
AcDbEntity
  8
AM_VIS
100
AcDbLine
 10
235.7018701384802
 20
234.4659233965612
 30
0.0
 11
236.6900375400092
 21
234.5523768418608
 31
0.0
  0
LINE
  5
EF8
330
1F
100
AcDbEntity
  8
AM_VIS
100
AcDbLine
 10
236.6900375400092
 20
231.6375976778745
 30
0.0
 11
236.6900375400092
 21
231.3575976778745
 31
0.0
  0
LINE
  5
EF9
330
1F
100
AcDbEntity
  8
AM_VIS
100
AcDbLine
 10
237.3833125400092
 20
231.8899291420354
 30
0.0
 11
237.3833125400092
 21
231.6099291420354
 31
0.0
  0
LINE
  5
EFA
330
1F
100
AcDbEntity
  8
AM_VIS
100
AcDbLine
 10
234.5203415329245
 20
230.2523768418609
 30
0.0
 11
234.5256968382468
 21
230.2566156886247
 31
0.0
  0
ARC
  5
EFB
330
1F
100
AcDbEntity
  8
AM_VIS
100
AcDbCircle
 10
239.2900375400093
 20
231.7523768418608
 30
0.0
 40
4.993620304949105
100
AcDbArc
 50
182.8983694044048
 51
197.4296413618528
  0
ARC
  5
EFC
330
1F
100
AcDbEntity
  8
AM_VIS
100
AcDbCircle
 10
239.2900375400093
 20
231.7523768418608
 30
0.0
 40
4.993620304949105
100
AcDbArc
 50
162.5703586381471
 51
177.1016305956408
  0
LINE
  5
EFD
330
1F
100
AcDbEntity
  8
AM_VIS
100
AcDbLine
 10
234.5256968382468
 20
233.2481379950969
 30
0.0
 11
234.5203415329245
 21
233.2523768418608
 31
0.0
  0
ELLIPSE
  5
EFE
330
1F
100
AcDbEntity
  8
AM_VIS
100
AcDbEllipse
 10
238.1827757476176
 20
231.7523768418608
 30
0.0
 11
0.0
 21
-4.670872363903926
 31
0.0
210
0.0
220
0.0
230
1.0
 40
0.7841006838456919
 41
4.658304192147112
 42
4.766473768623126
  0
LINE
  5
EFF
330
1F
100
AcDbEntity
  8
AM_VIS
100
AcDbLine
 10
234.5256968382468
 20
232.0048768418589
 30
0.0
 11
234.302805091045
 21
232.0048768418589
 31
0.0
  0
LINE
  5
F00
330
1F
100
AcDbEntity
  8
AM_VIS
100
AcDbLine
 10
234.3028050910452
 20
231.4998768418589
 30
0.0
 11
234.5256968382468
 21
231.4998768418589
 31
0.0
  0
ARC
  5
F01
330
1F
100
AcDbEntity
  8
AM_VIS
100
AcDbCircle
 10
235.8064570297774
 20
230.2342639248706
 30
0.0
 40
1.199999999999999
100
AcDbArc
 50
203.5471372370763
 51
265.0000000000003
  0
ARC
  5
F02
330
1F
100
AcDbEntity
  8
AM_VIS
100
AcDbCircle
 10
235.8064570297774
 20
233.2704897588511
 30
0.0
 40
1.199999999999999
100
AcDbArc
 50
94.99999999999975
 51
156.4528627629237
  0
ARC
  5
F03
330
1F
100
AcDbEntity
  8
AM_VIS
100
AcDbCircle
 10
239.2900375400093
 20
231.7523768418608
 30
0.0
 40
5.0
100
AcDbArc
 50
156.4528627629237
 51
162.5423968762788
  0
ARC
  5
F04
330
1F
100
AcDbEntity
  8
AM_VIS
100
AcDbCircle
 10
239.2900375400093
 20
231.7523768418608
 30
0.0
 40
5.0
100
AcDbArc
 50
197.4576031237212
 51
203.5471372370763
  0
LINE
  5
F05
330
1F
100
AcDbEntity
  8
AM_VIS
100
AcDbLine
 10
253.3900375400092
 20
226.752376841861
 30
0.0
 11
253.3900375400092
 21
235.902376841861
 31
0.0
  0
LINE
  5
F06
330
1F
100
AcDbEntity
  8
AM_VIS
100
AcDbLine
 10
252.9900375400091
 20
226.752376841861
 30
0.0
 11
253.3900375400092
 21
226.752376841861
 31
0.0
  0
LINE
  5
F07
330
1F
100
AcDbEntity
  8
AM_VIS
100
AcDbLine
 10
252.9900375400091
 20
222.752376841861
 30
0.0
 11
252.9900375400091
 21
226.752376841861
 31
0.0
  0
LINE
  5
F08
330
1F
100
AcDbEntity
  8
AM_VIS
100
AcDbLine
 10
253.3900375400092
 20
222.752376841861
 30
0.0
 11
252.9900375400091
 21
222.752376841861
 31
0.0
  0
LINE
  5
F09
330
1F
100
AcDbEntity
  8
AM_VIS
100
AcDbLine
 10
253.3900375400092
 20
213.602376841861
 30
0.0
 11
253.3900375400092
 21
222.752376841861
 31
0.0
  0
LINE
  5
F0A
330
1F
100
AcDbEntity
  8
AM_VIS
100
AcDbLine
 10
253.3900375400092
 20
213.602376841861
 30
0.0
 11
232.8900375400092
 21
213.602376841861
 31
0.0
  0
LINE
  5
F0B
330
1F
100
AcDbEntity
  8
AM_VIS
100
AcDbLine
 10
232.8900375400092
 20
228.5023768418609
 30
0.0
 11
232.8900375400092
 21
213.602376841861
 31
0.0
  0
LINE
  5
F0C
330
1F
100
AcDbEntity
  8
AM_VIS
100
AcDbLine
 10
253.3900375400092
 20
235.902376841861
 30
0.0
 11
237.3900375400092
 21
235.902376841861
 31
0.0
  0
LINE
  5
F0D
330
1F
100
AcDbEntity
  8
AM_VIS
100
AcDbLine
 10
237.3900375400092
 20
235.9023768418609
 30
0.0
 11
237.3900375400092
 21
228.5023768418609
 31
0.0
  0
LINE
  5
F0E
330
1F
100
AcDbEntity
  8
AM_VIS
100
AcDbLine
 10
232.8900375400092
 20
231.7523768418608
 30
0.0
 11
232.8900375400092
 21
235.9023768418608
 31
0.0
  0
LINE
  5
F0F
330
1F
100
AcDbEntity
  8
AM_VIS
100
AcDbLine
 10
232.8900375400092
 20
235.9023768418609
 30
0.0
 11
237.3900375400092
 21
235.9023768418609
 31
0.0
  0
LINE
  5
F10
330
1F
100
AcDbEntity
  8
AM_VIS
100
AcDbLine
 10
237.3900375400092
 20
228.5023768418609
 30
0.0
 11
232.8900375400092
 21
228.5023768418609
 31
0.0
  0
LINE
  5
F11
330
1F
100
AcDbEntity
  8
AM_VIS
100
AcDbLine
 10
232.8900375400092
 20
228.5023768418608
 30
0.0
 11
232.8900375400092
 21
231.7523768418608
 31
0.0
  0
LINE
  5
F12
330
1F
100
AcDbEntity
  8
AM_VIS
100
AcDbLine
 10
309.0782049415381
 20
220.4659233965612
 30
0.0
 11
308.0900375400092
 21
220.5523768418609
 31
0.0
  0
LINE
  5
F13
330
1F
100
AcDbEntity
  8
AM_VIS
100
AcDbLine
 10
309.0782049415381
 20
215.0388302871605
 30
0.0
 11
308.0900375400092
 21
214.9523768418608
 31
0.0
  0
LINE
  5
F14
330
1F
100
AcDbEntity
  8
AM_VIS
100
AcDbLine
 10
308.0900375400092
 20
217.6123768418609
 30
0.0
 11
308.0900375400092
 21
217.8923768418608
 31
0.0
  0
LINE
  5
F15
330
1F
100
AcDbEntity
  8
AM_VIS
100
AcDbLine
 10
307.3967625400091
 20
217.3600453777
 30
0.0
 11
307.3967625400091
 21
217.6400453777
 31
0.0
  0
ARC
  5
F16
330
1F
100
AcDbEntity
  8
AM_VIS
100
AcDbCircle
 10
305.4900375400091
 20
217.7523768418609
 30
0.0
 40
4.993620304949105
100
AcDbArc
 50
342.5703586381472
 51
357.1016305955952
  0
LINE
  5
F17
330
1F
100
AcDbEntity
  8
AM_VIS
100
AcDbLine
 10
310.2543782417715
 20
216.2566156886247
 30
0.0
 11
310.2597335470939
 21
216.2523768418608
 31
0.0
  0
LINE
  5
F18
330
1F
100
AcDbEntity
  8
AM_VIS
100
AcDbLine
 10
310.2597335470939
 20
219.2523768418608
 30
0.0
 11
310.2543782417715
 21
219.248137995097
 31
0.0
  0
ARC
  5
F19
330
1F
100
AcDbEntity
  8
AM_VIS
100
AcDbCircle
 10
305.4900375400091
 20
217.7523768418609
 30
0.0
 40
4.993620304949105
100
AcDbArc
 50
2.898369404359208
 51
17.42964136185284
  0
LINE
  5
F1A
330
1F
100
AcDbEntity
  8
AM_VIS
100
AcDbLine
 10
310.2543782417715
 20
217.4998768418589
 30
0.0
 11
310.4772699889732
 21
217.4998768418589
 31
0.0
  0
LINE
  5
F1B
330
1F
100
AcDbEntity
  8
AM_VIS
100
AcDbLine
 10
310.4772699889734
 20
218.0048768418589
 30
0.0
 11
310.2543782417717
 21
218.0048768418589
 31
0.0
  0
ELLIPSE
  5
F1C
330
1F
100
AcDbEntity
  8
AM_VIS
100
AcDbEllipse
 10
306.597299332401
 20
217.7523768418609
 30
0.0
 11
0.0
 21
-4.670872363903926
 31
0.0
210
0.0
220
0.0
230
1.0
 40
0.7841006838456919
 41
1.516711538556459
 42
1.624881115032473
  0
ARC
  5
F1D
330
1F
100
AcDbEntity
  8
AM_VIS
100
AcDbCircle
 10
308.9736180502411
 20
219.2704897588511
 30
0.0
 40
1.2
100
AcDbArc
 50
23.54713723707629
 51
85.00000000000026
  0
ARC
  5
F1E
330
1F
100
AcDbEntity
  8
AM_VIS
100
AcDbCircle
 10
308.9736180502411
 20
216.2342639248706
 30
0.0
 40
1.199999999999999
100
AcDbArc
 50
274.9999999999997
 51
336.4528627629237
  0
ARC
  5
F1F
330
1F
100
AcDbEntity
  8
AM_VIS
100
AcDbCircle
 10
305.4900375400091
 20
217.7523768418609
 30
0.0
 40
5.0
100
AcDbArc
 50
17.45760312372119
 51
23.54713723707629
  0
ARC
  5
F20
330
1F
100
AcDbEntity
  8
AM_VIS
100
AcDbCircle
 10
305.4900375400091
 20
217.7523768418609
 30
0.0
 40
5.0
100
AcDbArc
 50
336.4528627629237
 51
342.5423968762772
  0
LINE
  5
F21
330
1F
100
AcDbEntity
  8
AM_VIS
100
AcDbLine
 10
308.0900375400092
 20
217.8923768418608
 30
0.0
 11
307.3900375400092
 21
217.6375976778745
 31
0.0
  0
LINE
  5
F22
330
1F
100
AcDbEntity
  8
AM_VIS
100
AcDbLine
 10
307.3900375400092
 20
217.3575976778745
 30
0.0
 11
308.0900375400092
 21
217.6123768418609
 31
0.0
  0
LINE
  5
F23
330
1F
100
AcDbEntity
  8
AM_VIS
100
AcDbLine
 10
307.3900375400092
 20
214.8023768418608
 30
0.0
 11
308.0900375400092
 21
214.8023768418608
 31
0.0
  0
LINE
  5
F24
330
1F
100
AcDbEntity
  8
AM_VIS
100
AcDbLine
 10
307.3900375400092
 20
220.7023768418608
 30
0.0
 11
308.0900375400092
 21
220.7023768418608
 31
0.0
  0
LINE
  5
F25
330
1F
100
AcDbEntity
  8
AM_VIS
100
AcDbLine
 10
308.0900375400092
 20
214.8023768418608
 30
0.0
 11
308.0900375400092
 21
217.6123768418609
 31
0.0
  0
LINE
  5
F26
330
1F
100
AcDbEntity
  8
AM_VIS
100
AcDbLine
 10
308.0900375400092
 20
217.8923768418608
 30
0.0
 11
308.0900375400092
 21
220.7023768418608
 31
0.0
  0
LINE
  5
F27
330
1F
100
AcDbEntity
  8
AM_VIS
100
AcDbLine
 10
291.3900375400092
 20
222.7523768418607
 30
0.0
 11
291.3900375400092
 21
213.6023768418607
 31
0.0
  0
LINE
  5
F28
330
1F
100
AcDbEntity
  8
AM_VIS
100
AcDbLine
 10
291.7900375400093
 20
222.7523768418607
 30
0.0
 11
291.3900375400092
 21
222.7523768418607
 31
0.0
  0
LINE
  5
F29
330
1F
100
AcDbEntity
  8
AM_VIS
100
AcDbLine
 10
291.7900375400093
 20
226.7523768418607
 30
0.0
 11
291.7900375400093
 21
222.7523768418607
 31
0.0
  0
LINE
  5
F2A
330
1F
100
AcDbEntity
  8
AM_VIS
100
AcDbLine
 10
291.3900375400092
 20
226.7523768418607
 30
0.0
 11
291.7900375400093
 21
226.7523768418607
 31
0.0
  0
LINE
  5
F2B
330
1F
100
AcDbEntity
  8
AM_VIS
100
AcDbLine
 10
291.3900375400092
 20
235.9023768418607
 30
0.0
 11
291.3900375400092
 21
226.7523768418607
 31
0.0
  0
LINE
  5
F2C
330
1F
100
AcDbEntity
  8
AM_VIS
100
AcDbLine
 10
291.3900375400092
 20
235.9023768418607
 30
0.0
 11
311.8900375400092
 21
235.9023768418607
 31
0.0
  0
LINE
  5
F2D
330
1F
100
AcDbEntity
  8
AM_VIS
100
AcDbLine
 10
311.8900375400092
 20
221.0023768418608
 30
0.0
 11
311.8900375400092
 21
235.9023768418607
 31
0.0
  0
LINE
  5
F2E
330
1F
100
AcDbEntity
  8
AM_VIS
100
AcDbLine
 10
291.3900375400092
 20
213.6023768418607
 30
0.0
 11
307.3900375400092
 21
213.6023768418607
 31
0.0
  0
LINE
  5
F2F
330
1F
100
AcDbEntity
  8
AM_VIS
100
AcDbLine
 10
307.3900375400092
 20
213.6023768418608
 30
0.0
 11
307.3900375400092
 21
221.0023768418608
 31
0.0
  0
LINE
  5
F30
330
1F
100
AcDbEntity
  8
AM_VIS
100
AcDbLine
 10
311.8900375400092
 20
217.7523768418609
 30
0.0
 11
311.8900375400092
 21
213.6023768418608
 31
0.0
  0
LINE
  5
F31
330
1F
100
AcDbEntity
  8
AM_VIS
100
AcDbLine
 10
311.8900375400092
 20
213.6023768418607
 30
0.0
 11
307.3900375400092
 21
213.6023768418607
 31
0.0
  0
LINE
  5
F32
330
1F
100
AcDbEntity
  8
AM_VIS
100
AcDbLine
 10
307.3900375400092
 20
221.0023768418608
 30
0.0
 11
311.8900375400092
 21
221.0023768418608
 31
0.0
  0
LINE
  5
F33
330
1F
100
AcDbEntity
  8
AM_VIS
100
AcDbLine
 10
311.8900375400092
 20
221.0023768418608
 30
0.0
 11
311.8900375400092
 21
217.7523768418609
 31
0.0
  0
LINE
  5
F34
330
1F
100
AcDbEntity
  8
AM_VIS
100
AcDbLine
 10
237.3900375400092
 20
231.8923768418608
 30
0.0
 11
236.6900375400092
 21
231.6375976778745
 31
0.0
  0
LINE
  5
F35
330
1F
100
AcDbEntity
  8
AM_VIS
100
AcDbLine
 10
236.6900375400094
 20
231.3575976778745
 30
0.0
 11
237.3900375400092
 21
231.6123768418608
 31
0.0
  0
LINE
  5
F36
330
1F
100
AcDbEntity
  8
AM_VIS
100
AcDbLine
 10
236.6900375400094
 20
228.8023768418609
 30
0.0
 11
237.3900375400092
 21
228.8023768418609
 31
0.0
  0
LINE
  5
F37
330
1F
100
AcDbEntity
  8
AM_VIS
100
AcDbLine
 10
236.6900375400094
 20
234.7023768418608
 30
0.0
 11
237.3900375400092
 21
234.7023768418608
 31
0.0
  0
LINE
  5
F38
330
1F
100
AcDbEntity
  8
AM_VIS
100
AcDbLine
 10
236.6900375400094
 20
228.8023768418609
 30
0.0
 11
236.6900375400094
 21
231.3575976778745
 31
0.0
  0
LINE
  5
F39
330
1F
100
AcDbEntity
  8
AM_VIS
100
AcDbLine
 10
236.6900375400094
 20
231.6375976778745
 30
0.0
 11
236.6900375400094
 21
234.7023768418608
 31
0.0
  0
LINE
  5
F3A
330
1F
100
AcDbEntity
  8
AM_VIS
100
AcDbLine
 10
265.8400375400092
 20
227.7523768418608
 30
0.0
 11
265.8400375400092
 21
221.7523768418608
 31
0.0
  0
LINE
  5
F3B
330
1F
100
AcDbEntity
  8
AM_VIS
100
AcDbLine
 10
261.3400375400092
 20
221.7523768418608
 30
0.0
 11
261.3400375400092
 21
227.7523768418608
 31
0.0
  0
CIRCLE
  5
F3C
330
1F
100
AcDbEntity
  8
AM_VIS
100
AcDbCircle
 10
259.8900375400092
 20
216.2523768418607
 30
0.0
 40
1.600000000000042
  0
CIRCLE
  5
F3D
330
1F
100
AcDbEntity
  8
AM_VIS
100
AcDbCircle
 10
284.8900375400092
 20
233.2523768418607
 30
0.0
 40
1.600000000000044
  0
LINE
  5
F3E
330
1F
100
AcDbEntity
  8
AM_VIS
100
AcDbLine
 10
291.3900375400092
 20
235.9023768418609
 30
0.0
 11
253.3900375400092
 21
235.9023768418608
 31
0.0
  0
LINE
  5
F3F
330
1F
100
AcDbEntity
  8
AM_VIS
100
AcDbLine
 10
253.3900375400092
 20
213.6023768418608
 30
0.0
 11
291.3900375400092
 21
213.6023768418608
 31
0.0
  0
LINE
  5
F40
330
1F
100
AcDbEntity
  8
AM_VIS
100
AcDbLine
 10
283.4400375400091
 20
221.7523768418608
 30
0.0
 11
283.4400375400091
 21
227.7523768418608
 31
0.0
  0
LINE
  5
F41
330
1F
100
AcDbEntity
  8
AM_VIS
100
AcDbLine
 10
278.9400375400092
 20
227.7523768418608
 30
0.0
 11
278.9400375400092
 21
221.7523768418608
 31
0.0
  0
LINE
  5
F42
330
1F
100
AcDbEntity
  8
AM_VIS
100
AcDbLine
 10
253.3900375400092
 20
234.9023768418608
 30
0.0
 11
253.3900375400092
 21
214.6023768418609
 31
0.0
  0
LINE
  5
F43
330
1F
100
AcDbEntity
  8
AM_VIS
100
AcDbLine
 10
291.3900375400092
 20
214.6023768418609
 30
0.0
 11
291.3900375400092
 21
234.9023768418609
 31
0.0
  0
CIRCLE
  5
F44
330
1F
100
AcDbEntity
  8
AM_VIS
100
AcDbCircle
 10
263.3900375400092
 20
224.7523768418608
 30
0.0
 40
5.449999999999999
  0
ARC
  5
F45
330
1F
100
AcDbEntity
  8
AM_VIS
100
AcDbCircle
 10
263.5900375400092
 20
221.7523768418608
 30
0.0
 40
2.25
100
AcDbArc
 50
180.0
 51
0.0
  0
ARC
  5
F46
330
1F
100
AcDbEntity
  8
AM_VIS
100
AcDbCircle
 10
263.5900375400092
 20
227.7523768418608
 30
0.0
 40
2.25
100
AcDbArc
 50
0.0
 51
180.0
  0
ARC
  5
F47
330
1F
100
AcDbEntity
  8
AM_VIS
100
AcDbCircle
 10
281.1900375400091
 20
221.7523768418608
 30
0.0
 40
2.25
100
AcDbArc
 50
180.0
 51
0.0
  0
ARC
  5
F48
330
1F
100
AcDbEntity
  8
AM_VIS
100
AcDbCircle
 10
281.1900375400091
 20
227.7523768418608
 30
0.0
 40
2.250000000000001
100
AcDbArc
 50
0.0
 51
180.0
  0
CIRCLE
  5
F49
330
1F
100
AcDbEntity
  8
AM_VIS
100
AcDbCircle
 10
284.8900375400092
 20
233.2523768418608
 30
0.0
 40
1.6
  0
CIRCLE
  5
F4A
330
1F
100
AcDbEntity
  8
AM_VIS
100
AcDbCircle
 10
259.8900375400092
 20
216.2523768418608
 30
0.0
 40
1.6
  0
CIRCLE
  5
F4B
330
1F
100
AcDbEntity
  8
AM_VIS
100
AcDbCircle
 10
263.3900375400092
 20
224.7523768418608
 30
0.0
 40
6.699999999999999
  0
CIRCLE
  5
F4C
330
1F
100
AcDbEntity
  8
AM_VIS
100
AcDbCircle
 10
281.3900375400092
 20
224.7523768418608
 30
0.0
 40
6.699999999999999
  0
CIRCLE
  5
F4D
330
1F
100
AcDbEntity
  8
AM_VIS
100
AcDbCircle
 10
281.3900375400092
 20
224.7523768418608
 30
0.0
 40
5.449999999999999
  0
LINE
  5
F4E
330
1F
100
AcDbEntity
  8
AM_7
100
AcDbLine
 10
230.5331433276131
 20
351.7120797114488
 30
0.0
 11
314.1715337556127
 21
351.7120797114488
 31
0.0
1001
GENIUS_GENODEF_13
1002
{
1000
HIER
1070
     0
1002
}
1002
{
1000
MANEDIT
1070
     0
1002
}
1002
{
1000
NOSEL
1070
     0
1002
}
1002
{
1000
BEHIND
1070
     0
1002
}
1002
{
1000
OTHER
1070
     0
1002
}
1002
{
1000
REACTOR
1002
}
1001
GENIUS_GENOBJ-N-CEN_13
1002
{
1000
OWNER
1000
GEN
1002
}
1001
GENIUS_GENCEN_19
1002
{
1040
1.0
1002
}
  0
LINE
  5
F4F
330
1F
100
AcDbEntity
  8
AM_7
  6
AM_ISO08W050x2
100
AcDbLine
 10
259.8900375400092
 20
290.6489902939143
 30
0.0
 11
262.9900375400091
 21
290.6489902939143
 31
0.0
1001
GENIUS_GENOREF_13
1005
FE5
  0
LINE
  5
F50
330
1F
100
AcDbEntity
  8
AM_7
  6
AM_ISO08W050x2
100
AcDbLine
 10
259.8900375400092
 20
290.6489902939143
 30
0.0
 11
259.8900375400092
 21
293.7489902939142
 31
0.0
1001
GENIUS_GENOREF_13
1005
FE5
  0
LINE
  5
F51
330
1F
100
AcDbEntity
  8
AM_7
  6
AM_ISO08W050x2
100
AcDbLine
 10
259.8900375400092
 20
290.6489902939143
 30
0.0
 11
256.7900375400093
 21
290.6489902939143
 31
0.0
1001
GENIUS_GENOREF_13
1005
FE5
  0
LINE
  5
F52
330
1F
100
AcDbEntity
  8
AM_7
  6
AM_ISO08W050x2
100
AcDbLine
 10
259.8900375400092
 20
290.6489902939143
 30
0.0
 11
259.8900375400092
 21
287.5489902939144
 31
0.0
1001
GENIUS_GENOREF_13
1005
FE5
  0
LINE
  5
F53
330
1F
100
AcDbEntity
  8
AM_7
  6
AM_ISO08W050x2
100
AcDbLine
 10
284.8900375400092
 20
290.6489902939143
 30
0.0
 11
287.9900375400091
 21
290.6489902939143
 31
0.0
1001
GENIUS_GENOREF_13
1005
FE4
  0
LINE
  5
F54
330
1F
100
AcDbEntity
  8
AM_7
  6
AM_ISO08W050x2
100
AcDbLine
 10
284.8900375400092
 20
290.6489902939143
 30
0.0
 11
284.8900375400092
 21
293.7489902939142
 31
0.0
1001
GENIUS_GENOREF_13
1005
FE4
  0
LINE
  5
F55
330
1F
100
AcDbEntity
  8
AM_7
  6
AM_ISO08W050x2
100
AcDbLine
 10
284.8900375400092
 20
290.6489902939143
 30
0.0
 11
281.7900375400093
 21
290.6489902939143
 31
0.0
1001
GENIUS_GENOREF_13
1005
FE4
  0
LINE
  5
F56
330
1F
100
AcDbEntity
  8
AM_7
  6
AM_ISO08W050x2
100
AcDbLine
 10
284.8900375400092
 20
290.6489902939143
 30
0.0
 11
284.8900375400092
 21
287.5489902939144
 31
0.0
1001
GENIUS_GENOREF_13
1005
FE4
  0
LINE
  5
F57
330
1F
100
AcDbEntity
  8
AM_7
100
AcDbLine
 10
230.5331433276131
 20
224.7523768418608
 30
0.0
 11
314.1715337556127
 21
224.7523768418608
 31
0.0
1001
GENIUS_GENODEF_13
1002
{
1000
HIER
1070
     0
1002
}
1002
{
1000
MANEDIT
1070
     0
1002
}
1002
{
1000
NOSEL
1070
     0
1002
}
1002
{
1000
BEHIND
1070
     0
1002
}
1002
{
1000
OTHER
1070
     0
1002
}
1002
{
1000
REACTOR
1002
}
1001
GENIUS_GENOBJ-N-CEN_13
1002
{
1000
OWNER
1000
GEN
1002
}
1001
GENIUS_GENCEN_19
1002
{
1040
1.0
1002
}
  0
LINE
  5
F58
330
1F
100
AcDbEntity
  8
AM_7
  6
AM_ISO08W050x2
100
AcDbLine
 10
284.8900375400092
 20
233.2523768418607
 30
0.0
 11
287.4900375400091
 21
233.2523768418607
 31
0.0
1001
GENIUS_GENOREF_13
1005
FE3
  0
LINE
  5
F59
330
1F
100
AcDbEntity
  8
AM_7
  6
AM_ISO08W050x2
100
AcDbLine
 10
284.8900375400092
 20
233.2523768418607
 30
0.0
 11
284.8900375400092
 21
235.8523768418606
 31
0.0
1001
GENIUS_GENOREF_13
1005
FE3
  0
LINE
  5
F5A
330
1F
100
AcDbEntity
  8
AM_7
  6
AM_ISO08W050x2
100
AcDbLine
 10
284.8900375400092
 20
233.2523768418607
 30
0.0
 11
282.2900375400093
 21
233.2523768418607
 31
0.0
1001
GENIUS_GENOREF_13
1005
FE3
  0
LINE
  5
F5B
330
1F
100
AcDbEntity
  8
AM_7
  6
AM_ISO08W050x2
100
AcDbLine
 10
284.8900375400092
 20
233.2523768418607
 30
0.0
 11
284.8900375400092
 21
230.6523768418608
 31
0.0
1001
GENIUS_GENOREF_13
1005
FE3
  0
LINE
  5
F5C
330
1F
100
AcDbEntity
  8
AM_7
  6
AM_ISO08W050x2
100
AcDbLine
 10
259.8900375400092
 20
216.2523768418607
 30
0.0
 11
262.4900375400093
 21
216.2523768418607
 31
0.0
1001
GENIUS_GENOREF_13
1005
FE2
  0
LINE
  5
F5D
330
1F
100
AcDbEntity
  8
AM_7
  6
AM_ISO08W050x2
100
AcDbLine
 10
259.8900375400092
 20
216.2523768418607
 30
0.0
 11
259.8900375400092
 21
218.8523768418609
 31
0.0
1001
GENIUS_GENOREF_13
1005
FE2
  0
LINE
  5
F5E
330
1F
100
AcDbEntity
  8
AM_7
  6
AM_ISO08W050x2
100
AcDbLine
 10
259.8900375400092
 20
216.2523768418607
 30
0.0
 11
257.2900375400091
 21
216.2523768418607
 31
0.0
1001
GENIUS_GENOREF_13
1005
FE2
  0
LINE
  5
F5F
330
1F
100
AcDbEntity
  8
AM_7
  6
AM_ISO08W050x2
100
AcDbLine
 10
259.8900375400092
 20
216.2523768418607
 30
0.0
 11
259.8900375400092
 21
213.6523768418606
 31
0.0
1001
GENIUS_GENOREF_13
1005
FE2
  0
LINE
  5
F60
330
1F
100
AcDbEntity
  8
AM_7
  6
AM_ISO08W050x2
100
AcDbLine
 10
284.8900375400092
 20
343.2120797114488
 30
0.0
 11
288.8900375400092
 21
343.2120797114488
 31
0.0
1001
GENIUS_GENOREF_13
1005
FE1
  0
LINE
  5
F61
330
1F
100
AcDbEntity
  8
AM_7
  6
AM_ISO08W050x2
100
AcDbLine
 10
284.8900375400092
 20
343.2120797114488
 30
0.0
 11
284.8900375400092
 21
347.2120797114488
 31
0.0
1001
GENIUS_GENOREF_13
1005
FE1
  0
LINE
  5
F62
330
1F
100
AcDbEntity
  8
AM_7
  6
AM_ISO08W050x2
100
AcDbLine
 10
284.8900375400092
 20
343.2120797114488
 30
0.0
 11
280.8900375400092
 21
343.2120797114488
 31
0.0
1001
GENIUS_GENOREF_13
1005
FE1
  0
LINE
  5
F63
330
1F
100
AcDbEntity
  8
AM_7
  6
AM_ISO08W050x2
100
AcDbLine
 10
284.8900375400092
 20
343.2120797114488
 30
0.0
 11
284.8900375400092
 21
339.2120797114488
 31
0.0
1001
GENIUS_GENOREF_13
1005
FE1
  0
LINE
  5
F64
330
1F
100
AcDbEntity
  8
AM_7
  6
AM_ISO08W050x2
100
AcDbLine
 10
259.8900375400092
 20
360.2120797114488
 30
0.0
 11
263.8900375400092
 21
360.2120797114488
 31
0.0
1001
GENIUS_GENOREF_13
1005
FE0
  0
LINE
  5
F65
330
1F
100
AcDbEntity
  8
AM_7
  6
AM_ISO08W050x2
100
AcDbLine
 10
259.8900375400092
 20
360.2120797114488
 30
0.0
 11
259.8900375400092
 21
364.2120797114488
 31
0.0
1001
GENIUS_GENOREF_13
1005
FE0
  0
LINE
  5
F66
330
1F
100
AcDbEntity
  8
AM_7
  6
AM_ISO08W050x2
100
AcDbLine
 10
259.8900375400092
 20
360.2120797114488
 30
0.0
 11
255.8900375400092
 21
360.2120797114488
 31
0.0
1001
GENIUS_GENOREF_13
1005
FE0
  0
LINE
  5
F67
330
1F
100
AcDbEntity
  8
AM_7
  6
AM_ISO08W050x2
100
AcDbLine
 10
259.8900375400092
 20
360.2120797114488
 30
0.0
 11
259.8900375400092
 21
356.2120797114488
 31
0.0
1001
GENIUS_GENOREF_13
1005
FE0
  0
LINE
  5
F68
330
1F
100
AcDbEntity
  8
AM_7
100
AcDbLine
 10
272.3900375400092
 20
349.7120797114488
 30
0.0
 11
280.0900375400092
 21
349.7120797114488
 31
0.0
1001
GENIUS_GENOREF_13
1005
FDF
  0
LINE
  5
F69
330
1F
100
AcDbEntity
  8
AM_7
100
AcDbLine
 10
272.3900375400092
 20
349.7120797114488
 30
0.0
 11
272.3900375400092
 21
357.4120797114488
 31
0.0
1001
GENIUS_GENOREF_13
1005
FDF
  0
LINE
  5
F6A
330
1F
100
AcDbEntity
  8
AM_7
100
AcDbLine
 10
272.3900375400092
 20
349.7120797114488
 30
0.0
 11
264.6900375400091
 21
349.7120797114488
 31
0.0
1001
GENIUS_GENOREF_13
1005
FDF
  0
LINE
  5
F6B
330
1F
100
AcDbEntity
  8
AM_7
100
AcDbLine
 10
272.3900375400092
 20
349.7120797114488
 30
0.0
 11
272.3900375400092
 21
342.0120797114488
 31
0.0
1001
GENIUS_GENOREF_13
1005
FDF
  0
LINE
  5
F6C
330
1F
100
AcDbEntity
  8
AM_7
100
AcDbLine
 10
263.3900375400092
 20
224.7523768418608
 30
0.0
 11
271.0900375400092
 21
224.7523768418608
 31
0.0
1001
GENIUS_GENOREF_13
1005
FDE
  0
LINE
  5
F6D
330
1F
100
AcDbEntity
  8
AM_7
100
AcDbLine
 10
263.3900375400092
 20
224.7523768418608
 30
0.0
 11
263.3900375400092
 21
232.4523768418608
 31
0.0
1001
GENIUS_GENOREF_13
1005
FDE
  0
LINE
  5
F6E
330
1F
100
AcDbEntity
  8
AM_7
100
AcDbLine
 10
263.3900375400092
 20
224.7523768418608
 30
0.0
 11
255.6900375400092
 21
224.7523768418608
 31
0.0
1001
GENIUS_GENOREF_13
1005
FDE
  0
LINE
  5
F6F
330
1F
100
AcDbEntity
  8
AM_7
100
AcDbLine
 10
263.3900375400092
 20
224.7523768418608
 30
0.0
 11
263.3900375400092
 21
217.0523768418608
 31
0.0
1001
GENIUS_GENOREF_13
1005
FDE
  0
LINE
  5
F70
330
1F
100
AcDbEntity
  8
AM_7
100
AcDbLine
 10
281.3900375400092
 20
224.7523768418608
 30
0.0
 11
289.0900375400093
 21
224.7523768418608
 31
0.0
1001
GENIUS_GENOREF_13
1005
FDD
  0
LINE
  5
F71
330
1F
100
AcDbEntity
  8
AM_7
100
AcDbLine
 10
281.3900375400092
 20
224.7523768418608
 30
0.0
 11
281.3900375400092
 21
232.4523768418608
 31
0.0
1001
GENIUS_GENOREF_13
1005
FDD
  0
LINE
  5
F72
330
1F
100
AcDbEntity
  8
AM_7
100
AcDbLine
 10
281.3900375400092
 20
224.7523768418608
 30
0.0
 11
273.6900375400091
 21
224.7523768418608
 31
0.0
1001
GENIUS_GENOREF_13
1005
FDD
  0
LINE
  5
F73
330
1F
100
AcDbEntity
  8
AM_7
100
AcDbLine
 10
281.3900375400092
 20
224.7523768418608
 30
0.0
 11
281.3900375400092
 21
217.0523768418608
 31
0.0
1001
GENIUS_GENOREF_13
1005
FDD
  0
LINE
  5
F74
330
1F
100
AcDbEntity
  8
AM_VIS
100
AcDbLine
 10
351.9384249195407
 20
267.6489902939142
 30
0.0
 11
351.6859249195427
 21
267.6489902939142
 31
0.0
  0
LINE
  5
F75
330
1F
100
AcDbEntity
  8
AM_VIS
100
AcDbLine
 10
351.9384249195407
 20
267.6489902939142
 30
0.0
 11
351.6859249195413
 21
267.3964902939148
 31
0.0
  0
LINE
  5
F76
330
1F
100
AcDbEntity
  8
AM_VIS
100
AcDbLine
 10
352.1909249195426
 20
267.9014902939142
 30
0.0
 11
352.1909249195426
 21
267.3964902939142
 31
0.0
  0
LINE
  5
F77
330
1F
100
AcDbEntity
  8
AM_VIS
100
AcDbLine
 10
352.1909249195426
 20
267.3964902939142
 30
0.0
 11
353.4341860727768
 21
267.3964902939142
 31
0.0
  0
ELLIPSE
  5
F78
330
1F
100
AcDbEntity
  8
AM_VIS
100
AcDbEllipse
 10
350.5395243929743
 20
267.6489902939142
 30
0.0
 11
0.000000000000017
 21
4.670872363903953
 31
0.0
210
0.0
220
0.0
230
1.0
 40
0.6206336420084752
 41
4.658304192146682
 42
4.766473768622696
  0
LINE
  5
F79
330
1F
100
AcDbEntity
  8
AM_VIS
100
AcDbLine
 10
353.4341860727768
 20
267.9014902939142
 30
0.0
 11
352.1909249195426
 21
267.9014902939142
 31
0.0
  0
LINE
  5
F7A
330
1F
100
AcDbEntity
  8
AM_VIS
100
AcDbLine
 10
351.6859249195427
 20
267.9014902939143
 30
0.0
 11
350.4426637663046
 21
267.9014902939143
 31
0.0
  0
ELLIPSE
  5
F7B
330
1F
100
AcDbEntity
  8
AM_VIS
100
AcDbEllipse
 10
353.3373254461074
 20
267.6489902939142
 30
0.0
 11
-0.0000000000000174
 21
-4.670872363903953
 31
0.0
210
0.0
220
0.0
230
1.0
 40
0.6206336420084755
 41
4.658304192146682
 42
4.766473768622696
  0
LINE
  5
F7C
330
1F
100
AcDbEntity
  8
AM_VIS
100
AcDbLine
 10
350.4426637663046
 20
267.3964902939143
 30
0.0
 11
351.6859249195427
 21
267.3964902939143
 31
0.0
  0
LINE
  5
F7D
330
1F
100
AcDbEntity
  8
AM_VIS
100
AcDbLine
 10
352.1909249195426
 20
266.1532291406782
 30
0.0
 11
352.1909249195426
 21
267.3964902939142
 31
0.0
  0
ELLIPSE
  5
F7E
330
1F
100
AcDbEntity
  8
AM_VIS
100
AcDbEllipse
 10
351.9384249195407
 20
266.2500897673477
 30
0.0
 11
-4.670872363903926
 21
0.000000000000018
 31
0.0
210
0.0
220
0.0
230
1.0
 40
0.6206336420084869
 41
4.658304192146256
 42
4.766473768622269
  0
LINE
  5
F7F
330
1F
100
AcDbEntity
  8
AM_VIS
100
AcDbLine
 10
351.6859249195427
 20
267.3964902939142
 30
0.0
 11
351.6859249195427
 21
266.153229140678
 31
0.0
  0
LINE
  5
F80
330
1F
100
AcDbEntity
  8
AM_VIS
100
AcDbLine
 10
351.6859249195427
 20
269.1447514471505
 30
0.0
 11
351.6859249195427
 21
267.9014902939143
 31
0.0
  0
ELLIPSE
  5
F81
330
1F
100
AcDbEntity
  8
AM_VIS
100
AcDbEllipse
 10
351.9384249195407
 20
269.0478908204807
 30
0.0
 11
4.670872363903926
 21
-0.0000000000000163
 31
0.0
210
0.0
220
0.0
230
1.0
 40
0.6206336420084869
 41
4.658304192147109
 42
4.766473768623122
  0
LINE
  5
F82
330
1F
100
AcDbEntity
  8
AM_VIS
100
AcDbLine
 10
352.1909249195426
 20
267.9014902939143
 30
0.0
 11
352.1909249195426
 21
269.1447514471503
 31
0.0
  0
LINE
  5
F83
330
1F
100
AcDbEntity
  8
AM_VIS
100
AcDbLine
 10
341.1884249195409
 20
299.1489902939142
 30
0.0
 11
356.0884249195408
 21
299.1489902939142
 31
0.0
  0
LINE
  5
F84
330
1F
100
AcDbEntity
  8
AM_VIS
100
AcDbLine
 10
333.7884249195408
 20
264.1489902939142
 30
0.0
 11
333.7884249195408
 21
292.3989902939142
 31
0.0
  0
LINE
  5
F85
330
1F
100
AcDbEntity
  8
AM_VIS
100
AcDbLine
 10
333.7884249195408
 20
292.3989902939142
 30
0.0
 11
333.7884249195408
 21
299.1489902939142
 31
0.0
  0
LINE
  5
F86
330
1F
100
AcDbEntity
  8
AM_VIS
100
AcDbLine
 10
333.7884249195408
 20
299.1489902939142
 30
0.0
 11
341.1884249195409
 21
299.1489902939142
 31
0.0
  0
LINE
  5
F87
330
1F
100
AcDbEntity
  8
AM_VIS
100
AcDbLine
 10
337.9384249195409
 20
292.3989902939142
 30
0.0
 11
333.7884249195408
 21
292.3989902939142
 31
0.0
  0
LINE
  5
F88
330
1F
100
AcDbEntity
  8
AM_VIS
100
AcDbLine
 10
341.1884249195409
 20
299.1489902939142
 30
0.0
 11
341.1884249195409
 21
295.6489902939142
 31
0.0
  0
LINE
  5
F89
330
1F
100
AcDbEntity
  8
AM_VIS
100
AcDbLine
 10
348.6884249195407
 20
264.1489902939142
 30
0.0
 11
333.7884249195408
 21
264.1489902939142
 31
0.0
  0
LINE
  5
F8A
330
1F
100
AcDbEntity
  8
AM_VIS
100
AcDbLine
 10
356.0884249195408
 20
299.1489902939142
 30
0.0
 11
356.0884249195408
 21
270.8989902939143
 31
0.0
  0
LINE
  5
F8B
330
1F
100
AcDbEntity
  8
AM_VIS
100
AcDbLine
 10
356.0884249195408
 20
270.8989902939143
 30
0.0
 11
356.0884249195408
 21
264.1489902939142
 31
0.0
  0
LINE
  5
F8C
330
1F
100
AcDbEntity
  8
AM_VIS
100
AcDbLine
 10
356.0884249195408
 20
264.1489902939142
 30
0.0
 11
348.6884249195407
 21
264.1489902939142
 31
0.0
  0
LINE
  5
F8D
330
1F
100
AcDbEntity
  8
AM_VIS
100
AcDbLine
 10
351.9384249195407
 20
270.8989902939142
 30
0.0
 11
356.0884249195408
 21
270.8989902939143
 31
0.0
  0
LINE
  5
F8E
330
1F
100
AcDbEntity
  8
AM_VIS
100
AcDbLine
 10
348.6884249195407
 20
264.1489902939142
 30
0.0
 11
348.6884249195407
 21
267.6489902939142
 31
0.0
  0
ARC
  5
F8F
330
1F
100
AcDbEntity
  8
AM_VIS
100
AcDbCircle
 10
337.9384249195409
 20
295.6489902939142
 30
0.0
 40
3.25
100
AcDbArc
 50
270.0
 51
0.0
  0
ARC
  5
F90
330
1F
100
AcDbEntity
  8
AM_VIS
100
AcDbCircle
 10
351.9384249195407
 20
267.6489902939142
 30
0.0
 40
3.25
100
AcDbArc
 50
90.0
 51
180.0
  0
LINE
  5
F91
330
1F
100
AcDbEntity
  8
AM_VIS
100
AcDbLine
 10
337.9384249195409
 20
295.9014902939143
 30
0.0
 11
337.9384249195409
 21
295.6489902939142
 31
0.0
  0
LINE
  5
F92
330
1F
100
AcDbEntity
  8
AM_VIS
100
AcDbLine
 10
337.9384249195409
 20
295.6489902939142
 30
0.0
 11
337.9384249195409
 21
295.3964902939143
 31
0.0
  0
LINE
  5
F93
330
1F
100
AcDbEntity
  8
AM_VIS
100
AcDbLine
 10
337.9384249195409
 20
295.6489902939142
 30
0.0
 11
338.1909249195414
 21
295.9014902939147
 31
0.0
  0
LINE
  5
F94
330
1F
100
AcDbEntity
  8
AM_VIS
100
AcDbLine
 10
337.6859249195415
 20
295.9014902939136
 30
0.0
 11
337.9384249195409
 21
295.6489902939142
 31
0.0
  0
LINE
  5
F95
330
1F
100
AcDbEntity
  8
AM_VIS
100
AcDbLine
 10
338.190924919543
 20
295.9014902939143
 30
0.0
 11
337.6859249195429
 21
295.9014902939143
 31
0.0
  0
LINE
  5
F96
330
1F
100
AcDbEntity
  8
AM_VIS
100
AcDbLine
 10
337.6859249195429
 20
295.3964902939142
 30
0.0
 11
337.6859249195429
 21
295.9014902939143
 31
0.0
  0
LINE
  5
F97
330
1F
100
AcDbEntity
  8
AM_VIS
100
AcDbLine
 10
338.1909249195428
 20
295.6489902939142
 30
0.0
 11
337.9384249195409
 21
295.6489902939142
 31
0.0
  0
LINE
  5
F98
330
1F
100
AcDbEntity
  8
AM_VIS
100
AcDbLine
 10
338.1909249195414
 20
295.3964902939137
 30
0.0
 11
337.9384249195409
 21
295.6489902939142
 31
0.0
  0
LINE
  5
F99
330
1F
100
AcDbEntity
  8
AM_VIS
100
AcDbLine
 10
337.6859249195429
 20
295.3964902939142
 30
0.0
 11
338.1909249195428
 21
295.3964902939142
 31
0.0
  0
LINE
  5
F9A
330
1F
100
AcDbEntity
  8
AM_VIS
100
AcDbLine
 10
337.9384249195409
 20
295.6489902939142
 30
0.0
 11
337.6859249195429
 21
295.6489902939142
 31
0.0
  0
LINE
  5
F9B
330
1F
100
AcDbEntity
  8
AM_VIS
100
AcDbLine
 10
337.9384249195409
 20
295.6489902939142
 30
0.0
 11
337.6859249195413
 21
295.3964902939148
 31
0.0
  0
LINE
  5
F9C
330
1F
100
AcDbEntity
  8
AM_VIS
100
AcDbLine
 10
338.1909249195428
 20
295.9014902939143
 30
0.0
 11
338.1909249195428
 21
295.3964902939143
 31
0.0
  0
LINE
  5
F9D
330
1F
100
AcDbEntity
  8
AM_VIS
100
AcDbLine
 10
338.1909249195428
 20
295.3964902939143
 30
0.0
 11
339.4341860727771
 21
295.3964902939143
 31
0.0
  0
ELLIPSE
  5
F9E
330
1F
100
AcDbEntity
  8
AM_VIS
100
AcDbEllipse
 10
336.5395243929745
 20
295.6489902939142
 30
0.0
 11
0.000000000000017
 21
4.670872363903953
 31
0.0
210
0.0
220
0.0
230
1.0
 40
0.6206336420084752
 41
4.658304192146683
 42
4.766473768622695
  0
LINE
  5
F9F
330
1F
100
AcDbEntity
  8
AM_VIS
100
AcDbLine
 10
339.4341860727771
 20
295.9014902939143
 30
0.0
 11
338.1909249195428
 21
295.9014902939143
 31
0.0
  0
LINE
  5
FA0
330
1F
100
AcDbEntity
  8
AM_VIS
100
AcDbLine
 10
337.6859249195429
 20
295.9014902939143
 30
0.0
 11
336.4426637663048
 21
295.9014902939143
 31
0.0
  0
ELLIPSE
  5
FA1
330
1F
100
AcDbEntity
  8
AM_VIS
100
AcDbEllipse
 10
339.3373254461073
 20
295.6489902939142
 30
0.0
 11
-0.0000000000000174
 21
-4.670872363903953
 31
0.0
210
0.0
220
0.0
230
1.0
 40
0.6206336420084755
 41
4.658304192146683
 42
4.766473768622695
  0
LINE
  5
FA2
330
1F
100
AcDbEntity
  8
AM_VIS
100
AcDbLine
 10
336.4426637663048
 20
295.3964902939143
 30
0.0
 11
337.6859249195429
 21
295.3964902939143
 31
0.0
  0
LINE
  5
FA3
330
1F
100
AcDbEntity
  8
AM_VIS
100
AcDbLine
 10
338.1909249195428
 20
294.1532291406782
 30
0.0
 11
338.1909249195428
 21
295.3964902939142
 31
0.0
  0
ELLIPSE
  5
FA4
330
1F
100
AcDbEntity
  8
AM_VIS
100
AcDbEllipse
 10
337.9384249195409
 20
294.2500897673477
 30
0.0
 11
-4.670872363903926
 21
0.000000000000018
 31
0.0
210
0.0
220
0.0
230
1.0
 40
0.6206336420084869
 41
4.658304192146256
 42
4.766473768622269
  0
LINE
  5
FA5
330
1F
100
AcDbEntity
  8
AM_VIS
100
AcDbLine
 10
337.6859249195429
 20
295.3964902939143
 30
0.0
 11
337.6859249195429
 21
294.1532291406781
 31
0.0
  0
LINE
  5
FA6
330
1F
100
AcDbEntity
  8
AM_VIS
100
AcDbLine
 10
337.6859249195429
 20
297.1447514471504
 30
0.0
 11
337.6859249195429
 21
295.9014902939143
 31
0.0
  0
ELLIPSE
  5
FA7
330
1F
100
AcDbEntity
  8
AM_VIS
100
AcDbEllipse
 10
337.9384249195409
 20
297.0478908204807
 30
0.0
 11
4.670872363903926
 21
-0.0000000000000163
 31
0.0
210
0.0
220
0.0
230
1.0
 40
0.6206336420084869
 41
4.658304192147109
 42
4.766473768623122
  0
LINE
  5
FA8
330
1F
100
AcDbEntity
  8
AM_VIS
100
AcDbLine
 10
338.1909249195428
 20
295.9014902939143
 30
0.0
 11
338.1909249195428
 21
297.1447514471503
 31
0.0
  0
LINE
  5
FA9
330
1F
100
AcDbEntity
  8
AM_VIS
100
AcDbLine
 10
351.9384249195407
 20
267.9014902939143
 30
0.0
 11
351.9384249195407
 21
267.6489902939142
 31
0.0
  0
LINE
  5
FAA
330
1F
100
AcDbEntity
  8
AM_VIS
100
AcDbLine
 10
351.9384249195407
 20
267.6489902939142
 30
0.0
 11
351.9384249195407
 21
267.3964902939143
 31
0.0
  0
LINE
  5
FAB
330
1F
100
AcDbEntity
  8
AM_VIS
100
AcDbLine
 10
351.9384249195407
 20
267.6489902939142
 30
0.0
 11
352.1909249195414
 21
267.9014902939147
 31
0.0
  0
LINE
  5
FAC
330
1F
100
AcDbEntity
  8
AM_VIS
100
AcDbLine
 10
351.6859249195413
 20
267.9014902939136
 30
0.0
 11
351.9384249195407
 21
267.6489902939142
 31
0.0
  0
LINE
  5
FAD
330
1F
100
AcDbEntity
  8
AM_VIS
100
AcDbLine
 10
352.1909249195428
 20
267.9014902939143
 30
0.0
 11
351.6859249195427
 21
267.9014902939143
 31
0.0
  0
LINE
  5
FAE
330
1F
100
AcDbEntity
  8
AM_VIS
100
AcDbLine
 10
351.6859249195427
 20
267.3964902939142
 30
0.0
 11
351.6859249195427
 21
267.9014902939142
 31
0.0
  0
LINE
  5
FAF
330
1F
100
AcDbEntity
  8
AM_VIS
100
AcDbLine
 10
352.1909249195428
 20
267.6489902939142
 30
0.0
 11
351.9384249195407
 21
267.6489902939142
 31
0.0
  0
LINE
  5
FB0
330
1F
100
AcDbEntity
  8
AM_VIS
100
AcDbLine
 10
352.1909249195414
 20
267.3964902939137
 30
0.0
 11
351.9384249195407
 21
267.6489902939142
 31
0.0
  0
LINE
  5
FB1
330
1F
100
AcDbEntity
  8
AM_VIS
100
AcDbLine
 10
351.6859249195427
 20
267.3964902939142
 30
0.0
 11
352.1909249195428
 21
267.3964902939142
 31
0.0
  0
ARC
  5
FB2
330
1F
100
AcDbEntity
  8
AM_4
100
AcDbCircle
 10
344.9384249195409
 20
281.6489902939141
 30
0.0
 40
4.849999999999999
100
AcDbArc
 50
279.9999999999986
 51
189.9999999999986
  0
CIRCLE
  5
FB3
330
1F
100
AcDbEntity
  8
AM_VIS
100
AcDbCircle
 10
344.9384249195409
 20
281.6489902939142
 30
0.0
 40
4.049999999999999
  0
LINE
  5
FB4
330
1F
100
AcDbEntity
  8
AM_7
  6
AM_ISO08W050x2
100
AcDbLine
 10
344.9384249195409
 20
281.6489902939142
 30
0.0
 11
351.7884249195413
 21
281.6489902939142
 31
0.0
1001
GENIUS_GENOREF_13
1005
FDC
  0
LINE
  5
FB5
330
1F
100
AcDbEntity
  8
AM_7
  6
AM_ISO08W050x2
100
AcDbLine
 10
344.9384249195409
 20
281.6489902939142
 30
0.0
 11
344.9384249195409
 21
288.4989902939141
 31
0.0
1001
GENIUS_GENOREF_13
1005
FDC
  0
LINE
  5
FB6
330
1F
100
AcDbEntity
  8
AM_7
  6
AM_ISO08W050x2
100
AcDbLine
 10
344.9384249195409
 20
281.6489902939142
 30
0.0
 11
338.088424919541
 21
281.6489902939142
 31
0.0
1001
GENIUS_GENOREF_13
1005
FDC
  0
LINE
  5
FB7
330
1F
100
AcDbEntity
  8
AM_7
  6
AM_ISO08W050x2
100
AcDbLine
 10
344.9384249195409
 20
281.6489902939142
 30
0.0
 11
344.9384249195409
 21
274.7989902939141
 31
0.0
1001
GENIUS_GENOREF_13
1005
FDC
  0
CIRCLE
  5
FB8
330
1F
100
AcDbEntity
  8
AM_VIS
100
AcDbCircle
 10
337.9384249195409
 20
295.6489902939142
 30
0.0
 40
3.0
  0
CIRCLE
  5
FB9
330
1F
100
AcDbEntity
  8
AM_VIS
100
AcDbCircle
 10
351.9384249195407
 20
267.6489902939142
 30
0.0
 40
3.0
  0
DIMENSION
  5
FBA
330
1F
100
AcDbEntity
  8
AM_5
100
AcDbDimension
  2
*D3
 10
210.8900375400092
 20
343.2120797114488
 30
0.0
 11
207.0400375400091
 21
351.7120797114488
 31
0.0
 70
    32
 71
     5
 42
17.0
  3
AM_ISO$0
100
AcDbAlignedDimension
 13
255.8900375400092
 23
360.2120797114488
 33
0.0
 14
280.8900375400092
 24
343.2120797114488
 34
0.0
 50
90.0
100
AcDbRotatedDimension
1001
ACAD
1000
DSTYLE
1002
{
1070
    40
1040
1.399999999999999
1070
   272
1070
     8
1002
}
  0
DIMENSION
  5
FBB
330
1F
100
AcDbEntity
  8
AM_5
100
AcDbDimension
  2
*D4
 10
200.8900375400092
 20
340.5620797114487
 30
0.0
 11
197.0395552565445
 21
351.7120797114488
 31
0.0
 70
    32
 71
     5
 42
22.30000000000007
  3
AM_ISO$0
100
AcDbAlignedDimension
 13
232.8900375400092
 23
362.8620797114487
 33
0.0
 14
232.8900375400092
 24
340.5620797114487
 34
0.0
 50
90.0
100
AcDbRotatedDimension
1001
ACAD
1000
DSTYLE
1002
{
1070
    40
1040
1.399999999999999
1070
   272
1070
     8
1002
}
  0
DIMENSION
  5
FBC
330
1F
100
AcDbEntity
  8
AM_5
100
AcDbDimension
  2
*D5
 10
259.8900375400092
 20
372.2120797114488
 30
0.0
 11
246.3900375400092
 21
376.0625619949133
 31
0.0
 70
    32
 71
     5
 42
27.0
  3
AM_ISO$0
100
AcDbAlignedDimension
 13
232.8900375400092
 23
362.8620797114487
 33
0.0
 14
259.8900375400092
 24
364.2120797114488
 34
0.0
100
AcDbRotatedDimension
1001
ACAD
1000
DSTYLE
1002
{
1070
    40
1040
1.399999999999999
1070
   272
1070
     8
1002
}
  0
DIMENSION
  5
FBD
330
1F
100
AcDbEntity
  8
AM_5
100
AcDbDimension
  2
*D6
 10
285.3900375400092
 20
372.2120797114488
 30
0.0
 11
272.6400375400092
 21
376.0625619949133
 31
0.0
 70
    32
 71
     5
 42
25.5
  3
AM_ISO$0
100
AcDbAlignedDimension
 13
259.8900375400092
 23
364.2120797114488
 33
0.0
 14
285.3900375400092
 24
348.2120797114482
 34
0.0
100
AcDbRotatedDimension
1001
ACAD
1000
DSTYLE
1002
{
1070
    40
1040
1.399999999999999
1070
   272
1070
     8
1002
}
  0
DIMENSION
  5
FBE
330
1F
100
AcDbEntity
  8
AM_5
100
AcDbDimension
  2
*D7
 10
220.890037540009
 20
349.7120797114488
 30
0.0
 11
220.8900375400089
 21
338.7227204594803
 31
0.0
 70
   160
 71
     5
 42
2.0
  3
AM_ISO$0
100
AcDbAlignedDimension
 13
244.5123719257351
 23
351.7120797114488
 33
0.0
 14
264.6900375400091
 24
349.7120797114488
 34
0.0
 50
90.0
100
AcDbRotatedDimension
1001
ACAD
1000
DSTYLE
1002
{
1070
    40
1040
1.399999999999999
1070
   272
1070
     8
1002
}
  0
DIMENSION
  5
FBF
330
1F
100
AcDbEntity
  8
AM_5
100
AcDbDimension
  2
*D8
 10
220.8900375400092
 20
299.1489902939144
 30
0.0
 11
220.8900375400092
 21
277.317507971133
 31
0.0
 70
   160
 71
     5
 42
8.500000000000056
  3
AM_ISO$0
100
AcDbAlignedDimension
 13
256.7900375400093
 23
290.6489902939143
 33
0.0
 14
232.8900375400092
 24
299.1489902939144
 34
0.0
 50
90.0
100
AcDbRotatedDimension
1001
ACAD
1000
DSTYLE
1002
{
1070
    40
1040
1.399999999999999
1070
   272
1070
     8
1002
}
  0
DIMENSION
  5
FC0
330
1F
100
AcDbEntity
  8
AM_5
100
AcDbDimension
  2
*D9
 10
263.3900375400092
 20
201.6023768418603
 30
0.0
 11
248.1400375400092
 21
205.4523768418603
 31
0.0
 70
    32
 71
     5
 42
30.5
  3
AM_ISO$0
100
AcDbAlignedDimension
 13
232.8900375400092
 23
213.602376841861
 33
0.0
 14
263.3900375400092
 24
217.0523768418608
 34
0.0
100
AcDbRotatedDimension
1001
ACAD
1000
DSTYLE
1002
{
1070
    40
1040
1.399999999999999
1070
   272
1070
     8
1002
}
  0
DIMENSION
  5
FC1
330
1F
100
AcDbEntity
  8
AM_5
100
AcDbDimension
  2
*D10
 10
281.3900375400092
 20
201.6023768418604
 30
0.0
 11
272.3900375400092
 21
205.4523768418604
 31
0.0
 70
    32
 71
     5
 42
18.0
  3
AM_ISO$0
100
AcDbAlignedDimension
 13
263.3900375400092
 23
217.0523768418608
 33
0.0
 14
281.3900375400092
 24
217.0523768418608
 34
0.0
100
AcDbRotatedDimension
1001
ACAD
1000
DSTYLE
1002
{
1070
    40
1040
1.399999999999999
1070
   272
1070
     8
1002
}
  0
DIMENSION
  5
FC2
330
1F
100
AcDbEntity
  8
AM_5
100
AcDbDimension
  2
*D11
 10
272.3900375400092
 20
328.5620797114483
 30
0.0
 11
252.6400375400092
 21
332.4120797114483
 31
0.0
 70
    32
 71
     5
 42
39.5
  3
AM_ISO$0
100
AcDbAlignedDimension
 13
232.8900375400092
 23
340.5620797114488
 33
0.0
 14
272.3900375400092
 24
342.0120797114488
 34
0.0
100
AcDbRotatedDimension
1001
ACAD
1000
DSTYLE
1002
{
1070
    40
1040
1.399999999999999
1070
   272
1070
     8
1002
}
  0
INSERT
  5
FC3
330
1F
100
AcDbEntity
  8
AM_5
100
AcDbBlockReference
  2
*S18
 10
0.0
 20
0.0
 30
0.0
  0
TEXT
  5
FC4
330
1F
100
AcDbEntity
  8
AM_5
100
AcDbText
 10
297.9135311806656
 20
329.9216810865285
 30
0.0
 40
4.9
  1
2-%%c3.2thru
100
AcDbText
  0
INSERT
  5
FC5
330
1F
100
AcDbEntity
  8
AM_5
100
AcDbBlockReference
  2
*S19
 10
0.0
 20
0.0
 30
0.0
  0
TEXT
  5
FC6
330
1F
100
AcDbEntity
  8
AM_5
100
AcDbText
 10
296.3991668407323
 20
373.3762690860447
 30
0.0
 40
4.9
  1
PT1/4
100
AcDbText
  0
INSERT
  5
FC7
330
1F
100
AcDbEntity
  8
AM_5
100
AcDbBlockReference
  2
*S20
 10
0.0
 20
0.0
 30
0.0
  0
TEXT
  5
FC8
330
1F
100
AcDbEntity
  8
AM_5
100
AcDbText
 10
294.3955242422132
 20
311.7294661332601
 30
0.0
 40
4.9
  1
2-%%c4.2thru
100
AcDbText
  0
INSERT
  5
FC9
330
1F
100
AcDbEntity
  8
AM_5
100
AcDbBlockReference
  2
*S21
 10
0.0
 20
0.0
 30
0.0
  0
TEXT
  5
FCA
330
1F
100
AcDbEntity
  8
AM_5
100
AcDbText
 10
300.1152179844141
 20
202.1404693170112
 30
0.0
 40
4.9
  1
2-PT1/4
100
AcDbText
  0
DIMENSION
  5
FCB
330
1F
100
AcDbEntity
  8
AM_5
100
AcDbDimension
  2
*D12
 10
323.8900375400092
 20
296.148990293914
 30
0.0
 11
323.8900375400092
 21
285.2675079711326
 31
0.0
 70
   160
 71
     5
 42
3.00000000000017
  3
AM_ISO$0
100
AcDbAlignedDimension
 13
311.8900375400092
 23
299.1489902939142
 33
0.0
 14
288.3900375400092
 24
296.148990293914
 34
0.0
 50
90.0
100
AcDbRotatedDimension
1001
ACAD
1000
DSTYLE
1002
{
1070
    40
1040
1.399999999999999
1070
   272
1070
     8
1002
}
  0
DIMENSION
  5
FCC
330
1F
100
AcDbEntity
  8
AM_5
100
AcDbDimension
  2
*D13
 10
284.8900375400092
 20
308.148990293914
 30
0.0
 11
272.3900375400092
 21
311.9994725773786
 31
0.0
 70
    32
 71
     5
 42
25.0
  3
AM_ISO$0
100
AcDbAlignedDimension
 13
259.8900375400092
 23
293.7489902939142
 33
0.0
 14
284.8900375400092
 24
293.7489902939142
 34
0.0
100
AcDbRotatedDimension
1001
ACAD
1000
DSTYLE
1002
{
1070
    40
1040
1.399999999999999
1070
   272
1070
     8
1002
}
  0
INSERT
  5
FCD
330
1F
100
AcDbEntity
  8
AM_5
100
AcDbBlockReference
  2
*S22
 10
0.0
 20
0.0
 30
0.0
  0
TEXT
  5
FCE
330
1F
100
AcDbEntity
  8
AM_5
100
AcDbText
 10
353.2427635089803
 20
308.3276928451824
 30
0.0
 40
4.9
  1
2-PT1/8
100
AcDbText
  0
DIMENSION
  5
FCF
330
1F
100
AcDbEntity
  8
AM_5
100
AcDbDimension
  2
*D14
 10
368.0884249195408
 20
281.6489902939142
 30
0.0
 11
364.2384249195407
 21
272.8989902939143
 31
0.0
 70
    32
 71
     5
 42
17.49999999999994
  3
AM_ISO$0
100
AcDbAlignedDimension
 13
356.0884249195408
 23
264.1489902939142
 33
0.0
 14
351.7884249195413
 24
281.6489902939142
 34
0.0
 50
90.0
100
AcDbRotatedDimension
1001
ACAD
1000
DSTYLE
1002
{
1070
    40
1040
1.399999999999999
1070
   272
1070
     8
1002
}
  0
DIMENSION
  5
FD0
330
1F
100
AcDbEntity
  8
AM_5
100
AcDbDimension
  2
*D15
 10
259.8900375400092
 20
308.148990293914
 30
0.0
 11
246.3900375400092
 21
311.9994725773786
 31
0.0
 70
    32
 71
     5
 42
27.0
  3
AM_ISO$0
100
AcDbAlignedDimension
 13
232.8900375400092
 23
299.1489902939144
 33
0.0
 14
259.8900375400092
 24
293.7489902939142
 34
0.0
100
AcDbRotatedDimension
1001
ACAD
1000
DSTYLE
1002
{
1070
    40
1040
1.399999999999999
1070
   272
1070
     8
1002
}
  0
DIMENSION
  5
FD1
330
1F
100
AcDbEntity
  8
AM_5
100
AcDbDimension
  2
*D16
 10
311.8900375400092
 20
252.1489902939139
 30
0.0
 11
272.3900375400092
 21
255.9989902939139
 31
0.0
 70
    32
 71
     5
 42
79.0
  3
AM_ISO$0
100
AcDbAlignedDimension
 13
232.8900375400092
 23
264.1489902939143
 33
0.0
 14
311.8900375400092
 24
264.1489902939142
 34
0.0
100
AcDbRotatedDimension
1001
ACAD
1000
DSTYLE
1002
{
1070
    40
1040
1.399999999999999
1070
   272
1070
     8
1002
}
  0
POINT
  5
FDC
330
1F
100
AcDbEntity
  8
0
 60
     1
100
AcDbPoint
 10
532.2203176095026
 20
-249.1411983451231
 30
0.0
1001
GENIUS_GENOLIS_13
1002
{
1000
ENT
1005
FB7
1005
FB6
1005
FB5
1005
FB4
1002
}
1001
GENIUS_GENODEF_13
1002
{
1000
HIER
1070
    10
1002
}
1002
{
1000
MANEDIT
1070
     0
1002
}
1002
{
1000
NOSEL
1070
     0
1002
}
1002
{
1000
BEHIND
1070
     0
1002
}
1002
{
1000
OTHER
1070
     0
1002
}
1002
{
1000
REACTOR
1002
}
1001
GENIUS_GENOBJ-N-CRS_13
1002
{
1000
OWNER
1000
GEN
1002
}
1001
GENIUS_GENOENT_13
1002
{
1000
MYREF
1005
FDC
1002
}
1002
{
1000
GRP
1005
0
1002
}
  0
POINT
  5
FDD
330
1F
100
AcDbEntity
  8
0
 60
     1
100
AcDbPoint
 10
-269.1333834395402
 20
142.4530524069694
 30
0.0
1001
GENIUS_GENOBJ-N-CRS_13
1002
{
1000
OWNER
1000
GEN
1002
}
1001
GENIUS_GENODEF_13
1002
{
1000
HIER
1070
    10
1002
}
1002
{
1000
MANEDIT
1070
     0
1002
}
1002
{
1000
NOSEL
1070
     0
1002
}
1002
{
1000
BEHIND
1070
     0
1002
}
1002
{
1000
OTHER
1070
     0
1002
}
1002
{
1000
REACTOR
1002
}
1001
GENIUS_GENOENT_13
1002
{
1000
MYREF
1005
FDD
1002
}
1002
{
1000
GRP
1005
0
1002
}
1001
GENIUS_GENOLIS_13
1002
{
1000
ENT
1005
F73
1005
F72
1005
F71
1005
F70
1002
}
  0
POINT
  5
FDE
330
1F
100
AcDbEntity
  8
0
 60
     1
100
AcDbPoint
 10
-269.1333834395402
 20
142.4530524069694
 30
0.0
1001
GENIUS_GENOENT_13
1002
{
1000
MYREF
1005
FDE
1002
}
1002
{
1000
GRP
1005
0
1002
}
1001
GENIUS_GENOBJ-N-CRS_13
1002
{
1000
OWNER
1000
GEN
1002
}
1001
GENIUS_GENOLIS_13
1002
{
1000
ENT
1005
F6F
1005
F6E
1005
F6D
1005
F6C
1002
}
1001
GENIUS_GENODEF_13
1002
{
1000
HIER
1070
    10
1002
}
1002
{
1000
MANEDIT
1070
     0
1002
}
1002
{
1000
NOSEL
1070
     0
1002
}
1002
{
1000
BEHIND
1070
     0
1002
}
1002
{
1000
OTHER
1070
     0
1002
}
1002
{
1000
REACTOR
1002
}
  0
POINT
  5
FDF
330
1F
100
AcDbEntity
  8
0
 60
     1
100
AcDbPoint
 10
-269.1333834395402
 20
142.4530524069694
 30
0.0
1001
GENIUS_GENOBJ-N-CRS_13
1002
{
1000
OWNER
1000
GEN
1002
}
1001
GENIUS_GENODEF_13
1002
{
1000
HIER
1070
    10
1002
}
1002
{
1000
MANEDIT
1070
     0
1002
}
1002
{
1000
NOSEL
1070
     0
1002
}
1002
{
1000
BEHIND
1070
     0
1002
}
1002
{
1000
OTHER
1070
     0
1002
}
1002
{
1000
REACTOR
1002
}
1001
GENIUS_GENOENT_13
1002
{
1000
MYREF
1005
FDF
1002
}
1002
{
1000
GRP
1005
0
1002
}
1001
GENIUS_GENOLIS_13
1002
{
1000
ENT
1005
F6B
1005
F6A
1005
F69
1005
F68
1002
}
  0
POINT
  5
FE0
330
1F
100
AcDbEntity
  8
0
 60
     1
100
AcDbPoint
 10
-269.1333834395402
 20
142.4530524069694
 30
0.0
1001
GENIUS_GENOLIS_13
1002
{
1000
ENT
1005
F67
1005
F66
1005
F65
1005
F64
1002
}
1001
GENIUS_GENOENT_13
1002
{
1000
MYREF
1005
FE0
1002
}
1002
{
1000
GRP
1005
0
1002
}
1001
GENIUS_GENOBJ-N-CRS_13
1002
{
1000
OWNER
1000
GEN
1002
}
1001
GENIUS_GENODEF_13
1002
{
1000
HIER
1070
    10
1002
}
1002
{
1000
MANEDIT
1070
     0
1002
}
1002
{
1000
NOSEL
1070
     0
1002
}
1002
{
1000
BEHIND
1070
     0
1002
}
1002
{
1000
OTHER
1070
     0
1002
}
1002
{
1000
REACTOR
1002
}
  0
POINT
  5
FE1
330
1F
100
AcDbEntity
  8
0
 60
     1
100
AcDbPoint
 10
-269.1333834395402
 20
142.4530524069694
 30
0.0
1001
GENIUS_GENODEF_13
1002
{
1000
HIER
1070
    10
1002
}
1002
{
1000
MANEDIT
1070
     0
1002
}
1002
{
1000
NOSEL
1070
     0
1002
}
1002
{
1000
BEHIND
1070
     0
1002
}
1002
{
1000
OTHER
1070
     0
1002
}
1002
{
1000
REACTOR
1002
}
1001
GENIUS_GENOENT_13
1002
{
1000
MYREF
1005
FE1
1002
}
1002
{
1000
GRP
1005
0
1002
}
1001
GENIUS_GENOBJ-N-CRS_13
1002
{
1000
OWNER
1000
GEN
1002
}
1001
GENIUS_GENOLIS_13
1002
{
1000
ENT
1005
F63
1005
F62
1005
F61
1005
F60
1002
}
  0
POINT
  5
FE2
330
1F
100
AcDbEntity
  8
0
 60
     1
100
AcDbPoint
 10
-269.1333834395402
 20
142.4530524069694
 30
0.0
1001
GENIUS_GENODEF_13
1002
{
1000
HIER
1070
    10
1002
}
1002
{
1000
MANEDIT
1070
     0
1002
}
1002
{
1000
NOSEL
1070
     0
1002
}
1002
{
1000
BEHIND
1070
     0
1002
}
1002
{
1000
OTHER
1070
     0
1002
}
1002
{
1000
REACTOR
1002
}
1001
GENIUS_GENOLIS_13
1002
{
1000
ENT
1005
F5F
1005
F5E
1005
F5D
1005
F5C
1002
}
1001
GENIUS_GENOENT_13
1002
{
1000
MYREF
1005
FE2
1002
}
1002
{
1000
GRP
1005
0
1002
}
1001
GENIUS_GENOBJ-N-CRS_13
1002
{
1000
OWNER
1000
GEN
1002
}
  0
POINT
  5
FE3
330
1F
100
AcDbEntity
  8
0
 60
     1
100
AcDbPoint
 10
-269.1333834395402
 20
142.4530524069694
 30
0.0
1001
GENIUS_GENOENT_13
1002
{
1000
MYREF
1005
FE3
1002
}
1002
{
1000
GRP
1005
0
1002
}
1001
GENIUS_GENOBJ-N-CRS_13
1002
{
1000
OWNER
1000
GEN
1002
}
1001
GENIUS_GENOLIS_13
1002
{
1000
ENT
1005
F5B
1005
F5A
1005
F59
1005
F58
1002
}
1001
GENIUS_GENODEF_13
1002
{
1000
HIER
1070
    10
1002
}
1002
{
1000
MANEDIT
1070
     0
1002
}
1002
{
1000
NOSEL
1070
     0
1002
}
1002
{
1000
BEHIND
1070
     0
1002
}
1002
{
1000
OTHER
1070
     0
1002
}
1002
{
1000
REACTOR
1002
}
  0
POINT
  5
FE4
330
1F
100
AcDbEntity
  8
0
 60
     1
100
AcDbPoint
 10
-269.1333834395402
 20
142.4530524069694
 30
0.0
1001
GENIUS_GENOLIS_13
1002
{
1000
ENT
1005
F56
1005
F55
1005
F54
1005
F53
1002
}
1001
GENIUS_GENOENT_13
1002
{
1000
MYREF
1005
FE4
1002
}
1002
{
1000
GRP
1005
0
1002
}
1001
GENIUS_GENOBJ-N-CRS_13
1002
{
1000
OWNER
1000
GEN
1002
}
1001
GENIUS_GENODEF_13
1002
{
1000
HIER
1070
    10
1002
}
1002
{
1000
MANEDIT
1070
     0
1002
}
1002
{
1000
NOSEL
1070
     0
1002
}
1002
{
1000
BEHIND
1070
     0
1002
}
1002
{
1000
OTHER
1070
     0
1002
}
1002
{
1000
REACTOR
1002
}
  0
POINT
  5
FE5
330
1F
100
AcDbEntity
  8
0
 60
     1
100
AcDbPoint
 10
-269.1333834395402
 20
142.4530524069694
 30
0.0
1001
GENIUS_GENODEF_13
1002
{
1000
HIER
1070
    10
1002
}
1002
{
1000
MANEDIT
1070
     0
1002
}
1002
{
1000
NOSEL
1070
     0
1002
}
1002
{
1000
BEHIND
1070
     0
1002
}
1002
{
1000
OTHER
1070
     0
1002
}
1002
{
1000
REACTOR
1002
}
1001
GENIUS_GENOENT_13
1002
{
1000
MYREF
1005
FE5
1002
}
1002
{
1000
GRP
1005
0
1002
}
1001
GENIUS_GENOLIS_13
1002
{
1000
ENT
1005
F52
1005
F51
1005
F50
1005
F4F
1002
}
1001
GENIUS_GENOBJ-N-CRS_13
1002
{
1000
OWNER
1000
GEN
1002
}
  0
ENDSEC
  0
SECTION
  2
OBJECTS
  0
DICTIONARY
  5
C
330
0
100
AcDbDictionary
281
     1
  3
ACAD_COLOR
350
BE
  3
ACAD_GROUP
350
D
  3
ACAD_LAYOUT
350
1A
  3
ACAD_MATERIAL
350
BD
  3
ACAD_MLINESTYLE
350
17
  3
ACAD_PLOTSETTINGS
350
19
  3
ACAD_PLOTSTYLENAME
350
E
  3
ACAD_TABLESTYLE
350
11A
  3
ACDBHEADERROUNDTRIPXREC
350
119E
  3
AcDbVariableDictionary
350
94
  3
AcmDictionary
350
5B
  3
AMG
350
41
  3
AMGSNAPSETTINGS
350
1B8
  3
DWGPROPS
350
119D
  0
DICTIONARY
  5
3F9
330
2
100
AcDbDictionary
280
     1
281
     1
  3
ACAD_LAYERFILTERS
360
5B7
  3
ACAD_LAYERSTATES
360
ACE
  3
ACLYDICTIONARY
360
5B6
  0
DICTIONARY
  5
8F
330
1F
100
AcDbDictionary
280
     1
281
     1
  0
DICTIONARY
  5
BE
102
{ACAD_REACTORS
330
C
102
}
330
C
100
AcDbDictionary
281
     1
  0
DICTIONARY
  5
D
102
{ACAD_REACTORS
330
C
102
}
330
C
100
AcDbDictionary
281
     1
  0
DICTIONARY
  5
1A
102
{ACAD_REACTORS
330
C
102
}
330
C
100
AcDbDictionary
281
     1
  3
Model
350
22
  3
配置1
350
1E
  3
配置2
350
26
  0
DICTIONARY
  5
BD
102
{ACAD_REACTORS
330
C
102
}
330
C
100
AcDbDictionary
281
     1
  0
DICTIONARY
  5
17
102
{ACAD_REACTORS
330
C
102
}
330
C
100
AcDbDictionary
281
     1
  3
Standard
350
18
  0
DICTIONARY
  5
19
102
{ACAD_REACTORS
330
C
102
}
330
C
100
AcDbDictionary
281
     1
  0
ACDBDICTIONARYWDFLT
  5
E
102
{ACAD_REACTORS
330
C
102
}
330
C
100
AcDbDictionary
281
     1
  3
Normal
350
F
100
AcDbDictionaryWithDefault
340
F
  0
DICTIONARY
  5
11A
102
{ACAD_REACTORS
330
C
102
}
330
C
100
AcDbDictionary
281
     1
  3
Standard
350
11B
  0
DICTIONARY
  5
119E
102
{ACAD_REACTORS
330
C
102
}
330
C
100
AcDbDictionary
281
     1
  0
DICTIONARY
  5
94
102
{ACAD_REACTORS
330
C
102
}
330
C
100
AcDbDictionary
281
     1
  3
CTABLESTYLE
350
138
  3
DIMASSOC
350
96
  3
INDEXCTL
350
95
  3
PROJECTNAME
350
119B
  0
DICTIONARY
  5
5B
102
{ACAD_REACTORS
330
C
102
}
330
C
100
AcDbDictionary
281
     1
  3
AcmBOM
350
1B5
  3
AcmStdDictionary
350
61
  3
AMDTSECTSYM_ARROWCOLOR
350
123
  0
DICTIONARY
  5
41
102
{ACAD_REACTORS
330
C
102
}
330
C
100
AcDbDictionary
281
     1
  0
DICTIONARY
  5
1B8
102
{ACAD_REACTORS
330
C
102
}
330
C
100
AcDbDictionary
281
     1
  0
XRECORD
  5
119D
102
{ACAD_REACTORS
330
C
102
}
330
C
100
AcDbXrecord
280
     1
  1
DWGPROPS COOKIE
  2

  3

  4

  6

  7

  8

  9

300
AmdtFileType=84
301
=
302
=
303
=
304
=
305
=
306
=
307
=
308
=
309
=
 40
0.0025462962962963
 41
2454377.552484618
 42
2454377.556474607
  1

 90
        1
  0
DICTIONARY
  5
5B7
102
{ACAD_REACTORS
330
3F9
102
}
330
3F9
100
AcDbDictionary
281
     1
  0
DICTIONARY
  5
ACE
102
{ACAD_REACTORS
330
3F9
102
}
330
3F9
100
AcDbDictionary
281
     1
  0
DICTIONARY
  5
5B6
102
{ACAD_REACTORS
330
3F9
102
}
330
3F9
100
AcDbDictionary
281
     1
1001
ACAD
1000
<All
  0
LAYOUT
  5
22
102
{ACAD_XDICTIONARY
360
11A1
102
}
102
{ACAD_REACTORS
330
1A
102
}
330
1A
100
AcDbPlotSettings
  1

  2
\\RD\EPSON Stylus C63 Series單色
  4
A4
  6

 40
3.757083177566528
 41
3.757076978683471
 42
3.757080078125
 43
3.757080078125
 44
209.9733276367187
 45
296.9683227539062
 46
0.0
 47
0.0
 48
0.0
 49
0.0
140
0.0
141
0.0
142
1.0
143
0.3405120737814363
 70
 11952
 72
     1
 73
     0
 74
     0
  7
單色出圖.ctb
 75
     0
147
2.936753428137963
148
-2047.07469463503
149
-1261.649717473083
100
AcDbLayout
  1
Model
 70
     1
 71
     0
 10
0.0
 20
0.0
 11
12.0
 21
9.0
 12
0.0
 22
0.0
 32
0.0
 14
0.0
 24
0.0
 34
0.0
 15
0.0
 25
0.0
 35
0.0
146
0.0
 13
0.0
 23
0.0
 33
0.0
 16
1.0
 26
0.0
 36
0.0
 17
0.0
 27
1.0
 37
0.0
 76
     0
330
1F
1001
ACAD_PSEXT
1000
\\RD\EPSON Stylus C63 Series單色
1000
EPSON Stylus C63 Series
1000
\\RD
1000

1070
     0
  0
LAYOUT
  5
1E
102
{ACAD_XDICTIONARY
360
119F
102
}
102
{ACAD_REACTORS
330
1A
102
}
330
1A
100
AcDbPlotSettings
  1

  2

  4

  6

 40
0.0
 41
0.0
 42
0.0
 43
0.0
 44
0.0
 45
0.0
 46
0.0
 47
0.0
 48
0.0
 49
0.0
140
0.0
141
0.0
142
1.0
143
1.0
 70
   688
 72
     0
 73
     0
 74
     5
  7
單色出圖.ctb
 75
    16
147
1.0
148
0.0
149
0.0
100
AcDbLayout
  1
配置1
 70
     1
 71
     1
 10
0.0
 20
0.0
 11
420.0
 21
297.0
 12
0.0
 22
0.0
 32
0.0
 14
1.000000000000000E+20
 24
1.000000000000000E+20
 34
1.000000000000000E+20
 15
-1.000000000000000E+20
 25
-1.000000000000000E+20
 35
-1.000000000000000E+20
146
0.0
 13
0.0
 23
0.0
 33
0.0
 16
1.0
 26
0.0
 36
0.0
 17
0.0
 27
1.0
 37
0.0
 76
     0
330
1B
  0
LAYOUT
  5
26
102
{ACAD_XDICTIONARY
360
11A3
102
}
102
{ACAD_REACTORS
330
1A
102
}
330
1A
100
AcDbPlotSettings
  1

  2

  4

  6

 40
0.0
 41
0.0
 42
0.0
 43
0.0
 44
0.0
 45
0.0
 46
0.0
 47
0.0
 48
0.0
 49
0.0
140
0.0
141
0.0
142
1.0
143
1.0
 70
   688
 72
     0
 73
     0
 74
     5
  7
單色出圖.ctb
 75
    16
147
1.0
148
0.0
149
0.0
100
AcDbLayout
  1
配置2
 70
     1
 71
     2
 10
0.0
 20
0.0
 11
12.0
 21
9.0
 12
0.0
 22
0.0
 32
0.0
 14
0.0
 24
0.0
 34
0.0
 15
0.0
 25
0.0
 35
0.0
146
0.0
 13
0.0
 23
0.0
 33
0.0
 16
1.0
 26
0.0
 36
0.0
 17
0.0
 27
1.0
 37
0.0
 76
     0
330
23
  0
MLINESTYLE
  5
18
102
{ACAD_REACTORS
330
17
102
}
330
17
100
AcDbMlineStyle
  2
STANDARD
 70
     0
  3

 62
   256
 51
90.0
 52
90.0
 71
     2
 49
0.5
 62
   256
  6
BYLAYER
 49
-0.5
 62
   256
  6
BYLAYER
  0
ACDBPLACEHOLDER
  5
F
102
{ACAD_REACTORS
330
E
102
}
330
E
  0
TABLESTYLE
  5
11B
102
{ACAD_REACTORS
330
11A
102
}
330
11A
100
AcDbTableStyle
  3
Standard
 70
     0
 71
     0
 40
1.5
 41
1.5
280
     0
281
     0
  7
STANDARD
140
4.5
170
     2
 62
     0
 63
     7
283
     0
274
    -2
284
     1
 64
     0
275
    -2
285
     1
 65
     0
276
    -2
286
     1
 66
     0
277
    -2
287
     1
 67
     0
278
    -2
288
     1
 68
     0
279
    -2
289
     1
 69
     0
  7
STANDARD
140
6.0
170
     5
 62
     0
 63
     7
283
     0
274
    -2
284
     1
 64
     0
275
    -2
285
     1
 65
     0
276
    -2
286
     1
 66
     0
277
    -2
287
     1
 67
     0
278
    -2
288
     1
 68
     0
279
    -2
289
     1
 69
     0
  7
STANDARD
140
4.5
170
     5
 62
     0
 63
     7
283
     0
274
    -2
284
     1
 64
     0
275
    -2
285
     1
 65
     0
276
    -2
286
     1
 66
     0
277
    -2
287
     1
 67
     0
278
    -2
288
     1
 68
     0
279
    -2
289
     1
 69
     0
  0
DICTIONARYVAR
  5
138
102
{ACAD_REACTORS
330
94
102
}
330
94
100
DictionaryVariables
280
     0
  1
STANDARD
  0
DICTIONARYVAR
  5
96
102
{ACAD_REACTORS
330
94
102
}
330
94
100
DictionaryVariables
280
     0
  1
2
  0
DICTIONARYVAR
  5
95
102
{ACAD_REACTORS
330
94
102
}
330
94
100
DictionaryVariables
280
     0
  1
0
  0
DICTIONARYVAR
  5
119B
102
{ACAD_REACTORS
330
94
102
}
330
94
100
DictionaryVariables
280
     0
  1

  0
DICTIONARY
  5
1B5
102
{ACAD_REACTORS
330
5B
102
}
330
5B
100
AcDbDictionary
281
     1
  0
DICTIONARY
  5
61
102
{ACAD_REACTORS
330
5B
102
}
330
5B
100
AcDbDictionary
281
     1
  0
XRECORD
  5
123
102
{ACAD_REACTORS
330
5B
102
}
330
5B
100
AcDbXrecord
280
     1
 90
-1023410169
  0
DICTIONARY
  5
11A1
330
22
100
AcDbDictionary
280
     1
281
     1
  3
ACAD_XREC_ROUNDTRIP
360
11A2
  0
DICTIONARY
  5
119F
330
1E
100
AcDbDictionary
280
     1
281
     1
  3
ACAD_XREC_ROUNDTRIP
360
11A0
  0
DICTIONARY
  5
11A3
330
26
100
AcDbDictionary
280
     1
281
     1
  3
ACAD_XREC_ROUNDTRIP
360
11A4
  0
XRECORD
  5
11A2
102
{ACAD_REACTORS
330
11A1
102
}
330
11A1
100
AcDbXrecord
280
     1
102
SHADEPLOT
 70
     0
102
SHADEPLOTRESLEVEL
 70
     2
102
SHADEPLOTCUSTOMDPI
 70
   300
  0
XRECORD
  5
11A0
102
{ACAD_REACTORS
330
119F
102
}
330
119F
100
AcDbXrecord
280
     1
102
SHADEPLOT
 70
     0
102
SHADEPLOTRESLEVEL
 70
     2
102
SHADEPLOTCUSTOMDPI
 70
   300
  0
XRECORD
  5
11A4
102
{ACAD_REACTORS
330
11A3
102
}
330
11A3
100
AcDbXrecord
280
     1
102
SHADEPLOT
 70
     0
102
SHADEPLOTRESLEVEL
 70
     2
102
SHADEPLOTCUSTOMDPI
 70
   300
  0
ENDSEC
  0
EOF
