  0
SECTION
  2
HEADER
  9
$ACADVER
  1
AC1015
  9
$ACADMAINTVER
 70
    20
  9
$DWGCODEPAGE
  3
ANSI_950
  9
$INSBASE
 10
0.0
 20
0.0
 30
0.0
  9
$EXTMIN
 10
812.2437635434527
 20
537.8696845049193
 30
-0.0048375039850157
  9
$EXTMAX
 10
1016.611570802999
 20
814.7107169225442
 30
158.5322633215421
  9
$LIMMIN
 10
0.0
 20
0.0
  9
$LIMMAX
 10
420.0
 20
297.0
  9
$ORTHOMODE
 70
     0
  9
$REGENMODE
 70
     1
  9
$FILLMODE
 70
     1
  9
$QTEXTMODE
 70
     0
  9
$MIRRTEXT
 70
     1
  9
$LTSCALE
 40
1.0
  9
$ATTMODE
 70
     1
  9
$TEXTSIZE
 40
3.0
  9
$TRACEWID
 40
1.0
  9
$TEXTSTYLE
  7
STANDARD
  9
$CLAYER
  8
0
  9
$CELTYPE
  6
ByLayer
  9
$CECOLOR
 62
   256
  9
$CELTSCALE
 40
1.0
  9
$DISPSILH
 70
     0
  9
$DIMSCALE
 40
1.0
  9
$DIMASZ
 40
3.0
  9
$DIMEXO
 40
1.0
  9
$DIMDLI
 40
10.0
  9
$DIMRND
 40
0.0
  9
$DIMDLE
 40
0.0
  9
$DIMEXE
 40
1.5
  9
$DIMTP
 40
0.1
  9
$DIMTM
 40
0.1
  9
$DIMTXT
 40
3.5
  9
$DIMCEN
 40
0.0
  9
$DIMTSZ
 40
0.0
  9
$DIMTOL
 70
     0
  9
$DIMLIM
 70
     0
  9
$DIMTIH
 70
     0
  9
$DIMTOH
 70
     0
  9
$DIMSE1
 70
     0
  9
$DIMSE2
 70
     0
  9
$DIMTAD
 70
     1
  9
$DIMZIN
 70
     8
  9
$DIMBLK
  1

  9
$DIMASO
 70
     1
  9
$DIMSHO
 70
     1
  9
$DIMPOST
  1

  9
$DIMAPOST
  1
"
  9
$DIMALT
 70
     0
  9
$DIMALTD
 70
     2
  9
$DIMALTF
 40
0.0393701
  9
$DIMLFAC
 40
1.0
  9
$DIMTOFL
 70
     1
  9
$DIMTVP
 40
0.0
  9
$DIMTIX
 70
     0
  9
$DIMSOXD
 70
     0
  9
$DIMSAH
 70
     0
  9
$DIMBLK1
  1

  9
$DIMBLK2
  1

  9
$DIMSTYLE
  2
AM_ISO
  9
$DIMCLRD
 70
   256
  9
$DIMCLRE
 70
   256
  9
$DIMCLRT
 70
   256
  9
$DIMTFAC
 40
0.6
  9
$DIMGAP
 40
0.7
  9
$DIMJUST
 70
     0
  9
$DIMSD1
 70
     0
  9
$DIMSD2
 70
     0
  9
$DIMTOLJ
 70
     0
  9
$DIMTZIN
 70
     8
  9
$DIMALTZ
 70
     0
  9
$DIMALTTZ
 70
     0
  9
$DIMUPT
 70
     0
  9
$DIMDEC
 70
     2
  9
$DIMTDEC
 70
     8
  9
$DIMALTU
 70
     2
  9
$DIMALTTD
 70
     2
  9
$DIMTXSTY
  7
STANDARD
  9
$DIMAUNIT
 70
     0
  9
$DIMADEC
 70
     0
  9
$DIMALTRND
 40
0.0
  9
$DIMAZIN
 70
     2
  9
$DIMDSEP
 70
    46
  9
$DIMATFIT
 70
     3
  9
$DIMFRAC
 70
     0
  9
$DIMLDRBLK
  1

  9
$DIMLUNIT
 70
     2
  9
$DIMLWD
 70
    -1
  9
$DIMLWE
 70
    -1
  9
$DIMTMOVE
 70
     0
  9
$LUNITS
 70
     2
  9
$LUPREC
 70
     2
  9
$SKETCHINC
 40
1.0
  9
$FILLETRAD
 40
2.5
  9
$AUNITS
 70
     0
  9
$AUPREC
 70
     0
  9
$MENU
  1
.
  9
$ELEVATION
 40
0.0
  9
$PELEVATION
 40
0.0
  9
$THICKNESS
 40
0.0
  9
$LIMCHECK
 70
     0
  9
$CHAMFERA
 40
2.5
  9
$CHAMFERB
 40
2.5
  9
$CHAMFERC
 40
20.0
  9
$CHAMFERD
 40
0.0
  9
$SKPOLY
 70
     0
  9
$TDCREATE
 40
2454098.708838426
  9
$TDUCREATE
 40
2454098.375505093
  9
$TDUPDATE
 40
2454789.568428264
  9
$TDUUPDATE
 40
2454789.235094930
  9
$TDINDWG
 40
0.4428067824
  9
$TDUSRTIMER
 40
0.4428067824
  9
$USRTIMER
 70
     1
  9
$ANGBASE
 50
0.0
  9
$ANGDIR
 70
     0
  9
$PDMODE
 70
     0
  9
$PDSIZE
 40
0.0
  9
$PLINEWID
 40
0.0
  9
$SPLFRAME
 70
     0
  9
$SPLINETYPE
 70
     6
  9
$SPLINESEGS
 70
     8
  9
$HANDSEED
  5
867A
  9
$SURFTAB1
 70
     6
  9
$SURFTAB2
 70
     6
  9
$SURFTYPE
 70
     6
  9
$SURFU
 70
     6
  9
$SURFV
 70
     6
  9
$UCSBASE
  2

  9
$UCSNAME
  2

  9
$UCSORG
 10
0.0
 20
0.0
 30
0.0
  9
$UCSXDIR
 10
1.0
 20
0.0
 30
0.0
  9
$UCSYDIR
 10
0.0
 20
1.0
 30
0.0
  9
$UCSORTHOREF
  2

  9
$UCSORTHOVIEW
 70
     0
  9
$UCSORGTOP
 10
0.0
 20
0.0
 30
0.0
  9
$UCSORGBOTTOM
 10
0.0
 20
0.0
 30
0.0
  9
$UCSORGLEFT
 10
0.0
 20
0.0
 30
0.0
  9
$UCSORGRIGHT
 10
0.0
 20
0.0
 30
0.0
  9
$UCSORGFRONT
 10
0.0
 20
0.0
 30
0.0
  9
$UCSORGBACK
 10
0.0
 20
0.0
 30
0.0
  9
$PUCSBASE
  2

  9
$PUCSNAME
  2

  9
$PUCSORG
 10
0.0
 20
0.0
 30
0.0
  9
$PUCSXDIR
 10
1.0
 20
0.0
 30
0.0
  9
$PUCSYDIR
 10
0.0
 20
1.0
 30
0.0
  9
$PUCSORTHOREF
  2

  9
$PUCSORTHOVIEW
 70
     0
  9
$PUCSORGTOP
 10
0.0
 20
0.0
 30
0.0
  9
$PUCSORGBOTTOM
 10
0.0
 20
0.0
 30
0.0
  9
$PUCSORGLEFT
 10
0.0
 20
0.0
 30
0.0
  9
$PUCSORGRIGHT
 10
0.0
 20
0.0
 30
0.0
  9
$PUCSORGFRONT
 10
0.0
 20
0.0
 30
0.0
  9
$PUCSORGBACK
 10
0.0
 20
0.0
 30
0.0
  9
$USERI1
 70
     0
  9
$USERI2
 70
     0
  9
$USERI3
 70
     0
  9
$USERI4
 70
     0
  9
$USERI5
 70
     0
  9
$USERR1
 40
0.0
  9
$USERR2
 40
0.0
  9
$USERR3
 40
0.0
  9
$USERR4
 40
0.0
  9
$USERR5
 40
0.0
  9
$WORLDVIEW
 70
     1
  9
$SHADEDGE
 70
     3
  9
$SHADEDIF
 70
    70
  9
$TILEMODE
 70
     1
  9
$MAXACTVP
 70
    64
  9
$PINSBASE
 10
0.0
 20
0.0
 30
0.0
  9
$PLIMCHECK
 70
     0
  9
$PEXTMIN
 10
1.000000000000000E+20
 20
1.000000000000000E+20
 30
1.000000000000000E+20
  9
$PEXTMAX
 10
-1.000000000000000E+20
 20
-1.000000000000000E+20
 30
-1.000000000000000E+20
  9
$PLIMMIN
 10
0.0
 20
0.0
  9
$PLIMMAX
 10
420.0
 20
297.0
  9
$UNITMODE
 70
     0
  9
$VISRETAIN
 70
     1
  9
$PLINEGEN
 70
     0
  9
$PSLTSCALE
 70
     1
  9
$TREEDEPTH
 70
  3020
  9
$CMLSTYLE
  2
Standard
  9
$CMLJUST
 70
     0
  9
$CMLSCALE
 40
20.0
  9
$PROXYGRAPHICS
 70
     1
  9
$MEASUREMENT
 70
     1
  9
$CELWEIGHT
370
    -1
  9
$ENDCAPS
280
     0
  9
$JOINSTYLE
280
     0
  9
$LWDISPLAY
290
     0
  9
$INSUNITS
 70
     4
  9
$HYPERLINKBASE
  1

  9
$STYLESHEET
  1
acad.ctb
  9
$XEDIT
290
     1
  9
$CEPSNTYPE
380
     0
  9
$PSTYLEMODE
290
     1
  9
$FINGERPRINTGUID
  2
{7A381171-16FB-4E44-972A-3DD660A2669C}
  9
$VERSIONGUID
  2
{3DFD4099-0A6E-4EB3-B48B-FCC020168010}
  9
$EXTNAMES
290
     1
  9
$PSVPSCALE
 40
0.0
  9
$OLESTARTUP
290
     0
  0
ENDSEC
  0
SECTION
  2
CLASSES
  0
CLASS
  1
ACDBDICTIONARYWDFLT
  2
AcDbDictionaryWithDefault
  3
ObjectDBX Classes
 90
        0
280
     0
281
     0
  0
CLASS
  1
ACDBPLACEHOLDER
  2
AcDbPlaceHolder
  3
ObjectDBX Classes
 90
        0
280
     0
281
     0
  0
CLASS
  1
LAYOUT
  2
AcDbLayout
  3
ObjectDBX Classes
 90
        0
280
     0
281
     0
  0
CLASS
  1
ACME_DOCUMENT
  2
AcMeDbDoc
  3
AcMeServices
 90
        0
280
     0
281
     0
  0
CLASS
  1
AMGSETTINGSOBJ
  2
AmgSettingsObj
  3
"AcadM|Product Description: AutoCAD Mechanical 2000|Company: Autodesk"
 90
        0
280
     0
281
     0
  0
CLASS
  1
ACMESCOPE
  2
AcMeScope
  3
AcMeServices
 90
        0
280
     0
281
     0
  0
CLASS
  1
ACMECOMMANDHISTORY
  2
AcMeCommandHistory
  3
AcMeServices
 90
        0
280
     0
281
     0
  0
CLASS
  1
ACIMSYSVARMAN
  2
AcImSysVarManager
  3
AcMeServices
 90
        0
280
     0
281
     0
  0
CLASS
  1
ACIMREALSYSVAR
  2
AcImRealSysVar
  3
AcMeServices
 90
        0
280
     0
281
     0
  0
CLASS
  1
ACIMINTSYSVAR
  2
AcImIntSysVar
  3
AcMeServices
 90
        0
280
     0
281
     0
  0
CLASS
  1
ACMEDRAWINGMAN
  2
AcMeDrawingMan
  3
AcMeServices
 90
        0
280
     0
281
     0
  0
CLASS
  1
ACMEVIEW
  2
AcMeView
  3
AcMeServices
 90
        0
280
     0
281
     0
  0
CLASS
  1
ACDBENTITYCACHE
  2
AcMeEntityCache
  3
AcMeServices
 90
        0
280
     0
281
     0
  0
CLASS
  1
GSMANAGER
  2
AcMeGSManager
  3
AcMeServices
 90
        0
280
     0
281
     0
  0
CLASS
  1
AMDTINTERNALREACTOR
  2
AmdtInternalReactor
  3
AcMeServices
 90
        0
280
     0
281
     0
  0
CLASS
  1
ACMESTATEMGR
  2
AcMeStateMgr
  3
AcMeServices
 90
        0
280
     0
281
     0
  0
CLASS
  1
ACGREFMASTER
  2
AcGrefMaster
  3
AcAttribServices
 90
        0
280
     0
281
     0
  0
CLASS
  1
ACME_DATABASE
  2
AcMeDbDatabase
  3
AcMeServices
 90
        0
280
     0
281
     0
  0
CLASS
  1
ACRFINSADJUSTERMGR
  2
AcRfInsAdjusterMgr
  3
AcMeServices
 90
        0
280
     0
281
     0
  0
CLASS
  1
ACGREFACADMASTER
  2
AcGrefacadMaster
  3
AcGrefServices
 90
        0
280
     0
281
     0
  0
CLASS
  1
AMIMASTER
  2
AmiMaster
  3
AmiServices
 90
        0
280
     0
281
     0
  0
CLASS
  1
ACMDATADICTIONARY
  2
AcmDataDictionary
  3
"AcmSymBB|Product Description: AutoCAD Mechanical 2004 DX|Company: Autodesk"
 90
        0
280
     0
281
     0
  0
CLASS
  1
ACMDATAENTRYBLOCK
  2
AcmDataEntryBlock
  3
"AcmSymBB|Product Description: AutoCAD Mechanical 2004 DX|Company: Autodesk"
 90
    32768
280
     0
281
     0
  0
CLASS
  1
ACIMSTRSYSVAR
  2
AcImStrSysVar
  3
AcMeServices
 90
        0
280
     0
281
     0
  0
CLASS
  1
ACMSTANDARDISO
  2
AcmStandardISO
  3
"Amdt_StdImp|Product Description: AutoCAD Mechanical 2004 DX|Company: Autodesk"
 90
        0
280
     0
281
     0
  0
CLASS
  1
AMGOBJPROPCFG
  2
AmgObjPropCfg
  3
"AmgLay|Product Description: AutoCAD Mechanical 2000|Company: Autodesk"
 90
        1
280
     0
281
     0
  0
CLASS
  1
AMDTEDGESTANDARDISO
  2
AmdtEdgeStdISO
  3
"Amdt_StdImp|Product Description: AutoCAD Mechanical 2004 DX|Company: Autodesk"
 90
    32768
280
     0
281
     0
  0
CLASS
  1
ACMSURFSTANDARDISO
  2
AcmSurfTextStdISO
  3
"Amdt_StdImp|Product Description: AutoCAD Mechanical 2004 DX|Company: Autodesk"
 90
        0
280
     0
281
     0
  0
CLASS
  1
ACMFCFSTANDARDISO
  2
AcmFCFStdISO
  3
"Amdt_StdImp|Product Description: AutoCAD Mechanical 2004 DX|Company: Autodesk"
 90
        0
280
     0
281
     0
  0
CLASS
  1
ACMWELDSTANDARDISO
  2
AcmWeldingStdISO
  3
"Amdt_StdImp|Product Description: AutoCAD Mechanical 2004 DX|Company: Autodesk"
 90
        0
280
     0
281
     0
  0
CLASS
  1
ACMIDSTANDARDISO
  2
AcmIdStdISO
  3
"Amdt_StdImp|Product Description: AutoCAD Mechanical 2004 DX|Company: Autodesk"
 90
        0
280
     0
281
     0
  0
CLASS
  1
ACMDATUMSTANDARDISO
  2
AcmDatumStdISO
  3
"Amdt_StdImp|Product Description: AutoCAD Mechanical 2004 DX|Company: Autodesk"
 90
        0
280
     0
281
     0
  0
CLASS
  1
ACMBOMSTANDARDISO
  2
AcmBOMStdISO
  3
"Amdt_StdImp|Product Description: AutoCAD Mechanical 2004 DX|Company: Autodesk"
 90
        0
280
     0
281
     0
  0
CLASS
  1
ACMDETAILSTANDARDISO
  2
AmdtDetailSymStdISO
  3
"Amdt_StdImp|Product Description: AutoCAD Mechanical 2004 DX|Company: Autodesk"
 90
        0
280
     0
281
     0
  0
CLASS
  1
ACMSECTIONSTANDARDISO
  2
AmdtSectionSymStdISO
  3
"Amdt_StdImp|Product Description: AutoCAD Mechanical 2004 DX|Company: Autodesk"
 90
        0
280
     0
281
     0
  0
CLASS
  1
ACMCENTERLINESTANDARDISO
  2
AmdtCenterLineStdISO
  3
"Amdt_StdImp|Product Description: AutoCAD Mechanical 2004 DX|Company: Autodesk"
 90
        0
280
     0
281
     0
  0
CLASS
  1
ACMNOTESTANDARDISO
  2
AmdtNoteStdISO
  3
"Amdt_StdImp|Product Description: AutoCAD Mechanical 2004 DX|Company: Autodesk"
 90
        0
280
     0
281
     0
  0
CLASS
  1
ACAMGLAYSTD
  2
AcAmgLayStd
  3
"AcAmgLayStd|Product Description: AutoCAD Mechanical 2000|Company: Autodesk"
 90
        0
280
     0
281
     0
  0
CLASS
  1
ACAMGDIMSTD
  2
AcAmgDimStd
  3
"AcAmgDimStd|Product Description: AutoCAD Mechanical 2000|Company: Autodesk"
 90
        0
280
     0
281
     0
  0
CLASS
  1
ACAMGHOLECHARTSTDISO
  2
AcAmgHoleChartStdISO
  3
ACMSYMBB_MODULE_NAME
 90
        0
280
     0
281
     0
  0
CLASS
  1
ACAMGTITLESTD
  2
AcAmgTitleStd
  3
"TITLEAPP"
 90
        0
280
     0
281
     0
  0
CLASS
  1
LAYER_INDEX
  2
AcDbLayerIndex
  3
ObjectDBX Classes
 90
    32768
280
     0
281
     0
  0
CLASS
  1
IDBUFFER
  2
AcDbIdBuffer
  3
ObjectDBX Classes
 90
    32768
280
     0
281
     0
  0
CLASS
  1
DICTIONARYVAR
  2
AcDbDictionaryVar
  3
ObjectDBX Classes
 90
        0
280
     0
281
     0
  0
CLASS
  1
AM_DRAWING_MGR
  2
AcDmDwgMgr
  3
AcMechDwgViewMgmt
 90
        0
280
     0
281
     0
  0
CLASS
  1
AM_DWG_DOCUMENT
  2
AcDmDwgDocument
  3
AcMechDwgViewMgmt
 90
        0
280
     0
281
     0
  0
CLASS
  1
AM_DWG_SHEET
  2
AcDmSheet
  3
AcMechDwgViewMgmt
 90
        0
280
     0
281
     0
  0
CLASS
  1
AM_VIEWDIMPARMAP
  2
AcDmViewDimParMap
  3
AcMechDwgViewMgmt
 90
        0
280
     0
281
     0
  0
CLASS
  1
AM_DWGMGR_NAME
  2
AcDmDwgMgrName
  3
AcMechDwgViewMgmt
 90
        0
280
     0
281
     0
  0
CLASS
  1
AMDTMENUSTATEMGR
  2
AmdtMenuStateMgr
  3
McadcomServices
 90
        0
280
     0
281
     0
  0
CLASS
  1
AMDTMCOMMENUSTATE
  2
AmdtMcomMenuState
  3
McadcomServices
 90
        0
280
     0
281
     0
  0
CLASS
  1
MAPIAMMOUDLE
  2
MApiAmModule
  3
MApiAmServices
 90
        0
280
     0
281
     0
  0
CLASS
  1
AMDTADMENUSTATE
  2
AmdtAdMenuState
  3
DesignerServices
 90
        0
280
     0
281
     0
  0
CLASS
  1
ADAPPL
  2
AcAdAppl
  3
DesignerServices
 90
        0
280
     0
281
     0
  0
CLASS
  1
DEPMGR
  2
AcAdDepMgr
  3
DesignerServices
 90
        0
280
     0
281
     0
  0
CLASS
  1
PARAMMGR
  2
AcAdParamMgr
  3
DesignerServices
 90
        0
280
     0
281
     0
  0
CLASS
  1
PARAMSCOPE
  2
AcAdParamScope
  3
DesignerServices
 90
        0
280
     0
281
     0
  0
CLASS
  1
NAMEDAPPL
  2
AcAdNamedAppl
  3
DesignerServices
 90
        0
280
     0
281
     0
  0
CLASS
  1
AMDTDMMENUSTATE
  2
AmdtDmMenuState
  3
AcMechDwgViewMgmt
 90
        0
280
     0
281
     0
  0
CLASS
  1
AMDTAMMENUSTATE
  2
AmdtAmMenuState
  3
DesignerAssemblies
 90
        0
280
     0
281
     0
  0
CLASS
  1
ACAMPROJECT
  2
AcAmProject
  3
DesignerAssemblies
 90
        0
280
     0
281
     0
  0
CLASS
  1
ACAMGRCOMPDEF
  2
AcAmGrCompDef
  3
DesignerAssemblies
 90
        0
280
     0
281
     0
  0
CLASS
  1
ACCMCONTEXT
  2
AcCmContext
  3
DesignerAssemblies
 90
        0
280
     0
281
     0
  0
CLASS
  1
ACAMCOMPDEF
  2
AcAmCompDef
  3
DesignerAssemblies
 90
        0
280
     0
281
     0
  0
CLASS
  1
ACAMCOMPDEFMGR
  2
AcAmCompDefMgr
  3
DesignerAssemblies
 90
        0
280
     0
281
     0
  0
CLASS
  1
AMCONTEXTMGR
  2
AcAmContextMgr
  3
DesignerAssemblies
 90
        0
280
     0
281
     0
  0
CLASS
  1
ACAMCONTEXTMODELER
  2
AcAmContextModeler
  3
DesignerAssemblies
 90
        0
280
     0
281
     0
  0
CLASS
  1
ACMTHREADLINESTANDARDISO
  2
AmdtThreadLineStdISO
  3
"Amdt_StdImp|Product Description: AutoCAD Mechanical 2004 DX|Company: Autodesk"
 90
        0
280
     0
281
     0
  0
CLASS
  1
CATALOGSTATE
  2
AcAmCatalogState
  3
DesignerAssemblies
 90
        0
280
     0
281
     0
  0
CLASS
  1
ACAMGRCOMPDEFSET
  2
AcAmGrCompDefSet
  3
DesignerAssemblies
 90
        0
280
     0
281
     0
  0
CLASS
  1
AMDTBROWSERDBTAB
  2
AmdtBrowserDbTab
  3
McadcomServices
 90
        0
280
     0
281
     0
  0
CLASS
  1
CBROWSERAPPOBJECT
  2
CBrowserAppObject
  3
McadcomServices
 90
        0
280
     0
281
     0
  0
CLASS
  1
DM_PLACEHOLDER
  2
AcDmSelsetPlaceholder
  3
AcMechDwgViewMgmt
 90
        0
280
     0
281
     0
  0
CLASS
  1
TABLESTYLE
  2
AcDbTableStyle
  3
ObjectDBX Classes
 90
     2047
280
     0
281
     0
  0
CLASS
  1
VAACXREFPANELOBJECT
  2
VaAcXREFPanelObject
  3
VAAC_ADDIN
 90
    32768
280
     0
281
     0
  0
CLASS
  1
VAACIMAGEINVENTORY
  2
VaAcImageInventory
  3
VAAC_ADDIN
 90
    32768
280
     0
281
     0
  0
CLASS
  1
AMDTNOTETEMPLATEDB
  2
AmdtNoteTemplateDB
  3
AMDT_STDIMP_MODULE_NAME
 90
        0
280
     0
281
     0
  0
CLASS
  1
ACMBOM
  2
AcmBom
  3
"AcmSymBB|Product Description: AutoCAD Mechanical 2004 DX|Company: Autodesk"
 90
    32768
280
     0
281
     0
  0
CLASS
  1
AMDTFORMULAUPDATEDISPATCHER
  2
AmdtFormulaUpdateDispatcher
  3
AcMeServices
 90
    32768
280
     0
281
     0
  0
CLASS
  1
ACMPARTLIST
  2
AcmPartList
  3
"AcmSymBB|Product Description: AutoCAD Mechanical 2004 DX|Company: Autodesk"
 90
    33791
280
     0
281
     1
  0
CLASS
  1
ACAMGFILTERDAT
  2
AcAmgFilterDat
  3
"AcadM|Product Description: AutoCAD Mechanical 2000|Company: Autodesk"
 90
    32768
280
     0
281
     0
  0
CLASS
  1
DIMASSOC
  2
AcDbDimAssoc
  3
"AcDbDimAssoc|Product Desc:     AcDim ARX App For Dimension|Company:          Autodesk, Inc.|WEB Address:      www.autodesk.com"
 90
        0
280
     0
281
     0
  0
CLASS
  1
SORTENTSTABLE
  2
AcDbSortentsTable
  3
ObjectDBX Classes
 90
    32768
280
     0
281
     0
  0
CLASS
  1
AMDTNOTE
  2
AmdtNote
  3
"AcmSymBB|Product Description: AutoCAD Mechanical 2004 DX|Company: Autodesk"
 90
    33791
280
     0
281
     1
  0
CLASS
  1
ACMSTANDARDANSI
  2
AcmStandardANSI
  3
"Amdt_StdImp|Product Description: AutoCAD Mechanical 2004 DX|Company: Autodesk"
 90
    32768
280
     0
281
     0
  0
CLASS
  1
ACMSURFSTANDARDANSI
  2
AcmSurfTextStdANSI
  3
"Amdt_StdImp|Product Description: AutoCAD Mechanical 2004 DX|Company: Autodesk"
 90
    32768
280
     0
281
     0
  0
CLASS
  1
ACMFCFSTANDARDANSI
  2
AcmFCFStdANSI
  3
"Amdt_StdImp|Product Description: AutoCAD Mechanical 2004 DX|Company: Autodesk"
 90
    32768
280
     0
281
     0
  0
CLASS
  1
ACMWELDSTANDARDANSI
  2
AcmWeldingStdANSI
  3
"Amdt_StdImp|Product Description: AutoCAD Mechanical 2004 DX|Company: Autodesk"
 90
    32768
280
     0
281
     0
  0
CLASS
  1
ACMIDSTANDARDANSI
  2
AcmIdStdANSI
  3
"Amdt_StdImp|Product Description: AutoCAD Mechanical 2004 DX|Company: Autodesk"
 90
    32768
280
     0
281
     0
  0
CLASS
  1
ACMDATUMSTANDARDANSI
  2
AcmDatumStdANSI
  3
"Amdt_StdImp|Product Description: AutoCAD Mechanical 2004 DX|Company: Autodesk"
 90
    32768
280
     0
281
     0
  0
CLASS
  1
ACMBOMSTANDARDANSI
  2
AcmBOMStdANSI
  3
"Amdt_StdImp|Product Description: AutoCAD Mechanical 2004 DX|Company: Autodesk"
 90
    32768
280
     0
281
     0
  0
CLASS
  1
ACMDETAILSTANDARDANSI
  2
AmdtDetailSymStdANSI
  3
"Amdt_StdImp|Product Description: AutoCAD Mechanical 2004 DX|Company: Autodesk"
 90
    32768
280
     0
281
     0
  0
CLASS
  1
ACMSECTIONSTANDARDANSI
  2
AmdtSectionSymStdANSI
  3
"Amdt_StdImp|Product Description: AutoCAD Mechanical 2004 DX|Company: Autodesk"
 90
    32768
280
     0
281
     0
  0
CLASS
  1
ACMCENTERLINESTANDARDANSI
  2
AmdtCenterLineStdANSI
  3
"Amdt_StdImp|Product Description: AutoCAD Mechanical 2004 DX|Company: Autodesk"
 90
    32768
280
     0
281
     0
  0
CLASS
  1
ACMNOTESTANDARDANSI
  2
AmdtNoteStdANSI
  3
"Amdt_StdImp|Product Description: AutoCAD Mechanical 2004 DX|Company: Autodesk"
 90
    32768
280
     0
281
     0
  0
CLASS
  1
ACAMGHOLECHARTSTDANSI
  2
AcAmgHoleChartStdANSI
  3
ACMSYMBB_MODULE_NAME
 90
    32768
280
     0
281
     0
  0
CLASS
  1
ACMTHREADLINESTANDARDANSI
  2
AmdtThreadLineStdANSI
  3
"Amdt_StdImp|Product Description: AutoCAD Mechanical 2004 DX|Company: Autodesk"
 90
    32768
280
     0
281
     0
  0
CLASS
  1
AMDTEDGESTANDARDISO13715
  2
AmdtEdgeStdISO13715
  3
"Amdt_StdImp|Product Description: AutoCAD Mechanical 2004 DX|Company: Autodesk"
 90
        0
280
     0
281
     0
  0
CLASS
  1
ACRFATTGENMGR
  2
AcRfAttGeneralMgr
  3
AcAttribServices
 90
        0
280
     0
281
     0
  0
ENDSEC
  0
SECTION
  2
TABLES
  0
TABLE
  2
VPORT
  5
8
330
0
100
AcDbSymbolTable
 70
     4
  0
VPORT
  5
8671
330
8
100
AcDbSymbolTableRecord
100
AcDbViewportTableRecord
  2
*Active
 70
     0
 10
0.0
 20
0.0
 11
1.0
 21
1.0
 12
914.4276671732262
 22
676.2902007137317
 13
0.0
 23
0.0
 14
2.5
 24
2.5
 15
10.0
 25
10.0
 16
0.0
 26
0.0
 36
1.0
 17
0.0
 27
0.0
 37
0.0
 40
279.0208830665824
 41
1.283837056504599
 42
50.0
 43
0.0
 44
0.0
 50
0.0
 51
0.0
 71
     0
 72
   100
 73
     1
 74
     3
 75
     0
 76
     0
 77
     0
 78
     0
281
     0
 65
     1
110
0.0
120
0.0
130
0.0
111
1.0
121
0.0
131
0.0
112
0.0
122
1.0
132
0.0
 79
     0
146
0.0
  0
ENDTAB
  0
TABLE
  2
LTYPE
  5
5
330
0
100
AcDbSymbolTable
 70
    16
  0
LTYPE
  5
14
330
5
100
AcDbSymbolTableRecord
100
AcDbLinetypeTableRecord
  2
ByBlock
 70
     0
  3

 72
    65
 73
     0
 40
0.0
  0
LTYPE
  5
15
330
5
100
AcDbSymbolTableRecord
100
AcDbLinetypeTableRecord
  2
ByLayer
 70
     0
  3

 72
    65
 73
     0
 40
0.0
  0
LTYPE
  5
16
330
5
100
AcDbSymbolTableRecord
100
AcDbLinetypeTableRecord
  2
Continuous
 70
     0
  3
Solid line
 72
    65
 73
     0
 40
0.0
  0
LTYPE
  5
64
330
5
100
AcDbSymbolTableRecord
100
AcDbLinetypeTableRecord
  2
AM_ISO02W050
 70
     0
  3
__ __ __ __ __ __ __ __ __ __ __ __ __ __ __
 72
    65
 73
     2
 40
7.5
 49
6.0
 74
     0
 49
-1.5
 74
     0
  0
LTYPE
  5
65
330
5
100
AcDbSymbolTableRecord
100
AcDbLinetypeTableRecord
  2
AM_ISO08W050
 70
     0
  3
____ . ____ . ____ . ____ . ____ . ____ . ____
 72
    65
 73
     4
 40
18.0
 49
12.0
 74
     0
 49
-1.5
 74
     0
 49
3.0
 74
     0
 49
-1.5
 74
     0
  0
LTYPE
  5
66
330
5
100
AcDbSymbolTableRecord
100
AcDbLinetypeTableRecord
  2
AM_ISO09W050
 70
     0
  3
_____ . . _____ . . _____ . . ____ .. ____
 72
    65
 73
     6
 40
22.5
 49
12.0
 74
     0
 49
-1.5
 74
     0
 49
3.0
 74
     0
 49
-1.5
 74
     0
 49
3.0
 74
     0
 49
-1.5
 74
     0
  0
LTYPE
  5
67
330
5
100
AcDbSymbolTableRecord
100
AcDbLinetypeTableRecord
  2
Amconstr
 70
     0
  3
_______________________
 72
    65
 73
     2
 40
9999.0
 49
9999.0
 74
     0
 49
0.0
 74
     0
  0
LTYPE
  5
68
330
5
100
AcDbSymbolTableRecord
100
AcDbLinetypeTableRecord
  2
AM_ISO08W050x2
 70
     0
  3
__ . __ . __ . __ . __ . __
 72
    65
 73
     4
 40
9.0
 49
6.0
 74
     0
 49
-0.75
 74
     0
 49
1.5
 74
     0
 49
-0.75
 74
     0
  0
LTYPE
  5
69
330
5
100
AcDbSymbolTableRecord
100
AcDbLinetypeTableRecord
  2
AM_ISO02W050x2
 70
     0
  3
 _ _ _ _ _ _ _ _ _ _ _ _
 72
    65
 73
     2
 40
3.75
 49
3.0
 74
     0
 49
-0.75
 74
     0
  0
LTYPE
  5
6C
330
5
100
AcDbSymbolTableRecord
100
AcDbLinetypeTableRecord
  2
Amzigzag
 70
     0
  3
/\/-/\/-/\/-/\/-/\/-/\/
 72
    65
 73
     2
 40
11.0001
 49
0.0001
 74
     4
 75
   135
340
6B
 46
0.04
 50
0.0
 44
0.0
 45
0.0
 49
-11.0
 74
     0
  0
LTYPE
  5
7A
330
5
100
AcDbSymbolTableRecord
100
AcDbLinetypeTableRecord
  2
ACISOWELD
 70
     0
  3
_ _ _ _ _
 72
    65
 73
     2
 40
2.0
 49
2.0
 74
     0
 49
-1.0
 74
     0
  0
LTYPE
  5
7B
330
5
100
AcDbSymbolTableRecord
100
AcDbLinetypeTableRecord
  2
ACISOTGB
 70
     0
  3
__ . . __ . .
 72
    65
 73
     6
 40
9.0
 49
4.0
 74
     0
 49
-1.0
 74
     0
 49
1.0
 74
     0
 49
-1.0
 74
     0
 49
1.0
 74
     0
 49
-1.0
 74
     0
  0
LTYPE
  5
7C
330
5
100
AcDbSymbolTableRecord
100
AcDbLinetypeTableRecord
  2
ACISOTGL
 70
     0
  3
_ _ _ _ _
 72
    65
 73
     2
 40
3.0
 49
2.0
 74
     0
 49
-1.0
 74
     0
  0
LTYPE
  5
7E
330
5
100
AcDbSymbolTableRecord
100
AcDbLinetypeTableRecord
  2
CENTER
 70
     0
  3
__ . __
 72
    65
 73
     4
 40
7.0
 49
4.0
 74
     0
 49
-1.0
 74
     0
 49
1.0
 74
     0
 49
-1.0
 74
     0
  0
LTYPE
  5
D8
330
5
100
AcDbSymbolTableRecord
100
AcDbLinetypeTableRecord
  2
HIDDEN
 70
     0
  3
Hidden __ __ __ __ __ __ __ __ __ __ __ __ __ _
 72
    65
 73
     2
 40
9.524999999999998
 49
6.349999999999999
 74
     0
 49
-3.174999999999999
 74
     0
  0
LTYPE
  5
D9
330
5
100
AcDbSymbolTableRecord
100
AcDbLinetypeTableRecord
  2
PHANTOM2
 70
     0
  3
Phantom (.5x) ___ _ _ ___ _ _ ___ _ _ ___ _ _
 72
    65
 73
     6
 40
31.75
 49
15.875
 74
     0
 49
-3.174999999999999
 74
     0
 49
3.174999999999999
 74
     0
 49
-3.174999999999999
 74
     0
 49
3.174999999999999
 74
     0
 49
-3.174999999999999
 74
     0
  0
ENDTAB
  0
TABLE
  2
LAYER
  5
2
102
{ACAD_XDICTIONARY
360
3F9
102
}
330
0
100
AcDbSymbolTable
 70
     8
  0
LAYER
  5
10
330
2
100
AcDbSymbolTableRecord
100
AcDbLayerTableRecord
  2
0
 70
     0
 62
     7
  6
Continuous
370
    -3
390
F
  0
LAYER
  5
A8E
330
2
100
AcDbSymbolTableRecord
100
AcDbLayerTableRecord
  2
AM_VIS
 70
     0
 62
     7
  6
Continuous
370
    50
390
F
  0
LAYER
  5
A8F
330
2
100
AcDbSymbolTableRecord
100
AcDbLayerTableRecord
  2
AM_7
 70
     0
 62
     1
  6
CENTER
370
    25
390
F
  0
LAYER
  5
33A3
330
2
100
AcDbSymbolTableRecord
100
AcDbLayerTableRecord
  2
AM_5
 70
     0
 62
     5
  6
Continuous
370
    50
390
F
  0
LAYER
  5
33B7
330
2
100
AcDbSymbolTableRecord
100
AcDbLayerTableRecord
  2
Defpoints
 70
     0
 62
     7
  6
Continuous
290
     0
370
    -3
390
F
  0
LAYER
  5
6295
330
2
100
AcDbSymbolTableRecord
100
AcDbLayerTableRecord
  2
AM_0
 70
     0
 62
     7
  6
Continuous
370
    50
390
F
  0
LAYER
  5
82E3
330
2
100
AcDbSymbolTableRecord
100
AcDbLayerTableRecord
  2
LOGO
 70
     0
 62
     7
  6
Continuous
370
    -3
390
F
  0
LAYER
  5
8507
330
2
100
AcDbSymbolTableRecord
100
AcDbLayerTableRecord
  2
AM_HID
 70
     0
 62
     7
  6
AM_ISO02W050
370
    25
390
F
  0
ENDTAB
  0
TABLE
  2
STYLE
  5
3
330
0
100
AcDbSymbolTable
 70
     8
  0
STYLE
  5
11
330
3
100
AcDbSymbolTableRecord
100
AcDbTextStyleTableRecord
  2
STANDARD
 70
     0
 40
0.0
 41
1.0
 50
0.0
 71
     0
 42
3.0
  3
ISOCP.SHX
  4
CHINESET.SHX
  0
STYLE
  5
6B
330
3
100
AcDbSymbolTableRecord
100
AcDbTextStyleTableRecord
  2

 70
     1
 40
0.0
 41
1.0
 50
0.0
 71
     0
 42
2.5
  3
ltypeshp.shx
  4

  0
STYLE
  5
6D
330
3
100
AcDbSymbolTableRecord
100
AcDbTextStyleTableRecord
  2
ACISOTS
 70
     0
 40
1.0
 41
1.0
 50
0.0
 71
     0
 42
1.0
  3
isocp.shx
  4
chineset.shx
  0
STYLE
  5
79
330
3
100
AcDbSymbolTableRecord
100
AcDbTextStyleTableRecord
  2
ACISOGDT
 70
     0
 40
0.0
 41
1.0
 50
0.0
 71
     0
 42
2.5
  3
amgdt.shx
  4
chineset.shx
  0
STYLE
  5
82E4
330
3
100
AcDbSymbolTableRecord
100
AcDbTextStyleTableRecord
  2
CHINESET
 70
     0
 40
0.0
 41
1.0
 50
0.0
 71
     0
 42
3.0
  3
simplex.shx
  4
CHINESET.SHX
  0
ENDTAB
  0
TABLE
  2
VIEW
  5
6
330
0
100
AcDbSymbolTable
 70
     0
  0
ENDTAB
  0
TABLE
  2
UCS
  5
7
330
0
100
AcDbSymbolTable
 70
     0
  0
ENDTAB
  0
TABLE
  2
APPID
  5
9
330
0
100
AcDbSymbolTable
 70
    23
  0
APPID
  5
12
330
9
100
AcDbSymbolTableRecord
100
AcDbRegAppTableRecord
  2
ACAD
 70
     0
  0
APPID
  5
46
330
9
100
AcDbSymbolTableRecord
100
AcDbRegAppTableRecord
  2
MCAD_NO_VIS
 70
     0
  0
APPID
  5
47
330
9
100
AcDbSymbolTableRecord
100
AcDbRegAppTableRecord
  2
ACAD_TEMP_GRAPHIC
 70
     0
  0
APPID
  5
58
330
9
100
AcDbSymbolTableRecord
100
AcDbRegAppTableRecord
  2
ACATTRIBSERVICES
 70
     0
  0
APPID
  5
EE
330
9
100
AcDbSymbolTableRecord
100
AcDbRegAppTableRecord
  2
AD_DRAW
 70
     0
  0
APPID
  5
10C
330
9
100
AcDbSymbolTableRecord
100
AcDbRegAppTableRecord
  2
DESIGNERASSEMBLIES
 70
     0
  0
APPID
  5
111
330
9
100
AcDbSymbolTableRecord
100
AcDbRegAppTableRecord
  2
ACADM_DIM_EDIT
 70
     0
  0
APPID
  5
112
330
9
100
AcDbSymbolTableRecord
100
AcDbRegAppTableRecord
  2
AMDT_DM_ADJ
 70
     0
  0
APPID
  5
22C
330
9
100
AcDbSymbolTableRecord
100
AcDbRegAppTableRecord
  2
ACAD_DSTYLE_DIMTEXT_FILL
 70
     0
  0
APPID
  5
452
330
9
100
AcDbSymbolTableRecord
100
AcDbRegAppTableRecord
  2
GENIUS_GENOENT_13
 70
     0
  0
APPID
  5
453
330
9
100
AcDbSymbolTableRecord
100
AcDbRegAppTableRecord
  2
GENIUS_GENOBJ-N-CRS_13
 70
     0
  0
APPID
  5
454
330
9
100
AcDbSymbolTableRecord
100
AcDbRegAppTableRecord
  2
GENIUS_GENOLIS_13
 70
     0
  0
APPID
  5
455
330
9
100
AcDbSymbolTableRecord
100
AcDbRegAppTableRecord
  2
GENIUS_GENODEF_13
 70
     0
  0
APPID
  5
456
330
9
100
AcDbSymbolTableRecord
100
AcDbRegAppTableRecord
  2
GENIUS_GENOREF_13
 70
     0
  0
APPID
  5
6F3
330
9
100
AcDbSymbolTableRecord
100
AcDbRegAppTableRecord
  2
ACAD_PSEXT
 70
     0
  0
APPID
  5
808
330
9
100
AcDbSymbolTableRecord
100
AcDbRegAppTableRecord
  2
GENIUS_GENDTOL_13
 70
     0
  0
APPID
  5
17FF
330
9
100
AcDbSymbolTableRecord
100
AcDbRegAppTableRecord
  2
GENIUS_GENOBJ-N-CEN_13
 70
     0
  0
APPID
  5
1800
330
9
100
AcDbSymbolTableRecord
100
AcDbRegAppTableRecord
  2
GENIUS_GENCEN_19
 70
     0
  0
APPID
  5
34E6
330
9
100
AcDbSymbolTableRecord
100
AcDbRegAppTableRecord
  2
GENIUS_GENOBJ-N-HTC_13
 70
     0
  0
APPID
  5
34E7
330
9
100
AcDbSymbolTableRecord
100
AcDbRegAppTableRecord
  2
GENIUS_GENHATCH_13
 70
     0
  0
APPID
  5
7667
330
9
100
AcDbSymbolTableRecord
100
AcDbRegAppTableRecord
  2
AcAecLayerStandard
 70
     0
  0
APPID
  5
82E5
330
9
100
AcDbSymbolTableRecord
100
AcDbRegAppTableRecord
  2
GENIUS_GENREC_14
 70
     0
  0
APPID
  5
82E6
330
9
100
AcDbSymbolTableRecord
100
AcDbRegAppTableRecord
  2
GENIUS_GENOBJ-N-REC_13
 70
     0
  0
ENDTAB
  0
TABLE
  2
DIMSTYLE
  5
A
330
0
100
AcDbSymbolTable
 70
    15
100
AcDbDimStyleTable
 71
     3
340
81
340
8B
340
86
  0
DIMSTYLE
105
81
330
A
100
AcDbSymbolTableRecord
100
AcDbDimStyleTableRecord
  2
AM_ISO
 70
     0
  4
"
 41
3.0
 42
1.0
 43
10.0
 44
1.5
 47
0.1
 48
0.1
 73
     0
 74
     0
 77
     1
 78
     8
 79
     2
140
3.5
141
0.0
143
0.0393701
146
0.6
147
0.7
172
     1
176
   256
177
   256
178
   256
271
     2
272
     2
283
     0
284
     8
340
11
371
    -1
372
    -1
  0
DIMSTYLE
105
82
330
A
100
AcDbSymbolTableRecord
100
AcDbDimStyleTableRecord
  2
AM_ISO$3
 70
     0
  4
"
 41
3.0
 42
1.0
 43
10.0
 44
1.5
 47
0.1
 48
0.1
 73
     0
 77
     1
 78
     8
 79
     2
140
3.5
141
0.0
143
0.0393701
146
0.6
147
0.7
176
   256
177
   256
178
   256
271
     2
272
     2
283
     0
284
     8
288
     1
289
     0
340
11
371
    -1
372
    -1
  0
DIMSTYLE
105
83
330
A
100
AcDbSymbolTableRecord
100
AcDbDimStyleTableRecord
  2
AM_ISO$4
 70
     0
  4
"
 41
3.0
 42
1.0
 43
10.0
 44
1.5
 47
0.1
 48
0.1
 73
     0
 77
     1
 78
     8
 79
     2
140
3.5
141
0.0
143
0.0393701
146
0.6
147
0.7
176
   256
177
   256
178
   256
271
     2
272
     2
283
     0
284
     8
288
     1
289
     0
340
11
371
    -1
372
    -1
  0
DIMSTYLE
105
84
330
A
100
AcDbSymbolTableRecord
100
AcDbDimStyleTableRecord
  2
AM_ISO$6
 70
     0
  4
"
 41
3.0
 42
1.0
 43
10.0
 44
1.5
 47
0.1
 48
0.1
 73
     0
 74
     0
 78
     8
 79
     2
140
3.5
141
0.0
143
0.0393701
146
0.6
147
0.7
172
     1
176
   256
177
   256
178
   256
271
     2
272
     2
283
     0
284
     8
340
11
371
    -1
372
    -1
  0
DIMSTYLE
105
85
330
A
100
AcDbSymbolTableRecord
100
AcDbDimStyleTableRecord
  2
AM_ISO$7
 70
     0
  4
"
 41
3.0
 42
1.0
 43
10.0
 44
1.5
 47
0.1
 48
0.1
 73
     0
 74
     0
 77
     1
 78
     8
 79
     2
140
5.0
141
0.0
143
0.0393701
146
0.6
147
0.7
172
     1
176
   256
177
   256
178
   256
271
     2
272
     2
283
     0
284
     8
340
11
371
    -1
372
    -1
  0
DIMSTYLE
105
86
330
A
100
AcDbSymbolTableRecord
100
AcDbDimStyleTableRecord
  2
AM_ISO$SF
 70
     0
  4
"
 41
2.5
 42
1.0
 43
10.0
 44
1.0
 47
0.1
 48
0.1
 73
     0
 74
     0
 75
     1
 76
     1
 77
     1
 78
     8
 79
     2
140
3.5
141
0.0
143
0.0393701
146
0.71
147
1.5
172
     1
176
   256
177
   256
178
     2
271
     2
272
     3
274
     4
283
     0
284
     8
340
11
371
    -1
372
    -1
  0
DIMSTYLE
105
8B
330
A
100
AcDbSymbolTableRecord
100
AcDbDimStyleTableRecord
  2
AM_ISO$SH
 70
     0
  4
"
 41
2.5
 42
1.0
 43
10.0
 44
1.0
 47
0.1
 48
0.1
 73
     0
 74
     0
 75
     1
 76
     1
 77
     1
 78
     8
 79
     2
140
3.5
141
0.0
143
0.0393701
144
2.0
146
0.71
147
1.5
172
     1
173
     1
176
   256
177
   256
178
     2
271
     2
272
     3
274
     4
283
     0
284
     8
340
11
343
87
371
    -1
372
    -1
  0
DIMSTYLE
105
40B
102
{ACAD_REACTORS
330
8074
330
80C0
330
80C1
330
8032
330
8035
330
8038
330
803B
330
803E
330
803F
330
8042
330
8045
330
8048
330
804B
330
804E
330
8051
330
8054
102
}
330
A
100
AcDbSymbolTableRecord
100
AcDbDimStyleTableRecord
  2
AM_ISO$0
 70
     0
  4
"
 41
3.0
 42
1.0
 43
10.0
 44
1.5
 47
0.1
 48
0.1
 73
     0
 74
     0
 77
     1
 78
     8
 79
     2
140
3.5
141
0.0
143
0.0393701
146
0.6
147
0.7
172
     1
176
   256
177
   256
178
   256
271
     2
272
     2
283
     0
284
     8
340
11
371
    -1
372
    -1
  0
ENDTAB
  0
TABLE
  2
BLOCK_RECORD
  5
1
330
0
100
AcDbSymbolTable
 70
    27
  0
BLOCK_RECORD
  5
1F
102
{ACAD_XDICTIONARY
360
8F
102
}
330
1
100
AcDbSymbolTableRecord
100
AcDbBlockTableRecord
  2
*Model_Space
340
22
  0
BLOCK_RECORD
  5
1B
330
1
100
AcDbSymbolTableRecord
100
AcDbBlockTableRecord
  2
*Paper_Space
340
1E
  0
BLOCK_RECORD
  5
23
330
1
100
AcDbSymbolTableRecord
100
AcDbBlockTableRecord
  2
*Paper_Space0
340
26
  0
BLOCK_RECORD
  5
87
330
1
100
AcDbSymbolTableRecord
100
AcDbBlockTableRecord
  2
GENAXEH
340
0
  0
BLOCK_RECORD
  5
80D4
330
1
100
AcDbSymbolTableRecord
100
AcDbBlockTableRecord
  2
*D2
340
0
  0
BLOCK_RECORD
  5
80E0
330
1
100
AcDbSymbolTableRecord
100
AcDbBlockTableRecord
  2
*D3
340
0
  0
BLOCK_RECORD
  5
80EC
330
1
100
AcDbSymbolTableRecord
100
AcDbBlockTableRecord
  2
*D4
340
0
  0
BLOCK_RECORD
  5
80F8
330
1
100
AcDbSymbolTableRecord
100
AcDbBlockTableRecord
  2
*D5
340
0
  0
BLOCK_RECORD
  5
810D
330
1
100
AcDbSymbolTableRecord
100
AcDbBlockTableRecord
  2
*D6
340
0
  0
BLOCK_RECORD
  5
811B
330
1
100
AcDbSymbolTableRecord
100
AcDbBlockTableRecord
  2
*D7
340
0
  0
BLOCK_RECORD
  5
8127
330
1
100
AcDbSymbolTableRecord
100
AcDbBlockTableRecord
  2
*D8
340
0
  0
BLOCK_RECORD
  5
8133
330
1
100
AcDbSymbolTableRecord
100
AcDbBlockTableRecord
  2
*D9
340
0
  0
BLOCK_RECORD
  5
8141
330
1
100
AcDbSymbolTableRecord
100
AcDbBlockTableRecord
  2
*D10
340
0
  0
BLOCK_RECORD
  5
8156
330
1
100
AcDbSymbolTableRecord
100
AcDbBlockTableRecord
  2
*D11
340
0
  0
BLOCK_RECORD
  5
8162
330
1
100
AcDbSymbolTableRecord
100
AcDbBlockTableRecord
  2
*D12
340
0
  0
BLOCK_RECORD
  5
816E
330
1
100
AcDbSymbolTableRecord
100
AcDbBlockTableRecord
  2
*D13
340
0
  0
BLOCK_RECORD
  5
817A
330
1
100
AcDbSymbolTableRecord
100
AcDbBlockTableRecord
  2
*D14
340
0
  0
BLOCK_RECORD
  5
8186
330
1
100
AcDbSymbolTableRecord
100
AcDbBlockTableRecord
  2
*D15
340
0
  0
BLOCK_RECORD
  5
8192
330
1
100
AcDbSymbolTableRecord
100
AcDbBlockTableRecord
  2
*D16
340
0
  0
BLOCK_RECORD
  5
81A0
330
1
100
AcDbSymbolTableRecord
100
AcDbBlockTableRecord
  2
*D17
340
0
  0
BLOCK_RECORD
  5
844F
330
1
100
AcDbSymbolTableRecord
100
AcDbBlockTableRecord
  2
*S18
340
0
102
{BLKREFS
331
8056
102
}
  0
BLOCK_RECORD
  5
8457
330
1
100
AcDbSymbolTableRecord
100
AcDbBlockTableRecord
  2
*S19
340
0
102
{BLKREFS
331
8058
102
}
  0
BLOCK_RECORD
  5
845F
330
1
100
AcDbSymbolTableRecord
100
AcDbBlockTableRecord
  2
*S20
340
0
102
{BLKREFS
331
805A
102
}
  0
BLOCK_RECORD
  5
8467
330
1
100
AcDbSymbolTableRecord
100
AcDbBlockTableRecord
  2
*S21
340
0
102
{BLKREFS
331
805C
102
}
  0
BLOCK_RECORD
  5
846F
330
1
100
AcDbSymbolTableRecord
100
AcDbBlockTableRecord
  2
*S22
340
0
102
{BLKREFS
331
805E
102
}
  0
BLOCK_RECORD
  5
8477
330
1
100
AcDbSymbolTableRecord
100
AcDbBlockTableRecord
  2
*S23
340
0
102
{BLKREFS
331
80C5
102
}
  0
ENDTAB
  0
ENDSEC
  0
SECTION
  2
BLOCKS
  0
BLOCK
  5
20
330
1F
100
AcDbEntity
  8
0
100
AcDbBlockBegin
  2
*Model_Space
 70
     0
 10
0.0
 20
0.0
 30
0.0
  3
*Model_Space
  1

  0
ENDBLK
  5
21
330
1F
100
AcDbEntity
  8
0
100
AcDbBlockEnd
  0
BLOCK
  5
1C
330
1B
100
AcDbEntity
 67
     1
  8
0
100
AcDbBlockBegin
  2
*Paper_Space
 70
     0
 10
0.0
 20
0.0
 30
0.0
  3
*Paper_Space
  1

  0
ENDBLK
  5
1D
330
1B
100
AcDbEntity
 67
     1
  8
0
100
AcDbBlockEnd
  0
BLOCK
  5
24
330
23
100
AcDbEntity
  8
0
100
AcDbBlockBegin
  2
*Paper_Space0
 70
     0
 10
0.0
 20
0.0
 30
0.0
  3
*Paper_Space0
  1

  0
ENDBLK
  5
25
330
23
100
AcDbEntity
  8
0
100
AcDbBlockEnd
  0
BLOCK
  5
89
330
87
100
AcDbEntity
  8
0
100
AcDbBlockBegin
  2
GENAXEH
 70
     0
 10
0.0
 20
0.0
 30
0.0
  3
GENAXEH
  1

  0
LINE
  5
88
330
87
100
AcDbEntity
  8
0
100
AcDbLine
 10
-1.0
 20
0.0
 30
0.0
 11
1.0
 21
0.0
 31
0.0
  0
ENDBLK
  5
8A
330
87
100
AcDbEntity
  8
0
100
AcDbBlockEnd
  0
BLOCK
  5
80DE
330
80D4
100
AcDbEntity
  8
0
100
AcDbBlockBegin
  2
*D2
 70
     1
 10
0.0
 20
0.0
 30
0.0
  3
*D2
  1

  0
LINE
  5
8104
330
80D4
100
AcDbEntity
  8
AM_5
100
AcDbLine
 10
855.567781221354
 20
706.8923596685245
 30
0.0
 11
855.567781221354
 21
722.3173596685247
 31
0.0
  0
LINE
  5
8105
330
80D4
100
AcDbEntity
  8
AM_5
100
AcDbLine
 10
966.5677812213539
 20
706.8923596685245
 30
0.0
 11
966.5677812213539
 21
722.3173596685247
 31
0.0
  0
LINE
  5
8106
330
80D4
100
AcDbEntity
  8
AM_5
100
AcDbLine
 10
860.067781221354
 20
720.0673596685247
 30
0.0
 11
962.0677812213539
 21
720.0673596685247
 31
0.0
  0
SOLID
  5
8107
330
80D4
100
AcDbEntity
  8
AM_5
100
AcDbTrace
 10
860.067781221354
 20
720.8173596685246
 30
0.0
 11
860.067781221354
 21
719.3173596685246
 31
0.0
 12
855.567781221354
 22
720.0673596685247
 32
0.0
 13
855.567781221354
 23
720.0673596685247
 33
0.0
  0
SOLID
  5
8108
330
80D4
100
AcDbEntity
  8
AM_5
100
AcDbTrace
 10
962.0677812213539
 20
720.8173596685246
 30
0.0
 11
962.0677812213539
 21
719.3173596685246
 31
0.0
 12
966.5677812213539
 22
720.0673596685247
 32
0.0
 13
966.5677812213539
 23
720.0673596685247
 33
0.0
  0
MTEXT
  5
8109
330
80D4
100
AcDbEntity
  8
AM_5
100
AcDbMText
 10
911.0677812213539
 20
723.7423596685246
 30
0.0
 40
5.25
 41
0.0
 71
     5
 72
     1
  1
111
 73
     1
 44
1.0
1001
ACAD
1000
MTEXTBEGIN
1070
    73
1070
     1
1070
    44
1040
1.0
1070
    74
1070
     0
1000
MTEXTEND
  0
POINT
  5
810A
330
80D4
100
AcDbEntity
  8
Defpoints
 62
     0
100
AcDbPoint
 10
855.567781221354
 20
705.3923596685246
 30
0.0
  0
POINT
  5
810B
330
80D4
100
AcDbEntity
  8
Defpoints
 62
     0
100
AcDbPoint
 10
966.5677812213539
 20
705.3923596685246
 30
0.0
  0
POINT
  5
810C
330
80D4
100
AcDbEntity
  8
Defpoints
 62
     0
100
AcDbPoint
 10
966.5677812213539
 20
720.0673596685247
 30
0.0
  0
ENDBLK
  5
80DF
330
80D4
100
AcDbEntity
  8
0
100
AcDbBlockEnd
  0
BLOCK
  5
80EA
330
80E0
100
AcDbEntity
  8
0
100
AcDbBlockBegin
  2
*D3
 70
     1
 10
0.0
 20
0.0
 30
0.0
  3
*D3
  1

  0
LINE
  5
814D
330
80E0
100
AcDbEntity
  8
AM_5
100
AcDbLine
 10
868.5677812213539
 20
774.4959569219261
 30
0.0
 11
828.3177812213541
 21
774.4959569219261
 31
0.0
  0
LINE
  5
814E
330
80E0
100
AcDbEntity
  8
AM_5
100
AcDbLine
 10
868.5677812213539
 20
748.0959569219262
 30
0.0
 11
828.3177812213539
 21
748.0959569219262
 31
0.0
  0
LINE
  5
814F
330
80E0
100
AcDbEntity
  8
AM_5
100
AcDbLine
 10
830.567781221354
 20
769.995956921926
 30
0.0
 11
830.567781221354
 21
752.5959569219262
 31
0.0
  0
SOLID
  5
8150
330
80E0
100
AcDbEntity
  8
AM_5
100
AcDbTrace
 10
829.8177812213539
 20
769.995956921926
 30
0.0
 11
831.317781221354
 21
769.995956921926
 31
0.0
 12
830.567781221354
 22
774.4959569219261
 32
0.0
 13
830.567781221354
 23
774.4959569219261
 33
0.0
  0
SOLID
  5
8151
330
80E0
100
AcDbEntity
  8
AM_5
100
AcDbTrace
 10
829.8177812213539
 20
752.5959569219262
 30
0.0
 11
831.3177812213538
 21
752.5959569219262
 31
0.0
 12
830.567781221354
 22
748.0959569219262
 32
0.0
 13
830.567781221354
 23
748.0959569219262
 33
0.0
  0
MTEXT
  5
8152
330
80E0
100
AcDbEntity
  8
AM_5
100
AcDbMText
 10
826.8922644890704
 20
761.2959569219263
 30
0.0
 40
5.25
 41
0.0
 71
     5
 72
     1
  1
26.4
 11
0.0000000000000001
 21
1.0
 31
0.0
 73
     1
 44
1.0
1001
ACAD
1000
MTEXTBEGIN
1070
    73
1070
     1
1070
    44
1040
1.0
1070
    74
1070
     0
1000
MTEXTEND
  0
POINT
  5
8153
330
80E0
100
AcDbEntity
  8
Defpoints
 62
     0
100
AcDbPoint
 10
870.0677812213539
 20
774.4959569219261
 30
0.0
  0
POINT
  5
8154
330
80E0
100
AcDbEntity
  8
Defpoints
 62
     0
100
AcDbPoint
 10
870.0677812213539
 20
748.0959569219262
 30
0.0
  0
POINT
  5
8155
330
80E0
100
AcDbEntity
  8
Defpoints
 62
     0
100
AcDbPoint
 10
830.567781221354
 20
748.0959569219262
 30
0.0
  0
ENDBLK
  5
80EB
330
80E0
100
AcDbEntity
  8
0
100
AcDbBlockEnd
  0
BLOCK
  5
80F6
330
80EC
100
AcDbEntity
  8
0
100
AcDbBlockBegin
  2
*D4
 70
     1
 10
0.0
 20
0.0
 30
0.0
  3
*D4
  1

  0
LINE
  5
81AC
330
80EC
100
AcDbEntity
  8
AM_5
100
AcDbLine
 10
854.0677812213539
 20
670.0923596685245
 30
0.0
 11
828.3177812213539
 21
670.0923596685245
 31
0.0
  0
LINE
  5
81AD
330
80EC
100
AcDbEntity
  8
AM_5
100
AcDbLine
 10
854.0677812213539
 20
705.3923596685246
 30
0.0
 11
828.3177812213539
 21
705.3923596685246
 31
0.0
  0
LINE
  5
81AE
330
80EC
100
AcDbEntity
  8
AM_5
100
AcDbLine
 10
830.567781221354
 20
674.5923596685245
 30
0.0
 11
830.567781221354
 21
700.8923596685246
 31
0.0
  0
SOLID
  5
81AF
330
80EC
100
AcDbEntity
  8
AM_5
100
AcDbTrace
 10
829.8177812213539
 20
674.5923596685245
 30
0.0
 11
831.3177812213538
 21
674.5923596685245
 31
0.0
 12
830.567781221354
 22
670.0923596685245
 32
0.0
 13
830.567781221354
 23
670.0923596685245
 33
0.0
  0
SOLID
  5
81B0
330
80EC
100
AcDbEntity
  8
AM_5
100
AcDbTrace
 10
829.8177812213539
 20
700.8923596685246
 30
0.0
 11
831.3177812213538
 21
700.8923596685246
 31
0.0
 12
830.567781221354
 22
705.3923596685246
 32
0.0
 13
830.567781221354
 23
705.3923596685246
 33
0.0
  0
MTEXT
  5
81B1
330
80EC
100
AcDbEntity
  8
AM_5
100
AcDbMText
 10
826.8927812213538
 20
687.7423596685248
 30
0.0
 40
5.25
 41
0.0
 71
     5
 72
     1
  1
35.3
 11
0.0000000000000001
 21
1.0
 31
0.0
 73
     1
 44
1.0
1001
ACAD
1000
MTEXTBEGIN
1070
    73
1070
     1
1070
    44
1040
1.0
1070
    74
1070
     0
1000
MTEXTEND
  0
POINT
  5
81B2
330
80EC
100
AcDbEntity
  8
Defpoints
 62
     0
100
AcDbPoint
 10
855.567781221354
 20
670.0923596685245
 30
0.0
  0
POINT
  5
81B3
330
80EC
100
AcDbEntity
  8
Defpoints
 62
     0
100
AcDbPoint
 10
855.567781221354
 20
705.3923596685246
 30
0.0
  0
POINT
  5
81B4
330
80EC
100
AcDbEntity
  8
Defpoints
 62
     0
100
AcDbPoint
 10
830.567781221354
 20
705.3923596685246
 30
0.0
  0
ENDBLK
  5
80F7
330
80EC
100
AcDbEntity
  8
0
100
AcDbBlockEnd
  0
BLOCK
  5
8102
330
80F8
100
AcDbEntity
  8
0
100
AcDbBlockBegin
  2
*D5
 70
     1
 10
0.0
 20
0.0
 30
0.0
  3
*D5
  1

  0
LINE
  5
80F9
330
80F8
100
AcDbEntity
  8
AM_5
100
AcDbLine
 10
969.4726772209239
 20
683.0423596685245
 30
0.0
 11
983.8177812213539
 21
683.0423596685245
 31
0.0
  0
LINE
  5
80FA
330
80F8
100
AcDbEntity
  8
AM_5
100
AcDbLine
 10
968.067781221354
 20
670.0923596685246
 30
0.0
 11
983.8177812213539
 21
670.0923596685246
 31
0.0
  0
LINE
  5
80FB
330
80F8
100
AcDbEntity
  8
AM_5
100
AcDbLine
 10
981.5677812213539
 20
678.5423596685245
 30
0.0
 11
981.5677812213539
 21
674.5923596685246
 31
0.0
  0
SOLID
  5
80FC
330
80F8
100
AcDbEntity
  8
AM_5
100
AcDbTrace
 10
980.8177812213539
 20
678.5423596685245
 30
0.0
 11
982.317781221354
 21
678.5423596685245
 31
0.0
 12
981.5677812213539
 22
683.0423596685245
 32
0.0
 13
981.5677812213539
 23
683.0423596685245
 33
0.0
  0
SOLID
  5
80FD
330
80F8
100
AcDbEntity
  8
AM_5
100
AcDbTrace
 10
980.8177812213539
 20
674.5923596685246
 30
0.0
 11
982.317781221354
 21
674.5923596685246
 31
0.0
 12
981.5677812213539
 22
670.0923596685246
 32
0.0
 13
981.5677812213539
 23
670.0923596685246
 33
0.0
  0
MTEXT
  5
80FE
330
80F8
100
AcDbEntity
  8
AM_5
100
AcDbMText
 10
977.8927812213538
 20
676.5673596685246
 30
0.0
 40
5.25
 41
0.0
 71
     5
 72
     1
  1
13
 11
0.0000000000000001
 21
1.0
 31
0.0
 73
     1
 44
1.0
1001
ACAD
1000
MTEXTBEGIN
1070
    73
1070
     1
1070
    44
1040
1.0
1070
    74
1070
     0
1000
MTEXTEND
  0
POINT
  5
80FF
330
80F8
100
AcDbEntity
  8
Defpoints
 62
     0
100
AcDbPoint
 10
967.9726772209239
 20
683.0423596685245
 30
0.0
  0
POINT
  5
8100
330
80F8
100
AcDbEntity
  8
Defpoints
 62
     0
100
AcDbPoint
 10
966.5677812213539
 20
670.0923596685246
 30
0.0
  0
POINT
  5
8101
330
80F8
100
AcDbEntity
  8
Defpoints
 62
     0
100
AcDbPoint
 10
981.5677812213539
 20
670.0923596685246
 30
0.0
  0
ENDBLK
  5
8103
330
80F8
100
AcDbEntity
  8
0
100
AcDbBlockEnd
  0
BLOCK
  5
8119
330
810D
100
AcDbEntity
  8
0
100
AcDbBlockBegin
  2
*D6
 70
     1
 10
0.0
 20
0.0
 30
0.0
  3
*D6
  1

  0
LINE
  5
82AA
330
810D
100
AcDbEntity
  8
AM_5
100
AcDbLine
 10
968.067781221354
 20
705.3923596685247
 30
0.0
 11
983.8177812213539
 21
705.3923596685247
 31
0.0
  0
LINE
  5
82AB
330
810D
100
AcDbEntity
  8
AM_5
100
AcDbLine
 10
932.0677812213569
 20
701.3923596685247
 30
0.0
 11
983.8177812213539
 21
701.3923596685247
 31
0.0
  0
LINE
  5
82AC
330
810D
100
AcDbEntity
  8
AM_5
100
AcDbLine
 10
981.5677812213539
 20
696.8923596685247
 30
0.0
 11
981.5677812213539
 21
692.3923596685247
 31
0.0
  0
LINE
  5
82AD
330
810D
100
AcDbEntity
  8
AM_5
100
AcDbLine
 10
981.5677812213539
 20
709.8923596685247
 30
0.0
 11
981.5677812213539
 21
719.1173596685247
 31
0.0
  0
LINE
  5
82AE
330
810D
100
AcDbEntity
  8
AM_5
100
AcDbLine
 10
981.5677812213539
 20
701.3923596685247
 30
0.0
 11
981.5677812213539
 21
705.3923596685247
 31
0.0
  0
SOLID
  5
82AF
330
810D
100
AcDbEntity
  8
AM_5
100
AcDbTrace
 10
980.8177812213539
 20
696.8923596685247
 30
0.0
 11
982.317781221354
 21
696.8923596685247
 31
0.0
 12
981.5677812213539
 22
701.3923596685247
 32
0.0
 13
981.5677812213539
 23
701.3923596685247
 33
0.0
  0
SOLID
  5
82B0
330
810D
100
AcDbEntity
  8
AM_5
100
AcDbTrace
 10
980.8177812213539
 20
709.8923596685247
 30
0.0
 11
982.317781221354
 21
709.8923596685247
 31
0.0
 12
981.5677812213539
 22
705.3923596685247
 32
0.0
 13
981.5677812213539
 23
705.3923596685247
 33
0.0
  0
MTEXT
  5
82B1
330
810D
100
AcDbEntity
  8
AM_5
100
AcDbMText
 10
977.8927812213538
 20
716.7548596685247
 30
0.0
 40
5.25
 41
0.0
 71
     5
 72
     1
  1
4
 11
0.0000000000000001
 21
1.0
 31
0.0
 73
     1
 44
1.0
1001
ACAD
1000
MTEXTBEGIN
1070
    73
1070
     1
1070
    44
1040
1.0
1070
    74
1070
     0
1000
MTEXTEND
  0
POINT
  5
82B2
330
810D
100
AcDbEntity
  8
Defpoints
 62
     0
100
AcDbPoint
 10
966.5677812213539
 20
705.3923596685247
 30
0.0
  0
POINT
  5
82B3
330
810D
100
AcDbEntity
  8
Defpoints
 62
     0
100
AcDbPoint
 10
930.5677812213568
 20
701.3923596685247
 30
0.0
  0
POINT
  5
82B4
330
810D
100
AcDbEntity
  8
Defpoints
 62
     0
100
AcDbPoint
 10
981.5677812213539
 20
701.3923596685247
 30
0.0
  0
ENDBLK
  5
811A
330
810D
100
AcDbEntity
  8
0
100
AcDbBlockEnd
  0
BLOCK
  5
8125
330
811B
100
AcDbEntity
  8
0
100
AcDbBlockBegin
  2
*D7
 70
     1
 10
0.0
 20
0.0
 30
0.0
  3
*D7
  1

  0
LINE
  5
8239
330
811B
100
AcDbEntity
  8
AM_5
100
AcDbLine
 10
855.567781221354
 20
668.5923596685246
 30
0.0
 11
855.567781221354
 21
652.8423596685245
 31
0.0
  0
LINE
  5
823A
330
811B
100
AcDbEntity
  8
AM_5
100
AcDbLine
 10
911.0677812213568
 20
668.9923596685246
 30
0.0
 11
911.0677812213568
 21
652.8423596685245
 31
0.0
  0
LINE
  5
823B
330
811B
100
AcDbEntity
  8
AM_5
100
AcDbLine
 10
860.067781221354
 20
655.0923596685245
 30
0.0
 11
906.5677812213568
 21
655.0923596685245
 31
0.0
  0
SOLID
  5
823C
330
811B
100
AcDbEntity
  8
AM_5
100
AcDbTrace
 10
860.067781221354
 20
655.8423596685245
 30
0.0
 11
860.067781221354
 21
654.3423596685244
 31
0.0
 12
855.567781221354
 22
655.0923596685245
 32
0.0
 13
855.567781221354
 23
655.0923596685245
 33
0.0
  0
SOLID
  5
823D
330
811B
100
AcDbEntity
  8
AM_5
100
AcDbTrace
 10
906.5677812213568
 20
655.8423596685245
 30
0.0
 11
906.5677812213568
 21
654.3423596685244
 31
0.0
 12
911.0677812213568
 22
655.0923596685245
 32
0.0
 13
911.0677812213568
 23
655.0923596685245
 33
0.0
  0
MTEXT
  5
823E
330
811B
100
AcDbEntity
  8
AM_5
100
AcDbMText
 10
883.3177812213554
 20
658.7673596685244
 30
0.0
 40
5.25
 41
0.0
 71
     5
 72
     1
  1
55.5
 73
     1
 44
1.0
1001
ACAD
1000
MTEXTBEGIN
1070
    73
1070
     1
1070
    44
1040
1.0
1070
    74
1070
     0
1000
MTEXTEND
  0
POINT
  5
823F
330
811B
100
AcDbEntity
  8
Defpoints
 62
     0
100
AcDbPoint
 10
855.567781221354
 20
670.0923596685246
 30
0.0
  0
POINT
  5
8240
330
811B
100
AcDbEntity
  8
Defpoints
 62
     0
100
AcDbPoint
 10
911.0677812213568
 20
670.4923596685246
 30
0.0
  0
POINT
  5
8241
330
811B
100
AcDbEntity
  8
Defpoints
 62
     0
100
AcDbPoint
 10
911.0677812213568
 20
655.0923596685245
 30
0.0
  0
ENDBLK
  5
8126
330
811B
100
AcDbEntity
  8
0
100
AcDbBlockEnd
  0
BLOCK
  5
8131
330
8127
100
AcDbEntity
  8
0
100
AcDbBlockBegin
  2
*D8
 70
     1
 10
0.0
 20
0.0
 30
0.0
  3
*D8
  1

  0
LINE
  5
8219
330
8127
100
AcDbEntity
  8
AM_5
100
AcDbLine
 10
911.0677812213568
 20
668.9923596685246
 30
0.0
 11
911.0677812213568
 21
652.8423596685246
 31
0.0
  0
LINE
  5
821A
330
8127
100
AcDbEntity
  8
AM_5
100
AcDbLine
 10
932.0677812213569
 20
668.9923596685246
 30
0.0
 11
932.0677812213569
 21
652.8423596685246
 31
0.0
  0
LINE
  5
821B
330
8127
100
AcDbEntity
  8
AM_5
100
AcDbLine
 10
915.5677812213568
 20
655.0923596685246
 30
0.0
 11
927.5677812213569
 21
655.0923596685246
 31
0.0
  0
SOLID
  5
821C
330
8127
100
AcDbEntity
  8
AM_5
100
AcDbTrace
 10
915.5677812213568
 20
655.8423596685246
 30
0.0
 11
915.5677812213568
 21
654.3423596685246
 31
0.0
 12
911.0677812213568
 22
655.0923596685246
 32
0.0
 13
911.0677812213568
 23
655.0923596685246
 33
0.0
  0
SOLID
  5
821D
330
8127
100
AcDbEntity
  8
AM_5
100
AcDbTrace
 10
927.5677812213569
 20
655.8423596685246
 30
0.0
 11
927.5677812213569
 21
654.3423596685246
 31
0.0
 12
932.0677812213569
 22
655.0923596685246
 32
0.0
 13
932.0677812213569
 23
655.0923596685246
 33
0.0
  0
MTEXT
  5
821E
330
8127
100
AcDbEntity
  8
AM_5
100
AcDbMText
 10
921.5677812213568
 20
658.7678764008081
 30
0.0
 40
5.25
 41
0.0
 71
     5
 72
     1
  1
21
 73
     1
 44
1.0
1001
ACAD
1000
MTEXTBEGIN
1070
    73
1070
     1
1070
    44
1040
1.0
1070
    74
1070
     0
1000
MTEXTEND
  0
POINT
  5
821F
330
8127
100
AcDbEntity
  8
Defpoints
 62
     0
100
AcDbPoint
 10
911.0677812213568
 20
670.4923596685246
 30
0.0
  0
POINT
  5
8220
330
8127
100
AcDbEntity
  8
Defpoints
 62
     0
100
AcDbPoint
 10
932.0677812213569
 20
670.4923596685246
 30
0.0
  0
POINT
  5
8221
330
8127
100
AcDbEntity
  8
Defpoints
 62
     0
100
AcDbPoint
 10
932.0677812213569
 20
655.0923596685246
 30
0.0
  0
ENDBLK
  5
8132
330
8127
100
AcDbEntity
  8
0
100
AcDbBlockEnd
  0
BLOCK
  5
813F
330
8133
100
AcDbEntity
  8
0
100
AcDbBlockBegin
  2
*D9
 70
     1
 10
0.0
 20
0.0
 30
0.0
  3
*D9
  1

  0
LINE
  5
822D
330
8133
100
AcDbEntity
  8
AM_5
100
AcDbLine
 10
854.0677812213539
 20
670.0923596685245
 30
0.0
 11
838.3177812213538
 21
670.0923596685245
 31
0.0
  0
LINE
  5
822E
330
8133
100
AcDbEntity
  8
AM_5
100
AcDbLine
 10
905.8177812213569
 20
674.2423596685246
 30
0.0
 11
838.3177812213538
 21
674.2423596685246
 31
0.0
  0
LINE
  5
822F
330
8133
100
AcDbEntity
  8
AM_5
100
AcDbLine
 10
840.5677812213539
 20
665.5923596685245
 30
0.0
 11
840.5677812213539
 21
661.0923596685245
 31
0.0
  0
LINE
  5
8230
330
8133
100
AcDbEntity
  8
AM_5
100
AcDbLine
 10
840.5677812213539
 20
678.7423596685246
 30
0.0
 11
840.5677812213539
 21
693.5326697078947
 31
0.0
  0
LINE
  5
8231
330
8133
100
AcDbEntity
  8
AM_5
100
AcDbLine
 10
840.5677812213539
 20
670.0923596685245
 30
0.0
 11
840.5677812213539
 21
674.2423596685246
 31
0.0
  0
SOLID
  5
8232
330
8133
100
AcDbEntity
  8
AM_5
100
AcDbTrace
 10
839.8177812213539
 20
665.5923596685245
 30
0.0
 11
841.317781221354
 21
665.5923596685245
 31
0.0
 12
840.5677812213539
 22
670.0923596685245
 32
0.0
 13
840.5677812213539
 23
670.0923596685245
 33
0.0
  0
SOLID
  5
8233
330
8133
100
AcDbEntity
  8
AM_5
100
AcDbTrace
 10
839.8177812213539
 20
678.7423596685246
 30
0.0
 11
841.317781221354
 21
678.7423596685246
 31
0.0
 12
840.5677812213539
 22
674.2423596685246
 32
0.0
 13
840.5677812213539
 23
674.2423596685246
 33
0.0
  0
MTEXT
  5
8234
330
8133
100
AcDbEntity
  8
AM_5
100
AcDbMText
 10
836.8922644890703
 20
688.3875146882099
 30
0.0
 40
5.25
 41
0.0
 71
     5
 72
     1
  1
4.2
 11
0.0000000000000001
 21
1.0
 31
0.0
 73
     1
 44
1.0
1001
ACAD
1000
MTEXTBEGIN
1070
    73
1070
     1
1070
    44
1040
1.0
1070
    74
1070
     0
1000
MTEXTEND
  0
POINT
  5
8235
330
8133
100
AcDbEntity
  8
Defpoints
 62
     0
100
AcDbPoint
 10
855.567781221354
 20
670.0923596685245
 30
0.0
  0
POINT
  5
8236
330
8133
100
AcDbEntity
  8
Defpoints
 62
     0
100
AcDbPoint
 10
907.3177812213568
 20
674.2423596685246
 30
0.0
  0
POINT
  5
8237
330
8133
100
AcDbEntity
  8
Defpoints
 62
     0
100
AcDbPoint
 10
840.5677812213539
 20
674.2423596685246
 30
0.0
  0
ENDBLK
  5
8140
330
8133
100
AcDbEntity
  8
0
100
AcDbBlockEnd
  0
BLOCK
  5
814B
330
8141
100
AcDbEntity
  8
0
100
AcDbBlockBegin
  2
*D10
 70
     1
 10
0.0
 20
0.0
 30
0.0
  3
*D10
  1

  0
LINE
  5
8205
330
8141
100
AcDbEntity
  8
AM_5
100
AcDbLine
 10
909.5677812213535
 20
770.7959569219258
 30
0.0
 11
838.317781221354
 21
770.7959569219258
 31
0.0
  0
LINE
  5
8206
330
8141
100
AcDbEntity
  8
AM_5
100
AcDbLine
 10
919.5677812213535
 20
751.7959569219258
 30
0.0
 11
838.3177812213538
 21
751.7959569219258
 31
0.0
  0
LINE
  5
8207
330
8141
100
AcDbEntity
  8
AM_5
100
AcDbLine
 10
840.5677812213539
 20
766.2959569219258
 30
0.0
 11
840.5677812213539
 21
756.2959569219258
 31
0.0
  0
SOLID
  5
8208
330
8141
100
AcDbEntity
  8
AM_5
100
AcDbTrace
 10
839.8177812213539
 20
766.2959569219258
 30
0.0
 11
841.317781221354
 21
766.2959569219258
 31
0.0
 12
840.5677812213539
 22
770.7959569219258
 32
0.0
 13
840.5677812213539
 23
770.7959569219258
 33
0.0
  0
SOLID
  5
8209
330
8141
100
AcDbEntity
  8
AM_5
100
AcDbTrace
 10
839.8177812213539
 20
756.2959569219258
 30
0.0
 11
841.317781221354
 21
756.2959569219258
 31
0.0
 12
840.5677812213539
 22
751.7959569219258
 32
0.0
 13
840.5677812213539
 23
751.7959569219258
 33
0.0
  0
MTEXT
  5
820A
330
8141
100
AcDbEntity
  8
AM_5
100
AcDbMText
 10
836.8927812213538
 20
761.2959569219261
 30
0.0
 40
5.25
 41
0.0
 71
     5
 72
     1
  1
19
 11
0.0000000000000001
 21
1.0
 31
0.0
 73
     1
 44
1.0
1001
ACAD
1000
MTEXTBEGIN
1070
    73
1070
     1
1070
    44
1040
1.0
1070
    74
1070
     0
1000
MTEXTEND
  0
POINT
  5
820B
330
8141
100
AcDbEntity
  8
Defpoints
 62
     0
100
AcDbPoint
 10
911.0677812213534
 20
770.7959569219258
 30
0.0
  0
POINT
  5
820C
330
8141
100
AcDbEntity
  8
Defpoints
 62
     0
100
AcDbPoint
 10
921.0677812213534
 20
751.7959569219258
 30
0.0
  0
POINT
  5
820D
330
8141
100
AcDbEntity
  8
Defpoints
 62
     0
100
AcDbPoint
 10
840.5677812213539
 20
751.7959569219258
 30
0.0
  0
ENDBLK
  5
814C
330
8141
100
AcDbEntity
  8
0
100
AcDbBlockEnd
  0
BLOCK
  5
8160
330
8156
100
AcDbEntity
  8
0
100
AcDbBlockBegin
  2
*D11
 70
     1
 10
0.0
 20
0.0
 30
0.0
  3
*D11
  1

  0
LINE
  5
8274
330
8156
100
AcDbEntity
  8
AM_5
100
AcDbLine
 10
855.567781221354
 20
599.7437575829756
 30
0.0
 11
855.567781221354
 21
583.9937575829756
 31
0.0
  0
LINE
  5
8275
330
8156
100
AcDbEntity
  8
AM_5
100
AcDbLine
 10
903.0677812213539
 20
606.4437575829757
 30
0.0
 11
903.0677812213539
 21
583.9937575829756
 31
0.0
  0
LINE
  5
8276
330
8156
100
AcDbEntity
  8
AM_5
100
AcDbLine
 10
860.067781221354
 20
586.2437575829756
 30
0.0
 11
898.5677812213539
 21
586.2437575829756
 31
0.0
  0
SOLID
  5
8277
330
8156
100
AcDbEntity
  8
AM_5
100
AcDbTrace
 10
860.067781221354
 20
586.9937575829756
 30
0.0
 11
860.067781221354
 21
585.4937575829755
 31
0.0
 12
855.567781221354
 22
586.2437575829756
 32
0.0
 13
855.567781221354
 23
586.2437575829756
 33
0.0
  0
SOLID
  5
8278
330
8156
100
AcDbEntity
  8
AM_5
100
AcDbTrace
 10
898.5677812213539
 20
586.9937575829756
 30
0.0
 11
898.5677812213539
 21
585.4937575829755
 31
0.0
 12
903.0677812213539
 22
586.2437575829756
 32
0.0
 13
903.0677812213539
 23
586.2437575829756
 33
0.0
  0
MTEXT
  5
8279
330
8156
100
AcDbEntity
  8
AM_5
100
AcDbMText
 10
879.3177812213539
 20
589.9187575829755
 30
0.0
 40
5.25
 41
0.0
 71
     5
 72
     1
  1
47.5
 73
     1
 44
1.0
1001
ACAD
1000
MTEXTBEGIN
1070
    73
1070
     1
1070
    44
1040
1.0
1070
    74
1070
     0
1000
MTEXTEND
  0
POINT
  5
827A
330
8156
100
AcDbEntity
  8
Defpoints
 62
     0
100
AcDbPoint
 10
855.567781221354
 20
601.2437575829756
 30
0.0
  0
POINT
  5
827B
330
8156
100
AcDbEntity
  8
Defpoints
 62
     0
100
AcDbPoint
 10
903.0677812213539
 20
607.9437575829756
 30
0.0
  0
POINT
  5
827C
330
8156
100
AcDbEntity
  8
Defpoints
 62
     0
100
AcDbPoint
 10
903.0677812213539
 20
586.2437575829756
 30
0.0
  0
ENDBLK
  5
8161
330
8156
100
AcDbEntity
  8
0
100
AcDbBlockEnd
  0
BLOCK
  5
816C
330
8162
100
AcDbEntity
  8
0
100
AcDbBlockBegin
  2
*D12
 70
     1
 10
0.0
 20
0.0
 30
0.0
  3
*D12
  1

  0
LINE
  5
8262
330
8162
100
AcDbEntity
  8
AM_5
100
AcDbLine
 10
903.0677812213539
 20
606.4437575829757
 30
0.0
 11
903.0677812213539
 21
583.9937575829756
 31
0.0
  0
LINE
  5
8263
330
8162
100
AcDbEntity
  8
AM_5
100
AcDbLine
 10
921.567781221354
 20
604.7437575829755
 30
0.0
 11
921.567781221354
 21
583.9937575829756
 31
0.0
  0
LINE
  5
8264
330
8162
100
AcDbEntity
  8
AM_5
100
AcDbLine
 10
907.5677812213539
 20
586.2437575829756
 30
0.0
 11
917.0677812213538
 21
586.2437575829756
 31
0.0
  0
SOLID
  5
8265
330
8162
100
AcDbEntity
  8
AM_5
100
AcDbTrace
 10
907.5677812213539
 20
586.9937575829756
 30
0.0
 11
907.5677812213539
 21
585.4937575829755
 31
0.0
 12
903.0677812213539
 22
586.2437575829756
 32
0.0
 13
903.0677812213539
 23
586.2437575829756
 33
0.0
  0
SOLID
  5
8266
330
8162
100
AcDbEntity
  8
AM_5
100
AcDbTrace
 10
917.0677812213538
 20
586.9937575829756
 30
0.0
 11
917.0677812213538
 21
585.4937575829755
 31
0.0
 12
921.567781221354
 22
586.2437575829756
 32
0.0
 13
921.567781221354
 23
586.2437575829756
 33
0.0
  0
MTEXT
  5
8267
330
8162
100
AcDbEntity
  8
AM_5
100
AcDbMText
 10
912.3177812213539
 20
589.9187575829755
 30
0.0
 40
5.25
 41
0.0
 71
     5
 72
     1
  1
18.5
 73
     1
 44
1.0
1001
ACAD
1000
MTEXTBEGIN
1070
    73
1070
     1
1070
    44
1040
1.0
1070
    74
1070
     0
1000
MTEXTEND
  0
POINT
  5
8268
330
8162
100
AcDbEntity
  8
Defpoints
 62
     0
100
AcDbPoint
 10
903.0677812213539
 20
607.9437575829756
 30
0.0
  0
POINT
  5
8269
330
8162
100
AcDbEntity
  8
Defpoints
 62
     0
100
AcDbPoint
 10
921.567781221354
 20
606.2437575829756
 30
0.0
  0
POINT
  5
826A
330
8162
100
AcDbEntity
  8
Defpoints
 62
     0
100
AcDbPoint
 10
921.567781221354
 20
586.2437575829756
 30
0.0
  0
ENDBLK
  5
816D
330
8162
100
AcDbEntity
  8
0
100
AcDbBlockEnd
  0
BLOCK
  5
8178
330
816E
100
AcDbEntity
  8
0
100
AcDbBlockBegin
  2
*D13
 70
     1
 10
0.0
 20
0.0
 30
0.0
  3
*D13
  1

  0
LINE
  5
826B
330
816E
100
AcDbEntity
  8
AM_5
100
AcDbLine
 10
921.567781221354
 20
604.7437575829755
 30
0.0
 11
921.567781221354
 21
583.9937575829756
 31
0.0
  0
LINE
  5
826C
330
816E
100
AcDbEntity
  8
AM_5
100
AcDbLine
 10
940.0677812213539
 20
606.4437575829757
 30
0.0
 11
940.0677812213539
 21
583.9937575829756
 31
0.0
  0
LINE
  5
826D
330
816E
100
AcDbEntity
  8
AM_5
100
AcDbLine
 10
926.067781221354
 20
586.2437575829756
 30
0.0
 11
935.5677812213539
 21
586.2437575829756
 31
0.0
  0
SOLID
  5
826E
330
816E
100
AcDbEntity
  8
AM_5
100
AcDbTrace
 10
926.067781221354
 20
586.9937575829756
 30
0.0
 11
926.067781221354
 21
585.4937575829755
 31
0.0
 12
921.567781221354
 22
586.2437575829756
 32
0.0
 13
921.567781221354
 23
586.2437575829756
 33
0.0
  0
SOLID
  5
826F
330
816E
100
AcDbEntity
  8
AM_5
100
AcDbTrace
 10
935.5677812213539
 20
586.9937575829756
 30
0.0
 11
935.5677812213539
 21
585.4937575829755
 31
0.0
 12
940.0677812213539
 22
586.2437575829756
 32
0.0
 13
940.0677812213539
 23
586.2437575829756
 33
0.0
  0
MTEXT
  5
8270
330
816E
100
AcDbEntity
  8
AM_5
100
AcDbMText
 10
930.8177812213539
 20
589.9187575829755
 30
0.0
 40
5.25
 41
0.0
 71
     5
 72
     1
  1
18.5
 73
     1
 44
1.0
1001
ACAD
1000
MTEXTBEGIN
1070
    73
1070
     1
1070
    44
1040
1.0
1070
    74
1070
     0
1000
MTEXTEND
  0
POINT
  5
8271
330
816E
100
AcDbEntity
  8
Defpoints
 62
     0
100
AcDbPoint
 10
921.567781221354
 20
606.2437575829756
 30
0.0
  0
POINT
  5
8272
330
816E
100
AcDbEntity
  8
Defpoints
 62
     0
100
AcDbPoint
 10
940.0677812213539
 20
607.9437575829756
 30
0.0
  0
POINT
  5
8273
330
816E
100
AcDbEntity
  8
Defpoints
 62
     0
100
AcDbPoint
 10
940.0677812213539
 20
586.2437575829756
 30
0.0
  0
ENDBLK
  5
8179
330
816E
100
AcDbEntity
  8
0
100
AcDbBlockEnd
  0
BLOCK
  5
8184
330
817A
100
AcDbEntity
  8
0
100
AcDbBlockBegin
  2
*D14
 70
     1
 10
0.0
 20
0.0
 30
0.0
  3
*D14
  1

  0
LINE
  5
81E4
330
817A
100
AcDbEntity
  8
AM_5
100
AcDbLine
 10
855.567781221354
 20
746.5959569219259
 30
0.0
 11
855.567781221354
 21
730.845956921926
 31
0.0
  0
LINE
  5
81E5
330
817A
100
AcDbEntity
  8
AM_5
100
AcDbLine
 10
910.0677812213534
 20
751.595956921926
 30
0.0
 11
910.0677812213534
 21
730.845956921926
 31
0.0
  0
LINE
  5
81E6
330
817A
100
AcDbEntity
  8
AM_5
100
AcDbLine
 10
860.067781221354
 20
733.095956921926
 30
0.0
 11
905.5677812213534
 21
733.095956921926
 31
0.0
  0
SOLID
  5
81E7
330
817A
100
AcDbEntity
  8
AM_5
100
AcDbTrace
 10
860.067781221354
 20
733.845956921926
 30
0.0
 11
860.067781221354
 21
732.3459569219259
 31
0.0
 12
855.567781221354
 22
733.095956921926
 32
0.0
 13
855.567781221354
 23
733.095956921926
 33
0.0
  0
SOLID
  5
81E8
330
817A
100
AcDbEntity
  8
AM_5
100
AcDbTrace
 10
905.5677812213534
 20
733.845956921926
 30
0.0
 11
905.5677812213534
 21
732.3459569219259
 31
0.0
 12
910.0677812213534
 22
733.095956921926
 32
0.0
 13
910.0677812213534
 23
733.095956921926
 33
0.0
  0
MTEXT
  5
81E9
330
817A
100
AcDbEntity
  8
AM_5
100
AcDbMText
 10
882.8177812213537
 20
736.7709569219259
 30
0.0
 40
5.25
 41
0.0
 71
     5
 72
     1
  1
54.5
 73
     1
 44
1.0
1001
ACAD
1000
MTEXTBEGIN
1070
    73
1070
     1
1070
    44
1040
1.0
1070
    74
1070
     0
1000
MTEXTEND
  0
POINT
  5
81EA
330
817A
100
AcDbEntity
  8
Defpoints
 62
     0
100
AcDbPoint
 10
855.567781221354
 20
748.095956921926
 30
0.0
  0
POINT
  5
81EB
330
817A
100
AcDbEntity
  8
Defpoints
 62
     0
100
AcDbPoint
 10
910.0677812213534
 20
753.095956921926
 30
0.0
  0
POINT
  5
81EC
330
817A
100
AcDbEntity
  8
Defpoints
 62
     0
100
AcDbPoint
 10
910.0677812213534
 20
733.095956921926
 30
0.0
  0
ENDBLK
  5
8185
330
817A
100
AcDbEntity
  8
0
100
AcDbBlockEnd
  0
BLOCK
  5
8190
330
8186
100
AcDbEntity
  8
0
100
AcDbBlockBegin
  2
*D15
 70
     1
 10
0.0
 20
0.0
 30
0.0
  3
*D15
  1

  0
LINE
  5
81BE
330
8186
100
AcDbEntity
  8
AM_5
100
AcDbLine
 10
910.0677812213534
 20
751.595956921926
 30
0.0
 11
910.0677812213534
 21
730.845956921926
 31
0.0
  0
LINE
  5
81BF
330
8186
100
AcDbEntity
  8
AM_5
100
AcDbLine
 10
933.0677812213535
 20
751.595956921926
 30
0.0
 11
933.0677812213535
 21
730.845956921926
 31
0.0
  0
LINE
  5
81C0
330
8186
100
AcDbEntity
  8
AM_5
100
AcDbLine
 10
914.5677812213534
 20
733.095956921926
 30
0.0
 11
928.5677812213535
 21
733.095956921926
 31
0.0
  0
SOLID
  5
81C1
330
8186
100
AcDbEntity
  8
AM_5
100
AcDbTrace
 10
914.5677812213534
 20
733.845956921926
 30
0.0
 11
914.5677812213534
 21
732.3459569219259
 31
0.0
 12
910.0677812213534
 22
733.095956921926
 32
0.0
 13
910.0677812213534
 23
733.095956921926
 33
0.0
  0
SOLID
  5
81C2
330
8186
100
AcDbEntity
  8
AM_5
100
AcDbTrace
 10
928.5677812213535
 20
733.845956921926
 30
0.0
 11
928.5677812213535
 21
732.3459569219259
 31
0.0
 12
933.0677812213535
 22
733.095956921926
 32
0.0
 13
933.0677812213535
 23
733.095956921926
 33
0.0
  0
MTEXT
  5
81C3
330
8186
100
AcDbEntity
  8
AM_5
100
AcDbMText
 10
921.5677812213534
 20
736.7714736542094
 30
0.0
 40
5.25
 41
0.0
 71
     5
 72
     1
  1
23
 73
     1
 44
1.0
1001
ACAD
1000
MTEXTBEGIN
1070
    73
1070
     1
1070
    44
1040
1.0
1070
    74
1070
     0
1000
MTEXTEND
  0
POINT
  5
81C4
330
8186
100
AcDbEntity
  8
Defpoints
 62
     0
100
AcDbPoint
 10
910.0677812213534
 20
753.095956921926
 30
0.0
  0
POINT
  5
81C5
330
8186
100
AcDbEntity
  8
Defpoints
 62
     0
100
AcDbPoint
 10
933.0677812213535
 20
753.095956921926
 30
0.0
  0
POINT
  5
81C6
330
8186
100
AcDbEntity
  8
Defpoints
 62
     0
100
AcDbPoint
 10
933.0677812213535
 20
733.095956921926
 30
0.0
  0
ENDBLK
  5
8191
330
8186
100
AcDbEntity
  8
0
100
AcDbBlockEnd
  0
BLOCK
  5
819E
330
8192
100
AcDbEntity
  8
0
100
AcDbBlockBegin
  2
*D16
 70
     1
 10
0.0
 20
0.0
 30
0.0
  3
*D16
  1

  0
LINE
  5
81C7
330
8192
100
AcDbEntity
  8
AM_5
100
AcDbLine
 10
916.5677812213534
 20
777.7959569219258
 30
0.0
 11
916.5677812213534
 21
791.7459569219261
 31
0.0
  0
LINE
  5
81C8
330
8192
100
AcDbEntity
  8
AM_5
100
AcDbLine
 10
926.5677812213535
 20
758.7959569219258
 30
0.0
 11
926.5677812213535
 21
791.7459569219261
 31
0.0
  0
LINE
  5
81C9
330
8192
100
AcDbEntity
  8
AM_5
100
AcDbLine
 10
912.0677812213534
 20
789.4959569219261
 30
0.0
 11
907.5677812213534
 21
789.4959569219261
 31
0.0
  0
LINE
  5
81CA
330
8192
100
AcDbEntity
  8
AM_5
100
AcDbLine
 10
931.0677812213535
 20
789.4959569219261
 30
0.0
 11
935.5677812213535
 21
789.4959569219261
 31
0.0
  0
LINE
  5
81CB
330
8192
100
AcDbEntity
  8
AM_5
100
AcDbLine
 10
916.5677812213534
 20
789.4959569219261
 30
0.0
 11
926.5677812213535
 21
789.4959569219261
 31
0.0
  0
SOLID
  5
81CC
330
8192
100
AcDbEntity
  8
AM_5
100
AcDbTrace
 10
912.0677812213534
 20
790.2459569219261
 30
0.0
 11
912.0677812213534
 21
788.745956921926
 31
0.0
 12
916.5677812213534
 22
789.4959569219261
 32
0.0
 13
916.5677812213534
 23
789.4959569219261
 33
0.0
  0
SOLID
  5
81CD
330
8192
100
AcDbEntity
  8
AM_5
100
AcDbTrace
 10
931.0677812213535
 20
790.2459569219261
 30
0.0
 11
931.0677812213535
 21
788.745956921926
 31
0.0
 12
926.5677812213535
 22
789.4959569219261
 32
0.0
 13
926.5677812213535
 23
789.4959569219261
 33
0.0
  0
MTEXT
  5
81CE
330
8192
100
AcDbEntity
  8
AM_5
100
AcDbMText
 10
921.5677812213534
 20
793.170956921926
 30
0.0
 40
5.25
 41
0.0
 71
     5
 72
     1
  1
10
 73
     1
 44
1.0
1001
ACAD
1000
MTEXTBEGIN
1070
    73
1070
     1
1070
    44
1040
1.0
1070
    74
1070
     0
1000
MTEXTEND
  0
POINT
  5
81CF
330
8192
100
AcDbEntity
  8
Defpoints
 62
     0
100
AcDbPoint
 10
916.5677812213534
 20
776.2959569219258
 30
0.0
  0
POINT
  5
81D0
330
8192
100
AcDbEntity
  8
Defpoints
 62
     0
100
AcDbPoint
 10
926.5677812213535
 20
757.2959569219258
 30
0.0
  0
POINT
  5
81D1
330
8192
100
AcDbEntity
  8
Defpoints
 62
     0
100
AcDbPoint
 10
926.5677812213535
 20
789.4959569219261
 30
0.0
  0
ENDBLK
  5
819F
330
8192
100
AcDbEntity
  8
0
100
AcDbBlockEnd
  0
BLOCK
  5
81AA
330
81A0
100
AcDbEntity
  8
0
100
AcDbBlockBegin
  2
*D17
 70
     1
 10
0.0
 20
0.0
 30
0.0
  3
*D17
  1

  0
LINE
  5
81ED
330
81A0
100
AcDbEntity
  8
AM_5
100
AcDbLine
 10
855.567781221354
 20
775.9959569219261
 30
0.0
 11
855.567781221354
 21
791.7459569219261
 31
0.0
  0
LINE
  5
81EE
330
81A0
100
AcDbEntity
  8
AM_5
100
AcDbLine
 10
916.5677812213534
 20
777.7959569219258
 30
0.0
 11
916.5677812213534
 21
791.7459569219261
 31
0.0
  0
LINE
  5
81EF
330
81A0
100
AcDbEntity
  8
AM_5
100
AcDbLine
 10
860.067781221354
 20
789.4959569219261
 30
0.0
 11
912.0677812213534
 21
789.4959569219261
 31
0.0
  0
SOLID
  5
81F0
330
81A0
100
AcDbEntity
  8
AM_5
100
AcDbTrace
 10
860.067781221354
 20
790.2459569219261
 30
0.0
 11
860.067781221354
 21
788.745956921926
 31
0.0
 12
855.567781221354
 22
789.4959569219261
 32
0.0
 13
855.567781221354
 23
789.4959569219261
 33
0.0
  0
SOLID
  5
81F1
330
81A0
100
AcDbEntity
  8
AM_5
100
AcDbTrace
 10
912.0677812213534
 20
790.2459569219261
 30
0.0
 11
912.0677812213534
 21
788.745956921926
 31
0.0
 12
916.5677812213534
 22
789.4959569219261
 32
0.0
 13
916.5677812213534
 23
789.4959569219261
 33
0.0
  0
MTEXT
  5
81F2
330
81A0
100
AcDbEntity
  8
AM_5
100
AcDbMText
 10
886.0677812213536
 20
793.170956921926
 30
0.0
 40
5.25
 41
0.0
 71
     5
 72
     1
  1
61
 73
     1
 44
1.0
1001
ACAD
1000
MTEXTBEGIN
1070
    73
1070
     1
1070
    44
1040
1.0
1070
    74
1070
     0
1000
MTEXTEND
  0
POINT
  5
81F3
330
81A0
100
AcDbEntity
  8
Defpoints
 62
     0
100
AcDbPoint
 10
855.567781221354
 20
774.4959569219261
 30
0.0
  0
POINT
  5
81F4
330
81A0
100
AcDbEntity
  8
Defpoints
 62
     0
100
AcDbPoint
 10
916.5677812213534
 20
776.2959569219258
 30
0.0
  0
POINT
  5
81F5
330
81A0
100
AcDbEntity
  8
Defpoints
 62
     0
100
AcDbPoint
 10
916.5677812213534
 20
789.4959569219261
 30
0.0
  0
ENDBLK
  5
81AB
330
81A0
100
AcDbEntity
  8
0
100
AcDbBlockEnd
  0
BLOCK
  5
8454
330
844F
100
AcDbEntity
  8
0
100
AcDbBlockBegin
  2
*S18
 70
     1
 10
0.0
 20
0.0
 30
0.0
  3
*S18
  1

  0
LINE
  5
8450
330
844F
100
AcDbEntity
  8
AM_5
 62
     5
100
AcDbLine
 10
986.0133000772103
 20
733.10068852069
 30
0.0
 11
945.2672651118401
 21
733.10068852069
 31
0.0
  0
LINE
  5
8451
330
844F
100
AcDbEntity
  8
AM_5
 62
     5
100
AcDbLine
 10
945.2672651118401
 20
733.10068852069
 30
0.0
 11
932.4048016486155
 21
746.1211736258539
 31
0.0
  0
TRACE
  5
8452
330
844F
100
AcDbEntity
  8
AM_5
 62
     5
370
    35
100
AcDbTrace
 10
932.9620725752734
 20
746.6716812970631
 30
0.0
 11
931.8475307219575
 21
745.570665954645
 31
0.0
 12
928.2232807222863
 22
750.3540665778043
 32
0.0
 13
928.2232807222863
 23
750.3540665778043
 33
0.0
  0
MTEXT
  5
8453
330
844F
100
AcDbEntity
  8
AM_5
 62
     5
100
AcDbMText
 10
986.0133000772103
 20
742.7156142204542
 30
0.0
 40
5.95
 41
0.0
 71
     7
 72
     5
  1

  7
ACISOTS
 73
     1
 44
1.0
1001
ACAD
1000
MTEXTBEGIN
1070
    73
1070
     1
1070
    44
1040
1.0
1070
    74
1070
     0
1000
MTEXTEND
  0
ENDBLK
  5
8455
330
844F
100
AcDbEntity
  8
0
100
AcDbBlockEnd
  0
BLOCK
  5
845C
330
8457
100
AcDbEntity
  8
0
100
AcDbBlockBegin
  2
*S19
 70
     1
 10
0.0
 20
0.0
 30
0.0
  3
*S19
  1

  0
LINE
  5
8458
330
8457
100
AcDbEntity
  8
AM_VIS
 62
     5
100
AcDbLine
 10
989.1271361160606
 20
784.4618653666818
 30
0.0
 11
955.8719911162198
 21
784.4618653666818
 31
0.0
  0
LINE
  5
8459
330
8457
100
AcDbEntity
  8
AM_VIS
 62
     5
100
AcDbLine
 10
955.8719911162198
 20
784.4618653666818
 30
0.0
 11
943.2912788488268
 21
769.1813750545718
 31
0.0
  0
TRACE
  5
845A
330
8457
100
AcDbEntity
  8
AM_VIS
 62
     5
100
AcDbTrace
 10
942.6865383695442
 20
769.6792691542309
 30
0.0
 11
943.8960193281094
 21
768.6834809549126
 31
0.0
 12
939.5093976767658
 22
764.5879150514359
 32
0.0
 13
939.5093976767658
 23
764.5879150514359
 33
0.0
  0
MTEXT
  5
845B
330
8457
100
AcDbEntity
  8
AM_VIS
 62
     5
100
AcDbMText
 10
989.1271361160606
 20
794.555474561181
 30
0.0
 40
5.95
 41
0.0
 71
     7
 72
     5
  1

  7
ACISOTS
 73
     1
 44
1.0
1001
ACAD
1000
MTEXTBEGIN
1070
    73
1070
     1
1070
    44
1040
1.0
1070
    74
1070
     0
1000
MTEXTEND
  0
ENDBLK
  5
845D
330
8457
100
AcDbEntity
  8
0
100
AcDbBlockEnd
  0
BLOCK
  5
8464
330
845F
100
AcDbEntity
  8
0
100
AcDbBlockBegin
  2
*S20
 70
     1
 10
0.0
 20
0.0
 30
0.0
  3
*S20
  1

  0
LINE
  5
8460
330
845F
100
AcDbEntity
  8
AM_5
 62
     5
100
AcDbLine
 10
990.1570135684577
 20
584.7340223000542
 30
0.0
 11
956.9018685686168
 21
584.7340223000542
 31
0.0
  0
LINE
  5
8461
330
845F
100
AcDbEntity
  8
AM_5
 62
     5
100
AcDbLine
 10
956.9018685686168
 20
584.7340223000542
 30
0.0
 11
946.7846015221326
 21
605.9731168421218
 31
0.0
  0
TRACE
  5
8462
330
845F
100
AcDbEntity
  8
AM_5
 62
     5
370
    35
100
AcDbTrace
 10
947.4917972683545
 20
606.3099903469924
 30
0.0
 11
946.0774057759108
 21
605.6362433372513
 31
0.0
 12
944.2257932006269
 22
611.3448018639555
 32
0.0
 13
944.2257932006269
 23
611.3448018639555
 33
0.0
  0
MTEXT
  5
8463
330
845F
100
AcDbEntity
  8
AM_5
 62
     5
100
AcDbMText
 10
990.1570135684577
 20
594.8276314945533
 30
0.0
 40
5.95
 41
0.0
 71
     7
 72
     5
  1

  7
ACISOTS
 73
     1
 44
1.0
1001
ACAD
1000
MTEXTBEGIN
1070
    73
1070
     1
1070
    44
1040
1.0
1070
    74
1070
     0
1000
MTEXTEND
  0
ENDBLK
  5
8465
330
845F
100
AcDbEntity
  8
0
100
AcDbBlockEnd
  0
BLOCK
  5
846C
330
8467
100
AcDbEntity
  8
0
100
AcDbBlockBegin
  2
*S21
 70
     1
 10
0.0
 20
0.0
 30
0.0
  3
*S21
  1

  0
LINE
  5
8468
330
8467
100
AcDbEntity
  8
AM_5
 62
     5
100
AcDbLine
 10
876.8563551783168
 20
637.8323180134493
 30
0.0
 11
900.6044023985296
 21
637.8323180134493
 31
0.0
  0
LINE
  5
8469
330
8467
100
AcDbEntity
  8
AM_5
 62
     5
100
AcDbLine
 10
900.6044023985296
 20
637.8323180134493
 30
0.0
 11
913.1021767743696
 21
623.2032541744437
 31
0.0
  0
TRACE
  5
846A
330
8467
100
AcDbEntity
  8
AM_5
 62
     5
370
    35
100
AcDbTrace
 10
912.5065940083345
 20
622.6944410942657
 30
0.0
 11
913.6977595404047
 21
623.7120672546216
 31
0.0
 12
916.9669958379836
 22
618.6793539096803
 32
0.0
 13
916.9669958379836
 23
618.6793539096803
 33
0.0
  0
MTEXT
  5
846B
330
8467
100
AcDbEntity
  8
AM_5
 62
     5
100
AcDbMText
 10
876.8563551783168
 20
647.9259272079485
 30
0.0
 40
5.95
 41
0.0
 71
     7
 72
     5
  1

  7
ACISOTS
210
0.0
220
0.0
230
-1.0
 11
-1.0
 21
0.0
 31
0.0
 73
     1
 44
1.0
1001
ACAD
1000
MTEXTBEGIN
1070
    73
1070
     1
1070
    44
1040
1.0
1070
    74
1070
     0
1000
MTEXTEND
  0
ENDBLK
  5
846D
330
8467
100
AcDbEntity
  8
0
100
AcDbBlockEnd
  0
BLOCK
  5
8474
330
846F
100
AcDbEntity
  8
0
100
AcDbBlockBegin
  2
*S22
 70
     1
 10
0.0
 20
0.0
 30
0.0
  3
*S22
  1

  0
LINE
  5
8470
330
846F
100
AcDbEntity
  8
AM_5
 62
     5
100
AcDbLine
 10
986.0133000772103
 20
655.3395455359223
 30
0.0
 11
945.2672651118401
 21
655.3395455359223
 31
0.0
  0
LINE
  5
8471
330
846F
100
AcDbEntity
  8
AM_5
 62
     5
100
AcDbLine
 10
945.2672651118401
 20
655.3395455359223
 30
0.0
 11
937.1347824750174
 21
667.9246726511443
 31
0.0
  0
TRACE
  5
8472
330
846F
100
AcDbEntity
  8
AM_5
 62
     5
370
    35
100
AcDbTrace
 10
937.7927031683471
 20
668.3498196175535
 30
0.0
 11
936.4768617816878
 21
667.4995256847353
 31
0.0
 12
933.9054706419947
 22
672.9220764856468
 32
0.0
 13
933.9054706419947
 23
672.9220764856468
 33
0.0
  0
MTEXT
  5
8473
330
846F
100
AcDbEntity
  8
AM_5
 62
     5
100
AcDbMText
 10
986.0133000772103
 20
664.9544712356864
 30
0.0
 40
5.95
 41
0.0
 71
     7
 72
     5
  1

  7
ACISOTS
 73
     1
 44
1.0
1001
ACAD
1000
MTEXTBEGIN
1070
    73
1070
     1
1070
    44
1040
1.0
1070
    74
1070
     0
1000
MTEXTEND
  0
ENDBLK
  5
8475
330
846F
100
AcDbEntity
  8
0
100
AcDbBlockEnd
  0
BLOCK
  5
847C
330
8477
100
AcDbEntity
  8
0
100
AcDbBlockBegin
  2
*S23
 70
     1
 10
0.0
 20
0.0
 30
0.0
  3
*S23
  1

  0
LINE
  5
8478
330
8477
100
AcDbEntity
  8
AM_VIS
 62
     5
100
AcDbLine
 10
1012.272881095007
 20
692.1024635967683
 30
0.0
 11
985.0671926053529
 21
692.1024635967683
 31
0.0
  0
LINE
  5
8479
330
8477
100
AcDbEntity
  8
AM_VIS
 62
     5
100
AcDbLine
 10
985.0671926053529
 20
692.1024635967683
 30
0.0
 11
971.2826942273069
 21
685.3514926976711
 31
0.0
  0
TRACE
  5
847A
330
8477
100
AcDbEntity
  8
AM_VIS
 62
     5
100
AcDbTrace
 10
970.9786910981145
 20
685.9722227680426
 30
0.0
 11
971.5866973564992
 21
684.7307626272996
 31
0.0
 12
966.5677812213539
 22
683.0423596685245
 32
0.0
 13
966.5677812213539
 23
683.0423596685245
 33
0.0
  0
MTEXT
  5
847B
330
8477
100
AcDbEntity
  8
AM_VIS
 62
     5
100
AcDbMText
 10
1012.272881095007
 20
702.6166232667958
 30
0.0
 40
5.25
 41
0.0
 71
     7
 72
     5
  1

  7
ACISOTS
 73
     1
 44
1.0
1001
ACAD
1000
MTEXTBEGIN
1070
    73
1070
     1
1070
    44
1040
1.0
1070
    74
1070
     0
1000
MTEXTEND
  0
ENDBLK
  5
847D
330
8477
100
AcDbEntity
  8
0
100
AcDbBlockEnd
  0
ENDSEC
  0
SECTION
  2
ENTITIES
  0
LINE
  5
7E95
330
1F
100
AcDbEntity
  8
AM_VIS
100
AcDbLine
 10
946.567781221354
 20
705.3923596685247
 30
0.0
 11
875.5677812213539
 21
705.3923596685247
 31
0.0
  0
LINE
  5
7E96
330
1F
100
AcDbEntity
  8
AM_VIS
100
AcDbLine
 10
946.567781221354
 20
670.0923596685246
 30
0.0
 11
946.567781221354
 21
705.3923596685246
 31
0.0
  0
LINE
  5
7E97
330
1F
100
AcDbEntity
  8
AM_VIS
100
AcDbLine
 10
946.567781221354
 20
670.0923596685246
 30
0.0
 11
875.5677812213539
 21
670.0923596685246
 31
0.0
  0
LINE
  5
7E98
330
1F
100
AcDbEntity
  8
AM_VIS
100
AcDbLine
 10
875.5677812213539
 20
686.2423596685246
 30
0.0
 11
875.5677812213539
 21
670.0923596685246
 31
0.0
  0
LINE
  5
7E99
330
1F
100
AcDbEntity
  8
AM_VIS
100
AcDbLine
 10
875.5677812213539
 20
705.3923596685247
 30
0.0
 11
875.5677812213539
 21
689.2423596685246
 31
0.0
  0
LINE
  5
7E9A
330
1F
100
AcDbEntity
  8
AM_VIS
100
AcDbLine
 10
875.5677812213539
 20
670.0923596685245
 30
0.0
 11
875.5677812213539
 21
705.3923596685246
 31
0.0
  0
LINE
  5
7E9B
330
1F
100
AcDbEntity
  8
AM_VIS
100
AcDbLine
 10
946.567781221354
 20
705.3923596685246
 30
0.0
 11
946.567781221354
 21
670.0923596685245
 31
0.0
  0
LINE
  5
7E9C
330
1F
100
AcDbEntity
  8
AM_VIS
100
AcDbLine
 10
946.567781221354
 20
748.095956921926
 30
0.0
 11
875.5677812213539
 21
748.095956921926
 31
0.0
  0
LINE
  5
7E9D
330
1F
100
AcDbEntity
  8
AM_VIS
100
AcDbLine
 10
946.567781221354
 20
748.095956921926
 30
0.0
 11
946.567781221354
 21
774.4959569219258
 31
0.0
  0
LINE
  5
7E9E
330
1F
100
AcDbEntity
  8
AM_VIS
100
AcDbLine
 10
946.567781221354
 20
774.4959569219258
 30
0.0
 11
875.5677812213539
 21
774.4959569219258
 31
0.0
  0
LINE
  5
7E9F
330
1F
100
AcDbEntity
  8
AM_VIS
100
AcDbLine
 10
875.5677812213539
 20
774.4959569219258
 30
0.0
 11
875.5677812213539
 21
748.095956921926
 31
0.0
  0
LINE
  5
7EA0
330
1F
100
AcDbEntity
  8
AM_VIS
100
AcDbLine
 10
875.5677812213539
 20
748.095956921926
 30
0.0
 11
875.5677812213539
 21
774.4959569219258
 31
0.0
  0
LINE
  5
7EA1
330
1F
100
AcDbEntity
  8
AM_VIS
100
AcDbLine
 10
946.567781221354
 20
774.4959569219256
 30
0.0
 11
946.567781221354
 21
748.0959569219257
 31
0.0
  0
LINE
  5
7EA2
330
1F
100
AcDbEntity
  8
AM_VIS
100
AcDbLine
 10
946.567781221354
 20
627.6437575829755
 30
0.0
 11
875.5677812213539
 21
627.6437575829755
 31
0.0
  0
LINE
  5
7EA3
330
1F
100
AcDbEntity
  8
AM_VIS
100
AcDbLine
 10
946.567781221354
 20
620.9437575829756
 30
0.0
 11
946.567781221354
 21
627.6437575829755
 31
0.0
  0
LINE
  5
7EA4
330
1F
100
AcDbEntity
  8
AM_VIS
100
AcDbLine
 10
946.567781221354
 20
601.2437575829756
 30
0.0
 11
946.567781221354
 21
617.9437575829756
 31
0.0
  0
LINE
  5
7EA5
330
1F
100
AcDbEntity
  8
AM_VIS
100
AcDbLine
 10
946.567781221354
 20
601.2437575829756
 30
0.0
 11
875.5677812213539
 21
601.2437575829756
 31
0.0
  0
LINE
  5
7EA6
330
1F
100
AcDbEntity
  8
AM_VIS
100
AcDbLine
 10
875.5677812213539
 20
627.6437575829755
 30
0.0
 11
875.5677812213539
 21
610.9437575829756
 31
0.0
  0
LINE
  5
7EA7
330
1F
100
AcDbEntity
  8
AM_VIS
100
AcDbLine
 10
875.5677812213539
 20
601.2437575829756
 30
0.0
 11
875.5677812213539
 21
627.6437575829755
 31
0.0
  0
LINE
  5
7EA8
330
1F
100
AcDbEntity
  8
AM_VIS
100
AcDbLine
 10
946.567781221354
 20
627.6437575829756
 30
0.0
 11
946.567781221354
 21
601.2437575829758
 31
0.0
  0
LINE
  5
7EEA
330
1F
100
AcDbEntity
  8
AM_VIS
100
AcDbLine
 10
911.2677812213537
 20
755.9516023112423
 30
0.0
 11
911.2677812213537
 21
766.6403115326095
 31
0.0
  0
LINE
  5
7EEB
330
1F
100
AcDbEntity
  8
AM_VIS
100
AcDbLine
 10
931.8677812213536
 20
766.6403115326095
 30
0.0
 11
931.8677812213536
 21
755.9516023112423
 31
0.0
  0
LINE
  5
7EEC
330
1F
100
AcDbEntity
  8
AM_VIS
100
AcDbLine
 10
930.5677812213534
 20
748.095956921926
 30
0.0
 11
922.5677812213534
 21
748.095956921926
 31
0.0
  0
LINE
  5
7EED
330
1F
100
AcDbEntity
  8
AM_VIS
100
AcDbLine
 10
912.5677812213535
 20
774.4959569219261
 30
0.0
 11
920.5677812213535
 21
774.4959569219261
 31
0.0
  0
LINE
  5
7EEE
330
1F
100
AcDbEntity
  8
AM_VIS
100
AcDbLine
 10
930.5677812213534
 20
751.7959569219258
 30
0.0
 11
930.5677812213534
 21
748.095956921926
 31
0.0
  0
LINE
  5
7EEF
330
1F
100
AcDbEntity
  8
AM_VIS
100
AcDbLine
 10
922.5677812213534
 20
748.095956921926
 30
0.0
 11
922.5677812213534
 21
751.7959569219258
 31
0.0
  0
LINE
  5
7EF0
330
1F
100
AcDbEntity
  8
AM_VIS
100
AcDbLine
 10
912.5677812213535
 20
770.7959569219258
 30
0.0
 11
912.5677812213535
 21
774.4959569219261
 31
0.0
  0
LINE
  5
7EF1
330
1F
100
AcDbEntity
  8
AM_VIS
100
AcDbLine
 10
920.5677812213535
 20
774.4959569219261
 30
0.0
 11
920.5677812213535
 21
770.7959569219258
 31
0.0
  0
LINE
  5
7EF2
330
1F
100
AcDbEntity
  8
AM_VIS
100
AcDbLine
 10
943.5677812213535
 20
772.9959569219261
 30
0.0
 11
943.5677812213535
 21
769.495956921926
 31
0.0
  0
LINE
  5
7EF3
330
1F
100
AcDbEntity
  8
AM_VIS
100
AcDbLine
 10
937.5677812213535
 20
772.9959569219261
 30
0.0
 11
943.5677812213535
 21
772.9959569219261
 31
0.0
  0
LINE
  5
7EF4
330
1F
100
AcDbEntity
  8
AM_VIS
100
AcDbLine
 10
937.5677812213535
 20
769.495956921926
 30
0.0
 11
937.5677812213535
 21
772.9959569219261
 31
0.0
  0
LINE
  5
7EF5
330
1F
100
AcDbEntity
  8
AM_VIS
100
AcDbLine
 10
943.5677812213535
 20
769.495956921926
 30
0.0
 11
937.5677812213535
 21
769.495956921926
 31
0.0
  0
LINE
  5
7EF6
330
1F
100
AcDbEntity
  8
AM_VIS
100
AcDbLine
 10
899.5677812213534
 20
749.595956921926
 30
0.0
 11
899.5677812213534
 21
753.095956921926
 31
0.0
  0
LINE
  5
7EF7
330
1F
100
AcDbEntity
  8
AM_VIS
100
AcDbLine
 10
905.5677812213534
 20
749.595956921926
 30
0.0
 11
899.5677812213534
 21
749.595956921926
 31
0.0
  0
LINE
  5
7EF8
330
1F
100
AcDbEntity
  8
AM_VIS
100
AcDbLine
 10
905.5677812213534
 20
753.095956921926
 30
0.0
 11
905.5677812213534
 21
749.595956921926
 31
0.0
  0
LINE
  5
7EF9
330
1F
100
AcDbEntity
  8
AM_VIS
100
AcDbLine
 10
899.5677812213534
 20
753.095956921926
 30
0.0
 11
905.5677812213534
 21
753.095956921926
 31
0.0
  0
LINE
  5
7EFA
330
1F
100
AcDbEntity
  8
AM_VIS
100
AcDbLine
 10
914.7677812213537
 20
764.1088071142992
 30
0.0
 11
914.7677812213537
 21
758.4831067295526
 31
0.0
  0
LINE
  5
7EFB
330
1F
100
AcDbEntity
  8
AM_VIS
100
AcDbLine
 10
928.3677812213536
 20
758.4831067295526
 30
0.0
 11
928.3677812213536
 21
764.1088071142992
 31
0.0
  0
ARC
  5
7EFC
330
1F
100
AcDbEntity
  8
AM_VIS
100
AcDbCircle
 10
933.0677812213535
 20
761.2959569219258
 30
0.0
 40
5.477419666661914
100
AcDbArc
 50
161.6866196971664
 51
198.3133803028336
  0
ARC
  5
7EFD
330
1F
100
AcDbEntity
  8
AM_VIS
100
AcDbCircle
 10
933.0677812213535
 20
761.2959569219258
 30
0.0
 40
5.477419666661914
100
AcDbArc
 50
273.1396789510136
 51
86.86032104898638
  0
ARC
  5
7EFE
330
1F
100
AcDbEntity
  8
AM_VIS
100
AcDbCircle
 10
910.0677812213534
 20
761.2959569219258
 30
0.0
 40
5.477419666661914
100
AcDbArc
 50
341.6866196971664
 51
18.3133803028336
  0
ARC
  5
7EFF
330
1F
100
AcDbEntity
  8
AM_VIS
100
AcDbCircle
 10
910.0677812213534
 20
761.2959569219258
 30
0.0
 40
5.477419666661914
100
AcDbArc
 50
93.13967895101361
 51
266.8603210489863
  0
ARC
  5
7F00
330
1F
100
AcDbEntity
  8
AM_VIS
100
AcDbCircle
 10
933.0677812213535
 20
761.2959569219258
 30
0.0
 40
5.477419666661914
100
AcDbArc
 50
198.3133803028336
 51
273.1396789510136
  0
ARC
  5
7F01
330
1F
100
AcDbEntity
  8
AM_VIS
100
AcDbCircle
 10
910.0677812213534
 20
761.2959569219258
 30
0.0
 40
5.477419666661914
100
AcDbArc
 50
18.3133803028336
 51
93.13967895101361
  0
CIRCLE
  5
7F02
330
1F
100
AcDbEntity
  8
AM_VIS
100
AcDbCircle
 10
926.5677812213535
 20
751.7959569219258
 30
0.0
 40
2.25
  0
CIRCLE
  5
7F03
330
1F
100
AcDbEntity
  8
AM_VIS
100
AcDbCircle
 10
916.5677812213534
 20
770.7959569219258
 30
0.0
 40
2.25
  0
ARC
  5
7F04
330
1F
100
AcDbEntity
  8
AM_VIS
100
AcDbCircle
 10
926.5677812213535
 20
751.7959569219258
 30
0.0
 40
4.0
100
AcDbArc
 50
0.0
 51
180.0
  0
ARC
  5
7F05
330
1F
100
AcDbEntity
  8
AM_VIS
100
AcDbCircle
 10
916.5677812213534
 20
770.7959569219258
 30
0.0
 40
4.0
100
AcDbArc
 50
180.0
 51
0.0
  0
CIRCLE
  5
7F06
330
1F
100
AcDbEntity
  8
AM_VIS
100
AcDbCircle
 10
910.0677812213534
 20
761.2959569219258
 30
0.0
 40
6.700000000000005
  0
CIRCLE
  5
7F07
330
1F
100
AcDbEntity
  8
AM_VIS
100
AcDbCircle
 10
933.0677812213535
 20
761.2959569219258
 30
0.0
 40
6.700000000000011
  0
ARC
  5
7F08
330
1F
100
AcDbEntity
  8
AM_VIS
100
AcDbCircle
 10
910.0677812213534
 20
761.2959569219258
 30
0.0
 40
5.477419666661914
100
AcDbArc
 50
266.8603210489863
 51
341.6866196971664
  0
ARC
  5
7F09
330
1F
100
AcDbEntity
  8
AM_VIS
100
AcDbCircle
 10
933.0677812213535
 20
761.2959569219258
 30
0.0
 40
5.477419666661914
100
AcDbArc
 50
86.86032104898638
 51
161.6866196971664
  0
LINE
  5
7F0A
330
1F
100
AcDbEntity
  8
AM_VIS
100
AcDbLine
 10
925.464328058484
 20
695.3458128313974
 30
0.0
 11
925.464328058484
 21
697.3923596685247
 31
0.0
  0
LINE
  5
7F0B
330
1F
100
AcDbEntity
  8
AM_VIS
100
AcDbLine
 10
914.3177812213568
 20
691.9923596685245
 30
0.0
 11
911.7562767277457
 21
689.4308551749134
 31
0.0
  0
LINE
  5
7F0C
330
1F
100
AcDbEntity
  8
AM_VIS
100
AcDbLine
 10
924.2890402325434
 20
695.3458128313974
 30
0.0
 11
925.464328058484
 21
695.3458128313974
 31
0.0
  0
LINE
  5
7F0D
330
1F
100
AcDbEntity
  8
AM_VIS
100
AcDbLine
 10
931.4830767910825
 20
689.3270640987989
 30
0.0
 11
925.464328058484
 21
695.3458128313974
 31
0.0
  0
LINE
  5
7F0E
330
1F
100
AcDbEntity
  8
AM_VIS
100
AcDbLine
 10
924.3177812213568
 20
697.3923596685247
 30
0.0
 11
924.3177812213568
 21
695.7423596685246
 31
0.0
  0
LINE
  5
7F0F
330
1F
100
AcDbEntity
  8
AM_VIS
100
AcDbLine
 10
915.0677812213569
 20
674.2423596685246
 30
0.0
 11
915.0677812213569
 21
674.0923596685246
 31
0.0
  0
LINE
  5
7F10
330
1F
100
AcDbEntity
  8
AM_VIS
100
AcDbLine
 10
928.4487343855174
 20
676.6923596685246
 30
0.0
 11
923.5677812213568
 21
676.6923596685246
 31
0.0
  0
LINE
  5
7F11
330
1F
100
AcDbEntity
  8
AM_VIS
100
AcDbLine
 10
932.5677812213568
 20
701.3923596685247
 30
0.0
 11
932.5677812213568
 21
698.8923596685246
 31
0.0
  0
LINE
  5
7F12
330
1F
100
AcDbEntity
  8
AM_VIS
100
AcDbLine
 10
924.3177812213568
 20
697.3923596685247
 30
0.0
 11
931.0677812213569
 21
697.3923596685247
 31
0.0
  0
LINE
  5
7F13
330
1F
100
AcDbEntity
  8
AM_VIS
100
AcDbLine
 10
907.0677812213569
 20
674.0923596685246
 30
0.0
 11
907.0677812213569
 21
674.2423596685246
 31
0.0
  0
LINE
  5
7F14
330
1F
100
AcDbEntity
  8
AM_VIS
100
AcDbLine
 10
916.0677812213569
 20
673.0923596685246
 30
0.0
 11
921.5677812213568
 21
673.0923596685246
 31
0.0
  0
LINE
  5
7F15
330
1F
100
AcDbEntity
  8
AM_VIS
100
AcDbLine
 10
922.5677812213568
 20
674.0923596685246
 30
0.0
 11
922.5677812213568
 21
675.6923596685246
 31
0.0
  0
LINE
  5
7F16
330
1F
100
AcDbEntity
  8
AM_VIS
100
AcDbLine
 10
913.964328058484
 20
680.1389065056518
 30
0.0
 11
921.5677812213568
 21
687.7423596685246
 31
0.0
  0
LINE
  5
7F17
330
1F
100
AcDbEntity
  8
AM_VIS
100
AcDbLine
 10
921.5677812213568
 20
687.7423596685246
 30
0.0
 11
929.1712343842295
 21
680.1389065056518
 31
0.0
  0
LINE
  5
7F18
330
1F
100
AcDbEntity
  8
AM_VIS
100
AcDbLine
 10
937.0677812213569
 20
673.0923596685246
 30
0.0
 11
943.0677812213568
 21
673.0923596685246
 31
0.0
  0
LINE
  5
7F19
330
1F
100
AcDbEntity
  8
AM_VIS
100
AcDbLine
 10
923.0391558009923
 20
693.4190831766856
 30
0.0
 11
923.0677839617397
 21
693.4265706673855
 31
0.0
  0
LINE
  5
7F1A
330
1F
100
AcDbEntity
  8
AM_VIS
100
AcDbLine
 10
930.5677812213568
 20
701.3923596685247
 30
0.0
 11
922.5677812213568
 21
701.3923596685247
 31
0.0
  0
LINE
  5
7F1B
330
1F
100
AcDbEntity
  8
AM_VIS
100
AcDbLine
 10
922.5677812213568
 20
701.3923596685247
 30
0.0
 11
922.5677812213568
 21
705.3923596685247
 31
0.0
  0
LINE
  5
7F1C
102
{ACAD_REACTORS
330
80C3
102
}
330
1F
100
AcDbEntity
  8
AM_VIS
100
AcDbLine
 10
930.5677812213568
 20
705.3923596685247
 30
0.0
 11
930.5677812213568
 21
701.3923596685247
 31
0.0
  0
LINE
  5
7F1D
330
1F
100
AcDbEntity
  8
AM_VIS
100
AcDbLine
 10
900.0677812213568
 20
673.0923596685246
 30
0.0
 11
906.0677812213569
 21
673.0923596685246
 31
0.0
  0
LINE
  5
7F1E
330
1F
100
AcDbEntity
  8
AM_VIS
100
AcDbLine
 10
943.0677812213568
 20
702.3923596685246
 30
0.0
 11
933.5677812213569
 21
702.3923596685246
 31
0.0
  0
LINE
  5
7F1F
330
1F
100
AcDbEntity
  8
AM_VIS
100
AcDbLine
 10
918.8177812213568
 20
695.7423596685246
 30
0.0
 11
918.8177812213568
 21
701.3923596685247
 31
0.0
  0
LINE
  5
7F20
330
1F
100
AcDbEntity
  8
AM_VIS
100
AcDbLine
 10
929.1712343842295
 20
680.1389065056518
 30
0.0
 11
929.1712343842295
 21
677.0009887464714
 31
0.0
  0
LINE
  5
7F21
330
1F
100
AcDbEntity
  8
AM_VIS
100
AcDbLine
 10
931.5677812213568
 20
680.1389065056518
 30
0.0
 11
929.1712343842295
 21
680.1389065056518
 31
0.0
  0
LINE
  5
7F22
330
1F
100
AcDbEntity
  8
AM_VIS
100
AcDbLine
 10
934.000450671601
 20
679.1489628727325
 30
0.0
 11
934.000450671601
 21
679.8127184663383
 31
0.0
  0
LINE
  5
7F23
330
1F
100
AcDbEntity
  8
AM_VIS
100
AcDbLine
 10
936.0677812213568
 20
674.2423596685246
 30
0.0
 11
936.0677812213568
 21
674.0923596685246
 31
0.0
  0
ARC
  5
7F24
330
1F
100
AcDbEntity
  8
AM_VIS
100
AcDbCircle
 10
932.9914952422651
 20
679.1654467663691
 30
0.0
 40
1.009090073846735
100
AcDbArc
 50
258.6715631342564
 51
359.0640086853448
  0
LINE
  5
7F25
330
1F
100
AcDbEntity
  8
AM_VIS
100
AcDbLine
 10
917.8177812213569
 20
702.3923596685246
 30
0.0
 11
900.0677812213568
 21
702.3923596685246
 31
0.0
  0
LINE
  5
7F26
330
1F
100
AcDbEntity
  8
AM_VIS
100
AcDbLine
 10
899.0677812213569
 20
701.3923596685247
 30
0.0
 11
899.0677812213569
 21
674.0923596685246
 31
0.0
  0
LINE
  5
7F27
330
1F
100
AcDbEntity
  8
AM_VIS
100
AcDbLine
 10
943.5677812213569
 20
694.7423596685246
 30
0.0
 11
935.0677812213568
 21
694.7423596685246
 31
0.0
  0
LINE
  5
7F28
330
1F
100
AcDbEntity
  8
AM_VIS
100
AcDbLine
 10
943.5677812213569
 20
700.7423596685246
 30
0.0
 11
935.0677812213568
 21
700.7423596685246
 31
0.0
  0
ARC
  5
7F29
330
1F
100
AcDbEntity
  8
AM_VIS
100
AcDbCircle
 10
943.2939523034022
 20
681.7316780061303
 30
0.0
 40
1.387376188562006
100
AcDbArc
 50
242.5304844436444
 51
266.0469275322701
  0
ARC
  5
7F2A
330
1F
100
AcDbEntity
  8
AM_VIS
100
AcDbCircle
 10
938.8378161935291
 20
673.7345372724412
 30
0.0
 40
7.768165280076305
100
AcDbArc
 50
60.57671213274492
 51
128.5147879991273
  0
LINE
  5
7F2B
330
1F
100
AcDbEntity
  8
AM_VIS
100
AcDbLine
 10
931.5677756426449
 20
680.1388648999884
 30
0.0
 11
934.000445433398
 21
679.8126794001685
 31
0.0
  0
SPLINE
  5
7F2C
330
1F
100
AcDbEntity
  8
AM_VIS
100
AcDbSpline
210
0.0
220
0.0
230
1.0
 70
     8
 71
     3
 72
    16
 73
    12
 74
     0
 42
0.0000000001
 43
0.0000000001
 40
-1.530724040777871
 40
-1.530724040777871
 40
-1.530724040777871
 40
-1.530724040777871
 40
-1.173531879215616
 40
-1.173531879215616
 40
-0.7868186477857164
 40
-0.7868186477857164
 40
-0.3967806205976246
 40
-0.3967806205976246
 40
0.0
 40
0.0
 40
0.0015640547437225
 40
0.0015640547437225
 40
0.0015640547437225
 40
0.0015640547437225
 10
943.198307413577
 20
680.3476025950203
 30
0.0
 10
943.315692733257
 20
680.339927671148
 30
0.0
 10
943.427998920376
 20
680.3220618390724
 30
0.0
 10
943.6417034966902
 20
680.2670352942803
 30
0.0
 10
943.7388530920264
 20
680.2291024486699
 30
0.0
 10
943.8992482162969
 20
680.1404737956759
 30
0.0
 10
943.9612386357396
 20
680.090230460831
 30
0.0
 10
944.0458933633356
 20
679.9834704983906
 30
0.0
 10
944.0676103349201
 20
679.9271904967313
 30
0.0
 10
944.0677808865236
 20
679.8710483467649
 30
0.0
 10
944.0677812213568
 20
679.8708279185489
 30
0.0
 10
944.0677812213568
 20
679.8706074978542
 30
0.0
  0
LINE
  5
7F2D
330
1F
100
AcDbEntity
  8
AM_VIS
100
AcDbLine
 10
944.0677812213568
 20
674.0923596685246
 30
0.0
 11
944.0677812213568
 21
701.3923596685247
 31
0.0
  0
ARC
  5
7F2E
330
1F
100
AcDbEntity
  8
AM_VIS
100
AcDbCircle
 10
941.1760249704139
 20
701.2471551706371
 30
0.0
 40
0.5048133642652037
100
AcDbArc
 50
180.5442925718797
 51
270.4819926183816
  0
LINE
  5
7F2F
330
1F
100
AcDbEntity
  8
AM_VIS
100
AcDbLine
 10
940.6712343842295
 20
702.3923596685246
 30
0.0
 11
940.6712343842295
 21
701.2423596685246
 31
0.0
  0
SPLINE
  5
7F30
330
1F
100
AcDbEntity
  8
AM_VIS
100
AcDbSpline
210
0.0
220
0.0
230
1.0
 70
     8
 71
     3
 72
    12
 73
     8
 74
     0
 42
0.0000000001
 43
0.0000000001
 40
0.0
 40
0.0
 40
0.0
 40
0.0
 40
0.0288907000736388
 40
0.0288907000736388
 40
0.0789525820262509
 40
0.0789525820262509
 40
0.1430575208287007
 40
0.1430575208287007
 40
0.1430575208287007
 40
0.1430575208287007
 10
931.5677812213568
 20
689.1921815699409
 30
0.0
 10
931.5677812213568
 20
689.2016417898453
 30
0.0
 10
931.5657325618131
 20
689.2110249416246
 30
0.0
 10
931.5571125737774
 20
689.2354185469319
 30
0.0
 10
931.5477799272791
 20
689.2511008477807
 30
0.0
 10
931.5221679458513
 20
689.2860699708487
 30
0.0
 10
931.5037347716836
 20
689.306406118198
 30
0.0
 10
931.4830767910825
 20
689.3270640987989
 30
0.0
  0
ARC
  5
7F31
330
1F
100
AcDbEntity
  8
AM_VIS
100
AcDbCircle
 10
917.0410712925386
 20
688.8404287183369
 30
0.0
 40
4.16545045901981
100
AcDbArc
 50
94.61747585898001
 51
130.8272416970325
  0
LINE
  5
7F32
330
1F
100
AcDbEntity
  8
AM_VIS
100
AcDbLine
 10
900.0677812213568
 20
677.7423596685245
 30
0.0
 11
908.8883317495865
 21
677.7423596685245
 31
0.0
  0
LINE
  5
7F33
330
1F
100
AcDbEntity
  8
AM_VIS
100
AcDbLine
 10
909.9882814656561
 20
679.9270438768606
 30
0.0
 11
911.5677836008744
 21
680.1388887641179
 31
0.0
  0
LINE
  5
7F34
330
1F
100
AcDbEntity
  8
AM_VIS
100
AcDbLine
 10
913.964328058484
 20
680.1389065056518
 30
0.0
 11
911.5677812213569
 21
680.1389065056518
 31
0.0
  0
LINE
  5
7F35
330
1F
100
AcDbEntity
  8
AM_VIS
100
AcDbLine
 10
913.964328058484
 20
677.000985489532
 30
0.0
 11
913.964328058484
 21
680.1389065056518
 31
0.0
  0
ARC
  5
7F36
330
1F
100
AcDbEntity
  8
AM_VIS
100
AcDbCircle
 10
910.1055760980369
 20
678.9637634481864
 30
0.0
 40
0.9704125677465894
100
AcDbArc
 50
96.94250268407602
 51
174.5428866617078
  0
ARC
  5
7F37
330
1F
100
AcDbEntity
  8
AM_VIS
100
AcDbCircle
 10
910.14540257638
 20
679.1688262639123
 30
0.0
 40
1.012143341363944
100
AcDbArc
 50
186.3973457540927
 51
281.2167369769025
  0
SPLINE
  5
7F38
330
1F
100
AcDbEntity
  8
AM_VIS
100
AcDbSpline
210
0.0
220
0.0
230
1.0
 70
     8
 71
     3
 72
    12
 73
     8
 74
     0
 42
0.0000000001
 43
0.0000000001
 40
0.0
 40
0.0
 40
0.0
 40
0.0
 40
0.2748202303343902
 40
0.2748202303343902
 40
0.3746707428581118
 40
0.3746707428581118
 40
0.4537956655441534
 40
0.4537956655441534
 40
0.4537956655441534
 40
0.4537956655441534
 10
911.7562767277455
 20
689.4308551749134
 30
0.0
 10
911.692293195864
 20
689.366871643032
 30
0.0
 10
911.6408503860665
 20
689.3099841170476
 30
0.0
 10
911.5959777441299
 20
689.2397479768354
 30
0.0
 10
911.5849163413987
 20
689.2193014757838
 30
0.0
 10
911.5715827836556
 20
689.1817268957789
 30
0.0
 10
911.5677812213569
 20
689.1643071556641
 30
0.0
 10
911.5677812213569
 20
689.1466811985507
 30
0.0
  0
LINE
  5
7F39
330
1F
100
AcDbEntity
  8
AM_VIS
100
AcDbLine
 10
900.0677812213568
 20
692.9923596685246
 30
0.0
 11
921.5677812213568
 21
692.9923596685246
 31
0.0
  0
LINE
  5
7F3A
330
1F
100
AcDbEntity
  8
AM_VIS
100
AcDbLine
 10
917.8177812213569
 20
698.9923596685246
 30
0.0
 11
900.0677812213568
 21
698.9923596685246
 31
0.0
  0
CIRCLE
  5
7F3B
330
1F
100
AcDbEntity
  8
AM_VIS
100
AcDbCircle
 10
921.5677812213568
 20
695.7423596685246
 30
0.0
 40
1.400000000000003
  0
CIRCLE
  5
7F3C
330
1F
100
AcDbEntity
  8
AM_VIS
100
AcDbCircle
 10
932.0677812213569
 20
674.2423596685246
 30
0.0
 40
2.25
  0
ARC
  5
7F3D
330
1F
100
AcDbEntity
  8
AM_VIS
100
AcDbCircle
 10
923.5677812213568
 20
675.6923596685246
 30
0.0
 40
0.9999999999999998
100
AcDbArc
 50
90.0
 51
180.0
  0
CIRCLE
  5
7F3E
330
1F
100
AcDbEntity
  8
AM_VIS
100
AcDbCircle
 10
911.0677812213568
 20
674.2423596685246
 30
0.0
 40
2.25
  0
ARC
  5
7F3F
330
1F
100
AcDbEntity
  8
AM_VIS
100
AcDbCircle
 10
931.0677812213569
 20
698.8923596685246
 30
0.0
 40
1.5
100
AcDbArc
 50
270.0
 51
0.0
  0
ARC
  5
7F40
330
1F
100
AcDbEntity
  8
AM_VIS
100
AcDbCircle
 10
906.0677812213569
 20
674.0923596685246
 30
0.0
 40
0.9999999999999998
100
AcDbArc
 50
270.0
 51
0.0
  0
ARC
  5
7F41
330
1F
100
AcDbEntity
  8
AM_VIS
100
AcDbCircle
 10
916.0677812213569
 20
674.0923596685246
 30
0.0
 40
0.9999999999999998
100
AcDbArc
 50
180.0
 51
270.0
  0
ARC
  5
7F42
330
1F
100
AcDbEntity
  8
AM_VIS
100
AcDbCircle
 10
921.5677812213568
 20
674.0923596685246
 30
0.0
 40
1.0
100
AcDbArc
 50
270.0
 51
0.0
  0
ARC
  5
7F43
330
1F
100
AcDbEntity
  8
AM_VIS
100
AcDbCircle
 10
928.4487343855174
 20
677.6923596685247
 30
0.0
 40
1.0
100
AcDbArc
 50
270.0
 51
316.3698911321441
  0
ARC
  5
7F44
330
1F
100
AcDbEntity
  8
AM_VIS
100
AcDbCircle
 10
937.0677812213569
 20
674.0923596685246
 30
0.0
 40
0.9999999999999998
100
AcDbArc
 50
180.0
 51
270.0
  0
ARC
  5
7F45
330
1F
100
AcDbEntity
  8
AM_VIS
100
AcDbCircle
 10
917.8177812213569
 20
701.3923596685247
 30
0.0
 40
0.9999999999999998
100
AcDbArc
 50
0.0
 51
90.0
  0
ARC
  5
7F46
330
1F
100
AcDbEntity
  8
AM_VIS
100
AcDbCircle
 10
933.5677812213569
 20
701.3923596685247
 30
0.0
 40
0.9999999999999998
100
AcDbArc
 50
90.0
 51
180.0
  0
ARC
  5
7F47
330
1F
100
AcDbEntity
  8
AM_VIS
100
AcDbCircle
 10
921.5677812213568
 20
695.7423596685246
 30
0.0
 40
2.75
100
AcDbArc
 50
180.0
 51
0.0
  0
LINE
  5
7F48
330
1F
100
AcDbEntity
  8
AM_VIS
100
AcDbLine
 10
923.0677812213569
 20
693.4265811451443
 30
0.0
 11
923.0677812213569
 21
693.4374735539229
 31
0.0
  0
ARC
  5
7F49
330
1F
100
AcDbEntity
  8
AM_VIS
100
AcDbCircle
 10
900.0677812213568
 20
701.3923596685247
 30
0.0
 40
0.9999999999999998
100
AcDbArc
 50
90.0
 51
180.0
  0
ARC
  5
7F4A
330
1F
100
AcDbEntity
  8
AM_VIS
100
AcDbCircle
 10
900.0677812213568
 20
674.0923596685246
 30
0.0
 40
0.9999999999999998
100
AcDbArc
 50
180.0
 51
270.0
  0
ARC
  5
7F4B
330
1F
100
AcDbEntity
  8
AM_VIS
100
AcDbCircle
 10
943.0677812213568
 20
674.0923596685246
 30
0.0
 40
0.9999999999999998
100
AcDbArc
 50
270.0
 51
0.0
  0
ARC
  5
7F4C
330
1F
100
AcDbEntity
  8
AM_VIS
100
AcDbCircle
 10
943.0677812213568
 20
701.3923596685247
 30
0.0
 40
0.9999999999999998
100
AcDbArc
 50
0.0
 51
90.0
  0
ARC
  5
7F4D
330
1F
100
AcDbEntity
  8
AM_VIS
100
AcDbCircle
 10
932.0677812213569
 20
674.2423596685246
 30
0.0
 40
4.0
100
AcDbArc
 50
0.0
 51
136.369891132144
  0
ARC
  5
7F4E
330
1F
100
AcDbEntity
  8
AM_VIS
100
AcDbCircle
 10
935.0677812213568
 20
695.7423596685246
 30
0.0
 40
1.0
100
AcDbArc
 50
180.0
 51
270.0
  0
LINE
  5
7F4F
330
1F
100
AcDbEntity
  8
AM_VIS
100
AcDbLine
 10
934.0677812213568
 20
695.7423596685246
 30
0.0
 11
934.0677812213568
 21
699.7423596685246
 31
0.0
  0
ARC
  5
7F50
330
1F
100
AcDbEntity
  8
AM_VIS
100
AcDbCircle
 10
935.0677812213568
 20
699.7423596685246
 30
0.0
 40
1.0
100
AcDbArc
 50
90.0
 51
180.0
  0
LINE
  5
7F51
330
1F
100
AcDbEntity
  8
AM_VIS
100
AcDbLine
 10
931.5677812213568
 20
680.1389065056518
 30
0.0
 11
931.5677812213568
 21
689.1921815699409
 31
0.0
  0
ARC
  5
7F52
330
1F
100
AcDbEntity
  8
AM_VIS
100
AcDbCircle
 10
943.5677812213569
 20
694.2423596685245
 30
0.0
 40
0.4999999999999992
100
AcDbArc
 50
0.0
 51
90.0
  0
ARC
  5
7F53
330
1F
100
AcDbEntity
  8
AM_VIS
100
AcDbCircle
 10
943.5677812213569
 20
701.2423596685246
 30
0.0
 40
0.5
100
AcDbArc
 50
270.0
 51
0.0
  0
ARC
  5
7F54
330
1F
100
AcDbEntity
  8
AM_VIS
100
AcDbCircle
 10
900.0677812213568
 20
678.7423596685246
 30
0.0
 40
1.000000000000003
100
AcDbArc
 50
180.0
 51
270.0
  0
LINE
  5
7F55
330
1F
100
AcDbEntity
  8
AM_VIS
100
AcDbLine
 10
911.5677812213569
 20
680.1389065056518
 30
0.0
 11
911.5677812213569
 21
689.1466811985504
 31
0.0
  0
ARC
  5
7F56
330
1F
100
AcDbEntity
  8
AM_VIS
100
AcDbCircle
 10
908.8883317495865
 20
678.7423596685246
 30
0.0
 40
0.9999999999999996
100
AcDbArc
 50
270.0
 51
295.8419327631682
  0
ARC
  5
7F57
330
1F
100
AcDbEntity
  8
AM_VIS
100
AcDbCircle
 10
911.0677812213568
 20
674.2423596685246
 30
0.0
 40
4.0
100
AcDbArc
 50
0.0
 51
180.0
  0
CIRCLE
  5
7F58
330
1F
100
AcDbEntity
  8
AM_VIS
100
AcDbCircle
 10
921.5677812213568
 20
695.7423596685246
 30
0.0
 40
1.399999999999999
  0
ARC
  5
7F59
330
1F
100
AcDbEntity
  8
AM_VIS
100
AcDbCircle
 10
900.0677812213568
 20
691.9923596685245
 30
0.0
 40
0.9999999999999998
100
AcDbArc
 50
90.0
 51
180.0
  0
ARC
  5
7F5A
330
1F
100
AcDbEntity
  8
AM_VIS
100
AcDbCircle
 10
917.8177812213569
 20
699.9923596685245
 30
0.0
 40
1.0
100
AcDbArc
 50
270.0
 51
0.0
  0
ARC
  5
7F5B
330
1F
100
AcDbEntity
  8
AM_VIS
100
AcDbCircle
 10
900.0677812213568
 20
699.9923596685245
 30
0.0
 40
0.9999999999999998
100
AcDbArc
 50
180.0
 51
270.0
  0
LINE
  5
7F5C
330
1F
100
AcDbEntity
  8
AM_VIS
100
AcDbLine
 10
922.5677812213568
 20
705.3923596685247
 30
0.0
 11
930.5677812213568
 21
705.3923596685247
 31
0.0
  0
LINE
  5
7FE3
330
1F
100
AcDbEntity
  8
AM_VIS
100
AcDbLine
 10
923.5677812213539
 20
619.5429855838336
 30
0.0
 11
923.5677812213539
 21
619.5007700597207
 31
0.0
  0
LINE
  5
7FE4
330
1F
100
AcDbEntity
  8
AM_VIS
100
AcDbLine
 10
923.5677812213539
 20
619.5007700597207
 30
0.0
 11
923.5677812213539
 21
609.3445295821176
 31
0.0
  0
LINE
  5
7FE5
330
1F
100
AcDbEntity
  8
AM_VIS
100
AcDbLine
 10
939.567781221354
 20
613.2134120909329
 30
0.0
 11
939.567781221354
 21
610.4548508170837
 31
0.0
  0
LINE
  5
7FE6
330
1F
100
AcDbEntity
  8
AM_VIS
100
AcDbLine
 10
939.567781221354
 20
615.6741030750183
 30
0.0
 11
939.567781221354
 21
613.2134120909329
 31
0.0
  0
LINE
  5
7FE7
330
1F
100
AcDbEntity
  8
AM_VIS
100
AcDbLine
 10
939.567781221354
 20
618.4333921829562
 30
0.0
 11
939.567781221354
 21
615.6741030750183
 31
0.0
  0
LINE
  5
7FE8
330
1F
100
AcDbEntity
  8
AM_VIS
100
AcDbLine
 10
903.5677812213538
 20
613.2134120909329
 30
0.0
 11
903.5677812213538
 21
610.4548508170837
 31
0.0
  0
LINE
  5
7FE9
330
1F
100
AcDbEntity
  8
AM_VIS
100
AcDbLine
 10
903.5677812213538
 20
613.2134120909329
 30
0.0
 11
903.5677812213538
 21
615.6741030750183
 31
0.0
  0
LINE
  5
7FEA
330
1F
100
AcDbEntity
  8
AM_VIS
100
AcDbLine
 10
903.5677812213538
 20
618.4333921829562
 30
0.0
 11
903.5677812213538
 21
615.6741030750183
 31
0.0
  0
ARC
  5
7FEB
330
1F
100
AcDbEntity
  8
AM_VIS
100
AcDbCircle
 10
916.5677812213539
 20
604.9437575829756
 30
0.0
 40
2.249999999999999
100
AcDbArc
 50
51.0575587310204
 51
128.9424412689796
  0
LINE
  5
7FEC
330
1F
100
AcDbEntity
  8
AM_VIS
100
AcDbLine
 10
943.067781221354
 20
606.2437575829756
 30
0.0
 11
943.067781221354
 21
602.7437575829756
 31
0.0
  0
LINE
  5
7FED
330
1F
100
AcDbEntity
  8
AM_VIS
100
AcDbLine
 10
937.0677812213539
 20
606.2437575829756
 30
0.0
 11
943.067781221354
 21
606.2437575829756
 31
0.0
  0
LINE
  5
7FEE
330
1F
100
AcDbEntity
  8
AM_VIS
100
AcDbLine
 10
937.0677812213539
 20
602.7437575829756
 30
0.0
 11
937.0677812213539
 21
606.2437575829756
 31
0.0
  0
LINE
  5
7FEF
330
1F
100
AcDbEntity
  8
AM_VIS
100
AcDbLine
 10
943.067781221354
 20
602.7437575829756
 30
0.0
 11
937.0677812213539
 21
602.7437575829756
 31
0.0
  0
LINE
  5
7FF0
330
1F
100
AcDbEntity
  8
AM_VIS
100
AcDbLine
 10
906.0677812213539
 20
606.2437575829756
 30
0.0
 11
906.0677812213539
 21
602.7437575829756
 31
0.0
  0
LINE
  5
7FF1
330
1F
100
AcDbEntity
  8
AM_VIS
100
AcDbLine
 10
900.0677812213538
 20
606.2437575829756
 30
0.0
 11
906.0677812213539
 21
606.2437575829756
 31
0.0
  0
LINE
  5
7FF2
330
1F
100
AcDbEntity
  8
AM_VIS
100
AcDbLine
 10
900.0677812213538
 20
602.7437575829756
 30
0.0
 11
900.0677812213538
 21
606.2437575829756
 31
0.0
  0
LINE
  5
7FF3
330
1F
100
AcDbEntity
  8
AM_VIS
100
AcDbLine
 10
906.0677812213539
 20
602.7437575829756
 30
0.0
 11
900.0677812213538
 21
602.7437575829756
 31
0.0
  0
LINE
  5
7FF4
330
1F
100
AcDbEntity
  8
AM_VIS
100
AcDbLine
 10
919.5677812213538
 20
626.1437575829757
 30
0.0
 11
919.5677812213538
 21
622.6437575829756
 31
0.0
  0
LINE
  5
7FF5
330
1F
100
AcDbEntity
  8
AM_VIS
100
AcDbLine
 10
913.567781221354
 20
626.1437575829757
 30
0.0
 11
919.5677812213538
 21
626.1437575829757
 31
0.0
  0
LINE
  5
7FF6
330
1F
100
AcDbEntity
  8
AM_VIS
100
AcDbLine
 10
913.567781221354
 20
622.6437575829756
 30
0.0
 11
913.567781221354
 21
626.1437575829757
 31
0.0
  0
LINE
  5
7FF7
330
1F
100
AcDbEntity
  8
AM_VIS
100
AcDbLine
 10
919.5677812213538
 20
622.6437575829756
 30
0.0
 11
913.567781221354
 21
622.6437575829756
 31
0.0
  0
LINE
  5
7FF8
330
1F
100
AcDbEntity
  8
AM_VIS
100
AcDbLine
 10
919.5677812213538
 20
609.3867451062306
 30
0.0
 11
919.5677812213538
 21
609.3445295821176
 31
0.0
  0
LINE
  5
7FF9
330
1F
100
AcDbEntity
  8
AM_VIS
100
AcDbLine
 10
919.5677812213538
 20
609.3867451062306
 30
0.0
 11
919.5677812213538
 21
619.5429855838336
 31
0.0
  0
CIRCLE
  5
7FFA
330
1F
100
AcDbEntity
  8
AM_VIS
100
AcDbCircle
 10
940.0677812213539
 20
614.4437575829756
 30
0.0
 40
5.0
  0
CIRCLE
  5
7FFB
330
1F
100
AcDbEntity
  8
AM_VIS
100
AcDbCircle
 10
903.0677812213539
 20
614.4437575829756
 30
0.0
 40
5.000000000000001
  0
CIRCLE
  5
7FFC
330
1F
100
AcDbEntity
  8
AM_VIS
100
AcDbCircle
 10
921.567781221354
 20
614.4437575829756
 30
0.0
 40
6.700000000000002
  0
CIRCLE
  5
7FFD
330
1F
100
AcDbEntity
  8
AM_VIS
100
AcDbCircle
 10
916.5677812213539
 20
604.9437575829756
 30
0.0
 40
2.25
  0
CIRCLE
  5
7FFE
330
1F
100
AcDbEntity
  8
AM_VIS
100
AcDbCircle
 10
926.5677812213539
 20
623.9437575829756
 30
0.0
 40
2.25
  0
LINE
  5
7FFF
330
1F
100
AcDbEntity
  8
AM_VIS
100
AcDbLine
 10
920.0677812213539
 20
619.7117862659589
 30
0.0
 11
920.0677812213539
 21
609.1757288999923
 31
0.0
  0
LINE
  5
8000
330
1F
100
AcDbEntity
  8
AM_VIS
100
AcDbLine
 10
923.0677812213539
 20
609.1757288999923
 30
0.0
 11
923.0677812213539
 21
619.7117862659589
 31
0.0
  0
CIRCLE
  5
8001
330
1F
100
AcDbEntity
  8
0
100
AcDbCircle
 10
921.5677812213534
 20
614.4437575829756
 30
0.0
 40
5.474999999999999
  0
CIRCLE
  5
8002
330
1F
100
AcDbEntity
  8
0
100
AcDbCircle
 10
903.0677812213539
 20
614.4437575829756
 30
0.0
 40
4.020873186269625
  0
CIRCLE
  5
8003
330
1F
100
AcDbEntity
  8
0
100
AcDbCircle
 10
940.0677812213539
 20
614.4437575829756
 30
0.0
 40
4.020873186269596
  0
LINE
  5
8004
330
1F
100
AcDbEntity
  8
AM_7
100
AcDbLine
 10
933.0677812213535
 20
761.2959569219258
 30
0.0
 11
941.2677812213535
 21
761.2959569219258
 31
0.0
1001
GENIUS_GENOREF_13
1005
80D3
  0
LINE
  5
8005
330
1F
100
AcDbEntity
  8
AM_7
100
AcDbLine
 10
933.0677812213535
 20
761.2959569219258
 30
0.0
 11
933.0677812213535
 21
769.4959569219259
 31
0.0
1001
GENIUS_GENOREF_13
1005
80D3
  0
LINE
  5
8006
330
1F
100
AcDbEntity
  8
AM_7
100
AcDbLine
 10
933.0677812213535
 20
761.2959569219258
 30
0.0
 11
924.8677812213536
 21
761.2959569219258
 31
0.0
1001
GENIUS_GENOREF_13
1005
80D3
  0
LINE
  5
8007
102
{ACAD_REACTORS
330
804D
102
}
330
1F
100
AcDbEntity
  8
AM_7
100
AcDbLine
 10
933.0677812213535
 20
761.2959569219258
 30
0.0
 11
933.0677812213535
 21
753.095956921926
 31
0.0
1001
GENIUS_GENOREF_13
1005
80D3
  0
LINE
  5
8008
330
1F
100
AcDbEntity
  8
AM_7
100
AcDbLine
 10
910.0677812213534
 20
761.2959569219258
 30
0.0
 11
918.2677812213535
 21
761.2959569219258
 31
0.0
1001
GENIUS_GENOREF_13
1005
80D2
  0
LINE
  5
8009
330
1F
100
AcDbEntity
  8
AM_7
100
AcDbLine
 10
910.0677812213534
 20
761.2959569219258
 30
0.0
 11
910.0677812213534
 21
769.4959569219259
 31
0.0
1001
GENIUS_GENOREF_13
1005
80D2
  0
LINE
  5
800A
330
1F
100
AcDbEntity
  8
AM_7
100
AcDbLine
 10
910.0677812213534
 20
761.2959569219258
 30
0.0
 11
901.8677812213537
 21
761.2959569219258
 31
0.0
1001
GENIUS_GENOREF_13
1005
80D2
  0
LINE
  5
800B
102
{ACAD_REACTORS
330
804A
330
804D
102
}
330
1F
100
AcDbEntity
  8
AM_7
100
AcDbLine
 10
910.0677812213534
 20
761.2959569219258
 30
0.0
 11
910.0677812213534
 21
753.095956921926
 31
0.0
1001
GENIUS_GENOREF_13
1005
80D2
  0
LINE
  5
800C
330
1F
100
AcDbEntity
  8
AM_7
  6
AM_ISO08W050x2
100
AcDbLine
 10
916.5677812213534
 20
770.7959569219258
 30
0.0
 11
922.0677812213535
 21
770.7959569219258
 31
0.0
1001
GENIUS_GENOREF_13
1005
80D1
  0
LINE
  5
800D
102
{ACAD_REACTORS
330
8050
330
8053
102
}
330
1F
100
AcDbEntity
  8
AM_7
  6
AM_ISO08W050x2
100
AcDbLine
 10
916.5677812213534
 20
770.7959569219258
 30
0.0
 11
916.5677812213534
 21
776.2959569219258
 31
0.0
1001
GENIUS_GENOREF_13
1005
80D1
  0
LINE
  5
800E
102
{ACAD_REACTORS
330
803D
102
}
330
1F
100
AcDbEntity
  8
AM_7
  6
AM_ISO08W050x2
100
AcDbLine
 10
916.5677812213534
 20
770.7959569219258
 30
0.0
 11
911.0677812213534
 21
770.7959569219258
 31
0.0
1001
GENIUS_GENOREF_13
1005
80D1
  0
LINE
  5
800F
330
1F
100
AcDbEntity
  8
AM_7
  6
AM_ISO08W050x2
100
AcDbLine
 10
916.5677812213534
 20
770.7959569219258
 30
0.0
 11
916.5677812213534
 21
765.2959569219258
 31
0.0
1001
GENIUS_GENOREF_13
1005
80D1
  0
LINE
  5
8010
330
1F
100
AcDbEntity
  8
AM_7
  6
AM_ISO08W050x2
100
AcDbLine
 10
926.5677812213535
 20
751.7959569219258
 30
0.0
 11
932.0677812213535
 21
751.7959569219258
 31
0.0
1001
GENIUS_GENOREF_13
1005
80D0
  0
LINE
  5
8011
102
{ACAD_REACTORS
330
8050
102
}
330
1F
100
AcDbEntity
  8
AM_7
  6
AM_ISO08W050x2
100
AcDbLine
 10
926.5677812213535
 20
751.7959569219258
 30
0.0
 11
926.5677812213535
 21
757.2959569219258
 31
0.0
1001
GENIUS_GENOREF_13
1005
80D0
  0
LINE
  5
8012
102
{ACAD_REACTORS
330
803D
102
}
330
1F
100
AcDbEntity
  8
AM_7
  6
AM_ISO08W050x2
100
AcDbLine
 10
926.5677812213535
 20
751.7959569219258
 30
0.0
 11
921.0677812213534
 21
751.7959569219258
 31
0.0
1001
GENIUS_GENOREF_13
1005
80D0
  0
LINE
  5
8013
330
1F
100
AcDbEntity
  8
AM_7
  6
AM_ISO08W050x2
100
AcDbLine
 10
926.5677812213535
 20
751.7959569219258
 30
0.0
 11
926.5677812213535
 21
746.2959569219258
 31
0.0
1001
GENIUS_GENOREF_13
1005
80D0
  0
LINE
  5
8014
330
1F
100
AcDbEntity
  8
AM_7
100
AcDbLine
 10
919.0677812213539
 20
614.4437575829756
 30
0.0
 11
946.567781221354
 21
614.4437575829756
 31
0.0
1001
GENIUS_GENOREF_13
1005
80CF
  0
LINE
  5
8015
330
1F
100
AcDbEntity
  8
AM_7
100
AcDbLine
 10
940.0677812213539
 20
614.4437575829756
 30
0.0
 11
940.0677812213539
 21
620.9437575829756
 31
0.0
1001
GENIUS_GENOREF_13
1005
80CF
  0
LINE
  5
8016
330
1F
100
AcDbEntity
  8
AM_7
100
AcDbLine
 10
940.0677812213539
 20
614.4437575829756
 30
0.0
 11
933.5677812213539
 21
614.4437575829756
 31
0.0
1001
GENIUS_GENOREF_13
1005
80CF
  0
LINE
  5
8017
102
{ACAD_REACTORS
330
8047
102
}
330
1F
100
AcDbEntity
  8
AM_7
100
AcDbLine
 10
940.0677812213539
 20
614.4437575829756
 30
0.0
 11
940.0677812213539
 21
607.9437575829756
 31
0.0
1001
GENIUS_GENOREF_13
1005
80CF
  0
LINE
  5
8018
330
1F
100
AcDbEntity
  8
AM_7
100
AcDbLine
 10
921.567781221354
 20
614.4437575829756
 30
0.0
 11
929.7677812213537
 21
614.4437575829756
 31
0.0
1001
GENIUS_GENOREF_13
1005
80CE
  0
LINE
  5
8019
330
1F
100
AcDbEntity
  8
AM_7
100
AcDbLine
 10
921.567781221354
 20
614.4437575829756
 30
0.0
 11
921.567781221354
 21
622.6437575829756
 31
0.0
1001
GENIUS_GENOREF_13
1005
80CE
  0
LINE
  5
801A
330
1F
100
AcDbEntity
  8
AM_7
100
AcDbLine
 10
921.567781221354
 20
614.4437575829756
 30
0.0
 11
913.3677812213539
 21
614.4437575829756
 31
0.0
1001
GENIUS_GENOREF_13
1005
80CE
  0
LINE
  5
801B
102
{ACAD_REACTORS
330
8044
330
8047
102
}
330
1F
100
AcDbEntity
  8
AM_7
100
AcDbLine
 10
921.567781221354
 20
614.4437575829756
 30
0.0
 11
921.567781221354
 21
606.2437575829756
 31
0.0
1001
GENIUS_GENOREF_13
1005
80CE
  0
LINE
  5
801C
330
1F
100
AcDbEntity
  8
AM_7
100
AcDbLine
 10
903.0677812213539
 20
614.4437575829756
 30
0.0
 11
909.5677812213539
 21
614.4437575829756
 31
0.0
1001
GENIUS_GENOREF_13
1005
80CD
  0
LINE
  5
801D
330
1F
100
AcDbEntity
  8
AM_7
100
AcDbLine
 10
903.0677812213539
 20
614.4437575829756
 30
0.0
 11
903.0677812213539
 21
620.9437575829756
 31
0.0
1001
GENIUS_GENOREF_13
1005
80CD
  0
LINE
  5
801E
330
1F
100
AcDbEntity
  8
AM_7
100
AcDbLine
 10
882.0677812213538
 20
614.4437575829756
 30
0.0
 11
875.5677812213539
 21
614.4437575829756
 31
0.0
1001
GENIUS_GENOREF_13
1005
80CD
  0
LINE
  5
801F
102
{ACAD_REACTORS
330
8041
330
8044
102
}
330
1F
100
AcDbEntity
  8
AM_7
100
AcDbLine
 10
903.0677812213539
 20
614.4437575829756
 30
0.0
 11
903.0677812213539
 21
607.9437575829756
 31
0.0
1001
GENIUS_GENOREF_13
1005
80CD
  0
LINE
  5
8020
330
1F
100
AcDbEntity
  8
AM_7
  6
AM_ISO08W050x2
100
AcDbLine
 10
916.5677812213539
 20
604.9437575829756
 30
0.0
 11
920.3177812213539
 21
604.9437575829756
 31
0.0
1001
GENIUS_GENOREF_13
1005
80CC
  0
LINE
  5
8021
330
1F
100
AcDbEntity
  8
AM_7
  6
AM_ISO08W050x2
100
AcDbLine
 10
916.5677812213539
 20
604.9437575829756
 30
0.0
 11
916.5677812213539
 21
608.6937575829757
 31
0.0
1001
GENIUS_GENOREF_13
1005
80CC
  0
LINE
  5
8022
330
1F
100
AcDbEntity
  8
AM_7
  6
AM_ISO08W050x2
100
AcDbLine
 10
916.5677812213539
 20
604.9437575829756
 30
0.0
 11
912.8177812213539
 21
604.9437575829756
 31
0.0
1001
GENIUS_GENOREF_13
1005
80CC
  0
LINE
  5
8023
330
1F
100
AcDbEntity
  8
AM_7
  6
AM_ISO08W050x2
100
AcDbLine
 10
916.5677812213539
 20
604.9437575829756
 30
0.0
 11
916.5677812213539
 21
601.1937575829756
 31
0.0
1001
GENIUS_GENOREF_13
1005
80CC
  0
LINE
  5
8024
330
1F
100
AcDbEntity
  8
AM_7
  6
AM_ISO08W050x2
100
AcDbLine
 10
926.5677812213539
 20
623.9437575829756
 30
0.0
 11
930.3177812213538
 21
623.9437575829756
 31
0.0
1001
GENIUS_GENOREF_13
1005
80CB
  0
LINE
  5
8025
330
1F
100
AcDbEntity
  8
AM_7
  6
AM_ISO08W050x2
100
AcDbLine
 10
926.5677812213539
 20
623.9437575829756
 30
0.0
 11
926.5677812213539
 21
627.6937575829756
 31
0.0
1001
GENIUS_GENOREF_13
1005
80CB
  0
LINE
  5
8026
330
1F
100
AcDbEntity
  8
AM_7
  6
AM_ISO08W050x2
100
AcDbLine
 10
926.5677812213539
 20
623.9437575829756
 30
0.0
 11
922.8177812213539
 21
623.9437575829756
 31
0.0
1001
GENIUS_GENOREF_13
1005
80CB
  0
LINE
  5
8027
330
1F
100
AcDbEntity
  8
AM_7
  6
AM_ISO08W050x2
100
AcDbLine
 10
926.5677812213539
 20
623.9437575829756
 30
0.0
 11
926.5677812213539
 21
620.1937575829756
 31
0.0
1001
GENIUS_GENOREF_13
1005
80CB
  0
LINE
  5
8028
330
1F
100
AcDbEntity
  8
AM_7
100
AcDbLine
 10
864.8914970534679
 20
614.4437575829758
 30
0.0
 11
972.2816894799057
 21
614.4437575829758
 31
0.0
1001
GENIUS_GENODEF_13
1002
{
1000
HIER
1070
     0
1002
}
1002
{
1000
MANEDIT
1070
     0
1002
}
1002
{
1000
NOSEL
1070
     0
1002
}
1002
{
1000
BEHIND
1070
     0
1002
}
1002
{
1000
OTHER
1070
     0
1002
}
1002
{
1000
REACTOR
1002
}
1001
GENIUS_GENOBJ-N-CEN_13
1002
{
1000
OWNER
1000
GEN
1002
}
1001
GENIUS_GENCEN_19
1002
{
1040
1.5
1002
}
  0
LINE
  5
8029
330
1F
100
AcDbEntity
  8
AM_7
100
AcDbLine
 10
863.898811179512
 20
761.2959569219262
 30
0.0
 11
971.7585135964318
 21
761.2959569219262
 31
0.0
1001
GENIUS_GENOBJ-N-CEN_13
1002
{
1000
OWNER
1000
GEN
1002
}
1001
GENIUS_GENODEF_13
1002
{
1000
HIER
1070
     0
1002
}
1002
{
1000
MANEDIT
1070
     0
1002
}
1002
{
1000
NOSEL
1070
     0
1002
}
1002
{
1000
BEHIND
1070
     0
1002
}
1002
{
1000
OTHER
1070
     0
1002
}
1002
{
1000
REACTOR
1002
}
1001
GENIUS_GENCEN_19
1002
{
1040
2.0
1002
}
  0
LINE
  5
802A
330
1F
100
AcDbEntity
  8
AM_7
  6
AM_ISO08W050x2
100
AcDbLine
 10
911.0677812213568
 20
674.2423596685246
 30
0.0
 11
914.8177812213569
 21
674.2423596685246
 31
0.0
1001
GENIUS_GENOREF_13
1005
80CA
  0
LINE
  5
802B
330
1F
100
AcDbEntity
  8
AM_7
  6
AM_ISO08W050x2
100
AcDbLine
 10
911.0677812213568
 20
674.2423596685246
 30
0.0
 11
911.0677812213568
 21
677.9923596685246
 31
0.0
1001
GENIUS_GENOREF_13
1005
80CA
  0
LINE
  5
802C
102
{ACAD_REACTORS
330
803A
102
}
330
1F
100
AcDbEntity
  8
AM_7
  6
AM_ISO08W050x2
100
AcDbLine
 10
911.0677812213568
 20
674.2423596685246
 30
0.0
 11
907.3177812213568
 21
674.2423596685246
 31
0.0
1001
GENIUS_GENOREF_13
1005
80CA
  0
LINE
  5
802D
102
{ACAD_REACTORS
330
8034
330
8037
102
}
330
1F
100
AcDbEntity
  8
AM_7
  6
AM_ISO08W050x2
100
AcDbLine
 10
911.0677812213568
 20
674.2423596685246
 30
0.0
 11
911.0677812213568
 21
670.4923596685246
 31
0.0
1001
GENIUS_GENOREF_13
1005
80CA
  0
LINE
  5
802E
330
1F
100
AcDbEntity
  8
AM_7
  6
AM_ISO08W050x2
100
AcDbLine
 10
932.0677812213569
 20
674.2423596685246
 30
0.0
 11
935.8177812213568
 21
674.2423596685246
 31
0.0
1001
GENIUS_GENOREF_13
1005
80C9
  0
LINE
  5
802F
330
1F
100
AcDbEntity
  8
AM_7
  6
AM_ISO08W050x2
100
AcDbLine
 10
932.0677812213569
 20
674.2423596685246
 30
0.0
 11
932.0677812213569
 21
677.9923596685246
 31
0.0
1001
GENIUS_GENOREF_13
1005
80C9
  0
LINE
  5
8030
330
1F
100
AcDbEntity
  8
AM_7
  6
AM_ISO08W050x2
100
AcDbLine
 10
932.0677812213569
 20
674.2423596685246
 30
0.0
 11
928.3177812213569
 21
674.2423596685246
 31
0.0
1001
GENIUS_GENOREF_13
1005
80C9
  0
LINE
  5
8031
102
{ACAD_REACTORS
330
8037
102
}
330
1F
100
AcDbEntity
  8
AM_7
  6
AM_ISO08W050x2
100
AcDbLine
 10
932.0677812213569
 20
674.2423596685246
 30
0.0
 11
932.0677812213569
 21
670.4923596685246
 31
0.0
1001
GENIUS_GENOREF_13
1005
80C9
  0
DIMENSION
  5
8032
102
{ACAD_XDICTIONARY
360
8033
102
}
102
{ACAD_REACTORS
330
8034
102
}
330
1F
100
AcDbEntity
  8
AM_5
100
AcDbDimension
  2
*D7
 10
911.0677812213568
 20
655.0923596685245
 30
0.0
 11
883.3177812213554
 21
658.7673596685244
 31
0.0
 70
    32
 71
     5
 42
55.50000000000295
  3
AM_ISO$0
100
AcDbAlignedDimension
 13
855.567781221354
 23
670.0923596685246
 33
0.0
 14
911.0677812213568
 24
670.4923596685246
 34
0.0
100
AcDbRotatedDimension
1001
ACAD
1000
DSTYLE
1002
{
1070
    40
1040
1.5
1070
   272
1070
     8
1002
}
  0
DIMENSION
  5
8035
102
{ACAD_XDICTIONARY
360
8036
102
}
102
{ACAD_REACTORS
330
8037
102
}
330
1F
100
AcDbEntity
  8
AM_5
100
AcDbDimension
  2
*D8
 10
932.0677812213569
 20
655.0923596685246
 30
0.0
 11
921.5677812213568
 21
658.7678764008081
 31
0.0
 70
    32
 71
     5
 42
21.0
  3
AM_ISO$0
100
AcDbAlignedDimension
 13
911.0677812213568
 23
670.4923596685246
 33
0.0
 14
932.0677812213569
 24
670.4923596685246
 34
0.0
100
AcDbRotatedDimension
1001
ACAD
1000
DSTYLE
1002
{
1070
    40
1040
1.5
1070
   272
1070
     8
1002
}
  0
DIMENSION
  5
8038
102
{ACAD_XDICTIONARY
360
8039
102
}
102
{ACAD_REACTORS
330
803A
102
}
330
1F
100
AcDbEntity
  8
AM_5
100
AcDbDimension
  2
*D9
 10
840.5677812213539
 20
674.2423596685246
 30
0.0
 11
836.8922644890703
 21
688.3875146882099
 31
0.0
 70
    32
 71
     5
 42
4.15000000000009
  3
AM_ISO$0
100
AcDbAlignedDimension
 13
855.567781221354
 23
670.0923596685245
 33
0.0
 14
907.3177812213568
 24
674.2423596685246
 34
0.0
 50
90.0
100
AcDbRotatedDimension
1001
ACAD
1000
DSTYLE
1002
{
1070
    40
1040
1.5
1070
   271
1070
     1
1070
   272
1070
     8
1002
}
  0
DIMENSION
  5
803B
102
{ACAD_XDICTIONARY
360
803C
102
}
102
{ACAD_REACTORS
330
803D
102
}
330
1F
100
AcDbEntity
  8
AM_5
100
AcDbDimension
  2
*D10
 10
840.5677812213539
 20
751.7959569219258
 30
0.0
 11
836.8927812213538
 21
761.2959569219261
 31
0.0
 70
    32
 71
     5
 42
19.0
  3
AM_ISO$0
100
AcDbAlignedDimension
 13
911.0677812213534
 23
770.7959569219258
 33
0.0
 14
921.0677812213534
 24
751.7959569219258
 34
0.0
 50
90.0
100
AcDbRotatedDimension
1001
ACAD
1000
DSTYLE
1002
{
1070
    40
1040
1.5
1070
   272
1070
     8
1002
}
  0
DIMENSION
  5
803E
330
1F
100
AcDbEntity
  8
AM_5
100
AcDbDimension
  2
*D3
 10
830.567781221354
 20
748.0959569219262
 30
0.0
 11
826.8922644890704
 21
761.2959569219263
 31
0.0
 70
    32
 71
     5
 42
26.39999999999986
  3
AM_ISO$0
100
AcDbAlignedDimension
 13
870.0677812213539
 23
774.4959569219261
 33
0.0
 14
870.0677812213539
 24
748.0959569219262
 34
0.0
 50
90.0
100
AcDbRotatedDimension
1001
ACAD
1000
DSTYLE
1002
{
1070
    40
1040
1.5
1070
   272
1070
     8
1002
}
  0
DIMENSION
  5
803F
102
{ACAD_XDICTIONARY
360
8040
102
}
102
{ACAD_REACTORS
330
8041
102
}
330
1F
100
AcDbEntity
  8
AM_5
100
AcDbDimension
  2
*D11
 10
903.0677812213539
 20
586.2437575829756
 30
0.0
 11
879.3177812213539
 21
589.9187575829755
 31
0.0
 70
    32
 71
     5
 42
47.5
  3
AM_ISO$0
100
AcDbAlignedDimension
 13
855.567781221354
 23
601.2437575829756
 33
0.0
 14
903.0677812213539
 24
607.9437575829756
 34
0.0
100
AcDbRotatedDimension
1001
ACAD
1000
DSTYLE
1002
{
1070
    40
1040
1.5
1070
   272
1070
     8
1002
}
  0
DIMENSION
  5
8042
102
{ACAD_XDICTIONARY
360
8043
102
}
102
{ACAD_REACTORS
330
8044
102
}
330
1F
100
AcDbEntity
  8
AM_5
100
AcDbDimension
  2
*D12
 10
921.567781221354
 20
586.2437575829756
 30
0.0
 11
912.3177812213539
 21
589.9187575829755
 31
0.0
 70
    32
 71
     5
 42
18.5
  3
AM_ISO$0
100
AcDbAlignedDimension
 13
903.0677812213539
 23
607.9437575829756
 33
0.0
 14
921.567781221354
 24
606.2437575829756
 34
0.0
100
AcDbRotatedDimension
1001
ACAD
1000
DSTYLE
1002
{
1070
    40
1040
1.5
1070
   272
1070
     8
1002
}
  0
DIMENSION
  5
8045
102
{ACAD_XDICTIONARY
360
8046
102
}
102
{ACAD_REACTORS
330
8047
102
}
330
1F
100
AcDbEntity
  8
AM_5
100
AcDbDimension
  2
*D13
 10
940.0677812213539
 20
586.2437575829756
 30
0.0
 11
930.8177812213539
 21
589.9187575829755
 31
0.0
 70
    32
 71
     5
 42
18.5
  3
AM_ISO$0
100
AcDbAlignedDimension
 13
921.567781221354
 23
606.2437575829756
 33
0.0
 14
940.0677812213539
 24
607.9437575829756
 34
0.0
100
AcDbRotatedDimension
1001
ACAD
1000
DSTYLE
1002
{
1070
    40
1040
1.5
1070
   272
1070
     8
1002
}
  0
DIMENSION
  5
8048
102
{ACAD_XDICTIONARY
360
8049
102
}
102
{ACAD_REACTORS
330
804A
102
}
330
1F
100
AcDbEntity
  8
AM_5
100
AcDbDimension
  2
*D14
 10
910.0677812213534
 20
733.095956921926
 30
0.0
 11
882.8177812213537
 21
736.7709569219259
 31
0.0
 70
    32
 71
     5
 42
54.49999999999954
  3
AM_ISO$0
100
AcDbAlignedDimension
 13
855.567781221354
 23
748.095956921926
 33
0.0
 14
910.0677812213534
 24
753.095956921926
 34
0.0
100
AcDbRotatedDimension
1001
ACAD
1000
DSTYLE
1002
{
1070
    40
1040
1.5
1070
   272
1070
     8
1002
}
  0
DIMENSION
  5
804B
102
{ACAD_XDICTIONARY
360
804C
102
}
102
{ACAD_REACTORS
330
804D
102
}
330
1F
100
AcDbEntity
  8
AM_5
100
AcDbDimension
  2
*D15
 10
933.0677812213535
 20
733.095956921926
 30
0.0
 11
921.5677812213534
 21
736.7714736542094
 31
0.0
 70
    32
 71
     5
 42
23.0
  3
AM_ISO$0
100
AcDbAlignedDimension
 13
910.0677812213534
 23
753.095956921926
 33
0.0
 14
933.0677812213535
 24
753.095956921926
 34
0.0
100
AcDbRotatedDimension
1001
ACAD
1000
DSTYLE
1002
{
1070
    40
1040
1.5
1070
   272
1070
     8
1002
}
  0
DIMENSION
  5
804E
102
{ACAD_XDICTIONARY
360
804F
102
}
102
{ACAD_REACTORS
330
8050
102
}
330
1F
100
AcDbEntity
  8
AM_5
100
AcDbDimension
  2
*D16
 10
926.5677812213535
 20
789.4959569219261
 30
0.0
 11
921.5677812213534
 21
793.170956921926
 31
0.0
 70
    32
 71
     5
 42
10.0
  3
AM_ISO$0
100
AcDbAlignedDimension
 13
916.5677812213534
 23
776.2959569219258
 33
0.0
 14
926.5677812213535
 24
757.2959569219258
 34
0.0
100
AcDbRotatedDimension
1001
ACAD
1000
DSTYLE
1002
{
1070
    40
1040
1.5
1070
   272
1070
     8
1002
}
  0
DIMENSION
  5
8051
102
{ACAD_XDICTIONARY
360
8052
102
}
102
{ACAD_REACTORS
330
8053
102
}
330
1F
100
AcDbEntity
  8
AM_5
100
AcDbDimension
  2
*D17
 10
916.5677812213534
 20
789.4959569219261
 30
0.0
 11
886.0677812213536
 21
793.170956921926
 31
0.0
 70
    32
 71
     5
 42
60.99999999999955
  3
AM_ISO$0
100
AcDbAlignedDimension
 13
855.567781221354
 23
774.4959569219261
 33
0.0
 14
916.5677812213534
 24
776.2959569219258
 34
0.0
100
AcDbRotatedDimension
1001
ACAD
1000
DSTYLE
1002
{
1070
    40
1040
1.5
1070
   272
1070
     8
1002
}
  0
DIMENSION
  5
8054
330
1F
100
AcDbEntity
  8
AM_5
100
AcDbDimension
  2
*D4
 10
830.567781221354
 20
705.3923596685246
 30
0.0
 11
826.8927812213538
 21
687.7423596685248
 31
0.0
 70
    32
 71
     5
 42
35.30000000000007
  3
AM_ISO$0
100
AcDbAlignedDimension
 13
855.567781221354
 23
670.0923596685245
 33
0.0
 14
855.567781221354
 24
705.3923596685246
 34
0.0
 50
90.0
100
AcDbRotatedDimension
1001
ACAD
1000
DSTYLE
1002
{
1070
    40
1040
1.5
1070
   272
1070
     8
1002
}
  0
TEXT
  5
8055
330
1F
100
AcDbEntity
  8
AM_5
100
AcDbText
 10
946.8136806790949
 20
734.7232796710843
 30
0.0
 40
5.95
  1
2-%%c4.5貫通
100
AcDbText
  0
INSERT
  5
8056
330
1F
100
AcDbEntity
  8
AM_5
100
AcDbBlockReference
  2
*S18
 10
0.0
 20
0.0
 30
0.0
  0
TEXT
  5
8057
330
1F
100
AcDbEntity
  8
AM_5
100
AcDbText
 10
957.4184066834746
 20
786.0844565170761
 30
0.0
 40
5.95
  1
2-PT1/4
100
AcDbText
  0
INSERT
  5
8058
330
1F
100
AcDbEntity
  8
AM_VIS
100
AcDbBlockReference
  2
*S19
 10
0.0
 20
0.0
 30
0.0
  0
TEXT
  5
8059
330
1F
100
AcDbEntity
  8
AM_5
100
AcDbText
 10
958.4482841358717
 20
586.3566134504485
 30
0.0
 40
5.95
  1
2-PT1/8
100
AcDbText
  0
INSERT
  5
805A
330
1F
100
AcDbEntity
  8
AM_5
100
AcDbBlockReference
  2
*S20
 10
0.0
 20
0.0
 30
0.0
  0
TEXT
  5
805B
330
1F
100
AcDbEntity
  8
AM_5
100
AcDbText
 10
876.4533531424527
 20
639.4549091638436
 30
0.0
 40
5.95
  1
PT1/4
100
AcDbText
  0
INSERT
  5
805C
330
1F
100
AcDbEntity
  8
AM_5
100
AcDbBlockReference
  2
*S21
 10
0.0
 20
0.0
 30
0.0
  0
TEXT
  5
805D
330
1F
100
AcDbEntity
  8
AM_5
100
AcDbText
 10
946.8136806790949
 20
656.9621366863166
 30
0.0
 40
5.95
  1
2-%%c4.5貫通
100
AcDbText
  0
INSERT
  5
805E
330
1F
100
AcDbEntity
  8
AM_5
100
AcDbBlockReference
  2
*S22
 10
0.0
 20
0.0
 30
0.0
  0
LINE
  5
805F
330
1F
100
AcDbEntity
  8
AM_VIS
100
AcDbLine
 10
946.567781221354
 20
748.095956921926
 30
0.0
 11
966.5677812213539
 21
748.095956921926
 31
0.0
  0
LINE
  5
8060
330
1F
100
AcDbEntity
  8
AM_VIS
100
AcDbLine
 10
946.567781221354
 20
774.4959569219258
 30
0.0
 11
966.5677812213539
 21
774.4959569219258
 31
0.0
  0
LINE
  5
8061
330
1F
100
AcDbEntity
  8
AM_VIS
100
AcDbLine
 10
966.5677812213539
 20
774.4959569219258
 30
0.0
 11
966.5677812213539
 21
748.095956921926
 31
0.0
  0
LINE
  5
8062
330
1F
100
AcDbEntity
  8
AM_VIS
100
AcDbLine
 10
946.567781221354
 20
670.0923596685246
 30
0.0
 11
966.5677812213539
 21
670.0923596685246
 31
0.0
  0
LINE
  5
8063
330
1F
100
AcDbEntity
  8
AM_VIS
100
AcDbLine
 10
946.567781221354
 20
705.3923596685246
 30
0.0
 11
966.5677812213539
 21
705.3923596685246
 31
0.0
  0
LINE
  5
8064
102
{ACAD_REACTORS
330
8076
102
}
330
1F
100
AcDbEntity
  8
AM_VIS
100
AcDbLine
 10
966.5677812213539
 20
705.3923596685246
 30
0.0
 11
966.5677812213539
 21
670.0923596685246
 31
0.0
  0
LINE
  5
8065
330
1F
100
AcDbEntity
  8
AM_VIS
100
AcDbLine
 10
946.567781221354
 20
601.2437575829756
 30
0.0
 11
966.5677812213539
 21
601.2437575829756
 31
0.0
  0
LINE
  5
8066
330
1F
100
AcDbEntity
  8
AM_VIS
100
AcDbLine
 10
946.567781221354
 20
627.6437575829755
 30
0.0
 11
966.5677812213539
 21
627.6437575829755
 31
0.0
  0
LINE
  5
8067
330
1F
100
AcDbEntity
  8
AM_VIS
100
AcDbLine
 10
966.5677812213539
 20
627.6437575829755
 30
0.0
 11
966.5677812213539
 21
601.2437575829756
 31
0.0
  0
LINE
  5
8068
330
1F
100
AcDbEntity
  8
AM_0
  6
HIDDEN
 62
     3
 48
0.2
100
AcDbLine
 10
960.3677812213538
 20
677.9861096685245
 30
0.0
 11
966.5677812213539
 21
677.7923596685245
 31
0.0
  0
LINE
  5
8069
330
1F
100
AcDbEntity
  8
AM_0
  6
HIDDEN
 62
     3
 48
0.2
100
AcDbLine
 10
960.3677812213538
 20
688.0986096685246
 30
0.0
 11
966.5677812213539
 21
688.2923596685246
 31
0.0
  0
LINE
  5
806A
330
1F
100
AcDbEntity
  8
AM_0
  6
HIDDEN
 62
     3
 48
0.2
100
AcDbLine
 10
960.3677812213538
 20
687.1316096685245
 30
0.0
 11
966.5677812213539
 21
687.3253596685246
 31
0.0
  0
LINE
  5
806B
330
1F
100
AcDbEntity
  8
AM_0
  6
HIDDEN
 62
     3
 48
0.2
100
AcDbLine
 10
960.3677812213538
 20
678.9531096685245
 30
0.0
 11
966.5677812213539
 21
678.7593596685247
 31
0.0
  0
LINE
  5
806C
102
{ACAD_REACTORS
330
8076
102
}
330
1F
100
AcDbEntity
  8
AM_7
  6
AM_ISO08W050x2
100
AcDbLine
 10
957.4144697161894
 20
683.0423596685245
 30
0.0
 11
967.9726772209239
 21
683.0423596685245
 31
0.0
  0
POINT
  5
806D
330
1F
100
AcDbEntity
  8
AM_7
  6
AM_ISO08W050x2
100
AcDbPoint
 10
962.5977812213539
 20
683.0423596685245
 30
0.0
  0
LINE
  5
806E
330
1F
100
AcDbEntity
  8
AM_0
  6
HIDDEN
 62
     3
 48
0.2
100
AcDbLine
 10
960.3677812213538
 20
678.9531096685245
 30
0.0
 11
959.007131221354
 21
678.9531096685246
 31
0.0
  0
LINE
  5
806F
330
1F
100
AcDbEntity
  8
AM_0
  6
HIDDEN
 62
     3
 48
0.2
100
AcDbLine
 10
960.3677812213538
 20
687.1316096685245
 30
0.0
 11
959.007131221354
 21
687.1316096685245
 31
0.0
  0
LINE
  5
8070
330
1F
100
AcDbEntity
  8
AM_0
  6
HIDDEN
 62
     3
 48
0.2
100
AcDbLine
 10
960.3677812213538
 20
688.0986096685246
 30
0.0
 11
960.3677812213538
 21
677.9861096685245
 31
0.0
  0
LINE
  5
8071
330
1F
100
AcDbEntity
  8
AM_0
  6
HIDDEN
 62
     3
 48
0.2
100
AcDbLine
 10
960.3677812213538
 20
677.9861096685245
 30
0.0
 11
959.007131221354
 21
678.9531096685245
 31
0.0
  0
LINE
  5
8072
330
1F
100
AcDbEntity
  8
AM_0
  6
HIDDEN
 62
     3
 48
0.2
100
AcDbLine
 10
960.3677812213538
 20
688.0986096685246
 30
0.0
 11
959.007131221354
 21
687.1316096685245
 31
0.0
  0
LINE
  5
8073
330
1F
100
AcDbEntity
  8
AM_0
  6
HIDDEN
 62
     3
 48
0.2
100
AcDbLine
 10
959.007131221354
 20
678.9531096685245
 30
0.0
 11
959.007131221354
 21
687.1316096685245
 31
0.0
  0
DIMENSION
  5
8074
102
{ACAD_XDICTIONARY
360
8075
102
}
102
{ACAD_REACTORS
330
8076
102
}
330
1F
100
AcDbEntity
  8
AM_5
100
AcDbDimension
  2
*D5
 10
981.5677812213539
 20
670.0923596685246
 30
0.0
 11
981.5677812213538
 21
676.5673596685246
 31
0.0
 70
   160
 71
     5
 42
12.94999999999993
  3
AM_ISO$0
100
AcDbAlignedDimension
 13
967.9726772209239
 23
683.0423596685245
 33
0.0
 14
966.5677812213539
 24
670.0923596685246
 34
0.0
 50
90.0
100
AcDbRotatedDimension
1001
ACAD
1000
DSTYLE
1002
{
1070
    40
1040
1.5
1070
   271
1070
     0
1070
   272
1070
     8
1002
}
  0
LINE
  5
8077
330
1F
100
AcDbEntity
  8
AM_0
  6
HIDDEN
 62
     3
 48
0.2
100
AcDbLine
 10
960.3677812213538
 20
756.2397069219257
 30
0.0
 11
966.5677812213539
 21
756.0459569219258
 31
0.0
  0
LINE
  5
8078
330
1F
100
AcDbEntity
  8
AM_0
  6
HIDDEN
 62
     3
 48
0.2
100
AcDbLine
 10
960.3677812213538
 20
766.3522069219259
 30
0.0
 11
966.5677812213539
 21
766.5459569219258
 31
0.0
  0
LINE
  5
8079
330
1F
100
AcDbEntity
  8
AM_0
  6
HIDDEN
 62
     3
 48
0.2
100
AcDbLine
 10
960.3677812213538
 20
765.3852069219258
 30
0.0
 11
966.5677812213539
 21
765.5789569219257
 31
0.0
  0
LINE
  5
807A
330
1F
100
AcDbEntity
  8
AM_0
  6
HIDDEN
 62
     3
 48
0.2
100
AcDbLine
 10
960.3677812213538
 20
757.2067069219258
 30
0.0
 11
966.5677812213539
 21
757.0129569219259
 31
0.0
  0
LINE
  5
807B
330
1F
100
AcDbEntity
  8
AM_7
  6
AM_ISO08W050x2
100
AcDbLine
 10
957.4144697161894
 20
761.2959569219258
 30
0.0
 11
967.9726772209239
 21
761.2959569219258
 31
0.0
  0
POINT
  5
807C
330
1F
100
AcDbEntity
  8
AM_7
  6
AM_ISO08W050x2
100
AcDbPoint
 10
962.5977812213539
 20
761.2959569219258
 30
0.0
  0
LINE
  5
807D
330
1F
100
AcDbEntity
  8
AM_0
  6
HIDDEN
 62
     3
 48
0.2
100
AcDbLine
 10
960.3677812213538
 20
757.2067069219258
 30
0.0
 11
959.007131221354
 21
757.2067069219258
 31
0.0
  0
LINE
  5
807E
330
1F
100
AcDbEntity
  8
AM_0
  6
HIDDEN
 62
     3
 48
0.2
100
AcDbLine
 10
960.3677812213538
 20
765.3852069219258
 30
0.0
 11
959.007131221354
 21
765.3852069219258
 31
0.0
  0
LINE
  5
807F
330
1F
100
AcDbEntity
  8
AM_0
  6
HIDDEN
 62
     3
 48
0.2
100
AcDbLine
 10
960.3677812213538
 20
766.3522069219259
 30
0.0
 11
960.3677812213538
 21
756.2397069219257
 31
0.0
  0
LINE
  5
8080
330
1F
100
AcDbEntity
  8
AM_0
  6
HIDDEN
 62
     3
 48
0.2
100
AcDbLine
 10
960.3677812213538
 20
756.2397069219257
 30
0.0
 11
959.007131221354
 21
757.2067069219258
 31
0.0
  0
LINE
  5
8081
330
1F
100
AcDbEntity
  8
AM_0
  6
HIDDEN
 62
     3
 48
0.2
100
AcDbLine
 10
960.3677812213538
 20
766.3522069219259
 30
0.0
 11
959.007131221354
 21
765.3852069219258
 31
0.0
  0
LINE
  5
8082
330
1F
100
AcDbEntity
  8
AM_0
  6
HIDDEN
 62
     3
 48
0.2
100
AcDbLine
 10
959.007131221354
 20
757.2067069219258
 30
0.0
 11
959.007131221354
 21
765.3852069219258
 31
0.0
  0
LINE
  5
8083
330
1F
100
AcDbEntity
  8
AM_0
  6
HIDDEN
 62
     3
 48
0.2
100
AcDbLine
 10
960.3677812213538
 20
609.3875075829755
 30
0.0
 11
966.5677812213539
 21
609.1937575829755
 31
0.0
  0
LINE
  5
8084
330
1F
100
AcDbEntity
  8
AM_0
  6
HIDDEN
 62
     3
 48
0.2
100
AcDbLine
 10
960.3677812213538
 20
619.5000075829756
 30
0.0
 11
966.5677812213539
 21
619.6937575829755
 31
0.0
  0
LINE
  5
8085
330
1F
100
AcDbEntity
  8
AM_0
  6
HIDDEN
 62
     3
 48
0.2
100
AcDbLine
 10
960.3677812213538
 20
618.5330075829755
 30
0.0
 11
966.5677812213539
 21
618.7267575829755
 31
0.0
  0
LINE
  5
8086
330
1F
100
AcDbEntity
  8
AM_0
  6
HIDDEN
 62
     3
 48
0.2
100
AcDbLine
 10
960.3677812213538
 20
610.3545075829755
 30
0.0
 11
966.5677812213539
 21
610.1607575829756
 31
0.0
  0
LINE
  5
8087
330
1F
100
AcDbEntity
  8
AM_7
  6
AM_ISO08W050x2
100
AcDbLine
 10
957.4144697161894
 20
614.4437575829755
 30
0.0
 11
967.9726772209239
 21
614.4437575829755
 31
0.0
  0
POINT
  5
8088
330
1F
100
AcDbEntity
  8
AM_7
  6
AM_ISO08W050x2
100
AcDbPoint
 10
962.5977812213539
 20
614.4437575829755
 30
0.0
  0
LINE
  5
8089
330
1F
100
AcDbEntity
  8
AM_0
  6
HIDDEN
 62
     3
 48
0.2
100
AcDbLine
 10
960.3677812213538
 20
610.3545075829755
 30
0.0
 11
959.007131221354
 21
610.3545075829757
 31
0.0
  0
LINE
  5
808A
330
1F
100
AcDbEntity
  8
AM_0
  6
HIDDEN
 62
     3
 48
0.2
100
AcDbLine
 10
960.3677812213538
 20
618.5330075829755
 30
0.0
 11
959.007131221354
 21
618.5330075829755
 31
0.0
  0
LINE
  5
808B
330
1F
100
AcDbEntity
  8
AM_0
  6
HIDDEN
 62
     3
 48
0.2
100
AcDbLine
 10
960.3677812213538
 20
619.5000075829756
 30
0.0
 11
960.3677812213538
 21
609.3875075829755
 31
0.0
  0
LINE
  5
808C
330
1F
100
AcDbEntity
  8
AM_0
  6
HIDDEN
 62
     3
 48
0.2
100
AcDbLine
 10
960.3677812213538
 20
609.3875075829755
 30
0.0
 11
959.007131221354
 21
610.3545075829755
 31
0.0
  0
LINE
  5
808D
330
1F
100
AcDbEntity
  8
AM_0
  6
HIDDEN
 62
     3
 48
0.2
100
AcDbLine
 10
960.3677812213538
 20
619.5000075829756
 30
0.0
 11
959.007131221354
 21
618.5330075829755
 31
0.0
  0
LINE
  5
808E
330
1F
100
AcDbEntity
  8
AM_0
  6
HIDDEN
 62
     3
 48
0.2
100
AcDbLine
 10
959.007131221354
 20
610.3545075829755
 30
0.0
 11
959.007131221354
 21
618.5330075829755
 31
0.0
  0
LINE
  5
808F
330
1F
100
AcDbEntity
  8
AM_VIS
100
AcDbLine
 10
875.5677812213539
 20
670.0923596685246
 30
0.0
 11
855.567781221354
 21
670.0923596685246
 31
0.0
  0
LINE
  5
8090
330
1F
100
AcDbEntity
  8
AM_VIS
100
AcDbLine
 10
875.5677812213539
 20
705.3923596685246
 30
0.0
 11
855.567781221354
 21
705.3923596685246
 31
0.0
  0
LINE
  5
8091
330
1F
100
AcDbEntity
  8
AM_VIS
100
AcDbLine
 10
855.567781221354
 20
705.3923596685246
 30
0.0
 11
855.567781221354
 21
670.0923596685246
 31
0.0
  0
LINE
  5
8092
330
1F
100
AcDbEntity
  8
AM_0
  6
HIDDEN
 62
     3
 48
0.2
100
AcDbLine
 10
861.7677812213539
 20
677.9861096685245
 30
0.0
 11
855.567781221354
 21
677.7923596685245
 31
0.0
  0
LINE
  5
8093
330
1F
100
AcDbEntity
  8
AM_0
  6
HIDDEN
 62
     3
 48
0.2
100
AcDbLine
 10
861.7677812213539
 20
688.0986096685246
 30
0.0
 11
855.567781221354
 21
688.2923596685246
 31
0.0
  0
LINE
  5
8094
330
1F
100
AcDbEntity
  8
AM_0
  6
HIDDEN
 62
     3
 48
0.2
100
AcDbLine
 10
861.7677812213539
 20
687.1316096685245
 30
0.0
 11
855.567781221354
 21
687.3253596685246
 31
0.0
  0
LINE
  5
8095
330
1F
100
AcDbEntity
  8
AM_0
  6
HIDDEN
 62
     3
 48
0.2
100
AcDbLine
 10
861.7677812213539
 20
678.9531096685245
 30
0.0
 11
855.567781221354
 21
678.7593596685247
 31
0.0
  0
LINE
  5
8096
330
1F
100
AcDbEntity
  8
AM_7
  6
AM_ISO08W050x2
100
AcDbLine
 10
864.7210927265184
 20
683.0423596685245
 30
0.0
 11
854.1628852217838
 21
683.0423596685245
 31
0.0
  0
POINT
  5
8097
330
1F
100
AcDbEntity
  8
AM_7
  6
AM_ISO08W050x2
100
AcDbPoint
 10
859.537781221354
 20
683.0423596685245
 30
0.0
  0
LINE
  5
8098
330
1F
100
AcDbEntity
  8
AM_0
  6
HIDDEN
 62
     3
 48
0.2
100
AcDbLine
 10
861.7677812213539
 20
678.9531096685245
 30
0.0
 11
863.1284312213537
 21
678.9531096685246
 31
0.0
  0
LINE
  5
8099
330
1F
100
AcDbEntity
  8
AM_0
  6
HIDDEN
 62
     3
 48
0.2
100
AcDbLine
 10
861.7677812213539
 20
687.1316096685245
 30
0.0
 11
863.1284312213537
 21
687.1316096685245
 31
0.0
  0
LINE
  5
809A
330
1F
100
AcDbEntity
  8
AM_0
  6
HIDDEN
 62
     3
 48
0.2
100
AcDbLine
 10
861.7677812213539
 20
688.0986096685246
 30
0.0
 11
861.7677812213539
 21
677.9861096685245
 31
0.0
  0
LINE
  5
809B
330
1F
100
AcDbEntity
  8
AM_0
  6
HIDDEN
 62
     3
 48
0.2
100
AcDbLine
 10
861.7677812213539
 20
677.9861096685245
 30
0.0
 11
863.1284312213537
 21
678.9531096685245
 31
0.0
  0
LINE
  5
809C
330
1F
100
AcDbEntity
  8
AM_0
  6
HIDDEN
 62
     3
 48
0.2
100
AcDbLine
 10
861.7677812213539
 20
688.0986096685246
 30
0.0
 11
863.1284312213537
 21
687.1316096685245
 31
0.0
  0
LINE
  5
809D
330
1F
100
AcDbEntity
  8
AM_0
  6
HIDDEN
 62
     3
 48
0.2
100
AcDbLine
 10
863.1284312213537
 20
678.9531096685245
 30
0.0
 11
863.1284312213537
 21
687.1316096685245
 31
0.0
  0
LINE
  5
809E
330
1F
100
AcDbEntity
  8
AM_7
100
AcDbLine
 10
958.2367512631959
 20
761.2959569219262
 30
0.0
 11
850.3770488462759
 21
761.2959569219262
 31
0.0
1001
GENIUS_GENOBJ-N-CEN_13
1002
{
1000
OWNER
1000
GEN
1002
}
1001
GENIUS_GENODEF_13
1002
{
1000
HIER
1070
     0
1002
}
1002
{
1000
MANEDIT
1070
     0
1002
}
1002
{
1000
NOSEL
1070
     0
1002
}
1002
{
1000
BEHIND
1070
     0
1002
}
1002
{
1000
OTHER
1070
     0
1002
}
1002
{
1000
REACTOR
1002
}
1001
GENIUS_GENCEN_19
1002
{
1040
2.0
1002
}
  0
LINE
  5
809F
330
1F
100
AcDbEntity
  8
AM_VIS
100
AcDbLine
 10
875.5677812213539
 20
748.095956921926
 30
0.0
 11
855.567781221354
 21
748.095956921926
 31
0.0
  0
LINE
  5
80A0
330
1F
100
AcDbEntity
  8
AM_VIS
100
AcDbLine
 10
875.5677812213539
 20
774.4959569219258
 30
0.0
 11
855.567781221354
 21
774.4959569219258
 31
0.0
  0
LINE
  5
80A1
330
1F
100
AcDbEntity
  8
AM_VIS
100
AcDbLine
 10
855.567781221354
 20
774.4959569219258
 30
0.0
 11
855.567781221354
 21
748.095956921926
 31
0.0
  0
LINE
  5
80A2
330
1F
100
AcDbEntity
  8
AM_0
  6
HIDDEN
 62
     3
 48
0.2
100
AcDbLine
 10
861.7677812213539
 20
756.2397069219257
 30
0.0
 11
855.567781221354
 21
756.0459569219258
 31
0.0
  0
LINE
  5
80A3
330
1F
100
AcDbEntity
  8
AM_0
  6
HIDDEN
 62
     3
 48
0.2
100
AcDbLine
 10
861.7677812213539
 20
766.3522069219259
 30
0.0
 11
855.567781221354
 21
766.5459569219258
 31
0.0
  0
LINE
  5
80A4
330
1F
100
AcDbEntity
  8
AM_0
  6
HIDDEN
 62
     3
 48
0.2
100
AcDbLine
 10
861.7677812213539
 20
765.3852069219258
 30
0.0
 11
855.567781221354
 21
765.5789569219257
 31
0.0
  0
LINE
  5
80A5
330
1F
100
AcDbEntity
  8
AM_0
  6
HIDDEN
 62
     3
 48
0.2
100
AcDbLine
 10
861.7677812213539
 20
757.2067069219258
 30
0.0
 11
855.567781221354
 21
757.0129569219259
 31
0.0
  0
LINE
  5
80A6
330
1F
100
AcDbEntity
  8
AM_7
  6
AM_ISO08W050x2
100
AcDbLine
 10
864.7210927265184
 20
761.2959569219258
 30
0.0
 11
854.1628852217838
 21
761.2959569219258
 31
0.0
  0
POINT
  5
80A7
330
1F
100
AcDbEntity
  8
AM_7
  6
AM_ISO08W050x2
100
AcDbPoint
 10
859.537781221354
 20
761.2959569219258
 30
0.0
  0
LINE
  5
80A8
330
1F
100
AcDbEntity
  8
AM_0
  6
HIDDEN
 62
     3
 48
0.2
100
AcDbLine
 10
861.7677812213539
 20
757.2067069219258
 30
0.0
 11
863.1284312213537
 21
757.2067069219258
 31
0.0
  0
LINE
  5
80A9
330
1F
100
AcDbEntity
  8
AM_0
  6
HIDDEN
 62
     3
 48
0.2
100
AcDbLine
 10
861.7677812213539
 20
765.3852069219258
 30
0.0
 11
863.1284312213537
 21
765.3852069219258
 31
0.0
  0
LINE
  5
80AA
330
1F
100
AcDbEntity
  8
AM_0
  6
HIDDEN
 62
     3
 48
0.2
100
AcDbLine
 10
861.7677812213539
 20
766.3522069219259
 30
0.0
 11
861.7677812213539
 21
756.2397069219257
 31
0.0
  0
LINE
  5
80AB
330
1F
100
AcDbEntity
  8
AM_0
  6
HIDDEN
 62
     3
 48
0.2
100
AcDbLine
 10
861.7677812213539
 20
756.2397069219257
 30
0.0
 11
863.1284312213537
 21
757.2067069219258
 31
0.0
  0
LINE
  5
80AC
330
1F
100
AcDbEntity
  8
AM_0
  6
HIDDEN
 62
     3
 48
0.2
100
AcDbLine
 10
861.7677812213539
 20
766.3522069219259
 30
0.0
 11
863.1284312213537
 21
765.3852069219258
 31
0.0
  0
LINE
  5
80AD
330
1F
100
AcDbEntity
  8
AM_0
  6
HIDDEN
 62
     3
 48
0.2
100
AcDbLine
 10
863.1284312213537
 20
757.2067069219258
 30
0.0
 11
863.1284312213537
 21
765.3852069219258
 31
0.0
  0
LINE
  5
80AE
330
1F
100
AcDbEntity
  8
AM_VIS
100
AcDbLine
 10
875.5677812213539
 20
601.2437575829756
 30
0.0
 11
855.567781221354
 21
601.2437575829756
 31
0.0
  0
LINE
  5
80AF
330
1F
100
AcDbEntity
  8
AM_VIS
100
AcDbLine
 10
875.5677812213539
 20
627.6437575829755
 30
0.0
 11
855.567781221354
 21
627.6437575829755
 31
0.0
  0
LINE
  5
80B0
330
1F
100
AcDbEntity
  8
AM_VIS
100
AcDbLine
 10
855.567781221354
 20
627.6437575829755
 30
0.0
 11
855.567781221354
 21
601.2437575829756
 31
0.0
  0
LINE
  5
80B1
330
1F
100
AcDbEntity
  8
AM_0
  6
HIDDEN
 62
     3
 48
0.2
100
AcDbLine
 10
861.7677812213539
 20
609.3875075829755
 30
0.0
 11
855.567781221354
 21
609.1937575829755
 31
0.0
  0
LINE
  5
80B2
330
1F
100
AcDbEntity
  8
AM_0
  6
HIDDEN
 62
     3
 48
0.2
100
AcDbLine
 10
861.7677812213539
 20
619.5000075829756
 30
0.0
 11
855.567781221354
 21
619.6937575829755
 31
0.0
  0
LINE
  5
80B3
330
1F
100
AcDbEntity
  8
AM_0
  6
HIDDEN
 62
     3
 48
0.2
100
AcDbLine
 10
861.7677812213539
 20
618.5330075829755
 30
0.0
 11
855.567781221354
 21
618.7267575829755
 31
0.0
  0
LINE
  5
80B4
330
1F
100
AcDbEntity
  8
AM_0
  6
HIDDEN
 62
     3
 48
0.2
100
AcDbLine
 10
861.7677812213539
 20
610.3545075829755
 30
0.0
 11
855.567781221354
 21
610.1607575829756
 31
0.0
  0
LINE
  5
80B5
330
1F
100
AcDbEntity
  8
AM_7
  6
AM_ISO08W050x2
100
AcDbLine
 10
864.7210927265184
 20
614.4437575829755
 30
0.0
 11
854.1628852217838
 21
614.4437575829755
 31
0.0
  0
POINT
  5
80B6
330
1F
100
AcDbEntity
  8
AM_7
  6
AM_ISO08W050x2
100
AcDbPoint
 10
859.537781221354
 20
614.4437575829755
 30
0.0
  0
LINE
  5
80B7
330
1F
100
AcDbEntity
  8
AM_0
  6
HIDDEN
 62
     3
 48
0.2
100
AcDbLine
 10
861.7677812213539
 20
610.3545075829755
 30
0.0
 11
863.1284312213537
 21
610.3545075829757
 31
0.0
  0
LINE
  5
80B8
330
1F
100
AcDbEntity
  8
AM_0
  6
HIDDEN
 62
     3
 48
0.2
100
AcDbLine
 10
861.7677812213539
 20
618.5330075829755
 30
0.0
 11
863.1284312213537
 21
618.5330075829755
 31
0.0
  0
LINE
  5
80B9
330
1F
100
AcDbEntity
  8
AM_0
  6
HIDDEN
 62
     3
 48
0.2
100
AcDbLine
 10
861.7677812213539
 20
619.5000075829756
 30
0.0
 11
861.7677812213539
 21
609.3875075829755
 31
0.0
  0
LINE
  5
80BA
330
1F
100
AcDbEntity
  8
AM_0
  6
HIDDEN
 62
     3
 48
0.2
100
AcDbLine
 10
861.7677812213539
 20
609.3875075829755
 30
0.0
 11
863.1284312213537
 21
610.3545075829755
 31
0.0
  0
LINE
  5
80BB
330
1F
100
AcDbEntity
  8
AM_0
  6
HIDDEN
 62
     3
 48
0.2
100
AcDbLine
 10
861.7677812213539
 20
619.5000075829756
 30
0.0
 11
863.1284312213537
 21
618.5330075829755
 31
0.0
  0
LINE
  5
80BC
330
1F
100
AcDbEntity
  8
AM_0
  6
HIDDEN
 62
     3
 48
0.2
100
AcDbLine
 10
863.1284312213537
 20
610.3545075829755
 30
0.0
 11
863.1284312213537
 21
618.5330075829755
 31
0.0
  0
LINE
  5
80BD
330
1F
100
AcDbEntity
  8
AM_VIS
100
AcDbLine
 10
946.567781221354
 20
705.3923596685246
 30
0.0
 11
946.567781221354
 21
670.0923596685245
 31
0.0
  0
LINE
  5
80BE
330
1F
100
AcDbEntity
  8
AM_VIS
100
AcDbLine
 10
946.567781221354
 20
774.4959569219256
 30
0.0
 11
946.567781221354
 21
748.0959569219257
 31
0.0
  0
DIMENSION
  5
80C0
330
1F
100
AcDbEntity
  8
AM_5
100
AcDbDimension
  2
*D2
 10
966.5677812213539
 20
720.0673596685247
 30
0.0
 11
911.0677812213539
 21
720.0673596685247
 31
0.0
 70
   160
 71
     5
 42
111.0
  3
AM_ISO$0
100
AcDbAlignedDimension
 13
855.567781221354
 23
705.3923596685246
 33
0.0
 14
966.5677812213539
 24
705.3923596685246
 34
0.0
100
AcDbRotatedDimension
1001
ACAD
1000
DSTYLE
1002
{
1070
    40
1040
1.5
1070
   272
1070
     8
1002
}
  0
DIMENSION
  5
80C1
102
{ACAD_XDICTIONARY
360
80C2
102
}
102
{ACAD_REACTORS
330
80C3
102
}
330
1F
100
AcDbEntity
  8
AM_5
100
AcDbDimension
  2
*D6
 10
981.5677812213539
 20
701.3923596685247
 30
0.0
 11
981.5677812213538
 21
716.7548596685247
 31
0.0
 70
   160
 71
     5
 42
4.0
  3
AM_ISO$0
100
AcDbAlignedDimension
 13
966.5677812213539
 23
705.3923596685247
 33
0.0
 14
930.5677812213568
 24
701.3923596685247
 34
0.0
 50
90.0
100
AcDbRotatedDimension
1001
ACAD
1000
DSTYLE
1002
{
1070
    40
1040
1.5
1070
   272
1070
     8
1002
}
  0
TEXT
  5
80C4
330
1F
100
AcDbEntity
  8
AM_5
100
AcDbText
 10
986.4316769294013
 20
693.5341616706457
 30
0.0
 40
5.25
  1
2-PT1/8
100
AcDbText
  0
INSERT
  5
80C5
330
1F
100
AcDbEntity
  8
AM_VIS
100
AcDbBlockReference
  2
*S23
 10
0.0
 20
0.0
 30
0.0
  0
POINT
  5
80C9
330
1F
100
AcDbEntity
  8
0
 60
     1
100
AcDbPoint
 10
555.2917408578264
 20
0.0
 30
0.0
1001
GENIUS_GENOLIS_13
1002
{
1000
ENT
1005
8031
1005
8030
1005
802F
1005
802E
1002
}
1001
GENIUS_GENODEF_13
1002
{
1000
HIER
1070
    10
1002
}
1002
{
1000
MANEDIT
1070
     0
1002
}
1002
{
1000
NOSEL
1070
     0
1002
}
1002
{
1000
BEHIND
1070
     0
1002
}
1002
{
1000
OTHER
1070
     0
1002
}
1002
{
1000
REACTOR
1002
}
1001
GENIUS_GENOENT_13
1002
{
1000
MYREF
1005
80C9
1002
}
1002
{
1000
GRP
1005
0
1002
}
1001
GENIUS_GENOBJ-N-CRS_13
1002
{
1000
OWNER
1000
GEN
1002
}
  0
POINT
  5
80CA
330
1F
100
AcDbEntity
  8
0
 60
     1
100
AcDbPoint
 10
555.2917408578264
 20
0.0
 30
0.0
1001
GENIUS_GENODEF_13
1002
{
1000
HIER
1070
    10
1002
}
1002
{
1000
MANEDIT
1070
     0
1002
}
1002
{
1000
NOSEL
1070
     0
1002
}
1002
{
1000
BEHIND
1070
     0
1002
}
1002
{
1000
OTHER
1070
     0
1002
}
1002
{
1000
REACTOR
1002
}
1001
GENIUS_GENOENT_13
1002
{
1000
MYREF
1005
80CA
1002
}
1002
{
1000
GRP
1005
0
1002
}
1001
GENIUS_GENOBJ-N-CRS_13
1002
{
1000
OWNER
1000
GEN
1002
}
1001
GENIUS_GENOLIS_13
1002
{
1000
ENT
1005
802D
1005
802C
1005
802B
1005
802A
1002
}
  0
POINT
  5
80CB
330
1F
100
AcDbEntity
  8
0
 60
     1
100
AcDbPoint
 10
248.3780649666123
 20
0.0
 30
0.0
1001
GENIUS_GENODEF_13
1002
{
1000
HIER
1070
    10
1002
}
1002
{
1000
MANEDIT
1070
     0
1002
}
1002
{
1000
NOSEL
1070
     0
1002
}
1002
{
1000
BEHIND
1070
     0
1002
}
1002
{
1000
OTHER
1070
     0
1002
}
1002
{
1000
REACTOR
1002
}
1001
GENIUS_GENOLIS_13
1002
{
1000
ENT
1005
8027
1005
8026
1005
8025
1005
8024
1002
}
1001
GENIUS_GENOENT_13
1002
{
1000
MYREF
1005
80CB
1002
}
1002
{
1000
GRP
1005
0
1002
}
1001
GENIUS_GENOBJ-N-CRS_13
1002
{
1000
OWNER
1000
GEN
1002
}
  0
POINT
  5
80CC
330
1F
100
AcDbEntity
  8
0
 60
     1
100
AcDbPoint
 10
248.3780649666123
 20
0.0
 30
0.0
1001
GENIUS_GENOENT_13
1002
{
1000
MYREF
1005
80CC
1002
}
1002
{
1000
GRP
1005
0
1002
}
1001
GENIUS_GENOBJ-N-CRS_13
1002
{
1000
OWNER
1000
GEN
1002
}
1001
GENIUS_GENODEF_13
1002
{
1000
HIER
1070
    10
1002
}
1002
{
1000
MANEDIT
1070
     0
1002
}
1002
{
1000
NOSEL
1070
     0
1002
}
1002
{
1000
BEHIND
1070
     0
1002
}
1002
{
1000
OTHER
1070
     0
1002
}
1002
{
1000
REACTOR
1002
}
1001
GENIUS_GENOLIS_13
1002
{
1000
ENT
1005
8023
1005
8022
1005
8021
1005
8020
1002
}
  0
POINT
  5
80CD
330
1F
100
AcDbEntity
  8
0
 60
     1
100
AcDbPoint
 10
248.3780649666123
 20
0.0
 30
0.0
1001
GENIUS_GENOENT_13
1002
{
1000
MYREF
1005
80CD
1002
}
1002
{
1000
GRP
1005
0
1002
}
1001
GENIUS_GENOBJ-N-CRS_13
1002
{
1000
OWNER
1000
GEN
1002
}
1001
GENIUS_GENOLIS_13
1002
{
1000
ENT
1005
801F
1005
801E
1005
801D
1005
801C
1002
}
1001
GENIUS_GENODEF_13
1002
{
1000
HIER
1070
    10
1002
}
1002
{
1000
MANEDIT
1070
     0
1002
}
1002
{
1000
NOSEL
1070
     0
1002
}
1002
{
1000
BEHIND
1070
     0
1002
}
1002
{
1000
OTHER
1070
     0
1002
}
1002
{
1000
REACTOR
1002
}
  0
POINT
  5
80CE
330
1F
100
AcDbEntity
  8
0
 60
     1
100
AcDbPoint
 10
248.3780649666123
 20
0.0
 30
0.0
1001
GENIUS_GENODEF_13
1002
{
1000
HIER
1070
    10
1002
}
1002
{
1000
MANEDIT
1070
     0
1002
}
1002
{
1000
NOSEL
1070
     0
1002
}
1002
{
1000
BEHIND
1070
     0
1002
}
1002
{
1000
OTHER
1070
     0
1002
}
1002
{
1000
REACTOR
1002
}
1001
GENIUS_GENOLIS_13
1002
{
1000
ENT
1005
801B
1005
801A
1005
8019
1005
8018
1002
}
1001
GENIUS_GENOENT_13
1002
{
1000
MYREF
1005
80CE
1002
}
1002
{
1000
GRP
1005
0
1002
}
1001
GENIUS_GENOBJ-N-CRS_13
1002
{
1000
OWNER
1000
GEN
1002
}
  0
POINT
  5
80CF
330
1F
100
AcDbEntity
  8
0
 60
     1
100
AcDbPoint
 10
248.3780649666123
 20
0.0
 30
0.0
1001
GENIUS_GENODEF_13
1002
{
1000
HIER
1070
    10
1002
}
1002
{
1000
MANEDIT
1070
     0
1002
}
1002
{
1000
NOSEL
1070
     0
1002
}
1002
{
1000
BEHIND
1070
     0
1002
}
1002
{
1000
OTHER
1070
     0
1002
}
1002
{
1000
REACTOR
1002
}
1001
GENIUS_GENOENT_13
1002
{
1000
MYREF
1005
80CF
1002
}
1002
{
1000
GRP
1005
0
1002
}
1001
GENIUS_GENOBJ-N-CRS_13
1002
{
1000
OWNER
1000
GEN
1002
}
1001
GENIUS_GENOLIS_13
1002
{
1000
ENT
1005
8017
1005
8016
1005
8015
1005
8014
1002
}
  0
POINT
  5
80D0
330
1F
100
AcDbEntity
  8
0
 60
     1
100
AcDbPoint
 10
248.3780649666123
 20
0.0
 30
0.0
1001
GENIUS_GENOBJ-N-CRS_13
1002
{
1000
OWNER
1000
GEN
1002
}
1001
GENIUS_GENOLIS_13
1002
{
1000
ENT
1005
8013
1005
8012
1005
8011
1005
8010
1002
}
1001
GENIUS_GENOENT_13
1002
{
1000
MYREF
1005
80D0
1002
}
1002
{
1000
GRP
1005
0
1002
}
1001
GENIUS_GENODEF_13
1002
{
1000
HIER
1070
    10
1002
}
1002
{
1000
MANEDIT
1070
     0
1002
}
1002
{
1000
NOSEL
1070
     0
1002
}
1002
{
1000
BEHIND
1070
     0
1002
}
1002
{
1000
OTHER
1070
     0
1002
}
1002
{
1000
REACTOR
1002
}
  0
POINT
  5
80D1
330
1F
100
AcDbEntity
  8
0
 60
     1
100
AcDbPoint
 10
248.3780649666123
 20
0.0
 30
0.0
1001
GENIUS_GENODEF_13
1002
{
1000
HIER
1070
    10
1002
}
1002
{
1000
MANEDIT
1070
     0
1002
}
1002
{
1000
NOSEL
1070
     0
1002
}
1002
{
1000
BEHIND
1070
     0
1002
}
1002
{
1000
OTHER
1070
     0
1002
}
1002
{
1000
REACTOR
1002
}
1001
GENIUS_GENOBJ-N-CRS_13
1002
{
1000
OWNER
1000
GEN
1002
}
1001
GENIUS_GENOLIS_13
1002
{
1000
ENT
1005
800F
1005
800E
1005
800D
1005
800C
1002
}
1001
GENIUS_GENOENT_13
1002
{
1000
MYREF
1005
80D1
1002
}
1002
{
1000
GRP
1005
0
1002
}
  0
POINT
  5
80D2
330
1F
100
AcDbEntity
  8
0
 60
     1
100
AcDbPoint
 10
248.3780649666123
 20
0.0
 30
0.0
1001
GENIUS_GENOLIS_13
1002
{
1000
ENT
1005
800B
1005
800A
1005
8009
1005
8008
1002
}
1001
GENIUS_GENOENT_13
1002
{
1000
MYREF
1005
80D2
1002
}
1002
{
1000
GRP
1005
0
1002
}
1001
GENIUS_GENOBJ-N-CRS_13
1002
{
1000
OWNER
1000
GEN
1002
}
1001
GENIUS_GENODEF_13
1002
{
1000
HIER
1070
    10
1002
}
1002
{
1000
MANEDIT
1070
     0
1002
}
1002
{
1000
NOSEL
1070
     0
1002
}
1002
{
1000
BEHIND
1070
     0
1002
}
1002
{
1000
OTHER
1070
     0
1002
}
1002
{
1000
REACTOR
1002
}
  0
POINT
  5
80D3
330
1F
100
AcDbEntity
  8
0
 60
     1
100
AcDbPoint
 10
248.3780649666123
 20
0.0
 30
0.0
1001
GENIUS_GENODEF_13
1002
{
1000
HIER
1070
    10
1002
}
1002
{
1000
MANEDIT
1070
     0
1002
}
1002
{
1000
NOSEL
1070
     0
1002
}
1002
{
1000
BEHIND
1070
     0
1002
}
1002
{
1000
OTHER
1070
     0
1002
}
1002
{
1000
REACTOR
1002
}
1001
GENIUS_GENOENT_13
1002
{
1000
MYREF
1005
80D3
1002
}
1002
{
1000
GRP
1005
0
1002
}
1001
GENIUS_GENOLIS_13
1002
{
1000
ENT
1005
8007
1005
8006
1005
8005
1005
8004
1002
}
1001
GENIUS_GENOBJ-N-CRS_13
1002
{
1000
OWNER
1000
GEN
1002
}
  0
LINE
  5
820E
330
1F
100
AcDbEntity
  8
AM_VIS
100
AcDbLine
 10
896.567781221354
 20
748.095956921926
 30
0.0
 11
896.567781221354
 21
774.4959569219258
 31
0.0
  0
LINE
  5
8238
330
1F
100
AcDbEntity
  8
AM_VIS
100
AcDbLine
 10
896.567781221354
 20
670.0923596685245
 30
0.0
 11
896.567781221354
 21
705.3923596685246
 31
0.0
  0
LINE
  5
827D
330
1F
100
AcDbEntity
  8
AM_VIS
100
AcDbLine
 10
896.567781221354
 20
601.2437575829756
 30
0.0
 11
896.567781221354
 21
627.6437575829755
 31
0.0
  0
LINE
  5
8388
330
1F
100
AcDbEntity
  8
LOGO
 62
     4
100
AcDbLine
 10
1016.580544859854
 20
562.0594266572262
 30
0.0
 11
812.3114977580812
 21
562.0594266572262
 31
0.0
  0
LWPOLYLINE
  5
8389
330
1F
100
AcDbEntity
  8
LOGO
 62
     4
100
AcDbPolyline
 90
        4
 70
     1
 43
0.0
 10
812.3114977580813
 20
562.0594266572261
 10
1016.580544859854
 20
562.0594266572261
 10
1016.580544859854
 20
814.6858527865171
 10
812.3114977580813
 20
814.6858527865171
1001
GENIUS_GENREC_14
1002
{
1000
PYDIR
1011
812.3114977580813
1021
814.6858527865171
1031
0.0
1002
}
1002
{
1000
PXDIR
1011
1016.580544859854
1021
562.0594266572261
1031
0.0
1002
}
1002
{
1000
PORI
1011
812.3114977580813
1021
562.0594266572261
1031
0.0
1002
}
1002
{
1000
PINS
1011
812.3114977580813
1021
562.0594266572261
1031
0.0
1002
}
1002
{
1000
PINS2
1011
1016.580544859854
1021
814.6858527865171
1031
0.0
1002
}
1002
{
1000
C
1070
     1
1002
}
1001
GENIUS_GENODEF_13
1002
{
1000
HIER
1070
     0
1002
}
1002
{
1000
MANEDIT
1070
     0
1002
}
1002
{
1000
NOSEL
1070
     0
1002
}
1002
{
1000
BEHIND
1070
     0
1002
}
1002
{
1000
OTHER
1070
     0
1002
}
1002
{
1000
REACTOR
1002
}
1001
GENIUS_GENOBJ-N-REC_13
1002
{
1000
OWNER
1000
GEN
1002
}
  0
LWPOLYLINE
  5
838A
330
1F
100
AcDbEntity
  8
LOGO
 62
     4
100
AcDbPolyline
 90
        4
 70
     1
 43
0.0
 10
812.3114977580813
 20
562.0594266572261
 10
1016.580544859854
 20
562.0594266572261
 10
1016.580544859854
 20
537.8709295712532
 10
812.3114977580813
 20
537.8709295712532
1001
GENIUS_GENREC_14
1002
{
1000
PYDIR
1011
812.3114977580813
1021
537.8709295712532
1031
0.0
1002
}
1002
{
1000
PXDIR
1011
1016.580544859854
1021
562.0594266572261
1031
0.0
1002
}
1002
{
1000
PORI
1011
812.3114977580813
1021
562.0594266572261
1031
0.0
1002
}
1002
{
1000
PINS
1011
812.3114977580813
1021
562.0594266572261
1031
0.0
1002
}
1002
{
1000
PINS2
1011
1016.580544859854
1021
537.8709295712532
1031
0.0
1002
}
1002
{
1000
C
1070
     1
1002
}
1001
GENIUS_GENOBJ-N-REC_13
1002
{
1000
OWNER
1000
GEN
1002
}
1001
GENIUS_GENODEF_13
1002
{
1000
HIER
1070
     0
1002
}
1002
{
1000
MANEDIT
1070
     0
1002
}
1002
{
1000
NOSEL
1070
     0
1002
}
1002
{
1000
BEHIND
1070
     0
1002
}
1002
{
1000
OTHER
1070
     0
1002
}
1002
{
1000
REACTOR
1002
}
  0
TEXT
  5
838B
330
1F
100
AcDbEntity
  8
LOGO
 62
     7
100
AcDbText
 10
866.9275225507577
 20
551.4628576863108
 30
0.0
 40
3.225132944796379
  1
Order example:
 41
0.8
  7
CHINESET
100
AcDbText
  0
TEXT
  5
838C
330
1F
100
AcDbEntity
  8
LOGO
 62
     7
100
AcDbText
 10
867.5061380718187
 20
556.0031771002873
 30
0.0
 40
4.837699417194569
  1
訂購代號：
  7
CHINESET
100
AcDbText
  0
LINE
  5
838D
330
1F
100
AcDbEntity
  8
LOGO
 62
     4
100
AcDbLine
 10
865.5261913472216
 20
537.8709295712533
 30
0.0
 11
865.5261913472216
 21
562.0594266572262
 31
0.0
  0
TEXT
  5
838E
330
1F
100
AcDbEntity
  8
LOGO
  6
Continuous
100
AcDbText
 10
821.0001146407607
 20
542.6227233201678
 30
0.0
 40
3.628274562895927
  1
金器工業股份有限公司
  7
CHINESET
100
AcDbText
  0
TEXT
  5
838F
330
1F
100
AcDbEntity
  8
LOGO
  6
Continuous
100
AcDbText
 10
814.335692087444
 20
538.9937378999253
 30
0.0
 40
2.418849708597284
  1
MINDMAN INDUSTRIAL CO., LTD.
 41
0.85
  7
CHINESET
100
AcDbText
  0
LINE
  5
8390
330
1F
100
AcDbEntity
  8
LOGO
 62
     4
100
AcDbLine
 10
865.5261913472216
 20
557.2217272400317
 30
0.0
 11
830.0497289544612
 21
557.2217272400317
 31
0.0
  0
LINE
  5
8391
330
1F
100
AcDbEntity
  8
LOGO
 62
     4
100
AcDbLine
 10
865.5261913472216
 20
552.384027822837
 30
0.0
 11
830.0497289544612
 21
552.384027822837
 31
0.0
  0
LINE
  5
8392
330
1F
100
AcDbEntity
  8
LOGO
 62
     4
100
AcDbLine
 10
865.5261913472216
 20
547.5463284056427
 30
0.0
 11
812.3114977580812
 21
547.5463284056427
 31
0.0
  0
LINE
  5
8393
330
1F
100
AcDbEntity
  8
LOGO
 62
     4
100
AcDbLine
 10
830.0497289544612
 20
547.5463284056427
 30
0.0
 11
830.0497289544612
 21
562.0594266572262
 31
0.0
  0
TEXT
  5
8394
330
1F
100
AcDbEntity
  8
LOGO
100
AcDbText
 10
854.2962165363933
 20
548.7557532599411
 30
0.0
 40
2.418849708597284
  1
mm
  7
CHINESET
 72
     1
 11
857.2909828422757
 21
549.9651781142397
 31
0.0
100
AcDbText
 73
     2
  0
TEXT
  5
8395
330
1F
100
AcDbEntity
  8
LOGO
100
AcDbText
 10
853.0292000223662
 20
558.4311520943303
 30
0.0
 40
2.418849708597284
  1
1 : 1
  7
CHINESET
 72
     1
 11
857.2909828422757
 21
559.6405769486288
 31
0.0
100
AcDbText
 73
     2
  0
LINE
  5
8396
330
1F
100
AcDbEntity
  8
LOGO
 62
     4
100
AcDbLine
 10
849.4005266232395
 20
547.5463284056427
 30
0.0
 11
849.4005266232395
 21
562.0594266572262
 31
0.0
  0
TEXT
  5
8397
330
1F
100
AcDbEntity
  8
LOGO
100
AcDbText
 10
832.0442001204341
 20
558.4323424731238
 30
158.5274250793563
 40
2.418849708597284
  1
比例 Scale:
 41
0.9
  7
CHINESET
 72
     4
 11
839.7251277888505
 21
559.6405769486288
 31
158.5274250793563
100
AcDbText
  0
TEXT
  5
8398
330
1F
100
AcDbEntity
  8
LOGO
100
AcDbText
 10
831.9049002934658
 20
553.6274776709859
 30
158.5274250793563
 40
2.418849708597284
  1
投影  View:
 41
0.9
  7
CHINESET
 72
     4
 11
839.7251277888505
 21
554.8028775314342
 31
158.5274250793563
100
AcDbText
  0
TEXT
  5
8399
330
1F
100
AcDbEntity
  8
LOGO
100
AcDbText
 10
832.1413860462261
 20
548.7557532599411
 30
158.5274250793563
 40
2.418849708597284
  1
單位  Unit:
 41
0.9
  7
CHINESET
 72
     4
 11
839.7251277888505
 21
549.9651781142397
 31
158.5274250793563
100
AcDbText
  0
SOLID
  5
839A
330
1F
100
AcDbEntity
  8
LOGO
 62
     5
100
AcDbTrace
 10
814.821093150336
 20
551.5673217500413
 30
0.0
 11
815.8669402937169
 21
551.5673217500409
 31
0.0
 12
820.230647340238
 22
561.4848377648625
 32
0.0
 13
821.2764944836198
 23
561.4848377648618
 33
0.0
  0
SOLID
  5
839B
330
1F
100
AcDbEntity
  8
LOGO
 62
     5
100
AcDbTrace
 10
816.2997046289104
 20
551.5673217500413
 30
0.0
 11
817.3455517722915
 21
551.5673217500413
 31
0.0
 12
821.2764944836198
 22
560.6914364836764
 32
0.0
 13
820.230647340238
 23
556.8566636246121
 33
0.0
  0
SOLID
  5
839C
330
1F
100
AcDbEntity
  8
LOGO
 62
     2
100
AcDbTrace
 10
815.8669402937169
 20
551.5673217500409
 30
0.0
 11
816.2997046289104
 21
551.5673217500413
 31
0.0
 12
821.2764944836198
 22
561.4848377648618
 32
0.0
 13
821.7092588188124
 23
561.4848377648618
 33
0.0
  0
SOLID
  5
839D
330
1F
100
AcDbEntity
  8
LOGO
 62
     5
100
AcDbTrace
 10
813.1443437063603
 20
547.9609522901066
 30
0.0
 11
813.5049806523543
 21
547.9609522901066
 31
0.0
 12
814.5205623620084
 22
549.7641370200739
 32
0.0
 13
814.8811993080011
 23
549.7641370200739
 33
0.0
  0
SOLID
  5
839E
330
1F
100
AcDbEntity
  8
LOGO
 62
     5
100
AcDbTrace
 10
814.5205623620084
 20
549.7641370200739
 30
0.0
 11
814.8811993080011
 21
549.7641370200739
 31
0.0
 12
814.5205623620084
 22
547.9609522901066
 32
0.0
 13
814.8811993080011
 23
547.9609522901066
 33
0.0
  0
SOLID
  5
839F
330
1F
100
AcDbEntity
  8
LOGO
 62
     5
100
AcDbTrace
 10
814.5205623620084
 20
547.9609522901066
 30
0.0
 11
814.8811993080011
 21
547.9609522901066
 31
0.0
 12
815.8967810176571
 22
549.7641370200739
 32
0.0
 13
816.2574179636504
 23
549.7641370200739
 33
0.0
  0
SOLID
  5
83A0
330
1F
100
AcDbEntity
  8
LOGO
 62
     5
100
AcDbTrace
 10
815.8967810176571
 20
549.7641370200739
 30
0.0
 11
816.2574179636504
 21
549.7641370200739
 31
0.0
 12
815.8967810176571
 22
547.9609522901066
 32
0.0
 13
816.2574179636504
 23
547.9609522901066
 33
0.0
  0
POLYLINE
  5
83A1
330
1F
100
AcDbEntity
  8
LOGO
 62
     5
100
AcDb2dPolyline
 66
     1
 10
0.0
 20
0.0
 30
0.0
 40
0.3612148898171945
 41
0.3612148898171945
  0
VERTEX
  5
83A2
330
83A1
100
AcDbEntity
  8
LOGO
 62
     5
100
AcDbVertex
100
AcDb2dVertex
 10
827.9852085948345
 20
549.0428631280868
 30
0.0
 42
1.0
  0
VERTEX
  5
83A3
330
83A1
100
AcDbEntity
  8
LOGO
 62
     5
100
AcDbVertex
100
AcDb2dVertex
 10
826.9015639253828
 20
549.0428631280868
 30
0.0
 42
1.0
  0
SEQEND
  5
83A4
330
83A1
100
AcDbEntity
  8
LOGO
 62
     5
  0
POLYLINE
  5
83A5
330
1F
100
AcDbEntity
  8
LOGO
 62
     5
100
AcDb2dPolyline
 66
     1
 10
0.0
 20
0.0
 30
0.0
 70
     1
  0
VERTEX
  5
83A6
330
83A5
100
AcDbEntity
  8
LOGO
 62
     5
100
AcDbVertex
100
AcDb2dVertex
 10
824.858845522951
 20
548.86254465509
 30
0.0
 42
1.000000057330635
  0
VERTEX
  5
83A7
330
83A5
100
AcDbEntity
  8
LOGO
 62
     5
100
AcDbVertex
100
AcDb2dVertex
 10
825.9407563609315
 20
548.86254465509
 30
0.0
 42
1.000000057330635
  0
SEQEND
  5
83A8
330
83A5
100
AcDbEntity
  8
LOGO
 62
     5
  0
CIRCLE
  5
83A9
330
1F
100
AcDbEntity
  8
LOGO
 62
     5
100
AcDbCircle
 10
825.3998009419422
 20
548.86254465509
 30
0.0
 40
0.5409554189902305
  0
POLYLINE
  5
83AA
330
1F
100
AcDbEntity
  8
LOGO
 62
     5
100
AcDb2dPolyline
 66
     1
 10
0.0
 20
0.0
 30
0.0
 70
     1
 40
0.3612148898171945
 41
0.3612148898171945
  0
VERTEX
  5
83AB
330
83AA
100
AcDbEntity
  8
LOGO
 62
     5
100
AcDbVertex
100
AcDb2dVertex
 10
824.6773711623072
 20
548.86254465509
 30
0.0
 42
1.0
  0
VERTEX
  5
83AC
330
83AA
100
AcDbEntity
  8
LOGO
 62
     5
100
AcDbVertex
100
AcDb2dVertex
 10
826.122230721576
 20
548.86254465509
 30
0.0
 42
1.0
  0
SEQEND
  5
83AD
330
83AA
100
AcDbEntity
  8
LOGO
 62
     5
  0
LINE
  5
83AE
330
1F
100
AcDbEntity
  8
LOGO
100
AcDbLine
 10
828.164660152095
 20
547.9609522901066
 30
0.0
 11
828.164660152095
 21
549.0428631280868
 31
0.0
  0
SOLID
  5
83AF
330
1F
100
AcDbEntity
  8
LOGO
 62
     5
100
AcDbTrace
 10
825.9407202972386
 20
549.7641370200739
 30
0.0
 11
826.3013572432313
 21
549.7641370200739
 31
0.0
 12
825.9407202972386
 22
547.9609522901066
 32
0.0
 13
826.3013572432313
 23
547.9609522901066
 33
0.0
  0
SOLID
  5
83B0
330
1F
100
AcDbEntity
  8
LOGO
 62
     5
100
AcDbTrace
 10
826.7221123681213
 20
547.9609522901066
 30
0.0
 11
827.0827493141151
 21
547.9609522901066
 31
0.0
 12
826.7221123681213
 22
549.7641370200739
 32
0.0
 13
827.0827493141151
 23
549.7641370200739
 33
0.0
  0
SOLID
  5
83B1
330
1F
100
AcDbEntity
  8
LOGO
 62
     5
100
AcDbTrace
 10
827.8040232061021
 20
549.0428631280868
 30
0.0
 11
828.164660152095
 21
549.0428631280868
 31
0.0
 12
827.8040232061021
 22
547.9609522901066
 32
0.0
 13
828.164660152095
 23
547.9609522901066
 33
0.0
  0
SOLID
  5
83B2
330
1F
100
AcDbEntity
  8
LOGO
 62
     5
100
AcDbTrace
 10
826.6860486735218
 20
560.6914364836764
 30
0.0
 11
825.6402015301413
 21
556.8566636246121
 31
0.0
 12
826.6860486735218
 22
551.5673217500409
 32
0.0
 13
825.6402015301413
 23
551.5673217500409
 33
0.0
  0
SOLID
  5
83B3
330
1F
100
AcDbEntity
  8
LOGO
 62
     5
100
AcDbTrace
 10
827.1188130087146
 20
551.5673217500409
 30
0.0
 11
828.164660152095
 21
551.5673217500409
 31
0.0
 12
827.1188130087146
 22
561.4848377648618
 32
0.0
 13
828.164660152095
 23
561.4848377648625
 33
0.0
  0
SOLID
  5
83B4
330
1F
100
AcDbEntity
  8
LOGO
 62
     2
100
AcDbTrace
 10
826.6860486735218
 20
561.4848377648625
 30
0.0
 11
827.1188130087146
 21
561.4848377648618
 31
0.0
 12
826.6860486735218
 22
551.5673217500409
 32
0.0
 13
827.1188130087146
 23
551.5673217500409
 33
0.0
  0
POLYLINE
  5
83B5
330
1F
100
AcDbEntity
  8
LOGO
 62
     5
100
AcDb2dPolyline
 66
     1
 10
0.0
 20
0.0
 30
0.0
 40
0.3612148898171945
 41
0.3612148898171945
  0
VERTEX
  5
83B6
330
83B5
100
AcDbEntity
  8
LOGO
 62
     5
100
AcDbVertex
100
AcDb2dVertex
 10
822.8160549931315
 20
549.0428631280868
 30
0.0
 42
1.0
  0
VERTEX
  5
83B7
330
83B5
100
AcDbEntity
  8
LOGO
 62
     5
100
AcDbVertex
100
AcDb2dVertex
 10
821.73241032368
 20
549.0428631280868
 30
0.0
 42
1.0
  0
SEQEND
  5
83B8
330
83B5
100
AcDbEntity
  8
LOGO
 62
     5
  0
POLYLINE
  5
83B9
330
1F
100
AcDbEntity
  8
LOGO
 62
     5
100
AcDb2dPolyline
 66
     1
 10
0.0
 20
0.0
 30
0.0
 40
0.3612148898171945
 41
0.3612148898171945
  0
VERTEX
  5
83BA
330
83B9
100
AcDbEntity
  8
LOGO
 62
     5
100
AcDbVertex
100
AcDb2dVertex
 10
823.8979658311109
 20
549.0428631280868
 30
0.0
 42
1.0
  0
VERTEX
  5
83BB
330
83B9
100
AcDbEntity
  8
LOGO
 62
     5
100
AcDbVertex
100
AcDb2dVertex
 10
822.8143211616597
 20
549.0428631280868
 30
0.0
 42
1.0
  0
SEQEND
  5
83BC
330
83B9
100
AcDbEntity
  8
LOGO
 62
     5
  0
POLYLINE
  5
83BD
330
1F
100
AcDbEntity
  8
LOGO
 62
     5
100
AcDb2dPolyline
 66
     1
 10
0.0
 20
0.0
 30
0.0
 40
0.3612148898171945
 41
0.3612148898171945
  0
VERTEX
  5
83BE
330
83BD
100
AcDbEntity
  8
LOGO
 62
     5
100
AcDbVertex
100
AcDb2dVertex
 10
818.7288122294082
 20
549.0428631280868
 30
0.0
 42
1.0
  0
VERTEX
  5
83BF
330
83BD
100
AcDbEntity
  8
LOGO
 62
     5
100
AcDbVertex
100
AcDb2dVertex
 10
817.6451675599569
 20
549.0428631280868
 30
0.0
 42
1.0
  0
SEQEND
  5
83C0
330
83BD
100
AcDbEntity
  8
LOGO
 62
     5
  0
SOLID
  5
83C1
330
1F
100
AcDbEntity
  8
LOGO
 62
     5
100
AcDbTrace
 10
817.4657160026958
 20
549.7641370200739
 30
0.0
 11
817.8263529486885
 21
549.7641370200739
 31
0.0
 12
817.4657160026958
 22
547.9609522901066
 32
0.0
 13
817.8263529486885
 23
547.9609522901066
 33
0.0
  0
SOLID
  5
83C2
330
1F
100
AcDbEntity
  8
LOGO
 62
     5
100
AcDbTrace
 10
818.5476268406763
 20
549.0428631280868
 30
0.0
 11
818.90826378667
 21
549.0428631280868
 31
0.0
 12
818.5476268406763
 22
547.9609522901066
 32
0.0
 13
818.90826378667
 23
547.9609522901066
 33
0.0
  0
POLYLINE
  5
83C3
330
1F
100
AcDbEntity
  8
LOGO
 62
     5
100
AcDb2dPolyline
 66
     1
 10
0.0
 20
0.0
 30
0.0
 70
     1
 40
0.3612148898171945
 41
0.3612148898171945
  0
VERTEX
  5
83C4
330
83C3
100
AcDbEntity
  8
LOGO
 62
     5
100
AcDbVertex
100
AcDb2dVertex
 10
819.5082175606035
 20
548.86254465509
 30
0.0
 42
1.0
  0
VERTEX
  5
83C5
330
83C3
100
AcDbEntity
  8
LOGO
 62
     5
100
AcDbVertex
100
AcDb2dVertex
 10
820.953077119873
 20
548.86254465509
 30
0.0
 42
1.0
  0
SEQEND
  5
83C6
330
83C3
100
AcDbEntity
  8
LOGO
 62
     5
  0
SOLID
  5
83C7
330
1F
100
AcDbEntity
  8
LOGO
 62
     5
100
AcDbTrace
 10
820.7715666955344
 20
550.3050924390643
 30
0.0
 11
821.1322036415278
 21
550.3050924390643
 31
0.0
 12
820.7715666955344
 22
547.9609522901066
 32
0.0
 13
821.1322036415278
 23
547.9609522901066
 33
0.0
  0
SOLID
  5
83C8
330
1F
100
AcDbEntity
  8
LOGO
 62
     5
100
AcDbTrace
 10
821.5529587664194
 20
549.7641370200739
 30
0.0
 11
821.913595712412
 21
549.7641370200739
 31
0.0
 12
821.5529587664194
 22
547.9609522901066
 32
0.0
 13
821.913595712412
 23
547.9609522901066
 33
0.0
  0
SOLID
  5
83C9
330
1F
100
AcDbEntity
  8
LOGO
 62
     5
100
AcDbTrace
 10
822.6348696043988
 20
549.0428631280868
 30
0.0
 11
822.9955065503926
 21
549.0428631280868
 31
0.0
 12
822.6348696043988
 22
547.9609522901066
 32
0.0
 13
822.9955065503926
 23
547.9609522901066
 33
0.0
  0
SOLID
  5
83CA
330
1F
100
AcDbEntity
  8
LOGO
 62
     5
100
AcDbTrace
 10
823.7167804423792
 20
549.0428631280868
 30
0.0
 11
824.0774173883727
 21
549.0428631280868
 31
0.0
 12
823.7167804423792
 22
547.960952290106
 32
0.0
 13
824.0774173883727
 23
547.960952290106
 33
0.0
  0
SOLID
  5
83CB
330
1F
100
AcDbEntity
  8
LOGO
 62
     5
100
AcDbTrace
 10
816.6843239318115
 20
550.0165828822694
 30
0.0
 11
817.044960877806
 21
550.0165828822694
 31
0.0
 12
816.6843239318115
 22
550.3050924390643
 32
0.0
 13
817.044960877806
 23
550.3050924390643
 33
0.0
  0
SOLID
  5
83CC
330
1F
100
AcDbEntity
  8
LOGO
 62
     5
100
AcDbTrace
 10
816.6843239318115
 20
549.7641370200739
 30
0.0
 11
817.044960877806
 21
549.7641370200739
 31
0.0
 12
816.6843239318115
 22
547.960952290106
 32
0.0
 13
817.044960877806
 23
547.9609522901066
 33
0.0
  0
SOLID
  5
83CD
330
1F
100
AcDbEntity
  8
LOGO
 62
     5
100
AcDbTrace
 10
820.230647340238
 20
551.5673217500413
 30
0.0
 11
821.2764944836198
 21
551.5673217500413
 31
0.0
 12
820.230647340238
 22
556.8566636246121
 32
0.0
 13
821.2764944836198
 23
560.6914364836764
 33
0.0
  0
SOLID
  5
83CE
330
1F
100
AcDbEntity
  8
LOGO
 62
     5
100
AcDbTrace
 10
821.7092588188124
 20
561.4848377648618
 30
0.0
 11
822.755105962193
 21
561.4848377648625
 31
0.0
 12
821.7092588188124
 22
552.3607230312268
 32
0.0
 13
822.755105962193
 23
556.195495890291
 33
0.0
  0
SOLID
  5
83CF
330
1F
100
AcDbEntity
  8
LOGO
 62
     2
100
AcDbTrace
 10
821.2764944836198
 20
561.4848377648618
 30
0.0
 11
821.7092588188124
 21
561.4848377648618
 31
0.0
 12
821.2764944836198
 22
551.5673217500413
 32
0.0
 13
821.7092588188124
 23
551.5673217500413
 33
0.0
  0
SOLID
  5
83D0
330
1F
100
AcDbEntity
  8
LOGO
 62
     5
100
AcDbTrace
 10
821.7092588188124
 20
552.3607230312268
 30
0.0
 11
822.755105962193
 21
556.195495890291
 31
0.0
 12
826.6860486735218
 22
561.4848377648625
 32
0.0
 13
825.6402015301413
 23
561.4848377648625
 33
0.0
  0
SOLID
  5
83D1
330
1F
100
AcDbEntity
  8
LOGO
 62
     5
100
AcDbTrace
 10
821.7092588188124
 20
551.5673217500413
 30
0.0
 11
822.755105962193
 21
551.5673217500413
 31
0.0
 12
826.6860486735218
 22
560.6914364836764
 32
0.0
 13
825.6402015301413
 23
556.8566636246121
 33
0.0
  0
SOLID
  5
83D2
330
1F
100
AcDbEntity
  8
LOGO
 62
     2
100
AcDbTrace
 10
821.2764944836198
 20
551.5673217500413
 30
0.0
 11
821.7092588188124
 21
551.5673217500413
 31
0.0
 12
826.6860486735218
 22
561.4848377648625
 32
0.0
 13
827.1188130087146
 23
561.4848377648618
 33
0.0
  0
LINE
  5
83D3
330
1F
100
AcDbEntity
  8
LOGO
 62
     4
100
AcDbLine
 10
910.2672893519565
 20
548.7557532599415
 30
0.0
 11
910.2672893519565
 21
539.886637661751
 31
0.0
  0
LINE
  5
83D4
330
1F
100
AcDbEntity
  8
LOGO
 62
     4
100
AcDbLine
 10
898.7963955489782
 20
548.7557532599415
 30
0.0
 11
898.7963955489782
 21
539.886637661751
 31
0.0
  0
LINE
  5
83D5
330
1F
100
AcDbEntity
  8
LOGO
 62
     4
100
AcDbLine
 10
910.2672893519565
 20
539.886637661751
 30
0.0
 11
898.7963955489782
 21
539.886637661751
 31
0.0
  0
LINE
  5
83D6
330
1F
100
AcDbEntity
  8
LOGO
 62
     4
100
AcDbLine
 10
917.9874241744482
 20
559.6405769486288
 30
0.0
 11
898.7963955489782
 21
559.6405769486288
 31
0.0
  0
LINE
  5
83D7
330
1F
100
AcDbEntity
  8
LOGO
 62
     4
100
AcDbLine
 10
917.9874241744482
 20
552.384027822837
 30
0.0
 11
898.7963955489782
 21
552.384027822837
 31
0.0
  0
LINE
  5
83D8
330
1F
100
AcDbEntity
  8
LOGO
 62
     4
100
AcDbLine
 10
898.7963955489782
 20
559.6405769486288
 30
0.0
 11
898.7963955489782
 21
552.384027822837
 31
0.0
  0
LINE
  5
83D9
330
1F
100
AcDbEntity
  8
LOGO
 62
     4
100
AcDbLine
 10
917.9874241744482
 20
559.6405769486288
 30
0.0
 11
917.9874241744482
 21
552.384027822837
 31
0.0
  0
LINE
  5
83DA
330
1F
100
AcDbEntity
  8
LOGO
 62
     4
100
AcDbLine
 10
907.7005825828841
 20
552.384027822837
 30
0.0
 11
907.7005825828841
 21
548.7557532599415
 31
0.0
  0
TEXT
  5
83DB
330
1F
100
AcDbEntity
  8
LOGO
  6
Continuous
 62
     7
100
AcDbText
 10
900.0857706808815
 20
553.8988218437724
 30
0.0
 40
4.2336
  1
MVAA
  7
CHINESET
100
AcDbText
  0
LINE
  5
83DC
330
1F
100
AcDbEntity
  8
LOGO
 62
     4
100
AcDbLine
 10
910.2672893519565
 20
548.7557532599415
 30
0.0
 11
898.7963955489782
 21
548.7557532599415
 31
0.0
  0
TEXT
  5
83DD
330
1F
100
AcDbEntity
  8
LOGO
  6
Continuous
100
AcDbText
 10
902.0632616256616
 20
541.138494521039
 30
158.5274250793563
 40
1.814399999999999
  1
Model
 41
0.8
  7
CHINESET
100
AcDbText
  0
TEXT
  5
83DE
330
1F
100
AcDbEntity
  8
LOGO
100
AcDbText
 10
901.5803273281779
 20
544.5020010899304
 30
158.5274250793563
 40
3.024
  1
型號
  7
CHINESET
100
AcDbText
  0
LINE
  5
83DF
330
1F
100
AcDbEntity
  8
LOGO
  6
Continuous
 62
     7
100
AcDbLine
 10
918.7588553210726
 20
555.9865985419237
 30
0.0
 11
921.96308263531
 21
555.9865985419237
 31
0.0
  0
LINE
  5
83E0
330
1F
100
AcDbEntity
  8
LOGO
 62
     4
100
AcDbLine
 10
926.8495721783263
 20
548.7557532599415
 30
0.0
 11
926.8495721783263
 21
539.886637661751
 31
0.0
  0
LINE
  5
83E1
330
1F
100
AcDbEntity
  8
LOGO
 62
     4
100
AcDbLine
 10
912.1569878926116
 20
548.7557532599415
 30
0.0
 11
912.1569878926116
 21
539.886637661751
 31
0.0
  0
LINE
  5
83E2
330
1F
100
AcDbEntity
  8
LOGO
 62
     4
100
AcDbLine
 10
926.8495721783263
 20
539.886637661751
 30
0.0
 11
912.1569878926116
 21
539.886637661751
 31
0.0
  0
LINE
  5
83E3
330
1F
100
AcDbEntity
  8
LOGO
 62
     4
100
AcDbLine
 10
935.8011066062601
 20
559.6405769486288
 30
0.0
 11
922.9738474480502
 21
559.6405769486288
 31
0.0
  0
LINE
  5
83E4
330
1F
100
AcDbEntity
  8
LOGO
 62
     4
100
AcDbLine
 10
935.8011066062601
 20
552.384027822837
 30
0.0
 11
922.9738474480502
 21
552.384027822837
 31
0.0
  0
LINE
  5
83E5
330
1F
100
AcDbEntity
  8
LOGO
 62
     4
100
AcDbLine
 10
922.9738474480502
 20
559.6405769486288
 30
0.0
 11
922.9738474480502
 21
552.384027822837
 31
0.0
  0
LINE
  5
83E6
330
1F
100
AcDbEntity
  8
LOGO
 62
     4
100
AcDbLine
 10
935.8011066062601
 20
559.6405769486288
 30
0.0
 11
935.8011066062601
 21
552.384027822837
 31
0.0
  0
LINE
  5
83E7
330
1F
100
AcDbEntity
  8
LOGO
 62
     4
100
AcDbLine
 10
927.3259581368156
 20
552.384027822837
 30
0.0
 11
927.3259581368156
 21
550.5698905413892
 31
0.0
  0
TEXT
  5
83E8
330
1F
100
AcDbEntity
  8
LOGO
  6
Continuous
 62
     7
100
AcDbText
 10
924.1534490043028
 20
553.8988218437724
 30
0.0
 40
4.2336
  1
260
  7
CHINESET
100
AcDbText
  0
LINE
  5
83E9
330
1F
100
AcDbEntity
  8
LOGO
 62
     4
100
AcDbLine
 10
926.8495721783263
 20
548.7557532599415
 30
0.0
 11
912.1569878926116
 21
548.7557532599415
 31
0.0
  0
LINE
  5
83EA
330
1F
100
AcDbEntity
  8
LOGO
  6
Continuous
 62
     7
100
AcDbLine
 10
936.5848233047884
 20
555.9865985419237
 30
0.0
 11
939.7890506190258
 21
555.9865985419237
 31
0.0
  0
LINE
  5
83EB
330
1F
100
AcDbEntity
  8
LOGO
 62
     4
100
AcDbLine
 10
940.9303551105054
 20
548.7557532599415
 30
0.0
 11
940.9303551105054
 21
539.886637661751
 31
0.0
  0
LINE
  5
83EC
330
1F
100
AcDbEntity
  8
LOGO
 62
     4
100
AcDbLine
 10
928.8171639761744
 20
548.7557532599415
 30
0.0
 11
928.8171639761744
 21
539.886637661751
 31
0.0
  0
LINE
  5
83ED
330
1F
100
AcDbEntity
  8
LOGO
 62
     4
100
AcDbLine
 10
940.9303551105054
 20
539.886637661751
 30
0.0
 11
928.8171639761744
 21
539.886637661751
 31
0.0
  0
LINE
  5
83EE
330
1F
100
AcDbEntity
  8
LOGO
 62
     4
100
AcDbLine
 10
945.9511177150258
 20
559.6405769486288
 30
0.0
 11
940.799815431766
 21
559.6405769486288
 31
0.0
  0
LINE
  5
83EF
330
1F
100
AcDbEntity
  8
LOGO
 62
     4
100
AcDbLine
 10
945.9511177150258
 20
552.384027822837
 30
0.0
 11
940.799815431766
 21
552.384027822837
 31
0.0
  0
LINE
  5
83F0
330
1F
100
AcDbEntity
  8
LOGO
 62
     4
100
AcDbLine
 10
940.799815431766
 20
559.6405769486288
 30
0.0
 11
940.799815431766
 21
552.384027822837
 31
0.0
  0
LINE
  5
83F1
330
1F
100
AcDbEntity
  8
LOGO
 62
     4
100
AcDbLine
 10
945.9511177150258
 20
559.6405769486288
 30
0.0
 11
945.9511177150258
 21
552.384027822837
 31
0.0
  0
LINE
  5
83F2
330
1F
100
AcDbEntity
  8
LOGO
 62
     4
100
AcDbLine
 10
943.3754665733959
 20
552.384027822837
 30
0.0
 11
943.3754665733959
 21
550.5698905413892
 31
0.0
  0
TEXT
  5
83F3
330
1F
100
AcDbEntity
  8
LOGO
  6
Continuous
 62
     7
100
AcDbText
 10
941.7656427164097
 20
553.8988218437724
 30
0.0
 40
4.2336
  1
4
  7
CHINESET
100
AcDbText
  0
LINE
  5
83F4
330
1F
100
AcDbEntity
  8
LOGO
 62
     4
100
AcDbLine
 10
940.9303551105054
 20
548.7557532599415
 30
0.0
 11
928.8171639761744
 21
548.7557532599415
 31
0.0
  0
LINE
  5
83F5
330
1F
100
AcDbEntity
  8
LOGO
 62
     4
100
AcDbLine
 10
967.2695416321367
 20
548.7557532599415
 30
0.0
 11
967.2695416321367
 21
539.886637661751
 31
0.0
  0
LINE
  5
83F6
330
1F
100
AcDbEntity
  8
LOGO
 62
     4
100
AcDbLine
 10
943.3869570790985
 20
548.7557532599415
 30
0.0
 11
943.3869570790985
 21
539.886637661751
 31
0.0
  0
LINE
  5
83F7
330
1F
100
AcDbEntity
  8
LOGO
 62
     4
100
AcDbLine
 10
967.2695416321367
 20
539.886637661751
 30
0.0
 11
943.3869570790985
 21
539.886637661751
 31
0.0
  0
LINE
  5
83F8
330
1F
100
AcDbEntity
  8
LOGO
 62
     4
100
AcDbLine
 10
956.9454521825855
 20
559.6405769486288
 30
0.0
 11
947.3715740207577
 21
559.6405769486288
 31
0.0
  0
LINE
  5
83F9
330
1F
100
AcDbEntity
  8
LOGO
 62
     4
100
AcDbLine
 10
956.9454521825855
 20
552.384027822837
 30
0.0
 11
947.3715740207577
 21
552.384027822837
 31
0.0
  0
LINE
  5
83FA
330
1F
100
AcDbEntity
  8
LOGO
 62
     4
100
AcDbLine
 10
947.3715740207577
 20
559.6405769486288
 30
0.0
 11
947.3715740207577
 21
552.384027822837
 31
0.0
  0
LINE
  5
83FB
330
1F
100
AcDbEntity
  8
LOGO
 62
     4
100
AcDbLine
 10
956.9454521825855
 20
559.6405769486288
 30
0.0
 11
956.9454521825855
 21
552.384027822837
 31
0.0
  0
LINE
  5
83FC
330
1F
100
AcDbEntity
  8
LOGO
 62
     4
100
AcDbLine
 10
952.1585131016717
 20
552.384027822837
 30
0.0
 11
952.1585131016717
 21
548.7557532599415
 31
0.0
  0
TEXT
  5
83FD
330
1F
100
AcDbEntity
  8
LOGO
  6
Continuous
 62
     7
100
AcDbText
 10
949.0843469033761
 20
553.8988218437724
 30
0.0
 40
4.2336
  1
A2
  7
CHINESET
100
AcDbText
  0
LINE
  5
83FE
330
1F
100
AcDbEntity
  8
LOGO
 62
     4
100
AcDbLine
 10
967.2695416321367
 20
548.7557532599415
 30
0.0
 11
943.3869570790985
 21
548.7557532599415
 31
0.0
  0
TEXT
  5
83FF
330
1F
100
AcDbEntity
  8
LOGO
  6
Continuous
100
AcDbText
 10
913.3097951746476
 20
541.138494521039
 30
158.5274250793563
 40
1.814399999999999
  1
Body width
 41
0.8
  7
CHINESET
100
AcDbText
  0
TEXT
  5
8400
330
1F
100
AcDbEntity
  8
LOGO
100
AcDbText
 10
913.2927028982331
 20
544.5020010899304
 30
158.5274250793563
 40
3.024
  1
本體寬度
  7
CHINESET
100
AcDbText
  0
TEXT
  5
8401
330
1F
100
AcDbEntity
  8
LOGO
  6
Continuous
100
AcDbText
 10
932.1948316624036
 20
541.138494521039
 30
158.5274250793563
 40
1.814399999999999
  1
4 Way
 41
0.8
  7
CHINESET
100
AcDbText
  0
TEXT
  5
8402
330
1F
100
AcDbEntity
  8
LOGO
100
AcDbText
 10
930.4251346078341
 20
544.5020010899304
 30
158.5274250793563
 40
3.024
  1
4方向
  7
CHINESET
100
AcDbText
  0
TEXT
  5
8403
330
1F
100
AcDbEntity
  8
LOGO
  6
Continuous
100
AcDbText
 10
945.0677979523746
 20
541.138494521039
 30
158.5274250793563
 40
1.814399999999999
  1
Double air operate
 41
0.8
  7
CHINESET
100
AcDbText
  0
TEXT
  5
8404
330
1F
100
AcDbEntity
  8
LOGO
100
AcDbText
 10
945.691446005914
 20
544.5020010899304
 30
158.5274250793563
 40
3.024
  1
複動氣壓引導
  7
CHINESET
100
AcDbText
  0
TEXT
  5
8405
330
1F
100
AcDbEntity
  8
LOGO
100
AcDbText
 10
866.8082087983824
 20
539.1577480691806
 30
0.0
 40
2.4192
  1
20811193
 41
0.7
  7
CHINESET
 72
     1
 11
872.5336487983824
 21
539.1577480691806
 31
0.0
100
AcDbText
  0
LINE
  5
8406
330
1F
100
AcDbEntity
  8
LOGO
 62
     4
100
AcDbLine
 10
880.0413913472205
 20
542.7086289884484
 30
0.0
 11
880.0413913472215
 21
537.8709295712536
 31
0.0
  0
LINE
  5
8407
330
1F
100
AcDbEntity
  8
LOGO
 62
     4
100
AcDbLine
 10
880.0413913472205
 20
542.7086289884484
 30
0.0
 11
865.5261913472216
 21
542.7086289884484
 31
0.0
  0
CIRCLE
  5
8408
330
1F
100
AcDbEntity
  8
LOGO
  6
Continuous
100
AcDbCircle
 10
853.8793294036462
 20
554.8080514686619
 30
0.0
 40
1.404441074115835
  0
CIRCLE
  5
8409
330
1F
100
AcDbEntity
  8
LOGO
  6
Continuous
100
AcDbCircle
 10
853.8793294036462
 20
554.8080514686619
 30
0.0
 40
0.8228781412979062
  0
LINE
  5
840A
330
1F
100
AcDbEntity
  8
LOGO
100
AcDbLine
 10
862.7050000778409
 20
553.4036103945457
 30
0.0
 11
862.7050000778409
 21
556.2124925427779
 31
0.0
  0
LINE
  5
840B
330
1F
100
AcDbEntity
  8
LOGO
100
AcDbLine
 10
858.3021579292523
 20
553.985173327364
 30
0.0
 11
858.3021579292523
 21
555.6309296099597
 31
0.0
  0
LINE
  5
840C
330
1F
100
AcDbEntity
  8
LOGO
  6
Continuous
100
AcDbLine
 10
858.3021579292523
 20
555.6309296099597
 30
0.0
 11
862.7050000778409
 21
556.2124925427779
 31
0.0
  0
LINE
  5
840D
330
1F
100
AcDbEntity
  8
LOGO
  6
Continuous
100
AcDbLine
 10
858.3021579292523
 20
553.985173327364
 30
0.0
 11
862.7050000778409
 21
553.4036103945457
 31
0.0
  0
LINE
  5
840E
330
1F
100
AcDbEntity
  8
LOGO
  6
AM_ISO08W050x2
 48
0.3
100
AcDbLine
 10
851.9432863531285
 20
554.8080514686619
 30
0.0
 11
855.8153724541639
 21
554.8080514686619
 31
0.0
1001
GENIUS_GENOREF_13
1005
8423
  0
LINE
  5
840F
330
1F
100
AcDbEntity
  8
LOGO
  6
AM_ISO08W050x2
 48
0.3
100
AcDbLine
 10
853.8793294036462
 20
552.8720084181441
 30
0.0
 11
853.8793294036462
 21
556.7440945191797
 31
0.0
1001
GENIUS_GENOREF_13
1005
8422
  0
LINE
  5
8410
330
1F
100
AcDbEntity
  8
LOGO
  6
CENTER
 48
0.5
100
AcDbLine
 10
857.9500529337902
 20
554.8080514686619
 30
0.0
 11
863.148352029469
 21
554.8080514686619
 31
0.0
1001
GENIUS_GENOREF_13
1005
8421
  0
LINE
  5
8411
330
1F
100
AcDbEntity
  8
LOGO
 62
     4
100
AcDbLine
 10
927.3259581368156
 20
550.5698905413892
 30
0.0
 11
919.5032800354686
 21
550.5698905413892
 31
0.0
  0
LINE
  5
8412
330
1F
100
AcDbEntity
  8
LOGO
 62
     4
100
AcDbLine
 10
919.5032800354686
 20
548.7557532599415
 30
0.0
 11
919.5032800354686
 21
550.5698905413892
 31
0.0
  0
LINE
  5
8413
330
1F
100
AcDbEntity
  8
LOGO
 62
     4
100
AcDbLine
 10
943.3754665733959
 20
550.5698905413892
 30
0.0
 11
934.87375954334
 21
550.5698905413892
 31
0.0
  0
LINE
  5
8414
330
1F
100
AcDbEntity
  8
LOGO
 62
     4
100
AcDbLine
 10
934.87375954334
 20
548.7557532599415
 30
0.0
 11
934.87375954334
 21
550.5698905413892
 31
0.0
  0
LINE
  5
8415
330
1F
100
AcDbEntity
  8
LOGO
 62
     4
100
AcDbLine
 10
993.1931042511033
 20
548.7557532599415
 30
0.0
 11
993.1931042511033
 21
539.886637661751
 31
0.0
  0
LINE
  5
8416
330
1F
100
AcDbEntity
  8
LOGO
 62
     4
100
AcDbLine
 10
969.3105196980651
 20
548.7557532599415
 30
0.0
 11
969.3105196980651
 21
539.886637661751
 31
0.0
  0
LINE
  5
8417
330
1F
100
AcDbEntity
  8
LOGO
 62
     4
100
AcDbLine
 10
993.1931042511033
 20
539.886637661751
 30
0.0
 11
969.3105196980651
 21
539.886637661751
 31
0.0
  0
LINE
  5
8418
330
1F
100
AcDbEntity
  8
LOGO
 62
     4
100
AcDbLine
 10
982.4673751962285
 20
559.6405769486288
 30
0.0
 11
958.2576020424383
 21
559.6405769486288
 31
0.0
  0
LINE
  5
8419
330
1F
100
AcDbEntity
  8
LOGO
 62
     4
100
AcDbLine
 10
982.4673751962285
 20
552.384027822837
 30
0.0
 11
958.2576020424383
 21
552.384027822837
 31
0.0
  0
LINE
  5
841A
330
1F
100
AcDbEntity
  8
LOGO
 62
     4
100
AcDbLine
 10
958.2576020424383
 20
559.6405769486288
 30
0.0
 11
958.2576020424383
 21
552.384027822837
 31
0.0
  0
LINE
  5
841B
330
1F
100
AcDbEntity
  8
LOGO
 62
     4
100
AcDbLine
 10
982.4673751962285
 20
559.6405769486288
 30
0.0
 11
982.4673751962285
 21
552.384027822837
 31
0.0
  0
LINE
  5
841C
330
1F
100
AcDbEntity
  8
LOGO
 62
     4
100
AcDbLine
 10
978.0820757206383
 20
552.384027822837
 30
0.0
 11
978.0820757206383
 21
548.7557532599415
 31
0.0
  0
TEXT
  5
841D
330
1F
100
AcDbEntity
  8
LOGO
  6
Continuous
 62
     7
100
AcDbText
 10
959.9703749250565
 20
553.8988218437724
 30
0.0
 40
4.2336
  1
C/P/R
  7
CHINESET
100
AcDbText
  0
LINE
  5
841E
330
1F
100
AcDbEntity
  8
LOGO
 62
     4
100
AcDbLine
 10
993.1931042511033
 20
548.7557532599415
 30
0.0
 11
969.3105196980651
 21
548.7557532599415
 31
0.0
  0
TEXT
  5
841F
330
1F
100
AcDbEntity
  8
LOGO
  6
Continuous
100
AcDbText
 10
974.4373324154988
 20
541.138494521039
 30
158.5274250793563
 40
1.814399999999999
  1
Center type
 41
0.8
  7
CHINESET
100
AcDbText
  0
TEXT
  5
8420
330
1F
100
AcDbEntity
  8
LOGO
100
AcDbText
 10
971.6150086248806
 20
544.5020010899304
 30
158.5274250793563
 40
3.024
  1
中間位置型式
  7
CHINESET
100
AcDbText
  0
POINT
  5
8421
330
1F
100
AcDbEntity
  8
0
 60
     1
100
AcDbPoint
 10
-1602.070066750363
 20
-358.1065026276193
 30
0.0
1001
GENIUS_GENOBJ-N-CRS_13
1002
{
1000
OWNER
1000
GEN
1002
}
1001
GENIUS_GENOLIS_13
1002
{
1000
ENT
1005
0
1005
0
1005
0
1005
8410
1002
}
1001
GENIUS_GENOENT_13
1002
{
1000
MYREF
1005
8421
1002
}
1002
{
1000
GRP
1005
0
1002
}
1001
GENIUS_GENODEF_13
1002
{
1000
HIER
1070
    10
1002
}
1002
{
1000
MANEDIT
1070
     1
1002
}
1002
{
1000
NOSEL
1070
     0
1002
}
1002
{
1000
BEHIND
1070
     0
1002
}
1002
{
1000
OTHER
1070
     0
1002
}
1002
{
1000
REACTOR
1002
}
  0
POINT
  5
8422
330
1F
100
AcDbEntity
  8
0
 60
     1
100
AcDbPoint
 10
-1613.394651973218
 20
-349.230916148983
 30
0.0
1001
GENIUS_GENOBJ-N-CRS_13
1002
{
1000
OWNER
1000
GEN
1002
}
1001
GENIUS_GENOLIS_13
1002
{
1000
ENT
1005
0
1005
0
1005
0
1005
840F
1002
}
1001
GENIUS_GENOENT_13
1002
{
1000
MYREF
1005
8422
1002
}
1002
{
1000
GRP
1005
0
1002
}
1001
GENIUS_GENODEF_13
1002
{
1000
HIER
1070
    10
1002
}
1002
{
1000
MANEDIT
1070
     1
1002
}
1002
{
1000
NOSEL
1070
     0
1002
}
1002
{
1000
BEHIND
1070
     0
1002
}
1002
{
1000
OTHER
1070
     0
1002
}
1002
{
1000
REACTOR
1002
}
  0
POINT
  5
8423
330
1F
100
AcDbEntity
  8
0
 60
     1
100
AcDbPoint
 10
-1607.035978275381
 20
-358.1065026276193
 30
0.0
1001
GENIUS_GENOBJ-N-CRS_13
1002
{
1000
OWNER
1000
GEN
1002
}
1001
GENIUS_GENOLIS_13
1002
{
1000
ENT
1005
0
1005
0
1005
0
1005
840E
1002
}
1001
GENIUS_GENOENT_13
1002
{
1000
MYREF
1005
8423
1002
}
1002
{
1000
GRP
1005
0
1002
}
1001
GENIUS_GENODEF_13
1002
{
1000
HIER
1070
    10
1002
}
1002
{
1000
MANEDIT
1070
     1
1002
}
1002
{
1000
NOSEL
1070
     0
1002
}
1002
{
1000
BEHIND
1070
     0
1002
}
1002
{
1000
OTHER
1070
     0
1002
}
1002
{
1000
REACTOR
1002
}
  0
LINE
  5
85BA
330
1F
100
AcDbEntity
  8
AM_VIS
100
AcDbLine
 10
902.7727951310957
 20
751.0178713289035
 30
0.0
 11
902.352234383432
 21
752.2428379510666
 31
0.0
  0
LINE
  5
85BB
330
1F
100
AcDbEntity
  8
AM_VIS
100
AcDbLine
 10
901.9116469334989
 20
751.0178713289035
 30
0.0
 11
902.7727951310957
 21
751.0178713289035
 31
0.0
  0
LINE
  5
85BC
330
1F
100
AcDbEntity
  8
AM_VIS
100
AcDbLine
 10
902.352234383432
 20
752.2428379510666
 30
0.0
 11
901.9116469334989
 21
751.0178713289035
 31
0.0
  0
LINE
  5
85BD
330
1F
100
AcDbEntity
  8
AM_VIS
100
AcDbLine
 10
903.5171208987859
 20
750.0899674570744
 30
0.0
 11
902.7260661591332
 21
750.0899674570744
 31
0.0
  0
LINE
  5
85BE
330
1F
100
AcDbEntity
  8
AM_VIS
100
AcDbLine
 10
903.5171208987859
 20
750.1567231313067
 30
0.0
 11
903.5171208987859
 21
750.0899674570744
 31
0.0
  0
SPLINE
  5
85BF
330
1F
100
AcDbEntity
  8
AM_VIS
100
AcDbSpline
210
0.0
220
0.0
230
1.0
 70
     8
 71
     3
 72
     8
 73
     4
 74
     0
 42
0.0000000001
 43
0.0000000001
 40
0.0
 40
0.0
 40
0.0
 40
0.0
 40
80.0
 40
80.0
 40
80.0
 40
80.0
 10
903.3435561457819
 20
750.2134654544042
 30
0.0
 10
903.376933982898
 20
750.1867631847112
 30
0.0
 10
903.4347888835892
 20
750.1678491109657
 30
0.0
 10
903.5171208987859
 20
750.1567231313067
 30
0.0
  0
SPLINE
  5
85C0
330
1F
100
AcDbEntity
  8
AM_VIS
100
AcDbSpline
210
0.0
220
0.0
230
1.0
 70
     8
 71
     3
 72
     8
 73
     4
 74
     0
 42
0.0000000001
 43
0.0000000001
 40
0.0
 40
0.0
 40
0.0
 40
0.0
 40
80.0
 40
80.0
 40
80.0
 40
80.0
 10
903.1833425276245
 20
750.4838259350451
 30
0.0
 10
903.2322966547743
 20
750.3503145865805
 30
0.0
 10
903.2857011941601
 20
750.260194426367
 30
0.0
 10
903.3435561457819
 20
750.2134654544042
 30
0.0
  0
LINE
  5
85C1
330
1F
100
AcDbEntity
  8
AM_VIS
100
AcDbLine
 10
902.3922877879716
 20
752.5899674570744
 30
0.0
 11
903.1833425276245
 21
750.4838259350451
 31
0.0
  0
LINE
  5
85C2
330
1F
100
AcDbEntity
  8
AM_VIS
100
AcDbLine
 10
902.3789366531252
 20
752.5899674570744
 30
0.0
 11
902.3922877879716
 21
752.5899674570744
 31
0.0
  0
LINE
  5
85C3
330
1F
100
AcDbEntity
  8
AM_VIS
100
AcDbLine
 10
901.7047043433787
 20
750.7575241993975
 30
0.0
 11
902.3789366531252
 21
752.5899674570744
 31
0.0
  0
SPLINE
  5
85C4
330
1F
100
AcDbEntity
  8
AM_VIS
100
AcDbSpline
210
0.0
220
0.0
230
1.0
 70
     8
 71
     3
 72
     8
 73
     4
 74
     0
 42
0.0000000001
 43
0.0000000001
 40
0.0
 40
0.0
 40
0.0
 40
0.0
 40
80.0
 40
80.0
 40
80.0
 40
80.0
 10
901.4610461324307
 20
750.2301543729622
 30
0.0
 10
901.5233513944274
 20
750.3102611311105
 30
0.0
 10
901.6045708320303
 20
750.4860510902324
 30
0.0
 10
901.7047043433787
 20
750.7575241993975
 30
0.0
  0
SPLINE
  5
85C5
330
1F
100
AcDbEntity
  8
AM_VIS
100
AcDbSpline
210
0.0
220
0.0
230
1.0
 70
     8
 71
     3
 72
     8
 73
     4
 74
     0
 42
0.0000000001
 43
0.0000000001
 40
0.0
 40
0.0
 40
0.0
 40
0.0
 40
80.0
 40
80.0
 40
80.0
 40
80.0
 10
901.3842771070637
 20
750.173412049865
 30
0.0
 10
901.4109793258262
 20
750.1800876172881
 30
0.0
 10
901.4365690179253
 20
750.1990017419641
 30
0.0
 10
901.4610461324307
 20
750.2301543729622
 30
0.0
  0
LINE
  5
85C6
330
1F
100
AcDbEntity
  8
AM_VIS
100
AcDbLine
 10
901.2975988311437
 20
750.1561821168238
 30
0.0
 11
901.3843794416427
 21
750.1728802133641
 31
0.0
  0
LINE
  5
85C7
330
1F
100
AcDbEntity
  8
AM_VIS
100
AcDbLine
 10
901.2974947305616
 20
750.0899674570744
 30
0.0
 11
901.2974947305616
 21
750.1567231313067
 31
0.0
  0
LINE
  5
85C8
330
1F
100
AcDbEntity
  8
AM_VIS
100
AcDbLine
 10
901.9083091497872
 20
750.0899674570744
 30
0.0
 11
901.2974947305616
 21
750.0899674570744
 31
0.0
  0
LINE
  5
85C9
330
1F
100
AcDbEntity
  8
AM_VIS
100
AcDbLine
 10
901.9083091497872
 20
750.1567231313067
 30
0.0
 11
901.9083091497872
 21
750.0899674570744
 31
0.0
  0
SPLINE
  5
85CA
330
1F
100
AcDbEntity
  8
AM_VIS
100
AcDbSpline
210
0.0
220
0.0
230
1.0
 70
     8
 71
     3
 72
     8
 73
     4
 74
     0
 42
0.0000000001
 43
0.0000000001
 40
0.0
 40
0.0
 40
0.0
 40
0.0
 40
80.0
 40
80.0
 40
80.0
 40
80.0
 10
901.7681222338996
 20
750.1834254009995
 30
0.0
 10
901.7925992974745
 20
750.1700742661532
 30
0.0
 10
901.839328269437
 20
750.1611735435426
 30
0.0
 10
901.9083091497872
 20
750.1567231313067
 30
0.0
  0
SPLINE
  5
85CB
330
1F
100
AcDbEntity
  8
AM_VIS
100
AcDbSpline
210
0.0
220
0.0
230
1.0
 70
     8
 71
     3
 72
     8
 73
     4
 74
     0
 42
0.0000000001
 43
0.0000000001
 40
0.0
 40
0.0
 40
0.0
 40
0.0
 40
80.0
 40
80.0
 40
80.0
 40
80.0
 10
901.6880154248207
 20
750.3236123168876
 30
0.0
 10
901.6880154248207
 20
750.2524062813499
 30
0.0
 10
901.7147176945135
 20
750.2056773093872
 30
0.0
 10
901.7681222338996
 20
750.1834254009995
 30
0.0
  0
SPLINE
  5
85CC
330
1F
100
AcDbEntity
  8
AM_VIS
100
AcDbSpline
210
0.0
220
0.0
230
1.0
 70
     8
 71
     3
 72
     8
 73
     4
 74
     0
 42
0.0000000001
 43
0.0000000001
 40
0.0
 40
0.0
 40
0.0
 40
0.0
 40
80.0
 40
80.0
 40
80.0
 40
80.0
 10
901.7147176945135
 20
750.4704748001986
 30
0.0
 10
901.6969161474314
 20
750.4259709834234
 30
0.0
 10
901.6880154248207
 20
750.3770168562734
 30
0.0
 10
901.6880154248207
 20
750.3236123168876
 30
0.0
  0
LINE
  5
85CD
330
1F
100
AcDbEntity
  8
AM_VIS
100
AcDbLine
 10
901.8816068800944
 20
750.8943733315739
 30
0.0
 11
901.7147176945135
 21
750.4704748001986
 31
0.0
  0
LINE
  5
85CE
330
1F
100
AcDbEntity
  8
AM_VIS
100
AcDbLine
 10
902.8161863193467
 20
750.8943733315739
 30
0.0
 11
901.8816068800944
 21
750.8943733315739
 31
0.0
  0
LINE
  5
85CF
330
1F
100
AcDbEntity
  8
AM_VIS
100
AcDbLine
 10
902.9363465329648
 20
750.5639327441238
 30
0.0
 11
902.8161863193467
 21
750.8943733315736
 31
0.0
  0
SPLINE
  5
85D0
330
1F
100
AcDbEntity
  8
AM_VIS
100
AcDbSpline
210
0.0
220
0.0
230
1.0
 70
     8
 71
     3
 72
     8
 73
     4
 74
     0
 42
0.0000000001
 43
0.0000000001
 40
0.0
 40
0.0
 40
0.0
 40
0.0
 40
80.0
 40
80.0
 40
80.0
 40
80.0
 10
902.9930888560624
 20
750.3236123168876
 30
0.0
 10
902.9930888560624
 20
750.3792420114607
 30
0.0
 10
902.9741747313863
 20
750.4593488205395
 30
0.0
 10
902.9363465329648
 20
750.5639327441238
 30
0.0
  0
SPLINE
  5
85D1
330
1F
100
AcDbEntity
  8
AM_VIS
100
AcDbSpline
210
0.0
220
0.0
230
1.0
 70
     8
 71
     3
 72
     8
 73
     4
 74
     0
 42
0.0000000001
 43
0.0000000001
 40
0.0
 40
0.0
 40
0.0
 40
0.0
 40
80.0
 40
80.0
 40
80.0
 40
80.0
 10
902.909644263272
 20
750.1834254009995
 30
0.0
 10
902.9652739578452
 20
750.2079025155053
 30
0.0
 10
902.9930888560624
 20
750.2546314874678
 30
0.0
 10
902.9930888560624
 20
750.3236123168876
 30
0.0
  0
SPLINE
  5
85D2
330
1F
100
AcDbEntity
  8
AM_VIS
100
AcDbSpline
210
0.0
220
0.0
230
1.0
 70
     8
 71
     3
 72
     8
 73
     4
 74
     0
 42
0.0000000001
 43
0.0000000001
 40
0.0
 40
0.0
 40
0.0
 40
0.0
 40
80.0
 40
80.0
 40
80.0
 40
80.0
 10
902.7260661591332
 20
750.1567231313067
 30
0.0
 10
902.8128485356349
 20
750.1611735435426
 30
0.0
 10
902.8740412200377
 20
750.1700742661532
 30
0.0
 10
902.909644263272
 20
750.1834254009995
 30
0.0
  0
LINE
  5
85D3
330
1F
100
AcDbEntity
  8
AM_VIS
100
AcDbLine
 10
902.7260661591332
 20
750.0899674570744
 30
0.0
 11
902.7260661591332
 21
750.1567231313067
 31
0.0
  0
SPLINE
  5
85D4
330
1F
100
AcDbEntity
  8
AM_VIS
100
AcDbSpline
210
0.0
220
0.0
230
1.0
 70
     8
 71
     3
 72
     8
 73
     4
 74
     0
 42
0.0000000001
 43
0.0000000001
 40
0.0
 40
0.0
 40
0.0
 40
0.0
 40
80.0
 40
80.0
 40
80.0
 40
80.0
 10
939.7286698118394
 20
771.8174131092482
 30
0.0
 10
939.7286698636696
 20
771.5524675089045
 30
0.0
 10
939.8713329071478
 20
771.3713080540612
 30
0.0
 10
940.1566589422742
 20
771.2739348483787
 30
0.0
  0
SPLINE
  5
85D5
330
1F
100
AcDbEntity
  8
AM_VIS
100
AcDbSpline
210
0.0
220
0.0
230
1.0
 70
     8
 71
     3
 72
     8
 73
     4
 74
     0
 42
0.0000000001
 43
0.0000000001
 40
0.0
 40
0.0
 40
0.0
 40
0.0
 40
80.0
 40
80.0
 40
80.0
 40
80.0
 10
940.4521752466219
 20
772.3778750657702
 30
0.0
 10
939.9698383419304
 20
772.3778750139399
 30
0.0
 10
939.7286698636696
 20
772.1910544135962
 30
0.0
 10
939.7286698118394
 20
771.8174131092482
 30
0.0
  0
SPLINE
  5
85D6
330
1F
100
AcDbEntity
  8
AM_VIS
100
AcDbSpline
210
0.0
220
0.0
230
1.0
 70
     8
 71
     3
 72
     8
 73
     4
 74
     0
 42
0.0000000001
 43
0.0000000001
 40
0.0
 40
0.0
 40
0.0
 40
0.0
 40
80.0
 40
80.0
 40
80.0
 40
80.0
 10
940.6661698118394
 20
772.3574946309875
 30
0.0
 10
940.623144484074
 20
772.3710815356792
 30
0.0
 10
940.5518129623347
 20
772.3778750139399
 30
0.0
 10
940.4521752466219
 20
772.3778750657702
 30
0.0
  0
SPLINE
  5
85D7
330
1F
100
AcDbEntity
  8
AM_VIS
100
AcDbSpline
210
0.0
220
0.0
230
1.0
 70
     8
 71
     3
 72
     8
 73
     4
 74
     0
 42
0.0000000001
 43
0.0000000001
 40
0.0
 40
0.0
 40
0.0
 40
0.0
 40
80.0
 40
80.0
 40
80.0
 40
80.0
 10
940.7748654640132
 20
772.197847891857
 30
0.0
 10
940.7748655158435
 20
772.2771051727873
 30
0.0
 10
940.7386336145087
 20
772.330320717944
 30
0.0
 10
940.6661698118394
 20
772.3574946309875
 30
0.0
  0
LINE
  5
85D8
330
1F
100
AcDbEntity
  8
AM_VIS
100
AcDbLine
 10
940.7748654640132
 20
771.2195870222918
 30
0.0
 11
940.7748654640132
 21
772.197847891857
 31
0.0
  0
SPLINE
  5
85D9
330
1F
100
AcDbEntity
  8
AM_VIS
100
AcDbSpline
210
0.0
220
0.0
230
1.0
 70
     8
 71
     3
 72
     8
 73
     4
 74
     0
 42
0.0000000001
 43
0.0000000001
 40
0.0
 40
0.0
 40
0.0
 40
0.0
 40
80.0
 40
80.0
 40
80.0
 40
80.0
 10
940.1566589422742
 20
771.2739348483787
 30
0.0
 10
940.2630901362478
 20
771.2377029988743
 30
0.0
 10
940.4691589422743
 20
771.2195870222918
 30
0.0
 10
940.7748654640132
 20
771.2195870222918
 30
0.0
  0
SPLINE
  5
85DA
330
1F
100
AcDbEntity
  8
AM_VIS
100
AcDbSpline
210
0.0
220
0.0
230
1.0
 70
     8
 71
     3
 72
     8
 73
     4
 74
     0
 42
0.0000000001
 43
0.0000000001
 40
0.0
 40
0.0
 40
0.0
 40
0.0
 40
80.0
 40
80.0
 40
80.0
 40
80.0
 10
939.796604594448
 20
770.6421413701179
 30
0.0
 10
939.796604594448
 20
770.2820870222917
 30
0.0
 10
940.0411698118395
 20
770.1020598483787
 30
0.0
 10
940.530300246622
 20
770.1020598483787
 30
0.0
  0
SPLINE
  5
85DB
330
1F
100
AcDbEntity
  8
AM_VIS
100
AcDbSpline
210
0.0
220
0.0
230
1.0
 70
     8
 71
     3
 72
     8
 73
     4
 74
     0
 42
0.0000000001
 43
0.0000000001
 40
0.0
 40
0.0
 40
0.0
 40
0.0
 40
80.0
 40
80.0
 40
80.0
 40
80.0
 10
940.0547567683613
 20
771.0395598483787
 30
0.0
 10
939.8826553536393
 20
770.9761540858307
 30
0.0
 10
939.796604594448
 20
770.8436812597438
 30
0.0
 10
939.796604594448
 20
770.6421413701179
 30
0.0
  0
SPLINE
  5
85DC
330
1F
100
AcDbEntity
  8
AM_VIS
100
AcDbSpline
210
0.0
220
0.0
230
1.0
 70
     8
 71
     3
 72
     8
 73
     4
 74
     0
 42
0.0000000001
 43
0.0000000001
 40
0.0
 40
0.0
 40
0.0
 40
0.0
 40
80.0
 40
80.0
 40
80.0
 40
80.0
 10
940.3910339422742
 20
771.0769239788135
 30
0.0
 10
940.2370484523045
 20
771.0746595206132
 30
0.0
 10
940.1249560610002
 20
771.0622047931917
 30
0.0
 10
940.0547567683613
 20
771.0395598483787
 30
0.0
  0
LINE
  5
85DD
330
1F
100
AcDbEntity
  8
AM_VIS
100
AcDbLine
 10
940.7748654640132
 20
771.080320717944
 30
0.0
 11
940.3910339422742
 21
771.0769239788135
 31
0.0
  0
LINE
  5
85DE
330
1F
100
AcDbEntity
  8
AM_VIS
100
AcDbLine
 10
940.7748654640132
 20
770.2005652831615
 30
0.0
 11
940.7748654640132
 21
771.080320717944
 31
0.0
  0
SPLINE
  5
85DF
330
1F
100
AcDbEntity
  8
AM_VIS
100
AcDbSpline
210
0.0
220
0.0
230
1.0
 70
     8
 71
     3
 72
     8
 73
     4
 74
     0
 42
0.0000000001
 43
0.0000000001
 40
0.0
 40
0.0
 40
0.0
 40
0.0
 40
80.0
 40
80.0
 40
80.0
 40
80.0
 10
940.7612785074915
 20
770.1292337614222
 30
0.0
 10
940.7703364957827
 20
770.1405562597438
 30
0.0
 10
940.7748655158435
 20
770.1643334336568
 30
0.0
 10
940.7748654640132
 20
770.2005652831615
 30
0.0
  0
SPLINE
  5
85E0
330
1F
100
AcDbEntity
  8
AM_VIS
100
AcDbSpline
210
0.0
220
0.0
230
1.0
 70
     8
 71
     3
 72
     8
 73
     4
 74
     0
 42
0.0000000001
 43
0.0000000001
 40
0.0
 40
0.0
 40
0.0
 40
0.0
 40
80.0
 40
80.0
 40
80.0
 40
80.0
 10
940.6865502466219
 20
770.1054565875092
 30
0.0
 10
940.7273111161872
 20
770.1099856075698
 30
0.0
 10
940.7522205710305
 20
770.117911314931
 30
0.0
 10
940.7612785074915
 20
770.1292337614222
 30
0.0
  0
SPLINE
  5
85E1
330
1F
100
AcDbEntity
  8
AM_VIS
100
AcDbSpline
210
0.0
220
0.0
230
1.0
 70
     8
 71
     3
 72
     8
 73
     4
 74
     0
 42
0.0000000001
 43
0.0000000001
 40
0.0
 40
0.0
 40
0.0
 40
0.0
 40
80.0
 40
80.0
 40
80.0
 40
80.0
 10
940.530300246622
 20
770.1020598483787
 30
0.0
 10
940.6254089941043
 20
770.1020598483787
 30
0.0
 10
940.6774923101609
 20
770.103192129309
 30
0.0
 10
940.6865502466219
 20
770.1054565875092
 30
0.0
  0
SPLINE
  5
85E2
330
1F
100
AcDbEntity
  8
AM_VIS
100
AcDbSpline
210
0.0
220
0.0
230
1.0
 70
     8
 71
     3
 72
     8
 73
     4
 74
     0
 42
0.0000000001
 43
0.0000000001
 40
0.0
 40
0.0
 40
0.0
 40
0.0
 40
80.0
 40
80.0
 40
80.0
 40
80.0
 10
939.467120898796
 20
771.8310000657703
 30
0.0
 10
939.467120898796
 20
771.9759276192787
 30
0.0
 10
939.5078817683613
 20
772.103871477135
 30
0.0
 10
939.5894035074915
 20
772.2148315875092
 30
0.0
  0
SPLINE
  5
85E3
330
1F
100
AcDbEntity
  8
AM_VIS
100
AcDbSpline
210
0.0
220
0.0
230
1.0
 70
     8
 71
     3
 72
     8
 73
     4
 74
     0
 42
0.0000000001
 43
0.0000000001
 40
0.0
 40
0.0
 40
0.0
 40
0.0
 40
80.0
 40
80.0
 40
80.0
 40
80.0
 10
940.0105991596655
 20
771.1856196309875
 30
0.0
 10
939.6482803536393
 20
771.2716703901785
 30
0.0
 10
939.467120898796
 20
771.486797184496
 30
0.0
 10
939.467120898796
 20
771.8310000657703
 30
0.0
  0
LINE
  5
85E4
330
1F
100
AcDbEntity
  8
AM_VIS
100
AcDbLine
 10
940.0683437248829
 20
771.1720326744657
 30
0.0
 11
940.0105991596655
 21
771.1856196309875
 31
0.0
  0
SPLINE
  5
85E5
330
1F
100
AcDbEntity
  8
AM_VIS
100
AcDbSpline
210
0.0
220
0.0
230
1.0
 70
     8
 71
     3
 72
     8
 73
     4
 74
     0
 42
0.0000000001
 43
0.0000000001
 40
0.0
 40
0.0
 40
0.0
 40
0.0
 40
80.0
 40
80.0
 40
80.0
 40
80.0
 10
939.5758165509697
 20
770.6149674570744
 30
0.0
 10
939.5758165509697
 20
770.8957645758005
 30
0.0
 10
939.7399923101611
 20
771.0814529988742
 30
0.0
 10
940.0683437248829
 20
771.1720326744657
 30
0.0
  0
SPLINE
  5
85E6
330
1F
100
AcDbEntity
  8
AM_VIS
100
AcDbSpline
210
0.0
220
0.0
230
1.0
 70
     8
 71
     3
 72
     8
 73
     4
 74
     0
 42
0.0000000001
 43
0.0000000001
 40
0.0
 40
0.0
 40
0.0
 40
0.0
 40
80.0
 40
80.0
 40
80.0
 40
80.0
 10
940.4351915509698
 20
769.9899674570745
 30
0.0
 10
939.8622749188564
 20
769.9899674570745
 30
0.0
 10
939.5758165509697
 20
770.1983008249612
 30
0.0
 10
939.5758165509697
 20
770.6149674570744
 30
0.0
  0
LINE
  5
85E7
330
1F
100
AcDbEntity
  8
AM_VIS
100
AcDbLine
 10
941.3489143770567
 20
769.9899674570745
 30
0.0
 11
940.4351915509698
 21
769.9899674570745
 31
0.0
  0
LINE
  5
85E8
330
1F
100
AcDbEntity
  8
AM_VIS
100
AcDbLine
 10
941.3489143770567
 20
770.0579022396832
 30
0.0
 11
941.3489143770567
 21
769.9899674570745
 31
0.0
  0
SPLINE
  5
85E9
330
1F
100
AcDbEntity
  8
AM_VIS
100
AcDbSpline
210
0.0
220
0.0
230
1.0
 70
     8
 71
     3
 72
     8
 73
     4
 74
     0
 42
0.0000000001
 43
0.0000000001
 40
0.0
 40
0.0
 40
0.0
 40
0.0
 40
80.0
 40
80.0
 40
80.0
 40
80.0
 10
941.0635882901003
 20
770.119043544031
 30
0.0
 10
941.1066136696957
 20
770.087340662757
 30
0.0
 10
941.201722365348
 20
770.0669602279742
 30
0.0
 10
941.3489143770567
 20
770.0579022396832
 30
0.0
  0
SPLINE
  5
85EA
330
1F
100
AcDbEntity
  8
AM_VIS
100
AcDbSpline
210
0.0
220
0.0
230
1.0
 70
     8
 71
     3
 72
     8
 73
     4
 74
     0
 42
0.0000000001
 43
0.0000000001
 40
0.0
 40
0.0
 40
0.0
 40
0.0
 40
80.0
 40
80.0
 40
80.0
 40
80.0
 10
940.9854632901001
 20
770.383989196205
 30
0.0
 10
940.9854632901001
 20
770.2481196309875
 30
0.0
 10
941.0115049740438
 20
770.1598044135963
 30
0.0
 10
941.0635882901003
 20
770.119043544031
 30
0.0
  0
LINE
  5
85EB
330
1F
100
AcDbEntity
  8
AM_VIS
100
AcDbLine
 10
940.9854632901001
 20
772.041597891857
 30
0.0
 11
940.9854632901001
 21
770.383989196205
 31
0.0
  0
SPLINE
  5
85EC
330
1F
100
AcDbEntity
  8
AM_VIS
100
AcDbSpline
210
0.0
220
0.0
230
1.0
 70
     8
 71
     3
 72
     8
 73
     4
 74
     0
 42
0.0000000001
 43
0.0000000001
 40
0.0
 40
0.0
 40
0.0
 40
0.0
 40
80.0
 40
80.0
 40
80.0
 40
80.0
 10
941.0601915509698
 20
772.330320717944
 30
0.0
 10
941.0103727449435
 20
772.2782374018875
 30
0.0
 10
940.9854632901001
 20
772.181996477135
 30
0.0
 10
940.9854632901001
 20
772.041597891857
 30
0.0
  0
SPLINE
  5
85ED
330
1F
100
AcDbEntity
  8
AM_VIS
100
AcDbSpline
210
0.0
220
0.0
230
1.0
 70
     8
 71
     3
 72
     8
 73
     4
 74
     0
 42
0.0000000001
 43
0.0000000001
 40
0.0
 40
0.0
 40
0.0
 40
0.0
 40
80.0
 40
80.0
 40
80.0
 40
80.0
 10
941.3489143770567
 20
772.4220326744657
 30
0.0
 10
941.2085158436088
 20
772.4129746861745
 30
0.0
 10
941.1122749188566
 20
772.3824040340007
 30
0.0
 10
941.0601915509698
 20
772.330320717944
 30
0.0
  0
LINE
  5
85EE
330
1F
100
AcDbEntity
  8
AM_VIS
100
AcDbLine
 10
941.3489143770567
 20
772.4899674570744
 30
0.0
 11
941.3489143770567
 21
772.4220326744657
 31
0.0
  0
LINE
  5
85EF
330
1F
100
AcDbEntity
  8
AM_VIS
100
AcDbLine
 10
940.2517676379263
 20
772.4899674570744
 30
0.0
 11
941.3489143770567
 21
772.4899674570744
 31
0.0
  0
SPLINE
  5
85F0
330
1F
100
AcDbEntity
  8
AM_VIS
100
AcDbSpline
210
0.0
220
0.0
230
1.0
 70
     8
 71
     3
 72
     8
 73
     4
 74
     0
 42
0.0000000001
 43
0.0000000001
 40
0.0
 40
0.0
 40
0.0
 40
0.0
 40
80.0
 40
80.0
 40
80.0
 40
80.0
 10
939.5894035074915
 20
772.2148315875092
 30
0.0
 10
939.7230086145087
 20
772.3982555005528
 30
0.0
 10
939.9437966579871
 20
772.4899674570744
 30
0.0
 10
940.2517676379263
 20
772.4899674570744
 30
0.0
  0
LINE
  5
85F1
330
1F
100
AcDbEntity
  8
AM_HID
100
AcDbLine
 10
940.2873539214075
 20
772.4899674570744
 30
0.0
 11
940.2873539214075
 21
772.4733229830399
 31
0.0
  0
SPLINE
  5
85F2
330
1F
100
AcDbEntity
  8
AM_VIS
100
AcDbSpline
210
0.0
220
0.0
230
1.0
 70
     8
 71
     3
 72
     8
 73
     4
 74
     0
 42
0.0000000001
 43
0.0000000001
 40
0.0
 40
0.0
 40
0.0
 40
0.0
 40
80.0
 40
80.0
 40
80.0
 40
80.0
 10
917.2943517288931
 20
624.8706986483683
 30
0.0
 10
917.2943516770628
 20
625.2466044109163
 30
0.0
 10
917.0328027640193
 20
625.4345573440205
 30
0.0
 10
916.5097049897626
 20
625.4345573440205
 30
0.0
  0
SPLINE
  5
85F3
330
1F
100
AcDbEntity
  8
AM_VIS
100
AcDbSpline
210
0.0
220
0.0
230
1.0
 70
     8
 71
     3
 72
     8
 73
     4
 74
     0
 42
0.0000000001
 43
0.0000000001
 40
0.0
 40
0.0
 40
0.0
 40
0.0
 40
80.0
 40
80.0
 40
80.0
 40
80.0
 10
916.6184006419364
 20
624.2762693005422
 30
0.0
 10
917.0690346653541
 20
624.2762693005422
 30
0.0
 10
917.2943516770628
 20
624.4744123992076
 30
0.0
 10
917.2943517288931
 20
624.8706986483683
 30
0.0
  0
SPLINE
  5
85F4
330
1F
100
AcDbEntity
  8
AM_VIS
100
AcDbSpline
210
0.0
220
0.0
230
1.0
 70
     8
 71
     3
 72
     8
 73
     4
 74
     0
 42
0.0000000001
 43
0.0000000001
 40
0.0
 40
0.0
 40
0.0
 40
0.0
 40
80.0
 40
80.0
 40
80.0
 40
80.0
 10
916.3500582506321
 20
624.289856257064
 30
0.0
 10
916.4247864596715
 20
624.2807982687728
 30
0.0
 10
916.5142339579931
 20
624.2762693005422
 30
0.0
 10
916.6184006419364
 20
624.2762693005422
 30
0.0
  0
LINE
  5
85F5
330
1F
100
AcDbEntity
  8
AM_VIS
100
AcDbLine
 10
916.3500582506321
 20
625.2783073440205
 30
0.0
 11
916.3500582506321
 21
624.289856257064
 31
0.0
  0
SPLINE
  5
85F6
330
1F
100
AcDbEntity
  8
AM_VIS
100
AcDbSpline
210
0.0
220
0.0
230
1.0
 70
     8
 71
     3
 72
     8
 73
     4
 74
     0
 42
0.0000000001
 43
0.0000000001
 40
0.0
 40
0.0
 40
0.0
 40
0.0
 40
80.0
 40
80.0
 40
80.0
 40
80.0
 10
916.3840256419364
 20
625.4141769092378
 30
0.0
 10
916.3613806971236
 20
625.3915319644249
 30
0.0
 10
916.3500582506321
 20
625.3462421266292
 30
0.0
 10
916.3500582506321
 20
625.2783073440205
 30
0.0
  0
SPLINE
  5
85F7
330
1F
100
AcDbEntity
  8
AM_VIS
100
AcDbSpline
210
0.0
220
0.0
230
1.0
 70
     8
 71
     3
 72
     8
 73
     4
 74
     0
 42
0.0000000001
 43
0.0000000001
 40
0.0
 40
0.0
 40
0.0
 40
0.0
 40
80.0
 40
80.0
 40
80.0
 40
80.0
 10
916.5097049897626
 20
625.4345573440205
 30
0.0
 10
916.4440346653542
 20
625.4345573440205
 30
0.0
 10
916.4021415666889
 20
625.4277638657596
 30
0.0
 10
916.3840256419364
 20
625.4141769092378
 30
0.0
  0
SPLINE
  5
85F8
330
1F
100
AcDbEntity
  8
AM_VIS
100
AcDbSpline
210
0.0
220
0.0
230
1.0
 70
     8
 71
     3
 72
     8
 73
     4
 74
     0
 42
0.0000000001
 43
0.0000000001
 40
0.0
 40
0.0
 40
0.0
 40
0.0
 40
80.0
 40
80.0
 40
80.0
 40
80.0
 10
917.5321234680234
 20
624.8774921266292
 30
0.0
 10
917.5321234680234
 20
624.6759522370033
 30
0.0
 10
917.4687176536453
 20
624.509512019612
 30
0.0
 10
917.3419060767191
 20
624.3781714744553
 30
0.0
  0
SPLINE
  5
85F9
330
1F
100
AcDbEntity
  8
AM_VIS
100
AcDbSpline
210
0.0
220
0.0
230
1.0
 70
     8
 71
     3
 72
     8
 73
     4
 74
     0
 42
0.0000000001
 43
0.0000000001
 40
0.0
 40
0.0
 40
0.0
 40
0.0
 40
80.0
 40
80.0
 40
80.0
 40
80.0
 10
917.2739712941105
 20
625.3937964744554
 30
0.0
 10
917.4460727088323
 20
625.2737783239598
 30
0.0
 10
917.5321234680234
 20
625.1016769092379
 30
0.0
 10
917.5321234680234
 20
624.8774921266292
 30
0.0
  0
SPLINE
  5
85FA
330
1F
100
AcDbEntity
  8
AM_VIS
100
AcDbSpline
210
0.0
220
0.0
230
1.0
 70
     8
 71
     3
 72
     8
 73
     4
 74
     0
 42
0.0000000001
 43
0.0000000001
 40
0.0
 40
0.0
 40
0.0
 40
0.0
 40
80.0
 40
80.0
 40
80.0
 40
80.0
 10
916.6761452071538
 20
625.5500464744553
 30
0.0
 10
916.9229748827454
 20
625.5500464744553
 30
0.0
 10
917.1222502623409
 20
625.4979631065686
 30
0.0
 10
917.2739712941105
 20
625.3937964744554
 30
0.0
  0
LINE
  5
85FB
330
1F
100
AcDbEntity
  8
AM_VIS
100
AcDbLine
 10
915.8133734680234
 20
625.5500464744553
 30
0.0
 11
916.6761452071538
 21
625.5500464744553
 31
0.0
  0
LINE
  5
85FC
330
1F
100
AcDbEntity
  8
AM_VIS
100
AcDbLine
 10
915.8133734680234
 20
625.4821116918466
 30
0.0
 11
915.8133734680234
 21
625.5500464744553
 31
0.0
  0
SPLINE
  5
85FD
330
1F
100
AcDbEntity
  8
AM_VIS
100
AcDbSpline
210
0.0
220
0.0
230
1.0
 70
     8
 71
     3
 72
     8
 73
     4
 74
     0
 42
0.0000000001
 43
0.0000000001
 40
0.0
 40
0.0
 40
0.0
 40
0.0
 40
80.0
 40
80.0
 40
80.0
 40
80.0
 10
916.0715256419363
 20
625.3971932135857
 30
0.0
 10
916.0307647723714
 20
625.437954083151
 30
0.0
 10
915.9447140131801
 20
625.4662602252945
 30
0.0
 10
915.8133734680234
 20
625.4821116918466
 30
0.0
  0
SPLINE
  5
85FE
330
1F
100
AcDbEntity
  8
AM_VIS
100
AcDbSpline
210
0.0
220
0.0
230
1.0
 70
     8
 71
     3
 72
     8
 73
     4
 74
     0
 42
0.0000000001
 43
0.0000000001
 40
0.0
 40
0.0
 40
0.0
 40
0.0
 40
80.0
 40
80.0
 40
80.0
 40
80.0
 10
916.1360636854146
 20
625.1288508222813
 30
0.0
 10
916.1360636854146
 20
625.2647203874987
 30
0.0
 10
916.114550969702
 20
625.3541678339902
 30
0.0
 10
916.0715256419363
 20
625.3971932135857
 30
0.0
  0
LINE
  5
85FF
330
1F
100
AcDbEntity
  8
AM_VIS
100
AcDbLine
 10
916.1360636854146
 20
623.5425736483684
 30
0.0
 11
916.1360636854146
 21
625.1288508222813
 31
0.0
  0
SPLINE
  5
8600
330
1F
100
AcDbEntity
  8
AM_VIS
100
AcDbSpline
210
0.0
220
0.0
230
1.0
 70
     8
 71
     3
 72
     8
 73
     4
 74
     0
 42
0.0000000001
 43
0.0000000001
 40
0.0
 40
0.0
 40
0.0
 40
0.0
 40
80.0
 40
80.0
 40
80.0
 40
80.0
 10
916.0783191201973
 20
623.2334703874987
 30
0.0
 10
916.1168154797323
 20
623.2878182135857
 30
0.0
 10
916.1360636854146
 20
623.3908526165988
 30
0.0
 10
916.1360636854146
 20
623.5425736483684
 30
0.0
  0
SPLINE
  5
8601
330
1F
100
AcDbEntity
  8
AM_VIS
100
AcDbSpline
210
0.0
220
0.0
230
1.0
 70
     8
 71
     3
 72
     8
 73
     4
 74
     0
 42
0.0000000001
 43
0.0000000001
 40
0.0
 40
0.0
 40
0.0
 40
0.0
 40
80.0
 40
80.0
 40
80.0
 40
80.0
 10
915.8133734680234
 20
623.117981257064
 30
0.0
 10
915.9469785232106
 20
623.1315682135857
 30
0.0
 10
916.0352937406019
 20
623.1700646249508
 30
0.0
 10
916.0783191201973
 20
623.2334703874987
 30
0.0
  0
LINE
  5
8602
330
1F
100
AcDbEntity
  8
AM_VIS
100
AcDbLine
 10
915.8133734680234
 20
623.0500464744554
 30
0.0
 11
915.8133734680234
 21
623.117981257064
 31
0.0
  0
LINE
  5
8603
330
1F
100
AcDbEntity
  8
AM_VIS
100
AcDbLine
 10
916.706715859328
 20
623.0500464744554
 30
0.0
 11
915.8133734680234
 21
623.0500464744554
 31
0.0
  0
LINE
  5
8604
330
1F
100
AcDbEntity
  8
AM_VIS
100
AcDbLine
 10
916.706715859328
 20
623.117981257064
 30
0.0
 11
916.706715859328
 21
623.0500464744554
 31
0.0
  0
SPLINE
  5
8605
330
1F
100
AcDbEntity
  8
AM_VIS
100
AcDbSpline
210
0.0
220
0.0
230
1.0
 70
     8
 71
     3
 72
     8
 73
     4
 74
     0
 42
0.0000000001
 43
0.0000000001
 40
0.0
 40
0.0
 40
0.0
 40
0.0
 40
80.0
 40
80.0
 40
80.0
 40
80.0
 10
916.4349767288932
 20
623.2028997353248
 30
0.0
 10
916.4825310767191
 20
623.1553454393289
 30
0.0
 10
916.5731107523106
 20
623.1270392453552
 30
0.0
 10
916.706715859328
 20
623.117981257064
 30
0.0
  0
SPLINE
  5
8606
330
1F
100
AcDbEntity
  8
AM_VIS
100
AcDbSpline
210
0.0
220
0.0
230
1.0
 70
     8
 71
     3
 72
     8
 73
     4
 74
     0
 42
0.0000000001
 43
0.0000000001
 40
0.0
 40
0.0
 40
0.0
 40
0.0
 40
80.0
 40
80.0
 40
80.0
 40
80.0
 10
916.3500582506321
 20
623.4950193005422
 30
0.0
 10
916.3500582506321
 20
623.3568852252946
 30
0.0
 10
916.3783643927756
 20
623.2595120196121
 30
0.0
 10
916.4349767288932
 20
623.2028997353248
 30
0.0
  0
LINE
  5
8607
330
1F
100
AcDbEntity
  8
AM_VIS
100
AcDbLine
 10
916.3500582506321
 20
624.1675736483683
 30
0.0
 11
916.3500582506321
 21
623.4950193005422
 31
0.0
  0
LINE
  5
8608
330
1F
100
AcDbEntity
  8
AM_VIS
100
AcDbLine
 10
916.3500194138132
 20
624.1655728962215
 30
0.0
 11
916.6421607716964
 21
624.1599021083326
 31
0.0
  0
SPLINE
  5
8609
330
1F
100
AcDbEntity
  8
AM_VIS
100
AcDbSpline
210
0.0
220
0.0
230
1.0
 70
     8
 71
     3
 72
     8
 73
     4
 74
     0
 42
0.0000000001
 43
0.0000000001
 40
0.0
 40
0.0
 40
0.0
 40
0.0
 40
80.0
 40
80.0
 40
80.0
 40
80.0
 10
917.3419060767191
 20
624.3781714744553
 30
0.0
 10
917.201507491441
 20
624.2332439209467
 30
0.0
 10
916.968264720541
 20
624.1607801701075
 30
0.0
 10
916.6421778158497
 20
624.1607801701075
 30
0.0
  0
LINE
  5
860A
330
1F
100
AcDbEntity
  8
AM_VIS
100
AcDbLine
 10
904.8521234680388
 20
603.1500464744554
 30
0.0
 11
903.9731127728517
 21
603.1500464744554
 31
0.0
  0
LINE
  5
860B
330
1F
100
AcDbEntity
  8
AM_VIS
100
AcDbLine
 10
904.8521234680388
 20
603.2168913942414
 30
0.0
 11
904.8521234680388
 21
603.1500464744554
 31
0.0
  0
SPLINE
  5
860C
330
1F
100
AcDbEntity
  8
AM_VIS
100
AcDbSpline
210
0.0
220
0.0
230
1.0
 70
     8
 71
     3
 72
     8
 73
     4
 74
     0
 42
0.0000000001
 43
0.0000000001
 40
0.0
 40
0.0
 40
0.0
 40
0.0
 40
80.0
 40
80.0
 40
80.0
 40
80.0
 10
904.5847437888944
 20
603.2703673300703
 30
0.0
 10
904.6382197247233
 20
603.2347167401834
 30
0.0
 10
904.727346250439
 20
603.2168913942414
 30
0.0
 10
904.8521234680388
 20
603.2168913942414
 30
0.0
  0
SPLINE
  5
860D
330
1F
100
AcDbEntity
  8
AM_VIS
100
AcDbSpline
210
0.0
220
0.0
230
1.0
 70
     8
 71
     3
 72
     8
 73
     4
 74
     0
 42
0.0000000001
 43
0.0000000001
 40
0.0
 40
0.0
 40
0.0
 40
0.0
 40
80.0
 40
80.0
 40
80.0
 40
80.0
 10
904.504529885151
 20
603.4742443354178
 30
0.0
 10
904.504529885151
 20
603.378433266725
 30
0.0
 10
904.5312678530656
 20
603.3104743329406
 30
0.0
 10
904.5847437888944
 20
603.2703673300703
 30
0.0
  0
LINE
  5
860E
330
1F
100
AcDbEntity
  8
AM_VIS
100
AcDbLine
 10
904.504529885151
 20
605.6500464744553
 30
0.0
 11
904.504529885151
 21
603.4742443354178
 31
0.0
  0
LINE
  5
860F
330
1F
100
AcDbEntity
  8
AM_VIS
100
AcDbLine
 10
903.9396903129587
 20
605.3793245493216
 30
0.0
 11
904.504529885151
 21
605.6500464744553
 31
0.0
  0
LINE
  5
8610
330
1F
100
AcDbEntity
  8
AM_VIS
100
AcDbLine
 10
903.9396903129587
 20
605.3258486134928
 30
0.0
 11
903.9396903129587
 21
605.3793245493216
 31
0.0
  0
SPLINE
  5
8611
330
1F
100
AcDbEntity
  8
AM_VIS
100
AcDbSpline
210
0.0
220
0.0
230
1.0
 70
     8
 71
     3
 72
     8
 73
     4
 74
     0
 42
0.0000000001
 43
0.0000000001
 40
0.0
 40
0.0
 40
0.0
 40
0.0
 40
80.0
 40
80.0
 40
80.0
 40
80.0
 10
904.1803320241886
 20
605.3860090413002
 30
0.0
 10
904.1223997263749
 20
605.3860090413002
 30
0.0
 10
904.0421858226316
 20
605.3659555653644
 30
0.0
 10
903.9396903129587
 20
605.3258486134928
 30
0.0
  0
SPLINE
  5
8612
330
1F
100
AcDbEntity
  8
AM_VIS
100
AcDbSpline
210
0.0
220
0.0
230
1.0
 70
     8
 71
     3
 72
     8
 73
     4
 74
     0
 42
0.0000000001
 43
0.0000000001
 40
0.0
 40
0.0
 40
0.0
 40
0.0
 40
80.0
 40
80.0
 40
80.0
 40
80.0
 10
904.3173641097501
 20
605.1955010199098
 30
0.0
 10
904.3173641097501
 20
605.3225063675035
 30
0.0
 10
904.2716867308966
 20
605.3860090413002
 30
0.0
 10
904.1803320241886
 20
605.3860090413002
 30
0.0
  0
LINE
  5
8613
330
1F
100
AcDbEntity
  8
AM_VIS
100
AcDbLine
 10
904.3173641097501
 20
603.5377470092147
 30
0.0
 11
904.3173641097501
 21
605.1955010199098
 31
0.0
  0
SPLINE
  5
8614
330
1F
100
AcDbEntity
  8
AM_VIS
100
AcDbSpline
210
0.0
220
0.0
230
1.0
 70
     8
 71
     3
 72
     8
 73
     4
 74
     0
 42
0.0000000001
 43
0.0000000001
 40
0.0
 40
0.0
 40
0.0
 40
0.0
 40
80.0
 40
80.0
 40
80.0
 40
80.0
 10
904.2170967300707
 20
603.2703673300703
 30
0.0
 10
904.2839416498571
 20
603.3171588249192
 30
0.0
 10
904.3173641097501
 20
603.4062852996363
 30
0.0
 10
904.3173641097501
 20
603.5377470092147
 30
0.0
  0
SPLINE
  5
8615
330
1F
100
AcDbEntity
  8
AM_VIS
100
AcDbSpline
210
0.0
220
0.0
230
1.0
 70
     8
 71
     3
 72
     8
 73
     4
 74
     0
 42
0.0000000001
 43
0.0000000001
 40
0.0
 40
0.0
 40
0.0
 40
0.0
 40
80.0
 40
80.0
 40
80.0
 40
80.0
 10
903.9731127728517
 20
603.2168913942414
 30
0.0
 10
904.0912054474743
 20
603.2213477562262
 30
0.0
 10
904.1725334162144
 20
603.2391730511696
 30
0.0
 10
904.2170967300707
 20
603.2703673300703
 30
0.0
  0
LINE
  5
8616
330
1F
100
AcDbEntity
  8
AM_VIS
100
AcDbLine
 10
903.9731127728517
 20
603.1500464744554
 30
0.0
 11
903.9731127728517
 21
603.2168913942414
 31
0.0
  0
SPLINE
  5
8617
330
1F
100
AcDbEntity
  8
AM_VIS
100
AcDbSpline
210
0.0
220
0.0
230
1.0
 70
     8
 71
     3
 72
     8
 73
     4
 74
     0
 42
0.0000000001
 43
0.0000000001
 40
0.0
 40
0.0
 40
0.0
 40
0.0
 40
80.0
 40
80.0
 40
80.0
 40
80.0
 10
902.9587411150975
 20
604.9715705386264
 30
0.0
 10
902.958741064099
 20
605.2032995768853
 30
0.0
 10
902.856245554426
 20
605.3581569573903
 30
0.0
 10
902.6512544840816
 20
605.4361427311398
 30
0.0
  0
SPLINE
  5
8618
330
1F
100
AcDbEntity
  8
AM_VIS
100
AcDbSpline
210
0.0
220
0.0
230
1.0
 70
     8
 71
     3
 72
     8
 73
     4
 74
     0
 42
0.0000000001
 43
0.0000000001
 40
0.0
 40
0.0
 40
0.0
 40
0.0
 40
80.0
 40
80.0
 40
80.0
 40
80.0
 10
902.6078052862205
 20
604.4902871161665
 30
0.0
 10
902.8417624544733
 20
604.5727291499036
 30
0.0
 10
902.958741064099
 20
604.7331569573903
 30
0.0
 10
902.9587411150975
 20
604.9715705386264
 30
0.0
  0
SPLINE
  5
8619
330
1F
100
AcDbEntity
  8
AM_VIS
100
AcDbSpline
210
0.0
220
0.0
230
1.0
 70
     8
 71
     3
 72
     8
 73
     4
 74
     0
 42
0.0000000001
 43
0.0000000001
 40
0.0
 40
0.0
 40
0.0
 40
0.0
 40
80.0
 40
80.0
 40
80.0
 40
80.0
 10
902.0262544840816
 20
604.4200999503912
 30
0.0
 10
902.2914059822335
 20
604.422328080385
 30
0.0
 10
902.4852562496132
 20
604.4457238023101
 30
0.0
 10
902.6078052862205
 20
604.4902871161665
 30
0.0
  0
LINE
  5
861A
330
1F
100
AcDbEntity
  8
AM_VIS
100
AcDbLine
 10
902.0262544840816
 20
605.3358753514607
 30
0.0
 11
902.0262544840816
 21
604.4200999503912
 31
0.0
  0
SPLINE
  5
861B
330
1F
100
AcDbEntity
  8
AM_VIS
100
AcDbSpline
210
0.0
220
0.0
230
1.0
 70
     8
 71
     3
 72
     8
 73
     4
 74
     0
 42
0.0000000001
 43
0.0000000001
 40
0.0
 40
0.0
 40
0.0
 40
0.0
 40
80.0
 40
80.0
 40
80.0
 40
80.0
 10
902.0797304199104
 20
605.4729074370222
 30
0.0
 10
902.044079779025
 20
605.4506257800938
 30
0.0
 10
902.0262544840816
 20
605.4049484012406
 30
0.0
 10
902.0262544840816
 20
605.3358753514607
 30
0.0
  0
SPLINE
  5
861C
330
1F
100
AcDbEntity
  8
AM_VIS
100
AcDbSpline
210
0.0
220
0.0
230
1.0
 70
     8
 71
     3
 72
     8
 73
     4
 74
     0
 42
0.0000000001
 43
0.0000000001
 40
0.0
 40
0.0
 40
0.0
 40
0.0
 40
80.0
 40
80.0
 40
80.0
 40
80.0
 10
902.2468427193757
 20
605.4963031589473
 30
0.0
 10
902.1577161426613
 20
605.4918467969624
 30
0.0
 10
902.1020120258398
 20
605.484048239987
 30
0.0
 10
902.0797304199104
 20
605.4729074370222
 30
0.0
  0
SPLINE
  5
861D
330
1F
100
AcDbEntity
  8
AM_VIS
100
AcDbSpline
210
0.0
220
0.0
230
1.0
 70
     8
 71
     3
 72
     8
 73
     4
 74
     0
 42
0.0000000001
 43
0.0000000001
 40
0.0
 40
0.0
 40
0.0
 40
0.0
 40
80.0
 40
80.0
 40
80.0
 40
80.0
 10
902.6512544840816
 20
605.4361427311398
 30
0.0
 10
902.5353899394529
 20
605.4851623049838
 30
0.0
 10
902.4005860348836
 20
605.5052157809196
 30
0.0
 10
902.2468427193757
 20
605.4963031589473
 30
0.0
  0
LINE
  5
861E
330
1F
100
AcDbEntity
  8
AM_VIS
100
AcDbLine
 10
903.5603453931724
 20
603.1500464744554
 30
0.0
 11
903.0991154466486
 21
603.1500464744554
 31
0.0
  0
LINE
  5
861F
330
1F
100
AcDbEntity
  8
AM_VIS
100
AcDbLine
 10
903.5603453931724
 20
603.2168913942414
 30
0.0
 11
903.5603453931724
 21
603.1500464744554
 31
0.0
  0
SPLINE
  5
8620
330
1F
100
AcDbEntity
  8
AM_VIS
100
AcDbSpline
210
0.0
220
0.0
230
1.0
 70
     8
 71
     3
 72
     8
 73
     4
 74
     0
 42
0.0000000001
 43
0.0000000001
 40
0.0
 40
0.0
 40
0.0
 40
0.0
 40
80.0
 40
80.0
 40
80.0
 40
80.0
 10
903.2461742701778
 20
603.3505812338136
 30
0.0
 10
903.2907375330358
 20
603.2815081840338
 30
0.0
 10
903.3954612237009
 20
603.2369448701772
 30
0.0
 10
903.5603453931724
 20
603.2168913942414
 30
0.0
  0
LINE
  5
8621
330
1F
100
AcDbEntity
  8
AM_VIS
100
AcDbLine
 10
902.5710405803383
 20
604.353255030605
 30
0.0
 11
903.2461742701778
 21
603.3505812338136
 31
0.0
  0
SPLINE
  5
8622
330
1F
100
AcDbEntity
  8
AM_VIS
100
AcDbSpline
210
0.0
220
0.0
230
1.0
 70
     8
 71
     3
 72
     8
 73
     4
 74
     0
 42
0.0000000001
 43
0.0000000001
 40
0.0
 40
0.0
 40
0.0
 40
0.0
 40
80.0
 40
80.0
 40
80.0
 40
80.0
 10
902.9553988691082
 20
604.4902871161665
 30
0.0
 10
902.8662722923938
 20
604.4301266883591
 30
0.0
 10
902.7381528798034
 20
604.3844493095057
 30
0.0
 10
902.5710405803383
 20
604.353255030605
 30
0.0
  0
SPLINE
  5
8623
330
1F
100
AcDbEntity
  8
AM_VIS
100
AcDbSpline
210
0.0
220
0.0
230
1.0
 70
     8
 71
     3
 72
     8
 73
     4
 74
     0
 42
0.0000000001
 43
0.0000000001
 40
0.0
 40
0.0
 40
0.0
 40
0.0
 40
80.0
 40
80.0
 40
80.0
 40
80.0
 10
903.192698334349
 20
604.9648860466478
 30
0.0
 10
903.192698334349
 20
604.7532104333261
 30
0.0
 10
903.1135984956025
 20
604.595010806832
 30
0.0
 10
902.9553988691082
 20
604.4902871161665
 30
0.0
  0
SPLINE
  5
8624
330
1F
100
AcDbEntity
  8
AM_VIS
100
AcDbSpline
210
0.0
220
0.0
230
1.0
 70
     8
 71
     3
 72
     8
 73
     4
 74
     0
 42
0.0000000001
 43
0.0000000001
 40
0.0
 40
0.0
 40
0.0
 40
0.0
 40
80.0
 40
80.0
 40
80.0
 40
80.0
 10
902.8952384413008
 20
605.5029876509259
 30
0.0
 10
903.0935450196666
 20
605.3960357792682
 30
0.0
 10
903.192698334349
 20
605.2166685608426
 30
0.0
 10
903.192698334349
 20
604.9648860466478
 30
0.0
  0
SPLINE
  5
8625
330
1F
100
AcDbEntity
  8
AM_VIS
100
AcDbSpline
210
0.0
220
0.0
230
1.0
 70
     8
 71
     3
 72
     8
 73
     4
 74
     0
 42
0.0000000001
 43
0.0000000001
 40
0.0
 40
0.0
 40
0.0
 40
0.0
 40
80.0
 40
80.0
 40
80.0
 40
80.0
 10
902.3838748049373
 20
605.6099395225836
 30
0.0
 10
902.5910940562742
 20
605.6099395225836
 30
0.0
 10
902.7615486017287
 20
605.5742888816982
 30
0.0
 10
902.8952384413008
 20
605.5029876509259
 30
0.0
  0
LINE
  5
8626
330
1F
100
AcDbEntity
  8
AM_VIS
100
AcDbLine
 10
901.4948373717821
 20
605.6099395225836
 30
0.0
 11
902.3838748049373
 21
605.6099395225836
 31
0.0
  0
LINE
  5
8627
330
1F
100
AcDbEntity
  8
AM_VIS
100
AcDbLine
 10
901.4948373717821
 20
605.5430946027976
 30
0.0
 11
901.4948373717821
 21
605.6099395225836
 31
0.0
  0
SPLINE
  5
8628
330
1F
100
AcDbEntity
  8
AM_VIS
100
AcDbSpline
210
0.0
220
0.0
230
1.0
 70
     8
 71
     3
 72
     8
 73
     4
 74
     0
 42
0.0000000001
 43
0.0000000001
 40
0.0
 40
0.0
 40
0.0
 40
0.0
 40
80.0
 40
80.0
 40
80.0
 40
80.0
 10
901.7421635749906
 20
605.4561962070756
 30
0.0
 10
901.702056623119
 20
605.5007594699335
 30
0.0
 10
901.6196145383833
 20
605.5297256188404
 30
0.0
 10
901.4948373717821
 20
605.5430946027976
 30
0.0
  0
SPLINE
  5
8629
330
1F
100
AcDbEntity
  8
AM_VIS
100
AcDbSpline
210
0.0
220
0.0
230
1.0
 70
     8
 71
     3
 72
     8
 73
     4
 74
     0
 42
0.0000000001
 43
0.0000000001
 40
0.0
 40
0.0
 40
0.0
 40
0.0
 40
80.0
 40
80.0
 40
80.0
 40
80.0
 10
901.8156929867553
 20
605.1654208060061
 30
0.0
 10
901.8156929357568
 20
605.305795137557
 30
0.0
 10
901.7911831488348
 20
605.4027202712468
 30
0.0
 10
901.7421635749906
 20
605.4561962070756
 30
0.0
  0
LINE
  5
862A
330
1F
100
AcDbEntity
  8
AM_VIS
100
AcDbLine
 10
901.8156929867553
 20
603.6346721429045
 30
0.0
 11
901.8156929867553
 21
605.1654208060061
 31
0.0
  0
SPLINE
  5
862B
330
1F
100
AcDbEntity
  8
AM_VIS
100
AcDbSpline
210
0.0
220
0.0
230
1.0
 70
     8
 71
     3
 72
     8
 73
     4
 74
     0
 42
0.0000000001
 43
0.0000000001
 40
0.0
 40
0.0
 40
0.0
 40
0.0
 40
80.0
 40
80.0
 40
80.0
 40
80.0
 10
901.7521903129587
 20
603.3238432658992
 30
0.0
 10
901.7945253948239
 20
603.3795473317218
 30
0.0
 10
901.8156929357568
 20
603.4831569573903
 30
0.0
 10
901.8156929867553
 20
603.6346721429045
 30
0.0
  0
SPLINE
  5
862C
330
1F
100
AcDbEntity
  8
AM_VIS
100
AcDbSpline
210
0.0
220
0.0
230
1.0
 70
     8
 71
     3
 72
     8
 73
     4
 74
     0
 42
0.0000000001
 43
0.0000000001
 40
0.0
 40
0.0
 40
0.0
 40
0.0
 40
80.0
 40
80.0
 40
80.0
 40
80.0
 10
901.4948373717821
 20
603.2168913942414
 30
0.0
 10
901.6240708493695
 20
603.2302603781986
 30
0.0
 10
901.7098551800945
 20
603.2659110190841
 30
0.0
 10
901.7521903129587
 20
603.3238432658992
 30
0.0
  0
LINE
  5
862D
330
1F
100
AcDbEntity
  8
AM_VIS
100
AcDbLine
 10
901.4948373717821
 20
603.1500464744554
 30
0.0
 11
901.4948373717821
 21
603.2168913942414
 31
0.0
  0
LINE
  5
862E
330
1F
100
AcDbEntity
  8
AM_VIS
100
AcDbLine
 10
902.3638213290015
 20
603.1500464744554
 30
0.0
 11
901.4948373717821
 21
603.1500464744554
 31
0.0
  0
LINE
  5
862F
330
1F
100
AcDbEntity
  8
AM_VIS
100
AcDbLine
 10
902.3638213290015
 20
603.2168913942414
 30
0.0
 11
902.3638213290015
 21
603.1500464744554
 31
0.0
  0
SPLINE
  5
8630
330
1F
100
AcDbEntity
  8
AM_VIS
100
AcDbSpline
210
0.0
220
0.0
230
1.0
 70
     8
 71
     3
 72
     8
 73
     4
 74
     0
 42
0.0000000001
 43
0.0000000001
 40
0.0
 40
0.0
 40
0.0
 40
0.0
 40
80.0
 40
80.0
 40
80.0
 40
80.0
 10
902.0997838958463
 20
603.3104742819419
 30
0.0
 10
902.146575288698
 20
603.2592265271055
 30
0.0
 10
902.2345878004152
 20
603.2280322482048
 30
0.0
 10
902.3638213290015
 20
603.2168913942414
 30
0.0
  0
SPLINE
  5
8631
330
1F
100
AcDbEntity
  8
AM_VIS
100
AcDbSpline
210
0.0
220
0.0
230
1.0
 70
     8
 71
     3
 72
     8
 73
     4
 74
     0
 42
0.0000000001
 43
0.0000000001
 40
0.0
 40
0.0
 40
0.0
 40
0.0
 40
80.0
 40
80.0
 40
80.0
 40
80.0
 10
902.0262544840816
 20
603.5878806990543
 30
0.0
 10
902.0262544840816
 20
603.4564189894759
 30
0.0
 10
902.0507642710036
 20
603.3639502177708
 30
0.0
 10
902.0997838958463
 20
603.3104742819419
 30
0.0
  0
LINE
  5
8632
330
1F
100
AcDbEntity
  8
AM_VIS
100
AcDbLine
 10
902.0262544840816
 20
604.3031213407655
 30
0.0
 11
902.0262544840816
 21
603.5878806990543
 31
0.0
  0
LINE
  5
8633
330
1F
100
AcDbEntity
  8
AM_VIS
100
AcDbLine
 10
902.3070031471831
 20
604.3164903247227
 30
0.0
 11
902.0262544840816
 21
604.3031213407655
 31
0.0
  0
LINE
  5
8634
330
1F
100
AcDbEntity
  8
AM_VIS
100
AcDbLine
 10
903.0991154466486
 20
603.1500464744554
 30
0.0
 11
902.3070031471831
 21
604.3164903247227
 31
0.0
  0
LINE
  5
8635
330
1F
100
AcDbEntity
  8
AM_VIS
100
AcDbLine
 10
941.9771234679881
 20
603.6360651162661
 30
0.0
 11
941.8040209380281
 21
603.1500464744553
 31
0.0
  0
LINE
  5
8636
330
1F
100
AcDbEntity
  8
AM_VIS
100
AcDbLine
 10
941.9105455718495
 20
603.6360651162661
 30
0.0
 11
941.9771234679881
 21
603.6360651162661
 31
0.0
  0
SPLINE
  5
8637
330
1F
100
AcDbEntity
  8
AM_VIS
100
AcDbSpline
210
0.0
220
0.0
230
1.0
 70
     8
 71
     3
 72
     8
 73
     4
 74
     0
 42
0.0000000001
 43
0.0000000001
 40
0.0
 40
0.0
 40
0.0
 40
0.0
 40
80.0
 40
80.0
 40
80.0
 40
80.0
 10
941.757416410731
 20
603.3963846901676
 30
0.0
 10
941.7951438682781
 20
603.429673587442
 30
0.0
 10
941.8461869050524
 20
603.5095671136031
 30
0.0
 10
941.9105455718495
 20
603.6360651162661
 30
0.0
  0
SPLINE
  5
8638
330
1F
100
AcDbEntity
  8
AM_VIS
100
AcDbSpline
210
0.0
220
0.0
230
1.0
 70
     8
 71
     3
 72
     8
 73
     4
 74
     0
 42
0.0000000001
 43
0.0000000001
 40
0.0
 40
0.0
 40
0.0
 40
0.0
 40
80.0
 40
80.0
 40
80.0
 40
80.0
 10
941.587642775578
 20
603.3331356888361
 30
0.0
 10
941.6608784613304
 20
603.3331356888361
 30
0.0
 10
941.717469673048
 20
603.3542186723483
 30
0.0
 10
941.757416410731
 20
603.3963846901676
 30
0.0
  0
LINE
  5
8639
330
1F
100
AcDbEntity
  8
AM_VIS
100
AcDbLine
 10
940.841970338827
 20
603.3331356888361
 30
0.0
 11
941.587642775578
 21
603.3331356888361
 31
0.0
  0
LINE
  5
863A
330
1F
100
AcDbEntity
  8
AM_VIS
100
AcDbLine
 10
941.4644736677219
 20
604.0921237048149
 30
0.0
 11
940.841970338827
 21
603.3331356888361
 31
0.0
  0
SPLINE
  5
863B
330
1F
100
AcDbEntity
  8
AM_VIS
100
AcDbSpline
210
0.0
220
0.0
230
1.0
 70
     8
 71
     3
 72
     8
 73
     4
 74
     0
 42
0.0000000001
 43
0.0000000001
 40
0.0
 40
0.0
 40
0.0
 40
0.0
 40
80.0
 40
80.0
 40
80.0
 40
80.0
 10
941.8140076224487
 20
604.9909253026843
 30
0.0
 10
941.8140076224487
 20
604.673570630561
 30
0.0
 10
941.6974963042063
 20
604.3739700979378
 30
0.0
 10
941.4644736677219
 20
604.0921237048149
 30
0.0
  0
SPLINE
  5
863C
330
1F
100
AcDbEntity
  8
AM_VIS
100
AcDbSpline
210
0.0
220
0.0
230
1.0
 70
     8
 71
     3
 72
     8
 73
     4
 74
     0
 42
0.0000000001
 43
0.0000000001
 40
0.0
 40
0.0
 40
0.0
 40
0.0
 40
80.0
 40
80.0
 40
80.0
 40
80.0
 10
941.6342473028748
 20
605.4769439444952
 30
0.0
 10
941.7540875159241
 20
605.3482266616959
 30
0.0
 10
941.8140076224487
 20
605.1862204308273
 30
0.0
 10
941.8140076224487
 20
604.9909253026843
 30
0.0
  0
SPLINE
  5
863D
330
1F
100
AcDbEntity
  8
AM_VIS
100
AcDbSpline
210
0.0
220
0.0
230
1.0
 70
     8
 71
     3
 72
     8
 73
     4
 74
     0
 42
0.0000000001
 43
0.0000000001
 40
0.0
 40
0.0
 40
0.0
 40
0.0
 40
80.0
 40
80.0
 40
80.0
 40
80.0
 10
941.2314510312372
 20
605.6500464744552
 30
0.0
 10
941.3890187018333
 20
605.6500464744552
 30
0.0
 10
941.5232841087808
 20
605.5923455972719
 30
0.0
 10
941.6342473028748
 20
605.4769439444952
 30
0.0
  0
SPLINE
  5
863E
330
1F
100
AcDbEntity
  8
AM_VIS
100
AcDbSpline
210
0.0
220
0.0
230
1.0
 70
     8
 71
     3
 72
     8
 73
     4
 74
     0
 42
0.0000000001
 43
0.0000000001
 40
0.0
 40
0.0
 40
0.0
 40
0.0
 40
80.0
 40
80.0
 40
80.0
 40
80.0
 10
940.8319836544063
 20
605.4969173133367
 30
0.0
 10
940.9451660778415
 20
605.5990033868859
 30
0.0
 10
941.0783218701185
 20
605.6500464744552
 30
0.0
 10
941.2314510312372
 20
605.6500464744552
 30
0.0
  0
SPLINE
  5
863F
330
1F
100
AcDbEntity
  8
AM_VIS
100
AcDbSpline
210
0.0
220
0.0
230
1.0
 70
     8
 71
     3
 72
     8
 73
     4
 74
     0
 42
0.0000000001
 43
0.0000000001
 40
0.0
 40
0.0
 40
0.0
 40
0.0
 40
80.0
 40
80.0
 40
80.0
 40
80.0
 10
940.5623431750452
 20
604.9343340909667
 30
0.0
 10
940.6067284222061
 20
605.1873300962928
 30
0.0
 10
940.6966085819929
 20
605.3748578201513
 30
0.0
 10
940.8319836544063
 20
605.4969173133367
 30
0.0
  0
LINE
  5
8640
330
1F
100
AcDbEntity
  8
AM_VIS
100
AcDbLine
 10
940.6289210711838
 20
604.9243474065458
 30
0.0
 11
940.5623431750452
 21
604.9343340909667
 31
0.0
  0
SPLINE
  5
8641
330
1F
100
AcDbEntity
  8
AM_VIS
100
AcDbSpline
210
0.0
220
0.0
230
1.0
 70
     8
 71
     3
 72
     8
 73
     4
 74
     0
 42
0.0000000001
 43
0.0000000001
 40
0.0
 40
0.0
 40
0.0
 40
0.0
 40
80.0
 40
80.0
 40
80.0
 40
80.0
 10
940.7753924426886
 20
605.2772102560798
 30
0.0
 10
940.7487612842331
 20
605.2328249581242
 30
0.0
 10
940.6999374768
 20
605.1152040252112
 30
0.0
 10
940.6289210711838
 20
604.9243474065458
 30
0.0
  0
SPLINE
  5
8642
330
1F
100
AcDbEntity
  8
AM_VIS
100
AcDbSpline
210
0.0
220
0.0
230
1.0
 70
     8
 71
     3
 72
     8
 73
     4
 74
     0
 42
0.0000000001
 43
0.0000000001
 40
0.0
 40
0.0
 40
0.0
 40
0.0
 40
80.0
 40
80.0
 40
80.0
 40
80.0
 10
941.0883085545393
 20
605.4736150496883
 30
0.0
 10
940.9595912717399
 20
605.4736150496883
 30
0.0
 10
940.8552859180547
 20
605.4081467682205
 30
0.0
 10
940.7753924426886
 20
605.2772102560798
 30
0.0
  0
SPLINE
  5
8643
330
1F
100
AcDbEntity
  8
AM_VIS
100
AcDbSpline
210
0.0
220
0.0
230
1.0
 70
     8
 71
     3
 72
     8
 73
     4
 74
     0
 42
0.0000000001
 43
0.0000000001
 40
0.0
 40
0.0
 40
0.0
 40
0.0
 40
80.0
 40
80.0
 40
80.0
 40
80.0
 10
941.5077493002117
 20
605.2505790976243
 30
0.0
 10
941.4101016853454
 20
605.3992696984704
 30
0.0
 10
941.2702881034546
 20
605.4736150496883
 30
0.0
 10
941.0883085545393
 20
605.4736150496883
 30
0.0
  0
SPLINE
  5
8644
330
1F
100
AcDbEntity
  8
AM_VIS
100
AcDbSpline
210
0.0
220
0.0
230
1.0
 70
     8
 71
     3
 72
     8
 73
     4
 74
     0
 42
0.0000000001
 43
0.0000000001
 40
0.0
 40
0.0
 40
0.0
 40
0.0
 40
80.0
 40
80.0
 40
80.0
 40
80.0
 10
941.6176028288402
 20
604.8610984052142
 30
0.0
 10
941.6264798477955
 20
605.0009119871051
 30
0.0
 10
941.5898620049192
 20
605.1307388845751
 30
0.0
 10
941.5077493002117
 20
605.2505790976243
 30
0.0
  0
SPLINE
  5
8645
330
1F
100
AcDbEntity
  8
AM_VIS
100
AcDbSpline
210
0.0
220
0.0
230
1.0
 70
     8
 71
     3
 72
     8
 73
     4
 74
     0
 42
0.0000000001
 43
0.0000000001
 40
0.0
 40
0.0
 40
0.0
 40
0.0
 40
80.0
 40
80.0
 40
80.0
 40
80.0
 10
941.1315841870294
 20
603.8724166475579
 30
0.0
 10
941.4378425092664
 20
604.2474720952746
 30
0.0
 10
941.59984868934
 20
604.5770326811601
 30
0.0
 10
941.6176028288402
 20
604.8610984052142
 30
0.0
  0
LINE
  5
8646
330
1F
100
AcDbEntity
  8
AM_VIS
100
AcDbLine
 10
940.5523564906244
 20
603.16669094849
 30
0.0
 11
941.1315841870294
 21
603.8724166475579
 31
0.0
  0
LINE
  5
8647
330
1F
100
AcDbEntity
  8
AM_VIS
100
AcDbLine
 10
940.5523564906244
 20
603.1500464744553
 30
0.0
 11
940.5523564906244
 21
603.16669094849
 31
0.0
  0
LINE
  5
8648
330
1F
100
AcDbEntity
  8
AM_VIS
100
AcDbLine
 10
941.8040209380281
 20
603.1500464744553
 30
0.0
 11
940.5523564906244
 21
603.1500464744553
 31
0.0
  0
SPLINE
  5
8649
330
1F
100
AcDbEntity
  8
AM_VIS
100
AcDbSpline
210
0.0
220
0.0
230
1.0
 70
     8
 71
     3
 72
     8
 73
     4
 74
     0
 42
0.0000000001
 43
0.0000000001
 40
0.0
 40
0.0
 40
0.0
 40
0.0
 40
80.0
 40
80.0
 40
80.0
 40
80.0
 10
939.8283218701186
 20
604.9642941442288
 30
0.0
 10
939.8283218193236
 20
605.1950975005773
 30
0.0
 10
939.7262357457746
 20
605.3493362763665
 30
0.0
 10
939.5220635478816
 20
605.4270105223913
 30
0.0
  0
SPLINE
  5
864A
330
1F
100
AcDbEntity
  8
AM_VIS
100
AcDbSpline
210
0.0
220
0.0
230
1.0
 70
     8
 71
     3
 72
     8
 73
     4
 74
     0
 42
0.0000000001
 43
0.0000000001
 40
0.0
 40
0.0
 40
0.0
 40
0.0
 40
80.0
 40
80.0
 40
80.0
 40
80.0
 10
939.4787879153916
 20
604.4849332920319
 30
0.0
 10
939.7118105010813
 20
604.5670459967395
 30
0.0
 10
939.8283218193236
 20
604.7268329474717
 30
0.0
 10
939.8283218701186
 20
604.9642941442288
 30
0.0
  0
SPLINE
  5
864B
330
1F
100
AcDbEntity
  8
AM_VIS
100
AcDbSpline
210
0.0
220
0.0
230
1.0
 70
     8
 71
     3
 72
     8
 73
     4
 74
     0
 42
0.0000000001
 43
0.0000000001
 40
0.0
 40
0.0
 40
0.0
 40
0.0
 40
80.0
 40
80.0
 40
80.0
 40
80.0
 10
938.8995602189869
 20
604.4150265010864
 30
0.0
 10
939.1636525234044
 20
604.4172457304277
 30
0.0
 10
939.356728422206
 20
604.4405479940762
 30
0.0
 10
939.4787879153916
 20
604.4849332920319
 30
0.0
  0
LINE
  5
864C
330
1F
100
AcDbEntity
  8
AM_VIS
100
AcDbLine
 10
938.8995602189869
 20
605.3271436781836
 30
0.0
 11
938.8995602189869
 21
604.4150265010864
 31
0.0
  0
SPLINE
  5
864D
330
1F
100
AcDbEntity
  8
AM_VIS
100
AcDbSpline
210
0.0
220
0.0
230
1.0
 70
     8
 71
     3
 72
     8
 73
     4
 74
     0
 42
0.0000000001
 43
0.0000000001
 40
0.0
 40
0.0
 40
0.0
 40
0.0
 40
80.0
 40
80.0
 40
80.0
 40
80.0
 10
938.9528225358976
 20
605.4636283652675
 30
0.0
 10
938.917314307692
 20
605.4414357162897
 30
0.0
 10
938.8995602189869
 20
605.3959408036635
 30
0.0
 10
938.8995602189869
 20
605.3271436781836
 30
0.0
  0
SPLINE
  5
864E
330
1F
100
AcDbEntity
  8
AM_VIS
100
AcDbSpline
210
0.0
220
0.0
230
1.0
 70
     8
 71
     3
 72
     8
 73
     4
 74
     0
 42
0.0000000001
 43
0.0000000001
 40
0.0
 40
0.0
 40
0.0
 40
0.0
 40
80.0
 40
80.0
 40
80.0
 40
80.0
 10
939.1192672762437
 20
605.4869306289161
 30
0.0
 10
939.0304967311275
 20
605.4824920686435
 30
0.0
 10
938.9750151340804
 20
605.4747246643589
 30
0.0
 10
938.9528225358976
 20
605.4636283652675
 30
0.0
  0
SPLINE
  5
864F
330
1F
100
AcDbEntity
  8
AM_VIS
100
AcDbSpline
210
0.0
220
0.0
230
1.0
 70
     8
 71
     3
 72
     8
 73
     4
 74
     0
 42
0.0000000001
 43
0.0000000001
 40
0.0
 40
0.0
 40
0.0
 40
0.0
 40
80.0
 40
80.0
 40
80.0
 40
80.0
 10
939.5220635478816
 20
605.4270105223913
 30
0.0
 10
939.4066618443098
 20
605.4758342790296
 30
0.0
 10
939.2723964373622
 20
605.4958076478713
 30
0.0
 10
939.1192672762437
 20
605.4869306289161
 30
0.0
  0
LINE
  5
8650
330
1F
100
AcDbEntity
  8
AM_VIS
100
AcDbLine
 10
940.427522935365
 20
603.1500464744553
 30
0.0
 11
939.9681354520094
 21
603.1500464744553
 31
0.0
  0
LINE
  5
8651
330
1F
100
AcDbEntity
  8
AM_VIS
100
AcDbLine
 10
940.427522935365
 20
603.2166243705937
 30
0.0
 11
940.427522935365
 21
603.1500464744553
 31
0.0
  0
SPLINE
  5
8652
330
1F
100
AcDbEntity
  8
AM_VIS
100
AcDbSpline
210
0.0
220
0.0
230
1.0
 70
     8
 71
     3
 72
     8
 73
     4
 74
     0
 42
0.0000000001
 43
0.0000000001
 40
0.0
 40
0.0
 40
0.0
 40
0.0
 40
80.0
 40
80.0
 40
80.0
 40
80.0
 10
940.114606823514
 20
603.3497801628707
 30
0.0
 10
940.1589920706747
 20
603.2809830373909
 30
0.0
 10
940.2632974243601
 20
603.2365977394353
 30
0.0
 10
940.427522935365
 20
603.2166243705937
 30
0.0
  0
LINE
  5
8653
330
1F
100
AcDbEntity
  8
AM_VIS
100
AcDbLine
 10
939.4421700725153
 20
604.348448604948
 30
0.0
 11
940.114606823514
 21
603.3497801628707
 31
0.0
  0
SPLINE
  5
8654
330
1F
100
AcDbEntity
  8
AM_VIS
100
AcDbSpline
210
0.0
220
0.0
230
1.0
 70
     8
 71
     3
 72
     8
 73
     4
 74
     0
 42
0.0000000001
 43
0.0000000001
 40
0.0
 40
0.0
 40
0.0
 40
0.0
 40
80.0
 40
80.0
 40
80.0
 40
80.0
 10
939.8249929753117
 20
604.4849332920319
 30
0.0
 10
939.7362224301954
 20
604.4250131855072
 30
0.0
 10
939.6086148128615
 20
604.379518272881
 30
0.0
 10
939.4421700725153
 20
604.348448604948
 30
0.0
  0
SPLINE
  5
8655
330
1F
100
AcDbEntity
  8
AM_VIS
100
AcDbSpline
210
0.0
220
0.0
230
1.0
 70
     8
 71
     3
 72
     8
 73
     4
 74
     0
 42
0.0000000001
 43
0.0000000001
 40
0.0
 40
0.0
 40
0.0
 40
0.0
 40
80.0
 40
80.0
 40
80.0
 40
80.0
 10
940.0613445066033
 20
604.9576363546151
 30
0.0
 10
940.0613445066033
 20
604.7468063163132
 30
0.0
 10
939.9825606459078
 20
604.5892386457171
 30
0.0
 10
939.8249929753117
 20
604.4849332920319
 30
0.0
  0
SPLINE
  5
8656
330
1F
100
AcDbEntity
  8
AM_VIS
100
AcDbSpline
210
0.0
220
0.0
230
1.0
 70
     8
 71
     3
 72
     8
 73
     4
 74
     0
 42
0.0000000001
 43
0.0000000001
 40
0.0
 40
0.0
 40
0.0
 40
0.0
 40
80.0
 40
80.0
 40
80.0
 40
80.0
 10
939.7650728687869
 20
605.4935884185298
 30
0.0
 10
939.9625872770661
 20
605.3870637847083
 30
0.0
 10
940.0613445066033
 20
605.208413079805
 30
0.0
 10
940.0613445066033
 20
604.9576363546151
 30
0.0
  0
SPLINE
  5
8657
330
1F
100
AcDbEntity
  8
AM_VIS
100
AcDbSpline
210
0.0
220
0.0
230
1.0
 70
     8
 71
     3
 72
     8
 73
     4
 74
     0
 42
0.0000000001
 43
0.0000000001
 40
0.0
 40
0.0
 40
0.0
 40
0.0
 40
80.0
 40
80.0
 40
80.0
 40
80.0
 10
939.2557519633276
 20
605.6001130523514
 30
0.0
 10
939.462143441357
 20
605.6001130523514
 30
0.0
 10
939.6319170765099
 20
605.5646048241459
 30
0.0
 10
939.7650728687869
 20
605.4935884185298
 30
0.0
  0
LINE
  5
8658
330
1F
100
AcDbEntity
  8
AM_VIS
100
AcDbLine
 10
938.3702659446857
 20
605.6001130523514
 30
0.0
 11
939.2557519633276
 21
605.6001130523514
 31
0.0
  0
LINE
  5
8659
330
1F
100
AcDbEntity
  8
AM_VIS
100
AcDbLine
 10
938.3702659446857
 20
605.5335351562129
 30
0.0
 11
938.3702659446857
 21
605.6001130523514
 31
0.0
  0
SPLINE
  5
865A
330
1F
100
AcDbEntity
  8
AM_VIS
100
AcDbSpline
210
0.0
220
0.0
230
1.0
 70
     8
 71
     3
 72
     8
 73
     4
 74
     0
 42
0.0000000001
 43
0.0000000001
 40
0.0
 40
0.0
 40
0.0
 40
0.0
 40
80.0
 40
80.0
 40
80.0
 40
80.0
 10
938.6166041603983
 20
605.4469838912329
 30
0.0
 10
938.5766574227149
 20
605.4913691383936
 30
0.0
 10
938.4945446672126
 20
605.5202195769852
 30
0.0
 10
938.3702659446857
 20
605.5335351562129
 30
0.0
  0
SPLINE
  5
865B
330
1F
100
AcDbEntity
  8
AM_VIS
100
AcDbSpline
210
0.0
220
0.0
230
1.0
 70
     8
 71
     3
 72
     8
 73
     4
 74
     0
 42
0.0000000001
 43
0.0000000001
 40
0.0
 40
0.0
 40
0.0
 40
0.0
 40
80.0
 40
80.0
 40
80.0
 40
80.0
 10
938.6898398461505
 20
605.1573700430306
 30
0.0
 10
938.6898397953556
 20
605.2971836249213
 30
0.0
 10
938.6654279170366
 20
605.3937215743221
 30
0.0
 10
938.6166041603983
 20
605.4469838912329
 30
0.0
  0
LINE
  5
865C
330
1F
100
AcDbEntity
  8
AM_VIS
100
AcDbLine
 10
938.6898398461505
 20
603.6327362214593
 30
0.0
 11
938.6898398461505
 21
605.1573700430306
 31
0.0
  0
SPLINE
  5
865D
330
1F
100
AcDbEntity
  8
AM_VIS
100
AcDbSpline
210
0.0
220
0.0
230
1.0
 70
     8
 71
     3
 72
     8
 73
     4
 74
     0
 42
0.0000000001
 43
0.0000000001
 40
0.0
 40
0.0
 40
0.0
 40
0.0
 40
80.0
 40
80.0
 40
80.0
 40
80.0
 10
938.6265908448191
 20
603.3231490044154
 30
0.0
 10
938.6687568118434
 20
603.3786305506675
 30
0.0
 10
938.6898397953556
 20
603.4818262896822
 30
0.0
 10
938.6898398461505
 20
603.6327362214593
 30
0.0
  0
SPLINE
  5
865E
330
1F
100
AcDbEntity
  8
AM_VIS
100
AcDbSpline
210
0.0
220
0.0
230
1.0
 70
     8
 71
     3
 72
     8
 73
     4
 74
     0
 42
0.0000000001
 43
0.0000000001
 40
0.0
 40
0.0
 40
0.0
 40
0.0
 40
80.0
 40
80.0
 40
80.0
 40
80.0
 10
938.3702659446857
 20
603.2166243705937
 30
0.0
 10
938.4989831766901
 20
603.2299399498215
 30
0.0
 10
938.5844248269995
 20
603.2654481780269
 30
0.0
 10
938.6265908448191
 20
603.3231490044154
 30
0.0
  0
LINE
  5
865F
330
1F
100
AcDbEntity
  8
AM_VIS
100
AcDbLine
 10
938.3702659446857
 20
603.1500464744553
 30
0.0
 11
938.3702659446857
 21
603.2166243705937
 31
0.0
  0
LINE
  5
8660
330
1F
100
AcDbEntity
  8
AM_VIS
100
AcDbLine
 10
939.2357785944861
 20
603.1500464744553
 30
0.0
 11
938.3702659446857
 21
603.1500464744553
 31
0.0
  0
LINE
  5
8661
330
1F
100
AcDbEntity
  8
AM_VIS
100
AcDbLine
 10
939.2357785944861
 20
603.2166243705937
 30
0.0
 11
939.2357785944861
 21
603.1500464744553
 31
0.0
  0
SPLINE
  5
8662
330
1F
100
AcDbEntity
  8
AM_VIS
100
AcDbSpline
210
0.0
220
0.0
230
1.0
 70
     8
 71
     3
 72
     8
 73
     4
 74
     0
 42
0.0000000001
 43
0.0000000001
 40
0.0
 40
0.0
 40
0.0
 40
0.0
 40
80.0
 40
80.0
 40
80.0
 40
80.0
 10
938.9727959047391
 20
603.3098334251876
 30
0.0
 10
939.0194003812412
 20
603.2587903884131
 30
0.0
 10
939.1070613116866
 20
603.2277207204802
 30
0.0
 10
939.2357785944861
 20
603.2166243705937
 30
0.0
  0
SPLINE
  5
8663
330
1F
100
AcDbEntity
  8
AM_VIS
100
AcDbSpline
210
0.0
220
0.0
230
1.0
 70
     8
 71
     3
 72
     8
 73
     4
 74
     0
 42
0.0000000001
 43
0.0000000001
 40
0.0
 40
0.0
 40
0.0
 40
0.0
 40
80.0
 40
80.0
 40
80.0
 40
80.0
 10
938.8995602189869
 20
603.5861316941624
 30
0.0
 10
938.8995602189869
 20
603.4551951312267
 30
0.0
 10
938.923972097306
 20
603.3630957420984
 30
0.0
 10
938.9727959047391
 20
603.3098334251876
 30
0.0
  0
LINE
  5
8664
330
1F
100
AcDbEntity
  8
AM_VIS
100
AcDbLine
 10
938.8995602189869
 20
604.2985151828441
 30
0.0
 11
938.8995602189869
 21
603.5861316941624
 31
0.0
  0
LINE
  5
8665
330
1F
100
AcDbEntity
  8
AM_VIS
100
AcDbLine
 10
939.1791873827683
 20
604.3118307620718
 30
0.0
 11
938.8995602189869
 21
604.2985151828441
 31
0.0
  0
LINE
  5
8666
330
1F
100
AcDbEntity
  8
AM_VIS
100
AcDbLine
 10
939.9681354520094
 20
603.1500464744553
 30
0.0
 11
939.1791873827683
 21
604.3118307620718
 31
0.0
  0
ENDSEC
  0
SECTION
  2
OBJECTS
  0
DICTIONARY
  5
C
330
0
100
AcDbDictionary
281
     1
  3
ACAD_COLOR
350
BE
  3
ACAD_GROUP
350
D
  3
ACAD_LAYOUT
350
1A
  3
ACAD_MATERIAL
350
BD
  3
ACAD_MLINESTYLE
350
17
  3
ACAD_PLOTSETTINGS
350
19
  3
ACAD_PLOTSTYLENAME
350
E
  3
ACAD_TABLESTYLE
350
11A
  3
ACDBHEADERROUNDTRIPXREC
350
8673
  3
AcDbVariableDictionary
350
94
  3
AcmDictionary
350
5B
  3
AMG
350
41
  3
AMGSNAPSETTINGS
350
1B8
  3
DWGPROPS
350
8672
  0
DICTIONARY
  5
3F9
330
2
100
AcDbDictionary
280
     1
281
     1
  3
ACAD_LAYERFILTERS
360
766B
  3
ACAD_LAYERSTATES
360
A94
  3
ACLYDICTIONARY
360
766A
  0
DICTIONARY
  5
8F
330
1F
100
AcDbDictionary
280
     1
281
     1
  0
DICTIONARY
  5
8033
330
8032
100
AcDbDictionary
280
     1
281
     1
  3
ACAD_DIMASSOC
360
8034
  0
DICTIONARY
  5
8036
330
8035
100
AcDbDictionary
280
     1
281
     1
  3
ACAD_DIMASSOC
360
8037
  0
DICTIONARY
  5
8039
330
8038
100
AcDbDictionary
280
     1
281
     1
  3
ACAD_DIMASSOC
360
803A
  0
DICTIONARY
  5
803C
330
803B
100
AcDbDictionary
280
     1
281
     1
  3
ACAD_DIMASSOC
360
803D
  0
DICTIONARY
  5
8040
330
803F
100
AcDbDictionary
280
     1
281
     1
  3
ACAD_DIMASSOC
360
8041
  0
DICTIONARY
  5
8043
330
8042
100
AcDbDictionary
280
     1
281
     1
  3
ACAD_DIMASSOC
360
8044
  0
DICTIONARY
  5
8046
330
8045
100
AcDbDictionary
280
     1
281
     1
  3
ACAD_DIMASSOC
360
8047
  0
DICTIONARY
  5
8049
330
8048
100
AcDbDictionary
280
     1
281
     1
  3
ACAD_DIMASSOC
360
804A
  0
DICTIONARY
  5
804C
330
804B
100
AcDbDictionary
280
     1
281
     1
  3
ACAD_DIMASSOC
360
804D
  0
DICTIONARY
  5
804F
330
804E
100
AcDbDictionary
280
     1
281
     1
  3
ACAD_DIMASSOC
360
8050
  0
DICTIONARY
  5
8052
330
8051
100
AcDbDictionary
280
     1
281
     1
  3
ACAD_DIMASSOC
360
8053
  0
DICTIONARY
  5
8075
330
8074
100
AcDbDictionary
280
     1
281
     1
  3
ACAD_DIMASSOC
360
8076
  0
DICTIONARY
  5
80C2
330
80C1
100
AcDbDictionary
280
     1
281
     1
  3
ACAD_DIMASSOC
360
80C3
  0
DICTIONARY
  5
BE
102
{ACAD_REACTORS
330
C
102
}
330
C
100
AcDbDictionary
281
     1
  0
DICTIONARY
  5
D
102
{ACAD_REACTORS
330
C
102
}
330
C
100
AcDbDictionary
281
     1
  0
DICTIONARY
  5
1A
102
{ACAD_REACTORS
330
C
102
}
330
C
100
AcDbDictionary
281
     1
  3
Model
350
22
  3
配置1
350
1E
  3
配置2
350
26
  0
DICTIONARY
  5
BD
102
{ACAD_REACTORS
330
C
102
}
330
C
100
AcDbDictionary
281
     1
  0
DICTIONARY
  5
17
102
{ACAD_REACTORS
330
C
102
}
330
C
100
AcDbDictionary
281
     1
  3
Standard
350
18
  0
DICTIONARY
  5
19
102
{ACAD_REACTORS
330
C
102
}
330
C
100
AcDbDictionary
281
     1
  0
ACDBDICTIONARYWDFLT
  5
E
102
{ACAD_REACTORS
330
C
102
}
330
C
100
AcDbDictionary
281
     1
  3
Normal
350
F
100
AcDbDictionaryWithDefault
340
F
  0
DICTIONARY
  5
11A
102
{ACAD_REACTORS
330
C
102
}
330
C
100
AcDbDictionary
281
     1
  3
Standard
350
11B
  0
DICTIONARY
  5
8673
102
{ACAD_REACTORS
330
C
102
}
330
C
100
AcDbDictionary
281
     1
  0
DICTIONARY
  5
94
102
{ACAD_REACTORS
330
C
102
}
330
C
100
AcDbDictionary
281
     1
  3
CTABLESTYLE
350
138
  3
DIMASSOC
350
96
  3
INDEXCTL
350
95
  3
PROJECTNAME
350
8488
  0
DICTIONARY
  5
5B
102
{ACAD_REACTORS
330
C
102
}
330
C
100
AcDbDictionary
281
     1
  3
AcmBOM
350
1B5
  3
AcmStdDictionary
350
61
  3
AMDTSECTSYM_ARROWCOLOR
350
123
  0
DICTIONARY
  5
41
102
{ACAD_REACTORS
330
C
102
}
330
C
100
AcDbDictionary
281
     1
  0
DICTIONARY
  5
1B8
102
{ACAD_REACTORS
330
C
102
}
330
C
100
AcDbDictionary
281
     1
  0
XRECORD
  5
8672
102
{ACAD_REACTORS
330
C
102
}
330
C
100
AcDbXrecord
280
     1
  1
DWGPROPS COOKIE
  2

  3

  4

  6

  7

  8

  9

300
AmdtFileType=84
301
=
302
=
303
=
304
=
305
=
306
=
307
=
308
=
309
=
 40
0.4428064120370371
 41
2454098.708838426
 42
2454789.568428264
  1

 90
        1
  0
DICTIONARY
  5
766B
102
{ACAD_REACTORS
330
3F9
102
}
330
3F9
100
AcDbDictionary
281
     1
  0
DICTIONARY
  5
A94
102
{ACAD_REACTORS
330
3F9
102
}
330
3F9
100
AcDbDictionary
281
     1
  0
DICTIONARY
  5
766A
102
{ACAD_REACTORS
330
3F9
102
}
330
3F9
100
AcDbDictionary
281
     1
1001
ACAD
1000
<All
  0
DIMASSOC
  5
8034
102
{ACAD_REACTORS
330
8033
102
}
330
8033
100
AcDbDimAssoc
330
8032
 90
        2
 70
     0
 71
     0
  1
AcDbOsnapPointRef
 72
     1
331
802D
 73
     0
 91
        0
 40
0.0
 10
0.0
 20
0.0
 30
2.000000000000000E+50
 75
     0
  0
DIMASSOC
  5
8037
102
{ACAD_REACTORS
330
8036
102
}
330
8036
100
AcDbDimAssoc
330
8035
 90
        3
 70
     0
 71
     0
  1
AcDbOsnapPointRef
 72
     1
331
802D
 73
     0
 91
        0
 40
0.0
 10
0.0
 20
0.0
 30
2.000000000000000E+50
 75
     0
  1
AcDbOsnapPointRef
 72
     1
331
8031
 73
     0
 91
        0
 40
0.0
 10
0.0
 20
0.0
 30
2.000000000000000E+50
 75
     0
  0
DIMASSOC
  5
803A
102
{ACAD_REACTORS
330
8039
102
}
330
8039
100
AcDbDimAssoc
330
8038
 90
        2
 70
     0
 71
     0
  1
AcDbOsnapPointRef
 72
     1
331
802C
 73
     0
 91
        0
 40
0.0
 10
0.0
 20
0.0
 30
2.000000000000000E+50
 75
     0
  0
DIMASSOC
  5
803D
102
{ACAD_REACTORS
330
803C
102
}
330
803C
100
AcDbDimAssoc
330
803B
 90
        3
 70
     0
 71
     0
  1
AcDbOsnapPointRef
 72
     1
331
800E
 73
     0
 91
        0
 40
0.0
 10
0.0
 20
0.0
 30
2.000000000000000E+50
 75
     0
  1
AcDbOsnapPointRef
 72
     1
331
8012
 73
     0
 91
        0
 40
0.0
 10
0.0
 20
0.0
 30
2.000000000000000E+50
 75
     0
  0
DIMASSOC
  5
8041
102
{ACAD_REACTORS
330
8040
102
}
330
8040
100
AcDbDimAssoc
330
803F
 90
        2
 70
     0
 71
     0
  1
AcDbOsnapPointRef
 72
     1
331
801F
 73
     0
 91
        0
 40
0.0
 10
0.0
 20
0.0
 30
2.000000000000000E+50
 75
     0
  0
DIMASSOC
  5
8044
102
{ACAD_REACTORS
330
8043
102
}
330
8043
100
AcDbDimAssoc
330
8042
 90
        3
 70
     0
 71
     0
  1
AcDbOsnapPointRef
 72
     1
331
801F
 73
     0
 91
        0
 40
0.0
 10
0.0
 20
0.0
 30
2.000000000000000E+50
 75
     0
  1
AcDbOsnapPointRef
 72
     1
331
801B
 73
     0
 91
        0
 40
0.0
 10
0.0
 20
0.0
 30
2.000000000000000E+50
 75
     0
  0
DIMASSOC
  5
8047
102
{ACAD_REACTORS
330
8046
102
}
330
8046
100
AcDbDimAssoc
330
8045
 90
        3
 70
     0
 71
     0
  1
AcDbOsnapPointRef
 72
     1
331
801B
 73
     0
 91
        0
 40
0.0
 10
0.0
 20
0.0
 30
2.000000000000000E+50
 75
     0
  1
AcDbOsnapPointRef
 72
     1
331
8017
 73
     0
 91
        0
 40
0.0
 10
0.0
 20
0.0
 30
2.000000000000000E+50
 75
     0
  0
DIMASSOC
  5
804A
102
{ACAD_REACTORS
330
8049
102
}
330
8049
100
AcDbDimAssoc
330
8048
 90
        2
 70
     0
 71
     0
  1
AcDbOsnapPointRef
 72
     1
331
800B
 73
     0
 91
        0
 40
0.0
 10
0.0
 20
0.0
 30
2.000000000000000E+50
 75
     0
  0
DIMASSOC
  5
804D
102
{ACAD_REACTORS
330
804C
102
}
330
804C
100
AcDbDimAssoc
330
804B
 90
        3
 70
     0
 71
     0
  1
AcDbOsnapPointRef
 72
     1
331
800B
 73
     0
 91
        0
 40
0.0
 10
0.0
 20
0.0
 30
2.000000000000000E+50
 75
     0
  1
AcDbOsnapPointRef
 72
     1
331
8007
 73
     0
 91
        0
 40
0.0
 10
0.0
 20
0.0
 30
2.000000000000000E+50
 75
     0
  0
DIMASSOC
  5
8050
102
{ACAD_REACTORS
330
804F
102
}
330
804F
100
AcDbDimAssoc
330
804E
 90
        3
 70
     0
 71
     0
  1
AcDbOsnapPointRef
 72
     1
331
800D
 73
     0
 91
        0
 40
0.0
 10
0.0
 20
0.0
 30
2.000000000000000E+50
 75
     0
  1
AcDbOsnapPointRef
 72
     1
331
8011
 73
     0
 91
        0
 40
0.0
 10
0.0
 20
0.0
 30
2.000000000000000E+50
 75
     0
  0
DIMASSOC
  5
8053
102
{ACAD_REACTORS
330
8052
102
}
330
8052
100
AcDbDimAssoc
330
8051
 90
        2
 70
     0
 71
     0
  1
AcDbOsnapPointRef
 72
     1
331
800D
 73
     0
 91
        0
 40
0.0
 10
0.0
 20
0.0
 30
2.000000000000000E+50
 75
     0
  0
DIMASSOC
  5
8076
102
{ACAD_REACTORS
330
8075
102
}
330
8075
100
AcDbDimAssoc
330
8074
 90
        3
 70
     0
 71
     0
  1
AcDbOsnapPointRef
 72
     1
331
806C
 73
     0
 91
        0
 40
0.0
 10
0.0
 20
0.0
 30
2.000000000000000E+50
 75
     0
  1
AcDbOsnapPointRef
 72
     1
331
8064
 73
     0
 91
        0
 40
0.0
 10
0.0
 20
0.0
 30
2.000000000000000E+50
 75
     0
  0
DIMASSOC
  5
80C3
102
{ACAD_REACTORS
330
80C2
102
}
330
80C2
100
AcDbDimAssoc
330
80C1
 90
        2
 70
     0
 71
     0
  1
AcDbOsnapPointRef
 72
     1
331
7F1C
 73
     0
 91
        0
 40
0.0
 10
0.0
 20
0.0
 30
2.000000000000000E+50
 75
     0
  0
LAYOUT
  5
22
102
{ACAD_XDICTIONARY
360
8676
102
}
102
{ACAD_REACTORS
330
1A
102
}
330
1A
100
AcDbPlotSettings
  1

  2
\\RD\EPSON Stylus C63 Series單色
  4
A4
  6

 40
3.757083177566528
 41
3.757076978683471
 42
3.757080078125
 43
3.757080078125
 44
209.9733276367187
 45
296.9683227539062
 46
0.0
 47
0.0
 48
0.0
 49
0.0
140
0.0
141
0.0
142
1.0
143
0.3405120737814363
 70
 11952
 72
     1
 73
     0
 74
     0
  7
單色出圖.ctb
 75
     0
147
2.936753428137963
148
-2047.07469463503
149
-1261.649717473083
100
AcDbLayout
  1
Model
 70
     1
 71
     0
 10
0.0
 20
0.0
 11
12.0
 21
9.0
 12
0.0
 22
0.0
 32
0.0
 14
0.0
 24
0.0
 34
0.0
 15
0.0
 25
0.0
 35
0.0
146
0.0
 13
0.0
 23
0.0
 33
0.0
 16
1.0
 26
0.0
 36
0.0
 17
0.0
 27
1.0
 37
0.0
 76
     0
330
1F
1001
ACAD_PSEXT
1000
\\RD\EPSON Stylus C63 Series單色
1000
EPSON Stylus C63 Series
1000
\\RD
1000

1070
     0
  0
LAYOUT
  5
1E
102
{ACAD_XDICTIONARY
360
8674
102
}
102
{ACAD_REACTORS
330
1A
102
}
330
1A
100
AcDbPlotSettings
  1

  2

  4

  6

 40
0.0
 41
0.0
 42
0.0
 43
0.0
 44
0.0
 45
0.0
 46
0.0
 47
0.0
 48
0.0
 49
0.0
140
0.0
141
0.0
142
1.0
143
1.0
 70
   688
 72
     0
 73
     0
 74
     5
  7
單色出圖.ctb
 75
    16
147
1.0
148
0.0
149
0.0
100
AcDbLayout
  1
配置1
 70
     1
 71
     1
 10
0.0
 20
0.0
 11
420.0
 21
297.0
 12
0.0
 22
0.0
 32
0.0
 14
1.000000000000000E+20
 24
1.000000000000000E+20
 34
1.000000000000000E+20
 15
-1.000000000000000E+20
 25
-1.000000000000000E+20
 35
-1.000000000000000E+20
146
0.0
 13
0.0
 23
0.0
 33
0.0
 16
1.0
 26
0.0
 36
0.0
 17
0.0
 27
1.0
 37
0.0
 76
     0
330
1B
  0
LAYOUT
  5
26
102
{ACAD_XDICTIONARY
360
8678
102
}
102
{ACAD_REACTORS
330
1A
102
}
330
1A
100
AcDbPlotSettings
  1

  2

  4

  6

 40
0.0
 41
0.0
 42
0.0
 43
0.0
 44
0.0
 45
0.0
 46
0.0
 47
0.0
 48
0.0
 49
0.0
140
0.0
141
0.0
142
1.0
143
1.0
 70
   688
 72
     0
 73
     0
 74
     5
  7
單色出圖.ctb
 75
    16
147
1.0
148
0.0
149
0.0
100
AcDbLayout
  1
配置2
 70
     1
 71
     2
 10
0.0
 20
0.0
 11
12.0
 21
9.0
 12
0.0
 22
0.0
 32
0.0
 14
0.0
 24
0.0
 34
0.0
 15
0.0
 25
0.0
 35
0.0
146
0.0
 13
0.0
 23
0.0
 33
0.0
 16
1.0
 26
0.0
 36
0.0
 17
0.0
 27
1.0
 37
0.0
 76
     0
330
23
  0
MLINESTYLE
  5
18
102
{ACAD_REACTORS
330
17
102
}
330
17
100
AcDbMlineStyle
  2
STANDARD
 70
     0
  3

 62
   256
 51
90.0
 52
90.0
 71
     2
 49
0.5
 62
   256
  6
BYLAYER
 49
-0.5
 62
   256
  6
BYLAYER
  0
ACDBPLACEHOLDER
  5
F
102
{ACAD_REACTORS
330
E
102
}
330
E
  0
TABLESTYLE
  5
11B
102
{ACAD_REACTORS
330
11A
102
}
330
11A
100
AcDbTableStyle
  3
Standard
 70
     0
 71
     0
 40
1.5
 41
1.5
280
     0
281
     0
  7
STANDARD
140
4.5
170
     2
 62
     0
 63
     7
283
     0
274
    -2
284
     1
 64
     0
275
    -2
285
     1
 65
     0
276
    -2
286
     1
 66
     0
277
    -2
287
     1
 67
     0
278
    -2
288
     1
 68
     0
279
    -2
289
     1
 69
     0
  7
STANDARD
140
6.0
170
     5
 62
     0
 63
     7
283
     0
274
    -2
284
     1
 64
     0
275
    -2
285
     1
 65
     0
276
    -2
286
     1
 66
     0
277
    -2
287
     1
 67
     0
278
    -2
288
     1
 68
     0
279
    -2
289
     1
 69
     0
  7
STANDARD
140
4.5
170
     5
 62
     0
 63
     7
283
     0
274
    -2
284
     1
 64
     0
275
    -2
285
     1
 65
     0
276
    -2
286
     1
 66
     0
277
    -2
287
     1
 67
     0
278
    -2
288
     1
 68
     0
279
    -2
289
     1
 69
     0
  0
DICTIONARYVAR
  5
138
102
{ACAD_REACTORS
330
94
102
}
330
94
100
DictionaryVariables
280
     0
  1
STANDARD
  0
DICTIONARYVAR
  5
96
102
{ACAD_REACTORS
330
94
102
}
330
94
100
DictionaryVariables
280
     0
  1
2
  0
DICTIONARYVAR
  5
95
102
{ACAD_REACTORS
330
94
102
}
330
94
100
DictionaryVariables
280
     0
  1
0
  0
DICTIONARYVAR
  5
8488
102
{ACAD_REACTORS
330
94
102
}
330
94
100
DictionaryVariables
280
     0
  1

  0
DICTIONARY
  5
1B5
102
{ACAD_REACTORS
330
5B
102
}
330
5B
100
AcDbDictionary
281
     1
  0
DICTIONARY
  5
61
102
{ACAD_REACTORS
330
5B
102
}
330
5B
100
AcDbDictionary
281
     1
  0
XRECORD
  5
123
102
{ACAD_REACTORS
330
5B
102
}
330
5B
100
AcDbXrecord
280
     1
 90
-1023410169
  0
DICTIONARY
  5
8676
330
22
100
AcDbDictionary
280
     1
281
     1
  3
ACAD_XREC_ROUNDTRIP
360
8677
  0
DICTIONARY
  5
8674
330
1E
100
AcDbDictionary
280
     1
281
     1
  3
ACAD_XREC_ROUNDTRIP
360
8675
  0
DICTIONARY
  5
8678
330
26
100
AcDbDictionary
280
     1
281
     1
  3
ACAD_XREC_ROUNDTRIP
360
8679
  0
XRECORD
  5
8677
102
{ACAD_REACTORS
330
8676
102
}
330
8676
100
AcDbXrecord
280
     1
102
SHADEPLOT
 70
     0
102
SHADEPLOTRESLEVEL
 70
     2
102
SHADEPLOTCUSTOMDPI
 70
   300
  0
XRECORD
  5
8675
102
{ACAD_REACTORS
330
8674
102
}
330
8674
100
AcDbXrecord
280
     1
102
SHADEPLOT
 70
     0
102
SHADEPLOTRESLEVEL
 70
     2
102
SHADEPLOTCUSTOMDPI
 70
   300
  0
XRECORD
  5
8679
102
{ACAD_REACTORS
330
8678
102
}
330
8678
100
AcDbXrecord
280
     1
102
SHADEPLOT
 70
     0
102
SHADEPLOTRESLEVEL
 70
     2
102
SHADEPLOTCUSTOMDPI
 70
   300
  0
ENDSEC
  0
EOF
