  0
SECTION
  2
HEADER
  9
$ACADVER
  1
AC1015
  9
$ACADMAINTVER
 70
    20
  9
$DWGCODEPAGE
  3
ANSI_950
  9
$INSBASE
 10
0.0
 20
0.0
 30
0.0
  9
$EXTMIN
 10
717.4591160092123
 20
1153.307721169762
 30
-0.0093560070942544
  9
$EXTMAX
 10
952.6162130381649
 20
1449.441614191283
 30
172.9983594086392
  9
$LIMMIN
 10
0.0
 20
0.0
  9
$LIMMAX
 10
420.0
 20
297.0
  9
$ORTHOMODE
 70
     1
  9
$REGENMODE
 70
     1
  9
$FILLMODE
 70
     1
  9
$QTEXTMODE
 70
     0
  9
$MIRRTEXT
 70
     1
  9
$LTSCALE
 40
1.0
  9
$ATTMODE
 70
     1
  9
$TEXTSIZE
 40
3.0
  9
$TRACEWID
 40
1.0
  9
$TEXTSTYLE
  7
STANDARD
  9
$CLAYER
  8
0
  9
$CELTYPE
  6
ByLayer
  9
$CECOLOR
 62
   256
  9
$CELTSCALE
 40
1.0
  9
$DISPSILH
 70
     0
  9
$DIMSCALE
 40
1.0
  9
$DIMASZ
 40
3.0
  9
$DIMEXO
 40
1.0
  9
$DIMDLI
 40
11.0
  9
$DIMRND
 40
0.0
  9
$DIMDLE
 40
0.0
  9
$DIMEXE
 40
1.5
  9
$DIMTP
 40
0.1
  9
$DIMTM
 40
0.1
  9
$DIMTXT
 40
3.5
  9
$DIMCEN
 40
0.0
  9
$DIMTSZ
 40
0.0
  9
$DIMTOL
 70
     0
  9
$DIMLIM
 70
     0
  9
$DIMTIH
 70
     0
  9
$DIMTOH
 70
     0
  9
$DIMSE1
 70
     0
  9
$DIMSE2
 70
     0
  9
$DIMTAD
 70
     1
  9
$DIMZIN
 70
     8
  9
$DIMBLK
  1

  9
$DIMASO
 70
     1
  9
$DIMSHO
 70
     1
  9
$DIMPOST
  1

  9
$DIMAPOST
  1
"
  9
$DIMALT
 70
     0
  9
$DIMALTD
 70
     2
  9
$DIMALTF
 40
0.0393701
  9
$DIMLFAC
 40
1.0
  9
$DIMTOFL
 70
     1
  9
$DIMTVP
 40
0.0
  9
$DIMTIX
 70
     0
  9
$DIMSOXD
 70
     0
  9
$DIMSAH
 70
     0
  9
$DIMBLK1
  1

  9
$DIMBLK2
  1

  9
$DIMSTYLE
  2
AM_ISO
  9
$DIMCLRD
 70
   256
  9
$DIMCLRE
 70
   256
  9
$DIMCLRT
 70
   256
  9
$DIMTFAC
 40
0.6
  9
$DIMGAP
 40
0.7
  9
$DIMJUST
 70
     0
  9
$DIMSD1
 70
     0
  9
$DIMSD2
 70
     0
  9
$DIMTOLJ
 70
     0
  9
$DIMTZIN
 70
     8
  9
$DIMALTZ
 70
     0
  9
$DIMALTTZ
 70
     0
  9
$DIMUPT
 70
     0
  9
$DIMDEC
 70
     2
  9
$DIMTDEC
 70
     8
  9
$DIMALTU
 70
     2
  9
$DIMALTTD
 70
     2
  9
$DIMTXSTY
  7
STANDARD
  9
$DIMAUNIT
 70
     0
  9
$DIMADEC
 70
     0
  9
$DIMALTRND
 40
0.0
  9
$DIMAZIN
 70
     2
  9
$DIMDSEP
 70
    46
  9
$DIMATFIT
 70
     3
  9
$DIMFRAC
 70
     0
  9
$DIMLDRBLK
  1

  9
$DIMLUNIT
 70
     2
  9
$DIMLWD
 70
    -1
  9
$DIMLWE
 70
    -1
  9
$DIMTMOVE
 70
     0
  9
$LUNITS
 70
     2
  9
$LUPREC
 70
     2
  9
$SKETCHINC
 40
1.0
  9
$FILLETRAD
 40
2.5
  9
$AUNITS
 70
     0
  9
$AUPREC
 70
     0
  9
$MENU
  1
.
  9
$ELEVATION
 40
0.0
  9
$PELEVATION
 40
0.0
  9
$THICKNESS
 40
0.0
  9
$LIMCHECK
 70
     0
  9
$CHAMFERA
 40
2.5
  9
$CHAMFERB
 40
2.5
  9
$CHAMFERC
 40
20.0
  9
$CHAMFERD
 40
0.0
  9
$SKPOLY
 70
     0
  9
$TDCREATE
 40
2453836.381385081
  9
$TDUCREATE
 40
2453836.048051748
  9
$TDUPDATE
 40
2454789.591346516
  9
$TDUUPDATE
 40
2454789.258013183
  9
$TDINDWG
 40
0.1634027546
  9
$TDUSRTIMER
 40
0.1634027546
  9
$USRTIMER
 70
     1
  9
$ANGBASE
 50
0.0
  9
$ANGDIR
 70
     0
  9
$PDMODE
 70
     0
  9
$PDSIZE
 40
0.0
  9
$PLINEWID
 40
0.0
  9
$SPLFRAME
 70
     0
  9
$SPLINETYPE
 70
     6
  9
$SPLINESEGS
 70
     8
  9
$HANDSEED
  5
4A94
  9
$SURFTAB1
 70
     6
  9
$SURFTAB2
 70
     6
  9
$SURFTYPE
 70
     6
  9
$SURFU
 70
     6
  9
$SURFV
 70
     6
  9
$UCSBASE
  2

  9
$UCSNAME
  2

  9
$UCSORG
 10
0.0
 20
0.0
 30
0.0
  9
$UCSXDIR
 10
1.0
 20
0.0
 30
0.0
  9
$UCSYDIR
 10
0.0
 20
1.0
 30
0.0
  9
$UCSORTHOREF
  2

  9
$UCSORTHOVIEW
 70
     0
  9
$UCSORGTOP
 10
0.0
 20
0.0
 30
0.0
  9
$UCSORGBOTTOM
 10
0.0
 20
0.0
 30
0.0
  9
$UCSORGLEFT
 10
0.0
 20
0.0
 30
0.0
  9
$UCSORGRIGHT
 10
0.0
 20
0.0
 30
0.0
  9
$UCSORGFRONT
 10
0.0
 20
0.0
 30
0.0
  9
$UCSORGBACK
 10
0.0
 20
0.0
 30
0.0
  9
$PUCSBASE
  2

  9
$PUCSNAME
  2

  9
$PUCSORG
 10
0.0
 20
0.0
 30
0.0
  9
$PUCSXDIR
 10
1.0
 20
0.0
 30
0.0
  9
$PUCSYDIR
 10
0.0
 20
1.0
 30
0.0
  9
$PUCSORTHOREF
  2

  9
$PUCSORTHOVIEW
 70
     0
  9
$PUCSORGTOP
 10
0.0
 20
0.0
 30
0.0
  9
$PUCSORGBOTTOM
 10
0.0
 20
0.0
 30
0.0
  9
$PUCSORGLEFT
 10
0.0
 20
0.0
 30
0.0
  9
$PUCSORGRIGHT
 10
0.0
 20
0.0
 30
0.0
  9
$PUCSORGFRONT
 10
0.0
 20
0.0
 30
0.0
  9
$PUCSORGBACK
 10
0.0
 20
0.0
 30
0.0
  9
$USERI1
 70
     0
  9
$USERI2
 70
     0
  9
$USERI3
 70
     0
  9
$USERI4
 70
     0
  9
$USERI5
 70
     0
  9
$USERR1
 40
0.0
  9
$USERR2
 40
0.0
  9
$USERR3
 40
0.0
  9
$USERR4
 40
0.0
  9
$USERR5
 40
0.0
  9
$WORLDVIEW
 70
     1
  9
$SHADEDGE
 70
     3
  9
$SHADEDIF
 70
    70
  9
$TILEMODE
 70
     1
  9
$MAXACTVP
 70
    64
  9
$PINSBASE
 10
0.0
 20
0.0
 30
0.0
  9
$PLIMCHECK
 70
     0
  9
$PEXTMIN
 10
1.000000000000000E+20
 20
1.000000000000000E+20
 30
1.000000000000000E+20
  9
$PEXTMAX
 10
-1.000000000000000E+20
 20
-1.000000000000000E+20
 30
-1.000000000000000E+20
  9
$PLIMMIN
 10
0.0
 20
0.0
  9
$PLIMMAX
 10
420.0
 20
297.0
  9
$UNITMODE
 70
     0
  9
$VISRETAIN
 70
     1
  9
$PLINEGEN
 70
     0
  9
$PSLTSCALE
 70
     1
  9
$TREEDEPTH
 70
  3020
  9
$CMLSTYLE
  2
Standard
  9
$CMLJUST
 70
     0
  9
$CMLSCALE
 40
20.0
  9
$PROXYGRAPHICS
 70
     1
  9
$MEASUREMENT
 70
     1
  9
$CELWEIGHT
370
    -1
  9
$ENDCAPS
280
     0
  9
$JOINSTYLE
280
     0
  9
$LWDISPLAY
290
     0
  9
$INSUNITS
 70
     4
  9
$HYPERLINKBASE
  1

  9
$STYLESHEET
  1
acad.ctb
  9
$XEDIT
290
     1
  9
$CEPSNTYPE
380
     0
  9
$PSTYLEMODE
290
     1
  9
$FINGERPRINTGUID
  2
{4E42D67C-2C0E-4518-AAFF-743F4EBE0702}
  9
$VERSIONGUID
  2
{AFC9397C-AA5B-47F6-BC4A-31318F5DDB17}
  9
$EXTNAMES
290
     1
  9
$PSVPSCALE
 40
0.0
  9
$OLESTARTUP
290
     0
  0
ENDSEC
  0
SECTION
  2
CLASSES
  0
CLASS
  1
ACDBDICTIONARYWDFLT
  2
AcDbDictionaryWithDefault
  3
ObjectDBX Classes
 90
        0
280
     0
281
     0
  0
CLASS
  1
ACDBPLACEHOLDER
  2
AcDbPlaceHolder
  3
ObjectDBX Classes
 90
        0
280
     0
281
     0
  0
CLASS
  1
LAYOUT
  2
AcDbLayout
  3
ObjectDBX Classes
 90
        0
280
     0
281
     0
  0
CLASS
  1
ACME_DOCUMENT
  2
AcMeDbDoc
  3
AcMeServices
 90
        0
280
     0
281
     0
  0
CLASS
  1
AMGSETTINGSOBJ
  2
AmgSettingsObj
  3
"AcadM|Product Description: AutoCAD Mechanical 2000|Company: Autodesk"
 90
        0
280
     0
281
     0
  0
CLASS
  1
ACMESCOPE
  2
AcMeScope
  3
AcMeServices
 90
        0
280
     0
281
     0
  0
CLASS
  1
ACMECOMMANDHISTORY
  2
AcMeCommandHistory
  3
AcMeServices
 90
        0
280
     0
281
     0
  0
CLASS
  1
ACIMSYSVARMAN
  2
AcImSysVarManager
  3
AcMeServices
 90
        0
280
     0
281
     0
  0
CLASS
  1
ACIMREALSYSVAR
  2
AcImRealSysVar
  3
AcMeServices
 90
        0
280
     0
281
     0
  0
CLASS
  1
ACIMINTSYSVAR
  2
AcImIntSysVar
  3
AcMeServices
 90
        0
280
     0
281
     0
  0
CLASS
  1
ACMEDRAWINGMAN
  2
AcMeDrawingMan
  3
AcMeServices
 90
        0
280
     0
281
     0
  0
CLASS
  1
ACMEVIEW
  2
AcMeView
  3
AcMeServices
 90
        0
280
     0
281
     0
  0
CLASS
  1
ACDBENTITYCACHE
  2
AcMeEntityCache
  3
AcMeServices
 90
        0
280
     0
281
     0
  0
CLASS
  1
GSMANAGER
  2
AcMeGSManager
  3
AcMeServices
 90
        0
280
     0
281
     0
  0
CLASS
  1
AMDTINTERNALREACTOR
  2
AmdtInternalReactor
  3
AcMeServices
 90
        0
280
     0
281
     0
  0
CLASS
  1
ACMESTATEMGR
  2
AcMeStateMgr
  3
AcMeServices
 90
        0
280
     0
281
     0
  0
CLASS
  1
ACGREFMASTER
  2
AcGrefMaster
  3
AcAttribServices
 90
        0
280
     0
281
     0
  0
CLASS
  1
ACME_DATABASE
  2
AcMeDbDatabase
  3
AcMeServices
 90
        0
280
     0
281
     0
  0
CLASS
  1
ACRFINSADJUSTERMGR
  2
AcRfInsAdjusterMgr
  3
AcMeServices
 90
        0
280
     0
281
     0
  0
CLASS
  1
ACGREFACADMASTER
  2
AcGrefacadMaster
  3
AcGrefServices
 90
        0
280
     0
281
     0
  0
CLASS
  1
AMIMASTER
  2
AmiMaster
  3
AmiServices
 90
        0
280
     0
281
     0
  0
CLASS
  1
ACMDATADICTIONARY
  2
AcmDataDictionary
  3
"AcmSymBB|Product Description: AutoCAD Mechanical 2004 DX|Company: Autodesk"
 90
        0
280
     0
281
     0
  0
CLASS
  1
ACMDATAENTRYBLOCK
  2
AcmDataEntryBlock
  3
"AcmSymBB|Product Description: AutoCAD Mechanical 2004 DX|Company: Autodesk"
 90
    32768
280
     0
281
     0
  0
CLASS
  1
ACIMSTRSYSVAR
  2
AcImStrSysVar
  3
AcMeServices
 90
        0
280
     0
281
     0
  0
CLASS
  1
ACMSTANDARDISO
  2
AcmStandardISO
  3
"Amdt_StdImp|Product Description: AutoCAD Mechanical 2004 DX|Company: Autodesk"
 90
        0
280
     0
281
     0
  0
CLASS
  1
AMGOBJPROPCFG
  2
AmgObjPropCfg
  3
"AmgLay|Product Description: AutoCAD Mechanical 2000|Company: Autodesk"
 90
        1
280
     0
281
     0
  0
CLASS
  1
AMDTEDGESTANDARDISO
  2
AmdtEdgeStdISO
  3
"Amdt_StdImp|Product Description: AutoCAD Mechanical 2004 DX|Company: Autodesk"
 90
    32768
280
     0
281
     0
  0
CLASS
  1
ACMSURFSTANDARDISO
  2
AcmSurfTextStdISO
  3
"Amdt_StdImp|Product Description: AutoCAD Mechanical 2004 DX|Company: Autodesk"
 90
        0
280
     0
281
     0
  0
CLASS
  1
ACMFCFSTANDARDISO
  2
AcmFCFStdISO
  3
"Amdt_StdImp|Product Description: AutoCAD Mechanical 2004 DX|Company: Autodesk"
 90
        0
280
     0
281
     0
  0
CLASS
  1
ACMWELDSTANDARDISO
  2
AcmWeldingStdISO
  3
"Amdt_StdImp|Product Description: AutoCAD Mechanical 2004 DX|Company: Autodesk"
 90
        0
280
     0
281
     0
  0
CLASS
  1
ACMIDSTANDARDISO
  2
AcmIdStdISO
  3
"Amdt_StdImp|Product Description: AutoCAD Mechanical 2004 DX|Company: Autodesk"
 90
        0
280
     0
281
     0
  0
CLASS
  1
ACMDATUMSTANDARDISO
  2
AcmDatumStdISO
  3
"Amdt_StdImp|Product Description: AutoCAD Mechanical 2004 DX|Company: Autodesk"
 90
        0
280
     0
281
     0
  0
CLASS
  1
ACMBOMSTANDARDISO
  2
AcmBOMStdISO
  3
"Amdt_StdImp|Product Description: AutoCAD Mechanical 2004 DX|Company: Autodesk"
 90
        0
280
     0
281
     0
  0
CLASS
  1
ACMDETAILSTANDARDISO
  2
AmdtDetailSymStdISO
  3
"Amdt_StdImp|Product Description: AutoCAD Mechanical 2004 DX|Company: Autodesk"
 90
        0
280
     0
281
     0
  0
CLASS
  1
ACMSECTIONSTANDARDISO
  2
AmdtSectionSymStdISO
  3
"Amdt_StdImp|Product Description: AutoCAD Mechanical 2004 DX|Company: Autodesk"
 90
        0
280
     0
281
     0
  0
CLASS
  1
ACMCENTERLINESTANDARDISO
  2
AmdtCenterLineStdISO
  3
"Amdt_StdImp|Product Description: AutoCAD Mechanical 2004 DX|Company: Autodesk"
 90
        0
280
     0
281
     0
  0
CLASS
  1
ACMNOTESTANDARDISO
  2
AmdtNoteStdISO
  3
"Amdt_StdImp|Product Description: AutoCAD Mechanical 2004 DX|Company: Autodesk"
 90
        0
280
     0
281
     0
  0
CLASS
  1
ACAMGLAYSTD
  2
AcAmgLayStd
  3
"AcAmgLayStd|Product Description: AutoCAD Mechanical 2000|Company: Autodesk"
 90
        0
280
     0
281
     0
  0
CLASS
  1
ACAMGDIMSTD
  2
AcAmgDimStd
  3
"AcAmgDimStd|Product Description: AutoCAD Mechanical 2000|Company: Autodesk"
 90
        0
280
     0
281
     0
  0
CLASS
  1
ACAMGHOLECHARTSTDISO
  2
AcAmgHoleChartStdISO
  3
ACMSYMBB_MODULE_NAME
 90
        0
280
     0
281
     0
  0
CLASS
  1
ACAMGTITLESTD
  2
AcAmgTitleStd
  3
"TITLEAPP"
 90
        0
280
     0
281
     0
  0
CLASS
  1
LAYER_INDEX
  2
AcDbLayerIndex
  3
ObjectDBX Classes
 90
    32768
280
     0
281
     0
  0
CLASS
  1
IDBUFFER
  2
AcDbIdBuffer
  3
ObjectDBX Classes
 90
    32768
280
     0
281
     0
  0
CLASS
  1
DICTIONARYVAR
  2
AcDbDictionaryVar
  3
ObjectDBX Classes
 90
        0
280
     0
281
     0
  0
CLASS
  1
AM_DRAWING_MGR
  2
AcDmDwgMgr
  3
AcMechDwgViewMgmt
 90
        0
280
     0
281
     0
  0
CLASS
  1
AM_DWG_DOCUMENT
  2
AcDmDwgDocument
  3
AcMechDwgViewMgmt
 90
        0
280
     0
281
     0
  0
CLASS
  1
AM_DWG_SHEET
  2
AcDmSheet
  3
AcMechDwgViewMgmt
 90
        0
280
     0
281
     0
  0
CLASS
  1
AM_VIEWDIMPARMAP
  2
AcDmViewDimParMap
  3
AcMechDwgViewMgmt
 90
        0
280
     0
281
     0
  0
CLASS
  1
AM_DWGMGR_NAME
  2
AcDmDwgMgrName
  3
AcMechDwgViewMgmt
 90
        0
280
     0
281
     0
  0
CLASS
  1
AMDTMENUSTATEMGR
  2
AmdtMenuStateMgr
  3
McadcomServices
 90
        0
280
     0
281
     0
  0
CLASS
  1
AMDTMCOMMENUSTATE
  2
AmdtMcomMenuState
  3
McadcomServices
 90
        0
280
     0
281
     0
  0
CLASS
  1
MAPIAMMOUDLE
  2
MApiAmModule
  3
MApiAmServices
 90
        0
280
     0
281
     0
  0
CLASS
  1
AMDTADMENUSTATE
  2
AmdtAdMenuState
  3
DesignerServices
 90
        0
280
     0
281
     0
  0
CLASS
  1
ADAPPL
  2
AcAdAppl
  3
DesignerServices
 90
        0
280
     0
281
     0
  0
CLASS
  1
DEPMGR
  2
AcAdDepMgr
  3
DesignerServices
 90
        0
280
     0
281
     0
  0
CLASS
  1
PARAMMGR
  2
AcAdParamMgr
  3
DesignerServices
 90
        0
280
     0
281
     0
  0
CLASS
  1
PARAMSCOPE
  2
AcAdParamScope
  3
DesignerServices
 90
        0
280
     0
281
     0
  0
CLASS
  1
NAMEDAPPL
  2
AcAdNamedAppl
  3
DesignerServices
 90
        0
280
     0
281
     0
  0
CLASS
  1
AMDTDMMENUSTATE
  2
AmdtDmMenuState
  3
AcMechDwgViewMgmt
 90
        0
280
     0
281
     0
  0
CLASS
  1
AMDTAMMENUSTATE
  2
AmdtAmMenuState
  3
DesignerAssemblies
 90
        0
280
     0
281
     0
  0
CLASS
  1
ACAMPROJECT
  2
AcAmProject
  3
DesignerAssemblies
 90
        0
280
     0
281
     0
  0
CLASS
  1
ACAMGRCOMPDEF
  2
AcAmGrCompDef
  3
DesignerAssemblies
 90
        0
280
     0
281
     0
  0
CLASS
  1
ACCMCONTEXT
  2
AcCmContext
  3
DesignerAssemblies
 90
        0
280
     0
281
     0
  0
CLASS
  1
ACAMCOMPDEF
  2
AcAmCompDef
  3
DesignerAssemblies
 90
        0
280
     0
281
     0
  0
CLASS
  1
ACAMCOMPDEFMGR
  2
AcAmCompDefMgr
  3
DesignerAssemblies
 90
        0
280
     0
281
     0
  0
CLASS
  1
AMCONTEXTMGR
  2
AcAmContextMgr
  3
DesignerAssemblies
 90
        0
280
     0
281
     0
  0
CLASS
  1
ACAMCONTEXTMODELER
  2
AcAmContextModeler
  3
DesignerAssemblies
 90
        0
280
     0
281
     0
  0
CLASS
  1
ACMTHREADLINESTANDARDISO
  2
AmdtThreadLineStdISO
  3
"Amdt_StdImp|Product Description: AutoCAD Mechanical 2004 DX|Company: Autodesk"
 90
        0
280
     0
281
     0
  0
CLASS
  1
CATALOGSTATE
  2
AcAmCatalogState
  3
DesignerAssemblies
 90
        0
280
     0
281
     0
  0
CLASS
  1
ACAMGRCOMPDEFSET
  2
AcAmGrCompDefSet
  3
DesignerAssemblies
 90
        0
280
     0
281
     0
  0
CLASS
  1
AMDTBROWSERDBTAB
  2
AmdtBrowserDbTab
  3
McadcomServices
 90
        0
280
     0
281
     0
  0
CLASS
  1
CBROWSERAPPOBJECT
  2
CBrowserAppObject
  3
McadcomServices
 90
        0
280
     0
281
     0
  0
CLASS
  1
DM_PLACEHOLDER
  2
AcDmSelsetPlaceholder
  3
AcMechDwgViewMgmt
 90
        0
280
     0
281
     0
  0
CLASS
  1
TABLESTYLE
  2
AcDbTableStyle
  3
ObjectDBX Classes
 90
     2047
280
     0
281
     0
  0
CLASS
  1
VAACXREFPANELOBJECT
  2
VaAcXREFPanelObject
  3
VAAC_ADDIN
 90
    32768
280
     0
281
     0
  0
CLASS
  1
VAACIMAGEINVENTORY
  2
VaAcImageInventory
  3
VAAC_ADDIN
 90
    32768
280
     0
281
     0
  0
CLASS
  1
AMDTNOTETEMPLATEDB
  2
AmdtNoteTemplateDB
  3
AMDT_STDIMP_MODULE_NAME
 90
        0
280
     0
281
     0
  0
CLASS
  1
ACMBOM
  2
AcmBom
  3
"AcmSymBB|Product Description: AutoCAD Mechanical 2004 DX|Company: Autodesk"
 90
    32768
280
     0
281
     0
  0
CLASS
  1
AMDTFORMULAUPDATEDISPATCHER
  2
AmdtFormulaUpdateDispatcher
  3
AcMeServices
 90
    32768
280
     0
281
     0
  0
CLASS
  1
ACMPARTLIST
  2
AcmPartList
  3
"AcmSymBB|Product Description: AutoCAD Mechanical 2004 DX|Company: Autodesk"
 90
    33791
280
     0
281
     1
  0
CLASS
  1
ACAMGFILTERDAT
  2
AcAmgFilterDat
  3
"AcadM|Product Description: AutoCAD Mechanical 2000|Company: Autodesk"
 90
    32768
280
     0
281
     0
  0
CLASS
  1
DIMASSOC
  2
AcDbDimAssoc
  3
"AcDbDimAssoc|Product Desc:     AcDim ARX App For Dimension|Company:          Autodesk, Inc.|WEB Address:      www.autodesk.com"
 90
        0
280
     0
281
     0
  0
CLASS
  1
AMDTNOTE
  2
AmdtNote
  3
"AcmSymBB|Product Description: AutoCAD Mechanical 2004 DX|Company: Autodesk"
 90
    33791
280
     0
281
     1
  0
CLASS
  1
ACMSTANDARDANSI
  2
AcmStandardANSI
  3
"Amdt_StdImp|Product Description: AutoCAD Mechanical 2004 DX|Company: Autodesk"
 90
    32768
280
     0
281
     0
  0
CLASS
  1
ACMSURFSTANDARDANSI
  2
AcmSurfTextStdANSI
  3
"Amdt_StdImp|Product Description: AutoCAD Mechanical 2004 DX|Company: Autodesk"
 90
    32768
280
     0
281
     0
  0
CLASS
  1
ACMFCFSTANDARDANSI
  2
AcmFCFStdANSI
  3
"Amdt_StdImp|Product Description: AutoCAD Mechanical 2004 DX|Company: Autodesk"
 90
    32768
280
     0
281
     0
  0
CLASS
  1
ACMWELDSTANDARDANSI
  2
AcmWeldingStdANSI
  3
"Amdt_StdImp|Product Description: AutoCAD Mechanical 2004 DX|Company: Autodesk"
 90
    32768
280
     0
281
     0
  0
CLASS
  1
ACMIDSTANDARDANSI
  2
AcmIdStdANSI
  3
"Amdt_StdImp|Product Description: AutoCAD Mechanical 2004 DX|Company: Autodesk"
 90
    32768
280
     0
281
     0
  0
CLASS
  1
ACMDATUMSTANDARDANSI
  2
AcmDatumStdANSI
  3
"Amdt_StdImp|Product Description: AutoCAD Mechanical 2004 DX|Company: Autodesk"
 90
    32768
280
     0
281
     0
  0
CLASS
  1
ACMBOMSTANDARDANSI
  2
AcmBOMStdANSI
  3
"Amdt_StdImp|Product Description: AutoCAD Mechanical 2004 DX|Company: Autodesk"
 90
    32768
280
     0
281
     0
  0
CLASS
  1
ACMDETAILSTANDARDANSI
  2
AmdtDetailSymStdANSI
  3
"Amdt_StdImp|Product Description: AutoCAD Mechanical 2004 DX|Company: Autodesk"
 90
    32768
280
     0
281
     0
  0
CLASS
  1
ACMSECTIONSTANDARDANSI
  2
AmdtSectionSymStdANSI
  3
"Amdt_StdImp|Product Description: AutoCAD Mechanical 2004 DX|Company: Autodesk"
 90
    32768
280
     0
281
     0
  0
CLASS
  1
ACMCENTERLINESTANDARDANSI
  2
AmdtCenterLineStdANSI
  3
"Amdt_StdImp|Product Description: AutoCAD Mechanical 2004 DX|Company: Autodesk"
 90
    32768
280
     0
281
     0
  0
CLASS
  1
ACMTHREADLINESTANDARDANSI
  2
AmdtThreadLineStdANSI
  3
"Amdt_StdImp|Product Description: AutoCAD Mechanical 2004 DX|Company: Autodesk"
 90
    32768
280
     0
281
     0
  0
CLASS
  1
ACMNOTESTANDARDANSI
  2
AmdtNoteStdANSI
  3
"Amdt_StdImp|Product Description: AutoCAD Mechanical 2004 DX|Company: Autodesk"
 90
    32768
280
     0
281
     0
  0
CLASS
  1
ACAMGHOLECHARTSTDANSI
  2
AcAmgHoleChartStdANSI
  3
ACMSYMBB_MODULE_NAME
 90
    32768
280
     0
281
     0
  0
CLASS
  1
AMDTEDGESTANDARDISO13715
  2
AmdtEdgeStdISO13715
  3
"Amdt_StdImp|Product Description: AutoCAD Mechanical 2004 DX|Company: Autodesk"
 90
        0
280
     0
281
     0
  0
CLASS
  1
SORTENTSTABLE
  2
AcDbSortentsTable
  3
ObjectDBX Classes
 90
        0
280
     0
281
     0
  0
CLASS
  1
ACRFATTGENMGR
  2
AcRfAttGeneralMgr
  3
AcAttribServices
 90
        0
280
     0
281
     0
  0
ENDSEC
  0
SECTION
  2
TABLES
  0
TABLE
  2
VPORT
  5
8
330
0
100
AcDbSymbolTable
 70
     7
  0
VPORT
  5
4A8B
330
8
100
AcDbSymbolTableRecord
100
AcDbViewportTableRecord
  2
*Active
 70
     0
 10
0.0
 20
0.0
 11
1.0
 21
1.0
 12
835.0376645236886
 22
1301.374667680523
 13
0.0
 23
0.0
 14
2.5
 24
2.5
 15
10.0
 25
10.0
 16
0.0
 26
0.0
 36
1.0
 17
0.0
 27
0.0
 37
0.0
 40
298.5485514126965
 41
1.283837056504599
 42
50.0
 43
0.0
 44
0.0
 50
0.0
 51
0.0
 71
     0
 72
   100
 73
     1
 74
     3
 75
     0
 76
     0
 77
     0
 78
     0
281
     0
 65
     1
110
0.0
120
0.0
130
0.0
111
1.0
121
0.0
131
0.0
112
0.0
122
1.0
132
0.0
 79
     0
146
0.0
  0
ENDTAB
  0
TABLE
  2
LTYPE
  5
5
330
0
100
AcDbSymbolTable
 70
    14
  0
LTYPE
  5
14
330
5
100
AcDbSymbolTableRecord
100
AcDbLinetypeTableRecord
  2
ByBlock
 70
     0
  3

 72
    65
 73
     0
 40
0.0
  0
LTYPE
  5
15
330
5
100
AcDbSymbolTableRecord
100
AcDbLinetypeTableRecord
  2
ByLayer
 70
     0
  3

 72
    65
 73
     0
 40
0.0
  0
LTYPE
  5
16
330
5
100
AcDbSymbolTableRecord
100
AcDbLinetypeTableRecord
  2
Continuous
 70
     0
  3
Solid line
 72
    65
 73
     0
 40
0.0
  0
LTYPE
  5
64
330
5
100
AcDbSymbolTableRecord
100
AcDbLinetypeTableRecord
  2
AM_ISO02W050
 70
     0
  3
__ __ __ __ __ __ __ __ __ __ __ __ __ __ __
 72
    65
 73
     2
 40
7.5
 49
6.0
 74
     0
 49
-1.5
 74
     0
  0
LTYPE
  5
65
330
5
100
AcDbSymbolTableRecord
100
AcDbLinetypeTableRecord
  2
AM_ISO08W050
 70
     0
  3
____ . ____ . ____ . ____ . ____ . ____ . ____
 72
    65
 73
     4
 40
18.0
 49
12.0
 74
     0
 49
-1.5
 74
     0
 49
3.0
 74
     0
 49
-1.5
 74
     0
  0
LTYPE
  5
66
330
5
100
AcDbSymbolTableRecord
100
AcDbLinetypeTableRecord
  2
AM_ISO09W050
 70
     0
  3
_____ . . _____ . . _____ . . ____ .. ____
 72
    65
 73
     6
 40
22.5
 49
12.0
 74
     0
 49
-1.5
 74
     0
 49
3.0
 74
     0
 49
-1.5
 74
     0
 49
3.0
 74
     0
 49
-1.5
 74
     0
  0
LTYPE
  5
67
330
5
100
AcDbSymbolTableRecord
100
AcDbLinetypeTableRecord
  2
Amconstr
 70
     0
  3
_______________________
 72
    65
 73
     2
 40
9999.0
 49
9999.0
 74
     0
 49
0.0
 74
     0
  0
LTYPE
  5
68
330
5
100
AcDbSymbolTableRecord
100
AcDbLinetypeTableRecord
  2
AM_ISO08W050x2
 70
     0
  3
__ . __ . __ . __ . __ . __
 72
    65
 73
     4
 40
9.0
 49
6.0
 74
     0
 49
-0.75
 74
     0
 49
1.5
 74
     0
 49
-0.75
 74
     0
  0
LTYPE
  5
69
330
5
100
AcDbSymbolTableRecord
100
AcDbLinetypeTableRecord
  2
AM_ISO02W050x2
 70
     0
  3
 _ _ _ _ _ _ _ _ _ _ _ _
 72
    65
 73
     2
 40
3.75
 49
3.0
 74
     0
 49
-0.75
 74
     0
  0
LTYPE
  5
6C
330
5
100
AcDbSymbolTableRecord
100
AcDbLinetypeTableRecord
  2
Amzigzag
 70
     0
  3
/\/-/\/-/\/-/\/-/\/-/\/
 72
    65
 73
     2
 40
11.0001
 49
0.0001
 74
     4
 75
   135
340
6B
 46
0.04
 50
0.0
 44
0.0
 45
0.0
 49
-11.0
 74
     0
  0
LTYPE
  5
7A
330
5
100
AcDbSymbolTableRecord
100
AcDbLinetypeTableRecord
  2
ACISOWELD
 70
     0
  3
_ _ _ _ _
 72
    65
 73
     2
 40
2.0
 49
2.0
 74
     0
 49
-1.0
 74
     0
  0
LTYPE
  5
7B
330
5
100
AcDbSymbolTableRecord
100
AcDbLinetypeTableRecord
  2
ACISOTGB
 70
     0
  3
__ . . __ . .
 72
    65
 73
     6
 40
9.0
 49
4.0
 74
     0
 49
-1.0
 74
     0
 49
1.0
 74
     0
 49
-1.0
 74
     0
 49
1.0
 74
     0
 49
-1.0
 74
     0
  0
LTYPE
  5
7C
330
5
100
AcDbSymbolTableRecord
100
AcDbLinetypeTableRecord
  2
ACISOTGL
 70
     0
  3
_ _ _ _ _
 72
    65
 73
     2
 40
3.0
 49
2.0
 74
     0
 49
-1.0
 74
     0
  0
LTYPE
  5
7E
330
5
100
AcDbSymbolTableRecord
100
AcDbLinetypeTableRecord
  2
CENTER
 70
     0
  3
__ . __
 72
    65
 73
     4
 40
7.0
 49
4.0
 74
     0
 49
-1.0
 74
     0
 49
1.0
 74
     0
 49
-1.0
 74
     0
  0
LTYPE
  5
D8
330
5
100
AcDbSymbolTableRecord
100
AcDbLinetypeTableRecord
  2
HIDDEN
 70
     0
  3
Hidden __ __ __ __ __ __ __ __ __ __ __ __ __ _
 72
    65
 73
     2
 40
9.524999999999998
 49
6.349999999999999
 74
     0
 49
-3.174999999999999
 74
     0
  0
LTYPE
  5
D9
330
5
100
AcDbSymbolTableRecord
100
AcDbLinetypeTableRecord
  2
PHANTOM2
 70
     0
  3
Phantom (.5x) ___ _ _ ___ _ _ ___ _ _ ___ _ _
 72
    65
 73
     6
 40
31.75
 49
15.875
 74
     0
 49
-3.174999999999999
 74
     0
 49
3.174999999999999
 74
     0
 49
-3.174999999999999
 74
     0
 49
3.174999999999999
 74
     0
 49
-3.174999999999999
 74
     0
  0
ENDTAB
  0
TABLE
  2
LAYER
  5
2
102
{ACAD_XDICTIONARY
360
3F9
102
}
330
0
100
AcDbSymbolTable
 70
     8
  0
LAYER
  5
10
330
2
100
AcDbSymbolTableRecord
100
AcDbLayerTableRecord
  2
0
 70
     0
 62
     7
  6
Continuous
370
    -3
390
F
  0
LAYER
  5
A20
330
2
100
AcDbSymbolTableRecord
100
AcDbLayerTableRecord
  2
AM_VIS
 70
     0
 62
     7
  6
Continuous
370
    50
390
F
  0
LAYER
  5
A21
330
2
100
AcDbSymbolTableRecord
100
AcDbLayerTableRecord
  2
AM_7
 70
     0
 62
     1
  6
CENTER
370
    25
390
F
  0
LAYER
  5
A22
330
2
100
AcDbSymbolTableRecord
100
AcDbLayerTableRecord
  2
AM_4
 70
     0
 62
     3
  6
Continuous
370
    25
390
F
  0
LAYER
  5
168E
330
2
100
AcDbSymbolTableRecord
100
AcDbLayerTableRecord
  2
AM_5
 70
     0
 62
     5
  6
Continuous
370
    50
390
F
  0
LAYER
  5
16A8
330
2
100
AcDbSymbolTableRecord
100
AcDbLayerTableRecord
  2
Defpoints
 70
     0
 62
     7
  6
Continuous
290
     0
370
    -3
390
F
  0
LAYER
  5
4025
330
2
100
AcDbSymbolTableRecord
100
AcDbLayerTableRecord
  2
LOGO
 70
     0
 62
     7
  6
Continuous
370
    -3
390
F
  0
LAYER
  5
4943
330
2
100
AcDbSymbolTableRecord
100
AcDbLayerTableRecord
  2
AM_10
 70
     0
 62
     7
  6
AM_ISO08W050
370
    50
390
F
  0
ENDTAB
  0
TABLE
  2
STYLE
  5
3
330
0
100
AcDbSymbolTable
 70
     7
  0
STYLE
  5
11
330
3
100
AcDbSymbolTableRecord
100
AcDbTextStyleTableRecord
  2
STANDARD
 70
     0
 40
0.0
 41
1.0
 50
0.0
 71
     0
 42
3.0
  3
ISOCP.SHX
  4
CHINESET.SHX
  0
STYLE
  5
6B
330
3
100
AcDbSymbolTableRecord
100
AcDbTextStyleTableRecord
  2

 70
     1
 40
0.0
 41
1.0
 50
0.0
 71
     0
 42
2.5
  3
ltypeshp.shx
  4

  0
STYLE
  5
6D
330
3
100
AcDbSymbolTableRecord
100
AcDbTextStyleTableRecord
  2
ACISOTS
 70
     0
 40
1.0
 41
1.0
 50
0.0
 71
     0
 42
1.0
  3
isocp.shx
  4
chineset.shx
  0
STYLE
  5
79
330
3
100
AcDbSymbolTableRecord
100
AcDbTextStyleTableRecord
  2
ACISOGDT
 70
     0
 40
0.0
 41
1.0
 50
0.0
 71
     0
 42
2.5
  3
amgdt.shx
  4
chineset.shx
  0
STYLE
  5
4026
330
3
100
AcDbSymbolTableRecord
100
AcDbTextStyleTableRecord
  2
CHINESET
 70
     0
 40
0.0
 41
1.0
 50
0.0
 71
     0
 42
3.0
  3
simplex.shx
  4
CHINESET.SHX
  0
ENDTAB
  0
TABLE
  2
VIEW
  5
6
330
0
100
AcDbSymbolTable
 70
     0
  0
ENDTAB
  0
TABLE
  2
UCS
  5
7
330
0
100
AcDbSymbolTable
 70
     0
  0
ENDTAB
  0
TABLE
  2
APPID
  5
9
330
0
100
AcDbSymbolTable
 70
    23
  0
APPID
  5
12
330
9
100
AcDbSymbolTableRecord
100
AcDbRegAppTableRecord
  2
ACAD
 70
     0
  0
APPID
  5
46
330
9
100
AcDbSymbolTableRecord
100
AcDbRegAppTableRecord
  2
MCAD_NO_VIS
 70
     0
  0
APPID
  5
47
330
9
100
AcDbSymbolTableRecord
100
AcDbRegAppTableRecord
  2
ACAD_TEMP_GRAPHIC
 70
     0
  0
APPID
  5
58
330
9
100
AcDbSymbolTableRecord
100
AcDbRegAppTableRecord
  2
ACATTRIBSERVICES
 70
     0
  0
APPID
  5
EE
330
9
100
AcDbSymbolTableRecord
100
AcDbRegAppTableRecord
  2
AD_DRAW
 70
     0
  0
APPID
  5
10C
330
9
100
AcDbSymbolTableRecord
100
AcDbRegAppTableRecord
  2
DESIGNERASSEMBLIES
 70
     0
  0
APPID
  5
111
330
9
100
AcDbSymbolTableRecord
100
AcDbRegAppTableRecord
  2
ACADM_DIM_EDIT
 70
     0
  0
APPID
  5
112
330
9
100
AcDbSymbolTableRecord
100
AcDbRegAppTableRecord
  2
AMDT_DM_ADJ
 70
     0
  0
APPID
  5
22C
330
9
100
AcDbSymbolTableRecord
100
AcDbRegAppTableRecord
  2
ACAD_DSTYLE_DIMTEXT_FILL
 70
     0
  0
APPID
  5
452
330
9
100
AcDbSymbolTableRecord
100
AcDbRegAppTableRecord
  2
GENIUS_GENOENT_13
 70
     0
  0
APPID
  5
453
330
9
100
AcDbSymbolTableRecord
100
AcDbRegAppTableRecord
  2
GENIUS_GENOBJ-N-CRS_13
 70
     0
  0
APPID
  5
454
330
9
100
AcDbSymbolTableRecord
100
AcDbRegAppTableRecord
  2
GENIUS_GENOLIS_13
 70
     0
  0
APPID
  5
455
330
9
100
AcDbSymbolTableRecord
100
AcDbRegAppTableRecord
  2
GENIUS_GENODEF_13
 70
     0
  0
APPID
  5
456
330
9
100
AcDbSymbolTableRecord
100
AcDbRegAppTableRecord
  2
GENIUS_GENOREF_13
 70
     0
  0
APPID
  5
6F3
330
9
100
AcDbSymbolTableRecord
100
AcDbRegAppTableRecord
  2
ACAD_PSEXT
 70
     0
  0
APPID
  5
808
330
9
100
AcDbSymbolTableRecord
100
AcDbRegAppTableRecord
  2
GENIUS_GENDTOL_13
 70
     0
  0
APPID
  5
167D
330
9
100
AcDbSymbolTableRecord
100
AcDbRegAppTableRecord
  2
GENIUS_GENOBJ-N-CEN_13
 70
     0
  0
APPID
  5
167E
330
9
100
AcDbSymbolTableRecord
100
AcDbRegAppTableRecord
  2
GENIUS_GENCEN_19
 70
     0
  0
APPID
  5
27A1
330
9
100
AcDbSymbolTableRecord
100
AcDbRegAppTableRecord
  2
GENIUS_GENOBJ-N-HTC_13
 70
     0
  0
APPID
  5
27A2
330
9
100
AcDbSymbolTableRecord
100
AcDbRegAppTableRecord
  2
GENIUS_GENHATCH_13
 70
     0
  0
APPID
  5
3FA1
330
9
100
AcDbSymbolTableRecord
100
AcDbRegAppTableRecord
  2
AcAecLayerStandard
 70
     0
  0
APPID
  5
3FDE
330
9
100
AcDbSymbolTableRecord
100
AcDbRegAppTableRecord
  2
GENIUS_GENREC_14
 70
     0
  0
APPID
  5
3FDF
330
9
100
AcDbSymbolTableRecord
100
AcDbRegAppTableRecord
  2
GENIUS_GENOBJ-N-REC_13
 70
     0
  0
ENDTAB
  0
TABLE
  2
DIMSTYLE
  5
A
330
0
100
AcDbSymbolTable
 70
    10
100
AcDbDimStyleTable
 71
     3
340
81
340
8B
340
86
  0
DIMSTYLE
105
81
330
A
100
AcDbSymbolTableRecord
100
AcDbDimStyleTableRecord
  2
AM_ISO
 70
     0
  4
"
 41
3.0
 42
1.0
 43
11.0
 44
1.5
 47
0.1
 48
0.1
 73
     0
 74
     0
 77
     1
 78
     8
 79
     2
140
3.5
141
0.0
143
0.0393701
146
0.6
147
0.7
172
     1
176
   256
177
   256
178
   256
271
     2
272
     2
283
     0
284
     8
340
11
371
    -1
372
    -1
  0
DIMSTYLE
105
82
330
A
100
AcDbSymbolTableRecord
100
AcDbDimStyleTableRecord
  2
AM_ISO$3
 70
     0
  4
"
 41
3.0
 42
1.0
 43
11.0
 44
1.5
 47
0.1
 48
0.1
 73
     0
 77
     1
 78
     8
 79
     2
140
3.5
141
0.0
143
0.0393701
146
0.6
147
0.7
176
   256
177
   256
178
   256
271
     2
272
     2
283
     0
284
     8
288
     1
289
     0
340
11
371
    -1
372
    -1
  0
DIMSTYLE
105
83
330
A
100
AcDbSymbolTableRecord
100
AcDbDimStyleTableRecord
  2
AM_ISO$4
 70
     0
  4
"
 41
3.0
 42
1.0
 43
11.0
 44
1.5
 47
0.1
 48
0.1
 73
     0
 77
     1
 78
     8
 79
     2
140
3.5
141
0.0
143
0.0393701
146
0.6
147
0.7
176
   256
177
   256
178
   256
271
     2
272
     2
283
     0
284
     8
288
     1
289
     0
340
11
371
    -1
372
    -1
  0
DIMSTYLE
105
84
330
A
100
AcDbSymbolTableRecord
100
AcDbDimStyleTableRecord
  2
AM_ISO$6
 70
     0
  4
"
 41
3.0
 42
1.0
 43
11.0
 44
1.5
 47
0.1
 48
0.1
 73
     0
 74
     0
 78
     8
 79
     2
140
3.5
141
0.0
143
0.0393701
146
0.6
147
0.7
172
     1
176
   256
177
   256
178
   256
271
     2
272
     2
283
     0
284
     8
340
11
371
    -1
372
    -1
  0
DIMSTYLE
105
85
330
A
100
AcDbSymbolTableRecord
100
AcDbDimStyleTableRecord
  2
AM_ISO$7
 70
     0
  4
"
 41
3.0
 42
1.0
 43
11.0
 44
1.5
 47
0.1
 48
0.1
 73
     0
 74
     0
 77
     1
 78
     8
 79
     2
140
5.0
141
0.0
143
0.0393701
146
0.6
147
0.7
172
     1
176
   256
177
   256
178
   256
271
     2
272
     2
283
     0
284
     8
340
11
371
    -1
372
    -1
  0
DIMSTYLE
105
86
330
A
100
AcDbSymbolTableRecord
100
AcDbDimStyleTableRecord
  2
AM_ISO$SF
 70
     0
  4
"
 41
2.5
 42
1.0
 43
10.0
 44
1.0
 47
0.1
 48
0.1
 73
     0
 74
     0
 75
     1
 76
     1
 77
     1
 78
     8
 79
     2
140
3.5
141
0.0
143
0.0393701
146
0.71
147
1.5
172
     1
176
   256
177
   256
178
     2
271
     2
272
     3
274
     4
283
     0
284
     8
340
11
371
    -1
372
    -1
  0
DIMSTYLE
105
8B
330
A
100
AcDbSymbolTableRecord
100
AcDbDimStyleTableRecord
  2
AM_ISO$SH
 70
     0
  4
"
 41
2.5
 42
1.0
 43
10.0
 44
1.0
 47
0.1
 48
0.1
 73
     0
 74
     0
 75
     1
 76
     1
 77
     1
 78
     8
 79
     2
140
3.5
141
0.0
143
0.0393701
144
2.0
146
0.71
147
1.5
172
     1
173
     1
176
   256
177
   256
178
     2
271
     2
272
     3
274
     4
283
     0
284
     8
340
11
343
87
371
    -1
372
    -1
  0
DIMSTYLE
105
40B
102
{ACAD_REACTORS
330
1802
330
171A
330
1912
330
17B6
330
1790
330
18C7
330
16CE
330
16F4
330
17DC
330
1885
330
4551
330
450D
330
45DD
330
45B7
102
}
330
A
100
AcDbSymbolTableRecord
100
AcDbDimStyleTableRecord
  2
AM_ISO$0
 70
     0
  4
"
 41
3.0
 42
1.0
 43
11.0
 44
1.5
 47
0.1
 48
0.1
 73
     0
 74
     0
 77
     1
 78
     8
 79
     2
140
3.5
141
0.0
143
0.0393701
146
0.6
147
0.7
172
     1
176
   256
177
   256
178
   256
271
     2
272
     2
283
     0
284
     8
340
11
371
    -1
372
    -1
  0
ENDTAB
  0
TABLE
  2
BLOCK_RECORD
  5
1
330
0
100
AcDbSymbolTable
 70
    24
  0
BLOCK_RECORD
  5
1F
102
{ACAD_XDICTIONARY
360
8F
102
}
330
1
100
AcDbSymbolTableRecord
100
AcDbBlockTableRecord
  2
*Model_Space
340
22
  0
BLOCK_RECORD
  5
1B
330
1
100
AcDbSymbolTableRecord
100
AcDbBlockTableRecord
  2
*Paper_Space
340
1E
  0
BLOCK_RECORD
  5
23
330
1
100
AcDbSymbolTableRecord
100
AcDbBlockTableRecord
  2
*Paper_Space0
340
26
  0
BLOCK_RECORD
  5
87
330
1
100
AcDbSymbolTableRecord
100
AcDbBlockTableRecord
  2
GENAXEH
340
0
  0
BLOCK_RECORD
  5
16CF
330
1
100
AcDbSymbolTableRecord
100
AcDbBlockTableRecord
  2
*D2
340
0
  0
BLOCK_RECORD
  5
16F5
330
1
100
AcDbSymbolTableRecord
100
AcDbBlockTableRecord
  2
*D3
340
0
  0
BLOCK_RECORD
  5
171B
330
1
100
AcDbSymbolTableRecord
100
AcDbBlockTableRecord
  2
*D4
340
0
  0
BLOCK_RECORD
  5
1791
330
1
100
AcDbSymbolTableRecord
100
AcDbBlockTableRecord
  2
*D5
340
0
  0
BLOCK_RECORD
  5
17B7
330
1
100
AcDbSymbolTableRecord
100
AcDbBlockTableRecord
  2
*D6
340
0
  0
BLOCK_RECORD
  5
17DD
330
1
100
AcDbSymbolTableRecord
100
AcDbBlockTableRecord
  2
*D7
340
0
  0
BLOCK_RECORD
  5
1803
330
1
100
AcDbSymbolTableRecord
100
AcDbBlockTableRecord
  2
*D8
340
0
  0
BLOCK_RECORD
  5
1886
330
1
100
AcDbSymbolTableRecord
100
AcDbBlockTableRecord
  2
*D9
340
0
  0
BLOCK_RECORD
  5
18C8
330
1
100
AcDbSymbolTableRecord
100
AcDbBlockTableRecord
  2
*D10
340
0
  0
BLOCK_RECORD
  5
1913
330
1
100
AcDbSymbolTableRecord
100
AcDbBlockTableRecord
  2
*D11
340
0
  0
BLOCK_RECORD
  5
4250
330
1
100
AcDbSymbolTableRecord
100
AcDbBlockTableRecord
  2
*S12
340
0
102
{BLKREFS
331
18E5
102
}
  0
BLOCK_RECORD
  5
4258
330
1
100
AcDbSymbolTableRecord
100
AcDbBlockTableRecord
  2
*S13
340
0
102
{BLKREFS
331
18FC
102
}
  0
BLOCK_RECORD
  5
4260
330
1
100
AcDbSymbolTableRecord
100
AcDbBlockTableRecord
  2
*S14
340
0
102
{BLKREFS
331
1947
102
}
  0
BLOCK_RECORD
  5
4268
330
1
100
AcDbSymbolTableRecord
100
AcDbBlockTableRecord
  2
*S15
340
0
102
{BLKREFS
331
34EA
102
}
  0
BLOCK_RECORD
  5
450E
330
1
100
AcDbSymbolTableRecord
100
AcDbBlockTableRecord
  2
*D16
340
0
  0
BLOCK_RECORD
  5
4552
330
1
100
AcDbSymbolTableRecord
100
AcDbBlockTableRecord
  2
*D17
340
0
  0
BLOCK_RECORD
  5
45B8
330
1
100
AcDbSymbolTableRecord
100
AcDbBlockTableRecord
  2
*D18
340
0
  0
BLOCK_RECORD
  5
45DE
330
1
100
AcDbSymbolTableRecord
100
AcDbBlockTableRecord
  2
*D19
340
0
  0
ENDTAB
  0
ENDSEC
  0
SECTION
  2
BLOCKS
  0
BLOCK
  5
20
330
1F
100
AcDbEntity
  8
0
100
AcDbBlockBegin
  2
*Model_Space
 70
     0
 10
0.0
 20
0.0
 30
0.0
  3
*Model_Space
  1

  0
ENDBLK
  5
21
330
1F
100
AcDbEntity
  8
0
100
AcDbBlockEnd
  0
BLOCK
  5
1C
330
1B
100
AcDbEntity
 67
     1
  8
0
100
AcDbBlockBegin
  2
*Paper_Space
 70
     0
 10
0.0
 20
0.0
 30
0.0
  3
*Paper_Space
  1

  0
ENDBLK
  5
1D
330
1B
100
AcDbEntity
 67
     1
  8
0
100
AcDbBlockEnd
  0
BLOCK
  5
24
330
23
100
AcDbEntity
  8
0
100
AcDbBlockBegin
  2
*Paper_Space0
 70
     0
 10
0.0
 20
0.0
 30
0.0
  3
*Paper_Space0
  1

  0
ENDBLK
  5
25
330
23
100
AcDbEntity
  8
0
100
AcDbBlockEnd
  0
BLOCK
  5
89
330
87
100
AcDbEntity
  8
0
100
AcDbBlockBegin
  2
GENAXEH
 70
     0
 10
0.0
 20
0.0
 30
0.0
  3
GENAXEH
  1

  0
LINE
  5
88
330
87
100
AcDbEntity
  8
0
100
AcDbLine
 10
-1.0
 20
0.0
 30
0.0
 11
1.0
 21
0.0
 31
0.0
  0
ENDBLK
  5
8A
330
87
100
AcDbEntity
  8
0
100
AcDbBlockEnd
  0
BLOCK
  5
16D9
330
16CF
100
AcDbEntity
  8
0
100
AcDbBlockBegin
  2
*D2
 70
     1
 10
0.0
 20
0.0
 30
0.0
  3
*D2
  1

  0
LINE
  5
4817
330
16CF
100
AcDbEntity
  8
AM_5
100
AcDbLine
 10
790.3566528759215
 20
1398.143565553092
 30
0.0
 11
742.8566528759215
 21
1398.143565553092
 31
0.0
  0
LINE
  5
4818
330
16CF
100
AcDbEntity
  8
AM_5
100
AcDbLine
 10
803.6066528759215
 20
1375.143565553092
 30
0.0
 11
742.8566528759215
 21
1375.143565553092
 31
0.0
  0
LINE
  5
4819
330
16CF
100
AcDbEntity
  8
AM_5
100
AcDbLine
 10
745.1066528759215
 20
1393.643565553092
 30
0.0
 11
745.1066528759215
 21
1379.643565553092
 31
0.0
  0
SOLID
  5
481A
330
16CF
100
AcDbEntity
  8
AM_5
100
AcDbTrace
 10
744.3566528759215
 20
1393.643565553092
 30
0.0
 11
745.8566528759215
 21
1393.643565553092
 31
0.0
 12
745.1066528759215
 22
1398.143565553092
 32
0.0
 13
745.1066528759215
 23
1398.143565553092
 33
0.0
  0
SOLID
  5
481B
330
16CF
100
AcDbEntity
  8
AM_5
100
AcDbTrace
 10
744.3566528759215
 20
1379.643565553092
 30
0.0
 11
745.8566528759215
 21
1379.643565553092
 31
0.0
 12
745.1066528759215
 22
1375.143565553092
 32
0.0
 13
745.1066528759215
 23
1375.143565553092
 33
0.0
  0
MTEXT
  5
481C
330
16CF
100
AcDbEntity
  8
AM_5
100
AcDbMText
 10
741.4311361436379
 20
1386.643565553092
 30
0.0
 40
5.25
 41
0.0
 71
     5
 72
     1
  1
23
 11
0.0000000000000001
 21
1.0
 31
0.0
 73
     1
 44
1.0
1001
ACAD
1000
MTEXTBEGIN
1070
    73
1070
     1
1070
    44
1040
1.0
1070
    74
1070
     0
1000
MTEXTEND
  0
POINT
  5
481D
330
16CF
100
AcDbEntity
  8
Defpoints
 62
     0
100
AcDbPoint
 10
791.8566528759215
 20
1398.143565553092
 30
0.0
  0
POINT
  5
481E
330
16CF
100
AcDbEntity
  8
Defpoints
 62
     0
100
AcDbPoint
 10
805.1066528759216
 20
1375.143565553092
 30
0.0
  0
POINT
  5
481F
330
16CF
100
AcDbEntity
  8
Defpoints
 62
     0
100
AcDbPoint
 10
745.1066528759215
 20
1375.143565553092
 30
0.0
  0
ENDBLK
  5
16DA
330
16CF
100
AcDbEntity
  8
0
100
AcDbBlockEnd
  0
BLOCK
  5
16FF
330
16F5
100
AcDbEntity
  8
0
100
AcDbBlockBegin
  2
*D3
 70
     1
 10
0.0
 20
0.0
 30
0.0
  3
*D3
  1

  0
LINE
  5
4820
330
16F5
100
AcDbEntity
  8
AM_5
100
AcDbLine
 10
789.1066528759215
 20
1398.793565553092
 30
0.0
 11
789.1066528759215
 21
1415.893565553092
 31
0.0
  0
LINE
  5
4821
330
16F5
100
AcDbEntity
  8
AM_5
100
AcDbLine
 10
819.1066528759215
 20
1398.793565553092
 30
0.0
 11
819.1066528759215
 21
1415.893565553092
 31
0.0
  0
LINE
  5
4822
330
16F5
100
AcDbEntity
  8
AM_5
100
AcDbLine
 10
793.6066528759215
 20
1413.643565553092
 30
0.0
 11
814.6066528759215
 21
1413.643565553092
 31
0.0
  0
SOLID
  5
4823
330
16F5
100
AcDbEntity
  8
AM_5
100
AcDbTrace
 10
793.6066528759215
 20
1414.393565553092
 30
0.0
 11
793.6066528759215
 21
1412.893565553092
 31
0.0
 12
789.1066528759215
 22
1413.643565553092
 32
0.0
 13
789.1066528759215
 23
1413.643565553092
 33
0.0
  0
SOLID
  5
4824
330
16F5
100
AcDbEntity
  8
AM_5
100
AcDbTrace
 10
814.6066528759215
 20
1414.393565553092
 30
0.0
 11
814.6066528759215
 21
1412.893565553092
 31
0.0
 12
819.1066528759215
 22
1413.643565553092
 32
0.0
 13
819.1066528759215
 23
1413.643565553092
 33
0.0
  0
MTEXT
  5
4825
330
16F5
100
AcDbEntity
  8
AM_5
100
AcDbMText
 10
804.1066528759214
 20
1417.318565553092
 30
0.0
 40
5.25
 41
0.0
 71
     5
 72
     1
  1
30
 73
     1
 44
1.0
1001
ACAD
1000
MTEXTBEGIN
1070
    73
1070
     1
1070
    44
1040
1.0
1070
    74
1070
     0
1000
MTEXTEND
  0
POINT
  5
4826
330
16F5
100
AcDbEntity
  8
Defpoints
 62
     0
100
AcDbPoint
 10
789.1066528759215
 20
1397.293565553092
 30
0.0
  0
POINT
  5
4827
330
16F5
100
AcDbEntity
  8
Defpoints
 62
     0
100
AcDbPoint
 10
819.1066528759215
 20
1397.293565553092
 30
0.0
  0
POINT
  5
4828
330
16F5
100
AcDbEntity
  8
Defpoints
 62
     0
100
AcDbPoint
 10
819.1066528759215
 20
1413.643565553092
 30
0.0
  0
ENDBLK
  5
1700
330
16F5
100
AcDbEntity
  8
0
100
AcDbBlockEnd
  0
BLOCK
  5
1725
330
171B
100
AcDbEntity
  8
0
100
AcDbBlockBegin
  2
*D4
 70
     1
 10
0.0
 20
0.0
 30
0.0
  3
*D4
  1

  0
LINE
  5
4829
330
171B
100
AcDbEntity
  8
AM_5
100
AcDbLine
 10
791.1066528759215
 20
1290.255236340808
 30
0.0
 11
791.1066528759215
 21
1275.555236340808
 31
0.0
  0
LINE
  5
482A
330
171B
100
AcDbEntity
  8
AM_5
100
AcDbLine
 10
817.1066528759215
 20
1290.255236340808
 30
0.0
 11
817.1066528759215
 21
1275.555236340808
 31
0.0
  0
LINE
  5
482B
330
171B
100
AcDbEntity
  8
AM_5
100
AcDbLine
 10
795.6066528759215
 20
1277.805236340808
 30
0.0
 11
812.6066528759215
 21
1277.805236340808
 31
0.0
  0
SOLID
  5
482C
330
171B
100
AcDbEntity
  8
AM_5
100
AcDbTrace
 10
795.6066528759215
 20
1278.555236340808
 30
0.0
 11
795.6066528759215
 21
1277.055236340808
 31
0.0
 12
791.1066528759215
 22
1277.805236340808
 32
0.0
 13
791.1066528759215
 23
1277.805236340808
 33
0.0
  0
SOLID
  5
482D
330
171B
100
AcDbEntity
  8
AM_5
100
AcDbTrace
 10
812.6066528759215
 20
1278.555236340808
 30
0.0
 11
812.6066528759215
 21
1277.055236340808
 31
0.0
 12
817.1066528759215
 22
1277.805236340808
 32
0.0
 13
817.1066528759215
 23
1277.805236340808
 33
0.0
  0
MTEXT
  5
482E
330
171B
100
AcDbEntity
  8
AM_5
100
AcDbMText
 10
804.1066528759214
 20
1281.480753073091
 30
0.0
 40
5.25
 41
0.0
 71
     5
 72
     1
  1
26
 73
     1
 44
1.0
1001
ACAD
1000
MTEXTBEGIN
1070
    73
1070
     1
1070
    44
1040
1.0
1070
    74
1070
     0
1000
MTEXTEND
  0
POINT
  5
482F
330
171B
100
AcDbEntity
  8
Defpoints
 62
     0
100
AcDbPoint
 10
791.1066528759215
 20
1291.755236340808
 30
0.0
  0
POINT
  5
4830
330
171B
100
AcDbEntity
  8
Defpoints
 62
     0
100
AcDbPoint
 10
817.1066528759215
 20
1291.755236340808
 30
0.0
  0
POINT
  5
4831
330
171B
100
AcDbEntity
  8
Defpoints
 62
     0
100
AcDbPoint
 10
817.1066528759215
 20
1277.805236340808
 30
0.0
  0
ENDBLK
  5
1726
330
171B
100
AcDbEntity
  8
0
100
AcDbBlockEnd
  0
BLOCK
  5
179B
330
1791
100
AcDbEntity
  8
0
100
AcDbBlockBegin
  2
*D5
 70
     1
 10
0.0
 20
0.0
 30
0.0
  3
*D5
  1

  0
LINE
  5
4832
330
1791
100
AcDbEntity
  8
AM_5
100
AcDbLine
 10
778.1066528759216
 20
1222.557677964921
 30
0.0
 11
778.1066528759216
 21
1203.457677964921
 31
0.0
  0
LINE
  5
4833
330
1791
100
AcDbEntity
  8
AM_5
100
AcDbLine
 10
804.1066528759214
 20
1222.557677964921
 30
0.0
 11
804.1066528759214
 21
1203.457677964921
 31
0.0
  0
LINE
  5
4834
330
1791
100
AcDbEntity
  8
AM_5
100
AcDbLine
 10
782.6066528759215
 20
1205.707677964921
 30
0.0
 11
799.6066528759215
 21
1205.707677964921
 31
0.0
  0
SOLID
  5
4835
330
1791
100
AcDbEntity
  8
AM_5
100
AcDbTrace
 10
782.6066528759215
 20
1206.457677964921
 30
0.0
 11
782.6066528759215
 21
1204.957677964921
 31
0.0
 12
778.1066528759216
 22
1205.707677964921
 32
0.0
 13
778.1066528759216
 23
1205.707677964921
 33
0.0
  0
SOLID
  5
4836
330
1791
100
AcDbEntity
  8
AM_5
100
AcDbTrace
 10
799.6066528759215
 20
1206.457677964921
 30
0.0
 11
799.6066528759215
 21
1204.957677964921
 31
0.0
 12
804.1066528759214
 22
1205.707677964921
 32
0.0
 13
804.1066528759214
 23
1205.707677964921
 33
0.0
  0
MTEXT
  5
4837
330
1791
100
AcDbEntity
  8
AM_5
100
AcDbMText
 10
791.1066528759215
 20
1209.383194697205
 30
0.0
 40
5.25
 41
0.0
 71
     5
 72
     1
  1
26
 73
     1
 44
1.0
1001
ACAD
1000
MTEXTBEGIN
1070
    73
1070
     1
1070
    44
1040
1.0
1070
    74
1070
     0
1000
MTEXTEND
  0
POINT
  5
4838
330
1791
100
AcDbEntity
  8
Defpoints
 62
     0
100
AcDbPoint
 10
778.1066528759216
 20
1224.057677964921
 30
0.0
  0
POINT
  5
4839
330
1791
100
AcDbEntity
  8
Defpoints
 62
     0
100
AcDbPoint
 10
804.1066528759214
 20
1224.057677964921
 30
0.0
  0
POINT
  5
483A
330
1791
100
AcDbEntity
  8
Defpoints
 62
     0
100
AcDbPoint
 10
804.1066528759214
 20
1205.707677964921
 30
0.0
  0
ENDBLK
  5
179C
330
1791
100
AcDbEntity
  8
0
100
AcDbBlockEnd
  0
BLOCK
  5
17C1
330
17B7
100
AcDbEntity
  8
0
100
AcDbBlockBegin
  2
*D6
 70
     1
 10
0.0
 20
0.0
 30
0.0
  3
*D6
  1

  0
LINE
  5
483B
330
17B7
100
AcDbEntity
  8
AM_5
100
AcDbLine
 10
804.1066528759214
 20
1222.557677964921
 30
0.0
 11
804.1066528759214
 21
1203.457677964921
 31
0.0
  0
LINE
  5
483C
330
17B7
100
AcDbEntity
  8
AM_5
100
AcDbLine
 10
830.1066528759216
 20
1222.557677964921
 30
0.0
 11
830.1066528759216
 21
1203.457677964921
 31
0.0
  0
LINE
  5
483D
330
17B7
100
AcDbEntity
  8
AM_5
100
AcDbLine
 10
808.6066528759214
 20
1205.707677964921
 30
0.0
 11
825.6066528759216
 21
1205.707677964921
 31
0.0
  0
SOLID
  5
483E
330
17B7
100
AcDbEntity
  8
AM_5
100
AcDbTrace
 10
808.6066528759214
 20
1206.457677964921
 30
0.0
 11
808.6066528759214
 21
1204.957677964921
 31
0.0
 12
804.1066528759214
 22
1205.707677964921
 32
0.0
 13
804.1066528759214
 23
1205.707677964921
 33
0.0
  0
SOLID
  5
483F
330
17B7
100
AcDbEntity
  8
AM_5
100
AcDbTrace
 10
825.6066528759216
 20
1206.457677964921
 30
0.0
 11
825.6066528759216
 21
1204.957677964921
 31
0.0
 12
830.1066528759216
 22
1205.707677964921
 32
0.0
 13
830.1066528759216
 23
1205.707677964921
 33
0.0
  0
MTEXT
  5
4840
330
17B7
100
AcDbEntity
  8
AM_5
100
AcDbMText
 10
817.1066528759215
 20
1209.383194697205
 30
0.0
 40
5.25
 41
0.0
 71
     5
 72
     1
  1
26
 73
     1
 44
1.0
1001
ACAD
1000
MTEXTBEGIN
1070
    73
1070
     1
1070
    44
1040
1.0
1070
    74
1070
     0
1000
MTEXTEND
  0
POINT
  5
4841
330
17B7
100
AcDbEntity
  8
Defpoints
 62
     0
100
AcDbPoint
 10
804.1066528759214
 20
1224.057677964921
 30
0.0
  0
POINT
  5
4842
330
17B7
100
AcDbEntity
  8
Defpoints
 62
     0
100
AcDbPoint
 10
830.1066528759216
 20
1224.057677964921
 30
0.0
  0
POINT
  5
4843
330
17B7
100
AcDbEntity
  8
Defpoints
 62
     0
100
AcDbPoint
 10
830.1066528759216
 20
1205.707677964921
 30
0.0
  0
ENDBLK
  5
17C2
330
17B7
100
AcDbEntity
  8
0
100
AcDbBlockEnd
  0
BLOCK
  5
17E7
330
17DD
100
AcDbEntity
  8
0
100
AcDbBlockBegin
  2
*D7
 70
     1
 10
0.0
 20
0.0
 30
0.0
  3
*D7
  1

  0
LINE
  5
4844
330
17DD
100
AcDbEntity
  8
AM_5
100
AcDbLine
 10
866.6066528759214
 20
1291.805236340807
 30
0.0
 11
879.3566528759216
 21
1291.805236340807
 31
0.0
  0
LINE
  5
4845
330
17DD
100
AcDbEntity
  8
AM_5
100
AcDbLine
 10
866.6066528759214
 20
1338.205236340807
 30
0.0
 11
879.3566528759216
 21
1338.205236340807
 31
0.0
  0
LINE
  5
4846
330
17DD
100
AcDbEntity
  8
AM_5
100
AcDbLine
 10
877.1066528759215
 20
1296.305236340807
 30
0.0
 11
877.1066528759215
 21
1333.705236340807
 31
0.0
  0
SOLID
  5
4847
330
17DD
100
AcDbEntity
  8
AM_5
100
AcDbTrace
 10
876.3566528759215
 20
1296.305236340807
 30
0.0
 11
877.8566528759215
 21
1296.305236340807
 31
0.0
 12
877.1066528759215
 22
1291.805236340807
 32
0.0
 13
877.1066528759215
 23
1291.805236340807
 33
0.0
  0
SOLID
  5
4848
330
17DD
100
AcDbEntity
  8
AM_5
100
AcDbTrace
 10
876.3566528759215
 20
1333.705236340807
 30
0.0
 11
877.8566528759215
 21
1333.705236340807
 31
0.0
 12
877.1066528759215
 22
1338.205236340807
 32
0.0
 13
877.1066528759215
 23
1338.205236340807
 33
0.0
  0
MTEXT
  5
4849
330
17DD
100
AcDbEntity
  8
AM_5
100
AcDbMText
 10
873.4316528759213
 20
1315.005236340808
 30
0.0
 40
5.25
 41
0.0
 71
     5
 72
     1
  1
46.4
 11
0.0000000000000001
 21
1.0
 31
0.0
 73
     1
 44
1.0
1001
ACAD
1000
MTEXTBEGIN
1070
    73
1070
     1
1070
    44
1040
1.0
1070
    74
1070
     0
1000
MTEXTEND
  0
POINT
  5
484A
330
17DD
100
AcDbEntity
  8
Defpoints
 62
     0
100
AcDbPoint
 10
865.1066528759216
 20
1291.805236340807
 30
0.0
  0
POINT
  5
484B
330
17DD
100
AcDbEntity
  8
Defpoints
 62
     0
100
AcDbPoint
 10
865.1066528759216
 20
1338.205236340807
 30
0.0
  0
POINT
  5
484C
330
17DD
100
AcDbEntity
  8
Defpoints
 62
     0
100
AcDbPoint
 10
877.1066528759215
 20
1338.205236340807
 30
0.0
  0
ENDBLK
  5
17E8
330
17DD
100
AcDbEntity
  8
0
100
AcDbBlockEnd
  0
BLOCK
  5
180D
330
1803
100
AcDbEntity
  8
0
100
AcDbBlockBegin
  2
*D8
 70
     1
 10
0.0
 20
0.0
 30
0.0
  3
*D8
  1

  0
LINE
  5
484D
330
1803
100
AcDbEntity
  8
AM_5
100
AcDbLine
 10
759.1066528759215
 20
1291.305236340807
 30
0.0
 11
759.1066528759215
 21
1264.555236340808
 31
0.0
  0
LINE
  5
484E
330
1803
100
AcDbEntity
  8
AM_5
100
AcDbLine
 10
865.1066528759216
 20
1290.305236340807
 30
0.0
 11
865.1066528759216
 21
1264.555236340808
 31
0.0
  0
LINE
  5
484F
330
1803
100
AcDbEntity
  8
AM_5
100
AcDbLine
 10
763.6066528759215
 20
1266.805236340808
 30
0.0
 11
860.6066528759216
 21
1266.805236340808
 31
0.0
  0
SOLID
  5
4850
330
1803
100
AcDbEntity
  8
AM_5
100
AcDbTrace
 10
763.6066528759215
 20
1267.555236340808
 30
0.0
 11
763.6066528759215
 21
1266.055236340808
 31
0.0
 12
759.1066528759215
 22
1266.805236340808
 32
0.0
 13
759.1066528759215
 23
1266.805236340808
 33
0.0
  0
SOLID
  5
4851
330
1803
100
AcDbEntity
  8
AM_5
100
AcDbTrace
 10
860.6066528759216
 20
1267.555236340808
 30
0.0
 11
860.6066528759216
 21
1266.055236340808
 31
0.0
 12
865.1066528759216
 22
1266.805236340808
 32
0.0
 13
865.1066528759216
 23
1266.805236340808
 33
0.0
  0
MTEXT
  5
4852
330
1803
100
AcDbEntity
  8
AM_5
100
AcDbMText
 10
812.1066528759214
 20
1270.480236340808
 30
0.0
 40
5.25
 41
0.0
 71
     5
 72
     1
  1
106
 73
     1
 44
1.0
1001
ACAD
1000
MTEXTBEGIN
1070
    73
1070
     1
1070
    44
1040
1.0
1070
    74
1070
     0
1000
MTEXTEND
  0
POINT
  5
4853
330
1803
100
AcDbEntity
  8
Defpoints
 62
     0
100
AcDbPoint
 10
759.1066528759215
 20
1292.805236340808
 30
0.0
  0
POINT
  5
4854
330
1803
100
AcDbEntity
  8
Defpoints
 62
     0
100
AcDbPoint
 10
865.1066528759216
 20
1291.805236340807
 30
0.0
  0
POINT
  5
4855
330
1803
100
AcDbEntity
  8
Defpoints
 62
     0
100
AcDbPoint
 10
865.1066528759216
 20
1266.805236340808
 30
0.0
  0
ENDBLK
  5
180E
330
1803
100
AcDbEntity
  8
0
100
AcDbBlockEnd
  0
BLOCK
  5
1890
330
1886
100
AcDbEntity
  8
0
100
AcDbBlockBegin
  2
*D9
 70
     1
 10
0.0
 20
0.0
 30
0.0
  3
*D9
  1

  0
LINE
  5
4856
330
1886
100
AcDbEntity
  8
AM_5
100
AcDbLine
 10
906.6028022653151
 20
1291.805236340807
 30
0.0
 11
893.852802265315
 21
1291.805236340807
 31
0.0
  0
LINE
  5
4857
330
1886
100
AcDbEntity
  8
AM_5
100
AcDbLine
 10
914.7528022653149
 20
1308.805236340808
 30
0.0
 11
893.852802265315
 21
1308.805236340808
 31
0.0
  0
LINE
  5
4858
330
1886
100
AcDbEntity
  8
AM_5
100
AcDbLine
 10
896.1028022653151
 20
1296.305236340807
 30
0.0
 11
896.1028022653151
 21
1304.305236340807
 31
0.0
  0
SOLID
  5
4859
330
1886
100
AcDbEntity
  8
AM_5
100
AcDbTrace
 10
895.352802265315
 20
1296.305236340807
 30
0.0
 11
896.8528022653151
 21
1296.305236340807
 31
0.0
 12
896.1028022653151
 22
1291.805236340807
 32
0.0
 13
896.1028022653151
 23
1291.805236340807
 33
0.0
  0
SOLID
  5
485A
330
1886
100
AcDbEntity
  8
AM_5
100
AcDbTrace
 10
895.352802265315
 20
1304.305236340807
 30
0.0
 11
896.8528022653151
 21
1304.305236340807
 31
0.0
 12
896.1028022653151
 22
1308.805236340808
 32
0.0
 13
896.1028022653151
 23
1308.805236340808
 33
0.0
  0
MTEXT
  5
485B
330
1886
100
AcDbEntity
  8
AM_5
100
AcDbMText
 10
892.4278022653149
 20
1300.305236340808
 30
0.0
 40
5.25
 41
0.0
 71
     5
 72
     1
  1
17
 11
0.0000000000000001
 21
1.0
 31
0.0
 73
     1
 44
1.0
1001
ACAD
1000
MTEXTBEGIN
1070
    73
1070
     1
1070
    44
1040
1.0
1070
    74
1070
     0
1000
MTEXTEND
  0
POINT
  5
485C
330
1886
100
AcDbEntity
  8
Defpoints
 62
     0
100
AcDbPoint
 10
908.102802265315
 20
1291.805236340807
 30
0.0
  0
POINT
  5
485D
330
1886
100
AcDbEntity
  8
Defpoints
 62
     0
100
AcDbPoint
 10
916.252802265315
 20
1308.805236340808
 30
0.0
  0
POINT
  5
485E
330
1886
100
AcDbEntity
  8
Defpoints
 62
     0
100
AcDbPoint
 10
896.1028022653151
 20
1308.805236340808
 30
0.0
  0
ENDBLK
  5
1891
330
1886
100
AcDbEntity
  8
0
100
AcDbBlockEnd
  0
BLOCK
  5
18D2
330
18C8
100
AcDbEntity
  8
0
100
AcDbBlockBegin
  2
*D10
 70
     1
 10
0.0
 20
0.0
 30
0.0
  3
*D10
  1

  0
LINE
  5
485F
330
18C8
100
AcDbEntity
  8
AM_5
100
AcDbLine
 10
758.6066528759215
 20
1371.643565553092
 30
0.0
 11
731.8566528759215
 21
1371.643565553092
 31
0.0
  0
LINE
  5
4860
330
18C8
100
AcDbEntity
  8
AM_5
100
AcDbLine
 10
758.6066528759215
 20
1401.643565553092
 30
0.0
 11
731.8566528759215
 21
1401.643565553092
 31
0.0
  0
LINE
  5
4861
330
18C8
100
AcDbEntity
  8
AM_5
100
AcDbLine
 10
734.1066528759215
 20
1376.143565553092
 30
0.0
 11
734.1066528759215
 21
1397.143565553092
 31
0.0
  0
SOLID
  5
4862
330
18C8
100
AcDbEntity
  8
AM_5
100
AcDbTrace
 10
733.3566528759215
 20
1376.143565553092
 30
0.0
 11
734.8566528759215
 21
1376.143565553092
 31
0.0
 12
734.1066528759215
 22
1371.643565553092
 32
0.0
 13
734.1066528759215
 23
1371.643565553092
 33
0.0
  0
SOLID
  5
4863
330
18C8
100
AcDbEntity
  8
AM_5
100
AcDbTrace
 10
733.3566528759215
 20
1397.143565553092
 30
0.0
 11
734.8566528759215
 21
1397.143565553092
 31
0.0
 12
734.1066528759215
 22
1401.643565553092
 32
0.0
 13
734.1066528759215
 23
1401.643565553092
 33
0.0
  0
MTEXT
  5
4864
330
18C8
100
AcDbEntity
  8
AM_5
100
AcDbMText
 10
730.4316528759214
 20
1386.643565553092
 30
0.0
 40
5.25
 41
0.0
 71
     5
 72
     1
  1
30
 11
0.0000000000000001
 21
1.0
 31
0.0
 73
     1
 44
1.0
1001
ACAD
1000
MTEXTBEGIN
1070
    73
1070
     1
1070
    44
1040
1.0
1070
    74
1070
     0
1000
MTEXTEND
  0
POINT
  5
4865
330
18C8
100
AcDbEntity
  8
Defpoints
 62
     0
100
AcDbPoint
 10
760.1066528759215
 20
1371.643565553092
 30
0.0
  0
POINT
  5
4866
330
18C8
100
AcDbEntity
  8
Defpoints
 62
     0
100
AcDbPoint
 10
760.1066528759215
 20
1401.643565553092
 30
0.0
  0
POINT
  5
4867
330
18C8
100
AcDbEntity
  8
Defpoints
 62
     0
100
AcDbPoint
 10
734.1066528759215
 20
1401.643565553092
 30
0.0
  0
ENDBLK
  5
18D3
330
18C8
100
AcDbEntity
  8
0
100
AcDbBlockEnd
  0
BLOCK
  5
191F
330
1913
100
AcDbEntity
  8
0
100
AcDbBlockBegin
  2
*D11
 70
     1
 10
0.0
 20
0.0
 30
0.0
  3
*D11
  1

  0
LINE
  5
4868
330
1913
100
AcDbEntity
  8
AM_5
100
AcDbLine
 10
758.6066528759215
 20
1291.805236340807
 30
0.0
 11
742.8566528759217
 21
1291.805236340807
 31
0.0
  0
LINE
  5
4869
330
1913
100
AcDbEntity
  8
AM_5
100
AcDbLine
 10
784.8566528759215
 20
1296.505236340808
 30
0.0
 11
742.8566528759217
 21
1296.505236340808
 31
0.0
  0
LINE
  5
486A
330
1913
100
AcDbEntity
  8
AM_5
100
AcDbLine
 10
745.1066528759217
 20
1287.305236340807
 30
0.0
 11
745.1066528759217
 21
1282.805236340808
 31
0.0
  0
LINE
  5
486B
330
1913
100
AcDbEntity
  8
AM_5
100
AcDbLine
 10
745.1066528759217
 20
1301.005236340808
 30
0.0
 11
745.1066528759217
 21
1315.480236340807
 31
0.0
  0
LINE
  5
486C
330
1913
100
AcDbEntity
  8
AM_5
100
AcDbLine
 10
745.1066528759217
 20
1291.805236340807
 30
0.0
 11
745.1066528759217
 21
1296.505236340808
 31
0.0
  0
SOLID
  5
486D
330
1913
100
AcDbEntity
  8
AM_5
100
AcDbTrace
 10
744.3566528759218
 20
1287.305236340807
 30
0.0
 11
745.8566528759217
 21
1287.305236340807
 31
0.0
 12
745.1066528759217
 22
1291.805236340807
 32
0.0
 13
745.1066528759217
 23
1291.805236340807
 33
0.0
  0
SOLID
  5
486E
330
1913
100
AcDbEntity
  8
AM_5
100
AcDbTrace
 10
744.3566528759218
 20
1301.005236340808
 30
0.0
 11
745.8566528759217
 21
1301.005236340808
 31
0.0
 12
745.1066528759217
 22
1296.505236340808
 32
0.0
 13
745.1066528759217
 23
1296.505236340808
 33
0.0
  0
MTEXT
  5
486F
330
1913
100
AcDbEntity
  8
AM_5
100
AcDbMText
 10
741.4316528759216
 20
1310.492736340808
 30
0.0
 40
5.25
 41
0.0
 71
     5
 72
     1
  1
4.7
 11
0.0000000000000001
 21
1.0
 31
0.0
 73
     1
 44
1.0
1001
ACAD
1000
MTEXTBEGIN
1070
    73
1070
     1
1070
    44
1040
1.0
1070
    74
1070
     0
1000
MTEXTEND
  0
POINT
  5
4870
330
1913
100
AcDbEntity
  8
Defpoints
 62
     0
100
AcDbPoint
 10
760.1066528759215
 20
1291.805236340807
 30
0.0
  0
POINT
  5
4871
330
1913
100
AcDbEntity
  8
Defpoints
 62
     0
100
AcDbPoint
 10
786.3566528759215
 20
1296.505236340808
 30
0.0
  0
POINT
  5
4872
330
1913
100
AcDbEntity
  8
Defpoints
 62
     0
100
AcDbPoint
 10
745.1066528759217
 20
1296.505236340808
 30
0.0
  0
ENDBLK
  5
1920
330
1913
100
AcDbEntity
  8
0
100
AcDbBlockEnd
  0
BLOCK
  5
4255
330
4250
100
AcDbEntity
  8
0
100
AcDbBlockBegin
  2
*S12
 70
     1
 10
0.0
 20
0.0
 30
0.0
  3
*S12
  1

  0
LINE
  5
4251
330
4250
100
AcDbEntity
  8
AM_5
 62
     5
100
AcDbLine
 10
877.08166925305
 20
1224.582328367172
 30
0.0
 11
849.351867613312
 21
1224.582328367172
 31
0.0
  0
LINE
  5
4252
330
4250
100
AcDbEntity
  8
AM_5
 62
     5
100
AcDbLine
 10
849.351867613312
 20
1224.582328367172
 30
0.0
 11
841.8849742217378
 21
1243.533400708122
 31
0.0
  0
TRACE
  5
4253
330
4250
100
AcDbEntity
  8
AM_5
 62
     5
370
    35
100
AcDbTrace
 10
842.5280345402645
 20
1243.786772272348
 30
0.0
 11
841.2419139032111
 21
1243.280029143895
 31
0.0
 12
839.9604261121321
 22
1248.417928789095
 32
0.0
 13
839.9604261121321
 23
1248.417928789095
 33
0.0
  0
MTEXT
  5
4254
330
4250
100
AcDbEntity
  8
AM_5
 62
     5
100
AcDbMText
 10
877.08166925305
 20
1223.371118603575
 30
0.0
 40
5.25
 41
0.0
 71
     7
 72
     5
  1

  7
ACISOTS
 73
     1
 44
1.0
1001
ACAD
1000
MTEXTBEGIN
1070
    73
1070
     1
1070
    44
1040
1.0
1070
    74
1070
     0
1000
MTEXTEND
  0
ENDBLK
  5
4256
330
4250
100
AcDbEntity
  8
0
100
AcDbBlockEnd
  0
BLOCK
  5
425D
330
4258
100
AcDbEntity
  8
0
100
AcDbBlockBegin
  2
*S13
 70
     1
 10
0.0
 20
0.0
 30
0.0
  3
*S13
  1

  0
LINE
  5
4259
330
4258
100
AcDbEntity
  8
AM_5
 62
     5
100
AcDbLine
 10
885.6342330063755
 20
1298.675012225899
 30
0.0
 11
907.6322500416971
 21
1298.675012225899
 31
0.0
  0
LINE
  5
425A
330
4258
100
AcDbEntity
  8
AM_5
 62
     5
100
AcDbLine
 10
907.6322500416971
 20
1298.675012225899
 30
0.0
 11
917.604957835641
 21
1320.76280164027
 31
0.0
  0
TRACE
  5
425B
330
4258
100
AcDbEntity
  8
AM_5
 62
     5
370
    35
100
AcDbTrace
 10
918.2349008829495
 20
1320.478380333105
 30
0.0
 11
916.9750147883325
 21
1321.047222947436
 31
0.0
 12
919.76535215893
 22
1325.547694153995
 32
0.0
 13
919.76535215893
 23
1325.547694153995
 33
0.0
  0
MTEXT
  5
425C
330
4258
100
AcDbEntity
  8
AM_5
 62
     5
100
AcDbMText
 10
885.6342330063755
 20
1293.920622191539
 30
0.0
 40
5.25
 41
0.0
 71
     7
 72
     5
  1

  7
ACISOTS
210
0.0
220
0.0
230
-1.0
 11
-1.0
 21
0.0
 31
0.0
 73
     1
 44
1.0
1001
ACAD
1000
MTEXTBEGIN
1070
    73
1070
     1
1070
    44
1040
1.0
1070
    74
1070
     0
1000
MTEXTEND
  0
ENDBLK
  5
425E
330
4258
100
AcDbEntity
  8
0
100
AcDbBlockEnd
  0
BLOCK
  5
4265
330
4260
100
AcDbEntity
  8
0
100
AcDbBlockBegin
  2
*S14
 70
     1
 10
0.0
 20
0.0
 30
0.0
  3
*S14
  1

  0
LINE
  5
4261
330
4260
100
AcDbEntity
  8
AM_5
 62
     5
100
AcDbLine
 10
857.2017903355558
 20
1296.673141455765
 30
0.0
 11
834.3227674211844
 21
1296.673141455765
 31
0.0
  0
LINE
  5
4262
330
4260
100
AcDbEntity
  8
AM_5
 62
     5
100
AcDbLine
 10
834.3227674211844
 20
1296.673141455765
 30
0.0
 11
826.0577107312709
 21
1309.928687295812
 31
0.0
  0
TRACE
  5
4263
330
4260
100
AcDbEntity
  8
AM_5
 62
     5
370
    35
100
AcDbTrace
 10
826.6442170878196
 20
1310.294383913995
 30
0.0
 11
825.4712043747224
 21
1309.56299067763
 31
0.0
 12
823.2799691273076
 22
1314.383645385583
 32
0.0
 13
823.2799691273076
 23
1314.383645385583
 33
0.0
  0
MTEXT
  5
4264
330
4260
100
AcDbEntity
  8
AM_5
 62
     5
100
AcDbMText
 10
857.2017903355558
 20
1291.732153827863
 30
0.0
 40
5.25
 41
0.0
 71
     7
 72
     5
  1

  7
ACISOTS
 73
     1
 44
1.0
1001
ACAD
1000
MTEXTBEGIN
1070
    73
1070
     1
1070
    44
1040
1.0
1070
    74
1070
     0
1000
MTEXTEND
  0
ENDBLK
  5
4266
330
4260
100
AcDbEntity
  8
0
100
AcDbBlockEnd
  0
BLOCK
  5
426D
330
4268
100
AcDbEntity
  8
0
100
AcDbBlockBegin
  2
*S15
 70
     1
 10
0.0
 20
0.0
 30
0.0
  3
*S15
  1

  0
LINE
  5
4269
330
4268
100
AcDbEntity
  8
AM_5
 62
     5
100
AcDbLine
 10
756.6892797591085
 20
1434.242341378296
 30
0.0
 11
782.4452162180675
 21
1434.242341378296
 31
0.0
  0
LINE
  5
426A
330
4268
100
AcDbEntity
  8
AM_5
 62
     5
100
AcDbLine
 10
782.4452162180675
 20
1434.242341378296
 30
0.0
 11
796.0338459079912
 21
1423.045442272694
 31
0.0
  0
TRACE
  5
426B
330
4268
100
AcDbEntity
  8
AM_5
 62
     5
370
    35
100
AcDbTrace
 10
795.5943140815253
 20
1422.512023585033
 30
0.0
 11
796.473377734457
 21
1423.578860960354
 31
0.0
 12
800.0855631166723
 22
1419.706866579247
 32
0.0
 13
800.0855631166723
 23
1419.706866579247
 33
0.0
  0
MTEXT
  5
426C
330
4268
100
AcDbEntity
  8
AM_5
 62
     5
100
AcDbMText
 10
756.6892797591085
 20
1429.301353750394
 30
0.0
 40
5.25
 41
0.0
 71
     7
 72
     5
  1

  7
ACISOTS
210
0.0
220
0.0
230
-1.0
 11
-1.0
 21
0.0
 31
0.0
 73
     1
 44
1.0
1001
ACAD
1000
MTEXTBEGIN
1070
    73
1070
     1
1070
    44
1040
1.0
1070
    74
1070
     0
1000
MTEXTEND
  0
ENDBLK
  5
426E
330
4268
100
AcDbEntity
  8
0
100
AcDbBlockEnd
  0
BLOCK
  5
451A
330
450E
100
AcDbEntity
  8
0
100
AcDbBlockBegin
  2
*D16
 70
     1
 10
0.0
 20
0.0
 30
0.0
  3
*D16
  1

  0
LINE
  5
4873
330
450E
100
AcDbEntity
  8
AM_5
100
AcDbLine
 10
816.1066528759215
 20
1338.205236340807
 30
0.0
 11
824.4571848708828
 21
1338.205236340807
 31
0.0
  0
LINE
  5
4874
330
450E
100
AcDbEntity
  8
AM_5
100
AcDbLine
 10
816.1066528759215
 20
1334.205236340807
 30
0.0
 11
824.4571848708828
 21
1334.205236340807
 31
0.0
  0
LINE
  5
4875
330
450E
100
AcDbEntity
  8
AM_5
100
AcDbLine
 10
822.2071848708829
 20
1329.705236340807
 30
0.0
 11
822.2071848708829
 21
1325.205236340807
 31
0.0
  0
LINE
  5
4876
330
450E
100
AcDbEntity
  8
AM_5
100
AcDbLine
 10
822.2071848708829
 20
1342.705236340807
 30
0.0
 11
822.2071848708829
 21
1351.930236340807
 31
0.0
  0
LINE
  5
4877
330
450E
100
AcDbEntity
  8
AM_5
100
AcDbLine
 10
822.2071848708829
 20
1334.205236340807
 30
0.0
 11
822.2071848708829
 21
1338.205236340807
 31
0.0
  0
SOLID
  5
4878
330
450E
100
AcDbEntity
  8
AM_5
100
AcDbTrace
 10
821.4571848708828
 20
1329.705236340807
 30
0.0
 11
822.9571848708829
 21
1329.705236340807
 31
0.0
 12
822.2071848708829
 22
1334.205236340807
 32
0.0
 13
822.2071848708829
 23
1334.205236340807
 33
0.0
  0
SOLID
  5
4879
330
450E
100
AcDbEntity
  8
AM_5
100
AcDbTrace
 10
821.4571848708828
 20
1342.705236340807
 30
0.0
 11
822.9571848708829
 21
1342.705236340807
 31
0.0
 12
822.2071848708829
 22
1338.205236340807
 32
0.0
 13
822.2071848708829
 23
1338.205236340807
 33
0.0
  0
MTEXT
  5
487A
330
450E
100
AcDbEntity
  8
AM_5
100
AcDbMText
 10
818.5321848708827
 20
1349.567736340808
 30
0.0
 40
5.25
 41
0.0
 71
     5
 72
     1
  1
4
 11
0.0000000000000001
 21
1.0
 31
0.0
 73
     1
 44
1.0
1001
ACAD
1000
MTEXTBEGIN
1070
    73
1070
     1
1070
    44
1040
1.0
1070
    74
1070
     0
1000
MTEXTEND
  0
POINT
  5
487B
330
450E
100
AcDbEntity
  8
Defpoints
 62
     0
100
AcDbPoint
 10
814.6066528759215
 20
1338.205236340807
 30
0.0
  0
POINT
  5
487C
330
450E
100
AcDbEntity
  8
Defpoints
 62
     0
100
AcDbPoint
 10
814.6066528759215
 20
1334.205236340807
 30
0.0
  0
POINT
  5
487D
330
450E
100
AcDbEntity
  8
Defpoints
 62
     0
100
AcDbPoint
 10
822.2071848708829
 20
1334.205236340807
 30
0.0
  0
ENDBLK
  5
451B
330
450E
100
AcDbEntity
  8
0
100
AcDbBlockEnd
  0
BLOCK
  5
455C
330
4552
100
AcDbEntity
  8
0
100
AcDbBlockBegin
  2
*D17
 70
     1
 10
0.0
 20
0.0
 30
0.0
  3
*D17
  1

  0
LINE
  5
487E
330
4552
100
AcDbEntity
  8
AM_5
100
AcDbLine
 10
759.1066528759215
 20
1291.305236340807
 30
0.0
 11
759.1066528759215
 21
1275.555236340808
 31
0.0
  0
LINE
  5
487F
330
4552
100
AcDbEntity
  8
AM_5
100
AcDbLine
 10
791.1066528759215
 20
1289.255236340808
 30
0.0
 11
791.1066528759215
 21
1275.555236340808
 31
0.0
  0
LINE
  5
4880
330
4552
100
AcDbEntity
  8
AM_5
100
AcDbLine
 10
763.6066528759215
 20
1277.805236340808
 30
0.0
 11
786.6066528759215
 21
1277.805236340808
 31
0.0
  0
SOLID
  5
4881
330
4552
100
AcDbEntity
  8
AM_5
100
AcDbTrace
 10
763.6066528759215
 20
1278.555236340808
 30
0.0
 11
763.6066528759215
 21
1277.055236340808
 31
0.0
 12
759.1066528759215
 22
1277.805236340808
 32
0.0
 13
759.1066528759215
 23
1277.805236340808
 33
0.0
  0
SOLID
  5
4882
330
4552
100
AcDbEntity
  8
AM_5
100
AcDbTrace
 10
786.6066528759215
 20
1278.555236340808
 30
0.0
 11
786.6066528759215
 21
1277.055236340808
 31
0.0
 12
791.1066528759215
 22
1277.805236340808
 32
0.0
 13
791.1066528759215
 23
1277.805236340808
 33
0.0
  0
MTEXT
  5
4883
330
4552
100
AcDbEntity
  8
AM_5
100
AcDbMText
 10
775.1066528759215
 20
1281.480753073091
 30
0.0
 40
5.25
 41
0.0
 71
     5
 72
     1
  1
32
 73
     1
 44
1.0
1001
ACAD
1000
MTEXTBEGIN
1070
    73
1070
     1
1070
    44
1040
1.0
1070
    74
1070
     0
1000
MTEXTEND
  0
POINT
  5
4884
330
4552
100
AcDbEntity
  8
Defpoints
 62
     0
100
AcDbPoint
 10
759.1066528759215
 20
1292.805236340808
 30
0.0
  0
POINT
  5
4885
330
4552
100
AcDbEntity
  8
Defpoints
 62
     0
100
AcDbPoint
 10
791.1066528759215
 20
1290.755236340807
 30
0.0
  0
POINT
  5
4886
330
4552
100
AcDbEntity
  8
Defpoints
 62
     0
100
AcDbPoint
 10
791.1066528759215
 20
1277.805236340808
 30
0.0
  0
ENDBLK
  5
455D
330
4552
100
AcDbEntity
  8
0
100
AcDbBlockEnd
  0
BLOCK
  5
45C2
330
45B8
100
AcDbEntity
  8
0
100
AcDbBlockBegin
  2
*D18
 70
     1
 10
0.0
 20
0.0
 30
0.0
  3
*D18
  1

  0
LINE
  5
4887
330
45B8
100
AcDbEntity
  8
AM_5
100
AcDbLine
 10
797.6066528759215
 20
1392.393565553092
 30
0.0
 11
797.6066528759215
 21
1357.393564553092
 31
0.0
  0
LINE
  5
4888
330
45B8
100
AcDbEntity
  8
AM_5
100
AcDbLine
 10
810.6066528759216
 20
1368.143565553092
 30
0.0
 11
810.6066528759216
 21
1357.393564553092
 31
0.0
  0
LINE
  5
4889
330
45B8
100
AcDbEntity
  8
AM_5
100
AcDbLine
 10
802.1066528759215
 20
1359.643564553092
 30
0.0
 11
806.1066528759216
 21
1359.643564553092
 31
0.0
  0
SOLID
  5
488A
330
45B8
100
AcDbEntity
  8
AM_5
100
AcDbTrace
 10
802.1066528759215
 20
1360.393564553092
 30
0.0
 11
802.1066528759215
 21
1358.893564553092
 31
0.0
 12
797.6066528759215
 22
1359.643564553092
 32
0.0
 13
797.6066528759215
 23
1359.643564553092
 33
0.0
  0
SOLID
  5
488B
330
45B8
100
AcDbEntity
  8
AM_5
100
AcDbTrace
 10
806.1066528759216
 20
1360.393564553092
 30
0.0
 11
806.1066528759216
 21
1358.893564553092
 31
0.0
 12
810.6066528759216
 22
1359.643564553092
 32
0.0
 13
810.6066528759216
 23
1359.643564553092
 33
0.0
  0
MTEXT
  5
488C
330
45B8
100
AcDbEntity
  8
AM_5
100
AcDbMText
 10
804.1066528759214
 20
1363.318564553092
 30
0.0
 40
5.25
 41
0.0
 71
     5
 72
     1
  1
13
 73
     1
 44
1.0
1001
ACAD
1000
MTEXTBEGIN
1070
    73
1070
     1
1070
    44
1040
1.0
1070
    74
1070
     0
1000
MTEXTEND
  0
POINT
  5
488D
330
45B8
100
AcDbEntity
  8
Defpoints
 62
     0
100
AcDbPoint
 10
797.6066528759215
 20
1393.893565553092
 30
0.0
  0
POINT
  5
488E
330
45B8
100
AcDbEntity
  8
Defpoints
 62
     0
100
AcDbPoint
 10
810.6066528759216
 20
1369.643565553092
 30
0.0
  0
POINT
  5
488F
330
45B8
100
AcDbEntity
  8
Defpoints
 62
     0
100
AcDbPoint
 10
810.6066528759216
 20
1359.643564553092
 30
0.0
  0
ENDBLK
  5
45C3
330
45B8
100
AcDbEntity
  8
0
100
AcDbBlockEnd
  0
BLOCK
  5
45E8
330
45DE
100
AcDbEntity
  8
0
100
AcDbBlockBegin
  2
*D19
 70
     1
 10
0.0
 20
0.0
 30
0.0
  3
*D19
  1

  0
LINE
  5
4890
330
45DE
100
AcDbEntity
  8
AM_5
100
AcDbLine
 10
759.1066528759215
 20
1371.143565553092
 30
0.0
 11
759.1066528759215
 21
1357.393564553091
 31
0.0
  0
LINE
  5
4891
330
45DE
100
AcDbEntity
  8
AM_5
100
AcDbLine
 10
797.6066528759215
 20
1392.393565553092
 30
0.0
 11
797.6066528759215
 21
1357.393564553091
 31
0.0
  0
LINE
  5
4892
330
45DE
100
AcDbEntity
  8
AM_5
100
AcDbLine
 10
763.6066528759215
 20
1359.643564553091
 30
0.0
 11
793.1066528759215
 21
1359.643564553091
 31
0.0
  0
SOLID
  5
4893
330
45DE
100
AcDbEntity
  8
AM_5
100
AcDbTrace
 10
763.6066528759215
 20
1360.393564553092
 30
0.0
 11
763.6066528759215
 21
1358.893564553091
 31
0.0
 12
759.1066528759215
 22
1359.643564553091
 32
0.0
 13
759.1066528759215
 23
1359.643564553091
 33
0.0
  0
SOLID
  5
4894
330
45DE
100
AcDbEntity
  8
AM_5
100
AcDbTrace
 10
793.1066528759215
 20
1360.393564553092
 30
0.0
 11
793.1066528759215
 21
1358.893564553091
 31
0.0
 12
797.6066528759215
 22
1359.643564553091
 32
0.0
 13
797.6066528759215
 23
1359.643564553091
 33
0.0
  0
MTEXT
  5
4895
330
45DE
100
AcDbEntity
  8
AM_5
100
AcDbMText
 10
778.3566528759215
 20
1363.318564553092
 30
0.0
 40
5.25
 41
0.0
 71
     5
 72
     1
  1
38.5
 73
     1
 44
1.0
1001
ACAD
1000
MTEXTBEGIN
1070
    73
1070
     1
1070
    44
1040
1.0
1070
    74
1070
     0
1000
MTEXTEND
  0
POINT
  5
4896
330
45DE
100
AcDbEntity
  8
Defpoints
 62
     0
100
AcDbPoint
 10
759.1066528759215
 20
1372.643565553092
 30
0.0
  0
POINT
  5
4897
330
45DE
100
AcDbEntity
  8
Defpoints
 62
     0
100
AcDbPoint
 10
797.6066528759215
 20
1393.893565553092
 30
0.0
  0
POINT
  5
4898
330
45DE
100
AcDbEntity
  8
Defpoints
 62
     0
100
AcDbPoint
 10
797.6066528759215
 20
1359.643564553091
 30
0.0
  0
ENDBLK
  5
45E9
330
45DE
100
AcDbEntity
  8
0
100
AcDbBlockEnd
  0
ENDSEC
  0
SECTION
  2
ENTITIES
  0
LINE
  5
1010
330
1F
100
AcDbEntity
  8
AM_7
100
AcDbLine
 10
934.102802265315
 20
1296.005236340808
 30
0.0
 11
934.102802265315
 21
1296.005236340808
 31
0.0
  0
LINE
  5
1011
330
1F
100
AcDbEntity
  8
AM_7
100
AcDbLine
 10
934.102802265315
 20
1296.005236340808
 30
0.0
 11
934.102802265315
 21
1296.005236340808
 31
0.0
  0
LINE
  5
1012
330
1F
100
AcDbEntity
  8
AM_7
100
AcDbLine
 10
915.6028022653151
 20
1333.005236340808
 30
0.0
 11
915.6028022653151
 21
1333.005236340808
 31
0.0
  0
LINE
  5
1013
330
1F
100
AcDbEntity
  8
AM_7
100
AcDbLine
 10
915.6028022653151
 20
1333.005236340808
 30
0.0
 11
915.6028022653151
 21
1333.005236340808
 31
0.0
  0
ARC
  5
1014
330
1F
100
AcDbEntity
  8
AM_4
100
AcDbCircle
 10
923.102802265315
 20
1308.805236340808
 30
0.0
 40
4.849999999999999
100
AcDbArc
 50
259.9999999999998
 51
190.0000000000002
  0
LINE
  5
1015
330
1F
100
AcDbEntity
  8
AM_VIS
100
AcDbLine
 10
767.1066528759215
 20
1338.05409748404
 30
0.0
 11
767.1066528759215
 21
1291.956375197575
 31
0.0
  0
LINE
  5
1016
330
1F
100
AcDbEntity
  8
AM_VIS
100
AcDbLine
 10
841.1066528759215
 20
1291.956375197575
 30
0.0
 11
841.1066528759215
 21
1338.05409748404
 31
0.0
  0
LINE
  5
1017
330
1F
100
AcDbEntity
  8
AM_VIS
100
AcDbLine
 10
841.1066528759215
 20
1291.805236340808
 30
0.0
 11
767.1066528759215
 21
1291.805236340808
 31
0.0
  0
LINE
  5
1018
330
1F
100
AcDbEntity
  8
AM_VIS
100
AcDbLine
 10
767.1066528759215
 20
1338.205236340807
 30
0.0
 11
841.1066528759215
 21
1338.205236340807
 31
0.0
  0
LINE
  5
101C
330
1F
100
AcDbEntity
  8
AM_VIS
100
AcDbLine
 10
767.1066528759215
 20
1291.956375197575
 30
0.0
 11
767.1066528759215
 21
1291.805236340808
 31
0.0
  0
LINE
  5
101D
330
1F
100
AcDbEntity
  8
AM_VIS
100
AcDbLine
 10
767.1066528759215
 20
1338.205236340807
 30
0.0
 11
767.1066528759215
 21
1338.05409748404
 31
0.0
  0
LINE
  5
101E
330
1F
100
AcDbEntity
  8
AM_VIS
100
AcDbLine
 10
841.1066528759215
 20
1338.205236340807
 30
0.0
 11
865.1066528759216
 21
1338.205236340807
 31
0.0
  0
LINE
  5
101F
330
1F
100
AcDbEntity
  8
AM_VIS
100
AcDbLine
 10
841.1066528759215
 20
1291.805236340807
 30
0.0
 11
865.1066528759216
 21
1291.805236340807
 31
0.0
  0
LINE
  5
1020
102
{ACAD_REACTORS
330
17EA
330
1810
102
}
330
1F
100
AcDbEntity
  8
AM_VIS
100
AcDbLine
 10
865.1066528759216
 20
1291.805236340807
 30
0.0
 11
865.1066528759216
 21
1338.205236340807
 31
0.0
  0
LINE
  5
1021
330
1F
100
AcDbEntity
  8
AM_VIS
100
AcDbLine
 10
841.1066528759215
 20
1338.205236340807
 30
0.0
 11
841.1066528759215
 21
1291.805236340807
 31
0.0
  0
LINE
  5
1022
330
1F
100
AcDbEntity
  8
AM_VIS
100
AcDbLine
 10
763.1066528759215
 20
1291.805236340807
 30
0.0
 11
767.1066528759215
 21
1291.805236340807
 31
0.0
  0
LINE
  5
1023
330
1F
100
AcDbEntity
  8
AM_VIS
100
AcDbLine
 10
760.1066528759215
 20
1300.005236340808
 30
0.0
 11
763.1066528759215
 21
1300.005236340808
 31
0.0
  0
LINE
  5
1024
330
1F
100
AcDbEntity
  8
AM_VIS
100
AcDbLine
 10
760.1066528759215
 20
1291.805236340807
 30
0.0
 11
763.1066528759215
 21
1291.805236340807
 31
0.0
  0
LINE
  5
1025
330
1F
100
AcDbEntity
  8
AM_VIS
100
AcDbLine
 10
759.1066528759215
 20
1296.005236340808
 30
0.0
 11
759.1066528759215
 21
1292.805236340808
 31
0.0
  0
LINE
  5
1026
330
1F
100
AcDbEntity
  8
AM_VIS
100
AcDbLine
 10
767.1066528759215
 20
1338.205236340807
 30
0.0
 11
763.1066528759215
 21
1338.205236340807
 31
0.0
  0
LINE
  5
1027
330
1F
100
AcDbEntity
  8
AM_VIS
100
AcDbLine
 10
763.1066528759215
 20
1338.205236340807
 30
0.0
 11
760.1066528759215
 21
1338.205236340807
 31
0.0
  0
LINE
  5
1028
330
1F
100
AcDbEntity
  8
AM_VIS
100
AcDbLine
 10
759.1066528759215
 20
1329.005236340808
 30
0.0
 11
759.1066528759215
 21
1301.005236340808
 31
0.0
  0
LINE
  5
1029
330
1F
100
AcDbEntity
  8
AM_VIS
100
AcDbLine
 10
767.1066528759215
 20
1337.205236340808
 30
0.0
 11
767.1066528759215
 21
1292.805236340808
 31
0.0
  0
LINE
  5
102A
330
1F
100
AcDbEntity
  8
AM_VIS
100
AcDbLine
 10
763.1066528759215
 20
1292.805236340808
 30
0.0
 11
763.1066528759215
 21
1301.005236340808
 31
0.0
  0
LINE
  5
102C
330
1F
100
AcDbEntity
  8
AM_VIS
100
AcDbLine
 10
759.1066528759215
 20
1337.205236340808
 30
0.0
 11
759.1066528759215
 21
1334.005236340808
 31
0.0
  0
LINE
  5
102E
330
1F
100
AcDbEntity
  8
AM_VIS
100
AcDbLine
 10
763.1066528759215
 20
1291.805236340807
 30
0.0
 11
763.1066528759215
 21
1292.805236340808
 31
0.0
  0
ARC
  5
1030
330
1F
100
AcDbEntity
  8
AM_VIS
100
AcDbCircle
 10
760.1066528759215
 20
1301.005236340808
 30
0.0
 40
1.0
100
AcDbArc
 50
180.0
 51
270.0
  0
ARC
  5
1031
102
{ACAD_REACTORS
330
1810
330
1922
330
455F
102
}
330
1F
100
AcDbEntity
  8
AM_VIS
100
AcDbCircle
 10
760.1066528759215
 20
1292.805236340808
 30
0.0
 40
1.0
100
AcDbArc
 50
180.0
 51
270.0
  0
LINE
  5
1032
330
1F
100
AcDbEntity
  8
AM_VIS
100
AcDbLine
 10
759.1066528759215
 20
1301.005236340808
 30
0.0
 11
759.1066528759215
 21
1296.005236340808
 31
0.0
  0
ARC
  5
1033
330
1F
100
AcDbEntity
  8
AM_VIS
100
AcDbCircle
 10
760.1066528759215
 20
1337.205236340808
 30
0.0
 40
0.9999999999999989
100
AcDbArc
 50
90.0
 51
180.0
  0
LINE
  5
1034
330
1F
100
AcDbEntity
  8
AM_VIS
100
AcDbLine
 10
759.1066528759215
 20
1334.005236340808
 30
0.0
 11
759.1066528759215
 21
1329.005236340808
 31
0.0
  0
LINE
  5
1036
330
1F
100
AcDbEntity
  8
AM_VIS
100
AcDbLine
 10
761.994289420664
 20
1292.04408092862
 30
0.0
 11
763.1066528759215
 21
1292.005236340808
 31
0.0
  0
LINE
  5
1037
330
1F
100
AcDbEntity
  8
AM_VIS
100
AcDbLine
 10
761.994289420664
 20
1299.966391752995
 30
0.0
 11
763.1066528759215
 21
1300.005236340808
 31
0.0
  0
LINE
  5
1038
330
1F
100
AcDbEntity
  8
AM_VIS
100
AcDbLine
 10
760.0332032545837
 20
1295.590236340808
 30
0.0
 11
760.400989636882
 21
1295.590236340808
 31
0.0
  0
ELLIPSE
  5
1039
330
1F
100
AcDbEntity
  8
AM_VIS
100
AcDbEllipse
 10
764.9300936976089
 20
1296.005236340808
 30
0.0
 11
0.0
 21
6.045738556206809
 31
0.0
210
0.0
220
0.0
230
1.0
 40
0.7509111174475434
 41
1.502098913468989
 42
1.639493740120803
  0
LINE
  5
103A
330
1F
100
AcDbEntity
  8
AM_VIS
100
AcDbLine
 10
760.400989636882
 20
1296.420236340808
 30
0.0
 11
760.0332032545837
 21
1296.420236340808
 31
0.0
  0
ARC
  5
103B
330
1F
100
AcDbEntity
  8
AM_VIS
100
AcDbCircle
 10
766.5066528759214
 20
1296.005236340808
 30
0.0
 40
6.486738394601617
100
AcDbArc
 50
183.6680990429208
 51
199.7369095527632
  0
LINE
  5
103C
330
1F
100
AcDbEntity
  8
AM_VIS
100
AcDbLine
 10
760.400989636882
 20
1298.195818777385
 30
0.0
 11
760.3902814025722
 21
1298.205236340807
 31
0.0
  0
LINE
  5
103D
330
1F
100
AcDbEntity
  8
AM_VIS
100
AcDbLine
 10
760.3902814025722
 20
1293.805236340807
 30
0.0
 11
760.400989636882
 21
1293.81465390423
 31
0.0
  0
ARC
  5
103E
330
1F
100
AcDbEntity
  8
AM_VIS
100
AcDbCircle
 10
766.5066528759214
 20
1296.005236340808
 30
0.0
 40
6.486738394601617
100
AcDbArc
 50
160.2630904472367
 51
176.3319009570792
  0
ARC
  5
103F
330
1F
100
AcDbEntity
  8
AM_VIS
100
AcDbCircle
 10
762.0396587663774
 20
1293.343289003745
 30
0.0
 40
1.3
100
AcDbArc
 50
210.7913345539575
 51
267.9999999999931
  0
ARC
  5
1040
330
1F
100
AcDbEntity
  8
AM_VIS
100
AcDbCircle
 10
762.0396587663774
 20
1298.667183677871
 30
0.0
 40
1.3
100
AcDbArc
 50
92.00000000000692
 51
149.2086654460425
  0
ARC
  5
1041
330
1F
100
AcDbEntity
  8
AM_VIS
100
AcDbCircle
 10
766.5066528759216
 20
1296.005236340808
 30
0.0
 40
6.500000000000034
100
AcDbArc
 50
199.7831703726621
 51
210.7913345539618
  0
ARC
  5
1042
330
1F
100
AcDbEntity
  8
AM_VIS
100
AcDbCircle
 10
766.5066528759216
 20
1296.005236340808
 30
0.0
 40
6.500000000000034
100
AcDbArc
 50
149.2086654460381
 51
160.2168296273378
  0
LINE
  5
104B
330
1F
100
AcDbEntity
  8
AM_VIS
100
AcDbLine
 10
767.1066528759215
 20
1401.408727252173
 30
0.0
 11
767.1066528759215
 21
1371.878403854011
 31
0.0
  0
LINE
  5
104C
330
1F
100
AcDbEntity
  8
AM_VIS
100
AcDbLine
 10
841.1066528759215
 20
1371.878403854011
 30
0.0
 11
841.1066528759215
 21
1401.408727252173
 31
0.0
  0
LINE
  5
104D
330
1F
100
AcDbEntity
  8
AM_VIS
100
AcDbLine
 10
841.1066528759215
 20
1371.643565553092
 30
0.0
 11
767.1066528759215
 21
1371.643565553092
 31
0.0
  0
LINE
  5
104E
330
1F
100
AcDbEntity
  8
AM_VIS
100
AcDbLine
 10
767.1066528759215
 20
1401.643565553092
 30
0.0
 11
841.1066528759215
 21
1401.643565553092
 31
0.0
  0
LINE
  5
1055
330
1F
100
AcDbEntity
  8
AM_VIS
100
AcDbLine
 10
767.1066528759215
 20
1371.878403854011
 30
0.0
 11
767.1066528759215
 21
1371.643565553092
 31
0.0
  0
LINE
  5
1056
330
1F
100
AcDbEntity
  8
AM_VIS
100
AcDbLine
 10
767.1066528759215
 20
1401.643565553092
 30
0.0
 11
767.1066528759215
 21
1401.408727252173
 31
0.0
  0
LINE
  5
1057
330
1F
100
AcDbEntity
  8
AM_VIS
100
AcDbLine
 10
841.1066528759215
 20
1371.643565553092
 30
0.0
 11
865.1066528759216
 21
1371.643565553092
 31
0.0
  0
LINE
  5
1058
330
1F
100
AcDbEntity
  8
AM_VIS
100
AcDbLine
 10
841.1066528759215
 20
1401.643565553092
 30
0.0
 11
865.1066528759216
 21
1401.643565553092
 31
0.0
  0
LINE
  5
1059
330
1F
100
AcDbEntity
  8
AM_VIS
100
AcDbLine
 10
865.1066528759216
 20
1371.643565553092
 30
0.0
 11
865.1066528759216
 21
1401.643565553092
 31
0.0
  0
LINE
  5
105A
330
1F
100
AcDbEntity
  8
AM_VIS
100
AcDbLine
 10
841.1066528759215
 20
1401.643565553092
 30
0.0
 11
841.1066528759215
 21
1371.643565553092
 31
0.0
  0
LINE
  5
105B
330
1F
100
AcDbEntity
  8
AM_VIS
100
AcDbLine
 10
767.1066528759215
 20
1401.643565553092
 30
0.0
 11
760.1066528759215
 21
1401.643565553092
 31
0.0
  0
LINE
  5
105C
330
1F
100
AcDbEntity
  8
AM_VIS
100
AcDbLine
 10
760.1066528759215
 20
1398.143565553092
 30
0.0
 11
763.1066528759215
 21
1398.143565553092
 31
0.0
  0
LINE
  5
105D
330
1F
100
AcDbEntity
  8
AM_VIS
100
AcDbLine
 10
759.1066528759215
 20
1400.643565553092
 30
0.0
 11
759.1066528759215
 21
1399.143565553092
 31
0.0
  0
ARC
  5
105E
330
1F
100
AcDbEntity
  8
AM_VIS
100
AcDbCircle
 10
760.1066528759215
 20
1389.143565553092
 30
0.0
 40
0.9999999999999998
100
AcDbArc
 50
90.0
 51
135.0000000000006
  0
LINE
  5
105F
330
1F
100
AcDbEntity
  8
AM_VIS
100
AcDbLine
 10
763.1066528759215
 20
1390.143565553092
 30
0.0
 11
760.1066528759215
 21
1390.143565553092
 31
0.0
  0
LINE
  5
1060
330
1F
100
AcDbEntity
  8
AM_VIS
100
AcDbLine
 10
763.1066528759215
 20
1389.143565553092
 30
0.0
 11
763.1066528759215
 21
1399.143565553092
 31
0.0
  0
LINE
  5
1061
330
1F
100
AcDbEntity
  8
AM_VIS
100
AcDbLine
 10
767.1066528759215
 20
1400.643565553092
 30
0.0
 11
767.1066528759215
 21
1372.643565553092
 31
0.0
  0
LINE
  5
1063
330
1F
100
AcDbEntity
  8
AM_VIS
100
AcDbLine
 10
759.1066528759215
 20
1389.143565553092
 30
0.0
 11
759.1066528759215
 21
1380.643565553092
 31
0.0
  0
ARC
  5
1064
330
1F
100
AcDbEntity
  8
AM_VIS
100
AcDbCircle
 10
760.1066528759215
 20
1389.143565553092
 30
0.0
 40
0.9999999999999998
100
AcDbArc
 50
135.0000000000006
 51
180.0
  0
LINE
  5
1065
330
1F
100
AcDbEntity
  8
AM_VIS
100
AcDbLine
 10
760.1066528759215
 20
1389.143565553092
 30
0.0
 11
759.3995460947349
 21
1389.850672334279
 31
0.0
  0
LINE
  5
1067
330
1F
100
AcDbEntity
  8
AM_VIS
100
AcDbLine
 10
763.1066528759215
 20
1371.643565553092
 30
0.0
 11
767.1066528759215
 21
1371.643565553092
 31
0.0
  0
LINE
  5
1068
330
1F
100
AcDbEntity
  8
AM_VIS
100
AcDbLine
 10
759.1066528759215
 20
1375.643565553092
 30
0.0
 11
759.1066528759215
 21
1372.643565553092
 31
0.0
  0
LINE
  5
1069
330
1F
100
AcDbEntity
  8
AM_VIS
100
AcDbLine
 10
760.1066528759215
 20
1371.643565553092
 30
0.0
 11
763.1066528759215
 21
1371.643565553092
 31
0.0
  0
ARC
  5
106B
330
1F
100
AcDbEntity
  8
AM_VIS
100
AcDbCircle
 10
760.1066528759215
 20
1399.143565553092
 30
0.0
 40
1.0
100
AcDbArc
 50
180.0
 51
270.0
  0
ARC
  5
106C
102
{ACAD_REACTORS
330
18D5
102
}
330
1F
100
AcDbEntity
  8
AM_VIS
100
AcDbCircle
 10
760.1066528759215
 20
1400.643565553092
 30
0.0
 40
1.0
100
AcDbArc
 50
90.0
 51
180.0
  0
LINE
  5
106D
330
1F
100
AcDbEntity
  8
AM_VIS
100
AcDbLine
 10
759.1066528759215
 20
1399.143565553092
 30
0.0
 11
759.1066528759215
 21
1389.143565553092
 31
0.0
  0
ARC
  5
106E
102
{ACAD_REACTORS
330
18D5
330
45EB
102
}
330
1F
100
AcDbEntity
  8
AM_VIS
100
AcDbCircle
 10
760.1066528759215
 20
1372.643565553092
 30
0.0
 40
1.0
100
AcDbArc
 50
180.0
 51
270.0
  0
LINE
  5
1070
330
1F
100
AcDbEntity
  8
AM_VIS
100
AcDbLine
 10
759.1066528759215
 20
1380.643565553092
 30
0.0
 11
759.1066528759215
 21
1375.643565553092
 31
0.0
  0
LINE
  5
1071
330
1F
100
AcDbEntity
  8
AM_VIS
100
AcDbLine
 10
761.994289420664
 20
1390.182410140904
 30
0.0
 11
763.1066528759215
 21
1390.143565553092
 31
0.0
  0
LINE
  5
1072
330
1F
100
AcDbEntity
  8
AM_VIS
100
AcDbLine
 10
761.9942894206637
 20
1398.10472096528
 30
0.0
 11
763.1066528759215
 21
1398.143565553092
 31
0.0
  0
LINE
  5
1073
330
1F
100
AcDbEntity
  8
AM_VIS
100
AcDbLine
 10
760.3902814025718
 20
1391.943565553092
 30
0.0
 11
760.4009896368818
 21
1391.952983116515
 31
0.0
  0
ARC
  5
1074
330
1F
100
AcDbEntity
  8
AM_VIS
100
AcDbCircle
 10
766.5066528759216
 20
1394.143565553092
 30
0.0
 40
6.486738394601748
100
AcDbArc
 50
183.6680990429387
 51
199.7369095527588
  0
ARC
  5
1075
330
1F
100
AcDbEntity
  8
AM_VIS
100
AcDbCircle
 10
766.5066528759216
 20
1394.143565553092
 30
0.0
 40
6.486738394601748
100
AcDbArc
 50
160.2630904472308
 51
176.3319009570971
  0
LINE
  5
1076
330
1F
100
AcDbEntity
  8
AM_VIS
100
AcDbLine
 10
760.4009896368823
 20
1396.33414798967
 30
0.0
 11
760.3902814025722
 21
1396.343565553093
 31
0.0
  0
ELLIPSE
  5
1077
330
1F
100
AcDbEntity
  8
AM_VIS
100
AcDbEllipse
 10
764.930093697608
 20
1394.143565553092
 30
0.0
 11
-0.0000000000000132
 21
6.045738556206455
 31
0.0
210
0.0
220
0.0
230
1.0
 40
0.750911117447385
 41
1.502098913469307
 42
1.639493740121136
  0
LINE
  5
1078
330
1F
100
AcDbEntity
  8
AM_VIS
100
AcDbLine
 10
760.400989636882
 20
1394.55856555309
 30
0.0
 11
760.0332032545834
 21
1394.55856555309
 31
0.0
  0
LINE
  5
1079
330
1F
100
AcDbEntity
  8
AM_VIS
100
AcDbLine
 10
760.0332032545834
 20
1393.72856555309
 30
0.0
 11
760.400989636882
 21
1393.72856555309
 31
0.0
  0
ARC
  5
107A
330
1F
100
AcDbEntity
  8
AM_VIS
100
AcDbCircle
 10
762.0396587663774
 20
1391.481618216029
 30
0.0
 40
1.3
100
AcDbArc
 50
210.7913345539552
 51
267.9999999999931
  0
ARC
  5
107B
330
1F
100
AcDbEntity
  8
AM_VIS
100
AcDbCircle
 10
762.0396587663774
 20
1396.805512890155
 30
0.0
 40
1.3
100
AcDbArc
 50
92.0000000000118
 51
149.2086654460337
  0
ARC
  5
107C
330
1F
100
AcDbEntity
  8
AM_VIS
100
AcDbCircle
 10
766.5066528759216
 20
1394.143565553092
 30
0.0
 40
6.500000000000034
100
AcDbArc
 50
149.2086654460352
 51
160.2168296273311
  0
ARC
  5
107D
330
1F
100
AcDbEntity
  8
AM_VIS
100
AcDbCircle
 10
766.5066528759216
 20
1394.143565553092
 30
0.0
 40
6.500000000000034
100
AcDbArc
 50
199.7831703726557
 51
210.7913345539611
  0
LINE
  5
125E
330
1F
100
AcDbEntity
  8
AM_VIS
100
AcDbLine
 10
841.1066528759215
 20
1219.94251626584
 30
0.0
 11
841.1066528759215
 21
1249.472839664002
 31
0.0
  0
LINE
  5
125F
330
1F
100
AcDbEntity
  8
AM_VIS
100
AcDbLine
 10
767.1066528759215
 20
1249.472839664002
 30
0.0
 11
767.1066528759215
 21
1219.94251626584
 31
0.0
  0
LINE
  5
126C
330
1F
100
AcDbEntity
  8
AM_VIS
100
AcDbLine
 10
767.1066528759215
 20
1249.707677964921
 30
0.0
 11
841.1066528759215
 21
1249.707677964921
 31
0.0
  0
LINE
  5
126D
330
1F
100
AcDbEntity
  8
AM_VIS
100
AcDbLine
 10
841.1066528759215
 20
1219.707677964921
 30
0.0
 11
767.1066528759215
 21
1219.707677964921
 31
0.0
  0
CIRCLE
  5
1274
330
1F
100
AcDbEntity
  8
AM_VIS
100
AcDbCircle
 10
810.6066528759216
 20
1246.207677964921
 30
0.0
 40
2.25
  0
CIRCLE
  5
1275
330
1F
100
AcDbEntity
  8
AM_VIS
100
AcDbCircle
 10
797.6066528759215
 20
1223.207677964921
 30
0.0
 40
2.25
  0
LINE
  5
1277
330
1F
100
AcDbEntity
  8
AM_VIS
100
AcDbLine
 10
767.1066528759215
 20
1249.707677964921
 30
0.0
 11
767.1066528759215
 21
1249.472839664002
 31
0.0
  0
LINE
  5
1278
330
1F
100
AcDbEntity
  8
AM_VIS
100
AcDbLine
 10
767.1066528759215
 20
1219.94251626584
 30
0.0
 11
767.1066528759215
 21
1219.707677964921
 31
0.0
  0
LINE
  5
1279
330
1F
100
AcDbEntity
  8
AM_VIS
100
AcDbLine
 10
841.1066528759215
 20
1249.707677964921
 30
0.0
 11
865.1066528759216
 21
1249.707677964921
 31
0.0
  0
LINE
  5
127A
330
1F
100
AcDbEntity
  8
AM_VIS
100
AcDbLine
 10
861.0066528759215
 20
1219.707677964921
 30
0.0
 11
861.0066528759215
 21
1227.457677964921
 31
0.0
  0
LINE
  5
127B
330
1F
100
AcDbEntity
  8
AM_VIS
100
AcDbLine
 10
841.1066528759215
 20
1219.707677964921
 30
0.0
 11
861.0066528759215
 21
1219.707677964921
 31
0.0
  0
LINE
  5
127C
330
1F
100
AcDbEntity
  8
AM_VIS
100
AcDbLine
 10
861.0066528759215
 20
1227.457677964921
 30
0.0
 11
865.1066528759216
 21
1227.457677964921
 31
0.0
  0
LINE
  5
127D
330
1F
100
AcDbEntity
  8
AM_VIS
100
AcDbLine
 10
865.1066528759216
 20
1219.707677964921
 30
0.0
 11
861.0066528759215
 21
1219.707677964921
 31
0.0
  0
LINE
  5
127E
330
1F
100
AcDbEntity
  8
AM_VIS
100
AcDbLine
 10
865.1066528759216
 20
1227.457677964921
 30
0.0
 11
865.1066528759216
 21
1249.707677964921
 31
0.0
  0
LINE
  5
127F
330
1F
100
AcDbEntity
  8
AM_VIS
100
AcDbLine
 10
865.1066528759216
 20
1223.707677964921
 30
0.0
 11
865.1066528759216
 21
1219.707677964921
 31
0.0
  0
LINE
  5
1280
330
1F
100
AcDbEntity
  8
AM_VIS
100
AcDbLine
 10
841.1066528759215
 20
1249.707677964921
 30
0.0
 11
841.1066528759215
 21
1219.707677964921
 31
0.0
  0
LINE
  5
1281
330
1F
100
AcDbEntity
  8
AM_VIS
100
AcDbLine
 10
865.1066528759216
 20
1227.457677964921
 30
0.0
 11
865.1066528759216
 21
1223.707677964921
 31
0.0
  0
LINE
  5
1282
330
1F
100
AcDbEntity
  8
AM_VIS
100
AcDbLine
 10
760.1066528759215
 20
1219.707677964921
 30
0.0
 11
767.1066528759215
 21
1219.707677964921
 31
0.0
  0
LINE
  5
1283
330
1F
100
AcDbEntity
  8
AM_VIS
100
AcDbLine
 10
763.1066528759215
 20
1240.707677964921
 30
0.0
 11
763.1066528759215
 21
1248.707677964921
 31
0.0
  0
LINE
  5
1284
330
1F
100
AcDbEntity
  8
AM_VIS
100
AcDbLine
 10
767.1066528759215
 20
1248.707677964921
 30
0.0
 11
767.1066528759215
 21
1220.707677964921
 31
0.0
  0
LINE
  5
1285
330
1F
100
AcDbEntity
  8
AM_VIS
100
AcDbLine
 10
763.1066528759215
 20
1241.707677964921
 30
0.0
 11
760.1066528759215
 21
1241.707677964921
 31
0.0
  0
LINE
  5
1286
330
1F
100
AcDbEntity
  8
AM_VIS
100
AcDbLine
 10
759.1066528759215
 20
1248.707677964921
 30
0.0
 11
759.1066528759215
 21
1245.707677964921
 31
0.0
  0
LINE
  5
1287
330
1F
100
AcDbEntity
  8
AM_VIS
100
AcDbLine
 10
759.1066528759215
 20
1240.707677964921
 30
0.0
 11
759.1066528759215
 21
1220.707677964921
 31
0.0
  0
LINE
  5
1288
330
1F
100
AcDbEntity
  8
AM_VIS
100
AcDbLine
 10
767.1066528759215
 20
1249.707677964921
 30
0.0
 11
763.1066528759215
 21
1249.707677964921
 31
0.0
  0
LINE
  5
1289
330
1F
100
AcDbEntity
  8
AM_VIS
100
AcDbLine
 10
763.1066528759215
 20
1249.707677964921
 30
0.0
 11
760.1066528759215
 21
1249.707677964921
 31
0.0
  0
LINE
  5
128A
330
1F
100
AcDbEntity
  8
AM_VIS
100
AcDbLine
 10
763.1066528759215
 20
1248.707677964921
 30
0.0
 11
763.1066528759215
 21
1249.707677964921
 31
0.0
  0
ARC
  5
128B
330
1F
100
AcDbEntity
  8
AM_VIS
100
AcDbCircle
 10
760.1066528759215
 20
1240.707677964921
 30
0.0
 40
1.0
100
AcDbArc
 50
90.0
 51
180.0
  0
ARC
  5
128C
330
1F
100
AcDbEntity
  8
AM_VIS
100
AcDbCircle
 10
760.1066528759215
 20
1220.707677964921
 30
0.0
 40
1.0
100
AcDbArc
 50
180.0
 51
270.0
  0
LINE
  5
128D
330
1F
100
AcDbEntity
  8
AM_VIS
100
AcDbLine
 10
759.1066528759215
 20
1245.707677964921
 30
0.0
 11
759.1066528759215
 21
1240.707677964921
 31
0.0
  0
ARC
  5
128E
330
1F
100
AcDbEntity
  8
AM_VIS
100
AcDbCircle
 10
760.1066528759215
 20
1248.707677964921
 30
0.0
 40
1.0
100
AcDbArc
 50
90.0
 51
180.0
  0
LINE
  5
128F
330
1F
100
AcDbEntity
  8
AM_VIS
100
AcDbLine
 10
862.1190163311792
 20
1219.746522552734
 30
0.0
 11
861.0066528759213
 21
1219.707677964922
 31
0.0
  0
ARC
  5
1290
330
1F
100
AcDbEntity
  8
AM_VIS
100
AcDbCircle
 10
857.6066528759215
 20
1223.707677964921
 30
0.0
 40
6.486738394601745
100
AcDbArc
 50
340.2630904472463
 51
356.3319009570613
  0
LINE
  5
1291
330
1F
100
AcDbEntity
  8
AM_VIS
100
AcDbLine
 10
863.7123161149613
 20
1221.517095528345
 30
0.0
 11
863.7230243492711
 21
1221.507677964923
 31
0.0
  0
LINE
  5
1292
330
1F
100
AcDbEntity
  8
AM_VIS
100
AcDbLine
 10
863.7230243492705
 20
1225.907677964922
 30
0.0
 11
863.7123161149606
 21
1225.8982604015
 31
0.0
  0
ARC
  5
1293
330
1F
100
AcDbEntity
  8
AM_VIS
100
AcDbCircle
 10
857.6066528759215
 20
1223.707677964921
 30
0.0
 40
6.486738394601745
100
AcDbArc
 50
3.668099042902875
 51
19.73690955277353
  0
LINE
  5
1294
330
1F
100
AcDbEntity
  8
AM_VIS
100
AcDbLine
 10
863.7123161149608
 20
1223.292677964919
 30
0.0
 11
864.0801024972592
 21
1223.292677964919
 31
0.0
  0
LINE
  5
1295
330
1F
100
AcDbEntity
  8
AM_VIS
100
AcDbLine
 10
864.0801024972597
 20
1224.122677964919
 30
0.0
 11
863.7123161149613
 21
1224.122677964919
 31
0.0
  0
ELLIPSE
  5
1296
330
1F
100
AcDbEntity
  8
AM_VIS
100
AcDbEllipse
 10
859.1832120542351
 20
1223.707677964921
 30
0.0
 11
0.0000000000000054
 21
6.045738556206449
 31
0.0
210
0.0
220
0.0
230
1.0
 40
0.7509111174473848
 41
4.643691567058446
 42
4.781086393710276
  0
ARC
  5
1297
330
1F
100
AcDbEntity
  8
AM_VIS
100
AcDbCircle
 10
862.0736469854657
 20
1226.369625301984
 30
0.0
 40
1.3
100
AcDbArc
 50
30.79133455396407
 51
56.82085732218023
  0
ARC
  5
1298
330
1F
100
AcDbEntity
  8
AM_VIS
100
AcDbCircle
 10
862.0736469854657
 20
1221.045730627858
 30
0.0
 40
1.3
100
AcDbArc
 50
272.0000000000069
 51
329.208665446033
  0
ARC
  5
1299
330
1F
100
AcDbEntity
  8
AM_VIS
100
AcDbCircle
 10
857.6066528759215
 20
1223.707677964921
 30
0.0
 40
6.500000000000031
100
AcDbArc
 50
19.783170372674
 51
30.79133455396338
  0
ARC
  5
129A
330
1F
100
AcDbEntity
  8
AM_VIS
100
AcDbCircle
 10
857.6066528759215
 20
1223.707677964921
 30
0.0
 40
6.500000000000031
100
AcDbArc
 50
329.2086654460381
 51
340.2168296273503
  0
LINE
  5
129B
330
1F
100
AcDbEntity
  8
AM_VIS
100
AcDbLine
 10
761.9942894206637
 20
1241.746522552733
 30
0.0
 11
763.1066528759215
 21
1241.707677964922
 31
0.0
  0
LINE
  5
129C
330
1F
100
AcDbEntity
  8
AM_VIS
100
AcDbLine
 10
761.994289420664
 20
1249.668833377109
 30
0.0
 11
763.1066528759215
 21
1249.707677964922
 31
0.0
  0
ARC
  5
129D
330
1F
100
AcDbEntity
  8
AM_VIS
100
AcDbCircle
 10
766.5066528759216
 20
1245.707677964922
 30
0.0
 40
6.486738394601748
100
AcDbArc
 50
160.2630904472411
 51
176.3319009570612
  0
LINE
  5
129E
330
1F
100
AcDbEntity
  8
AM_VIS
100
AcDbLine
 10
760.4009896368818
 20
1247.898260401499
 30
0.0
 11
760.3902814025718
 21
1247.907677964921
 31
0.0
  0
LINE
  5
129F
330
1F
100
AcDbEntity
  8
AM_VIS
100
AcDbLine
 10
760.3902814025722
 20
1243.507677964921
 30
0.0
 11
760.4009896368823
 21
1243.517095528343
 31
0.0
  0
ARC
  5
12A0
330
1F
100
AcDbEntity
  8
AM_VIS
100
AcDbCircle
 10
766.5066528759216
 20
1245.707677964922
 30
0.0
 40
6.486738394601748
100
AcDbArc
 50
183.6680990429029
 51
199.7369095527691
  0
LINE
  5
12A1
330
1F
100
AcDbEntity
  8
AM_VIS
100
AcDbLine
 10
760.400989636882
 20
1246.122677964923
 30
0.0
 11
760.0332032545834
 21
1246.122677964923
 31
0.0
  0
LINE
  5
12A2
330
1F
100
AcDbEntity
  8
AM_VIS
100
AcDbLine
 10
760.0332032545834
 20
1245.292677964923
 30
0.0
 11
760.400989636882
 21
1245.292677964923
 31
0.0
  0
ELLIPSE
  5
12A3
330
1F
100
AcDbEntity
  8
AM_VIS
100
AcDbEllipse
 10
764.930093697608
 20
1245.707677964921
 30
0.0
 11
-0.0000000000000132
 21
-6.045738556206453
 31
0.0
210
0.0
220
0.0
230
1.0
 40
0.7509111174473846
 41
4.64369156705845
 42
4.781086393710278
  0
ARC
  5
12A4
330
1F
100
AcDbEntity
  8
AM_VIS
100
AcDbCircle
 10
762.0396587663774
 20
1243.045730627858
 30
0.0
 40
1.3
100
AcDbArc
 50
210.7913345539663
 51
267.9999999999882
  0
ARC
  5
12A5
330
1F
100
AcDbEntity
  8
AM_VIS
100
AcDbCircle
 10
762.0396587663774
 20
1248.369625301984
 30
0.0
 40
1.3
100
AcDbArc
 50
92.00000000000692
 51
149.2086654460447
  0
ARC
  5
12A6
330
1F
100
AcDbEntity
  8
AM_VIS
100
AcDbCircle
 10
766.5066528759216
 20
1245.707677964922
 30
0.0
 40
6.500000000000034
100
AcDbArc
 50
199.7831703726688
 51
210.7913345539641
  0
ARC
  5
12A7
330
1F
100
AcDbEntity
  8
AM_VIS
100
AcDbCircle
 10
766.5066528759216
 20
1245.707677964922
 30
0.0
 40
6.500000000000034
100
AcDbArc
 50
149.2086654460388
 51
160.2168296273443
  0
LINE
  5
130E
330
1F
100
AcDbEntity
  8
AM_VIS
100
AcDbLine
 10
938.1028022653151
 20
1291.805236340807
 30
0.0
 11
930.352802265315
 21
1291.805236340807
 31
0.0
  0
LINE
  5
130F
330
1F
100
AcDbEntity
  8
AM_VIS
100
AcDbLine
 10
938.1028022653151
 20
1299.755236340808
 30
0.0
 11
938.1028022653151
 21
1291.805236340807
 31
0.0
  0
LINE
  5
1310
330
1F
100
AcDbEntity
  8
AM_VIS
100
AcDbLine
 10
930.352802265315
 20
1291.805236340807
 30
0.0
 11
930.352802265315
 21
1296.005236340808
 31
0.0
  0
LINE
  5
1311
330
1F
100
AcDbEntity
  8
AM_VIS
100
AcDbLine
 10
930.352802265315
 20
1291.805236340807
 30
0.0
 11
908.102802265315
 21
1291.805236340807
 31
0.0
  0
LINE
  5
1312
102
{ACAD_REACTORS
330
1893
102
}
330
1F
100
AcDbEntity
  8
AM_VIS
100
AcDbLine
 10
908.102802265315
 20
1291.805236340807
 30
0.0
 11
908.102802265315
 21
1338.205236340807
 31
0.0
  0
LINE
  5
1313
330
1F
100
AcDbEntity
  8
AM_VIS
100
AcDbLine
 10
908.102802265315
 20
1338.205236340807
 30
0.0
 11
938.1028022653151
 21
1338.205236340807
 31
0.0
  0
LINE
  5
1314
330
1F
100
AcDbEntity
  8
AM_VIS
100
AcDbLine
 10
938.1028022653151
 20
1338.205236340807
 30
0.0
 11
938.1028022653151
 21
1299.755236340808
 31
0.0
  0
LINE
  5
1315
330
1F
100
AcDbEntity
  8
AM_VIS
100
AcDbLine
 10
934.102802265315
 20
1299.755236340808
 30
0.0
 11
938.1028022653151
 21
1299.755236340808
 31
0.0
  0
ARC
  5
1316
330
1F
100
AcDbEntity
  8
AM_VIS
100
AcDbCircle
 10
934.102802265315
 20
1296.005236340808
 30
0.0
 40
3.75
100
AcDbArc
 50
90.0
 51
180.0
  0
CIRCLE
  5
1317
330
1F
100
AcDbEntity
  8
AM_VIS
100
AcDbCircle
 10
915.6028022653151
 20
1333.005236340808
 30
0.0
 40
3.75
  0
CIRCLE
  5
1318
330
1F
100
AcDbEntity
  8
AM_VIS
100
AcDbCircle
 10
923.102802265315
 20
1308.805236340808
 30
0.0
 40
4.049999999999999
  0
LINE
  5
1319
330
1F
100
AcDbEntity
  8
AM_VIS
100
AcDbLine
 10
915.6028022653138
 20
1333.420236340808
 30
0.0
 11
915.6028022653138
 21
1333.005236340808
 31
0.0
  0
LINE
  5
131A
330
1F
100
AcDbEntity
  8
AM_VIS
100
AcDbLine
 10
915.6028022653138
 20
1333.005236340808
 30
0.0
 11
915.6028022653138
 21
1332.590236340808
 31
0.0
  0
LINE
  5
131B
330
1F
100
AcDbEntity
  8
AM_VIS
100
AcDbLine
 10
915.6028022653138
 20
1333.005236340808
 30
0.0
 11
916.0178022653148
 21
1333.420236340808
 31
0.0
  0
LINE
  5
131C
330
1F
100
AcDbEntity
  8
AM_VIS
100
AcDbLine
 10
915.1878022653148
 20
1333.420236340807
 30
0.0
 11
915.6028022653138
 21
1333.005236340808
 31
0.0
  0
LINE
  5
131D
330
1F
100
AcDbEntity
  8
AM_VIS
100
AcDbLine
 10
916.0178022653168
 20
1333.420236340808
 30
0.0
 11
915.1878022653168
 21
1333.420236340808
 31
0.0
  0
LINE
  5
131E
330
1F
100
AcDbEntity
  8
AM_VIS
100
AcDbLine
 10
915.1878022653166
 20
1332.590236340807
 30
0.0
 11
915.1878022653166
 21
1333.420236340808
 31
0.0
  0
LINE
  5
131F
330
1F
100
AcDbEntity
  8
AM_VIS
100
AcDbLine
 10
916.0178022653166
 20
1333.005236340808
 30
0.0
 11
915.6028022653137
 21
1333.005236340808
 31
0.0
  0
LINE
  5
1320
330
1F
100
AcDbEntity
  8
AM_VIS
100
AcDbLine
 10
916.0178022653145
 20
1332.590236340807
 30
0.0
 11
915.6028022653137
 21
1333.005236340808
 31
0.0
  0
LINE
  5
1321
330
1F
100
AcDbEntity
  8
AM_VIS
100
AcDbLine
 10
915.1878022653168
 20
1332.590236340807
 30
0.0
 11
916.0178022653168
 21
1332.590236340807
 31
0.0
  0
LINE
  5
1322
330
1F
100
AcDbEntity
  8
AM_VIS
100
AcDbLine
 10
915.6028022653137
 20
1333.005236340808
 30
0.0
 11
915.1878022653166
 21
1333.005236340808
 31
0.0
  0
LINE
  5
1323
330
1F
100
AcDbEntity
  8
AM_VIS
100
AcDbLine
 10
915.6028022653135
 20
1333.005236340808
 30
0.0
 11
915.1878022653145
 21
1332.590236340809
 31
0.0
  0
LINE
  5
1324
330
1F
100
AcDbEntity
  8
AM_VIS
100
AcDbLine
 10
916.0178022653166
 20
1333.420236340808
 30
0.0
 11
916.0178022653166
 21
1332.590236340807
 31
0.0
  0
LINE
  5
1325
330
1F
100
AcDbEntity
  8
AM_VIS
100
AcDbLine
 10
916.0178022653168
 20
1332.590236340807
 30
0.0
 11
917.7933847018916
 21
1332.590236340807
 31
0.0
  0
ELLIPSE
  5
1326
330
1F
100
AcDbEntity
  8
AM_VIS
100
AcDbEllipse
 10
913.8101766860939
 20
1333.005236340808
 30
0.0
 11
-0.0000000000000006
 21
6.045738556206283
 31
0.0
210
0.0
220
0.0
230
1.0
 40
0.6604032811046718
 41
4.643691567058777
 42
4.781086393710602
  0
LINE
  5
1327
330
1F
100
AcDbEntity
  8
AM_VIS
100
AcDbLine
 10
917.7933847018916
 20
1333.420236340808
 30
0.0
 11
916.0178022653168
 21
1333.420236340808
 31
0.0
  0
LINE
  5
1328
330
1F
100
AcDbEntity
  8
AM_VIS
100
AcDbLine
 10
915.1878022653169
 20
1333.420236340808
 30
0.0
 11
913.4122198287361
 21
1333.420236340808
 31
0.0
  0
ELLIPSE
  5
1329
330
1F
100
AcDbEntity
  8
AM_VIS
100
AcDbEllipse
 10
917.3954278445343
 20
1333.005236340808
 30
0.0
 11
-0.0000000000000006
 21
6.045738556206687
 31
0.0
210
0.0
220
0.0
230
1.0
 40
0.6604032811047999
 41
1.502098913468988
 42
1.639493740120804
  0
LINE
  5
132A
330
1F
100
AcDbEntity
  8
AM_VIS
100
AcDbLine
 10
913.4122198287361
 20
1332.590236340807
 30
0.0
 11
915.1878022653169
 21
1332.590236340807
 31
0.0
  0
LINE
  5
132B
330
1F
100
AcDbEntity
  8
AM_VIS
100
AcDbLine
 10
916.0178022653168
 20
1330.81465390423
 30
0.0
 11
916.0178022653168
 21
1332.590236340808
 31
0.0
  0
ELLIPSE
  5
132C
330
1F
100
AcDbEntity
  8
AM_VIS
100
AcDbEllipse
 10
915.6028022653147
 20
1331.212610761587
 30
0.0
 11
-6.045738556206449
 21
-0.0000000000000006
 31
0.0
210
0.0
220
0.0
230
1.0
 40
0.6604032811047506
 41
4.643691567058448
 42
4.781086393710276
  0
LINE
  5
132D
330
1F
100
AcDbEntity
  8
AM_VIS
100
AcDbLine
 10
915.1878022653166
 20
1332.590236340807
 30
0.0
 11
915.1878022653166
 21
1330.81465390423
 31
0.0
  0
LINE
  5
132E
330
1F
100
AcDbEntity
  8
AM_VIS
100
AcDbLine
 10
915.1878022653166
 20
1335.195818777385
 30
0.0
 11
915.1878022653166
 21
1333.420236340808
 31
0.0
  0
ELLIPSE
  5
132F
330
1F
100
AcDbEntity
  8
AM_VIS
100
AcDbEllipse
 10
915.6028022653147
 20
1334.797861920028
 30
0.0
 11
-6.045738556206449
 21
-0.0000000000000006
 31
0.0
210
0.0
220
0.0
230
1.0
 40
0.6604032811047503
 41
1.50209891346931
 42
1.639493740121138
  0
LINE
  5
1330
330
1F
100
AcDbEntity
  8
AM_VIS
100
AcDbLine
 10
916.0178022653168
 20
1333.420236340808
 30
0.0
 11
916.0178022653168
 21
1335.195818777385
 31
0.0
  0
LINE
  5
1331
330
1F
100
AcDbEntity
  8
AM_VIS
100
AcDbLine
 10
934.1028022653139
 20
1296.420236340808
 30
0.0
 11
934.1028022653139
 21
1296.005236340808
 31
0.0
  0
LINE
  5
1332
330
1F
100
AcDbEntity
  8
AM_VIS
100
AcDbLine
 10
934.1028022653139
 20
1296.005236340808
 30
0.0
 11
934.1028022653139
 21
1295.590236340808
 31
0.0
  0
LINE
  5
1333
330
1F
100
AcDbEntity
  8
AM_VIS
100
AcDbLine
 10
934.1028022653139
 20
1296.005236340808
 30
0.0
 11
934.5178022653147
 21
1296.420236340809
 31
0.0
  0
LINE
  5
1334
330
1F
100
AcDbEntity
  8
AM_VIS
100
AcDbLine
 10
933.6878022653147
 20
1296.420236340807
 30
0.0
 11
934.1028022653139
 21
1296.005236340808
 31
0.0
  0
LINE
  5
1335
330
1F
100
AcDbEntity
  8
AM_VIS
100
AcDbLine
 10
934.5178022653167
 20
1296.420236340808
 30
0.0
 11
933.6878022653168
 21
1296.420236340808
 31
0.0
  0
LINE
  5
1336
330
1F
100
AcDbEntity
  8
AM_VIS
100
AcDbLine
 10
933.6878022653166
 20
1295.590236340808
 30
0.0
 11
933.6878022653166
 21
1296.420236340808
 31
0.0
  0
LINE
  5
1337
330
1F
100
AcDbEntity
  8
AM_VIS
100
AcDbLine
 10
934.5178022653167
 20
1296.005236340808
 30
0.0
 11
934.1028022653137
 21
1296.005236340808
 31
0.0
  0
LINE
  5
1338
330
1F
100
AcDbEntity
  8
AM_VIS
100
AcDbLine
 10
934.5178022653145
 20
1295.590236340807
 30
0.0
 11
934.1028022653137
 21
1296.005236340808
 31
0.0
  0
LINE
  5
1339
330
1F
100
AcDbEntity
  8
AM_VIS
100
AcDbLine
 10
933.6878022653168
 20
1295.590236340808
 30
0.0
 11
934.5178022653167
 21
1295.590236340808
 31
0.0
  0
LINE
  5
133A
330
1F
100
AcDbEntity
  8
AM_VIS
100
AcDbLine
 10
934.1028022653137
 20
1296.005236340808
 30
0.0
 11
933.6878022653166
 21
1296.005236340808
 31
0.0
  0
LINE
  5
133B
330
1F
100
AcDbEntity
  8
AM_VIS
100
AcDbLine
 10
934.1028022653135
 20
1296.005236340808
 30
0.0
 11
933.6878022653143
 21
1295.590236340809
 31
0.0
  0
LINE
  5
133C
330
1F
100
AcDbEntity
  8
AM_VIS
100
AcDbLine
 10
934.5178022653167
 20
1296.420236340808
 30
0.0
 11
934.5178022653167
 21
1295.590236340808
 31
0.0
  0
ARC
  5
133D
330
1F
100
AcDbEntity
  8
AM_VIS
100
AcDbCircle
 10
934.1028022653148
 20
1296.005236340808
 30
0.0
 40
3.999999999999971
100
AcDbArc
 50
200.364134806326
 51
69.63586519368383
  0
LINE
  5
133E
330
1F
100
AcDbEntity
  8
AM_VIS
100
AcDbLine
 10
934.5178022653168
 20
1295.590236340808
 30
0.0
 11
936.2933847018915
 21
1295.590236340808
 31
0.0
  0
ELLIPSE
  5
133F
330
1F
100
AcDbEntity
  8
AM_VIS
100
AcDbEllipse
 10
932.310176686094
 20
1296.005236340808
 30
0.0
 11
-0.0000000000000006
 21
6.045738556206283
 31
0.0
210
0.0
220
0.0
230
1.0
 40
0.6604032811046718
 41
4.643691567058777
 42
4.781086393710602
  0
LINE
  5
1340
330
1F
100
AcDbEntity
  8
AM_VIS
100
AcDbLine
 10
936.2933847018915
 20
1296.420236340808
 30
0.0
 11
934.5178022653168
 21
1296.420236340808
 31
0.0
  0
LINE
  5
1341
330
1F
100
AcDbEntity
  8
AM_VIS
100
AcDbLine
 10
933.6878022653168
 20
1296.420236340808
 30
0.0
 11
931.9122198287359
 21
1296.420236340808
 31
0.0
  0
ELLIPSE
  5
1342
330
1F
100
AcDbEntity
  8
AM_VIS
100
AcDbEllipse
 10
935.8954278445343
 20
1296.005236340808
 30
0.0
 11
-0.0000000000000006
 21
6.045738556206687
 31
0.0
210
0.0
220
0.0
230
1.0
 40
0.6604032811047999
 41
1.502098913468988
 42
1.639493740120804
  0
LINE
  5
1343
330
1F
100
AcDbEntity
  8
AM_VIS
100
AcDbLine
 10
931.9122198287359
 20
1295.590236340808
 30
0.0
 11
933.6878022653168
 21
1295.590236340808
 31
0.0
  0
LINE
  5
1344
330
1F
100
AcDbEntity
  8
AM_VIS
100
AcDbLine
 10
934.5178022653168
 20
1293.81465390423
 30
0.0
 11
934.5178022653168
 21
1295.590236340808
 31
0.0
  0
ELLIPSE
  5
1345
330
1F
100
AcDbEntity
  8
AM_VIS
100
AcDbEllipse
 10
934.1028022653148
 20
1294.212610761587
 30
0.0
 11
-6.045738556206449
 21
-0.0000000000000006
 31
0.0
210
0.0
220
0.0
230
1.0
 40
0.6604032811047506
 41
4.643691567058448
 42
4.781086393710276
  0
LINE
  5
1346
330
1F
100
AcDbEntity
  8
AM_VIS
100
AcDbLine
 10
933.6878022653166
 20
1295.590236340808
 30
0.0
 11
933.6878022653166
 21
1293.81465390423
 31
0.0
  0
LINE
  5
1347
330
1F
100
AcDbEntity
  8
AM_VIS
100
AcDbLine
 10
933.6878022653166
 20
1298.195818777385
 30
0.0
 11
933.6878022653166
 21
1296.420236340808
 31
0.0
  0
ELLIPSE
  5
1348
330
1F
100
AcDbEntity
  8
AM_VIS
100
AcDbEllipse
 10
934.1028022653148
 20
1297.797861920028
 30
0.0
 11
-6.045738556206449
 21
-0.0000000000000006
 31
0.0
210
0.0
220
0.0
230
1.0
 40
0.6604032811047503
 41
1.50209891346931
 42
1.639493740121138
  0
LINE
  5
1349
330
1F
100
AcDbEntity
  8
AM_VIS
100
AcDbLine
 10
934.5178022653168
 20
1296.420236340808
 30
0.0
 11
934.5178022653168
 21
1298.195818777385
 31
0.0
  0
TEXT
  5
1418
330
1F
100
AcDbEntity
  8
0
100
AcDbText
 10
778.1299538608378
 20
1373.040754524889
 30
0.0
 40
3.2
  1
A
100
AcDbText
  0
TEXT
  5
1419
330
1F
100
AcDbEntity
  8
0
100
AcDbText
 10
829.2553906130907
 20
1399.849726827437
 30
0.0
 40
3.2
  1
B
 50
180.0
100
AcDbText
  0
TEXT
  5
141A
330
1F
100
AcDbEntity
  8
0
100
AcDbText
 10
784.3638851009115
 20
1221.346198302844
 30
0.0
 40
3.2
  1
R1
100
AcDbText
  0
TEXT
  5
141B
330
1F
100
AcDbEntity
  8
0
100
AcDbText
 10
817.9952499709362
 20
1221.346197431768
 30
0.0
 40
3.2
  1
R2
100
AcDbText
  0
TEXT
  5
141C
330
1F
100
AcDbEntity
  8
0
100
AcDbText
 10
793.3776297512843
 20
1244.846197431768
 30
0.0
 40
3.2
  1
P
100
AcDbText
  0
LINE
  5
1593
330
1F
100
AcDbEntity
  8
AM_7
100
AcDbLine
 10
778.1066528759216
 20
1234.707677964921
 30
0.0
 11
788.7566528759216
 21
1234.707677964921
 31
0.0
1001
GENIUS_GENOREF_13
1005
1597
  0
LINE
  5
1594
330
1F
100
AcDbEntity
  8
AM_7
100
AcDbLine
 10
778.1066528759216
 20
1234.707677964921
 30
0.0
 11
778.1066528759216
 21
1245.357677964921
 31
0.0
1001
GENIUS_GENOREF_13
1005
1597
  0
LINE
  5
1595
330
1F
100
AcDbEntity
  8
AM_7
100
AcDbLine
 10
778.1066528759216
 20
1234.707677964921
 30
0.0
 11
767.4566528759214
 21
1234.707677964921
 31
0.0
1001
GENIUS_GENOREF_13
1005
1597
  0
LINE
  5
1596
102
{ACAD_REACTORS
330
179E
102
}
330
1F
100
AcDbEntity
  8
AM_7
100
AcDbLine
 10
778.1066528759216
 20
1234.707677964921
 30
0.0
 11
778.1066528759216
 21
1224.057677964921
 31
0.0
1001
GENIUS_GENOREF_13
1005
1597
  0
POINT
  5
1597
330
1F
100
AcDbEntity
  8
0
 60
     1
100
AcDbPoint
 10
0.0
 20
0.0
 30
0.0
1001
GENIUS_GENODEF_13
1002
{
1000
HIER
1070
    10
1002
}
1002
{
1000
MANEDIT
1070
     0
1002
}
1002
{
1000
NOSEL
1070
     0
1002
}
1002
{
1000
BEHIND
1070
     0
1002
}
1002
{
1000
OTHER
1070
     0
1002
}
1002
{
1000
REACTOR
1002
}
1001
GENIUS_GENOBJ-N-CRS_13
1002
{
1000
OWNER
1000
GEN
1002
}
1001
GENIUS_GENOENT_13
1002
{
1000
MYREF
1005
1597
1002
}
1002
{
1000
GRP
1005
0
1002
}
1001
GENIUS_GENOLIS_13
1002
{
1000
ENT
1005
1596
1005
1595
1005
1594
1005
1593
1002
}
  0
LINE
  5
15A5
330
1F
100
AcDbEntity
  8
AM_7
100
AcDbLine
 10
804.1066528759214
 20
1234.707677964921
 30
0.0
 11
814.7566528759217
 21
1234.707677964921
 31
0.0
1001
GENIUS_GENOREF_13
1005
15A9
  0
LINE
  5
15A6
330
1F
100
AcDbEntity
  8
AM_7
100
AcDbLine
 10
804.1066528759214
 20
1234.707677964921
 30
0.0
 11
804.1066528759214
 21
1245.357677964921
 31
0.0
1001
GENIUS_GENOREF_13
1005
15A9
  0
LINE
  5
15A7
330
1F
100
AcDbEntity
  8
AM_7
100
AcDbLine
 10
804.1066528759214
 20
1234.707677964921
 30
0.0
 11
793.4566528759214
 21
1234.707677964921
 31
0.0
1001
GENIUS_GENOREF_13
1005
15A9
  0
LINE
  5
15A8
102
{ACAD_REACTORS
330
179E
330
17C4
102
}
330
1F
100
AcDbEntity
  8
AM_7
100
AcDbLine
 10
804.1066528759214
 20
1234.707677964921
 30
0.0
 11
804.1066528759214
 21
1224.057677964921
 31
0.0
1001
GENIUS_GENOREF_13
1005
15A9
  0
POINT
  5
15A9
330
1F
100
AcDbEntity
  8
0
 60
     1
100
AcDbPoint
 10
0.0
 20
0.0
 30
0.0
1001
GENIUS_GENODEF_13
1002
{
1000
HIER
1070
    10
1002
}
1002
{
1000
MANEDIT
1070
     0
1002
}
1002
{
1000
NOSEL
1070
     0
1002
}
1002
{
1000
BEHIND
1070
     0
1002
}
1002
{
1000
OTHER
1070
     0
1002
}
1002
{
1000
REACTOR
1002
}
1001
GENIUS_GENOENT_13
1002
{
1000
MYREF
1005
15A9
1002
}
1002
{
1000
GRP
1005
0
1002
}
1001
GENIUS_GENOBJ-N-CRS_13
1002
{
1000
OWNER
1000
GEN
1002
}
1001
GENIUS_GENOLIS_13
1002
{
1000
ENT
1005
15A8
1005
15A7
1005
15A6
1005
15A5
1002
}
  0
LINE
  5
15B7
330
1F
100
AcDbEntity
  8
AM_7
100
AcDbLine
 10
830.1066528759216
 20
1234.707677964921
 30
0.0
 11
840.7566528759216
 21
1234.707677964921
 31
0.0
1001
GENIUS_GENOREF_13
1005
15BB
  0
LINE
  5
15B8
330
1F
100
AcDbEntity
  8
AM_7
100
AcDbLine
 10
830.1066528759216
 20
1234.707677964921
 30
0.0
 11
830.1066528759216
 21
1245.357677964921
 31
0.0
1001
GENIUS_GENOREF_13
1005
15BB
  0
LINE
  5
15B9
330
1F
100
AcDbEntity
  8
AM_7
100
AcDbLine
 10
830.1066528759216
 20
1234.707677964921
 30
0.0
 11
819.4566528759214
 21
1234.707677964921
 31
0.0
1001
GENIUS_GENOREF_13
1005
15BB
  0
LINE
  5
15BA
102
{ACAD_REACTORS
330
17C4
102
}
330
1F
100
AcDbEntity
  8
AM_7
100
AcDbLine
 10
830.1066528759216
 20
1234.707677964921
 30
0.0
 11
830.1066528759216
 21
1224.057677964921
 31
0.0
1001
GENIUS_GENOREF_13
1005
15BB
  0
POINT
  5
15BB
330
1F
100
AcDbEntity
  8
0
 60
     1
100
AcDbPoint
 10
0.0
 20
0.0
 30
0.0
1001
GENIUS_GENODEF_13
1002
{
1000
HIER
1070
    10
1002
}
1002
{
1000
MANEDIT
1070
     0
1002
}
1002
{
1000
NOSEL
1070
     0
1002
}
1002
{
1000
BEHIND
1070
     0
1002
}
1002
{
1000
OTHER
1070
     0
1002
}
1002
{
1000
REACTOR
1002
}
1001
GENIUS_GENOENT_13
1002
{
1000
MYREF
1005
15BB
1002
}
1002
{
1000
GRP
1005
0
1002
}
1001
GENIUS_GENOBJ-N-CRS_13
1002
{
1000
OWNER
1000
GEN
1002
}
1001
GENIUS_GENOLIS_13
1002
{
1000
ENT
1005
15BA
1005
15B9
1005
15B8
1005
15B7
1002
}
  0
LINE
  5
15C9
330
1F
100
AcDbEntity
  8
AM_7
  6
AM_ISO08W050x2
100
AcDbLine
 10
810.6066528759216
 20
1246.207677964921
 30
0.0
 11
814.8566528759214
 21
1246.207677964921
 31
0.0
1001
GENIUS_GENOREF_13
1005
15CD
  0
LINE
  5
15CA
330
1F
100
AcDbEntity
  8
AM_7
  6
AM_ISO08W050x2
100
AcDbLine
 10
810.6066528759216
 20
1246.207677964921
 30
0.0
 11
810.6066528759216
 21
1250.457677964921
 31
0.0
1001
GENIUS_GENOREF_13
1005
15CD
  0
LINE
  5
15CB
330
1F
100
AcDbEntity
  8
AM_7
  6
AM_ISO08W050x2
100
AcDbLine
 10
810.6066528759216
 20
1246.207677964921
 30
0.0
 11
806.3566528759215
 21
1246.207677964921
 31
0.0
1001
GENIUS_GENOREF_13
1005
15CD
  0
LINE
  5
15CC
330
1F
100
AcDbEntity
  8
AM_7
  6
AM_ISO08W050x2
100
AcDbLine
 10
810.6066528759216
 20
1246.207677964921
 30
0.0
 11
810.6066528759216
 21
1241.957677964921
 31
0.0
1001
GENIUS_GENOREF_13
1005
15CD
  0
POINT
  5
15CD
330
1F
100
AcDbEntity
  8
0
 60
     1
100
AcDbPoint
 10
0.0
 20
0.0
 30
0.0
1001
GENIUS_GENOLIS_13
1002
{
1000
ENT
1005
15CC
1005
15CB
1005
15CA
1005
15C9
1002
}
1001
GENIUS_GENODEF_13
1002
{
1000
HIER
1070
    10
1002
}
1002
{
1000
MANEDIT
1070
     0
1002
}
1002
{
1000
NOSEL
1070
     0
1002
}
1002
{
1000
BEHIND
1070
     0
1002
}
1002
{
1000
OTHER
1070
     0
1002
}
1002
{
1000
REACTOR
1002
}
1001
GENIUS_GENOENT_13
1002
{
1000
MYREF
1005
15CD
1002
}
1002
{
1000
GRP
1005
0
1002
}
1001
GENIUS_GENOBJ-N-CRS_13
1002
{
1000
OWNER
1000
GEN
1002
}
  0
LINE
  5
15DB
330
1F
100
AcDbEntity
  8
AM_7
  6
AM_ISO08W050x2
100
AcDbLine
 10
797.6066528759215
 20
1223.207677964921
 30
0.0
 11
801.8566528759215
 21
1223.207677964921
 31
0.0
1001
GENIUS_GENOREF_13
1005
15DF
  0
LINE
  5
15DC
330
1F
100
AcDbEntity
  8
AM_7
  6
AM_ISO08W050x2
100
AcDbLine
 10
797.6066528759215
 20
1223.207677964921
 30
0.0
 11
797.6066528759215
 21
1227.457677964921
 31
0.0
1001
GENIUS_GENOREF_13
1005
15DF
  0
LINE
  5
15DD
330
1F
100
AcDbEntity
  8
AM_7
  6
AM_ISO08W050x2
100
AcDbLine
 10
797.6066528759215
 20
1223.207677964921
 30
0.0
 11
793.3566528759215
 21
1223.207677964921
 31
0.0
1001
GENIUS_GENOREF_13
1005
15DF
  0
LINE
  5
15DE
330
1F
100
AcDbEntity
  8
AM_7
  6
AM_ISO08W050x2
100
AcDbLine
 10
797.6066528759215
 20
1223.207677964921
 30
0.0
 11
797.6066528759215
 21
1218.957677964921
 31
0.0
1001
GENIUS_GENOREF_13
1005
15DF
  0
POINT
  5
15DF
330
1F
100
AcDbEntity
  8
0
 60
     1
100
AcDbPoint
 10
0.0
 20
0.0
 30
0.0
1001
GENIUS_GENODEF_13
1002
{
1000
HIER
1070
    10
1002
}
1002
{
1000
MANEDIT
1070
     0
1002
}
1002
{
1000
NOSEL
1070
     0
1002
}
1002
{
1000
BEHIND
1070
     0
1002
}
1002
{
1000
OTHER
1070
     0
1002
}
1002
{
1000
REACTOR
1002
}
1001
GENIUS_GENOENT_13
1002
{
1000
MYREF
1005
15DF
1002
}
1002
{
1000
GRP
1005
0
1002
}
1001
GENIUS_GENOBJ-N-CRS_13
1002
{
1000
OWNER
1000
GEN
1002
}
1001
GENIUS_GENOLIS_13
1002
{
1000
ENT
1005
15DE
1005
15DD
1005
15DC
1005
15DB
1002
}
  0
LINE
  5
1647
330
1F
100
AcDbEntity
  8
AM_7
100
AcDbLine
 10
819.1066528759215
 20
1386.643565553092
 30
0.0
 11
829.7566528759215
 21
1386.643565553092
 31
0.0
1001
GENIUS_GENOREF_13
1005
164B
  0
LINE
  5
1648
102
{ACAD_REACTORS
330
1702
102
}
330
1F
100
AcDbEntity
  8
AM_7
100
AcDbLine
 10
819.1066528759215
 20
1386.643565553092
 30
0.0
 11
819.1066528759215
 21
1397.293565553092
 31
0.0
1001
GENIUS_GENOREF_13
1005
164B
  0
LINE
  5
1649
330
1F
100
AcDbEntity
  8
AM_7
100
AcDbLine
 10
819.1066528759215
 20
1386.643565553092
 30
0.0
 11
808.4566528759214
 21
1386.643565553092
 31
0.0
1001
GENIUS_GENOREF_13
1005
164B
  0
LINE
  5
164A
330
1F
100
AcDbEntity
  8
AM_7
100
AcDbLine
 10
819.1066528759215
 20
1386.643565553092
 30
0.0
 11
819.1066528759215
 21
1375.993565553092
 31
0.0
1001
GENIUS_GENOREF_13
1005
164B
  0
POINT
  5
164B
330
1F
100
AcDbEntity
  8
0
 60
     1
100
AcDbPoint
 10
0.0
 20
0.0
 30
0.0
1001
GENIUS_GENOENT_13
1002
{
1000
MYREF
1005
164B
1002
}
1002
{
1000
GRP
1005
0
1002
}
1001
GENIUS_GENOBJ-N-CRS_13
1002
{
1000
OWNER
1000
GEN
1002
}
1001
GENIUS_GENODEF_13
1002
{
1000
HIER
1070
    10
1002
}
1002
{
1000
MANEDIT
1070
     0
1002
}
1002
{
1000
NOSEL
1070
     0
1002
}
1002
{
1000
BEHIND
1070
     0
1002
}
1002
{
1000
OTHER
1070
     0
1002
}
1002
{
1000
REACTOR
1002
}
1001
GENIUS_GENOLIS_13
1002
{
1000
ENT
1005
164A
1005
1649
1005
1648
1005
1647
1002
}
  0
LINE
  5
1659
330
1F
100
AcDbEntity
  8
AM_7
100
AcDbLine
 10
789.1066528759215
 20
1386.643565553092
 30
0.0
 11
799.7566528759216
 21
1386.643565553092
 31
0.0
1001
GENIUS_GENOREF_13
1005
165D
  0
LINE
  5
165A
102
{ACAD_REACTORS
330
1702
102
}
330
1F
100
AcDbEntity
  8
AM_7
100
AcDbLine
 10
789.1066528759215
 20
1386.643565553092
 30
0.0
 11
789.1066528759215
 21
1397.293565553092
 31
0.0
1001
GENIUS_GENOREF_13
1005
165D
  0
LINE
  5
165B
330
1F
100
AcDbEntity
  8
AM_7
100
AcDbLine
 10
789.1066528759215
 20
1386.643565553092
 30
0.0
 11
778.4566528759214
 21
1386.643565553092
 31
0.0
1001
GENIUS_GENOREF_13
1005
165D
  0
LINE
  5
165C
330
1F
100
AcDbEntity
  8
AM_7
100
AcDbLine
 10
789.1066528759215
 20
1386.643565553092
 30
0.0
 11
789.1066528759215
 21
1375.993565553092
 31
0.0
1001
GENIUS_GENOREF_13
1005
165D
  0
POINT
  5
165D
330
1F
100
AcDbEntity
  8
0
 60
     1
100
AcDbPoint
 10
0.0
 20
0.0
 30
0.0
1001
GENIUS_GENOENT_13
1002
{
1000
MYREF
1005
165D
1002
}
1002
{
1000
GRP
1005
0
1002
}
1001
GENIUS_GENOBJ-N-CRS_13
1002
{
1000
OWNER
1000
GEN
1002
}
1001
GENIUS_GENODEF_13
1002
{
1000
HIER
1070
    10
1002
}
1002
{
1000
MANEDIT
1070
     0
1002
}
1002
{
1000
NOSEL
1070
     0
1002
}
1002
{
1000
BEHIND
1070
     0
1002
}
1002
{
1000
OTHER
1070
     0
1002
}
1002
{
1000
REACTOR
1002
}
1001
GENIUS_GENOLIS_13
1002
{
1000
ENT
1005
165C
1005
165B
1005
165A
1005
1659
1002
}
  0
LINE
  5
166B
330
1F
100
AcDbEntity
  8
AM_7
  6
AM_ISO08W050x2
100
AcDbLine
 10
923.102802265315
 20
1308.805236340808
 30
0.0
 11
929.952802265315
 21
1308.805236340808
 31
0.0
1001
GENIUS_GENOREF_13
1005
166F
  0
LINE
  5
166C
330
1F
100
AcDbEntity
  8
AM_7
  6
AM_ISO08W050x2
100
AcDbLine
 10
923.102802265315
 20
1308.805236340808
 30
0.0
 11
923.102802265315
 21
1315.655236340808
 31
0.0
1001
GENIUS_GENOREF_13
1005
166F
  0
LINE
  5
166D
102
{ACAD_REACTORS
330
1893
102
}
330
1F
100
AcDbEntity
  8
AM_7
  6
AM_ISO08W050x2
100
AcDbLine
 10
923.102802265315
 20
1308.805236340808
 30
0.0
 11
916.252802265315
 21
1308.805236340808
 31
0.0
1001
GENIUS_GENOREF_13
1005
166F
  0
LINE
  5
166E
330
1F
100
AcDbEntity
  8
AM_7
  6
AM_ISO08W050x2
100
AcDbLine
 10
923.102802265315
 20
1308.805236340808
 30
0.0
 11
923.102802265315
 21
1301.955236340808
 31
0.0
1001
GENIUS_GENOREF_13
1005
166F
  0
POINT
  5
166F
330
1F
100
AcDbEntity
  8
0
 60
     1
100
AcDbPoint
 10
0.0
 20
0.0
 30
0.0
1001
GENIUS_GENOENT_13
1002
{
1000
MYREF
1005
166F
1002
}
1002
{
1000
GRP
1005
0
1002
}
1001
GENIUS_GENOBJ-N-CRS_13
1002
{
1000
OWNER
1000
GEN
1002
}
1001
GENIUS_GENOLIS_13
1002
{
1000
ENT
1005
166E
1005
166D
1005
166C
1005
166B
1002
}
1001
GENIUS_GENODEF_13
1002
{
1000
HIER
1070
    10
1002
}
1002
{
1000
MANEDIT
1070
     0
1002
}
1002
{
1000
NOSEL
1070
     0
1002
}
1002
{
1000
BEHIND
1070
     0
1002
}
1002
{
1000
OTHER
1070
     0
1002
}
1002
{
1000
REACTOR
1002
}
  0
LINE
  5
167C
330
1F
100
AcDbEntity
  8
AM_7
100
AcDbLine
 10
867.1066528759215
 20
1386.643565553092
 30
0.0
 11
755.777130551545
 21
1386.643565553092
 31
0.0
1001
GENIUS_GENOBJ-N-CEN_13
1002
{
1000
OWNER
1000
GEN
1002
}
1001
GENIUS_GENODEF_13
1002
{
1000
HIER
1070
     0
1002
}
1002
{
1000
MANEDIT
1070
     0
1002
}
1002
{
1000
NOSEL
1070
     0
1002
}
1002
{
1000
BEHIND
1070
     0
1002
}
1002
{
1000
OTHER
1070
     0
1002
}
1002
{
1000
REACTOR
1002
}
1001
GENIUS_GENCEN_19
1002
{
1040
2.0
1002
}
  0
LINE
  5
168B
330
1F
100
AcDbEntity
  8
AM_7
100
AcDbLine
 10
755.0792464446531
 20
1234.707677964921
 30
0.0
 11
869.8213265400354
 21
1234.707677964921
 31
0.0
1001
GENIUS_GENODEF_13
1002
{
1000
HIER
1070
     0
1002
}
1002
{
1000
MANEDIT
1070
     0
1002
}
1002
{
1000
NOSEL
1070
     0
1002
}
1002
{
1000
BEHIND
1070
     0
1002
}
1002
{
1000
OTHER
1070
     0
1002
}
1002
{
1000
REACTOR
1002
}
1001
GENIUS_GENOBJ-N-CEN_13
1002
{
1000
OWNER
1000
GEN
1002
}
1001
GENIUS_GENCEN_19
1002
{
1040
2.0
1002
}
  0
DIMENSION
  5
16CE
330
1F
100
AcDbEntity
  8
AM_5
100
AcDbDimension
  2
*D2
 10
745.1066528759215
 20
1375.143565553092
 30
0.0
 11
741.4311361436379
 21
1386.643565553092
 31
0.0
 70
    32
 71
     5
 42
22.99999999999977
  3
AM_ISO$0
100
AcDbAlignedDimension
 13
791.8566528759215
 23
1398.143565553092
 33
0.0
 14
805.1066528759216
 24
1375.143565553092
 34
0.0
 50
90.0
100
AcDbRotatedDimension
1001
ACAD
1000
DSTYLE
1002
{
1070
    40
1040
1.5
1070
   272
1070
     8
1002
}
  0
DIMENSION
  5
16F4
102
{ACAD_XDICTIONARY
360
1701
102
}
102
{ACAD_REACTORS
330
1702
102
}
330
1F
100
AcDbEntity
  8
AM_5
100
AcDbDimension
  2
*D3
 10
819.1066528759215
 20
1413.643565553092
 30
0.0
 11
804.1066528759214
 21
1417.318565553092
 31
0.0
 70
    32
 71
     5
 42
30.0
  3
AM_ISO$0
100
AcDbAlignedDimension
 13
789.1066528759215
 23
1397.293565553092
 33
0.0
 14
819.1066528759215
 24
1397.293565553092
 34
0.0
100
AcDbRotatedDimension
1001
ACAD
1000
DSTYLE
1002
{
1070
    40
1040
1.5
1070
   272
1070
     8
1002
}
  0
DIMENSION
  5
171A
330
1F
100
AcDbEntity
  8
AM_5
100
AcDbDimension
  2
*D4
 10
817.1066528759215
 20
1277.805236340808
 30
0.0
 11
804.1066528759214
 21
1281.480753073091
 31
0.0
 70
    32
 71
     5
 42
26.0
  3
AM_ISO$0
100
AcDbAlignedDimension
 13
791.1066528759215
 23
1291.755236340808
 33
0.0
 14
817.1066528759215
 24
1291.755236340808
 34
0.0
100
AcDbRotatedDimension
1001
ACAD
1000
DSTYLE
1002
{
1070
    40
1040
1.5
1070
   272
1070
     8
1002
}
  0
DIMENSION
  5
1790
102
{ACAD_XDICTIONARY
360
179D
102
}
102
{ACAD_REACTORS
330
179E
102
}
330
1F
100
AcDbEntity
  8
AM_5
100
AcDbDimension
  2
*D5
 10
804.1066528759214
 20
1205.707677964921
 30
0.0
 11
791.1066528759215
 21
1209.383194697205
 31
0.0
 70
    32
 71
     5
 42
26.0
  3
AM_ISO$0
100
AcDbAlignedDimension
 13
778.1066528759216
 23
1224.057677964921
 33
0.0
 14
804.1066528759214
 24
1224.057677964921
 34
0.0
100
AcDbRotatedDimension
1001
ACAD
1000
DSTYLE
1002
{
1070
    40
1040
1.5
1070
   272
1070
     8
1002
}
  0
DIMENSION
  5
17B6
102
{ACAD_XDICTIONARY
360
17C3
102
}
102
{ACAD_REACTORS
330
17C4
102
}
330
1F
100
AcDbEntity
  8
AM_5
100
AcDbDimension
  2
*D6
 10
830.1066528759216
 20
1205.707677964921
 30
0.0
 11
817.1066528759215
 21
1209.383194697205
 31
0.0
 70
    32
 71
     5
 42
26.0
  3
AM_ISO$0
100
AcDbAlignedDimension
 13
804.1066528759214
 23
1224.057677964921
 33
0.0
 14
830.1066528759216
 24
1224.057677964921
 34
0.0
100
AcDbRotatedDimension
1001
ACAD
1000
DSTYLE
1002
{
1070
    40
1040
1.5
1070
   272
1070
     8
1002
}
  0
DIMENSION
  5
17DC
102
{ACAD_XDICTIONARY
360
17E9
102
}
102
{ACAD_REACTORS
330
17EA
102
}
330
1F
100
AcDbEntity
  8
AM_5
100
AcDbDimension
  2
*D7
 10
877.1066528759215
 20
1338.205236340807
 30
0.0
 11
873.4316528759213
 21
1315.005236340808
 31
0.0
 70
    32
 71
     5
 42
46.40000000000009
  3
AM_ISO$0
100
AcDbAlignedDimension
 13
865.1066528759216
 23
1291.805236340807
 33
0.0
 14
865.1066528759216
 24
1338.205236340807
 34
0.0
 50
90.0
100
AcDbRotatedDimension
1001
ACAD
1000
DSTYLE
1002
{
1070
    40
1040
1.5
1070
   272
1070
     8
1002
}
  0
DIMENSION
  5
1802
102
{ACAD_XDICTIONARY
360
180F
102
}
102
{ACAD_REACTORS
330
1810
102
}
330
1F
100
AcDbEntity
  8
AM_5
100
AcDbDimension
  2
*D8
 10
865.1066528759216
 20
1266.805236340808
 30
0.0
 11
812.1066528759214
 21
1270.480236340808
 31
0.0
 70
    32
 71
     5
 42
106.0
  3
AM_ISO$0
100
AcDbAlignedDimension
 13
759.1066528759215
 23
1292.805236340808
 33
0.0
 14
865.1066528759216
 24
1291.805236340807
 34
0.0
100
AcDbRotatedDimension
1001
ACAD
1000
DSTYLE
1002
{
1070
    40
1040
1.5
1070
   144
1040
1.0
1070
   272
1070
     8
1002
}
  0
DIMENSION
  5
1885
102
{ACAD_XDICTIONARY
360
1892
102
}
102
{ACAD_REACTORS
330
1893
102
}
330
1F
100
AcDbEntity
  8
AM_5
100
AcDbDimension
  2
*D9
 10
896.1028022653151
 20
1308.805236340808
 30
0.0
 11
892.4278022653149
 21
1300.305236340808
 31
0.0
 70
    32
 71
     5
 42
17.0
  3
AM_ISO$0
100
AcDbAlignedDimension
 13
908.102802265315
 23
1291.805236340807
 33
0.0
 14
916.252802265315
 24
1308.805236340808
 34
0.0
 50
90.0
100
AcDbRotatedDimension
1001
ACAD
1000
DSTYLE
1002
{
1070
    40
1040
1.5
1070
   272
1070
     8
1002
}
  0
DIMENSION
  5
18C7
102
{ACAD_XDICTIONARY
360
18D4
102
}
102
{ACAD_REACTORS
330
18D5
102
}
330
1F
100
AcDbEntity
  8
AM_5
100
AcDbDimension
  2
*D10
 10
734.1066528759215
 20
1401.643565553092
 30
0.0
 11
730.4316528759214
 21
1386.643565553092
 31
0.0
 70
    32
 71
     5
 42
30.0
  3
AM_ISO$0
100
AcDbAlignedDimension
 13
760.1066528759215
 23
1371.643565553092
 33
0.0
 14
760.1066528759215
 24
1401.643565553092
 34
0.0
 50
90.0
100
AcDbRotatedDimension
1001
ACAD
1000
DSTYLE
1002
{
1070
    40
1040
1.5
1070
   272
1070
     8
1002
}
  0
TEXT
  5
18E4
330
1F
100
AcDbEntity
  8
AM_5
100
AcDbText
 10
753.8367391502456
 20
1415.469161980313
 30
0.0
 40
5.25
  1
2-%%c4.5
100
AcDbText
  0
INSERT
  5
18E5
330
1F
100
AcDbEntity
  8
AM_5
100
AcDbBlockReference
  2
*S12
 10
-4.315135628244661
 20
-20.16565792889264
 30
0.0
  0
TEXT
  5
18E6
330
1F
100
AcDbEntity
  8
AM_5
100
AcDbText
 10
845.9077684136648
 20
1205.809148969189
 30
0.0
 40
5.25
  1
5-PT3/8
100
AcDbText
  0
TEXT
  5
18FB
330
1F
100
AcDbEntity
  8
AM_5
100
AcDbText
 10
886.7672241915062
 20
1279.901832827916
 30
0.0
 40
5.25
  1
G1/8
100
AcDbText
  0
INSERT
  5
18FC
330
1F
100
AcDbEntity
  8
AM_5
100
AcDbBlockReference
  2
*S13
 10
0.3082243296075831
 20
-20.16565792889264
 30
0.0
  0
DIMENSION
  5
1912
102
{ACAD_XDICTIONARY
360
1921
102
}
102
{ACAD_REACTORS
330
1922
102
}
330
1F
100
AcDbEntity
  8
AM_5
100
AcDbDimension
  2
*D11
 10
745.1066528759217
 20
1296.505236340808
 30
0.0
 11
745.1066528759215
 21
1310.492736340808
 31
0.0
 70
   160
 71
     5
 42
4.700000000000045
  3
AM_ISO$0
100
AcDbAlignedDimension
 13
760.1066528759215
 23
1291.805236340807
 33
0.0
 14
786.3566528759215
 24
1296.505236340808
 34
0.0
 50
90.0
100
AcDbRotatedDimension
1001
ACAD
1000
DSTYLE
1002
{
1070
    40
1040
1.5
1070
   272
1070
     8
1002
}
  0
INSERT
  5
1947
330
1F
100
AcDbEntity
  8
AM_5
100
AcDbBlockReference
  2
*S14
 10
-4.315135628244661
 20
-20.16565792889264
 30
0.0
  0
TEXT
  5
1948
330
1F
100
AcDbEntity
  8
AM_5
100
AcDbText
 10
830.8786682215373
 20
1277.899962057782
 30
0.0
 40
5.25
  1
2-%%c5.5
100
AcDbText
  0
INSERT
  5
34EA
330
1F
100
AcDbEntity
  8
AM_5
100
AcDbBlockReference
  2
*S15
 10
-4.315135628244661
 20
-20.16565792889264
 30
0.0
  0
LINE
  5
39E6
330
1F
100
AcDbEntity
  8
AM_7
  6
AM_ISO08W050x2
100
AcDbLine
 10
858.4783108267115
 20
1308.805236340808
 30
0.0
 11
867.456635515812
 21
1308.805236340808
 31
0.0
  0
ARC
  5
3BEB
330
1F
100
AcDbEntity
  8
AM_4
100
AcDbCircle
 10
778.1066528759216
 20
1234.707677964921
 30
0.0
 40
8.5
100
AcDbArc
 50
259.9999999999982
 51
189.9999999999986
  0
CIRCLE
  5
3BEC
330
1F
100
AcDbEntity
  8
AM_VIS
100
AcDbCircle
 10
778.1066528759216
 20
1234.707677964921
 30
0.0
 40
7.5
  0
ARC
  5
3BED
330
1F
100
AcDbEntity
  8
AM_4
100
AcDbCircle
 10
804.1066528759214
 20
1234.707677964921
 30
0.0
 40
8.5
100
AcDbArc
 50
259.9999999999982
 51
189.9999999999986
  0
CIRCLE
  5
3BEE
330
1F
100
AcDbEntity
  8
AM_VIS
100
AcDbCircle
 10
804.1066528759214
 20
1234.707677964921
 30
0.0
 40
7.5
  0
ARC
  5
3BEF
330
1F
100
AcDbEntity
  8
AM_4
100
AcDbCircle
 10
830.1066528759216
 20
1234.707677964921
 30
0.0
 40
8.5
100
AcDbArc
 50
259.9999999999982
 51
189.9999999999986
  0
CIRCLE
  5
3BF0
330
1F
100
AcDbEntity
  8
AM_VIS
100
AcDbCircle
 10
830.1066528759216
 20
1234.707677964921
 30
0.0
 40
7.5
  0
ARC
  5
3BF1
330
1F
100
AcDbEntity
  8
AM_4
100
AcDbCircle
 10
789.1066528759215
 20
1386.643565553092
 30
0.0
 40
8.5
100
AcDbArc
 50
259.9999999999982
 51
189.9999999999986
  0
CIRCLE
  5
3BF2
330
1F
100
AcDbEntity
  8
AM_VIS
100
AcDbCircle
 10
789.1066528759215
 20
1386.643565553092
 30
0.0
 40
7.5
  0
ARC
  5
3BF3
330
1F
100
AcDbEntity
  8
AM_4
100
AcDbCircle
 10
819.1066528759215
 20
1386.643565553092
 30
0.0
 40
8.5
100
AcDbArc
 50
259.9999999999982
 51
189.9999999999986
  0
CIRCLE
  5
3BF4
330
1F
100
AcDbEntity
  8
AM_VIS
100
AcDbCircle
 10
819.1066528759215
 20
1386.643565553092
 30
0.0
 40
7.5
  0
LINE
  5
40D9
330
1F
100
AcDbEntity
  8
LOGO
 62
     4
100
AcDbLine
 10
952.6075891128813
 20
1179.728396761962
 30
0.0
 11
717.524183641322
 21
1179.728396761962
 31
0.0
  0
LWPOLYLINE
  5
40DA
330
1F
100
AcDbEntity
  8
LOGO
 62
     4
100
AcDbPolyline
 90
        4
 70
     1
 43
0.0
 10
717.524183641322
 20
1179.728396761962
 10
952.6075891128815
 20
1179.728396761962
 10
952.6075891128815
 20
1449.343938560596
 10
717.524183641322
 20
1449.343938560596
1001
GENIUS_GENREC_14
1002
{
1000
PYDIR
1011
717.524183641322
1021
1449.343938560596
1031
0.0
1002
}
1002
{
1000
PXDIR
1011
952.6075891128815
1021
1179.728396761962
1031
0.0
1002
}
1002
{
1000
PORI
1011
717.524183641322
1021
1179.728396761962
1031
0.0
1002
}
1002
{
1000
PINS
1011
717.524183641322
1021
1179.728396761962
1031
0.0
1002
}
1002
{
1000
PINS2
1011
952.6075891128815
1021
1449.343938560596
1031
0.0
1002
}
1002
{
1000
C
1070
     1
1002
}
1001
GENIUS_GENODEF_13
1002
{
1000
HIER
1070
     0
1002
}
1002
{
1000
MANEDIT
1070
     0
1002
}
1002
{
1000
NOSEL
1070
     0
1002
}
1002
{
1000
BEHIND
1070
     0
1002
}
1002
{
1000
OTHER
1070
     0
1002
}
1002
{
1000
REACTOR
1002
}
1001
GENIUS_GENOBJ-N-REC_13
1002
{
1000
OWNER
1000
GEN
1002
}
  0
LWPOLYLINE
  5
40DB
330
1F
100
AcDbEntity
  8
LOGO
 62
     4
100
AcDbPolyline
 90
        4
 70
     1
 43
0.0
 10
717.524183641322
 20
1179.728396761962
 10
952.6075891128815
 20
1179.728396761962
 10
952.6075891128815
 20
1153.332219386397
 10
717.524183641322
 20
1153.332219386397
1001
GENIUS_GENREC_14
1002
{
1000
PYDIR
1011
717.524183641322
1021
1153.332219386397
1031
0.0
1002
}
1002
{
1000
PXDIR
1011
952.6075891128815
1021
1179.728396761962
1031
0.0
1002
}
1002
{
1000
PORI
1011
717.524183641322
1021
1179.728396761962
1031
0.0
1002
}
1002
{
1000
PINS
1011
717.524183641322
1021
1179.728396761962
1031
0.0
1002
}
1002
{
1000
PINS2
1011
952.6075891128815
1021
1153.332219386397
1031
0.0
1002
}
1002
{
1000
C
1070
     1
1002
}
1001
GENIUS_GENOBJ-N-REC_13
1002
{
1000
OWNER
1000
GEN
1002
}
1001
GENIUS_GENODEF_13
1002
{
1000
HIER
1070
     0
1002
}
1002
{
1000
MANEDIT
1070
     0
1002
}
1002
{
1000
NOSEL
1070
     0
1002
}
1002
{
1000
BEHIND
1070
     0
1002
}
1002
{
1000
OTHER
1070
     0
1002
}
1002
{
1000
REACTOR
1002
}
  0
TEXT
  5
40DC
330
1F
100
AcDbEntity
  8
LOGO
 62
     7
100
AcDbText
 10
777.1250043476157
 20
1168.164680623067
 30
0.0
 40
3.519490316742081
  1
Order example:
 41
0.8
  7
CHINESET
100
AcDbText
  0
TEXT
  5
40DD
330
1F
100
AcDbEntity
  8
LOGO
 62
     7
100
AcDbText
 10
777.7564300154401
 20
1173.119394269271
 30
0.0
 40
5.279235475113121
  1
訂購代號：
  7
CHINESET
100
AcDbText
  0
LINE
  5
40DE
330
1F
100
AcDbEntity
  8
LOGO
 62
     4
100
AcDbLine
 10
775.5957738675664
 20
1153.332219386397
 30
0.0
 11
775.5957738675664
 21
1179.728396761962
 31
0.0
  0
TEXT
  5
40DF
330
1F
100
AcDbEntity
  8
LOGO
  6
Continuous
100
AcDbText
 10
727.0058092077381
 20
1158.517708596521
 30
0.0
 40
3.959426606334842
  1
金器工業股份有限公司
  7
CHINESET
100
AcDbText
  0
TEXT
  5
40E0
330
1F
100
AcDbEntity
  8
LOGO
  6
Continuous
100
AcDbText
 10
719.7331258658253
 20
1154.557506253003
 30
0.0
 40
2.63961773755656
  1
MINDMAN INDUSTRIAL CO., LTD.
 41
0.85
  7
CHINESET
100
AcDbText
  0
LINE
  5
40E1
330
1F
100
AcDbEntity
  8
LOGO
 62
     4
100
AcDbLine
 10
775.5957738675664
 20
1174.449161286849
 30
0.0
 11
736.8813803834033
 21
1174.449161286849
 31
0.0
  0
LINE
  5
40E2
330
1F
100
AcDbEntity
  8
LOGO
 62
     4
100
AcDbLine
 10
775.5957738675664
 20
1169.169925811736
 30
0.0
 11
736.8813803834033
 21
1169.169925811736
 31
0.0
  0
LINE
  5
40E3
330
1F
100
AcDbEntity
  8
LOGO
 62
     4
100
AcDbLine
 10
775.5957738675664
 20
1163.890690336623
 30
0.0
 11
717.524183641322
 21
1163.890690336623
 31
0.0
  0
LINE
  5
40E4
330
1F
100
AcDbEntity
  8
LOGO
 62
     4
100
AcDbLine
 10
736.8813803834033
 20
1163.890690336623
 30
0.0
 11
736.8813803834033
 21
1179.728396761962
 31
0.0
  0
TEXT
  5
40E5
330
1F
100
AcDbEntity
  8
LOGO
100
AcDbText
 10
763.3408410382894
 20
1165.210499205401
 30
0.0
 40
2.63961773755656
  1
mm
  7
CHINESET
 72
     1
 11
766.6089391895499
 21
1166.530308074179
 31
0.0
100
AcDbText
 73
     2
  0
TEXT
  5
40E6
330
1F
100
AcDbEntity
  8
LOGO
100
AcDbText
 10
761.9581841281407
 20
1175.768970155627
 30
0.0
 40
2.63961773755656
  1
1 : 1
  7
CHINESET
 72
     1
 11
766.6089391895499
 21
1177.088779024406
 31
0.0
100
AcDbText
 73
     2
  0
LINE
  5
40E7
330
1F
100
AcDbEntity
  8
LOGO
 62
     4
100
AcDbLine
 10
757.9983222838558
 20
1163.890690336623
 30
0.0
 11
757.9983222838558
 21
1179.728396761962
 31
0.0
  0
TEXT
  5
40E8
330
1F
100
AcDbEntity
  8
LOGO
100
AcDbText
 10
739.0578866161117
 20
1175.770269180104
 30
172.9961980032657
 40
2.63961773755656
  1
比例 Scale:
 41
0.9
  7
CHINESET
 72
     4
 11
747.4398513336296
 21
1177.088779024406
 31
172.9961980032657
100
AcDbText
  0
TEXT
  5
40E9
330
1F
100
AcDbEntity
  8
LOGO
100
AcDbText
 10
738.9058729160471
 20
1170.526865130153
 30
172.9961980032657
 40
2.63961773755656
  1
投影  View:
 41
0.9
  7
CHINESET
 72
     4
 11
747.4398513336296
 21
1171.809543549293
 31
172.9961980032657
100
AcDbText
  0
TEXT
  5
40EA
330
1F
100
AcDbEntity
  8
LOGO
100
AcDbText
 10
739.1639426859243
 20
1165.210499205401
 30
172.9961980032657
 40
2.63961773755656
  1
單位  Unit:
 41
0.9
  7
CHINESET
 72
     4
 11
747.4398513336296
 21
1166.530308074179
 31
172.9961980032657
100
AcDbText
  0
SOLID
  5
40EB
330
1F
100
AcDbEntity
  8
LOGO
 62
     5
100
AcDbTrace
 10
720.2628294066792
 20
1168.278679105312
 30
0.0
 11
721.4041308528293
 21
1168.278679105312
 31
0.0
 12
726.1661127488344
 22
1179.101365232597
 32
0.0
 13
727.3074141949849
 23
1179.101365232597
 33
0.0
  0
SOLID
  5
40EC
330
1F
100
AcDbEntity
  8
LOGO
 62
     5
100
AcDbTrace
 10
721.876393520203
 20
1168.278679105312
 30
0.0
 11
723.0176949663529
 21
1168.278679105312
 31
0.0
 12
727.3074141949849
 22
1178.235550342414
 32
0.0
 13
726.1661127488344
 23
1174.050778373197
 33
0.0
  0
SOLID
  5
40ED
330
1F
100
AcDbEntity
  8
LOGO
 62
     2
100
AcDbTrace
 10
721.4041308528293
 20
1168.278679105312
 30
0.0
 11
721.876393520203
 21
1168.278679105312
 31
0.0
 12
727.3074141949849
 22
1179.101365232597
 32
0.0
 13
727.779676862358
 23
1179.101365232597
 33
0.0
  0
SOLID
  5
40EE
330
1F
100
AcDbEntity
  8
LOGO
 62
     5
100
AcDbTrace
 10
718.4330433071027
 20
1164.343156877209
 30
0.0
 11
718.8265955299134
 21
1164.343156877209
 31
0.0
 12
719.9348692210044
 22
1166.31091799126
 32
0.0
 13
720.328421443814
 23
1166.31091799126
 33
0.0
  0
SOLID
  5
40EF
330
1F
100
AcDbEntity
  8
LOGO
 62
     5
100
AcDbTrace
 10
719.9348692210044
 20
1166.31091799126
 30
0.0
 11
720.328421443814
 21
1166.31091799126
 31
0.0
 12
719.9348692210044
 22
1164.343156877209
 32
0.0
 13
720.328421443814
 23
1164.343156877209
 33
0.0
  0
SOLID
  5
40F0
330
1F
100
AcDbEntity
  8
LOGO
 62
     5
100
AcDbTrace
 10
719.9348692210044
 20
1164.343156877209
 30
0.0
 11
720.328421443814
 21
1164.343156877209
 31
0.0
 12
721.4366951349067
 22
1166.31091799126
 32
0.0
 13
721.8302473577168
 23
1166.31091799126
 33
0.0
  0
SOLID
  5
40F1
330
1F
100
AcDbEntity
  8
LOGO
 62
     5
100
AcDbTrace
 10
721.4366951349067
 20
1166.31091799126
 30
0.0
 11
721.8302473577168
 21
1166.31091799126
 31
0.0
 12
721.4366951349067
 22
1164.343156877209
 32
0.0
 13
721.8302473577168
 23
1164.343156877209
 33
0.0
  0
POLYLINE
  5
40F2
330
1F
100
AcDbEntity
  8
LOGO
 62
     5
100
AcDb2dPolyline
 66
     1
 10
0.0
 20
0.0
 30
0.0
 40
0.394182915475113
 41
0.394182915475113
  0
VERTEX
  5
40F3
330
40F2
100
AcDbEntity
  8
LOGO
 62
     5
100
AcDbVertex
100
AcDb2dVertex
 10
734.6284315782552
 20
1165.52381354564
 30
0.0
 42
1.0
  0
VERTEX
  5
40F4
330
40F2
100
AcDbEntity
  8
LOGO
 62
     5
100
AcDbVertex
100
AcDb2dVertex
 10
733.4458828318296
 20
1165.52381354564
 30
0.0
 42
1.0
  0
SEQEND
  5
40F5
330
40F2
100
AcDbEntity
  8
LOGO
 62
     5
  0
POLYLINE
  5
40F6
330
1F
100
AcDbEntity
  8
LOGO
 62
     5
100
AcDb2dPolyline
 66
     1
 10
0.0
 20
0.0
 30
0.0
 70
     1
  0
VERTEX
  5
40F7
330
40F6
100
AcDbEntity
  8
LOGO
 62
     5
100
AcDbVertex
100
AcDb2dVertex
 10
731.2167258450489
 20
1165.327037434234
 30
0.0
 42
1.000000057330635
  0
VERTEX
  5
40F8
330
40F6
100
AcDbEntity
  8
LOGO
 62
     5
100
AcDbVertex
100
AcDb2dVertex
 10
732.39738251348
 20
1165.327037434234
 30
0.0
 42
1.000000057330635
  0
SEQEND
  5
40F9
330
40F6
100
AcDbEntity
  8
LOGO
 62
     5
  0
CIRCLE
  5
40FA
330
1F
100
AcDbEntity
  8
LOGO
 62
     5
100
AcDbCircle
 10
731.8070541792653
 20
1165.327037434234
 30
0.0
 40
0.5903283342155295
  0
POLYLINE
  5
40FB
330
1F
100
AcDbEntity
  8
LOGO
 62
     5
100
AcDb2dPolyline
 66
     1
 10
0.0
 20
0.0
 30
0.0
 70
     1
 40
0.394182915475113
 41
0.394182915475113
  0
VERTEX
  5
40FC
330
40FB
100
AcDbEntity
  8
LOGO
 62
     5
100
AcDbVertex
100
AcDb2dVertex
 10
731.0186883483146
 20
1165.327037434234
 30
0.0
 42
1.0
  0
VERTEX
  5
40FD
330
40FB
100
AcDbEntity
  8
LOGO
 62
     5
100
AcDbVertex
100
AcDb2dVertex
 10
732.595420010215
 20
1165.327037434234
 30
0.0
 42
1.0
  0
SEQEND
  5
40FE
330
40FB
100
AcDbEntity
  8
LOGO
 62
     5
  0
LINE
  5
40FF
330
1F
100
AcDbEntity
  8
LOGO
100
AcDbLine
 10
734.8242616506625
 20
1164.343156877209
 30
0.0
 11
734.8242616506625
 21
1165.52381354564
 31
0.0
  0
SOLID
  5
4100
330
1F
100
AcDbEntity
  8
LOGO
 62
     5
100
AcDbTrace
 10
732.3973431582594
 20
1166.31091799126
 30
0.0
 11
732.790895381069
 21
1166.31091799126
 31
0.0
 12
732.3973431582594
 22
1164.343156877209
 32
0.0
 13
732.790895381069
 23
1164.343156877209
 33
0.0
  0
SOLID
  5
4101
330
1F
100
AcDbEntity
  8
LOGO
 62
     5
100
AcDbTrace
 10
733.2500527594212
 20
1164.343156877209
 30
0.0
 11
733.6436049822319
 21
1164.343156877209
 31
0.0
 12
733.2500527594212
 22
1166.31091799126
 32
0.0
 13
733.6436049822319
 23
1166.31091799126
 33
0.0
  0
SOLID
  5
4102
330
1F
100
AcDbEntity
  8
LOGO
 62
     5
100
AcDbTrace
 10
734.4307094278527
 20
1165.52381354564
 30
0.0
 11
734.8242616506625
 21
1165.52381354564
 31
0.0
 12
734.4307094278527
 22
1164.343156877209
 32
0.0
 13
734.8242616506625
 23
1164.343156877209
 33
0.0
  0
SOLID
  5
4103
330
1F
100
AcDbEntity
  8
LOGO
 62
     5
100
AcDbTrace
 10
733.21069753714
 20
1178.235550342414
 30
0.0
 11
732.0693960909906
 21
1174.050778373197
 31
0.0
 12
733.21069753714
 22
1168.278679105312
 32
0.0
 13
732.0693960909906
 23
1168.278679105312
 33
0.0
  0
SOLID
  5
4104
330
1F
100
AcDbEntity
  8
LOGO
 62
     5
100
AcDbTrace
 10
733.682960204513
 20
1168.278679105312
 30
0.0
 11
734.8242616506625
 21
1168.278679105312
 31
0.0
 12
733.682960204513
 22
1179.101365232597
 32
0.0
 13
734.8242616506625
 23
1179.101365232597
 33
0.0
  0
SOLID
  5
4105
330
1F
100
AcDbEntity
  8
LOGO
 62
     2
100
AcDbTrace
 10
733.21069753714
 20
1179.101365232597
 30
0.0
 11
733.682960204513
 21
1179.101365232597
 31
0.0
 12
733.21069753714
 22
1168.278679105312
 32
0.0
 13
733.682960204513
 23
1168.278679105312
 33
0.0
  0
POLYLINE
  5
4106
330
1F
100
AcDbEntity
  8
LOGO
 62
     5
100
AcDb2dPolyline
 66
     1
 10
0.0
 20
0.0
 30
0.0
 40
0.394182915475113
 41
0.394182915475113
  0
VERTEX
  5
4107
330
4106
100
AcDbEntity
  8
LOGO
 62
     5
100
AcDbVertex
100
AcDb2dVertex
 10
728.9874901478254
 20
1165.52381354564
 30
0.0
 42
1.0
  0
VERTEX
  5
4108
330
4106
100
AcDbEntity
  8
LOGO
 62
     5
100
AcDbVertex
100
AcDb2dVertex
 10
727.8049414013998
 20
1165.52381354564
 30
0.0
 42
1.0
  0
SEQEND
  5
4109
330
4106
100
AcDbEntity
  8
LOGO
 62
     5
  0
POLYLINE
  5
410A
330
1F
100
AcDbEntity
  8
LOGO
 62
     5
100
AcDb2dPolyline
 66
     1
 10
0.0
 20
0.0
 30
0.0
 40
0.394182915475113
 41
0.394182915475113
  0
VERTEX
  5
410B
330
410A
100
AcDbEntity
  8
LOGO
 62
     5
100
AcDbVertex
100
AcDb2dVertex
 10
730.1681468162553
 20
1165.52381354564
 30
0.0
 42
1.0
  0
VERTEX
  5
410C
330
410A
100
AcDbEntity
  8
LOGO
 62
     5
100
AcDbVertex
100
AcDb2dVertex
 10
728.9855980698304
 20
1165.52381354564
 30
0.0
 42
1.0
  0
SEQEND
  5
410D
330
410A
100
AcDbEntity
  8
LOGO
 62
     5
  0
POLYLINE
  5
410E
330
1F
100
AcDbEntity
  8
LOGO
 62
     5
100
AcDb2dPolyline
 66
     1
 10
0.0
 20
0.0
 30
0.0
 40
0.394182915475113
 41
0.394182915475113
  0
VERTEX
  5
410F
330
410E
100
AcDbEntity
  8
LOGO
 62
     5
100
AcDbVertex
100
AcDb2dVertex
 10
724.5272053858254
 20
1165.52381354564
 30
0.0
 42
1.0
  0
VERTEX
  5
4110
330
410E
100
AcDbEntity
  8
LOGO
 62
     5
100
AcDbVertex
100
AcDb2dVertex
 10
723.3446566394006
 20
1165.52381354564
 30
0.0
 42
1.0
  0
SEQEND
  5
4111
330
410E
100
AcDbEntity
  8
LOGO
 62
     5
  0
SOLID
  5
4112
330
1F
100
AcDbEntity
  8
LOGO
 62
     5
100
AcDbTrace
 10
723.1488265669926
 20
1166.31091799126
 30
0.0
 11
723.5423787898022
 21
1166.31091799126
 31
0.0
 12
723.1488265669926
 22
1164.343156877209
 32
0.0
 13
723.5423787898022
 23
1164.343156877209
 33
0.0
  0
SOLID
  5
4113
330
1F
100
AcDbEntity
  8
LOGO
 62
     5
100
AcDbTrace
 10
724.3294832354238
 20
1165.52381354564
 30
0.0
 11
724.7230354582345
 21
1165.52381354564
 31
0.0
 12
724.3294832354238
 22
1164.343156877209
 32
0.0
 13
724.7230354582345
 23
1164.343156877209
 33
0.0
  0
POLYLINE
  5
4114
330
1F
100
AcDbEntity
  8
LOGO
 62
     5
100
AcDb2dPolyline
 66
     1
 10
0.0
 20
0.0
 30
0.0
 70
     1
 40
0.394182915475113
 41
0.394182915475113
  0
VERTEX
  5
4115
330
4114
100
AcDbEntity
  8
LOGO
 62
     5
100
AcDbVertex
100
AcDb2dVertex
 10
725.3777469178842
 20
1165.327037434234
 30
0.0
 42
1.0
  0
VERTEX
  5
4116
330
4114
100
AcDbEntity
  8
LOGO
 62
     5
100
AcDbVertex
100
AcDb2dVertex
 10
726.9544785797851
 20
1165.327037434234
 30
0.0
 42
1.0
  0
SEQEND
  5
4117
330
4114
100
AcDbEntity
  8
LOGO
 62
     5
  0
SOLID
  5
4118
330
1F
100
AcDbEntity
  8
LOGO
 62
     5
100
AcDbTrace
 10
726.7564017278284
 20
1166.901246325476
 30
0.0
 11
727.1499539506386
 21
1166.901246325476
 31
0.0
 12
726.7564017278284
 22
1164.343156877209
 32
0.0
 13
727.1499539506386
 23
1164.343156877209
 33
0.0
  0
SOLID
  5
4119
330
1F
100
AcDbEntity
  8
LOGO
 62
     5
100
AcDbTrace
 10
727.6091113289925
 20
1166.31091799126
 30
0.0
 11
728.0026635518021
 21
1166.31091799126
 31
0.0
 12
727.6091113289925
 22
1164.343156877209
 32
0.0
 13
728.0026635518021
 23
1164.343156877209
 33
0.0
  0
SOLID
  5
411A
330
1F
100
AcDbEntity
  8
LOGO
 62
     5
100
AcDbTrace
 10
728.7897679974224
 20
1165.52381354564
 30
0.0
 11
729.1833202202332
 21
1165.52381354564
 31
0.0
 12
728.7897679974224
 22
1164.343156877209
 32
0.0
 13
729.1833202202332
 23
1164.343156877209
 33
0.0
  0
SOLID
  5
411B
330
1F
100
AcDbEntity
  8
LOGO
 62
     5
100
AcDbTrace
 10
729.9704246658536
 20
1165.52381354564
 30
0.0
 11
730.3639768886637
 21
1165.52381354564
 31
0.0
 12
729.9704246658536
 22
1164.343156877208
 32
0.0
 13
730.3639768886637
 23
1164.343156877208
 33
0.0
  0
SOLID
  5
411C
330
1F
100
AcDbEntity
  8
LOGO
 62
     5
100
AcDbTrace
 10
722.2961169658291
 20
1166.586404547228
 30
0.0
 11
722.6896691886405
 21
1166.586404547228
 31
0.0
 12
722.2961169658291
 22
1166.901246325476
 32
0.0
 13
722.6896691886405
 23
1166.901246325476
 33
0.0
  0
SOLID
  5
411D
330
1F
100
AcDbEntity
  8
LOGO
 62
     5
100
AcDbTrace
 10
722.2961169658291
 20
1166.31091799126
 30
0.0
 11
722.6896691886405
 21
1166.31091799126
 31
0.0
 12
722.2961169658291
 22
1164.343156877208
 32
0.0
 13
722.6896691886405
 23
1164.343156877209
 33
0.0
  0
SOLID
  5
411E
330
1F
100
AcDbEntity
  8
LOGO
 62
     5
100
AcDbTrace
 10
726.1661127488344
 20
1168.278679105312
 30
0.0
 11
727.3074141949849
 21
1168.278679105312
 31
0.0
 12
726.1661127488344
 22
1174.050778373197
 32
0.0
 13
727.3074141949849
 23
1178.235550342414
 33
0.0
  0
SOLID
  5
411F
330
1F
100
AcDbEntity
  8
LOGO
 62
     5
100
AcDbTrace
 10
727.779676862358
 20
1179.101365232597
 30
0.0
 11
728.9209783085074
 21
1179.101365232597
 31
0.0
 12
727.779676862358
 22
1169.144493995495
 32
0.0
 13
728.9209783085074
 23
1173.329265964712
 33
0.0
  0
SOLID
  5
4120
330
1F
100
AcDbEntity
  8
LOGO
 62
     2
100
AcDbTrace
 10
727.3074141949849
 20
1179.101365232597
 30
0.0
 11
727.779676862358
 21
1179.101365232597
 31
0.0
 12
727.3074141949849
 22
1168.278679105312
 32
0.0
 13
727.779676862358
 23
1168.278679105312
 33
0.0
  0
SOLID
  5
4121
330
1F
100
AcDbEntity
  8
LOGO
 62
     5
100
AcDbTrace
 10
727.779676862358
 20
1169.144493995495
 30
0.0
 11
728.9209783085074
 21
1173.329265964712
 31
0.0
 12
733.21069753714
 22
1179.101365232597
 32
0.0
 13
732.0693960909906
 23
1179.101365232597
 33
0.0
  0
SOLID
  5
4122
330
1F
100
AcDbEntity
  8
LOGO
 62
     5
100
AcDbTrace
 10
727.779676862358
 20
1168.278679105312
 30
0.0
 11
728.9209783085074
 21
1168.278679105312
 31
0.0
 12
733.21069753714
 22
1178.235550342414
 32
0.0
 13
732.0693960909906
 23
1174.050778373197
 33
0.0
  0
SOLID
  5
4123
330
1F
100
AcDbEntity
  8
LOGO
 62
     2
100
AcDbTrace
 10
727.3074141949849
 20
1168.278679105312
 30
0.0
 11
727.779676862358
 21
1168.278679105312
 31
0.0
 12
733.21069753714
 22
1179.101365232597
 32
0.0
 13
733.682960204513
 23
1179.101365232597
 33
0.0
  0
LINE
  5
4124
330
1F
100
AcDbEntity
  8
LOGO
 62
     4
100
AcDbLine
 10
824.420384785432
 20
1165.210499205402
 30
0.0
 11
824.420384785432
 21
1155.53190083436
 31
0.0
  0
LINE
  5
4125
330
1F
100
AcDbEntity
  8
LOGO
 62
     4
100
AcDbLine
 10
811.9025443258324
 20
1165.210499205402
 30
0.0
 11
811.9025443258324
 21
1155.53190083436
 31
0.0
  0
LINE
  5
4126
330
1F
100
AcDbEntity
  8
LOGO
 62
     4
100
AcDbLine
 10
824.420384785432
 20
1155.53190083436
 30
0.0
 11
811.9025443258324
 21
1155.53190083436
 31
0.0
  0
LINE
  5
4127
330
1F
100
AcDbEntity
  8
LOGO
 62
     4
100
AcDbLine
 10
832.8451350877541
 20
1177.088779024406
 30
0.0
 11
811.9025443258324
 21
1177.088779024406
 31
0.0
  0
LINE
  5
4128
330
1F
100
AcDbEntity
  8
LOGO
 62
     4
100
AcDbLine
 10
832.8451350877541
 20
1169.169925811736
 30
0.0
 11
811.9025443258324
 21
1169.169925811736
 31
0.0
  0
LINE
  5
4129
330
1F
100
AcDbEntity
  8
LOGO
 62
     4
100
AcDbLine
 10
811.9025443258324
 20
1177.088779024406
 30
0.0
 11
811.9025443258324
 21
1169.169925811736
 31
0.0
  0
LINE
  5
412A
330
1F
100
AcDbEntity
  8
LOGO
 62
     4
100
AcDbLine
 10
832.8451350877541
 20
1177.088779024406
 30
0.0
 11
832.8451350877541
 21
1169.169925811736
 31
0.0
  0
LINE
  5
412B
330
1F
100
AcDbEntity
  8
LOGO
 62
     4
100
AcDbLine
 10
821.6194150969599
 20
1169.169925811736
 30
0.0
 11
821.6194150969599
 21
1165.210499205402
 31
0.0
  0
TEXT
  5
412C
330
1F
100
AcDbEntity
  8
LOGO
  6
Continuous
 62
     7
100
AcDbText
 10
813.3096005213621
 20
1170.822974842519
 30
0.0
 40
4.62
  1
MVAA
  7
CHINESET
100
AcDbText
  0
LINE
  5
412D
330
1F
100
AcDbEntity
  8
LOGO
 62
     4
100
AcDbLine
 10
824.420384785432
 20
1165.210499205402
 30
0.0
 11
811.9025443258324
 21
1165.210499205402
 31
0.0
  0
TEXT
  5
412E
330
1F
100
AcDbEntity
  8
LOGO
  6
Continuous
100
AcDbText
 10
814.1778282025642
 20
1156.898014470488
 30
172.9961980032657
 40
1.98
  1
Model
 41
0.8
  7
CHINESET
100
AcDbText
  0
TEXT
  5
412F
330
1F
100
AcDbEntity
  8
LOGO
100
AcDbText
 10
813.6508165684054
 20
1160.568507750033
 30
172.9961980032657
 40
3.3
  1
型號
  7
CHINESET
100
AcDbText
  0
LINE
  5
4130
330
1F
100
AcDbEntity
  8
LOGO
  6
Continuous
 62
     7
100
AcDbLine
 10
833.6869746326817
 20
1173.101302588517
 30
0.0
 11
837.1836512652819
 21
1173.101302588517
 31
0.0
  0
LINE
  5
4131
330
1F
100
AcDbEntity
  8
LOGO
 62
     4
100
AcDbLine
 10
842.5161299332561
 20
1165.210499205402
 30
0.0
 11
842.5161299332561
 21
1155.53190083436
 31
0.0
  0
LINE
  5
4132
330
1F
100
AcDbEntity
  8
LOGO
 62
     4
100
AcDbLine
 10
826.4825558119405
 20
1165.210499205402
 30
0.0
 11
826.4825558119405
 21
1155.53190083436
 31
0.0
  0
LINE
  5
4133
330
1F
100
AcDbEntity
  8
LOGO
 62
     4
100
AcDbLine
 10
842.5161299332561
 20
1155.53190083436
 30
0.0
 11
826.4825558119405
 21
1155.53190083436
 31
0.0
  0
LINE
  5
4134
330
1F
100
AcDbEntity
  8
LOGO
 62
     4
100
AcDbLine
 10
852.3718297868393
 20
1177.088779024406
 30
0.0
 11
838.286668422042
 21
1177.088779024406
 31
0.0
  0
LINE
  5
4135
330
1F
100
AcDbEntity
  8
LOGO
 62
     4
100
AcDbLine
 10
852.3718297868393
 20
1169.169925811736
 30
0.0
 11
838.286668422042
 21
1169.169925811736
 31
0.0
  0
LINE
  5
4136
330
1F
100
AcDbEntity
  8
LOGO
 62
     4
100
AcDbLine
 10
838.286668422042
 20
1177.088779024406
 30
0.0
 11
838.286668422042
 21
1169.169925811736
 31
0.0
  0
LINE
  5
4137
330
1F
100
AcDbEntity
  8
LOGO
 62
     4
100
AcDbLine
 10
852.3718297868393
 20
1177.088779024406
 30
0.0
 11
852.3718297868393
 21
1169.169925811736
 31
0.0
  0
LINE
  5
4138
330
1F
100
AcDbEntity
  8
LOGO
 62
     4
100
AcDbLine
 10
843.0359955625599
 20
1169.169925811736
 30
0.0
 11
843.0359955625599
 21
1167.190212508569
 31
0.0
  0
TEXT
  5
4139
330
1F
100
AcDbEntity
  8
LOGO
  6
Continuous
 62
     7
100
AcDbText
 10
839.5739320250951
 20
1170.822974842519
 30
0.0
 40
4.62
  1
300
  7
CHINESET
100
AcDbText
  0
LINE
  5
413A
330
1F
100
AcDbEntity
  8
LOGO
 62
     4
100
AcDbLine
 10
842.5161299332561
 20
1165.210499205402
 30
0.0
 11
826.4825558119405
 21
1165.210499205402
 31
0.0
  0
LINE
  5
413B
330
1F
100
AcDbEntity
  8
LOGO
  6
Continuous
 62
     7
100
AcDbLine
 10
853.1399158847525
 20
1173.101302588517
 30
0.0
 11
856.6365925173528
 21
1173.101302588517
 31
0.0
  0
LINE
  5
413C
330
1F
100
AcDbEntity
  8
LOGO
 62
     4
100
AcDbLine
 10
857.8820636886103
 20
1165.210499205402
 30
0.0
 11
857.8820636886103
 21
1155.53190083436
 31
0.0
  0
LINE
  5
413D
330
1F
100
AcDbEntity
  8
LOGO
 62
     4
100
AcDbLine
 10
844.6633035221775
 20
1165.210499205402
 30
0.0
 11
844.6633035221775
 21
1155.53190083436
 31
0.0
  0
LINE
  5
413E
330
1F
100
AcDbEntity
  8
LOGO
 62
     4
100
AcDbLine
 10
857.8820636886103
 20
1155.53190083436
 30
0.0
 11
844.6633035221775
 21
1155.53190083436
 31
0.0
  0
LINE
  5
413F
330
1F
100
AcDbEntity
  8
LOGO
 62
     4
100
AcDbLine
 10
863.3610704990987
 20
1177.088779024406
 30
0.0
 11
857.7396096741129
 21
1177.088779024406
 31
0.0
  0
LINE
  5
4140
330
1F
100
AcDbEntity
  8
LOGO
 62
     4
100
AcDbLine
 10
863.3610704990987
 20
1169.169925811736
 30
0.0
 11
857.7396096741129
 21
1169.169925811736
 31
0.0
  0
LINE
  5
4141
330
1F
100
AcDbEntity
  8
LOGO
 62
     4
100
AcDbLine
 10
857.7396096741129
 20
1177.088779024406
 30
0.0
 11
857.7396096741129
 21
1169.169925811736
 31
0.0
  0
LINE
  5
4142
330
1F
100
AcDbEntity
  8
LOGO
 62
     4
100
AcDbLine
 10
863.3610704990987
 20
1177.088779024406
 30
0.0
 11
863.3610704990987
 21
1169.169925811736
 31
0.0
  0
LINE
  5
4143
330
1F
100
AcDbEntity
  8
LOGO
 62
     4
100
AcDbLine
 10
860.5503400866059
 20
1169.169925811736
 30
0.0
 11
860.5503400866059
 21
1167.190212508569
 31
0.0
  0
TEXT
  5
4144
330
1F
100
AcDbEntity
  8
LOGO
  6
Continuous
 62
     7
100
AcDbText
 10
858.79358786172
 20
1170.822974842519
 30
0.0
 40
4.62
  1
4
  7
CHINESET
100
AcDbText
  0
LINE
  5
4145
330
1F
100
AcDbEntity
  8
LOGO
 62
     4
100
AcDbLine
 10
857.8820636886103
 20
1165.210499205402
 30
0.0
 11
844.6633035221775
 21
1165.210499205402
 31
0.0
  0
LINE
  5
4146
330
1F
100
AcDbEntity
  8
LOGO
 62
     4
100
AcDbLine
 10
884.9385855930611
 20
1165.210499205402
 30
0.0
 11
884.9385855930611
 21
1155.53190083436
 31
0.0
  0
LINE
  5
4147
330
1F
100
AcDbEntity
  8
LOGO
 62
     4
100
AcDbLine
 10
860.5628793289399
 20
1165.210499205402
 30
0.0
 11
860.5628793289399
 21
1155.53190083436
 31
0.0
  0
LINE
  5
4148
330
1F
100
AcDbEntity
  8
LOGO
 62
     4
100
AcDbLine
 10
884.9385855930611
 20
1155.53190083436
 30
0.0
 11
860.5628793289399
 21
1155.53190083436
 31
0.0
  0
LINE
  5
4149
330
1F
100
AcDbEntity
  8
LOGO
 62
     4
100
AcDbLine
 10
875.35885612838
 20
1177.088779024406
 30
0.0
 11
864.9111716263856
 21
1177.088779024406
 31
0.0
  0
LINE
  5
414A
330
1F
100
AcDbEntity
  8
LOGO
 62
     4
100
AcDbLine
 10
875.35885612838
 20
1169.169925811736
 30
0.0
 11
864.9111716263856
 21
1169.169925811736
 31
0.0
  0
LINE
  5
414B
330
1F
100
AcDbEntity
  8
LOGO
 62
     4
100
AcDbLine
 10
864.9111716263856
 20
1177.088779024406
 30
0.0
 11
864.9111716263856
 21
1169.169925811736
 31
0.0
  0
LINE
  5
414C
330
1F
100
AcDbEntity
  8
LOGO
 62
     4
100
AcDbLine
 10
875.35885612838
 20
1177.088779024406
 30
0.0
 11
875.35885612838
 21
1169.169925811736
 31
0.0
  0
LINE
  5
414D
330
1F
100
AcDbEntity
  8
LOGO
 62
     4
100
AcDbLine
 10
870.1350138773829
 20
1169.169925811736
 30
0.0
 11
870.1350138773829
 21
1165.210499205402
 31
0.0
  0
TEXT
  5
414E
330
1F
100
AcDbEntity
  8
LOGO
  6
Continuous
 62
     7
100
AcDbText
 10
866.7802690181318
 20
1170.822974842519
 30
0.0
 40
4.62
  1
A1
  7
CHINESET
100
AcDbText
  0
LINE
  5
414F
330
1F
100
AcDbEntity
  8
LOGO
 62
     4
100
AcDbLine
 10
884.9385855930611
 20
1165.210499205402
 30
0.0
 11
860.5628793289399
 21
1165.210499205402
 31
0.0
  0
TEXT
  5
4150
330
1F
100
AcDbEntity
  8
LOGO
  6
Continuous
100
AcDbText
 10
827.7405796316225
 20
1156.898014470488
 30
172.9961980032657
 40
1.98
  1
Body width
 41
0.8
  7
CHINESET
100
AcDbText
  0
TEXT
  5
4151
330
1F
100
AcDbEntity
  8
LOGO
100
AcDbText
 10
827.7219273458529
 20
1160.568507750033
 30
172.9961980032657
 40
3.3
  1
本體寬度
  7
CHINESET
100
AcDbText
  0
TEXT
  5
4152
330
1F
100
AcDbEntity
  8
LOGO
  6
Continuous
100
AcDbText
 10
847.3127917849126
 20
1156.898014470488
 30
172.9961980032657
 40
1.98
  1
4 Way
 41
0.8
  7
CHINESET
100
AcDbText
  0
TEXT
  5
4153
330
1F
100
AcDbEntity
  8
LOGO
100
AcDbText
 10
846.4180333781552
 20
1160.568507750033
 30
172.9961980032657
 40
3.3
  1
4方向
  7
CHINESET
100
AcDbText
  0
TEXT
  5
4154
330
1F
100
AcDbEntity
  8
LOGO
  6
Continuous
100
AcDbText
 10
861.9985129828386
 20
1156.898014470488
 30
172.9961980032657
 40
1.98
  1
Single air operate
 41
0.8
  7
CHINESET
100
AcDbText
  0
TEXT
  5
4155
330
1F
100
AcDbEntity
  8
LOGO
100
AcDbText
 10
862.0766034255527
 20
1160.568507750033
 30
172.9961980032657
 40
3.3
  1
單動氣壓引導
  7
CHINESET
100
AcDbText
  0
TEXT
  5
4162
330
1F
100
AcDbEntity
  8
LOGO
100
AcDbText
 10
776.9948008480001
 20
1154.736485604373
 30
0.0
 40
2.64
  1
20811193
 41
0.7
  7
CHINESET
 72
     1
 11
783.2428008480002
 21
1154.736485604373
 31
0.0
100
AcDbText
  0
LINE
  5
4163
330
1F
100
AcDbEntity
  8
LOGO
 62
     4
100
AcDbLine
 10
791.4357738675652
 20
1158.61145486151
 30
0.0
 11
791.4357738675663
 21
1153.332219386397
 31
0.0
  0
LINE
  5
4164
330
1F
100
AcDbEntity
  8
LOGO
 62
     4
100
AcDbLine
 10
791.4357738675652
 20
1158.61145486151
 30
0.0
 11
775.5957738675664
 21
1158.61145486151
 31
0.0
  0
CIRCLE
  5
4165
330
1F
100
AcDbEntity
  8
LOGO
  6
Continuous
100
AcDbCircle
 10
762.8859046831093
 20
1171.81518971095
 30
0.0
 40
1.532624188023233
  0
CIRCLE
  5
4166
330
1F
100
AcDbEntity
  8
LOGO
  6
Continuous
100
AcDbCircle
 10
762.8859046831093
 20
1171.81518971095
 30
0.0
 40
0.8979820986385881
  0
LINE
  5
4167
330
1F
100
AcDbEntity
  8
LOGO
100
AcDbLine
 10
772.5170929188375
 20
1170.282565522926
 30
0.0
 11
772.5170929188375
 21
1173.347813898973
 31
0.0
  0
LINE
  5
4168
330
1F
100
AcDbEntity
  8
LOGO
100
AcDbLine
 10
767.7124040662111
 20
1170.917207612311
 30
0.0
 11
767.7124040662111
 21
1172.713171809588
 31
0.0
  0
LINE
  5
4169
330
1F
100
AcDbEntity
  8
LOGO
  6
Continuous
100
AcDbLine
 10
767.7124040662111
 20
1172.713171809588
 30
0.0
 11
772.5170929188375
 21
1173.347813898973
 31
0.0
  0
LINE
  5
416A
330
1F
100
AcDbEntity
  8
LOGO
  6
Continuous
100
AcDbLine
 10
767.7124040662111
 20
1170.917207612311
 30
0.0
 11
772.5170929188375
 21
1170.282565522926
 31
0.0
  0
LINE
  5
416B
330
1F
100
AcDbEntity
  8
LOGO
  6
AM_ISO08W050x2
 48
0.3
100
AcDbLine
 10
760.7731592906791
 20
1171.81518971095
 30
0.0
 11
764.9986500755393
 21
1171.81518971095
 31
0.0
1001
GENIUS_GENOREF_13
1005
4185
  0
LINE
  5
416C
330
1F
100
AcDbEntity
  8
LOGO
  6
AM_ISO08W050x2
 48
0.3
100
AcDbLine
 10
762.8859046831093
 20
1169.702444318519
 30
0.0
 11
762.8859046831093
 21
1173.92793510338
 31
0.0
1001
GENIUS_GENOREF_13
1005
4184
  0
LINE
  5
416D
330
1F
100
AcDbEntity
  8
LOGO
  6
CENTER
 48
0.5
100
AcDbLine
 10
767.3281625037027
 20
1171.81518971095
 30
0.0
 11
773.0009095327172
 21
1171.81518971095
 31
0.0
1001
GENIUS_GENOREF_13
1005
4183
  0
LINE
  5
4176
330
1F
100
AcDbEntity
  8
LOGO
 62
     4
100
AcDbLine
 10
843.0359955625599
 20
1167.190212508569
 30
0.0
 11
834.4993428725979
 21
1167.190212508569
 31
0.0
  0
LINE
  5
4177
330
1F
100
AcDbEntity
  8
LOGO
 62
     4
100
AcDbLine
 10
834.4993428725979
 20
1165.210499205402
 30
0.0
 11
834.4993428725979
 21
1167.190212508569
 31
0.0
  0
LINE
  5
4178
330
1F
100
AcDbEntity
  8
LOGO
 62
     4
100
AcDbLine
 10
860.5503400866059
 20
1167.190212508569
 30
0.0
 11
851.2726836053941
 21
1167.190212508569
 31
0.0
  0
LINE
  5
4179
330
1F
100
AcDbEntity
  8
LOGO
 62
     4
100
AcDbLine
 10
851.2726836053941
 20
1165.210499205402
 30
0.0
 11
851.2726836053941
 21
1167.190212508569
 31
0.0
  0
POINT
  5
4183
330
1F
100
AcDbEntity
  8
0
 60
     1
100
AcDbPoint
 10
-1081.480523388607
 20
102.4479428696627
 30
0.0
1001
GENIUS_GENOBJ-N-CRS_13
1002
{
1000
OWNER
1000
GEN
1002
}
1001
GENIUS_GENOLIS_13
1002
{
1000
ENT
1005
0
1005
0
1005
0
1005
416D
1002
}
1001
GENIUS_GENOENT_13
1002
{
1000
MYREF
1005
4183
1002
}
1002
{
1000
GRP
1005
0
1002
}
1001
GENIUS_GENODEF_13
1002
{
1000
HIER
1070
    10
1002
}
1002
{
1000
MANEDIT
1070
     1
1002
}
1002
{
1000
NOSEL
1070
     0
1002
}
1002
{
1000
BEHIND
1070
     0
1002
}
1002
{
1000
OTHER
1070
     0
1002
}
1002
{
1000
REACTOR
1002
}
  0
POINT
  5
4184
330
1F
100
AcDbEntity
  8
0
 60
     1
100
AcDbPoint
 10
-1092.805108611462
 20
111.3235293482989
 30
0.0
1001
GENIUS_GENOBJ-N-CRS_13
1002
{
1000
OWNER
1000
GEN
1002
}
1001
GENIUS_GENOLIS_13
1002
{
1000
ENT
1005
0
1005
0
1005
0
1005
416C
1002
}
1001
GENIUS_GENOENT_13
1002
{
1000
MYREF
1005
4184
1002
}
1002
{
1000
GRP
1005
0
1002
}
1001
GENIUS_GENODEF_13
1002
{
1000
HIER
1070
    10
1002
}
1002
{
1000
MANEDIT
1070
     1
1002
}
1002
{
1000
NOSEL
1070
     0
1002
}
1002
{
1000
BEHIND
1070
     0
1002
}
1002
{
1000
OTHER
1070
     0
1002
}
1002
{
1000
REACTOR
1002
}
  0
POINT
  5
4185
330
1F
100
AcDbEntity
  8
0
 60
     1
100
AcDbPoint
 10
-1086.446434913625
 20
102.4479428696627
 30
0.0
1001
GENIUS_GENOBJ-N-CRS_13
1002
{
1000
OWNER
1000
GEN
1002
}
1001
GENIUS_GENOLIS_13
1002
{
1000
ENT
1005
0
1005
0
1005
0
1005
416B
1002
}
1001
GENIUS_GENOENT_13
1002
{
1000
MYREF
1005
4185
1002
}
1002
{
1000
GRP
1005
0
1002
}
1001
GENIUS_GENODEF_13
1002
{
1000
HIER
1070
    10
1002
}
1002
{
1000
MANEDIT
1070
     1
1002
}
1002
{
1000
NOSEL
1070
     0
1002
}
1002
{
1000
BEHIND
1070
     0
1002
}
1002
{
1000
OTHER
1070
     0
1002
}
1002
{
1000
REACTOR
1002
}
  0
LINE
  5
44A7
330
1F
100
AcDbEntity
  8
AM_VIS
100
AcDbLine
 10
838.6066528759215
 20
1299.155236340808
 30
0.0
 11
833.6066528759214
 21
1299.155236340808
 31
0.0
  0
LINE
  5
44A8
330
1F
100
AcDbEntity
  8
AM_VIS
100
AcDbLine
 10
770.6066528759215
 20
1322.505236340808
 30
0.0
 11
804.1066528759214
 21
1322.505236340808
 31
0.0
  0
LINE
  5
44A9
330
1F
100
AcDbEntity
  8
AM_VIS
100
AcDbLine
 10
775.8953447263627
 20
1330.505236340808
 30
0.0
 11
770.6066528759215
 21
1330.505236340808
 31
0.0
  0
LINE
  5
44AA
330
1F
100
AcDbEntity
  8
AM_VIS
100
AcDbLine
 10
779.1066528759215
 20
1332.469007191234
 30
0.0
 11
769.6066528759216
 21
1332.469007191234
 31
0.0
  0
LINE
  5
44AB
330
1F
100
AcDbEntity
  8
AM_VIS
100
AcDbLine
 10
814.6066528759215
 20
1334.205236340807
 30
0.0
 11
806.6066528759215
 21
1334.205236340807
 31
0.0
  0
LINE
  5
44AC
102
{ACAD_REACTORS
330
451D
102
}
330
1F
100
AcDbEntity
  8
AM_VIS
100
AcDbLine
 10
814.6066528759215
 20
1338.205236340807
 30
0.0
 11
814.6066528759215
 21
1334.205236340807
 31
0.0
  0
LINE
  5
44AD
330
1F
100
AcDbEntity
  8
AM_VIS
100
AcDbLine
 10
806.6066528759215
 20
1334.205236340807
 30
0.0
 11
806.6066528759215
 21
1338.205236340807
 31
0.0
  0
LINE
  5
44AE
330
1F
100
AcDbEntity
  8
AM_VIS
100
AcDbLine
 10
769.6066528759216
 20
1335.205236340807
 30
0.0
 11
769.6066528759216
 21
1330.005236340807
 31
0.0
  0
LINE
  5
44AF
330
1F
100
AcDbEntity
  8
AM_VIS
100
AcDbLine
 10
769.6066528759216
 20
1330.005236340807
 30
0.0
 11
769.6066528759216
 21
1323.005236340808
 31
0.0
  0
LINE
  5
44B0
330
1F
100
AcDbEntity
  8
AM_VIS
100
AcDbLine
 10
769.6066528759216
 20
1323.005236340808
 30
0.0
 11
769.6066528759216
 21
1294.805236340807
 31
0.0
  0
LINE
  5
44B1
330
1F
100
AcDbEntity
  8
AM_VIS
100
AcDbLine
 10
785.8566528759215
 20
1294.805236340807
 30
0.0
 11
769.6066528759216
 21
1294.805236340807
 31
0.0
  0
LINE
  5
44B2
330
1F
100
AcDbEntity
  8
AM_VIS
100
AcDbLine
 10
786.8566528759215
 20
1295.805236340807
 30
0.0
 11
786.8566528759215
 21
1296.505236340808
 31
0.0
  0
LINE
  5
44B3
330
1F
100
AcDbEntity
  8
AM_VIS
100
AcDbLine
 10
795.3566528759215
 20
1296.505236340808
 30
0.0
 11
795.3566528759215
 21
1295.805236340807
 31
0.0
  0
LINE
  5
44B4
330
1F
100
AcDbEntity
  8
AM_VIS
100
AcDbLine
 10
812.798230891018
 20
1298.505236340808
 30
0.0
 11
807.1066528759216
 21
1298.505236340808
 31
0.0
  0
LINE
  5
44B5
330
1F
100
AcDbEntity
  8
AM_VIS
100
AcDbLine
 10
838.6066528759215
 20
1294.805236340807
 30
0.0
 11
822.3566528759215
 21
1294.805236340807
 31
0.0
  0
LINE
  5
44B6
330
1F
100
AcDbEntity
  8
AM_VIS
100
AcDbLine
 10
838.6066528759215
 20
1294.805236340807
 30
0.0
 11
838.6066528759215
 21
1334.205236340807
 31
0.0
  0
LINE
  5
44B7
330
1F
100
AcDbEntity
  8
AM_VIS
100
AcDbLine
 10
808.1066528759215
 20
1329.955236340807
 30
0.0
 11
808.1066528759215
 21
1326.505236340807
 31
0.0
  0
SPLINE
  5
44B8
330
1F
100
AcDbEntity
  8
AM_VIS
100
AcDbSpline
210
0.0
220
0.0
230
1.0
 70
     8
 71
     3
 72
    10
 73
     6
 74
     0
 42
0.0000000001
 43
0.0000000001
 40
-1.896800349551322
 40
-1.896800349551322
 40
-1.896800349551322
 40
-1.896800349551322
 40
-1.895154008054369
 40
-1.895154008054369
 40
-1.888306925220645
 40
-1.888306925220645
 40
-1.888306925220645
 40
-1.888306925220645
 10
808.1066645559472
 20
1326.645402552066
 30
0.0
 10
808.1066630371415
 20
1326.64540247966
 30
0.0
 10
808.1066616670275
 20
1326.645400862
 30
0.0
 10
808.1066553639514
 20
1326.645384548593
 30
0.0
 10
808.1066528759215
 20
1326.645344758021
 30
0.0
 10
808.1066528759215
 20
1326.645279257106
 30
0.0
  0
LINE
  5
44B9
330
1F
100
AcDbEntity
  8
AM_VIS
100
AcDbLine
 10
817.6066528759216
 20
1335.205236340807
 30
0.0
 11
837.6066528759215
 21
1335.205236340807
 31
0.0
  0
LINE
  5
44BA
330
1F
100
AcDbEntity
  8
AM_VIS
100
AcDbLine
 10
816.6066528759214
 20
1331.205236340807
 30
0.0
 11
816.6066528759214
 21
1334.205236340807
 31
0.0
  0
LINE
  5
44BB
330
1F
100
AcDbEntity
  8
AM_VIS
100
AcDbLine
 10
808.3566528759215
 20
1330.205236340807
 30
0.0
 11
815.6066528759215
 21
1330.205236340807
 31
0.0
  0
LINE
  5
44BC
330
1F
100
AcDbEntity
  8
AM_VIS
100
AcDbLine
 10
805.1066528759216
 20
1294.805236340807
 30
0.0
 11
796.3566528759216
 21
1294.805236340807
 31
0.0
  0
LINE
  5
44BD
330
1F
100
AcDbEntity
  8
AM_VIS
100
AcDbLine
 10
806.1066528759216
 20
1297.505236340807
 30
0.0
 11
806.1066528759216
 21
1295.805236340807
 31
0.0
  0
LINE
  5
44BE
330
1F
100
AcDbEntity
  8
AM_VIS
100
AcDbLine
 10
832.6066528759215
 20
1296.005236340807
 30
0.0
 11
832.6066528759215
 21
1294.805236340807
 31
0.0
  0
LINE
  5
44BF
330
1F
100
AcDbEntity
  8
AM_VIS
100
AcDbLine
 10
821.3566528759216
 20
1296.505236340808
 30
0.0
 11
821.3566528759216
 21
1295.805236340807
 31
0.0
  0
LINE
  5
44C0
330
1F
100
AcDbEntity
  8
AM_VIS
100
AcDbLine
 10
769.6066528759216
 20
1299.155236340808
 30
0.0
 11
774.6066528759215
 21
1299.155236340808
 31
0.0
  0
LINE
  5
44C1
330
1F
100
AcDbEntity
  8
AM_VIS
100
AcDbLine
 10
775.6066528759215
 20
1294.805236340807
 30
0.0
 11
775.6066528759215
 21
1296.005236340807
 31
0.0
  0
LINE
  5
44C2
330
1F
100
AcDbEntity
  8
AM_VIS
100
AcDbLine
 10
799.2525309161846
 20
1330.505236340808
 30
0.0
 11
783.8566528759216
 21
1330.505236340808
 31
0.0
  0
LINE
  5
44C3
330
1F
100
AcDbEntity
  8
AM_VIS
100
AcDbLine
 10
769.6066528759216
 20
1335.205236340807
 30
0.0
 11
798.9035288143599
 21
1335.205236340807
 31
0.0
  0
LINE
  5
44C4
330
1F
100
AcDbEntity
  8
AM_VIS
100
AcDbLine
 10
779.1066528759215
 20
1335.071261744592
 30
0.0
 11
779.1066528759215
 21
1332.469007191234
 31
0.0
  0
ARC
  5
44C5
330
1F
100
AcDbEntity
  8
AM_VIS
100
AcDbCircle
 10
779.2758767981179
 20
1326.599692018149
 30
0.0
 40
5.203755826916125
100
AcDbArc
 50
91.86356289479123
 51
113.3076277541129
  0
LINE
  5
44C6
330
1F
100
AcDbEntity
  8
AM_VIS
100
AcDbLine
 10
782.8566528759215
 20
1334.205236340807
 30
0.0
 11
782.8566528759215
 21
1331.505236340807
 31
0.0
  0
ARC
  5
44C7
330
1F
100
AcDbEntity
  8
AM_VIS
100
AcDbCircle
 10
777.3229446823225
 20
1329.583016493221
 30
0.0
 40
1.730897325113616
100
AcDbArc
 50
107.6505983135952
 51
147.8052524131203
  0
LINE
  5
44C8
330
1F
100
AcDbEntity
  8
AM_VIS
100
AcDbLine
 10
776.7986137292312
 20
1331.23099972954
 30
0.0
 11
777.2176281111645
 21
1331.376748092995
 31
0.0
  0
LINE
  5
44C9
330
1F
100
AcDbEntity
  8
AM_VIS
100
AcDbLine
 10
778.137118402926
 20
1335.205487692014
 30
0.0
 11
779.1066497986573
 21
1335.199707608196
 31
0.0
  0
ARC
  5
44CA
330
1F
100
AcDbEntity
  8
AM_VIS
100
AcDbCircle
 10
775.7494703337729
 20
1330.667371651246
 30
0.0
 40
0.1804820260397376
100
AcDbArc
 50
296.0584960283259
 51
321.1893515986192
  0
ARC
  5
44CB
330
1F
100
AcDbEntity
  8
AM_VIS
100
AcDbCircle
 10
770.6066528759215
 20
1331.505236340807
 30
0.0
 40
1.0
100
AcDbArc
 50
180.0
 51
270.0
  0
ARC
  5
44CC
330
1F
100
AcDbEntity
  8
AM_VIS
100
AcDbCircle
 10
770.6066528759215
 20
1321.505236340807
 30
0.0
 40
1.0
100
AcDbArc
 50
90.0
 51
180.0
  0
LINE
  5
44CD
102
{ACAD_REACTORS
330
451D
102
}
330
1F
100
AcDbEntity
  8
AM_VIS
100
AcDbLine
 10
806.6066528759215
 20
1338.205236340807
 30
0.0
 11
814.6066528759215
 21
1338.205236340807
 31
0.0
  0
CIRCLE
  5
44CE
330
1F
100
AcDbEntity
  8
AM_VIS
100
AcDbCircle
 10
804.1066528759214
 20
1326.505236340807
 30
0.0
 40
1.35
  0
CIRCLE
  5
44CF
330
1F
100
AcDbEntity
  8
AM_VIS
100
AcDbCircle
 10
817.1066528759215
 20
1296.505236340808
 30
0.0
 40
2.75
  0
CIRCLE
  5
44D0
330
1F
100
AcDbEntity
  8
AM_VIS
100
AcDbCircle
 10
791.1066528759215
 20
1296.505236340808
 30
0.0
 40
2.75
  0
ARC
  5
44D1
330
1F
100
AcDbEntity
  8
AM_VIS
100
AcDbCircle
 10
800.3652964471253
 20
1329.822200626522
 30
0.0
 40
1.0
100
AcDbArc
 50
318.4408524081332
 51
44.54993459296599
  0
ARC
  5
44D2
330
1F
100
AcDbEntity
  8
AM_VIS
100
AcDbCircle
 10
804.1066528759214
 20
1333.505236340807
 30
0.0
 40
4.25
100
AcDbArc
 50
221.8103148957702
 51
224.549934592966
  0
ARC
  5
44D3
330
1F
100
AcDbEntity
  8
AM_VIS
100
AcDbCircle
 10
798.9035288143599
 20
1334.205236340807
 30
0.0
 40
0.9999999999999998
100
AcDbArc
 50
352.3377443392412
 51
90.0
  0
ARC
  5
44D4
330
1F
100
AcDbEntity
  8
AM_VIS
100
AcDbCircle
 10
785.8566528759215
 20
1295.805236340807
 30
0.0
 40
0.9999999999999998
100
AcDbArc
 50
270.0
 51
0.0
  0
ARC
  5
44D5
330
1F
100
AcDbEntity
  8
AM_VIS
100
AcDbCircle
 10
791.1066528759215
 20
1296.505236340808
 30
0.0
 40
4.25
100
AcDbArc
 50
0.0
 51
180.0
  0
ARC
  5
44D6
330
1F
100
AcDbEntity
  8
AM_VIS
100
AcDbCircle
 10
796.3566528759216
 20
1295.805236340807
 30
0.0
 40
0.9999999999999998
100
AcDbArc
 50
180.0
 51
270.0
  0
ARC
  5
44D7
330
1F
100
AcDbEntity
  8
AM_VIS
100
AcDbCircle
 10
812.798230891018
 20
1299.505236340807
 30
0.0
 40
1.0
100
AcDbArc
 50
270.0
 51
325.1500954209618
  0
ARC
  5
44D8
330
1F
100
AcDbEntity
  8
AM_VIS
100
AcDbCircle
 10
804.1066528759214
 20
1326.505236340807
 30
0.0
 40
4.0
100
AcDbArc
 50
138.4408524081332
 51
0.0
  0
ARC
  5
44D9
330
1F
100
AcDbEntity
  8
AM_VIS
100
AcDbCircle
 10
808.3566528759215
 20
1329.955236340807
 30
0.0
 40
0.25
100
AcDbArc
 50
90.0
 51
180.0
  0
ARC
  5
44DA
330
1F
100
AcDbEntity
  8
AM_VIS
100
AcDbCircle
 10
817.6066528759216
 20
1334.205236340807
 30
0.0
 40
0.9999999999999998
100
AcDbArc
 50
90.0
 51
180.0
  0
ARC
  5
44DB
330
1F
100
AcDbEntity
  8
AM_VIS
100
AcDbCircle
 10
815.6066528759215
 20
1331.205236340807
 30
0.0
 40
0.9999999999999998
100
AcDbArc
 50
270.0
 51
0.0
  0
ARC
  5
44DC
330
1F
100
AcDbEntity
  8
AM_VIS
100
AcDbCircle
 10
807.1066528759216
 20
1297.505236340807
 30
0.0
 40
0.9999999999999998
100
AcDbArc
 50
90.0
 51
180.0
  0
ARC
  5
44DD
330
1F
100
AcDbEntity
  8
AM_VIS
100
AcDbCircle
 10
805.1066528759216
 20
1295.805236340807
 30
0.0
 40
1.0
100
AcDbArc
 50
270.0
 51
0.0
  0
LINE
  5
44DE
330
1F
100
AcDbEntity
  8
AM_VIS
100
AcDbLine
 10
832.6066528759215
 20
1296.005236340807
 30
0.0
 11
832.6066528759215
 21
1298.155236340807
 31
0.0
  0
ARC
  5
44DF
330
1F
100
AcDbEntity
  8
AM_VIS
100
AcDbCircle
 10
833.6066528759214
 20
1298.155236340807
 30
0.0
 40
1.0
100
AcDbArc
 50
90.0
 51
180.0
  0
ARC
  5
44E0
330
1F
100
AcDbEntity
  8
AM_VIS
100
AcDbCircle
 10
817.1066528759215
 20
1296.505236340808
 30
0.0
 40
4.25
100
AcDbArc
 50
0.0
 51
145.1500954209618
  0
ARC
  5
44E1
330
1F
100
AcDbEntity
  8
AM_VIS
100
AcDbCircle
 10
822.3566528759215
 20
1295.805236340807
 30
0.0
 40
0.9999999999999998
100
AcDbArc
 50
180.0
 51
270.0
  0
ARC
  5
44E2
330
1F
100
AcDbEntity
  8
AM_VIS
100
AcDbCircle
 10
774.6066528759215
 20
1298.155236340807
 30
0.0
 40
1.0
100
AcDbArc
 50
0.0
 51
90.0
  0
LINE
  5
44E3
330
1F
100
AcDbEntity
  8
AM_VIS
100
AcDbLine
 10
775.6066528759215
 20
1298.155236340807
 30
0.0
 11
775.6066528759215
 21
1296.005236340807
 31
0.0
  0
ARC
  5
44E4
330
1F
100
AcDbEntity
  8
AM_VIS
100
AcDbCircle
 10
837.6066528759215
 20
1334.205236340807
 30
0.0
 40
0.9999999999999998
100
AcDbArc
 50
0.0
 51
90.0
  0
ARC
  5
44E5
330
1F
100
AcDbEntity
  8
AM_VIS
100
AcDbCircle
 10
804.1066528759214
 20
1333.505236340807
 30
0.0
 40
4.25
100
AcDbArc
 50
172.3377443392412
 51
221.8103148957702
  0
ARC
  5
44E6
330
1F
100
AcDbEntity
  8
AM_VIS
100
AcDbCircle
 10
799.2525309161846
 20
1331.505236340807
 30
0.0
 40
1.0
100
AcDbArc
 50
270.0
 51
22.39268780540843
  0
LINE
  5
44E7
330
1F
100
AcDbEntity
  8
AM_VIS
100
AcDbLine
 10
779.1066528759215
 20
1332.469007191234
 30
0.0
 11
779.1066528759215
 21
1331.800695572302
 31
0.0
  0
LINE
  5
44E8
330
1F
100
AcDbEntity
  8
AM_VIS
100
AcDbLine
 10
779.1066528759215
 20
1335.200223777914
 30
0.0
 11
779.1066528759215
 21
1335.071261744592
 31
0.0
  0
ARC
  5
44E9
330
1F
100
AcDbEntity
  8
AM_VIS
100
AcDbCircle
 10
783.8566528759216
 20
1334.205236340807
 30
0.0
 40
1.0
100
AcDbArc
 50
90.0
 51
180.0
  0
ARC
  5
44EA
330
1F
100
AcDbEntity
  8
AM_VIS
100
AcDbCircle
 10
783.8566528759216
 20
1331.505236340807
 30
0.0
 40
0.9999999999999996
100
AcDbArc
 50
180.0
 51
270.0
  0
LINE
  5
44EB
330
1F
100
AcDbEntity
  8
AM_7
  6
AM_ISO08W050x2
100
AcDbLine
 10
791.1066528759215
 20
1296.505236340808
 30
0.0
 11
796.8566528759216
 21
1296.505236340808
 31
0.0
1001
GENIUS_GENOREF_13
1005
44F4
  0
LINE
  5
44EC
330
1F
100
AcDbEntity
  8
AM_7
  6
AM_ISO08W050x2
100
AcDbLine
 10
791.1066528759215
 20
1296.505236340808
 30
0.0
 11
791.1066528759215
 21
1302.255236340807
 31
0.0
1001
GENIUS_GENOREF_13
1005
44F4
  0
LINE
  5
44ED
330
1F
100
AcDbEntity
  8
AM_7
  6
AM_ISO08W050x2
100
AcDbLine
 10
791.1066528759215
 20
1296.505236340808
 30
0.0
 11
785.3566528759215
 21
1296.505236340808
 31
0.0
1001
GENIUS_GENOREF_13
1005
44F4
  0
LINE
  5
44EE
102
{ACAD_REACTORS
330
455F
102
}
330
1F
100
AcDbEntity
  8
AM_7
  6
AM_ISO08W050x2
100
AcDbLine
 10
791.1066528759215
 20
1296.505236340808
 30
0.0
 11
791.1066528759215
 21
1290.755236340807
 31
0.0
1001
GENIUS_GENOREF_13
1005
44F4
  0
LINE
  5
44EF
330
1F
100
AcDbEntity
  8
AM_7
  6
AM_ISO08W050x2
100
AcDbLine
 10
817.1066528759215
 20
1296.505236340808
 30
0.0
 11
822.8566528759214
 21
1296.505236340808
 31
0.0
1001
GENIUS_GENOREF_13
1005
44F3
  0
LINE
  5
44F0
330
1F
100
AcDbEntity
  8
AM_7
  6
AM_ISO08W050x2
100
AcDbLine
 10
817.1066528759215
 20
1296.505236340808
 30
0.0
 11
817.1066528759215
 21
1302.255236340807
 31
0.0
1001
GENIUS_GENOREF_13
1005
44F3
  0
LINE
  5
44F1
330
1F
100
AcDbEntity
  8
AM_7
  6
AM_ISO08W050x2
100
AcDbLine
 10
817.1066528759215
 20
1296.505236340808
 30
0.0
 11
811.3566528759216
 21
1296.505236340808
 31
0.0
1001
GENIUS_GENOREF_13
1005
44F3
  0
LINE
  5
44F2
330
1F
100
AcDbEntity
  8
AM_7
  6
AM_ISO08W050x2
100
AcDbLine
 10
817.1066528759215
 20
1296.505236340808
 30
0.0
 11
817.1066528759215
 21
1290.755236340807
 31
0.0
1001
GENIUS_GENOREF_13
1005
44F3
  0
POINT
  5
44F3
330
1F
100
AcDbEntity
  8
0
 60
     1
100
AcDbPoint
 10
-378.6906870998175
 20
344.0709690647045
 30
0.0
1001
GENIUS_GENOBJ-N-CRS_13
1002
{
1000
OWNER
1000
GEN
1002
}
1001
GENIUS_GENOLIS_13
1002
{
1000
ENT
1005
44F2
1005
44F1
1005
44F0
1005
44EF
1002
}
1001
GENIUS_GENOENT_13
1002
{
1000
MYREF
1005
44F3
1002
}
1002
{
1000
GRP
1005
0
1002
}
1001
GENIUS_GENODEF_13
1002
{
1000
HIER
1070
    10
1002
}
1002
{
1000
MANEDIT
1070
     0
1002
}
1002
{
1000
NOSEL
1070
     0
1002
}
1002
{
1000
BEHIND
1070
     0
1002
}
1002
{
1000
OTHER
1070
     0
1002
}
1002
{
1000
REACTOR
1002
}
  0
POINT
  5
44F4
330
1F
100
AcDbEntity
  8
0
 60
     1
100
AcDbPoint
 10
-378.6906870998175
 20
344.0709690647045
 30
0.0
1001
GENIUS_GENODEF_13
1002
{
1000
HIER
1070
    10
1002
}
1002
{
1000
MANEDIT
1070
     0
1002
}
1002
{
1000
NOSEL
1070
     0
1002
}
1002
{
1000
BEHIND
1070
     0
1002
}
1002
{
1000
OTHER
1070
     0
1002
}
1002
{
1000
REACTOR
1002
}
1001
GENIUS_GENOENT_13
1002
{
1000
MYREF
1005
44F4
1002
}
1002
{
1000
GRP
1005
0
1002
}
1001
GENIUS_GENOBJ-N-CRS_13
1002
{
1000
OWNER
1000
GEN
1002
}
1001
GENIUS_GENOLIS_13
1002
{
1000
ENT
1005
44EE
1005
44ED
1005
44EC
1005
44EB
1002
}
  0
DIMENSION
  5
450D
102
{ACAD_XDICTIONARY
360
451C
102
}
102
{ACAD_REACTORS
330
451D
102
}
330
1F
100
AcDbEntity
  8
AM_5
100
AcDbDimension
  2
*D16
 10
822.2071848708829
 20
1334.205236340807
 30
0.0
 11
822.2071848708827
 21
1349.567736340808
 31
0.0
 70
   160
 71
     5
 42
4.0
  3
AM_ISO$0
100
AcDbAlignedDimension
 13
814.6066528759215
 23
1338.205236340807
 33
0.0
 14
814.6066528759215
 24
1334.205236340807
 34
0.0
 50
90.0
100
AcDbRotatedDimension
1001
ACAD
1000
DSTYLE
1002
{
1070
    40
1040
1.5
1070
   272
1070
     8
1002
}
  0
DIMENSION
  5
4551
102
{ACAD_XDICTIONARY
360
455E
102
}
102
{ACAD_REACTORS
330
455F
102
}
330
1F
100
AcDbEntity
  8
AM_5
100
AcDbDimension
  2
*D17
 10
791.1066528759215
 20
1277.805236340808
 30
0.0
 11
775.1066528759215
 21
1281.480753073091
 31
0.0
 70
    32
 71
     5
 42
32.0
  3
AM_ISO$0
100
AcDbAlignedDimension
 13
759.1066528759215
 23
1292.805236340808
 33
0.0
 14
791.1066528759215
 24
1290.755236340807
 34
0.0
 50
0.0000000000002036
100
AcDbRotatedDimension
1001
ACAD
1000
DSTYLE
1002
{
1070
    40
1040
1.5
1070
   272
1070
     8
1002
}
  0
DIMENSION
  5
45B7
330
1F
100
AcDbEntity
  8
AM_5
100
AcDbDimension
  2
*D18
 10
810.6066528759216
 20
1359.643564553092
 30
0.0
 11
804.1066528759214
 21
1363.318564553092
 31
0.0
 70
    32
 71
     5
 42
13.0
  3
AM_ISO$0
100
AcDbAlignedDimension
 13
797.6066528759215
 23
1393.893565553092
 33
0.0
 14
810.6066528759216
 24
1369.643565553092
 34
0.0
 50
0.0000000000002036
100
AcDbRotatedDimension
1001
ACAD
1000
DSTYLE
1002
{
1070
    40
1040
1.5
1070
   272
1070
     8
1002
}
  0
DIMENSION
  5
45DD
102
{ACAD_XDICTIONARY
360
45EA
102
}
102
{ACAD_REACTORS
330
45EB
102
}
330
1F
100
AcDbEntity
  8
AM_5
100
AcDbDimension
  2
*D19
 10
797.6066528759215
 20
1359.643564553091
 30
0.0
 11
778.3566528759215
 21
1363.318564553092
 31
0.0
 70
    32
 71
     5
 42
38.5
  3
AM_ISO$0
100
AcDbAlignedDimension
 13
759.1066528759215
 23
1372.643565553092
 33
0.0
 14
797.6066528759215
 24
1393.893565553092
 34
0.0
 50
0.0000000000002036
100
AcDbRotatedDimension
1001
ACAD
1000
DSTYLE
1002
{
1070
    40
1040
1.5
1070
   272
1070
     8
1002
}
  0
LINE
  5
47CE
330
1F
100
AcDbEntity
  8
AM_VIS
100
AcDbLine
 10
793.6066528759215
 20
1401.643565553092
 30
0.0
 11
801.6066528759216
 21
1401.643565553092
 31
0.0
  0
LINE
  5
47CF
330
1F
100
AcDbEntity
  8
AM_VIS
100
AcDbLine
 10
793.6066528759215
 20
1398.143565553092
 30
0.0
 11
793.6066528759215
 21
1401.643565553092
 31
0.0
  0
LINE
  5
47D0
330
1F
100
AcDbEntity
  8
AM_VIS
100
AcDbLine
 10
801.6066528759216
 20
1401.643565553092
 30
0.0
 11
801.6066528759216
 21
1398.143565553092
 31
0.0
  0
LINE
  5
47D1
330
1F
100
AcDbEntity
  8
AM_VIS
100
AcDbLine
 10
806.6066528759215
 20
1371.643565553092
 30
0.0
 11
806.6066528759215
 21
1375.143565553092
 31
0.0
  0
LINE
  5
47D2
330
1F
100
AcDbEntity
  8
AM_VIS
100
AcDbLine
 10
814.6066528759215
 20
1375.143565553092
 30
0.0
 11
814.6066528759215
 21
1371.643565553092
 31
0.0
  0
LINE
  5
47D3
330
1F
100
AcDbEntity
  8
AM_VIS
100
AcDbLine
 10
814.6066528759215
 20
1371.643565553092
 30
0.0
 11
806.6066528759215
 21
1371.643565553092
 31
0.0
  0
CIRCLE
  5
47D4
330
1F
100
AcDbEntity
  8
AM_VIS
100
AcDbCircle
 10
797.6066528759215
 20
1398.143565553092
 30
0.0
 40
2.25
  0
ARC
  5
47D5
330
1F
100
AcDbEntity
  8
AM_VIS
100
AcDbCircle
 10
797.6066528759215
 20
1398.143565553092
 30
0.0
 40
4.0
100
AcDbArc
 50
180.0
 51
0.0
  0
ARC
  5
47D6
330
1F
100
AcDbEntity
  8
AM_VIS
100
AcDbCircle
 10
810.6066528759216
 20
1375.143565553092
 30
0.0
 40
4.0
100
AcDbArc
 50
0.0
 51
180.0
  0
CIRCLE
  5
47D7
330
1F
100
AcDbEntity
  8
AM_VIS
100
AcDbCircle
 10
810.6066528759216
 20
1375.143565553092
 30
0.0
 40
2.25
  0
LINE
  5
47D8
330
1F
100
AcDbEntity
  8
AM_7
  6
AM_ISO08W050x2
100
AcDbLine
 10
810.6066528759216
 20
1375.143565553092
 30
0.0
 11
816.1066528759215
 21
1375.143565553092
 31
0.0
1001
GENIUS_GENOREF_13
1005
47DF
  0
LINE
  5
47D9
330
1F
100
AcDbEntity
  8
AM_7
  6
AM_ISO08W050x2
100
AcDbLine
 10
810.6066528759216
 20
1375.143565553092
 30
0.0
 11
810.6066528759216
 21
1380.643565553092
 31
0.0
1001
GENIUS_GENOREF_13
1005
47DF
  0
LINE
  5
47DA
330
1F
100
AcDbEntity
  8
AM_7
  6
AM_ISO08W050x2
100
AcDbLine
 10
810.6066528759216
 20
1375.143565553092
 30
0.0
 11
805.1066528759216
 21
1375.143565553092
 31
0.0
1001
GENIUS_GENOREF_13
1005
47DF
  0
LINE
  5
47DB
330
1F
100
AcDbEntity
  8
AM_7
  6
AM_ISO08W050x2
100
AcDbLine
 10
810.6066528759216
 20
1375.143565553092
 30
0.0
 11
810.6066528759216
 21
1369.643565553092
 31
0.0
1001
GENIUS_GENOREF_13
1005
47DF
  0
LINE
  5
47DC
330
1F
100
AcDbEntity
  8
AM_7
  6
AM_ISO08W050x2
100
AcDbLine
 10
797.6066528759215
 20
1398.143565553092
 30
0.0
 11
803.1066528759215
 21
1398.143565553092
 31
0.0
  0
LINE
  5
47DD
330
1F
100
AcDbEntity
  8
AM_7
  6
AM_ISO08W050x2
100
AcDbLine
 10
797.6066528759215
 20
1398.143565553092
 30
0.0
 11
797.6066528759215
 21
1403.643565553092
 31
0.0
  0
LINE
  5
47DE
330
1F
100
AcDbEntity
  8
AM_7
  6
AM_ISO08W050x2
100
AcDbLine
 10
797.6066528759215
 20
1398.143565553092
 30
0.0
 11
797.6066528759215
 21
1392.643565553092
 31
0.0
  0
POINT
  5
47DF
330
1F
100
AcDbEntity
  8
0
 60
     1
100
AcDbPoint
 10
-383.0058227280622
 20
315.883540758404
 30
0.0
1001
GENIUS_GENOLIS_13
1002
{
1000
ENT
1005
47DB
1005
47DA
1005
47D9
1005
47D8
1002
}
1001
GENIUS_GENODEF_13
1002
{
1000
HIER
1070
    10
1002
}
1002
{
1000
MANEDIT
1070
     0
1002
}
1002
{
1000
NOSEL
1070
     0
1002
}
1002
{
1000
BEHIND
1070
     0
1002
}
1002
{
1000
OTHER
1070
     0
1002
}
1002
{
1000
REACTOR
1002
}
1001
GENIUS_GENOENT_13
1002
{
1000
MYREF
1005
47DF
1002
}
1002
{
1000
GRP
1005
0
1002
}
1001
GENIUS_GENOBJ-N-CRS_13
1002
{
1000
OWNER
1000
GEN
1002
}
  0
LINE
  5
47E0
330
1F
100
AcDbEntity
  8
AM_7
  6
AM_ISO08W050x2
100
AcDbLine
 10
797.6066528759215
 20
1398.143565553092
 30
0.0
 11
792.1066528759215
 21
1398.143565553092
 31
0.0
  0
LINE
  5
49E5
330
1F
100
AcDbEntity
  8
AM_7
100
AcDbLine
 10
829.6066528759215
 20
1386.408727252173
 30
0.0
 11
829.6066528759215
 21
1386.408727252173
 31
0.0
  0
LINE
  5
49E6
330
1F
100
AcDbEntity
  8
AM_7
100
AcDbLine
 10
829.6066528759215
 20
1386.408727252173
 30
0.0
 11
829.6066528759215
 21
1386.408727252173
 31
0.0
  0
LINE
  5
4A0F
330
1F
100
AcDbEntity
  8
AM_VIS
100
AcDbLine
 10
776.6066528759215
 20
1372.908727252173
 30
0.0
 11
776.6066528759215
 21
1376.408727252173
 31
0.0
  0
LINE
  5
4A10
330
1F
100
AcDbEntity
  8
AM_VIS
100
AcDbLine
 10
782.6066528759215
 20
1372.908727252173
 30
0.0
 11
776.6066528759215
 21
1372.908727252173
 31
0.0
  0
LINE
  5
4A11
330
1F
100
AcDbEntity
  8
AM_VIS
100
AcDbLine
 10
782.6066528759215
 20
1376.408727252173
 30
0.0
 11
782.6066528759215
 21
1372.908727252173
 31
0.0
  0
LINE
  5
4A12
330
1F
100
AcDbEntity
  8
AM_VIS
100
AcDbLine
 10
830.6066528759215
 20
1399.908727252173
 30
0.0
 11
830.6066528759215
 21
1396.408727252173
 31
0.0
  0
LINE
  5
4A13
330
1F
100
AcDbEntity
  8
AM_VIS
100
AcDbLine
 10
824.6066528759214
 20
1399.908727252173
 30
0.0
 11
830.6066528759215
 21
1399.908727252173
 31
0.0
  0
LINE
  5
4A14
330
1F
100
AcDbEntity
  8
AM_VIS
100
AcDbLine
 10
824.6066528759214
 20
1396.408727252173
 30
0.0
 11
824.6066528759214
 21
1399.908727252173
 31
0.0
  0
LINE
  5
4A15
330
1F
100
AcDbEntity
  8
AM_VIS
100
AcDbLine
 10
830.6066528759215
 20
1396.408727252173
 30
0.0
 11
824.6066528759214
 21
1396.408727252173
 31
0.0
  0
LINE
  5
4A65
330
1F
100
AcDbEntity
  8
AM_VIS
100
AcDbLine
 10
817.6066528759216
 20
1221.207677964921
 30
0.0
 11
817.6066528759216
 21
1224.707677964921
 31
0.0
  0
LINE
  5
4A66
330
1F
100
AcDbEntity
  8
AM_VIS
100
AcDbLine
 10
823.6066528759215
 20
1221.207677964921
 30
0.0
 11
817.6066528759216
 21
1221.207677964921
 31
0.0
  0
LINE
  5
4A67
330
1F
100
AcDbEntity
  8
AM_VIS
100
AcDbLine
 10
823.6066528759215
 20
1224.707677964921
 30
0.0
 11
823.6066528759215
 21
1221.207677964921
 31
0.0
  0
LINE
  5
4A68
330
1F
100
AcDbEntity
  8
AM_VIS
100
AcDbLine
 10
817.6066528759216
 20
1224.707677964921
 30
0.0
 11
823.6066528759215
 21
1224.707677964921
 31
0.0
  0
LINE
  5
4A69
330
1F
100
AcDbEntity
  8
AM_VIS
100
AcDbLine
 10
789.6066528759215
 20
1224.707677964921
 30
0.0
 11
789.6066528759215
 21
1221.207677964921
 31
0.0
  0
LINE
  5
4A6A
330
1F
100
AcDbEntity
  8
AM_VIS
100
AcDbLine
 10
783.6066528759215
 20
1224.707677964921
 30
0.0
 11
789.6066528759215
 21
1224.707677964921
 31
0.0
  0
LINE
  5
4A6B
330
1F
100
AcDbEntity
  8
AM_VIS
100
AcDbLine
 10
783.6066528759215
 20
1221.207677964921
 30
0.0
 11
783.6066528759215
 21
1224.707677964921
 31
0.0
  0
LINE
  5
4A6C
330
1F
100
AcDbEntity
  8
AM_VIS
100
AcDbLine
 10
789.6066528759215
 20
1221.207677964921
 30
0.0
 11
783.6066528759215
 21
1221.207677964921
 31
0.0
  0
LINE
  5
4A6D
330
1F
100
AcDbEntity
  8
AM_VIS
100
AcDbLine
 10
797.6066528759215
 20
1248.207677964921
 30
0.0
 11
797.6066528759215
 21
1244.707677964921
 31
0.0
  0
LINE
  5
4A6E
330
1F
100
AcDbEntity
  8
AM_VIS
100
AcDbLine
 10
791.6066528759215
 20
1248.207677964921
 30
0.0
 11
797.6066528759215
 21
1248.207677964921
 31
0.0
  0
LINE
  5
4A6F
330
1F
100
AcDbEntity
  8
AM_VIS
100
AcDbLine
 10
791.6066528759215
 20
1244.707677964921
 30
0.0
 11
791.6066528759215
 21
1248.207677964921
 31
0.0
  0
LINE
  5
4A70
330
1F
100
AcDbEntity
  8
AM_VIS
100
AcDbLine
 10
797.6066528759215
 20
1244.707677964921
 30
0.0
 11
791.6066528759215
 21
1244.707677964921
 31
0.0
  0
LINE
  5
4A75
330
1F
100
AcDbEntity
  8
AM_VIS
100
AcDbLine
 10
782.6066528759215
 20
1376.408727252173
 30
0.0
 11
776.6066528759215
 21
1376.408727252173
 31
0.0
  0
ENDSEC
  0
SECTION
  2
OBJECTS
  0
DICTIONARY
  5
C
330
0
100
AcDbDictionary
281
     1
  3
ACAD_COLOR
350
BE
  3
ACAD_GROUP
350
D
  3
ACAD_LAYOUT
350
1A
  3
ACAD_MATERIAL
350
BD
  3
ACAD_MLINESTYLE
350
17
  3
ACAD_PLOTSETTINGS
350
19
  3
ACAD_PLOTSTYLENAME
350
E
  3
ACAD_TABLESTYLE
350
11A
  3
ACDBHEADERROUNDTRIPXREC
350
4A8D
  3
AcDbVariableDictionary
350
94
  3
AcmDictionary
350
5B
  3
AMG
350
41
  3
AMGSNAPSETTINGS
350
1B8
  3
DWGPROPS
350
4A8C
  0
DICTIONARY
  5
3F9
330
2
100
AcDbDictionary
280
     1
281
     1
  3
ACAD_LAYERFILTERS
360
3FA5
  3
ACAD_LAYERSTATES
360
A25
  3
ACLYDICTIONARY
360
3FA4
  0
DICTIONARY
  5
8F
330
1F
100
AcDbDictionary
280
     1
281
     1
  0
DICTIONARY
  5
1701
330
16F4
100
AcDbDictionary
280
     1
281
     1
  3
ACAD_DIMASSOC
360
1702
  0
DICTIONARY
  5
179D
330
1790
100
AcDbDictionary
280
     1
281
     1
  3
ACAD_DIMASSOC
360
179E
  0
DICTIONARY
  5
17C3
330
17B6
100
AcDbDictionary
280
     1
281
     1
  3
ACAD_DIMASSOC
360
17C4
  0
DICTIONARY
  5
17E9
330
17DC
100
AcDbDictionary
280
     1
281
     1
  3
ACAD_DIMASSOC
360
17EA
  0
DICTIONARY
  5
180F
330
1802
100
AcDbDictionary
280
     1
281
     1
  3
ACAD_DIMASSOC
360
1810
  0
DICTIONARY
  5
1892
330
1885
100
AcDbDictionary
280
     1
281
     1
  3
ACAD_DIMASSOC
360
1893
  0
DICTIONARY
  5
18D4
330
18C7
100
AcDbDictionary
280
     1
281
     1
  3
ACAD_DIMASSOC
360
18D5
  0
DICTIONARY
  5
1921
330
1912
100
AcDbDictionary
280
     1
281
     1
  3
ACAD_DIMASSOC
360
1922
  0
DICTIONARY
  5
451C
330
450D
100
AcDbDictionary
280
     1
281
     1
  3
ACAD_DIMASSOC
360
451D
  0
DICTIONARY
  5
455E
330
4551
100
AcDbDictionary
280
     1
281
     1
  3
ACAD_DIMASSOC
360
455F
  0
DICTIONARY
  5
45EA
330
45DD
100
AcDbDictionary
280
     1
281
     1
  3
ACAD_DIMASSOC
360
45EB
  0
DICTIONARY
  5
BE
102
{ACAD_REACTORS
330
C
102
}
330
C
100
AcDbDictionary
281
     1
  0
DICTIONARY
  5
D
102
{ACAD_REACTORS
330
C
102
}
330
C
100
AcDbDictionary
281
     1
  0
DICTIONARY
  5
1A
102
{ACAD_REACTORS
330
C
102
}
330
C
100
AcDbDictionary
281
     1
  3
Model
350
22
  3
配置1
350
1E
  3
配置2
350
26
  0
DICTIONARY
  5
BD
102
{ACAD_REACTORS
330
C
102
}
330
C
100
AcDbDictionary
281
     1
  0
DICTIONARY
  5
17
102
{ACAD_REACTORS
330
C
102
}
330
C
100
AcDbDictionary
281
     1
  3
Standard
350
18
  0
DICTIONARY
  5
19
102
{ACAD_REACTORS
330
C
102
}
330
C
100
AcDbDictionary
281
     1
  0
ACDBDICTIONARYWDFLT
  5
E
102
{ACAD_REACTORS
330
C
102
}
330
C
100
AcDbDictionary
281
     1
  3
Normal
350
F
100
AcDbDictionaryWithDefault
340
F
  0
DICTIONARY
  5
11A
102
{ACAD_REACTORS
330
C
102
}
330
C
100
AcDbDictionary
281
     1
  3
Standard
350
11B
  0
DICTIONARY
  5
4A8D
102
{ACAD_REACTORS
330
C
102
}
330
C
100
AcDbDictionary
281
     1
  0
DICTIONARY
  5
94
102
{ACAD_REACTORS
330
C
102
}
330
C
100
AcDbDictionary
281
     1
  3
CTABLESTYLE
350
138
  3
DIMASSOC
350
96
  3
INDEXCTL
350
95
  3
PROJECTNAME
350
4279
  0
DICTIONARY
  5
5B
102
{ACAD_REACTORS
330
C
102
}
330
C
100
AcDbDictionary
281
     1
  3
AcmBOM
350
1B5
  3
AcmStdDictionary
350
61
  3
AMDTSECTSYM_ARROWCOLOR
350
123
  0
DICTIONARY
  5
41
102
{ACAD_REACTORS
330
C
102
}
330
C
100
AcDbDictionary
281
     1
  0
DICTIONARY
  5
1B8
102
{ACAD_REACTORS
330
C
102
}
330
C
100
AcDbDictionary
281
     1
  0
XRECORD
  5
4A8C
102
{ACAD_REACTORS
330
C
102
}
330
C
100
AcDbXrecord
280
     1
  1
DWGPROPS COOKIE
  2

  3

  4

  6

  7

  8

  9

300
AmdtFileType=84
301
=
302
=
303
=
304
=
305
=
306
=
307
=
308
=
309
=
 40
0.1634023958333333
 41
2453836.381385081
 42
2454789.591346516
  1

 90
        1
  0
DICTIONARY
  5
3FA5
102
{ACAD_REACTORS
330
3F9
102
}
330
3F9
100
AcDbDictionary
281
     1
  0
DICTIONARY
  5
A25
102
{ACAD_REACTORS
330
3F9
102
}
330
3F9
100
AcDbDictionary
281
     1
  0
DICTIONARY
  5
3FA4
102
{ACAD_REACTORS
330
3F9
102
}
330
3F9
100
AcDbDictionary
281
     1
1001
ACAD
1000
<All
  0
DIMASSOC
  5
1702
102
{ACAD_REACTORS
330
1701
102
}
330
1701
100
AcDbDimAssoc
330
16F4
 90
        3
 70
     0
 71
     0
  1
AcDbOsnapPointRef
 72
     1
331
165A
 73
     0
 91
        0
 40
0.0
 10
0.0
 20
0.0
 30
2.000000000000000E+50
 75
     0
  1
AcDbOsnapPointRef
 72
     1
331
1648
 73
     0
 91
        0
 40
0.0
 10
0.0
 20
0.0
 30
2.000000000000000E+50
 75
     0
  0
DIMASSOC
  5
179E
102
{ACAD_REACTORS
330
179D
102
}
330
179D
100
AcDbDimAssoc
330
1790
 90
        3
 70
     0
 71
     0
  1
AcDbOsnapPointRef
 72
     1
331
1596
 73
     0
 91
        0
 40
0.0
 10
0.0
 20
0.0
 30
2.000000000000000E+50
 75
     0
  1
AcDbOsnapPointRef
 72
     1
331
15A8
 73
     0
 91
        0
 40
0.0
 10
0.0
 20
0.0
 30
2.000000000000000E+50
 75
     0
  0
DIMASSOC
  5
17C4
102
{ACAD_REACTORS
330
17C3
102
}
330
17C3
100
AcDbDimAssoc
330
17B6
 90
        3
 70
     0
 71
     0
  1
AcDbOsnapPointRef
 72
     1
331
15A8
 73
     0
 91
        0
 40
0.0
 10
0.0
 20
0.0
 30
2.000000000000000E+50
 75
     0
  1
AcDbOsnapPointRef
 72
     1
331
15BA
 73
     0
 91
        0
 40
0.0
 10
0.0
 20
0.0
 30
2.000000000000000E+50
 75
     0
  0
DIMASSOC
  5
17EA
102
{ACAD_REACTORS
330
17E9
102
}
330
17E9
100
AcDbDimAssoc
330
17DC
 90
        3
 70
     0
 71
     0
  1
AcDbOsnapPointRef
 72
    13
331
1020
 73
     0
 91
        0
 40
0.0
 10
0.0
 20
0.0
 30
2.000000000000000E+50
 75
     0
  1
AcDbOsnapPointRef
 72
     1
331
1020
 73
     0
 91
        0
 40
0.0
 10
0.0
 20
0.0
 30
2.000000000000000E+50
 75
     0
  0
DIMASSOC
  5
1810
102
{ACAD_REACTORS
330
180F
102
}
330
180F
100
AcDbDimAssoc
330
1802
 90
        3
 70
     0
 71
     0
  1
AcDbOsnapPointRef
 72
    13
331
1031
 73
     0
 91
        0
 40
0.0
 10
0.0
 20
0.0
 30
2.000000000000000E+50
 75
     0
  1
AcDbOsnapPointRef
 72
    13
331
1020
 73
     0
 91
        0
 40
0.0
 10
0.0
 20
0.0
 30
2.000000000000000E+50
 75
     0
  0
DIMASSOC
  5
1893
102
{ACAD_REACTORS
330
1892
102
}
330
1892
100
AcDbDimAssoc
330
1885
 90
        3
 70
     0
 71
     0
  1
AcDbOsnapPointRef
 72
    13
331
1312
 73
     0
 91
        0
 40
0.0
 10
0.0
 20
0.0
 30
2.000000000000000E+50
 75
     0
  1
AcDbOsnapPointRef
 72
     1
331
166D
 73
     0
 91
        0
 40
0.0
 10
0.0
 20
0.0
 30
2.000000000000000E+50
 75
     0
  0
DIMASSOC
  5
18D5
102
{ACAD_REACTORS
330
18D4
102
}
330
18D4
100
AcDbDimAssoc
330
18C7
 90
        3
 70
     0
 71
     0
  1
AcDbOsnapPointRef
 72
     1
331
106E
 73
     0
 91
        0
 40
0.0
 10
0.0
 20
0.0
 30
2.000000000000000E+50
 75
     0
  1
AcDbOsnapPointRef
 72
    13
331
106C
 73
     0
 91
        0
 40
0.0
 10
0.0
 20
0.0
 30
2.000000000000000E+50
 75
     0
  0
DIMASSOC
  5
1922
102
{ACAD_REACTORS
330
1921
102
}
330
1921
100
AcDbDimAssoc
330
1912
 90
        1
 70
     0
 71
     0
  1
AcDbOsnapPointRef
 72
     1
331
1031
 73
     0
 91
        0
 40
0.0
 10
0.0
 20
0.0
 30
2.000000000000000E+50
 75
     0
  0
DIMASSOC
  5
451D
102
{ACAD_REACTORS
330
451C
102
}
330
451C
100
AcDbDimAssoc
330
450D
 90
        3
 70
     0
 71
     0
  1
AcDbOsnapPointRef
 72
     1
331
44CD
 73
     0
 91
        0
 40
0.0
 10
0.0
 20
0.0
 30
2.000000000000000E+50
 75
     0
  1
AcDbOsnapPointRef
 72
     1
331
44AC
 73
     0
 91
        0
 40
0.0
 10
0.0
 20
0.0
 30
2.000000000000000E+50
 75
     0
  0
DIMASSOC
  5
455F
102
{ACAD_REACTORS
330
455E
102
}
330
455E
100
AcDbDimAssoc
330
4551
 90
        3
 70
     0
 71
     0
  1
AcDbOsnapPointRef
 72
    13
331
1031
 73
     0
 91
        0
 40
0.0
 10
0.0
 20
0.0
 30
2.000000000000000E+50
 75
     0
  1
AcDbOsnapPointRef
 72
     1
331
44EE
 73
     0
 91
        0
 40
0.0
 10
0.0
 20
0.0
 30
2.000000000000000E+50
 75
     0
  0
DIMASSOC
  5
45EB
102
{ACAD_REACTORS
330
45EA
102
}
330
45EA
100
AcDbDimAssoc
330
45DD
 90
        1
 70
     0
 71
     0
  1
AcDbOsnapPointRef
 72
    13
331
106E
 73
     0
 91
        0
 40
0.0
 10
0.0
 20
0.0
 30
2.000000000000000E+50
 75
     0
  0
LAYOUT
  5
22
102
{ACAD_XDICTIONARY
360
4A90
102
}
102
{ACAD_REACTORS
330
1A
102
}
330
1A
100
AcDbPlotSettings
  1

  2
\\RD\EPSON Stylus C63 Series單色
  4
A4
  6

 40
3.757083177566528
 41
3.757076978683471
 42
3.757080078125
 43
3.757080078125
 44
209.9733276367187
 45
296.9683227539062
 46
0.0
 47
0.0
 48
0.0
 49
0.0
140
0.0
141
0.0
142
1.0
143
0.3405120737814363
 70
 11952
 72
     1
 73
     0
 74
     0
  7
彩色出圖.ctb
 75
     0
147
2.936753428137963
148
-2047.07469463503
149
-1261.649717473083
100
AcDbLayout
  1
Model
 70
     1
 71
     0
 10
0.0
 20
0.0
 11
12.0
 21
9.0
 12
0.0
 22
0.0
 32
0.0
 14
0.0
 24
0.0
 34
0.0
 15
0.0
 25
0.0
 35
0.0
146
0.0
 13
0.0
 23
0.0
 33
0.0
 16
1.0
 26
0.0
 36
0.0
 17
0.0
 27
1.0
 37
0.0
 76
     0
330
1F
1001
ACAD_PSEXT
1000
\\RD\EPSON Stylus C63 Series單色
1000
EPSON Stylus C63 Series
1000
\\RD
1000

1070
     0
  0
LAYOUT
  5
1E
102
{ACAD_XDICTIONARY
360
4A8E
102
}
102
{ACAD_REACTORS
330
1A
102
}
330
1A
100
AcDbPlotSettings
  1

  2

  4

  6

 40
0.0
 41
0.0
 42
0.0
 43
0.0
 44
0.0
 45
0.0
 46
0.0
 47
0.0
 48
0.0
 49
0.0
140
0.0
141
0.0
142
1.0
143
1.0
 70
   688
 72
     0
 73
     0
 74
     5
  7
彩色出圖.ctb
 75
    16
147
1.0
148
0.0
149
0.0
100
AcDbLayout
  1
配置1
 70
     1
 71
     1
 10
0.0
 20
0.0
 11
420.0
 21
297.0
 12
0.0
 22
0.0
 32
0.0
 14
1.000000000000000E+20
 24
1.000000000000000E+20
 34
1.000000000000000E+20
 15
-1.000000000000000E+20
 25
-1.000000000000000E+20
 35
-1.000000000000000E+20
146
0.0
 13
0.0
 23
0.0
 33
0.0
 16
1.0
 26
0.0
 36
0.0
 17
0.0
 27
1.0
 37
0.0
 76
     0
330
1B
  0
LAYOUT
  5
26
102
{ACAD_XDICTIONARY
360
4A92
102
}
102
{ACAD_REACTORS
330
1A
102
}
330
1A
100
AcDbPlotSettings
  1

  2

  4

  6

 40
0.0
 41
0.0
 42
0.0
 43
0.0
 44
0.0
 45
0.0
 46
0.0
 47
0.0
 48
0.0
 49
0.0
140
0.0
141
0.0
142
1.0
143
1.0
 70
   688
 72
     0
 73
     0
 74
     5
  7
彩色出圖.ctb
 75
    16
147
1.0
148
0.0
149
0.0
100
AcDbLayout
  1
配置2
 70
     1
 71
     2
 10
0.0
 20
0.0
 11
12.0
 21
9.0
 12
0.0
 22
0.0
 32
0.0
 14
0.0
 24
0.0
 34
0.0
 15
0.0
 25
0.0
 35
0.0
146
0.0
 13
0.0
 23
0.0
 33
0.0
 16
1.0
 26
0.0
 36
0.0
 17
0.0
 27
1.0
 37
0.0
 76
     0
330
23
  0
MLINESTYLE
  5
18
102
{ACAD_REACTORS
330
17
102
}
330
17
100
AcDbMlineStyle
  2
STANDARD
 70
     0
  3

 62
   256
 51
90.0
 52
90.0
 71
     2
 49
0.5
 62
   256
  6
BYLAYER
 49
-0.5
 62
   256
  6
BYLAYER
  0
ACDBPLACEHOLDER
  5
F
102
{ACAD_REACTORS
330
E
102
}
330
E
  0
TABLESTYLE
  5
11B
102
{ACAD_REACTORS
330
11A
102
}
330
11A
100
AcDbTableStyle
  3
Standard
 70
     0
 71
     0
 40
1.5
 41
1.5
280
     0
281
     0
  7
STANDARD
140
4.5
170
     2
 62
     0
 63
     7
283
     0
274
    -2
284
     1
 64
     0
275
    -2
285
     1
 65
     0
276
    -2
286
     1
 66
     0
277
    -2
287
     1
 67
     0
278
    -2
288
     1
 68
     0
279
    -2
289
     1
 69
     0
  7
STANDARD
140
6.0
170
     5
 62
     0
 63
     7
283
     0
274
    -2
284
     1
 64
     0
275
    -2
285
     1
 65
     0
276
    -2
286
     1
 66
     0
277
    -2
287
     1
 67
     0
278
    -2
288
     1
 68
     0
279
    -2
289
     1
 69
     0
  7
STANDARD
140
4.5
170
     5
 62
     0
 63
     7
283
     0
274
    -2
284
     1
 64
     0
275
    -2
285
     1
 65
     0
276
    -2
286
     1
 66
     0
277
    -2
287
     1
 67
     0
278
    -2
288
     1
 68
     0
279
    -2
289
     1
 69
     0
  0
DICTIONARYVAR
  5
138
102
{ACAD_REACTORS
330
94
102
}
330
94
100
DictionaryVariables
280
     0
  1
STANDARD
  0
DICTIONARYVAR
  5
96
102
{ACAD_REACTORS
330
94
102
}
330
94
100
DictionaryVariables
280
     0
  1
2
  0
DICTIONARYVAR
  5
95
102
{ACAD_REACTORS
330
94
102
}
330
94
100
DictionaryVariables
280
     0
  1
0
  0
DICTIONARYVAR
  5
4279
102
{ACAD_REACTORS
330
94
102
}
330
94
100
DictionaryVariables
280
     0
  1

  0
DICTIONARY
  5
1B5
102
{ACAD_REACTORS
330
5B
102
}
330
5B
100
AcDbDictionary
281
     1
  0
DICTIONARY
  5
61
102
{ACAD_REACTORS
330
5B
102
}
330
5B
100
AcDbDictionary
281
     1
  0
XRECORD
  5
123
102
{ACAD_REACTORS
330
5B
102
}
330
5B
100
AcDbXrecord
280
     1
 90
-1023410169
  0
DICTIONARY
  5
4A90
330
22
100
AcDbDictionary
280
     1
281
     1
  3
ACAD_XREC_ROUNDTRIP
360
4A91
  0
DICTIONARY
  5
4A8E
330
1E
100
AcDbDictionary
280
     1
281
     1
  3
ACAD_XREC_ROUNDTRIP
360
4A8F
  0
DICTIONARY
  5
4A92
330
26
100
AcDbDictionary
280
     1
281
     1
  3
ACAD_XREC_ROUNDTRIP
360
4A93
  0
XRECORD
  5
4A91
102
{ACAD_REACTORS
330
4A90
102
}
330
4A90
100
AcDbXrecord
280
     1
102
SHADEPLOT
 70
     0
102
SHADEPLOTRESLEVEL
 70
     2
102
SHADEPLOTCUSTOMDPI
 70
   300
  0
XRECORD
  5
4A8F
102
{ACAD_REACTORS
330
4A8E
102
}
330
4A8E
100
AcDbXrecord
280
     1
102
SHADEPLOT
 70
     0
102
SHADEPLOTRESLEVEL
 70
     2
102
SHADEPLOTCUSTOMDPI
 70
   300
  0
XRECORD
  5
4A93
102
{ACAD_REACTORS
330
4A92
102
}
330
4A92
100
AcDbXrecord
280
     1
102
SHADEPLOT
 70
     0
102
SHADEPLOTRESLEVEL
 70
     2
102
SHADEPLOTCUSTOMDPI
 70
   300
  0
ENDSEC
  0
EOF
