  0
SECTION
  2
HEADER
  9
$ACADVER
  1
AC1015
  9
$ACADMAINTVER
 70
    20
  9
$DWGCODEPAGE
  3
ANSI_950
  9
$INSBASE
 10
0.0
 20
0.0
 30
0.0
  9
$EXTMIN
 10
92.88116563679796
 20
23.76866240221159
 30
-0.0116142032794642
  9
$EXTMAX
 10
383.3230600172224
 20
349.4281168710288
 30
190.3074337791938
  9
$LIMMIN
 10
0.0
 20
0.0
  9
$LIMMAX
 10
420.0
 20
297.0
  9
$ORTHOMODE
 70
     1
  9
$REGENMODE
 70
     1
  9
$FILLMODE
 70
     1
  9
$QTEXTMODE
 70
     0
  9
$MIRRTEXT
 70
     1
  9
$LTSCALE
 40
1.0
  9
$ATTMODE
 70
     1
  9
$TEXTSIZE
 40
3.0
  9
$TRACEWID
 40
1.0
  9
$TEXTSTYLE
  7
STANDARD
  9
$CLAYER
  8
0
  9
$CELTYPE
  6
ByLayer
  9
$CECOLOR
 62
   256
  9
$CELTSCALE
 40
1.0
  9
$DISPSILH
 70
     0
  9
$DIMSCALE
 40
1.0
  9
$DIMASZ
 40
3.0
  9
$DIMEXO
 40
1.0
  9
$DIMDLI
 40
8.0
  9
$DIMRND
 40
0.0
  9
$DIMDLE
 40
0.0
  9
$DIMEXE
 40
1.5
  9
$DIMTP
 40
0.1
  9
$DIMTM
 40
0.1
  9
$DIMTXT
 40
3.5
  9
$DIMCEN
 40
0.0
  9
$DIMTSZ
 40
0.0
  9
$DIMTOL
 70
     0
  9
$DIMLIM
 70
     0
  9
$DIMTIH
 70
     0
  9
$DIMTOH
 70
     0
  9
$DIMSE1
 70
     0
  9
$DIMSE2
 70
     0
  9
$DIMTAD
 70
     1
  9
$DIMZIN
 70
     8
  9
$DIMBLK
  1

  9
$DIMASO
 70
     1
  9
$DIMSHO
 70
     1
  9
$DIMPOST
  1

  9
$DIMAPOST
  1
"
  9
$DIMALT
 70
     0
  9
$DIMALTD
 70
     2
  9
$DIMALTF
 40
0.0393701
  9
$DIMLFAC
 40
1.0
  9
$DIMTOFL
 70
     1
  9
$DIMTVP
 40
0.0
  9
$DIMTIX
 70
     0
  9
$DIMSOXD
 70
     0
  9
$DIMSAH
 70
     0
  9
$DIMBLK1
  1

  9
$DIMBLK2
  1

  9
$DIMSTYLE
  2
AM_ISO
  9
$DIMCLRD
 70
   256
  9
$DIMCLRE
 70
   256
  9
$DIMCLRT
 70
   256
  9
$DIMTFAC
 40
0.6
  9
$DIMGAP
 40
0.7
  9
$DIMJUST
 70
     0
  9
$DIMSD1
 70
     0
  9
$DIMSD2
 70
     0
  9
$DIMTOLJ
 70
     0
  9
$DIMTZIN
 70
     8
  9
$DIMALTZ
 70
     0
  9
$DIMALTTZ
 70
     0
  9
$DIMUPT
 70
     0
  9
$DIMDEC
 70
     2
  9
$DIMTDEC
 70
     8
  9
$DIMALTU
 70
     2
  9
$DIMALTTD
 70
     2
  9
$DIMTXSTY
  7
STANDARD
  9
$DIMAUNIT
 70
     0
  9
$DIMADEC
 70
     0
  9
$DIMALTRND
 40
0.0
  9
$DIMAZIN
 70
     2
  9
$DIMDSEP
 70
    46
  9
$DIMATFIT
 70
     3
  9
$DIMFRAC
 70
     0
  9
$DIMLDRBLK
  1

  9
$DIMLUNIT
 70
     2
  9
$DIMLWD
 70
    -1
  9
$DIMLWE
 70
    -1
  9
$DIMTMOVE
 70
     0
  9
$LUNITS
 70
     2
  9
$LUPREC
 70
     2
  9
$SKETCHINC
 40
1.0
  9
$FILLETRAD
 40
2.5
  9
$AUNITS
 70
     0
  9
$AUPREC
 70
     0
  9
$MENU
  1
.
  9
$ELEVATION
 40
0.0
  9
$PELEVATION
 40
0.0
  9
$THICKNESS
 40
0.0
  9
$LIMCHECK
 70
     0
  9
$CHAMFERA
 40
2.5
  9
$CHAMFERB
 40
2.5
  9
$CHAMFERC
 40
20.0
  9
$CHAMFERD
 40
0.0
  9
$SKPOLY
 70
     0
  9
$TDCREATE
 40
2454188.453189016
  9
$TDUCREATE
 40
2454188.119855683
  9
$TDUPDATE
 40
2454188.474036817
  9
$TDUUPDATE
 40
2454188.140703484
  9
$TDINDWG
 40
0.0147929398
  9
$TDUSRTIMER
 40
0.0147929398
  9
$USRTIMER
 70
     1
  9
$ANGBASE
 50
0.0
  9
$ANGDIR
 70
     0
  9
$PDMODE
 70
     0
  9
$PDSIZE
 40
0.0
  9
$PLINEWID
 40
0.0
  9
$SPLFRAME
 70
     0
  9
$SPLINETYPE
 70
     6
  9
$SPLINESEGS
 70
     8
  9
$HANDSEED
  5
1B6F
  9
$SURFTAB1
 70
     6
  9
$SURFTAB2
 70
     6
  9
$SURFTYPE
 70
     6
  9
$SURFU
 70
     6
  9
$SURFV
 70
     6
  9
$UCSBASE
  2

  9
$UCSNAME
  2

  9
$UCSORG
 10
0.0
 20
0.0
 30
0.0
  9
$UCSXDIR
 10
1.0
 20
0.0
 30
0.0
  9
$UCSYDIR
 10
0.0
 20
1.0
 30
0.0
  9
$UCSORTHOREF
  2

  9
$UCSORTHOVIEW
 70
     0
  9
$UCSORGTOP
 10
0.0
 20
0.0
 30
0.0
  9
$UCSORGBOTTOM
 10
0.0
 20
0.0
 30
0.0
  9
$UCSORGLEFT
 10
0.0
 20
0.0
 30
0.0
  9
$UCSORGRIGHT
 10
0.0
 20
0.0
 30
0.0
  9
$UCSORGFRONT
 10
0.0
 20
0.0
 30
0.0
  9
$UCSORGBACK
 10
0.0
 20
0.0
 30
0.0
  9
$PUCSBASE
  2

  9
$PUCSNAME
  2

  9
$PUCSORG
 10
0.0
 20
0.0
 30
0.0
  9
$PUCSXDIR
 10
1.0
 20
0.0
 30
0.0
  9
$PUCSYDIR
 10
0.0
 20
1.0
 30
0.0
  9
$PUCSORTHOREF
  2

  9
$PUCSORTHOVIEW
 70
     0
  9
$PUCSORGTOP
 10
0.0
 20
0.0
 30
0.0
  9
$PUCSORGBOTTOM
 10
0.0
 20
0.0
 30
0.0
  9
$PUCSORGLEFT
 10
0.0
 20
0.0
 30
0.0
  9
$PUCSORGRIGHT
 10
0.0
 20
0.0
 30
0.0
  9
$PUCSORGFRONT
 10
0.0
 20
0.0
 30
0.0
  9
$PUCSORGBACK
 10
0.0
 20
0.0
 30
0.0
  9
$USERI1
 70
     0
  9
$USERI2
 70
     0
  9
$USERI3
 70
     0
  9
$USERI4
 70
     0
  9
$USERI5
 70
     0
  9
$USERR1
 40
0.0
  9
$USERR2
 40
0.0
  9
$USERR3
 40
0.0
  9
$USERR4
 40
0.0
  9
$USERR5
 40
0.0
  9
$WORLDVIEW
 70
     1
  9
$SHADEDGE
 70
     3
  9
$SHADEDIF
 70
    70
  9
$TILEMODE
 70
     1
  9
$MAXACTVP
 70
    64
  9
$PINSBASE
 10
0.0
 20
0.0
 30
0.0
  9
$PLIMCHECK
 70
     0
  9
$PEXTMIN
 10
1.000000000000000E+20
 20
1.000000000000000E+20
 30
1.000000000000000E+20
  9
$PEXTMAX
 10
-1.000000000000000E+20
 20
-1.000000000000000E+20
 30
-1.000000000000000E+20
  9
$PLIMMIN
 10
0.0
 20
0.0
  9
$PLIMMAX
 10
420.0
 20
297.0
  9
$UNITMODE
 70
     0
  9
$VISRETAIN
 70
     1
  9
$PLINEGEN
 70
     0
  9
$PSLTSCALE
 70
     1
  9
$TREEDEPTH
 70
  3020
  9
$CMLSTYLE
  2
Standard
  9
$CMLJUST
 70
     0
  9
$CMLSCALE
 40
20.0
  9
$PROXYGRAPHICS
 70
     1
  9
$MEASUREMENT
 70
     1
  9
$CELWEIGHT
370
    -1
  9
$ENDCAPS
280
     0
  9
$JOINSTYLE
280
     0
  9
$LWDISPLAY
290
     0
  9
$INSUNITS
 70
     4
  9
$HYPERLINKBASE
  1

  9
$STYLESHEET
  1
彩色出圖.ctb
  9
$XEDIT
290
     1
  9
$CEPSNTYPE
380
     0
  9
$PSTYLEMODE
290
     1
  9
$FINGERPRINTGUID
  2
{F025A452-2AA3-407E-92C2-6106B4F1F3B2}
  9
$VERSIONGUID
  2
{353DD9DA-71EC-4522-8938-3F0AF1633BE9}
  9
$EXTNAMES
290
     1
  9
$PSVPSCALE
 40
0.0
  9
$OLESTARTUP
290
     0
  0
ENDSEC
  0
SECTION
  2
CLASSES
  0
CLASS
  1
ACDBDICTIONARYWDFLT
  2
AcDbDictionaryWithDefault
  3
ObjectDBX Classes
 90
        0
280
     0
281
     0
  0
CLASS
  1
ACDBPLACEHOLDER
  2
AcDbPlaceHolder
  3
ObjectDBX Classes
 90
        0
280
     0
281
     0
  0
CLASS
  1
LAYOUT
  2
AcDbLayout
  3
ObjectDBX Classes
 90
        0
280
     0
281
     0
  0
CLASS
  1
ACME_DOCUMENT
  2
AcMeDbDoc
  3
AcMeServices
 90
        0
280
     0
281
     0
  0
CLASS
  1
AMGSETTINGSOBJ
  2
AmgSettingsObj
  3
"AcadM|Product Description: AutoCAD Mechanical 2000|Company: Autodesk"
 90
        0
280
     0
281
     0
  0
CLASS
  1
ACMESCOPE
  2
AcMeScope
  3
AcMeServices
 90
        0
280
     0
281
     0
  0
CLASS
  1
ACMECOMMANDHISTORY
  2
AcMeCommandHistory
  3
AcMeServices
 90
        0
280
     0
281
     0
  0
CLASS
  1
ACIMSYSVARMAN
  2
AcImSysVarManager
  3
AcMeServices
 90
        0
280
     0
281
     0
  0
CLASS
  1
ACIMREALSYSVAR
  2
AcImRealSysVar
  3
AcMeServices
 90
        0
280
     0
281
     0
  0
CLASS
  1
ACIMINTSYSVAR
  2
AcImIntSysVar
  3
AcMeServices
 90
        0
280
     0
281
     0
  0
CLASS
  1
ACMEDRAWINGMAN
  2
AcMeDrawingMan
  3
AcMeServices
 90
        0
280
     0
281
     0
  0
CLASS
  1
ACMEVIEW
  2
AcMeView
  3
AcMeServices
 90
        0
280
     0
281
     0
  0
CLASS
  1
ACDBENTITYCACHE
  2
AcMeEntityCache
  3
AcMeServices
 90
        0
280
     0
281
     0
  0
CLASS
  1
GSMANAGER
  2
AcMeGSManager
  3
AcMeServices
 90
        0
280
     0
281
     0
  0
CLASS
  1
AMDTINTERNALREACTOR
  2
AmdtInternalReactor
  3
AcMeServices
 90
        0
280
     0
281
     0
  0
CLASS
  1
ACMESTATEMGR
  2
AcMeStateMgr
  3
AcMeServices
 90
        0
280
     0
281
     0
  0
CLASS
  1
ACGREFMASTER
  2
AcGrefMaster
  3
AcAttribServices
 90
        0
280
     0
281
     0
  0
CLASS
  1
ACME_DATABASE
  2
AcMeDbDatabase
  3
AcMeServices
 90
        0
280
     0
281
     0
  0
CLASS
  1
ACRFINSADJUSTERMGR
  2
AcRfInsAdjusterMgr
  3
AcMeServices
 90
        0
280
     0
281
     0
  0
CLASS
  1
ACGREFACADMASTER
  2
AcGrefacadMaster
  3
AcGrefServices
 90
        0
280
     0
281
     0
  0
CLASS
  1
AMIMASTER
  2
AmiMaster
  3
AmiServices
 90
        0
280
     0
281
     0
  0
CLASS
  1
ACMDATADICTIONARY
  2
AcmDataDictionary
  3
"AcmSymBB|Product Description: AutoCAD Mechanical 2004 DX|Company: Autodesk"
 90
        0
280
     0
281
     0
  0
CLASS
  1
ACMDATAENTRYBLOCK
  2
AcmDataEntryBlock
  3
"AcmSymBB|Product Description: AutoCAD Mechanical 2004 DX|Company: Autodesk"
 90
        0
280
     0
281
     0
  0
CLASS
  1
ACIMSTRSYSVAR
  2
AcImStrSysVar
  3
AcMeServices
 90
        0
280
     0
281
     0
  0
CLASS
  1
ACMSTANDARDISO
  2
AcmStandardISO
  3
"Amdt_StdImp|Product Description: AutoCAD Mechanical 2004 DX|Company: Autodesk"
 90
        0
280
     0
281
     0
  0
CLASS
  1
AMGOBJPROPCFG
  2
AmgObjPropCfg
  3
"AmgLay|Product Description: AutoCAD Mechanical 2000|Company: Autodesk"
 90
        1
280
     0
281
     0
  0
CLASS
  1
AMDTEDGESTANDARDISO
  2
AmdtEdgeStdISO
  3
"Amdt_StdImp|Product Description: AutoCAD Mechanical 2004 DX|Company: Autodesk"
 90
        0
280
     0
281
     0
  0
CLASS
  1
ACMSURFSTANDARDISO
  2
AcmSurfTextStdISO
  3
"Amdt_StdImp|Product Description: AutoCAD Mechanical 2004 DX|Company: Autodesk"
 90
        0
280
     0
281
     0
  0
CLASS
  1
ACMFCFSTANDARDISO
  2
AcmFCFStdISO
  3
"Amdt_StdImp|Product Description: AutoCAD Mechanical 2004 DX|Company: Autodesk"
 90
        0
280
     0
281
     0
  0
CLASS
  1
ACMWELDSTANDARDISO
  2
AcmWeldingStdISO
  3
"Amdt_StdImp|Product Description: AutoCAD Mechanical 2004 DX|Company: Autodesk"
 90
        0
280
     0
281
     0
  0
CLASS
  1
ACMIDSTANDARDISO
  2
AcmIdStdISO
  3
"Amdt_StdImp|Product Description: AutoCAD Mechanical 2004 DX|Company: Autodesk"
 90
        0
280
     0
281
     0
  0
CLASS
  1
ACMDATUMSTANDARDISO
  2
AcmDatumStdISO
  3
"Amdt_StdImp|Product Description: AutoCAD Mechanical 2004 DX|Company: Autodesk"
 90
        0
280
     0
281
     0
  0
CLASS
  1
ACMBOMSTANDARDISO
  2
AcmBOMStdISO
  3
"Amdt_StdImp|Product Description: AutoCAD Mechanical 2004 DX|Company: Autodesk"
 90
        0
280
     0
281
     0
  0
CLASS
  1
ACMDETAILSTANDARDISO
  2
AmdtDetailSymStdISO
  3
"Amdt_StdImp|Product Description: AutoCAD Mechanical 2004 DX|Company: Autodesk"
 90
        0
280
     0
281
     0
  0
CLASS
  1
ACMSECTIONSTANDARDISO
  2
AmdtSectionSymStdISO
  3
"Amdt_StdImp|Product Description: AutoCAD Mechanical 2004 DX|Company: Autodesk"
 90
        0
280
     0
281
     0
  0
CLASS
  1
ACMCENTERLINESTANDARDISO
  2
AmdtCenterLineStdISO
  3
"Amdt_StdImp|Product Description: AutoCAD Mechanical 2004 DX|Company: Autodesk"
 90
        0
280
     0
281
     0
  0
CLASS
  1
ACMNOTESTANDARDISO
  2
AmdtNoteStdISO
  3
"Amdt_StdImp|Product Description: AutoCAD Mechanical 2004 DX|Company: Autodesk"
 90
        0
280
     0
281
     0
  0
CLASS
  1
ACAMGLAYSTD
  2
AcAmgLayStd
  3
"AcAmgLayStd|Product Description: AutoCAD Mechanical 2000|Company: Autodesk"
 90
        0
280
     0
281
     0
  0
CLASS
  1
ACAMGDIMSTD
  2
AcAmgDimStd
  3
"AcAmgDimStd|Product Description: AutoCAD Mechanical 2000|Company: Autodesk"
 90
        0
280
     0
281
     0
  0
CLASS
  1
ACAMGHOLECHARTSTDISO
  2
AcAmgHoleChartStdISO
  3
ACMSYMBB_MODULE_NAME
 90
        0
280
     0
281
     0
  0
CLASS
  1
ACAMGTITLESTD
  2
AcAmgTitleStd
  3
"TITLEAPP"
 90
        0
280
     0
281
     0
  0
CLASS
  1
LAYER_INDEX
  2
AcDbLayerIndex
  3
ObjectDBX Classes
 90
    32768
280
     0
281
     0
  0
CLASS
  1
IDBUFFER
  2
AcDbIdBuffer
  3
ObjectDBX Classes
 90
    32768
280
     0
281
     0
  0
CLASS
  1
DICTIONARYVAR
  2
AcDbDictionaryVar
  3
ObjectDBX Classes
 90
        0
280
     0
281
     0
  0
CLASS
  1
AM_DRAWING_MGR
  2
AcDmDwgMgr
  3
AcMechDwgViewMgmt
 90
        0
280
     0
281
     0
  0
CLASS
  1
AM_DWG_DOCUMENT
  2
AcDmDwgDocument
  3
AcMechDwgViewMgmt
 90
        0
280
     0
281
     0
  0
CLASS
  1
AM_DWG_SHEET
  2
AcDmSheet
  3
AcMechDwgViewMgmt
 90
        0
280
     0
281
     0
  0
CLASS
  1
AM_VIEWDIMPARMAP
  2
AcDmViewDimParMap
  3
AcMechDwgViewMgmt
 90
        0
280
     0
281
     0
  0
CLASS
  1
AM_DWGMGR_NAME
  2
AcDmDwgMgrName
  3
AcMechDwgViewMgmt
 90
        0
280
     0
281
     0
  0
CLASS
  1
AMDTMENUSTATEMGR
  2
AmdtMenuStateMgr
  3
McadcomServices
 90
        0
280
     0
281
     0
  0
CLASS
  1
AMDTMCOMMENUSTATE
  2
AmdtMcomMenuState
  3
McadcomServices
 90
        0
280
     0
281
     0
  0
CLASS
  1
MAPIAMMOUDLE
  2
MApiAmModule
  3
MApiAmServices
 90
        0
280
     0
281
     0
  0
CLASS
  1
AMDTADMENUSTATE
  2
AmdtAdMenuState
  3
DesignerServices
 90
        0
280
     0
281
     0
  0
CLASS
  1
ADAPPL
  2
AcAdAppl
  3
DesignerServices
 90
        0
280
     0
281
     0
  0
CLASS
  1
DEPMGR
  2
AcAdDepMgr
  3
DesignerServices
 90
        0
280
     0
281
     0
  0
CLASS
  1
PARAMMGR
  2
AcAdParamMgr
  3
DesignerServices
 90
        0
280
     0
281
     0
  0
CLASS
  1
PARAMSCOPE
  2
AcAdParamScope
  3
DesignerServices
 90
        0
280
     0
281
     0
  0
CLASS
  1
NAMEDAPPL
  2
AcAdNamedAppl
  3
DesignerServices
 90
        0
280
     0
281
     0
  0
CLASS
  1
AMDTDMMENUSTATE
  2
AmdtDmMenuState
  3
AcMechDwgViewMgmt
 90
        0
280
     0
281
     0
  0
CLASS
  1
AMDTAMMENUSTATE
  2
AmdtAmMenuState
  3
DesignerAssemblies
 90
        0
280
     0
281
     0
  0
CLASS
  1
ACAMPROJECT
  2
AcAmProject
  3
DesignerAssemblies
 90
        0
280
     0
281
     0
  0
CLASS
  1
ACAMGRCOMPDEF
  2
AcAmGrCompDef
  3
DesignerAssemblies
 90
        0
280
     0
281
     0
  0
CLASS
  1
ACCMCONTEXT
  2
AcCmContext
  3
DesignerAssemblies
 90
        0
280
     0
281
     0
  0
CLASS
  1
ACAMCOMPDEF
  2
AcAmCompDef
  3
DesignerAssemblies
 90
        0
280
     0
281
     0
  0
CLASS
  1
ACAMCOMPDEFMGR
  2
AcAmCompDefMgr
  3
DesignerAssemblies
 90
        0
280
     0
281
     0
  0
CLASS
  1
AMCONTEXTMGR
  2
AcAmContextMgr
  3
DesignerAssemblies
 90
        0
280
     0
281
     0
  0
CLASS
  1
ACAMCONTEXTMODELER
  2
AcAmContextModeler
  3
DesignerAssemblies
 90
        0
280
     0
281
     0
  0
CLASS
  1
ACMTHREADLINESTANDARDISO
  2
AmdtThreadLineStdISO
  3
"Amdt_StdImp|Product Description: AutoCAD Mechanical 2004 DX|Company: Autodesk"
 90
        0
280
     0
281
     0
  0
CLASS
  1
CATALOGSTATE
  2
AcAmCatalogState
  3
DesignerAssemblies
 90
        0
280
     0
281
     0
  0
CLASS
  1
ACAMGRCOMPDEFSET
  2
AcAmGrCompDefSet
  3
DesignerAssemblies
 90
        0
280
     0
281
     0
  0
CLASS
  1
AMDTBROWSERDBTAB
  2
AmdtBrowserDbTab
  3
McadcomServices
 90
        0
280
     0
281
     0
  0
CLASS
  1
CBROWSERAPPOBJECT
  2
CBrowserAppObject
  3
McadcomServices
 90
        0
280
     0
281
     0
  0
CLASS
  1
DM_PLACEHOLDER
  2
AcDmSelsetPlaceholder
  3
AcMechDwgViewMgmt
 90
        0
280
     0
281
     0
  0
CLASS
  1
TABLESTYLE
  2
AcDbTableStyle
  3
ObjectDBX Classes
 90
     2047
280
     0
281
     0
  0
CLASS
  1
VAACXREFPANELOBJECT
  2
VaAcXREFPanelObject
  3
VAAC_ADDIN
 90
    32768
280
     0
281
     0
  0
CLASS
  1
VAACIMAGEINVENTORY
  2
VaAcImageInventory
  3
VAAC_ADDIN
 90
    32768
280
     0
281
     0
  0
CLASS
  1
AMDTNOTETEMPLATEDB
  2
AmdtNoteTemplateDB
  3
AMDT_STDIMP_MODULE_NAME
 90
        0
280
     0
281
     0
  0
CLASS
  1
ACMBOM
  2
AcmBom
  3
"AcmSymBB|Product Description: AutoCAD Mechanical 2004 DX|Company: Autodesk"
 90
    32768
280
     0
281
     0
  0
CLASS
  1
AMDTFORMULAUPDATEDISPATCHER
  2
AmdtFormulaUpdateDispatcher
  3
AcMeServices
 90
    32768
280
     0
281
     0
  0
CLASS
  1
ACMPARTLIST
  2
AcmPartList
  3
"AcmSymBB|Product Description: AutoCAD Mechanical 2004 DX|Company: Autodesk"
 90
    33791
280
     0
281
     1
  0
CLASS
  1
ACAMGFILTERDAT
  2
AcAmgFilterDat
  3
"AcadM|Product Description: AutoCAD Mechanical 2000|Company: Autodesk"
 90
        0
280
     0
281
     0
  0
CLASS
  1
DIMASSOC
  2
AcDbDimAssoc
  3
"AcDbDimAssoc|Product Desc:     AcDim ARX App For Dimension|Company:          Autodesk, Inc.|WEB Address:      www.autodesk.com"
 90
        0
280
     0
281
     0
  0
CLASS
  1
AMDTNOTE
  2
AmdtNote
  3
"AcmSymBB|Product Description: AutoCAD Mechanical 2004 DX|Company: Autodesk"
 90
     1023
280
     0
281
     1
  0
CLASS
  1
ACRFATTGENMGR
  2
AcRfAttGeneralMgr
  3
AcAttribServices
 90
        0
280
     0
281
     0
  0
ENDSEC
  0
SECTION
  2
TABLES
  0
TABLE
  2
VPORT
  5
8
330
0
100
AcDbSymbolTable
 70
     3
  0
VPORT
  5
1B66
330
8
100
AcDbSymbolTableRecord
100
AcDbViewportTableRecord
  2
*Active
 70
     0
 10
0.0
 20
0.0
 11
1.0
 21
1.0
 12
238.1021128270101
 22
186.5926948450261
 13
0.0
 23
0.0
 14
2.5
 24
2.5
 15
10.0
 25
10.0
 16
0.0
 26
0.0
 36
1.0
 17
0.0
 27
0.0
 37
0.0
 40
328.3811681560109
 41
1.661684782608695
 42
50.0
 43
0.0
 44
0.0
 50
0.0
 51
0.0
 71
     0
 72
   100
 73
     1
 74
     3
 75
     0
 76
     0
 77
     0
 78
     0
281
     0
 65
     1
110
0.0
120
0.0
130
0.0
111
1.0
121
0.0
131
0.0
112
0.0
122
1.0
132
0.0
 79
     0
146
0.0
  0
ENDTAB
  0
TABLE
  2
LTYPE
  5
5
330
0
100
AcDbSymbolTable
 70
    14
  0
LTYPE
  5
14
330
5
100
AcDbSymbolTableRecord
100
AcDbLinetypeTableRecord
  2
ByBlock
 70
     0
  3

 72
    65
 73
     0
 40
0.0
  0
LTYPE
  5
15
330
5
100
AcDbSymbolTableRecord
100
AcDbLinetypeTableRecord
  2
ByLayer
 70
     0
  3

 72
    65
 73
     0
 40
0.0
  0
LTYPE
  5
16
330
5
100
AcDbSymbolTableRecord
100
AcDbLinetypeTableRecord
  2
Continuous
 70
     0
  3
Solid line
 72
    65
 73
     0
 40
0.0
  0
LTYPE
  5
64
330
5
100
AcDbSymbolTableRecord
100
AcDbLinetypeTableRecord
  2
AM_ISO02W050
 70
     0
  3
__ __ __ __ __ __ __ __ __ __ __ __ __ __ __
 72
    65
 73
     2
 40
7.5
 49
6.0
 74
     0
 49
-1.5
 74
     0
  0
LTYPE
  5
65
330
5
100
AcDbSymbolTableRecord
100
AcDbLinetypeTableRecord
  2
AM_ISO08W050
 70
     0
  3
____ . ____ . ____ . ____ . ____ . ____ . ____
 72
    65
 73
     4
 40
18.0
 49
12.0
 74
     0
 49
-1.5
 74
     0
 49
3.0
 74
     0
 49
-1.5
 74
     0
  0
LTYPE
  5
66
330
5
100
AcDbSymbolTableRecord
100
AcDbLinetypeTableRecord
  2
AM_ISO09W050
 70
     0
  3
_____ . . _____ . . _____ . . ____ .. ____
 72
    65
 73
     6
 40
22.5
 49
12.0
 74
     0
 49
-1.5
 74
     0
 49
3.0
 74
     0
 49
-1.5
 74
     0
 49
3.0
 74
     0
 49
-1.5
 74
     0
  0
LTYPE
  5
67
330
5
100
AcDbSymbolTableRecord
100
AcDbLinetypeTableRecord
  2
Amconstr
 70
     0
  3
_______________________
 72
    65
 73
     2
 40
9999.0
 49
9999.0
 74
     0
 49
0.0
 74
     0
  0
LTYPE
  5
68
330
5
100
AcDbSymbolTableRecord
100
AcDbLinetypeTableRecord
  2
AM_ISO08W050x2
 70
     0
  3
__ . __ . __ . __ . __ . __
 72
    65
 73
     4
 40
9.0
 49
6.0
 74
     0
 49
-0.75
 74
     0
 49
1.5
 74
     0
 49
-0.75
 74
     0
  0
LTYPE
  5
69
330
5
100
AcDbSymbolTableRecord
100
AcDbLinetypeTableRecord
  2
AM_ISO02W050x2
 70
     0
  3
 _ _ _ _ _ _ _ _ _ _ _ _
 72
    65
 73
     2
 40
3.75
 49
3.0
 74
     0
 49
-0.75
 74
     0
  0
LTYPE
  5
6C
330
5
100
AcDbSymbolTableRecord
100
AcDbLinetypeTableRecord
  2
Amzigzag
 70
     0
  3
/\/-/\/-/\/-/\/-/\/-/\/
 72
    65
 73
     2
 40
11.0001
 49
0.0001
 74
     4
 75
   135
340
6B
 46
0.04
 50
0.0
 44
0.0
 45
0.0
 49
-11.0
 74
     0
  0
LTYPE
  5
7A
330
5
100
AcDbSymbolTableRecord
100
AcDbLinetypeTableRecord
  2
ACISOWELD
 70
     0
  3
_ _ _ _ _
 72
    65
 73
     2
 40
2.0
 49
2.0
 74
     0
 49
-1.0
 74
     0
  0
LTYPE
  5
7B
330
5
100
AcDbSymbolTableRecord
100
AcDbLinetypeTableRecord
  2
ACISOTGB
 70
     0
  3
__ . . __ . .
 72
    65
 73
     6
 40
9.0
 49
4.0
 74
     0
 49
-1.0
 74
     0
 49
1.0
 74
     0
 49
-1.0
 74
     0
 49
1.0
 74
     0
 49
-1.0
 74
     0
  0
LTYPE
  5
7C
330
5
100
AcDbSymbolTableRecord
100
AcDbLinetypeTableRecord
  2
ACISOTGL
 70
     0
  3
_ _ _ _ _
 72
    65
 73
     2
 40
3.0
 49
2.0
 74
     0
 49
-1.0
 74
     0
  0
LTYPE
  5
7E
330
5
100
AcDbSymbolTableRecord
100
AcDbLinetypeTableRecord
  2
CENTER
 70
     0
  3
__ . __
 72
    65
 73
     4
 40
7.0
 49
4.0
 74
     0
 49
-1.0
 74
     0
 49
1.0
 74
     0
 49
-1.0
 74
     0
  0
LTYPE
  5
D8
330
5
100
AcDbSymbolTableRecord
100
AcDbLinetypeTableRecord
  2
HIDDEN
 70
     0
  3
Hidden __ __ __ __ __ __ __ __ __ __ __ __ __ _
 72
    65
 73
     2
 40
9.524999999999998
 49
6.349999999999999
 74
     0
 49
-3.174999999999999
 74
     0
  0
LTYPE
  5
D9
330
5
100
AcDbSymbolTableRecord
100
AcDbLinetypeTableRecord
  2
PHANTOM2
 70
     0
  3
Phantom (.5x) ___ _ _ ___ _ _ ___ _ _ ___ _ _
 72
    65
 73
     6
 40
31.75
 49
15.875
 74
     0
 49
-3.174999999999999
 74
     0
 49
3.174999999999999
 74
     0
 49
-3.174999999999999
 74
     0
 49
3.174999999999999
 74
     0
 49
-3.174999999999999
 74
     0
  0
ENDTAB
  0
TABLE
  2
LAYER
  5
2
102
{ACAD_XDICTIONARY
360
3F9
102
}
330
0
100
AcDbSymbolTable
 70
     6
  0
LAYER
  5
10
330
2
100
AcDbSymbolTableRecord
100
AcDbLayerTableRecord
  2
0
 70
     0
 62
     7
  6
Continuous
370
    -3
390
F
  0
LAYER
  5
A7E
330
2
100
AcDbSymbolTableRecord
100
AcDbLayerTableRecord
  2
AM_VIS
 70
     0
 62
     7
  6
Continuous
370
    50
390
F
  0
LAYER
  5
DDD
330
2
100
AcDbSymbolTableRecord
100
AcDbLayerTableRecord
  2
AM_7
 70
     0
 62
     1
  6
CENTER
370
    25
390
F
  0
LAYER
  5
F8D
330
2
100
AcDbSymbolTableRecord
100
AcDbLayerTableRecord
  2
AM_5
 70
     0
 62
     5
  6
Continuous
370
    50
390
F
  0
LAYER
  5
F8E
330
2
100
AcDbSymbolTableRecord
100
AcDbLayerTableRecord
  2
Defpoints
 70
     0
 62
     7
  6
Continuous
290
     0
370
    -3
390
F
  0
LAYER
  5
194B
330
2
100
AcDbSymbolTableRecord
100
AcDbLayerTableRecord
  2
LOGO
 70
     0
 62
     7
  6
Continuous
370
    -3
390
F
  0
ENDTAB
  0
TABLE
  2
STYLE
  5
3
330
0
100
AcDbSymbolTable
 70
     6
  0
STYLE
  5
11
330
3
100
AcDbSymbolTableRecord
100
AcDbTextStyleTableRecord
  2
STANDARD
 70
     0
 40
0.0
 41
1.0
 50
0.0
 71
     0
 42
3.0
  3
ISOCP.SHX
  4
CHINESET.SHX
  0
STYLE
  5
6B
330
3
100
AcDbSymbolTableRecord
100
AcDbTextStyleTableRecord
  2

 70
     1
 40
0.0
 41
1.0
 50
0.0
 71
     0
 42
2.5
  3
ltypeshp.shx
  4

  0
STYLE
  5
6D
330
3
100
AcDbSymbolTableRecord
100
AcDbTextStyleTableRecord
  2
ACISOTS
 70
     0
 40
1.0
 41
1.0
 50
0.0
 71
     0
 42
1.0
  3
isocp.shx
  4
chineset.shx
  0
STYLE
  5
79
330
3
100
AcDbSymbolTableRecord
100
AcDbTextStyleTableRecord
  2
ACISOGDT
 70
     0
 40
0.0
 41
1.0
 50
0.0
 71
     0
 42
2.5
  3
amgdt.shx
  4
chineset.shx
  0
STYLE
  5
194C
330
3
100
AcDbSymbolTableRecord
100
AcDbTextStyleTableRecord
  2
CHINESET
 70
     0
 40
0.0
 41
1.0
 50
0.0
 71
     0
 42
3.0
  3
simplex.shx
  4
CHINESET.SHX
  0
ENDTAB
  0
TABLE
  2
VIEW
  5
6
330
0
100
AcDbSymbolTable
 70
     0
  0
ENDTAB
  0
TABLE
  2
UCS
  5
7
330
0
100
AcDbSymbolTable
 70
     0
  0
ENDTAB
  0
TABLE
  2
APPID
  5
9
330
0
100
AcDbSymbolTable
 70
    20
  0
APPID
  5
12
330
9
100
AcDbSymbolTableRecord
100
AcDbRegAppTableRecord
  2
ACAD
 70
     0
  0
APPID
  5
46
330
9
100
AcDbSymbolTableRecord
100
AcDbRegAppTableRecord
  2
MCAD_NO_VIS
 70
     0
  0
APPID
  5
47
330
9
100
AcDbSymbolTableRecord
100
AcDbRegAppTableRecord
  2
ACAD_TEMP_GRAPHIC
 70
     0
  0
APPID
  5
58
330
9
100
AcDbSymbolTableRecord
100
AcDbRegAppTableRecord
  2
ACATTRIBSERVICES
 70
     0
  0
APPID
  5
EE
330
9
100
AcDbSymbolTableRecord
100
AcDbRegAppTableRecord
  2
AD_DRAW
 70
     0
  0
APPID
  5
10C
330
9
100
AcDbSymbolTableRecord
100
AcDbRegAppTableRecord
  2
DESIGNERASSEMBLIES
 70
     0
  0
APPID
  5
111
330
9
100
AcDbSymbolTableRecord
100
AcDbRegAppTableRecord
  2
ACADM_DIM_EDIT
 70
     0
  0
APPID
  5
112
330
9
100
AcDbSymbolTableRecord
100
AcDbRegAppTableRecord
  2
AMDT_DM_ADJ
 70
     0
  0
APPID
  5
22C
330
9
100
AcDbSymbolTableRecord
100
AcDbRegAppTableRecord
  2
ACAD_DSTYLE_DIMTEXT_FILL
 70
     0
  0
APPID
  5
452
330
9
100
AcDbSymbolTableRecord
100
AcDbRegAppTableRecord
  2
GENIUS_GENOENT_13
 70
     0
  0
APPID
  5
453
330
9
100
AcDbSymbolTableRecord
100
AcDbRegAppTableRecord
  2
GENIUS_GENOBJ-N-CRS_13
 70
     0
  0
APPID
  5
454
330
9
100
AcDbSymbolTableRecord
100
AcDbRegAppTableRecord
  2
GENIUS_GENOLIS_13
 70
     0
  0
APPID
  5
455
330
9
100
AcDbSymbolTableRecord
100
AcDbRegAppTableRecord
  2
GENIUS_GENODEF_13
 70
     0
  0
APPID
  5
456
330
9
100
AcDbSymbolTableRecord
100
AcDbRegAppTableRecord
  2
GENIUS_GENOREF_13
 70
     0
  0
APPID
  5
6F3
330
9
100
AcDbSymbolTableRecord
100
AcDbRegAppTableRecord
  2
ACAD_PSEXT
 70
     0
  0
APPID
  5
808
330
9
100
AcDbSymbolTableRecord
100
AcDbRegAppTableRecord
  2
GENIUS_GENDTOL_13
 70
     0
  0
APPID
  5
EC2
330
9
100
AcDbSymbolTableRecord
100
AcDbRegAppTableRecord
  2
GENIUS_GENOBJ-N-CEN_13
 70
     0
  0
APPID
  5
EC3
330
9
100
AcDbSymbolTableRecord
100
AcDbRegAppTableRecord
  2
GENIUS_GENCEN_19
 70
     0
  0
APPID
  5
194D
330
9
100
AcDbSymbolTableRecord
100
AcDbRegAppTableRecord
  2
GENIUS_GENREC_14
 70
     0
  0
APPID
  5
194E
330
9
100
AcDbSymbolTableRecord
100
AcDbRegAppTableRecord
  2
GENIUS_GENOBJ-N-REC_13
 70
     0
  0
ENDTAB
  0
TABLE
  2
DIMSTYLE
  5
A
330
0
100
AcDbSymbolTable
 70
     9
100
AcDbDimStyleTable
 71
     3
340
81
340
8B
340
86
  0
DIMSTYLE
105
81
330
A
100
AcDbSymbolTableRecord
100
AcDbDimStyleTableRecord
  2
AM_ISO
 70
     0
  4
"
 41
3.0
 42
1.0
 43
8.0
 44
1.5
 47
0.1
 48
0.1
 73
     0
 74
     0
 77
     1
 78
     8
 79
     2
140
3.5
141
0.0
143
0.0393701
146
0.6
147
0.7
172
     1
176
   256
177
   256
178
   256
271
     2
272
     2
283
     0
284
     8
340
11
371
    -1
372
    -1
  0
DIMSTYLE
105
82
102
{ACAD_REACTORS
330
18F1
330
1921
102
}
330
A
100
AcDbSymbolTableRecord
100
AcDbDimStyleTableRecord
  2
AM_ISO$3
 70
     0
  4
"
 41
3.0
 42
1.0
 43
8.0
 44
1.5
 47
0.1
 48
0.1
 73
     0
 77
     1
 78
     8
 79
     2
140
3.5
141
0.0
143
0.0393701
146
0.6
147
0.7
176
   256
177
   256
178
   256
271
     2
272
     2
283
     0
284
     8
288
     1
289
     0
340
11
371
    -1
372
    -1
  0
DIMSTYLE
105
83
330
A
100
AcDbSymbolTableRecord
100
AcDbDimStyleTableRecord
  2
AM_ISO$4
 70
     0
  4
"
 41
3.0
 42
1.0
 43
8.0
 44
1.5
 47
0.1
 48
0.1
 73
     0
 77
     1
 78
     8
 79
     2
140
3.5
141
0.0
143
0.0393701
146
0.6
147
0.7
176
   256
177
   256
178
   256
271
     2
272
     2
283
     0
284
     8
288
     1
289
     0
340
11
371
    -1
372
    -1
  0
DIMSTYLE
105
84
330
A
100
AcDbSymbolTableRecord
100
AcDbDimStyleTableRecord
  2
AM_ISO$6
 70
     0
  4
"
 41
3.0
 42
1.0
 43
8.0
 44
1.5
 47
0.1
 48
0.1
 73
     0
 74
     0
 78
     8
 79
     2
140
3.5
141
0.0
143
0.0393701
146
0.6
147
0.7
172
     1
176
   256
177
   256
178
   256
271
     2
272
     2
283
     0
284
     8
340
11
371
    -1
372
    -1
  0
DIMSTYLE
105
85
330
A
100
AcDbSymbolTableRecord
100
AcDbDimStyleTableRecord
  2
AM_ISO$7
 70
     0
  4
"
 41
3.0
 42
1.0
 43
8.0
 44
1.5
 47
0.1
 48
0.1
 73
     0
 74
     0
 77
     1
 78
     8
 79
     2
140
5.0
141
0.0
143
0.0393701
146
0.6
147
0.7
172
     1
176
   256
177
   256
178
   256
271
     2
272
     2
283
     0
284
     8
340
11
371
    -1
372
    -1
  0
DIMSTYLE
105
86
330
A
100
AcDbSymbolTableRecord
100
AcDbDimStyleTableRecord
  2
AM_ISO$SF
 70
     0
  4
"
 41
2.5
 42
1.0
 43
10.0
 44
1.0
 47
0.1
 48
0.1
 73
     0
 74
     0
 75
     1
 76
     1
 77
     1
 78
     8
 79
     2
140
3.5
141
0.0
143
0.0393701
146
0.71
147
1.5
172
     1
176
   256
177
   256
178
     2
271
     2
272
     3
274
     4
283
     0
284
     8
340
11
371
    -1
372
    -1
  0
DIMSTYLE
105
8B
330
A
100
AcDbSymbolTableRecord
100
AcDbDimStyleTableRecord
  2
AM_ISO$SH
 70
     0
  4
"
 41
2.5
 42
1.0
 43
10.0
 44
1.0
 47
0.1
 48
0.1
 73
     0
 74
     0
 75
     1
 76
     1
 77
     1
 78
     8
 79
     2
140
3.5
141
0.0
143
0.0393701
144
2.0
146
0.71
147
1.5
172
     1
173
     1
176
   256
177
   256
178
     2
271
     2
272
     3
274
     4
283
     0
284
     8
340
11
343
87
371
    -1
372
    -1
  0
DIMSTYLE
105
40B
102
{ACAD_REACTORS
330
1648
330
166E
330
16E4
330
170A
330
1730
330
1756
330
177C
330
17A2
330
17CC
330
17F2
330
1818
330
183E
102
}
330
A
100
AcDbSymbolTableRecord
100
AcDbDimStyleTableRecord
  2
AM_ISO$0
 70
     0
  4
"
 41
3.0
 42
1.0
 43
8.0
 44
1.5
 47
0.1
 48
0.1
 73
     0
 74
     0
 77
     1
 78
     8
 79
     2
140
3.5
141
0.0
143
0.0393701
146
0.6
147
0.7
172
     1
176
   256
177
   256
178
   256
271
     2
272
     2
283
     0
284
     8
340
11
371
    -1
372
    -1
  0
ENDTAB
  0
TABLE
  2
BLOCK_RECORD
  5
1
330
0
100
AcDbSymbolTable
 70
    20
  0
BLOCK_RECORD
  5
1F
102
{ACAD_XDICTIONARY
360
8F
102
}
330
1
100
AcDbSymbolTableRecord
100
AcDbBlockTableRecord
  2
*Model_Space
340
22
  0
BLOCK_RECORD
  5
1B
330
1
100
AcDbSymbolTableRecord
100
AcDbBlockTableRecord
  2
*Paper_Space
340
1E
  0
BLOCK_RECORD
  5
23
330
1
100
AcDbSymbolTableRecord
100
AcDbBlockTableRecord
  2
*Paper_Space0
340
26
  0
BLOCK_RECORD
  5
87
330
1
100
AcDbSymbolTableRecord
100
AcDbBlockTableRecord
  2
GENAXEH
340
0
  0
BLOCK_RECORD
  5
1649
330
1
100
AcDbSymbolTableRecord
100
AcDbBlockTableRecord
  2
*D3
340
0
  0
BLOCK_RECORD
  5
166F
330
1
100
AcDbSymbolTableRecord
100
AcDbBlockTableRecord
  2
*D4
340
0
  0
BLOCK_RECORD
  5
16E5
330
1
100
AcDbSymbolTableRecord
100
AcDbBlockTableRecord
  2
*D5
340
0
  0
BLOCK_RECORD
  5
170B
330
1
100
AcDbSymbolTableRecord
100
AcDbBlockTableRecord
  2
*D6
340
0
  0
BLOCK_RECORD
  5
1731
330
1
100
AcDbSymbolTableRecord
100
AcDbBlockTableRecord
  2
*D7
340
0
  0
BLOCK_RECORD
  5
1757
330
1
100
AcDbSymbolTableRecord
100
AcDbBlockTableRecord
  2
*D8
340
0
  0
BLOCK_RECORD
  5
177D
330
1
100
AcDbSymbolTableRecord
100
AcDbBlockTableRecord
  2
*D9
340
0
  0
BLOCK_RECORD
  5
17A3
330
1
100
AcDbSymbolTableRecord
100
AcDbBlockTableRecord
  2
*D10
340
0
  0
BLOCK_RECORD
  5
17CD
330
1
100
AcDbSymbolTableRecord
100
AcDbBlockTableRecord
  2
*D11
340
0
  0
BLOCK_RECORD
  5
17F3
330
1
100
AcDbSymbolTableRecord
100
AcDbBlockTableRecord
  2
*D12
340
0
  0
BLOCK_RECORD
  5
1819
330
1
100
AcDbSymbolTableRecord
100
AcDbBlockTableRecord
  2
*D13
340
0
  0
BLOCK_RECORD
  5
183F
330
1
100
AcDbSymbolTableRecord
100
AcDbBlockTableRecord
  2
*D14
340
0
  0
BLOCK_RECORD
  5
18F2
330
1
100
AcDbSymbolTableRecord
100
AcDbBlockTableRecord
  2
*D15
340
0
  0
BLOCK_RECORD
  5
1922
330
1
100
AcDbSymbolTableRecord
100
AcDbBlockTableRecord
  2
*D16
340
0
  0
BLOCK_RECORD
  5
1B54
330
1
100
AcDbSymbolTableRecord
100
AcDbBlockTableRecord
  2
*S18
340
0
  0
BLOCK_RECORD
  5
1B5C
330
1
100
AcDbSymbolTableRecord
100
AcDbBlockTableRecord
  2
*S19
340
0
  0
ENDTAB
  0
ENDSEC
  0
SECTION
  2
BLOCKS
  0
BLOCK
  5
20
330
1F
100
AcDbEntity
  8
0
100
AcDbBlockBegin
  2
*Model_Space
 70
     0
 10
0.0
 20
0.0
 30
0.0
  3
*Model_Space
  1

  0
ENDBLK
  5
21
330
1F
100
AcDbEntity
  8
0
100
AcDbBlockEnd
  0
BLOCK
  5
1C
330
1B
100
AcDbEntity
 67
     1
  8
0
100
AcDbBlockBegin
  2
*Paper_Space
 70
     0
 10
0.0
 20
0.0
 30
0.0
  3
*Paper_Space
  1

  0
ENDBLK
  5
1D
330
1B
100
AcDbEntity
 67
     1
  8
0
100
AcDbBlockEnd
  0
BLOCK
  5
24
330
23
100
AcDbEntity
  8
0
100
AcDbBlockBegin
  2
*Paper_Space0
 70
     0
 10
0.0
 20
0.0
 30
0.0
  3
*Paper_Space0
  1

  0
ENDBLK
  5
25
330
23
100
AcDbEntity
  8
0
100
AcDbBlockEnd
  0
BLOCK
  5
89
330
87
100
AcDbEntity
  8
0
100
AcDbBlockBegin
  2
GENAXEH
 70
     0
 10
0.0
 20
0.0
 30
0.0
  3
GENAXEH
  1

  0
LINE
  5
88
330
87
100
AcDbEntity
  8
0
100
AcDbLine
 10
-1.0
 20
0.0
 30
0.0
 11
1.0
 21
0.0
 31
0.0
  0
ENDBLK
  5
8A
330
87
100
AcDbEntity
  8
0
100
AcDbBlockEnd
  0
BLOCK
  5
1653
330
1649
100
AcDbEntity
  8
0
100
AcDbBlockBegin
  2
*D3
 70
     1
 10
0.0
 20
0.0
 30
0.0
  3
*D3
  1

  0
LINE
  5
1ADA
330
1649
100
AcDbEntity
  8
AM_5
100
AcDbLine
 10
184.3460978864728
 20
291.4825942088362
 30
0.0
 11
162.8460978864729
 21
291.4825942088362
 31
0.0
  0
LINE
  5
1ADB
330
1649
100
AcDbEntity
  8
AM_5
100
AcDbLine
 10
232.3460978864729
 20
268.4825942088363
 30
0.0
 11
162.8460978864729
 21
268.4825942088363
 31
0.0
  0
LINE
  5
1ADC
330
1649
100
AcDbEntity
  8
AM_5
100
AcDbLine
 10
164.3460978864729
 20
288.4825942088362
 30
0.0
 11
164.3460978864729
 21
271.4825942088363
 31
0.0
  0
SOLID
  5
1ADD
330
1649
100
AcDbEntity
  8
AM_5
100
AcDbTrace
 10
163.8460978864729
 20
288.4825942088362
 30
0.0
 11
164.8460978864729
 21
288.4825942088362
 31
0.0
 12
164.3460978864729
 22
291.4825942088362
 32
0.0
 13
164.3460978864729
 23
291.4825942088362
 33
0.0
  0
SOLID
  5
1ADE
330
1649
100
AcDbEntity
  8
AM_5
100
AcDbTrace
 10
163.8460978864729
 20
271.4825942088363
 30
0.0
 11
164.8460978864729
 21
271.4825942088363
 31
0.0
 12
164.3460978864729
 22
268.4825942088363
 32
0.0
 13
164.3460978864729
 23
268.4825942088363
 33
0.0
  0
MTEXT
  5
1ADF
330
1649
100
AcDbEntity
  8
AM_5
100
AcDbMText
 10
161.8957533982839
 20
279.9825942088363
 30
0.0
 40
3.5
 41
0.0
 71
     5
 72
     1
  1
23
 11
0.0000000000000001
 21
1.0
 31
0.0
 73
     1
 44
1.0
1001
ACAD
1000
MTEXTBEGIN
1070
    73
1070
     1
1070
    44
1040
1.0
1070
    74
1070
     0
1000
MTEXTEND
  0
POINT
  5
1AE0
330
1649
100
AcDbEntity
  8
Defpoints
 62
     0
100
AcDbPoint
 10
185.3460978864728
 20
291.4825942088362
 30
0.0
  0
POINT
  5
1AE1
330
1649
100
AcDbEntity
  8
Defpoints
 62
     0
100
AcDbPoint
 10
233.3460978864728
 20
268.4825942088363
 30
0.0
  0
POINT
  5
1AE2
330
1649
100
AcDbEntity
  8
Defpoints
 62
     0
100
AcDbPoint
 10
164.3460978864729
 20
268.4825942088363
 30
0.0
  0
ENDBLK
  5
1654
330
1649
100
AcDbEntity
  8
0
100
AcDbBlockEnd
  0
BLOCK
  5
1679
330
166F
100
AcDbEntity
  8
0
100
AcDbBlockBegin
  2
*D4
 70
     1
 10
0.0
 20
0.0
 30
0.0
  3
*D4
  1

  0
LINE
  5
1AE3
330
166F
100
AcDbEntity
  8
AM_5
100
AcDbLine
 10
176.3460978864729
 20
294.9825942088362
 30
0.0
 11
154.8460978864729
 21
294.9825942088362
 31
0.0
  0
LINE
  5
1AE4
330
166F
100
AcDbEntity
  8
AM_5
100
AcDbLine
 10
176.3460978864729
 20
264.9825942088362
 30
0.0
 11
154.8460978864729
 21
264.9825942088362
 31
0.0
  0
LINE
  5
1AE5
330
166F
100
AcDbEntity
  8
AM_5
100
AcDbLine
 10
156.3460978864729
 20
291.9825942088362
 30
0.0
 11
156.3460978864729
 21
267.9825942088362
 31
0.0
  0
SOLID
  5
1AE6
330
166F
100
AcDbEntity
  8
AM_5
100
AcDbTrace
 10
155.8460978864729
 20
291.9825942088362
 30
0.0
 11
156.8460978864729
 21
291.9825942088362
 31
0.0
 12
156.3460978864729
 22
294.9825942088362
 32
0.0
 13
156.3460978864729
 23
294.9825942088362
 33
0.0
  0
SOLID
  5
1AE7
330
166F
100
AcDbEntity
  8
AM_5
100
AcDbTrace
 10
155.8460978864729
 20
267.9825942088362
 30
0.0
 11
156.8460978864729
 21
267.9825942088362
 31
0.0
 12
156.3460978864729
 22
264.9825942088362
 32
0.0
 13
156.3460978864729
 23
264.9825942088362
 33
0.0
  0
MTEXT
  5
1AE8
330
166F
100
AcDbEntity
  8
AM_5
100
AcDbMText
 10
153.8960978864729
 20
279.9825942088363
 30
0.0
 40
3.5
 41
0.0
 71
     5
 72
     1
  1
30
 11
0.0000000000000001
 21
1.0
 31
0.0
 73
     1
 44
1.0
1001
ACAD
1000
MTEXTBEGIN
1070
    73
1070
     1
1070
    44
1040
1.0
1070
    74
1070
     0
1000
MTEXTEND
  0
POINT
  5
1AE9
330
166F
100
AcDbEntity
  8
Defpoints
 62
     0
100
AcDbPoint
 10
177.3460978864729
 20
294.9825942088362
 30
0.0
  0
POINT
  5
1AEA
330
166F
100
AcDbEntity
  8
Defpoints
 62
     0
100
AcDbPoint
 10
177.3460978864729
 20
264.9825942088362
 30
0.0
  0
POINT
  5
1AEB
330
166F
100
AcDbEntity
  8
Defpoints
 62
     0
100
AcDbPoint
 10
156.3460978864729
 20
264.9825942088362
 30
0.0
  0
ENDBLK
  5
167A
330
166F
100
AcDbEntity
  8
0
100
AcDbBlockEnd
  0
BLOCK
  5
16EF
330
16E5
100
AcDbEntity
  8
0
100
AcDbBlockBegin
  2
*D5
 70
     1
 10
0.0
 20
0.0
 30
0.0
  3
*D5
  1

  0
LINE
  5
1AEC
330
16E5
100
AcDbEntity
  8
AM_5
100
AcDbLine
 10
176.3460978864729
 20
264.9825942088362
 30
0.0
 11
176.3460978864729
 21
251.4825942088362
 31
0.0
  0
LINE
  5
1AED
330
16E5
100
AcDbEntity
  8
AM_5
100
AcDbLine
 10
191.3460978864728
 20
284.4825942088362
 30
0.0
 11
191.3460978864728
 21
251.4825942088362
 31
0.0
  0
LINE
  5
1AEE
330
16E5
100
AcDbEntity
  8
AM_5
100
AcDbLine
 10
179.3460978864729
 20
252.9825942088362
 30
0.0
 11
188.3460978864729
 21
252.9825942088362
 31
0.0
  0
SOLID
  5
1AEF
330
16E5
100
AcDbEntity
  8
AM_5
100
AcDbTrace
 10
179.3460978864729
 20
253.4825942088362
 30
0.0
 11
179.3460978864729
 21
252.4825942088362
 31
0.0
 12
176.3460978864729
 22
252.9825942088362
 32
0.0
 13
176.3460978864729
 23
252.9825942088362
 33
0.0
  0
SOLID
  5
1AF0
330
16E5
100
AcDbEntity
  8
AM_5
100
AcDbTrace
 10
188.3460978864729
 20
253.4825942088362
 30
0.0
 11
188.3460978864729
 21
252.4825942088362
 31
0.0
 12
191.3460978864728
 22
252.9825942088362
 32
0.0
 13
191.3460978864728
 23
252.9825942088362
 33
0.0
  0
MTEXT
  5
1AF1
330
16E5
100
AcDbEntity
  8
AM_5
100
AcDbMText
 10
183.8460978864729
 20
255.4325942088361
 30
0.0
 40
3.5
 41
0.0
 71
     5
 72
     1
  1
15
 73
     1
 44
1.0
1001
ACAD
1000
MTEXTBEGIN
1070
    73
1070
     1
1070
    44
1040
1.0
1070
    74
1070
     0
1000
MTEXTEND
  0
POINT
  5
1AF2
330
16E5
100
AcDbEntity
  8
Defpoints
 62
     0
100
AcDbPoint
 10
176.3460978864729
 20
265.9825942088362
 30
0.0
  0
POINT
  5
1AF3
330
16E5
100
AcDbEntity
  8
Defpoints
 62
     0
100
AcDbPoint
 10
191.3460978864728
 20
285.4825942088362
 30
0.0
  0
POINT
  5
1AF4
330
16E5
100
AcDbEntity
  8
Defpoints
 62
     0
100
AcDbPoint
 10
191.3460978864728
 20
252.9825942088362
 30
0.0
  0
ENDBLK
  5
16F0
330
16E5
100
AcDbEntity
  8
0
100
AcDbBlockEnd
  0
BLOCK
  5
1715
330
170B
100
AcDbEntity
  8
0
100
AcDbBlockBegin
  2
*D6
 70
     1
 10
0.0
 20
0.0
 30
0.0
  3
*D6
  1

  0
LINE
  5
1AF5
330
170B
100
AcDbEntity
  8
AM_5
100
AcDbLine
 10
191.3460978864728
 20
284.4825942088362
 30
0.0
 11
191.3460978864728
 21
251.4825942088362
 31
0.0
  0
LINE
  5
1AF6
330
170B
100
AcDbEntity
  8
AM_5
100
AcDbLine
 10
239.3460978864728
 20
261.4825942088363
 30
0.0
 11
239.3460978864728
 21
251.4825942088362
 31
0.0
  0
LINE
  5
1AF7
330
170B
100
AcDbEntity
  8
AM_5
100
AcDbLine
 10
194.3460978864728
 20
252.9825942088363
 30
0.0
 11
236.3460978864729
 21
252.9825942088363
 31
0.0
  0
SOLID
  5
1AF8
330
170B
100
AcDbEntity
  8
AM_5
100
AcDbTrace
 10
194.3460978864728
 20
253.4825942088362
 30
0.0
 11
194.3460978864728
 21
252.4825942088362
 31
0.0
 12
191.3460978864728
 22
252.9825942088363
 32
0.0
 13
191.3460978864728
 23
252.9825942088363
 33
0.0
  0
SOLID
  5
1AF9
330
170B
100
AcDbEntity
  8
AM_5
100
AcDbTrace
 10
236.3460978864729
 20
253.4825942088362
 30
0.0
 11
236.3460978864729
 21
252.4825942088362
 31
0.0
 12
239.3460978864728
 22
252.9825942088363
 32
0.0
 13
239.3460978864728
 23
252.9825942088363
 33
0.0
  0
MTEXT
  5
1AFA
330
170B
100
AcDbEntity
  8
AM_5
100
AcDbMText
 10
215.3460978864729
 20
255.4325942088362
 30
0.0
 40
3.5
 41
0.0
 71
     5
 72
     1
  1
48
 73
     1
 44
1.0
1001
ACAD
1000
MTEXTBEGIN
1070
    73
1070
     1
1070
    44
1040
1.0
1070
    74
1070
     0
1000
MTEXTEND
  0
POINT
  5
1AFB
330
170B
100
AcDbEntity
  8
Defpoints
 62
     0
100
AcDbPoint
 10
191.3460978864728
 20
285.4825942088362
 30
0.0
  0
POINT
  5
1AFC
330
170B
100
AcDbEntity
  8
Defpoints
 62
     0
100
AcDbPoint
 10
239.3460978864728
 20
262.4825942088363
 30
0.0
  0
POINT
  5
1AFD
330
170B
100
AcDbEntity
  8
Defpoints
 62
     0
100
AcDbPoint
 10
239.3460978864728
 20
252.9825942088363
 30
0.0
  0
ENDBLK
  5
1716
330
170B
100
AcDbEntity
  8
0
100
AcDbBlockEnd
  0
BLOCK
  5
173B
330
1731
100
AcDbEntity
  8
0
100
AcDbBlockBegin
  2
*D7
 70
     1
 10
0.0
 20
0.0
 30
0.0
  3
*D7
  1

  0
LINE
  5
1AFE
330
1731
100
AcDbEntity
  8
AM_5
100
AcDbLine
 10
176.3460978864729
 20
294.9825942088363
 30
0.0
 11
176.3460978864729
 21
308.4825942088362
 31
0.0
  0
LINE
  5
1AFF
330
1731
100
AcDbEntity
  8
AM_5
100
AcDbLine
 10
216.8460978864729
 20
291.4825942088362
 30
0.0
 11
216.8460978864729
 21
308.4825942088362
 31
0.0
  0
LINE
  5
1B00
330
1731
100
AcDbEntity
  8
AM_5
100
AcDbLine
 10
179.3460978864729
 20
306.9825942088362
 30
0.0
 11
213.8460978864729
 21
306.9825942088362
 31
0.0
  0
SOLID
  5
1B01
330
1731
100
AcDbEntity
  8
AM_5
100
AcDbTrace
 10
179.3460978864729
 20
307.4825942088362
 30
0.0
 11
179.3460978864729
 21
306.4825942088362
 31
0.0
 12
176.3460978864729
 22
306.9825942088362
 32
0.0
 13
176.3460978864729
 23
306.9825942088362
 33
0.0
  0
SOLID
  5
1B02
330
1731
100
AcDbEntity
  8
AM_5
100
AcDbTrace
 10
213.8460978864729
 20
307.4825942088362
 30
0.0
 11
213.8460978864729
 21
306.4825942088362
 31
0.0
 12
216.8460978864729
 22
306.9825942088362
 32
0.0
 13
216.8460978864729
 23
306.9825942088362
 33
0.0
  0
MTEXT
  5
1B03
330
1731
100
AcDbEntity
  8
AM_5
100
AcDbMText
 10
196.5960978864728
 20
309.4325942088362
 30
0.0
 40
3.5
 41
0.0
 71
     5
 72
     1
  1
40.5
 73
     1
 44
1.0
1001
ACAD
1000
MTEXTBEGIN
1070
    73
1070
     1
1070
    44
1040
1.0
1070
    74
1070
     0
1000
MTEXTEND
  0
POINT
  5
1B04
330
1731
100
AcDbEntity
  8
Defpoints
 62
     0
100
AcDbPoint
 10
176.3460978864729
 20
293.9825942088362
 30
0.0
  0
POINT
  5
1B05
330
1731
100
AcDbEntity
  8
Defpoints
 62
     0
100
AcDbPoint
 10
216.8460978864729
 20
290.4825942088362
 30
0.0
  0
POINT
  5
1B06
330
1731
100
AcDbEntity
  8
Defpoints
 62
     0
100
AcDbPoint
 10
216.8460978864729
 20
306.9825942088362
 30
0.0
  0
ENDBLK
  5
173C
330
1731
100
AcDbEntity
  8
0
100
AcDbBlockEnd
  0
BLOCK
  5
1761
330
1757
100
AcDbEntity
  8
0
100
AcDbBlockBegin
  2
*D8
 70
     1
 10
0.0
 20
0.0
 30
0.0
  3
*D8
  1

  0
LINE
  5
18B0
330
1757
100
AcDbEntity
  8
AM_5
100
AcDbLine
 10
176.3460978864729
 20
179.1368590216202
 30
0.0
 11
176.3460978864729
 21
165.6368590216201
 31
0.0
  0
LINE
  5
18B1
330
1757
100
AcDbEntity
  8
AM_5
100
AcDbLine
 10
188.8460978864729
 20
180.8868590216202
 30
0.0
 11
188.8460978864729
 21
165.6368590216201
 31
0.0
  0
LINE
  5
18B2
330
1757
100
AcDbEntity
  8
AM_5
100
AcDbLine
 10
179.3460978864729
 20
167.1368590216202
 30
0.0
 11
185.8460978864729
 21
167.1368590216202
 31
0.0
  0
SOLID
  5
18B3
330
1757
100
AcDbEntity
  8
AM_5
100
AcDbTrace
 10
179.3460978864729
 20
167.6368590216202
 30
0.0
 11
179.3460978864729
 21
166.6368590216201
 31
0.0
 12
176.3460978864729
 22
167.1368590216202
 32
0.0
 13
176.3460978864729
 23
167.1368590216202
 33
0.0
  0
SOLID
  5
18B4
330
1757
100
AcDbEntity
  8
AM_5
100
AcDbTrace
 10
185.8460978864729
 20
167.6368590216202
 30
0.0
 11
185.8460978864729
 21
166.6368590216201
 31
0.0
 12
188.8460978864729
 22
167.1368590216202
 32
0.0
 13
188.8460978864729
 23
167.1368590216202
 33
0.0
  0
MTEXT
  5
18B5
330
1757
100
AcDbEntity
  8
AM_5
100
AcDbMText
 10
182.5960978864729
 20
169.5872035098092
 30
0.0
 40
3.5
 41
0.0
 71
     5
 72
     1
  1
12.5
 73
     1
 44
1.0
1001
ACAD
1000
MTEXTBEGIN
1070
    73
1070
     1
1070
    44
1040
1.0
1070
    74
1070
     0
1000
MTEXTEND
  0
POINT
  5
18B6
330
1757
100
AcDbEntity
  8
Defpoints
 62
     0
100
AcDbPoint
 10
176.3460978864729
 20
180.1368590216202
 30
0.0
  0
POINT
  5
18B7
330
1757
100
AcDbEntity
  8
Defpoints
 62
     0
100
AcDbPoint
 10
188.8460978864729
 20
181.8868590216202
 30
0.0
  0
POINT
  5
18B8
330
1757
100
AcDbEntity
  8
Defpoints
 62
     0
100
AcDbPoint
 10
188.8460978864729
 20
167.1368590216202
 30
0.0
  0
ENDBLK
  5
1762
330
1757
100
AcDbEntity
  8
0
100
AcDbBlockEnd
  0
BLOCK
  5
1787
330
177D
100
AcDbEntity
  8
0
100
AcDbBlockBegin
  2
*D9
 70
     1
 10
0.0
 20
0.0
 30
0.0
  3
*D9
  1

  0
LINE
  5
189E
330
177D
100
AcDbEntity
  8
AM_5
100
AcDbLine
 10
188.8460978864729
 20
180.8868590216202
 30
0.0
 11
188.8460978864729
 21
165.6368590216202
 31
0.0
  0
LINE
  5
189F
330
177D
100
AcDbEntity
  8
AM_5
100
AcDbLine
 10
217.8460978864729
 20
180.8868590216202
 30
0.0
 11
217.8460978864729
 21
165.6368590216202
 31
0.0
  0
LINE
  5
18A0
330
177D
100
AcDbEntity
  8
AM_5
100
AcDbLine
 10
191.8460978864729
 20
167.1368590216202
 30
0.0
 11
214.8460978864729
 21
167.1368590216202
 31
0.0
  0
SOLID
  5
18A1
330
177D
100
AcDbEntity
  8
AM_5
100
AcDbTrace
 10
191.8460978864729
 20
167.6368590216202
 30
0.0
 11
191.8460978864729
 21
166.6368590216202
 31
0.0
 12
188.8460978864729
 22
167.1368590216202
 32
0.0
 13
188.8460978864729
 23
167.1368590216202
 33
0.0
  0
SOLID
  5
18A2
330
177D
100
AcDbEntity
  8
AM_5
100
AcDbTrace
 10
214.8460978864729
 20
167.6368590216202
 30
0.0
 11
214.8460978864729
 21
166.6368590216202
 31
0.0
 12
217.8460978864729
 22
167.1368590216202
 32
0.0
 13
217.8460978864729
 23
167.1368590216202
 33
0.0
  0
MTEXT
  5
18A3
330
177D
100
AcDbEntity
  8
AM_5
100
AcDbMText
 10
203.3460978864729
 20
169.5872035098092
 30
0.0
 40
3.5
 41
0.0
 71
     5
 72
     1
  1
29
 73
     1
 44
1.0
1001
ACAD
1000
MTEXTBEGIN
1070
    73
1070
     1
1070
    44
1040
1.0
1070
    74
1070
     0
1000
MTEXTEND
  0
POINT
  5
18A4
330
177D
100
AcDbEntity
  8
Defpoints
 62
     0
100
AcDbPoint
 10
188.8460978864729
 20
181.8868590216202
 30
0.0
  0
POINT
  5
18A5
330
177D
100
AcDbEntity
  8
Defpoints
 62
     0
100
AcDbPoint
 10
217.8460978864729
 20
181.8868590216202
 30
0.0
  0
POINT
  5
18A6
330
177D
100
AcDbEntity
  8
Defpoints
 62
     0
100
AcDbPoint
 10
217.8460978864729
 20
167.1368590216202
 30
0.0
  0
ENDBLK
  5
1788
330
177D
100
AcDbEntity
  8
0
100
AcDbBlockEnd
  0
BLOCK
  5
17AF
330
17A3
100
AcDbEntity
  8
0
100
AcDbBlockBegin
  2
*D10
 70
     1
 10
0.0
 20
0.0
 30
0.0
  3
*D10
  1

  0
LINE
  5
18BF
330
17A3
100
AcDbEntity
  8
AM_5
100
AcDbLine
 10
176.3460978864729
 20
179.1368590216202
 30
0.0
 11
162.8460978864729
 21
179.1368590216202
 31
0.0
  0
LINE
  5
18C0
330
17A3
100
AcDbEntity
  8
AM_5
100
AcDbLine
 10
183.5960978864729
 20
186.1368590216202
 30
0.0
 11
162.8460978864729
 21
186.1368590216202
 31
0.0
  0
LINE
  5
18C1
330
17A3
100
AcDbEntity
  8
AM_5
100
AcDbLine
 10
164.3460978864729
 20
176.1368590216202
 30
0.0
 11
164.3460978864729
 21
173.1368590216202
 31
0.0
  0
LINE
  5
18C2
330
17A3
100
AcDbEntity
  8
AM_5
100
AcDbLine
 10
164.3460978864729
 20
189.1368590216202
 30
0.0
 11
164.3460978864729
 21
192.1368590216202
 31
0.0
  0
LINE
  5
18C3
330
17A3
100
AcDbEntity
  8
AM_5
100
AcDbLine
 10
164.3460978864729
 20
179.1368590216202
 30
0.0
 11
164.3460978864729
 21
186.1368590216202
 31
0.0
  0
SOLID
  5
18C4
330
17A3
100
AcDbEntity
  8
AM_5
100
AcDbTrace
 10
163.8460978864729
 20
176.1368590216202
 30
0.0
 11
164.8460978864729
 21
176.1368590216202
 31
0.0
 12
164.3460978864729
 22
179.1368590216202
 32
0.0
 13
164.3460978864729
 23
179.1368590216202
 33
0.0
  0
SOLID
  5
18C5
330
17A3
100
AcDbEntity
  8
AM_5
100
AcDbTrace
 10
163.8460978864729
 20
189.1368590216202
 30
0.0
 11
164.8460978864729
 21
189.1368590216202
 31
0.0
 12
164.3460978864729
 22
186.1368590216202
 32
0.0
 13
164.3460978864729
 23
186.1368590216202
 33
0.0
  0
MTEXT
  5
18C6
330
17A3
100
AcDbEntity
  8
AM_5
100
AcDbMText
 10
161.8960978864729
 20
182.6368590216202
 30
0.0
 40
3.5
 41
0.0
 71
     5
 72
     1
  1
7
 11
0.0000000000000001
 21
1.0
 31
0.0
 73
     1
 44
1.0
1001
ACAD
1000
MTEXTBEGIN
1070
    73
1070
     1
1070
    44
1040
1.0
1070
    74
1070
     0
1000
MTEXTEND
  0
POINT
  5
18C7
330
17A3
100
AcDbEntity
  8
Defpoints
 62
     0
100
AcDbPoint
 10
177.3460978864729
 20
179.1368590216202
 30
0.0
  0
POINT
  5
18C8
330
17A3
100
AcDbEntity
  8
Defpoints
 62
     0
100
AcDbPoint
 10
184.5960978864729
 20
186.1368590216202
 30
0.0
  0
POINT
  5
18C9
330
17A3
100
AcDbEntity
  8
Defpoints
 62
     0
100
AcDbPoint
 10
164.3460978864729
 20
186.1368590216202
 30
0.0
  0
ENDBLK
  5
17B0
330
17A3
100
AcDbEntity
  8
0
100
AcDbBlockEnd
  0
BLOCK
  5
17D7
330
17CD
100
AcDbEntity
  8
0
100
AcDbBlockBegin
  2
*D11
 70
     1
 10
0.0
 20
0.0
 30
0.0
  3
*D11
  1

  0
LINE
  5
1A74
330
17CD
100
AcDbEntity
  8
AM_5
100
AcDbLine
 10
203.3460978864729
 20
105.6640438249501
 30
0.0
 11
203.3460978864729
 21
90.91404382495012
 31
0.0
  0
LINE
  5
1A75
330
17CD
100
AcDbEntity
  8
AM_5
100
AcDbLine
 10
232.3460978864729
 20
105.6640438249501
 30
0.0
 11
232.3460978864729
 21
90.91404382495012
 31
0.0
  0
LINE
  5
1A76
330
17CD
100
AcDbEntity
  8
AM_5
100
AcDbLine
 10
206.3460978864729
 20
92.4140438249501
 30
0.0
 11
229.3460978864729
 21
92.4140438249501
 31
0.0
  0
SOLID
  5
1A77
330
17CD
100
AcDbEntity
  8
AM_5
100
AcDbTrace
 10
206.3460978864729
 20
92.91404382495011
 30
0.0
 11
206.3460978864729
 21
91.91404382495012
 31
0.0
 12
203.3460978864729
 22
92.4140438249501
 32
0.0
 13
203.3460978864729
 23
92.4140438249501
 33
0.0
  0
SOLID
  5
1A78
330
17CD
100
AcDbEntity
  8
AM_5
100
AcDbTrace
 10
229.3460978864729
 20
92.91404382495011
 30
0.0
 11
229.3460978864729
 21
91.91404382495012
 31
0.0
 12
232.3460978864729
 22
92.4140438249501
 32
0.0
 13
232.3460978864729
 23
92.4140438249501
 33
0.0
  0
MTEXT
  5
1A79
330
17CD
100
AcDbEntity
  8
AM_5
100
AcDbMText
 10
217.8460978864729
 20
94.86438831313909
 30
0.0
 40
3.5
 41
0.0
 71
     5
 72
     1
  1
29
 73
     1
 44
1.0
1001
ACAD
1000
MTEXTBEGIN
1070
    73
1070
     1
1070
    44
1040
1.0
1070
    74
1070
     0
1000
MTEXTEND
  0
POINT
  5
1A7A
330
17CD
100
AcDbEntity
  8
Defpoints
 62
     0
100
AcDbPoint
 10
203.3460978864729
 20
106.6640438249501
 30
0.0
  0
POINT
  5
1A7B
330
17CD
100
AcDbEntity
  8
Defpoints
 62
     0
100
AcDbPoint
 10
232.3460978864729
 20
106.6640438249501
 30
0.0
  0
POINT
  5
1A7C
330
17CD
100
AcDbEntity
  8
Defpoints
 62
     0
100
AcDbPoint
 10
232.3460978864729
 20
92.4140438249501
 30
0.0
  0
ENDBLK
  5
17D8
330
17CD
100
AcDbEntity
  8
0
100
AcDbBlockEnd
  0
BLOCK
  5
17FD
330
17F3
100
AcDbEntity
  8
0
100
AcDbBlockBegin
  2
*D12
 70
     1
 10
0.0
 20
0.0
 30
0.0
  3
*D12
  1

  0
LINE
  5
1801
330
17F3
100
AcDbEntity
  8
AM_5
100
AcDbLine
 10
271.3460978864729
 20
179.1368590216202
 30
0.0
 11
283.8460978864729
 21
179.1368590216202
 31
0.0
  0
LINE
  5
1802
330
17F3
100
AcDbEntity
  8
AM_5
100
AcDbLine
 10
271.3460978864729
 20
225.5368590216202
 30
0.0
 11
283.8460978864729
 21
225.5368590216202
 31
0.0
  0
LINE
  5
1803
330
17F3
100
AcDbEntity
  8
AM_5
100
AcDbLine
 10
282.3460978864729
 20
182.1368590216202
 30
0.0
 11
282.3460978864729
 21
222.5368590216203
 31
0.0
  0
SOLID
  5
1804
330
17F3
100
AcDbEntity
  8
AM_5
100
AcDbTrace
 10
281.8460978864729
 20
182.1368590216202
 30
0.0
 11
282.8460978864729
 21
182.1368590216202
 31
0.0
 12
282.3460978864729
 22
179.1368590216202
 32
0.0
 13
282.3460978864729
 23
179.1368590216202
 33
0.0
  0
SOLID
  5
1805
330
17F3
100
AcDbEntity
  8
AM_5
100
AcDbTrace
 10
281.8460978864729
 20
222.5368590216203
 30
0.0
 11
282.8460978864729
 21
222.5368590216203
 31
0.0
 12
282.3460978864729
 22
225.5368590216202
 32
0.0
 13
282.3460978864729
 23
225.5368590216202
 33
0.0
  0
MTEXT
  5
1806
330
17F3
100
AcDbEntity
  8
AM_5
100
AcDbMText
 10
279.8960978864728
 20
202.3368590216203
 30
0.0
 40
3.5
 41
0.0
 71
     5
 72
     1
  1
46.4
 11
0.0000000000000001
 21
1.0
 31
0.0
 73
     1
 44
1.0
1001
ACAD
1000
MTEXTBEGIN
1070
    73
1070
     1
1070
    44
1040
1.0
1070
    74
1070
     0
1000
MTEXTEND
  0
POINT
  5
1807
330
17F3
100
AcDbEntity
  8
Defpoints
 62
     0
100
AcDbPoint
 10
270.3460978864729
 20
179.1368590216202
 30
0.0
  0
POINT
  5
1808
330
17F3
100
AcDbEntity
  8
Defpoints
 62
     0
100
AcDbPoint
 10
270.3460978864729
 20
225.5368590216202
 30
0.0
  0
POINT
  5
1809
330
17F3
100
AcDbEntity
  8
Defpoints
 62
     0
100
AcDbPoint
 10
282.3460978864729
 20
225.5368590216202
 30
0.0
  0
ENDBLK
  5
17FE
330
17F3
100
AcDbEntity
  8
0
100
AcDbBlockEnd
  0
BLOCK
  5
1823
330
1819
100
AcDbEntity
  8
0
100
AcDbBlockBegin
  2
*D13
 70
     1
 10
0.0
 20
0.0
 30
0.0
  3
*D13
  1

  0
LINE
  5
1827
330
1819
100
AcDbEntity
  8
AM_5
100
AcDbLine
 10
306.3255762123903
 20
179.1368590216202
 30
0.0
 11
293.8255752123903
 21
179.1368590216202
 31
0.0
  0
LINE
  5
1828
330
1819
100
AcDbEntity
  8
AM_5
100
AcDbLine
 10
314.1755762123903
 20
196.1368590216202
 30
0.0
 11
293.8255752123903
 21
196.1368590216202
 31
0.0
  0
LINE
  5
1829
330
1819
100
AcDbEntity
  8
AM_5
100
AcDbLine
 10
295.3255752123904
 20
182.1368590216202
 30
0.0
 11
295.3255752123904
 21
193.1368590216202
 31
0.0
  0
SOLID
  5
182A
330
1819
100
AcDbEntity
  8
AM_5
100
AcDbTrace
 10
294.8255752123903
 20
182.1368590216202
 30
0.0
 11
295.8255752123903
 21
182.1368590216202
 31
0.0
 12
295.3255752123904
 22
179.1368590216202
 32
0.0
 13
295.3255752123904
 23
179.1368590216202
 33
0.0
  0
SOLID
  5
182B
330
1819
100
AcDbEntity
  8
AM_5
100
AcDbTrace
 10
294.8255752123903
 20
193.1368590216202
 30
0.0
 11
295.8255752123903
 21
193.1368590216202
 31
0.0
 12
295.3255752123904
 22
196.1368590216202
 32
0.0
 13
295.3255752123904
 23
196.1368590216202
 33
0.0
  0
MTEXT
  5
182C
330
1819
100
AcDbEntity
  8
AM_5
100
AcDbMText
 10
292.8755752123903
 20
187.6368590216202
 30
0.0
 40
3.5
 41
0.0
 71
     5
 72
     1
  1
17
 11
0.0000000000000001
 21
1.0
 31
0.0
 73
     1
 44
1.0
1001
ACAD
1000
MTEXTBEGIN
1070
    73
1070
     1
1070
    44
1040
1.0
1070
    74
1070
     0
1000
MTEXTEND
  0
POINT
  5
182D
330
1819
100
AcDbEntity
  8
Defpoints
 62
     0
100
AcDbPoint
 10
307.3255762123903
 20
179.1368590216202
 30
0.0
  0
POINT
  5
182E
330
1819
100
AcDbEntity
  8
Defpoints
 62
     0
100
AcDbPoint
 10
315.1755762123904
 20
196.1368590216202
 30
0.0
  0
POINT
  5
182F
330
1819
100
AcDbEntity
  8
Defpoints
 62
     0
100
AcDbPoint
 10
295.3255752123904
 20
196.1368590216202
 30
0.0
  0
ENDBLK
  5
1824
330
1819
100
AcDbEntity
  8
0
100
AcDbBlockEnd
  0
BLOCK
  5
1849
330
183F
100
AcDbEntity
  8
0
100
AcDbBlockBegin
  2
*D14
 70
     1
 10
0.0
 20
0.0
 30
0.0
  3
*D14
  1

  0
LINE
  5
18A7
330
183F
100
AcDbEntity
  8
AM_5
100
AcDbLine
 10
176.3460978864729
 20
179.1368590216202
 30
0.0
 11
176.3460978864729
 21
157.6368590216203
 31
0.0
  0
LINE
  5
18A8
330
183F
100
AcDbEntity
  8
AM_5
100
AcDbLine
 10
270.3460978864729
 20
178.1368590216202
 30
0.0
 11
270.3460978864729
 21
157.6368590216203
 31
0.0
  0
LINE
  5
18A9
330
183F
100
AcDbEntity
  8
AM_5
100
AcDbLine
 10
179.3460978864729
 20
159.1368590216203
 30
0.0
 11
267.3460978864729
 21
159.1368590216203
 31
0.0
  0
SOLID
  5
18AA
330
183F
100
AcDbEntity
  8
AM_5
100
AcDbTrace
 10
179.3460978864729
 20
159.6368590216203
 30
0.0
 11
179.3460978864729
 21
158.6368590216203
 31
0.0
 12
176.3460978864729
 22
159.1368590216203
 32
0.0
 13
176.3460978864729
 23
159.1368590216203
 33
0.0
  0
SOLID
  5
18AB
330
183F
100
AcDbEntity
  8
AM_5
100
AcDbTrace
 10
267.3460978864729
 20
159.6368590216203
 30
0.0
 11
267.3460978864729
 21
158.6368590216203
 31
0.0
 12
270.3460978864729
 22
159.1368590216203
 32
0.0
 13
270.3460978864729
 23
159.1368590216203
 33
0.0
  0
MTEXT
  5
18AC
330
183F
100
AcDbEntity
  8
AM_5
100
AcDbMText
 10
223.3460978864729
 20
161.5868590216203
 30
0.0
 40
3.5
 41
0.0
 71
     5
 72
     1
  1
94
 73
     1
 44
1.0
1001
ACAD
1000
MTEXTBEGIN
1070
    73
1070
     1
1070
    44
1040
1.0
1070
    74
1070
     0
1000
MTEXTEND
  0
POINT
  5
18AD
330
183F
100
AcDbEntity
  8
Defpoints
 62
     0
100
AcDbPoint
 10
176.3460978864729
 20
180.1368590216202
 30
0.0
  0
POINT
  5
18AE
330
183F
100
AcDbEntity
  8
Defpoints
 62
     0
100
AcDbPoint
 10
270.3460978864729
 20
179.1368590216202
 30
0.0
  0
POINT
  5
18AF
330
183F
100
AcDbEntity
  8
Defpoints
 62
     0
100
AcDbPoint
 10
270.3460978864729
 20
159.1368590216203
 30
0.0
  0
ENDBLK
  5
184A
330
183F
100
AcDbEntity
  8
0
100
AcDbBlockEnd
  0
BLOCK
  5
18FB
330
18F2
100
AcDbEntity
  8
0
100
AcDbBlockBegin
  2
*D15
 70
     1
 10
0.0
 20
0.0
 30
0.0
  3
*D15
  1

  0
LINE
  5
1917
330
18F2
100
AcDbEntity
  8
AM_5
100
AcDbLine
 10
220.6583941754535
 20
181.7036333807368
 30
0.0
 11
228.8770916985252
 21
168.7479072231781
 31
0.0
  0
LINE
  5
1918
330
18F2
100
AcDbEntity
  8
AM_5
100
AcDbLine
 10
228.8770916985252
 20
168.7479072231781
 30
0.0
 11
243.1109443981117
 21
168.7479072231782
 31
0.0
  0
SOLID
  5
1919
330
18F2
100
AcDbEntity
  8
AM_5
100
AcDbTrace
 10
221.0806061412519
 20
181.9714711225445
 30
0.0
 11
220.2361822096551
 21
181.4357956389292
 31
0.0
 12
219.0513677246076
 22
184.2369051755274
 32
0.0
 13
219.0513677246076
 23
184.2369051755274
 33
0.0
  0
MTEXT
  5
191A
330
18F2
100
AcDbEntity
  8
AM_5
100
AcDbMText
 10
236.3440180483184
 20
171.1982517113671
 30
0.0
 40
3.5
 41
0.0
 71
     5
 72
     1
  1
2-\U+22054.5
 73
     1
 44
1.0
1001
ACAD
1000
MTEXTBEGIN
1070
    73
1070
     1
1070
    44
1040
1.0
1070
    74
1070
     0
1000
MTEXTEND
  0
POINT
  5
191B
330
18F2
100
AcDbEntity
  8
Defpoints
 62
     0
100
AcDbPoint
 10
219.0513677246076
 20
184.2369051755274
 30
0.0
  0
POINT
  5
191C
330
18F2
100
AcDbEntity
  8
Defpoints
 62
     0
100
AcDbPoint
 10
216.6408280483387
 20
188.0368128677133
 30
0.0
  0
ENDBLK
  5
18FC
330
18F2
100
AcDbEntity
  8
0
100
AcDbBlockEnd
  0
BLOCK
  5
1928
330
1922
100
AcDbEntity
  8
0
100
AcDbBlockBegin
  2
*D16
 70
     1
 10
0.0
 20
0.0
 30
0.0
  3
*D16
  1

  0
LINE
  5
1B0D
330
1922
100
AcDbEntity
  8
AM_5
100
AcDbLine
 10
241.5193822762753
 20
263.8688283975883
 30
0.0
 11
246.7229960843957
 21
252.8218362986728
 31
0.0
  0
LINE
  5
1B0E
330
1922
100
AcDbEntity
  8
AM_5
100
AcDbLine
 10
246.7229960843957
 20
252.8218362986728
 30
0.0
 11
261.0220807300651
 21
252.8218362986727
 31
0.0
  0
SOLID
  5
1B0F
330
1922
100
AcDbEntity
  8
AM_5
100
AcDbTrace
 10
241.9717122577702
 20
264.0818954946277
 30
0.0
 11
241.0670522947804
 21
263.6557613005489
 31
0.0
 12
240.2409796940386
 22
266.5828082865577
 32
0.0
 13
240.2409796940386
 23
266.5828082865577
 33
0.0
  0
MTEXT
  5
1B10
330
1922
100
AcDbEntity
  8
AM_5
100
AcDbMText
 10
254.2225384072303
 20
255.2721807868617
 30
0.0
 40
3.5
 41
0.0
 71
     5
 72
     1
  1
2-\U+22054.2
 73
     1
 44
1.0
1001
ACAD
1000
MTEXTBEGIN
1070
    73
1070
     1
1070
    44
1040
1.0
1070
    74
1070
     0
1000
MTEXTEND
  0
POINT
  5
1B11
330
1922
100
AcDbEntity
  8
Defpoints
 62
     0
100
AcDbPoint
 10
240.2409796940386
 20
266.5828082865577
 30
0.0
  0
POINT
  5
1B12
330
1922
100
AcDbEntity
  8
Defpoints
 62
     0
100
AcDbPoint
 10
238.4512160789072
 20
270.3823801311149
 30
0.0
  0
ENDBLK
  5
1929
330
1922
100
AcDbEntity
  8
0
100
AcDbBlockEnd
  0
BLOCK
  5
1B59
330
1B54
100
AcDbEntity
  8
0
100
AcDbBlockBegin
  2
*S18
 70
     1
 10
0.0
 20
0.0
 30
0.0
  3
*S18
  1

  0
LINE
  5
1B55
330
1B54
100
AcDbEntity
  8
AM_5
 62
     5
100
AcDbLine
 10
300.6177255060663
 20
168.7722293829935
 30
0.0
 11
310.4132372836198
 21
168.7722293829935
 31
0.0
  0
LINE
  5
1B56
330
1B54
100
AcDbEntity
  8
AM_5
 62
     5
100
AcDbLine
 10
310.4132372836198
 20
168.7722293829935
 30
0.0
 11
317.7088144888007
 21
188.4700557086599
 31
0.0
  0
TRACE
  5
1B57
330
1B54
100
AcDbEntity
  8
AM_5
 62
     5
370
    35
100
AcDbTrace
 10
318.140913255235
 20
188.3100172425538
 30
0.0
 11
317.2767157223665
 21
188.6300941747661
 31
0.0
 12
318.9244273313443
 22
191.7521717055502
 32
0.0
 13
318.9244273313443
 23
191.7521717055502
 33
0.0
  0
MTEXT
  5
1B58
330
1B54
100
AcDbEntity
  8
AM_5
 62
     5
100
AcDbMText
 10
300.6177255060663
 20
174.1632195528342
 30
0.0
 40
3.5
 41
0.0
 71
     9
 72
     5
  1

  7
ACISOTS
 73
     1
 44
1.0
1001
ACAD
1000
MTEXTBEGIN
1070
    73
1070
     1
1070
    44
1040
1.0
1070
    74
1070
     0
1000
MTEXTEND
  0
ENDBLK
  5
1B5A
330
1B54
100
AcDbEntity
  8
0
100
AcDbBlockEnd
  0
BLOCK
  5
1B61
330
1B5C
100
AcDbEntity
  8
0
100
AcDbBlockBegin
  2
*S19
 70
     1
 10
0.0
 20
0.0
 30
0.0
  3
*S19
  1

  0
LINE
  5
1B5D
330
1B5C
100
AcDbEntity
  8
AM_5
 62
     5
100
AcDbLine
 10
249.4839965515225
 20
302.5594010223557
 30
0.0
 11
233.5863431162502
 21
302.5594010223557
 31
0.0
  0
LINE
  5
1B5E
330
1B5C
100
AcDbEntity
  8
AM_5
 62
     5
100
AcDbLine
 10
233.5863431162502
 20
302.5594010223557
 30
0.0
 11
226.2065879858967
 21
288.0538647098294
 31
0.0
  0
TRACE
  5
1B5F
330
1B5C
100
AcDbEntity
  8
AM_5
 62
     5
370
    35
100
AcDbTrace
 10
225.7958986489869
 20
288.2628047087197
 30
0.0
 11
226.6172773228064
 21
287.8449247109393
 31
0.0
 12
224.6195311229326
 22
284.9343694760266
 32
0.0
 13
224.6195311229326
 23
284.9343694760266
 33
0.0
  0
MTEXT
  5
1B60
330
1B5C
100
AcDbEntity
  8
AM_5
 62
     5
100
AcDbMText
 10
249.4839965515225
 20
308.9045355123924
 30
0.0
 40
3.5
 41
0.0
 71
     9
 72
     5
  1

  7
ACISOTS
210
0.0
220
0.0
230
-1.0
 11
-1.0
 21
0.0
 31
0.0
 73
     1
 44
1.0
1001
ACAD
1000
MTEXTBEGIN
1070
    73
1070
     1
1070
    44
1040
1.0
1070
    74
1070
     0
1000
MTEXTEND
  0
ENDBLK
  5
1B62
330
1B5C
100
AcDbEntity
  8
0
100
AcDbBlockEnd
  0
ENDSEC
  0
SECTION
  2
ENTITIES
  0
LINE
  5
C2C
330
1F
100
AcDbEntity
  8
AM_VIS
100
AcDbLine
 10
176.5390597283992
 20
184.5706615576256
 30
0.0
 11
176.3950034931871
 21
184.6285923561652
 31
0.0
  0
LINE
  5
C2D
330
1F
100
AcDbEntity
  8
AM_VIS
100
AcDbLine
 10
176.3950034931873
 20
182.0451256870743
 30
0.0
 11
176.5390597283993
 21
182.1030564856139
 31
0.0
  0
LINE
  5
C2E
330
1F
100
AcDbEntity
  8
AM_VIS
100
AcDbLine
 10
178.287160374345
 20
179.4295040493137
 30
0.0
 11
179.3460978864729
 21
179.3368590216202
 31
0.0
  0
LINE
  5
C2F
330
1F
100
AcDbEntity
  8
AM_VIS
100
AcDbLine
 10
178.287160374345
 20
187.2442139939267
 30
0.0
 11
179.3460978864729
 21
187.3368590216202
 31
0.0
  0
LINE
  5
C32
330
1F
100
AcDbEntity
  8
AM_VIS
100
AcDbLine
 10
179.3460978864729
 20
187.3368590216203
 30
0.0
 11
179.3460978864729
 21
179.3368590216202
 31
0.0
  0
ARC
  5
C35
330
1F
100
AcDbEntity
  8
AM_VIS
100
AcDbCircle
 10
182.7460978864728
 20
183.3368590216202
 30
0.0
 40
6.481124516625182
100
AcDbArc
 50
160.2804765847168
 51
168.5035641354579
  0
LINE
  5
C36
330
1F
100
AcDbEntity
  8
AM_VIS
100
AcDbLine
 10
176.6450548621212
 20
185.5236944098033
 30
0.0
 11
176.6297264131229
 21
185.5368590216182
 31
0.0
  0
LINE
  5
C37
330
1F
100
AcDbEntity
  8
AM_VIS
100
AcDbLine
 10
176.6297264131244
 20
181.1368590216183
 30
0.0
 11
176.6450548621226
 21
181.1500236334332
 31
0.0
  0
ELLIPSE
  5
C38
330
1F
100
AcDbEntity
  8
AM_VIS
100
AcDbEllipse
 10
181.2371265574477
 20
183.3368590216202
 30
0.0
 11
0.0
 21
-6.07338170302488
 31
0.0
210
0.0
220
0.0
230
0.9999999999999998
 40
0.7586218633400567
 41
4.630795282262287
 42
4.793982678507748
  0
LINE
  5
C39
330
1F
100
AcDbEntity
  8
AM_VIS
100
AcDbLine
 10
176.6450548621218
 20
183.8318590216182
 30
0.0
 11
176.395003493187
 21
183.8318590216182
 31
0.0
  0
LINE
  5
C3A
330
1F
100
AcDbEntity
  8
AM_VIS
100
AcDbLine
 10
176.3950034931874
 20
182.8418590216182
 30
0.0
 11
176.645054862122
 21
182.8418590216182
 31
0.0
  0
ARC
  5
C3B
330
1F
100
AcDbEntity
  8
AM_VIS
100
AcDbCircle
 10
182.7460978864728
 20
183.3368590216202
 30
0.0
 40
6.481124516625182
100
AcDbArc
 50
191.4964358645496
 51
199.7195234153197
  0
ELLIPSE
  5
C3C
330
1F
100
AcDbEntity
  8
AM_VIS
100
AcDbEllipse
 10
182.2955178992483
 20
182.2164039569956
 30
0.0
 11
5.915222004772894
 21
-2.378748367060961
 31
0.0
210
0.0
220
0.0
230
1.0
 40
0.2990719770123941
 41
2.946877754473621
 42
3.122442402648755
  0
ELLIPSE
  5
C3D
330
1F
100
AcDbEntity
  8
AM_VIS
100
AcDbEllipse
 10
182.2955178992483
 20
182.9583580787877
 30
0.0
 11
4.100823830217068
 21
-4.881755736727153
 31
-0.0000000000000002
210
0.0
220
0.0
230
1.0
 40
0.885325961999236
 41
4.092081794601095
 42
4.267646442775897
  0
ELLIPSE
  5
C3E
330
1F
100
AcDbEntity
  8
AM_VIS
100
AcDbEllipse
 10
182.2955178992487
 20
183.7153599644521
 30
0.0
 11
4.100823830215012
 21
4.881755736729203
 31
0.0000000000000002
210
0.0
220
0.0
230
0.9999999999999998
 40
0.8853259619993208
 41
2.015538864403275
 42
2.191103512578621
  0
ELLIPSE
  5
C3F
330
1F
100
AcDbEntity
  8
AM_VIS
100
AcDbEllipse
 10
182.2955178992487
 20
184.4573140862438
 30
0.0
 11
5.915222004773235
 21
2.378748367060772
 31
0.0
210
0.0
220
0.0
230
1.0
 40
0.2990719770121611
 41
3.160742904530937
 42
3.336307552705958
  0
ARC
  5
C40
330
1F
100
AcDbEntity
  8
AM_VIS
100
AcDbCircle
 10
178.4266095627413
 20
181.0234155662605
 30
0.0
 40
1.6
100
AcDbArc
 50
208.1727341318659
 51
264.9999999999986
  0
ARC
  5
C41
330
1F
100
AcDbEntity
  8
AM_VIS
100
AcDbCircle
 10
178.4266095627413
 20
185.65030247698
 30
0.0
 40
1.6
100
AcDbArc
 50
95.00000000000135
 51
151.8272658681348
  0
ARC
  5
C42
330
1F
100
AcDbEntity
  8
AM_VIS
100
AcDbCircle
 10
182.7460978864728
 20
183.3368590216202
 30
0.0
 40
6.5
100
AcDbArc
 50
199.7831703726799
 51
208.1727341318652
  0
ARC
  5
C43
330
1F
100
AcDbEntity
  8
AM_VIS
100
AcDbCircle
 10
182.7460978864728
 20
183.3368590216202
 30
0.0
 40
6.5
100
AcDbArc
 50
151.8272658681348
 51
160.2168296273577
  0
LINE
  5
C44
330
1F
100
AcDbEntity
  8
AM_VIS
100
AcDbLine
 10
179.9460978864728
 20
187.1368590216202
 30
0.0
 11
179.3460978864729
 21
187.1368590216202
 31
0.0
  0
LINE
  5
C45
330
1F
100
AcDbEntity
  8
AM_VIS
100
AcDbLine
 10
180.3460978864729
 20
179.5368590216202
 30
0.0
 11
179.3460978864729
 21
179.5368590216202
 31
0.0
  0
LINE
  5
C46
330
1F
100
AcDbEntity
  8
AM_VIS
100
AcDbLine
 10
180.3460978864729
 20
180.1368590216202
 30
0.0
 11
180.3460978864729
 21
179.5368590216202
 31
0.0
  0
LINE
  5
C47
330
1F
100
AcDbEntity
  8
AM_VIS
100
AcDbLine
 10
180.3460978864729
 20
185.6692397795583
 30
0.0
 11
180.3460978864729
 21
181.0044782636821
 31
0.0
  0
LINE
  5
C48
330
1F
100
AcDbEntity
  8
AM_VIS
100
AcDbLine
 10
246.3460978864729
 20
225.5368590216202
 30
0.0
 11
270.3460978864729
 21
225.5368590216202
 31
0.0
  0
LINE
  5
C49
102
{ACAD_REACTORS
330
1800
102
}
330
1F
100
AcDbEntity
  8
AM_VIS
100
AcDbLine
 10
270.3460978864729
 20
179.1368590216202
 30
0.0
 11
270.3460978864729
 21
225.5368590216202
 31
0.0
  0
LINE
  5
C4A
102
{ACAD_REACTORS
330
1800
330
184C
102
}
330
1F
100
AcDbEntity
  8
AM_VIS
100
AcDbLine
 10
246.3460978864729
 20
179.1368590216202
 30
0.0
 11
270.3460978864729
 21
179.1368590216202
 31
0.0
  0
LINE
  5
C4B
330
1F
100
AcDbEntity
  8
AM_VIS
100
AcDbLine
 10
246.3460978864729
 20
200.3368590216202
 30
0.0
 11
246.3460978864729
 21
179.1368590216202
 31
0.0
  0
LINE
  5
C4C
330
1F
100
AcDbEntity
  8
AM_VIS
100
AcDbLine
 10
246.3460978864729
 20
225.5368590216202
 30
0.0
 11
246.3460978864729
 21
204.3368590216202
 31
0.0
  0
LINE
  5
C4D
330
1F
100
AcDbEntity
  8
AM_VIS
100
AcDbLine
 10
247.3460978864729
 20
204.3368590216203
 30
0.0
 11
247.3460978864729
 21
200.3368590216203
 31
0.0
  0
LINE
  5
C4E
330
1F
100
AcDbEntity
  8
AM_VIS
100
AcDbLine
 10
247.3460978864729
 20
200.3368590216202
 30
0.0
 11
246.3460978864729
 21
200.3368590216202
 31
0.0
  0
LINE
  5
C4F
330
1F
100
AcDbEntity
  8
AM_VIS
100
AcDbLine
 10
246.3460978864729
 20
204.3368590216202
 30
0.0
 11
247.3460978864729
 21
204.3368590216202
 31
0.0
  0
LINE
  5
C50
330
1F
100
AcDbEntity
  8
AM_VIS
100
AcDbLine
 10
176.3460978864729
 20
183.3368590216202
 30
0.0
 11
176.3460978864729
 21
180.1368590216202
 31
0.0
  0
LINE
  5
C51
330
1F
100
AcDbEntity
  8
AM_VIS
100
AcDbLine
 10
176.3460978864729
 20
224.5368590216202
 30
0.0
 11
176.3460978864729
 21
188.3368590216202
 31
0.0
  0
LINE
  5
C52
330
1F
100
AcDbEntity
  8
AM_VIS
100
AcDbLine
 10
181.3460978864729
 20
179.1368590216202
 30
0.0
 11
177.3460978864729
 21
179.1368590216202
 31
0.0
  0
LINE
  5
C53
330
1F
100
AcDbEntity
  8
AM_VIS
100
AcDbLine
 10
181.3460978864729
 20
179.1368590216202
 30
0.0
 11
184.3460978864728
 21
179.1368590216202
 31
0.0
  0
LINE
  5
C54
330
1F
100
AcDbEntity
  8
AM_VIS
100
AcDbLine
 10
180.3460978864729
 20
186.3368590216202
 30
0.0
 11
180.3460978864729
 21
185.6692397795583
 31
0.0
  0
LINE
  5
C55
330
1F
100
AcDbEntity
  8
AM_VIS
100
AcDbLine
 10
180.3460978864729
 20
181.0044782636821
 30
0.0
 11
180.3460978864729
 21
180.1368590216202
 31
0.0
  0
LINE
  5
C56
330
1F
100
AcDbEntity
  8
AM_VIS
100
AcDbLine
 10
177.3460978864729
 20
187.3368590216202
 30
0.0
 11
179.3460978864729
 21
187.3368590216202
 31
0.0
  0
LINE
  5
C57
330
1F
100
AcDbEntity
  8
AM_VIS
100
AcDbLine
 10
184.3460978864728
 20
225.5368590216202
 30
0.0
 11
177.3460978864729
 21
225.5368590216202
 31
0.0
  0
LINE
  5
C58
330
1F
100
AcDbEntity
  8
AM_VIS
100
AcDbLine
 10
184.3460978864728
 20
224.5368590216202
 30
0.0
 11
184.3460978864728
 21
180.1368590216202
 31
0.0
  0
ARC
  5
C59
102
{ACAD_REACTORS
330
1764
330
17B2
330
184C
102
}
330
1F
100
AcDbEntity
  8
AM_VIS
100
AcDbCircle
 10
177.3460978864729
 20
180.1368590216202
 30
0.0
 40
1.0
100
AcDbArc
 50
180.0
 51
270.0
  0
LINE
  5
C5A
330
1F
100
AcDbEntity
  8
AM_VIS
100
AcDbLine
 10
176.3460978864729
 20
188.3368590216202
 30
0.0
 11
176.3460978864729
 21
183.3368590216202
 31
0.0
  0
ARC
  5
C5B
330
1F
100
AcDbEntity
  8
AM_VIS
100
AcDbCircle
 10
177.3460978864729
 20
188.3368590216202
 30
0.0
 40
1.0
100
AcDbArc
 50
180.0
 51
270.0
  0
ARC
  5
C5C
330
1F
100
AcDbEntity
  8
AM_VIS
100
AcDbCircle
 10
177.3460978864729
 20
224.5368590216202
 30
0.0
 40
1.0
100
AcDbArc
 50
90.0
 51
180.0
  0
ARC
  5
C5D
330
1F
100
AcDbEntity
  8
AM_VIS
100
AcDbCircle
 10
181.3460978864729
 20
180.1368590216202
 30
0.0
 40
1.0
100
AcDbArc
 50
180.0
 51
270.0
  0
ARC
  5
C5E
330
1F
100
AcDbEntity
  8
AM_VIS
100
AcDbCircle
 10
179.3460978864729
 20
186.3368590216202
 30
0.0
 40
1.0
100
AcDbArc
 50
0.0
 51
90.0
  0
LINE
  5
C5F
330
1F
100
AcDbEntity
  8
AM_VIS
100
AcDbLine
 10
243.3460978864729
 20
225.5368590216202
 30
0.0
 11
246.3460978864729
 21
225.5368590216202
 31
0.0
  0
LINE
  5
C60
330
1F
100
AcDbEntity
  8
AM_VIS
100
AcDbLine
 10
246.3460978864729
 20
179.1368590216202
 30
0.0
 11
246.3460978864729
 21
225.5368590216202
 31
0.0
  0
LINE
  5
C61
330
1F
100
AcDbEntity
  8
AM_VIS
100
AcDbLine
 10
184.3460978864728
 20
179.1368590216202
 30
0.0
 11
246.3460978864729
 21
179.1368590216202
 31
0.0
  0
LINE
  5
C62
330
1F
100
AcDbEntity
  8
AM_VIS
100
AcDbLine
 10
184.3460978864728
 20
225.5368590216202
 30
0.0
 11
184.3460978864728
 21
179.1368590216202
 31
0.0
  0
LINE
  5
C63
330
1F
100
AcDbEntity
  8
AM_VIS
100
AcDbLine
 10
184.3460978864728
 20
225.5368590216202
 30
0.0
 11
235.3460978864729
 21
225.5368590216202
 31
0.0
  0
LINE
  5
C64
330
1F
100
AcDbEntity
  8
AM_VIS
100
AcDbLine
 10
243.3460978864729
 20
225.5368590216202
 30
0.0
 11
243.3460978864729
 21
221.5368590216202
 31
0.0
  0
LINE
  5
C65
330
1F
100
AcDbEntity
  8
AM_VIS
100
AcDbLine
 10
235.3460978864729
 20
221.5368590216202
 30
0.0
 11
235.3460978864729
 21
225.5368590216202
 31
0.0
  0
LINE
  5
C66
330
1F
100
AcDbEntity
  8
AM_VIS
100
AcDbLine
 10
243.3460978864729
 20
221.5368590216202
 30
0.0
 11
235.3460978864729
 21
221.5368590216202
 31
0.0
  0
LINE
  5
C67
330
1F
100
AcDbEntity
  8
AM_VIS
100
AcDbLine
 10
191.1491957125598
 20
179.1368590216202
 30
0.0
 11
192.0907717995163
 21
179.1368590216202
 31
0.0
  0
LINE
  5
C68
330
1F
100
AcDbEntity
  8
AM_VIS
100
AcDbLine
 10
190.9983804951685
 20
179.1368590216202
 30
0.0
 11
191.1491957125598
 21
179.1368590216202
 31
0.0
  0
LINE
  5
C69
330
1F
100
AcDbEntity
  8
AM_VIS
100
AcDbLine
 10
190.9576196256033
 20
179.1368590216202
 30
0.0
 11
190.9983804951685
 21
179.1368590216202
 31
0.0
  0
LINE
  5
C6A
330
1F
100
AcDbEntity
  8
AM_VIS
100
AcDbLine
 10
220.4974022342795
 20
179.1368590216202
 30
0.0
 11
220.8724022342795
 21
179.1368590216202
 31
0.0
  0
LINE
  5
C6B
330
1F
100
AcDbEntity
  8
AM_VIS
100
AcDbLine
 10
220.0041957125403
 20
179.1368590216202
 30
0.0
 11
220.4974022342794
 21
179.1368590216202
 31
0.0
  0
LINE
  5
C6C
330
1F
100
AcDbEntity
  8
AM_VIS
100
AcDbLine
 10
219.8003913647142
 20
179.1368590216202
 30
0.0
 11
220.0041957125403
 21
179.1368590216202
 31
0.0
  0
LINE
  5
C6D
330
1F
100
AcDbEntity
  8
AM_VIS
100
AcDbLine
 10
219.7351739734099
 20
179.1368590216202
 30
0.0
 11
219.8003913647142
 21
179.1368590216202
 31
0.0
  0
CIRCLE
  5
C6E
102
{ACAD_REACTORS
330
18FE
102
}
330
1F
100
AcDbEntity
  8
AM_VIS
100
AcDbCircle
 10
217.8460978864729
 20
186.1368590216202
 30
0.0
 40
2.25
  0
CIRCLE
  5
C6F
330
1F
100
AcDbEntity
  8
AM_VIS
100
AcDbCircle
 10
188.8460978864729
 20
186.1368590216202
 30
0.0
 40
2.25
  0
LINE
  5
C70
330
1F
100
AcDbEntity
  8
AM_VIS
100
AcDbLine
 10
235.3460978864728
 20
225.5368590216202
 30
0.0
 11
243.3460978864729
 21
225.5368590216202
 31
0.0
  0
LINE
  5
C71
330
1F
100
AcDbEntity
  8
AM_VIS
100
AcDbLine
 10
176.5390597283991
 20
288.716396744841
 30
0.0
 11
176.3950034931868
 21
288.7743275433806
 31
0.0
  0
LINE
  5
C72
330
1F
100
AcDbEntity
  8
AM_VIS
100
AcDbLine
 10
176.3950034931871
 20
286.1908608742908
 30
0.0
 11
176.5390597283991
 21
286.2487916728304
 31
0.0
  0
LINE
  5
C73
330
1F
100
AcDbEntity
  8
AM_VIS
100
AcDbLine
 10
178.287160374345
 20
283.5752392365297
 30
0.0
 11
179.3460978864729
 21
283.4825942088362
 31
0.0
  0
LINE
  5
C74
330
1F
100
AcDbEntity
  8
AM_VIS
100
AcDbLine
 10
178.287160374345
 20
291.3899491811427
 30
0.0
 11
179.3460978864729
 21
291.4825942088362
 31
0.0
  0
LINE
  5
C75
330
1F
100
AcDbEntity
  8
AM_VIS
100
AcDbLine
 10
179.3460978864729
 20
291.4825942088362
 30
0.0
 11
179.3460978864729
 21
283.4825942088362
 31
0.0
  0
LINE
  5
C76
330
1F
100
AcDbEntity
  8
AM_VIS
100
AcDbLine
 10
176.3950034931871
 20
286.9875942088362
 30
0.0
 11
176.6450548621212
 21
286.9875942088362
 31
0.0
  0
ELLIPSE
  5
C77
330
1F
100
AcDbEntity
  8
AM_VIS
100
AcDbEllipse
 10
181.2371265574473
 20
287.4825942088362
 30
0.0
 11
0.0
 21
-6.073381703024471
 31
0.0
210
0.0
220
0.0
230
1.0
 40
0.7586218633401569
 41
4.630795282261955
 42
4.793982678507424
  0
LINE
  5
C78
330
1F
100
AcDbEntity
  8
AM_VIS
100
AcDbLine
 10
176.6297264131236
 20
285.2825942088362
 30
0.0
 11
176.6450548621217
 21
285.2957588206511
 31
0.0
  0
ARC
  5
C79
330
1F
100
AcDbEntity
  8
AM_VIS
100
AcDbCircle
 10
182.7460978864728
 20
287.4825942088362
 30
0.0
 40
6.481124516625332
100
AcDbArc
 50
160.2804765846977
 51
168.5035641354646
  0
ARC
  5
C7A
330
1F
100
AcDbEntity
  8
AM_VIS
100
AcDbCircle
 10
182.7460978864728
 20
287.4825942088362
 30
0.0
 40
6.481124516625332
100
AcDbArc
 50
191.4964358645445
 51
199.7195234153014
  0
LINE
  5
C7B
330
1F
100
AcDbEntity
  8
AM_VIS
100
AcDbLine
 10
176.6450548621218
 20
289.6694295970214
 30
0.0
 11
176.6297264131236
 21
289.6825942088362
 31
0.0
  0
LINE
  5
C7C
330
1F
100
AcDbEntity
  8
AM_VIS
100
AcDbLine
 10
176.6450548621212
 20
287.9775942088362
 30
0.0
 11
176.3950034931873
 21
287.9775942088362
 31
0.0
  0
ELLIPSE
  5
C7D
330
1F
100
AcDbEntity
  8
AM_VIS
100
AcDbEllipse
 10
182.2955178992483
 20
287.1040932660037
 30
0.0
 11
4.100823830217078
 21
-4.881755736727143
 31
-0.0000000000000002
210
0.0
220
0.0
230
1.0
 40
0.885325961999236
 41
4.092081794600765
 42
4.267646442775898
  0
ELLIPSE
  5
C7E
330
1F
100
AcDbEntity
  8
AM_VIS
100
AcDbEllipse
 10
182.2955178992483
 20
286.3621391442116
 30
0.0
 11
5.915222004772894
 21
-2.37874836706096
 31
0.0
210
0.0
220
0.0
230
1.0
 40
0.2990719770123938
 41
2.946877754473621
 42
3.122442402649083
  0
ELLIPSE
  5
C7F
330
1F
100
AcDbEntity
  8
AM_VIS
100
AcDbEllipse
 10
182.2955178992487
 20
287.8610951516681
 30
0.0
 11
4.100823830215014
 21
4.8817557367292
 31
0.0000000000000002
210
0.0
220
0.0
230
1.0
 40
0.8853259619993206
 41
2.015538864403277
 42
2.191103512578298
  0
ELLIPSE
  5
C80
330
1F
100
AcDbEntity
  8
AM_VIS
100
AcDbEllipse
 10
182.2955178992487
 20
288.6030492734599
 30
0.0
 11
5.915222004773238
 21
2.378748367060773
 31
0.0
210
0.0
220
0.0
230
1.0
 40
0.2990719770121607
 41
3.160742904530613
 42
3.33630755270596
  0
ARC
  5
C81
330
1F
100
AcDbEntity
  8
AM_VIS
100
AcDbCircle
 10
178.4266095627413
 20
285.1691507534765
 30
0.0
 40
1.6
100
AcDbArc
 50
208.1727341318651
 51
264.9999999999986
  0
ARC
  5
C82
330
1F
100
AcDbEntity
  8
AM_VIS
100
AcDbCircle
 10
178.4266095627413
 20
289.796037664196
 30
0.0
 40
1.6
100
AcDbArc
 50
95.00000000000135
 51
151.8272658681348
  0
ARC
  5
C83
330
1F
100
AcDbEntity
  8
AM_VIS
100
AcDbCircle
 10
182.7460978864728
 20
287.4825942088362
 30
0.0
 40
6.5
100
AcDbArc
 50
151.8272658681348
 51
160.2168296273386
  0
ARC
  5
C84
330
1F
100
AcDbEntity
  8
AM_VIS
100
AcDbCircle
 10
182.7460978864728
 20
287.4825942088362
 30
0.0
 40
6.5
100
AcDbArc
 50
199.7831703726614
 51
208.1727341318659
  0
ELLIPSE
  5
C85
330
1F
100
AcDbEntity
  8
AM_VIS
100
AcDbEllipse
 10
179.796602402582
 20
287.4825942088362
 30
0.0
 11
10.44041419392793
 21
-0.0000000000000027
 31
0.0
210
0.0
220
0.0
230
1.0
 40
0.3639702342661905
 41
4.71238898038469
 42
4.726758464860895
  0
LINE
  5
C86
330
1F
100
AcDbEntity
  8
AM_VIS
100
AcDbLine
 10
179.3460978864729
 20
283.6825942088363
 30
0.0
 11
179.796602402582
 21
283.6825942088363
 31
0.0
  0
LINE
  5
C87
330
1F
100
AcDbEntity
  8
AM_VIS
100
AcDbLine
 10
179.3460978864729
 20
291.2825942088363
 30
0.0
 11
179.9460978864729
 21
291.2825942088363
 31
0.0
  0
LINE
  5
C88
330
1F
100
AcDbEntity
  8
AM_VIS
100
AcDbLine
 10
246.3460978864729
 20
294.9825942088362
 30
0.0
 11
270.3460978864729
 21
294.9825942088362
 31
0.0
  0
LINE
  5
C89
330
1F
100
AcDbEntity
  8
AM_VIS
100
AcDbLine
 10
270.3460978864729
 20
264.9825942088362
 30
0.0
 11
270.3460978864729
 21
294.9825942088362
 31
0.0
  0
LINE
  5
C8A
330
1F
100
AcDbEntity
  8
AM_VIS
100
AcDbLine
 10
246.3460978864729
 20
264.9825942088362
 30
0.0
 11
270.3460978864729
 21
264.9825942088362
 31
0.0
  0
LINE
  5
C8B
330
1F
100
AcDbEntity
  8
AM_VIS
100
AcDbLine
 10
246.3460978864729
 20
294.9825942088362
 30
0.0
 11
246.3460978864729
 21
264.9825942088362
 31
0.0
  0
LINE
  5
C8C
330
1F
100
AcDbEntity
  8
AM_VIS
100
AcDbLine
 10
184.3460978864728
 20
294.9825942088362
 30
0.0
 11
177.3460978864729
 21
294.9825942088362
 31
0.0
  0
LINE
  5
C8D
102
{ACAD_REACTORS
330
173E
102
}
330
1F
100
AcDbEntity
  8
AM_VIS
100
AcDbLine
 10
176.3460978864729
 20
293.9825942088362
 30
0.0
 11
176.3460978864729
 21
292.4825942088363
 31
0.0
  0
LINE
  5
C8E
330
1F
100
AcDbEntity
  8
AM_VIS
100
AcDbLine
 10
179.3460978864729
 20
283.4825942088362
 30
0.0
 11
177.3460978864729
 21
283.4825942088362
 31
0.0
  0
LINE
  5
C8F
330
1F
100
AcDbEntity
  8
AM_VIS
100
AcDbLine
 10
176.3460978864729
 20
282.4825942088363
 30
0.0
 11
176.3460978864729
 21
265.9825942088362
 31
0.0
  0
LINE
  5
C90
102
{ACAD_REACTORS
330
167C
102
}
330
1F
100
AcDbEntity
  8
AM_VIS
100
AcDbLine
 10
177.3460978864729
 20
264.9825942088362
 30
0.0
 11
184.3460978864728
 21
264.9825942088362
 31
0.0
  0
LINE
  5
C91
330
1F
100
AcDbEntity
  8
AM_VIS
100
AcDbLine
 10
180.3460978864729
 20
290.4825942088363
 30
0.0
 11
180.3460978864729
 21
284.4825942088363
 31
0.0
  0
LINE
  5
C92
330
1F
100
AcDbEntity
  8
AM_VIS
100
AcDbLine
 10
177.3460978864729
 20
291.4825942088362
 30
0.0
 11
179.3460978864729
 21
291.4825942088362
 31
0.0
  0
LINE
  5
C93
330
1F
100
AcDbEntity
  8
AM_VIS
100
AcDbLine
 10
184.3460978864728
 20
293.9825942088362
 30
0.0
 11
184.3460978864728
 21
265.9825942088362
 31
0.0
  0
ARC
  5
C94
330
1F
100
AcDbEntity
  8
AM_VIS
100
AcDbCircle
 10
177.3460978864729
 20
292.4825942088363
 30
0.0
 40
1.0
100
AcDbArc
 50
180.0
 51
270.0
  0
ARC
  5
C95
102
{ACAD_REACTORS
330
167C
102
}
330
1F
100
AcDbEntity
  8
AM_VIS
100
AcDbCircle
 10
177.3460978864729
 20
293.9825942088362
 30
0.0
 40
1.0
100
AcDbArc
 50
90.0
 51
180.0
  0
LINE
  5
C96
330
1F
100
AcDbEntity
  8
AM_VIS
100
AcDbLine
 10
176.3460978864729
 20
292.4825942088363
 30
0.0
 11
176.3460978864729
 21
282.4825942088363
 31
0.0
  0
ARC
  5
C97
102
{ACAD_REACTORS
330
16F2
102
}
330
1F
100
AcDbEntity
  8
AM_VIS
100
AcDbCircle
 10
177.3460978864729
 20
265.9825942088362
 30
0.0
 40
1.0
100
AcDbArc
 50
180.0
 51
270.0
  0
ARC
  5
C98
330
1F
100
AcDbEntity
  8
AM_VIS
100
AcDbCircle
 10
177.3460978864729
 20
282.4825942088363
 30
0.0
 40
0.9999999999999998
100
AcDbArc
 50
90.0
 51
180.0
  0
ARC
  5
C99
330
1F
100
AcDbEntity
  8
AM_VIS
100
AcDbCircle
 10
179.3460978864729
 20
284.4825942088363
 30
0.0
 40
1.0
100
AcDbArc
 50
270.0
 51
0.0
  0
ARC
  5
C9A
330
1F
100
AcDbEntity
  8
AM_VIS
100
AcDbCircle
 10
179.3460978864729
 20
290.4825942088363
 30
0.0
 40
1.0
100
AcDbArc
 50
0.0
 51
90.0
  0
LINE
  5
C9B
330
1F
100
AcDbEntity
  8
AM_VIS
100
AcDbLine
 10
213.0960978864729
 20
272.4825942088362
 30
0.0
 11
213.0960978864729
 21
282.9825942088362
 31
0.0
  0
LINE
  5
C9C
330
1F
100
AcDbEntity
  8
AM_VIS
100
AcDbLine
 10
220.5960978864729
 20
282.9825942088362
 30
0.0
 11
220.5960978864729
 21
272.4825942088362
 31
0.0
  0
LINE
  5
C9D
330
1F
100
AcDbEntity
  8
AM_VIS
100
AcDbLine
 10
184.3460978864728
 20
294.9825942088362
 30
0.0
 11
184.3460978864728
 21
264.9825942088362
 31
0.0
  0
LINE
  5
C9E
330
1F
100
AcDbEntity
  8
AM_VIS
100
AcDbLine
 10
246.3460978864729
 20
264.9825942088362
 30
0.0
 11
246.3460978864729
 21
294.9825942088362
 31
0.0
  0
LINE
  5
C9F
330
1F
100
AcDbEntity
  8
AM_VIS
100
AcDbLine
 10
184.3460978864728
 20
294.9825942088362
 30
0.0
 11
187.3460978864729
 21
294.9825942088362
 31
0.0
  0
LINE
  5
CA0
330
1F
100
AcDbEntity
  8
AM_VIS
100
AcDbLine
 10
195.3460978864729
 20
294.9825942088362
 30
0.0
 11
246.3460978864729
 21
294.9825942088362
 31
0.0
  0
LINE
  5
CA1
330
1F
100
AcDbEntity
  8
AM_VIS
100
AcDbLine
 10
187.3460978864729
 20
291.4825942088362
 30
0.0
 11
187.3460978864729
 21
294.9825942088362
 31
0.0
  0
LINE
  5
CA2
330
1F
100
AcDbEntity
  8
AM_VIS
100
AcDbLine
 10
195.3460978864729
 20
294.9825942088362
 30
0.0
 11
195.3460978864729
 21
291.4825942088362
 31
0.0
  0
LINE
  5
CA3
330
1F
100
AcDbEntity
  8
AM_VIS
100
AcDbLine
 10
187.3460978864729
 20
294.9825942088362
 30
0.0
 11
195.3460978864729
 21
294.9825942088362
 31
0.0
  0
LINE
  5
CA4
330
1F
100
AcDbEntity
  8
AM_VIS
100
AcDbLine
 10
243.3460978864729
 20
264.9825942088362
 30
0.0
 11
246.3460978864729
 21
264.9825942088362
 31
0.0
  0
LINE
  5
CA5
330
1F
100
AcDbEntity
  8
AM_VIS
100
AcDbLine
 10
184.3460978864728
 20
264.9825942088362
 30
0.0
 11
235.3460978864729
 21
264.9825942088362
 31
0.0
  0
LINE
  5
CA6
330
1F
100
AcDbEntity
  8
AM_VIS
100
AcDbLine
 10
243.3460978864729
 20
268.4825942088363
 30
0.0
 11
243.3460978864729
 21
264.9825942088364
 31
0.0
  0
LINE
  5
CA7
330
1F
100
AcDbEntity
  8
AM_VIS
100
AcDbLine
 10
235.3460978864729
 20
264.9825942088363
 30
0.0
 11
235.3460978864728
 21
268.4825942088362
 31
0.0
  0
LINE
  5
CA8
330
1F
100
AcDbEntity
  8
AM_VIS
100
AcDbLine
 10
243.3460978864729
 20
264.9825942088362
 30
0.0
 11
235.3460978864729
 21
264.9825942088362
 31
0.0
  0
LINE
  5
CA9
330
1F
100
AcDbEntity
  8
AM_VIS
100
AcDbLine
 10
198.4057374077127
 20
280.3691095626413
 30
0.0
 11
198.9104103049089
 21
278.8991496160459
 31
0.0
  0
LINE
  5
CAA
330
1F
100
AcDbEntity
  8
AM_VIS
100
AcDbLine
 10
198.9104103049089
 20
278.8991496160459
 30
0.0
 11
199.4391152448289
 21
280.3691095626413
 31
0.0
  0
LINE
  5
CAB
330
1F
100
AcDbEntity
  8
AM_VIS
100
AcDbLine
 10
199.4391152448289
 20
280.3691095626413
 30
0.0
 11
198.4057374077127
 21
280.3691095626413
 31
0.0
  0
LINE
  5
CAC
330
1F
100
AcDbEntity
  8
AM_VIS
100
AcDbLine
 10
197.5125464864844
 20
281.4825942088362
 30
0.0
 11
198.4618121740678
 21
281.4825942088362
 31
0.0
  0
LINE
  5
CAD
330
1F
100
AcDbEntity
  8
AM_VIS
100
AcDbLine
 10
198.4618121740678
 20
281.4825942088362
 30
0.0
 11
198.4618121740678
 21
281.4024873997574
 31
0.0
  0
SPLINE
  5
CAE
330
1F
100
AcDbEntity
  8
AM_VIS
100
AcDbSpline
210
0.0
220
0.0
230
1.0
 70
     8
 71
     3
 72
     8
 73
     4
 74
     0
 42
0.0000000001
 43
0.0000000001
 40
0.0
 40
0.0
 40
0.0
 40
0.0
 40
80.0
 40
80.0
 40
80.0
 40
80.0
 10
198.4618121740678
 20
281.4024873997574
 30
0.0
 10
198.3576733222654
 20
281.3971469050745
 30
0.0
 10
198.2842421009821
 20
281.3864660379417
 30
0.0
 10
198.2415184491012
 20
281.370444676126
 30
0.0
  0
SPLINE
  5
CAF
330
1F
100
AcDbEntity
  8
AM_VIS
100
AcDbSpline
210
0.0
220
0.0
230
1.0
 70
     8
 71
     3
 72
     8
 73
     4
 74
     0
 42
0.0000000001
 43
0.0000000001
 40
0.0
 40
0.0
 40
0.0
 40
0.0
 40
80.0
 40
80.0
 40
80.0
 40
80.0
 10
198.2415184491012
 20
281.370444676126
 30
0.0
 10
198.1747628156133
 20
281.3410721387192
 30
0.0
 10
198.1413849377528
 20
281.2849973723642
 30
0.0
 10
198.1413849377528
 20
281.2022203770605
 30
0.0
  0
SPLINE
  5
CB0
330
1F
100
AcDbEntity
  8
AM_VIS
100
AcDbSpline
210
0.0
220
0.0
230
1.0
 70
     8
 71
     3
 72
     8
 73
     4
 74
     0
 42
0.0000000001
 43
0.0000000001
 40
0.0
 40
0.0
 40
0.0
 40
0.0
 40
80.0
 40
80.0
 40
80.0
 40
80.0
 10
198.1413849377528
 20
281.2022203770605
 30
0.0
 10
198.1413849377528
 20
281.1354647435726
 30
0.0
 10
198.1640818873639
 20
281.0393365726781
 30
0.0
 10
198.2094757254697
 20
280.913835864377
 30
0.0
  0
LINE
  5
CB1
330
1F
100
AcDbEntity
  8
AM_VIS
100
AcDbLine
 10
198.2094757254697
 20
280.913835864377
 30
0.0
 11
198.3536679818115
 21
280.517307159437
 31
0.0
  0
LINE
  5
CB2
330
1F
100
AcDbEntity
  8
AM_VIS
100
AcDbLine
 10
198.3536679818115
 20
280.517307159437
 30
0.0
 11
199.4751633089143
 21
280.517307159437
 31
0.0
  0
LINE
  5
CB3
330
1F
100
AcDbEntity
  8
AM_VIS
100
AcDbLine
 10
199.4751633089143
 20
280.517307159437
 30
0.0
 11
199.6754303316112
 21
281.0259853970872
 31
0.0
  0
SPLINE
  5
CB4
330
1F
100
AcDbEntity
  8
AM_VIS
100
AcDbSpline
210
0.0
220
0.0
230
1.0
 70
     8
 71
     3
 72
     8
 73
     4
 74
     0
 42
0.0000000001
 43
0.0000000001
 40
0.0
 40
0.0
 40
0.0
 40
0.0
 40
80.0
 40
80.0
 40
80.0
 40
80.0
 10
199.6754303316112
 20
281.0259853970872
 30
0.0
 10
199.69679218811
 20
281.0793899772175
 30
0.0
 10
199.7074730552427
 20
281.1381349297975
 30
0.0
 10
199.7074730552427
 20
281.2022203770605
 30
0.0
  0
SPLINE
  5
CB5
330
1F
100
AcDbEntity
  8
AM_VIS
100
AcDbSpline
210
0.0
220
0.0
230
1.0
 70
     8
 71
     3
 72
     8
 73
     4
 74
     0
 42
0.0000000001
 43
0.0000000001
 40
0.0
 40
0.0
 40
0.0
 40
0.0
 40
80.0
 40
80.0
 40
80.0
 40
80.0
 10
199.7074730552427
 20
281.2022203770605
 30
0.0
 10
199.7074730552427
 20
281.2876676197056
 30
0.0
 10
199.6754303316112
 20
281.3437423860608
 30
0.0
 10
199.6113448843482
 20
281.370444676126
 30
0.0
  0
SPLINE
  5
CB6
330
1F
100
AcDbEntity
  8
AM_VIS
100
AcDbSpline
210
0.0
220
0.0
230
1.0
 70
     8
 71
     3
 72
     8
 73
     4
 74
     0
 42
0.0000000001
 43
0.0000000001
 40
0.0
 40
0.0
 40
0.0
 40
0.0
 40
80.0
 40
80.0
 40
80.0
 40
80.0
 10
199.6113448843482
 20
281.370444676126
 30
0.0
 10
199.5819724080582
 20
281.3864660379417
 30
0.0
 10
199.5258976417031
 20
281.3971469050745
 30
0.0
 10
199.4431205852828
 20
281.4024873997574
 30
0.0
  0
LINE
  5
CB7
330
1F
100
AcDbEntity
  8
AM_VIS
100
AcDbLine
 10
199.4431205852828
 20
281.4024873997574
 30
0.0
 11
199.4431205852828
 21
281.4825942088362
 31
0.0
  0
LINE
  5
CB8
330
1F
100
AcDbEntity
  8
AM_VIS
100
AcDbLine
 10
199.4431205852828
 20
281.4825942088362
 30
0.0
 11
200.1760978883536
 21
281.4825942088362
 31
0.0
  0
LINE
  5
CB9
330
1F
100
AcDbEntity
  8
AM_VIS
100
AcDbLine
 10
200.1760978883536
 20
281.4825942088362
 30
0.0
 11
200.1760978883536
 21
281.4024873997574
 31
0.0
  0
LINE
  5
CBA
330
1F
100
AcDbEntity
  8
AM_VIS
100
AcDbLine
 10
200.0718362350565
 20
281.3830989012885
 30
0.0
 11
200.1759729676551
 21
281.4031366171371
 31
0.0
  0
SPLINE
  5
CBB
330
1F
100
AcDbEntity
  8
AM_VIS
100
AcDbSpline
210
0.0
220
0.0
230
1.0
 70
     8
 71
     3
 72
     8
 73
     4
 74
     0
 42
0.0000000001
 43
0.0000000001
 40
0.0
 40
0.0
 40
0.0
 40
0.0
 40
80.0
 40
80.0
 40
80.0
 40
80.0
 10
200.0719590365512
 20
281.3824606974878
 30
0.0
 10
200.0399163740363
 20
281.3744500165799
 30
0.0
 10
200.0092087435172
 20
281.3517530669687
 30
0.0
 10
199.9798362061105
 20
281.3143699097708
 30
0.0
  0
SPLINE
  5
CBC
330
1F
100
AcDbEntity
  8
AM_VIS
100
AcDbSpline
210
0.0
220
0.0
230
1.0
 70
     8
 71
     3
 72
     8
 73
     4
 74
     0
 42
0.0000000001
 43
0.0000000001
 40
0.0
 40
0.0
 40
0.0
 40
0.0
 40
80.0
 40
80.0
 40
80.0
 40
80.0
 10
199.9798362061105
 20
281.3143699097708
 30
0.0
 10
199.9050698917148
 20
281.2182417999929
 30
0.0
 10
199.8076065665912
 20
281.0072938490466
 30
0.0
 10
199.687446352973
 20
280.6815261180485
 30
0.0
  0
LINE
  5
CBD
330
1F
100
AcDbEntity
  8
AM_VIS
100
AcDbLine
 10
199.687446352973
 20
280.6815261180485
 30
0.0
 11
198.8783675812775
 21
278.4825942088362
 31
0.0
  0
LINE
  5
CBE
330
1F
100
AcDbEntity
  8
AM_VIS
100
AcDbLine
 10
198.8783675812775
 20
278.4825942088362
 30
0.0
 11
198.8623462194617
 21
278.4825942088362
 31
0.0
  0
LINE
  5
CBF
330
1F
100
AcDbEntity
  8
AM_VIS
100
AcDbLine
 10
198.8623462194617
 20
278.4825942088362
 30
0.0
 11
197.9130805318783
 21
281.0099640352715
 31
0.0
  0
SPLINE
  5
CC0
330
1F
100
AcDbEntity
  8
AM_VIS
100
AcDbSpline
210
0.0
220
0.0
230
1.0
 70
     8
 71
     3
 72
     8
 73
     4
 74
     0
 42
0.0000000001
 43
0.0000000001
 40
0.0
 40
0.0
 40
0.0
 40
0.0
 40
80.0
 40
80.0
 40
80.0
 40
80.0
 10
197.9130805318783
 20
281.0099640352714
 30
0.0
 10
197.8543355792982
 20
281.170177653429
 30
0.0
 10
197.7902501320352
 20
281.2783218456853
 30
0.0
 10
197.7208241900892
 20
281.3343966120405
 30
0.0
  0
SPLINE
  5
CC1
330
1F
100
AcDbEntity
  8
AM_VIS
100
AcDbSpline
210
0.0
220
0.0
230
1.0
 70
     8
 71
     3
 72
     8
 73
     4
 74
     0
 42
0.0000000001
 43
0.0000000001
 40
0.0
 40
0.0
 40
0.0
 40
0.0
 40
80.0
 40
80.0
 40
80.0
 40
80.0
 10
197.7208241900892
 20
281.3343966120405
 30
0.0
 10
197.6807707855498
 20
281.366439335672
 30
0.0
 10
197.6113449047204
 20
281.3891362241666
 30
0.0
 10
197.5125464864844
 20
281.4024873997574
 30
0.0
  0
LINE
  5
CC2
330
1F
100
AcDbEntity
  8
AM_VIS
100
AcDbLine
 10
197.5125464864844
 20
281.4024873997574
 30
0.0
 11
197.5125464864844
 21
281.4825942088362
 31
0.0
  0
ARC
  5
CC3
330
1F
100
AcDbEntity
  8
AM_VIS
100
AcDbCircle
 10
216.8460978864729
 20
282.9825942088362
 30
0.0
 40
3.75
100
AcDbArc
 50
0.0
 51
180.0
  0
ARC
  5
CC4
330
1F
100
AcDbEntity
  8
AM_VIS
100
AcDbCircle
 10
216.8460978864729
 20
272.4825942088362
 30
0.0
 40
3.75
100
AcDbArc
 50
180.0
 51
0.0
  0
CIRCLE
  5
CC5
330
1F
100
AcDbEntity
  8
AM_VIS
100
AcDbCircle
 10
216.8460978864729
 20
277.7325942088362
 30
0.0
 40
10.75
  0
CIRCLE
  5
CC6
330
1F
100
AcDbEntity
  8
AM_VIS
100
AcDbCircle
 10
216.8460978864729
 20
277.7325942088362
 30
0.0
 40
9.3
  0
ARC
  5
CC7
330
1F
100
AcDbEntity
  8
AM_VIS
100
AcDbCircle
 10
191.3460978864728
 20
291.4825942088362
 30
0.0
 40
4.0
100
AcDbArc
 50
180.0
 51
0.0
  0
ARC
  5
CC8
330
1F
100
AcDbEntity
  8
AM_VIS
100
AcDbCircle
 10
239.3460978864728
 20
268.4825942088363
 30
0.0
 40
4.0
100
AcDbArc
 50
0.0
 51
180.0
  0
CIRCLE
  5
CC9
330
1F
100
AcDbEntity
  8
AM_VIS
100
AcDbCircle
 10
191.3460978864728
 20
291.4825942088362
 30
0.0
 40
2.1
  0
CIRCLE
  5
CCA
102
{ACAD_REACTORS
330
192B
102
}
330
1F
100
AcDbEntity
  8
AM_VIS
100
AcDbCircle
 10
239.3460978864728
 20
268.4825942088363
 30
0.0
 40
2.1
  0
LINE
  5
CCB
330
1F
100
AcDbEntity
  8
AM_VIS
100
AcDbLine
 10
176.3950034931876
 20
129.1223104904035
 30
0.0
 11
176.5390597283994
 21
129.180241288943
 31
0.0
  0
LINE
  5
CCC
330
1F
100
AcDbEntity
  8
AM_VIS
100
AcDbLine
 10
176.5390597283993
 20
131.6478463609561
 30
0.0
 11
176.3950034931874
 21
131.7057771594956
 31
0.0
  0
LINE
  5
CCD
330
1F
100
AcDbEntity
  8
AM_VIS
100
AcDbLine
 10
178.287160374345
 20
126.5066888526436
 30
0.0
 11
179.3460978864729
 21
126.4140438249501
 31
0.0
  0
LINE
  5
CCE
330
1F
100
AcDbEntity
  8
AM_VIS
100
AcDbLine
 10
178.287160374345
 20
134.3213987972566
 30
0.0
 11
179.3460978864729
 21
134.4140438249501
 31
0.0
  0
LINE
  5
CCF
330
1F
100
AcDbEntity
  8
AM_VIS
100
AcDbLine
 10
179.3460978864729
 20
134.4140438249501
 30
0.0
 11
179.3460978864729
 21
126.41404382495
 31
0.0
  0
ELLIPSE
  5
CD0
330
1F
100
AcDbEntity
  8
AM_VIS
100
AcDbEllipse
 10
181.2371265574433
 20
130.41404382495
 30
0.0
 11
0.0
 21
-6.073381703023271
 31
0.0
210
0.0
220
0.0
230
1.0
 40
0.758621863339396
 41
4.630795282261938
 42
4.79398267850744
  0
LINE
  5
CD1
330
1F
100
AcDbEntity
  8
AM_VIS
100
AcDbLine
 10
176.645054862122
 20
132.6008792131351
 30
0.0
 11
176.6297264131236
 21
132.6140438249501
 31
0.0
  0
LINE
  5
CD2
330
1F
100
AcDbEntity
  8
AM_VIS
100
AcDbLine
 10
176.6297264131236
 20
128.2140438249501
 30
0.0
 11
176.645054862122
 21
128.2272084367651
 31
0.0
  0
ARC
  5
CD3
330
1F
100
AcDbEntity
  8
AM_VIS
100
AcDbCircle
 10
182.7460978864728
 20
130.41404382495
 30
0.0
 40
6.48112451662503
100
AcDbArc
 50
160.2804765846993
 51
168.5035641354528
  0
LINE
  5
CD4
330
1F
100
AcDbEntity
  8
AM_VIS
100
AcDbLine
 10
176.3950034931871
 20
129.91904382495
 30
0.0
 11
176.6450548621226
 21
129.91904382495
 31
0.0
  0
ARC
  5
CD5
330
1F
100
AcDbEntity
  8
AM_VIS
100
AcDbCircle
 10
182.7460978864728
 20
130.41404382495
 30
0.0
 40
6.48112451662503
100
AcDbArc
 50
191.4964358645555
 51
199.7195234153007
  0
LINE
  5
CD6
330
1F
100
AcDbEntity
  8
AM_VIS
100
AcDbLine
 10
176.6450548621226
 20
130.9090438249501
 30
0.0
 11
176.3950034931873
 21
130.9090438249501
 31
0.0
  0
ELLIPSE
  5
CD7
330
1F
100
AcDbEntity
  8
AM_VIS
100
AcDbEllipse
 10
182.2955178992487
 20
131.5344988895737
 30
0.0
 11
5.915222004773236
 21
2.378748367060772
 31
0.0
210
0.0
220
0.0
230
1.0
 40
0.2990719770121608
 41
3.160742904531268
 42
3.33630755270596
  0
ELLIPSE
  5
CD8
330
1F
100
AcDbEntity
  8
AM_VIS
100
AcDbEllipse
 10
182.2955178992483
 20
129.2935887603254
 30
0.0
 11
5.915222004772893
 21
-2.378748367060961
 31
0.0
210
0.0
220
0.0
230
1.0
 40
0.2990719770123937
 41
2.946877754473624
 42
3.122442402648427
  0
ELLIPSE
  5
CD9
330
1F
100
AcDbEntity
  8
AM_VIS
100
AcDbEllipse
 10
182.2955178992483
 20
130.0355428821175
 30
0.0
 11
4.100823830217078
 21
-4.881755736727143
 31
-0.0000000000000002
210
0.0
220
0.0
230
1.0
 40
0.8853259619992366
 41
4.092081794600765
 42
4.267646442775898
  0
ELLIPSE
  5
CDA
330
1F
100
AcDbEntity
  8
AM_VIS
100
AcDbEllipse
 10
182.2955178992487
 20
130.7925447677819
 30
0.0
 11
4.100823830215012
 21
4.881755736729202
 31
0.0000000000000002
210
0.0
220
0.0
230
1.0
 40
0.8853259619993208
 41
2.015538864403276
 42
2.191103512578297
  0
ARC
  5
CDB
330
1F
100
AcDbEntity
  8
AM_VIS
100
AcDbCircle
 10
178.4266095627413
 20
128.1006003695903
 30
0.0
 40
1.6
100
AcDbArc
 50
208.1727341318651
 51
264.9999999999986
  0
ARC
  5
CDC
330
1F
100
AcDbEntity
  8
AM_VIS
100
AcDbCircle
 10
178.4266095627413
 20
132.7274872803098
 30
0.0
 40
1.6
100
AcDbArc
 50
95.00000000000135
 51
151.8272658681348
  0
ARC
  5
CDD
330
1F
100
AcDbEntity
  8
AM_VIS
100
AcDbCircle
 10
182.7460978864728
 20
130.41404382495
 30
0.0
 40
6.5
100
AcDbArc
 50
199.7831703726614
 51
208.1727341318659
  0
ARC
  5
CDE
330
1F
100
AcDbEntity
  8
AM_VIS
100
AcDbCircle
 10
182.7460978864728
 20
130.41404382495
 30
0.0
 40
6.5
100
AcDbArc
 50
151.8272658681348
 51
160.2168296273386
  0
ELLIPSE
  5
CDF
330
1F
100
AcDbEntity
  8
AM_VIS
100
AcDbEllipse
 10
179.8955933703638
 20
130.41404382495
 30
0.0
 11
-10.44041419392793
 21
0.0000000000000027
 31
0.0
210
0.0
220
0.0
230
1.0
 40
0.3639702342661905
 41
1.51814041853333
 42
1.575639442154248
  0
ELLIPSE
  5
CE0
330
1F
100
AcDbEntity
  8
AM_VIS
100
AcDbEllipse
 10
178.796602402582
 20
130.41404382495
 30
0.0
 11
-10.44041419392778
 21
0.0000000000000027
 31
0.0
210
0.0
220
0.0
230
1.0
 40
0.3639702342661959
 41
1.623452235056464
 42
1.684127428853535
  0
LINE
  5
CE1
330
1F
100
AcDbEntity
  8
AM_VIS
100
AcDbLine
 10
180.3460978864729
 20
134.2140438249501
 30
0.0
 11
179.3460978864729
 21
134.2140438249501
 31
0.0
  0
LINE
  5
CE2
330
1F
100
AcDbEntity
  8
AM_VIS
100
AcDbLine
 10
179.9460978864729
 20
126.61404382495
 30
0.0
 11
179.8955933703638
 21
126.61404382495
 31
0.0
  0
LINE
  5
CE3
330
1F
100
AcDbEntity
  8
AM_VIS
100
AcDbLine
 10
180.3460978864729
 20
132.4634339781419
 30
0.0
 11
180.3460978864729
 21
128.3646536717582
 31
0.0
  0
LINE
  5
CE4
330
1F
100
AcDbEntity
  8
AM_VIS
100
AcDbLine
 10
180.3460978864729
 20
134.2140438249501
 30
0.0
 11
180.3460978864729
 21
133.4140438249501
 31
0.0
  0
LINE
  5
CE5
330
1F
100
AcDbEntity
  8
AM_VIS
100
AcDbLine
 10
270.118523735422
 20
109.579153972747
 30
0.0
 11
270.1971922797586
 21
109.6103854599467
 31
0.0
  0
LINE
  5
CE6
330
1F
100
AcDbEntity
  8
AM_VIS
100
AcDbLine
 10
269.9555111029588
 20
109.0930817979414
 30
0.0
 11
270.1971922797588
 21
109.1085700663157
 31
0.0
  0
LINE
  5
CE7
330
1F
100
AcDbEntity
  8
AM_VIS
100
AcDbLine
 10
270.1238718999555
 20
107.7242163596071
 30
0.0
 11
270.1971922797583
 21
107.7195175835803
 31
0.0
  0
LINE
  5
CE8
330
1F
100
AcDbEntity
  8
AM_VIS
100
AcDbLine
 10
270.1971922797584
 20
109.7681530452784
 30
0.0
 11
270.0873126618014
 21
109.7245307320568
 31
0.0
  0
LINE
  5
CE9
330
1F
100
AcDbEntity
  8
AM_VIS
100
AcDbLine
 10
270.0132881756426
 20
107.290712294845
 30
0.0
 11
270.1971922797586
 21
107.2177021899535
 31
0.0
  0
LINE
  5
CEA
330
1F
100
AcDbEntity
  8
AM_VIS
100
AcDbLine
 10
270.1971922797587
 20
108.6968657247352
 30
0.0
 11
269.9622914181249
 21
108.7119194729605
 31
0.0
  0
LINE
  5
CEB
330
1F
100
AcDbEntity
  8
AM_VIS
100
AcDbLine
 10
270.1971922797585
 20
107.0599346046218
 30
0.0
 11
270.1654993341246
 21
107.0725167342929
 31
0.0
  0
LINE
  5
CEC
330
1F
100
AcDbEntity
  8
AM_VIS
100
AcDbLine
 10
268.3050353986007
 20
104.5066888526436
 30
0.0
 11
267.2460978864728
 21
104.41404382495
 31
0.0
  0
LINE
  5
CED
330
1F
100
AcDbEntity
  8
AM_VIS
100
AcDbLine
 10
267.2460978864728
 20
104.41404382495
 30
0.0
 11
267.2460978864728
 21
112.1640438249501
 31
0.0
  0
ELLIPSE
  5
CEE
330
1F
100
AcDbEntity
  8
AM_VIS
100
AcDbEllipse
 10
263.8460978864729
 20
108.3351600322847
 30
0.0
 11
6.481124516625182
 21
-0.0000000000000003
 31
0.0
210
0.0
220
0.0
230
1.0
 40
0.9872203446008963
 41
0.2006506580806102
 42
0.223863370911481
  0
ELLIPSE
  5
CEF
330
1F
100
AcDbEntity
  8
AM_VIS
100
AcDbEllipse
 10
265.3550692154985
 20
106.6795001468235
 30
0.0
 11
4.582127624772801
 21
3.986235284190598
 31
0.0
210
0.0
220
0.0
230
1.0
 40
0.1208948884426948
 41
6.212490683621163
 42
6.25999137513448
  0
ELLIPSE
  5
CF0
330
1F
100
AcDbEntity
  8
AM_VIS
100
AcDbEllipse
 10
265.3550692155026
 20
110.1485875030773
 30
0.0
 11
4.582127624767225
 21
-3.986235284195178
 31
0.0
210
0.0
220
0.0
230
1.0
 40
0.1208948884425737
 41
0.0464597162536913
 42
0.1863813282907361
  0
ELLIPSE
  5
CF1
330
1F
100
AcDbEntity
  8
AM_VIS
100
AcDbEllipse
 10
265.355069215498
 20
108.6940410503248
 30
0.0
 11
-1.108032813882446
 21
5.971451129666654
 31
0.0000000000000001
210
0.0
220
0.0
230
1.0
 40
0.7489269373483449
 41
4.503611541333603
 42
4.527846448638685
  0
ELLIPSE
  5
CF2
330
1F
100
AcDbEntity
  8
AM_VIS
100
AcDbEllipse
 10
263.8460978864729
 20
108.9027178955255
 30
0.0
 11
6.481124516625333
 21
-0.0000000000000041
 31
0.0
210
0.0
220
0.0
230
1.0
 40
0.159361197303759
 41
0.2006506580805145
 42
0.3441706105211333
  0
ELLIPSE
  5
CF3
330
1F
100
AcDbEntity
  8
AM_VIS
100
AcDbEllipse
 10
263.8460978864729
 20
108.9027178955255
 30
0.0
 11
6.481124516625333
 21
-0.0000000000000041
 31
0.0
210
0.0
220
0.0
230
1.0
 40
0.159361197303759
 41
5.9448472751889
 42
6.082534649098917
  0
ELLIPSE
  5
CF4
330
1F
100
AcDbEntity
  8
AM_VIS
100
AcDbEllipse
 10
265.355069215498
 20
108.1340465995753
 30
0.0
 11
-1.108032813882455
 21
-5.971451129666653
 31
-0.0000000000000001
210
0.0
220
0.0
230
1.0
 40
0.7489269373483453
 41
1.732073074332061
 42
1.895260470577522
  0
ELLIPSE
  5
CF5
330
1F
100
AcDbEntity
  8
AM_VIS
100
AcDbEllipse
 10
263.8460978864729
 20
108.4929276176154
 30
0.0
 11
6.481124516625182
 21
-0.0000000000000003
 31
0.0
210
0.0
220
0.0
230
1.0
 40
0.9872203446008963
 41
0.2006506580807601
 42
0.3441706105207967
  0
ELLIPSE
  5
CF6
330
1F
100
AcDbEntity
  8
AM_VIS
100
AcDbEllipse
 10
263.8460978864729
 20
108.4929276176154
 30
0.0
 11
6.481124516625182
 21
-0.0000000000000003
 31
0.0
210
0.0
220
0.0
230
1.0
 40
0.9872203446008963
 41
5.93901469665814
 42
6.082534649098973
  0
ELLIPSE
  5
CF7
330
1F
100
AcDbEntity
  8
AM_VIS
100
AcDbEllipse
 10
263.8460978864729
 20
107.9253697543707
 30
0.0
 11
6.48112451662503
 21
-0.0000000000000041
 31
0.0
210
0.0
220
0.0
230
1.0
 40
0.1593611973037589
 41
0.2006506580808527
 42
0.3441706105211146
  0
ELLIPSE
  5
CF8
330
1F
100
AcDbEntity
  8
AM_VIS
100
AcDbEllipse
 10
263.8460978864729
 20
108.3351600322847
 30
0.0
 11
6.481124516625182
 21
-0.0000000000000003
 31
0.0
210
0.0
220
0.0
230
1.0
 40
0.9872203446008963
 41
5.944847275188641
 42
6.082534649098823
  0
ELLIPSE
  5
CF9
330
1F
100
AcDbEntity
  8
AM_VIS
100
AcDbEllipse
 10
264.2966778736975
 20
108.6091505955413
 30
0.0
 11
2.533406213370668
 21
-5.850653648747263
 31
0.0
210
0.0
220
0.0
230
1.0
 40
0.9216722696257043
 41
1.27043380559426
 42
1.445998453769714
  0
ELLIPSE
  5
CFA
330
1F
100
AcDbEntity
  8
AM_VIS
100
AcDbEllipse
 10
264.296677873697
 20
107.8618229331123
 30
0.0
 11
4.939862570295506
 21
4.030639272639168
 31
0.0000000000000002
210
0.0
220
0.0
230
1.0
 40
0.8263513329524288
 41
5.3755391737281
 42
5.551103821902789
  0
ELLIPSE
  5
CFB
330
1F
100
AcDbEntity
  8
AM_VIS
100
AcDbEllipse
 10
264.2966778736975
 20
108.2189370543588
 30
0.0
 11
2.533406213370671
 21
5.850653648747258
 31
0.0
210
0.0
220
0.0
230
1.0
 40
0.9216722696257043
 41
4.937516517508441
 42
5.01275150158467
  0
ELLIPSE
  5
CFC
330
1F
100
AcDbEntity
  8
AM_VIS
100
AcDbEllipse
 10
264.296677873697
 20
107.3682261533728
 30
0.0
 11
5.855282528136941
 21
2.522689373514307
 31
0.0
210
0.0
220
0.0
230
1.0
 40
0.4363365455147287
 41
6.23620709221864
 42
6.411771740393653
  0
ELLIPSE
  5
CFD
330
1F
100
AcDbEntity
  8
AM_VIS
100
AcDbEllipse
 10
264.2966778736975
 20
109.580498223389
 30
0.0
 11
5.947313041152884
 21
-2.297338188007491
 31
0.0
210
0.0
220
0.0
230
1.0
 40
0.1541633348983582
 41
6.028256682717517
 42
6.203821330892644
  0
ELLIPSE
  5
CFE
330
1F
100
AcDbEntity
  8
AM_VIS
100
AcDbEllipse
 10
264.296677873697
 20
108.9662647167878
 30
0.0
 11
4.939862570295497
 21
-4.030639272639177
 31
-0.0000000000000002
210
0.0
220
0.0
230
1.0
 40
0.826351332952429
 41
0.7320814852761427
 42
0.8030492239412932
  0
ARC
  5
CFF
330
1F
100
AcDbEntity
  8
AM_VIS
100
AcDbCircle
 10
268.1655862102044
 20
110.7274872803098
 30
0.0
 40
1.6
100
AcDbArc
 50
28.17273413186518
 51
63.87660179376811
  0
ARC
  5
D00
330
1F
100
AcDbEntity
  8
AM_VIS
100
AcDbCircle
 10
268.1655862102044
 20
106.1006003695903
 30
0.0
 40
1.6
100
AcDbArc
 50
274.9999999999998
 51
331.8272658681341
  0
ARC
  5
D01
330
1F
100
AcDbEntity
  8
AM_VIS
100
AcDbCircle
 10
263.8460978864729
 20
108.4140438249501
 30
0.0
 40
6.5
100
AcDbArc
 50
331.8272658681341
 51
340.0137706279959
  0
ARC
  5
D02
330
1F
100
AcDbEntity
  8
AM_VIS
100
AcDbCircle
 10
263.8460978864729
 20
108.4140438249501
 30
0.0
 40
6.5
100
AcDbArc
 50
19.98622937196753
 51
28.17273413186518
  0
LINE
  5
D03
330
1F
100
AcDbEntity
  8
AM_VIS
100
AcDbLine
 10
266.2460978864729
 20
104.61404382495
 30
0.0
 11
267.2460978864728
 21
104.61404382495
 31
0.0
  0
LINE
  5
D04
330
1F
100
AcDbEntity
  8
AM_VIS
100
AcDbLine
 10
266.2460978864729
 20
104.4140438249501
 30
0.0
 11
266.2460978864729
 21
112.1640438249501
 31
0.0
  0
LINE
  5
D05
330
1F
100
AcDbEntity
  8
AM_VIS
100
AcDbLine
 10
246.3460978864729
 20
104.4140438249501
 30
0.0
 11
266.2460978864729
 21
104.4140438249501
 31
0.0
  0
LINE
  5
D06
330
1F
100
AcDbEntity
  8
AM_VIS
100
AcDbLine
 10
266.2460978864729
 20
112.1640438249501
 30
0.0
 11
270.3460978864729
 21
112.1640438249501
 31
0.0
  0
LINE
  5
D07
330
1F
100
AcDbEntity
  8
AM_VIS
100
AcDbLine
 10
270.3460978864729
 20
104.4140438249501
 30
0.0
 11
266.2460978864729
 21
104.4140438249501
 31
0.0
  0
LINE
  5
D08
330
1F
100
AcDbEntity
  8
AM_VIS
100
AcDbLine
 10
270.3460978864729
 20
112.1640438249501
 30
0.0
 11
270.3460978864729
 21
134.4140438249501
 31
0.0
  0
LINE
  5
D09
330
1F
100
AcDbEntity
  8
AM_VIS
100
AcDbLine
 10
270.3460978864729
 20
108.4140438249501
 30
0.0
 11
270.3460978864729
 21
104.4140438249501
 31
0.0
  0
LINE
  5
D0A
330
1F
100
AcDbEntity
  8
AM_VIS
100
AcDbLine
 10
246.3460978864729
 20
134.4140438249501
 30
0.0
 11
270.3460978864729
 21
134.4140438249501
 31
0.0
  0
LINE
  5
D0B
330
1F
100
AcDbEntity
  8
AM_VIS
100
AcDbLine
 10
246.3460978864729
 20
134.4140438249501
 30
0.0
 11
246.3460978864729
 21
104.4140438249501
 31
0.0
  0
LINE
  5
D0C
330
1F
100
AcDbEntity
  8
AM_VIS
100
AcDbLine
 10
270.3460978864729
 20
112.1640438249501
 30
0.0
 11
270.3460978864729
 21
108.4140438249501
 31
0.0
  0
LINE
  5
D0D
330
1F
100
AcDbEntity
  8
AM_VIS
100
AcDbLine
 10
177.3460978864729
 20
104.4140438249501
 30
0.0
 11
184.3460978864728
 21
104.4140438249501
 31
0.0
  0
LINE
  5
D0E
330
1F
100
AcDbEntity
  8
AM_VIS
100
AcDbLine
 10
179.3460978864729
 20
126.41404382495
 30
0.0
 11
177.3460978864729
 21
126.41404382495
 31
0.0
  0
LINE
  5
D0F
330
1F
100
AcDbEntity
  8
AM_VIS
100
AcDbLine
 10
176.3460978864729
 20
125.41404382495
 30
0.0
 11
176.3460978864729
 21
105.4140438249501
 31
0.0
  0
LINE
  5
D10
330
1F
100
AcDbEntity
  8
AM_VIS
100
AcDbLine
 10
176.3460978864729
 20
133.4140438249501
 30
0.0
 11
176.3460978864729
 21
130.41404382495
 31
0.0
  0
LINE
  5
D11
330
1F
100
AcDbEntity
  8
AM_VIS
100
AcDbLine
 10
184.3460978864728
 20
134.4140438249501
 30
0.0
 11
181.3460978864729
 21
134.4140438249501
 31
0.0
  0
LINE
  5
D12
330
1F
100
AcDbEntity
  8
AM_VIS
100
AcDbLine
 10
180.3460978864729
 20
133.4140438249501
 30
0.0
 11
180.3460978864729
 21
132.4634339781419
 31
0.0
  0
LINE
  5
D13
330
1F
100
AcDbEntity
  8
AM_VIS
100
AcDbLine
 10
180.3460978864729
 20
128.3646536717582
 30
0.0
 11
180.3460978864729
 21
127.41404382495
 31
0.0
  0
LINE
  5
D14
330
1F
100
AcDbEntity
  8
AM_VIS
100
AcDbLine
 10
177.3460978864729
 20
134.4140438249501
 30
0.0
 11
181.3460978864729
 21
134.4140438249501
 31
0.0
  0
LINE
  5
D15
330
1F
100
AcDbEntity
  8
AM_VIS
100
AcDbLine
 10
184.3460978864728
 20
133.4140438249501
 30
0.0
 11
184.3460978864728
 21
105.4140438249501
 31
0.0
  0
ARC
  5
D16
330
1F
100
AcDbEntity
  8
AM_VIS
100
AcDbCircle
 10
177.3460978864729
 20
125.41404382495
 30
0.0
 40
1.0
100
AcDbArc
 50
90.0
 51
180.0
  0
ARC
  5
D17
330
1F
100
AcDbEntity
  8
AM_VIS
100
AcDbCircle
 10
177.3460978864729
 20
105.4140438249501
 30
0.0
 40
1.0
100
AcDbArc
 50
180.0
 51
270.0
  0
LINE
  5
D18
330
1F
100
AcDbEntity
  8
AM_VIS
100
AcDbLine
 10
176.3460978864729
 20
130.41404382495
 30
0.0
 11
176.3460978864729
 21
125.41404382495
 31
0.0
  0
ARC
  5
D19
330
1F
100
AcDbEntity
  8
AM_VIS
100
AcDbCircle
 10
177.3460978864729
 20
133.4140438249501
 30
0.0
 40
1.0
100
AcDbArc
 50
90.0
 51
180.0
  0
ARC
  5
D1A
330
1F
100
AcDbEntity
  8
AM_VIS
100
AcDbCircle
 10
181.3460978864729
 20
133.4140438249501
 30
0.0
 40
1.0
100
AcDbArc
 50
90.0
 51
180.0
  0
ARC
  5
D1B
330
1F
100
AcDbEntity
  8
AM_VIS
100
AcDbCircle
 10
179.3460978864729
 20
127.41404382495
 30
0.0
 40
1.0
100
AcDbArc
 50
270.0
 51
0.0
  0
LINE
  5
D1C
330
1F
100
AcDbEntity
  8
AM_VIS
100
AcDbLine
 10
199.5960978864729
 20
114.1640438249501
 30
0.0
 11
199.5960978864729
 21
124.6640438249501
 31
0.0
  0
LINE
  5
D1D
330
1F
100
AcDbEntity
  8
AM_VIS
100
AcDbLine
 10
207.0960978864729
 20
124.6640438249501
 30
0.0
 11
207.0960978864729
 21
114.1640438249501
 31
0.0
  0
LINE
  5
D1E
330
1F
100
AcDbEntity
  8
AM_VIS
100
AcDbLine
 10
228.5960978864729
 20
114.1640438249501
 30
0.0
 11
228.5960978864729
 21
124.6640438249501
 31
0.0
  0
LINE
  5
D1F
330
1F
100
AcDbEntity
  8
AM_VIS
100
AcDbLine
 10
236.0960978864729
 20
124.6640438249501
 30
0.0
 11
236.0960978864729
 21
114.1640438249501
 31
0.0
  0
LINE
  5
D20
330
1F
100
AcDbEntity
  8
AM_VIS
100
AcDbLine
 10
184.3460978864728
 20
134.4140438249501
 30
0.0
 11
184.3460978864728
 21
104.41404382495
 31
0.0
  0
LINE
  5
D21
330
1F
100
AcDbEntity
  8
AM_VIS
100
AcDbLine
 10
246.3460978864729
 20
104.41404382495
 30
0.0
 11
246.3460978864729
 21
134.4140438249501
 31
0.0
  0
LINE
  5
D22
330
1F
100
AcDbEntity
  8
AM_VIS
100
AcDbLine
 10
184.3460978864728
 20
104.41404382495
 30
0.0
 11
246.3460978864729
 21
104.41404382495
 31
0.0
  0
LINE
  5
D23
330
1F
100
AcDbEntity
  8
AM_VIS
100
AcDbLine
 10
184.3460978864728
 20
134.4140438249501
 30
0.0
 11
246.3460978864729
 21
134.4140438249501
 31
0.0
  0
SPLINE
  5
D24
330
1F
100
AcDbEntity
  8
AM_VIS
100
AcDbSpline
210
0.0
220
0.0
230
1.0
 70
     8
 71
     3
 72
     8
 73
     4
 74
     0
 42
0.0000000001
 43
0.0000000001
 40
0.0
 40
0.0
 40
0.0
 40
0.0
 40
80.0
 40
80.0
 40
80.0
 40
80.0
 10
192.0907717995163
 20
130.0988264336457
 30
0.0
 10
192.0907717373202
 20
130.5499133487034
 30
0.0
 10
191.776913041668
 20
130.7754568684283
 30
0.0
 10
191.1491957125598
 20
130.7754568684283
 30
0.0
  0
SPLINE
  5
D25
330
1F
100
AcDbEntity
  8
AM_VIS
100
AcDbSpline
210
0.0
220
0.0
230
1.0
 70
     8
 71
     3
 72
     8
 73
     4
 74
     0
 42
0.0000000001
 43
0.0000000001
 40
0.0
 40
0.0
 40
0.0
 40
0.0
 40
80.0
 40
80.0
 40
80.0
 40
80.0
 10
191.1491957125598
 20
130.7754568684283
 30
0.0
 10
191.0703913232696
 20
130.7754568684283
 30
0.0
 10
191.0201196048712
 20
130.7673046945153
 30
0.0
 10
190.9983804951685
 20
130.7510003466892
 30
0.0
  0
SPLINE
  5
D26
330
1F
100
AcDbEntity
  8
AM_VIS
100
AcDbSpline
210
0.0
220
0.0
230
1.0
 70
     8
 71
     3
 72
     8
 73
     4
 74
     0
 42
0.0000000001
 43
0.0000000001
 40
0.0
 40
0.0
 40
0.0
 40
0.0
 40
80.0
 40
80.0
 40
80.0
 40
80.0
 10
190.9983804951685
 20
130.7510003466892
 30
0.0
 10
190.971206561393
 20
130.7238264129136
 30
0.0
 10
190.9576196256033
 20
130.6694786075587
 30
0.0
 10
190.9576196256033
 20
130.5879568684283
 30
0.0
  0
LINE
  5
D27
330
1F
100
AcDbEntity
  8
AM_VIS
100
AcDbLine
 10
190.9576196256033
 20
130.5879568684283
 30
0.0
 11
190.9576196256033
 21
129.4018155640805
 31
0.0
  0
SPLINE
  5
D28
330
1F
100
AcDbEntity
  8
AM_VIS
100
AcDbSpline
210
0.0
220
0.0
230
1.0
 70
     8
 71
     3
 72
     8
 73
     4
 74
     0
 42
0.0000000001
 43
0.0000000001
 40
0.0
 40
0.0
 40
0.0
 40
0.0
 40
80.0
 40
80.0
 40
80.0
 40
80.0
 10
190.9576196256033
 20
129.4018155640805
 30
0.0
 10
191.0472934764506
 20
129.390945978131
 30
0.0
 10
191.1546304744365
 20
129.3855112162544
 30
0.0
 10
191.2796304951685
 20
129.3855112162544
 30
0.0
  0
SPLINE
  5
D29
330
1F
100
AcDbEntity
  8
AM_VIS
100
AcDbSpline
210
0.0
220
0.0
230
1.0
 70
     8
 71
     3
 72
     8
 73
     4
 74
     0
 42
0.0000000001
 43
0.0000000001
 40
0.0
 40
0.0
 40
0.0
 40
0.0
 40
80.0
 40
80.0
 40
80.0
 40
80.0
 10
191.2796304951685
 20
129.3855112162544
 30
0.0
 10
191.8203913232696
 20
129.3855112162544
 30
0.0
 10
192.0907717373202
 20
129.6232829346528
 30
0.0
 10
192.0907717995163
 20
130.0988264336457
 30
0.0
  0
SPLINE
  5
D2A
330
1F
100
AcDbEntity
  8
AM_VIS
100
AcDbSpline
210
0.0
220
0.0
230
1.0
 70
     8
 71
     3
 72
     8
 73
     4
 74
     0
 42
0.0000000001
 43
0.0000000001
 40
0.0
 40
0.0
 40
0.0
 40
0.0
 40
80.0
 40
80.0
 40
80.0
 40
80.0
 10
192.3760978864728
 20
130.1069786075587
 30
0.0
 10
192.3760978864728
 20
129.8651307400077
 30
0.0
 10
192.3000109092191
 20
129.6654024791381
 30
0.0
 10
192.1478370169076
 20
129.5077938249501
 30
0.0
  0
SPLINE
  5
D2B
330
1F
100
AcDbEntity
  8
AM_VIS
100
AcDbSpline
210
0.0
220
0.0
230
1.0
 70
     8
 71
     3
 72
     8
 73
     4
 74
     0
 42
0.0000000001
 43
0.0000000001
 40
0.0
 40
0.0
 40
0.0
 40
0.0
 40
80.0
 40
80.0
 40
80.0
 40
80.0
 10
192.1478370169076
 20
129.5077938249501
 30
0.0
 10
191.979358714574
 20
129.3338807607397
 30
0.0
 10
191.6994673894941
 20
129.2469242597326
 30
0.0
 10
191.3081631038641
 20
129.2469242597326
 30
0.0
  0
LINE
  5
D2C
330
1F
100
AcDbEntity
  8
AM_VIS
100
AcDbLine
 10
190.9575730214205
 20
129.2526755310695
 30
0.0
 11
191.3081426508802
 21
129.2458705856028
 31
0.0
  0
LINE
  5
D2D
330
1F
100
AcDbEntity
  8
AM_VIS
100
AcDbLine
 10
190.9576196256033
 20
129.2550764336457
 30
0.0
 11
190.9576196256033
 21
128.4480112162544
 31
0.0
  0
SPLINE
  5
D2E
330
1F
100
AcDbEntity
  8
AM_VIS
100
AcDbSpline
210
0.0
220
0.0
230
1.0
 70
     8
 71
     3
 72
     8
 73
     4
 74
     0
 42
0.0000000001
 43
0.0000000001
 40
0.0
 40
0.0
 40
0.0
 40
0.0
 40
80.0
 40
80.0
 40
80.0
 40
80.0
 10
190.9576196256033
 20
128.4480112162544
 30
0.0
 10
190.9576196256033
 20
128.2822503259571
 30
0.0
 10
190.9915869961756
 20
128.1654024791381
 30
0.0
 10
191.0595217995163
 20
128.0974677379935
 30
0.0
  0
SPLINE
  5
D2F
330
1F
100
AcDbEntity
  8
AM_VIS
100
AcDbSpline
210
0.0
220
0.0
230
1.0
 70
     8
 71
     3
 72
     8
 73
     4
 74
     0
 42
0.0000000001
 43
0.0000000001
 40
0.0
 40
0.0
 40
0.0
 40
0.0
 40
80.0
 40
80.0
 40
80.0
 40
80.0
 10
191.0595217995163
 20
128.0974677379935
 30
0.0
 10
191.1165870169076
 20
128.0404025827984
 30
0.0
 10
191.2252826276175
 20
128.00643515003
 30
0.0
 10
191.3856087560381
 20
127.9955655640805
 30
0.0
  0
LINE
  5
D30
330
1F
100
AcDbEntity
  8
AM_VIS
100
AcDbLine
 10
191.3856087560381
 20
127.9955655640805
 30
0.0
 11
191.3856087560381
 21
127.9140438249501
 31
0.0
  0
LINE
  5
D31
330
1F
100
AcDbEntity
  8
AM_VIS
100
AcDbLine
 10
191.3856087560381
 20
127.9140438249501
 30
0.0
 11
190.3135978864728
 21
127.9140438249501
 31
0.0
  0
LINE
  5
D32
330
1F
100
AcDbEntity
  8
AM_VIS
100
AcDbLine
 10
190.3135978864728
 20
127.9140438249501
 30
0.0
 11
190.3135978864728
 21
127.9955655640805
 31
0.0
  0
SPLINE
  5
D33
330
1F
100
AcDbEntity
  8
AM_VIS
100
AcDbSpline
210
0.0
220
0.0
230
1.0
 70
     8
 71
     3
 72
     8
 73
     4
 74
     0
 42
0.0000000001
 43
0.0000000001
 40
0.0
 40
0.0
 40
0.0
 40
0.0
 40
80.0
 40
80.0
 40
80.0
 40
80.0
 10
190.3135978864728
 20
127.9955655640805
 30
0.0
 10
190.4739239526973
 20
128.0118699119066
 30
0.0
 10
190.5799022135669
 20
128.0580656055446
 30
0.0
 10
190.6315326690815
 20
128.1341525206022
 30
0.0
  0
SPLINE
  5
D34
330
1F
100
AcDbEntity
  8
AM_VIS
100
AcDbSpline
210
0.0
220
0.0
230
1.0
 70
     8
 71
     3
 72
     8
 73
     4
 74
     0
 42
0.0000000001
 43
0.0000000001
 40
0.0
 40
0.0
 40
0.0
 40
0.0
 40
80.0
 40
80.0
 40
80.0
 40
80.0
 10
190.6315326690815
 20
128.1341525206022
 30
0.0
 10
190.6777283005234
 20
128.1993699119066
 30
0.0
 10
190.7008261473424
 20
128.3230111955224
 30
0.0
 10
190.7008261473424
 20
128.5050764336457
 30
0.0
  0
LINE
  5
D35
330
1F
100
AcDbEntity
  8
AM_VIS
100
AcDbLine
 10
190.7008261473424
 20
128.5050764336457
 30
0.0
 11
190.7008261473424
 21
130.4086090423413
 31
0.0
  0
SPLINE
  5
D36
330
1F
100
AcDbEntity
  8
AM_VIS
100
AcDbSpline
210
0.0
220
0.0
230
1.0
 70
     8
 71
     3
 72
     8
 73
     4
 74
     0
 42
0.0000000001
 43
0.0000000001
 40
0.0
 40
0.0
 40
0.0
 40
0.0
 40
80.0
 40
80.0
 40
80.0
 40
80.0
 10
190.7008261473424
 20
130.4086090423413
 30
0.0
 10
190.7008261473424
 20
130.5716525206022
 30
0.0
 10
190.675010888487
 20
130.6789894563919
 30
0.0
 10
190.6233804951685
 20
130.7306199119066
 30
0.0
  0
SPLINE
  5
D37
330
1F
100
AcDbEntity
  8
AM_VIS
100
AcDbSpline
210
0.0
220
0.0
230
1.0
 70
     8
 71
     3
 72
     8
 73
     4
 74
     0
 42
0.0000000001
 43
0.0000000001
 40
0.0
 40
0.0
 40
0.0
 40
0.0
 40
80.0
 40
80.0
 40
80.0
 40
80.0
 10
190.6233804951685
 20
130.7306199119066
 30
0.0
 10
190.5744674516903
 20
130.7795329553848
 30
0.0
 10
190.4712065406609
 20
130.8135003259571
 30
0.0
 10
190.3135978864728
 20
130.8325220858196
 30
0.0
  0
LINE
  5
D38
330
1F
100
AcDbEntity
  8
AM_VIS
100
AcDbLine
 10
190.3135978864728
 20
130.8325220858196
 30
0.0
 11
190.3135978864728
 21
130.9140438249501
 31
0.0
  0
LINE
  5
D39
330
1F
100
AcDbEntity
  8
AM_VIS
100
AcDbLine
 10
190.3135978864728
 20
130.9140438249501
 30
0.0
 11
191.3489239734294
 21
130.9140438249501
 31
0.0
  0
SPLINE
  5
D3A
330
1F
100
AcDbEntity
  8
AM_VIS
100
AcDbSpline
210
0.0
220
0.0
230
1.0
 70
     8
 71
     3
 72
     8
 73
     4
 74
     0
 42
0.0000000001
 43
0.0000000001
 40
0.0
 40
0.0
 40
0.0
 40
0.0
 40
80.0
 40
80.0
 40
80.0
 40
80.0
 10
191.3489239734294
 20
130.9140438249501
 30
0.0
 10
191.6451195841392
 20
130.9140438249501
 30
0.0
 10
191.8842500396538
 20
130.8515437834859
 30
0.0
 10
192.0663152777772
 20
130.7265438249501
 30
0.0
  0
SPLINE
  5
D3B
330
1F
100
AcDbEntity
  8
AM_VIS
100
AcDbSpline
210
0.0
220
0.0
230
1.0
 70
     8
 71
     3
 72
     8
 73
     4
 74
     0
 42
0.0000000001
 43
0.0000000001
 40
0.0
 40
0.0
 40
0.0
 40
0.0
 40
80.0
 40
80.0
 40
80.0
 40
80.0
 10
192.0663152777772
 20
130.7265438249501
 30
0.0
 10
192.2728369754435
 20
130.5825220443555
 30
0.0
 10
192.3760978864728
 20
130.3760003466892
 30
0.0
 10
192.3760978864728
 20
130.1069786075587
 30
0.0
  0
SPLINE
  5
D3C
330
1F
100
AcDbEntity
  8
AM_VIS
100
AcDbSpline
210
0.0
220
0.0
230
1.0
 70
     8
 71
     3
 72
     8
 73
     4
 74
     0
 42
0.0000000001
 43
0.0000000001
 40
0.0
 40
0.0
 40
0.0
 40
0.0
 40
80.0
 40
80.0
 40
80.0
 40
80.0
 10
220.8724022342795
 20
130.1355112162544
 30
0.0
 10
220.8724021720833
 20
130.4181198911745
 30
0.0
 10
220.7474022135474
 20
130.6069785660947
 30
0.0
 10
220.4974022342795
 20
130.7020873032109
 30
0.0
  0
SPLINE
  5
D3D
330
1F
100
AcDbEntity
  8
AM_VIS
100
AcDbSpline
210
0.0
220
0.0
230
1.0
 70
     8
 71
     3
 72
     8
 73
     4
 74
     0
 42
0.0000000001
 43
0.0000000001
 40
0.0
 40
0.0
 40
0.0
 40
0.0
 40
80.0
 40
80.0
 40
80.0
 40
80.0
 10
220.4974022342795
 20
130.7020873032109
 30
0.0
 10
220.3560978657213
 20
130.7618698704425
 30
0.0
 10
220.1916957125403
 20
130.7863263921816
 30
0.0
 10
220.0041957125403
 20
130.7754568684283
 30
0.0
  0
SPLINE
  5
D3E
330
1F
100
AcDbEntity
  8
AM_VIS
100
AcDbSpline
210
0.0
220
0.0
230
1.0
 70
     8
 71
     3
 72
     8
 73
     4
 74
     0
 42
0.0000000001
 43
0.0000000001
 40
0.0
 40
0.0
 40
0.0
 40
0.0
 40
80.0
 40
80.0
 40
80.0
 40
80.0
 10
220.0041957125403
 20
130.7754568684283
 30
0.0
 10
219.8955000396344
 20
130.7700220443555
 30
0.0
 10
219.8275652362936
 20
130.7605111955224
 30
0.0
 10
219.8003913647142
 20
130.7469242597327
 30
0.0
  0
SPLINE
  5
D3F
330
1F
100
AcDbEntity
  8
AM_VIS
100
AcDbSpline
210
0.0
220
0.0
230
1.0
 70
     8
 71
     3
 72
     8
 73
     4
 74
     0
 42
0.0000000001
 43
0.0000000001
 40
0.0
 40
0.0
 40
0.0
 40
0.0
 40
80.0
 40
80.0
 40
80.0
 40
80.0
 10
219.8003913647142
 20
130.7469242597327
 30
0.0
 10
219.7569130831126
 20
130.7197503259571
 30
0.0
 10
219.7351739734099
 20
130.664043783486
 30
0.0
 10
219.7351739734099
 20
130.5798046945153
 30
0.0
  0
LINE
  5
D40
330
1F
100
AcDbEntity
  8
AM_VIS
100
AcDbLine
 10
219.7351739734099
 20
130.5798046945153
 30
0.0
 11
219.7351739734099
 21
129.4629568684283
 31
0.0
  0
SPLINE
  5
D41
330
1F
100
AcDbEntity
  8
AM_VIS
100
AcDbSpline
210
0.0
220
0.0
230
1.0
 70
     8
 71
     3
 72
     8
 73
     4
 74
     0
 42
0.0000000001
 43
0.0000000001
 40
0.0
 40
0.0
 40
0.0
 40
0.0
 40
80.0
 40
80.0
 40
80.0
 40
80.0
 10
219.7351739734099
 20
129.4629568684283
 30
0.0
 10
220.0585435178952
 20
129.4656742182686
 30
0.0
 10
220.2949565613735
 20
129.4942068269642
 30
0.0
 10
220.4444131038447
 20
129.5485546945153
 30
0.0
  0
SPLINE
  5
D42
330
1F
100
AcDbEntity
  8
AM_VIS
100
AcDbSpline
210
0.0
220
0.0
230
1.0
 70
     8
 71
     3
 72
     8
 73
     4
 74
     0
 42
0.0000000001
 43
0.0000000001
 40
0.0
 40
0.0
 40
0.0
 40
0.0
 40
80.0
 40
80.0
 40
80.0
 40
80.0
 10
220.4444131038447
 20
129.5485546945153
 30
0.0
 10
220.7297391286051
 20
129.6490981313121
 30
0.0
 10
220.8724021720833
 20
129.8447503052251
 30
0.0
 10
220.8724022342795
 20
130.1355112162544
 30
0.0
  0
LINE
  5
D43
330
1F
100
AcDbEntity
  8
AM_VIS
100
AcDbLine
 10
221.6060978864534
 20
127.9140438249501
 30
0.0
 11
221.0435978864534
 21
127.9140438249501
 31
0.0
  0
LINE
  5
D44
330
1F
100
AcDbEntity
  8
AM_VIS
100
AcDbLine
 10
221.0435978864534
 20
127.9140438249501
 30
0.0
 11
220.0775652777577
 21
129.3365981727762
 31
0.0
  0
LINE
  5
D45
330
1F
100
AcDbEntity
  8
AM_VIS
100
AcDbLine
 10
220.0775652777577
 20
129.3365981727762
 30
0.0
 11
219.7351739734099
 21
129.3202938249501
 31
0.0
  0
LINE
  5
D46
330
1F
100
AcDbEntity
  8
AM_VIS
100
AcDbLine
 10
219.7351739734099
 20
129.3202938249501
 30
0.0
 11
219.7351739734099
 21
128.4480112162544
 31
0.0
  0
SPLINE
  5
D47
330
1F
100
AcDbEntity
  8
AM_VIS
100
AcDbSpline
210
0.0
220
0.0
230
1.0
 70
     8
 71
     3
 72
     8
 73
     4
 74
     0
 42
0.0000000001
 43
0.0000000001
 40
0.0
 40
0.0
 40
0.0
 40
0.0
 40
80.0
 40
80.0
 40
80.0
 40
80.0
 10
219.7351739734099
 20
128.4480112162544
 30
0.0
 10
219.7351739734099
 20
128.2876850878338
 30
0.0
 10
219.7650652570257
 20
128.1749133901675
 30
0.0
 10
219.8248478864534
 20
128.1096959988631
 30
0.0
  0
SPLINE
  5
D48
330
1F
100
AcDbEntity
  8
AM_VIS
100
AcDbSpline
210
0.0
220
0.0
230
1.0
 70
     8
 71
     3
 72
     8
 73
     4
 74
     0
 42
0.0000000001
 43
0.0000000001
 40
0.0
 40
0.0
 40
0.0
 40
0.0
 40
80.0
 40
80.0
 40
80.0
 40
80.0
 10
219.8248478864534
 20
128.1096959988631
 30
0.0
 10
219.8819130416485
 20
128.0471960195952
 30
0.0
 10
219.9892500396344
 20
128.0091525620663
 30
0.0
 10
220.1468587560186
 20
127.9955655640805
 30
0.0
  0
LINE
  5
D49
330
1F
100
AcDbEntity
  8
AM_VIS
100
AcDbLine
 10
220.1468587560186
 20
127.9955655640805
 30
0.0
 11
220.1468587560186
 21
127.9140438249501
 31
0.0
  0
LINE
  5
D4A
330
1F
100
AcDbEntity
  8
AM_VIS
100
AcDbLine
 10
220.1468587560186
 20
127.9140438249501
 30
0.0
 11
219.0870761473229
 21
127.9140438249501
 31
0.0
  0
LINE
  5
D4B
330
1F
100
AcDbEntity
  8
AM_VIS
100
AcDbLine
 10
219.0870761473229
 20
127.9140438249501
 30
0.0
 11
219.0870761473229
 21
127.9955655640805
 31
0.0
  0
SPLINE
  5
D4C
330
1F
100
AcDbEntity
  8
AM_VIS
100
AcDbSpline
210
0.0
220
0.0
230
1.0
 70
     8
 71
     3
 72
     8
 73
     4
 74
     0
 42
0.0000000001
 43
0.0000000001
 40
0.0
 40
0.0
 40
0.0
 40
0.0
 40
80.0
 40
80.0
 40
80.0
 40
80.0
 10
219.0870761473229
 20
127.9955655640805
 30
0.0
 10
219.244684801511
 20
128.0118699119066
 30
0.0
 10
219.3493043874604
 20
128.0553481935082
 30
0.0
 10
219.4009348429751
 20
128.1260003466892
 30
0.0
  0
SPLINE
  5
D4D
330
1F
100
AcDbEntity
  8
AM_VIS
100
AcDbSpline
210
0.0
220
0.0
230
1.0
 70
     8
 71
     3
 72
     8
 73
     4
 74
     0
 42
0.0000000001
 43
0.0000000001
 40
0.0
 40
0.0
 40
0.0
 40
0.0
 40
80.0
 40
80.0
 40
80.0
 40
80.0
 10
219.4009348429751
 20
128.1260003466892
 30
0.0
 10
219.4525652362936
 20
128.1939350878338
 30
0.0
 10
219.4783804329528
 20
128.320293783486
 30
0.0
 10
219.478380495149
 20
128.5050764336457
 30
0.0
  0
LINE
  5
D4E
330
1F
100
AcDbEntity
  8
AM_VIS
100
AcDbLine
 10
219.478380495149
 20
128.5050764336457
 30
0.0
 11
219.478380495149
 21
130.3719242597326
 31
0.0
  0
SPLINE
  5
D4F
330
1F
100
AcDbEntity
  8
AM_VIS
100
AcDbSpline
210
0.0
220
0.0
230
1.0
 70
     8
 71
     3
 72
     8
 73
     4
 74
     0
 42
0.0000000001
 43
0.0000000001
 40
0.0
 40
0.0
 40
0.0
 40
0.0
 40
80.0
 40
80.0
 40
80.0
 40
80.0
 10
219.478380495149
 20
130.3719242597326
 30
0.0
 10
219.4783804329528
 20
130.5431199119066
 30
0.0
 10
219.4484891493371
 20
130.6613264336457
 30
0.0
 10
219.3887065821055
 20
130.7265438249501
 30
0.0
  0
SPLINE
  5
D50
330
1F
100
AcDbEntity
  8
AM_VIS
100
AcDbSpline
210
0.0
220
0.0
230
1.0
 70
     8
 71
     3
 72
     8
 73
     4
 74
     0
 42
0.0000000001
 43
0.0000000001
 40
0.0
 40
0.0
 40
0.0
 40
0.0
 40
80.0
 40
80.0
 40
80.0
 40
80.0
 10
219.3887065821055
 20
130.7265438249501
 30
0.0
 10
219.3397935386273
 20
130.780891630305
 30
0.0
 10
219.2392500396344
 20
130.8162177379935
 30
0.0
 10
219.0870761473229
 20
130.8325220858196
 30
0.0
  0
LINE
  5
D51
330
1F
100
AcDbEntity
  8
AM_VIS
100
AcDbLine
 10
219.0870761473229
 20
130.8325220858196
 30
0.0
 11
219.0870761473229
 21
130.9140438249501
 31
0.0
  0
LINE
  5
D52
330
1F
100
AcDbEntity
  8
AM_VIS
100
AcDbLine
 10
219.0870761473229
 20
130.9140438249501
 30
0.0
 11
220.1713152777577
 21
130.9140438249501
 31
0.0
  0
SPLINE
  5
D53
330
1F
100
AcDbEntity
  8
AM_VIS
100
AcDbSpline
210
0.0
220
0.0
230
1.0
 70
     8
 71
     3
 72
     8
 73
     4
 74
     0
 42
0.0000000001
 43
0.0000000001
 40
0.0
 40
0.0
 40
0.0
 40
0.0
 40
80.0
 40
80.0
 40
80.0
 40
80.0
 10
220.1713152777577
 20
130.9140438249501
 30
0.0
 10
220.4240326690621
 20
130.9140438249501
 30
0.0
 10
220.6319131038447
 20
130.8705655433485
 30
0.0
 10
220.7949565821055
 20
130.7836090423414
 30
0.0
  0
SPLINE
  5
D54
330
1F
100
AcDbEntity
  8
AM_VIS
100
AcDbSpline
210
0.0
220
0.0
230
1.0
 70
     8
 71
     3
 72
     8
 73
     4
 74
     0
 42
0.0000000001
 43
0.0000000001
 40
0.0
 40
0.0
 40
0.0
 40
0.0
 40
80.0
 40
80.0
 40
80.0
 40
80.0
 10
220.7949565821055
 20
130.7836090423414
 30
0.0
 10
221.0368043874605
 20
130.6531742597327
 30
0.0
 10
221.157728321236
 20
130.4344242390006
 30
0.0
 10
221.157728321236
 20
130.1273590423414
 30
0.0
  0
SPLINE
  5
D55
330
1F
100
AcDbEntity
  8
AM_VIS
100
AcDbSpline
210
0.0
220
0.0
230
1.0
 70
     8
 71
     3
 72
     8
 73
     4
 74
     0
 42
0.0000000001
 43
0.0000000001
 40
0.0
 40
0.0
 40
0.0
 40
0.0
 40
80.0
 40
80.0
 40
80.0
 40
80.0
 10
221.157728321236
 20
130.1273590423414
 30
0.0
 10
221.157728321236
 20
129.8692068269642
 30
0.0
 10
221.0612609091996
 20
129.6762720650876
 30
0.0
 10
220.8683261473229
 20
129.5485546945153
 30
0.0
  0
SPLINE
  5
D56
330
1F
100
AcDbEntity
  8
AM_VIS
100
AcDbSpline
210
0.0
220
0.0
230
1.0
 70
     8
 71
     3
 72
     8
 73
     4
 74
     0
 42
0.0000000001
 43
0.0000000001
 40
0.0
 40
0.0
 40
0.0
 40
0.0
 40
80.0
 40
80.0
 40
80.0
 40
80.0
 10
220.8683261473229
 20
129.5485546945153
 30
0.0
 10
220.759630474417
 20
129.4751851292979
 30
0.0
 10
220.603380495149
 20
129.4194785868267
 30
0.0
 10
220.3995761473229
 20
129.3814351292979
 30
0.0
  0
LINE
  5
D57
330
1F
100
AcDbEntity
  8
AM_VIS
100
AcDbLine
 10
220.3995761473229
 20
129.3814351292979
 30
0.0
 11
221.2229457125403
 21
128.1586090423414
 31
0.0
  0
SPLINE
  5
D58
330
1F
100
AcDbEntity
  8
AM_VIS
100
AcDbSpline
210
0.0
220
0.0
230
1.0
 70
     8
 71
     3
 72
     8
 73
     4
 74
     0
 42
0.0000000001
 43
0.0000000001
 40
0.0
 40
0.0
 40
0.0
 40
0.0
 40
80.0
 40
80.0
 40
80.0
 40
80.0
 10
221.2229457125403
 20
128.1586090423414
 30
0.0
 10
221.2772935178952
 20
128.0743699533707
 30
0.0
 10
221.4050108884675
 20
128.0200220858196
 30
0.0
 10
221.6060978864534
 20
127.9955655640805
 30
0.0
  0
LINE
  5
D59
330
1F
100
AcDbEntity
  8
AM_VIS
100
AcDbLine
 10
221.6060978864534
 20
127.9955655640805
 30
0.0
 11
221.6060978864534
 21
127.9140438249501
 31
0.0
  0
ARC
  5
D5A
330
1F
100
AcDbEntity
  8
AM_VIS
100
AcDbCircle
 10
203.3460978864729
 20
114.1640438249501
 30
0.0
 40
3.75
100
AcDbArc
 50
180.0
 51
0.0
  0
ARC
  5
D5B
330
1F
100
AcDbEntity
  8
AM_VIS
100
AcDbCircle
 10
203.3460978864729
 20
124.6640438249501
 30
0.0
 40
3.750000000000003
100
AcDbArc
 50
0.0
 51
180.0
  0
ARC
  5
D5C
330
1F
100
AcDbEntity
  8
AM_VIS
100
AcDbCircle
 10
232.3460978864729
 20
114.1640438249501
 30
0.0
 40
3.75
100
AcDbArc
 50
180.0
 51
0.0
  0
ARC
  5
D5D
330
1F
100
AcDbEntity
  8
AM_VIS
100
AcDbCircle
 10
232.3460978864729
 20
124.6640438249501
 30
0.0
 40
3.750000000000003
100
AcDbArc
 50
0.0
 51
180.0
  0
CIRCLE
  5
D5E
330
1F
100
AcDbEntity
  8
AM_VIS
100
AcDbCircle
 10
203.3460978864729
 20
119.4140438249501
 30
0.0
 40
9.3
  0
CIRCLE
  5
D5F
330
1F
100
AcDbEntity
  8
AM_VIS
100
AcDbCircle
 10
203.3460978864729
 20
119.4140438249501
 30
0.0
 40
10.75
  0
CIRCLE
  5
D60
330
1F
100
AcDbEntity
  8
AM_VIS
100
AcDbCircle
 10
232.3460978864729
 20
119.4140438249501
 30
0.0
 40
10.75
  0
CIRCLE
  5
D61
330
1F
100
AcDbEntity
  8
AM_VIS
100
AcDbCircle
 10
232.3460978864729
 20
119.4140438249501
 30
0.0
 40
9.3
  0
CIRCLE
  5
D62
330
1F
100
AcDbEntity
  8
AM_VIS
100
AcDbCircle
 10
191.3460978864728
 20
107.9140438249501
 30
0.0
 40
2.1
  0
CIRCLE
  5
D63
330
1F
100
AcDbEntity
  8
AM_VIS
100
AcDbCircle
 10
239.3460978864728
 20
130.91404382495
 30
0.0
 40
2.1
  0
ARC
  5
D7C
330
1F
100
AcDbEntity
  8
AM_VIS
100
AcDbCircle
 10
333.3255762123904
 20
183.3368590216202
 30
0.0
 40
4.000000000000028
100
AcDbArc
 50
200.364134806318
 51
69.63586519368202
  0
LINE
  5
D91
330
1F
100
AcDbEntity
  8
AM_VIS
100
AcDbLine
 10
314.3305762123904
 20
220.3368590216202
 30
0.0
 11
314.8255762123904
 21
220.3368590216202
 31
0.0
  0
LINE
  5
D92
330
1F
100
AcDbEntity
  8
AM_VIS
100
AcDbLine
 10
314.8255762123903
 20
220.3368590216202
 30
0.0
 11
315.3205762123903
 21
220.3368590216202
 31
0.0
  0
LINE
  5
D93
330
1F
100
AcDbEntity
  8
AM_VIS
100
AcDbLine
 10
314.8255762123891
 20
220.3368590216194
 30
0.0
 11
314.3305762123895
 21
220.8318590216201
 31
0.0
  0
LINE
  5
D94
330
1F
100
AcDbEntity
  8
AM_VIS
100
AcDbLine
 10
314.3305762123903
 20
219.8418590216223
 30
0.0
 11
314.8255762123904
 21
220.3368590216222
 31
0.0
  0
LINE
  5
D95
330
1F
100
AcDbEntity
  8
AM_VIS
100
AcDbLine
 10
314.3305762123904
 20
220.8318590216222
 30
0.0
 11
314.3305762123904
 21
219.8418590216222
 31
0.0
  0
LINE
  5
D96
330
1F
100
AcDbEntity
  8
AM_VIS
100
AcDbLine
 10
315.3205762123903
 20
219.8418590216222
 30
0.0
 11
314.3305762123903
 21
219.8418590216222
 31
0.0
  0
LINE
  5
D97
330
1F
100
AcDbEntity
  8
AM_VIS
100
AcDbLine
 10
314.8255762123903
 20
220.8318590216222
 30
0.0
 11
314.8255762123903
 21
220.3368590216222
 31
0.0
  0
LINE
  5
D98
330
1F
100
AcDbEntity
  8
AM_VIS
100
AcDbLine
 10
315.3205762123913
 20
220.8318590216201
 30
0.0
 11
314.8255762123915
 21
220.3368590216194
 31
0.0
  0
LINE
  5
D99
330
1F
100
AcDbEntity
  8
AM_VIS
100
AcDbLine
 10
315.3205762123903
 20
219.8418590216222
 30
0.0
 11
315.3205762123903
 21
220.8318590216222
 31
0.0
  0
LINE
  5
D9A
330
1F
100
AcDbEntity
  8
AM_VIS
100
AcDbLine
 10
314.8255762123903
 20
220.3368590216222
 30
0.0
 11
314.8255762123903
 21
219.8418590216222
 31
0.0
  0
LINE
  5
D9B
330
1F
100
AcDbEntity
  8
AM_VIS
100
AcDbLine
 10
314.8255762123904
 20
220.3368590216222
 30
0.0
 11
315.3205762123904
 21
219.8418590216223
 31
0.0
  0
LINE
  5
D9C
330
1F
100
AcDbEntity
  8
AM_VIS
100
AcDbLine
 10
314.3305762123903
 20
220.8318590216222
 30
0.0
 11
315.3205762123903
 21
220.8318590216222
 31
0.0
  0
LINE
  5
D9D
330
1F
100
AcDbEntity
  8
AM_VIS
100
AcDbLine
 10
314.3305762123904
 20
219.8418590216218
 30
0.0
 11
314.3305762123904
 21
219.0451256870752
 31
0.0
  0
LINE
  5
D9E
330
1F
100
AcDbEntity
  8
AM_VIS
100
AcDbLine
 10
315.3205762123895
 20
219.8418590216222
 30
0.0
 11
316.1173095469347
 21
219.8418590216222
 31
0.0
  0
LINE
  5
D9F
330
1F
100
AcDbEntity
  8
AM_VIS
100
AcDbLine
 10
316.1173095469369
 20
220.8318590216222
 30
0.0
 11
315.3205762123932
 21
220.8318590216222
 31
0.0
  0
LINE
  5
DA0
330
1F
100
AcDbEntity
  8
AM_VIS
100
AcDbLine
 10
314.3305762123901
 20
220.8318590216222
 30
0.0
 11
313.5338428778448
 21
220.8318590216222
 31
0.0
  0
LINE
  5
DA1
330
1F
100
AcDbEntity
  8
AM_VIS
100
AcDbLine
 10
315.3205762123903
 20
219.0451256870742
 30
0.0
 11
315.3205762123903
 21
219.8418590216194
 31
0.0
  0
LINE
  5
DA2
330
1F
100
AcDbEntity
  8
AM_VIS
100
AcDbLine
 10
315.3205762123903
 20
219.8418590216194
 30
0.0
 11
316.3812111310012
 21
218.7812241030088
 31
0.0
  0
LINE
  5
DA3
330
1F
100
AcDbEntity
  8
AM_VIS
100
AcDbLine
 10
315.3205762123932
 20
220.8318590216222
 30
0.0
 11
316.3812111310018
 21
221.8924939402311
 31
0.0
  0
LINE
  5
DA4
330
1F
100
AcDbEntity
  8
AM_VIS
100
AcDbLine
 10
315.3205762123903
 20
220.8318590216214
 30
0.0
 11
315.3205762123903
 21
221.6285923561652
 31
0.0
  0
LINE
  5
DA5
330
1F
100
AcDbEntity
  8
AM_VIS
100
AcDbLine
 10
313.5338428778449
 20
219.8418590216222
 30
0.0
 11
314.3305762123915
 21
219.8418590216222
 31
0.0
  0
LINE
  5
DA6
330
1F
100
AcDbEntity
  8
AM_VIS
100
AcDbLine
 10
314.3305762123915
 20
219.8418590216222
 30
0.0
 11
313.2699412937789
 21
218.7812241030094
 31
0.0
  0
LINE
  5
DA7
330
1F
100
AcDbEntity
  8
AM_VIS
100
AcDbLine
 10
314.3305762123904
 20
221.6285923561662
 30
0.0
 11
314.3305762123904
 21
220.8318590216211
 31
0.0
  0
LINE
  5
DA8
330
1F
100
AcDbEntity
  8
AM_VIS
100
AcDbLine
 10
314.3305762123904
 20
220.8318590216211
 30
0.0
 11
313.2699412937795
 21
221.8924939402317
 31
0.0
  0
LINE
  5
DA9
330
1F
100
AcDbEntity
  8
AM_VIS
100
AcDbLine
 10
314.3305762123904
 20
219.0451256870752
 30
0.0
 11
314.3305762123904
 21
218.1500236334371
 31
0.0
  0
ELLIPSE
  5
DAA
330
1F
100
AcDbEntity
  8
AM_VIS
100
AcDbEllipse
 10
314.8255762123903
 20
222.0938565223432
 30
0.0
 11
6.073381703024446
 21
0.0000000000000018
 31
0.0
210
0.0
220
0.0
230
1.0
 40
0.6515311722874965
 41
4.630795282261955
 42
4.793982678507424
  0
ELLIPSE
  5
DAB
330
1F
100
AcDbEntity
  8
AM_VIS
100
AcDbEllipse
 10
314.8255762123903
 20
218.5798615208967
 30
0.0
 11
-6.073381703023245
 21
0.0000000000000006
 31
0.0
210
0.0
220
0.0
230
1.0
 40
0.6515311722883823
 41
4.630795282261939
 42
4.79398267850744
  0
ELLIPSE
  5
DAC
330
1F
100
AcDbEntity
  8
AM_VIS
100
AcDbEllipse
 10
316.5825737131122
 20
220.3368590216202
 30
0.0
 11
-0.0000000000000006
 21
-6.07338170302488
 31
0.0
210
0.0
220
0.0
230
1.0
 40
0.6515311722876046
 41
4.63079528226163
 42
4.793982678507091
  0
LINE
  5
DAD
330
1F
100
AcDbEntity
  8
AM_VIS
100
AcDbLine
 10
316.1173095469347
 20
219.8418590216222
 30
0.0
 11
317.0124116005756
 21
219.8418590216222
 31
0.0
  0
LINE
  5
DAE
330
1F
100
AcDbEntity
  8
AM_VIS
100
AcDbLine
 10
312.6387408242052
 20
219.8418590216222
 30
0.0
 11
313.533842877845
 21
219.8418590216222
 31
0.0
  0
ELLIPSE
  5
DAF
330
1F
100
AcDbEntity
  8
AM_VIS
100
AcDbEllipse
 10
313.0685787116685
 20
220.3368590216202
 30
0.0
 11
-0.0000000000000018
 21
6.07338170302488
 31
0.0
210
0.0
220
0.0
230
1.0
 40
0.6515311722876043
 41
4.630795282262288
 42
4.793982678507748
  0
LINE
  5
DB0
330
1F
100
AcDbEntity
  8
AM_VIS
100
AcDbLine
 10
313.5338428778448
 20
220.8318590216222
 30
0.0
 11
312.6387408242053
 21
220.8318590216222
 31
0.0
  0
LINE
  5
DB1
330
1F
100
AcDbEntity
  8
AM_VIS
100
AcDbLine
 10
315.3205762123903
 20
218.1500236334371
 30
0.0
 11
315.3205762123903
 21
219.0451256870743
 31
0.0
  0
LINE
  5
DB2
330
1F
100
AcDbEntity
  8
AM_VIS
100
AcDbLine
 10
315.3205762123903
 20
221.6285923561652
 30
0.0
 11
315.3205762123903
 21
222.5236944098073
 31
0.0
  0
LINE
  5
DB3
330
1F
100
AcDbEntity
  8
AM_VIS
100
AcDbLine
 10
317.0124116005753
 20
220.8318590216222
 30
0.0
 11
316.1173095469369
 21
220.8318590216222
 31
0.0
  0
LINE
  5
DB4
330
1F
100
AcDbEntity
  8
AM_VIS
100
AcDbLine
 10
314.3305762123904
 20
222.5236944098073
 30
0.0
 11
314.3305762123904
 21
221.6285923561662
 31
0.0
  0
ELLIPSE
  5
DB5
330
1F
100
AcDbEntity
  8
AM_VIS
100
AcDbEllipse
 10
314.4470752695578
 20
221.4573140862448
 30
0.0
 11
6.040265643418782
 21
2.040462231083796
 31
0.0
210
0.0
220
0.0
230
1.0
 40
0.3560251305399939
 41
4.397980125344664
 42
4.57354477351979
  0
ELLIPSE
  5
DB6
330
1F
100
AcDbEntity
  8
AM_VIS
100
AcDbEllipse
 10
313.7051211477658
 20
219.9583580787877
 30
0.0
 11
-2.040462231083794
 21
6.040265643418782
 31
0.0
210
0.0
220
0.0
230
1.0
 40
0.3560251305399934
 41
4.397980125344663
 42
4.573544773520118
  0
ELLIPSE
  5
DB7
330
1F
100
AcDbEntity
  8
AM_VIS
100
AcDbEllipse
 10
313.7051211477667
 20
220.7153599644521
 30
0.0
 11
2.040462231082178
 21
6.040265643419572
 31
0.0
210
0.0
220
0.0
230
1.0
 40
0.3560251305399902
 41
4.851233187249908
 42
5.026797835424599
  0
ELLIPSE
  5
DB8
330
1F
100
AcDbEntity
  8
AM_VIS
100
AcDbEllipse
 10
315.9460312770149
 20
220.7153599644528
 30
0.0
 11
2.040462231083793
 21
-6.040265643418782
 31
0.0
210
0.0
220
0.0
230
0.9999999999999998
 40
0.356025130539994
 41
4.397980125344668
 42
4.573544773519467
  0
ELLIPSE
  5
DB9
330
1F
100
AcDbEntity
  8
AM_VIS
100
AcDbEllipse
 10
315.2040771552222
 20
221.4573140862439
 30
0.0
 11
6.04026564341957
 21
-2.04046223108218
 31
0.0
210
0.0
220
0.0
230
1.0
 40
0.3560251305399907
 41
4.851233187249579
 42
5.026797835424593
  0
ELLIPSE
  5
DBA
330
1F
100
AcDbEntity
  8
AM_VIS
100
AcDbEllipse
 10
315.2040771552229
 20
219.2164039569956
 30
0.0
 11
-6.040265643418782
 21
-2.040462231083794
 31
0.0
210
0.0
220
0.0
230
1.0
 40
0.3560251305399935
 41
4.397980125344666
 42
4.573544773519792
  0
ELLIPSE
  5
DBB
330
1F
100
AcDbEntity
  8
AM_VIS
100
AcDbEllipse
 10
315.946031277014
 20
219.9583580787884
 30
0.0
 11
-2.040462231082178
 21
-6.040265643419572
 31
0.0
210
0.0
220
0.0
230
1.0
 40
0.3560251305399906
 41
4.851233187249258
 42
5.026797835424602
  0
ELLIPSE
  5
DBC
330
1F
100
AcDbEntity
  8
AM_VIS
100
AcDbEllipse
 10
314.4470752695585
 20
219.2164039569966
 30
0.0
 11
-6.04026564341957
 21
2.04046223108218
 31
0.0
210
0.0
220
0.0
230
1.0
 40
0.3560251305399902
 41
4.851233187249579
 42
5.026797835424593
  0
LINE
  5
DBD
330
1F
100
AcDbEntity
  8
AM_VIS
100
AcDbLine
 10
337.3255762123903
 20
179.1368590216202
 30
0.0
 11
329.5755762123903
 21
179.1368590216202
 31
0.0
  0
LINE
  5
DBE
330
1F
100
AcDbEntity
  8
AM_VIS
100
AcDbLine
 10
337.3255762123903
 20
187.0868590216202
 30
0.0
 11
337.3255762123903
 21
179.1368590216202
 31
0.0
  0
LINE
  5
DBF
330
1F
100
AcDbEntity
  8
AM_VIS
100
AcDbLine
 10
329.5755762123903
 20
179.1368590216202
 30
0.0
 11
329.5755762123903
 21
183.3368590216202
 31
0.0
  0
LINE
  5
DC0
330
1F
100
AcDbEntity
  8
AM_VIS
100
AcDbLine
 10
329.5755762123903
 20
179.1368590216202
 30
0.0
 11
307.3255762123903
 21
179.1368590216202
 31
0.0
  0
LINE
  5
DC1
330
1F
100
AcDbEntity
  8
AM_VIS
100
AcDbLine
 10
307.3255762123903
 20
225.5368590216202
 30
0.0
 11
337.3255762123903
 21
225.5368590216202
 31
0.0
  0
LINE
  5
DC2
330
1F
100
AcDbEntity
  8
AM_VIS
100
AcDbLine
 10
337.3255762123903
 20
225.5368590216202
 30
0.0
 11
337.3255762123903
 21
187.0868590216202
 31
0.0
  0
LINE
  5
DC3
330
1F
100
AcDbEntity
  8
AM_VIS
100
AcDbLine
 10
333.3255762123903
 20
187.0868590216202
 30
0.0
 11
337.3255762123903
 21
187.0868590216202
 31
0.0
  0
LINE
  5
DC4
102
{ACAD_REACTORS
330
1826
102
}
330
1F
100
AcDbEntity
  8
AM_VIS
100
AcDbLine
 10
307.3255762123903
 20
179.1368590216202
 30
0.0
 11
307.3255762123903
 21
225.5368590216202
 31
0.0
  0
ARC
  5
DC5
330
1F
100
AcDbEntity
  8
AM_VIS
100
AcDbCircle
 10
333.3255762123903
 20
183.3368590216202
 30
0.0
 40
3.75
100
AcDbArc
 50
90.0
 51
180.0
  0
CIRCLE
  5
DC6
330
1F
100
AcDbEntity
  8
AM_VIS
100
AcDbCircle
 10
314.8255762123903
 20
220.3368590216203
 30
0.0
 40
3.75
  0
CIRCLE
  5
DC7
330
1F
100
AcDbEntity
  8
AM_VIS
100
AcDbCircle
 10
322.3255762123903
 20
196.1368590216202
 30
0.0
 40
5.15
  0
CIRCLE
  5
DC8
330
1F
100
AcDbEntity
  8
AM_VIS
100
AcDbCircle
 10
322.3255762123903
 20
196.1368590216202
 30
0.0
 40
4.049999999999999
  0
LINE
  5
DC9
330
1F
100
AcDbEntity
  8
AM_VIS
100
AcDbLine
 10
310.9641631689121
 20
179.1368590216202
 30
0.0
 11
311.6407936036947
 21
179.1368590216202
 31
0.0
  0
LINE
  5
DCA
330
1F
100
AcDbEntity
  8
AM_VIS
100
AcDbLine
 10
311.6407936036947
 20
179.1368590216202
 30
0.0
 11
312.354108821086
 21
179.1368590216202
 31
0.0
  0
LINE
  5
DCB
330
1F
100
AcDbEntity
  8
AM_VIS
100
AcDbLine
 10
311.0375327341295
 20
179.1368590216202
 30
0.0
 11
311.604108821086
 21
179.1368590216202
 31
0.0
  0
LINE
  5
DCC
330
1F
100
AcDbEntity
  8
AM_VIS
100
AcDbLine
 10
310.9616548239011
 20
179.1368590216202
 30
0.0
 11
311.0375327341295
 21
179.1368590216202
 31
0.0
  0
LINE
  5
DCD
330
1F
100
AcDbEntity
  8
AM_VIS
100
AcDbLine
 10
312.1910653428252
 20
179.1368590216202
 30
0.0
 11
312.2766631689121
 21
179.1368590216202
 31
0.0
  0
LINE
  5
DCE
330
1F
100
AcDbEntity
  8
AM_VIS
100
AcDbLine
 10
311.604108821086
 20
179.1368590216202
 30
0.0
 11
312.1910653428252
 21
179.1368590216202
 31
0.0
  0
LINE
  5
DDE
330
1F
100
AcDbEntity
  8
AM_7
100
AcDbLine
 10
216.8460978864729
 20
277.7325942088362
 30
0.0
 11
229.5960978864729
 21
277.7325942088362
 31
0.0
1001
GENIUS_GENOREF_13
1005
DE2
  0
LINE
  5
DDF
102
{ACAD_REACTORS
330
173E
102
}
330
1F
100
AcDbEntity
  8
AM_7
100
AcDbLine
 10
216.8460978864729
 20
277.7325942088362
 30
0.0
 11
216.8460978864729
 21
290.4825942088362
 31
0.0
1001
GENIUS_GENOREF_13
1005
DE2
  0
LINE
  5
DE0
330
1F
100
AcDbEntity
  8
AM_7
100
AcDbLine
 10
216.8460978864729
 20
277.7325942088362
 30
0.0
 11
204.0960978864729
 21
277.7325942088362
 31
0.0
1001
GENIUS_GENOREF_13
1005
DE2
  0
LINE
  5
DE1
330
1F
100
AcDbEntity
  8
AM_7
100
AcDbLine
 10
216.8460978864729
 20
277.7325942088362
 30
0.0
 11
216.8460978864729
 21
264.9825942088362
 31
0.0
1001
GENIUS_GENOREF_13
1005
DE2
  0
POINT
  5
DE2
330
1F
100
AcDbEntity
  8
0
 60
     1
100
AcDbPoint
 10
0.0
 20
0.0
 30
0.0
1001
GENIUS_GENOLIS_13
1002
{
1000
ENT
1005
DE1
1005
DE0
1005
DDF
1005
DDE
1002
}
1001
GENIUS_GENOENT_13
1002
{
1000
MYREF
1005
DE2
1002
}
1002
{
1000
GRP
1005
0
1002
}
1001
GENIUS_GENOBJ-N-CRS_13
1002
{
1000
OWNER
1000
GEN
1002
}
1001
GENIUS_GENODEF_13
1002
{
1000
HIER
1070
    10
1002
}
1002
{
1000
MANEDIT
1070
     0
1002
}
1002
{
1000
NOSEL
1070
     0
1002
}
1002
{
1000
BEHIND
1070
     0
1002
}
1002
{
1000
OTHER
1070
     0
1002
}
1002
{
1000
REACTOR
1002
}
  0
LINE
  5
DF0
330
1F
100
AcDbEntity
  8
AM_7
100
AcDbLine
 10
232.3460978864729
 20
119.4140438249501
 30
0.0
 11
245.0960978864729
 21
119.4140438249501
 31
0.0
1001
GENIUS_GENOREF_13
1005
DF4
  0
LINE
  5
DF1
330
1F
100
AcDbEntity
  8
AM_7
100
AcDbLine
 10
232.3460978864729
 20
119.4140438249501
 30
0.0
 11
232.3460978864729
 21
132.1640438249501
 31
0.0
1001
GENIUS_GENOREF_13
1005
DF4
  0
LINE
  5
DF2
330
1F
100
AcDbEntity
  8
AM_7
100
AcDbLine
 10
232.3460978864729
 20
119.4140438249501
 30
0.0
 11
219.5960978864729
 21
119.4140438249501
 31
0.0
1001
GENIUS_GENOREF_13
1005
DF4
  0
LINE
  5
DF3
102
{ACAD_REACTORS
330
17DA
102
}
330
1F
100
AcDbEntity
  8
AM_7
100
AcDbLine
 10
232.3460978864729
 20
119.4140438249501
 30
0.0
 11
232.3460978864729
 21
106.6640438249501
 31
0.0
1001
GENIUS_GENOREF_13
1005
DF4
  0
POINT
  5
DF4
330
1F
100
AcDbEntity
  8
0
 60
     1
100
AcDbPoint
 10
0.0
 20
0.0
 30
0.0
1001
GENIUS_GENOENT_13
1002
{
1000
MYREF
1005
DF4
1002
}
1002
{
1000
GRP
1005
0
1002
}
1001
GENIUS_GENOBJ-N-CRS_13
1002
{
1000
OWNER
1000
GEN
1002
}
1001
GENIUS_GENODEF_13
1002
{
1000
HIER
1070
    10
1002
}
1002
{
1000
MANEDIT
1070
     0
1002
}
1002
{
1000
NOSEL
1070
     0
1002
}
1002
{
1000
BEHIND
1070
     0
1002
}
1002
{
1000
OTHER
1070
     0
1002
}
1002
{
1000
REACTOR
1002
}
1001
GENIUS_GENOLIS_13
1002
{
1000
ENT
1005
DF3
1005
DF2
1005
DF1
1005
DF0
1002
}
  0
LINE
  5
E02
330
1F
100
AcDbEntity
  8
AM_7
100
AcDbLine
 10
203.3460978864729
 20
119.4140438249501
 30
0.0
 11
216.0960978864729
 21
119.4140438249501
 31
0.0
1001
GENIUS_GENOREF_13
1005
E06
  0
LINE
  5
E03
330
1F
100
AcDbEntity
  8
AM_7
100
AcDbLine
 10
203.3460978864729
 20
119.4140438249501
 30
0.0
 11
203.3460978864729
 21
132.1640438249501
 31
0.0
1001
GENIUS_GENOREF_13
1005
E06
  0
LINE
  5
E04
330
1F
100
AcDbEntity
  8
AM_7
100
AcDbLine
 10
203.3460978864729
 20
119.4140438249501
 30
0.0
 11
190.5960978864728
 21
119.4140438249501
 31
0.0
1001
GENIUS_GENOREF_13
1005
E06
  0
LINE
  5
E05
102
{ACAD_REACTORS
330
17DA
102
}
330
1F
100
AcDbEntity
  8
AM_7
100
AcDbLine
 10
203.3460978864729
 20
119.4140438249501
 30
0.0
 11
203.3460978864729
 21
106.6640438249501
 31
0.0
1001
GENIUS_GENOREF_13
1005
E06
  0
POINT
  5
E06
330
1F
100
AcDbEntity
  8
0
 60
     1
100
AcDbPoint
 10
0.0
 20
0.0
 30
0.0
1001
GENIUS_GENOLIS_13
1002
{
1000
ENT
1005
E05
1005
E04
1005
E03
1005
E02
1002
}
1001
GENIUS_GENOBJ-N-CRS_13
1002
{
1000
OWNER
1000
GEN
1002
}
1001
GENIUS_GENOENT_13
1002
{
1000
MYREF
1005
E06
1002
}
1002
{
1000
GRP
1005
0
1002
}
1001
GENIUS_GENODEF_13
1002
{
1000
HIER
1070
    10
1002
}
1002
{
1000
MANEDIT
1070
     0
1002
}
1002
{
1000
NOSEL
1070
     0
1002
}
1002
{
1000
BEHIND
1070
     0
1002
}
1002
{
1000
OTHER
1070
     0
1002
}
1002
{
1000
REACTOR
1002
}
  0
LINE
  5
E14
330
1F
100
AcDbEntity
  8
AM_7
  6
AM_ISO08W050x2
100
AcDbLine
 10
239.3460978864728
 20
130.91404382495
 30
0.0
 11
243.4460978864728
 21
130.91404382495
 31
0.0
1001
GENIUS_GENOREF_13
1005
E18
  0
LINE
  5
E15
330
1F
100
AcDbEntity
  8
AM_7
  6
AM_ISO08W050x2
100
AcDbLine
 10
239.3460978864728
 20
130.91404382495
 30
0.0
 11
239.3460978864728
 21
135.01404382495
 31
0.0
1001
GENIUS_GENOREF_13
1005
E18
  0
LINE
  5
E16
330
1F
100
AcDbEntity
  8
AM_7
  6
AM_ISO08W050x2
100
AcDbLine
 10
239.3460978864728
 20
130.91404382495
 30
0.0
 11
235.2460978864729
 21
130.91404382495
 31
0.0
1001
GENIUS_GENOREF_13
1005
E18
  0
LINE
  5
E17
330
1F
100
AcDbEntity
  8
AM_7
  6
AM_ISO08W050x2
100
AcDbLine
 10
239.3460978864728
 20
130.91404382495
 30
0.0
 11
239.3460978864728
 21
126.81404382495
 31
0.0
1001
GENIUS_GENOREF_13
1005
E18
  0
POINT
  5
E18
330
1F
100
AcDbEntity
  8
0
 60
     1
100
AcDbPoint
 10
0.0
 20
0.0
 30
0.0
1001
GENIUS_GENOENT_13
1002
{
1000
MYREF
1005
E18
1002
}
1002
{
1000
GRP
1005
0
1002
}
1001
GENIUS_GENOBJ-N-CRS_13
1002
{
1000
OWNER
1000
GEN
1002
}
1001
GENIUS_GENODEF_13
1002
{
1000
HIER
1070
    10
1002
}
1002
{
1000
MANEDIT
1070
     0
1002
}
1002
{
1000
NOSEL
1070
     0
1002
}
1002
{
1000
BEHIND
1070
     0
1002
}
1002
{
1000
OTHER
1070
     0
1002
}
1002
{
1000
REACTOR
1002
}
1001
GENIUS_GENOLIS_13
1002
{
1000
ENT
1005
E17
1005
E16
1005
E15
1005
E14
1002
}
  0
LINE
  5
E26
330
1F
100
AcDbEntity
  8
AM_7
  6
AM_ISO08W050x2
100
AcDbLine
 10
191.3460978864728
 20
107.9140438249501
 30
0.0
 11
195.4460978864728
 21
107.9140438249501
 31
0.0
1001
GENIUS_GENOREF_13
1005
E2A
  0
LINE
  5
E27
330
1F
100
AcDbEntity
  8
AM_7
  6
AM_ISO08W050x2
100
AcDbLine
 10
191.3460978864728
 20
107.9140438249501
 30
0.0
 11
191.3460978864728
 21
112.0140438249501
 31
0.0
1001
GENIUS_GENOREF_13
1005
E2A
  0
LINE
  5
E28
330
1F
100
AcDbEntity
  8
AM_7
  6
AM_ISO08W050x2
100
AcDbLine
 10
191.3460978864728
 20
107.9140438249501
 30
0.0
 11
187.2460978864729
 21
107.9140438249501
 31
0.0
1001
GENIUS_GENOREF_13
1005
E2A
  0
LINE
  5
E29
330
1F
100
AcDbEntity
  8
AM_7
  6
AM_ISO08W050x2
100
AcDbLine
 10
191.3460978864728
 20
107.9140438249501
 30
0.0
 11
191.3460978864728
 21
103.8140438249501
 31
0.0
1001
GENIUS_GENOREF_13
1005
E2A
  0
POINT
  5
E2A
330
1F
100
AcDbEntity
  8
0
 60
     1
100
AcDbPoint
 10
0.0
 20
0.0
 30
0.0
1001
GENIUS_GENODEF_13
1002
{
1000
HIER
1070
    10
1002
}
1002
{
1000
MANEDIT
1070
     0
1002
}
1002
{
1000
NOSEL
1070
     0
1002
}
1002
{
1000
BEHIND
1070
     0
1002
}
1002
{
1000
OTHER
1070
     0
1002
}
1002
{
1000
REACTOR
1002
}
1001
GENIUS_GENOLIS_13
1002
{
1000
ENT
1005
E29
1005
E28
1005
E27
1005
E26
1002
}
1001
GENIUS_GENOENT_13
1002
{
1000
MYREF
1005
E2A
1002
}
1002
{
1000
GRP
1005
0
1002
}
1001
GENIUS_GENOBJ-N-CRS_13
1002
{
1000
OWNER
1000
GEN
1002
}
  0
LINE
  5
E38
330
1F
100
AcDbEntity
  8
AM_7
  6
AM_ISO08W050x2
100
AcDbLine
 10
239.3460978864728
 20
268.4825942088363
 30
0.0
 11
245.3460978864729
 21
268.4825942088363
 31
0.0
1001
GENIUS_GENOREF_13
1005
E3C
  0
LINE
  5
E39
330
1F
100
AcDbEntity
  8
AM_7
  6
AM_ISO08W050x2
100
AcDbLine
 10
239.3460978864728
 20
268.4825942088363
 30
0.0
 11
239.3460978864728
 21
274.4825942088363
 31
0.0
1001
GENIUS_GENOREF_13
1005
E3C
  0
LINE
  5
E3A
102
{ACAD_REACTORS
330
1656
102
}
330
1F
100
AcDbEntity
  8
AM_7
  6
AM_ISO08W050x2
100
AcDbLine
 10
239.3460978864728
 20
268.4825942088363
 30
0.0
 11
233.3460978864728
 21
268.4825942088363
 31
0.0
1001
GENIUS_GENOREF_13
1005
E3C
  0
LINE
  5
E3B
102
{ACAD_REACTORS
330
1718
102
}
330
1F
100
AcDbEntity
  8
AM_7
  6
AM_ISO08W050x2
100
AcDbLine
 10
239.3460978864728
 20
268.4825942088363
 30
0.0
 11
239.3460978864728
 21
262.4825942088363
 31
0.0
1001
GENIUS_GENOREF_13
1005
E3C
  0
POINT
  5
E3C
330
1F
100
AcDbEntity
  8
0
 60
     1
100
AcDbPoint
 10
0.0
 20
0.0
 30
0.0
1001
GENIUS_GENOBJ-N-CRS_13
1002
{
1000
OWNER
1000
GEN
1002
}
1001
GENIUS_GENODEF_13
1002
{
1000
HIER
1070
    10
1002
}
1002
{
1000
MANEDIT
1070
     0
1002
}
1002
{
1000
NOSEL
1070
     0
1002
}
1002
{
1000
BEHIND
1070
     0
1002
}
1002
{
1000
OTHER
1070
     0
1002
}
1002
{
1000
REACTOR
1002
}
1001
GENIUS_GENOLIS_13
1002
{
1000
ENT
1005
E3B
1005
E3A
1005
E39
1005
E38
1002
}
1001
GENIUS_GENOENT_13
1002
{
1000
MYREF
1005
E3C
1002
}
1002
{
1000
GRP
1005
0
1002
}
  0
LINE
  5
E4A
330
1F
100
AcDbEntity
  8
AM_7
  6
AM_ISO08W050x2
100
AcDbLine
 10
191.3460978864728
 20
291.4825942088362
 30
0.0
 11
197.3460978864729
 21
291.4825942088362
 31
0.0
1001
GENIUS_GENOREF_13
1005
E4E
  0
LINE
  5
E4B
330
1F
100
AcDbEntity
  8
AM_7
  6
AM_ISO08W050x2
100
AcDbLine
 10
191.3460978864728
 20
291.4825942088362
 30
0.0
 11
191.3460978864728
 21
297.4825942088362
 31
0.0
1001
GENIUS_GENOREF_13
1005
E4E
  0
LINE
  5
E4C
102
{ACAD_REACTORS
330
1656
102
}
330
1F
100
AcDbEntity
  8
AM_7
  6
AM_ISO08W050x2
100
AcDbLine
 10
191.3460978864728
 20
291.4825942088362
 30
0.0
 11
185.3460978864728
 21
291.4825942088362
 31
0.0
1001
GENIUS_GENOREF_13
1005
E4E
  0
LINE
  5
E4D
102
{ACAD_REACTORS
330
16F2
330
1718
102
}
330
1F
100
AcDbEntity
  8
AM_7
  6
AM_ISO08W050x2
100
AcDbLine
 10
191.3460978864728
 20
291.4825942088362
 30
0.0
 11
191.3460978864728
 21
285.4825942088362
 31
0.0
1001
GENIUS_GENOREF_13
1005
E4E
  0
POINT
  5
E4E
330
1F
100
AcDbEntity
  8
0
 60
     1
100
AcDbPoint
 10
0.0
 20
0.0
 30
0.0
1001
GENIUS_GENODEF_13
1002
{
1000
HIER
1070
    10
1002
}
1002
{
1000
MANEDIT
1070
     0
1002
}
1002
{
1000
NOSEL
1070
     0
1002
}
1002
{
1000
BEHIND
1070
     0
1002
}
1002
{
1000
OTHER
1070
     0
1002
}
1002
{
1000
REACTOR
1002
}
1001
GENIUS_GENOLIS_13
1002
{
1000
ENT
1005
E4D
1005
E4C
1005
E4B
1005
E4A
1002
}
1001
GENIUS_GENOENT_13
1002
{
1000
MYREF
1005
E4E
1002
}
1002
{
1000
GRP
1005
0
1002
}
1001
GENIUS_GENOBJ-N-CRS_13
1002
{
1000
OWNER
1000
GEN
1002
}
  0
LINE
  5
E5C
330
1F
100
AcDbEntity
  8
AM_7
  6
AM_ISO08W050x2
100
AcDbLine
 10
322.3255762123903
 20
196.1368590216202
 30
0.0
 11
329.4755762123903
 21
196.1368590216202
 31
0.0
1001
GENIUS_GENOREF_13
1005
E60
  0
LINE
  5
E5D
330
1F
100
AcDbEntity
  8
AM_7
  6
AM_ISO08W050x2
100
AcDbLine
 10
322.3255762123903
 20
196.1368590216202
 30
0.0
 11
322.3255762123903
 21
203.2868590216202
 31
0.0
1001
GENIUS_GENOREF_13
1005
E60
  0
LINE
  5
E5E
102
{ACAD_REACTORS
330
1826
102
}
330
1F
100
AcDbEntity
  8
AM_7
  6
AM_ISO08W050x2
100
AcDbLine
 10
322.3255762123903
 20
196.1368590216202
 30
0.0
 11
315.1755762123904
 21
196.1368590216202
 31
0.0
1001
GENIUS_GENOREF_13
1005
E60
  0
LINE
  5
E5F
330
1F
100
AcDbEntity
  8
AM_7
  6
AM_ISO08W050x2
100
AcDbLine
 10
322.3255762123903
 20
196.1368590216202
 30
0.0
 11
322.3255762123903
 21
188.9868590216202
 31
0.0
1001
GENIUS_GENOREF_13
1005
E60
  0
POINT
  5
E60
330
1F
100
AcDbEntity
  8
0
 60
     1
100
AcDbPoint
 10
0.0
 20
0.0
 30
0.0
1001
GENIUS_GENODEF_13
1002
{
1000
HIER
1070
    10
1002
}
1002
{
1000
MANEDIT
1070
     0
1002
}
1002
{
1000
NOSEL
1070
     0
1002
}
1002
{
1000
BEHIND
1070
     0
1002
}
1002
{
1000
OTHER
1070
     0
1002
}
1002
{
1000
REACTOR
1002
}
1001
GENIUS_GENOLIS_13
1002
{
1000
ENT
1005
E5F
1005
E5E
1005
E5D
1005
E5C
1002
}
1001
GENIUS_GENOENT_13
1002
{
1000
MYREF
1005
E60
1002
}
1002
{
1000
GRP
1005
0
1002
}
1001
GENIUS_GENOBJ-N-CRS_13
1002
{
1000
OWNER
1000
GEN
1002
}
  0
LINE
  5
E61
330
1F
100
AcDbEntity
  8
AM_VIS
100
AcDbLine
 10
333.0805762123904
 20
183.1118590216202
 30
0.0
 11
333.5755762123904
 21
183.1118590216202
 31
0.0
  0
LINE
  5
E62
330
1F
100
AcDbEntity
  8
AM_VIS
100
AcDbLine
 10
333.5755762123903
 20
183.1118590216202
 30
0.0
 11
334.0705762123903
 21
183.1118590216202
 31
0.0
  0
LINE
  5
E63
330
1F
100
AcDbEntity
  8
AM_VIS
100
AcDbLine
 10
333.5755762123891
 20
183.1118590216194
 30
0.0
 11
333.0805762123895
 21
183.6068590216201
 31
0.0
  0
LINE
  5
E64
330
1F
100
AcDbEntity
  8
AM_VIS
100
AcDbLine
 10
333.0805762123903
 20
182.6168590216223
 30
0.0
 11
333.5755762123904
 21
183.1118590216222
 31
0.0
  0
LINE
  5
E65
330
1F
100
AcDbEntity
  8
AM_VIS
100
AcDbLine
 10
333.0805762123904
 20
183.6068590216222
 30
0.0
 11
333.0805762123904
 21
182.6168590216222
 31
0.0
  0
LINE
  5
E66
330
1F
100
AcDbEntity
  8
AM_VIS
100
AcDbLine
 10
334.0705762123903
 20
182.6168590216222
 30
0.0
 11
333.0805762123903
 21
182.6168590216222
 31
0.0
  0
LINE
  5
E67
330
1F
100
AcDbEntity
  8
AM_VIS
100
AcDbLine
 10
333.5755762123903
 20
183.6068590216222
 30
0.0
 11
333.5755762123903
 21
183.1118590216222
 31
0.0
  0
LINE
  5
E68
330
1F
100
AcDbEntity
  8
AM_VIS
100
AcDbLine
 10
334.0705762123913
 20
183.6068590216201
 30
0.0
 11
333.5755762123915
 21
183.1118590216194
 31
0.0
  0
LINE
  5
E69
330
1F
100
AcDbEntity
  8
AM_VIS
100
AcDbLine
 10
334.0705762123903
 20
182.6168590216222
 30
0.0
 11
334.0705762123903
 21
183.6068590216222
 31
0.0
  0
LINE
  5
E6A
330
1F
100
AcDbEntity
  8
AM_VIS
100
AcDbLine
 10
333.5755762123903
 20
183.1118590216222
 30
0.0
 11
333.5755762123903
 21
182.6168590216222
 31
0.0
  0
LINE
  5
E6B
330
1F
100
AcDbEntity
  8
AM_VIS
100
AcDbLine
 10
333.5755762123904
 20
183.1118590216222
 30
0.0
 11
334.0705762123904
 21
182.6168590216223
 31
0.0
  0
LINE
  5
E6C
330
1F
100
AcDbEntity
  8
AM_VIS
100
AcDbLine
 10
333.0805762123903
 20
183.6068590216222
 30
0.0
 11
334.0705762123903
 21
183.6068590216222
 31
0.0
  0
LINE
  5
E6D
330
1F
100
AcDbEntity
  8
AM_VIS
100
AcDbLine
 10
333.0805762123904
 20
182.6168590216218
 30
0.0
 11
333.0805762123904
 21
181.8201256870752
 31
0.0
  0
LINE
  5
E6E
330
1F
100
AcDbEntity
  8
AM_VIS
100
AcDbLine
 10
334.0705762123895
 20
182.6168590216222
 30
0.0
 11
334.8673095469347
 21
182.6168590216222
 31
0.0
  0
LINE
  5
E6F
330
1F
100
AcDbEntity
  8
AM_VIS
100
AcDbLine
 10
334.8673095469369
 20
183.6068590216222
 30
0.0
 11
334.0705762123932
 21
183.6068590216222
 31
0.0
  0
LINE
  5
E70
330
1F
100
AcDbEntity
  8
AM_VIS
100
AcDbLine
 10
333.0805762123901
 20
183.6068590216222
 30
0.0
 11
332.2838428778448
 21
183.6068590216222
 31
0.0
  0
LINE
  5
E71
330
1F
100
AcDbEntity
  8
AM_VIS
100
AcDbLine
 10
334.0705762123903
 20
181.8201256870742
 30
0.0
 11
334.0705762123903
 21
182.6168590216193
 31
0.0
  0
LINE
  5
E72
330
1F
100
AcDbEntity
  8
AM_VIS
100
AcDbLine
 10
334.0705762123903
 20
182.6168590216193
 30
0.0
 11
335.1312111310012
 21
181.5562241030088
 31
0.0
  0
LINE
  5
E73
330
1F
100
AcDbEntity
  8
AM_VIS
100
AcDbLine
 10
334.0705762123932
 20
183.6068590216222
 30
0.0
 11
335.1312111310018
 21
184.667493940231
 31
0.0
  0
LINE
  5
E74
330
1F
100
AcDbEntity
  8
AM_VIS
100
AcDbLine
 10
334.0705762123903
 20
183.6068590216213
 30
0.0
 11
334.0705762123903
 21
184.4035923561651
 31
0.0
  0
LINE
  5
E75
330
1F
100
AcDbEntity
  8
AM_VIS
100
AcDbLine
 10
332.2838428778449
 20
182.6168590216222
 30
0.0
 11
333.0805762123915
 21
182.6168590216222
 31
0.0
  0
LINE
  5
E76
330
1F
100
AcDbEntity
  8
AM_VIS
100
AcDbLine
 10
333.0805762123915
 20
182.6168590216222
 30
0.0
 11
332.0199412937789
 21
181.5562241030093
 31
0.0
  0
LINE
  5
E77
330
1F
100
AcDbEntity
  8
AM_VIS
100
AcDbLine
 10
333.0805762123904
 20
184.4035923561661
 30
0.0
 11
333.0805762123904
 21
183.606859021621
 31
0.0
  0
LINE
  5
E78
330
1F
100
AcDbEntity
  8
AM_VIS
100
AcDbLine
 10
333.0805762123904
 20
183.606859021621
 30
0.0
 11
332.0199412937795
 21
184.6674939402316
 31
0.0
  0
LINE
  5
E79
330
1F
100
AcDbEntity
  8
AM_VIS
100
AcDbLine
 10
333.0805762123904
 20
181.8201256870752
 30
0.0
 11
333.0805762123904
 21
180.9250236334371
 31
0.0
  0
ELLIPSE
  5
E7A
330
1F
100
AcDbEntity
  8
AM_VIS
100
AcDbEllipse
 10
333.5755762123903
 20
184.8688565223431
 30
0.0
 11
6.073381703024446
 21
0.0000000000000018
 31
0.0
210
0.0
220
0.0
230
1.0
 40
0.6515311722874965
 41
4.630795282261955
 42
4.793982678507424
  0
ELLIPSE
  5
E7B
330
1F
100
AcDbEntity
  8
AM_VIS
100
AcDbEllipse
 10
333.5755762123903
 20
181.3548615208966
 30
0.0
 11
-6.073381703023245
 21
0.0000000000000006
 31
0.0
210
0.0
220
0.0
230
1.0
 40
0.6515311722883823
 41
4.630795282261939
 42
4.79398267850744
  0
ELLIPSE
  5
E7C
330
1F
100
AcDbEntity
  8
AM_VIS
100
AcDbEllipse
 10
335.3325737131122
 20
183.1118590216202
 30
0.0
 11
-0.0000000000000006
 21
-6.07338170302488
 31
0.0
210
0.0
220
0.0
230
1.0
 40
0.6515311722876046
 41
4.63079528226163
 42
4.793982678507091
  0
LINE
  5
E7D
330
1F
100
AcDbEntity
  8
AM_VIS
100
AcDbLine
 10
334.8673095469347
 20
182.6168590216222
 30
0.0
 11
335.7624116005756
 21
182.6168590216222
 31
0.0
  0
LINE
  5
E7E
330
1F
100
AcDbEntity
  8
AM_VIS
100
AcDbLine
 10
331.3887408242052
 20
182.6168590216222
 30
0.0
 11
332.283842877845
 21
182.6168590216222
 31
0.0
  0
ELLIPSE
  5
E7F
330
1F
100
AcDbEntity
  8
AM_VIS
100
AcDbEllipse
 10
331.8185787116685
 20
183.1118590216202
 30
0.0
 11
-0.0000000000000018
 21
6.07338170302488
 31
0.0
210
0.0
220
0.0
230
1.0
 40
0.6515311722876043
 41
4.630795282262288
 42
4.793982678507748
  0
LINE
  5
E80
330
1F
100
AcDbEntity
  8
AM_VIS
100
AcDbLine
 10
332.2838428778448
 20
183.6068590216222
 30
0.0
 11
331.3887408242053
 21
183.6068590216222
 31
0.0
  0
LINE
  5
E81
330
1F
100
AcDbEntity
  8
AM_VIS
100
AcDbLine
 10
334.0705762123903
 20
180.9250236334371
 30
0.0
 11
334.0705762123903
 21
181.8201256870742
 31
0.0
  0
LINE
  5
E82
330
1F
100
AcDbEntity
  8
AM_VIS
100
AcDbLine
 10
334.0705762123903
 20
184.4035923561652
 30
0.0
 11
334.0705762123903
 21
185.2986944098072
 31
0.0
  0
LINE
  5
E83
330
1F
100
AcDbEntity
  8
AM_VIS
100
AcDbLine
 10
335.7624116005753
 20
183.6068590216222
 30
0.0
 11
334.8673095469369
 21
183.6068590216222
 31
0.0
  0
LINE
  5
E84
330
1F
100
AcDbEntity
  8
AM_VIS
100
AcDbLine
 10
333.0805762123904
 20
185.2986944098072
 30
0.0
 11
333.0805762123904
 21
184.4035923561661
 31
0.0
  0
ELLIPSE
  5
E85
330
1F
100
AcDbEntity
  8
AM_VIS
100
AcDbEllipse
 10
333.1970752695578
 20
184.2323140862448
 30
0.0
 11
6.040265643418782
 21
2.040462231083796
 31
0.0
210
0.0
220
0.0
230
1.0
 40
0.3560251305399939
 41
4.397980125344664
 42
4.57354477351979
  0
ELLIPSE
  5
E86
330
1F
100
AcDbEntity
  8
AM_VIS
100
AcDbEllipse
 10
332.4551211477658
 20
182.7333580787876
 30
0.0
 11
-2.040462231083794
 21
6.040265643418782
 31
0.0
210
0.0
220
0.0
230
1.0
 40
0.3560251305399934
 41
4.397980125344663
 42
4.573544773520118
  0
ELLIPSE
  5
E87
330
1F
100
AcDbEntity
  8
AM_VIS
100
AcDbEllipse
 10
332.4551211477667
 20
183.490359964452
 30
0.0
 11
2.040462231082178
 21
6.040265643419572
 31
0.0
210
0.0
220
0.0
230
1.0
 40
0.3560251305399902
 41
4.851233187249908
 42
5.026797835424599
  0
ELLIPSE
  5
E88
330
1F
100
AcDbEntity
  8
AM_VIS
100
AcDbEllipse
 10
334.6960312770149
 20
183.4903599644527
 30
0.0
 11
2.040462231083793
 21
-6.040265643418782
 31
0.0
210
0.0
220
0.0
230
1.0
 40
0.356025130539994
 41
4.397980125344668
 42
4.573544773519467
  0
ELLIPSE
  5
E89
330
1F
100
AcDbEntity
  8
AM_VIS
100
AcDbEllipse
 10
333.9540771552222
 20
184.2323140862438
 30
0.0
 11
6.04026564341957
 21
-2.04046223108218
 31
0.0
210
0.0
220
0.0
230
1.0
 40
0.3560251305399907
 41
4.851233187249579
 42
5.026797835424593
  0
ELLIPSE
  5
E8A
330
1F
100
AcDbEntity
  8
AM_VIS
100
AcDbEllipse
 10
333.9540771552229
 20
181.9914039569956
 30
0.0
 11
-6.040265643418782
 21
-2.040462231083794
 31
0.0
210
0.0
220
0.0
230
1.0
 40
0.3560251305399935
 41
4.397980125344666
 42
4.573544773519792
  0
ELLIPSE
  5
E8B
330
1F
100
AcDbEntity
  8
AM_VIS
100
AcDbEllipse
 10
334.696031277014
 20
182.7333580787883
 30
0.0
 11
-2.040462231082178
 21
-6.040265643419572
 31
0.0
210
0.0
220
0.0
230
1.0
 40
0.3560251305399906
 41
4.851233187249258
 42
5.026797835424602
  0
ELLIPSE
  5
E8C
330
1F
100
AcDbEntity
  8
AM_VIS
100
AcDbEllipse
 10
333.1970752695585
 20
181.9914039569965
 30
0.0
 11
-6.04026564341957
 21
2.04046223108218
 31
0.0
210
0.0
220
0.0
230
1.0
 40
0.3560251305399902
 41
4.851233187249579
 42
5.026797835424593
  0
LINE
  5
E9A
330
1F
100
AcDbEntity
  8
AM_7
  6
AM_ISO08W050x2
100
AcDbLine
 10
188.8460978864729
 20
186.1368590216202
 30
0.0
 11
193.0960978864728
 21
186.1368590216202
 31
0.0
1001
GENIUS_GENOREF_13
1005
E9E
  0
LINE
  5
E9B
330
1F
100
AcDbEntity
  8
AM_7
  6
AM_ISO08W050x2
100
AcDbLine
 10
188.8460978864729
 20
186.1368590216202
 30
0.0
 11
188.8460978864729
 21
190.3868590216202
 31
0.0
1001
GENIUS_GENOREF_13
1005
E9E
  0
LINE
  5
E9C
102
{ACAD_REACTORS
330
17B2
102
}
330
1F
100
AcDbEntity
  8
AM_7
  6
AM_ISO08W050x2
100
AcDbLine
 10
188.8460978864729
 20
186.1368590216202
 30
0.0
 11
184.5960978864729
 21
186.1368590216202
 31
0.0
1001
GENIUS_GENOREF_13
1005
E9E
  0
LINE
  5
E9D
102
{ACAD_REACTORS
330
1764
330
178A
102
}
330
1F
100
AcDbEntity
  8
AM_7
  6
AM_ISO08W050x2
100
AcDbLine
 10
188.8460978864729
 20
186.1368590216202
 30
0.0
 11
188.8460978864729
 21
181.8868590216202
 31
0.0
1001
GENIUS_GENOREF_13
1005
E9E
  0
POINT
  5
E9E
330
1F
100
AcDbEntity
  8
0
 60
     1
100
AcDbPoint
 10
0.0
 20
0.0
 30
0.0
1001
GENIUS_GENOLIS_13
1002
{
1000
ENT
1005
E9D
1005
E9C
1005
E9B
1005
E9A
1002
}
1001
GENIUS_GENOENT_13
1002
{
1000
MYREF
1005
E9E
1002
}
1002
{
1000
GRP
1005
0
1002
}
1001
GENIUS_GENOBJ-N-CRS_13
1002
{
1000
OWNER
1000
GEN
1002
}
1001
GENIUS_GENODEF_13
1002
{
1000
HIER
1070
    10
1002
}
1002
{
1000
MANEDIT
1070
     0
1002
}
1002
{
1000
NOSEL
1070
     0
1002
}
1002
{
1000
BEHIND
1070
     0
1002
}
1002
{
1000
OTHER
1070
     0
1002
}
1002
{
1000
REACTOR
1002
}
  0
LINE
  5
EAC
330
1F
100
AcDbEntity
  8
AM_7
  6
AM_ISO08W050x2
100
AcDbLine
 10
217.8460978864729
 20
186.1368590216202
 30
0.0
 11
222.0960978864729
 21
186.1368590216202
 31
0.0
1001
GENIUS_GENOREF_13
1005
EB0
  0
LINE
  5
EAD
330
1F
100
AcDbEntity
  8
AM_7
  6
AM_ISO08W050x2
100
AcDbLine
 10
217.8460978864729
 20
186.1368590216202
 30
0.0
 11
217.8460978864729
 21
190.3868590216202
 31
0.0
1001
GENIUS_GENOREF_13
1005
EB0
  0
LINE
  5
EAE
330
1F
100
AcDbEntity
  8
AM_7
  6
AM_ISO08W050x2
100
AcDbLine
 10
217.8460978864729
 20
186.1368590216202
 30
0.0
 11
213.5960978864729
 21
186.1368590216202
 31
0.0
1001
GENIUS_GENOREF_13
1005
EB0
  0
LINE
  5
EAF
102
{ACAD_REACTORS
330
178A
102
}
330
1F
100
AcDbEntity
  8
AM_7
  6
AM_ISO08W050x2
100
AcDbLine
 10
217.8460978864729
 20
186.1368590216202
 30
0.0
 11
217.8460978864729
 21
181.8868590216202
 31
0.0
1001
GENIUS_GENOREF_13
1005
EB0
  0
POINT
  5
EB0
330
1F
100
AcDbEntity
  8
0
 60
     1
100
AcDbPoint
 10
0.0
 20
0.0
 30
0.0
1001
GENIUS_GENODEF_13
1002
{
1000
HIER
1070
    10
1002
}
1002
{
1000
MANEDIT
1070
     0
1002
}
1002
{
1000
NOSEL
1070
     0
1002
}
1002
{
1000
BEHIND
1070
     0
1002
}
1002
{
1000
OTHER
1070
     0
1002
}
1002
{
1000
REACTOR
1002
}
1001
GENIUS_GENOLIS_13
1002
{
1000
ENT
1005
EAF
1005
EAE
1005
EAD
1005
EAC
1002
}
1001
GENIUS_GENOENT_13
1002
{
1000
MYREF
1005
EB0
1002
}
1002
{
1000
GRP
1005
0
1002
}
1001
GENIUS_GENOBJ-N-CRS_13
1002
{
1000
OWNER
1000
GEN
1002
}
  0
LINE
  5
EC1
330
1F
100
AcDbEntity
  8
AM_7
100
AcDbLine
 10
272.3460978864729
 20
279.9825942088362
 30
0.0
 11
172.4100525369608
 21
279.9825942088362
 31
0.0
1001
GENIUS_GENODEF_13
1002
{
1000
HIER
1070
     0
1002
}
1002
{
1000
MANEDIT
1070
     0
1002
}
1002
{
1000
NOSEL
1070
     0
1002
}
1002
{
1000
BEHIND
1070
     0
1002
}
1002
{
1000
OTHER
1070
     0
1002
}
1002
{
1000
REACTOR
1002
}
1001
GENIUS_GENOBJ-N-CEN_13
1002
{
1000
OWNER
1000
GEN
1002
}
1001
GENIUS_GENCEN_19
1002
{
1040
2.0
1002
}
  0
LINE
  5
ED0
330
1F
100
AcDbEntity
  8
AM_7
100
AcDbLine
 10
273.4726353136075
 20
119.4140438249501
 30
0.0
 11
172.0845621640208
 21
119.4140438249501
 31
0.0
1001
GENIUS_GENOBJ-N-CEN_13
1002
{
1000
OWNER
1000
GEN
1002
}
1001
GENIUS_GENODEF_13
1002
{
1000
HIER
1070
     0
1002
}
1002
{
1000
MANEDIT
1070
     0
1002
}
1002
{
1000
NOSEL
1070
     0
1002
}
1002
{
1000
BEHIND
1070
     0
1002
}
1002
{
1000
OTHER
1070
     0
1002
}
1002
{
1000
REACTOR
1002
}
1001
GENIUS_GENCEN_19
1002
{
1040
2.0
1002
}
  0
INSERT
  5
14E3
330
1F
100
AcDbEntity
  8
AM_5
100
AcDbBlockReference
  2
*S18
 10
0.0
 20
0.0
 30
0.0
  0
TEXT
  5
14E4
330
1F
100
AcDbEntity
  8
AM_5
100
AcDbText
 10
300.6717414502477
 20
170.0774135163866
 30
0.0
 40
3.5
  1
G1/8
100
AcDbText
  0
DIMENSION
  5
1648
102
{ACAD_XDICTIONARY
360
1655
102
}
102
{ACAD_REACTORS
330
1656
102
}
330
1F
100
AcDbEntity
  8
AM_5
100
AcDbDimension
  2
*D3
 10
164.3460978864729
 20
268.4825942088363
 30
0.0
 11
161.8957533982839
 21
279.9825942088363
 31
0.0
 70
    32
 71
     5
 42
22.99999999999989
  3
AM_ISO$0
100
AcDbAlignedDimension
 13
185.3460978864728
 23
291.4825942088362
 33
0.0
 14
233.3460978864728
 24
268.4825942088363
 34
0.0
 50
90.00000000000003
100
AcDbRotatedDimension
1001
ACAD
1000
DSTYLE
1002
{
1070
    40
1040
1.0
1070
   144
1040
1.0
1070
   272
1070
     8
1002
}
  0
DIMENSION
  5
166E
102
{ACAD_XDICTIONARY
360
167B
102
}
102
{ACAD_REACTORS
330
167C
102
}
330
1F
100
AcDbEntity
  8
AM_5
100
AcDbDimension
  2
*D4
 10
156.3460978864729
 20
264.9825942088362
 30
0.0
 11
153.8960978864729
 21
279.9825942088363
 31
0.0
 70
    32
 71
     5
 42
30.0
  3
AM_ISO$0
100
AcDbAlignedDimension
 13
177.3460978864729
 23
294.9825942088362
 33
0.0
 14
177.3460978864729
 24
264.9825942088362
 34
0.0
 50
90.00000000000003
100
AcDbRotatedDimension
1001
ACAD
1000
DSTYLE
1002
{
1070
    40
1040
1.0
1070
   144
1040
1.0
1070
   272
1070
     8
1002
}
  0
DIMENSION
  5
16E4
102
{ACAD_XDICTIONARY
360
16F1
102
}
102
{ACAD_REACTORS
330
16F2
102
}
330
1F
100
AcDbEntity
  8
AM_5
100
AcDbDimension
  2
*D5
 10
191.3460978864728
 20
252.9825942088362
 30
0.0
 11
183.8460978864729
 21
255.4325942088361
 31
0.0
 70
    32
 71
     5
 42
15.0
  3
AM_ISO$0
100
AcDbAlignedDimension
 13
176.3460978864729
 23
265.9825942088362
 33
0.0
 14
191.3460978864728
 24
285.4825942088362
 34
0.0
 50
0.0000000000001018
100
AcDbRotatedDimension
1001
ACAD
1000
DSTYLE
1002
{
1070
    40
1040
1.0
1070
   144
1040
1.0
1070
   272
1070
     8
1002
}
  0
DIMENSION
  5
170A
102
{ACAD_XDICTIONARY
360
1717
102
}
102
{ACAD_REACTORS
330
1718
102
}
330
1F
100
AcDbEntity
  8
AM_5
100
AcDbDimension
  2
*D6
 10
239.3460978864728
 20
252.9825942088363
 30
0.0
 11
215.3460978864729
 21
255.4325942088362
 31
0.0
 70
    32
 71
     5
 42
47.99999999999997
  3
AM_ISO$0
100
AcDbAlignedDimension
 13
191.3460978864728
 23
285.4825942088362
 33
0.0
 14
239.3460978864728
 24
262.4825942088363
 34
0.0
 50
0.0000000000001018
100
AcDbRotatedDimension
1001
ACAD
1000
DSTYLE
1002
{
1070
    40
1040
1.0
1070
   144
1040
1.0
1070
   272
1070
     8
1002
}
  0
DIMENSION
  5
1730
102
{ACAD_XDICTIONARY
360
173D
102
}
102
{ACAD_REACTORS
330
173E
102
}
330
1F
100
AcDbEntity
  8
AM_5
100
AcDbDimension
  2
*D7
 10
216.8460978864729
 20
306.9825942088362
 30
0.0
 11
196.5960978864728
 21
309.4325942088362
 31
0.0
 70
    32
 71
     5
 42
40.49999999999999
  3
AM_ISO$0
100
AcDbAlignedDimension
 13
176.3460978864729
 23
293.9825942088362
 33
0.0
 14
216.8460978864729
 24
290.4825942088362
 34
0.0
100
AcDbRotatedDimension
1001
ACAD
1000
DSTYLE
1002
{
1070
    40
1040
1.0
1070
   144
1040
1.0
1070
   272
1070
     8
1002
}
  0
DIMENSION
  5
1756
102
{ACAD_XDICTIONARY
360
1763
102
}
102
{ACAD_REACTORS
330
1764
102
}
330
1F
100
AcDbEntity
  8
AM_5
100
AcDbDimension
  2
*D8
 10
188.8460978864729
 20
167.1368590216202
 30
0.0
 11
182.5960978864729
 21
169.5872035098092
 31
0.0
 70
    32
 71
     5
 42
12.5
  3
AM_ISO$0
100
AcDbAlignedDimension
 13
176.3460978864729
 23
180.1368590216202
 33
0.0
 14
188.8460978864729
 24
181.8868590216202
 34
0.0
 50
0.0000000000001132
100
AcDbRotatedDimension
1001
ACAD
1000
DSTYLE
1002
{
1070
    40
1040
1.0
1070
   144
1040
1.0
1070
   272
1070
     8
1002
}
  0
DIMENSION
  5
177C
102
{ACAD_XDICTIONARY
360
1789
102
}
102
{ACAD_REACTORS
330
178A
102
}
330
1F
100
AcDbEntity
  8
AM_5
100
AcDbDimension
  2
*D9
 10
217.8460978864729
 20
167.1368590216202
 30
0.0
 11
203.3460978864729
 21
169.5872035098092
 31
0.0
 70
    32
 71
     5
 42
29.0
  3
AM_ISO$0
100
AcDbAlignedDimension
 13
188.8460978864729
 23
181.8868590216202
 33
0.0
 14
217.8460978864729
 24
181.8868590216202
 34
0.0
 50
0.0000000000001132
100
AcDbRotatedDimension
1001
ACAD
1000
DSTYLE
1002
{
1070
    40
1040
1.0
1070
   144
1040
1.0
1070
   272
1070
     8
1002
}
  0
DIMENSION
  5
17A2
102
{ACAD_XDICTIONARY
360
17B1
102
}
102
{ACAD_REACTORS
330
17B2
102
}
330
1F
100
AcDbEntity
  8
AM_5
100
AcDbDimension
  2
*D10
 10
164.3460978864729
 20
186.1368590216202
 30
0.0
 11
161.8960978864729
 21
182.6368590216202
 31
0.0
 70
    32
 71
     5
 42
7.000000000000028
  3
AM_ISO$0
100
AcDbAlignedDimension
 13
177.3460978864729
 23
179.1368590216202
 33
0.0
 14
184.5960978864729
 24
186.1368590216202
 34
0.0
 50
90.00000000000003
100
AcDbRotatedDimension
1001
ACAD
1000
DSTYLE
1002
{
1070
    40
1040
1.0
1070
   144
1040
1.0
1070
   272
1070
     8
1002
}
  0
DIMENSION
  5
17CC
102
{ACAD_XDICTIONARY
360
17D9
102
}
102
{ACAD_REACTORS
330
17DA
102
}
330
1F
100
AcDbEntity
  8
AM_5
100
AcDbDimension
  2
*D11
 10
232.3460978864729
 20
92.4140438249501
 30
0.0
 11
217.8460978864729
 21
94.86438831313909
 31
0.0
 70
    32
 71
     5
 42
29.0
  3
AM_ISO$0
100
AcDbAlignedDimension
 13
203.3460978864729
 23
106.6640438249501
 33
0.0
 14
232.3460978864729
 24
106.6640438249501
 34
0.0
 50
0.0000000000001018
100
AcDbRotatedDimension
1001
ACAD
1000
DSTYLE
1002
{
1070
    40
1040
1.0
1070
   144
1040
1.0
1070
   272
1070
     8
1002
}
  0
DIMENSION
  5
17F2
102
{ACAD_XDICTIONARY
360
17FF
102
}
102
{ACAD_REACTORS
330
1800
102
}
330
1F
100
AcDbEntity
  8
AM_5
100
AcDbDimension
  2
*D12
 10
282.3460978864729
 20
225.5368590216202
 30
0.0
 11
279.8960978864728
 21
202.3368590216203
 31
0.0
 70
    32
 71
     5
 42
46.4
  3
AM_ISO$0
100
AcDbAlignedDimension
 13
270.3460978864729
 23
179.1368590216202
 33
0.0
 14
270.3460978864729
 24
225.5368590216202
 34
0.0
 50
90.00000000000003
100
AcDbRotatedDimension
1001
ACAD
1000
DSTYLE
1002
{
1070
    40
1040
1.0
1070
   144
1040
1.0
1070
   272
1070
     8
1002
}
  0
DIMENSION
  5
1818
102
{ACAD_XDICTIONARY
360
1825
102
}
102
{ACAD_REACTORS
330
1826
102
}
330
1F
100
AcDbEntity
  8
AM_5
100
AcDbDimension
  2
*D13
 10
295.3255752123904
 20
196.1368590216202
 30
0.0
 11
292.8755752123903
 21
187.6368590216202
 31
0.0
 70
    32
 71
     5
 42
17.0
  3
AM_ISO$0
100
AcDbAlignedDimension
 13
307.3255762123903
 23
179.1368590216202
 33
0.0
 14
315.1755762123904
 24
196.1368590216202
 34
0.0
 50
90.0
100
AcDbRotatedDimension
1001
ACAD
1000
DSTYLE
1002
{
1070
    40
1040
1.0
1070
   144
1040
1.0
1070
   272
1070
     8
1002
}
  0
DIMENSION
  5
183E
102
{ACAD_XDICTIONARY
360
184B
102
}
102
{ACAD_REACTORS
330
184C
102
}
330
1F
100
AcDbEntity
  8
AM_5
100
AcDbDimension
  2
*D14
 10
270.3460978864729
 20
159.1368590216203
 30
0.0
 11
223.3460978864729
 21
161.5868590216203
 31
0.0
 70
    32
 71
     5
 42
94.0
  3
AM_ISO$0
100
AcDbAlignedDimension
 13
176.3460978864729
 23
180.1368590216202
 33
0.0
 14
270.3460978864729
 24
179.1368590216202
 34
0.0
 50
0.0000000000001132
100
AcDbRotatedDimension
1001
ACAD
1000
DSTYLE
1002
{
1070
    40
1040
1.0
1070
   144
1040
1.0
1070
   272
1070
     8
1002
}
  0
DIMENSION
  5
18F1
102
{ACAD_XDICTIONARY
360
18FD
102
}
102
{ACAD_REACTORS
330
18FE
102
}
330
1F
100
AcDbEntity
  8
AM_5
100
AcDbDimension
  2
*D15
 10
216.6408280483387
 20
188.0368128677133
 30
0.0
 11
236.3440180483184
 21
168.7479072231781
 31
0.0
 70
   163
  1
2-<>
 71
     5
 42
4.5
  3
AM_ISO$3
100
AcDbDiametricDimension
 15
219.0513677246076
 25
184.2369051755274
 35
0.0
 40
0.0
1001
ACAD
1000
DSTYLE
1002
{
1070
    40
1040
1.0
1070
   144
1040
1.0
1070
   272
1070
     8
1002
}
  0
DIMENSION
  5
1921
102
{ACAD_XDICTIONARY
360
192A
102
}
102
{ACAD_REACTORS
330
192B
102
}
330
1F
100
AcDbEntity
  8
AM_5
100
AcDbDimension
  2
*D16
 10
238.4512160789072
 20
270.3823801311149
 30
0.0
 11
254.2225384072303
 21
252.8218362986727
 31
0.0
 70
   163
  1
2-<>
 71
     5
 42
4.199999999999931
  3
AM_ISO$3
100
AcDbDiametricDimension
 15
240.2409796940386
 25
266.5828082865577
 35
0.0
 40
0.0
1001
ACAD
1000
DSTYLE
1002
{
1070
    40
1040
1.0
1070
   144
1040
1.0
1070
   272
1070
     8
1002
}
  0
TEXT
  5
1946
330
1F
100
AcDbEntity
  8
AM_5
100
AcDbText
 10
234.6065205834784
 20
303.60974285807
 30
0.0
 40
3.5
  1
3-G1/2
100
AcDbText
  0
INSERT
  5
1947
330
1F
100
AcDbEntity
  8
AM_5
100
AcDbBlockReference
  2
*S19
 10
0.0
 20
0.0
 30
0.0
  0
LINE
  5
1949
330
1F
100
AcDbEntity
  8
AM_7
  6
AM_ISO08W050x2
100
AcDbLine
 10
272.2532008154046
 20
196.1368590216202
 30
0.0
 11
265.1032008154046
 21
196.1368590216202
 31
0.0
  0
LINE
  5
19E4
330
1F
100
AcDbEntity
  8
LOGO
 62
     4
100
AcDbLine
 10
383.2961373991577
 20
52.82969284204466
 30
0.0
 11
92.89613739915763
 21
52.82969284204466
 31
0.0
  0
LWPOLYLINE
  5
19E5
330
1F
100
AcDbEntity
  8
LOGO
 62
     4
100
AcDbPolyline
 90
        4
 70
     1
 43
0.0
 10
92.89613739915763
 20
52.82969284204466
 10
383.2961373991577
 20
52.82969284204466
 10
383.2961373991577
 20
349.4067888205413
 10
92.89613739915763
 20
349.4067888205413
1001
GENIUS_GENREC_14
1002
{
1000
PYDIR
1011
92.89613739915763
1021
349.4067888205413
1031
0.0
1002
}
1002
{
1000
PXDIR
1011
383.2961373991577
1021
52.82969284204466
1031
0.0
1002
}
1002
{
1000
PORI
1011
92.89613739915763
1021
52.82969284204466
1031
0.0
1002
}
1002
{
1000
PINS
1011
92.89613739915763
1021
52.82969284204466
1031
0.0
1002
}
1002
{
1000
PINS2
1011
383.2961373991577
1021
349.4067888205413
1031
0.0
1002
}
1002
{
1000
C
1070
     1
1002
}
1001
GENIUS_GENODEF_13
1002
{
1000
HIER
1070
     0
1002
}
1002
{
1000
MANEDIT
1070
     0
1002
}
1002
{
1000
NOSEL
1070
     0
1002
}
1002
{
1000
BEHIND
1070
     0
1002
}
1002
{
1000
OTHER
1070
     0
1002
}
1002
{
1000
REACTOR
1002
}
1001
GENIUS_GENOBJ-N-REC_13
1002
{
1000
OWNER
1000
GEN
1002
}
  0
LWPOLYLINE
  5
19E6
330
1F
100
AcDbEntity
  8
LOGO
 62
     4
100
AcDbPolyline
 90
        4
 70
     1
 43
0.0
 10
92.89613739915763
 20
52.82969284204466
 10
383.2961373991577
 20
52.82969284204466
 10
383.2961373991577
 20
23.79389772892239
 10
92.89613739915763
 20
23.79389772892239
1001
GENIUS_GENREC_14
1002
{
1000
PYDIR
1011
92.89613739915763
1021
23.79389772892239
1031
0.0
1002
}
1002
{
1000
PXDIR
1011
383.2961373991577
1021
52.82969284204466
1031
0.0
1002
}
1002
{
1000
PORI
1011
92.89613739915763
1021
52.82969284204466
1031
0.0
1002
}
1002
{
1000
PINS
1011
92.89613739915763
1021
52.82969284204466
1031
0.0
1002
}
1002
{
1000
PINS2
1011
383.2961373991577
1021
23.79389772892239
1031
0.0
1002
}
1002
{
1000
C
1070
     1
1002
}
1001
GENIUS_GENOBJ-N-REC_13
1002
{
1000
OWNER
1000
GEN
1002
}
1001
GENIUS_GENODEF_13
1002
{
1000
HIER
1070
     0
1002
}
1002
{
1000
MANEDIT
1070
     0
1002
}
1002
{
1000
NOSEL
1070
     0
1002
}
1002
{
1000
BEHIND
1070
     0
1002
}
1002
{
1000
OTHER
1070
     0
1002
}
1002
{
1000
REACTOR
1002
}
  0
TEXT
  5
19E7
330
1F
100
AcDbEntity
  8
LOGO
 62
     7
100
AcDbText
 10
158.4570401760807
 20
40.10960508925961
 30
0.0
 40
3.87143934841629
  1
Order example:
 41
0.8
  7
CHINESET
100
AcDbText
  0
TEXT
  5
19E8
330
1F
100
AcDbEntity
  8
LOGO
 62
     7
100
AcDbText
 10
159.1516084106877
 20
45.55979010008411
 30
0.0
 40
5.807159022624433
  1
訂購代號：
  7
CHINESET
100
AcDbText
  0
LINE
  5
19E9
330
1F
100
AcDbEntity
  8
LOGO
 62
     4
100
AcDbLine
 10
156.7748866480265
 20
23.79389772892239
 30
0.0
 11
156.7748866480265
 21
52.82969284204466
 31
0.0
  0
TEXT
  5
19EA
330
1F
100
AcDbEntity
  8
LOGO
  6
Continuous
100
AcDbText
 10
103.3259255222153
 20
29.49793586005979
 30
0.0
 40
4.355369266968326
  1
金器工業股份有限公司
  7
CHINESET
100
AcDbText
  0
TEXT
  5
19EB
330
1F
100
AcDbEntity
  8
LOGO
  6
Continuous
100
AcDbText
 10
95.32597384611131
 20
25.14171328218925
 30
0.0
 40
2.903579511312216
  1
MINDMAN INDUSTRIAL CO., LTD.
 41
0.85
  7
CHINESET
100
AcDbText
  0
LINE
  5
19EC
330
1F
100
AcDbEntity
  8
LOGO
 62
     4
100
AcDbLine
 10
156.7748866480265
 20
47.02253381942057
 30
0.0
 11
114.1890538154471
 21
47.02253381942057
 31
0.0
  0
LINE
  5
19ED
330
1F
100
AcDbEntity
  8
LOGO
 62
     4
100
AcDbLine
 10
156.7748866480265
 20
41.2153747967958
 30
0.0
 11
114.1890538154471
 21
41.2153747967958
 31
0.0
  0
LINE
  5
19EE
330
1F
100
AcDbEntity
  8
LOGO
 62
     4
100
AcDbLine
 10
156.7748866480265
 20
35.40821577417194
 30
0.0
 11
92.89613739915763
 21
35.40821577417194
 31
0.0
  0
LINE
  5
19EF
330
1F
100
AcDbEntity
  8
LOGO
 62
     4
100
AcDbLine
 10
114.1890538154471
 20
35.40821577417194
 30
0.0
 11
114.1890538154471
 21
52.82969284204466
 31
0.0
  0
TEXT
  5
19F0
330
1F
100
AcDbEntity
  8
LOGO
100
AcDbText
 10
143.2944605358218
 20
36.86000552982719
 30
0.0
 40
2.903579511312216
  1
mm
  7
CHINESET
 72
     1
 11
146.8893685022084
 21
38.3117952854833
 31
0.0
100
AcDbText
 73
     2
  0
TEXT
  5
19F1
330
1F
100
AcDbEntity
  8
LOGO
100
AcDbText
 10
141.7735379346583
 20
48.47432357507606
 30
0.0
 40
2.903579511312216
  1
1 : 1
  7
CHINESET
 72
     1
 11
146.8893685022084
 21
49.92611333073217
 31
0.0
100
AcDbText
 73
     2
  0
LINE
  5
19F2
330
1F
100
AcDbEntity
  8
LOGO
 62
     4
100
AcDbLine
 10
137.4176899059448
 20
35.40821577417194
 30
0.0
 11
137.4176899059448
 21
52.82969284204466
 31
0.0
  0
TEXT
  5
19F3
330
1F
100
AcDbEntity
  8
LOGO
100
AcDbText
 10
116.5832106714264
 20
48.47575250200091
 30
190.2958178035923
 40
2.903579511312216
  1
比例 Scale:
 41
0.9
  7
CHINESET
 72
     4
 11
125.8033718606959
 21
49.92611333073217
 31
190.2958178035923
100
AcDbText
  0
TEXT
  5
19F4
330
1F
100
AcDbEntity
  8
LOGO
100
AcDbText
 10
116.4159956013553
 20
42.70800804705416
 30
190.2958178035923
 40
2.903579511312216
  1
投影  View:
 41
0.9
  7
CHINESET
 72
     4
 11
125.8033718606959
 21
44.11895430810807
 31
190.2958178035923
100
AcDbText
  0
TEXT
  5
19F5
330
1F
100
AcDbEntity
  8
LOGO
100
AcDbText
 10
116.6998723482202
 20
36.86000552982719
 30
190.2958178035923
 40
2.903579511312216
  1
單位  Unit:
 41
0.9
  7
CHINESET
 72
     4
 11
125.8033718606959
 21
38.3117952854833
 31
190.2958178035923
100
AcDbText
  0
SOLID
  5
19F6
330
1F
100
AcDbEntity
  8
LOGO
 62
     5
100
AcDbTrace
 10
95.90864774105069
 20
40.23500341972964
 30
0.0
 11
97.16407933181574
 21
40.23500341972897
 31
0.0
 12
102.4022594174213
 22
52.13995815974261
 32
0.0
 13
103.6576910081869
 23
52.13995815974215
 33
0.0
  0
SOLID
  5
19F7
330
1F
100
AcDbEntity
  8
LOGO
 62
     5
100
AcDbTrace
 10
97.68356826592674
 20
40.23500341972964
 30
0.0
 11
98.93899985669168
 21
40.23500341972964
 31
0.0
 12
103.6576910081869
 22
51.18756178054116
 32
0.0
 13
102.4022594174213
 23
46.58431261440284
 33
0.0
  0
SOLID
  5
19F8
330
1F
100
AcDbEntity
  8
LOGO
 62
     2
100
AcDbTrace
 10
97.16407933181574
 20
40.23500341972897
 30
0.0
 11
97.68356826592674
 21
40.23500341972964
 31
0.0
 12
103.6576910081869
 22
52.13995815974215
 32
0.0
 13
104.1771799422972
 23
52.13995815974215
 33
0.0
  0
SOLID
  5
19F9
330
1F
100
AcDbEntity
  8
LOGO
 62
     5
100
AcDbTrace
 10
93.8958830315164
 20
35.90592896881628
 30
0.0
 11
94.32879047660822
 21
35.90592896881628
 31
0.0
 12
95.54789153680827
 22
38.07046619427217
 32
0.0
 13
95.98079898189894
 23
38.07046619427217
 33
0.0
  0
SOLID
  5
19FA
330
1F
100
AcDbEntity
  8
LOGO
 62
     5
100
AcDbTrace
 10
95.54789153680827
 20
38.07046619427217
 30
0.0
 11
95.98079898189894
 21
38.07046619427217
 31
0.0
 12
95.54789153680827
 22
35.90592896881628
 32
0.0
 13
95.98079898189894
 23
35.90592896881628
 33
0.0
  0
SOLID
  5
19FB
330
1F
100
AcDbEntity
  8
LOGO
 62
     5
100
AcDbTrace
 10
95.54789153680827
 20
35.90592896881628
 30
0.0
 11
95.98079898189894
 21
35.90592896881628
 31
0.0
 12
97.19990004210082
 22
38.07046619427217
 32
0.0
 13
97.63280748719195
 23
38.07046619427217
 33
0.0
  0
SOLID
  5
19FC
330
1F
100
AcDbEntity
  8
LOGO
 62
     5
100
AcDbTrace
 10
97.19990004210082
 20
38.07046619427217
 30
0.0
 11
97.63280748719195
 21
38.07046619427217
 31
0.0
 12
97.19990004210082
 22
35.90592896881628
 32
0.0
 13
97.63280748719195
 23
35.90592896881628
 33
0.0
  0
POLYLINE
  5
19FD
330
1F
100
AcDbEntity
  8
LOGO
 62
     5
100
AcDb2dPolyline
 66
     1
 10
0.0
 20
0.0
 30
0.0
 40
0.4336012070226244
 41
0.4336012070226244
  0
VERTEX
  5
19FE
330
19FD
100
AcDbEntity
  8
LOGO
 62
     5
100
AcDbVertex
100
AcDb2dVertex
 10
111.7108101297842
 20
37.20465130409014
 30
0.0
 42
1.0
  0
VERTEX
  5
19FF
330
19FD
100
AcDbEntity
  8
LOGO
 62
     5
100
AcDbVertex
100
AcDb2dVertex
 10
110.410006508716
 20
37.20465130409014
 30
0.0
 42
1.0
  0
SEQEND
  5
1A00
330
19FD
100
AcDbEntity
  8
LOGO
 62
     5
  0
POLYLINE
  5
1A01
330
1F
100
AcDbEntity
  8
LOGO
 62
     5
100
AcDb2dPolyline
 66
     1
 10
0.0
 20
0.0
 30
0.0
 70
     1
  0
VERTEX
  5
1A02
330
1A01
100
AcDbEntity
  8
LOGO
 62
     5
100
AcDbVertex
100
AcDb2dVertex
 10
107.9579338232572
 20
36.98819758154366
 30
0.0
 42
1.000000057330635
  0
VERTEX
  5
1A03
330
1A01
100
AcDbEntity
  8
LOGO
 62
     5
100
AcDbVertex
100
AcDb2dVertex
 10
109.2566561585315
 20
36.98819758154366
 30
0.0
 42
1.000000057330635
  0
SEQEND
  5
1A04
330
1A01
100
AcDbEntity
  8
LOGO
 62
     5
  0
CIRCLE
  5
1A05
330
1F
100
AcDbEntity
  8
LOGO
 62
     5
100
AcDbCircle
 10
108.6072949908954
 20
36.98819758154366
 30
0.0
 40
0.6493611676370824
  0
POLYLINE
  5
1A06
330
1F
100
AcDbEntity
  8
LOGO
 62
     5
100
AcDb2dPolyline
 66
     1
 10
0.0
 20
0.0
 30
0.0
 70
     1
 40
0.4336012070226244
 41
0.4336012070226244
  0
VERTEX
  5
1A07
330
1A06
100
AcDbEntity
  8
LOGO
 62
     5
100
AcDbVertex
100
AcDb2dVertex
 10
107.7400925768495
 20
36.98819758154366
 30
0.0
 42
1.0
  0
VERTEX
  5
1A08
330
1A06
100
AcDbEntity
  8
LOGO
 62
     5
100
AcDbVertex
100
AcDb2dVertex
 10
109.4744974049399
 20
36.98819758154366
 30
0.0
 42
1.0
  0
SEQEND
  5
1A09
330
1A06
100
AcDbEntity
  8
LOGO
 62
     5
  0
LINE
  5
1A0A
330
1F
100
AcDbEntity
  8
LOGO
100
AcDbLine
 10
111.9262232094322
 20
35.90592896881628
 30
0.0
 11
111.9262232094322
 21
37.20465130409014
 31
0.0
  0
SOLID
  5
1A0B
330
1F
100
AcDbEntity
  8
LOGO
 62
     5
100
AcDbTrace
 10
109.2566128677888
 20
38.07046619427217
 30
0.0
 11
109.6895203128793
 21
38.07046619427217
 31
0.0
 12
109.2566128677888
 22
35.90592896881628
 32
0.0
 13
109.6895203128793
 23
35.90592896881628
 33
0.0
  0
SOLID
  5
1A0C
330
1F
100
AcDbEntity
  8
LOGO
 62
     5
100
AcDbTrace
 10
110.1945934290668
 20
35.90592896881628
 30
0.0
 11
110.6275008741586
 21
35.90592896881628
 31
0.0
 12
110.1945934290668
 22
38.07046619427217
 32
0.0
 13
110.6275008741586
 23
38.07046619427217
 33
0.0
  0
SOLID
  5
1A0D
330
1F
100
AcDbEntity
  8
LOGO
 62
     5
100
AcDbTrace
 10
111.4933157643415
 20
37.20465130409014
 30
0.0
 11
111.9262232094322
 21
37.20465130409014
 31
0.0
 12
111.4933157643415
 22
35.90592896881628
 32
0.0
 13
111.9262232094322
 23
35.90592896881628
 33
0.0
  0
SOLID
  5
1A0E
330
1F
100
AcDbEntity
  8
LOGO
 62
     5
100
AcDbTrace
 10
110.1513026845575
 20
51.18756178054116
 30
0.0
 11
108.8958710937931
 21
46.58431261440284
 31
0.0
 12
110.1513026845575
 22
40.23500341972897
 32
0.0
 13
108.8958710937931
 23
40.23500341972897
 33
0.0
  0
SOLID
  5
1A0F
330
1F
100
AcDbEntity
  8
LOGO
 62
     5
100
AcDbTrace
 10
110.6707916186678
 20
40.23500341972897
 30
0.0
 11
111.9262232094322
 21
40.23500341972897
 31
0.0
 12
110.6707916186678
 22
52.13995815974215
 32
0.0
 13
111.9262232094322
 23
52.13995815974261
 33
0.0
  0
SOLID
  5
1A10
330
1F
100
AcDbEntity
  8
LOGO
 62
     2
100
AcDbTrace
 10
110.1513026845575
 20
52.13995815974261
 30
0.0
 11
110.6707916186678
 21
52.13995815974215
 31
0.0
 12
110.1513026845575
 22
40.23500341972897
 32
0.0
 13
110.6707916186678
 23
40.23500341972897
 33
0.0
  0
POLYLINE
  5
1A11
330
1F
100
AcDbEntity
  8
LOGO
 62
     5
100
AcDb2dPolyline
 66
     1
 10
0.0
 20
0.0
 30
0.0
 40
0.4336012070226244
 41
0.4336012070226244
  0
VERTEX
  5
1A12
330
1A11
100
AcDbEntity
  8
LOGO
 62
     5
100
AcDbVertex
100
AcDb2dVertex
 10
105.5057745563114
 20
37.20465130409014
 30
0.0
 42
1.0
  0
VERTEX
  5
1A13
330
1A11
100
AcDbEntity
  8
LOGO
 62
     5
100
AcDbVertex
100
AcDb2dVertex
 10
104.2049709352432
 20
37.20465130409014
 30
0.0
 42
1.0
  0
SEQEND
  5
1A14
330
1A11
100
AcDbEntity
  8
LOGO
 62
     5
  0
POLYLINE
  5
1A15
330
1F
100
AcDbEntity
  8
LOGO
 62
     5
100
AcDb2dPolyline
 66
     1
 10
0.0
 20
0.0
 30
0.0
 40
0.4336012070226244
 41
0.4336012070226244
  0
VERTEX
  5
1A16
330
1A15
100
AcDbEntity
  8
LOGO
 62
     5
100
AcDbVertex
100
AcDb2dVertex
 10
106.8044968915843
 20
37.20465130409014
 30
0.0
 42
1.0
  0
VERTEX
  5
1A17
330
1A15
100
AcDbEntity
  8
LOGO
 62
     5
100
AcDbVertex
100
AcDb2dVertex
 10
105.5036932705169
 20
37.20465130409014
 30
0.0
 42
1.0
  0
SEQEND
  5
1A18
330
1A15
100
AcDbEntity
  8
LOGO
 62
     5
  0
POLYLINE
  5
1A19
330
1F
100
AcDbEntity
  8
LOGO
 62
     5
100
AcDb2dPolyline
 66
     1
 10
0.0
 20
0.0
 30
0.0
 40
0.4336012070226244
 41
0.4336012070226244
  0
VERTEX
  5
1A1A
330
1A19
100
AcDbEntity
  8
LOGO
 62
     5
100
AcDbVertex
100
AcDb2dVertex
 10
100.5994613181115
 20
37.20465130409014
 30
0.0
 42
1.0
  0
VERTEX
  5
1A1B
330
1A19
100
AcDbEntity
  8
LOGO
 62
     5
100
AcDbVertex
100
AcDb2dVertex
 10
99.29865769704406
 20
37.20465130409014
 30
0.0
 42
1.0
  0
SEQEND
  5
1A1C
330
1A19
100
AcDbEntity
  8
LOGO
 62
     5
  0
SOLID
  5
1A1D
330
1F
100
AcDbEntity
  8
LOGO
 62
     5
100
AcDbTrace
 10
99.08324461739539
 20
38.07046619427217
 30
0.0
 11
99.51615206248584
 21
38.07046619427217
 31
0.0
 12
99.08324461739539
 22
35.90592896881628
 32
0.0
 13
99.51615206248584
 23
35.90592896881628
 33
0.0
  0
SOLID
  5
1A1E
330
1F
100
AcDbEntity
  8
LOGO
 62
     5
100
AcDbTrace
 10
100.3819669526697
 20
37.20465130409014
 30
0.0
 11
100.8148743977615
 21
37.20465130409014
 31
0.0
 12
100.3819669526697
 22
35.90592896881628
 32
0.0
 13
100.8148743977615
 23
35.90592896881628
 33
0.0
  0
POLYLINE
  5
1A1F
330
1F
100
AcDbEntity
  8
LOGO
 62
     5
100
AcDb2dPolyline
 66
     1
 10
0.0
 20
0.0
 30
0.0
 70
     1
 40
0.4336012070226244
 41
0.4336012070226244
  0
VERTEX
  5
1A20
330
1A1F
100
AcDbEntity
  8
LOGO
 62
     5
100
AcDbVertex
100
AcDb2dVertex
 10
101.5350570033761
 20
36.98819758154366
 30
0.0
 42
1.0
  0
VERTEX
  5
1A21
330
1A1F
100
AcDbEntity
  8
LOGO
 62
     5
100
AcDbVertex
100
AcDb2dVertex
 10
103.2694618314671
 20
36.98819758154366
 30
0.0
 42
1.0
  0
SEQEND
  5
1A22
330
1A1F
100
AcDbEntity
  8
LOGO
 62
     5
  0
SOLID
  5
1A23
330
1F
100
AcDbEntity
  8
LOGO
 62
     5
100
AcDbTrace
 10
103.0515772943147
 20
38.71982736191
 30
0.0
 11
103.4844847394059
 21
38.71982736191
 31
0.0
 12
103.0515772943147
 22
35.90592896881628
 32
0.0
 13
103.4844847394059
 23
35.90592896881628
 33
0.0
  0
SOLID
  5
1A24
330
1F
100
AcDbEntity
  8
LOGO
 62
     5
100
AcDbTrace
 10
103.9895578555952
 20
38.07046619427217
 30
0.0
 11
104.4224653006857
 21
38.07046619427217
 31
0.0
 12
103.9895578555952
 22
35.90592896881628
 32
0.0
 13
104.4224653006857
 23
35.90592896881628
 33
0.0
  0
SOLID
  5
1A25
330
1F
100
AcDbEntity
  8
LOGO
 62
     5
100
AcDbTrace
 10
105.2882801908681
 20
37.20465130409014
 30
0.0
 11
105.7211876359599
 21
37.20465130409014
 31
0.0
 12
105.2882801908681
 22
35.90592896881628
 32
0.0
 13
105.7211876359599
 23
35.90592896881628
 33
0.0
  0
SOLID
  5
1A26
330
1F
100
AcDbEntity
  8
LOGO
 62
     5
100
AcDbTrace
 10
106.5870025261424
 20
37.20465130409014
 30
0.0
 11
107.0199099712336
 21
37.20465130409014
 31
0.0
 12
106.5870025261424
 22
35.90592896881537
 32
0.0
 13
107.0199099712336
 23
35.90592896881537
 33
0.0
  0
SOLID
  5
1A27
330
1F
100
AcDbEntity
  8
LOGO
 62
     5
100
AcDbTrace
 10
98.14526405611548
 20
38.37350140583669
 30
0.0
 11
98.57817150120808
 21
38.37350140583669
 31
0.0
 12
98.14526405611548
 22
38.71982736191
 32
0.0
 13
98.57817150120808
 23
38.71982736191
 33
0.0
  0
SOLID
  5
1A28
330
1F
100
AcDbEntity
  8
LOGO
 62
     5
100
AcDbTrace
 10
98.14526405611548
 20
38.07046619427217
 30
0.0
 11
98.57817150120808
 21
38.07046619427217
 31
0.0
 12
98.14526405611548
 22
35.90592896881537
 32
0.0
 13
98.57817150120808
 23
35.90592896881628
 33
0.0
  0
SOLID
  5
1A29
330
1F
100
AcDbEntity
  8
LOGO
 62
     5
100
AcDbTrace
 10
102.4022594174213
 20
40.23500341972964
 30
0.0
 11
103.6576910081869
 21
40.23500341972964
 31
0.0
 12
102.4022594174213
 22
46.58431261440284
 32
0.0
 13
103.6576910081869
 23
51.18756178054116
 33
0.0
  0
SOLID
  5
1A2A
330
1F
100
AcDbEntity
  8
LOGO
 62
     5
100
AcDbTrace
 10
104.1771799422972
 20
52.13995815974215
 30
0.0
 11
105.4326115330616
 21
52.13995815974261
 31
0.0
 12
104.1771799422972
 22
41.18739979893064
 32
0.0
 13
105.4326115330616
 23
45.79064896506918
 33
0.0
  0
SOLID
  5
1A2B
330
1F
100
AcDbEntity
  8
LOGO
 62
     2
100
AcDbTrace
 10
103.6576910081869
 20
52.13995815974215
 30
0.0
 11
104.1771799422972
 21
52.13995815974215
 31
0.0
 12
103.6576910081869
 22
40.23500341972964
 32
0.0
 13
104.1771799422972
 23
40.23500341972964
 33
0.0
  0
SOLID
  5
1A2C
330
1F
100
AcDbEntity
  8
LOGO
 62
     5
100
AcDbTrace
 10
104.1771799422972
 20
41.18739979893064
 30
0.0
 11
105.4326115330616
 21
45.79064896506918
 31
0.0
 12
110.1513026845575
 22
52.13995815974261
 32
0.0
 13
108.8958710937931
 23
52.13995815974261
 33
0.0
  0
SOLID
  5
1A2D
330
1F
100
AcDbEntity
  8
LOGO
 62
     5
100
AcDbTrace
 10
104.1771799422972
 20
40.23500341972964
 30
0.0
 11
105.4326115330616
 21
40.23500341972964
 31
0.0
 12
110.1513026845575
 22
51.18756178054116
 32
0.0
 13
108.8958710937931
 23
46.58431261440284
 33
0.0
  0
SOLID
  5
1A2E
330
1F
100
AcDbEntity
  8
LOGO
 62
     2
100
AcDbTrace
 10
103.6576910081869
 20
40.23500341972964
 30
0.0
 11
104.1771799422972
 21
40.23500341972964
 31
0.0
 12
110.1513026845575
 22
52.13995815974261
 32
0.0
 13
110.6707916186678
 23
52.13995815974215
 33
0.0
  0
LINE
  5
1A2F
330
1F
100
AcDbEntity
  8
LOGO
 62
     4
100
AcDbLine
 10
210.4819586576787
 20
36.8600055298283
 30
0.0
 11
210.4819586576787
 21
26.21354732168232
 31
0.0
  0
LINE
  5
1A30
330
1F
100
AcDbEntity
  8
LOGO
 62
     4
100
AcDbLine
 10
196.7123341521193
 20
36.8600055298283
 30
0.0
 11
196.7123341521193
 21
26.21354732168232
 31
0.0
  0
LINE
  5
1A31
330
1F
100
AcDbEntity
  8
LOGO
 62
     4
100
AcDbLine
 10
210.4819586576787
 20
26.21354732168232
 30
0.0
 11
196.7123341521193
 21
26.21354732168232
 31
0.0
  0
LINE
  5
1A32
330
1F
100
AcDbEntity
  8
LOGO
 62
     4
100
AcDbLine
 10
219.749183990233
 20
49.92611333073217
 30
0.0
 11
196.7123341521193
 21
49.92611333073217
 31
0.0
  0
LINE
  5
1A33
330
1F
100
AcDbEntity
  8
LOGO
 62
     4
100
AcDbLine
 10
219.749183990233
 20
41.2153747967958
 30
0.0
 11
196.7123341521193
 21
41.2153747967958
 31
0.0
  0
LINE
  5
1A34
330
1F
100
AcDbEntity
  8
LOGO
 62
     4
100
AcDbLine
 10
196.7123341521193
 20
49.92611333073217
 30
0.0
 11
196.7123341521193
 21
41.2153747967958
 31
0.0
  0
LINE
  5
1A35
330
1F
100
AcDbEntity
  8
LOGO
 62
     4
100
AcDbLine
 10
219.749183990233
 20
49.92611333073217
 30
0.0
 11
219.749183990233
 21
41.2153747967958
 31
0.0
  0
LINE
  5
1A36
330
1F
100
AcDbEntity
  8
LOGO
 62
     4
100
AcDbLine
 10
207.4008920003594
 20
41.2153747967958
 30
0.0
 11
207.4008920003594
 21
36.8600055298283
 31
0.0
  0
TEXT
  5
1A37
330
1F
100
AcDbEntity
  8
LOGO
  6
Continuous
 62
     7
100
AcDbText
 10
198.2600959672019
 20
43.03372873065711
 30
0.0
 40
5.082000000000001
  1
MVAA
  7
CHINESET
100
AcDbText
  0
LINE
  5
1A38
330
1F
100
AcDbEntity
  8
LOGO
 62
     4
100
AcDbLine
 10
210.4819586576787
 20
36.8600055298283
 30
0.0
 11
196.7123341521193
 21
36.8600055298283
 31
0.0
  0
TEXT
  5
1A39
330
1F
100
AcDbEntity
  8
LOGO
  6
Continuous
100
AcDbText
 10
199.2151464165241
 20
27.71627232142293
 30
190.2958178035923
 40
2.177999999999999
  1
Model
 41
0.8
  7
CHINESET
100
AcDbText
  0
TEXT
  5
1A3A
330
1F
100
AcDbEntity
  8
LOGO
100
AcDbText
 10
198.6354336189494
 20
31.75381492892223
 30
190.2958178035923
 40
3.63
  1
型號
  7
CHINESET
100
AcDbText
  0
LINE
  5
1A3B
330
1F
100
AcDbEntity
  8
LOGO
  6
Continuous
 62
     7
100
AcDbLine
 10
220.6752074896534
 20
45.53988925125475
 30
0.0
 11
224.5215517855136
 21
45.53988925125475
 31
0.0
  0
LINE
  5
1A3C
330
1F
100
AcDbEntity
  8
LOGO
 62
     4
100
AcDbLine
 10
230.3872783202852
 20
36.8600055298283
 30
0.0
 11
230.3872783202852
 21
26.21354732168232
 31
0.0
  0
LINE
  5
1A3D
330
1F
100
AcDbEntity
  8
LOGO
 62
     4
100
AcDbLine
 10
212.7503467868379
 20
36.8600055298283
 30
0.0
 11
212.7503467868379
 21
26.21354732168232
 31
0.0
  0
LINE
  5
1A3E
330
1F
100
AcDbEntity
  8
LOGO
 62
     4
100
AcDbLine
 10
230.3872783202852
 20
26.21354732168232
 30
0.0
 11
212.7503467868379
 21
26.21354732168232
 31
0.0
  0
LINE
  5
1A3F
330
1F
100
AcDbEntity
  8
LOGO
 62
     4
100
AcDbLine
 10
236.1833903670888
 20
49.92611333073217
 30
0.0
 11
225.7348706579498
 21
49.92611333073217
 31
0.0
  0
LINE
  5
1A40
330
1F
100
AcDbEntity
  8
LOGO
 62
     4
100
AcDbLine
 10
236.1833903670888
 20
41.2153747967958
 30
0.0
 11
225.7348706579498
 21
41.2153747967958
 31
0.0
  0
LINE
  5
1A41
330
1F
100
AcDbEntity
  8
LOGO
 62
     4
100
AcDbLine
 10
225.7348706579498
 20
49.92611333073217
 30
0.0
 11
225.7348706579498
 21
41.2153747967958
 31
0.0
  0
LINE
  5
1A42
330
1F
100
AcDbEntity
  8
LOGO
 62
     4
100
AcDbLine
 10
236.1833903670888
 20
49.92611333073217
 30
0.0
 11
236.1833903670888
 21
41.2153747967958
 31
0.0
  0
LINE
  5
1A43
330
1F
100
AcDbEntity
  8
LOGO
 62
     4
100
AcDbLine
 10
230.9591305125195
 20
41.2153747967958
 30
0.0
 11
230.9591305125195
 21
39.03769016331205
 31
0.0
  0
TEXT
  5
1A44
330
1F
100
AcDbEntity
  8
LOGO
  6
Continuous
 62
     7
100
AcDbText
 10
227.1508606213082
 20
43.03372873065711
 30
0.0
 40
5.082000000000001
  1
460
  7
CHINESET
100
AcDbText
  0
LINE
  5
1A45
330
1F
100
AcDbEntity
  8
LOGO
 62
     4
100
AcDbLine
 10
230.3872783202852
 20
36.8600055298283
 30
0.0
 11
212.7503467868379
 21
36.8600055298283
 31
0.0
  0
LINE
  5
1A46
330
1F
100
AcDbEntity
  8
LOGO
  6
Continuous
 62
     7
100
AcDbLine
 10
242.0734428669312
 20
45.53988925125475
 30
0.0
 11
245.9197871627917
 21
45.53988925125475
 31
0.0
  0
LINE
  5
1A47
330
1F
100
AcDbEntity
  8
LOGO
 62
     4
100
AcDbLine
 10
247.2898054511747
 20
36.8600055298283
 30
0.0
 11
247.2898054511747
 21
26.21354732168232
 31
0.0
  0
LINE
  5
1A48
330
1F
100
AcDbEntity
  8
LOGO
 62
     4
100
AcDbLine
 10
232.7491692680987
 20
36.8600055298283
 30
0.0
 11
232.7491692680987
 21
26.21354732168232
 31
0.0
  0
LINE
  5
1A49
330
1F
100
AcDbEntity
  8
LOGO
 62
     4
100
AcDbLine
 10
247.2898054511747
 20
26.21354732168232
 30
0.0
 11
232.7491692680987
 21
26.21354732168232
 31
0.0
  0
LINE
  5
1A4A
330
1F
100
AcDbEntity
  8
LOGO
 62
     4
100
AcDbLine
 10
253.316712942712
 20
49.92611333073217
 30
0.0
 11
247.1331060352277
 21
49.92611333073217
 31
0.0
  0
LINE
  5
1A4B
330
1F
100
AcDbEntity
  8
LOGO
 62
     4
100
AcDbLine
 10
253.316712942712
 20
41.2153747967958
 30
0.0
 11
247.1331060352277
 21
41.2153747967958
 31
0.0
  0
LINE
  5
1A4C
330
1F
100
AcDbEntity
  8
LOGO
 62
     4
100
AcDbLine
 10
247.1331060352277
 20
49.92611333073217
 30
0.0
 11
247.1331060352277
 21
41.2153747967958
 31
0.0
  0
LINE
  5
1A4D
330
1F
100
AcDbEntity
  8
LOGO
 62
     4
100
AcDbLine
 10
253.316712942712
 20
49.92611333073217
 30
0.0
 11
253.316712942712
 21
41.2153747967958
 31
0.0
  0
LINE
  5
1A4E
330
1F
100
AcDbEntity
  8
LOGO
 62
     4
100
AcDbLine
 10
250.2249094889698
 20
41.2153747967958
 30
0.0
 11
250.2249094889698
 21
39.03769016331205
 31
0.0
  0
TEXT
  5
1A4F
330
1F
100
AcDbEntity
  8
LOGO
  6
Continuous
 62
     7
100
AcDbText
 10
248.2924820415955
 20
43.03372873065711
 30
0.0
 40
5.082000000000001
  1
3
  7
CHINESET
100
AcDbText
  0
LINE
  5
1A50
330
1F
100
AcDbEntity
  8
LOGO
 62
     4
100
AcDbLine
 10
247.2898054511747
 20
36.8600055298283
 30
0.0
 11
232.7491692680987
 21
36.8600055298283
 31
0.0
  0
LINE
  5
1A51
330
1F
100
AcDbEntity
  8
LOGO
 62
     4
100
AcDbLine
 10
277.0519795460707
 20
36.8600055298283
 30
0.0
 11
277.0519795460707
 21
26.21354732168232
 31
0.0
  0
LINE
  5
1A52
330
1F
100
AcDbEntity
  8
LOGO
 62
     4
100
AcDbLine
 10
250.2387026555374
 20
36.8600055298283
 30
0.0
 11
250.2387026555374
 21
26.21354732168232
 31
0.0
  0
LINE
  5
1A53
330
1F
100
AcDbEntity
  8
LOGO
 62
     4
100
AcDbLine
 10
277.0519795460707
 20
26.21354732168232
 30
0.0
 11
250.2387026555374
 21
26.21354732168232
 31
0.0
  0
LINE
  5
1A54
330
1F
100
AcDbEntity
  8
LOGO
 62
     4
100
AcDbLine
 10
266.5142771349215
 20
49.92611333073217
 30
0.0
 11
255.0218241827276
 21
49.92611333073217
 31
0.0
  0
LINE
  5
1A55
330
1F
100
AcDbEntity
  8
LOGO
 62
     4
100
AcDbLine
 10
266.5142771349215
 20
41.2153747967958
 30
0.0
 11
255.0218241827276
 21
41.2153747967958
 31
0.0
  0
LINE
  5
1A56
330
1F
100
AcDbEntity
  8
LOGO
 62
     4
100
AcDbLine
 10
255.0218241827276
 20
49.92611333073217
 30
0.0
 11
255.0218241827276
 21
41.2153747967958
 31
0.0
  0
LINE
  5
1A57
330
1F
100
AcDbEntity
  8
LOGO
 62
     4
100
AcDbLine
 10
266.5142771349215
 20
49.92611333073217
 30
0.0
 11
266.5142771349215
 21
41.2153747967958
 31
0.0
  0
LINE
  5
1A58
330
1F
100
AcDbEntity
  8
LOGO
 62
     4
100
AcDbLine
 10
260.7680506588247
 20
41.2153747967958
 30
0.0
 11
260.7680506588247
 21
36.8600055298283
 31
0.0
  0
TEXT
  5
1A59
330
1F
100
AcDbEntity
  8
LOGO
  6
Continuous
 62
     7
100
AcDbText
 10
257.0778313136484
 20
43.03372873065711
 30
0.0
 40
5.082000000000001
  1
A1
  7
CHINESET
100
AcDbText
  0
LINE
  5
1A5A
330
1F
100
AcDbEntity
  8
LOGO
 62
     4
100
AcDbLine
 10
277.0519795460707
 20
36.8600055298283
 30
0.0
 11
250.2387026555374
 21
36.8600055298283
 31
0.0
  0
TEXT
  5
1A5B
330
1F
100
AcDbEntity
  8
LOGO
  6
Continuous
100
AcDbText
 10
214.1341729884882
 20
27.71627232142293
 30
190.2958178035923
 40
2.177999999999999
  1
Body width
 41
0.8
  7
CHINESET
100
AcDbText
  0
TEXT
  5
1A5C
330
1F
100
AcDbEntity
  8
LOGO
100
AcDbText
 10
214.1136554741416
 20
31.75381492892223
 30
190.2958178035923
 40
3.63
  1
本體寬度
  7
CHINESET
100
AcDbText
  0
TEXT
  5
1A5D
330
1F
100
AcDbEntity
  8
LOGO
  6
Continuous
100
AcDbText
 10
235.6636063571074
 20
27.71627232142293
 30
190.2958178035923
 40
2.177999999999999
  1
3 Way
 41
0.8
  7
CHINESET
100
AcDbText
  0
TEXT
  5
1A5E
330
1F
100
AcDbEntity
  8
LOGO
100
AcDbText
 10
234.6793721096743
 20
31.75381492892223
 30
190.2958178035923
 40
3.63
  1
3方向
  7
CHINESET
100
AcDbText
  0
TEXT
  5
1A5F
330
1F
100
AcDbEntity
  8
LOGO
  6
Continuous
100
AcDbText
 10
251.8178996748259
 20
27.71627232142293
 30
190.2958178035923
 40
2.177999999999999
  1
Single air operate
 41
0.8
  7
CHINESET
100
AcDbText
  0
TEXT
  5
1A60
330
1F
100
AcDbEntity
  8
LOGO
100
AcDbText
 10
251.9037991618116
 20
31.75381492892223
 30
190.2958178035923
 40
3.63
  1
單動氣壓引導
  7
CHINESET
100
AcDbText
  0
TEXT
  5
1A61
330
1F
100
AcDbEntity
  8
LOGO
100
AcDbText
 10
158.3622163265038
 20
25.33859056869608
 30
0.0
 40
2.904
  1
10703281
 41
0.7
  7
CHINESET
 72
     1
 11
165.1866163265037
 21
25.33859056869608
 31
0.0
100
AcDbText
  0
LINE
  5
1A62
330
1F
100
AcDbEntity
  8
LOGO
 62
     4
100
AcDbLine
 10
174.1988866480252
 20
29.60105675154762
 30
0.0
 11
174.1988866480264
 21
23.79389772892307
 31
0.0
  0
LINE
  5
1A63
330
1F
100
AcDbEntity
  8
LOGO
 62
     4
100
AcDbLine
 10
174.1988866480252
 20
29.60105675154762
 30
0.0
 11
156.7748866480265
 21
29.60105675154762
 31
0.0
  0
CIRCLE
  5
1A64
330
1F
100
AcDbEntity
  8
LOGO
  6
Continuous
100
AcDbCircle
 10
142.7940305451236
 20
44.12516508593069
 30
0.0
 40
1.685886606825557
  0
CIRCLE
  5
1A65
330
1F
100
AcDbEntity
  8
LOGO
  6
Continuous
100
AcDbCircle
 10
142.7940305451236
 20
44.12516508593069
 30
0.0
 40
0.9877803085024471
  0
LINE
  5
1A66
330
1F
100
AcDbEntity
  8
LOGO
100
AcDbLine
 10
153.3883376044248
 20
42.4392784791047
 30
0.0
 11
153.3883376044248
 21
45.81105169275668
 31
0.0
  0
LINE
  5
1A67
330
1F
100
AcDbEntity
  8
LOGO
100
AcDbLine
 10
148.1031798665357
 20
43.13738477742856
 30
0.0
 11
148.1031798665357
 21
45.11294539443349
 31
0.0
  0
LINE
  5
1A68
330
1F
100
AcDbEntity
  8
LOGO
  6
Continuous
100
AcDbLine
 10
148.1031798665357
 20
45.11294539443349
 30
0.0
 11
153.3883376044248
 21
45.81105169275668
 31
0.0
  0
LINE
  5
1A69
330
1F
100
AcDbEntity
  8
LOGO
  6
Continuous
100
AcDbLine
 10
148.1031798665357
 20
43.13738477742856
 30
0.0
 11
153.3883376044248
 21
42.4392784791047
 31
0.0
  0
LINE
  5
1A6A
330
1F
100
AcDbEntity
  8
LOGO
  6
AM_ISO08W050x2
 48
0.3
100
AcDbLine
 10
140.4700106134505
 20
44.12516508593069
 30
0.0
 11
145.1180504767967
 21
44.12516508593069
 31
0.0
1001
GENIUS_GENOREF_13
1005
1A73
  0
LINE
  5
1A6B
330
1F
100
AcDbEntity
  8
LOGO
  6
AM_ISO08W050x2
 48
0.3
100
AcDbLine
 10
142.7940305451236
 20
41.80114515425737
 30
0.0
 11
142.7940305451236
 21
46.44918501760378
 31
0.0
1001
GENIUS_GENOREF_13
1005
1A72
  0
LINE
  5
1A6C
330
1F
100
AcDbEntity
  8
LOGO
  6
CENTER
 48
0.5
100
AcDbLine
 10
147.6805141477764
 20
44.12516508593069
 30
0.0
 11
153.9205358796924
 21
44.12516508593069
 31
0.0
1001
GENIUS_GENOREF_13
1005
1A71
  0
LINE
  5
1A6D
330
1F
100
AcDbEntity
  8
LOGO
 62
     4
100
AcDbLine
 10
230.9591305125195
 20
39.03769016331205
 30
0.0
 11
221.5688125535612
 21
39.03769016331205
 31
0.0
  0
LINE
  5
1A6E
330
1F
100
AcDbEntity
  8
LOGO
 62
     4
100
AcDbLine
 10
221.5688125535612
 20
36.8600055298283
 30
0.0
 11
221.5688125535612
 21
39.03769016331205
 31
0.0
  0
LINE
  5
1A6F
330
1F
100
AcDbEntity
  8
LOGO
 62
     4
100
AcDbLine
 10
250.2249094889698
 20
39.03769016331205
 30
0.0
 11
240.0194873596371
 21
39.03769016331205
 31
0.0
  0
LINE
  5
1A70
330
1F
100
AcDbEntity
  8
LOGO
 62
     4
100
AcDbLine
 10
240.0194873596371
 20
36.8600055298283
 30
0.0
 11
240.0194873596371
 21
39.03769016331205
 31
0.0
  0
POINT
  5
1A71
330
1F
100
AcDbEntity
  8
0
 60
     1
100
AcDbPoint
 10
-1688.93873343229
 20
-999.2422785812193
 30
0.0
1001
GENIUS_GENOBJ-N-CRS_13
1002
{
1000
OWNER
1000
GEN
1002
}
1001
GENIUS_GENOLIS_13
1002
{
1000
ENT
1005
0
1005
0
1005
0
1005
1A6C
1002
}
1001
GENIUS_GENOENT_13
1002
{
1000
MYREF
1005
1A71
1002
}
1002
{
1000
GRP
1005
0
1002
}
1001
GENIUS_GENODEF_13
1002
{
1000
HIER
1070
    10
1002
}
1002
{
1000
MANEDIT
1070
     1
1002
}
1002
{
1000
NOSEL
1070
     0
1002
}
1002
{
1000
BEHIND
1070
     0
1002
}
1002
{
1000
OTHER
1070
     0
1002
}
1002
{
1000
REACTOR
1002
}
  0
POINT
  5
1A72
330
1F
100
AcDbEntity
  8
0
 60
     1
100
AcDbPoint
 10
-1700.263318655145
 20
-990.3666921025831
 30
0.0
1001
GENIUS_GENOBJ-N-CRS_13
1002
{
1000
OWNER
1000
GEN
1002
}
1001
GENIUS_GENOLIS_13
1002
{
1000
ENT
1005
0
1005
0
1005
0
1005
1A6B
1002
}
1001
GENIUS_GENOENT_13
1002
{
1000
MYREF
1005
1A72
1002
}
1002
{
1000
GRP
1005
0
1002
}
1001
GENIUS_GENODEF_13
1002
{
1000
HIER
1070
    10
1002
}
1002
{
1000
MANEDIT
1070
     1
1002
}
1002
{
1000
NOSEL
1070
     0
1002
}
1002
{
1000
BEHIND
1070
     0
1002
}
1002
{
1000
OTHER
1070
     0
1002
}
1002
{
1000
REACTOR
1002
}
  0
POINT
  5
1A73
330
1F
100
AcDbEntity
  8
0
 60
     1
100
AcDbPoint
 10
-1693.904644957308
 20
-999.2422785812193
 30
0.0
1001
GENIUS_GENOBJ-N-CRS_13
1002
{
1000
OWNER
1000
GEN
1002
}
1001
GENIUS_GENOLIS_13
1002
{
1000
ENT
1005
0
1005
0
1005
0
1005
1A6A
1002
}
1001
GENIUS_GENOENT_13
1002
{
1000
MYREF
1005
1A73
1002
}
1002
{
1000
GRP
1005
0
1002
}
1001
GENIUS_GENODEF_13
1002
{
1000
HIER
1070
    10
1002
}
1002
{
1000
MANEDIT
1070
     1
1002
}
1002
{
1000
NOSEL
1070
     0
1002
}
1002
{
1000
BEHIND
1070
     0
1002
}
1002
{
1000
OTHER
1070
     0
1002
}
1002
{
1000
REACTOR
1002
}
  0
LINE
  5
1AB9
330
1F
100
AcDbEntity
  8
LOGO
  6
Continuous
 62
     7
100
AcDbLine
 10
267.7356693951368
 20
45.53988925125475
 30
0.0
 11
271.5820136909972
 21
45.53988925125475
 31
0.0
  0
LINE
  5
1ABA
330
1F
100
AcDbEntity
  8
LOGO
 62
     4
100
AcDbLine
 10
284.521707108446
 20
49.92611333073217
 30
0.0
 11
272.7953325634333
 21
49.92611333073217
 31
0.0
  0
LINE
  5
1ABB
330
1F
100
AcDbEntity
  8
LOGO
 62
     4
100
AcDbLine
 10
284.521707108446
 20
41.2153747967958
 30
0.0
 11
272.7953325634333
 21
41.2153747967958
 31
0.0
  0
LINE
  5
1ABC
330
1F
100
AcDbEntity
  8
LOGO
 62
     4
100
AcDbLine
 10
272.7953325634333
 20
49.92611333073217
 30
0.0
 11
272.7953325634333
 21
41.2153747967958
 31
0.0
  0
LINE
  5
1ABD
330
1F
100
AcDbEntity
  8
LOGO
 62
     4
100
AcDbLine
 10
284.521707108446
 20
49.92611333073217
 30
0.0
 11
284.521707108446
 21
41.2153747967958
 31
0.0
  0
TEXT
  5
1ABE
330
1F
100
AcDbEntity
  8
LOGO
  6
Continuous
 62
     7
100
AcDbText
 10
273.954708569801
 20
43.03372873065711
 30
0.0
 40
5.082000000000001
  1
NC
  7
CHINESET
100
AcDbText
  0
LINE
  5
1AC0
330
1F
100
AcDbEntity
  8
LOGO
 62
     4
100
AcDbLine
 10
278.6585198359396
 20
41.2153747967958
 30
0.0
 11
278.6585198359396
 21
39.03769016331205
 31
0.0
  0
LINE
  5
1AC1
330
1F
100
AcDbEntity
  8
LOGO
 62
     4
100
AcDbLine
 10
278.6585198359396
 20
39.03769016331205
 30
0.0
 11
290.6506166660916
 21
39.03769016331205
 31
0.0
  0
LINE
  5
1AC2
330
1F
100
AcDbEntity
  8
LOGO
 62
     4
100
AcDbLine
 10
277.0519795460707
 20
36.8600055298283
 30
0.0
 11
277.0519795460707
 21
26.21354732168232
 31
0.0
  0
LINE
  5
1AC3
330
1F
100
AcDbEntity
  8
LOGO
 62
     4
100
AcDbLine
 10
250.2387026555374
 20
36.8600055298283
 30
0.0
 11
250.2387026555374
 21
26.21354732168232
 31
0.0
  0
LINE
  5
1AC4
330
1F
100
AcDbEntity
  8
LOGO
 62
     4
100
AcDbLine
 10
277.0519795460707
 20
26.21354732168232
 30
0.0
 11
250.2387026555374
 21
26.21354732168232
 31
0.0
  0
LINE
  5
1AC5
330
1F
100
AcDbEntity
  8
LOGO
 62
     4
100
AcDbLine
 10
277.0519795460707
 20
36.8600055298283
 30
0.0
 11
250.2387026555374
 21
36.8600055298283
 31
0.0
  0
TEXT
  5
1AC6
330
1F
100
AcDbEntity
  8
LOGO
  6
Continuous
100
AcDbText
 10
251.8178996748259
 20
27.71627232142293
 30
190.2958178035923
 40
2.177999999999999
  1
Single air operate
 41
0.8
  7
CHINESET
100
AcDbText
  0
TEXT
  5
1AC7
330
1F
100
AcDbEntity
  8
LOGO
100
AcDbText
 10
251.9037991618116
 20
31.75381492892223
 30
190.2958178035923
 40
3.63
  1
單動氣壓引導
  7
CHINESET
100
AcDbText
  0
LINE
  5
1AC8
330
1F
100
AcDbEntity
  8
LOGO
 62
     4
100
AcDbLine
 10
301.3545483131254
 20
36.8600055298283
 30
0.0
 11
301.3545483131254
 21
26.21354732168232
 31
0.0
  0
LINE
  5
1AC9
330
1F
100
AcDbEntity
  8
LOGO
 62
     4
100
AcDbLine
 10
279.9466850190578
 20
36.8600055298283
 30
0.0
 11
279.9466850190578
 21
26.21354732168232
 31
0.0
  0
LINE
  5
1ACA
330
1F
100
AcDbEntity
  8
LOGO
 62
     4
100
AcDbLine
 10
301.3545483131254
 20
26.21354732168232
 30
0.0
 11
279.9466850190578
 21
26.21354732168232
 31
0.0
  0
LINE
  5
1ACB
330
1F
100
AcDbEntity
  8
LOGO
 62
     4
100
AcDbLine
 10
301.3545483131254
 20
36.8600055298283
 30
0.0
 11
279.9466850190578
 21
36.8600055298283
 31
0.0
  0
TEXT
  5
1ACC
330
1F
100
AcDbEntity
  8
LOGO
  6
Continuous
100
AcDbText
 10
281.5258820383462
 20
27.71627232142293
 30
190.2958178035923
 40
2.177999999999999
  1
Normal closed
 41
0.8
  7
CHINESET
100
AcDbText
  0
TEXT
  5
1ACD
330
1F
100
AcDbEntity
  8
LOGO
100
AcDbText
 10
285.3124110583778
 20
31.75381492892223
 30
190.2958178035923
 40
3.63
  1
常閉型
  7
CHINESET
100
AcDbText
  0
LINE
  5
1ACE
330
1F
100
AcDbEntity
  8
LOGO
 62
     4
100
AcDbLine
 10
301.3545483131254
 20
36.8600055298283
 30
0.0
 11
301.3545483131254
 21
26.21354732168232
 31
0.0
  0
LINE
  5
1ACF
330
1F
100
AcDbEntity
  8
LOGO
 62
     4
100
AcDbLine
 10
279.9466850190578
 20
36.8600055298283
 30
0.0
 11
279.9466850190578
 21
26.21354732168232
 31
0.0
  0
LINE
  5
1AD0
330
1F
100
AcDbEntity
  8
LOGO
 62
     4
100
AcDbLine
 10
301.3545483131254
 20
26.21354732168232
 30
0.0
 11
279.9466850190578
 21
26.21354732168232
 31
0.0
  0
LINE
  5
1AD1
330
1F
100
AcDbEntity
  8
LOGO
 62
     4
100
AcDbLine
 10
301.3545483131254
 20
36.8600055298283
 30
0.0
 11
279.9466850190578
 21
36.8600055298283
 31
0.0
  0
LINE
  5
1AD9
330
1F
100
AcDbEntity
  8
LOGO
 62
     4
100
AcDbLine
 10
290.6506166660916
 20
36.8600055298283
 30
0.0
 11
290.6506166660916
 21
39.03769016331205
 31
0.0
  0
ENDSEC
  0
SECTION
  2
OBJECTS
  0
DICTIONARY
  5
C
330
0
100
AcDbDictionary
281
     1
  3
ACAD_COLOR
350
BE
  3
ACAD_GROUP
350
D
  3
ACAD_LAYOUT
350
1A
  3
ACAD_MATERIAL
350
BD
  3
ACAD_MLINESTYLE
350
17
  3
ACAD_PLOTSETTINGS
350
19
  3
ACAD_PLOTSTYLENAME
350
E
  3
ACAD_TABLESTYLE
350
11A
  3
ACDBHEADERROUNDTRIPXREC
350
1B68
  3
AcDbVariableDictionary
350
94
  3
AcmDictionary
350
5B
  3
AMG
350
41
  3
AMGSNAPSETTINGS
350
1B8
  3
DWGPROPS
350
1B67
  0
DICTIONARY
  5
3F9
330
2
100
AcDbDictionary
280
     1
281
     1
  3
ACAD_LAYERFILTERS
360
5B7
  3
ACAD_LAYERSTATES
360
A82
  3
ACLYDICTIONARY
360
5B6
  0
DICTIONARY
  5
8F
330
1F
100
AcDbDictionary
280
     1
281
     1
  0
DICTIONARY
  5
1655
330
1648
100
AcDbDictionary
280
     1
281
     1
  3
ACAD_DIMASSOC
360
1656
  0
DICTIONARY
  5
167B
330
166E
100
AcDbDictionary
280
     1
281
     1
  3
ACAD_DIMASSOC
360
167C
  0
DICTIONARY
  5
16F1
330
16E4
100
AcDbDictionary
280
     1
281
     1
  3
ACAD_DIMASSOC
360
16F2
  0
DICTIONARY
  5
1717
330
170A
100
AcDbDictionary
280
     1
281
     1
  3
ACAD_DIMASSOC
360
1718
  0
DICTIONARY
  5
173D
330
1730
100
AcDbDictionary
280
     1
281
     1
  3
ACAD_DIMASSOC
360
173E
  0
DICTIONARY
  5
1763
330
1756
100
AcDbDictionary
280
     1
281
     1
  3
ACAD_DIMASSOC
360
1764
  0
DICTIONARY
  5
1789
330
177C
100
AcDbDictionary
280
     1
281
     1
  3
ACAD_DIMASSOC
360
178A
  0
DICTIONARY
  5
17B1
330
17A2
100
AcDbDictionary
280
     1
281
     1
  3
ACAD_DIMASSOC
360
17B2
  0
DICTIONARY
  5
17D9
330
17CC
100
AcDbDictionary
280
     1
281
     1
  3
ACAD_DIMASSOC
360
17DA
  0
DICTIONARY
  5
17FF
330
17F2
100
AcDbDictionary
280
     1
281
     1
  3
ACAD_DIMASSOC
360
1800
  0
DICTIONARY
  5
1825
330
1818
100
AcDbDictionary
280
     1
281
     1
  3
ACAD_DIMASSOC
360
1826
  0
DICTIONARY
  5
184B
330
183E
100
AcDbDictionary
280
     1
281
     1
  3
ACAD_DIMASSOC
360
184C
  0
DICTIONARY
  5
18FD
330
18F1
100
AcDbDictionary
280
     1
281
     1
  3
ACAD_DIMASSOC
360
18FE
  0
DICTIONARY
  5
192A
330
1921
100
AcDbDictionary
280
     1
281
     1
  3
ACAD_DIMASSOC
360
192B
  0
DICTIONARY
  5
BE
102
{ACAD_REACTORS
330
C
102
}
330
C
100
AcDbDictionary
281
     1
  0
DICTIONARY
  5
D
102
{ACAD_REACTORS
330
C
102
}
330
C
100
AcDbDictionary
281
     1
  0
DICTIONARY
  5
1A
102
{ACAD_REACTORS
330
C
102
}
330
C
100
AcDbDictionary
281
     1
  3
Model
350
22
  3
配置1
350
1E
  3
配置2
350
26
  0
DICTIONARY
  5
BD
102
{ACAD_REACTORS
330
C
102
}
330
C
100
AcDbDictionary
281
     1
  0
DICTIONARY
  5
17
102
{ACAD_REACTORS
330
C
102
}
330
C
100
AcDbDictionary
281
     1
  3
Standard
350
18
  0
DICTIONARY
  5
19
102
{ACAD_REACTORS
330
C
102
}
330
C
100
AcDbDictionary
281
     1
  0
ACDBDICTIONARYWDFLT
  5
E
102
{ACAD_REACTORS
330
C
102
}
330
C
100
AcDbDictionary
281
     1
  3
Normal
350
F
100
AcDbDictionaryWithDefault
340
F
  0
DICTIONARY
  5
11A
102
{ACAD_REACTORS
330
C
102
}
330
C
100
AcDbDictionary
281
     1
  3
Standard
350
11B
  0
DICTIONARY
  5
1B68
102
{ACAD_REACTORS
330
C
102
}
330
C
100
AcDbDictionary
281
     1
  0
DICTIONARY
  5
94
102
{ACAD_REACTORS
330
C
102
}
330
C
100
AcDbDictionary
281
     1
  3
CTABLESTYLE
350
138
  3
DIMASSOC
350
96
  3
INDEXCTL
350
95
  3
PROJECTNAME
350
1B65
  0
DICTIONARY
  5
5B
102
{ACAD_REACTORS
330
C
102
}
330
C
100
AcDbDictionary
281
     1
  3
AcmBOM
350
1B5
  3
AcmStdDictionary
350
61
  3
AMDTSECTSYM_ARROWCOLOR
350
123
  0
DICTIONARY
  5
41
102
{ACAD_REACTORS
330
C
102
}
330
C
100
AcDbDictionary
281
     1
  0
DICTIONARY
  5
1B8
102
{ACAD_REACTORS
330
C
102
}
330
C
100
AcDbDictionary
281
     1
  0
XRECORD
  5
1B67
102
{ACAD_REACTORS
330
C
102
}
330
C
100
AcDbXrecord
280
     1
  1
DWGPROPS COOKIE
  2

  3

  4

  6

  7

  8

  9

300
AmdtFileType=84
301
=
302
=
303
=
304
=
305
=
306
=
307
=
308
=
309
=
 40
0.0147925694444445
 41
2454188.453189016
 42
2454188.474036817
  1

 90
        1
  0
DICTIONARY
  5
5B7
102
{ACAD_REACTORS
330
3F9
102
}
330
3F9
100
AcDbDictionary
281
     1
  0
DICTIONARY
  5
A82
102
{ACAD_REACTORS
330
3F9
102
}
330
3F9
100
AcDbDictionary
281
     1
  0
DICTIONARY
  5
5B6
102
{ACAD_REACTORS
330
3F9
102
}
330
3F9
100
AcDbDictionary
281
     1
1001
ACAD
1000
<All
  0
DIMASSOC
  5
1656
102
{ACAD_REACTORS
330
1655
102
}
330
1655
100
AcDbDimAssoc
330
1648
 90
        3
 70
     0
 71
     0
  1
AcDbOsnapPointRef
 72
     1
331
E4C
 73
     0
 91
        0
 40
0.0
 10
0.0
 20
0.0
 30
2.000000000000000E+50
 75
     0
  1
AcDbOsnapPointRef
 72
     1
331
E3A
 73
     0
 91
        0
 40
0.0
 10
0.0
 20
0.0
 30
2.000000000000000E+50
 75
     0
  0
DIMASSOC
  5
167C
102
{ACAD_REACTORS
330
167B
102
}
330
167B
100
AcDbDimAssoc
330
166E
 90
        3
 70
     0
 71
     0
  1
AcDbOsnapPointRef
 72
    13
331
C95
 73
     0
 91
        0
 40
0.0
 10
0.0
 20
0.0
 30
2.000000000000000E+50
 75
     0
  1
AcDbOsnapPointRef
 72
    13
331
C90
 73
     0
 91
        0
 40
0.0
 10
0.0
 20
0.0
 30
2.000000000000000E+50
 75
     0
  0
DIMASSOC
  5
16F2
102
{ACAD_REACTORS
330
16F1
102
}
330
16F1
100
AcDbDimAssoc
330
16E4
 90
        3
 70
     0
 71
     0
  1
AcDbOsnapPointRef
 72
    13
331
C97
 73
     0
 91
        0
 40
0.0
 10
0.0
 20
0.0
 30
2.000000000000000E+50
 75
     0
  1
AcDbOsnapPointRef
 72
     1
331
E4D
 73
     0
 91
        0
 40
0.0
 10
0.0
 20
0.0
 30
2.000000000000000E+50
 75
     0
  0
DIMASSOC
  5
1718
102
{ACAD_REACTORS
330
1717
102
}
330
1717
100
AcDbDimAssoc
330
170A
 90
        3
 70
     0
 71
     0
  1
AcDbOsnapPointRef
 72
     1
331
E4D
 73
     0
 91
        0
 40
0.0
 10
0.0
 20
0.0
 30
2.000000000000000E+50
 75
     0
  1
AcDbOsnapPointRef
 72
     1
331
E3B
 73
     0
 91
        0
 40
0.0
 10
0.0
 20
0.0
 30
2.000000000000000E+50
 75
     0
  0
DIMASSOC
  5
173E
102
{ACAD_REACTORS
330
173D
102
}
330
173D
100
AcDbDimAssoc
330
1730
 90
        3
 70
     0
 71
     0
  1
AcDbOsnapPointRef
 72
    13
331
C8D
 73
     0
 91
        0
 40
0.0
 10
0.0
 20
0.0
 30
2.000000000000000E+50
 75
     0
  1
AcDbOsnapPointRef
 72
     1
331
DDF
 73
     0
 91
        0
 40
0.0
 10
0.0
 20
0.0
 30
2.000000000000000E+50
 75
     0
  0
DIMASSOC
  5
1764
102
{ACAD_REACTORS
330
1763
102
}
330
1763
100
AcDbDimAssoc
330
1756
 90
        3
 70
     0
 71
     0
  1
AcDbOsnapPointRef
 72
    13
331
C59
 73
     0
 91
        0
 40
0.0
 10
0.0
 20
0.0
 30
2.000000000000000E+50
 75
     0
  1
AcDbOsnapPointRef
 72
     1
331
E9D
 73
     0
 91
        0
 40
0.0
 10
0.0
 20
0.0
 30
2.000000000000000E+50
 75
     0
  0
DIMASSOC
  5
178A
102
{ACAD_REACTORS
330
1789
102
}
330
1789
100
AcDbDimAssoc
330
177C
 90
        3
 70
     0
 71
     0
  1
AcDbOsnapPointRef
 72
     1
331
E9D
 73
     0
 91
        0
 40
0.0
 10
0.0
 20
0.0
 30
2.000000000000000E+50
 75
     0
  1
AcDbOsnapPointRef
 72
     1
331
EAF
 73
     0
 91
        0
 40
0.0
 10
0.0
 20
0.0
 30
2.000000000000000E+50
 75
     0
  0
DIMASSOC
  5
17B2
102
{ACAD_REACTORS
330
17B1
102
}
330
17B1
100
AcDbDimAssoc
330
17A2
 90
        3
 70
     0
 71
     0
  1
AcDbOsnapPointRef
 72
     1
331
C59
 73
     0
 91
        0
 40
0.0
 10
0.0
 20
0.0
 30
2.000000000000000E+50
 75
     0
  1
AcDbOsnapPointRef
 72
     1
331
E9C
 73
     0
 91
        0
 40
0.0
 10
0.0
 20
0.0
 30
2.000000000000000E+50
 75
     0
  0
DIMASSOC
  5
17DA
102
{ACAD_REACTORS
330
17D9
102
}
330
17D9
100
AcDbDimAssoc
330
17CC
 90
        3
 70
     0
 71
     0
  1
AcDbOsnapPointRef
 72
     1
331
E05
 73
     0
 91
        0
 40
0.0
 10
0.0
 20
0.0
 30
2.000000000000000E+50
 75
     0
  1
AcDbOsnapPointRef
 72
     1
331
DF3
 73
     0
 91
        0
 40
0.0
 10
0.0
 20
0.0
 30
2.000000000000000E+50
 75
     0
  0
DIMASSOC
  5
1800
102
{ACAD_REACTORS
330
17FF
102
}
330
17FF
100
AcDbDimAssoc
330
17F2
 90
        3
 70
     0
 71
     0
  1
AcDbOsnapPointRef
 72
     1
331
C4A
 73
     0
 91
        0
 40
0.0
 10
0.0
 20
0.0
 30
2.000000000000000E+50
 75
     0
  1
AcDbOsnapPointRef
 72
     1
331
C49
 73
     0
 91
        0
 40
0.0
 10
0.0
 20
0.0
 30
2.000000000000000E+50
 75
     0
  0
DIMASSOC
  5
1826
102
{ACAD_REACTORS
330
1825
102
}
330
1825
100
AcDbDimAssoc
330
1818
 90
        3
 70
     0
 71
     0
  1
AcDbOsnapPointRef
 72
    13
331
DC4
 73
     0
 91
        0
 40
0.0
 10
0.0
 20
0.0
 30
2.000000000000000E+50
 75
     0
  1
AcDbOsnapPointRef
 72
     1
331
E5E
 73
     0
 91
        0
 40
0.0
 10
0.0
 20
0.0
 30
2.000000000000000E+50
 75
     0
  0
DIMASSOC
  5
184C
102
{ACAD_REACTORS
330
184B
102
}
330
184B
100
AcDbDimAssoc
330
183E
 90
        3
 70
     0
 71
     0
  1
AcDbOsnapPointRef
 72
    13
331
C59
 73
     0
 91
        0
 40
0.0
 10
0.0
 20
0.0
 30
2.000000000000000E+50
 75
     0
  1
AcDbOsnapPointRef
 72
     1
331
C4A
 73
     0
 91
        0
 40
0.0
 10
0.0
 20
0.0
 30
2.000000000000000E+50
 75
     0
  0
DIMASSOC
  5
18FE
102
{ACAD_REACTORS
330
18FD
102
}
330
18FD
100
AcDbDimAssoc
330
18F1
 90
        2
 70
     0
 71
     0
  1
AcDbOsnapPointRef
 72
     3
331
C6E
 73
     2
 91
        0
 40
0.0
 10
0.0
 20
0.0
 30
0.0
 75
     0
  0
DIMASSOC
  5
192B
102
{ACAD_REACTORS
330
192A
102
}
330
192A
100
AcDbDimAssoc
330
1921
 90
        2
 70
     0
 71
     0
  1
AcDbOsnapPointRef
 72
     3
331
CCA
 73
     2
 91
        0
 40
0.0
 10
0.0
 20
0.0
 30
0.0
 75
     0
  0
LAYOUT
  5
22
102
{ACAD_XDICTIONARY
360
1B6B
102
}
102
{ACAD_REACTORS
330
1A
102
}
330
1A
100
AcDbPlotSettings
  1

  2
\\RD\EPSON Stylus C63 Series單色
  4
A4
  6

 40
3.757083177566528
 41
3.757076978683471
 42
3.757080078125
 43
3.757080078125
 44
209.9733276367187
 45
296.9683227539062
 46
0.0
 47
0.0
 48
0.0
 49
0.0
140
0.0
141
0.0
142
1.0
143
0.3405120737814363
 70
 11952
 72
     1
 73
     0
 74
     0
  7
單色出圖.ctb
 75
     0
147
2.936753428137963
148
-2047.07469463503
149
-1261.649717473083
100
AcDbLayout
  1
Model
 70
     1
 71
     0
 10
0.0
 20
0.0
 11
12.0
 21
9.0
 12
0.0
 22
0.0
 32
0.0
 14
0.0
 24
0.0
 34
0.0
 15
0.0
 25
0.0
 35
0.0
146
0.0
 13
0.0
 23
0.0
 33
0.0
 16
1.0
 26
0.0
 36
0.0
 17
0.0
 27
1.0
 37
0.0
 76
     0
330
1F
1001
ACAD_PSEXT
1000
\\RD\EPSON Stylus C63 Series單色
1000
EPSON Stylus C63 Series
1000
\\RD
1000

1070
     0
  0
LAYOUT
  5
1E
102
{ACAD_XDICTIONARY
360
1B69
102
}
102
{ACAD_REACTORS
330
1A
102
}
330
1A
100
AcDbPlotSettings
  1

  2

  4

  6

 40
0.0
 41
0.0
 42
0.0
 43
0.0
 44
0.0
 45
0.0
 46
0.0
 47
0.0
 48
0.0
 49
0.0
140
0.0
141
0.0
142
1.0
143
1.0
 70
   688
 72
     0
 73
     0
 74
     5
  7
單色出圖.ctb
 75
    16
147
1.0
148
0.0
149
0.0
100
AcDbLayout
  1
配置1
 70
     1
 71
     1
 10
0.0
 20
0.0
 11
420.0
 21
297.0
 12
0.0
 22
0.0
 32
0.0
 14
1.000000000000000E+20
 24
1.000000000000000E+20
 34
1.000000000000000E+20
 15
-1.000000000000000E+20
 25
-1.000000000000000E+20
 35
-1.000000000000000E+20
146
0.0
 13
0.0
 23
0.0
 33
0.0
 16
1.0
 26
0.0
 36
0.0
 17
0.0
 27
1.0
 37
0.0
 76
     0
330
1B
  0
LAYOUT
  5
26
102
{ACAD_XDICTIONARY
360
1B6D
102
}
102
{ACAD_REACTORS
330
1A
102
}
330
1A
100
AcDbPlotSettings
  1

  2

  4

  6

 40
0.0
 41
0.0
 42
0.0
 43
0.0
 44
0.0
 45
0.0
 46
0.0
 47
0.0
 48
0.0
 49
0.0
140
0.0
141
0.0
142
1.0
143
1.0
 70
   688
 72
     0
 73
     0
 74
     5
  7
單色出圖.ctb
 75
    16
147
1.0
148
0.0
149
0.0
100
AcDbLayout
  1
配置2
 70
     1
 71
     2
 10
0.0
 20
0.0
 11
12.0
 21
9.0
 12
0.0
 22
0.0
 32
0.0
 14
0.0
 24
0.0
 34
0.0
 15
0.0
 25
0.0
 35
0.0
146
0.0
 13
0.0
 23
0.0
 33
0.0
 16
1.0
 26
0.0
 36
0.0
 17
0.0
 27
1.0
 37
0.0
 76
     0
330
23
  0
MLINESTYLE
  5
18
102
{ACAD_REACTORS
330
17
102
}
330
17
100
AcDbMlineStyle
  2
STANDARD
 70
     0
  3

 62
   256
 51
90.0
 52
90.0
 71
     2
 49
0.5
 62
   256
  6
BYLAYER
 49
-0.5
 62
   256
  6
BYLAYER
  0
ACDBPLACEHOLDER
  5
F
102
{ACAD_REACTORS
330
E
102
}
330
E
  0
TABLESTYLE
  5
11B
102
{ACAD_REACTORS
330
11A
102
}
330
11A
100
AcDbTableStyle
  3
Standard
 70
     0
 71
     0
 40
1.5
 41
1.5
280
     0
281
     0
  7
STANDARD
140
4.5
170
     2
 62
     0
 63
     7
283
     0
274
    -2
284
     1
 64
     0
275
    -2
285
     1
 65
     0
276
    -2
286
     1
 66
     0
277
    -2
287
     1
 67
     0
278
    -2
288
     1
 68
     0
279
    -2
289
     1
 69
     0
  7
STANDARD
140
6.0
170
     5
 62
     0
 63
     7
283
     0
274
    -2
284
     1
 64
     0
275
    -2
285
     1
 65
     0
276
    -2
286
     1
 66
     0
277
    -2
287
     1
 67
     0
278
    -2
288
     1
 68
     0
279
    -2
289
     1
 69
     0
  7
STANDARD
140
4.5
170
     5
 62
     0
 63
     7
283
     0
274
    -2
284
     1
 64
     0
275
    -2
285
     1
 65
     0
276
    -2
286
     1
 66
     0
277
    -2
287
     1
 67
     0
278
    -2
288
     1
 68
     0
279
    -2
289
     1
 69
     0
  0
DICTIONARYVAR
  5
138
102
{ACAD_REACTORS
330
94
102
}
330
94
100
DictionaryVariables
280
     0
  1
STANDARD
  0
DICTIONARYVAR
  5
96
102
{ACAD_REACTORS
330
94
102
}
330
94
100
DictionaryVariables
280
     0
  1
2
  0
DICTIONARYVAR
  5
95
102
{ACAD_REACTORS
330
94
102
}
330
94
100
DictionaryVariables
280
     0
  1
0
  0
DICTIONARYVAR
  5
1B65
102
{ACAD_REACTORS
330
94
102
}
330
94
100
DictionaryVariables
280
     0
  1

  0
DICTIONARY
  5
1B5
102
{ACAD_REACTORS
330
5B
102
}
330
5B
100
AcDbDictionary
281
     1
  0
DICTIONARY
  5
61
102
{ACAD_REACTORS
330
5B
102
}
330
5B
100
AcDbDictionary
281
     1
  0
XRECORD
  5
123
102
{ACAD_REACTORS
330
5B
102
}
330
5B
100
AcDbXrecord
280
     1
 90
-1023410169
  0
DICTIONARY
  5
1B6B
330
22
100
AcDbDictionary
280
     1
281
     1
  3
ACAD_XREC_ROUNDTRIP
360
1B6C
  0
DICTIONARY
  5
1B69
330
1E
100
AcDbDictionary
280
     1
281
     1
  3
ACAD_XREC_ROUNDTRIP
360
1B6A
  0
DICTIONARY
  5
1B6D
330
26
100
AcDbDictionary
280
     1
281
     1
  3
ACAD_XREC_ROUNDTRIP
360
1B6E
  0
XRECORD
  5
1B6C
102
{ACAD_REACTORS
330
1B6B
102
}
330
1B6B
100
AcDbXrecord
280
     1
102
SHADEPLOT
 70
     0
102
SHADEPLOTRESLEVEL
 70
     2
102
SHADEPLOTCUSTOMDPI
 70
   300
  0
XRECORD
  5
1B6A
102
{ACAD_REACTORS
330
1B69
102
}
330
1B69
100
AcDbXrecord
280
     1
102
SHADEPLOT
 70
     0
102
SHADEPLOTRESLEVEL
 70
     2
102
SHADEPLOTCUSTOMDPI
 70
   300
  0
XRECORD
  5
1B6E
102
{ACAD_REACTORS
330
1B6D
102
}
330
1B6D
100
AcDbXrecord
280
     1
102
SHADEPLOT
 70
     0
102
SHADEPLOTRESLEVEL
 70
     2
102
SHADEPLOTCUSTOMDPI
 70
   300
  0
ENDSEC
  0
EOF
