  0
SECTION
  2
HEADER
  9
$ACADVER
  1
AC1015
  9
$ACADMAINTVER
 70
    20
  9
$DWGCODEPAGE
  3
ANSI_950
  9
$INSBASE
 10
0.0
 20
0.0
 30
0.0
  9
$EXTMIN
 10
737.0779184467051
 20
1146.400198060623
 30
-0.0058069244264516
  9
$EXTMAX
 10
961.558177725446
 20
1439.471299721565
 30
171.2679786543948
  9
$LIMMIN
 10
0.0
 20
0.0
  9
$LIMMAX
 10
420.0
 20
297.0
  9
$ORTHOMODE
 70
     1
  9
$REGENMODE
 70
     1
  9
$FILLMODE
 70
     1
  9
$QTEXTMODE
 70
     0
  9
$MIRRTEXT
 70
     1
  9
$LTSCALE
 40
1.0
  9
$ATTMODE
 70
     1
  9
$TEXTSIZE
 40
3.0
  9
$TRACEWID
 40
1.0
  9
$TEXTSTYLE
  7
STANDARD
  9
$CLAYER
  8
0
  9
$CELTYPE
  6
ByLayer
  9
$CECOLOR
 62
   256
  9
$CELTSCALE
 40
1.0
  9
$DISPSILH
 70
     0
  9
$DIMSCALE
 40
1.0
  9
$DIMASZ
 40
3.0
  9
$DIMEXO
 40
1.0
  9
$DIMDLI
 40
11.0
  9
$DIMRND
 40
0.0
  9
$DIMDLE
 40
0.0
  9
$DIMEXE
 40
1.5
  9
$DIMTP
 40
0.1
  9
$DIMTM
 40
0.1
  9
$DIMTXT
 40
3.5
  9
$DIMCEN
 40
0.0
  9
$DIMTSZ
 40
0.0
  9
$DIMTOL
 70
     0
  9
$DIMLIM
 70
     0
  9
$DIMTIH
 70
     0
  9
$DIMTOH
 70
     0
  9
$DIMSE1
 70
     0
  9
$DIMSE2
 70
     0
  9
$DIMTAD
 70
     1
  9
$DIMZIN
 70
     8
  9
$DIMBLK
  1

  9
$DIMASO
 70
     1
  9
$DIMSHO
 70
     1
  9
$DIMPOST
  1

  9
$DIMAPOST
  1
"
  9
$DIMALT
 70
     0
  9
$DIMALTD
 70
     2
  9
$DIMALTF
 40
0.0393701
  9
$DIMLFAC
 40
1.0
  9
$DIMTOFL
 70
     1
  9
$DIMTVP
 40
0.0
  9
$DIMTIX
 70
     0
  9
$DIMSOXD
 70
     0
  9
$DIMSAH
 70
     0
  9
$DIMBLK1
  1

  9
$DIMBLK2
  1

  9
$DIMSTYLE
  2
AM_ISO
  9
$DIMCLRD
 70
   256
  9
$DIMCLRE
 70
   256
  9
$DIMCLRT
 70
   256
  9
$DIMTFAC
 40
0.6
  9
$DIMGAP
 40
0.7
  9
$DIMJUST
 70
     0
  9
$DIMSD1
 70
     0
  9
$DIMSD2
 70
     0
  9
$DIMTOLJ
 70
     0
  9
$DIMTZIN
 70
     8
  9
$DIMALTZ
 70
     0
  9
$DIMALTTZ
 70
     0
  9
$DIMUPT
 70
     0
  9
$DIMDEC
 70
     2
  9
$DIMTDEC
 70
     8
  9
$DIMALTU
 70
     2
  9
$DIMALTTD
 70
     2
  9
$DIMTXSTY
  7
STANDARD
  9
$DIMAUNIT
 70
     0
  9
$DIMADEC
 70
     0
  9
$DIMALTRND
 40
0.0
  9
$DIMAZIN
 70
     2
  9
$DIMDSEP
 70
    46
  9
$DIMATFIT
 70
     3
  9
$DIMFRAC
 70
     0
  9
$DIMLDRBLK
  1

  9
$DIMLUNIT
 70
     2
  9
$DIMLWD
 70
    -1
  9
$DIMLWE
 70
    -1
  9
$DIMTMOVE
 70
     0
  9
$LUNITS
 70
     2
  9
$LUPREC
 70
     2
  9
$SKETCHINC
 40
1.0
  9
$FILLETRAD
 40
2.5
  9
$AUNITS
 70
     0
  9
$AUPREC
 70
     0
  9
$MENU
  1
.
  9
$ELEVATION
 40
0.0
  9
$PELEVATION
 40
0.0
  9
$THICKNESS
 40
0.0
  9
$LIMCHECK
 70
     0
  9
$CHAMFERA
 40
2.5
  9
$CHAMFERB
 40
2.5
  9
$CHAMFERC
 40
20.0
  9
$CHAMFERD
 40
0.0
  9
$SKPOLY
 70
     0
  9
$TDCREATE
 40
2453836.381385081
  9
$TDUCREATE
 40
2453836.048051748
  9
$TDUPDATE
 40
2454789.611106713
  9
$TDUUPDATE
 40
2454789.277773380
  9
$TDINDWG
 40
0.3147426042
  9
$TDUSRTIMER
 40
0.3147426042
  9
$USRTIMER
 70
     1
  9
$ANGBASE
 50
0.0
  9
$ANGDIR
 70
     0
  9
$PDMODE
 70
     0
  9
$PDSIZE
 40
0.0
  9
$PLINEWID
 40
0.0
  9
$SPLFRAME
 70
     0
  9
$SPLINETYPE
 70
     6
  9
$SPLINESEGS
 70
     8
  9
$HANDSEED
  5
57D9
  9
$SURFTAB1
 70
     6
  9
$SURFTAB2
 70
     6
  9
$SURFTYPE
 70
     6
  9
$SURFU
 70
     6
  9
$SURFV
 70
     6
  9
$UCSBASE
  2

  9
$UCSNAME
  2

  9
$UCSORG
 10
0.0
 20
0.0
 30
0.0
  9
$UCSXDIR
 10
1.0
 20
0.0
 30
0.0
  9
$UCSYDIR
 10
0.0
 20
1.0
 30
0.0
  9
$UCSORTHOREF
  2

  9
$UCSORTHOVIEW
 70
     0
  9
$UCSORGTOP
 10
0.0
 20
0.0
 30
0.0
  9
$UCSORGBOTTOM
 10
0.0
 20
0.0
 30
0.0
  9
$UCSORGLEFT
 10
0.0
 20
0.0
 30
0.0
  9
$UCSORGRIGHT
 10
0.0
 20
0.0
 30
0.0
  9
$UCSORGFRONT
 10
0.0
 20
0.0
 30
0.0
  9
$UCSORGBACK
 10
0.0
 20
0.0
 30
0.0
  9
$PUCSBASE
  2

  9
$PUCSNAME
  2

  9
$PUCSORG
 10
0.0
 20
0.0
 30
0.0
  9
$PUCSXDIR
 10
1.0
 20
0.0
 30
0.0
  9
$PUCSYDIR
 10
0.0
 20
1.0
 30
0.0
  9
$PUCSORTHOREF
  2

  9
$PUCSORTHOVIEW
 70
     0
  9
$PUCSORGTOP
 10
0.0
 20
0.0
 30
0.0
  9
$PUCSORGBOTTOM
 10
0.0
 20
0.0
 30
0.0
  9
$PUCSORGLEFT
 10
0.0
 20
0.0
 30
0.0
  9
$PUCSORGRIGHT
 10
0.0
 20
0.0
 30
0.0
  9
$PUCSORGFRONT
 10
0.0
 20
0.0
 30
0.0
  9
$PUCSORGBACK
 10
0.0
 20
0.0
 30
0.0
  9
$USERI1
 70
     0
  9
$USERI2
 70
     0
  9
$USERI3
 70
     0
  9
$USERI4
 70
     0
  9
$USERI5
 70
     0
  9
$USERR1
 40
0.0
  9
$USERR2
 40
0.0
  9
$USERR3
 40
0.0
  9
$USERR4
 40
0.0
  9
$USERR5
 40
0.0
  9
$WORLDVIEW
 70
     1
  9
$SHADEDGE
 70
     3
  9
$SHADEDIF
 70
    70
  9
$TILEMODE
 70
     1
  9
$MAXACTVP
 70
    64
  9
$PINSBASE
 10
0.0
 20
0.0
 30
0.0
  9
$PLIMCHECK
 70
     0
  9
$PEXTMIN
 10
1.000000000000000E+20
 20
1.000000000000000E+20
 30
1.000000000000000E+20
  9
$PEXTMAX
 10
-1.000000000000000E+20
 20
-1.000000000000000E+20
 30
-1.000000000000000E+20
  9
$PLIMMIN
 10
0.0
 20
0.0
  9
$PLIMMAX
 10
420.0
 20
297.0
  9
$UNITMODE
 70
     0
  9
$VISRETAIN
 70
     1
  9
$PLINEGEN
 70
     0
  9
$PSLTSCALE
 70
     1
  9
$TREEDEPTH
 70
  3020
  9
$CMLSTYLE
  2
Standard
  9
$CMLJUST
 70
     0
  9
$CMLSCALE
 40
20.0
  9
$PROXYGRAPHICS
 70
     1
  9
$MEASUREMENT
 70
     1
  9
$CELWEIGHT
370
    -1
  9
$ENDCAPS
280
     0
  9
$JOINSTYLE
280
     0
  9
$LWDISPLAY
290
     0
  9
$INSUNITS
 70
     4
  9
$HYPERLINKBASE
  1

  9
$STYLESHEET
  1
acad.ctb
  9
$XEDIT
290
     1
  9
$CEPSNTYPE
380
     0
  9
$PSTYLEMODE
290
     1
  9
$FINGERPRINTGUID
  2
{4E42D67C-2C0E-4518-AAFF-743F4EBE0702}
  9
$VERSIONGUID
  2
{BC45B8AC-74A8-49FC-954C-EF4963A955E3}
  9
$EXTNAMES
290
     1
  9
$PSVPSCALE
 40
0.0
  9
$OLESTARTUP
290
     0
  0
ENDSEC
  0
SECTION
  2
CLASSES
  0
CLASS
  1
ACDBDICTIONARYWDFLT
  2
AcDbDictionaryWithDefault
  3
ObjectDBX Classes
 90
        0
280
     0
281
     0
  0
CLASS
  1
ACDBPLACEHOLDER
  2
AcDbPlaceHolder
  3
ObjectDBX Classes
 90
        0
280
     0
281
     0
  0
CLASS
  1
LAYOUT
  2
AcDbLayout
  3
ObjectDBX Classes
 90
        0
280
     0
281
     0
  0
CLASS
  1
ACME_DOCUMENT
  2
AcMeDbDoc
  3
AcMeServices
 90
        0
280
     0
281
     0
  0
CLASS
  1
AMGSETTINGSOBJ
  2
AmgSettingsObj
  3
"AcadM|Product Description: AutoCAD Mechanical 2000|Company: Autodesk"
 90
        0
280
     0
281
     0
  0
CLASS
  1
ACMESCOPE
  2
AcMeScope
  3
AcMeServices
 90
        0
280
     0
281
     0
  0
CLASS
  1
ACMECOMMANDHISTORY
  2
AcMeCommandHistory
  3
AcMeServices
 90
        0
280
     0
281
     0
  0
CLASS
  1
ACIMSYSVARMAN
  2
AcImSysVarManager
  3
AcMeServices
 90
        0
280
     0
281
     0
  0
CLASS
  1
ACIMREALSYSVAR
  2
AcImRealSysVar
  3
AcMeServices
 90
        0
280
     0
281
     0
  0
CLASS
  1
ACIMINTSYSVAR
  2
AcImIntSysVar
  3
AcMeServices
 90
        0
280
     0
281
     0
  0
CLASS
  1
ACMEDRAWINGMAN
  2
AcMeDrawingMan
  3
AcMeServices
 90
        0
280
     0
281
     0
  0
CLASS
  1
ACMEVIEW
  2
AcMeView
  3
AcMeServices
 90
        0
280
     0
281
     0
  0
CLASS
  1
ACDBENTITYCACHE
  2
AcMeEntityCache
  3
AcMeServices
 90
        0
280
     0
281
     0
  0
CLASS
  1
GSMANAGER
  2
AcMeGSManager
  3
AcMeServices
 90
        0
280
     0
281
     0
  0
CLASS
  1
AMDTINTERNALREACTOR
  2
AmdtInternalReactor
  3
AcMeServices
 90
        0
280
     0
281
     0
  0
CLASS
  1
ACMESTATEMGR
  2
AcMeStateMgr
  3
AcMeServices
 90
        0
280
     0
281
     0
  0
CLASS
  1
ACGREFMASTER
  2
AcGrefMaster
  3
AcAttribServices
 90
        0
280
     0
281
     0
  0
CLASS
  1
ACME_DATABASE
  2
AcMeDbDatabase
  3
AcMeServices
 90
        0
280
     0
281
     0
  0
CLASS
  1
ACRFINSADJUSTERMGR
  2
AcRfInsAdjusterMgr
  3
AcMeServices
 90
        0
280
     0
281
     0
  0
CLASS
  1
ACGREFACADMASTER
  2
AcGrefacadMaster
  3
AcGrefServices
 90
        0
280
     0
281
     0
  0
CLASS
  1
AMIMASTER
  2
AmiMaster
  3
AmiServices
 90
        0
280
     0
281
     0
  0
CLASS
  1
ACMDATADICTIONARY
  2
AcmDataDictionary
  3
"AcmSymBB|Product Description: AutoCAD Mechanical 2004 DX|Company: Autodesk"
 90
        0
280
     0
281
     0
  0
CLASS
  1
ACMDATAENTRYBLOCK
  2
AcmDataEntryBlock
  3
"AcmSymBB|Product Description: AutoCAD Mechanical 2004 DX|Company: Autodesk"
 90
    32768
280
     0
281
     0
  0
CLASS
  1
ACIMSTRSYSVAR
  2
AcImStrSysVar
  3
AcMeServices
 90
        0
280
     0
281
     0
  0
CLASS
  1
ACMSTANDARDISO
  2
AcmStandardISO
  3
"Amdt_StdImp|Product Description: AutoCAD Mechanical 2004 DX|Company: Autodesk"
 90
        0
280
     0
281
     0
  0
CLASS
  1
AMGOBJPROPCFG
  2
AmgObjPropCfg
  3
"AmgLay|Product Description: AutoCAD Mechanical 2000|Company: Autodesk"
 90
        1
280
     0
281
     0
  0
CLASS
  1
AMDTEDGESTANDARDISO
  2
AmdtEdgeStdISO
  3
"Amdt_StdImp|Product Description: AutoCAD Mechanical 2004 DX|Company: Autodesk"
 90
    32768
280
     0
281
     0
  0
CLASS
  1
ACMSURFSTANDARDISO
  2
AcmSurfTextStdISO
  3
"Amdt_StdImp|Product Description: AutoCAD Mechanical 2004 DX|Company: Autodesk"
 90
        0
280
     0
281
     0
  0
CLASS
  1
ACMFCFSTANDARDISO
  2
AcmFCFStdISO
  3
"Amdt_StdImp|Product Description: AutoCAD Mechanical 2004 DX|Company: Autodesk"
 90
        0
280
     0
281
     0
  0
CLASS
  1
ACMWELDSTANDARDISO
  2
AcmWeldingStdISO
  3
"Amdt_StdImp|Product Description: AutoCAD Mechanical 2004 DX|Company: Autodesk"
 90
        0
280
     0
281
     0
  0
CLASS
  1
ACMIDSTANDARDISO
  2
AcmIdStdISO
  3
"Amdt_StdImp|Product Description: AutoCAD Mechanical 2004 DX|Company: Autodesk"
 90
        0
280
     0
281
     0
  0
CLASS
  1
ACMDATUMSTANDARDISO
  2
AcmDatumStdISO
  3
"Amdt_StdImp|Product Description: AutoCAD Mechanical 2004 DX|Company: Autodesk"
 90
        0
280
     0
281
     0
  0
CLASS
  1
ACMBOMSTANDARDISO
  2
AcmBOMStdISO
  3
"Amdt_StdImp|Product Description: AutoCAD Mechanical 2004 DX|Company: Autodesk"
 90
        0
280
     0
281
     0
  0
CLASS
  1
ACMDETAILSTANDARDISO
  2
AmdtDetailSymStdISO
  3
"Amdt_StdImp|Product Description: AutoCAD Mechanical 2004 DX|Company: Autodesk"
 90
        0
280
     0
281
     0
  0
CLASS
  1
ACMSECTIONSTANDARDISO
  2
AmdtSectionSymStdISO
  3
"Amdt_StdImp|Product Description: AutoCAD Mechanical 2004 DX|Company: Autodesk"
 90
        0
280
     0
281
     0
  0
CLASS
  1
ACMCENTERLINESTANDARDISO
  2
AmdtCenterLineStdISO
  3
"Amdt_StdImp|Product Description: AutoCAD Mechanical 2004 DX|Company: Autodesk"
 90
        0
280
     0
281
     0
  0
CLASS
  1
ACMNOTESTANDARDISO
  2
AmdtNoteStdISO
  3
"Amdt_StdImp|Product Description: AutoCAD Mechanical 2004 DX|Company: Autodesk"
 90
        0
280
     0
281
     0
  0
CLASS
  1
ACAMGLAYSTD
  2
AcAmgLayStd
  3
"AcAmgLayStd|Product Description: AutoCAD Mechanical 2000|Company: Autodesk"
 90
        0
280
     0
281
     0
  0
CLASS
  1
ACAMGDIMSTD
  2
AcAmgDimStd
  3
"AcAmgDimStd|Product Description: AutoCAD Mechanical 2000|Company: Autodesk"
 90
        0
280
     0
281
     0
  0
CLASS
  1
ACAMGHOLECHARTSTDISO
  2
AcAmgHoleChartStdISO
  3
ACMSYMBB_MODULE_NAME
 90
        0
280
     0
281
     0
  0
CLASS
  1
ACAMGTITLESTD
  2
AcAmgTitleStd
  3
"TITLEAPP"
 90
        0
280
     0
281
     0
  0
CLASS
  1
LAYER_INDEX
  2
AcDbLayerIndex
  3
ObjectDBX Classes
 90
    32768
280
     0
281
     0
  0
CLASS
  1
IDBUFFER
  2
AcDbIdBuffer
  3
ObjectDBX Classes
 90
    32768
280
     0
281
     0
  0
CLASS
  1
DICTIONARYVAR
  2
AcDbDictionaryVar
  3
ObjectDBX Classes
 90
        0
280
     0
281
     0
  0
CLASS
  1
AM_DRAWING_MGR
  2
AcDmDwgMgr
  3
AcMechDwgViewMgmt
 90
        0
280
     0
281
     0
  0
CLASS
  1
AM_DWG_DOCUMENT
  2
AcDmDwgDocument
  3
AcMechDwgViewMgmt
 90
        0
280
     0
281
     0
  0
CLASS
  1
AM_DWG_SHEET
  2
AcDmSheet
  3
AcMechDwgViewMgmt
 90
        0
280
     0
281
     0
  0
CLASS
  1
AM_VIEWDIMPARMAP
  2
AcDmViewDimParMap
  3
AcMechDwgViewMgmt
 90
        0
280
     0
281
     0
  0
CLASS
  1
AM_DWGMGR_NAME
  2
AcDmDwgMgrName
  3
AcMechDwgViewMgmt
 90
        0
280
     0
281
     0
  0
CLASS
  1
AMDTMENUSTATEMGR
  2
AmdtMenuStateMgr
  3
McadcomServices
 90
        0
280
     0
281
     0
  0
CLASS
  1
AMDTMCOMMENUSTATE
  2
AmdtMcomMenuState
  3
McadcomServices
 90
        0
280
     0
281
     0
  0
CLASS
  1
MAPIAMMOUDLE
  2
MApiAmModule
  3
MApiAmServices
 90
        0
280
     0
281
     0
  0
CLASS
  1
AMDTADMENUSTATE
  2
AmdtAdMenuState
  3
DesignerServices
 90
        0
280
     0
281
     0
  0
CLASS
  1
ADAPPL
  2
AcAdAppl
  3
DesignerServices
 90
        0
280
     0
281
     0
  0
CLASS
  1
DEPMGR
  2
AcAdDepMgr
  3
DesignerServices
 90
        0
280
     0
281
     0
  0
CLASS
  1
PARAMMGR
  2
AcAdParamMgr
  3
DesignerServices
 90
        0
280
     0
281
     0
  0
CLASS
  1
PARAMSCOPE
  2
AcAdParamScope
  3
DesignerServices
 90
        0
280
     0
281
     0
  0
CLASS
  1
NAMEDAPPL
  2
AcAdNamedAppl
  3
DesignerServices
 90
        0
280
     0
281
     0
  0
CLASS
  1
AMDTDMMENUSTATE
  2
AmdtDmMenuState
  3
AcMechDwgViewMgmt
 90
        0
280
     0
281
     0
  0
CLASS
  1
AMDTAMMENUSTATE
  2
AmdtAmMenuState
  3
DesignerAssemblies
 90
        0
280
     0
281
     0
  0
CLASS
  1
ACAMPROJECT
  2
AcAmProject
  3
DesignerAssemblies
 90
        0
280
     0
281
     0
  0
CLASS
  1
ACAMGRCOMPDEF
  2
AcAmGrCompDef
  3
DesignerAssemblies
 90
        0
280
     0
281
     0
  0
CLASS
  1
ACCMCONTEXT
  2
AcCmContext
  3
DesignerAssemblies
 90
        0
280
     0
281
     0
  0
CLASS
  1
ACAMCOMPDEF
  2
AcAmCompDef
  3
DesignerAssemblies
 90
        0
280
     0
281
     0
  0
CLASS
  1
ACAMCOMPDEFMGR
  2
AcAmCompDefMgr
  3
DesignerAssemblies
 90
        0
280
     0
281
     0
  0
CLASS
  1
AMCONTEXTMGR
  2
AcAmContextMgr
  3
DesignerAssemblies
 90
        0
280
     0
281
     0
  0
CLASS
  1
ACAMCONTEXTMODELER
  2
AcAmContextModeler
  3
DesignerAssemblies
 90
        0
280
     0
281
     0
  0
CLASS
  1
ACMTHREADLINESTANDARDISO
  2
AmdtThreadLineStdISO
  3
"Amdt_StdImp|Product Description: AutoCAD Mechanical 2004 DX|Company: Autodesk"
 90
        0
280
     0
281
     0
  0
CLASS
  1
CATALOGSTATE
  2
AcAmCatalogState
  3
DesignerAssemblies
 90
        0
280
     0
281
     0
  0
CLASS
  1
ACAMGRCOMPDEFSET
  2
AcAmGrCompDefSet
  3
DesignerAssemblies
 90
        0
280
     0
281
     0
  0
CLASS
  1
AMDTBROWSERDBTAB
  2
AmdtBrowserDbTab
  3
McadcomServices
 90
        0
280
     0
281
     0
  0
CLASS
  1
CBROWSERAPPOBJECT
  2
CBrowserAppObject
  3
McadcomServices
 90
        0
280
     0
281
     0
  0
CLASS
  1
DM_PLACEHOLDER
  2
AcDmSelsetPlaceholder
  3
AcMechDwgViewMgmt
 90
        0
280
     0
281
     0
  0
CLASS
  1
TABLESTYLE
  2
AcDbTableStyle
  3
ObjectDBX Classes
 90
     2047
280
     0
281
     0
  0
CLASS
  1
VAACXREFPANELOBJECT
  2
VaAcXREFPanelObject
  3
VAAC_ADDIN
 90
    32768
280
     0
281
     0
  0
CLASS
  1
VAACIMAGEINVENTORY
  2
VaAcImageInventory
  3
VAAC_ADDIN
 90
    32768
280
     0
281
     0
  0
CLASS
  1
AMDTNOTETEMPLATEDB
  2
AmdtNoteTemplateDB
  3
AMDT_STDIMP_MODULE_NAME
 90
        0
280
     0
281
     0
  0
CLASS
  1
ACMBOM
  2
AcmBom
  3
"AcmSymBB|Product Description: AutoCAD Mechanical 2004 DX|Company: Autodesk"
 90
    32768
280
     0
281
     0
  0
CLASS
  1
AMDTFORMULAUPDATEDISPATCHER
  2
AmdtFormulaUpdateDispatcher
  3
AcMeServices
 90
    32768
280
     0
281
     0
  0
CLASS
  1
ACMPARTLIST
  2
AcmPartList
  3
"AcmSymBB|Product Description: AutoCAD Mechanical 2004 DX|Company: Autodesk"
 90
    33791
280
     0
281
     1
  0
CLASS
  1
ACAMGFILTERDAT
  2
AcAmgFilterDat
  3
"AcadM|Product Description: AutoCAD Mechanical 2000|Company: Autodesk"
 90
    32768
280
     0
281
     0
  0
CLASS
  1
DIMASSOC
  2
AcDbDimAssoc
  3
"AcDbDimAssoc|Product Desc:     AcDim ARX App For Dimension|Company:          Autodesk, Inc.|WEB Address:      www.autodesk.com"
 90
        0
280
     0
281
     0
  0
CLASS
  1
AMDTNOTE
  2
AmdtNote
  3
"AcmSymBB|Product Description: AutoCAD Mechanical 2004 DX|Company: Autodesk"
 90
    33791
280
     0
281
     1
  0
CLASS
  1
ACMSTANDARDANSI
  2
AcmStandardANSI
  3
"Amdt_StdImp|Product Description: AutoCAD Mechanical 2004 DX|Company: Autodesk"
 90
    32768
280
     0
281
     0
  0
CLASS
  1
ACMSURFSTANDARDANSI
  2
AcmSurfTextStdANSI
  3
"Amdt_StdImp|Product Description: AutoCAD Mechanical 2004 DX|Company: Autodesk"
 90
    32768
280
     0
281
     0
  0
CLASS
  1
ACMFCFSTANDARDANSI
  2
AcmFCFStdANSI
  3
"Amdt_StdImp|Product Description: AutoCAD Mechanical 2004 DX|Company: Autodesk"
 90
    32768
280
     0
281
     0
  0
CLASS
  1
ACMWELDSTANDARDANSI
  2
AcmWeldingStdANSI
  3
"Amdt_StdImp|Product Description: AutoCAD Mechanical 2004 DX|Company: Autodesk"
 90
    32768
280
     0
281
     0
  0
CLASS
  1
ACMIDSTANDARDANSI
  2
AcmIdStdANSI
  3
"Amdt_StdImp|Product Description: AutoCAD Mechanical 2004 DX|Company: Autodesk"
 90
    32768
280
     0
281
     0
  0
CLASS
  1
ACMDATUMSTANDARDANSI
  2
AcmDatumStdANSI
  3
"Amdt_StdImp|Product Description: AutoCAD Mechanical 2004 DX|Company: Autodesk"
 90
    32768
280
     0
281
     0
  0
CLASS
  1
ACMBOMSTANDARDANSI
  2
AcmBOMStdANSI
  3
"Amdt_StdImp|Product Description: AutoCAD Mechanical 2004 DX|Company: Autodesk"
 90
    32768
280
     0
281
     0
  0
CLASS
  1
ACMDETAILSTANDARDANSI
  2
AmdtDetailSymStdANSI
  3
"Amdt_StdImp|Product Description: AutoCAD Mechanical 2004 DX|Company: Autodesk"
 90
    32768
280
     0
281
     0
  0
CLASS
  1
ACMSECTIONSTANDARDANSI
  2
AmdtSectionSymStdANSI
  3
"Amdt_StdImp|Product Description: AutoCAD Mechanical 2004 DX|Company: Autodesk"
 90
    32768
280
     0
281
     0
  0
CLASS
  1
ACMCENTERLINESTANDARDANSI
  2
AmdtCenterLineStdANSI
  3
"Amdt_StdImp|Product Description: AutoCAD Mechanical 2004 DX|Company: Autodesk"
 90
    32768
280
     0
281
     0
  0
CLASS
  1
ACMTHREADLINESTANDARDANSI
  2
AmdtThreadLineStdANSI
  3
"Amdt_StdImp|Product Description: AutoCAD Mechanical 2004 DX|Company: Autodesk"
 90
    32768
280
     0
281
     0
  0
CLASS
  1
ACMNOTESTANDARDANSI
  2
AmdtNoteStdANSI
  3
"Amdt_StdImp|Product Description: AutoCAD Mechanical 2004 DX|Company: Autodesk"
 90
    32768
280
     0
281
     0
  0
CLASS
  1
ACAMGHOLECHARTSTDANSI
  2
AcAmgHoleChartStdANSI
  3
ACMSYMBB_MODULE_NAME
 90
    32768
280
     0
281
     0
  0
CLASS
  1
AMDTEDGESTANDARDISO13715
  2
AmdtEdgeStdISO13715
  3
"Amdt_StdImp|Product Description: AutoCAD Mechanical 2004 DX|Company: Autodesk"
 90
        0
280
     0
281
     0
  0
CLASS
  1
ACRFATTGENMGR
  2
AcRfAttGeneralMgr
  3
AcAttribServices
 90
        0
280
     0
281
     0
  0
ENDSEC
  0
SECTION
  2
TABLES
  0
TABLE
  2
VPORT
  5
8
330
0
100
AcDbSymbolTable
 70
     4
  0
VPORT
  5
57D0
330
8
100
AcDbSymbolTableRecord
100
AcDbViewportTableRecord
  2
*Active
 70
     0
 10
0.0
 20
0.0
 11
1.0
 21
1.0
 12
849.3180480860756
 22
1292.935748891094
 13
0.0
 23
0.0
 14
2.5
 24
2.5
 15
10.0
 25
10.0
 16
0.0
 26
0.0
 36
1.0
 17
0.0
 27
0.0
 37
0.0
 40
295.3787481307136
 41
1.283837056504599
 42
50.0
 43
0.0
 44
0.0
 50
0.0
 51
0.0
 71
     0
 72
   100
 73
     1
 74
     3
 75
     0
 76
     0
 77
     0
 78
     0
281
     0
 65
     1
110
0.0
120
0.0
130
0.0
111
1.0
121
0.0
131
0.0
112
0.0
122
1.0
132
0.0
 79
     0
146
0.0
  0
ENDTAB
  0
TABLE
  2
LTYPE
  5
5
330
0
100
AcDbSymbolTable
 70
    15
  0
LTYPE
  5
14
330
5
100
AcDbSymbolTableRecord
100
AcDbLinetypeTableRecord
  2
ByBlock
 70
     0
  3

 72
    65
 73
     0
 40
0.0
  0
LTYPE
  5
15
330
5
100
AcDbSymbolTableRecord
100
AcDbLinetypeTableRecord
  2
ByLayer
 70
     0
  3

 72
    65
 73
     0
 40
0.0
  0
LTYPE
  5
16
330
5
100
AcDbSymbolTableRecord
100
AcDbLinetypeTableRecord
  2
Continuous
 70
     0
  3
Solid line
 72
    65
 73
     0
 40
0.0
  0
LTYPE
  5
64
330
5
100
AcDbSymbolTableRecord
100
AcDbLinetypeTableRecord
  2
AM_ISO02W050
 70
     0
  3
__ __ __ __ __ __ __ __ __ __ __ __ __ __ __
 72
    65
 73
     2
 40
7.5
 49
6.0
 74
     0
 49
-1.5
 74
     0
  0
LTYPE
  5
65
330
5
100
AcDbSymbolTableRecord
100
AcDbLinetypeTableRecord
  2
AM_ISO08W050
 70
     0
  3
____ . ____ . ____ . ____ . ____ . ____ . ____
 72
    65
 73
     4
 40
18.0
 49
12.0
 74
     0
 49
-1.5
 74
     0
 49
3.0
 74
     0
 49
-1.5
 74
     0
  0
LTYPE
  5
66
330
5
100
AcDbSymbolTableRecord
100
AcDbLinetypeTableRecord
  2
AM_ISO09W050
 70
     0
  3
_____ . . _____ . . _____ . . ____ .. ____
 72
    65
 73
     6
 40
22.5
 49
12.0
 74
     0
 49
-1.5
 74
     0
 49
3.0
 74
     0
 49
-1.5
 74
     0
 49
3.0
 74
     0
 49
-1.5
 74
     0
  0
LTYPE
  5
67
330
5
100
AcDbSymbolTableRecord
100
AcDbLinetypeTableRecord
  2
Amconstr
 70
     0
  3
_______________________
 72
    65
 73
     2
 40
9999.0
 49
9999.0
 74
     0
 49
0.0
 74
     0
  0
LTYPE
  5
68
330
5
100
AcDbSymbolTableRecord
100
AcDbLinetypeTableRecord
  2
AM_ISO08W050x2
 70
     0
  3
__ . __ . __ . __ . __ . __
 72
    65
 73
     4
 40
9.0
 49
6.0
 74
     0
 49
-0.75
 74
     0
 49
1.5
 74
     0
 49
-0.75
 74
     0
  0
LTYPE
  5
69
330
5
100
AcDbSymbolTableRecord
100
AcDbLinetypeTableRecord
  2
AM_ISO02W050x2
 70
     0
  3
 _ _ _ _ _ _ _ _ _ _ _ _
 72
    65
 73
     2
 40
3.75
 49
3.0
 74
     0
 49
-0.75
 74
     0
  0
LTYPE
  5
6C
330
5
100
AcDbSymbolTableRecord
100
AcDbLinetypeTableRecord
  2
Amzigzag
 70
     0
  3
/\/-/\/-/\/-/\/-/\/-/\/
 72
    65
 73
     2
 40
11.0001
 49
0.0001
 74
     4
 75
   135
340
6B
 46
0.04
 50
0.0
 44
0.0
 45
0.0
 49
-11.0
 74
     0
  0
LTYPE
  5
7A
330
5
100
AcDbSymbolTableRecord
100
AcDbLinetypeTableRecord
  2
ACISOWELD
 70
     0
  3
_ _ _ _ _
 72
    65
 73
     2
 40
2.0
 49
2.0
 74
     0
 49
-1.0
 74
     0
  0
LTYPE
  5
7B
330
5
100
AcDbSymbolTableRecord
100
AcDbLinetypeTableRecord
  2
ACISOTGB
 70
     0
  3
__ . . __ . .
 72
    65
 73
     6
 40
9.0
 49
4.0
 74
     0
 49
-1.0
 74
     0
 49
1.0
 74
     0
 49
-1.0
 74
     0
 49
1.0
 74
     0
 49
-1.0
 74
     0
  0
LTYPE
  5
7C
330
5
100
AcDbSymbolTableRecord
100
AcDbLinetypeTableRecord
  2
ACISOTGL
 70
     0
  3
_ _ _ _ _
 72
    65
 73
     2
 40
3.0
 49
2.0
 74
     0
 49
-1.0
 74
     0
  0
LTYPE
  5
7E
330
5
100
AcDbSymbolTableRecord
100
AcDbLinetypeTableRecord
  2
CENTER
 70
     0
  3
__ . __
 72
    65
 73
     4
 40
7.0
 49
4.0
 74
     0
 49
-1.0
 74
     0
 49
1.0
 74
     0
 49
-1.0
 74
     0
  0
LTYPE
  5
D8
330
5
100
AcDbSymbolTableRecord
100
AcDbLinetypeTableRecord
  2
HIDDEN
 70
     0
  3
Hidden __ __ __ __ __ __ __ __ __ __ __ __ __ _
 72
    65
 73
     2
 40
9.524999999999998
 49
6.349999999999999
 74
     0
 49
-3.174999999999999
 74
     0
  0
LTYPE
  5
D9
330
5
100
AcDbSymbolTableRecord
100
AcDbLinetypeTableRecord
  2
PHANTOM2
 70
     0
  3
Phantom (.5x) ___ _ _ ___ _ _ ___ _ _ ___ _ _
 72
    65
 73
     6
 40
31.75
 49
15.875
 74
     0
 49
-3.174999999999999
 74
     0
 49
3.174999999999999
 74
     0
 49
-3.174999999999999
 74
     0
 49
3.174999999999999
 74
     0
 49
-3.174999999999999
 74
     0
  0
LTYPE
  5
4942
330
5
100
AcDbSymbolTableRecord
100
AcDbLinetypeTableRecord
  2
HIDDEN2
 70
     0
  3
Hidden (.5x) _ _ _ _ _ _ _ _ _ _ _ _ _ _ _ _ _
 72
    65
 73
     2
 40
0.1875
 49
0.125
 74
     0
 49
-0.0625
 74
     0
  0
ENDTAB
  0
TABLE
  2
LAYER
  5
2
102
{ACAD_XDICTIONARY
360
3F9
102
}
330
0
100
AcDbSymbolTable
 70
     8
  0
LAYER
  5
10
330
2
100
AcDbSymbolTableRecord
100
AcDbLayerTableRecord
  2
0
 70
     0
 62
     7
  6
Continuous
370
    -3
390
F
  0
LAYER
  5
A20
330
2
100
AcDbSymbolTableRecord
100
AcDbLayerTableRecord
  2
AM_VIS
 70
     0
 62
     7
  6
Continuous
370
    50
390
F
  0
LAYER
  5
A21
330
2
100
AcDbSymbolTableRecord
100
AcDbLayerTableRecord
  2
AM_7
 70
     0
 62
     1
  6
AM_ISO08W050
370
    25
390
F
  0
LAYER
  5
A22
330
2
100
AcDbSymbolTableRecord
100
AcDbLayerTableRecord
  2
AM_4
 70
     0
 62
     3
  6
Continuous
370
    25
390
F
  0
LAYER
  5
168E
330
2
100
AcDbSymbolTableRecord
100
AcDbLayerTableRecord
  2
AM_5
 70
     0
 62
     5
  6
Continuous
370
    50
390
F
  0
LAYER
  5
16A8
330
2
100
AcDbSymbolTableRecord
100
AcDbLayerTableRecord
  2
Defpoints
 70
     0
 62
     7
  6
Continuous
290
     0
370
    -3
390
F
  0
LAYER
  5
4025
330
2
100
AcDbSymbolTableRecord
100
AcDbLayerTableRecord
  2
LOGO
 70
     0
 62
     7
  6
Continuous
370
    -3
390
F
  0
ENDTAB
  0
TABLE
  2
STYLE
  5
3
330
0
100
AcDbSymbolTable
 70
     6
  0
STYLE
  5
11
330
3
100
AcDbSymbolTableRecord
100
AcDbTextStyleTableRecord
  2
STANDARD
 70
     0
 40
0.0
 41
1.0
 50
0.0
 71
     0
 42
3.0
  3
ISOCP.SHX
  4
CHINESET.SHX
  0
STYLE
  5
6B
330
3
100
AcDbSymbolTableRecord
100
AcDbTextStyleTableRecord
  2

 70
     1
 40
0.0
 41
1.0
 50
0.0
 71
     0
 42
2.5
  3
ltypeshp.shx
  4

  0
STYLE
  5
6D
330
3
100
AcDbSymbolTableRecord
100
AcDbTextStyleTableRecord
  2
ACISOTS
 70
     0
 40
1.0
 41
1.0
 50
0.0
 71
     0
 42
1.0
  3
isocp.shx
  4
chineset.shx
  0
STYLE
  5
79
330
3
100
AcDbSymbolTableRecord
100
AcDbTextStyleTableRecord
  2
ACISOGDT
 70
     0
 40
0.0
 41
1.0
 50
0.0
 71
     0
 42
2.5
  3
amgdt.shx
  4
chineset.shx
  0
STYLE
  5
4026
330
3
100
AcDbSymbolTableRecord
100
AcDbTextStyleTableRecord
  2
CHINESET
 70
     0
 40
0.0
 41
1.0
 50
0.0
 71
     0
 42
3.0
  3
simplex.shx
  4
CHINESET.SHX
  0
ENDTAB
  0
TABLE
  2
VIEW
  5
6
330
0
100
AcDbSymbolTable
 70
     0
  0
ENDTAB
  0
TABLE
  2
UCS
  5
7
330
0
100
AcDbSymbolTable
 70
     0
  0
ENDTAB
  0
TABLE
  2
APPID
  5
9
330
0
100
AcDbSymbolTable
 70
    23
  0
APPID
  5
12
330
9
100
AcDbSymbolTableRecord
100
AcDbRegAppTableRecord
  2
ACAD
 70
     0
  0
APPID
  5
46
330
9
100
AcDbSymbolTableRecord
100
AcDbRegAppTableRecord
  2
MCAD_NO_VIS
 70
     0
  0
APPID
  5
47
330
9
100
AcDbSymbolTableRecord
100
AcDbRegAppTableRecord
  2
ACAD_TEMP_GRAPHIC
 70
     0
  0
APPID
  5
58
330
9
100
AcDbSymbolTableRecord
100
AcDbRegAppTableRecord
  2
ACATTRIBSERVICES
 70
     0
  0
APPID
  5
EE
330
9
100
AcDbSymbolTableRecord
100
AcDbRegAppTableRecord
  2
AD_DRAW
 70
     0
  0
APPID
  5
10C
330
9
100
AcDbSymbolTableRecord
100
AcDbRegAppTableRecord
  2
DESIGNERASSEMBLIES
 70
     0
  0
APPID
  5
111
330
9
100
AcDbSymbolTableRecord
100
AcDbRegAppTableRecord
  2
ACADM_DIM_EDIT
 70
     0
  0
APPID
  5
112
330
9
100
AcDbSymbolTableRecord
100
AcDbRegAppTableRecord
  2
AMDT_DM_ADJ
 70
     0
  0
APPID
  5
22C
330
9
100
AcDbSymbolTableRecord
100
AcDbRegAppTableRecord
  2
ACAD_DSTYLE_DIMTEXT_FILL
 70
     0
  0
APPID
  5
452
330
9
100
AcDbSymbolTableRecord
100
AcDbRegAppTableRecord
  2
GENIUS_GENOENT_13
 70
     0
  0
APPID
  5
453
330
9
100
AcDbSymbolTableRecord
100
AcDbRegAppTableRecord
  2
GENIUS_GENOBJ-N-CRS_13
 70
     0
  0
APPID
  5
454
330
9
100
AcDbSymbolTableRecord
100
AcDbRegAppTableRecord
  2
GENIUS_GENOLIS_13
 70
     0
  0
APPID
  5
455
330
9
100
AcDbSymbolTableRecord
100
AcDbRegAppTableRecord
  2
GENIUS_GENODEF_13
 70
     0
  0
APPID
  5
456
330
9
100
AcDbSymbolTableRecord
100
AcDbRegAppTableRecord
  2
GENIUS_GENOREF_13
 70
     0
  0
APPID
  5
6F3
330
9
100
AcDbSymbolTableRecord
100
AcDbRegAppTableRecord
  2
ACAD_PSEXT
 70
     0
  0
APPID
  5
808
330
9
100
AcDbSymbolTableRecord
100
AcDbRegAppTableRecord
  2
GENIUS_GENDTOL_13
 70
     0
  0
APPID
  5
167D
330
9
100
AcDbSymbolTableRecord
100
AcDbRegAppTableRecord
  2
GENIUS_GENOBJ-N-CEN_13
 70
     0
  0
APPID
  5
167E
330
9
100
AcDbSymbolTableRecord
100
AcDbRegAppTableRecord
  2
GENIUS_GENCEN_19
 70
     0
  0
APPID
  5
27A1
330
9
100
AcDbSymbolTableRecord
100
AcDbRegAppTableRecord
  2
GENIUS_GENOBJ-N-HTC_13
 70
     0
  0
APPID
  5
27A2
330
9
100
AcDbSymbolTableRecord
100
AcDbRegAppTableRecord
  2
GENIUS_GENHATCH_13
 70
     0
  0
APPID
  5
3FA1
330
9
100
AcDbSymbolTableRecord
100
AcDbRegAppTableRecord
  2
AcAecLayerStandard
 70
     0
  0
APPID
  5
3FDE
330
9
100
AcDbSymbolTableRecord
100
AcDbRegAppTableRecord
  2
GENIUS_GENREC_14
 70
     0
  0
APPID
  5
3FDF
330
9
100
AcDbSymbolTableRecord
100
AcDbRegAppTableRecord
  2
GENIUS_GENOBJ-N-REC_13
 70
     0
  0
ENDTAB
  0
TABLE
  2
DIMSTYLE
  5
A
330
0
100
AcDbSymbolTable
 70
     9
100
AcDbDimStyleTable
 71
     3
340
81
340
8B
340
86
  0
DIMSTYLE
105
81
330
A
100
AcDbSymbolTableRecord
100
AcDbDimStyleTableRecord
  2
AM_ISO
 70
     0
  4
"
 41
3.0
 42
1.0
 43
11.0
 44
1.5
 47
0.1
 48
0.1
 73
     0
 74
     0
 77
     1
 78
     8
 79
     2
140
3.5
141
0.0
143
0.0393701
146
0.6
147
0.7
172
     1
176
   256
177
   256
178
   256
271
     2
272
     2
283
     0
284
     8
340
11
371
    -1
372
    -1
  0
DIMSTYLE
105
82
330
A
100
AcDbSymbolTableRecord
100
AcDbDimStyleTableRecord
  2
AM_ISO$3
 70
     0
  4
"
 41
3.0
 42
1.0
 43
11.0
 44
1.5
 47
0.1
 48
0.1
 73
     0
 77
     1
 78
     8
 79
     2
140
3.5
141
0.0
143
0.0393701
146
0.6
147
0.7
176
   256
177
   256
178
   256
271
     2
272
     2
283
     0
284
     8
288
     1
289
     0
340
11
371
    -1
372
    -1
  0
DIMSTYLE
105
83
330
A
100
AcDbSymbolTableRecord
100
AcDbDimStyleTableRecord
  2
AM_ISO$4
 70
     0
  4
"
 41
3.0
 42
1.0
 43
11.0
 44
1.5
 47
0.1
 48
0.1
 73
     0
 77
     1
 78
     8
 79
     2
140
3.5
141
0.0
143
0.0393701
146
0.6
147
0.7
176
   256
177
   256
178
   256
271
     2
272
     2
283
     0
284
     8
288
     1
289
     0
340
11
371
    -1
372
    -1
  0
DIMSTYLE
105
84
330
A
100
AcDbSymbolTableRecord
100
AcDbDimStyleTableRecord
  2
AM_ISO$6
 70
     0
  4
"
 41
3.0
 42
1.0
 43
11.0
 44
1.5
 47
0.1
 48
0.1
 73
     0
 74
     0
 78
     8
 79
     2
140
3.5
141
0.0
143
0.0393701
146
0.6
147
0.7
172
     1
176
   256
177
   256
178
   256
271
     2
272
     2
283
     0
284
     8
340
11
371
    -1
372
    -1
  0
DIMSTYLE
105
85
330
A
100
AcDbSymbolTableRecord
100
AcDbDimStyleTableRecord
  2
AM_ISO$7
 70
     0
  4
"
 41
3.0
 42
1.0
 43
11.0
 44
1.5
 47
0.1
 48
0.1
 73
     0
 74
     0
 77
     1
 78
     8
 79
     2
140
5.0
141
0.0
143
0.0393701
146
0.6
147
0.7
172
     1
176
   256
177
   256
178
   256
271
     2
272
     2
283
     0
284
     8
340
11
371
    -1
372
    -1
  0
DIMSTYLE
105
86
330
A
100
AcDbSymbolTableRecord
100
AcDbDimStyleTableRecord
  2
AM_ISO$SF
 70
     0
  4
"
 41
2.5
 42
1.0
 43
10.0
 44
1.0
 47
0.1
 48
0.1
 73
     0
 74
     0
 75
     1
 76
     1
 77
     1
 78
     8
 79
     2
140
3.5
141
0.0
143
0.0393701
146
0.71
147
1.5
172
     1
176
   256
177
   256
178
     2
271
     2
272
     3
274
     4
283
     0
284
     8
340
11
371
    -1
372
    -1
  0
DIMSTYLE
105
8B
330
A
100
AcDbSymbolTableRecord
100
AcDbDimStyleTableRecord
  2
AM_ISO$SH
 70
     0
  4
"
 41
2.5
 42
1.0
 43
10.0
 44
1.0
 47
0.1
 48
0.1
 73
     0
 74
     0
 75
     1
 76
     1
 77
     1
 78
     8
 79
     2
140
3.5
141
0.0
143
0.0393701
144
2.0
146
0.71
147
1.5
172
     1
173
     1
176
   256
177
   256
178
     2
271
     2
272
     3
274
     4
283
     0
284
     8
340
11
343
87
371
    -1
372
    -1
  0
DIMSTYLE
105
40B
102
{ACAD_REACTORS
330
4F44
330
4F6A
330
4F90
330
4FB6
330
5004
330
502A
330
5050
330
5076
330
509C
330
50C2
330
50E8
330
510E
330
5134
330
515A
330
5184
102
}
330
A
100
AcDbSymbolTableRecord
100
AcDbDimStyleTableRecord
  2
AM_ISO$0
 70
     0
  4
"
 41
3.0
 42
1.0
 43
11.0
 44
1.5
 47
0.1
 48
0.1
 73
     0
 74
     0
 77
     1
 78
     8
 79
     2
140
3.5
141
0.0
143
0.0393701
146
0.6
147
0.7
172
     1
176
   256
177
   256
178
   256
271
     2
272
     2
283
     0
284
     8
340
11
371
    -1
372
    -1
  0
ENDTAB
  0
TABLE
  2
BLOCK_RECORD
  5
1
330
0
100
AcDbSymbolTable
 70
    24
  0
BLOCK_RECORD
  5
1F
102
{ACAD_XDICTIONARY
360
8F
102
}
330
1
100
AcDbSymbolTableRecord
100
AcDbBlockTableRecord
  2
*Model_Space
340
22
  0
BLOCK_RECORD
  5
1B
330
1
100
AcDbSymbolTableRecord
100
AcDbBlockTableRecord
  2
*Paper_Space
340
1E
  0
BLOCK_RECORD
  5
23
330
1
100
AcDbSymbolTableRecord
100
AcDbBlockTableRecord
  2
*Paper_Space0
340
26
  0
BLOCK_RECORD
  5
87
330
1
100
AcDbSymbolTableRecord
100
AcDbBlockTableRecord
  2
GENAXEH
340
0
  0
BLOCK_RECORD
  5
4F45
330
1
100
AcDbSymbolTableRecord
100
AcDbBlockTableRecord
  2
*D2
340
0
  0
BLOCK_RECORD
  5
4F6B
330
1
100
AcDbSymbolTableRecord
100
AcDbBlockTableRecord
  2
*D3
340
0
  0
BLOCK_RECORD
  5
4F91
330
1
100
AcDbSymbolTableRecord
100
AcDbBlockTableRecord
  2
*D4
340
0
  0
BLOCK_RECORD
  5
4FB7
330
1
100
AcDbSymbolTableRecord
100
AcDbBlockTableRecord
  2
*D5
340
0
  0
BLOCK_RECORD
  5
5005
330
1
100
AcDbSymbolTableRecord
100
AcDbBlockTableRecord
  2
*D6
340
0
  0
BLOCK_RECORD
  5
502B
330
1
100
AcDbSymbolTableRecord
100
AcDbBlockTableRecord
  2
*D7
340
0
  0
BLOCK_RECORD
  5
5051
330
1
100
AcDbSymbolTableRecord
100
AcDbBlockTableRecord
  2
*D8
340
0
  0
BLOCK_RECORD
  5
5077
330
1
100
AcDbSymbolTableRecord
100
AcDbBlockTableRecord
  2
*D9
340
0
  0
BLOCK_RECORD
  5
509D
330
1
100
AcDbSymbolTableRecord
100
AcDbBlockTableRecord
  2
*D10
340
0
  0
BLOCK_RECORD
  5
50C3
330
1
100
AcDbSymbolTableRecord
100
AcDbBlockTableRecord
  2
*D11
340
0
  0
BLOCK_RECORD
  5
50E9
330
1
100
AcDbSymbolTableRecord
100
AcDbBlockTableRecord
  2
*D12
340
0
  0
BLOCK_RECORD
  5
510F
330
1
100
AcDbSymbolTableRecord
100
AcDbBlockTableRecord
  2
*D13
340
0
  0
BLOCK_RECORD
  5
5135
330
1
100
AcDbSymbolTableRecord
100
AcDbBlockTableRecord
  2
*D14
340
0
  0
BLOCK_RECORD
  5
515B
330
1
100
AcDbSymbolTableRecord
100
AcDbBlockTableRecord
  2
*D15
340
0
  0
BLOCK_RECORD
  5
5185
330
1
100
AcDbSymbolTableRecord
100
AcDbBlockTableRecord
  2
*D16
340
0
  0
BLOCK_RECORD
  5
5552
330
1
100
AcDbSymbolTableRecord
100
AcDbBlockTableRecord
  2
*S17
340
0
102
{BLKREFS
331
5442
102
}
  0
BLOCK_RECORD
  5
555A
330
1
100
AcDbSymbolTableRecord
100
AcDbBlockTableRecord
  2
*S18
340
0
102
{BLKREFS
331
5447
102
}
  0
BLOCK_RECORD
  5
5562
330
1
100
AcDbSymbolTableRecord
100
AcDbBlockTableRecord
  2
*S19
340
0
102
{BLKREFS
331
544C
102
}
  0
BLOCK_RECORD
  5
556A
330
1
100
AcDbSymbolTableRecord
100
AcDbBlockTableRecord
  2
*S20
340
0
102
{BLKREFS
331
5527
102
}
  0
ENDTAB
  0
ENDSEC
  0
SECTION
  2
BLOCKS
  0
BLOCK
  5
20
330
1F
100
AcDbEntity
  8
0
100
AcDbBlockBegin
  2
*Model_Space
 70
     0
 10
0.0
 20
0.0
 30
0.0
  3
*Model_Space
  1

  0
ENDBLK
  5
21
330
1F
100
AcDbEntity
  8
0
100
AcDbBlockEnd
  0
BLOCK
  5
1C
330
1B
100
AcDbEntity
 67
     1
  8
0
100
AcDbBlockBegin
  2
*Paper_Space
 70
     0
 10
0.0
 20
0.0
 30
0.0
  3
*Paper_Space
  1

  0
ENDBLK
  5
1D
330
1B
100
AcDbEntity
 67
     1
  8
0
100
AcDbBlockEnd
  0
BLOCK
  5
24
330
23
100
AcDbEntity
  8
0
100
AcDbBlockBegin
  2
*Paper_Space0
 70
     0
 10
0.0
 20
0.0
 30
0.0
  3
*Paper_Space0
  1

  0
ENDBLK
  5
25
330
23
100
AcDbEntity
  8
0
100
AcDbBlockEnd
  0
BLOCK
  5
89
330
87
100
AcDbEntity
  8
0
100
AcDbBlockBegin
  2
GENAXEH
 70
     0
 10
0.0
 20
0.0
 30
0.0
  3
GENAXEH
  1

  0
LINE
  5
88
330
87
100
AcDbEntity
  8
0
100
AcDbLine
 10
-1.0
 20
0.0
 30
0.0
 11
1.0
 21
0.0
 31
0.0
  0
ENDBLK
  5
8A
330
87
100
AcDbEntity
  8
0
100
AcDbBlockEnd
  0
BLOCK
  5
4F4F
330
4F45
100
AcDbEntity
  8
0
100
AcDbBlockBegin
  2
*D2
 70
     1
 10
0.0
 20
0.0
 30
0.0
  3
*D2
  1

  0
LINE
  5
5469
330
4F45
100
AcDbEntity
  8
AM_5
100
AcDbLine
 10
791.3213030579961
 20
1208.222330097609
 30
0.0
 11
791.3213030579961
 21
1193.472330097609
 31
0.0
  0
LINE
  5
546A
330
4F45
100
AcDbEntity
  8
AM_5
100
AcDbLine
 10
820.3213030579961
 20
1208.222330097609
 30
0.0
 11
820.3213030579961
 21
1193.472330097609
 31
0.0
  0
LINE
  5
546B
330
4F45
100
AcDbEntity
  8
AM_5
100
AcDbLine
 10
794.3213030579961
 20
1194.972330097609
 30
0.0
 11
817.3213030579962
 21
1194.972330097609
 31
0.0
  0
SOLID
  5
546C
330
4F45
100
AcDbEntity
  8
AM_5
100
AcDbTrace
 10
794.3213030579961
 20
1195.472330097609
 30
0.0
 11
794.3213030579961
 21
1194.472330097609
 31
0.0
 12
791.3213030579961
 22
1194.972330097609
 32
0.0
 13
791.3213030579961
 23
1194.972330097609
 33
0.0
  0
SOLID
  5
546D
330
4F45
100
AcDbEntity
  8
AM_5
100
AcDbTrace
 10
817.3213030579962
 20
1195.472330097609
 30
0.0
 11
817.3213030579962
 21
1194.472330097609
 31
0.0
 12
820.3213030579961
 22
1194.972330097609
 32
0.0
 13
820.3213030579961
 23
1194.972330097609
 33
0.0
  0
MTEXT
  5
546E
330
4F45
100
AcDbEntity
  8
AM_5
100
AcDbMText
 10
805.8213030579961
 20
1197.422674585798
 30
0.0
 40
3.5
 41
0.0
 71
     5
 72
     1
  1
29
 73
     1
 44
1.0
1001
ACAD
1000
MTEXTBEGIN
1070
    73
1070
     1
1070
    44
1040
1.0
1070
    74
1070
     0
1000
MTEXTEND
  0
POINT
  5
546F
330
4F45
100
AcDbEntity
  8
Defpoints
 62
     0
100
AcDbPoint
 10
791.3213030579961
 20
1209.222330097609
 30
0.0
  0
POINT
  5
5470
330
4F45
100
AcDbEntity
  8
Defpoints
 62
     0
100
AcDbPoint
 10
820.3213030579961
 20
1209.222330097609
 30
0.0
  0
POINT
  5
5471
330
4F45
100
AcDbEntity
  8
Defpoints
 62
     0
100
AcDbPoint
 10
820.3213030579961
 20
1194.972330097609
 30
0.0
  0
ENDBLK
  5
4F50
330
4F45
100
AcDbEntity
  8
0
100
AcDbBlockEnd
  0
BLOCK
  5
4F75
330
4F6B
100
AcDbEntity
  8
0
100
AcDbBlockBegin
  2
*D3
 70
     1
 10
0.0
 20
0.0
 30
0.0
  3
*D3
  1

  0
LINE
  5
5472
330
4F6B
100
AcDbEntity
  8
AM_5
100
AcDbLine
 10
820.3213030579961
 20
1208.222330097609
 30
0.0
 11
820.3213030579961
 21
1193.472330097609
 31
0.0
  0
LINE
  5
5473
330
4F6B
100
AcDbEntity
  8
AM_5
100
AcDbLine
 10
849.3213030579962
 20
1208.222330097609
 30
0.0
 11
849.3213030579962
 21
1193.472330097609
 31
0.0
  0
LINE
  5
5474
330
4F6B
100
AcDbEntity
  8
AM_5
100
AcDbLine
 10
823.321303057996
 20
1194.972330097609
 30
0.0
 11
846.3213030579961
 21
1194.972330097609
 31
0.0
  0
SOLID
  5
5475
330
4F6B
100
AcDbEntity
  8
AM_5
100
AcDbTrace
 10
823.321303057996
 20
1195.472330097609
 30
0.0
 11
823.321303057996
 21
1194.472330097609
 31
0.0
 12
820.3213030579961
 22
1194.972330097609
 32
0.0
 13
820.3213030579961
 23
1194.972330097609
 33
0.0
  0
SOLID
  5
5476
330
4F6B
100
AcDbEntity
  8
AM_5
100
AcDbTrace
 10
846.3213030579961
 20
1195.472330097609
 30
0.0
 11
846.3213030579961
 21
1194.472330097609
 31
0.0
 12
849.3213030579962
 22
1194.972330097609
 32
0.0
 13
849.3213030579962
 23
1194.972330097609
 33
0.0
  0
MTEXT
  5
5477
330
4F6B
100
AcDbEntity
  8
AM_5
100
AcDbMText
 10
834.8213030579961
 20
1197.422674585798
 30
0.0
 40
3.5
 41
0.0
 71
     5
 72
     1
  1
29
 73
     1
 44
1.0
1001
ACAD
1000
MTEXTBEGIN
1070
    73
1070
     1
1070
    44
1040
1.0
1070
    74
1070
     0
1000
MTEXTEND
  0
POINT
  5
5478
330
4F6B
100
AcDbEntity
  8
Defpoints
 62
     0
100
AcDbPoint
 10
820.3213030579961
 20
1209.222330097609
 30
0.0
  0
POINT
  5
5479
330
4F6B
100
AcDbEntity
  8
Defpoints
 62
     0
100
AcDbPoint
 10
849.3213030579962
 20
1209.222330097609
 30
0.0
  0
POINT
  5
547A
330
4F6B
100
AcDbEntity
  8
Defpoints
 62
     0
100
AcDbPoint
 10
849.3213030579962
 20
1194.972330097609
 30
0.0
  0
ENDBLK
  5
4F76
330
4F6B
100
AcDbEntity
  8
0
100
AcDbBlockEnd
  0
BLOCK
  5
4F9B
330
4F91
100
AcDbEntity
  8
0
100
AcDbBlockBegin
  2
*D4
 70
     1
 10
0.0
 20
0.0
 30
0.0
  3
*D4
  1

  0
LINE
  5
547B
330
4F91
100
AcDbEntity
  8
AM_5
100
AcDbLine
 10
769.3213030579959
 20
1287.428997407745
 30
0.0
 11
769.3213030579959
 21
1273.928997407745
 31
0.0
  0
LINE
  5
547C
330
4F91
100
AcDbEntity
  8
AM_5
100
AcDbLine
 10
805.8213030579961
 20
1289.178997407745
 30
0.0
 11
805.8213030579961
 21
1273.928997407745
 31
0.0
  0
LINE
  5
547D
330
4F91
100
AcDbEntity
  8
AM_5
100
AcDbLine
 10
772.3213030579959
 20
1275.428997407745
 30
0.0
 11
802.821303057996
 21
1275.428997407745
 31
0.0
  0
SOLID
  5
547E
330
4F91
100
AcDbEntity
  8
AM_5
100
AcDbTrace
 10
772.3213030579959
 20
1275.928997407745
 30
0.0
 11
772.3213030579959
 21
1274.928997407746
 31
0.0
 12
769.3213030579959
 22
1275.428997407745
 32
0.0
 13
769.3213030579959
 23
1275.428997407745
 33
0.0
  0
SOLID
  5
547F
330
4F91
100
AcDbEntity
  8
AM_5
100
AcDbTrace
 10
802.821303057996
 20
1275.928997407745
 30
0.0
 11
802.821303057996
 21
1274.928997407746
 31
0.0
 12
805.8213030579961
 22
1275.428997407745
 32
0.0
 13
805.8213030579961
 23
1275.428997407745
 33
0.0
  0
MTEXT
  5
5480
330
4F91
100
AcDbEntity
  8
AM_5
100
AcDbMText
 10
787.571303057996
 20
1277.878997407746
 30
0.0
 40
3.5
 41
0.0
 71
     5
 72
     1
  1
36.5
 73
     1
 44
1.0
1001
ACAD
1000
MTEXTBEGIN
1070
    73
1070
     1
1070
    44
1040
1.0
1070
    74
1070
     0
1000
MTEXTEND
  0
POINT
  5
5481
330
4F91
100
AcDbEntity
  8
Defpoints
 62
     0
100
AcDbPoint
 10
769.3213030579959
 20
1288.428997407745
 30
0.0
  0
POINT
  5
5482
330
4F91
100
AcDbEntity
  8
Defpoints
 62
     0
100
AcDbPoint
 10
805.8213030579961
 20
1290.178997407745
 30
0.0
  0
POINT
  5
5483
330
4F91
100
AcDbEntity
  8
Defpoints
 62
     0
100
AcDbPoint
 10
805.8213030579961
 20
1275.428997407745
 30
0.0
  0
ENDBLK
  5
4F9C
330
4F91
100
AcDbEntity
  8
0
100
AcDbBlockEnd
  0
BLOCK
  5
4FC1
330
4FB7
100
AcDbEntity
  8
0
100
AcDbBlockBegin
  2
*D5
 70
     1
 10
0.0
 20
0.0
 30
0.0
  3
*D5
  1

  0
LINE
  5
5484
330
4FB7
100
AcDbEntity
  8
AM_5
100
AcDbLine
 10
805.8213030579961
 20
1289.178997407745
 30
0.0
 11
805.8213030579961
 21
1273.928997407745
 31
0.0
  0
LINE
  5
5485
330
4FB7
100
AcDbEntity
  8
AM_5
100
AcDbLine
 10
834.8213030579961
 20
1289.178997407745
 30
0.0
 11
834.8213030579961
 21
1273.928997407745
 31
0.0
  0
LINE
  5
5486
330
4FB7
100
AcDbEntity
  8
AM_5
100
AcDbLine
 10
808.8213030579961
 20
1275.428997407745
 30
0.0
 11
831.8213030579961
 21
1275.428997407745
 31
0.0
  0
SOLID
  5
5487
330
4FB7
100
AcDbEntity
  8
AM_5
100
AcDbTrace
 10
808.8213030579961
 20
1275.928997407745
 30
0.0
 11
808.8213030579961
 21
1274.928997407746
 31
0.0
 12
805.8213030579961
 22
1275.428997407745
 32
0.0
 13
805.8213030579961
 23
1275.428997407745
 33
0.0
  0
SOLID
  5
5488
330
4FB7
100
AcDbEntity
  8
AM_5
100
AcDbTrace
 10
831.8213030579961
 20
1275.928997407745
 30
0.0
 11
831.8213030579961
 21
1274.928997407746
 31
0.0
 12
834.8213030579961
 22
1275.428997407745
 32
0.0
 13
834.8213030579961
 23
1275.428997407745
 33
0.0
  0
MTEXT
  5
5489
330
4FB7
100
AcDbEntity
  8
AM_5
100
AcDbMText
 10
820.3213030579961
 20
1277.879341895934
 30
0.0
 40
3.5
 41
0.0
 71
     5
 72
     1
  1
29
 73
     1
 44
1.0
1001
ACAD
1000
MTEXTBEGIN
1070
    73
1070
     1
1070
    44
1040
1.0
1070
    74
1070
     0
1000
MTEXTEND
  0
POINT
  5
548A
330
4FB7
100
AcDbEntity
  8
Defpoints
 62
     0
100
AcDbPoint
 10
805.8213030579961
 20
1290.178997407745
 30
0.0
  0
POINT
  5
548B
330
4FB7
100
AcDbEntity
  8
Defpoints
 62
     0
100
AcDbPoint
 10
834.8213030579961
 20
1290.178997407745
 30
0.0
  0
POINT
  5
548C
330
4FB7
100
AcDbEntity
  8
Defpoints
 62
     0
100
AcDbPoint
 10
834.8213030579961
 20
1275.428997407745
 30
0.0
  0
ENDBLK
  5
4FC2
330
4FB7
100
AcDbEntity
  8
0
100
AcDbBlockEnd
  0
BLOCK
  5
500F
330
5005
100
AcDbEntity
  8
0
100
AcDbBlockBegin
  2
*D6
 70
     1
 10
0.0
 20
0.0
 30
0.0
  3
*D6
  1

  0
LINE
  5
548D
330
5005
100
AcDbEntity
  8
AM_5
100
AcDbLine
 10
769.3213030579959
 20
1287.428997407745
 30
0.0
 11
769.3213030579959
 21
1262.928997407746
 31
0.0
  0
LINE
  5
548E
330
5005
100
AcDbEntity
  8
AM_5
100
AcDbLine
 10
887.3213030579961
 20
1286.428997407745
 30
0.0
 11
887.3213030579961
 21
1262.928997407746
 31
0.0
  0
LINE
  5
548F
330
5005
100
AcDbEntity
  8
AM_5
100
AcDbLine
 10
772.3213030579959
 20
1264.428997407746
 30
0.0
 11
884.3213030579962
 21
1264.428997407746
 31
0.0
  0
SOLID
  5
5490
330
5005
100
AcDbEntity
  8
AM_5
100
AcDbTrace
 10
772.3213030579959
 20
1264.928997407746
 30
0.0
 11
772.3213030579959
 21
1263.928997407746
 31
0.0
 12
769.3213030579959
 22
1264.428997407746
 32
0.0
 13
769.3213030579959
 23
1264.428997407746
 33
0.0
  0
SOLID
  5
5491
330
5005
100
AcDbEntity
  8
AM_5
100
AcDbTrace
 10
884.3213030579962
 20
1264.928997407746
 30
0.0
 11
884.3213030579962
 21
1263.928997407746
 31
0.0
 12
887.3213030579961
 22
1264.428997407746
 32
0.0
 13
887.3213030579961
 23
1264.428997407746
 33
0.0
  0
MTEXT
  5
5492
330
5005
100
AcDbEntity
  8
AM_5
100
AcDbMText
 10
828.3213030579959
 20
1266.878997407746
 30
0.0
 40
3.5
 41
0.0
 71
     5
 72
     1
  1
118
 73
     1
 44
1.0
1001
ACAD
1000
MTEXTBEGIN
1070
    73
1070
     1
1070
    44
1040
1.0
1070
    74
1070
     0
1000
MTEXTEND
  0
POINT
  5
5493
330
5005
100
AcDbEntity
  8
Defpoints
 62
     0
100
AcDbPoint
 10
769.3213030579959
 20
1288.428997407745
 30
0.0
  0
POINT
  5
5494
330
5005
100
AcDbEntity
  8
Defpoints
 62
     0
100
AcDbPoint
 10
887.3213030579961
 20
1287.428997407745
 30
0.0
  0
POINT
  5
5495
330
5005
100
AcDbEntity
  8
Defpoints
 62
     0
100
AcDbPoint
 10
887.3213030579961
 20
1264.428997407746
 30
0.0
  0
ENDBLK
  5
5010
330
5005
100
AcDbEntity
  8
0
100
AcDbBlockEnd
  0
BLOCK
  5
5035
330
502B
100
AcDbEntity
  8
0
100
AcDbBlockBegin
  2
*D7
 70
     1
 10
0.0
 20
0.0
 30
0.0
  3
*D7
  1

  0
LINE
  5
5496
330
502B
100
AcDbEntity
  8
AM_5
100
AcDbLine
 10
888.3213030579961
 20
1287.428997407745
 30
0.0
 11
900.8213030579961
 21
1287.428997407745
 31
0.0
  0
LINE
  5
5497
330
502B
100
AcDbEntity
  8
AM_5
100
AcDbLine
 10
888.3213030579961
 20
1333.828997407745
 30
0.0
 11
900.8213030579961
 21
1333.828997407745
 31
0.0
  0
LINE
  5
5498
330
502B
100
AcDbEntity
  8
AM_5
100
AcDbLine
 10
899.3213030579962
 20
1290.428997407745
 30
0.0
 11
899.3213030579962
 21
1330.828997407745
 31
0.0
  0
SOLID
  5
5499
330
502B
100
AcDbEntity
  8
AM_5
100
AcDbTrace
 10
898.8213030579961
 20
1290.428997407745
 30
0.0
 11
899.8213030579961
 21
1290.428997407745
 31
0.0
 12
899.3213030579962
 22
1287.428997407745
 32
0.0
 13
899.3213030579962
 23
1287.428997407745
 33
0.0
  0
SOLID
  5
549A
330
502B
100
AcDbEntity
  8
AM_5
100
AcDbTrace
 10
898.8213030579961
 20
1330.828997407745
 30
0.0
 11
899.8213030579961
 21
1330.828997407745
 31
0.0
 12
899.3213030579962
 22
1333.828997407745
 32
0.0
 13
899.3213030579962
 23
1333.828997407745
 33
0.0
  0
MTEXT
  5
549B
330
502B
100
AcDbEntity
  8
AM_5
100
AcDbMText
 10
896.8713030579959
 20
1310.628997407746
 30
0.0
 40
3.5
 41
0.0
 71
     5
 72
     1
  1
46.4
 11
0.0000000000000001
 21
1.0
 31
0.0
 73
     1
 44
1.0
1001
ACAD
1000
MTEXTBEGIN
1070
    73
1070
     1
1070
    44
1040
1.0
1070
    74
1070
     0
1000
MTEXTEND
  0
POINT
  5
549C
330
502B
100
AcDbEntity
  8
Defpoints
 62
     0
100
AcDbPoint
 10
887.3213030579961
 20
1287.428997407745
 30
0.0
  0
POINT
  5
549D
330
502B
100
AcDbEntity
  8
Defpoints
 62
     0
100
AcDbPoint
 10
887.3213030579961
 20
1333.828997407745
 30
0.0
  0
POINT
  5
549E
330
502B
100
AcDbEntity
  8
Defpoints
 62
     0
100
AcDbPoint
 10
899.3213030579962
 20
1333.828997407745
 30
0.0
  0
ENDBLK
  5
5036
330
502B
100
AcDbEntity
  8
0
100
AcDbBlockEnd
  0
BLOCK
  5
505B
330
5051
100
AcDbEntity
  8
0
100
AcDbBlockBegin
  2
*D8
 70
     1
 10
0.0
 20
0.0
 30
0.0
  3
*D8
  1

  0
LINE
  5
57B3
330
5051
100
AcDbEntity
  8
AM_5
100
AcDbLine
 10
923.1307624954776
 20
1287.428997407745
 30
0.0
 11
910.6307624954776
 21
1287.428997407745
 31
0.0
  0
LINE
  5
57B4
330
5051
100
AcDbEntity
  8
AM_5
100
AcDbLine
 10
931.2807624954775
 20
1304.428997407745
 30
0.0
 11
910.6307624954776
 21
1304.428997407745
 31
0.0
  0
LINE
  5
57B5
330
5051
100
AcDbEntity
  8
AM_5
100
AcDbLine
 10
912.1307624954777
 20
1290.428997407745
 30
0.0
 11
912.1307624954777
 21
1301.428997407745
 31
0.0
  0
SOLID
  5
57B6
330
5051
100
AcDbEntity
  8
AM_5
100
AcDbTrace
 10
911.6307624954776
 20
1290.428997407745
 30
0.0
 11
912.6307624954776
 21
1290.428997407745
 31
0.0
 12
912.1307624954777
 22
1287.428997407745
 32
0.0
 13
912.1307624954777
 23
1287.428997407745
 33
0.0
  0
SOLID
  5
57B7
330
5051
100
AcDbEntity
  8
AM_5
100
AcDbTrace
 10
911.6307624954776
 20
1301.428997407745
 30
0.0
 11
912.6307624954776
 21
1301.428997407745
 31
0.0
 12
912.1307624954777
 22
1304.428997407745
 32
0.0
 13
912.1307624954777
 23
1304.428997407745
 33
0.0
  0
MTEXT
  5
57B8
330
5051
100
AcDbEntity
  8
AM_5
100
AcDbMText
 10
909.6807624954774
 20
1295.928997407746
 30
0.0
 40
3.5
 41
0.0
 71
     5
 72
     1
  1
17
 11
0.0000000000000001
 21
1.0
 31
0.0
 73
     1
 44
1.0
1001
ACAD
1000
MTEXTBEGIN
1070
    73
1070
     1
1070
    44
1040
1.0
1070
    74
1070
     0
1000
MTEXTEND
  0
POINT
  5
57B9
330
5051
100
AcDbEntity
  8
Defpoints
 62
     0
100
AcDbPoint
 10
924.1307624954776
 20
1287.428997407745
 30
0.0
  0
POINT
  5
57BA
330
5051
100
AcDbEntity
  8
Defpoints
 62
     0
100
AcDbPoint
 10
932.2807624954775
 20
1304.428997407745
 30
0.0
  0
POINT
  5
57BB
330
5051
100
AcDbEntity
  8
Defpoints
 62
     0
100
AcDbPoint
 10
912.1307624954777
 20
1304.428997407745
 30
0.0
  0
ENDBLK
  5
505C
330
5051
100
AcDbEntity
  8
0
100
AcDbBlockEnd
  0
BLOCK
  5
5081
330
5077
100
AcDbEntity
  8
0
100
AcDbBlockBegin
  2
*D9
 70
     1
 10
0.0
 20
0.0
 30
0.0
  3
*D9
  1

  0
LINE
  5
577D
330
5077
100
AcDbEntity
  8
AM_5
100
AcDbLine
 10
777.3213030579961
 20
1399.803714437368
 30
0.0
 11
755.8213030579959
 21
1399.803714437368
 31
0.0
  0
LINE
  5
577E
330
5077
100
AcDbEntity
  8
AM_5
100
AcDbLine
 10
849.3213030579962
 20
1376.803714437368
 30
0.0
 11
755.8213030579959
 21
1376.803714437368
 31
0.0
  0
LINE
  5
577F
330
5077
100
AcDbEntity
  8
AM_5
100
AcDbLine
 10
757.3213030579958
 20
1396.803714437369
 30
0.0
 11
757.3213030579958
 21
1379.803714437368
 31
0.0
  0
SOLID
  5
5780
330
5077
100
AcDbEntity
  8
AM_5
100
AcDbTrace
 10
756.8213030579959
 20
1396.803714437369
 30
0.0
 11
757.8213030579959
 21
1396.803714437369
 31
0.0
 12
757.3213030579958
 22
1399.803714437368
 32
0.0
 13
757.3213030579958
 23
1399.803714437368
 33
0.0
  0
SOLID
  5
5781
330
5077
100
AcDbEntity
  8
AM_5
100
AcDbTrace
 10
756.8213030579959
 20
1379.803714437368
 30
0.0
 11
757.8213030579959
 21
1379.803714437368
 31
0.0
 12
757.3213030579958
 22
1376.803714437368
 32
0.0
 13
757.3213030579958
 23
1376.803714437368
 33
0.0
  0
MTEXT
  5
5782
330
5077
100
AcDbEntity
  8
AM_5
100
AcDbMText
 10
754.8709585698067
 20
1388.303714437369
 30
0.0
 40
3.5
 41
0.0
 71
     5
 72
     1
  1
23
 11
0.0000000000000001
 21
1.0
 31
0.0
 73
     1
 44
1.0
1001
ACAD
1000
MTEXTBEGIN
1070
    73
1070
     1
1070
    44
1040
1.0
1070
    74
1070
     0
1000
MTEXTEND
  0
POINT
  5
5783
330
5077
100
AcDbEntity
  8
Defpoints
 62
     0
100
AcDbPoint
 10
778.3213030579961
 20
1399.803714437368
 30
0.0
  0
POINT
  5
5784
330
5077
100
AcDbEntity
  8
Defpoints
 62
     0
100
AcDbPoint
 10
850.3213030579962
 20
1376.803714437368
 30
0.0
  0
POINT
  5
5785
330
5077
100
AcDbEntity
  8
Defpoints
 62
     0
100
AcDbPoint
 10
757.3213030579958
 20
1376.803714437368
 30
0.0
  0
ENDBLK
  5
5082
330
5077
100
AcDbEntity
  8
0
100
AcDbBlockEnd
  0
BLOCK
  5
50A7
330
509D
100
AcDbEntity
  8
0
100
AcDbBlockBegin
  2
*D10
 70
     1
 10
0.0
 20
0.0
 30
0.0
  3
*D10
  1

  0
LINE
  5
5786
330
509D
100
AcDbEntity
  8
AM_5
100
AcDbLine
 10
769.3213030579959
 20
1403.303714437368
 30
0.0
 11
744.8213030579958
 21
1403.303714437368
 31
0.0
  0
LINE
  5
5787
330
509D
100
AcDbEntity
  8
AM_5
100
AcDbLine
 10
769.3213030579959
 20
1373.303714437368
 30
0.0
 11
744.8213030579958
 21
1373.303714437368
 31
0.0
  0
LINE
  5
5788
330
509D
100
AcDbEntity
  8
AM_5
100
AcDbLine
 10
746.3213030579959
 20
1400.303714437368
 30
0.0
 11
746.3213030579959
 21
1376.303714437368
 31
0.0
  0
SOLID
  5
5789
330
509D
100
AcDbEntity
  8
AM_5
100
AcDbTrace
 10
745.8213030579959
 20
1400.303714437368
 30
0.0
 11
746.8213030579959
 21
1400.303714437368
 31
0.0
 12
746.3213030579959
 22
1403.303714437368
 32
0.0
 13
746.3213030579959
 23
1403.303714437368
 33
0.0
  0
SOLID
  5
578A
330
509D
100
AcDbEntity
  8
AM_5
100
AcDbTrace
 10
745.8213030579959
 20
1376.303714437368
 30
0.0
 11
746.8213030579959
 21
1376.303714437368
 31
0.0
 12
746.3213030579959
 22
1373.303714437368
 32
0.0
 13
746.3213030579959
 23
1373.303714437368
 33
0.0
  0
MTEXT
  5
578B
330
509D
100
AcDbEntity
  8
AM_5
100
AcDbMText
 10
743.8713030579956
 20
1388.303714437368
 30
0.0
 40
3.5
 41
0.0
 71
     5
 72
     1
  1
30
 11
0.0000000000000001
 21
1.0
 31
0.0
 73
     1
 44
1.0
1001
ACAD
1000
MTEXTBEGIN
1070
    73
1070
     1
1070
    44
1040
1.0
1070
    74
1070
     0
1000
MTEXTEND
  0
POINT
  5
578C
330
509D
100
AcDbEntity
  8
Defpoints
 62
     0
100
AcDbPoint
 10
770.3213030579959
 20
1403.303714437368
 30
0.0
  0
POINT
  5
578D
330
509D
100
AcDbEntity
  8
Defpoints
 62
     0
100
AcDbPoint
 10
770.3213030579959
 20
1373.303714437368
 30
0.0
  0
POINT
  5
578E
330
509D
100
AcDbEntity
  8
Defpoints
 62
     0
100
AcDbPoint
 10
746.3213030579959
 20
1373.303714437368
 30
0.0
  0
ENDBLK
  5
50A8
330
509D
100
AcDbEntity
  8
0
100
AcDbBlockEnd
  0
BLOCK
  5
50CD
330
50C3
100
AcDbEntity
  8
0
100
AcDbBlockBegin
  2
*D11
 70
     1
 10
0.0
 20
0.0
 30
0.0
  3
*D11
  1

  0
LINE
  5
578F
330
50C3
100
AcDbEntity
  8
AM_5
100
AcDbLine
 10
806.321303057996
 20
1404.303714437369
 30
0.0
 11
806.321303057996
 21
1416.803714437369
 31
0.0
  0
LINE
  5
5790
330
50C3
100
AcDbEntity
  8
AM_5
100
AcDbLine
 10
834.3213030579962
 20
1399.803714437368
 30
0.0
 11
834.3213030579962
 21
1416.803714437369
 31
0.0
  0
LINE
  5
5791
330
50C3
100
AcDbEntity
  8
AM_5
100
AcDbLine
 10
809.3213030579962
 20
1415.303714437369
 30
0.0
 11
831.321303057996
 21
1415.303714437369
 31
0.0
  0
SOLID
  5
5792
330
50C3
100
AcDbEntity
  8
AM_5
100
AcDbTrace
 10
809.3213030579962
 20
1415.803714437369
 30
0.0
 11
809.3213030579962
 21
1414.803714437369
 31
0.0
 12
806.321303057996
 22
1415.303714437369
 32
0.0
 13
806.321303057996
 23
1415.303714437369
 33
0.0
  0
SOLID
  5
5793
330
50C3
100
AcDbEntity
  8
AM_5
100
AcDbTrace
 10
831.321303057996
 20
1415.803714437369
 30
0.0
 11
831.321303057996
 21
1414.803714437369
 31
0.0
 12
834.3213030579962
 22
1415.303714437369
 32
0.0
 13
834.3213030579962
 23
1415.303714437369
 33
0.0
  0
MTEXT
  5
5794
330
50C3
100
AcDbEntity
  8
AM_5
100
AcDbMText
 10
820.3213030579961
 20
1417.754058925558
 30
0.0
 40
3.5
 41
0.0
 71
     5
 72
     1
  1
28
 73
     1
 44
1.0
1001
ACAD
1000
MTEXTBEGIN
1070
    73
1070
     1
1070
    44
1040
1.0
1070
    74
1070
     0
1000
MTEXTEND
  0
POINT
  5
5795
330
50C3
100
AcDbEntity
  8
Defpoints
 62
     0
100
AcDbPoint
 10
806.321303057996
 20
1403.303714437369
 30
0.0
  0
POINT
  5
5796
330
50C3
100
AcDbEntity
  8
Defpoints
 62
     0
100
AcDbPoint
 10
834.3213030579962
 20
1398.803714437368
 30
0.0
  0
POINT
  5
5797
330
50C3
100
AcDbEntity
  8
Defpoints
 62
     0
100
AcDbPoint
 10
834.3213030579962
 20
1415.303714437369
 30
0.0
  0
ENDBLK
  5
50CE
330
50C3
100
AcDbEntity
  8
0
100
AcDbBlockEnd
  0
BLOCK
  5
50F3
330
50E9
100
AcDbEntity
  8
0
100
AcDbBlockBegin
  2
*D12
 70
     1
 10
0.0
 20
0.0
 30
0.0
  3
*D12
  1

  0
LINE
  5
5798
330
50E9
100
AcDbEntity
  8
AM_5
100
AcDbLine
 10
769.3213030579959
 20
1373.303714437368
 30
0.0
 11
769.3213030579959
 21
1359.803714437368
 31
0.0
  0
LINE
  5
5799
330
50E9
100
AcDbEntity
  8
AM_5
100
AcDbLine
 10
784.3213030579961
 20
1392.803714437368
 30
0.0
 11
784.3213030579961
 21
1359.803714437368
 31
0.0
  0
LINE
  5
579A
330
50E9
100
AcDbEntity
  8
AM_5
100
AcDbLine
 10
772.3213030579959
 20
1361.303714437368
 30
0.0
 11
781.3213030579961
 21
1361.303714437368
 31
0.0
  0
SOLID
  5
579B
330
50E9
100
AcDbEntity
  8
AM_5
100
AcDbTrace
 10
772.3213030579959
 20
1361.803714437369
 30
0.0
 11
772.3213030579959
 21
1360.803714437368
 31
0.0
 12
769.3213030579959
 22
1361.303714437368
 32
0.0
 13
769.3213030579959
 23
1361.303714437368
 33
0.0
  0
SOLID
  5
579C
330
50E9
100
AcDbEntity
  8
AM_5
100
AcDbTrace
 10
781.3213030579961
 20
1361.803714437369
 30
0.0
 11
781.3213030579961
 21
1360.803714437368
 31
0.0
 12
784.3213030579961
 22
1361.303714437368
 32
0.0
 13
784.3213030579961
 23
1361.303714437368
 33
0.0
  0
MTEXT
  5
579D
330
50E9
100
AcDbEntity
  8
AM_5
100
AcDbMText
 10
776.821303057996
 20
1363.753714437369
 30
0.0
 40
3.5
 41
0.0
 71
     5
 72
     1
  1
15
 73
     1
 44
1.0
1001
ACAD
1000
MTEXTBEGIN
1070
    73
1070
     1
1070
    44
1040
1.0
1070
    74
1070
     0
1000
MTEXTEND
  0
POINT
  5
579E
330
50E9
100
AcDbEntity
  8
Defpoints
 62
     0
100
AcDbPoint
 10
769.3213030579959
 20
1374.303714437368
 30
0.0
  0
POINT
  5
579F
330
50E9
100
AcDbEntity
  8
Defpoints
 62
     0
100
AcDbPoint
 10
784.3213030579961
 20
1393.803714437368
 30
0.0
  0
POINT
  5
57A0
330
50E9
100
AcDbEntity
  8
Defpoints
 62
     0
100
AcDbPoint
 10
784.3213030579961
 20
1361.303714437368
 30
0.0
  0
ENDBLK
  5
50F4
330
50E9
100
AcDbEntity
  8
0
100
AcDbBlockEnd
  0
BLOCK
  5
5119
330
510F
100
AcDbEntity
  8
0
100
AcDbBlockBegin
  2
*D13
 70
     1
 10
0.0
 20
0.0
 30
0.0
  3
*D13
  1

  0
LINE
  5
57A1
330
510F
100
AcDbEntity
  8
AM_5
100
AcDbLine
 10
784.3213030579961
 20
1391.803714437368
 30
0.0
 11
784.3213030579961
 21
1359.803714437369
 31
0.0
  0
LINE
  5
57A2
330
510F
100
AcDbEntity
  8
AM_5
100
AcDbLine
 10
856.321303057996
 20
1369.803714437368
 30
0.0
 11
856.321303057996
 21
1359.803714437369
 31
0.0
  0
LINE
  5
57A3
330
510F
100
AcDbEntity
  8
AM_5
100
AcDbLine
 10
787.3213030579961
 20
1361.303714437369
 30
0.0
 11
853.3213030579961
 21
1361.303714437369
 31
0.0
  0
SOLID
  5
57A4
330
510F
100
AcDbEntity
  8
AM_5
100
AcDbTrace
 10
787.3213030579961
 20
1361.803714437369
 30
0.0
 11
787.3213030579961
 21
1360.803714437369
 31
0.0
 12
784.3213030579961
 22
1361.303714437369
 32
0.0
 13
784.3213030579961
 23
1361.303714437369
 33
0.0
  0
SOLID
  5
57A5
330
510F
100
AcDbEntity
  8
AM_5
100
AcDbTrace
 10
853.3213030579961
 20
1361.803714437369
 30
0.0
 11
853.3213030579961
 21
1360.803714437369
 31
0.0
 12
856.321303057996
 22
1361.303714437369
 32
0.0
 13
856.321303057996
 23
1361.303714437369
 33
0.0
  0
MTEXT
  5
57A6
330
510F
100
AcDbEntity
  8
AM_5
100
AcDbMText
 10
820.3213030579961
 20
1363.754058925558
 30
0.0
 40
3.5
 41
0.0
 71
     5
 72
     1
  1
72
 73
     1
 44
1.0
1001
ACAD
1000
MTEXTBEGIN
1070
    73
1070
     1
1070
    44
1040
1.0
1070
    74
1070
     0
1000
MTEXTEND
  0
POINT
  5
57A7
330
510F
100
AcDbEntity
  8
Defpoints
 62
     0
100
AcDbPoint
 10
784.3213030579961
 20
1392.803714437368
 30
0.0
  0
POINT
  5
57A8
330
510F
100
AcDbEntity
  8
Defpoints
 62
     0
100
AcDbPoint
 10
856.321303057996
 20
1370.803714437369
 30
0.0
  0
POINT
  5
57A9
330
510F
100
AcDbEntity
  8
Defpoints
 62
     0
100
AcDbPoint
 10
856.321303057996
 20
1361.303714437369
 30
0.0
  0
ENDBLK
  5
511A
330
510F
100
AcDbEntity
  8
0
100
AcDbBlockEnd
  0
BLOCK
  5
513F
330
5135
100
AcDbEntity
  8
0
100
AcDbBlockBegin
  2
*D14
 70
     1
 10
0.0
 20
0.0
 30
0.0
  3
*D14
  1

  0
LINE
  5
57AA
330
5135
100
AcDbEntity
  8
AM_5
100
AcDbLine
 10
769.3213030579959
 20
1403.303714437368
 30
0.0
 11
769.3213030579959
 21
1416.803714437368
 31
0.0
  0
LINE
  5
57AB
330
5135
100
AcDbEntity
  8
AM_5
100
AcDbLine
 10
806.321303057996
 20
1404.303714437369
 30
0.0
 11
806.321303057996
 21
1416.803714437368
 31
0.0
  0
LINE
  5
57AC
330
5135
100
AcDbEntity
  8
AM_5
100
AcDbLine
 10
772.3213030579959
 20
1415.303714437368
 30
0.0
 11
803.3213030579961
 21
1415.303714437368
 31
0.0
  0
SOLID
  5
57AD
330
5135
100
AcDbEntity
  8
AM_5
100
AcDbTrace
 10
772.3213030579959
 20
1415.803714437368
 30
0.0
 11
772.3213030579959
 21
1414.803714437368
 31
0.0
 12
769.3213030579959
 22
1415.303714437368
 32
0.0
 13
769.3213030579959
 23
1415.303714437368
 33
0.0
  0
SOLID
  5
57AE
330
5135
100
AcDbEntity
  8
AM_5
100
AcDbTrace
 10
803.3213030579961
 20
1415.803714437368
 30
0.0
 11
803.3213030579961
 21
1414.803714437368
 31
0.0
 12
806.321303057996
 22
1415.303714437368
 32
0.0
 13
806.321303057996
 23
1415.303714437368
 33
0.0
  0
MTEXT
  5
57AF
330
5135
100
AcDbEntity
  8
AM_5
100
AcDbMText
 10
787.821303057996
 20
1417.753714437368
 30
0.0
 40
3.5
 41
0.0
 71
     5
 72
     1
  1
37
 73
     1
 44
1.0
1001
ACAD
1000
MTEXTBEGIN
1070
    73
1070
     1
1070
    44
1040
1.0
1070
    74
1070
     0
1000
MTEXTEND
  0
POINT
  5
57B0
330
5135
100
AcDbEntity
  8
Defpoints
 62
     0
100
AcDbPoint
 10
769.3213030579959
 20
1402.303714437368
 30
0.0
  0
POINT
  5
57B1
330
5135
100
AcDbEntity
  8
Defpoints
 62
     0
100
AcDbPoint
 10
806.321303057996
 20
1403.303714437369
 30
0.0
  0
POINT
  5
57B2
330
5135
100
AcDbEntity
  8
Defpoints
 62
     0
100
AcDbPoint
 10
806.321303057996
 20
1415.303714437368
 30
0.0
  0
ENDBLK
  5
5140
330
5135
100
AcDbEntity
  8
0
100
AcDbBlockEnd
  0
BLOCK
  5
5167
330
515B
100
AcDbEntity
  8
0
100
AcDbBlockBegin
  2
*D15
 70
     1
 10
0.0
 20
0.0
 30
0.0
  3
*D15
  1

  0
LINE
  5
54DE
330
515B
100
AcDbEntity
  8
AM_5
100
AcDbLine
 10
769.3213030579959
 20
1287.428997407745
 30
0.0
 11
755.8213030579959
 21
1287.428997407745
 31
0.0
  0
LINE
  5
54DF
330
515B
100
AcDbEntity
  8
AM_5
100
AcDbLine
 10
800.5713030579961
 20
1294.428997407745
 30
0.0
 11
755.8213030579959
 21
1294.428997407745
 31
0.0
  0
LINE
  5
54E0
330
515B
100
AcDbEntity
  8
AM_5
100
AcDbLine
 10
757.3213030579958
 20
1284.428997407745
 30
0.0
 11
757.3213030579958
 21
1281.428997407745
 31
0.0
  0
LINE
  5
54E1
330
515B
100
AcDbEntity
  8
AM_5
100
AcDbLine
 10
757.3213030579958
 20
1297.428997407745
 30
0.0
 11
757.3213030579958
 21
1300.428997407745
 31
0.0
  0
LINE
  5
54E2
330
515B
100
AcDbEntity
  8
AM_5
100
AcDbLine
 10
757.3213030579958
 20
1287.428997407745
 30
0.0
 11
757.3213030579958
 21
1294.428997407745
 31
0.0
  0
SOLID
  5
54E3
330
515B
100
AcDbEntity
  8
AM_5
100
AcDbTrace
 10
756.8213030579959
 20
1284.428997407745
 30
0.0
 11
757.8213030579959
 21
1284.428997407745
 31
0.0
 12
757.3213030579958
 22
1287.428997407745
 32
0.0
 13
757.3213030579958
 23
1287.428997407745
 33
0.0
  0
SOLID
  5
54E4
330
515B
100
AcDbEntity
  8
AM_5
100
AcDbTrace
 10
756.8213030579959
 20
1297.428997407745
 30
0.0
 11
757.8213030579959
 21
1297.428997407745
 31
0.0
 12
757.3213030579958
 22
1294.428997407745
 32
0.0
 13
757.3213030579958
 23
1294.428997407745
 33
0.0
  0
MTEXT
  5
54E5
330
515B
100
AcDbEntity
  8
AM_5
100
AcDbMText
 10
754.8713030579956
 20
1290.928997407746
 30
0.0
 40
3.5
 41
0.0
 71
     5
 72
     1
  1
7
 11
0.0000000000000001
 21
1.0
 31
0.0
 73
     1
 44
1.0
1001
ACAD
1000
MTEXTBEGIN
1070
    73
1070
     1
1070
    44
1040
1.0
1070
    74
1070
     0
1000
MTEXTEND
  0
POINT
  5
54E6
330
515B
100
AcDbEntity
  8
Defpoints
 62
     0
100
AcDbPoint
 10
770.3213030579959
 20
1287.428997407745
 30
0.0
  0
POINT
  5
54E7
330
515B
100
AcDbEntity
  8
Defpoints
 62
     0
100
AcDbPoint
 10
801.5713030579961
 20
1294.428997407745
 30
0.0
  0
POINT
  5
54E8
330
515B
100
AcDbEntity
  8
Defpoints
 62
     0
100
AcDbPoint
 10
757.3213030579958
 20
1294.428997407745
 30
0.0
  0
ENDBLK
  5
5168
330
515B
100
AcDbEntity
  8
0
100
AcDbBlockEnd
  0
BLOCK
  5
5191
330
5185
100
AcDbEntity
  8
0
100
AcDbBlockBegin
  2
*D16
 70
     1
 10
0.0
 20
0.0
 30
0.0
  3
*D16
  1

  0
LINE
  5
54E9
330
5185
100
AcDbEntity
  8
AM_5
100
AcDbLine
 10
861.3213030579961
 20
1333.828997407745
 30
0.0
 11
873.8213030579961
 21
1333.828997407745
 31
0.0
  0
LINE
  5
54EA
330
5185
100
AcDbEntity
  8
AM_5
100
AcDbLine
 10
861.3213030579961
 20
1329.828997407745
 30
0.0
 11
873.8213030579961
 21
1329.828997407745
 31
0.0
  0
LINE
  5
54EB
330
5185
100
AcDbEntity
  8
AM_5
100
AcDbLine
 10
872.3213030579961
 20
1336.828997407745
 30
0.0
 11
872.3213030579961
 21
1339.828997407745
 31
0.0
  0
LINE
  5
54EC
330
5185
100
AcDbEntity
  8
AM_5
100
AcDbLine
 10
872.3213030579961
 20
1326.828997407745
 30
0.0
 11
872.3213030579961
 21
1323.828997407745
 31
0.0
  0
LINE
  5
54ED
330
5185
100
AcDbEntity
  8
AM_5
100
AcDbLine
 10
872.3213030579961
 20
1333.828997407745
 30
0.0
 11
872.3213030579961
 21
1329.828997407745
 31
0.0
  0
SOLID
  5
54EE
330
5185
100
AcDbEntity
  8
AM_5
100
AcDbTrace
 10
871.8213030579962
 20
1336.828997407745
 30
0.0
 11
872.8213030579961
 21
1336.828997407745
 31
0.0
 12
872.3213030579961
 22
1333.828997407745
 32
0.0
 13
872.3213030579961
 23
1333.828997407745
 33
0.0
  0
SOLID
  5
54EF
330
5185
100
AcDbEntity
  8
AM_5
100
AcDbTrace
 10
871.8213030579962
 20
1326.828997407745
 30
0.0
 11
872.8213030579961
 21
1326.828997407745
 31
0.0
 12
872.3213030579961
 22
1329.828997407745
 32
0.0
 13
872.3213030579961
 23
1329.828997407745
 33
0.0
  0
MTEXT
  5
54F0
330
5185
100
AcDbEntity
  8
AM_5
100
AcDbMText
 10
869.8713030579959
 20
1331.828997407746
 30
0.0
 40
3.5
 41
0.0
 71
     5
 72
     1
  1
4
 11
0.0000000000000001
 21
1.0
 31
0.0
 73
     1
 44
1.0
1001
ACAD
1000
MTEXTBEGIN
1070
    73
1070
     1
1070
    44
1040
1.0
1070
    74
1070
     0
1000
MTEXTEND
  0
POINT
  5
54F1
330
5185
100
AcDbEntity
  8
Defpoints
 62
     0
100
AcDbPoint
 10
860.3213030579961
 20
1333.828997407745
 30
0.0
  0
POINT
  5
54F2
330
5185
100
AcDbEntity
  8
Defpoints
 62
     0
100
AcDbPoint
 10
860.3213030579961
 20
1329.828997407745
 30
0.0
  0
POINT
  5
54F3
330
5185
100
AcDbEntity
  8
Defpoints
 62
     0
100
AcDbPoint
 10
872.3213030579961
 20
1329.828997407745
 30
0.0
  0
ENDBLK
  5
5192
330
5185
100
AcDbEntity
  8
0
100
AcDbBlockEnd
  0
BLOCK
  5
5557
330
5552
100
AcDbEntity
  8
0
100
AcDbBlockBegin
  2
*S17
 70
     1
 10
0.0
 20
0.0
 30
0.0
  3
*S17
  1

  0
LINE
  5
5553
330
5552
100
AcDbEntity
  8
AM_5
 62
     5
100
AcDbLine
 10
922.0730112411445
 20
1277.017606046486
 30
0.0
 11
931.8685230186979
 21
1277.017606046486
 31
0.0
  0
LINE
  5
5554
330
5552
100
AcDbEntity
  8
AM_5
 62
     5
100
AcDbLine
 10
931.8685230186979
 20
1277.017606046486
 30
0.0
 11
939.1641002238788
 21
1296.715432372153
 31
0.0
  0
TRACE
  5
5555
330
5552
100
AcDbEntity
  8
AM_5
 62
     5
370
    35
100
AcDbTrace
 10
939.5961989903131
 20
1296.555393906047
 30
0.0
 11
938.7320014574447
 21
1296.875470838259
 31
0.0
 12
940.3797130664225
 22
1299.997548369043
 32
0.0
 13
940.3797130664225
 23
1299.997548369043
 33
0.0
  0
MTEXT
  5
5556
330
5552
100
AcDbEntity
  8
AM_5
 62
     2
100
AcDbMText
 10
922.0730112411445
 20
1282.408596216327
 30
0.0
 40
3.5
 41
0.0
 71
     9
 72
     5
  1

  7
ACISOTS
 73
     1
 44
1.0
1001
ACAD
1000
MTEXTBEGIN
1070
    73
1070
     1
1070
    44
1040
1.0
1070
    74
1070
     0
1000
MTEXTEND
  0
ENDBLK
  5
5558
330
5552
100
AcDbEntity
  8
0
100
AcDbBlockEnd
  0
BLOCK
  5
555F
330
555A
100
AcDbEntity
  8
0
100
AcDbBlockBegin
  2
*S18
 70
     1
 10
0.0
 20
0.0
 30
0.0
  3
*S18
  1

  0
LINE
  5
555B
330
555A
100
AcDbEntity
  8
AM_5
 62
     5
100
AcDbLine
 10
879.7884502504697
 20
1197.263513234893
 30
0.0
 11
866.1918869396842
 21
1197.263513234893
 31
0.0
  0
LINE
  5
555C
330
555A
100
AcDbEntity
  8
AM_5
 62
     5
100
AcDbLine
 10
866.1918869396842
 20
1197.263513234893
 30
0.0
 11
858.225112608696
 21
1210.948866109812
 31
0.0
  0
TRACE
  5
555D
330
555A
100
AcDbEntity
  8
AM_5
 62
     5
370
    35
100
AcDbTrace
 10
858.6233347656122
 20
1211.18068666181
 30
0.0
 11
857.8268904517798
 21
1210.717045557814
 31
0.0
 12
856.4642606895871
 22
1213.973663709482
 32
0.0
 13
856.4642606895871
 23
1213.973663709482
 33
0.0
  0
MTEXT
  5
555E
330
555A
100
AcDbEntity
  8
AM_5
 62
     2
100
AcDbMText
 10
879.7884502504697
 20
1203.39769869389
 30
0.0
 40
3.5
 41
0.0
 71
     9
 72
     5
  1

  7
ACISOTS
210
0.0
220
0.0
230
-1.0
 11
-1.0
 21
0.0
 31
0.0
 73
     1
 44
1.0
1001
ACAD
1000
MTEXTBEGIN
1070
    73
1070
     1
1070
    44
1040
1.0
1070
    74
1070
     0
1000
MTEXTEND
  0
ENDBLK
  5
5560
330
555A
100
AcDbEntity
  8
0
100
AcDbBlockEnd
  0
BLOCK
  5
5567
330
5562
100
AcDbEntity
  8
0
100
AcDbBlockBegin
  2
*S19
 70
     1
 10
0.0
 20
0.0
 30
0.0
  3
*S19
  1

  0
LINE
  5
5563
330
5562
100
AcDbEntity
  8
AM_5
 62
     5
100
AcDbLine
 10
862.1264559923886
 20
1276.152212203444
 30
0.0
 11
845.9782383333237
 21
1276.152212203444
 31
0.0
  0
LINE
  5
5564
330
5562
100
AcDbEntity
  8
AM_5
 62
     5
100
AcDbLine
 10
845.9782383333237
 20
1276.152212203444
 30
0.0
 11
838.0114640023355
 21
1289.837565078363
 31
0.0
  0
TRACE
  5
5565
330
5562
100
AcDbEntity
  8
AM_5
 62
     5
370
    35
100
AcDbTrace
 10
838.4096861592517
 20
1290.069385630361
 30
0.0
 11
837.6132418454194
 21
1289.605744526365
 31
0.0
 12
836.2506120832264
 22
1292.862362678033
 32
0.0
 13
836.2506120832264
 23
1292.862362678033
 33
0.0
  0
MTEXT
  5
5566
330
5562
100
AcDbEntity
  8
AM_5
 62
     2
100
AcDbMText
 10
862.1264559923886
 20
1282.916594412407
 30
0.0
 40
3.5
 41
0.0
 71
     9
 72
     5
  1

  7
ACISOTS
210
0.0
220
0.0
230
-1.0
 11
-1.0
 21
0.0
 31
0.0
 73
     1
 44
1.0
1001
ACAD
1000
MTEXTBEGIN
1070
    73
1070
     1
1070
    44
1040
1.0
1070
    74
1070
     0
1000
MTEXTEND
  0
ENDBLK
  5
5568
330
5562
100
AcDbEntity
  8
0
100
AcDbBlockEnd
  0
BLOCK
  5
556F
330
556A
100
AcDbEntity
  8
0
100
AcDbBlockBegin
  2
*S20
 70
     1
 10
0.0
 20
0.0
 30
0.0
  3
*S20
  1

  0
LINE
  5
556B
330
556A
100
AcDbEntity
  8
AM_5
 62
     5
100
AcDbLine
 10
882.092670648312
 20
1380.100478336378
 30
0.0
 11
868.7948287388683
 21
1380.100478336378
 31
0.0
  0
LINE
  5
556C
330
556A
100
AcDbEntity
  8
AM_5
 62
     5
100
AcDbLine
 10
868.7948287388683
 20
1380.100478336378
 30
0.0
 11
860.1016513318924
 21
1390.021079480153
 31
0.0
  0
TRACE
  5
556D
330
556A
100
AcDbEntity
  8
AM_5
 62
     5
370
    35
100
AcDbTrace
 10
860.4482073251851
 20
1390.324757925389
 30
0.0
 11
859.7550953385999
 21
1389.717401034918
 31
0.0
 12
857.7949845222576
 22
1392.653433603239
 32
0.0
 13
857.7949845222576
 23
1392.653433603239
 33
0.0
  0
MTEXT
  5
556E
330
556A
100
AcDbEntity
  8
AM_5
 62
     2
100
AcDbMText
 10
882.092670648312
 20
1385.491468506219
 30
0.0
 40
3.5
 41
0.0
 71
     9
 72
     5
  1

  7
ACISOTS
210
0.0
220
0.0
230
-1.0
 11
-1.0
 21
0.0
 31
0.0
 73
     1
 44
1.0
1001
ACAD
1000
MTEXTBEGIN
1070
    73
1070
     1
1070
    44
1040
1.0
1070
    74
1070
     0
1000
MTEXTEND
  0
ENDBLK
  5
5570
330
556A
100
AcDbEntity
  8
0
100
AcDbBlockEnd
  0
ENDSEC
  0
SECTION
  2
ENTITIES
  0
LINE
  5
40D9
330
1F
100
AcDbEntity
  8
LOGO
 62
     4
100
AcDbLine
 10
961.5085943963528
 20
1172.543958542988
 30
0.0
 11
737.1057397366696
 21
1172.543958542988
 31
0.0
  0
LWPOLYLINE
  5
40DA
330
1F
100
AcDbEntity
  8
LOGO
 62
     4
100
AcDbPolyline
 90
        4
 70
     1
 43
0.0
 10
737.1057397366696
 20
1172.543958542988
 10
961.5085943963528
 20
1172.543958542988
 10
961.5085943963528
 20
1439.463344923635
 10
737.1057397366696
 20
1439.463344923635
1001
GENIUS_GENREC_14
1002
{
1000
PYDIR
1011
737.1057397366696
1021
1439.463344923635
1031
0.0
1002
}
1002
{
1000
PXDIR
1011
961.5085943963528
1021
1172.543958542988
1031
0.0
1002
}
1002
{
1000
PORI
1011
737.1057397366696
1021
1172.543958542988
1031
0.0
1002
}
1002
{
1000
PINS
1011
737.1057397366696
1021
1172.543958542988
1031
0.0
1002
}
1002
{
1000
PINS2
1011
961.5085943963528
1021
1439.463344923635
1031
0.0
1002
}
1002
{
1000
C
1070
     1
1002
}
1001
GENIUS_GENODEF_13
1002
{
1000
HIER
1070
     0
1002
}
1002
{
1000
MANEDIT
1070
     0
1002
}
1002
{
1000
NOSEL
1070
     0
1002
}
1002
{
1000
BEHIND
1070
     0
1002
}
1002
{
1000
OTHER
1070
     0
1002
}
1002
{
1000
REACTOR
1002
}
1001
GENIUS_GENOBJ-N-REC_13
1002
{
1000
OWNER
1000
GEN
1002
}
  0
LWPOLYLINE
  5
40DB
330
1F
100
AcDbEntity
  8
LOGO
 62
     4
100
AcDbPolyline
 90
        4
 70
     1
 43
0.0
 10
737.1057397366696
 20
1172.543958542988
 10
961.5085943963528
 20
1172.543958542988
 10
961.5085943963528
 20
1146.411742941178
 10
737.1057397366696
 20
1146.411742941178
1001
GENIUS_GENREC_14
1002
{
1000
PYDIR
1011
737.1057397366696
1021
1146.411742941178
1031
0.0
1002
}
1002
{
1000
PXDIR
1011
961.5085943963528
1021
1172.543958542988
1031
0.0
1002
}
1002
{
1000
PORI
1011
737.1057397366696
1021
1172.543958542988
1031
0.0
1002
}
1002
{
1000
PINS
1011
737.1057397366696
1021
1172.543958542988
1031
0.0
1002
}
1002
{
1000
PINS2
1011
961.5085943963528
1021
1146.411742941178
1031
0.0
1002
}
1002
{
1000
C
1070
     1
1002
}
1001
GENIUS_GENOBJ-N-REC_13
1002
{
1000
OWNER
1000
GEN
1002
}
1001
GENIUS_GENODEF_13
1002
{
1000
HIER
1070
     0
1002
}
1002
{
1000
MANEDIT
1070
     0
1002
}
1002
{
1000
NOSEL
1070
     0
1002
}
1002
{
1000
BEHIND
1070
     0
1002
}
1002
{
1000
OTHER
1070
     0
1002
}
1002
{
1000
REACTOR
1002
}
  0
TEXT
  5
40DC
330
1F
100
AcDbEntity
  8
LOGO
 62
     7
100
AcDbText
 10
796.1105522359003
 20
1161.095879565481
 30
0.0
 40
3.484295413574661
  1
Order example:
 41
0.8
  7
CHINESET
100
AcDbText
  0
TEXT
  5
40DD
330
1F
100
AcDbEntity
  8
LOGO
 62
     7
100
AcDbText
 10
796.7356636470466
 20
1166.001046075224
 30
0.0
 40
5.22644312036199
  1
訂購代號：
  7
CHINESET
100
AcDbText
  0
LINE
  5
40DE
330
1F
100
AcDbEntity
  8
LOGO
 62
     4
100
AcDbLine
 10
794.5966140606516
 20
1146.411742941178
 30
0.0
 11
794.5966140606516
 21
1172.543958542988
 31
0.0
  0
TEXT
  5
40DF
330
1F
100
AcDbEntity
  8
LOGO
  6
Continuous
100
AcDbText
 10
746.4925490474215
 20
1151.545377259202
 30
0.0
 40
3.919832340271493
  1
金器工業股份有限公司
  7
CHINESET
100
AcDbText
  0
TEXT
  5
40E0
330
1F
100
AcDbEntity
  8
LOGO
  6
Continuous
100
AcDbText
 10
739.2925925389278
 20
1147.624776939118
 30
0.0
 40
2.613221560180995
  1
MINDMAN INDUSTRIAL CO., LTD.
 41
0.85
  7
CHINESET
100
AcDbText
  0
LINE
  5
40E1
330
1F
100
AcDbEntity
  8
LOGO
 62
     4
100
AcDbLine
 10
794.5966140606516
 20
1167.317515422626
 30
0.0
 11
756.2693645113301
 21
1167.317515422626
 31
0.0
  0
LINE
  5
40E2
330
1F
100
AcDbEntity
  8
LOGO
 62
     4
100
AcDbLine
 10
794.5966140606516
 20
1162.091072302264
 30
0.0
 11
756.2693645113301
 21
1162.091072302264
 31
0.0
  0
LINE
  5
40E3
330
1F
100
AcDbEntity
  8
LOGO
 62
     4
100
AcDbLine
 10
794.5966140606516
 20
1156.864629181903
 30
0.0
 11
737.1057397366696
 21
1156.864629181903
 31
0.0
  0
LINE
  5
40E4
330
1F
100
AcDbEntity
  8
LOGO
 62
     4
100
AcDbLine
 10
756.2693645113301
 20
1156.864629181903
 30
0.0
 11
756.2693645113301
 21
1172.543958542988
 31
0.0
  0
TEXT
  5
40E5
330
1F
100
AcDbEntity
  8
LOGO
100
AcDbText
 10
782.4642305596674
 20
1158.171239961992
 30
0.0
 40
2.613221560180995
  1
mm
  7
CHINESET
 72
     1
 11
785.6996477294154
 21
1159.477850742083
 31
0.0
100
AcDbText
 73
     2
  0
TEXT
  5
40E6
330
1F
100
AcDbEntity
  8
LOGO
100
AcDbText
 10
781.0954002186202
 20
1168.624126202716
 30
0.0
 40
2.613221560180995
  1
1 : 1
  7
CHINESET
 72
     1
 11
785.6996477294154
 21
1169.930736982807
 31
0.0
100
AcDbText
 73
     2
  0
LINE
  5
40E7
330
1F
100
AcDbEntity
  8
LOGO
 62
     4
100
AcDbLine
 10
777.175136992778
 20
1156.864629181903
 30
0.0
 11
777.175136992778
 21
1172.543958542988
 31
0.0
  0
TEXT
  5
40E8
330
1F
100
AcDbEntity
  8
LOGO
100
AcDbText
 10
758.4241056817115
 20
1168.625412236949
 30
171.2662360232331
 40
2.613221560180995
  1
比例 Scale:
 41
0.9
  7
CHINESET
 72
     4
 11
766.7222507520541
 21
1169.930736982807
 31
171.2662360232331
100
AcDbText
  0
TEXT
  5
40E9
330
1F
100
AcDbEntity
  8
LOGO
100
AcDbText
 10
758.2736121186475
 20
1163.434442227497
 30
171.2662360232331
 40
2.613221560180995
  1
投影  View:
 41
0.9
  7
CHINESET
 72
     4
 11
766.7222507520541
 21
1164.704293862445
 31
171.2662360232331
100
AcDbText
  0
TEXT
  5
40EA
330
1F
100
AcDbEntity
  8
LOGO
100
AcDbText
 10
758.5291011908259
 20
1158.171239961992
 30
171.2662360232331
 40
2.613221560180995
  1
單位  Unit:
 41
0.9
  7
CHINESET
 72
     4
 11
766.7222507520541
 21
1159.477850742083
 31
171.2662360232331
100
AcDbText
  0
SOLID
  5
40EB
330
1F
100
AcDbEntity
  8
LOGO
 62
     5
100
AcDbTrace
 10
739.8169990443733
 20
1161.208738062905
 30
0.0
 11
740.9468874760618
 21
1161.208738062904
 31
0.0
 12
745.6612495531069
 22
1171.923197328916
 32
0.0
 13
746.791137984796
 23
1171.923197328916
 33
0.0
  0
SOLID
  5
40EC
330
1F
100
AcDbEntity
  8
LOGO
 62
     5
100
AcDbTrace
 10
741.4144275167618
 20
1161.208738062905
 30
0.0
 11
742.5443159484502
 21
1161.208738062905
 31
0.0
 12
746.791137984796
 22
1171.066040587635
 32
0.0
 13
745.6612495531069
 23
1166.923116338111
 33
0.0
  0
SOLID
  5
40ED
330
1F
100
AcDbEntity
  8
LOGO
 62
     2
100
AcDbTrace
 10
740.9468874760618
 20
1161.208738062904
 30
0.0
 11
741.4144275167618
 21
1161.208738062905
 31
0.0
 12
746.791137984796
 22
1171.923197328916
 32
0.0
 13
747.2586780254953
 23
1171.923197328916
 33
0.0
  0
SOLID
  5
40EE
330
1F
100
AcDbEntity
  8
LOGO
 62
     5
100
AcDbTrace
 10
738.0055108057924
 20
1157.312571057083
 30
0.0
 11
738.3951275063751
 21
1157.312571057083
 31
0.0
 12
739.4923184605552
 22
1159.260654559993
 32
0.0
 13
739.8819351611368
 23
1159.260654559993
 33
0.0
  0
SOLID
  5
40EF
330
1F
100
AcDbEntity
  8
LOGO
 62
     5
100
AcDbTrace
 10
739.4923184605552
 20
1159.260654559993
 30
0.0
 11
739.8819351611368
 21
1159.260654559993
 31
0.0
 12
739.4923184605552
 22
1157.312571057083
 32
0.0
 13
739.8819351611368
 23
1157.312571057083
 33
0.0
  0
SOLID
  5
40F0
330
1F
100
AcDbEntity
  8
LOGO
 62
     5
100
AcDbTrace
 10
739.4923184605552
 20
1157.312571057083
 30
0.0
 11
739.8819351611368
 21
1157.312571057083
 31
0.0
 12
740.9791261153184
 22
1159.260654559993
 32
0.0
 13
741.3687428159005
 23
1159.260654559993
 33
0.0
  0
SOLID
  5
40F1
330
1F
100
AcDbEntity
  8
LOGO
 62
     5
100
AcDbTrace
 10
740.9791261153184
 20
1159.260654559993
 30
0.0
 11
741.3687428159005
 21
1159.260654559993
 31
0.0
 12
740.9791261153184
 22
1157.312571057083
 32
0.0
 13
741.3687428159005
 23
1157.312571057083
 33
0.0
  0
POLYLINE
  5
40F2
330
1F
100
AcDbEntity
  8
LOGO
 62
     5
100
AcDb2dPolyline
 66
     1
 10
0.0
 20
0.0
 30
0.0
 40
0.390241086320362
 41
0.390241086320362
  0
VERTEX
  5
40F3
330
40F2
100
AcDbEntity
  8
LOGO
 62
     5
100
AcDbVertex
100
AcDb2dVertex
 10
754.0389451942335
 20
1158.481421158829
 30
0.0
 42
1.0
  0
VERTEX
  5
40F4
330
40F2
100
AcDbEntity
  8
LOGO
 62
     5
100
AcDbVertex
100
AcDb2dVertex
 10
752.8682219352722
 20
1158.481421158829
 30
0.0
 42
1.0
  0
SEQEND
  5
40F5
330
40F2
100
AcDbEntity
  8
LOGO
 62
     5
  0
POLYLINE
  5
40F6
330
1F
100
AcDbEntity
  8
LOGO
 62
     5
100
AcDb2dPolyline
 66
     1
 10
0.0
 20
0.0
 30
0.0
 70
     1
  0
VERTEX
  5
40F7
330
40F6
100
AcDbEntity
  8
LOGO
 62
     5
100
AcDbVertex
100
AcDb2dVertex
 10
750.6613565183593
 20
1158.286612808537
 30
0.0
 42
1.000000057330635
  0
VERTEX
  5
40F8
330
40F6
100
AcDbEntity
  8
LOGO
 62
     5
100
AcDbVertex
100
AcDb2dVertex
 10
751.830206620106
 20
1158.286612808537
 30
0.0
 42
1.000000057330635
  0
SEQEND
  5
40F9
330
40F6
100
AcDbEntity
  8
LOGO
 62
     5
  0
CIRCLE
  5
40FA
330
1F
100
AcDbEntity
  8
LOGO
 62
     5
100
AcDbCircle
 10
751.2457815692336
 20
1158.286612808537
 30
0.0
 40
0.5844250508733742
  0
POLYLINE
  5
40FB
330
1F
100
AcDbEntity
  8
LOGO
 62
     5
100
AcDb2dPolyline
 66
     1
 10
0.0
 20
0.0
 30
0.0
 70
     1
 40
0.390241086320362
 41
0.390241086320362
  0
VERTEX
  5
40FC
330
40FB
100
AcDbEntity
  8
LOGO
 62
     5
100
AcDbVertex
100
AcDb2dVertex
 10
750.4652993965923
 20
1158.286612808537
 30
0.0
 42
1.0
  0
VERTEX
  5
40FD
330
40FB
100
AcDbEntity
  8
LOGO
 62
     5
100
AcDbVertex
100
AcDb2dVertex
 10
752.0262637418737
 20
1158.286612808537
 30
0.0
 42
1.0
  0
SEQEND
  5
40FE
330
40FB
100
AcDbEntity
  8
LOGO
 62
     5
  0
LINE
  5
40FF
330
1F
100
AcDbEntity
  8
LOGO
100
AcDbLine
 10
754.2328169659167
 20
1157.312571057083
 30
0.0
 11
754.2328169659167
 21
1158.481421158829
 31
0.0
  0
SOLID
  5
4100
330
1F
100
AcDbEntity
  8
LOGO
 62
     5
100
AcDbTrace
 10
751.8301676584376
 20
1159.260654559993
 30
0.0
 11
752.2197843590191
 21
1159.260654559993
 31
0.0
 12
751.8301676584376
 22
1157.312571057083
 32
0.0
 13
752.2197843590191
 23
1157.312571057083
 33
0.0
  0
SOLID
  5
4101
330
1F
100
AcDbEntity
  8
LOGO
 62
     5
100
AcDbTrace
 10
752.6743501635878
 20
1157.312571057083
 30
0.0
 11
753.0639668641705
 21
1157.312571057083
 31
0.0
 12
752.6743501635878
 22
1159.260654559993
 32
0.0
 13
753.0639668641705
 23
1159.260654559993
 33
0.0
  0
SOLID
  5
4102
330
1F
100
AcDbEntity
  8
LOGO
 62
     5
100
AcDbTrace
 10
753.8432002653351
 20
1158.481421158829
 30
0.0
 11
754.2328169659167
 21
1158.481421158829
 31
0.0
 12
753.8432002653351
 22
1157.312571057083
 32
0.0
 13
754.2328169659167
 23
1157.312571057083
 33
0.0
  0
SOLID
  5
4103
330
1F
100
AcDbEntity
  8
LOGO
 62
     5
100
AcDbTrace
 10
752.6353884935295
 20
1171.066040587635
 30
0.0
 11
751.5055000618416
 21
1166.923116338111
 31
0.0
 12
752.6353884935295
 22
1161.208738062904
 32
0.0
 13
751.5055000618416
 23
1161.208738062904
 33
0.0
  0
SOLID
  5
4104
330
1F
100
AcDbEntity
  8
LOGO
 62
     5
100
AcDbTrace
 10
753.1029285342287
 20
1161.208738062904
 30
0.0
 11
754.2328169659167
 21
1161.208738062904
 31
0.0
 12
753.1029285342287
 22
1171.923197328916
 32
0.0
 13
754.2328169659167
 23
1171.923197328916
 33
0.0
  0
SOLID
  5
4105
330
1F
100
AcDbEntity
  8
LOGO
 62
     2
100
AcDbTrace
 10
752.6353884935295
 20
1171.923197328916
 30
0.0
 11
753.1029285342287
 21
1171.923197328916
 31
0.0
 12
752.6353884935295
 22
1161.208738062904
 32
0.0
 13
753.1029285342287
 23
1161.208738062904
 33
0.0
  0
POLYLINE
  5
4106
330
1F
100
AcDbEntity
  8
LOGO
 62
     5
100
AcDb2dPolyline
 66
     1
 10
0.0
 20
0.0
 30
0.0
 40
0.390241086320362
 41
0.390241086320362
  0
VERTEX
  5
4107
330
4106
100
AcDbEntity
  8
LOGO
 62
     5
100
AcDbVertex
100
AcDb2dVertex
 10
748.4544131781079
 20
1158.481421158829
 30
0.0
 42
1.0
  0
VERTEX
  5
4108
330
4106
100
AcDbEntity
  8
LOGO
 62
     5
100
AcDbVertex
100
AcDb2dVertex
 10
747.2836899191466
 20
1158.481421158829
 30
0.0
 42
1.0
  0
SEQEND
  5
4109
330
4106
100
AcDbEntity
  8
LOGO
 62
     5
  0
POLYLINE
  5
410A
330
1F
100
AcDbEntity
  8
LOGO
 62
     5
100
AcDb2dPolyline
 66
     1
 10
0.0
 20
0.0
 30
0.0
 40
0.390241086320362
 41
0.390241086320362
  0
VERTEX
  5
410B
330
410A
100
AcDbEntity
  8
LOGO
 62
     5
100
AcDbVertex
100
AcDb2dVertex
 10
749.6232632798536
 20
1158.481421158829
 30
0.0
 42
1.0
  0
VERTEX
  5
410C
330
410A
100
AcDbEntity
  8
LOGO
 62
     5
100
AcDbVertex
100
AcDb2dVertex
 10
748.452540020893
 20
1158.481421158829
 30
0.0
 42
1.0
  0
SEQEND
  5
410D
330
410A
100
AcDbEntity
  8
LOGO
 62
     5
  0
POLYLINE
  5
410E
330
1F
100
AcDbEntity
  8
LOGO
 62
     5
100
AcDb2dPolyline
 66
     1
 10
0.0
 20
0.0
 30
0.0
 40
0.390241086320362
 41
0.390241086320362
  0
VERTEX
  5
410F
330
410E
100
AcDbEntity
  8
LOGO
 62
     5
100
AcDbVertex
100
AcDb2dVertex
 10
744.038731263728
 20
1158.481421158829
 30
0.0
 42
1.0
  0
VERTEX
  5
4110
330
410E
100
AcDbEntity
  8
LOGO
 62
     5
100
AcDbVertex
100
AcDb2dVertex
 10
742.8680080047674
 20
1158.481421158829
 30
0.0
 42
1.0
  0
SEQEND
  5
4111
330
410E
100
AcDbEntity
  8
LOGO
 62
     5
  0
SOLID
  5
4112
330
1F
100
AcDbEntity
  8
LOGO
 62
     5
100
AcDbTrace
 10
742.6741362330836
 20
1159.260654559993
 30
0.0
 11
743.063752933665
 21
1159.260654559993
 31
0.0
 12
742.6741362330836
 22
1157.312571057083
 32
0.0
 13
743.063752933665
 23
1157.312571057083
 33
0.0
  0
SOLID
  5
4113
330
1F
100
AcDbEntity
  8
LOGO
 62
     5
100
AcDbTrace
 10
743.8429863348305
 20
1158.481421158829
 30
0.0
 11
744.2326030354131
 21
1158.481421158829
 31
0.0
 12
743.8429863348305
 22
1157.312571057083
 32
0.0
 13
744.2326030354131
 23
1157.312571057083
 33
0.0
  0
POLYLINE
  5
4114
330
1F
100
AcDbEntity
  8
LOGO
 62
     5
100
AcDb2dPolyline
 66
     1
 10
0.0
 20
0.0
 30
0.0
 70
     1
 40
0.390241086320362
 41
0.390241086320362
  0
VERTEX
  5
4115
330
4114
100
AcDbEntity
  8
LOGO
 62
     5
100
AcDbVertex
100
AcDb2dVertex
 10
744.8807673804663
 20
1158.286612808537
 30
0.0
 42
1.0
  0
VERTEX
  5
4116
330
4114
100
AcDbEntity
  8
LOGO
 62
     5
100
AcDbVertex
100
AcDb2dVertex
 10
746.4417317257481
 20
1158.286612808537
 30
0.0
 42
1.0
  0
SEQEND
  5
4117
330
4114
100
AcDbEntity
  8
LOGO
 62
     5
  0
SOLID
  5
4118
330
1F
100
AcDbEntity
  8
LOGO
 62
     5
100
AcDbTrace
 10
746.245635642311
 20
1159.845079610867
 30
0.0
 11
746.635252342893
 21
1159.845079610867
 31
0.0
 12
746.245635642311
 22
1157.312571057083
 32
0.0
 13
746.635252342893
 23
1157.312571057083
 33
0.0
  0
SOLID
  5
4119
330
1F
100
AcDbEntity
  8
LOGO
 62
     5
100
AcDbTrace
 10
747.0898181474634
 20
1159.260654559993
 30
0.0
 11
747.4794348480449
 21
1159.260654559993
 31
0.0
 12
747.0898181474634
 22
1157.312571057083
 32
0.0
 13
747.4794348480449
 23
1157.312571057083
 33
0.0
  0
SOLID
  5
411A
330
1F
100
AcDbEntity
  8
LOGO
 62
     5
100
AcDbTrace
 10
748.258668249209
 20
1158.481421158829
 30
0.0
 11
748.6482849497916
 21
1158.481421158829
 31
0.0
 12
748.258668249209
 22
1157.312571057083
 32
0.0
 13
748.6482849497916
 23
1157.312571057083
 33
0.0
  0
SOLID
  5
411B
330
1F
100
AcDbEntity
  8
LOGO
 62
     5
100
AcDbTrace
 10
749.427518350956
 20
1158.481421158829
 30
0.0
 11
749.817135051538
 21
1158.481421158829
 31
0.0
 12
749.427518350956
 22
1157.312571057082
 32
0.0
 13
749.817135051538
 23
1157.312571057082
 33
0.0
  0
SOLID
  5
411C
330
1F
100
AcDbEntity
  8
LOGO
 62
     5
100
AcDbTrace
 10
741.8299537279316
 20
1159.533386250401
 30
0.0
 11
742.219570428515
 21
1159.533386250401
 31
0.0
 12
741.8299537279316
 22
1159.845079610867
 32
0.0
 13
742.219570428515
 23
1159.845079610867
 33
0.0
  0
SOLID
  5
411D
330
1F
100
AcDbEntity
  8
LOGO
 62
     5
100
AcDbTrace
 10
741.8299537279316
 20
1159.260654559993
 30
0.0
 11
742.219570428515
 21
1159.260654559993
 31
0.0
 12
741.8299537279316
 22
1157.312571057082
 32
0.0
 13
742.219570428515
 23
1157.312571057083
 33
0.0
  0
SOLID
  5
411E
330
1F
100
AcDbEntity
  8
LOGO
 62
     5
100
AcDbTrace
 10
745.6612495531069
 20
1161.208738062905
 30
0.0
 11
746.791137984796
 21
1161.208738062905
 31
0.0
 12
745.6612495531069
 22
1166.923116338111
 32
0.0
 13
746.791137984796
 23
1171.066040587635
 33
0.0
  0
SOLID
  5
411F
330
1F
100
AcDbEntity
  8
LOGO
 62
     5
100
AcDbTrace
 10
747.2586780254953
 20
1171.923197328916
 30
0.0
 11
748.3885664571832
 21
1171.923197328916
 31
0.0
 12
747.2586780254953
 22
1162.065894804185
 32
0.0
 13
748.3885664571832
 23
1166.20881905371
 33
0.0
  0
SOLID
  5
4120
330
1F
100
AcDbEntity
  8
LOGO
 62
     2
100
AcDbTrace
 10
746.791137984796
 20
1171.923197328916
 30
0.0
 11
747.2586780254953
 21
1171.923197328916
 31
0.0
 12
746.791137984796
 22
1161.208738062905
 32
0.0
 13
747.2586780254953
 23
1161.208738062905
 33
0.0
  0
SOLID
  5
4121
330
1F
100
AcDbEntity
  8
LOGO
 62
     5
100
AcDbTrace
 10
747.2586780254953
 20
1162.065894804185
 30
0.0
 11
748.3885664571832
 21
1166.20881905371
 31
0.0
 12
752.6353884935295
 22
1171.923197328916
 32
0.0
 13
751.5055000618416
 23
1171.923197328916
 33
0.0
  0
SOLID
  5
4122
330
1F
100
AcDbEntity
  8
LOGO
 62
     5
100
AcDbTrace
 10
747.2586780254953
 20
1161.208738062905
 30
0.0
 11
748.3885664571832
 21
1161.208738062905
 31
0.0
 12
752.6353884935295
 22
1171.066040587635
 32
0.0
 13
751.5055000618416
 23
1166.923116338111
 33
0.0
  0
SOLID
  5
4123
330
1F
100
AcDbEntity
  8
LOGO
 62
     2
100
AcDbTrace
 10
746.791137984796
 20
1161.208738062905
 30
0.0
 11
747.2586780254953
 21
1161.208738062905
 31
0.0
 12
752.6353884935295
 22
1171.923197328916
 32
0.0
 13
753.1029285342287
 23
1171.923197328916
 33
0.0
  0
LINE
  5
4124
330
1F
100
AcDbEntity
  8
LOGO
 62
     4
100
AcDbLine
 10
842.9329788693385
 20
1158.171239961993
 30
0.0
 11
842.9329788693385
 21
1148.589427574662
 31
0.0
  0
LINE
  5
4125
330
1F
100
AcDbEntity
  8
LOGO
 62
     4
100
AcDbLine
 10
830.5403168143351
 20
1158.171239961993
 30
0.0
 11
830.5403168143351
 21
1148.589427574662
 31
0.0
  0
LINE
  5
4126
330
1F
100
AcDbEntity
  8
LOGO
 62
     4
100
AcDbLine
 10
842.9329788693385
 20
1148.589427574662
 30
0.0
 11
830.5403168143351
 21
1148.589427574662
 31
0.0
  0
LINE
  5
4127
330
1F
100
AcDbEntity
  8
LOGO
 62
     4
100
AcDbLine
 10
851.2734816686373
 20
1169.930736982807
 30
0.0
 11
830.5403168143351
 21
1169.930736982807
 31
0.0
  0
LINE
  5
4128
330
1F
100
AcDbEntity
  8
LOGO
 62
     4
100
AcDbLine
 10
851.2734816686373
 20
1162.091072302264
 30
0.0
 11
830.5403168143351
 21
1162.091072302264
 31
0.0
  0
LINE
  5
4129
330
1F
100
AcDbEntity
  8
LOGO
 62
     4
100
AcDbLine
 10
830.5403168143351
 20
1169.930736982807
 30
0.0
 11
830.5403168143351
 21
1162.091072302264
 31
0.0
  0
LINE
  5
412A
330
1F
100
AcDbEntity
  8
LOGO
 62
     4
100
AcDbLine
 10
851.2734816686373
 20
1169.930736982807
 30
0.0
 11
851.2734816686373
 21
1162.091072302264
 31
0.0
  0
LINE
  5
412B
330
1F
100
AcDbEntity
  8
LOGO
 62
     4
100
AcDbLine
 10
840.1600188777512
 20
1162.091072302264
 30
0.0
 11
840.1600188777512
 21
1158.171239961993
 31
0.0
  0
TEXT
  5
412C
330
1F
100
AcDbEntity
  8
LOGO
  6
Continuous
 62
     7
100
AcDbText
 10
831.9333024479094
 20
1163.727590842739
 30
0.0
 40
4.573800000000001
  1
MVAA
  7
CHINESET
100
AcDbText
  0
LINE
  5
412D
330
1F
100
AcDbEntity
  8
LOGO
 62
     4
100
AcDbLine
 10
842.9329788693385
 20
1158.171239961993
 30
0.0
 11
830.5403168143351
 21
1158.171239961993
 31
0.0
  0
TEXT
  5
412E
330
1F
100
AcDbEntity
  8
LOGO
  6
Continuous
100
AcDbText
 10
832.7928478522995
 20
1149.941880074429
 30
171.2662360232331
 40
1.9602
  1
Model
 41
0.8
  7
CHINESET
100
AcDbText
  0
TEXT
  5
412F
330
1F
100
AcDbEntity
  8
LOGO
100
AcDbText
 10
832.2711063344822
 20
1153.575668421178
 30
171.2662360232331
 40
3.267
  1
型號
  7
CHINESET
100
AcDbText
  0
LINE
  5
4130
330
1F
100
AcDbEntity
  8
LOGO
  6
Continuous
 62
     7
100
AcDbLine
 10
852.1069028181157
 20
1165.983135311277
 30
0.0
 11
855.56861268439
 21
1165.983135311277
 31
0.0
  0
LINE
  5
4131
330
1F
100
AcDbEntity
  8
LOGO
 62
     4
100
AcDbLine
 10
860.8477665656844
 20
1158.171239961993
 30
0.0
 11
860.8477665656844
 21
1148.589427574662
 31
0.0
  0
LINE
  5
4132
330
1F
100
AcDbEntity
  8
LOGO
 62
     4
100
AcDbLine
 10
844.9745281855818
 20
1158.171239961993
 30
0.0
 11
844.9745281855818
 21
1148.589427574662
 31
0.0
  0
LINE
  5
4133
330
1F
100
AcDbEntity
  8
LOGO
 62
     4
100
AcDbLine
 10
860.8477665656844
 20
1148.589427574662
 30
0.0
 11
844.9745281855818
 21
1148.589427574662
 31
0.0
  0
LINE
  5
4134
330
1F
100
AcDbEntity
  8
LOGO
 62
     4
100
AcDbLine
 10
870.5695139154764
 20
1169.930736982807
 30
0.0
 11
856.6605996695825
 21
1169.930736982807
 31
0.0
  0
LINE
  5
4135
330
1F
100
AcDbEntity
  8
LOGO
 62
     4
100
AcDbLine
 10
870.5695139154764
 20
1162.091072302264
 30
0.0
 11
856.6605996695825
 21
1162.091072302264
 31
0.0
  0
LINE
  5
4136
330
1F
100
AcDbEntity
  8
LOGO
 62
     4
100
AcDbLine
 10
856.6605996695825
 20
1169.930736982807
 30
0.0
 11
856.6605996695825
 21
1162.091072302264
 31
0.0
  0
LINE
  5
4137
330
1F
100
AcDbEntity
  8
LOGO
 62
     4
100
AcDbLine
 10
870.5695139154764
 20
1169.930736982807
 30
0.0
 11
870.5695139154764
 21
1162.091072302264
 31
0.0
  0
LINE
  5
4138
330
1F
100
AcDbEntity
  8
LOGO
 62
     4
100
AcDbLine
 10
861.3624335386951
 20
1162.091072302264
 30
0.0
 11
861.3624335386951
 21
1160.131156132129
 31
0.0
  0
TEXT
  5
4139
330
1F
100
AcDbEntity
  8
LOGO
  6
Continuous
 62
     7
100
AcDbText
 10
857.9349906366051
 20
1163.727590842739
 30
0.0
 40
4.573800000000001
  1
460
  7
CHINESET
100
AcDbText
  0
LINE
  5
413A
330
1F
100
AcDbEntity
  8
LOGO
 62
     4
100
AcDbLine
 10
860.8477665656844
 20
1158.171239961993
 30
0.0
 11
844.9745281855818
 21
1158.171239961993
 31
0.0
  0
LINE
  5
413B
330
1F
100
AcDbEntity
  8
LOGO
  6
Continuous
 62
     7
100
AcDbLine
 10
871.3653146576659
 20
1165.983135311277
 30
0.0
 11
874.8270245239403
 21
1165.983135311277
 31
0.0
  0
LINE
  5
413C
330
1F
100
AcDbEntity
  8
LOGO
 62
     4
100
AcDbLine
 10
876.060040983485
 20
1158.171239961993
 30
0.0
 11
876.060040983485
 21
1148.589427574662
 31
0.0
  0
LINE
  5
413D
330
1F
100
AcDbEntity
  8
LOGO
 62
     4
100
AcDbLine
 10
862.9734684187166
 20
1158.171239961993
 30
0.0
 11
862.9734684187166
 21
1148.589427574662
 31
0.0
  0
LINE
  5
413E
330
1F
100
AcDbEntity
  8
LOGO
 62
     4
100
AcDbLine
 10
876.060040983485
 20
1148.589427574662
 30
0.0
 11
862.9734684187166
 21
1148.589427574662
 31
0.0
  0
LINE
  5
413F
330
1F
100
AcDbEntity
  8
LOGO
 62
     4
100
AcDbLine
 10
881.4842577258685
 20
1169.930736982807
 30
0.0
 11
875.9190115091326
 21
1169.930736982807
 31
0.0
  0
LINE
  5
4140
330
1F
100
AcDbEntity
  8
LOGO
 62
     4
100
AcDbLine
 10
881.4842577258685
 20
1162.091072302264
 30
0.0
 11
875.9190115091326
 21
1162.091072302264
 31
0.0
  0
LINE
  5
4141
330
1F
100
AcDbEntity
  8
LOGO
 62
     4
100
AcDbLine
 10
875.9190115091326
 20
1169.930736982807
 30
0.0
 11
875.9190115091326
 21
1162.091072302264
 31
0.0
  0
LINE
  5
4142
330
1F
100
AcDbEntity
  8
LOGO
 62
     4
100
AcDbLine
 10
881.4842577258685
 20
1169.930736982807
 30
0.0
 11
881.4842577258685
 21
1162.091072302264
 31
0.0
  0
LINE
  5
4143
330
1F
100
AcDbEntity
  8
LOGO
 62
     4
100
AcDbLine
 10
878.7016346175006
 20
1162.091072302264
 30
0.0
 11
878.7016346175006
 21
1160.131156132129
 31
0.0
  0
TEXT
  5
4144
330
1F
100
AcDbEntity
  8
LOGO
  6
Continuous
 62
     7
100
AcDbText
 10
876.9624499148637
 20
1163.727590842739
 30
0.0
 40
4.573800000000001
  1
4
  7
CHINESET
100
AcDbText
  0
LINE
  5
4145
330
1F
100
AcDbEntity
  8
LOGO
 62
     4
100
AcDbLine
 10
876.060040983485
 20
1158.171239961993
 30
0.0
 11
862.9734684187166
 21
1158.171239961993
 31
0.0
  0
LINE
  5
4146
330
1F
100
AcDbEntity
  8
LOGO
 62
     4
100
AcDbLine
 10
902.8459976688914
 20
1158.171239961993
 30
0.0
 11
902.8459976688914
 21
1148.589427574662
 31
0.0
  0
LINE
  5
4147
330
1F
100
AcDbEntity
  8
LOGO
 62
     4
100
AcDbLine
 10
878.7140484674115
 20
1158.171239961993
 30
0.0
 11
878.7140484674115
 21
1148.589427574662
 31
0.0
  0
LINE
  5
4148
330
1F
100
AcDbEntity
  8
LOGO
 62
     4
100
AcDbLine
 10
902.8459976688914
 20
1148.589427574662
 30
0.0
 11
878.7140484674115
 21
1148.589427574662
 31
0.0
  0
LINE
  5
4149
330
1F
100
AcDbEntity
  8
LOGO
 62
     4
100
AcDbLine
 10
893.3620654988571
 20
1169.930736982807
 30
0.0
 11
883.0188578418827
 21
1169.930736982807
 31
0.0
  0
LINE
  5
414A
330
1F
100
AcDbEntity
  8
LOGO
 62
     4
100
AcDbLine
 10
893.3620654988571
 20
1162.091072302264
 30
0.0
 11
883.0188578418827
 21
1162.091072302264
 31
0.0
  0
LINE
  5
414B
330
1F
100
AcDbEntity
  8
LOGO
 62
     4
100
AcDbLine
 10
883.0188578418827
 20
1169.930736982807
 30
0.0
 11
883.0188578418827
 21
1162.091072302264
 31
0.0
  0
LINE
  5
414C
330
1F
100
AcDbEntity
  8
LOGO
 62
     4
100
AcDbLine
 10
893.3620654988571
 20
1169.930736982807
 30
0.0
 11
893.3620654988571
 21
1162.091072302264
 31
0.0
  0
LINE
  5
414D
330
1F
100
AcDbEntity
  8
LOGO
 62
     4
100
AcDbLine
 10
888.19046167037
 20
1162.091072302264
 30
0.0
 11
888.19046167037
 21
1158.171239961993
 31
0.0
  0
TEXT
  5
414E
330
1F
100
AcDbEntity
  8
LOGO
  6
Continuous
 62
     7
100
AcDbText
 10
884.8692642597113
 20
1163.727590842739
 30
0.0
 40
4.573800000000001
  1
A1
  7
CHINESET
100
AcDbText
  0
LINE
  5
414F
330
1F
100
AcDbEntity
  8
LOGO
 62
     4
100
AcDbLine
 10
902.8459976688914
 20
1158.171239961993
 30
0.0
 11
878.7140484674115
 21
1158.171239961993
 31
0.0
  0
TEXT
  5
4150
330
1F
100
AcDbEntity
  8
LOGO
  6
Continuous
100
AcDbText
 10
846.2199717670671
 20
1149.941880074429
 30
171.2662360232331
 40
1.9602
  1
Body width
 41
0.8
  7
CHINESET
100
AcDbText
  0
TEXT
  5
4151
330
1F
100
AcDbEntity
  8
LOGO
100
AcDbText
 10
846.2015060041553
 20
1153.575668421178
 30
171.2662360232331
 40
3.267
  1
本體寬度
  7
CHINESET
100
AcDbText
  0
TEXT
  5
4152
330
1F
100
AcDbEntity
  8
LOGO
  6
Continuous
100
AcDbText
 10
865.5964617988244
 20
1149.941880074429
 30
171.2662360232331
 40
1.9602
  1
4 Way
 41
0.8
  7
CHINESET
100
AcDbText
  0
TEXT
  5
4153
330
1F
100
AcDbEntity
  8
LOGO
100
AcDbText
 10
864.7106509761346
 20
1153.575668421178
 30
171.2662360232331
 40
3.267
  1
4方向
  7
CHINESET
100
AcDbText
  0
TEXT
  5
4154
330
1F
100
AcDbEntity
  8
LOGO
  6
Continuous
100
AcDbText
 10
880.135325784771
 20
1149.941880074429
 30
171.2662360232331
 40
1.9602
  1
Single air operate
 41
0.8
  7
CHINESET
100
AcDbText
  0
TEXT
  5
4155
330
1F
100
AcDbEntity
  8
LOGO
100
AcDbText
 10
880.2126353230582
 20
1153.575668421178
 30
171.2662360232331
 40
3.267
  1
單動氣壓引導
  7
CHINESET
100
AcDbText
  0
TEXT
  5
4162
330
1F
100
AcDbEntity
  8
LOGO
100
AcDbText
 10
795.9816507712811
 20
1147.801966496974
 30
0.0
 40
2.6136
  1
20811193
 41
0.7
  7
CHINESET
 72
     1
 11
802.167170771281
 21
1147.801966496974
 31
0.0
100
AcDbText
  0
LINE
  5
4163
330
1F
100
AcDbEntity
  8
LOGO
 62
     4
100
AcDbLine
 10
810.2782140606505
 20
1151.638186061541
 30
0.0
 11
810.2782140606516
 21
1146.411742941179
 31
0.0
  0
LINE
  5
4164
330
1F
100
AcDbEntity
  8
LOGO
 62
     4
100
AcDbLine
 10
810.2782140606505
 20
1151.638186061541
 30
0.0
 11
794.5966140606516
 21
1151.638186061541
 31
0.0
  0
CIRCLE
  5
4165
330
1F
100
AcDbEntity
  8
LOGO
  6
Continuous
100
AcDbCircle
 10
782.0138435680389
 20
1164.709883562486
 30
0.0
 40
1.517297946143001
  0
CIRCLE
  5
4166
330
1F
100
AcDbEntity
  8
LOGO
  6
Continuous
100
AcDbCircle
 10
782.0138435680389
 20
1164.709883562486
 30
0.0
 40
0.8890022776522023
  0
LINE
  5
4167
330
1F
100
AcDbEntity
  8
LOGO
100
AcDbLine
 10
791.54871992141
 20
1163.192585616342
 30
0.0
 11
791.54871992141
 21
1166.227181508629
 31
0.0
  0
LINE
  5
4168
330
1F
100
AcDbEntity
  8
LOGO
100
AcDbLine
 10
786.7920779573098
 20
1163.820881284834
 30
0.0
 11
786.7920779573098
 21
1165.598885840138
 31
0.0
  0
LINE
  5
4169
330
1F
100
AcDbEntity
  8
LOGO
  6
Continuous
100
AcDbLine
 10
786.7920779573098
 20
1165.598885840138
 30
0.0
 11
791.54871992141
 21
1166.227181508629
 31
0.0
  0
LINE
  5
416A
330
1F
100
AcDbEntity
  8
LOGO
  6
Continuous
100
AcDbLine
 10
786.7920779573098
 20
1163.820881284834
 30
0.0
 11
791.54871992141
 21
1163.192585616342
 31
0.0
  0
LINE
  5
416B
330
1F
100
AcDbEntity
  8
LOGO
  6
AM_ISO08W050x2
 48
0.3
100
AcDbLine
 10
779.9222256295332
 20
1164.709883562486
 30
0.0
 11
784.1054615065448
 21
1164.709883562486
 31
0.0
1001
GENIUS_GENOREF_13
1005
4185
  0
LINE
  5
416C
330
1F
100
AcDbEntity
  8
LOGO
  6
AM_ISO08W050x2
 48
0.3
100
AcDbLine
 10
782.0138435680389
 20
1162.61826562398
 30
0.0
 11
782.0138435680389
 21
1166.801501500991
 31
0.0
1001
GENIUS_GENOREF_13
1005
4184
  0
LINE
  5
416D
330
1F
100
AcDbEntity
  8
LOGO
  6
CENTER
 48
0.5
100
AcDbLine
 10
786.4116788104265
 20
1164.709883562486
 30
0.0
 11
792.0276983691509
 21
1164.709883562486
 31
0.0
1001
GENIUS_GENOREF_13
1005
4183
  0
LINE
  5
4176
330
1F
100
AcDbEntity
  8
LOGO
 62
     4
100
AcDbLine
 10
861.3624335386951
 20
1160.131156132129
 30
0.0
 11
852.9111473756328
 21
1160.131156132129
 31
0.0
  0
LINE
  5
4177
330
1F
100
AcDbEntity
  8
LOGO
 62
     4
100
AcDbLine
 10
852.9111473756328
 20
1158.171239961993
 30
0.0
 11
852.9111473756328
 21
1160.131156132129
 31
0.0
  0
LINE
  5
4178
330
1F
100
AcDbEntity
  8
LOGO
 62
     4
100
AcDbLine
 10
878.7016346175006
 20
1160.131156132129
 30
0.0
 11
869.5167547011012
 21
1160.131156132129
 31
0.0
  0
LINE
  5
4179
330
1F
100
AcDbEntity
  8
LOGO
 62
     4
100
AcDbLine
 10
869.5167547011012
 20
1158.171239961993
 30
0.0
 11
869.5167547011012
 21
1160.131156132129
 31
0.0
  0
POINT
  5
4183
330
1F
100
AcDbEntity
  8
0
 60
     1
100
AcDbPoint
 10
-1081.480523388607
 20
102.4479428696627
 30
0.0
1001
GENIUS_GENOBJ-N-CRS_13
1002
{
1000
OWNER
1000
GEN
1002
}
1001
GENIUS_GENOLIS_13
1002
{
1000
ENT
1005
0
1005
0
1005
0
1005
416D
1002
}
1001
GENIUS_GENOENT_13
1002
{
1000
MYREF
1005
4183
1002
}
1002
{
1000
GRP
1005
0
1002
}
1001
GENIUS_GENODEF_13
1002
{
1000
HIER
1070
    10
1002
}
1002
{
1000
MANEDIT
1070
     1
1002
}
1002
{
1000
NOSEL
1070
     0
1002
}
1002
{
1000
BEHIND
1070
     0
1002
}
1002
{
1000
OTHER
1070
     0
1002
}
1002
{
1000
REACTOR
1002
}
  0
POINT
  5
4184
330
1F
100
AcDbEntity
  8
0
 60
     1
100
AcDbPoint
 10
-1092.805108611462
 20
111.3235293482989
 30
0.0
1001
GENIUS_GENOBJ-N-CRS_13
1002
{
1000
OWNER
1000
GEN
1002
}
1001
GENIUS_GENOLIS_13
1002
{
1000
ENT
1005
0
1005
0
1005
0
1005
416C
1002
}
1001
GENIUS_GENOENT_13
1002
{
1000
MYREF
1005
4184
1002
}
1002
{
1000
GRP
1005
0
1002
}
1001
GENIUS_GENODEF_13
1002
{
1000
HIER
1070
    10
1002
}
1002
{
1000
MANEDIT
1070
     1
1002
}
1002
{
1000
NOSEL
1070
     0
1002
}
1002
{
1000
BEHIND
1070
     0
1002
}
1002
{
1000
OTHER
1070
     0
1002
}
1002
{
1000
REACTOR
1002
}
  0
POINT
  5
4185
330
1F
100
AcDbEntity
  8
0
 60
     1
100
AcDbPoint
 10
-1086.446434913625
 20
102.4479428696627
 30
0.0
1001
GENIUS_GENOBJ-N-CRS_13
1002
{
1000
OWNER
1000
GEN
1002
}
1001
GENIUS_GENOLIS_13
1002
{
1000
ENT
1005
0
1005
0
1005
0
1005
416B
1002
}
1001
GENIUS_GENOENT_13
1002
{
1000
MYREF
1005
4185
1002
}
1002
{
1000
GRP
1005
0
1002
}
1001
GENIUS_GENODEF_13
1002
{
1000
HIER
1070
    10
1002
}
1002
{
1000
MANEDIT
1070
     1
1002
}
1002
{
1000
NOSEL
1070
     0
1002
}
1002
{
1000
BEHIND
1070
     0
1002
}
1002
{
1000
OTHER
1070
     0
1002
}
1002
{
1000
REACTOR
1002
}
  0
CIRCLE
  5
4C3E
330
1F
100
AcDbEntity
  8
AM_4
  6
HIDDEN2
100
AcDbCircle
 10
939.1307624954777
 20
1304.428997407745
 30
0.0
 40
4.849999999999999
  0
LINE
  5
4C3F
330
1F
100
AcDbEntity
  8
AM_VIS
100
AcDbLine
 10
769.3213030579959
 20
1291.628997407745
 30
0.0
 11
769.3213030579959
 21
1288.428997407745
 31
0.0
  0
LINE
  5
4C40
330
1F
100
AcDbEntity
  8
AM_VIS
100
AcDbLine
 10
769.3213030579959
 20
1332.828997407746
 30
0.0
 11
769.3213030579959
 21
1296.628997407746
 31
0.0
  0
LINE
  5
4C41
330
1F
100
AcDbEntity
  8
AM_VIS
100
AcDbLine
 10
774.3213030579959
 20
1287.428997407745
 30
0.0
 11
770.3213030579959
 21
1287.428997407745
 31
0.0
  0
LINE
  5
4C42
330
1F
100
AcDbEntity
  8
AM_VIS
100
AcDbLine
 10
774.3213030579959
 20
1287.428997407745
 30
0.0
 11
777.3213030579959
 21
1287.428997407745
 31
0.0
  0
LINE
  5
4C43
330
1F
100
AcDbEntity
  8
AM_VIS
100
AcDbLine
 10
773.3213030579959
 20
1294.628997407746
 30
0.0
 11
773.3213030579959
 21
1293.961378165684
 31
0.0
  0
LINE
  5
4C44
330
1F
100
AcDbEntity
  8
AM_VIS
100
AcDbLine
 10
773.3213030579959
 20
1289.296616649807
 30
0.0
 11
773.3213030579959
 21
1288.428997407745
 31
0.0
  0
LINE
  5
4C45
330
1F
100
AcDbEntity
  8
AM_VIS
100
AcDbLine
 10
770.3213030579959
 20
1295.628997407745
 30
0.0
 11
772.3213030579959
 21
1295.628997407745
 31
0.0
  0
LINE
  5
4C46
330
1F
100
AcDbEntity
  8
AM_VIS
100
AcDbLine
 10
777.3213030579959
 20
1333.828997407745
 30
0.0
 11
770.3213030579959
 21
1333.828997407745
 31
0.0
  0
LINE
  5
4C47
330
1F
100
AcDbEntity
  8
AM_VIS
100
AcDbLine
 10
777.3213030579959
 20
1332.828997407746
 30
0.0
 11
777.3213030579959
 21
1288.428997407745
 31
0.0
  0
ARC
  5
4C48
102
{ACAD_REACTORS
330
4F9E
330
5012
330
516A
102
}
330
1F
100
AcDbEntity
  8
AM_VIS
100
AcDbCircle
 10
770.3213030579959
 20
1288.428997407745
 30
0.0
 40
1.0
100
AcDbArc
 50
180.0
 51
270.0
  0
LINE
  5
4C49
330
1F
100
AcDbEntity
  8
AM_VIS
100
AcDbLine
 10
769.3213030579959
 20
1296.628997407746
 30
0.0
 11
769.3213030579959
 21
1291.628997407745
 31
0.0
  0
ARC
  5
4C4A
330
1F
100
AcDbEntity
  8
AM_VIS
100
AcDbCircle
 10
770.3213030579959
 20
1296.628997407746
 30
0.0
 40
1.0
100
AcDbArc
 50
180.0
 51
270.0
  0
ARC
  5
4C4B
330
1F
100
AcDbEntity
  8
AM_VIS
100
AcDbCircle
 10
770.3213030579959
 20
1332.828997407746
 30
0.0
 40
1.0
100
AcDbArc
 50
90.0
 51
180.0
  0
ARC
  5
4C4C
330
1F
100
AcDbEntity
  8
AM_VIS
100
AcDbCircle
 10
774.3213030579959
 20
1288.428997407745
 30
0.0
 40
1.0
100
AcDbArc
 50
180.0
 51
270.0
  0
ARC
  5
4C4D
330
1F
100
AcDbEntity
  8
AM_VIS
100
AcDbCircle
 10
772.3213030579959
 20
1294.628997407746
 30
0.0
 40
1.0
100
AcDbArc
 50
0.0
 51
90.0
  0
LINE
  5
4C4E
330
1F
100
AcDbEntity
  8
AM_VIS
100
AcDbLine
 10
859.3213030579962
 20
1292.428997407745
 30
0.0
 11
853.5713030579961
 21
1292.428997407745
 31
0.0
  0
LINE
  5
4C4F
330
1F
100
AcDbEntity
  8
AM_VIS
100
AcDbLine
 10
860.3213030579961
 20
1293.428997407745
 30
0.0
 11
860.3213030579961
 21
1310.628997407745
 31
0.0
  0
LINE
  5
4C50
330
1F
100
AcDbEntity
  8
AM_VIS
100
AcDbLine
 10
860.3213030579961
 20
1310.628997407745
 30
0.0
 11
860.3213030579961
 21
1325.828997407745
 31
0.0
  0
LINE
  5
4C51
330
1F
100
AcDbEntity
  8
AM_VIS
100
AcDbLine
 10
851.5713030579961
 20
1325.828997407745
 30
0.0
 11
860.3213030579961
 21
1325.828997407745
 31
0.0
  0
LINE
  5
4C52
330
1F
100
AcDbEntity
  8
AM_VIS
100
AcDbLine
 10
849.0713030579961
 20
1329.828997407745
 30
0.0
 11
849.0713030579961
 21
1328.328997407745
 31
0.0
  0
LINE
  5
4C53
330
1F
100
AcDbEntity
  8
AM_VIS
100
AcDbLine
 10
848.0713030579961
 20
1330.828997407746
 30
0.0
 11
837.9268543334601
 21
1330.828997407746
 31
0.0
  0
ARC
  5
4C54
330
1F
100
AcDbEntity
  8
AM_VIS
100
AcDbCircle
 10
838.8982321259723
 20
1310.574292530248
 30
0.0
 40
20.27798423143425
100
AcDbArc
 50
92.74569478008702
 51
103.0445894300081
  0
ARC
  5
4C55
330
1F
100
AcDbEntity
  8
AM_VIS
100
AcDbCircle
 10
829.7443739900193
 20
1310.574292530241
 30
0.0
 40
20.27798423144167
100
AcDbArc
 50
76.95541057000454
 51
87.25430521991297
  0
LINE
  5
4C56
330
1F
100
AcDbEntity
  8
AM_VIS
100
AcDbLine
 10
830.7157517825322
 20
1330.828997407746
 30
0.0
 11
825.3213030579962
 21
1330.828997407746
 31
0.0
  0
LINE
  5
4C57
330
1F
100
AcDbEntity
  8
AM_VIS
100
AcDbLine
 10
824.3213030579962
 20
1329.828997407745
 30
0.0
 11
824.3213030579962
 21
1322.928997407746
 31
0.0
  0
LINE
  5
4C58
330
1F
100
AcDbEntity
  8
AM_VIS
100
AcDbLine
 10
816.3213030579962
 20
1322.928997407746
 30
0.0
 11
816.3213030579962
 21
1329.828997407745
 31
0.0
  0
LINE
  5
4C59
330
1F
100
AcDbEntity
  8
AM_VIS
100
AcDbLine
 10
815.321303057996
 20
1330.828997407746
 30
0.0
 11
780.8213030579961
 21
1330.828997407746
 31
0.0
  0
LINE
  5
4C5A
330
1F
100
AcDbEntity
  8
AM_VIS
100
AcDbLine
 10
780.3213030579962
 20
1330.328997407745
 30
0.0
 11
780.3213030579962
 21
1329.628997407745
 31
0.0
  0
LINE
  5
4C5B
330
1F
100
AcDbEntity
  8
AM_VIS
100
AcDbLine
 10
780.3213030579962
 20
1329.628997407745
 30
0.0
 11
780.3213030579962
 21
1310.628997407745
 31
0.0
  0
LINE
  5
4C5C
330
1F
100
AcDbEntity
  8
AM_VIS
100
AcDbLine
 10
780.3213030579962
 20
1310.628997407745
 30
0.0
 11
780.3213030579962
 21
1291.428997407745
 31
0.0
  0
LINE
  5
4C5D
330
1F
100
AcDbEntity
  8
AM_VIS
100
AcDbLine
 10
781.3213030579961
 20
1290.428997407745
 30
0.0
 11
800.8213030579961
 21
1290.428997407745
 31
0.0
  0
LINE
  5
4C5E
330
1F
100
AcDbEntity
  8
AM_VIS
100
AcDbLine
 10
801.8213030579961
 20
1291.428997407745
 30
0.0
 11
801.8213030579961
 21
1294.428997407745
 31
0.0
  0
LINE
  5
4C5F
330
1F
100
AcDbEntity
  8
AM_VIS
100
AcDbLine
 10
809.8213030579961
 20
1294.428997407745
 30
0.0
 11
809.8213030579961
 21
1291.428997407745
 31
0.0
  0
LINE
  5
4C60
330
1F
100
AcDbEntity
  8
AM_VIS
100
AcDbLine
 10
810.821303057996
 20
1290.428997407745
 30
0.0
 11
829.8213030579962
 21
1290.428997407745
 31
0.0
  0
LINE
  5
4C61
330
1F
100
AcDbEntity
  8
AM_VIS
100
AcDbLine
 10
830.8213030579961
 20
1291.428997407745
 30
0.0
 11
830.8213030579961
 21
1294.428997407745
 31
0.0
  0
LINE
  5
4C62
330
1F
100
AcDbEntity
  8
AM_VIS
100
AcDbLine
 10
838.8213030579962
 20
1294.428997407745
 30
0.0
 11
838.8213030579962
 21
1291.428997407745
 31
0.0
  0
LINE
  5
4C63
330
1F
100
AcDbEntity
  8
AM_VIS
100
AcDbLine
 10
839.8213030579961
 20
1290.428997407745
 30
0.0
 11
851.5713030579961
 21
1290.428997407745
 31
0.0
  0
LINE
  5
4C64
330
1F
100
AcDbEntity
  8
AM_VIS
100
AcDbLine
 10
863.3213030579961
 20
1287.428997407745
 30
0.0
 11
777.3213030579961
 21
1287.428997407745
 31
0.0
  0
LINE
  5
4C65
330
1F
100
AcDbEntity
  8
AM_VIS
100
AcDbLine
 10
852.3213030579961
 20
1329.828997407745
 30
0.0
 11
852.3213030579961
 21
1333.828997407745
 31
0.0
  0
LINE
  5
4C66
330
1F
100
AcDbEntity
  8
AM_VIS
100
AcDbLine
 10
860.3213030579961
 20
1333.828997407745
 30
0.0
 11
860.3213030579961
 21
1329.828997407745
 31
0.0
  0
LINE
  5
4C67
330
1F
100
AcDbEntity
  8
AM_VIS
100
AcDbLine
 10
860.3213030579961
 20
1333.828997407745
 30
0.0
 11
863.3213030579961
 21
1333.828997407745
 31
0.0
  0
LINE
  5
4C68
330
1F
100
AcDbEntity
  8
AM_VIS
100
AcDbLine
 10
777.3213030579961
 20
1333.828997407745
 30
0.0
 11
852.3213030579961
 21
1333.828997407745
 31
0.0
  0
LINE
  5
4C69
330
1F
100
AcDbEntity
  8
AM_VIS
100
AcDbLine
 10
777.3213030579961
 20
1333.828997407745
 30
0.0
 11
777.3213030579961
 21
1287.428997407745
 31
0.0
  0
LINE
  5
4C6A
102
{ACAD_REACTORS
330
5194
102
}
330
1F
100
AcDbEntity
  8
AM_VIS
100
AcDbLine
 10
860.3213030579961
 20
1329.828997407745
 30
0.0
 11
852.3213030579961
 21
1329.828997407745
 31
0.0
  0
LINE
  5
4C6B
330
1F
100
AcDbEntity
  8
AM_VIS
100
AcDbLine
 10
863.3213030579961
 20
1287.428997407745
 30
0.0
 11
863.3213030579961
 21
1333.828997407745
 31
0.0
  0
CIRCLE
  5
4C6C
330
1F
100
AcDbEntity
  8
AM_VIS
100
AcDbCircle
 10
834.8213030579961
 20
1294.428997407745
 30
0.0
 40
2.25
  0
ARC
  5
4C6D
330
1F
100
AcDbEntity
  8
AM_VIS
100
AcDbCircle
 10
859.3213030579962
 20
1293.428997407745
 30
0.0
 40
1.0
100
AcDbArc
 50
270.0
 51
0.0
  0
ARC
  5
4C6E
330
1F
100
AcDbEntity
  8
AM_VIS
100
AcDbCircle
 10
851.5713030579961
 20
1328.328997407745
 30
0.0
 40
2.5
100
AcDbArc
 50
180.0
 51
270.0
  0
ARC
  5
4C6F
330
1F
100
AcDbEntity
  8
AM_VIS
100
AcDbCircle
 10
848.0713030579961
 20
1329.828997407745
 30
0.0
 40
0.9999999999999998
100
AcDbArc
 50
0.0
 51
90.0
  0
ARC
  5
4C70
330
1F
100
AcDbEntity
  8
AM_VIS
100
AcDbCircle
 10
825.3213030579962
 20
1329.828997407745
 30
0.0
 40
0.9999999999999998
100
AcDbArc
 50
90.0
 51
180.0
  0
ARC
  5
4C71
330
1F
100
AcDbEntity
  8
AM_VIS
100
AcDbCircle
 10
820.3213030579961
 20
1322.928997407746
 30
0.0
 40
4.0
100
AcDbArc
 50
180.0
 51
0.0
  0
ARC
  5
4C72
330
1F
100
AcDbEntity
  8
AM_VIS
100
AcDbCircle
 10
815.321303057996
 20
1329.828997407745
 30
0.0
 40
0.9999999999999998
100
AcDbArc
 50
0.0
 51
90.0
  0
ARC
  5
4C73
330
1F
100
AcDbEntity
  8
AM_VIS
100
AcDbCircle
 10
780.8213030579961
 20
1330.328997407745
 30
0.0
 40
0.5
100
AcDbArc
 50
90.0
 51
180.0
  0
ARC
  5
4C74
330
1F
100
AcDbEntity
  8
AM_VIS
100
AcDbCircle
 10
781.3213030579961
 20
1291.428997407745
 30
0.0
 40
0.9999999999999998
100
AcDbArc
 50
180.0
 51
270.0
  0
ARC
  5
4C75
330
1F
100
AcDbEntity
  8
AM_VIS
100
AcDbCircle
 10
800.8213030579961
 20
1291.428997407745
 30
0.0
 40
0.9999999999999998
100
AcDbArc
 50
270.0
 51
0.0
  0
ARC
  5
4C76
330
1F
100
AcDbEntity
  8
AM_VIS
100
AcDbCircle
 10
805.8213030579961
 20
1294.428997407745
 30
0.0
 40
4.0
100
AcDbArc
 50
0.0
 51
180.0
  0
ARC
  5
4C77
330
1F
100
AcDbEntity
  8
AM_VIS
100
AcDbCircle
 10
810.821303057996
 20
1291.428997407745
 30
0.0
 40
1.0
100
AcDbArc
 50
180.0
 51
270.0
  0
ARC
  5
4C78
330
1F
100
AcDbEntity
  8
AM_VIS
100
AcDbCircle
 10
829.8213030579962
 20
1291.428997407745
 30
0.0
 40
0.9999999999999998
100
AcDbArc
 50
270.0
 51
0.0
  0
ARC
  5
4C79
330
1F
100
AcDbEntity
  8
AM_VIS
100
AcDbCircle
 10
834.8213030579961
 20
1294.428997407745
 30
0.0
 40
4.0
100
AcDbArc
 50
0.0
 51
180.0
  0
ARC
  5
4C7A
330
1F
100
AcDbEntity
  8
AM_VIS
100
AcDbCircle
 10
839.8213030579961
 20
1291.428997407745
 30
0.0
 40
1.0
100
AcDbArc
 50
180.0
 51
270.0
  0
ARC
  5
4C7B
330
1F
100
AcDbEntity
  8
AM_VIS
100
AcDbCircle
 10
851.5713030579961
 20
1291.428997407745
 30
0.0
 40
0.9999999999999998
100
AcDbArc
 50
270.0
 51
0.0
  0
ARC
  5
4C7C
330
1F
100
AcDbEntity
  8
AM_VIS
100
AcDbCircle
 10
853.5713030579961
 20
1291.428997407745
 30
0.0
 40
0.9999999999999998
100
AcDbArc
 50
90.0
 51
180.0
  0
CIRCLE
  5
4C7D
330
1F
100
AcDbEntity
  8
AM_VIS
100
AcDbCircle
 10
805.8213030579961
 20
1294.428997407745
 30
0.0
 40
2.25
  0
LINE
  5
4C7E
102
{ACAD_REACTORS
330
5194
102
}
330
1F
100
AcDbEntity
  8
AM_VIS
100
AcDbLine
 10
852.3213030579961
 20
1333.828997407745
 30
0.0
 11
860.3213030579961
 21
1333.828997407745
 31
0.0
  0
LINE
  5
4C7F
330
1F
100
AcDbEntity
  8
AM_VIS
100
AcDbLine
 10
769.5142648999222
 20
1292.862799943751
 30
0.0
 11
769.3702086647101
 21
1292.92073074229
 31
0.0
  0
LINE
  5
4C80
330
1F
100
AcDbEntity
  8
AM_VIS
100
AcDbLine
 10
769.3702086647103
 20
1290.3372640732
 30
0.0
 11
769.5142648999223
 21
1290.395194871739
 31
0.0
  0
LINE
  5
4C81
330
1F
100
AcDbEntity
  8
AM_VIS
100
AcDbLine
 10
771.262365545868
 20
1287.721642435439
 30
0.0
 11
772.3213030579959
 21
1287.628997407745
 31
0.0
  0
LINE
  5
4C82
330
1F
100
AcDbEntity
  8
AM_VIS
100
AcDbLine
 10
771.262365545868
 20
1295.536352380052
 30
0.0
 11
772.3213030579959
 21
1295.628997407745
 31
0.0
  0
LINE
  5
4C83
330
1F
100
AcDbEntity
  8
AM_VIS
100
AcDbLine
 10
772.3213030579959
 20
1295.628997407745
 30
0.0
 11
772.3213030579959
 21
1287.628997407745
 31
0.0
  0
ARC
  5
4C84
330
1F
100
AcDbEntity
  8
AM_VIS
100
AcDbCircle
 10
775.7213030579958
 20
1291.628997407745
 30
0.0
 40
6.481124516625182
100
AcDbArc
 50
160.2804765847116
 51
168.5035641354557
  0
LINE
  5
4C85
330
1F
100
AcDbEntity
  8
AM_VIS
100
AcDbLine
 10
769.6202600336442
 20
1293.815832795928
 30
0.0
 11
769.604931584646
 21
1293.828997407743
 31
0.0
  0
LINE
  5
4C86
330
1F
100
AcDbEntity
  8
AM_VIS
100
AcDbLine
 10
769.6049315846473
 20
1289.428997407743
 30
0.0
 11
769.6202600336457
 21
1289.442162019558
 31
0.0
  0
ELLIPSE
  5
4C87
330
1F
100
AcDbEntity
  8
AM_VIS
100
AcDbEllipse
 10
774.2123317289708
 20
1291.628997407745
 30
0.0
 11
0.0
 21
-6.07338170302488
 31
0.0
210
0.0
220
0.0
230
0.9999999999999998
 40
0.7586218633400567
 41
4.630795282262289
 42
4.793982678507749
  0
LINE
  5
4C88
330
1F
100
AcDbEntity
  8
AM_VIS
100
AcDbLine
 10
769.6202600336448
 20
1292.123997407743
 30
0.0
 11
769.3702086647101
 21
1292.123997407743
 31
0.0
  0
LINE
  5
4C89
330
1F
100
AcDbEntity
  8
AM_VIS
100
AcDbLine
 10
769.3702086647103
 20
1291.133997407744
 30
0.0
 11
769.6202600336451
 21
1291.133997407744
 31
0.0
  0
ARC
  5
4C8A
330
1F
100
AcDbEntity
  8
AM_VIS
100
AcDbCircle
 10
775.7213030579958
 20
1291.628997407745
 30
0.0
 40
6.481124516625182
100
AcDbArc
 50
191.4964358645443
 51
199.7195234153172
  0
ELLIPSE
  5
4C8B
330
1F
100
AcDbEntity
  8
AM_VIS
100
AcDbEllipse
 10
775.2707230707713
 20
1290.508542343121
 30
0.0
 11
5.915222004772894
 21
-2.378748367060961
 31
0.0000000000000001
210
0.0
220
0.0
230
1.0
 40
0.2990719770123949
 41
2.946877754473618
 42
3.122442402648754
  0
ELLIPSE
  5
4C8C
330
1F
100
AcDbEntity
  8
AM_VIS
100
AcDbEllipse
 10
775.2707230707713
 20
1291.250496464913
 30
0.0
 11
4.100823830217075
 21
-4.881755736727145
 31
0.0000000000000002
210
0.0
220
0.0
230
1.0
 40
0.885325961999236
 41
4.092081794601091
 42
4.267646442775903
  0
ELLIPSE
  5
4C8D
330
1F
100
AcDbEntity
  8
AM_VIS
100
AcDbEllipse
 10
775.2707230707717
 20
1292.007498350577
 30
0.0
 11
4.100823830215003
 21
4.881755736729209
 31
-0.0000000000000002
210
0.0
220
0.0
230
1.0
 40
0.8853259619993211
 41
2.015538864403269
 42
2.191103512578619
  0
ELLIPSE
  5
4C8E
330
1F
100
AcDbEntity
  8
AM_VIS
100
AcDbEllipse
 10
775.2707230707717
 20
1292.749452472369
 30
0.0
 11
5.915222004773235
 21
2.378748367060771
 31
-0.0000000000000001
210
0.0
220
0.0
230
1.0
 40
0.2990719770121603
 41
3.160742904530931
 42
3.336307552705964
  0
ARC
  5
4C8F
330
1F
100
AcDbEntity
  8
AM_VIS
100
AcDbCircle
 10
771.4018147342642
 20
1289.315553952385
 30
0.0
 40
1.6
100
AcDbArc
 50
208.1727341318564
 51
265.0000000000005
  0
ARC
  5
4C90
330
1F
100
AcDbEntity
  8
AM_VIS
100
AcDbCircle
 10
771.4018147342642
 20
1293.942440863105
 30
0.0
 40
1.599999999999999
100
AcDbArc
 50
94.99999999999946
 51
151.8272658681436
  0
ARC
  5
4C91
330
1F
100
AcDbEntity
  8
AM_VIS
100
AcDbCircle
 10
775.7213030579958
 20
1291.628997407745
 30
0.0
 40
6.499999999999998
100
AcDbArc
 50
199.7831703726821
 51
208.1727341318678
  0
ARC
  5
4C92
330
1F
100
AcDbEntity
  8
AM_VIS
100
AcDbCircle
 10
775.7213030579958
 20
1291.628997407745
 30
0.0
 40
6.5
100
AcDbArc
 50
151.8272658681321
 51
160.216829627359
  0
LINE
  5
4C93
330
1F
100
AcDbEntity
  8
AM_VIS
100
AcDbLine
 10
772.921303057996
 20
1295.428997407745
 30
0.0
 11
772.3213030579959
 21
1295.428997407745
 31
0.0
  0
LINE
  5
4C94
330
1F
100
AcDbEntity
  8
AM_VIS
100
AcDbLine
 10
773.3213030579959
 20
1287.828997407746
 30
0.0
 11
772.3213030579959
 21
1287.828997407746
 31
0.0
  0
LINE
  5
4C95
330
1F
100
AcDbEntity
  8
AM_VIS
100
AcDbLine
 10
773.3213030579959
 20
1288.428997407745
 30
0.0
 11
773.3213030579959
 21
1287.828997407746
 31
0.0
  0
LINE
  5
4C96
330
1F
100
AcDbEntity
  8
AM_VIS
100
AcDbLine
 10
773.3213030579959
 20
1293.961378165684
 30
0.0
 11
773.3213030579959
 21
1289.296616649807
 31
0.0
  0
LINE
  5
4C97
330
1F
100
AcDbEntity
  8
AM_VIS
100
AcDbLine
 10
863.3213030579961
 20
1333.828997407745
 30
0.0
 11
887.3213030579961
 21
1333.828997407745
 31
0.0
  0
LINE
  5
4C98
102
{ACAD_REACTORS
330
5038
102
}
330
1F
100
AcDbEntity
  8
AM_VIS
100
AcDbLine
 10
887.3213030579961
 20
1287.428997407745
 30
0.0
 11
887.3213030579961
 21
1333.828997407745
 31
0.0
  0
LINE
  5
4C99
102
{ACAD_REACTORS
330
5012
330
5038
102
}
330
1F
100
AcDbEntity
  8
AM_VIS
100
AcDbLine
 10
863.3213030579961
 20
1287.428997407745
 30
0.0
 11
887.3213030579961
 21
1287.428997407745
 31
0.0
  0
LINE
  5
4C9A
330
1F
100
AcDbEntity
  8
AM_VIS
100
AcDbLine
 10
863.3213030579961
 20
1308.628997407745
 30
0.0
 11
863.3213030579961
 21
1287.428997407745
 31
0.0
  0
LINE
  5
4C9B
330
1F
100
AcDbEntity
  8
AM_VIS
100
AcDbLine
 10
863.3213030579961
 20
1333.828997407745
 30
0.0
 11
863.3213030579961
 21
1312.628997407745
 31
0.0
  0
LINE
  5
4C9C
330
1F
100
AcDbEntity
  8
AM_VIS
100
AcDbLine
 10
864.3213030579961
 20
1312.628997407745
 30
0.0
 11
864.3213030579961
 21
1308.628997407745
 31
0.0
  0
LINE
  5
4C9D
330
1F
100
AcDbEntity
  8
AM_VIS
100
AcDbLine
 10
864.3213030579961
 20
1308.628997407745
 30
0.0
 11
863.3213030579961
 21
1308.628997407745
 31
0.0
  0
LINE
  5
4C9E
330
1F
100
AcDbEntity
  8
AM_VIS
100
AcDbLine
 10
863.3213030579961
 20
1312.628997407745
 30
0.0
 11
864.3213030579961
 21
1312.628997407745
 31
0.0
  0
LINE
  5
4C9F
330
1F
100
AcDbEntity
  8
AM_VIS
100
AcDbLine
 10
777.3213030579959
 20
1403.303714437368
 30
0.0
 11
770.3213030579959
 21
1403.303714437368
 31
0.0
  0
LINE
  5
4CA0
330
1F
100
AcDbEntity
  8
AM_VIS
100
AcDbLine
 10
769.3213030579959
 20
1402.303714437368
 30
0.0
 11
769.3213030579959
 21
1400.803714437368
 31
0.0
  0
LINE
  5
4CA1
330
1F
100
AcDbEntity
  8
AM_VIS
100
AcDbLine
 10
772.3213030579959
 20
1391.803714437368
 30
0.0
 11
770.3213030579959
 21
1391.803714437368
 31
0.0
  0
LINE
  5
4CA2
330
1F
100
AcDbEntity
  8
AM_VIS
100
AcDbLine
 10
769.3213030579959
 20
1390.803714437368
 30
0.0
 11
769.3213030579959
 21
1374.303714437368
 31
0.0
  0
LINE
  5
4CA3
102
{ACAD_REACTORS
330
50AA
102
}
330
1F
100
AcDbEntity
  8
AM_VIS
100
AcDbLine
 10
770.3213030579959
 20
1373.303714437368
 30
0.0
 11
777.3213030579959
 21
1373.303714437368
 31
0.0
  0
LINE
  5
4CA4
330
1F
100
AcDbEntity
  8
AM_VIS
100
AcDbLine
 10
773.3213030579959
 20
1398.803714437368
 30
0.0
 11
773.3213030579959
 21
1392.803714437368
 31
0.0
  0
LINE
  5
4CA5
330
1F
100
AcDbEntity
  8
AM_VIS
100
AcDbLine
 10
770.3213030579959
 20
1399.803714437368
 30
0.0
 11
772.3213030579959
 21
1399.803714437368
 31
0.0
  0
LINE
  5
4CA6
330
1F
100
AcDbEntity
  8
AM_VIS
100
AcDbLine
 10
777.3213030579959
 20
1402.303714437368
 30
0.0
 11
777.3213030579959
 21
1374.303714437368
 31
0.0
  0
ARC
  5
4CA7
330
1F
100
AcDbEntity
  8
AM_VIS
100
AcDbCircle
 10
770.3213030579959
 20
1400.803714437368
 30
0.0
 40
1.0
100
AcDbArc
 50
180.0
 51
270.0
  0
ARC
  5
4CA8
102
{ACAD_REACTORS
330
50AA
330
5142
102
}
330
1F
100
AcDbEntity
  8
AM_VIS
100
AcDbCircle
 10
770.3213030579959
 20
1402.303714437368
 30
0.0
 40
1.0
100
AcDbArc
 50
90.0
 51
180.0
  0
LINE
  5
4CA9
330
1F
100
AcDbEntity
  8
AM_VIS
100
AcDbLine
 10
769.3213030579959
 20
1400.803714437368
 30
0.0
 11
769.3213030579959
 21
1390.803714437368
 31
0.0
  0
ARC
  5
4CAA
102
{ACAD_REACTORS
330
50F6
102
}
330
1F
100
AcDbEntity
  8
AM_VIS
100
AcDbCircle
 10
770.3213030579959
 20
1374.303714437368
 30
0.0
 40
1.0
100
AcDbArc
 50
180.0
 51
270.0
  0
ARC
  5
4CAB
330
1F
100
AcDbEntity
  8
AM_VIS
100
AcDbCircle
 10
770.3213030579959
 20
1390.803714437368
 30
0.0
 40
0.9999999999999998
100
AcDbArc
 50
90.0
 51
180.0
  0
ARC
  5
4CAC
330
1F
100
AcDbEntity
  8
AM_VIS
100
AcDbCircle
 10
772.3213030579959
 20
1392.803714437368
 30
0.0
 40
1.0
100
AcDbArc
 50
270.0
 51
0.0
  0
ARC
  5
4CAD
330
1F
100
AcDbEntity
  8
AM_VIS
100
AcDbCircle
 10
772.3213030579959
 20
1398.803714437368
 30
0.0
 40
1.0
100
AcDbArc
 50
0.0
 51
90.0
  0
ARC
  5
4CEF
330
1F
100
AcDbEntity
  8
AM_VIS
100
AcDbCircle
 10
784.3213030579961
 20
1399.803714613473
 30
0.0
 40
2.100000000000008
100
AcDbArc
 50
180.0000047787926
 51
359.9999951952043
  0
ARC
  5
4CF0
330
1F
100
AcDbEntity
  8
AM_VIS
100
AcDbCircle
 10
856.321303057996
 20
1376.802628915656
 30
0.0
 40
2.100000280561258
100
AcDbArc
 50
0.0296170510321288
 51
179.9703829489809
  0
LINE
  5
4CF2
330
1F
100
AcDbEntity
  8
AM_VIS
100
AcDbLine
 10
860.3213030579961
 20
1373.303714437368
 30
0.0
 11
863.3213030579961
 21
1373.303714437368
 31
0.0
  0
LINE
  5
4CF3
330
1F
100
AcDbEntity
  8
AM_VIS
100
AcDbLine
 10
860.3213030579961
 20
1376.803714437368
 30
0.0
 11
860.3213030579961
 21
1373.303714437368
 31
0.0
  0
LINE
  5
4CF4
330
1F
100
AcDbEntity
  8
AM_VIS
100
AcDbLine
 10
852.3213030579961
 20
1373.303714437368
 30
0.0
 11
852.3213030579961
 21
1376.803714437368
 31
0.0
  0
LINE
  5
4CF5
330
1F
100
AcDbEntity
  8
AM_VIS
100
AcDbLine
 10
777.3213030579961
 20
1373.303714437368
 30
0.0
 11
852.3213030579961
 21
1373.303714437368
 31
0.0
  0
LINE
  5
4CF6
330
1F
100
AcDbEntity
  8
AM_VIS
100
AcDbLine
 10
780.3213030579962
 20
1403.303714437369
 30
0.0
 11
777.3213030579961
 21
1403.303714437369
 31
0.0
  0
LINE
  5
4CF7
330
1F
100
AcDbEntity
  8
AM_VIS
100
AcDbLine
 10
780.3213030579962
 20
1399.803714437368
 30
0.0
 11
780.3213030579962
 21
1403.303714437369
 31
0.0
  0
LINE
  5
4CF8
330
1F
100
AcDbEntity
  8
AM_VIS
100
AcDbLine
 10
788.3213030579961
 20
1403.303714437369
 30
0.0
 11
788.3213030579961
 21
1399.803714437368
 31
0.0
  0
LINE
  5
4CF9
330
1F
100
AcDbEntity
  8
AM_VIS
100
AcDbLine
 10
863.3213030579961
 20
1403.303714437369
 30
0.0
 11
788.3213030579961
 21
1403.303714437369
 31
0.0
  0
LINE
  5
4D02
330
1F
100
AcDbEntity
  8
AM_VIS
100
AcDbLine
 10
780.3213030579962
 20
1403.303714437369
 30
0.0
 11
788.3213030579961
 21
1403.303714437369
 31
0.0
  0
LINE
  5
4D03
330
1F
100
AcDbEntity
  8
AM_VIS
100
AcDbLine
 10
777.3213030579961
 20
1403.303714437369
 30
0.0
 11
777.3213030579961
 21
1373.303714437368
 31
0.0
  0
LINE
  5
4D04
330
1F
100
AcDbEntity
  8
AM_VIS
100
AcDbLine
 10
860.3213030579961
 20
1373.303714437368
 30
0.0
 11
852.3213030579961
 21
1373.303714437368
 31
0.0
  0
LINE
  5
4D05
330
1F
100
AcDbEntity
  8
AM_VIS
100
AcDbLine
 10
863.3213030579961
 20
1373.303714437368
 30
0.0
 11
863.3213030579961
 21
1403.303714437369
 31
0.0
  0
CIRCLE
  5
4D06
330
1F
100
AcDbEntity
  8
AM_VIS
100
AcDbCircle
 10
834.3213030579962
 20
1386.053714437369
 30
0.0
 40
9.750000000000042
  0
CIRCLE
  5
4D07
330
1F
100
AcDbEntity
  8
AM_VIS
100
AcDbCircle
 10
806.321303057996
 20
1390.553714437368
 30
0.0
 40
9.750000000000042
  0
ARC
  5
4D08
330
1F
100
AcDbEntity
  8
AM_VIS
100
AcDbCircle
 10
856.321303057996
 20
1376.803714437368
 30
0.0
 40
4.0
100
AcDbArc
 50
0.0
 51
180.0
  0
ARC
  5
4D09
330
1F
100
AcDbEntity
  8
AM_VIS
100
AcDbCircle
 10
784.3213030579961
 20
1399.803714437368
 30
0.0
 40
4.0
100
AcDbArc
 50
180.0
 51
0.0
  0
CIRCLE
  5
4D0A
330
1F
100
AcDbEntity
  8
AM_VIS
100
AcDbCircle
 10
806.321303057996
 20
1390.553714437368
 30
0.0
 40
10.7500000000003
  0
CIRCLE
  5
4D0B
330
1F
100
AcDbEntity
  8
AM_VIS
100
AcDbCircle
 10
834.3213030579962
 20
1386.053714437369
 30
0.0
 40
10.74999999999968
  0
CIRCLE
  5
4D0C
330
1F
100
AcDbEntity
  8
AM_VIS
100
AcDbCircle
 10
784.3213030579961
 20
1399.803714437368
 30
0.0
 40
2.1
  0
CIRCLE
  5
4D0D
330
1F
100
AcDbEntity
  8
AM_VIS
100
AcDbCircle
 10
856.321303057996
 20
1376.803714437368
 30
0.0
 40
2.1
  0
LINE
  5
4D0E
330
1F
100
AcDbEntity
  8
AM_VIS
100
AcDbLine
 10
769.5142648999222
 20
1397.037516973373
 30
0.0
 11
769.3702086647099
 21
1397.095447771913
 31
0.0
  0
LINE
  5
4D0F
330
1F
100
AcDbEntity
  8
AM_VIS
100
AcDbLine
 10
769.3702086647101
 20
1394.511981102823
 30
0.0
 11
769.5142648999222
 21
1394.569911901362
 31
0.0
  0
LINE
  5
4D10
330
1F
100
AcDbEntity
  8
AM_VIS
100
AcDbLine
 10
771.262365545868
 20
1391.896359465062
 30
0.0
 11
772.3213030579959
 21
1391.803714437368
 31
0.0
  0
LINE
  5
4D11
330
1F
100
AcDbEntity
  8
AM_VIS
100
AcDbLine
 10
771.262365545868
 20
1399.711069409675
 30
0.0
 11
772.3213030579959
 21
1399.803714437368
 31
0.0
  0
LINE
  5
4D12
330
1F
100
AcDbEntity
  8
AM_VIS
100
AcDbLine
 10
772.3213030579959
 20
1399.803714437368
 30
0.0
 11
772.3213030579959
 21
1391.803714437368
 31
0.0
  0
LINE
  5
4D13
330
1F
100
AcDbEntity
  8
AM_VIS
100
AcDbLine
 10
769.3702086647101
 20
1395.308714437368
 30
0.0
 11
769.6202600336442
 21
1395.308714437368
 31
0.0
  0
ELLIPSE
  5
4D14
330
1F
100
AcDbEntity
  8
AM_VIS
100
AcDbEllipse
 10
774.2123317289704
 20
1395.803714437368
 30
0.0
 11
0.0
 21
-6.073381703024471
 31
0.0
210
0.0
220
0.0
230
1.0
 40
0.7586218633401569
 41
4.630795282261955
 42
4.793982678507425
  0
LINE
  5
4D15
330
1F
100
AcDbEntity
  8
AM_VIS
100
AcDbLine
 10
769.6049315846466
 20
1393.603714437368
 30
0.0
 11
769.6202600336448
 21
1393.616879049183
 31
0.0
  0
ARC
  5
4D16
330
1F
100
AcDbEntity
  8
AM_VIS
100
AcDbCircle
 10
775.721303057996
 20
1395.803714437368
 30
0.0
 40
6.481124516625332
100
AcDbArc
 50
160.2804765846994
 51
168.5035641354684
  0
ARC
  5
4D17
330
1F
100
AcDbEntity
  8
AM_VIS
100
AcDbCircle
 10
775.721303057996
 20
1395.803714437368
 30
0.0
 40
6.481124516625332
100
AcDbArc
 50
191.4964358645443
 51
199.7195234153006
  0
LINE
  5
4D18
330
1F
100
AcDbEntity
  8
AM_VIS
100
AcDbLine
 10
769.6202600336448
 20
1397.990549825554
 30
0.0
 11
769.6049315846466
 21
1398.003714437368
 31
0.0
  0
LINE
  5
4D19
330
1F
100
AcDbEntity
  8
AM_VIS
100
AcDbLine
 10
769.6202600336442
 20
1396.298714437368
 30
0.0
 11
769.3702086647103
 21
1396.298714437368
 31
0.0
  0
ELLIPSE
  5
4D1A
330
1F
100
AcDbEntity
  8
AM_VIS
100
AcDbEllipse
 10
775.2707230707713
 20
1395.425213494536
 30
0.0
 11
4.100823830217081
 21
-4.881755736727139
 31
0.0000000000000002
210
0.0
220
0.0
230
1.0
 40
0.8853259619992359
 41
4.092081794600765
 42
4.267646442775902
  0
ELLIPSE
  5
4D1B
330
1F
100
AcDbEntity
  8
AM_VIS
100
AcDbEllipse
 10
775.2707230707713
 20
1394.683259372744
 30
0.0
 11
5.915222004772894
 21
-2.378748367060961
 31
0.0000000000000001
210
0.0
220
0.0
230
1.0
 40
0.2990719770123947
 41
2.946877754473618
 42
3.122442402649082
  0
ELLIPSE
  5
4D1C
330
1F
100
AcDbEntity
  8
AM_VIS
100
AcDbEllipse
 10
775.2707230707717
 20
1396.1822153802
 30
0.0
 11
4.100823830215007
 21
4.881755736729204
 31
-0.0000000000000002
210
0.0
220
0.0
230
1.0
 40
0.885325961999321
 41
2.01553886440327
 42
2.191103512578301
  0
ELLIPSE
  5
4D1D
330
1F
100
AcDbEntity
  8
AM_VIS
100
AcDbEllipse
 10
775.2707230707717
 20
1396.924169501992
 30
0.0
 11
5.915222004773239
 21
2.378748367060773
 31
-0.0000000000000001
210
0.0
220
0.0
230
1.0
 40
0.2990719770121599
 41
3.160742904530614
 42
3.336307552705963
  0
ARC
  5
4D1E
330
1F
100
AcDbEntity
  8
AM_VIS
100
AcDbCircle
 10
771.4018147342645
 20
1393.490270982009
 30
0.0
 40
1.6
100
AcDbArc
 50
208.1727341318564
 51
265.0000000000005
  0
ARC
  5
4D1F
330
1F
100
AcDbEntity
  8
AM_VIS
100
AcDbCircle
 10
771.4018147342645
 20
1398.117157892728
 30
0.0
 40
1.599999999999999
100
AcDbArc
 50
94.99999999999946
 51
151.8272658681436
  0
ARC
  5
4D20
330
1F
100
AcDbEntity
  8
AM_VIS
100
AcDbCircle
 10
775.721303057996
 20
1395.803714437368
 30
0.0
 40
6.5
100
AcDbArc
 50
151.8272658681321
 51
160.2168296273345
  0
ARC
  5
4D21
330
1F
100
AcDbEntity
  8
AM_VIS
100
AcDbCircle
 10
775.721303057996
 20
1395.803714437368
 30
0.0
 40
6.499999999999998
100
AcDbArc
 50
199.7831703726654
 51
208.1727341318678
  0
ELLIPSE
  5
4D22
330
1F
100
AcDbEntity
  8
AM_VIS
100
AcDbEllipse
 10
772.771807574105
 20
1395.803714437368
 30
0.0
 11
10.44041419392793
 21
0.0000000000000011
 31
0.0
210
0.0
220
0.0
230
1.0
 40
0.3639702342661905
 41
4.71238898038469
 42
4.726758464860893
  0
LINE
  5
4D23
330
1F
100
AcDbEntity
  8
AM_VIS
100
AcDbLine
 10
772.3213030579959
 20
1392.003714437368
 30
0.0
 11
772.771807574105
 21
1392.003714437368
 31
0.0
  0
LINE
  5
4D24
330
1F
100
AcDbEntity
  8
AM_VIS
100
AcDbLine
 10
772.3213030579959
 20
1399.603714437368
 30
0.0
 11
772.921303057996
 21
1399.603714437368
 31
0.0
  0
LINE
  5
4D25
330
1F
100
AcDbEntity
  8
AM_VIS
100
AcDbLine
 10
863.3213030579961
 20
1403.303714437369
 30
0.0
 11
887.3213030579961
 21
1403.303714437369
 31
0.0
  0
LINE
  5
4D26
330
1F
100
AcDbEntity
  8
AM_VIS
100
AcDbLine
 10
887.3213030579961
 20
1373.303714437368
 30
0.0
 11
887.3213030579961
 21
1403.303714437369
 31
0.0
  0
LINE
  5
4D27
330
1F
100
AcDbEntity
  8
AM_VIS
100
AcDbLine
 10
863.3213030579961
 20
1373.303714437368
 30
0.0
 11
887.3213030579961
 21
1373.303714437368
 31
0.0
  0
LINE
  5
4D28
330
1F
100
AcDbEntity
  8
AM_VIS
100
AcDbLine
 10
863.3213030579961
 20
1403.303714437369
 30
0.0
 11
863.3213030579961
 21
1373.303714437368
 31
0.0
  0
LINE
  5
4D29
330
1F
100
AcDbEntity
  8
AM_VIS
100
AcDbLine
 10
770.3213030579959
 20
1206.972330097609
 30
0.0
 11
777.3213030579959
 21
1206.972330097609
 31
0.0
  0
LINE
  5
4D2A
330
1F
100
AcDbEntity
  8
AM_VIS
100
AcDbLine
 10
772.3213030579959
 20
1228.972330097609
 30
0.0
 11
770.3213030579959
 21
1228.972330097609
 31
0.0
  0
LINE
  5
4D2B
330
1F
100
AcDbEntity
  8
AM_VIS
100
AcDbLine
 10
769.3213030579959
 20
1227.972330097609
 30
0.0
 11
769.3213030579959
 21
1207.972330097609
 31
0.0
  0
LINE
  5
4D2C
330
1F
100
AcDbEntity
  8
AM_VIS
100
AcDbLine
 10
769.3213030579959
 20
1235.972330097609
 30
0.0
 11
769.3213030579959
 21
1232.972330097609
 31
0.0
  0
LINE
  5
4D2D
330
1F
100
AcDbEntity
  8
AM_VIS
100
AcDbLine
 10
777.3213030579959
 20
1236.972330097609
 30
0.0
 11
774.3213030579959
 21
1236.972330097609
 31
0.0
  0
LINE
  5
4D2E
330
1F
100
AcDbEntity
  8
AM_VIS
100
AcDbLine
 10
773.3213030579959
 20
1235.972330097609
 30
0.0
 11
773.3213030579959
 21
1235.021720250802
 31
0.0
  0
LINE
  5
4D2F
330
1F
100
AcDbEntity
  8
AM_VIS
100
AcDbLine
 10
773.3213030579959
 20
1230.922939944417
 30
0.0
 11
773.3213030579959
 21
1229.972330097609
 31
0.0
  0
LINE
  5
4D30
330
1F
100
AcDbEntity
  8
AM_VIS
100
AcDbLine
 10
770.3213030579959
 20
1236.972330097609
 30
0.0
 11
774.3213030579959
 21
1236.972330097609
 31
0.0
  0
LINE
  5
4D31
330
1F
100
AcDbEntity
  8
AM_VIS
100
AcDbLine
 10
777.3213030579959
 20
1235.972330097609
 30
0.0
 11
777.3213030579959
 21
1207.972330097609
 31
0.0
  0
ARC
  5
4D32
330
1F
100
AcDbEntity
  8
AM_VIS
100
AcDbCircle
 10
770.3213030579959
 20
1227.972330097609
 30
0.0
 40
1.0
100
AcDbArc
 50
90.0
 51
180.0
  0
ARC
  5
4D33
330
1F
100
AcDbEntity
  8
AM_VIS
100
AcDbCircle
 10
770.3213030579959
 20
1207.972330097609
 30
0.0
 40
1.0
100
AcDbArc
 50
180.0
 51
270.0
  0
LINE
  5
4D34
330
1F
100
AcDbEntity
  8
AM_VIS
100
AcDbLine
 10
769.3213030579959
 20
1232.972330097609
 30
0.0
 11
769.3213030579959
 21
1227.972330097609
 31
0.0
  0
ARC
  5
4D35
330
1F
100
AcDbEntity
  8
AM_VIS
100
AcDbCircle
 10
770.3213030579959
 20
1235.972330097609
 30
0.0
 40
1.0
100
AcDbArc
 50
90.0
 51
180.0
  0
ARC
  5
4D36
330
1F
100
AcDbEntity
  8
AM_VIS
100
AcDbCircle
 10
774.3213030579959
 20
1235.972330097609
 30
0.0
 40
1.0
100
AcDbArc
 50
90.0
 51
180.0
  0
ARC
  5
4D37
330
1F
100
AcDbEntity
  8
AM_VIS
100
AcDbCircle
 10
772.3213030579959
 20
1229.972330097609
 30
0.0
 40
1.0
100
AcDbArc
 50
270.0
 51
0.0
  0
LINE
  5
4DCA
330
1F
100
AcDbEntity
  8
AM_VIS
100
AcDbLine
 10
863.3213030579961
 20
1236.972330097609
 30
0.0
 11
777.3213030579961
 21
1236.972330097609
 31
0.0
  0
LINE
  5
4DCB
330
1F
100
AcDbEntity
  8
AM_VIS
100
AcDbLine
 10
777.3213030579961
 20
1206.972330097609
 30
0.0
 11
863.3213030579961
 21
1206.972330097609
 31
0.0
  0
LINE
  5
4DCC
330
1F
100
AcDbEntity
  8
AM_VIS
100
AcDbLine
 10
777.3213030579961
 20
1236.972330097609
 30
0.0
 11
777.3213030579961
 21
1206.972330097609
 31
0.0
  0
LINE
  5
4DCD
330
1F
100
AcDbEntity
  8
AM_VIS
100
AcDbLine
 10
863.3213030579961
 20
1206.972330097609
 30
0.0
 11
863.3213030579961
 21
1236.972330097609
 31
0.0
  0
CIRCLE
  5
4DCE
330
1F
100
AcDbEntity
  8
AM_VIS
100
AcDbCircle
 10
791.3213030579961
 20
1221.972330097609
 30
0.0
 40
9.75
  0
CIRCLE
  5
4DCF
330
1F
100
AcDbEntity
  8
AM_VIS
100
AcDbCircle
 10
820.3213030579961
 20
1221.972330097609
 30
0.0
 40
9.749999999999996
  0
CIRCLE
  5
4DD0
330
1F
100
AcDbEntity
  8
AM_VIS
100
AcDbCircle
 10
849.3213030579962
 20
1221.972330097609
 30
0.0
 40
9.75
  0
CIRCLE
  5
4DD1
330
1F
100
AcDbEntity
  8
AM_VIS
100
AcDbCircle
 10
849.3213030579962
 20
1221.972330097609
 30
0.0
 40
10.75
  0
CIRCLE
  5
4DD2
330
1F
100
AcDbEntity
  8
AM_VIS
100
AcDbCircle
 10
791.3213030579961
 20
1221.972330097609
 30
0.0
 40
10.74999999999999
  0
CIRCLE
  5
4DD3
330
1F
100
AcDbEntity
  8
AM_VIS
100
AcDbCircle
 10
820.3213030579961
 20
1221.972330097609
 30
0.0
 40
10.74999999999999
  0
CIRCLE
  5
4DD4
330
1F
100
AcDbEntity
  8
AM_VIS
100
AcDbCircle
 10
856.321303057996
 20
1233.472330097609
 30
0.0
 40
2.1
  0
CIRCLE
  5
4DD5
330
1F
100
AcDbEntity
  8
AM_VIS
100
AcDbCircle
 10
784.3213030579961
 20
1210.472330097609
 30
0.0
 40
2.1
  0
LINE
  5
4DD6
330
1F
100
AcDbEntity
  8
AM_VIS
100
AcDbLine
 10
769.3702086647106
 20
1231.680596763063
 30
0.0
 11
769.5142648999223
 21
1231.738527561602
 31
0.0
  0
LINE
  5
4DD7
330
1F
100
AcDbEntity
  8
AM_VIS
100
AcDbLine
 10
769.5142648999223
 20
1234.206132633615
 30
0.0
 11
769.3702086647103
 21
1234.264063432155
 31
0.0
  0
LINE
  5
4DD8
330
1F
100
AcDbEntity
  8
AM_VIS
100
AcDbLine
 10
771.262365545868
 20
1229.064975125303
 30
0.0
 11
772.3213030579959
 21
1228.972330097609
 31
0.0
  0
LINE
  5
4DD9
330
1F
100
AcDbEntity
  8
AM_VIS
100
AcDbLine
 10
771.262365545868
 20
1236.879685069916
 30
0.0
 11
772.3213030579959
 21
1236.972330097609
 31
0.0
  0
LINE
  5
4DDA
330
1F
100
AcDbEntity
  8
AM_VIS
100
AcDbLine
 10
772.3213030579959
 20
1236.972330097609
 30
0.0
 11
772.3213030579959
 21
1228.972330097609
 31
0.0
  0
ELLIPSE
  5
4DDB
330
1F
100
AcDbEntity
  8
AM_VIS
100
AcDbEllipse
 10
774.2123317289663
 20
1232.972330097609
 30
0.0
 11
0.0
 21
-6.073381703023271
 31
0.0
210
0.0
220
0.0
230
1.0
 40
0.758621863339396
 41
4.630795282261938
 42
4.793982678507441
  0
LINE
  5
4DDC
330
1F
100
AcDbEntity
  8
AM_VIS
100
AcDbLine
 10
769.6202600336451
 20
1235.159165485794
 30
0.0
 11
769.6049315846466
 21
1235.172330097609
 31
0.0
  0
LINE
  5
4DDD
330
1F
100
AcDbEntity
  8
AM_VIS
100
AcDbLine
 10
769.6049315846466
 20
1230.772330097609
 30
0.0
 11
769.6202600336451
 21
1230.785494709424
 31
0.0
  0
ARC
  5
4DDE
330
1F
100
AcDbEntity
  8
AM_VIS
100
AcDbCircle
 10
775.721303057996
 20
1232.972330097609
 30
0.0
 40
6.48112451662503
100
AcDbArc
 50
160.2804765846994
 51
168.5035641354557
  0
LINE
  5
4DDF
330
1F
100
AcDbEntity
  8
AM_VIS
100
AcDbLine
 10
769.3702086647101
 20
1232.477330097609
 30
0.0
 11
769.6202600336457
 21
1232.477330097609
 31
0.0
  0
ARC
  5
4DE0
330
1F
100
AcDbEntity
  8
AM_VIS
100
AcDbCircle
 10
775.721303057996
 20
1232.972330097609
 30
0.0
 40
6.48112451662503
100
AcDbArc
 50
191.4964358645596
 51
199.7195234153006
  0
LINE
  5
4DE1
330
1F
100
AcDbEntity
  8
AM_VIS
100
AcDbLine
 10
769.6202600336457
 20
1233.467330097609
 30
0.0
 11
769.3702086647103
 21
1233.467330097609
 31
0.0
  0
ELLIPSE
  5
4DE2
330
1F
100
AcDbEntity
  8
AM_VIS
100
AcDbEllipse
 10
775.2707230707717
 20
1234.092785162233
 30
0.0
 11
5.915222004773239
 21
2.378748367060773
 31
-0.0000000000000001
210
0.0
220
0.0
230
1.0
 40
0.2990719770121599
 41
3.16074290453127
 42
3.336307552705963
  0
ELLIPSE
  5
4DE3
330
1F
100
AcDbEntity
  8
AM_VIS
100
AcDbEllipse
 10
775.2707230707713
 20
1231.851875032984
 30
0.0
 11
5.915222004772894
 21
-2.378748367060962
 31
0.0000000000000001
210
0.0
220
0.0
230
1.0
 40
0.2990719770123946
 41
2.946877754473618
 42
3.122442402648428
  0
ELLIPSE
  5
4DE4
330
1F
100
AcDbEntity
  8
AM_VIS
100
AcDbEllipse
 10
775.2707230707713
 20
1232.593829154777
 30
0.0
 11
4.100823830217085
 21
-4.881755736727136
 31
0.0000000000000002
210
0.0
220
0.0
230
1.0
 40
0.885325961999236
 41
4.092081794600765
 42
4.267646442775901
  0
ELLIPSE
  5
4DE5
330
1F
100
AcDbEntity
  8
AM_VIS
100
AcDbEllipse
 10
775.2707230707717
 20
1233.350831040441
 30
0.0
 11
4.100823830215006
 21
4.881755736729206
 31
-0.0000000000000002
210
0.0
220
0.0
230
1.0
 40
0.885325961999321
 41
2.01553886440327
 42
2.191103512578301
  0
ARC
  5
4DE6
330
1F
100
AcDbEntity
  8
AM_VIS
100
AcDbCircle
 10
771.4018147342645
 20
1230.658886642249
 30
0.0
 40
1.6
100
AcDbArc
 50
208.1727341318678
 51
265.0000000000005
  0
ARC
  5
4DE7
330
1F
100
AcDbEntity
  8
AM_VIS
100
AcDbCircle
 10
771.4018147342645
 20
1235.285773552969
 30
0.0
 40
1.599999999999999
100
AcDbArc
 50
94.99999999999946
 51
151.827265868126
  0
ARC
  5
4DE8
330
1F
100
AcDbEntity
  8
AM_VIS
100
AcDbCircle
 10
775.721303057996
 20
1232.972330097609
 30
0.0
 40
6.5
100
AcDbArc
 50
199.7831703726654
 51
208.1727341318678
  0
ARC
  5
4DE9
330
1F
100
AcDbEntity
  8
AM_VIS
100
AcDbCircle
 10
775.721303057996
 20
1232.972330097609
 30
0.0
 40
6.5
100
AcDbArc
 50
151.8272658681321
 51
160.2168296273345
  0
ELLIPSE
  5
4DEA
330
1F
100
AcDbEntity
  8
AM_VIS
100
AcDbEllipse
 10
772.8707985418869
 20
1232.972330097609
 30
0.0
 11
-10.44041419392793
 21
-0.0000000000000011
 31
0.0
210
0.0
220
0.0
230
1.0
 40
0.3639702342661905
 41
1.51814041853333
 42
1.57563944215425
  0
ELLIPSE
  5
4DEB
330
1F
100
AcDbEntity
  8
AM_VIS
100
AcDbEllipse
 10
771.7718075741049
 20
1232.972330097609
 30
0.0
 11
-10.44041419392778
 21
-0.0000000000000011
 31
0.0
210
0.0
220
0.0
230
1.0
 40
0.3639702342661959
 41
1.623452235056465
 42
1.684127428853541
  0
LINE
  5
4DEC
330
1F
100
AcDbEntity
  8
AM_VIS
100
AcDbLine
 10
773.3213030579959
 20
1236.772330097609
 30
0.0
 11
772.3213030579959
 21
1236.772330097609
 31
0.0
  0
LINE
  5
4DED
330
1F
100
AcDbEntity
  8
AM_VIS
100
AcDbLine
 10
772.921303057996
 20
1229.172330097609
 30
0.0
 11
772.8707985418869
 21
1229.172330097609
 31
0.0
  0
LINE
  5
4DEE
330
1F
100
AcDbEntity
  8
AM_VIS
100
AcDbLine
 10
773.3213030579959
 20
1235.021720250802
 30
0.0
 11
773.3213030579959
 21
1230.922939944417
 31
0.0
  0
LINE
  5
4DEF
330
1F
100
AcDbEntity
  8
AM_VIS
100
AcDbLine
 10
773.3213030579959
 20
1236.772330097609
 30
0.0
 11
773.3213030579959
 21
1235.972330097609
 31
0.0
  0
LINE
  5
4DF0
330
1F
100
AcDbEntity
  8
AM_VIS
100
AcDbLine
 10
887.0937289069454
 20
1212.137440245406
 30
0.0
 11
887.1723974512818
 21
1212.168671732606
 31
0.0
  0
LINE
  5
4DF1
330
1F
100
AcDbEntity
  8
AM_VIS
100
AcDbLine
 10
886.9307162744821
 20
1211.6513680706
 30
0.0
 11
887.1723974512821
 21
1211.666856338975
 31
0.0
  0
LINE
  5
4DF2
330
1F
100
AcDbEntity
  8
AM_VIS
100
AcDbLine
 10
887.0990770714788
 20
1210.282502632266
 30
0.0
 11
887.1723974512818
 21
1210.27780385624
 31
0.0
  0
LINE
  5
4DF3
330
1F
100
AcDbEntity
  8
AM_VIS
100
AcDbLine
 10
887.1723974512818
 20
1212.326439317938
 30
0.0
 11
887.0625178333249
 21
1212.282817004716
 31
0.0
  0
LINE
  5
4DF4
330
1F
100
AcDbEntity
  8
AM_VIS
100
AcDbLine
 10
886.9884933471659
 20
1209.848998567504
 30
0.0
 11
887.172397451282
 21
1209.775988462613
 31
0.0
  0
LINE
  5
4DF5
330
1F
100
AcDbEntity
  8
AM_VIS
100
AcDbLine
 10
887.172397451282
 20
1211.255151997394
 30
0.0
 11
886.9374965896483
 21
1211.270205745619
 31
0.0
  0
LINE
  5
4DF6
330
1F
100
AcDbEntity
  8
AM_VIS
100
AcDbLine
 10
887.1723974512818
 20
1209.618220877281
 30
0.0
 11
887.1407045056479
 21
1209.630803006952
 31
0.0
  0
LINE
  5
4DF7
330
1F
100
AcDbEntity
  8
AM_VIS
100
AcDbLine
 10
885.280240570124
 20
1207.064975125303
 30
0.0
 11
884.2213030579962
 21
1206.972330097609
 31
0.0
  0
LINE
  5
4DF8
330
1F
100
AcDbEntity
  8
AM_VIS
100
AcDbLine
 10
884.2213030579962
 20
1206.972330097609
 30
0.0
 11
884.2213030579962
 21
1214.722330097609
 31
0.0
  0
ELLIPSE
  5
4DF9
330
1F
100
AcDbEntity
  8
AM_VIS
100
AcDbEllipse
 10
880.8213030579961
 20
1210.893446304944
 30
0.0
 11
6.481124516625182
 21
-0.0000000000000003
 31
0.0
210
0.0
220
0.0
230
1.0
 40
0.9872203446008962
 41
0.200650658080606
 42
0.2238633709114921
  0
ELLIPSE
  5
4DFA
330
1F
100
AcDbEntity
  8
AM_VIS
100
AcDbEllipse
 10
882.3302743870216
 20
1209.237786419483
 30
0.0
 11
4.582127624772801
 21
3.986235284190598
 31
0.0
210
0.0
220
0.0
230
1.0
 40
0.1208948884426956
 41
6.212490683621145
 42
6.259991375134472
  0
ELLIPSE
  5
4DFB
330
1F
100
AcDbEntity
  8
AM_VIS
100
AcDbEllipse
 10
882.3302743870257
 20
1212.706873775736
 30
0.0
 11
4.582127624767223
 21
-3.986235284195178
 31
0.0
210
0.0
220
0.0
230
1.0
 40
0.1208948884425745
 41
0.0464597162536855
 42
0.186381328290727
  0
ELLIPSE
  5
4DFC
330
1F
100
AcDbEntity
  8
AM_VIS
100
AcDbEllipse
 10
882.3302743870213
 20
1211.252327322984
 30
0.0
 11
-1.108032813882453
 21
5.971451129666653
 31
0.0
210
0.0
220
0.0
230
1.0
 40
0.7489269373483448
 41
4.503611541333603
 42
4.527846448638686
  0
ELLIPSE
  5
4DFD
330
1F
100
AcDbEntity
  8
AM_VIS
100
AcDbEllipse
 10
880.8213030579961
 20
1211.461004168185
 30
0.0
 11
6.481124516625333
 21
-0.0000000000000041
 31
0.0
210
0.0
220
0.0
230
1.0
 40
0.15936119730376
 41
0.2006506580805109
 42
0.3441706105211344
  0
ELLIPSE
  5
4DFE
330
1F
100
AcDbEntity
  8
AM_VIS
100
AcDbEllipse
 10
880.8213030579961
 20
1211.461004168185
 30
0.0
 11
6.481124516625333
 21
-0.0000000000000041
 31
0.0
210
0.0
220
0.0
230
1.0
 40
0.15936119730376
 41
5.944847275188891
 42
6.082534649098914
  0
ELLIPSE
  5
4DFF
330
1F
100
AcDbEntity
  8
AM_VIS
100
AcDbEllipse
 10
882.3302743870213
 20
1210.692332872234
 30
0.0
 11
-1.108032813882461
 21
-5.971451129666652
 31
0.0
210
0.0
220
0.0
230
0.9999999999999998
 40
0.7489269373483449
 41
1.732073074332065
 42
1.89526047057752
  0
ELLIPSE
  5
4E00
330
1F
100
AcDbEntity
  8
AM_VIS
100
AcDbEllipse
 10
880.8213030579961
 20
1211.051213890274
 30
0.0
 11
6.481124516625182
 21
-0.0000000000000003
 31
0.0
210
0.0
220
0.0
230
1.0
 40
0.9872203446008962
 41
0.2006506580807597
 42
0.344170610520802
  0
ELLIPSE
  5
4E01
330
1F
100
AcDbEntity
  8
AM_VIS
100
AcDbEllipse
 10
880.8213030579961
 20
1211.051213890274
 30
0.0
 11
6.481124516625182
 21
-0.0000000000000003
 31
0.0
210
0.0
220
0.0
230
1.0
 40
0.9872203446008962
 41
5.939014696658142
 42
6.082534649098971
  0
ELLIPSE
  5
4E02
330
1F
100
AcDbEntity
  8
AM_VIS
100
AcDbEllipse
 10
880.8213030579961
 20
1210.48365602703
 30
0.0
 11
6.48112451662503
 21
-0.0000000000000041
 31
0.0
210
0.0
220
0.0
230
1.0
 40
0.15936119730376
 41
0.2006506580808561
 42
0.3441706105211124
  0
ELLIPSE
  5
4E03
330
1F
100
AcDbEntity
  8
AM_VIS
100
AcDbEllipse
 10
880.8213030579961
 20
1210.893446304944
 30
0.0
 11
6.481124516625182
 21
-0.0000000000000003
 31
0.0
210
0.0
220
0.0
230
1.0
 40
0.9872203446008962
 41
5.944847275188637
 42
6.082534649098835
  0
ELLIPSE
  5
4E04
330
1F
100
AcDbEntity
  8
AM_VIS
100
AcDbEllipse
 10
881.2718830452208
 20
1211.167436868201
 30
0.0
 11
2.533406213370652
 21
-5.85065364874727
 31
0.0000000000000001
210
0.0
220
0.0
230
1.0
 40
0.9216722696257043
 41
1.270433805594264
 42
1.445998453769715
  0
ELLIPSE
  5
4E05
330
1F
100
AcDbEntity
  8
AM_VIS
100
AcDbEllipse
 10
881.2718830452205
 20
1210.420109205771
 30
0.0
 11
4.939862570295509
 21
4.030639272639166
 31
-0.0000000000000002
210
0.0
220
0.0
230
1.0
 40
0.8263513329524286
 41
5.375539173728109
 42
5.551103821902793
  0
ELLIPSE
  5
4E06
330
1F
100
AcDbEntity
  8
AM_VIS
100
AcDbEllipse
 10
881.2718830452208
 20
1210.777223327018
 30
0.0
 11
2.53340621337066
 21
5.850653648747262
 31
-0.0000000000000001
210
0.0
220
0.0
230
0.9999999999999998
 40
0.9216722696257043
 41
4.93751651750844
 42
5.012751501584671
  0
ELLIPSE
  5
4E07
330
1F
100
AcDbEntity
  8
AM_VIS
100
AcDbEllipse
 10
881.2718830452205
 20
1209.926512426032
 30
0.0
 11
5.855282528136941
 21
2.522689373514308
 31
0.0
210
0.0
220
0.0
230
1.0
 40
0.4363365455147294
 41
6.23620709221863
 42
6.411771740393651
  0
ELLIPSE
  5
4E08
330
1F
100
AcDbEntity
  8
AM_VIS
100
AcDbEllipse
 10
881.2718830452208
 20
1212.138784496048
 30
0.0
 11
5.947313041152885
 21
-2.297338188007491
 31
0.0
210
0.0
220
0.0
230
1.0
 40
0.1541633348983573
 41
6.028256682717519
 42
6.203821330892644
  0
ELLIPSE
  5
4E09
330
1F
100
AcDbEntity
  8
AM_VIS
100
AcDbEllipse
 10
881.2718830452205
 20
1211.524550989447
 30
0.0
 11
4.939862570295502
 21
-4.030639272639175
 31
0.0000000000000002
210
0.0
220
0.0
230
1.0
 40
0.8263513329524283
 41
0.7320814852761513
 42
0.8030492239412932
  0
ARC
  5
4E0A
330
1F
100
AcDbEntity
  8
AM_VIS
100
AcDbCircle
 10
885.1407913817277
 20
1213.285773552969
 30
0.0
 40
1.6
100
AcDbArc
 50
28.17273413185636
 51
63.87660179376084
  0
ARC
  5
4E0B
330
1F
100
AcDbEntity
  8
AM_VIS
100
AcDbCircle
 10
885.1407913817277
 20
1208.658886642249
 30
0.0
 40
1.599999999999999
100
AcDbArc
 50
274.9999999999995
 51
331.8272658681436
  0
ARC
  5
4E0C
330
1F
100
AcDbEntity
  8
AM_VIS
100
AcDbCircle
 10
880.8213030579961
 20
1210.972330097609
 30
0.0
 40
6.499999999999998
100
AcDbArc
 50
331.8272658681321
 51
340.0137706279984
  0
ARC
  5
4E0D
330
1F
100
AcDbEntity
  8
AM_VIS
100
AcDbCircle
 10
880.8213030579961
 20
1210.972330097609
 30
0.0
 40
6.5
100
AcDbArc
 50
19.98622937197268
 51
28.17273413186785
  0
LINE
  5
4E0E
330
1F
100
AcDbEntity
  8
AM_VIS
100
AcDbLine
 10
883.2213030579962
 20
1207.172330097609
 30
0.0
 11
884.2213030579962
 21
1207.172330097609
 31
0.0
  0
LINE
  5
4E0F
330
1F
100
AcDbEntity
  8
AM_VIS
100
AcDbLine
 10
883.2213030579962
 20
1206.972330097609
 30
0.0
 11
883.2213030579962
 21
1214.722330097609
 31
0.0
  0
LINE
  5
4E10
330
1F
100
AcDbEntity
  8
AM_VIS
100
AcDbLine
 10
863.3213030579961
 20
1206.972330097609
 30
0.0
 11
883.2213030579962
 21
1206.972330097609
 31
0.0
  0
LINE
  5
4E11
330
1F
100
AcDbEntity
  8
AM_VIS
100
AcDbLine
 10
883.2213030579962
 20
1214.722330097609
 30
0.0
 11
887.3213030579961
 21
1214.722330097609
 31
0.0
  0
LINE
  5
4E12
330
1F
100
AcDbEntity
  8
AM_VIS
100
AcDbLine
 10
887.3213030579961
 20
1206.972330097609
 30
0.0
 11
883.2213030579962
 21
1206.972330097609
 31
0.0
  0
LINE
  5
4E13
330
1F
100
AcDbEntity
  8
AM_VIS
100
AcDbLine
 10
887.3213030579961
 20
1214.722330097609
 30
0.0
 11
887.3213030579961
 21
1236.972330097609
 31
0.0
  0
LINE
  5
4E14
330
1F
100
AcDbEntity
  8
AM_VIS
100
AcDbLine
 10
887.3213030579961
 20
1210.972330097609
 30
0.0
 11
887.3213030579961
 21
1206.972330097609
 31
0.0
  0
LINE
  5
4E15
330
1F
100
AcDbEntity
  8
AM_VIS
100
AcDbLine
 10
863.3213030579961
 20
1236.972330097609
 30
0.0
 11
887.3213030579961
 21
1236.972330097609
 31
0.0
  0
LINE
  5
4E16
330
1F
100
AcDbEntity
  8
AM_VIS
100
AcDbLine
 10
863.3213030579961
 20
1236.972330097609
 30
0.0
 11
863.3213030579961
 21
1206.972330097609
 31
0.0
  0
LINE
  5
4E17
330
1F
100
AcDbEntity
  8
AM_VIS
100
AcDbLine
 10
887.3213030579961
 20
1214.722330097609
 30
0.0
 11
887.3213030579961
 21
1210.972330097609
 31
0.0
  0
ARC
  5
4E90
330
1F
100
AcDbEntity
  8
AM_VIS
100
AcDbCircle
 10
950.1307624954776
 20
1291.628997407745
 30
0.0
 40
4.000000000000028
100
AcDbArc
 50
200.3641348063164
 51
69.63586519368354
  0
LINE
  5
4E91
330
1F
100
AcDbEntity
  8
AM_VIS
100
AcDbLine
 10
931.1357624954776
 20
1328.628997407746
 30
0.0
 11
931.6307624954777
 21
1328.628997407746
 31
0.0
  0
LINE
  5
4E92
330
1F
100
AcDbEntity
  8
AM_VIS
100
AcDbLine
 10
931.6307624954777
 20
1328.628997407746
 30
0.0
 11
932.1257624954776
 21
1328.628997407746
 31
0.0
  0
LINE
  5
4E93
330
1F
100
AcDbEntity
  8
AM_VIS
100
AcDbLine
 10
931.6307624954765
 20
1328.628997407745
 30
0.0
 11
931.1357624954766
 21
1329.123997407746
 31
0.0
  0
LINE
  5
4E94
330
1F
100
AcDbEntity
  8
AM_VIS
100
AcDbLine
 10
931.1357624954776
 20
1328.133997407747
 30
0.0
 11
931.6307624954777
 21
1328.628997407747
 31
0.0
  0
LINE
  5
4E95
330
1F
100
AcDbEntity
  8
AM_VIS
100
AcDbLine
 10
931.1357624954776
 20
1329.123997407747
 30
0.0
 11
931.1357624954776
 21
1328.133997407747
 31
0.0
  0
LINE
  5
4E96
330
1F
100
AcDbEntity
  8
AM_VIS
100
AcDbLine
 10
932.1257624954776
 20
1328.133997407747
 30
0.0
 11
931.1357624954776
 21
1328.133997407747
 31
0.0
  0
LINE
  5
4E97
330
1F
100
AcDbEntity
  8
AM_VIS
100
AcDbLine
 10
931.6307624954777
 20
1329.123997407747
 30
0.0
 11
931.6307624954777
 21
1328.628997407747
 31
0.0
  0
LINE
  5
4E98
330
1F
100
AcDbEntity
  8
AM_VIS
100
AcDbLine
 10
932.1257624954785
 20
1329.123997407746
 30
0.0
 11
931.6307624954788
 21
1328.628997407745
 31
0.0
  0
LINE
  5
4E99
330
1F
100
AcDbEntity
  8
AM_VIS
100
AcDbLine
 10
932.1257624954776
 20
1328.133997407747
 30
0.0
 11
932.1257624954776
 21
1329.123997407747
 31
0.0
  0
LINE
  5
4E9A
330
1F
100
AcDbEntity
  8
AM_VIS
100
AcDbLine
 10
931.6307624954777
 20
1328.628997407747
 30
0.0
 11
931.6307624954777
 21
1328.133997407747
 31
0.0
  0
LINE
  5
4E9B
330
1F
100
AcDbEntity
  8
AM_VIS
100
AcDbLine
 10
931.6307624954777
 20
1328.628997407747
 30
0.0
 11
932.1257624954778
 21
1328.133997407747
 31
0.0
  0
LINE
  5
4E9C
330
1F
100
AcDbEntity
  8
AM_VIS
100
AcDbLine
 10
931.1357624954776
 20
1329.123997407747
 30
0.0
 11
932.1257624954776
 21
1329.123997407747
 31
0.0
  0
LINE
  5
4E9D
330
1F
100
AcDbEntity
  8
AM_VIS
100
AcDbLine
 10
931.1357624954776
 20
1328.133997407747
 30
0.0
 11
931.1357624954776
 21
1327.3372640732
 31
0.0
  0
LINE
  5
4E9E
330
1F
100
AcDbEntity
  8
AM_VIS
100
AcDbLine
 10
932.1257624954769
 20
1328.133997407747
 30
0.0
 11
932.9224958300219
 21
1328.133997407747
 31
0.0
  0
LINE
  5
4E9F
330
1F
100
AcDbEntity
  8
AM_VIS
100
AcDbLine
 10
932.9224958300242
 20
1329.123997407747
 30
0.0
 11
932.1257624954805
 21
1329.123997407747
 31
0.0
  0
LINE
  5
4EA0
330
1F
100
AcDbEntity
  8
AM_VIS
100
AcDbLine
 10
931.1357624954773
 20
1329.123997407747
 30
0.0
 11
930.3390291609321
 21
1329.123997407747
 31
0.0
  0
LINE
  5
4EA1
330
1F
100
AcDbEntity
  8
AM_VIS
100
AcDbLine
 10
932.1257624954776
 20
1327.337264073199
 30
0.0
 11
932.1257624954776
 21
1328.133997407745
 31
0.0
  0
LINE
  5
4EA2
330
1F
100
AcDbEntity
  8
AM_VIS
100
AcDbLine
 10
932.1257624954776
 20
1328.133997407745
 30
0.0
 11
933.1863974140885
 21
1327.073362489134
 31
0.0
  0
LINE
  5
4EA3
330
1F
100
AcDbEntity
  8
AM_VIS
100
AcDbLine
 10
932.1257624954805
 20
1329.123997407747
 30
0.0
 11
933.186397414089
 21
1330.184632326356
 31
0.0
  0
LINE
  5
4EA4
330
1F
100
AcDbEntity
  8
AM_VIS
100
AcDbLine
 10
932.1257624954776
 20
1329.123997407746
 30
0.0
 11
932.1257624954776
 21
1329.92073074229
 31
0.0
  0
LINE
  5
4EA5
330
1F
100
AcDbEntity
  8
AM_VIS
100
AcDbLine
 10
930.3390291609321
 20
1328.133997407747
 30
0.0
 11
931.1357624954787
 21
1328.133997407747
 31
0.0
  0
LINE
  5
4EA6
330
1F
100
AcDbEntity
  8
AM_VIS
100
AcDbLine
 10
931.1357624954787
 20
1328.133997407747
 30
0.0
 11
930.0751275768661
 21
1327.073362489135
 31
0.0
  0
LINE
  5
4EA7
330
1F
100
AcDbEntity
  8
AM_VIS
100
AcDbLine
 10
931.1357624954776
 20
1329.920730742292
 30
0.0
 11
931.1357624954776
 21
1329.123997407746
 31
0.0
  0
LINE
  5
4EA8
330
1F
100
AcDbEntity
  8
AM_VIS
100
AcDbLine
 10
931.1357624954776
 20
1329.123997407746
 30
0.0
 11
930.0751275768668
 21
1330.184632326357
 31
0.0
  0
LINE
  5
4EA9
330
1F
100
AcDbEntity
  8
AM_VIS
100
AcDbLine
 10
931.1357624954776
 20
1327.3372640732
 30
0.0
 11
931.1357624954776
 21
1326.442162019562
 31
0.0
  0
ELLIPSE
  5
4EAA
330
1F
100
AcDbEntity
  8
AM_VIS
100
AcDbEllipse
 10
931.6307624954777
 20
1330.385994908468
 30
0.0
 11
6.073381703024446
 21
-0.0000000000000043
 31
0.0
210
0.0
220
0.0
230
1.0
 40
0.6515311722874965
 41
4.630795282261953
 42
4.793982678507425
  0
ELLIPSE
  5
4EAB
330
1F
100
AcDbEntity
  8
AM_VIS
100
AcDbEllipse
 10
931.6307624954777
 20
1326.871999907022
 30
0.0
 11
-6.073381703023245
 21
0.0000000000000066
 31
0.0
210
0.0
220
0.0
230
1.0
 40
0.6515311722883823
 41
4.630795282261937
 42
4.793982678507441
  0
ELLIPSE
  5
4EAC
330
1F
100
AcDbEntity
  8
AM_VIS
100
AcDbEllipse
 10
933.3877599961995
 20
1328.628997407746
 30
0.0
 11
-0.0000000000000066
 21
-6.07338170302488
 31
0.0
210
0.0
220
0.0
230
1.0
 40
0.6515311722876046
 41
4.63079528226163
 42
4.793982678507091
  0
LINE
  5
4EAD
330
1F
100
AcDbEntity
  8
AM_VIS
100
AcDbLine
 10
932.9224958300219
 20
1328.133997407747
 30
0.0
 11
933.8175978836627
 21
1328.133997407747
 31
0.0
  0
LINE
  5
4EAE
330
1F
100
AcDbEntity
  8
AM_VIS
100
AcDbLine
 10
929.4439271072924
 20
1328.133997407747
 30
0.0
 11
930.3390291609323
 21
1328.133997407747
 31
0.0
  0
ELLIPSE
  5
4EAF
330
1F
100
AcDbEntity
  8
AM_VIS
100
AcDbEllipse
 10
929.8737649947556
 20
1328.628997407746
 30
0.0
 11
0.0000000000000043
 21
6.07338170302488
 31
0.0
210
0.0
220
0.0
230
1.0
 40
0.6515311722876043
 41
4.630795282262288
 42
4.793982678507748
  0
LINE
  5
4EB0
330
1F
100
AcDbEntity
  8
AM_VIS
100
AcDbLine
 10
930.3390291609321
 20
1329.123997407747
 30
0.0
 11
929.4439271072926
 21
1329.123997407747
 31
0.0
  0
LINE
  5
4EB1
330
1F
100
AcDbEntity
  8
AM_VIS
100
AcDbLine
 10
932.1257624954776
 20
1326.442162019562
 30
0.0
 11
932.1257624954776
 21
1327.337264073199
 31
0.0
  0
LINE
  5
4EB2
330
1F
100
AcDbEntity
  8
AM_VIS
100
AcDbLine
 10
932.1257624954776
 20
1329.920730742291
 30
0.0
 11
932.1257624954776
 21
1330.815832795933
 31
0.0
  0
LINE
  5
4EB3
330
1F
100
AcDbEntity
  8
AM_VIS
100
AcDbLine
 10
933.8175978836625
 20
1329.123997407747
 30
0.0
 11
932.9224958300242
 21
1329.123997407747
 31
0.0
  0
LINE
  5
4EB4
330
1F
100
AcDbEntity
  8
AM_VIS
100
AcDbLine
 10
931.1357624954776
 20
1330.815832795933
 30
0.0
 11
931.1357624954776
 21
1329.920730742292
 31
0.0
  0
ELLIPSE
  5
4EB5
330
1F
100
AcDbEntity
  8
AM_VIS
100
AcDbEllipse
 10
931.252261552645
 20
1329.74945247237
 30
0.0
 11
6.040265643418782
 21
2.04046223108379
 31
0.0
210
0.0
220
0.0
230
1.0
 40
0.3560251305399938
 41
4.397980125344669
 42
4.573544773519788
  0
ELLIPSE
  5
4EB6
330
1F
100
AcDbEntity
  8
AM_VIS
100
AcDbEllipse
 10
930.5103074308531
 20
1328.250496464913
 30
0.0
 11
-2.040462231083788
 21
6.040265643418783
 31
0.0
210
0.0
220
0.0
230
1.0
 40
0.3560251305399932
 41
4.397980125344663
 42
4.573544773520117
  0
ELLIPSE
  5
4EB7
330
1F
100
AcDbEntity
  8
AM_VIS
100
AcDbEllipse
 10
930.510307430854
 20
1329.007498350577
 30
0.0
 11
2.040462231082185
 21
6.040265643419572
 31
0.0
210
0.0
220
0.0
230
1.0
 40
0.3560251305399901
 41
4.851233187249908
 42
5.026797835424603
  0
ELLIPSE
  5
4EB8
330
1F
100
AcDbEntity
  8
AM_VIS
100
AcDbEllipse
 10
932.7512175601023
 20
1329.007498350578
 30
0.0
 11
2.040462231083787
 21
-6.040265643418781
 31
0.0
210
0.0
220
0.0
230
1.0
 40
0.356025130539994
 41
4.397980125344662
 42
4.573544773519462
  0
ELLIPSE
  5
4EB9
330
1F
100
AcDbEntity
  8
AM_VIS
100
AcDbEllipse
 10
932.0092634383096
 20
1329.749452472369
 30
0.0
 11
6.040265643419568
 21
-2.040462231082185
 31
0.0
210
0.0
220
0.0
230
1.0
 40
0.3560251305399907
 41
4.851233187249573
 42
5.026797835424596
  0
ELLIPSE
  5
4EBA
330
1F
100
AcDbEntity
  8
AM_VIS
100
AcDbEllipse
 10
932.0092634383101
 20
1327.508542343121
 30
0.0
 11
-6.040265643418783
 21
-2.040462231083788
 31
0.0
210
0.0
220
0.0
230
1.0
 40
0.3560251305399935
 41
4.397980125344671
 42
4.573544773519789
  0
ELLIPSE
  5
4EBB
330
1F
100
AcDbEntity
  8
AM_VIS
100
AcDbEllipse
 10
932.7512175601013
 20
1328.250496464914
 30
0.0
 11
-2.040462231082185
 21
-6.040265643419573
 31
0.0
210
0.0
220
0.0
230
1.0
 40
0.3560251305399904
 41
4.851233187249251
 42
5.026797835424603
  0
ELLIPSE
  5
4EBC
330
1F
100
AcDbEntity
  8
AM_VIS
100
AcDbEllipse
 10
931.2522615526459
 20
1327.508542343122
 30
0.0
 11
-6.040265643419568
 21
2.040462231082185
 31
0.0
210
0.0
220
0.0
230
1.0
 40
0.3560251305399902
 41
4.851233187249573
 42
5.026797835424596
  0
LINE
  5
4EBD
330
1F
100
AcDbEntity
  8
AM_VIS
100
AcDbLine
 10
954.1307624954777
 20
1287.428997407745
 30
0.0
 11
946.3807624954776
 21
1287.428997407745
 31
0.0
  0
LINE
  5
4EBE
330
1F
100
AcDbEntity
  8
AM_VIS
100
AcDbLine
 10
954.1307624954777
 20
1295.378997407745
 30
0.0
 11
954.1307624954777
 21
1287.428997407745
 31
0.0
  0
LINE
  5
4EBF
330
1F
100
AcDbEntity
  8
AM_VIS
100
AcDbLine
 10
946.3807624954776
 20
1287.428997407745
 30
0.0
 11
946.3807624954776
 21
1291.628997407745
 31
0.0
  0
LINE
  5
4EC0
330
1F
100
AcDbEntity
  8
AM_VIS
100
AcDbLine
 10
946.3807624954776
 20
1287.428997407745
 30
0.0
 11
924.1307624954776
 21
1287.428997407745
 31
0.0
  0
LINE
  5
4EC1
330
1F
100
AcDbEntity
  8
AM_VIS
100
AcDbLine
 10
924.1307624954776
 20
1333.828997407745
 30
0.0
 11
954.1307624954777
 21
1333.828997407745
 31
0.0
  0
LINE
  5
4EC2
330
1F
100
AcDbEntity
  8
AM_VIS
100
AcDbLine
 10
954.1307624954777
 20
1333.828997407745
 30
0.0
 11
954.1307624954775
 21
1295.378997407745
 31
0.0
  0
LINE
  5
4EC3
330
1F
100
AcDbEntity
  8
AM_VIS
100
AcDbLine
 10
950.1307624954776
 20
1295.378997407745
 30
0.0
 11
954.1307624954777
 21
1295.378997407745
 31
0.0
  0
LINE
  5
4EC4
102
{ACAD_REACTORS
330
505E
102
}
330
1F
100
AcDbEntity
  8
AM_VIS
100
AcDbLine
 10
924.1307624954776
 20
1287.428997407745
 30
0.0
 11
924.1307624954776
 21
1333.828997407745
 31
0.0
  0
ARC
  5
4EC5
330
1F
100
AcDbEntity
  8
AM_VIS
100
AcDbCircle
 10
950.1307624954776
 20
1291.628997407745
 30
0.0
 40
3.75
100
AcDbArc
 50
90.0
 51
180.0
  0
CIRCLE
  5
4EC6
330
1F
100
AcDbEntity
  8
AM_VIS
100
AcDbCircle
 10
931.6307624954777
 20
1328.628997407745
 30
0.0
 40
3.75
  0
CIRCLE
  5
4EC7
330
1F
100
AcDbEntity
  8
AM_VIS
100
AcDbCircle
 10
939.1307624954777
 20
1304.428997407745
 30
0.0
 40
4.049999999999999
  0
LINE
  5
4EC9
330
1F
100
AcDbEntity
  8
AM_VIS
100
AcDbLine
 10
949.8857624954776
 20
1291.628997407745
 30
0.0
 11
950.3807624954777
 21
1291.628997407745
 31
0.0
  0
LINE
  5
4ECA
330
1F
100
AcDbEntity
  8
AM_VIS
100
AcDbLine
 10
950.3807624954777
 20
1291.628997407745
 30
0.0
 11
950.8757624954776
 21
1291.628997407745
 31
0.0
  0
LINE
  5
4ECB
330
1F
100
AcDbEntity
  8
AM_VIS
100
AcDbLine
 10
950.3807624954765
 20
1291.628997407745
 30
0.0
 11
949.8857624954766
 21
1292.123997407745
 31
0.0
  0
LINE
  5
4ECC
330
1F
100
AcDbEntity
  8
AM_VIS
100
AcDbLine
 10
949.8857624954776
 20
1291.133997407748
 30
0.0
 11
950.3807624954777
 21
1291.628997407747
 31
0.0
  0
LINE
  5
4ECD
330
1F
100
AcDbEntity
  8
AM_VIS
100
AcDbLine
 10
949.8857624954776
 20
1292.123997407747
 30
0.0
 11
949.8857624954776
 21
1291.133997407748
 31
0.0
  0
LINE
  5
4ECE
330
1F
100
AcDbEntity
  8
AM_VIS
100
AcDbLine
 10
950.8757624954776
 20
1291.133997407748
 30
0.0
 11
949.8857624954776
 21
1291.133997407748
 31
0.0
  0
LINE
  5
4ECF
330
1F
100
AcDbEntity
  8
AM_VIS
100
AcDbLine
 10
950.3807624954777
 20
1292.123997407747
 30
0.0
 11
950.3807624954777
 21
1291.628997407747
 31
0.0
  0
LINE
  5
4ED0
330
1F
100
AcDbEntity
  8
AM_VIS
100
AcDbLine
 10
950.8757624954785
 20
1292.123997407745
 30
0.0
 11
950.3807624954788
 21
1291.628997407745
 31
0.0
  0
LINE
  5
4ED1
330
1F
100
AcDbEntity
  8
AM_VIS
100
AcDbLine
 10
950.8757624954776
 20
1291.133997407748
 30
0.0
 11
950.8757624954776
 21
1292.123997407747
 31
0.0
  0
LINE
  5
4ED2
330
1F
100
AcDbEntity
  8
AM_VIS
100
AcDbLine
 10
950.3807624954777
 20
1291.628997407747
 30
0.0
 11
950.3807624954777
 21
1291.133997407748
 31
0.0
  0
LINE
  5
4ED3
330
1F
100
AcDbEntity
  8
AM_VIS
100
AcDbLine
 10
950.3807624954777
 20
1291.628997407747
 30
0.0
 11
950.8757624954778
 21
1291.133997407748
 31
0.0
  0
LINE
  5
4ED4
330
1F
100
AcDbEntity
  8
AM_VIS
100
AcDbLine
 10
949.8857624954776
 20
1292.123997407747
 30
0.0
 11
950.8757624954776
 21
1292.123997407747
 31
0.0
  0
LINE
  5
4ED5
330
1F
100
AcDbEntity
  8
AM_VIS
100
AcDbLine
 10
949.8857624954776
 20
1291.133997407747
 30
0.0
 11
949.8857624954776
 21
1290.3372640732
 31
0.0
  0
LINE
  5
4ED6
330
1F
100
AcDbEntity
  8
AM_VIS
100
AcDbLine
 10
950.8757624954769
 20
1291.133997407748
 30
0.0
 11
951.6724958300219
 21
1291.133997407748
 31
0.0
  0
LINE
  5
4ED7
330
1F
100
AcDbEntity
  8
AM_VIS
100
AcDbLine
 10
951.6724958300242
 20
1292.123997407747
 30
0.0
 11
950.8757624954805
 21
1292.123997407747
 31
0.0
  0
LINE
  5
4ED8
330
1F
100
AcDbEntity
  8
AM_VIS
100
AcDbLine
 10
949.8857624954773
 20
1292.123997407747
 30
0.0
 11
949.0890291609321
 21
1292.123997407747
 31
0.0
  0
LINE
  5
4ED9
330
1F
100
AcDbEntity
  8
AM_VIS
100
AcDbLine
 10
950.8757624954776
 20
1290.3372640732
 30
0.0
 11
950.8757624954776
 21
1291.133997407744
 31
0.0
  0
LINE
  5
4EDA
330
1F
100
AcDbEntity
  8
AM_VIS
100
AcDbLine
 10
950.8757624954776
 20
1291.133997407744
 30
0.0
 11
951.9363974140885
 21
1290.073362489134
 31
0.0
  0
LINE
  5
4EDB
330
1F
100
AcDbEntity
  8
AM_VIS
100
AcDbLine
 10
950.8757624954805
 20
1292.123997407747
 30
0.0
 11
951.936397414089
 21
1293.184632326356
 31
0.0
  0
LINE
  5
4EDC
330
1F
100
AcDbEntity
  8
AM_VIS
100
AcDbLine
 10
950.8757624954776
 20
1292.123997407746
 30
0.0
 11
950.8757624954776
 21
1292.92073074229
 31
0.0
  0
LINE
  5
4EDD
330
1F
100
AcDbEntity
  8
AM_VIS
100
AcDbLine
 10
949.0890291609321
 20
1291.133997407748
 30
0.0
 11
949.8857624954787
 21
1291.133997407748
 31
0.0
  0
LINE
  5
4EDE
330
1F
100
AcDbEntity
  8
AM_VIS
100
AcDbLine
 10
949.8857624954787
 20
1291.133997407748
 30
0.0
 11
948.8251275768661
 21
1290.073362489135
 31
0.0
  0
LINE
  5
4EDF
330
1F
100
AcDbEntity
  8
AM_VIS
100
AcDbLine
 10
949.8857624954776
 20
1292.920730742291
 30
0.0
 11
949.8857624954776
 21
1292.123997407746
 31
0.0
  0
LINE
  5
4EE0
330
1F
100
AcDbEntity
  8
AM_VIS
100
AcDbLine
 10
949.8857624954776
 20
1292.123997407746
 30
0.0
 11
948.8251275768668
 21
1293.184632326357
 31
0.0
  0
LINE
  5
4EE1
330
1F
100
AcDbEntity
  8
AM_VIS
100
AcDbLine
 10
949.8857624954776
 20
1290.3372640732
 30
0.0
 11
949.8857624954776
 21
1289.442162019562
 31
0.0
  0
ELLIPSE
  5
4EE2
330
1F
100
AcDbEntity
  8
AM_VIS
100
AcDbEllipse
 10
950.3807624954777
 20
1293.385994908468
 30
0.0
 11
6.073381703024446
 21
-0.0000000000000043
 31
0.0
210
0.0
220
0.0
230
1.0
 40
0.6515311722874965
 41
4.630795282261953
 42
4.793982678507425
  0
ELLIPSE
  5
4EE3
330
1F
100
AcDbEntity
  8
AM_VIS
100
AcDbEllipse
 10
950.3807624954777
 20
1289.871999907022
 30
0.0
 11
-6.073381703023245
 21
0.0000000000000066
 31
0.0
210
0.0
220
0.0
230
1.0
 40
0.6515311722883823
 41
4.630795282261937
 42
4.793982678507441
  0
ELLIPSE
  5
4EE4
330
1F
100
AcDbEntity
  8
AM_VIS
100
AcDbEllipse
 10
952.1377599961995
 20
1291.628997407745
 30
0.0
 11
-0.0000000000000066
 21
-6.07338170302488
 31
0.0
210
0.0
220
0.0
230
1.0
 40
0.6515311722876046
 41
4.63079528226163
 42
4.793982678507091
  0
LINE
  5
4EE5
330
1F
100
AcDbEntity
  8
AM_VIS
100
AcDbLine
 10
951.6724958300219
 20
1291.133997407748
 30
0.0
 11
952.5675978836627
 21
1291.133997407748
 31
0.0
  0
LINE
  5
4EE6
330
1F
100
AcDbEntity
  8
AM_VIS
100
AcDbLine
 10
948.1939271072924
 20
1291.133997407748
 30
0.0
 11
949.0890291609323
 21
1291.133997407748
 31
0.0
  0
ELLIPSE
  5
4EE7
330
1F
100
AcDbEntity
  8
AM_VIS
100
AcDbEllipse
 10
948.6237649947556
 20
1291.628997407745
 30
0.0
 11
0.0000000000000043
 21
6.07338170302488
 31
0.0
210
0.0
220
0.0
230
1.0
 40
0.6515311722876043
 41
4.630795282262288
 42
4.793982678507748
  0
LINE
  5
4EE8
330
1F
100
AcDbEntity
  8
AM_VIS
100
AcDbLine
 10
949.0890291609321
 20
1292.123997407747
 30
0.0
 11
948.1939271072926
 21
1292.123997407747
 31
0.0
  0
LINE
  5
4EE9
330
1F
100
AcDbEntity
  8
AM_VIS
100
AcDbLine
 10
950.8757624954776
 20
1289.442162019562
 30
0.0
 11
950.8757624954776
 21
1290.3372640732
 31
0.0
  0
LINE
  5
4EEA
330
1F
100
AcDbEntity
  8
AM_VIS
100
AcDbLine
 10
950.8757624954776
 20
1292.92073074229
 30
0.0
 11
950.8757624954776
 21
1293.815832795933
 31
0.0
  0
LINE
  5
4EEB
330
1F
100
AcDbEntity
  8
AM_VIS
100
AcDbLine
 10
952.5675978836625
 20
1292.123997407747
 30
0.0
 11
951.6724958300242
 21
1292.123997407747
 31
0.0
  0
LINE
  5
4EEC
330
1F
100
AcDbEntity
  8
AM_VIS
100
AcDbLine
 10
949.8857624954776
 20
1293.815832795933
 30
0.0
 11
949.8857624954776
 21
1292.920730742291
 31
0.0
  0
ELLIPSE
  5
4EED
330
1F
100
AcDbEntity
  8
AM_VIS
100
AcDbEllipse
 10
950.002261552645
 20
1292.74945247237
 30
0.0
 11
6.040265643418782
 21
2.04046223108379
 31
0.0
210
0.0
220
0.0
230
1.0
 40
0.3560251305399938
 41
4.397980125344669
 42
4.573544773519788
  0
ELLIPSE
  5
4EEE
330
1F
100
AcDbEntity
  8
AM_VIS
100
AcDbEllipse
 10
949.2603074308531
 20
1291.250496464913
 30
0.0
 11
-2.040462231083788
 21
6.040265643418783
 31
0.0
210
0.0
220
0.0
230
1.0
 40
0.3560251305399932
 41
4.397980125344663
 42
4.573544773520117
  0
ELLIPSE
  5
4EEF
330
1F
100
AcDbEntity
  8
AM_VIS
100
AcDbEllipse
 10
949.260307430854
 20
1292.007498350577
 30
0.0
 11
2.040462231082185
 21
6.040265643419572
 31
0.0
210
0.0
220
0.0
230
1.0
 40
0.3560251305399901
 41
4.851233187249908
 42
5.026797835424603
  0
ELLIPSE
  5
4EF0
330
1F
100
AcDbEntity
  8
AM_VIS
100
AcDbEllipse
 10
951.5012175601023
 20
1292.007498350578
 30
0.0
 11
2.040462231083787
 21
-6.040265643418781
 31
0.0
210
0.0
220
0.0
230
1.0
 40
0.356025130539994
 41
4.397980125344662
 42
4.573544773519462
  0
ELLIPSE
  5
4EF1
330
1F
100
AcDbEntity
  8
AM_VIS
100
AcDbEllipse
 10
950.7592634383096
 20
1292.749452472369
 30
0.0
 11
6.040265643419568
 21
-2.040462231082185
 31
0.0
210
0.0
220
0.0
230
1.0
 40
0.3560251305399907
 41
4.851233187249573
 42
5.026797835424596
  0
ELLIPSE
  5
4EF2
330
1F
100
AcDbEntity
  8
AM_VIS
100
AcDbEllipse
 10
950.7592634383101
 20
1290.508542343121
 30
0.0
 11
-6.040265643418783
 21
-2.040462231083788
 31
0.0
210
0.0
220
0.0
230
1.0
 40
0.3560251305399935
 41
4.397980125344671
 42
4.573544773519789
  0
ELLIPSE
  5
4EF3
330
1F
100
AcDbEntity
  8
AM_VIS
100
AcDbEllipse
 10
951.5012175601013
 20
1291.250496464914
 30
0.0
 11
-2.040462231082185
 21
-6.040265643419573
 31
0.0
210
0.0
220
0.0
230
1.0
 40
0.3560251305399904
 41
4.851233187249251
 42
5.026797835424603
  0
ELLIPSE
  5
4EF4
330
1F
100
AcDbEntity
  8
AM_VIS
100
AcDbEllipse
 10
950.0022615526459
 20
1290.508542343122
 30
0.0
 11
-6.040265643419568
 21
2.040462231082185
 31
0.0
210
0.0
220
0.0
230
1.0
 40
0.3560251305399902
 41
4.851233187249573
 42
5.026797835424596
  0
LINE
  5
4EF5
330
1F
100
AcDbEntity
  8
AM_7
  6
AM_ISO08W050x2
100
AcDbLine
 10
939.1307624954777
 20
1304.428997407745
 30
0.0
 11
945.9807624954779
 21
1304.428997407745
 31
0.0
1001
GENIUS_GENOREF_13
1005
4F33
  0
LINE
  5
4EF6
330
1F
100
AcDbEntity
  8
AM_7
  6
AM_ISO08W050x2
100
AcDbLine
 10
939.1307624954777
 20
1304.428997407745
 30
0.0
 11
939.1307624954777
 21
1311.278997407745
 31
0.0
1001
GENIUS_GENOREF_13
1005
4F33
  0
LINE
  5
4EF7
102
{ACAD_REACTORS
330
505E
102
}
330
1F
100
AcDbEntity
  8
AM_7
  6
AM_ISO08W050x2
100
AcDbLine
 10
939.1307624954777
 20
1304.428997407745
 30
0.0
 11
932.2807624954775
 21
1304.428997407745
 31
0.0
1001
GENIUS_GENOREF_13
1005
4F33
  0
LINE
  5
4EF8
330
1F
100
AcDbEntity
  8
AM_7
  6
AM_ISO08W050x2
100
AcDbLine
 10
939.1307624954777
 20
1304.428997407745
 30
0.0
 11
939.1307624954777
 21
1297.578997407745
 31
0.0
1001
GENIUS_GENOREF_13
1005
4F33
  0
LINE
  5
4EF9
330
1F
100
AcDbEntity
  8
AM_7
  6
AM_ISO08W050x2
100
AcDbLine
 10
805.8213030579961
 20
1294.428997407745
 30
0.0
 11
810.0713030579962
 21
1294.428997407745
 31
0.0
1001
GENIUS_GENOREF_13
1005
4F32
  0
LINE
  5
4EFA
330
1F
100
AcDbEntity
  8
AM_7
  6
AM_ISO08W050x2
100
AcDbLine
 10
805.8213030579961
 20
1294.428997407745
 30
0.0
 11
805.8213030579961
 21
1298.678997407745
 31
0.0
1001
GENIUS_GENOREF_13
1005
4F32
  0
LINE
  5
4EFB
102
{ACAD_REACTORS
330
516A
102
}
330
1F
100
AcDbEntity
  8
AM_7
  6
AM_ISO08W050x2
100
AcDbLine
 10
805.8213030579961
 20
1294.428997407745
 30
0.0
 11
801.5713030579961
 21
1294.428997407745
 31
0.0
1001
GENIUS_GENOREF_13
1005
4F32
  0
LINE
  5
4EFC
102
{ACAD_REACTORS
330
4F9E
330
4FC4
102
}
330
1F
100
AcDbEntity
  8
AM_7
  6
AM_ISO08W050x2
100
AcDbLine
 10
805.8213030579961
 20
1294.428997407745
 30
0.0
 11
805.8213030579961
 21
1290.178997407745
 31
0.0
1001
GENIUS_GENOREF_13
1005
4F32
  0
LINE
  5
4EFD
330
1F
100
AcDbEntity
  8
AM_7
  6
AM_ISO08W050x2
100
AcDbLine
 10
834.8213030579961
 20
1294.428997407745
 30
0.0
 11
839.0713030579961
 21
1294.428997407745
 31
0.0
1001
GENIUS_GENOREF_13
1005
4F31
  0
LINE
  5
4EFE
330
1F
100
AcDbEntity
  8
AM_7
  6
AM_ISO08W050x2
100
AcDbLine
 10
834.8213030579961
 20
1294.428997407745
 30
0.0
 11
834.8213030579961
 21
1298.678997407745
 31
0.0
1001
GENIUS_GENOREF_13
1005
4F31
  0
LINE
  5
4EFF
330
1F
100
AcDbEntity
  8
AM_7
  6
AM_ISO08W050x2
100
AcDbLine
 10
834.8213030579961
 20
1294.428997407745
 30
0.0
 11
830.5713030579962
 21
1294.428997407745
 31
0.0
1001
GENIUS_GENOREF_13
1005
4F31
  0
LINE
  5
4F00
102
{ACAD_REACTORS
330
4FC4
102
}
330
1F
100
AcDbEntity
  8
AM_7
  6
AM_ISO08W050x2
100
AcDbLine
 10
834.8213030579961
 20
1294.428997407745
 30
0.0
 11
834.8213030579961
 21
1290.178997407745
 31
0.0
1001
GENIUS_GENOREF_13
1005
4F31
  0
LINE
  5
4F01
330
1F
100
AcDbEntity
  8
AM_7
100
AcDbLine
 10
791.3213030579961
 20
1221.972330097609
 30
0.0
 11
804.0713030579961
 21
1221.972330097609
 31
0.0
1001
GENIUS_GENOREF_13
1005
4F30
  0
LINE
  5
4F02
330
1F
100
AcDbEntity
  8
AM_7
100
AcDbLine
 10
791.3213030579961
 20
1221.972330097609
 30
0.0
 11
791.3213030579961
 21
1234.722330097609
 31
0.0
1001
GENIUS_GENOREF_13
1005
4F30
  0
LINE
  5
4F03
330
1F
100
AcDbEntity
  8
AM_7
100
AcDbLine
 10
791.3213030579961
 20
1221.972330097609
 30
0.0
 11
778.5713030579962
 21
1221.972330097609
 31
0.0
1001
GENIUS_GENOREF_13
1005
4F30
  0
LINE
  5
4F04
102
{ACAD_REACTORS
330
4F52
102
}
330
1F
100
AcDbEntity
  8
AM_7
100
AcDbLine
 10
791.3213030579961
 20
1221.972330097609
 30
0.0
 11
791.3213030579961
 21
1209.222330097609
 31
0.0
1001
GENIUS_GENOREF_13
1005
4F30
  0
LINE
  5
4F05
330
1F
100
AcDbEntity
  8
AM_7
100
AcDbLine
 10
820.3213030579961
 20
1221.972330097609
 30
0.0
 11
833.0713030579961
 21
1221.972330097609
 31
0.0
1001
GENIUS_GENOREF_13
1005
4F2F
  0
LINE
  5
4F06
330
1F
100
AcDbEntity
  8
AM_7
100
AcDbLine
 10
820.3213030579961
 20
1221.972330097609
 30
0.0
 11
820.3213030579961
 21
1234.722330097609
 31
0.0
1001
GENIUS_GENOREF_13
1005
4F2F
  0
LINE
  5
4F07
330
1F
100
AcDbEntity
  8
AM_7
100
AcDbLine
 10
820.3213030579961
 20
1221.972330097609
 30
0.0
 11
807.5713030579962
 21
1221.972330097609
 31
0.0
1001
GENIUS_GENOREF_13
1005
4F2F
  0
LINE
  5
4F08
102
{ACAD_REACTORS
330
4F52
330
4F78
102
}
330
1F
100
AcDbEntity
  8
AM_7
100
AcDbLine
 10
820.3213030579961
 20
1221.972330097609
 30
0.0
 11
820.3213030579961
 21
1209.222330097609
 31
0.0
1001
GENIUS_GENOREF_13
1005
4F2F
  0
LINE
  5
4F09
330
1F
100
AcDbEntity
  8
AM_7
100
AcDbLine
 10
849.3213030579962
 20
1221.972330097609
 30
0.0
 11
862.0713030579961
 21
1221.972330097609
 31
0.0
1001
GENIUS_GENOREF_13
1005
4F2E
  0
LINE
  5
4F0A
330
1F
100
AcDbEntity
  8
AM_7
100
AcDbLine
 10
849.3213030579962
 20
1221.972330097609
 30
0.0
 11
849.3213030579962
 21
1234.722330097609
 31
0.0
1001
GENIUS_GENOREF_13
1005
4F2E
  0
LINE
  5
4F0B
330
1F
100
AcDbEntity
  8
AM_7
100
AcDbLine
 10
849.3213030579962
 20
1221.972330097609
 30
0.0
 11
836.5713030579961
 21
1221.972330097609
 31
0.0
1001
GENIUS_GENOREF_13
1005
4F2E
  0
LINE
  5
4F0C
102
{ACAD_REACTORS
330
4F78
102
}
330
1F
100
AcDbEntity
  8
AM_7
100
AcDbLine
 10
849.3213030579962
 20
1221.972330097609
 30
0.0
 11
849.3213030579962
 21
1209.222330097609
 31
0.0
1001
GENIUS_GENOREF_13
1005
4F2E
  0
LINE
  5
4F0D
330
1F
100
AcDbEntity
  8
AM_7
  6
AM_ISO08W050x2
100
AcDbLine
 10
856.321303057996
 20
1233.472330097609
 30
0.0
 11
860.4213030579961
 21
1233.472330097609
 31
0.0
1001
GENIUS_GENOREF_13
1005
4F2D
  0
LINE
  5
4F0E
330
1F
100
AcDbEntity
  8
AM_7
  6
AM_ISO08W050x2
100
AcDbLine
 10
856.321303057996
 20
1233.472330097609
 30
0.0
 11
856.321303057996
 21
1237.572330097609
 31
0.0
1001
GENIUS_GENOREF_13
1005
4F2D
  0
LINE
  5
4F0F
330
1F
100
AcDbEntity
  8
AM_7
  6
AM_ISO08W050x2
100
AcDbLine
 10
856.321303057996
 20
1233.472330097609
 30
0.0
 11
852.2213030579962
 21
1233.472330097609
 31
0.0
1001
GENIUS_GENOREF_13
1005
4F2D
  0
LINE
  5
4F10
330
1F
100
AcDbEntity
  8
AM_7
  6
AM_ISO08W050x2
100
AcDbLine
 10
856.321303057996
 20
1233.472330097609
 30
0.0
 11
856.321303057996
 21
1229.372330097609
 31
0.0
1001
GENIUS_GENOREF_13
1005
4F2D
  0
LINE
  5
4F11
330
1F
100
AcDbEntity
  8
AM_7
  6
AM_ISO08W050x2
100
AcDbLine
 10
784.3213030579961
 20
1210.472330097609
 30
0.0
 11
788.421303057996
 21
1210.472330097609
 31
0.0
1001
GENIUS_GENOREF_13
1005
4F2C
  0
LINE
  5
4F12
330
1F
100
AcDbEntity
  8
AM_7
  6
AM_ISO08W050x2
100
AcDbLine
 10
784.3213030579961
 20
1210.472330097609
 30
0.0
 11
784.3213030579961
 21
1214.572330097609
 31
0.0
1001
GENIUS_GENOREF_13
1005
4F2C
  0
LINE
  5
4F13
330
1F
100
AcDbEntity
  8
AM_7
  6
AM_ISO08W050x2
100
AcDbLine
 10
784.3213030579961
 20
1210.472330097609
 30
0.0
 11
780.2213030579962
 21
1210.472330097609
 31
0.0
1001
GENIUS_GENOREF_13
1005
4F2C
  0
LINE
  5
4F14
330
1F
100
AcDbEntity
  8
AM_7
  6
AM_ISO08W050x2
100
AcDbLine
 10
784.3213030579961
 20
1210.472330097609
 30
0.0
 11
784.3213030579961
 21
1206.372330097609
 31
0.0
1001
GENIUS_GENOREF_13
1005
4F2C
  0
LINE
  5
4F15
330
1F
100
AcDbEntity
  8
AM_7
  6
AM_ISO08W050x2
100
AcDbLine
 10
856.321303057996
 20
1376.803714437368
 30
0.0
 11
862.3213030579961
 21
1376.803714437368
 31
0.0
1001
GENIUS_GENOREF_13
1005
4F2B
  0
LINE
  5
4F16
330
1F
100
AcDbEntity
  8
AM_7
  6
AM_ISO08W050x2
100
AcDbLine
 10
856.321303057996
 20
1376.803714437368
 30
0.0
 11
856.321303057996
 21
1382.803714437369
 31
0.0
1001
GENIUS_GENOREF_13
1005
4F2B
  0
LINE
  5
4F17
102
{ACAD_REACTORS
330
5084
102
}
330
1F
100
AcDbEntity
  8
AM_7
  6
AM_ISO08W050x2
100
AcDbLine
 10
856.321303057996
 20
1376.803714437368
 30
0.0
 11
850.3213030579962
 21
1376.803714437368
 31
0.0
1001
GENIUS_GENOREF_13
1005
4F2B
  0
LINE
  5
4F18
102
{ACAD_REACTORS
330
511C
102
}
330
1F
100
AcDbEntity
  8
AM_7
  6
AM_ISO08W050x2
100
AcDbLine
 10
856.321303057996
 20
1376.803714437368
 30
0.0
 11
856.321303057996
 21
1370.803714437369
 31
0.0
1001
GENIUS_GENOREF_13
1005
4F2B
  0
LINE
  5
4F19
330
1F
100
AcDbEntity
  8
AM_7
100
AcDbLine
 10
834.3213030579962
 20
1386.053714437369
 30
0.0
 11
847.0713030579959
 21
1386.053714437369
 31
0.0
1001
GENIUS_GENOREF_13
1005
4F2A
  0
LINE
  5
4F1A
102
{ACAD_REACTORS
330
50D0
102
}
330
1F
100
AcDbEntity
  8
AM_7
100
AcDbLine
 10
834.3213030579962
 20
1386.053714437369
 30
0.0
 11
834.3213030579962
 21
1398.803714437368
 31
0.0
1001
GENIUS_GENOREF_13
1005
4F2A
  0
LINE
  5
4F1B
330
1F
100
AcDbEntity
  8
AM_7
100
AcDbLine
 10
834.3213030579962
 20
1386.053714437369
 30
0.0
 11
821.5713030579966
 21
1386.053714437369
 31
0.0
1001
GENIUS_GENOREF_13
1005
4F2A
  0
LINE
  5
4F1C
330
1F
100
AcDbEntity
  8
AM_7
100
AcDbLine
 10
834.3213030579962
 20
1386.053714437369
 30
0.0
 11
834.3213030579962
 21
1373.303714437369
 31
0.0
1001
GENIUS_GENOREF_13
1005
4F2A
  0
LINE
  5
4F1D
330
1F
100
AcDbEntity
  8
AM_7
100
AcDbLine
 10
806.321303057996
 20
1390.553714437368
 30
0.0
 11
819.0713030579964
 21
1390.553714437368
 31
0.0
1001
GENIUS_GENOREF_13
1005
4F29
  0
LINE
  5
4F1E
102
{ACAD_REACTORS
330
50D0
330
5142
102
}
330
1F
100
AcDbEntity
  8
AM_7
100
AcDbLine
 10
806.321303057996
 20
1390.553714437368
 30
0.0
 11
806.321303057996
 21
1403.303714437369
 31
0.0
1001
GENIUS_GENOREF_13
1005
4F29
  0
LINE
  5
4F1F
330
1F
100
AcDbEntity
  8
AM_7
100
AcDbLine
 10
806.321303057996
 20
1390.553714437368
 30
0.0
 11
793.5713030579959
 21
1390.553714437368
 31
0.0
1001
GENIUS_GENOREF_13
1005
4F29
  0
LINE
  5
4F20
330
1F
100
AcDbEntity
  8
AM_7
100
AcDbLine
 10
806.321303057996
 20
1390.553714437368
 30
0.0
 11
806.321303057996
 21
1377.803714437368
 31
0.0
1001
GENIUS_GENOREF_13
1005
4F29
  0
LINE
  5
4F21
330
1F
100
AcDbEntity
  8
AM_7
  6
AM_ISO08W050x2
100
AcDbLine
 10
784.3213030579961
 20
1399.803714437368
 30
0.0
 11
790.3213030579961
 21
1399.803714437368
 31
0.0
1001
GENIUS_GENOREF_13
1005
4F28
  0
LINE
  5
4F22
330
1F
100
AcDbEntity
  8
AM_7
  6
AM_ISO08W050x2
100
AcDbLine
 10
784.3213030579961
 20
1399.803714437368
 30
0.0
 11
784.3213030579961
 21
1405.803714437368
 31
0.0
1001
GENIUS_GENOREF_13
1005
4F28
  0
LINE
  5
4F23
102
{ACAD_REACTORS
330
5084
102
}
330
1F
100
AcDbEntity
  8
AM_7
  6
AM_ISO08W050x2
100
AcDbLine
 10
784.3213030579961
 20
1399.803714437368
 30
0.0
 11
778.3213030579961
 21
1399.803714437368
 31
0.0
1001
GENIUS_GENOREF_13
1005
4F28
  0
LINE
  5
4F24
102
{ACAD_REACTORS
330
50F6
102
}
330
1F
100
AcDbEntity
  8
AM_7
  6
AM_ISO08W050x2
100
AcDbLine
 10
784.3213030579961
 20
1399.803714437368
 30
0.0
 11
784.3213030579961
 21
1393.803714437368
 31
0.0
1001
GENIUS_GENOREF_13
1005
4F28
  0
LINE
  5
4F25
330
1F
100
AcDbEntity
  8
AM_7
100
AcDbLine
 10
889.3213030579961
 20
1388.303714437368
 30
0.0
 11
765.2006968420285
 21
1388.303714437368
 31
0.0
1001
GENIUS_GENODEF_13
1002
{
1000
HIER
1070
     0
1002
}
1002
{
1000
MANEDIT
1070
     0
1002
}
1002
{
1000
NOSEL
1070
     0
1002
}
1002
{
1000
BEHIND
1070
     0
1002
}
1002
{
1000
OTHER
1070
     0
1002
}
1002
{
1000
REACTOR
1002
}
1001
GENIUS_GENOBJ-N-CEN_13
1002
{
1000
OWNER
1000
GEN
1002
}
1001
GENIUS_GENCEN_19
1002
{
1040
2.0
1002
}
  0
LINE
  5
4F26
330
1F
100
AcDbEntity
  8
AM_7
  6
AM_ISO08W050x2
100
AcDbLine
 10
889.6890964283379
 20
1304.428997407745
 30
0.0
 11
878.1749460589349
 21
1304.428997407745
 31
0.0
  0
LINE
  5
4F27
330
1F
100
AcDbEntity
  8
AM_7
100
AcDbLine
 10
764.3701399901297
 20
1221.972330097609
 30
0.0
 11
890.6384943220814
 21
1221.972330097609
 31
0.0
1001
GENIUS_GENODEF_13
1002
{
1000
HIER
1070
     0
1002
}
1002
{
1000
MANEDIT
1070
     0
1002
}
1002
{
1000
NOSEL
1070
     0
1002
}
1002
{
1000
BEHIND
1070
     0
1002
}
1002
{
1000
OTHER
1070
     0
1002
}
1002
{
1000
REACTOR
1002
}
1001
GENIUS_GENOBJ-N-CEN_13
1002
{
1000
OWNER
1000
GEN
1002
}
1001
GENIUS_GENCEN_19
1002
{
1040
2.0
1002
}
  0
POINT
  5
4F28
330
1F
100
AcDbEntity
  8
0
 60
     1
100
AcDbPoint
 10
864.0768820622957
 20
1068.965654137829
 30
0.0
1001
GENIUS_GENODEF_13
1002
{
1000
HIER
1070
    10
1002
}
1002
{
1000
MANEDIT
1070
     0
1002
}
1002
{
1000
NOSEL
1070
     0
1002
}
1002
{
1000
BEHIND
1070
     0
1002
}
1002
{
1000
OTHER
1070
     0
1002
}
1002
{
1000
REACTOR
1002
}
1001
GENIUS_GENOLIS_13
1002
{
1000
ENT
1005
4F24
1005
4F23
1005
4F22
1005
4F21
1002
}
1001
GENIUS_GENOENT_13
1002
{
1000
MYREF
1005
4F28
1002
}
1002
{
1000
GRP
1005
0
1002
}
1001
GENIUS_GENOBJ-N-CRS_13
1002
{
1000
OWNER
1000
GEN
1002
}
  0
POINT
  5
4F29
330
1F
100
AcDbEntity
  8
0
 60
     1
100
AcDbPoint
 10
864.0768820622957
 20
1068.965654137829
 30
0.0
1001
GENIUS_GENOENT_13
1002
{
1000
MYREF
1005
4F29
1002
}
1002
{
1000
GRP
1005
0
1002
}
1001
GENIUS_GENOBJ-N-CRS_13
1002
{
1000
OWNER
1000
GEN
1002
}
1001
GENIUS_GENOLIS_13
1002
{
1000
ENT
1005
4F20
1005
4F1F
1005
4F1E
1005
4F1D
1002
}
1001
GENIUS_GENODEF_13
1002
{
1000
HIER
1070
    10
1002
}
1002
{
1000
MANEDIT
1070
     0
1002
}
1002
{
1000
NOSEL
1070
     0
1002
}
1002
{
1000
BEHIND
1070
     0
1002
}
1002
{
1000
OTHER
1070
     0
1002
}
1002
{
1000
REACTOR
1002
}
  0
POINT
  5
4F2A
330
1F
100
AcDbEntity
  8
0
 60
     1
100
AcDbPoint
 10
864.0768820622957
 20
1068.965654137829
 30
0.0
1001
GENIUS_GENOLIS_13
1002
{
1000
ENT
1005
4F1C
1005
4F1B
1005
4F1A
1005
4F19
1002
}
1001
GENIUS_GENOENT_13
1002
{
1000
MYREF
1005
4F2A
1002
}
1002
{
1000
GRP
1005
0
1002
}
1001
GENIUS_GENOBJ-N-CRS_13
1002
{
1000
OWNER
1000
GEN
1002
}
1001
GENIUS_GENODEF_13
1002
{
1000
HIER
1070
    10
1002
}
1002
{
1000
MANEDIT
1070
     0
1002
}
1002
{
1000
NOSEL
1070
     0
1002
}
1002
{
1000
BEHIND
1070
     0
1002
}
1002
{
1000
OTHER
1070
     0
1002
}
1002
{
1000
REACTOR
1002
}
  0
POINT
  5
4F2B
330
1F
100
AcDbEntity
  8
0
 60
     1
100
AcDbPoint
 10
864.0768820622957
 20
1068.965654137829
 30
0.0
1001
GENIUS_GENODEF_13
1002
{
1000
HIER
1070
    10
1002
}
1002
{
1000
MANEDIT
1070
     0
1002
}
1002
{
1000
NOSEL
1070
     0
1002
}
1002
{
1000
BEHIND
1070
     0
1002
}
1002
{
1000
OTHER
1070
     0
1002
}
1002
{
1000
REACTOR
1002
}
1001
GENIUS_GENOENT_13
1002
{
1000
MYREF
1005
4F2B
1002
}
1002
{
1000
GRP
1005
0
1002
}
1001
GENIUS_GENOBJ-N-CRS_13
1002
{
1000
OWNER
1000
GEN
1002
}
1001
GENIUS_GENOLIS_13
1002
{
1000
ENT
1005
4F18
1005
4F17
1005
4F16
1005
4F15
1002
}
  0
POINT
  5
4F2C
330
1F
100
AcDbEntity
  8
0
 60
     1
100
AcDbPoint
 10
864.0768820622957
 20
1068.965654137829
 30
0.0
1001
GENIUS_GENODEF_13
1002
{
1000
HIER
1070
    10
1002
}
1002
{
1000
MANEDIT
1070
     0
1002
}
1002
{
1000
NOSEL
1070
     0
1002
}
1002
{
1000
BEHIND
1070
     0
1002
}
1002
{
1000
OTHER
1070
     0
1002
}
1002
{
1000
REACTOR
1002
}
1001
GENIUS_GENOENT_13
1002
{
1000
MYREF
1005
4F2C
1002
}
1002
{
1000
GRP
1005
0
1002
}
1001
GENIUS_GENOBJ-N-CRS_13
1002
{
1000
OWNER
1000
GEN
1002
}
1001
GENIUS_GENOLIS_13
1002
{
1000
ENT
1005
4F14
1005
4F13
1005
4F12
1005
4F11
1002
}
  0
POINT
  5
4F2D
330
1F
100
AcDbEntity
  8
0
 60
     1
100
AcDbPoint
 10
864.0768820622957
 20
1068.965654137829
 30
0.0
1001
GENIUS_GENODEF_13
1002
{
1000
HIER
1070
    10
1002
}
1002
{
1000
MANEDIT
1070
     0
1002
}
1002
{
1000
NOSEL
1070
     0
1002
}
1002
{
1000
BEHIND
1070
     0
1002
}
1002
{
1000
OTHER
1070
     0
1002
}
1002
{
1000
REACTOR
1002
}
1001
GENIUS_GENOENT_13
1002
{
1000
MYREF
1005
4F2D
1002
}
1002
{
1000
GRP
1005
0
1002
}
1001
GENIUS_GENOBJ-N-CRS_13
1002
{
1000
OWNER
1000
GEN
1002
}
1001
GENIUS_GENOLIS_13
1002
{
1000
ENT
1005
4F10
1005
4F0F
1005
4F0E
1005
4F0D
1002
}
  0
POINT
  5
4F2E
330
1F
100
AcDbEntity
  8
0
 60
     1
100
AcDbPoint
 10
864.0768820622957
 20
1068.965654137829
 30
0.0
1001
GENIUS_GENOLIS_13
1002
{
1000
ENT
1005
4F0C
1005
4F0B
1005
4F0A
1005
4F09
1002
}
1001
GENIUS_GENOENT_13
1002
{
1000
MYREF
1005
4F2E
1002
}
1002
{
1000
GRP
1005
0
1002
}
1001
GENIUS_GENOBJ-N-CRS_13
1002
{
1000
OWNER
1000
GEN
1002
}
1001
GENIUS_GENODEF_13
1002
{
1000
HIER
1070
    10
1002
}
1002
{
1000
MANEDIT
1070
     0
1002
}
1002
{
1000
NOSEL
1070
     0
1002
}
1002
{
1000
BEHIND
1070
     0
1002
}
1002
{
1000
OTHER
1070
     0
1002
}
1002
{
1000
REACTOR
1002
}
  0
POINT
  5
4F2F
330
1F
100
AcDbEntity
  8
0
 60
     1
100
AcDbPoint
 10
864.0768820622957
 20
1068.965654137829
 30
0.0
1001
GENIUS_GENODEF_13
1002
{
1000
HIER
1070
    10
1002
}
1002
{
1000
MANEDIT
1070
     0
1002
}
1002
{
1000
NOSEL
1070
     0
1002
}
1002
{
1000
BEHIND
1070
     0
1002
}
1002
{
1000
OTHER
1070
     0
1002
}
1002
{
1000
REACTOR
1002
}
1001
GENIUS_GENOENT_13
1002
{
1000
MYREF
1005
4F2F
1002
}
1002
{
1000
GRP
1005
0
1002
}
1001
GENIUS_GENOBJ-N-CRS_13
1002
{
1000
OWNER
1000
GEN
1002
}
1001
GENIUS_GENOLIS_13
1002
{
1000
ENT
1005
4F08
1005
4F07
1005
4F06
1005
4F05
1002
}
  0
POINT
  5
4F30
330
1F
100
AcDbEntity
  8
0
 60
     1
100
AcDbPoint
 10
864.0768820622957
 20
1068.965654137829
 30
0.0
1001
GENIUS_GENODEF_13
1002
{
1000
HIER
1070
    10
1002
}
1002
{
1000
MANEDIT
1070
     0
1002
}
1002
{
1000
NOSEL
1070
     0
1002
}
1002
{
1000
BEHIND
1070
     0
1002
}
1002
{
1000
OTHER
1070
     0
1002
}
1002
{
1000
REACTOR
1002
}
1001
GENIUS_GENOBJ-N-CRS_13
1002
{
1000
OWNER
1000
GEN
1002
}
1001
GENIUS_GENOLIS_13
1002
{
1000
ENT
1005
4F04
1005
4F03
1005
4F02
1005
4F01
1002
}
1001
GENIUS_GENOENT_13
1002
{
1000
MYREF
1005
4F30
1002
}
1002
{
1000
GRP
1005
0
1002
}
  0
POINT
  5
4F31
330
1F
100
AcDbEntity
  8
0
 60
     1
100
AcDbPoint
 10
864.0768820622957
 20
1068.965654137829
 30
0.0
1001
GENIUS_GENOLIS_13
1002
{
1000
ENT
1005
4F00
1005
4EFF
1005
4EFE
1005
4EFD
1002
}
1001
GENIUS_GENOENT_13
1002
{
1000
MYREF
1005
4F31
1002
}
1002
{
1000
GRP
1005
0
1002
}
1001
GENIUS_GENOBJ-N-CRS_13
1002
{
1000
OWNER
1000
GEN
1002
}
1001
GENIUS_GENODEF_13
1002
{
1000
HIER
1070
    10
1002
}
1002
{
1000
MANEDIT
1070
     0
1002
}
1002
{
1000
NOSEL
1070
     0
1002
}
1002
{
1000
BEHIND
1070
     0
1002
}
1002
{
1000
OTHER
1070
     0
1002
}
1002
{
1000
REACTOR
1002
}
  0
POINT
  5
4F32
330
1F
100
AcDbEntity
  8
0
 60
     1
100
AcDbPoint
 10
864.0768820622957
 20
1068.965654137829
 30
0.0
1001
GENIUS_GENOLIS_13
1002
{
1000
ENT
1005
4EFC
1005
4EFB
1005
4EFA
1005
4EF9
1002
}
1001
GENIUS_GENODEF_13
1002
{
1000
HIER
1070
    10
1002
}
1002
{
1000
MANEDIT
1070
     0
1002
}
1002
{
1000
NOSEL
1070
     0
1002
}
1002
{
1000
BEHIND
1070
     0
1002
}
1002
{
1000
OTHER
1070
     0
1002
}
1002
{
1000
REACTOR
1002
}
1001
GENIUS_GENOENT_13
1002
{
1000
MYREF
1005
4F32
1002
}
1002
{
1000
GRP
1005
0
1002
}
1001
GENIUS_GENOBJ-N-CRS_13
1002
{
1000
OWNER
1000
GEN
1002
}
  0
POINT
  5
4F33
330
1F
100
AcDbEntity
  8
0
 60
     1
100
AcDbPoint
 10
864.0768820622957
 20
1068.965654137829
 30
0.0
1001
GENIUS_GENOLIS_13
1002
{
1000
ENT
1005
4EF8
1005
4EF7
1005
4EF6
1005
4EF5
1002
}
1001
GENIUS_GENODEF_13
1002
{
1000
HIER
1070
    10
1002
}
1002
{
1000
MANEDIT
1070
     0
1002
}
1002
{
1000
NOSEL
1070
     0
1002
}
1002
{
1000
BEHIND
1070
     0
1002
}
1002
{
1000
OTHER
1070
     0
1002
}
1002
{
1000
REACTOR
1002
}
1001
GENIUS_GENOBJ-N-CRS_13
1002
{
1000
OWNER
1000
GEN
1002
}
1001
GENIUS_GENOENT_13
1002
{
1000
MYREF
1005
4F33
1002
}
1002
{
1000
GRP
1005
0
1002
}
  0
DIMENSION
  5
4F44
102
{ACAD_XDICTIONARY
360
4F51
102
}
102
{ACAD_REACTORS
330
4F52
102
}
330
1F
100
AcDbEntity
  8
AM_5
100
AcDbDimension
  2
*D2
 10
820.3213030579961
 20
1194.972330097609
 30
0.0
 11
805.8213030579961
 21
1197.422674585798
 31
0.0
 70
    32
 71
     5
 42
29.0
  3
AM_ISO$0
100
AcDbAlignedDimension
 13
791.3213030579961
 23
1209.222330097609
 33
0.0
 14
820.3213030579961
 24
1209.222330097609
 34
0.0
 50
0.0000000000001018
100
AcDbRotatedDimension
1001
ACAD
1000
DSTYLE
1002
{
1070
    40
1040
1.0
1070
   144
1040
1.0
1070
   272
1070
     8
1002
}
  0
DIMENSION
  5
4F6A
102
{ACAD_XDICTIONARY
360
4F77
102
}
102
{ACAD_REACTORS
330
4F78
102
}
330
1F
100
AcDbEntity
  8
AM_5
100
AcDbDimension
  2
*D3
 10
849.3213030579962
 20
1194.972330097609
 30
0.0
 11
834.8213030579961
 21
1197.422674585798
 31
0.0
 70
    32
 71
     5
 42
29.0
  3
AM_ISO$0
100
AcDbAlignedDimension
 13
820.3213030579961
 23
1209.222330097609
 33
0.0
 14
849.3213030579962
 24
1209.222330097609
 34
0.0
 50
0.0000000000001018
100
AcDbRotatedDimension
1001
ACAD
1000
DSTYLE
1002
{
1070
    40
1040
1.0
1070
   144
1040
1.0
1070
   272
1070
     8
1002
}
  0
DIMENSION
  5
4F90
102
{ACAD_XDICTIONARY
360
4F9D
102
}
102
{ACAD_REACTORS
330
4F9E
102
}
330
1F
100
AcDbEntity
  8
AM_5
100
AcDbDimension
  2
*D4
 10
805.8213030579961
 20
1275.428997407745
 30
0.0
 11
787.571303057996
 21
1277.878997407746
 31
0.0
 70
    32
 71
     5
 42
36.50000000000023
  3
AM_ISO$0
100
AcDbAlignedDimension
 13
769.3213030579959
 23
1288.428997407745
 33
0.0
 14
805.8213030579961
 24
1290.178997407745
 34
0.0
 50
0.0000000000001018
100
AcDbRotatedDimension
1001
ACAD
1000
DSTYLE
1002
{
1070
    40
1040
1.0
1070
   144
1040
1.0
1070
   272
1070
     8
1002
}
  0
DIMENSION
  5
4FB6
102
{ACAD_XDICTIONARY
360
4FC3
102
}
102
{ACAD_REACTORS
330
4FC4
102
}
330
1F
100
AcDbEntity
  8
AM_5
100
AcDbDimension
  2
*D5
 10
834.8213030579961
 20
1275.428997407745
 30
0.0
 11
820.3213030579961
 21
1277.879341895934
 31
0.0
 70
    32
 71
     5
 42
29.0
  3
AM_ISO$0
100
AcDbAlignedDimension
 13
805.8213030579961
 23
1290.178997407745
 33
0.0
 14
834.8213030579961
 24
1290.178997407745
 34
0.0
 50
0.0000000000001018
100
AcDbRotatedDimension
1001
ACAD
1000
DSTYLE
1002
{
1070
    40
1040
1.0
1070
   144
1040
1.0
1070
   272
1070
     8
1002
}
  0
DIMENSION
  5
5004
102
{ACAD_XDICTIONARY
360
5011
102
}
102
{ACAD_REACTORS
330
5012
102
}
330
1F
100
AcDbEntity
  8
AM_5
100
AcDbDimension
  2
*D6
 10
887.3213030579961
 20
1264.428997407746
 30
0.0
 11
828.3213030579959
 21
1266.878997407746
 31
0.0
 70
    32
 71
     5
 42
118.0000000000002
  3
AM_ISO$0
100
AcDbAlignedDimension
 13
769.3213030579959
 23
1288.428997407745
 33
0.0
 14
887.3213030579961
 24
1287.428997407745
 34
0.0
 50
0.0000000000001145
100
AcDbRotatedDimension
1001
ACAD
1000
DSTYLE
1002
{
1070
    40
1040
1.0
1070
   144
1040
1.0
1070
   272
1070
     8
1002
}
  0
DIMENSION
  5
502A
102
{ACAD_XDICTIONARY
360
5037
102
}
102
{ACAD_REACTORS
330
5038
102
}
330
1F
100
AcDbEntity
  8
AM_5
100
AcDbDimension
  2
*D7
 10
899.3213030579962
 20
1333.828997407745
 30
0.0
 11
896.8713030579959
 21
1310.628997407746
 31
0.0
 70
    32
 71
     5
 42
46.39999999999986
  3
AM_ISO$0
100
AcDbAlignedDimension
 13
887.3213030579961
 23
1287.428997407745
 33
0.0
 14
887.3213030579961
 24
1333.828997407745
 34
0.0
 50
90.0
100
AcDbRotatedDimension
1001
ACAD
1000
DSTYLE
1002
{
1070
    40
1040
1.0
1070
   144
1040
1.0
1070
   272
1070
     8
1002
}
  0
DIMENSION
  5
5050
102
{ACAD_XDICTIONARY
360
505D
102
}
102
{ACAD_REACTORS
330
505E
102
}
330
1F
100
AcDbEntity
  8
AM_5
100
AcDbDimension
  2
*D8
 10
912.1307624954777
 20
1304.428997407745
 30
0.0
 11
909.6807624954774
 21
1295.928997407746
 31
0.0
 70
    32
 71
     5
 42
17.0
  3
AM_ISO$0
100
AcDbAlignedDimension
 13
924.1307624954776
 23
1287.428997407745
 33
0.0
 14
932.2807624954775
 24
1304.428997407745
 34
0.0
 50
90.0
100
AcDbRotatedDimension
1001
ACAD
1000
DSTYLE
1002
{
1070
    40
1040
1.0
1070
   144
1040
1.0
1070
   272
1070
     8
1002
}
  0
DIMENSION
  5
5076
102
{ACAD_XDICTIONARY
360
5083
102
}
102
{ACAD_REACTORS
330
5084
102
}
330
1F
100
AcDbEntity
  8
AM_5
100
AcDbDimension
  2
*D9
 10
757.3213030579958
 20
1376.803714437368
 30
0.0
 11
754.8709585698067
 21
1388.303714437369
 31
0.0
 70
    32
 71
     5
 42
23.0
  3
AM_ISO$0
100
AcDbAlignedDimension
 13
778.3213030579961
 23
1399.803714437368
 33
0.0
 14
850.3213030579962
 24
1376.803714437368
 34
0.0
 50
90.0
100
AcDbRotatedDimension
1001
ACAD
1000
DSTYLE
1002
{
1070
    40
1040
1.0
1070
   144
1040
1.0
1070
   272
1070
     8
1002
}
  0
DIMENSION
  5
509C
102
{ACAD_XDICTIONARY
360
50A9
102
}
102
{ACAD_REACTORS
330
50AA
102
}
330
1F
100
AcDbEntity
  8
AM_5
100
AcDbDimension
  2
*D10
 10
746.3213030579959
 20
1373.303714437368
 30
0.0
 11
743.8713030579956
 21
1388.303714437368
 31
0.0
 70
    32
 71
     5
 42
30.0
  3
AM_ISO$0
100
AcDbAlignedDimension
 13
770.3213030579959
 23
1403.303714437368
 33
0.0
 14
770.3213030579959
 24
1373.303714437368
 34
0.0
 50
90.0
100
AcDbRotatedDimension
1001
ACAD
1000
DSTYLE
1002
{
1070
    40
1040
1.0
1070
   144
1040
1.0
1070
   272
1070
     8
1002
}
  0
DIMENSION
  5
50C2
102
{ACAD_XDICTIONARY
360
50CF
102
}
102
{ACAD_REACTORS
330
50D0
102
}
330
1F
100
AcDbEntity
  8
AM_5
100
AcDbDimension
  2
*D11
 10
834.3213030579962
 20
1415.303714437369
 30
0.0
 11
820.3213030579961
 21
1417.754058925558
 31
0.0
 70
    32
 71
     5
 42
28.0
  3
AM_ISO$0
100
AcDbAlignedDimension
 13
806.321303057996
 23
1403.303714437369
 33
0.0
 14
834.3213030579962
 24
1398.803714437368
 34
0.0
100
AcDbRotatedDimension
1001
ACAD
1000
DSTYLE
1002
{
1070
    40
1040
1.0
1070
   144
1040
1.0
1070
   272
1070
     8
1002
}
  0
DIMENSION
  5
50E8
102
{ACAD_XDICTIONARY
360
50F5
102
}
102
{ACAD_REACTORS
330
50F6
102
}
330
1F
100
AcDbEntity
  8
AM_5
100
AcDbDimension
  2
*D12
 10
784.3213030579961
 20
1361.303714437368
 30
0.0
 11
776.821303057996
 21
1363.753714437369
 31
0.0
 70
    32
 71
     5
 42
15.00000000000023
  3
AM_ISO$0
100
AcDbAlignedDimension
 13
769.3213030579959
 23
1374.303714437368
 33
0.0
 14
784.3213030579961
 24
1393.803714437368
 34
0.0
 50
0.0000000000002036
100
AcDbRotatedDimension
1001
ACAD
1000
DSTYLE
1002
{
1070
    40
1040
1.0
1070
   144
1040
1.0
1070
   272
1070
     8
1002
}
  0
DIMENSION
  5
510E
102
{ACAD_XDICTIONARY
360
511B
102
}
102
{ACAD_REACTORS
330
511C
102
}
330
1F
100
AcDbEntity
  8
AM_5
100
AcDbDimension
  2
*D13
 10
856.321303057996
 20
1361.303714437369
 30
0.0
 11
820.3213030579961
 21
1363.754058925558
 31
0.0
 70
    32
 71
     5
 42
72.0
  3
AM_ISO$0
100
AcDbAlignedDimension
 13
784.3213030579961
 23
1392.803714437368
 33
0.0
 14
856.321303057996
 24
1370.803714437369
 34
0.0
 50
0.0000000000002036
100
AcDbRotatedDimension
1001
ACAD
1000
DSTYLE
1002
{
1070
    40
1040
1.0
1070
   144
1040
1.0
1070
   272
1070
     8
1002
}
  0
DIMENSION
  5
5134
102
{ACAD_XDICTIONARY
360
5141
102
}
102
{ACAD_REACTORS
330
5142
102
}
330
1F
100
AcDbEntity
  8
AM_5
100
AcDbDimension
  2
*D14
 10
806.321303057996
 20
1415.303714437368
 30
0.0
 11
787.821303057996
 21
1417.753714437368
 31
0.0
 70
    32
 71
     5
 42
37.00000000000023
  3
AM_ISO$0
100
AcDbAlignedDimension
 13
769.3213030579959
 23
1402.303714437368
 33
0.0
 14
806.321303057996
 24
1403.303714437369
 34
0.0
100
AcDbRotatedDimension
1001
ACAD
1000
DSTYLE
1002
{
1070
    40
1040
1.0
1070
   144
1040
1.0
1070
   272
1070
     8
1002
}
  0
DIMENSION
  5
515A
102
{ACAD_XDICTIONARY
360
5169
102
}
102
{ACAD_REACTORS
330
516A
102
}
330
1F
100
AcDbEntity
  8
AM_5
100
AcDbDimension
  2
*D15
 10
757.3213030579958
 20
1294.428997407745
 30
0.0
 11
754.8713030579956
 21
1290.928997407746
 31
0.0
 70
    32
 71
     5
 42
7.0
  3
AM_ISO$0
100
AcDbAlignedDimension
 13
770.3213030579959
 23
1287.428997407745
 33
0.0
 14
801.5713030579961
 24
1294.428997407745
 34
0.0
 50
90.0
100
AcDbRotatedDimension
1001
ACAD
1000
DSTYLE
1002
{
1070
    40
1040
1.0
1070
   144
1040
1.0
1070
   272
1070
     8
1002
}
  0
DIMENSION
  5
5184
102
{ACAD_XDICTIONARY
360
5193
102
}
102
{ACAD_REACTORS
330
5194
102
}
330
1F
100
AcDbEntity
  8
AM_5
100
AcDbDimension
  2
*D16
 10
872.3213030579961
 20
1329.828997407745
 30
0.0
 11
869.8713030579959
 21
1331.828997407746
 31
0.0
 70
    32
 71
     5
 42
4.0
  3
AM_ISO$0
100
AcDbAlignedDimension
 13
860.3213030579961
 23
1333.828997407745
 33
0.0
 14
860.3213030579961
 24
1329.828997407745
 34
0.0
 50
90.0
100
AcDbRotatedDimension
1001
ACAD
1000
DSTYLE
1002
{
1070
    40
1040
1.0
1070
   144
1040
1.0
1070
   272
1070
     8
1002
}
  0
TEXT
  5
5407
330
1F
100
AcDbEntity
  8
AM_5
100
AcDbText
 10
868.4763599032073
 20
1364.174333607887
 30
0.0
 40
3.5
  1
2-%%c4.2
100
AcDbText
  0
INSERT
  5
5442
330
1F
100
AcDbEntity
  8
AM_5
100
AcDbBlockReference
  2
*S17
 10
-4.136719065011675
 20
0.0
 30
0.0
  0
TEXT
  5
5443
330
1F
100
AcDbEntity
  8
AM_5
100
AcDbText
 10
917.9903081203143
 20
1278.32279017988
 30
0.0
 40
3.5
  1
G1/8
100
AcDbText
  0
TEXT
  5
5446
330
1F
100
AcDbEntity
  8
AM_5
100
AcDbText
 10
867.2120644069124
 20
1198.313855070607
 30
0.0
 40
3.5
  1
5-G1/2
100
AcDbText
  0
INSERT
  5
5447
330
1F
100
AcDbEntity
  8
AM_5
100
AcDbBlockReference
  2
*S18
 10
0.0
 20
0.0
 30
0.0
  0
TEXT
  5
544B
330
1F
100
AcDbEntity
  8
AM_5
100
AcDbText
 10
846.9984158005519
 20
1277.202554039158
 30
0.0
 40
3.5
  1
2-%%c4.5
100
AcDbText
  0
INSERT
  5
544C
330
1F
100
AcDbEntity
  8
AM_5
100
AcDbBlockReference
  2
*S19
 10
0.0
 20
0.0
 30
0.0
  0
INSERT
  5
5527
330
1F
100
AcDbEntity
  8
AM_5
100
AcDbBlockReference
  2
*S20
 10
0.0
 20
-17.23132886188387
 30
0.0
  0
LINE
  5
56BC
330
1F
100
AcDbEntity
  8
AM_VIS
100
AcDbLine
 10
795.0213030579959
 20
1378.803714437369
 30
0.0
 11
795.0213030579959
 21
1375.303714437368
 31
0.0
  0
LINE
  5
56BD
330
1F
100
AcDbEntity
  8
AM_VIS
100
AcDbLine
 10
789.021303057996
 20
1375.303714437368
 30
0.0
 11
789.021303057996
 21
1378.803714437369
 31
0.0
  0
LINE
  5
56BE
330
1F
100
AcDbEntity
  8
AM_VIS
100
AcDbLine
 10
795.0213030579959
 20
1375.303714437368
 30
0.0
 11
789.021303057996
 21
1375.303714437368
 31
0.0
  0
LINE
  5
56BF
330
1F
100
AcDbEntity
  8
AM_VIS
100
AcDbLine
 10
789.021303057996
 20
1378.803714437369
 30
0.0
 11
795.0213030579959
 21
1378.803714437369
 31
0.0
  0
LINE
  5
56C0
330
1F
100
AcDbEntity
  8
AM_VIS
100
AcDbLine
 10
792.534246983216
 20
1376.602779856144
 30
0.0
 11
791.9454619364873
 21
1378.317733127172
 31
0.0
  0
LINE
  5
56C1
330
1F
100
AcDbEntity
  8
AM_VIS
100
AcDbLine
 10
791.3286395065805
 20
1376.602779856144
 30
0.0
 11
792.534246983216
 21
1376.602779856144
 31
0.0
  0
LINE
  5
56C2
330
1F
100
AcDbEntity
  8
AM_VIS
100
AcDbLine
 10
791.9454619364873
 20
1378.317733127172
 30
0.0
 11
791.3286395065807
 21
1376.602779856144
 31
0.0
  0
LINE
  5
56C3
330
1F
100
AcDbEntity
  8
AM_VIS
100
AcDbLine
 10
793.5763030579826
 20
1375.397172379508
 30
0.0
 11
793.5763030579826
 21
1375.303714435583
 31
0.0
  0
SPLINE
  5
56C4
330
1F
100
AcDbEntity
  8
AM_VIS
100
AcDbSpline
210
0.0
220
0.0
230
1.0
 70
     8
 71
     3
 72
     8
 73
     4
 74
     0
 42
0.0000000001
 43
0.0000000001
 40
0.0
 40
0.0
 40
0.0
 40
0.0
 40
80.0
 40
80.0
 40
80.0
 40
80.0
 10
793.3333124037769
 20
1375.476611631844
 30
0.0
 10
793.3800413757396
 20
1375.439228454274
 30
0.0
 10
793.461038236707
 20
1375.412748751031
 30
0.0
 10
793.5763030579826
 20
1375.397172379508
 30
0.0
  0
SPLINE
  5
56C5
330
1F
100
AcDbEntity
  8
AM_VIS
100
AcDbSpline
210
0.0
220
0.0
230
1.0
 70
     8
 71
     3
 72
     8
 73
     4
 74
     0
 42
0.0000000001
 43
0.0000000001
 40
0.0
 40
0.0
 40
0.0
 40
0.0
 40
80.0
 40
80.0
 40
80.0
 40
80.0
 10
793.1090133383561
 20
1375.855116304742
 30
0.0
 10
793.1775491163664
 20
1375.668200416891
 30
0.0
 10
793.2523154715065
 20
1375.542032192592
 30
0.0
 10
793.3333124037769
 20
1375.476611631844
 30
0.0
  0
LINE
  5
56C6
330
1F
100
AcDbEntity
  8
AM_VIS
100
AcDbLine
 10
792.0015367028423
 20
1378.803714435583
 30
0.0
 11
793.1090133383561
 21
1375.855116304742
 31
0.0
  0
LINE
  5
56C7
330
1F
100
AcDbEntity
  8
AM_VIS
100
AcDbLine
 10
791.0389198804124
 20
1376.238293874835
 30
0.0
 11
791.9828451140573
 21
1378.803714435583
 31
0.0
  0
SPLINE
  5
56C8
330
1F
100
AcDbEntity
  8
AM_VIS
100
AcDbSpline
210
0.0
220
0.0
230
1.0
 70
     8
 71
     3
 72
     8
 73
     4
 74
     0
 42
0.0000000001
 43
0.0000000001
 40
0.0
 40
0.0
 40
0.0
 40
0.0
 40
80.0
 40
80.0
 40
80.0
 40
80.0
 10
790.6977983850853
 20
1375.499976117826
 30
0.0
 10
790.7850257518804
 20
1375.612125579233
 30
0.0
 10
790.8987329645245
 20
1375.858231522004
 30
0.0
 10
791.0389198804124
 20
1376.238293874835
 30
0.0
  0
SPLINE
  5
56C9
330
1F
100
AcDbEntity
  8
AM_VIS
100
AcDbSpline
210
0.0
220
0.0
230
1.0
 70
     8
 71
     3
 72
     8
 73
     4
 74
     0
 42
0.0000000001
 43
0.0000000001
 40
0.0
 40
0.0
 40
0.0
 40
0.0
 40
80.0
 40
80.0
 40
80.0
 40
80.0
 10
790.5903217495712
 20
1375.420536865489
 30
0.0
 10
790.6277048558387
 20
1375.429882659882
 30
0.0
 10
790.6635304247775
 20
1375.456362434428
 30
0.0
 10
790.6977983850853
 20
1375.499976117826
 30
0.0
  0
LINE
  5
56CA
330
1F
100
AcDbEntity
  8
AM_VIS
100
AcDbLine
 10
790.4689721632834
 20
1375.396414959232
 30
0.0
 11
790.5904650179817
 21
1375.419792294388
 31
0.0
  0
LINE
  5
56CB
330
1F
100
AcDbEntity
  8
AM_VIS
100
AcDbLine
 10
790.4688264224684
 20
1375.303714435583
 30
0.0
 11
790.4688264224684
 21
1375.397172379508
 31
0.0
  0
LINE
  5
56CC
330
1F
100
AcDbEntity
  8
AM_VIS
100
AcDbLine
 10
791.3239666093844
 20
1375.397172379508
 30
0.0
 11
791.3239666093844
 21
1375.303714435583
 31
0.0
  0
SPLINE
  5
56CD
330
1F
100
AcDbEntity
  8
AM_VIS
100
AcDbSpline
210
0.0
220
0.0
230
1.0
 70
     8
 71
     3
 72
     8
 73
     4
 74
     0
 42
0.0000000001
 43
0.0000000001
 40
0.0
 40
0.0
 40
0.0
 40
0.0
 40
80.0
 40
80.0
 40
80.0
 40
80.0
 10
791.1277049271412
 20
1375.434555557078
 30
0.0
 10
791.1619728161464
 20
1375.415863968293
 30
0.0
 10
791.2273933768942
 20
1375.403402956638
 30
0.0
 10
791.3239666093844
 20
1375.397172379508
 30
0.0
  0
SPLINE
  5
56CE
330
1F
100
AcDbEntity
  8
AM_VIS
100
AcDbSpline
210
0.0
220
0.0
230
1.0
 70
     8
 71
     3
 72
     8
 73
     4
 74
     0
 42
0.0000000001
 43
0.0000000001
 40
0.0
 40
0.0
 40
0.0
 40
0.0
 40
80.0
 40
80.0
 40
80.0
 40
80.0
 10
791.0155553944311
 20
1375.630817239321
 30
0.0
 10
791.0155553944311
 20
1375.531128789569
 30
0.0
 10
791.0529385720011
 20
1375.465708228821
 30
0.0
 10
791.1277049271412
 20
1375.434555557078
 30
0.0
  0
SPLINE
  5
56CF
330
1F
100
AcDbEntity
  8
AM_VIS
100
AcDbSpline
210
0.0
220
0.0
230
1.0
 70
     8
 71
     3
 72
     8
 73
     4
 74
     0
 42
0.0000000001
 43
0.0000000001
 40
0.0
 40
0.0
 40
0.0
 40
0.0
 40
80.0
 40
80.0
 40
80.0
 40
80.0
 10
791.0529385720011
 20
1375.836424715957
 30
0.0
 10
791.0280164060861
 20
1375.774119372471
 30
0.0
 10
791.0155553944311
 20
1375.705583594461
 30
0.0
 10
791.0155553944311
 20
1375.630817239321
 30
0.0
  0
LINE
  5
56D0
330
1F
100
AcDbEntity
  8
AM_VIS
100
AcDbLine
 10
791.2865834318144
 20
1376.429882659882
 30
0.0
 11
791.0529385720011
 21
1375.836424715957
 31
0.0
  0
LINE
  5
56D1
330
1F
100
AcDbEntity
  8
AM_VIS
100
AcDbLine
 10
792.5949946467674
 20
1376.429882659882
 30
0.0
 11
791.2865834318144
 21
1376.429882659882
 31
0.0
  0
LINE
  5
56D2
330
1F
100
AcDbEntity
  8
AM_VIS
100
AcDbLine
 10
792.7632189458329
 20
1375.967265837452
 30
0.0
 11
792.5949946467674
 21
1376.429882659882
 31
0.0
  0
SPLINE
  5
56D3
330
1F
100
AcDbEntity
  8
AM_VIS
100
AcDbSpline
210
0.0
220
0.0
230
1.0
 70
     8
 71
     3
 72
     8
 73
     4
 74
     0
 42
0.0000000001
 43
0.0000000001
 40
0.0
 40
0.0
 40
0.0
 40
0.0
 40
80.0
 40
80.0
 40
80.0
 40
80.0
 10
792.8426581981696
 20
1375.630817239321
 30
0.0
 10
792.8426581981696
 20
1375.708698811724
 30
0.0
 10
792.8161784236229
 20
1375.820848344434
 30
0.0
 10
792.7632189458329
 20
1375.967265837452
 30
0.0
  0
SPLINE
  5
56D4
330
1F
100
AcDbEntity
  8
AM_VIS
100
AcDbSpline
210
0.0
220
0.0
230
1.0
 70
     8
 71
     3
 72
     8
 73
     4
 74
     0
 42
0.0000000001
 43
0.0000000001
 40
0.0
 40
0.0
 40
0.0
 40
0.0
 40
80.0
 40
80.0
 40
80.0
 40
80.0
 10
792.7258357682628
 20
1375.434555557078
 30
0.0
 10
792.8037173406653
 20
1375.468823517386
 30
0.0
 10
792.8426581981696
 20
1375.534244078133
 30
0.0
 10
792.8426581981696
 20
1375.630817239321
 30
0.0
  0
SPLINE
  5
56D5
330
1F
100
AcDbEntity
  8
AM_VIS
100
AcDbSpline
210
0.0
220
0.0
230
1.0
 70
     8
 71
     3
 72
     8
 73
     4
 74
     0
 42
0.0000000001
 43
0.0000000001
 40
0.0
 40
0.0
 40
0.0
 40
0.0
 40
80.0
 40
80.0
 40
80.0
 40
80.0
 10
792.4688264224685
 20
1375.397172379508
 30
0.0
 10
792.5903217495713
 20
1375.403402956638
 30
0.0
 10
792.6759915077353
 20
1375.415863968293
 30
0.0
 10
792.7258357682628
 20
1375.434555557078
 30
0.0
  0
LINE
  5
56D6
330
1F
100
AcDbEntity
  8
AM_VIS
100
AcDbLine
 10
792.4688264224685
 20
1375.303714435583
 30
0.0
 11
792.4688264224685
 21
1375.397172379508
 31
0.0
  0
LINE
  5
56D7
330
1F
100
AcDbEntity
  8
AM_VIS
100
AcDbLine
 10
845.0213030579959
 20
1397.803714437368
 30
0.0
 11
845.0213030579959
 21
1401.303714437369
 31
0.0
  0
LINE
  5
56D8
330
1F
100
AcDbEntity
  8
AM_VIS
100
AcDbLine
 10
851.021303057996
 20
1401.303714437369
 30
0.0
 11
851.021303057996
 21
1397.803714437368
 31
0.0
  0
LINE
  5
56D9
330
1F
100
AcDbEntity
  8
AM_VIS
100
AcDbLine
 10
851.021303057996
 20
1397.803714437368
 30
0.0
 11
845.0213030579959
 21
1397.803714437368
 31
0.0
  0
LINE
  5
56DA
330
1F
100
AcDbEntity
  8
AM_VIS
100
AcDbLine
 10
845.0213030579959
 20
1401.303714437369
 30
0.0
 11
851.021303057996
 21
1401.303714437369
 31
0.0
  0
SPLINE
  5
56DB
330
1F
100
AcDbEntity
  8
AM_VIS
100
AcDbSpline
210
0.0
220
0.0
230
1.0
 70
     8
 71
     3
 72
     8
 73
     4
 74
     0
 42
0.0000000001
 43
0.0000000001
 40
0.0
 40
0.0
 40
0.0
 40
0.0
 40
80.0
 40
80.0
 40
80.0
 40
80.0
 10
847.0724715362573
 20
1400.362138350412
 30
0.0
 10
847.0724716088195
 20
1399.991214509931
 30
0.0
 10
847.272199869689
 20
1399.73759127315
 30
0.0
 10
847.6716563188658
 20
1399.601268785195
 30
0.0
  0
SPLINE
  5
56DC
330
1F
100
AcDbEntity
  8
AM_VIS
100
AcDbSpline
210
0.0
220
0.0
230
1.0
 70
     8
 71
     3
 72
     8
 73
     4
 74
     0
 42
0.0000000001
 43
0.0000000001
 40
0.0
 40
0.0
 40
0.0
 40
0.0
 40
80.0
 40
80.0
 40
80.0
 40
80.0
 10
848.0853791449529
 20
1401.146785089542
 30
0.0
 10
847.4101074783845
 20
1401.14678501698
 30
0.0
 10
847.0724716088195
 20
1400.885236176499
 30
0.0
 10
847.0724715362573
 20
1400.362138350412
 30
0.0
  0
SPLINE
  5
56DD
330
1F
100
AcDbEntity
  8
AM_VIS
100
AcDbSpline
210
0.0
220
0.0
230
1.0
 70
     8
 71
     3
 72
     8
 73
     4
 74
     0
 42
0.0000000001
 43
0.0000000001
 40
0.0
 40
0.0
 40
0.0
 40
0.0
 40
80.0
 40
80.0
 40
80.0
 40
80.0
 10
848.3849715362573
 20
1401.118252480847
 30
0.0
 10
848.3247360773859
 20
1401.137274147415
 30
0.0
 10
848.2248719469509
 20
1401.14678501698
 30
0.0
 10
848.0853791449529
 20
1401.146785089542
 30
0.0
  0
SPLINE
  5
56DE
330
1F
100
AcDbEntity
  8
AM_VIS
100
AcDbSpline
210
0.0
220
0.0
230
1.0
 70
     8
 71
     3
 72
     8
 73
     4
 74
     0
 42
0.0000000001
 43
0.0000000001
 40
0.0
 40
0.0
 40
0.0
 40
0.0
 40
80.0
 40
80.0
 40
80.0
 40
80.0
 10
848.5371454493009
 20
1400.894747046064
 30
0.0
 10
848.5371455218631
 20
1401.005707239367
 30
0.0
 10
848.4864208599944
 20
1401.080209002586
 30
0.0
 10
848.3849715362573
 20
1401.118252480847
 30
0.0
  0
LINE
  5
56DF
330
1F
100
AcDbEntity
  8
AM_VIS
100
AcDbLine
 10
848.5371454493009
 20
1399.525181828673
 30
0.0
 11
848.5371454493009
 21
1400.894747046064
 31
0.0
  0
SPLINE
  5
56E0
330
1F
100
AcDbEntity
  8
AM_VIS
100
AcDbSpline
210
0.0
220
0.0
230
1.0
 70
     8
 71
     3
 72
     8
 73
     4
 74
     0
 42
0.0000000001
 43
0.0000000001
 40
0.0
 40
0.0
 40
0.0
 40
0.0
 40
80.0
 40
80.0
 40
80.0
 40
80.0
 10
847.6716563188658
 20
1399.601268785195
 30
0.0
 10
847.8206599904295
 20
1399.550544195888
 30
0.0
 10
848.1091563188659
 20
1399.525181828673
 30
0.0
 10
848.5371454493009
 20
1399.525181828673
 30
0.0
  0
SPLINE
  5
56E1
330
1F
100
AcDbEntity
  8
AM_VIS
100
AcDbSpline
210
0.0
220
0.0
230
1.0
 70
     8
 71
     3
 72
     8
 73
     4
 74
     0
 42
0.0000000001
 43
0.0000000001
 40
0.0
 40
0.0
 40
0.0
 40
0.0
 40
80.0
 40
80.0
 40
80.0
 40
80.0
 10
847.1675802319094
 20
1398.716757915629
 30
0.0
 10
847.1675802319094
 20
1398.212681828673
 30
0.0
 10
847.5099715362572
 20
1397.960643785195
 30
0.0
 10
848.1947541449528
 20
1397.960643785195
 30
0.0
  0
SPLINE
  5
56E2
330
1F
100
AcDbEntity
  8
AM_VIS
100
AcDbSpline
210
0.0
220
0.0
230
1.0
 70
     8
 71
     3
 72
     8
 73
     4
 74
     0
 42
0.0000000001
 43
0.0000000001
 40
0.0
 40
0.0
 40
0.0
 40
0.0
 40
80.0
 40
80.0
 40
80.0
 40
80.0
 10
847.5289932753877
 20
1399.273143785195
 30
0.0
 10
847.2880512947769
 20
1399.184375717627
 30
0.0
 10
847.1675802319094
 20
1398.998913761106
 30
0.0
 10
847.1675802319094
 20
1398.716757915629
 30
0.0
  0
SPLINE
  5
56E3
330
1F
100
AcDbEntity
  8
AM_VIS
100
AcDbSpline
210
0.0
220
0.0
230
1.0
 70
     8
 71
     3
 72
     8
 73
     4
 74
     0
 42
0.0000000001
 43
0.0000000001
 40
0.0
 40
0.0
 40
0.0
 40
0.0
 40
80.0
 40
80.0
 40
80.0
 40
80.0
 10
847.9997813188658
 20
1399.325453567803
 30
0.0
 10
847.7842016329084
 20
1399.322283326323
 30
0.0
 10
847.6272722850824
 20
1399.304846707933
 30
0.0
 10
847.5289932753877
 20
1399.273143785195
 30
0.0
  0
LINE
  5
56E4
330
1F
100
AcDbEntity
  8
AM_VIS
100
AcDbLine
 10
848.5371454493009
 20
1399.330209002586
 30
0.0
 11
847.9997813188658
 21
1399.325453567803
 31
0.0
  0
LINE
  5
56E5
330
1F
100
AcDbEntity
  8
AM_VIS
100
AcDbLine
 10
848.5371454493009
 20
1398.09855139389
 30
0.0
 11
848.5371454493009
 21
1399.330209002586
 31
0.0
  0
SPLINE
  5
56E6
330
1F
100
AcDbEntity
  8
AM_VIS
100
AcDbSpline
210
0.0
220
0.0
230
1.0
 70
     8
 71
     3
 72
     8
 73
     4
 74
     0
 42
0.0000000001
 43
0.0000000001
 40
0.0
 40
0.0
 40
0.0
 40
0.0
 40
80.0
 40
80.0
 40
80.0
 40
80.0
 10
848.5181237101704
 20
1397.998687263456
 30
0.0
 10
848.5308048937779
 20
1398.014538761106
 30
0.0
 10
848.5371455218631
 20
1398.047826804584
 30
0.0
 10
848.5371454493009
 20
1398.09855139389
 30
0.0
  0
SPLINE
  5
56E7
330
1F
100
AcDbEntity
  8
AM_VIS
100
AcDbSpline
210
0.0
220
0.0
230
1.0
 70
     8
 71
     3
 72
     8
 73
     4
 74
     0
 42
0.0000000001
 43
0.0000000001
 40
0.0
 40
0.0
 40
0.0
 40
0.0
 40
80.0
 40
80.0
 40
80.0
 40
80.0
 10
848.4135041449528
 20
1397.965399219977
 30
0.0
 10
848.4705693623443
 20
1397.971739848062
 30
0.0
 10
848.5054425991249
 20
1397.982835838368
 30
0.0
 10
848.5181237101704
 20
1397.998687263456
 30
0.0
  0
SPLINE
  5
56E8
330
1F
100
AcDbEntity
  8
AM_VIS
100
AcDbSpline
210
0.0
220
0.0
230
1.0
 70
     8
 71
     3
 72
     8
 73
     4
 74
     0
 42
0.0000000001
 43
0.0000000001
 40
0.0
 40
0.0
 40
0.0
 40
0.0
 40
80.0
 40
80.0
 40
80.0
 40
80.0
 10
848.1947541449528
 20
1397.960643785195
 30
0.0
 10
848.3279063914281
 20
1397.960643785195
 30
0.0
 10
848.4008230339075
 20
1397.962228978497
 30
0.0
 10
848.4135041449528
 20
1397.965399219977
 30
0.0
  0
SPLINE
  5
56E9
330
1F
100
AcDbEntity
  8
AM_VIS
100
AcDbSpline
210
0.0
220
0.0
230
1.0
 70
     8
 71
     3
 72
     8
 73
     4
 74
     0
 42
0.0000000001
 43
0.0000000001
 40
0.0
 40
0.0
 40
0.0
 40
0.0
 40
80.0
 40
80.0
 40
80.0
 40
80.0
 10
846.7063030579963
 20
1400.381160089543
 30
0.0
 10
846.7063030579963
 20
1400.584058664455
 30
0.0
 10
846.7633682753879
 20
1400.763180065453
 30
0.0
 10
846.8774987101703
 20
1400.918524219977
 30
0.0
  0
SPLINE
  5
56EA
330
1F
100
AcDbEntity
  8
AM_VIS
100
AcDbSpline
210
0.0
220
0.0
230
1.0
 70
     8
 71
     3
 72
     8
 73
     4
 74
     0
 42
0.0000000001
 43
0.0000000001
 40
0.0
 40
0.0
 40
0.0
 40
0.0
 40
80.0
 40
80.0
 40
80.0
 40
80.0
 10
847.4671726232138
 20
1399.477627480847
 30
0.0
 10
846.959926294777
 20
1399.598098543714
 30
0.0
 10
846.7063030579963
 20
1399.899276055759
 30
0.0
 10
846.7063030579963
 20
1400.381160089543
 30
0.0
  0
LINE
  5
56EB
330
1F
100
AcDbEntity
  8
AM_VIS
100
AcDbLine
 10
847.5480150145184
 20
1399.458605741716
 30
0.0
 11
847.4671726232138
 21
1399.477627480847
 31
0.0
  0
SPLINE
  5
56EC
330
1F
100
AcDbEntity
  8
AM_VIS
100
AcDbSpline
210
0.0
220
0.0
230
1.0
 70
     8
 71
     3
 72
     8
 73
     4
 74
     0
 42
0.0000000001
 43
0.0000000001
 40
0.0
 40
0.0
 40
0.0
 40
0.0
 40
80.0
 40
80.0
 40
80.0
 40
80.0
 10
846.8584769710398
 20
1398.678714437369
 30
0.0
 10
846.8584769710398
 20
1399.071830403585
 30
0.0
 10
847.0883230339074
 20
1399.331794195888
 30
0.0
 10
847.5480150145184
 20
1399.458605741716
 30
0.0
  0
SPLINE
  5
56ED
330
1F
100
AcDbEntity
  8
AM_VIS
100
AcDbSpline
210
0.0
220
0.0
230
1.0
 70
     8
 71
     3
 72
     8
 73
     4
 74
     0
 42
0.0000000001
 43
0.0000000001
 40
0.0
 40
0.0
 40
0.0
 40
0.0
 40
80.0
 40
80.0
 40
80.0
 40
80.0
 10
848.0616019710398
 20
1397.803714437369
 30
0.0
 10
847.2595186860814
 20
1397.803714437369
 30
0.0
 10
846.8584769710398
 20
1398.09538115241
 30
0.0
 10
846.8584769710398
 20
1398.678714437369
 30
0.0
  0
LINE
  5
56EE
330
1F
100
AcDbEntity
  8
AM_VIS
100
AcDbLine
 10
849.3408139275619
 20
1397.898823133021
 30
0.0
 11
849.3408139275619
 21
1397.803714437369
 31
0.0
  0
SPLINE
  5
56EF
330
1F
100
AcDbEntity
  8
AM_VIS
100
AcDbSpline
210
0.0
220
0.0
230
1.0
 70
     8
 71
     3
 72
     8
 73
     4
 74
     0
 42
0.0000000001
 43
0.0000000001
 40
0.0
 40
0.0
 40
0.0
 40
0.0
 40
80.0
 40
80.0
 40
80.0
 40
80.0
 10
848.9413574058223
 20
1397.984420959108
 30
0.0
 10
849.0015929372564
 20
1397.940036925324
 30
0.0
 10
849.1347451111694
 20
1397.911504316628
 30
0.0
 10
849.3408139275619
 20
1397.898823133021
 30
0.0
  0
SPLINE
  5
56F0
330
1F
100
AcDbEntity
  8
AM_VIS
100
AcDbSpline
210
0.0
220
0.0
230
1.0
 70
     8
 71
     3
 72
     8
 73
     4
 74
     0
 42
0.0000000001
 43
0.0000000001
 40
0.0
 40
0.0
 40
0.0
 40
0.0
 40
80.0
 40
80.0
 40
80.0
 40
80.0
 10
848.8319824058223
 20
1398.355344872151
 30
0.0
 10
848.8319824058223
 20
1398.165127480847
 30
0.0
 10
848.8684407633433
 20
1398.041486176499
 30
0.0
 10
848.9413574058223
 20
1397.984420959108
 30
0.0
  0
LINE
  5
56F1
330
1F
100
AcDbEntity
  8
AM_VIS
100
AcDbLine
 10
848.8319824058223
 20
1400.675997046064
 30
0.0
 11
848.8319824058223
 21
1398.355344872151
 31
0.0
  0
SPLINE
  5
56F2
330
1F
100
AcDbEntity
  8
AM_VIS
100
AcDbSpline
210
0.0
220
0.0
230
1.0
 70
     8
 71
     3
 72
     8
 73
     4
 74
     0
 42
0.0000000001
 43
0.0000000001
 40
0.0
 40
0.0
 40
0.0
 40
0.0
 40
80.0
 40
80.0
 40
80.0
 40
80.0
 10
848.9366019710399
 20
1401.080209002586
 30
0.0
 10
848.8668556426031
 20
1401.007292360107
 30
0.0
 10
848.8319824058223
 20
1400.872555065453
 30
0.0
 10
848.8319824058223
 20
1400.675997046064
 30
0.0
  0
SPLINE
  5
56F3
330
1F
100
AcDbEntity
  8
AM_VIS
100
AcDbSpline
210
0.0
220
0.0
230
1.0
 70
     8
 71
     3
 72
     8
 73
     4
 74
     0
 42
0.0000000001
 43
0.0000000001
 40
0.0
 40
0.0
 40
0.0
 40
0.0
 40
80.0
 40
80.0
 40
80.0
 40
80.0
 10
849.3408139275619
 20
1401.208605741716
 30
0.0
 10
849.1442559807344
 20
1401.195924558109
 30
0.0
 10
849.0095186860814
 20
1401.153125645065
 30
0.0
 10
848.9366019710399
 20
1401.080209002586
 30
0.0
  0
LINE
  5
56F4
330
1F
100
AcDbEntity
  8
AM_VIS
100
AcDbLine
 10
849.3408139275619
 20
1401.303714437369
 30
0.0
 11
849.3408139275619
 21
1401.208605741716
 31
0.0
  0
SPLINE
  5
56F5
330
1F
100
AcDbEntity
  8
AM_VIS
100
AcDbSpline
210
0.0
220
0.0
230
1.0
 70
     8
 71
     3
 72
     8
 73
     4
 74
     0
 42
0.0000000001
 43
0.0000000001
 40
0.0
 40
0.0
 40
0.0
 40
0.0
 40
80.0
 40
80.0
 40
80.0
 40
80.0
 10
846.8774987101703
 20
1400.918524219977
 30
0.0
 10
847.0645458599944
 20
1401.175317698238
 30
0.0
 10
847.373649120864
 20
1401.303714437369
 30
0.0
 10
847.8048084927793
 20
1401.303714437369
 30
0.0
  0
LINE
  5
56FC
330
1F
100
AcDbEntity
  8
AM_VIS
100
AcDbLine
 10
806.0213030579959
 20
1231.972330097609
 30
0.0
 11
806.0213030579959
 21
1235.472330097609
 31
0.0
  0
LINE
  5
56FD
330
1F
100
AcDbEntity
  8
AM_VIS
100
AcDbLine
 10
806.0213030579959
 20
1235.472330097609
 30
0.0
 11
812.0213030579959
 21
1235.472330097609
 31
0.0
  0
LINE
  5
56FE
330
1F
100
AcDbEntity
  8
AM_VIS
100
AcDbLine
 10
812.0213030579959
 20
1235.472330097609
 30
0.0
 11
812.0213030579959
 21
1231.972330097609
 31
0.0
  0
LINE
  5
56FF
330
1F
100
AcDbEntity
  8
AM_VIS
100
AcDbLine
 10
812.0213030579959
 20
1231.972330097609
 30
0.0
 11
806.0213030579959
 21
1231.972330097609
 31
0.0
  0
SPLINE
  5
5700
330
1F
100
AcDbEntity
  8
AM_VIS
100
AcDbSpline
210
0.0
220
0.0
230
1.0
 70
     8
 71
     3
 72
     8
 73
     4
 74
     0
 42
0.0000000001
 43
0.0000000001
 40
0.0
 40
0.0
 40
0.0
 40
0.0
 40
80.0
 40
80.0
 40
80.0
 40
80.0
 10
809.8934226232287
 20
1234.521243141087
 30
0.0
 10
809.8934225506665
 20
1235.047511208654
 30
0.0
 10
809.5272540724057
 20
1235.310645315
 30
0.0
 10
808.7949171884458
 20
1235.310645315
 30
0.0
  0
SPLINE
  5
5701
330
1F
100
AcDbEntity
  8
AM_VIS
100
AcDbSpline
210
0.0
220
0.0
230
1.0
 70
     8
 71
     3
 72
     8
 73
     4
 74
     0
 42
0.0000000001
 43
0.0000000001
 40
0.0
 40
0.0
 40
0.0
 40
0.0
 40
80.0
 40
80.0
 40
80.0
 40
80.0
 10
808.9470911014894
 20
1233.689042054131
 30
0.0
 10
809.5779787342742
 20
1233.689042054131
 30
0.0
 10
809.8934225506665
 20
1233.966442392262
 30
0.0
 10
809.8934226232287
 20
1234.521243141087
 30
0.0
  0
SPLINE
  5
5702
330
1F
100
AcDbEntity
  8
AM_VIS
100
AcDbSpline
210
0.0
220
0.0
230
1.0
 70
     8
 71
     3
 72
     8
 73
     4
 74
     0
 42
0.0000000001
 43
0.0000000001
 40
0.0
 40
0.0
 40
0.0
 40
0.0
 40
80.0
 40
80.0
 40
80.0
 40
80.0
 10
808.5714117536634
 20
1233.708063793261
 30
0.0
 10
808.6760312463185
 20
1233.695382609654
 30
0.0
 10
808.8012577439688
 20
1233.689042054131
 30
0.0
 10
808.9470911014894
 20
1233.689042054131
 30
0.0
  0
LINE
  5
5703
330
1F
100
AcDbEntity
  8
AM_VIS
100
AcDbLine
 10
808.5714117536634
 20
1235.091895315
 30
0.0
 11
808.5714117536634
 21
1233.708063793261
 31
0.0
  0
SPLINE
  5
5704
330
1F
100
AcDbEntity
  8
AM_VIS
100
AcDbSpline
210
0.0
220
0.0
230
1.0
 70
     8
 71
     3
 72
     8
 73
     4
 74
     0
 42
0.0000000001
 43
0.0000000001
 40
0.0
 40
0.0
 40
0.0
 40
0.0
 40
80.0
 40
80.0
 40
80.0
 40
80.0
 10
808.6189661014893
 20
1235.282112706305
 30
0.0
 10
808.5872631787513
 20
1235.250409783567
 30
0.0
 10
808.5714117536634
 20
1235.187004010653
 30
0.0
 10
808.5714117536634
 20
1235.091895315
 30
0.0
  0
SPLINE
  5
5705
330
1F
100
AcDbEntity
  8
AM_VIS
100
AcDbSpline
210
0.0
220
0.0
230
1.0
 70
     8
 71
     3
 72
     8
 73
     4
 74
     0
 42
0.0000000001
 43
0.0000000001
 40
0.0
 40
0.0
 40
0.0
 40
0.0
 40
80.0
 40
80.0
 40
80.0
 40
80.0
 10
808.7949171884458
 20
1235.310645315
 30
0.0
 10
808.7029787342741
 20
1235.310645315
 30
0.0
 10
808.6443283961427
 20
1235.301134445435
 30
0.0
 10
808.6189661014893
 20
1235.282112706305
 30
0.0
  0
SPLINE
  5
5706
330
1F
100
AcDbEntity
  8
AM_VIS
100
AcDbSpline
210
0.0
220
0.0
230
1.0
 70
     8
 71
     3
 72
     8
 73
     4
 74
     0
 42
0.0000000001
 43
0.0000000001
 40
0.0
 40
0.0
 40
0.0
 40
0.0
 40
80.0
 40
80.0
 40
80.0
 40
80.0
 10
810.2263030580113
 20
1234.530754010653
 30
0.0
 10
810.2263030580113
 20
1234.248598165176
 30
0.0
 10
810.1375349178818
 20
1234.015581860828
 30
0.0
 10
809.9599987101854
 20
1233.831705097609
 30
0.0
  0
SPLINE
  5
5707
330
1F
100
AcDbEntity
  8
AM_VIS
100
AcDbSpline
210
0.0
220
0.0
230
1.0
 70
     8
 71
     3
 72
     8
 73
     4
 74
     0
 42
0.0000000001
 43
0.0000000001
 40
0.0
 40
0.0
 40
0.0
 40
0.0
 40
80.0
 40
80.0
 40
80.0
 40
80.0
 10
809.8648900145329
 20
1235.253580097609
 30
0.0
 10
810.1058319951437
 20
1235.085554686915
 30
0.0
 10
810.2263030580113
 20
1234.844612706305
 30
0.0
 10
810.2263030580113
 20
1234.530754010653
 30
0.0
  0
SPLINE
  5
5708
330
1F
100
AcDbEntity
  8
AM_VIS
100
AcDbSpline
210
0.0
220
0.0
230
1.0
 70
     8
 71
     3
 72
     8
 73
     4
 74
     0
 42
0.0000000001
 43
0.0000000001
 40
0.0
 40
0.0
 40
0.0
 40
0.0
 40
80.0
 40
80.0
 40
80.0
 40
80.0
 10
809.0279334927938
 20
1235.472330097609
 30
0.0
 10
809.3734950386217
 20
1235.472330097609
 30
0.0
 10
809.6524805700557
 20
1235.399413382568
 30
0.0
 10
809.8648900145329
 20
1235.253580097609
 30
0.0
  0
LINE
  5
5709
330
1F
100
AcDbEntity
  8
AM_VIS
100
AcDbLine
 10
807.8200530580113
 20
1235.377221401957
 30
0.0
 11
807.8200530580113
 21
1235.472330097609
 31
0.0
  0
SPLINE
  5
570A
330
1F
100
AcDbEntity
  8
AM_VIS
100
AcDbSpline
210
0.0
220
0.0
230
1.0
 70
     8
 71
     3
 72
     8
 73
     4
 74
     0
 42
0.0000000001
 43
0.0000000001
 40
0.0
 40
0.0
 40
0.0
 40
0.0
 40
80.0
 40
80.0
 40
80.0
 40
80.0
 10
808.1814661014893
 20
1235.258335532392
 30
0.0
 10
808.1244008840982
 20
1235.315400749783
 30
0.0
 10
808.0039298212307
 20
1235.355029348784
 30
0.0
 10
807.8200530580113
 20
1235.377221401957
 30
0.0
  0
SPLINE
  5
570B
330
1F
100
AcDbEntity
  8
AM_VIS
100
AcDbSpline
210
0.0
220
0.0
230
1.0
 70
     8
 71
     3
 72
     8
 73
     4
 74
     0
 42
0.0000000001
 43
0.0000000001
 40
0.0
 40
0.0
 40
0.0
 40
0.0
 40
80.0
 40
80.0
 40
80.0
 40
80.0
 10
808.2718193623588
 20
1234.882656184566
 30
0.0
 10
808.2718193623588
 20
1235.07287357587
 30
0.0
 10
808.2417015603612
 20
1235.198100000958
 30
0.0
 10
808.1814661014893
 20
1235.258335532392
 30
0.0
  0
LINE
  5
570C
330
1F
100
AcDbEntity
  8
AM_VIS
100
AcDbLine
 10
808.2718193623588
 20
1232.661868141087
 30
0.0
 11
808.2718193623588
 21
1234.882656184566
 31
0.0
  0
SPLINE
  5
570D
330
1F
100
AcDbEntity
  8
AM_VIS
100
AcDbSpline
210
0.0
220
0.0
230
1.0
 70
     8
 71
     3
 72
     8
 73
     4
 74
     0
 42
0.0000000001
 43
0.0000000001
 40
0.0
 40
0.0
 40
0.0
 40
0.0
 40
80.0
 40
80.0
 40
80.0
 40
80.0
 10
808.1909769710549
 20
1232.22912357587
 30
0.0
 10
808.2448718744037
 20
1232.305210532392
 30
0.0
 10
808.2718193623588
 20
1232.44945869661
 30
0.0
 10
808.2718193623588
 20
1232.661868141087
 30
0.0
  0
SPLINE
  5
570E
330
1F
100
AcDbEntity
  8
AM_VIS
100
AcDbSpline
210
0.0
220
0.0
230
1.0
 70
     8
 71
     3
 72
     8
 73
     4
 74
     0
 42
0.0000000001
 43
0.0000000001
 40
0.0
 40
0.0
 40
0.0
 40
0.0
 40
80.0
 40
80.0
 40
80.0
 40
80.0
 10
807.8200530580113
 20
1232.067438793261
 30
0.0
 10
808.0071001352733
 20
1232.086460532392
 30
0.0
 10
808.1307414396208
 20
1232.140355508303
 30
0.0
 10
808.1909769710549
 20
1232.22912357587
 30
0.0
  0
LINE
  5
570F
330
1F
100
AcDbEntity
  8
AM_VIS
100
AcDbLine
 10
807.8200530580113
 20
1231.972330097609
 30
0.0
 11
807.8200530580113
 21
1232.067438793261
 31
0.0
  0
LINE
  5
5710
330
1F
100
AcDbEntity
  8
AM_VIS
100
AcDbLine
 10
809.0707324058373
 20
1232.067438793261
 30
0.0
 11
809.0707324058373
 21
1231.972330097609
 31
0.0
  0
SPLINE
  5
5711
330
1F
100
AcDbEntity
  8
AM_VIS
100
AcDbSpline
210
0.0
220
0.0
230
1.0
 70
     8
 71
     3
 72
     8
 73
     4
 74
     0
 42
0.0000000001
 43
0.0000000001
 40
0.0
 40
0.0
 40
0.0
 40
0.0
 40
80.0
 40
80.0
 40
80.0
 40
80.0
 10
808.6902976232288
 20
1232.186324662827
 30
0.0
 10
808.7568737101854
 20
1232.119748648432
 30
0.0
 10
808.8836852560131
 20
1232.080119976869
 30
0.0
 10
809.0707324058373
 20
1232.067438793261
 30
0.0
  0
SPLINE
  5
5712
330
1F
100
AcDbEntity
  8
AM_VIS
100
AcDbSpline
210
0.0
220
0.0
230
1.0
 70
     8
 71
     3
 72
     8
 73
     4
 74
     0
 42
0.0000000001
 43
0.0000000001
 40
0.0
 40
0.0
 40
0.0
 40
0.0
 40
80.0
 40
80.0
 40
80.0
 40
80.0
 10
808.5714117536634
 20
1232.595292054131
 30
0.0
 10
808.5714117536634
 20
1232.401904348784
 30
0.0
 10
808.6110403526642
 20
1232.265581860829
 30
0.0
 10
808.6902976232288
 20
1232.186324662827
 30
0.0
  0
LINE
  5
5713
330
1F
100
AcDbEntity
  8
AM_VIS
100
AcDbLine
 10
808.5714117536634
 20
1233.536868141087
 30
0.0
 11
808.5714117536634
 21
1232.595292054131
 31
0.0
  0
LINE
  5
5714
330
1F
100
AcDbEntity
  8
AM_VIS
100
AcDbLine
 10
808.571357382117
 20
1233.534067088082
 30
0.0
 11
808.9803552831533
 21
1233.526127985037
 31
0.0
  0
SPLINE
  5
5715
330
1F
100
AcDbEntity
  8
AM_VIS
100
AcDbSpline
210
0.0
220
0.0
230
1.0
 70
     8
 71
     3
 72
     8
 73
     4
 74
     0
 42
0.0000000001
 43
0.0000000001
 40
0.0
 40
0.0
 40
0.0
 40
0.0
 40
80.0
 40
80.0
 40
80.0
 40
80.0
 10
809.9599987101854
 20
1233.831705097609
 30
0.0
 10
809.7634406907957
 20
1233.628806522697
 30
0.0
 10
809.4369008115361
 20
1233.527357271522
 30
0.0
 10
808.9803791449678
 20
1233.527357271522
 30
0.0
  0
LINE
  5
5716
330
1F
100
AcDbEntity
  8
AM_VIS
100
AcDbLine
 10
798.5213030579959
 20
1208.472330097609
 30
0.0
 11
798.5213030579959
 21
1211.972330097609
 31
0.0
  0
LINE
  5
5717
330
1F
100
AcDbEntity
  8
AM_VIS
100
AcDbLine
 10
798.5213030579959
 20
1211.972330097609
 30
0.0
 11
804.521303057996
 21
1211.972330097609
 31
0.0
  0
LINE
  5
5718
330
1F
100
AcDbEntity
  8
AM_VIS
100
AcDbLine
 10
804.521303057996
 20
1211.972330097609
 30
0.0
 11
804.521303057996
 21
1208.472330097609
 31
0.0
  0
LINE
  5
5719
330
1F
100
AcDbEntity
  8
AM_VIS
100
AcDbLine
 10
804.521303057996
 20
1208.472330097609
 30
0.0
 11
798.5213030579959
 21
1208.472330097609
 31
0.0
  0
LINE
  5
571A
330
1F
100
AcDbEntity
  8
AM_VIS
100
AcDbLine
 10
835.5213030579959
 20
1208.472330097609
 30
0.0
 11
835.5213030579959
 21
1211.972330097609
 31
0.0
  0
LINE
  5
571B
330
1F
100
AcDbEntity
  8
AM_VIS
100
AcDbLine
 10
835.5213030579959
 20
1211.972330097609
 30
0.0
 11
841.5213030579959
 21
1211.972330097609
 31
0.0
  0
LINE
  5
571C
330
1F
100
AcDbEntity
  8
AM_VIS
100
AcDbLine
 10
841.5213030579959
 20
1211.972330097609
 30
0.0
 11
841.5213030579959
 21
1208.472330097609
 31
0.0
  0
LINE
  5
571D
330
1F
100
AcDbEntity
  8
AM_VIS
100
AcDbLine
 10
841.5213030579959
 20
1208.472330097609
 30
0.0
 11
835.5213030579959
 21
1208.472330097609
 31
0.0
  0
LINE
  5
571E
330
1F
100
AcDbEntity
  8
AM_VIS
100
AcDbLine
 10
803.8713030580327
 20
1208.56591298531
 30
0.0
 11
803.8713030580327
 21
1208.472330097609
 31
0.0
  0
SPLINE
  5
571F
330
1F
100
AcDbEntity
  8
AM_VIS
100
AcDbSpline
210
0.0
220
0.0
230
1.0
 70
     8
 71
     3
 72
     8
 73
     4
 74
     0
 42
0.0000000001
 43
0.0000000001
 40
0.0
 40
0.0
 40
0.0
 40
0.0
 40
80.0
 40
80.0
 40
80.0
 40
80.0
 10
803.4969715072303
 20
1208.64077929547
 30
0.0
 10
803.5718378173907
 20
1208.590868469628
 30
0.0
 10
803.6966149533929
 20
1208.56591298531
 30
0.0
 10
803.8713030580327
 20
1208.56591298531
 30
0.0
  0
SPLINE
  5
5720
330
1F
100
AcDbEntity
  8
AM_VIS
100
AcDbSpline
210
0.0
220
0.0
230
1.0
 70
     8
 71
     3
 72
     8
 73
     4
 74
     0
 42
0.0000000001
 43
0.0000000001
 40
0.0
 40
0.0
 40
0.0
 40
0.0
 40
80.0
 40
80.0
 40
80.0
 40
80.0
 10
803.3846720419898
 20
1208.926207102957
 30
0.0
 10
803.3846720419898
 20
1208.792071606787
 30
0.0
 10
803.42210519707
 20
1208.696929099488
 30
0.0
 10
803.4969715072303
 20
1208.64077929547
 30
0.0
  0
LINE
  5
5721
330
1F
100
AcDbEntity
  8
AM_VIS
100
AcDbLine
 10
803.3846720419898
 20
1211.972330097609
 30
0.0
 11
803.3846720419898
 21
1208.926207102957
 31
0.0
  0
LINE
  5
5722
330
1F
100
AcDbEntity
  8
AM_VIS
100
AcDbLine
 10
802.5938966409201
 20
1211.593319402422
 30
0.0
 11
803.3846720419898
 21
1211.972330097609
 31
0.0
  0
LINE
  5
5723
330
1F
100
AcDbEntity
  8
AM_VIS
100
AcDbLine
 10
802.5938966409201
 20
1211.518453092261
 30
0.0
 11
802.5938966409201
 21
1211.593319402422
 31
0.0
  0
SPLINE
  5
5724
330
1F
100
AcDbEntity
  8
AM_VIS
100
AcDbSpline
210
0.0
220
0.0
230
1.0
 70
     8
 71
     3
 72
     8
 73
     4
 74
     0
 42
0.0000000001
 43
0.0000000001
 40
0.0
 40
0.0
 40
0.0
 40
0.0
 40
80.0
 40
80.0
 40
80.0
 40
80.0
 10
802.9307950366421
 20
1211.602677691192
 30
0.0
 10
802.849689819703
 20
1211.602677691192
 30
0.0
 10
802.7373903544624
 20
1211.574602824882
 30
0.0
 10
802.5938966409201
 20
1211.518453092261
 30
0.0
  0
SPLINE
  5
5725
330
1F
100
AcDbEntity
  8
AM_VIS
100
AcDbSpline
210
0.0
220
0.0
230
1.0
 70
     8
 71
     3
 72
     8
 73
     4
 74
     0
 42
0.0000000001
 43
0.0000000001
 40
0.0
 40
0.0
 40
0.0
 40
0.0
 40
80.0
 40
80.0
 40
80.0
 40
80.0
 10
803.1226399564282
 20
1211.335966461245
 30
0.0
 10
803.1226399564282
 20
1211.513773947876
 30
0.0
 10
803.0586916260338
 20
1211.602677691192
 30
0.0
 10
802.9307950366421
 20
1211.602677691192
 30
0.0
  0
LINE
  5
5726
330
1F
100
AcDbEntity
  8
AM_VIS
100
AcDbLine
 10
803.1226399564282
 20
1209.015110846272
 30
0.0
 11
803.1226399564282
 21
1211.335966461245
 31
0.0
  0
SPLINE
  5
5727
330
1F
100
AcDbEntity
  8
AM_VIS
100
AcDbSpline
210
0.0
220
0.0
230
1.0
 70
     8
 71
     3
 72
     8
 73
     4
 74
     0
 42
0.0000000001
 43
0.0000000001
 40
0.0
 40
0.0
 40
0.0
 40
0.0
 40
80.0
 40
80.0
 40
80.0
 40
80.0
 10
802.9822656248773
 20
1208.64077929547
 30
0.0
 10
803.0758485125781
 20
1208.706287388259
 30
0.0
 10
803.1226399564282
 20
1208.831064452862
 30
0.0
 10
803.1226399564282
 20
1209.015110846272
 30
0.0
  0
SPLINE
  5
5728
330
1F
100
AcDbEntity
  8
AM_VIS
100
AcDbSpline
210
0.0
220
0.0
230
1.0
 70
     8
 71
     3
 72
     8
 73
     4
 74
     0
 42
0.0000000001
 43
0.0000000001
 40
0.0
 40
0.0
 40
0.0
 40
0.0
 40
80.0
 40
80.0
 40
80.0
 40
80.0
 10
802.6406880847705
 20
1208.56591298531
 30
0.0
 10
802.8060178292424
 20
1208.572151892088
 30
0.0
 10
802.9198769854785
 20
1208.597107305009
 30
0.0
 10
802.9822656248773
 20
1208.64077929547
 30
0.0
  0
LINE
  5
5729
330
1F
100
AcDbEntity
  8
AM_VIS
100
AcDbLine
 10
802.6406880847705
 20
1208.472330097609
 30
0.0
 11
802.6406880847705
 21
1208.56591298531
 31
0.0
  0
SPLINE
  5
572A
330
1F
100
AcDbEntity
  8
AM_VIS
100
AcDbSpline
210
0.0
220
0.0
230
1.0
 70
     8
 71
     3
 72
     8
 73
     4
 74
     0
 42
0.0000000001
 43
0.0000000001
 40
0.0
 40
0.0
 40
0.0
 40
0.0
 40
80.0
 40
80.0
 40
80.0
 40
80.0
 10
801.2205677639151
 20
1211.022463787449
 30
0.0
 10
801.2205676925171
 20
1211.346884441011
 30
0.0
 10
801.0770739789748
 20
1211.563684773718
 30
0.0
 10
800.7900864804925
 20
1211.672864856967
 30
0.0
  0
SPLINE
  5
572B
330
1F
100
AcDbEntity
  8
AM_VIS
100
AcDbSpline
210
0.0
220
0.0
230
1.0
 70
     8
 71
     3
 72
     8
 73
     4
 74
     0
 42
0.0000000001
 43
0.0000000001
 40
0.0
 40
0.0
 40
0.0
 40
0.0
 40
80.0
 40
80.0
 40
80.0
 40
80.0
 10
800.7292576034872
 20
1210.348666996005
 30
0.0
 10
801.056797639041
 20
1210.464085843237
 30
0.0
 10
801.2205676925171
 20
1210.688684773718
 30
0.0
 10
801.2205677639151
 20
1211.022463787449
 30
0.0
  0
SPLINE
  5
572C
330
1F
100
AcDbEntity
  8
AM_VIS
100
AcDbSpline
210
0.0
220
0.0
230
1.0
 70
     8
 71
     3
 72
     8
 73
     4
 74
     0
 42
0.0000000001
 43
0.0000000001
 40
0.0
 40
0.0
 40
0.0
 40
0.0
 40
80.0
 40
80.0
 40
80.0
 40
80.0
 10
799.9150864804926
 20
1210.250404963919
 30
0.0
 10
800.2862985779055
 20
1210.253524345911
 30
0.0
 10
800.557688952237
 20
1210.286278356606
 30
0.0
 10
800.7292576034872
 20
1210.348666996005
 30
0.0
  0
LINE
  5
572D
330
1F
100
AcDbEntity
  8
AM_VIS
100
AcDbLine
 10
799.9150864804926
 20
1211.532490525417
 30
0.0
 11
799.9150864804926
 21
1210.250404963919
 31
0.0
  0
SPLINE
  5
572E
330
1F
100
AcDbEntity
  8
AM_VIS
100
AcDbSpline
210
0.0
220
0.0
230
1.0
 70
     8
 71
     3
 72
     8
 73
     4
 74
     0
 42
0.0000000001
 43
0.0000000001
 40
0.0
 40
0.0
 40
0.0
 40
0.0
 40
80.0
 40
80.0
 40
80.0
 40
80.0
 10
799.989952790653
 20
1211.724335445203
 30
0.0
 10
799.940041893413
 20
1211.693141125503
 30
0.0
 10
799.9150864804926
 20
1211.629192795108
 30
0.0
 10
799.9150864804926
 20
1211.532490525417
 30
0.0
  0
SPLINE
  5
572F
330
1F
100
AcDbEntity
  8
AM_VIS
100
AcDbSpline
210
0.0
220
0.0
230
1.0
 70
     8
 71
     3
 72
     8
 73
     4
 74
     0
 42
0.0000000001
 43
0.0000000001
 40
0.0
 40
0.0
 40
0.0
 40
0.0
 40
80.0
 40
80.0
 40
80.0
 40
80.0
 10
800.2239100099043
 20
1211.757089455898
 30
0.0
 10
800.099132802504
 20
1211.750850549119
 30
0.0
 10
800.0211470389542
 20
1211.739932569354
 30
0.0
 10
799.989952790653
 20
1211.724335445203
 30
0.0
  0
SPLINE
  5
5730
330
1F
100
AcDbEntity
  8
AM_VIS
100
AcDbSpline
210
0.0
220
0.0
230
1.0
 70
     8
 71
     3
 72
     8
 73
     4
 74
     0
 42
0.0000000001
 43
0.0000000001
 40
0.0
 40
0.0
 40
0.0
 40
0.0
 40
80.0
 40
80.0
 40
80.0
 40
80.0
 10
800.7900864804925
 20
1211.672864856967
 30
0.0
 10
800.6278761180121
 20
1211.741492260349
 30
0.0
 10
800.4391506516155
 20
1211.769567126659
 30
0.0
 10
800.2239100099043
 20
1211.757089455898
 30
0.0
  0
LINE
  5
5731
330
1F
100
AcDbEntity
  8
AM_VIS
100
AcDbLine
 10
802.0628137532195
 20
1208.56591298531
 30
0.0
 11
802.0628137532195
 21
1208.472330097609
 31
0.0
  0
SPLINE
  5
5732
330
1F
100
AcDbEntity
  8
AM_VIS
100
AcDbSpline
210
0.0
220
0.0
230
1.0
 70
     8
 71
     3
 72
     8
 73
     4
 74
     0
 42
0.0000000001
 43
0.0000000001
 40
0.0
 40
0.0
 40
0.0
 40
0.0
 40
80.0
 40
80.0
 40
80.0
 40
80.0
 10
801.6229741810272
 20
1208.753078760711
 30
0.0
 10
801.6853627490284
 20
1208.656376491019
 30
0.0
 10
801.8319759159597
 20
1208.59398785162
 30
0.0
 10
802.0628137532195
 20
1208.56591298531
 30
0.0
  0
LINE
  5
5733
330
1F
100
AcDbEntity
  8
AM_VIS
100
AcDbLine
 10
800.6777870152516
 20
1210.156822076219
 30
0.0
 11
801.6229741810272
 21
1208.753078760711
 31
0.0
  0
SPLINE
  5
5734
330
1F
100
AcDbEntity
  8
AM_VIS
100
AcDbSpline
210
0.0
220
0.0
230
1.0
 70
     8
 71
     3
 72
     8
 73
     4
 74
     0
 42
0.0000000001
 43
0.0000000001
 40
0.0
 40
0.0
 40
0.0
 40
0.0
 40
80.0
 40
80.0
 40
80.0
 40
80.0
 10
801.2158886195299
 20
1210.348666996005
 30
0.0
 10
801.0911114121297
 20
1210.264442397074
 30
0.0
 10
800.9117442345029
 20
1210.20049406668
 30
0.0
 10
800.6777870152516
 20
1210.156822076219
 30
0.0
  0
SPLINE
  5
5735
330
1F
100
AcDbEntity
  8
AM_VIS
100
AcDbSpline
210
0.0
220
0.0
230
1.0
 70
     8
 71
     3
 72
     8
 73
     4
 74
     0
 42
0.0000000001
 43
0.0000000001
 40
0.0
 40
0.0
 40
0.0
 40
0.0
 40
80.0
 40
80.0
 40
80.0
 40
80.0
 10
801.5481078708669
 20
1211.013105498679
 30
0.0
 10
801.5481078708669
 20
1210.716759640028
 30
0.0
 10
801.4373680966215
 20
1210.495280162936
 30
0.0
 10
801.2158886195299
 20
1210.348666996005
 30
0.0
  0
SPLINE
  5
5736
330
1F
100
AcDbEntity
  8
AM_VIS
100
AcDbSpline
210
0.0
220
0.0
230
1.0
 70
     8
 71
     3
 72
     8
 73
     4
 74
     0
 42
0.0000000001
 43
0.0000000001
 40
0.0
 40
0.0
 40
0.0
 40
0.0
 40
80.0
 40
80.0
 40
80.0
 40
80.0
 10
801.1316640205993
 20
1211.766447744668
 30
0.0
 10
801.4092932303118
 20
1211.616715124347
 30
0.0
 10
801.5481078708669
 20
1211.365601018551
 30
0.0
 10
801.5481078708669
 20
1211.013105498679
 30
0.0
  0
SPLINE
  5
5737
330
1F
100
AcDbEntity
  8
AM_VIS
100
AcDbSpline
210
0.0
220
0.0
230
1.0
 70
     8
 71
     3
 72
     8
 73
     4
 74
     0
 42
0.0000000001
 43
0.0000000001
 40
0.0
 40
0.0
 40
0.0
 40
0.0
 40
80.0
 40
80.0
 40
80.0
 40
80.0
 10
800.4157549296904
 20
1211.916180364989
 30
0.0
 10
800.7058618815619
 20
1211.916180364989
 30
0.0
 10
800.9444982451984
 20
1211.866269467749
 30
0.0
 10
801.1316640205993
 20
1211.766447744668
 30
0.0
  0
LINE
  5
5738
330
1F
100
AcDbEntity
  8
AM_VIS
100
AcDbLine
 10
799.1711025232732
 20
1211.916180364989
 30
0.0
 11
800.4157549296904
 21
1211.916180364989
 31
0.0
  0
LINE
  5
5739
330
1F
100
AcDbEntity
  8
AM_VIS
100
AcDbLine
 10
799.1711025232732
 20
1211.822597477288
 30
0.0
 11
799.1711025232732
 21
1211.916180364989
 31
0.0
  0
SPLINE
  5
573A
330
1F
100
AcDbEntity
  8
AM_VIS
100
AcDbSpline
210
0.0
220
0.0
230
1.0
 70
     8
 71
     3
 72
     8
 73
     4
 74
     0
 42
0.0000000001
 43
0.0000000001
 40
0.0
 40
0.0
 40
0.0
 40
0.0
 40
80.0
 40
80.0
 40
80.0
 40
80.0
 10
799.5173592077651
 20
1211.700939723278
 30
0.0
 10
799.4612094751448
 20
1211.763328291278
 30
0.0
 10
799.3457905565149
 20
1211.803880899748
 30
0.0
 10
799.1711025232732
 20
1211.822597477288
 30
0.0
  0
SPLINE
  5
573B
330
1F
100
AcDbEntity
  8
AM_VIS
100
AcDbSpline
210
0.0
220
0.0
230
1.0
 70
     8
 71
     3
 72
     8
 73
     4
 74
     0
 42
0.0000000001
 43
0.0000000001
 40
0.0
 40
0.0
 40
0.0
 40
0.0
 40
80.0
 40
80.0
 40
80.0
 40
80.0
 10
799.6203003842358
 20
1211.29385416178
 30
0.0
 10
799.6203003128377
 20
1211.490378225951
 30
0.0
 10
799.585986611147
 20
1211.626073413117
 30
0.0
 10
799.5173592077651
 20
1211.700939723278
 30
0.0
  0
LINE
  5
573C
330
1F
100
AcDbEntity
  8
AM_VIS
100
AcDbLine
 10
799.6203003842358
 20
1209.150806033438
 30
0.0
 11
799.6203003842358
 21
1211.29385416178
 31
0.0
  0
SPLINE
  5
573D
330
1F
100
AcDbEntity
  8
AM_VIS
100
AcDbSpline
210
0.0
220
0.0
230
1.0
 70
     8
 71
     3
 72
     8
 73
     4
 74
     0
 42
0.0000000001
 43
0.0000000001
 40
0.0
 40
0.0
 40
0.0
 40
0.0
 40
80.0
 40
80.0
 40
80.0
 40
80.0
 10
799.5313966409201
 20
1208.715645605631
 30
0.0
 10
799.5906657555317
 20
1208.793631297782
 30
0.0
 10
799.6203003128377
 20
1208.938684773718
 30
0.0
 10
799.6203003842358
 20
1209.150806033438
 30
0.0
  0
SPLINE
  5
573E
330
1F
100
AcDbEntity
  8
AM_VIS
100
AcDbSpline
210
0.0
220
0.0
230
1.0
 70
     8
 71
     3
 72
     8
 73
     4
 74
     0
 42
0.0000000001
 43
0.0000000001
 40
0.0
 40
0.0
 40
0.0
 40
0.0
 40
80.0
 40
80.0
 40
80.0
 40
80.0
 10
799.1711025232732
 20
1208.56591298531
 30
0.0
 10
799.3520293918956
 20
1208.58462956285
 30
0.0
 10
799.4721274549103
 20
1208.634540460089
 30
0.0
 10
799.5313966409201
 20
1208.715645605631
 30
0.0
  0
LINE
  5
573F
330
1F
100
AcDbEntity
  8
AM_VIS
100
AcDbLine
 10
799.1711025232732
 20
1208.472330097609
 30
0.0
 11
799.1711025232732
 21
1208.56591298531
 31
0.0
  0
LINE
  5
5740
330
1F
100
AcDbEntity
  8
AM_VIS
100
AcDbLine
 10
800.3876800633801
 20
1208.56591298531
 30
0.0
 11
800.3876800633801
 21
1208.472330097609
 31
0.0
  0
SPLINE
  5
5741
330
1F
100
AcDbEntity
  8
AM_VIS
100
AcDbSpline
210
0.0
220
0.0
230
1.0
 70
     8
 71
     3
 72
     8
 73
     4
 74
     0
 42
0.0000000001
 43
0.0000000001
 40
0.0
 40
0.0
 40
0.0
 40
0.0
 40
80.0
 40
80.0
 40
80.0
 40
80.0
 10
800.0180276569629
 20
1208.69692902809
 30
0.0
 10
800.0835356069554
 20
1208.625182171319
 30
0.0
 10
800.2067531233599
 20
1208.581510180859
 30
0.0
 10
800.3876800633801
 20
1208.56591298531
 30
0.0
  0
SPLINE
  5
5742
330
1F
100
AcDbEntity
  8
AM_VIS
100
AcDbSpline
210
0.0
220
0.0
230
1.0
 70
     8
 71
     3
 72
     8
 73
     4
 74
     0
 42
0.0000000001
 43
0.0000000001
 40
0.0
 40
0.0
 40
0.0
 40
0.0
 40
80.0
 40
80.0
 40
80.0
 40
80.0
 10
799.9150864804926
 20
1209.085298012048
 30
0.0
 10
799.9150864804926
 20
1208.901251618638
 30
0.0
 10
799.9494001821833
 20
1208.771795338251
 30
0.0
 10
800.0180276569629
 20
1208.69692902809
 30
0.0
  0
LINE
  5
5743
330
1F
100
AcDbEntity
  8
AM_VIS
100
AcDbLine
 10
799.9150864804926
 20
1210.086634910443
 30
0.0
 11
799.9150864804926
 21
1209.085298012048
 31
0.0
  0
LINE
  5
5744
330
1F
100
AcDbEntity
  8
AM_VIS
100
AcDbLine
 10
800.3081346088348
 20
1210.105351487984
 30
0.0
 11
799.9150864804926
 21
1210.086634910443
 31
0.0
  0
LINE
  5
5745
330
1F
100
AcDbEntity
  8
AM_VIS
100
AcDbLine
 10
801.4170918280859
 20
1208.472330097609
 30
0.0
 11
800.3081346088348
 21
1210.105351487984
 31
0.0
  0
LINE
  5
5746
330
1F
100
AcDbEntity
  8
AM_VIS
100
AcDbLine
 10
841.0463030579615
 20
1209.152756196144
 30
0.0
 11
840.8039595160174
 21
1208.472330097609
 31
0.0
  0
LINE
  5
5747
330
1F
100
AcDbEntity
  8
AM_VIS
100
AcDbLine
 10
840.9530940033675
 20
1209.152756196144
 30
0.0
 11
841.0463030579615
 21
1209.152756196144
 31
0.0
  0
SPLINE
  5
5748
330
1F
100
AcDbEntity
  8
AM_VIS
100
AcDbSpline
210
0.0
220
0.0
230
1.0
 70
     8
 71
     3
 72
     8
 73
     4
 74
     0
 42
0.0000000001
 43
0.0000000001
 40
0.0
 40
0.0
 40
0.0
 40
0.0
 40
80.0
 40
80.0
 40
80.0
 40
80.0
 10
840.7387131778021
 20
1208.817203599606
 30
0.0
 10
840.7915316183673
 20
1208.863808055791
 30
0.0
 10
840.8629918698519
 20
1208.975658992416
 30
0.0
 10
840.9530940033675
 20
1209.152756196144
 30
0.0
  0
SPLINE
  5
5749
330
1F
100
AcDbEntity
  8
AM_VIS
100
AcDbSpline
210
0.0
220
0.0
230
1.0
 70
     8
 71
     3
 72
     8
 73
     4
 74
     0
 42
0.0000000001
 43
0.0000000001
 40
0.0
 40
0.0
 40
0.0
 40
0.0
 40
80.0
 40
80.0
 40
80.0
 40
80.0
 10
840.5010300885876
 20
1208.728654997742
 30
0.0
 10
840.603560048641
 20
1208.728654997742
 30
0.0
 10
840.6827877450457
 20
1208.75817117466
 30
0.0
 10
840.7387131778021
 20
1208.817203599606
 30
0.0
  0
LINE
  5
574A
330
1F
100
AcDbEntity
  8
AM_VIS
100
AcDbLine
 10
839.457088677136
 20
1208.728654997742
 30
0.0
 11
840.5010300885876
 21
1208.728654997742
 31
0.0
  0
LINE
  5
574B
330
1F
100
AcDbEntity
  8
AM_VIS
100
AcDbLine
 10
840.3285933375888
 20
1209.791238220112
 30
0.0
 11
839.457088677136
 21
1208.728654997742
 31
0.0
  0
SPLINE
  5
574C
330
1F
100
AcDbEntity
  8
AM_VIS
100
AcDbSpline
210
0.0
220
0.0
230
1.0
 70
     8
 71
     3
 72
     8
 73
     4
 74
     0
 42
0.0000000001
 43
0.0000000001
 40
0.0
 40
0.0
 40
0.0
 40
0.0
 40
80.0
 40
80.0
 40
80.0
 40
80.0
 10
840.8179408742064
 20
1211.04956045713
 30
0.0
 10
840.8179408742064
 20
1210.605263916157
 30
0.0
 10
840.6548250286675
 20
1210.185823170485
 30
0.0
 10
840.3285933375888
 20
1209.791238220112
 30
0.0
  0
SPLINE
  5
574D
330
1F
100
AcDbEntity
  8
AM_VIS
100
AcDbSpline
210
0.0
220
0.0
230
1.0
 70
     8
 71
     3
 72
     8
 73
     4
 74
     0
 42
0.0000000001
 43
0.0000000001
 40
0.0
 40
0.0
 40
0.0
 40
0.0
 40
80.0
 40
80.0
 40
80.0
 40
80.0
 10
840.5662764268033
 20
1211.729986555665
 30
0.0
 10
840.7340527250724
 20
1211.549782359746
 30
0.0
 10
840.8179408742064
 20
1211.32297363653
 30
0.0
 10
840.8179408742064
 20
1211.04956045713
 30
0.0
  0
SPLINE
  5
574E
330
1F
100
AcDbEntity
  8
AM_VIS
100
AcDbSpline
210
0.0
220
0.0
230
1.0
 70
     8
 71
     3
 72
     8
 73
     4
 74
     0
 42
0.0000000001
 43
0.0000000001
 40
0.0
 40
0.0
 40
0.0
 40
0.0
 40
80.0
 40
80.0
 40
80.0
 40
80.0
 10
840.0023616465102
 20
1211.972330097609
 30
0.0
 10
840.2229563853449
 20
1211.972330097609
 30
0.0
 10
840.4109279550715
 20
1211.891548869553
 30
0.0
 10
840.5662764268033
 20
1211.729986555665
 30
0.0
  0
SPLINE
  5
574F
330
1F
100
AcDbEntity
  8
AM_VIS
100
AcDbSpline
210
0.0
220
0.0
230
1.0
 70
     8
 71
     3
 72
     8
 73
     4
 74
     0
 42
0.0000000001
 43
0.0000000001
 40
0.0
 40
0.0
 40
0.0
 40
0.0
 40
80.0
 40
80.0
 40
80.0
 40
80.0
 10
839.4431073189469
 20
1211.757949272043
 30
0.0
 10
839.6015627117565
 20
1211.900869775012
 30
0.0
 10
839.7879808209443
 20
1211.972330097609
 30
0.0
 10
840.0023616465102
 20
1211.972330097609
 30
0.0
  0
SPLINE
  5
5750
330
1F
100
AcDbEntity
  8
AM_VIS
100
AcDbSpline
210
0.0
220
0.0
230
1.0
 70
     8
 71
     3
 72
     8
 73
     4
 74
     0
 42
0.0000000001
 43
0.0000000001
 40
0.0
 40
0.0
 40
0.0
 40
0.0
 40
80.0
 40
80.0
 40
80.0
 40
80.0
 10
839.0656106478415
 20
1210.970332760725
 30
0.0
 10
839.1277499938667
 20
1211.324527168182
 30
0.0
 10
839.2535822175684
 20
1211.587065981583
 30
0.0
 10
839.4431073189469
 20
1211.757949272043
 30
0.0
  0
LINE
  5
5751
330
1F
100
AcDbEntity
  8
AM_VIS
100
AcDbLine
 10
839.1588197024354
 20
1210.956351402536
 30
0.0
 11
839.0656106478415
 21
1210.970332760725
 31
0.0
  0
SPLINE
  5
5752
330
1F
100
AcDbEntity
  8
AM_VIS
100
AcDbSpline
210
0.0
220
0.0
230
1.0
 70
     8
 71
     3
 72
     8
 73
     4
 74
     0
 42
0.0000000001
 43
0.0000000001
 40
0.0
 40
0.0
 40
0.0
 40
0.0
 40
80.0
 40
80.0
 40
80.0
 40
80.0
 10
839.363879622542
 20
1211.450359391883
 30
0.0
 10
839.3265960007045
 20
1211.388219974745
 30
0.0
 10
839.2582426702981
 20
1211.223550668667
 30
0.0
 10
839.1588197024354
 20
1210.956351402536
 30
0.0
  0
SPLINE
  5
5753
330
1F
100
AcDbEntity
  8
AM_VIS
100
AcDbSpline
210
0.0
220
0.0
230
1.0
 70
     8
 71
     3
 72
     8
 73
     4
 74
     0
 42
0.0000000001
 43
0.0000000001
 40
0.0
 40
0.0
 40
0.0
 40
0.0
 40
80.0
 40
80.0
 40
80.0
 40
80.0
 10
839.8019621791334
 20
1211.725326102935
 30
0.0
 10
839.6217579832143
 20
1211.725326102935
 30
0.0
 10
839.4757304880547
 20
1211.633670508881
 30
0.0
 10
839.363879622542
 20
1211.450359391883
 30
0.0
  0
SPLINE
  5
5754
330
1F
100
AcDbEntity
  8
AM_VIS
100
AcDbSpline
210
0.0
220
0.0
230
1.0
 70
     8
 71
     3
 72
     8
 73
     4
 74
     0
 42
0.0000000001
 43
0.0000000001
 40
0.0
 40
0.0
 40
0.0
 40
0.0
 40
80.0
 40
80.0
 40
80.0
 40
80.0
 10
840.389179223075
 20
1211.413075770046
 30
0.0
 10
840.2524725622617
 20
1211.62124261123
 30
0.0
 10
840.0567335476146
 20
1211.725326102935
 30
0.0
 10
839.8019621791334
 20
1211.725326102935
 30
0.0
  0
SPLINE
  5
5755
330
1F
100
AcDbEntity
  8
AM_VIS
100
AcDbSpline
210
0.0
220
0.0
230
1.0
 70
     8
 71
     3
 72
     8
 73
     4
 74
     0
 42
0.0000000001
 43
0.0000000001
 40
0.0
 40
0.0
 40
0.0
 40
0.0
 40
80.0
 40
80.0
 40
80.0
 40
80.0
 10
840.5429741631548
 20
1210.867802800672
 30
0.0
 10
840.555401989692
 20
1211.063541815319
 30
0.0
 10
840.5041370096652
 20
1211.245299471777
 30
0.0
 10
840.389179223075
 20
1211.413075770046
 30
0.0
  0
SPLINE
  5
5756
330
1F
100
AcDbEntity
  8
AM_VIS
100
AcDbSpline
210
0.0
220
0.0
230
1.0
 70
     8
 71
     3
 72
     8
 73
     4
 74
     0
 42
0.0000000001
 43
0.0000000001
 40
0.0
 40
0.0
 40
0.0
 40
0.0
 40
80.0
 40
80.0
 40
80.0
 40
80.0
 10
839.8625480646193
 20
1209.483648339953
 30
0.0
 10
840.2913097157513
 20
1210.008725966756
 30
0.0
 10
840.5181183678545
 20
1210.470110786996
 30
0.0
 10
840.5429741631548
 20
1210.867802800672
 30
0.0
  0
LINE
  5
5757
330
1F
100
AcDbEntity
  8
AM_VIS
100
AcDbLine
 10
839.0516292896524
 20
1208.495632361258
 30
0.0
 11
839.8625480646193
 21
1209.483648339953
 31
0.0
  0
LINE
  5
5758
330
1F
100
AcDbEntity
  8
AM_VIS
100
AcDbLine
 10
839.0516292896524
 20
1208.472330097609
 30
0.0
 11
839.0516292896524
 21
1208.495632361258
 31
0.0
  0
SPLINE
  5
5759
330
1F
100
AcDbEntity
  8
AM_VIS
100
AcDbSpline
210
0.0
220
0.0
230
1.0
 70
     8
 71
     3
 72
     8
 73
     4
 74
     0
 42
0.0000000001
 43
0.0000000001
 40
0.0
 40
0.0
 40
0.0
 40
0.0
 40
80.0
 40
80.0
 40
80.0
 40
80.0
 10
838.0379808209443
 20
1211.012276835292
 30
0.0
 10
838.0379807498313
 20
1211.33540153418
 30
0.0
 10
837.8950602468629
 20
1211.551335820285
 30
0.0
 10
837.6092191698123
 20
1211.66007976472
 30
0.0
  0
SPLINE
  5
575A
330
1F
100
AcDbEntity
  8
AM_VIS
100
AcDbSpline
210
0.0
220
0.0
230
1.0
 70
     8
 71
     3
 72
     8
 73
     4
 74
     0
 42
0.0000000001
 43
0.0000000001
 40
0.0
 40
0.0
 40
0.0
 40
0.0
 40
80.0
 40
80.0
 40
80.0
 40
80.0
 10
837.5486332843262
 20
1210.341171642216
 30
0.0
 10
837.874864904292
 20
1210.456129428807
 30
0.0
 10
838.0379807498313
 20
1210.679831159832
 30
0.0
 10
838.0379808209443
 20
1211.012276835292
 30
0.0
  0
SPLINE
  5
575B
330
1F
100
AcDbEntity
  8
AM_VIS
100
AcDbSpline
210
0.0
220
0.0
230
1.0
 70
     8
 71
     3
 72
     8
 73
     4
 74
     0
 42
0.0000000001
 43
0.0000000001
 40
0.0
 40
0.0
 40
0.0
 40
0.0
 40
80.0
 40
80.0
 40
80.0
 40
80.0
 10
836.7377145093598
 20
1210.243302134893
 30
0.0
 10
837.1074437355444
 20
1210.246409055971
 30
0.0
 10
837.3777499938666
 20
1210.279032225078
 30
0.0
 10
837.5486332843262
 20
1210.341171642216
 30
0.0
  0
LINE
  5
575C
330
1F
100
AcDbEntity
  8
AM_VIS
100
AcDbLine
 10
836.7377145093598
 20
1211.520266182829
 30
0.0
 11
836.7377145093598
 21
1210.243302134893
 31
0.0
  0
SPLINE
  5
575D
330
1F
100
AcDbEntity
  8
AM_VIS
100
AcDbSpline
210
0.0
220
0.0
230
1.0
 70
     8
 71
     3
 72
     8
 73
     4
 74
     0
 42
0.0000000001
 43
0.0000000001
 40
0.0
 40
0.0
 40
0.0
 40
0.0
 40
80.0
 40
80.0
 40
80.0
 40
80.0
 10
836.812281753035
 20
1211.711344744746
 30
0.0
 10
836.7625702335473
 20
1211.680275036177
 30
0.0
 10
836.7377145093598
 20
1211.6165821585
 30
0.0
 10
836.7377145093598
 20
1211.520266182829
 30
0.0
  0
SPLINE
  5
575E
330
1F
100
AcDbEntity
  8
AM_VIS
100
AcDbSpline
210
0.0
220
0.0
230
1.0
 70
     8
 71
     3
 72
     8
 73
     4
 74
     0
 42
0.0000000001
 43
0.0000000001
 40
0.0
 40
0.0
 40
0.0
 40
0.0
 40
80.0
 40
80.0
 40
80.0
 40
80.0
 10
837.0453043895198
 20
1211.743967913854
 30
0.0
 10
836.9210256263565
 20
1211.737753929473
 30
0.0
 10
836.8433513904909
 20
1211.726879563474
 30
0.0
 10
836.812281753035
 20
1211.711344744746
 30
0.0
  0
SPLINE
  5
575F
330
1F
100
AcDbEntity
  8
AM_VIS
100
AcDbSpline
210
0.0
220
0.0
230
1.0
 70
     8
 71
     3
 72
     8
 73
     4
 74
     0
 42
0.0000000001
 43
0.0000000001
 40
0.0
 40
0.0
 40
0.0
 40
0.0
 40
80.0
 40
80.0
 40
80.0
 40
80.0
 10
837.6092191698123
 20
1211.66007976472
 30
0.0
 10
837.4476567848121
 20
1211.728433024013
 30
0.0
 10
837.2596852150852
 20
1211.756395740392
 30
0.0
 10
837.0453043895198
 20
1211.743967913854
 30
0.0
  0
LINE
  5
5760
330
1F
100
AcDbEntity
  8
AM_VIS
100
AcDbLine
 10
838.8768623122894
 20
1208.565539152203
 30
0.0
 11
838.8768623122894
 21
1208.472330097609
 31
0.0
  0
SPLINE
  5
5761
330
1F
100
AcDbEntity
  8
AM_VIS
100
AcDbSpline
210
0.0
220
0.0
230
1.0
 70
     8
 71
     3
 72
     8
 73
     4
 74
     0
 42
0.0000000001
 43
0.0000000001
 40
0.0
 40
0.0
 40
0.0
 40
0.0
 40
80.0
 40
80.0
 40
80.0
 40
80.0
 10
838.438779755698
 20
1208.751957261391
 30
0.0
 10
838.5009191017232
 20
1208.655641285719
 30
0.0
 10
838.6469465968824
 20
1208.593501868581
 30
0.0
 10
838.8768623122894
 20
1208.565539152203
 30
0.0
  0
LINE
  5
5762
330
1F
100
AcDbEntity
  8
AM_VIS
100
AcDbLine
 10
837.4973683042997
 20
1210.150093080299
 30
0.0
 11
838.438779755698
 21
1208.751957261391
 31
0.0
  0
SPLINE
  5
5763
330
1F
100
AcDbEntity
  8
AM_VIS
100
AcDbSpline
210
0.0
220
0.0
230
1.0
 70
     8
 71
     3
 72
     8
 73
     4
 74
     0
 42
0.0000000001
 43
0.0000000001
 40
0.0
 40
0.0
 40
0.0
 40
0.0
 40
80.0
 40
80.0
 40
80.0
 40
80.0
 10
838.0333203682146
 20
1210.341171642216
 30
0.0
 10
837.9090416050519
 20
1210.257283493082
 30
0.0
 10
837.7303909407844
 20
1210.193590615405
 30
0.0
 10
837.4973683042997
 20
1210.150093080299
 30
0.0
  0
SPLINE
  5
5764
330
1F
100
AcDbEntity
  8
AM_VIS
100
AcDbSpline
210
0.0
220
0.0
230
1.0
 70
     8
 71
     3
 72
     8
 73
     4
 74
     0
 42
0.0000000001
 43
0.0000000001
 40
0.0
 40
0.0
 40
0.0
 40
0.0
 40
80.0
 40
80.0
 40
80.0
 40
80.0
 10
838.3642125120228
 20
1211.002955929833
 30
0.0
 10
838.3642125120228
 20
1210.70779387621
 30
0.0
 10
838.2539151070494
 20
1210.487199137376
 30
0.0
 10
838.0333203682146
 20
1210.341171642216
 30
0.0
  0
SPLINE
  5
5765
330
1F
100
AcDbEntity
  8
AM_VIS
100
AcDbSpline
210
0.0
220
0.0
230
1.0
 70
     8
 71
     3
 72
     8
 73
     4
 74
     0
 42
0.0000000001
 43
0.0000000001
 40
0.0
 40
0.0
 40
0.0
 40
0.0
 40
80.0
 40
80.0
 40
80.0
 40
80.0
 10
837.9494322190801
 20
1211.753288819314
 30
0.0
 10
838.2259523906711
 20
1211.604154331963
 30
0.0
 10
838.3642125120228
 20
1211.354043345099
 30
0.0
 10
838.3642125120228
 20
1211.002955929833
 30
0.0
  0
SPLINE
  5
5766
330
1F
100
AcDbEntity
  8
AM_VIS
100
AcDbSpline
210
0.0
220
0.0
230
1.0
 70
     8
 71
     3
 72
     8
 73
     4
 74
     0
 42
0.0000000001
 43
0.0000000001
 40
0.0
 40
0.0
 40
0.0
 40
0.0
 40
80.0
 40
80.0
 40
80.0
 40
80.0
 10
837.2363829514371
 20
1211.902423306664
 30
0.0
 10
837.5253310206778
 20
1211.902423306664
 30
0.0
 10
837.7630141098922
 20
1211.852711787176
 30
0.0
 10
837.9494322190801
 20
1211.753288819314
 30
0.0
  0
LINE
  5
5767
330
1F
100
AcDbEntity
  8
AM_VIS
100
AcDbLine
 10
835.9967025253384
 20
1211.902423306664
 30
0.0
 11
837.2363829514371
 21
1211.902423306664
 31
0.0
  0
LINE
  5
5768
330
1F
100
AcDbEntity
  8
AM_VIS
100
AcDbLine
 10
835.9967025253384
 20
1211.80921425207
 30
0.0
 11
835.9967025253384
 21
1211.902423306664
 31
0.0
  0
SPLINE
  5
5769
330
1F
100
AcDbEntity
  8
AM_VIS
100
AcDbSpline
210
0.0
220
0.0
230
1.0
 70
     8
 71
     3
 72
     8
 73
     4
 74
     0
 42
0.0000000001
 43
0.0000000001
 40
0.0
 40
0.0
 40
0.0
 40
0.0
 40
80.0
 40
80.0
 40
80.0
 40
80.0
 10
836.3415760273358
 20
1211.688042481098
 30
0.0
 10
836.2856505945794
 20
1211.750181827123
 30
0.0
 10
836.1706927368761
 20
1211.790572441151
 30
0.0
 10
835.9967025253384
 20
1211.80921425207
 30
0.0
  0
SPLINE
  5
576A
330
1F
100
AcDbEntity
  8
AM_VIS
100
AcDbSpline
210
0.0
220
0.0
230
1.0
 70
     8
 71
     3
 72
     8
 73
     4
 74
     0
 42
0.0000000001
 43
0.0000000001
 40
0.0
 40
0.0
 40
0.0
 40
0.0
 40
80.0
 40
80.0
 40
80.0
 40
80.0
 10
836.4441059873891
 20
1211.282583093615
 30
0.0
 10
836.4441059162761
 20
1211.478322108261
 30
0.0
 10
836.4099292866292
 20
1211.613475237423
 30
0.0
 10
836.3415760273358
 20
1211.688042481098
 30
0.0
  0
LINE
  5
576B
330
1F
100
AcDbEntity
  8
AM_VIS
100
AcDbLine
 10
836.4441059873891
 20
1209.148095743415
 30
0.0
 11
836.4441059873891
 21
1211.282583093615
 31
0.0
  0
SPLINE
  5
576C
330
1F
100
AcDbEntity
  8
AM_VIS
100
AcDbSpline
210
0.0
220
0.0
230
1.0
 70
     8
 71
     3
 72
     8
 73
     4
 74
     0
 42
0.0000000001
 43
0.0000000001
 40
0.0
 40
0.0
 40
0.0
 40
0.0
 40
80.0
 40
80.0
 40
80.0
 40
80.0
 10
836.3555573855249
 20
1208.714673639553
 30
0.0
 10
836.4145897393589
 20
1208.792347804306
 30
0.0
 10
836.4441059162761
 20
1208.936821838927
 30
0.0
 10
836.4441059873891
 20
1209.148095743415
 30
0.0
  0
SPLINE
  5
576D
330
1F
100
AcDbEntity
  8
AM_VIS
100
AcDbSpline
210
0.0
220
0.0
230
1.0
 70
     8
 71
     3
 72
     8
 73
     4
 74
     0
 42
0.0000000001
 43
0.0000000001
 40
0.0
 40
0.0
 40
0.0
 40
0.0
 40
80.0
 40
80.0
 40
80.0
 40
80.0
 10
835.9967025253384
 20
1208.565539152203
 30
0.0
 10
836.1769066501448
 20
1208.584180963122
 30
0.0
 10
836.2965249605778
 20
1208.633892482609
 30
0.0
 10
836.3555573855249
 20
1208.714673639553
 30
0.0
  0
LINE
  5
576E
330
1F
100
AcDbEntity
  8
AM_VIS
100
AcDbLine
 10
835.9967025253384
 20
1208.472330097609
 30
0.0
 11
835.9967025253384
 21
1208.565539152203
 31
0.0
  0
LINE
  5
576F
330
1F
100
AcDbEntity
  8
AM_VIS
100
AcDbLine
 10
837.208420235059
 20
1208.565539152203
 30
0.0
 11
837.208420235059
 21
1208.472330097609
 31
0.0
  0
SPLINE
  5
5770
330
1F
100
AcDbEntity
  8
AM_VIS
100
AcDbSpline
210
0.0
220
0.0
230
1.0
 70
     8
 71
     3
 72
     8
 73
     4
 74
     0
 42
0.0000000001
 43
0.0000000001
 40
0.0
 40
0.0
 40
0.0
 40
0.0
 40
80.0
 40
80.0
 40
80.0
 40
80.0
 10
836.8402444694131
 20
1208.696031828634
 30
0.0
 10
836.9054907365159
 20
1208.62457157715
 30
0.0
 10
837.0282160391395
 20
1208.581074042044
 30
0.0
 10
837.208420235059
 20
1208.565539152203
 30
0.0
  0
SPLINE
  5
5771
330
1F
100
AcDbEntity
  8
AM_VIS
100
AcDbSpline
210
0.0
220
0.0
230
1.0
 70
     8
 71
     3
 72
     8
 73
     4
 74
     0
 42
0.0000000001
 43
0.0000000001
 40
0.0
 40
0.0
 40
0.0
 40
0.0
 40
80.0
 40
80.0
 40
80.0
 40
80.0
 10
836.7377145093598
 20
1209.082849405199
 30
0.0
 10
836.7377145093598
 20
1208.899538217089
 30
0.0
 10
836.7718911390063
 20
1208.770599072309
 30
0.0
 10
836.8402444694131
 20
1208.696031828634
 30
0.0
  0
LINE
  5
5772
330
1F
100
AcDbEntity
  8
AM_VIS
100
AcDbLine
 10
836.7377145093598
 20
1210.080186289353
 30
0.0
 11
836.7377145093598
 21
1209.082849405199
 31
0.0
  0
LINE
  5
5773
330
1F
100
AcDbEntity
  8
AM_VIS
100
AcDbLine
 10
837.1291925386541
 20
1210.098828100272
 30
0.0
 11
836.7377145093598
 21
1210.080186289353
 31
0.0
  0
LINE
  5
5774
330
1F
100
AcDbEntity
  8
AM_VIS
100
AcDbLine
 10
838.2337198355914
 20
1208.472330097609
 30
0.0
 11
837.1291925386541
 21
1210.098828100272
 31
0.0
  0
ENDSEC
  0
SECTION
  2
OBJECTS
  0
DICTIONARY
  5
C
330
0
100
AcDbDictionary
281
     1
  3
ACAD_COLOR
350
BE
  3
ACAD_GROUP
350
D
  3
ACAD_LAYOUT
350
1A
  3
ACAD_MATERIAL
350
BD
  3
ACAD_MLINESTYLE
350
17
  3
ACAD_PLOTSETTINGS
350
19
  3
ACAD_PLOTSTYLENAME
350
E
  3
ACAD_TABLESTYLE
350
11A
  3
ACDBHEADERROUNDTRIPXREC
350
57D2
  3
AcDbVariableDictionary
350
94
  3
AcmDictionary
350
5B
  3
AMG
350
41
  3
AMGSNAPSETTINGS
350
1B8
  3
DWGPROPS
350
57D1
  0
DICTIONARY
  5
3F9
330
2
100
AcDbDictionary
280
     1
281
     1
  3
ACAD_LAYERFILTERS
360
5406
  3
ACAD_LAYERSTATES
360
A25
  3
ACLYDICTIONARY
360
5405
  0
DICTIONARY
  5
8F
330
1F
100
AcDbDictionary
280
     1
281
     1
  0
DICTIONARY
  5
4F51
330
4F44
100
AcDbDictionary
280
     1
281
     1
  3
ACAD_DIMASSOC
360
4F52
  0
DICTIONARY
  5
4F77
330
4F6A
100
AcDbDictionary
280
     1
281
     1
  3
ACAD_DIMASSOC
360
4F78
  0
DICTIONARY
  5
4F9D
330
4F90
100
AcDbDictionary
280
     1
281
     1
  3
ACAD_DIMASSOC
360
4F9E
  0
DICTIONARY
  5
4FC3
330
4FB6
100
AcDbDictionary
280
     1
281
     1
  3
ACAD_DIMASSOC
360
4FC4
  0
DICTIONARY
  5
5011
330
5004
100
AcDbDictionary
280
     1
281
     1
  3
ACAD_DIMASSOC
360
5012
  0
DICTIONARY
  5
5037
330
502A
100
AcDbDictionary
280
     1
281
     1
  3
ACAD_DIMASSOC
360
5038
  0
DICTIONARY
  5
505D
330
5050
100
AcDbDictionary
280
     1
281
     1
  3
ACAD_DIMASSOC
360
505E
  0
DICTIONARY
  5
5083
330
5076
100
AcDbDictionary
280
     1
281
     1
  3
ACAD_DIMASSOC
360
5084
  0
DICTIONARY
  5
50A9
330
509C
100
AcDbDictionary
280
     1
281
     1
  3
ACAD_DIMASSOC
360
50AA
  0
DICTIONARY
  5
50CF
330
50C2
100
AcDbDictionary
280
     1
281
     1
  3
ACAD_DIMASSOC
360
50D0
  0
DICTIONARY
  5
50F5
330
50E8
100
AcDbDictionary
280
     1
281
     1
  3
ACAD_DIMASSOC
360
50F6
  0
DICTIONARY
  5
511B
330
510E
100
AcDbDictionary
280
     1
281
     1
  3
ACAD_DIMASSOC
360
511C
  0
DICTIONARY
  5
5141
330
5134
100
AcDbDictionary
280
     1
281
     1
  3
ACAD_DIMASSOC
360
5142
  0
DICTIONARY
  5
5169
330
515A
100
AcDbDictionary
280
     1
281
     1
  3
ACAD_DIMASSOC
360
516A
  0
DICTIONARY
  5
5193
330
5184
100
AcDbDictionary
280
     1
281
     1
  3
ACAD_DIMASSOC
360
5194
  0
DICTIONARY
  5
BE
102
{ACAD_REACTORS
330
C
102
}
330
C
100
AcDbDictionary
281
     1
  0
DICTIONARY
  5
D
102
{ACAD_REACTORS
330
C
102
}
330
C
100
AcDbDictionary
281
     1
  0
DICTIONARY
  5
1A
102
{ACAD_REACTORS
330
C
102
}
330
C
100
AcDbDictionary
281
     1
  3
Model
350
22
  3
配置1
350
1E
  3
配置2
350
26
  0
DICTIONARY
  5
BD
102
{ACAD_REACTORS
330
C
102
}
330
C
100
AcDbDictionary
281
     1
  0
DICTIONARY
  5
17
102
{ACAD_REACTORS
330
C
102
}
330
C
100
AcDbDictionary
281
     1
  3
Standard
350
18
  0
DICTIONARY
  5
19
102
{ACAD_REACTORS
330
C
102
}
330
C
100
AcDbDictionary
281
     1
  0
ACDBDICTIONARYWDFLT
  5
E
102
{ACAD_REACTORS
330
C
102
}
330
C
100
AcDbDictionary
281
     1
  3
Normal
350
F
100
AcDbDictionaryWithDefault
340
F
  0
DICTIONARY
  5
11A
102
{ACAD_REACTORS
330
C
102
}
330
C
100
AcDbDictionary
281
     1
  3
Standard
350
11B
  0
DICTIONARY
  5
57D2
102
{ACAD_REACTORS
330
C
102
}
330
C
100
AcDbDictionary
281
     1
  0
DICTIONARY
  5
94
102
{ACAD_REACTORS
330
C
102
}
330
C
100
AcDbDictionary
281
     1
  3
CTABLESTYLE
350
138
  3
DIMASSOC
350
96
  3
INDEXCTL
350
95
  3
PROJECTNAME
350
4279
  0
DICTIONARY
  5
5B
102
{ACAD_REACTORS
330
C
102
}
330
C
100
AcDbDictionary
281
     1
  3
AcmBOM
350
1B5
  3
AcmStdDictionary
350
61
  3
AMDTSECTSYM_ARROWCOLOR
350
123
  0
DICTIONARY
  5
41
102
{ACAD_REACTORS
330
C
102
}
330
C
100
AcDbDictionary
281
     1
  0
DICTIONARY
  5
1B8
102
{ACAD_REACTORS
330
C
102
}
330
C
100
AcDbDictionary
281
     1
  0
XRECORD
  5
57D1
102
{ACAD_REACTORS
330
C
102
}
330
C
100
AcDbXrecord
280
     1
  1
DWGPROPS COOKIE
  2

  3

  4

  6

  7

  8

  9

300
AmdtFileType=84
301
=
302
=
303
=
304
=
305
=
306
=
307
=
308
=
309
=
 40
0.3147422337962963
 41
2453836.381385081
 42
2454789.611106713
  1

 90
        1
  0
DICTIONARY
  5
5406
102
{ACAD_REACTORS
330
3F9
102
}
330
3F9
100
AcDbDictionary
281
     1
  0
DICTIONARY
  5
A25
102
{ACAD_REACTORS
330
3F9
102
}
330
3F9
100
AcDbDictionary
281
     1
  0
DICTIONARY
  5
5405
102
{ACAD_REACTORS
330
3F9
102
}
330
3F9
100
AcDbDictionary
281
     1
1001
ACAD
1000
<All
  0
DIMASSOC
  5
4F52
102
{ACAD_REACTORS
330
4F51
102
}
330
4F51
100
AcDbDimAssoc
330
4F44
 90
        3
 70
     0
 71
     0
  1
AcDbOsnapPointRef
 72
     1
331
4F04
 73
     0
 91
        0
 40
0.0
 10
0.0
 20
0.0
 30
2.000000000000000E+50
 75
     0
  1
AcDbOsnapPointRef
 72
     1
331
4F08
 73
     0
 91
        0
 40
0.0
 10
0.0
 20
0.0
 30
2.000000000000000E+50
 75
     0
  0
DIMASSOC
  5
4F78
102
{ACAD_REACTORS
330
4F77
102
}
330
4F77
100
AcDbDimAssoc
330
4F6A
 90
        3
 70
     0
 71
     0
  1
AcDbOsnapPointRef
 72
     1
331
4F08
 73
     0
 91
        0
 40
0.0
 10
0.0
 20
0.0
 30
2.000000000000000E+50
 75
     0
  1
AcDbOsnapPointRef
 72
     1
331
4F0C
 73
     0
 91
        0
 40
0.0
 10
0.0
 20
0.0
 30
2.000000000000000E+50
 75
     0
  0
DIMASSOC
  5
4F9E
102
{ACAD_REACTORS
330
4F9D
102
}
330
4F9D
100
AcDbDimAssoc
330
4F90
 90
        3
 70
     0
 71
     0
  1
AcDbOsnapPointRef
 72
    13
331
4C48
 73
     0
 91
        0
 40
0.0
 10
0.0
 20
0.0
 30
2.000000000000000E+50
 75
     0
  1
AcDbOsnapPointRef
 72
     1
331
4EFC
 73
     0
 91
        0
 40
0.0
 10
0.0
 20
0.0
 30
2.000000000000000E+50
 75
     0
  0
DIMASSOC
  5
4FC4
102
{ACAD_REACTORS
330
4FC3
102
}
330
4FC3
100
AcDbDimAssoc
330
4FB6
 90
        3
 70
     0
 71
     0
  1
AcDbOsnapPointRef
 72
     1
331
4EFC
 73
     0
 91
        0
 40
0.0
 10
0.0
 20
0.0
 30
2.000000000000000E+50
 75
     0
  1
AcDbOsnapPointRef
 72
     1
331
4F00
 73
     0
 91
        0
 40
0.0
 10
0.0
 20
0.0
 30
2.000000000000000E+50
 75
     0
  0
DIMASSOC
  5
5012
102
{ACAD_REACTORS
330
5011
102
}
330
5011
100
AcDbDimAssoc
330
5004
 90
        3
 70
     0
 71
     0
  1
AcDbOsnapPointRef
 72
    13
331
4C48
 73
     0
 91
        0
 40
0.0
 10
0.0
 20
0.0
 30
2.000000000000000E+50
 75
     0
  1
AcDbOsnapPointRef
 72
     1
331
4C99
 73
     0
 91
        0
 40
0.0
 10
0.0
 20
0.0
 30
2.000000000000000E+50
 75
     0
  0
DIMASSOC
  5
5038
102
{ACAD_REACTORS
330
5037
102
}
330
5037
100
AcDbDimAssoc
330
502A
 90
        3
 70
     0
 71
     0
  1
AcDbOsnapPointRef
 72
     1
331
4C99
 73
     0
 91
        0
 40
0.0
 10
0.0
 20
0.0
 30
2.000000000000000E+50
 75
     0
  1
AcDbOsnapPointRef
 72
     1
331
4C98
 73
     0
 91
        0
 40
0.0
 10
0.0
 20
0.0
 30
2.000000000000000E+50
 75
     0
  0
DIMASSOC
  5
505E
102
{ACAD_REACTORS
330
505D
102
}
330
505D
100
AcDbDimAssoc
330
5050
 90
        3
 70
     0
 71
     0
  1
AcDbOsnapPointRef
 72
    13
331
4EC4
 73
     0
 91
        0
 40
0.0
 10
0.0
 20
0.0
 30
2.000000000000000E+50
 75
     0
  1
AcDbOsnapPointRef
 72
     1
331
4EF7
 73
     0
 91
        0
 40
0.0
 10
0.0
 20
0.0
 30
2.000000000000000E+50
 75
     0
  0
DIMASSOC
  5
5084
102
{ACAD_REACTORS
330
5083
102
}
330
5083
100
AcDbDimAssoc
330
5076
 90
        3
 70
     0
 71
     0
  1
AcDbOsnapPointRef
 72
     1
331
4F23
 73
     0
 91
        0
 40
0.0
 10
0.0
 20
0.0
 30
2.000000000000000E+50
 75
     0
  1
AcDbOsnapPointRef
 72
     1
331
4F17
 73
     0
 91
        0
 40
0.0
 10
0.0
 20
0.0
 30
2.000000000000000E+50
 75
     0
  0
DIMASSOC
  5
50AA
102
{ACAD_REACTORS
330
50A9
102
}
330
50A9
100
AcDbDimAssoc
330
509C
 90
        3
 70
     0
 71
     0
  1
AcDbOsnapPointRef
 72
    13
331
4CA8
 73
     0
 91
        0
 40
0.0
 10
0.0
 20
0.0
 30
2.000000000000000E+50
 75
     0
  1
AcDbOsnapPointRef
 72
    13
331
4CA3
 73
     0
 91
        0
 40
0.0
 10
0.0
 20
0.0
 30
2.000000000000000E+50
 75
     0
  0
DIMASSOC
  5
50D0
102
{ACAD_REACTORS
330
50CF
102
}
330
50CF
100
AcDbDimAssoc
330
50C2
 90
        3
 70
     0
 71
     0
  1
AcDbOsnapPointRef
 72
     1
331
4F1E
 73
     0
 91
        0
 40
0.0
 10
0.0
 20
0.0
 30
2.000000000000000E+50
 75
     0
  1
AcDbOsnapPointRef
 72
     1
331
4F1A
 73
     0
 91
        0
 40
0.0
 10
0.0
 20
0.0
 30
2.000000000000000E+50
 75
     0
  0
DIMASSOC
  5
50F6
102
{ACAD_REACTORS
330
50F5
102
}
330
50F5
100
AcDbDimAssoc
330
50E8
 90
        3
 70
     0
 71
     0
  1
AcDbOsnapPointRef
 72
    13
331
4CAA
 73
     0
 91
        0
 40
0.0
 10
0.0
 20
0.0
 30
2.000000000000000E+50
 75
     0
  1
AcDbOsnapPointRef
 72
     1
331
4F24
 73
     0
 91
        0
 40
0.0
 10
0.0
 20
0.0
 30
2.000000000000000E+50
 75
     0
  0
DIMASSOC
  5
511C
102
{ACAD_REACTORS
330
511B
102
}
330
511B
100
AcDbDimAssoc
330
510E
 90
        2
 70
     0
 71
     0
  1
AcDbOsnapPointRef
 72
     1
331
4F18
 73
     0
 91
        0
 40
0.0
 10
0.0
 20
0.0
 30
2.000000000000000E+50
 75
     0
  0
DIMASSOC
  5
5142
102
{ACAD_REACTORS
330
5141
102
}
330
5141
100
AcDbDimAssoc
330
5134
 90
        3
 70
     0
 71
     0
  1
AcDbOsnapPointRef
 72
     1
331
4CA8
 73
     0
 91
        0
 40
0.0
 10
0.0
 20
0.0
 30
2.000000000000000E+50
 75
     0
  1
AcDbOsnapPointRef
 72
     1
331
4F1E
 73
     0
 91
        0
 40
0.0
 10
0.0
 20
0.0
 30
2.000000000000000E+50
 75
     0
  0
DIMASSOC
  5
516A
102
{ACAD_REACTORS
330
5169
102
}
330
5169
100
AcDbDimAssoc
330
515A
 90
        3
 70
     0
 71
     0
  1
AcDbOsnapPointRef
 72
     1
331
4C48
 73
     0
 91
        0
 40
0.0
 10
0.0
 20
0.0
 30
2.000000000000000E+50
 75
     0
  1
AcDbOsnapPointRef
 72
     1
331
4EFB
 73
     0
 91
        0
 40
0.0
 10
0.0
 20
0.0
 30
2.000000000000000E+50
 75
     0
  0
DIMASSOC
  5
5194
102
{ACAD_REACTORS
330
5193
102
}
330
5193
100
AcDbDimAssoc
330
5184
 90
        3
 70
     0
 71
     0
  1
AcDbOsnapPointRef
 72
     1
331
4C7E
 73
     0
 91
        0
 40
0.0
 10
0.0
 20
0.0
 30
2.000000000000000E+50
 75
     0
  1
AcDbOsnapPointRef
 72
    13
331
4C6A
 73
     0
 91
        0
 40
0.0
 10
0.0
 20
0.0
 30
2.000000000000000E+50
 75
     0
  0
LAYOUT
  5
22
102
{ACAD_XDICTIONARY
360
57D5
102
}
102
{ACAD_REACTORS
330
1A
102
}
330
1A
100
AcDbPlotSettings
  1

  2
\\RD\EPSON Stylus C63 Series單色
  4
A4
  6

 40
3.757083177566528
 41
3.757076978683471
 42
3.757080078125
 43
3.757080078125
 44
209.9733276367187
 45
296.9683227539062
 46
0.0
 47
0.0
 48
0.0
 49
0.0
140
0.0
141
0.0
142
1.0
143
0.3405120737814363
 70
 11952
 72
     1
 73
     0
 74
     0
  7
彩色出圖.ctb
 75
     0
147
2.936753428137963
148
-2047.07469463503
149
-1261.649717473083
100
AcDbLayout
  1
Model
 70
     1
 71
     0
 10
0.0
 20
0.0
 11
12.0
 21
9.0
 12
0.0
 22
0.0
 32
0.0
 14
0.0
 24
0.0
 34
0.0
 15
0.0
 25
0.0
 35
0.0
146
0.0
 13
0.0
 23
0.0
 33
0.0
 16
1.0
 26
0.0
 36
0.0
 17
0.0
 27
1.0
 37
0.0
 76
     0
330
1F
1001
ACAD_PSEXT
1000
\\RD\EPSON Stylus C63 Series單色
1000
EPSON Stylus C63 Series
1000
\\RD
1000

1070
     0
  0
LAYOUT
  5
1E
102
{ACAD_XDICTIONARY
360
57D3
102
}
102
{ACAD_REACTORS
330
1A
102
}
330
1A
100
AcDbPlotSettings
  1

  2

  4

  6

 40
0.0
 41
0.0
 42
0.0
 43
0.0
 44
0.0
 45
0.0
 46
0.0
 47
0.0
 48
0.0
 49
0.0
140
0.0
141
0.0
142
1.0
143
1.0
 70
   688
 72
     0
 73
     0
 74
     5
  7
彩色出圖.ctb
 75
    16
147
1.0
148
0.0
149
0.0
100
AcDbLayout
  1
配置1
 70
     1
 71
     1
 10
0.0
 20
0.0
 11
420.0
 21
297.0
 12
0.0
 22
0.0
 32
0.0
 14
1.000000000000000E+20
 24
1.000000000000000E+20
 34
1.000000000000000E+20
 15
-1.000000000000000E+20
 25
-1.000000000000000E+20
 35
-1.000000000000000E+20
146
0.0
 13
0.0
 23
0.0
 33
0.0
 16
1.0
 26
0.0
 36
0.0
 17
0.0
 27
1.0
 37
0.0
 76
     0
330
1B
  0
LAYOUT
  5
26
102
{ACAD_XDICTIONARY
360
57D7
102
}
102
{ACAD_REACTORS
330
1A
102
}
330
1A
100
AcDbPlotSettings
  1

  2

  4

  6

 40
0.0
 41
0.0
 42
0.0
 43
0.0
 44
0.0
 45
0.0
 46
0.0
 47
0.0
 48
0.0
 49
0.0
140
0.0
141
0.0
142
1.0
143
1.0
 70
   688
 72
     0
 73
     0
 74
     5
  7
彩色出圖.ctb
 75
    16
147
1.0
148
0.0
149
0.0
100
AcDbLayout
  1
配置2
 70
     1
 71
     2
 10
0.0
 20
0.0
 11
12.0
 21
9.0
 12
0.0
 22
0.0
 32
0.0
 14
0.0
 24
0.0
 34
0.0
 15
0.0
 25
0.0
 35
0.0
146
0.0
 13
0.0
 23
0.0
 33
0.0
 16
1.0
 26
0.0
 36
0.0
 17
0.0
 27
1.0
 37
0.0
 76
     0
330
23
  0
MLINESTYLE
  5
18
102
{ACAD_REACTORS
330
17
102
}
330
17
100
AcDbMlineStyle
  2
STANDARD
 70
     0
  3

 62
   256
 51
90.0
 52
90.0
 71
     2
 49
0.5
 62
   256
  6
BYLAYER
 49
-0.5
 62
   256
  6
BYLAYER
  0
ACDBPLACEHOLDER
  5
F
102
{ACAD_REACTORS
330
E
102
}
330
E
  0
TABLESTYLE
  5
11B
102
{ACAD_REACTORS
330
11A
102
}
330
11A
100
AcDbTableStyle
  3
Standard
 70
     0
 71
     0
 40
1.5
 41
1.5
280
     0
281
     0
  7
STANDARD
140
4.5
170
     2
 62
     0
 63
     7
283
     0
274
    -2
284
     1
 64
     0
275
    -2
285
     1
 65
     0
276
    -2
286
     1
 66
     0
277
    -2
287
     1
 67
     0
278
    -2
288
     1
 68
     0
279
    -2
289
     1
 69
     0
  7
STANDARD
140
6.0
170
     5
 62
     0
 63
     7
283
     0
274
    -2
284
     1
 64
     0
275
    -2
285
     1
 65
     0
276
    -2
286
     1
 66
     0
277
    -2
287
     1
 67
     0
278
    -2
288
     1
 68
     0
279
    -2
289
     1
 69
     0
  7
STANDARD
140
4.5
170
     5
 62
     0
 63
     7
283
     0
274
    -2
284
     1
 64
     0
275
    -2
285
     1
 65
     0
276
    -2
286
     1
 66
     0
277
    -2
287
     1
 67
     0
278
    -2
288
     1
 68
     0
279
    -2
289
     1
 69
     0
  0
DICTIONARYVAR
  5
138
102
{ACAD_REACTORS
330
94
102
}
330
94
100
DictionaryVariables
280
     0
  1
STANDARD
  0
DICTIONARYVAR
  5
96
102
{ACAD_REACTORS
330
94
102
}
330
94
100
DictionaryVariables
280
     0
  1
2
  0
DICTIONARYVAR
  5
95
102
{ACAD_REACTORS
330
94
102
}
330
94
100
DictionaryVariables
280
     0
  1
0
  0
DICTIONARYVAR
  5
4279
102
{ACAD_REACTORS
330
94
102
}
330
94
100
DictionaryVariables
280
     0
  1

  0
DICTIONARY
  5
1B5
102
{ACAD_REACTORS
330
5B
102
}
330
5B
100
AcDbDictionary
281
     1
  0
DICTIONARY
  5
61
102
{ACAD_REACTORS
330
5B
102
}
330
5B
100
AcDbDictionary
281
     1
  0
XRECORD
  5
123
102
{ACAD_REACTORS
330
5B
102
}
330
5B
100
AcDbXrecord
280
     1
 90
-1023410169
  0
DICTIONARY
  5
57D5
330
22
100
AcDbDictionary
280
     1
281
     1
  3
ACAD_XREC_ROUNDTRIP
360
57D6
  0
DICTIONARY
  5
57D3
330
1E
100
AcDbDictionary
280
     1
281
     1
  3
ACAD_XREC_ROUNDTRIP
360
57D4
  0
DICTIONARY
  5
57D7
330
26
100
AcDbDictionary
280
     1
281
     1
  3
ACAD_XREC_ROUNDTRIP
360
57D8
  0
XRECORD
  5
57D6
102
{ACAD_REACTORS
330
57D5
102
}
330
57D5
100
AcDbXrecord
280
     1
102
SHADEPLOT
 70
     0
102
SHADEPLOTRESLEVEL
 70
     2
102
SHADEPLOTCUSTOMDPI
 70
   300
  0
XRECORD
  5
57D4
102
{ACAD_REACTORS
330
57D3
102
}
330
57D3
100
AcDbXrecord
280
     1
102
SHADEPLOT
 70
     0
102
SHADEPLOTRESLEVEL
 70
     2
102
SHADEPLOTCUSTOMDPI
 70
   300
  0
XRECORD
  5
57D8
102
{ACAD_REACTORS
330
57D7
102
}
330
57D7
100
AcDbXrecord
280
     1
102
SHADEPLOT
 70
     0
102
SHADEPLOTRESLEVEL
 70
     2
102
SHADEPLOTCUSTOMDPI
 70
   300
  0
ENDSEC
  0
EOF
