  0
SECTION
  2
HEADER
  9
$ACADVER
  1
AC1018
  9
$ACADMAINTVER
 70
    39
  9
$DWGCODEPAGE
  3
ANSI_950
  9
$CUSTOMPROPERTYTAG
  1
AmdtFileType
  9
$CUSTOMPROPERTY
  1
84
  9
$INSBASE
 10
0.0
 20
0.0
 30
0.0
  9
$EXTMIN
 10
711.3870177379944
 20
1140.471660473412
 30
-0.0058069244264516
  9
$EXTMAX
 10
968.1057594416101
 20
1466.205648463893
 30
190.3016256141528
  9
$LIMMIN
 10
0.0
 20
0.0
  9
$LIMMAX
 10
420.0
 20
297.0
  9
$ORTHOMODE
 70
     1
  9
$REGENMODE
 70
     1
  9
$FILLMODE
 70
     1
  9
$QTEXTMODE
 70
     0
  9
$MIRRTEXT
 70
     1
  9
$LTSCALE
 40
1.0
  9
$ATTMODE
 70
     1
  9
$TEXTSIZE
 40
3.0
  9
$TRACEWID
 40
1.0
  9
$TEXTSTYLE
  7
STANDARD
  9
$CLAYER
  8
0
  9
$CELTYPE
  6
ByLayer
  9
$CECOLOR
 62
   256
  9
$CELTSCALE
 40
1.0
  9
$DISPSILH
 70
     0
  9
$DIMSCALE
 40
1.0
  9
$DIMASZ
 40
3.0
  9
$DIMEXO
 40
1.0
  9
$DIMDLI
 40
11.0
  9
$DIMRND
 40
0.0
  9
$DIMDLE
 40
0.0
  9
$DIMEXE
 40
1.5
  9
$DIMTP
 40
0.1
  9
$DIMTM
 40
0.1
  9
$DIMTXT
 40
3.5
  9
$DIMCEN
 40
0.0
  9
$DIMTSZ
 40
0.0
  9
$DIMTOL
 70
     0
  9
$DIMLIM
 70
     0
  9
$DIMTIH
 70
     0
  9
$DIMTOH
 70
     0
  9
$DIMSE1
 70
     0
  9
$DIMSE2
 70
     0
  9
$DIMTAD
 70
     1
  9
$DIMZIN
 70
     8
  9
$DIMBLK
  1

  9
$DIMASO
 70
     1
  9
$DIMSHO
 70
     1
  9
$DIMPOST
  1

  9
$DIMAPOST
  1
"
  9
$DIMALT
 70
     0
  9
$DIMALTD
 70
     2
  9
$DIMALTF
 40
0.0393701
  9
$DIMLFAC
 40
1.0
  9
$DIMTOFL
 70
     1
  9
$DIMTVP
 40
0.0
  9
$DIMTIX
 70
     0
  9
$DIMSOXD
 70
     0
  9
$DIMSAH
 70
     0
  9
$DIMBLK1
  1

  9
$DIMBLK2
  1

  9
$DIMSTYLE
  2
AM_ISO
  9
$DIMCLRD
 70
   256
  9
$DIMCLRE
 70
   256
  9
$DIMCLRT
 70
   256
  9
$DIMTFAC
 40
0.6
  9
$DIMGAP
 40
0.7
  9
$DIMJUST
 70
     0
  9
$DIMSD1
 70
     0
  9
$DIMSD2
 70
     0
  9
$DIMTOLJ
 70
     0
  9
$DIMTZIN
 70
     8
  9
$DIMALTZ
 70
     0
  9
$DIMALTTZ
 70
     0
  9
$DIMUPT
 70
     0
  9
$DIMDEC
 70
     2
  9
$DIMTDEC
 70
     8
  9
$DIMALTU
 70
     2
  9
$DIMALTTD
 70
     2
  9
$DIMTXSTY
  7
STANDARD
  9
$DIMAUNIT
 70
     0
  9
$DIMADEC
 70
     0
  9
$DIMALTRND
 40
0.0
  9
$DIMAZIN
 70
     2
  9
$DIMDSEP
 70
    46
  9
$DIMATFIT
 70
     3
  9
$DIMFRAC
 70
     0
  9
$DIMLDRBLK
  1

  9
$DIMLUNIT
 70
     2
  9
$DIMLWD
 70
    -1
  9
$DIMLWE
 70
    -1
  9
$DIMTMOVE
 70
     0
  9
$LUNITS
 70
     2
  9
$LUPREC
 70
     2
  9
$SKETCHINC
 40
1.0
  9
$FILLETRAD
 40
2.5
  9
$AUNITS
 70
     0
  9
$AUPREC
 70
     0
  9
$MENU
  1
.
  9
$ELEVATION
 40
0.0
  9
$PELEVATION
 40
0.0
  9
$THICKNESS
 40
0.0
  9
$LIMCHECK
 70
     0
  9
$CHAMFERA
 40
2.5
  9
$CHAMFERB
 40
2.5
  9
$CHAMFERC
 40
20.0
  9
$CHAMFERD
 40
0.0
  9
$SKPOLY
 70
     0
  9
$TDCREATE
 40
2453836.381385081
  9
$TDUCREATE
 40
2453836.048051748
  9
$TDUPDATE
 40
2454789.609614294
  9
$TDUUPDATE
 40
2454789.276280961
  9
$TDINDWG
 40
0.3168417940
  9
$TDUSRTIMER
 40
0.3168417940
  9
$USRTIMER
 70
     1
  9
$ANGBASE
 50
0.0
  9
$ANGDIR
 70
     0
  9
$PDMODE
 70
     0
  9
$PDSIZE
 40
0.0
  9
$PLINEWID
 40
0.0
  9
$SPLFRAME
 70
     0
  9
$SPLINETYPE
 70
     6
  9
$SPLINESEGS
 70
     8
  9
$HANDSEED
  5
61EF
  9
$SURFTAB1
 70
     6
  9
$SURFTAB2
 70
     6
  9
$SURFTYPE
 70
     6
  9
$SURFU
 70
     6
  9
$SURFV
 70
     6
  9
$UCSBASE
  2

  9
$UCSNAME
  2

  9
$UCSORG
 10
0.0
 20
0.0
 30
0.0
  9
$UCSXDIR
 10
1.0
 20
0.0
 30
0.0
  9
$UCSYDIR
 10
0.0
 20
1.0
 30
0.0
  9
$UCSORTHOREF
  2

  9
$UCSORTHOVIEW
 70
     0
  9
$UCSORGTOP
 10
0.0
 20
0.0
 30
0.0
  9
$UCSORGBOTTOM
 10
0.0
 20
0.0
 30
0.0
  9
$UCSORGLEFT
 10
0.0
 20
0.0
 30
0.0
  9
$UCSORGRIGHT
 10
0.0
 20
0.0
 30
0.0
  9
$UCSORGFRONT
 10
0.0
 20
0.0
 30
0.0
  9
$UCSORGBACK
 10
0.0
 20
0.0
 30
0.0
  9
$PUCSBASE
  2

  9
$PUCSNAME
  2

  9
$PUCSORG
 10
0.0
 20
0.0
 30
0.0
  9
$PUCSXDIR
 10
1.0
 20
0.0
 30
0.0
  9
$PUCSYDIR
 10
0.0
 20
1.0
 30
0.0
  9
$PUCSORTHOREF
  2

  9
$PUCSORTHOVIEW
 70
     0
  9
$PUCSORGTOP
 10
0.0
 20
0.0
 30
0.0
  9
$PUCSORGBOTTOM
 10
0.0
 20
0.0
 30
0.0
  9
$PUCSORGLEFT
 10
0.0
 20
0.0
 30
0.0
  9
$PUCSORGRIGHT
 10
0.0
 20
0.0
 30
0.0
  9
$PUCSORGFRONT
 10
0.0
 20
0.0
 30
0.0
  9
$PUCSORGBACK
 10
0.0
 20
0.0
 30
0.0
  9
$USERI1
 70
     0
  9
$USERI2
 70
     0
  9
$USERI3
 70
     0
  9
$USERI4
 70
     0
  9
$USERI5
 70
     0
  9
$USERR1
 40
0.0
  9
$USERR2
 40
0.0
  9
$USERR3
 40
0.0
  9
$USERR4
 40
0.0
  9
$USERR5
 40
0.0
  9
$WORLDVIEW
 70
     1
  9
$SHADEDGE
 70
     3
  9
$SHADEDIF
 70
    70
  9
$TILEMODE
 70
     1
  9
$MAXACTVP
 70
    64
  9
$PINSBASE
 10
0.0
 20
0.0
 30
0.0
  9
$PLIMCHECK
 70
     0
  9
$PEXTMIN
 10
1.000000000000000E+20
 20
1.000000000000000E+20
 30
1.000000000000000E+20
  9
$PEXTMAX
 10
-1.000000000000000E+20
 20
-1.000000000000000E+20
 30
-1.000000000000000E+20
  9
$PLIMMIN
 10
0.0
 20
0.0
  9
$PLIMMAX
 10
420.0
 20
297.0
  9
$UNITMODE
 70
     0
  9
$VISRETAIN
 70
     1
  9
$PLINEGEN
 70
     0
  9
$PSLTSCALE
 70
     1
  9
$TREEDEPTH
 70
  3020
  9
$CMLSTYLE
  2
Standard
  9
$CMLJUST
 70
     0
  9
$CMLSCALE
 40
20.0
  9
$PROXYGRAPHICS
 70
     1
  9
$MEASUREMENT
 70
     1
  9
$CELWEIGHT
370
    -1
  9
$ENDCAPS
280
     0
  9
$JOINSTYLE
280
     0
  9
$LWDISPLAY
290
     0
  9
$INSUNITS
 70
     4
  9
$HYPERLINKBASE
  1

  9
$STYLESHEET
  1
acad.ctb
  9
$XEDIT
290
     1
  9
$CEPSNTYPE
380
     0
  9
$PSTYLEMODE
290
     1
  9
$FINGERPRINTGUID
  2
{4E42D67C-2C0E-4518-AAFF-743F4EBE0702}
  9
$VERSIONGUID
  2
{CE19A30D-9A9C-4380-92CF-C79A331C5908}
  9
$EXTNAMES
290
     1
  9
$PSVPSCALE
 40
0.0
  9
$OLESTARTUP
290
     0
  9
$SORTENTS
280
   127
  9
$INDEXCTL
280
     0
  9
$HIDETEXT
280
     0
  9
$XCLIPFRAME
290
     0
  9
$HALOGAP
280
     0
  9
$OBSCOLOR
 70
   257
  9
$OBSLTYPE
280
     0
  9
$INTERSECTIONDISPLAY
280
     0
  9
$INTERSECTIONCOLOR
 70
   257
  9
$DIMASSOC
280
     2
  9
$PROJECTNAME
  1

  0
ENDSEC
  0
SECTION
  2
CLASSES
  0
CLASS
  1
ACDBDICTIONARYWDFLT
  2
AcDbDictionaryWithDefault
  3
ObjectDBX Classes
 90
        0
 91
        1
280
     0
281
     0
  0
CLASS
  1
ACME_DOCUMENT
  2
AcMeDbDoc
  3
AcMeServices
 90
        0
 91
        2
280
     0
281
     0
  0
CLASS
  1
AMGSETTINGSOBJ
  2
AmgSettingsObj
  3
"AcadM|Product Description: AutoCAD Mechanical 2000|Company: Autodesk"
 90
        0
 91
        2
280
     0
281
     0
  0
CLASS
  1
ACMESCOPE
  2
AcMeScope
  3
AcMeServices
 90
        0
 91
        1
280
     0
281
     0
  0
CLASS
  1
ACMECOMMANDHISTORY
  2
AcMeCommandHistory
  3
AcMeServices
 90
        0
 91
        1
280
     0
281
     0
  0
CLASS
  1
ACIMSYSVARMAN
  2
AcImSysVarManager
  3
AcMeServices
 90
        0
 91
        5
280
     0
281
     0
  0
CLASS
  1
ACIMREALSYSVAR
  2
AcImRealSysVar
  3
AcMeServices
 90
        0
 91
        1
280
     0
281
     0
  0
CLASS
  1
ACIMINTSYSVAR
  2
AcImIntSysVar
  3
AcMeServices
 90
        0
 91
       26
280
     0
281
     0
  0
CLASS
  1
ACMEDRAWINGMAN
  2
AcMeDrawingMan
  3
AcMeServices
 90
        0
 91
        1
280
     0
281
     0
  0
CLASS
  1
ACMEVIEW
  2
AcMeView
  3
AcMeServices
 90
        0
 91
        1
280
     0
281
     0
  0
CLASS
  1
ACDBENTITYCACHE
  2
AcMeEntityCache
  3
AcMeServices
 90
        0
 91
        1
280
     0
281
     0
  0
CLASS
  1
GSMANAGER
  2
AcMeGSManager
  3
AcMeServices
 90
        0
 91
        1
280
     0
281
     0
  0
CLASS
  1
AMDTINTERNALREACTOR
  2
AmdtInternalReactor
  3
AcMeServices
 90
        0
 91
        2
280
     0
281
     0
  0
CLASS
  1
ACMESTATEMGR
  2
AcMeStateMgr
  3
AcMeServices
 90
        0
 91
        1
280
     0
281
     0
  0
CLASS
  1
ACGREFMASTER
  2
AcGrefMaster
  3
AcAttribServices
 90
        0
 91
        1
280
     0
281
     0
  0
CLASS
  1
ACME_DATABASE
  2
AcMeDbDatabase
  3
AcMeServices
 90
        0
 91
        2
280
     0
281
     0
  0
CLASS
  1
ACRFINSADJUSTERMGR
  2
AcRfInsAdjusterMgr
  3
AcMeServices
 90
        0
 91
        1
280
     0
281
     0
  0
CLASS
  1
ACGREFACADMASTER
  2
AcGrefacadMaster
  3
AcGrefServices
 90
        0
 91
        1
280
     0
281
     0
  0
CLASS
  1
AMIMASTER
  2
AmiMaster
  3
AmiServices
 90
        0
 91
        1
280
     0
281
     0
  0
CLASS
  1
ACMDATADICTIONARY
  2
AcmDataDictionary
  3
"AcmSymBB|Product Description: AutoCAD Mechanical 2004 DX|Company: Autodesk"
 90
        0
 91
        1
280
     0
281
     0
  0
CLASS
  1
ACMDATAENTRYBLOCK
  2
AcmDataEntryBlock
  3
"AcmSymBB|Product Description: AutoCAD Mechanical 2004 DX|Company: Autodesk"
 90
        0
 91
        0
280
     0
281
     0
  0
CLASS
  1
ACIMSTRSYSVAR
  2
AcImStrSysVar
  3
AcMeServices
 90
        0
 91
        5
280
     0
281
     0
  0
CLASS
  1
ACMSTANDARDISO
  2
AcmStandardISO
  3
"Amdt_StdImp|Product Description: AutoCAD Mechanical 2004 DX|Company: Autodesk"
 90
        0
 91
        1
280
     0
281
     0
  0
CLASS
  1
AMGOBJPROPCFG
  2
AmgObjPropCfg
  3
"AmgLay|Product Description: AutoCAD Mechanical 2000|Company: Autodesk"
 90
        1
 91
        1
280
     0
281
     0
  0
CLASS
  1
AMDTEDGESTANDARDISO
  2
AmdtEdgeStdISO
  3
"Amdt_StdImp|Product Description: AutoCAD Mechanical 2004 DX|Company: Autodesk"
 90
        0
 91
        0
280
     0
281
     0
  0
CLASS
  1
ACMSURFSTANDARDISO
  2
AcmSurfTextStdISO
  3
"Amdt_StdImp|Product Description: AutoCAD Mechanical 2004 DX|Company: Autodesk"
 90
        0
 91
        1
280
     0
281
     0
  0
CLASS
  1
ACMFCFSTANDARDISO
  2
AcmFCFStdISO
  3
"Amdt_StdImp|Product Description: AutoCAD Mechanical 2004 DX|Company: Autodesk"
 90
        0
 91
        1
280
     0
281
     0
  0
CLASS
  1
ACMWELDSTANDARDISO
  2
AcmWeldingStdISO
  3
"Amdt_StdImp|Product Description: AutoCAD Mechanical 2004 DX|Company: Autodesk"
 90
        0
 91
        1
280
     0
281
     0
  0
CLASS
  1
ACMIDSTANDARDISO
  2
AcmIdStdISO
  3
"Amdt_StdImp|Product Description: AutoCAD Mechanical 2004 DX|Company: Autodesk"
 90
        0
 91
        1
280
     0
281
     0
  0
CLASS
  1
ACMDATUMSTANDARDISO
  2
AcmDatumStdISO
  3
"Amdt_StdImp|Product Description: AutoCAD Mechanical 2004 DX|Company: Autodesk"
 90
        0
 91
        1
280
     0
281
     0
  0
CLASS
  1
ACMBOMSTANDARDISO
  2
AcmBOMStdISO
  3
"Amdt_StdImp|Product Description: AutoCAD Mechanical 2004 DX|Company: Autodesk"
 90
        0
 91
        1
280
     0
281
     0
  0
CLASS
  1
ACMDETAILSTANDARDISO
  2
AmdtDetailSymStdISO
  3
"Amdt_StdImp|Product Description: AutoCAD Mechanical 2004 DX|Company: Autodesk"
 90
        0
 91
        1
280
     0
281
     0
  0
CLASS
  1
ACMSECTIONSTANDARDISO
  2
AmdtSectionSymStdISO
  3
"Amdt_StdImp|Product Description: AutoCAD Mechanical 2004 DX|Company: Autodesk"
 90
        0
 91
        1
280
     0
281
     0
  0
CLASS
  1
ACMCENTERLINESTANDARDISO
  2
AmdtCenterLineStdISO
  3
"Amdt_StdImp|Product Description: AutoCAD Mechanical 2004 DX|Company: Autodesk"
 90
        0
 91
        1
280
     0
281
     0
  0
CLASS
  1
ACMNOTESTANDARDISO
  2
AmdtNoteStdISO
  3
"Amdt_StdImp|Product Description: AutoCAD Mechanical 2004 DX|Company: Autodesk"
 90
        0
 91
        1
280
     0
281
     0
  0
CLASS
  1
ACAMGLAYSTD
  2
AcAmgLayStd
  3
"AcAmgLayStd|Product Description: AutoCAD Mechanical 2000|Company: Autodesk"
 90
        0
 91
        1
280
     0
281
     0
  0
CLASS
  1
ACAMGDIMSTD
  2
AcAmgDimStd
  3
"AcAmgDimStd|Product Description: AutoCAD Mechanical 2000|Company: Autodesk"
 90
        0
 91
        1
280
     0
281
     0
  0
CLASS
  1
ACAMGHOLECHARTSTDISO
  2
AcAmgHoleChartStdISO
  3
ACMSYMBB_MODULE_NAME
 90
        0
 91
        1
280
     0
281
     0
  0
CLASS
  1
ACAMGTITLESTD
  2
AcAmgTitleStd
  3
"TITLEAPP"
 90
        0
 91
        1
280
     0
281
     0
  0
CLASS
  1
LAYER_INDEX
  2
AcDbLayerIndex
  3
ObjectDBX Classes
 90
        0
 91
        0
280
     0
281
     0
  0
CLASS
  1
IDBUFFER
  2
AcDbIdBuffer
  3
ObjectDBX Classes
 90
        0
 91
        0
280
     0
281
     0
  0
CLASS
  1
DICTIONARYVAR
  2
AcDbDictionaryVar
  3
ObjectDBX Classes
 90
        0
 91
        4
280
     0
281
     0
  0
CLASS
  1
AM_DRAWING_MGR
  2
AcDmDwgMgr
  3
AcMechDwgViewMgmt
 90
        0
 91
        1
280
     0
281
     0
  0
CLASS
  1
AM_DWG_DOCUMENT
  2
AcDmDwgDocument
  3
AcMechDwgViewMgmt
 90
        0
 91
        1
280
     0
281
     0
  0
CLASS
  1
AM_DWG_SHEET
  2
AcDmSheet
  3
AcMechDwgViewMgmt
 90
        0
 91
        2
280
     0
281
     0
  0
CLASS
  1
AM_VIEWDIMPARMAP
  2
AcDmViewDimParMap
  3
AcMechDwgViewMgmt
 90
        0
 91
        2
280
     0
281
     0
  0
CLASS
  1
AM_DWGMGR_NAME
  2
AcDmDwgMgrName
  3
AcMechDwgViewMgmt
 90
        0
 91
        1
280
     0
281
     0
  0
CLASS
  1
AMDTMENUSTATEMGR
  2
AmdtMenuStateMgr
  3
McadcomServices
 90
        0
 91
        1
280
     0
281
     0
  0
CLASS
  1
AMDTMCOMMENUSTATE
  2
AmdtMcomMenuState
  3
McadcomServices
 90
        0
 91
        1
280
     0
281
     0
  0
CLASS
  1
MAPIAMMOUDLE
  2
MApiAmModule
  3
MApiAmServices
 90
        0
 91
        1
280
     0
281
     0
  0
CLASS
  1
AMDTADMENUSTATE
  2
AmdtAdMenuState
  3
DesignerServices
 90
        0
 91
        1
280
     0
281
     0
  0
CLASS
  1
ADAPPL
  2
AcAdAppl
  3
DesignerServices
 90
        0
 91
        1
280
     0
281
     0
  0
CLASS
  1
DEPMGR
  2
AcAdDepMgr
  3
DesignerServices
 90
        0
 91
        1
280
     0
281
     0
  0
CLASS
  1
PARAMMGR
  2
AcAdParamMgr
  3
DesignerServices
 90
        0
 91
        1
280
     0
281
     0
  0
CLASS
  1
PARAMSCOPE
  2
AcAdParamScope
  3
DesignerServices
 90
        0
 91
        1
280
     0
281
     0
  0
CLASS
  1
NAMEDAPPL
  2
AcAdNamedAppl
  3
DesignerServices
 90
        0
 91
        1
280
     0
281
     0
  0
CLASS
  1
AMDTDMMENUSTATE
  2
AmdtDmMenuState
  3
AcMechDwgViewMgmt
 90
        0
 91
        1
280
     0
281
     0
  0
CLASS
  1
AMDTAMMENUSTATE
  2
AmdtAmMenuState
  3
DesignerAssemblies
 90
        0
 91
        1
280
     0
281
     0
  0
CLASS
  1
ACAMPROJECT
  2
AcAmProject
  3
DesignerAssemblies
 90
        0
 91
        1
280
     0
281
     0
  0
CLASS
  1
ACAMGRCOMPDEF
  2
AcAmGrCompDef
  3
DesignerAssemblies
 90
        0
 91
        1
280
     0
281
     0
  0
CLASS
  1
ACCMCONTEXT
  2
AcCmContext
  3
DesignerAssemblies
 90
        0
 91
        1
280
     0
281
     0
  0
CLASS
  1
ACAMCOMPDEF
  2
AcAmCompDef
  3
DesignerAssemblies
 90
        0
 91
        1
280
     0
281
     0
  0
CLASS
  1
ACAMCOMPDEFMGR
  2
AcAmCompDefMgr
  3
DesignerAssemblies
 90
        0
 91
        1
280
     0
281
     0
  0
CLASS
  1
AMCONTEXTMGR
  2
AcAmContextMgr
  3
DesignerAssemblies
 90
        0
 91
        1
280
     0
281
     0
  0
CLASS
  1
ACAMCONTEXTMODELER
  2
AcAmContextModeler
  3
DesignerAssemblies
 90
        0
 91
        1
280
     0
281
     0
  0
CLASS
  1
ACMTHREADLINESTANDARDISO
  2
AmdtThreadLineStdISO
  3
"Amdt_StdImp|Product Description: AutoCAD Mechanical 2004 DX|Company: Autodesk"
 90
        0
 91
        1
280
     0
281
     0
  0
CLASS
  1
CATALOGSTATE
  2
AcAmCatalogState
  3
DesignerAssemblies
 90
        0
 91
        1
280
     0
281
     0
  0
CLASS
  1
ACAMGRCOMPDEFSET
  2
AcAmGrCompDefSet
  3
DesignerAssemblies
 90
        0
 91
        1
280
     0
281
     0
  0
CLASS
  1
AMDTBROWSERDBTAB
  2
AmdtBrowserDbTab
  3
McadcomServices
 90
        0
 91
        1
280
     0
281
     0
  0
CLASS
  1
CBROWSERAPPOBJECT
  2
CBrowserAppObject
  3
McadcomServices
 90
        0
 91
        3
280
     0
281
     0
  0
CLASS
  1
DM_PLACEHOLDER
  2
AcDmSelsetPlaceholder
  3
AcMechDwgViewMgmt
 90
        0
 91
        1
280
     0
281
     0
  0
CLASS
  1
TABLESTYLE
  2
AcDbTableStyle
  3
ObjectDBX Classes
 90
     2047
 91
        1
280
     0
281
     0
  0
CLASS
  1
VAACXREFPANELOBJECT
  2
VaAcXREFPanelObject
  3
VAAC_ADDIN
 90
        0
 91
        0
280
     0
281
     0
  0
CLASS
  1
VAACIMAGEINVENTORY
  2
VaAcImageInventory
  3
VAAC_ADDIN
 90
        0
 91
        0
280
     0
281
     0
  0
CLASS
  1
AMDTNOTETEMPLATEDB
  2
AmdtNoteTemplateDB
  3
AMDT_STDIMP_MODULE_NAME
 90
        0
 91
        5
280
     0
281
     0
  0
CLASS
  1
ACMBOM
  2
AcmBom
  3
"AcmSymBB|Product Description: AutoCAD Mechanical 2004 DX|Company: Autodesk"
 90
        0
 91
        0
280
     0
281
     0
  0
CLASS
  1
AMDTFORMULAUPDATEDISPATCHER
  2
AmdtFormulaUpdateDispatcher
  3
AcMeServices
 90
        0
 91
        0
280
     0
281
     0
  0
CLASS
  1
ACMPARTLIST
  2
AcmPartList
  3
"AcmSymBB|Product Description: AutoCAD Mechanical 2004 DX|Company: Autodesk"
 90
     1023
 91
        0
280
     0
281
     1
  0
CLASS
  1
ACAMGFILTERDAT
  2
AcAmgFilterDat
  3
"AcadM|Product Description: AutoCAD Mechanical 2000|Company: Autodesk"
 90
        0
 91
        0
280
     0
281
     0
  0
CLASS
  1
DIMASSOC
  2
AcDbDimAssoc
  3
"AcDbDimAssoc|Product Desc:     AcDim ARX App For Dimension|Company:          Autodesk, Inc.|WEB Address:      www.autodesk.com"
 90
        0
 91
       14
280
     0
281
     0
  0
CLASS
  1
AMDTNOTE
  2
AmdtNote
  3
"AcmSymBB|Product Description: AutoCAD Mechanical 2004 DX|Company: Autodesk"
 90
     1023
 91
        0
280
     0
281
     1
  0
CLASS
  1
ACMSTANDARDANSI
  2
AcmStandardANSI
  3
"Amdt_StdImp|Product Description: AutoCAD Mechanical 2004 DX|Company: Autodesk"
 90
        0
 91
        0
280
     0
281
     0
  0
CLASS
  1
ACMSURFSTANDARDANSI
  2
AcmSurfTextStdANSI
  3
"Amdt_StdImp|Product Description: AutoCAD Mechanical 2004 DX|Company: Autodesk"
 90
        0
 91
        0
280
     0
281
     0
  0
CLASS
  1
ACMFCFSTANDARDANSI
  2
AcmFCFStdANSI
  3
"Amdt_StdImp|Product Description: AutoCAD Mechanical 2004 DX|Company: Autodesk"
 90
        0
 91
        0
280
     0
281
     0
  0
CLASS
  1
ACMWELDSTANDARDANSI
  2
AcmWeldingStdANSI
  3
"Amdt_StdImp|Product Description: AutoCAD Mechanical 2004 DX|Company: Autodesk"
 90
        0
 91
        0
280
     0
281
     0
  0
CLASS
  1
ACMIDSTANDARDANSI
  2
AcmIdStdANSI
  3
"Amdt_StdImp|Product Description: AutoCAD Mechanical 2004 DX|Company: Autodesk"
 90
        0
 91
        0
280
     0
281
     0
  0
CLASS
  1
ACMDATUMSTANDARDANSI
  2
AcmDatumStdANSI
  3
"Amdt_StdImp|Product Description: AutoCAD Mechanical 2004 DX|Company: Autodesk"
 90
        0
 91
        0
280
     0
281
     0
  0
CLASS
  1
ACMBOMSTANDARDANSI
  2
AcmBOMStdANSI
  3
"Amdt_StdImp|Product Description: AutoCAD Mechanical 2004 DX|Company: Autodesk"
 90
        0
 91
        0
280
     0
281
     0
  0
CLASS
  1
ACMDETAILSTANDARDANSI
  2
AmdtDetailSymStdANSI
  3
"Amdt_StdImp|Product Description: AutoCAD Mechanical 2004 DX|Company: Autodesk"
 90
        0
 91
        0
280
     0
281
     0
  0
CLASS
  1
ACMSECTIONSTANDARDANSI
  2
AmdtSectionSymStdANSI
  3
"Amdt_StdImp|Product Description: AutoCAD Mechanical 2004 DX|Company: Autodesk"
 90
        0
 91
        0
280
     0
281
     0
  0
CLASS
  1
ACMCENTERLINESTANDARDANSI
  2
AmdtCenterLineStdANSI
  3
"Amdt_StdImp|Product Description: AutoCAD Mechanical 2004 DX|Company: Autodesk"
 90
        0
 91
        0
280
     0
281
     0
  0
CLASS
  1
ACMTHREADLINESTANDARDANSI
  2
AmdtThreadLineStdANSI
  3
"Amdt_StdImp|Product Description: AutoCAD Mechanical 2004 DX|Company: Autodesk"
 90
        0
 91
        0
280
     0
281
     0
  0
CLASS
  1
ACMNOTESTANDARDANSI
  2
AmdtNoteStdANSI
  3
"Amdt_StdImp|Product Description: AutoCAD Mechanical 2004 DX|Company: Autodesk"
 90
        0
 91
        0
280
     0
281
     0
  0
CLASS
  1
ACAMGHOLECHARTSTDANSI
  2
AcAmgHoleChartStdANSI
  3
ACMSYMBB_MODULE_NAME
 90
        0
 91
        0
280
     0
281
     0
  0
CLASS
  1
AMDTEDGESTANDARDISO13715
  2
AmdtEdgeStdISO13715
  3
"Amdt_StdImp|Product Description: AutoCAD Mechanical 2004 DX|Company: Autodesk"
 90
        0
 91
        1
280
     0
281
     0
  0
CLASS
  1
SORTENTSTABLE
  2
AcDbSortentsTable
  3
ObjectDBX Classes
 90
        0
 91
        1
280
     0
281
     0
  0
CLASS
  1
ACRFATTGENMGR
  2
AcRfAttGeneralMgr
  3
AcAttribServices
 90
        0
 91
        1
280
     0
281
     0
  0
ENDSEC
  0
SECTION
  2
TABLES
  0
TABLE
  2
VPORT
  5
8
330
0
100
AcDbSymbolTable
 70
     5
  0
VPORT
  5
61EE
330
8
100
AcDbSymbolTableRecord
100
AcDbViewportTableRecord
  2
*Active
 70
     0
 10
0.0
 20
0.0
 11
1.0
 21
1.0
 12
839.7463885898023
 22
1303.338654468652
 13
0.0
 23
0.0
 14
2.5
 24
2.5
 15
10.0
 25
10.0
 16
0.0
 26
0.0
 36
1.0
 17
0.0
 27
0.0
 37
0.0
 40
328.2988225415875
 41
1.283837056504599
 42
50.0
 43
0.0
 44
0.0
 50
0.0
 51
0.0
 71
     0
 72
   100
 73
     1
 74
     3
 75
     0
 76
     0
 77
     0
 78
     0
281
     0
 65
     1
110
0.0
120
0.0
130
0.0
111
1.0
121
0.0
131
0.0
112
0.0
122
1.0
132
0.0
 79
     0
146
0.0
  0
ENDTAB
  0
TABLE
  2
LTYPE
  5
5
330
0
100
AcDbSymbolTable
 70
    15
  0
LTYPE
  5
14
330
5
100
AcDbSymbolTableRecord
100
AcDbLinetypeTableRecord
  2
ByBlock
 70
     0
  3

 72
    65
 73
     0
 40
0.0
  0
LTYPE
  5
15
330
5
100
AcDbSymbolTableRecord
100
AcDbLinetypeTableRecord
  2
ByLayer
 70
     0
  3

 72
    65
 73
     0
 40
0.0
  0
LTYPE
  5
16
330
5
100
AcDbSymbolTableRecord
100
AcDbLinetypeTableRecord
  2
Continuous
 70
     0
  3
Solid line
 72
    65
 73
     0
 40
0.0
  0
LTYPE
  5
64
330
5
100
AcDbSymbolTableRecord
100
AcDbLinetypeTableRecord
  2
AM_ISO02W050
 70
     0
  3
__ __ __ __ __ __ __ __ __ __ __ __ __ __ __
 72
    65
 73
     2
 40
7.5
 49
6.0
 74
     0
 49
-1.5
 74
     0
  0
LTYPE
  5
65
330
5
100
AcDbSymbolTableRecord
100
AcDbLinetypeTableRecord
  2
AM_ISO08W050
 70
     0
  3
____ . ____ . ____ . ____ . ____ . ____ . ____
 72
    65
 73
     4
 40
18.0
 49
12.0
 74
     0
 49
-1.5
 74
     0
 49
3.0
 74
     0
 49
-1.5
 74
     0
  0
LTYPE
  5
66
330
5
100
AcDbSymbolTableRecord
100
AcDbLinetypeTableRecord
  2
AM_ISO09W050
 70
     0
  3
_____ . . _____ . . _____ . . ____ .. ____
 72
    65
 73
     6
 40
22.5
 49
12.0
 74
     0
 49
-1.5
 74
     0
 49
3.0
 74
     0
 49
-1.5
 74
     0
 49
3.0
 74
     0
 49
-1.5
 74
     0
  0
LTYPE
  5
67
330
5
100
AcDbSymbolTableRecord
100
AcDbLinetypeTableRecord
  2
Amconstr
 70
     0
  3
_______________________
 72
    65
 73
     2
 40
9999.0
 49
9999.0
 74
     0
 49
0.0
 74
     0
  0
LTYPE
  5
68
330
5
100
AcDbSymbolTableRecord
100
AcDbLinetypeTableRecord
  2
AM_ISO08W050x2
 70
     0
  3
__ . __ . __ . __ . __ . __
 72
    65
 73
     4
 40
9.0
 49
6.0
 74
     0
 49
-0.75
 74
     0
 49
1.5
 74
     0
 49
-0.75
 74
     0
  0
LTYPE
  5
69
330
5
100
AcDbSymbolTableRecord
100
AcDbLinetypeTableRecord
  2
AM_ISO02W050x2
 70
     0
  3
 _ _ _ _ _ _ _ _ _ _ _ _
 72
    65
 73
     2
 40
3.75
 49
3.0
 74
     0
 49
-0.75
 74
     0
  0
LTYPE
  5
6C
330
5
100
AcDbSymbolTableRecord
100
AcDbLinetypeTableRecord
  2
Amzigzag
 70
     0
  3
/\/-/\/-/\/-/\/-/\/-/\/
 72
    65
 73
     2
 40
11.0001
 49
0.0001
 74
     4
 75
   135
340
6B
 46
0.04
 50
0.0
 44
0.0
 45
0.0
 49
-11.0
 74
     0
  0
LTYPE
  5
7A
330
5
100
AcDbSymbolTableRecord
100
AcDbLinetypeTableRecord
  2
ACISOWELD
 70
     0
  3
_ _ _ _ _
 72
    65
 73
     2
 40
2.0
 49
2.0
 74
     0
 49
-1.0
 74
     0
  0
LTYPE
  5
7B
330
5
100
AcDbSymbolTableRecord
100
AcDbLinetypeTableRecord
  2
ACISOTGB
 70
     0
  3
__ . . __ . .
 72
    65
 73
     6
 40
9.0
 49
4.0
 74
     0
 49
-1.0
 74
     0
 49
1.0
 74
     0
 49
-1.0
 74
     0
 49
1.0
 74
     0
 49
-1.0
 74
     0
  0
LTYPE
  5
7C
330
5
100
AcDbSymbolTableRecord
100
AcDbLinetypeTableRecord
  2
ACISOTGL
 70
     0
  3
_ _ _ _ _
 72
    65
 73
     2
 40
3.0
 49
2.0
 74
     0
 49
-1.0
 74
     0
  0
LTYPE
  5
7E
330
5
100
AcDbSymbolTableRecord
100
AcDbLinetypeTableRecord
  2
CENTER
 70
     0
  3
__ . __
 72
    65
 73
     4
 40
7.0
 49
4.0
 74
     0
 49
-1.0
 74
     0
 49
1.0
 74
     0
 49
-1.0
 74
     0
  0
LTYPE
  5
D8
330
5
100
AcDbSymbolTableRecord
100
AcDbLinetypeTableRecord
  2
HIDDEN
 70
     0
  3
Hidden __ __ __ __ __ __ __ __ __ __ __ __ __ _
 72
    65
 73
     2
 40
9.524999999999998
 49
6.349999999999999
 74
     0
 49
-3.174999999999999
 74
     0
  0
LTYPE
  5
D9
330
5
100
AcDbSymbolTableRecord
100
AcDbLinetypeTableRecord
  2
PHANTOM2
 70
     0
  3
Phantom (.5x) ___ _ _ ___ _ _ ___ _ _ ___ _ _
 72
    65
 73
     6
 40
31.75
 49
15.875
 74
     0
 49
-3.174999999999999
 74
     0
 49
3.174999999999999
 74
     0
 49
-3.174999999999999
 74
     0
 49
3.174999999999999
 74
     0
 49
-3.174999999999999
 74
     0
  0
LTYPE
  5
4942
330
5
100
AcDbSymbolTableRecord
100
AcDbLinetypeTableRecord
  2
HIDDEN2
 70
     0
  3
Hidden (.5x) _ _ _ _ _ _ _ _ _ _ _ _ _ _ _ _ _
 72
    65
 73
     2
 40
0.1875
 49
0.125
 74
     0
 49
-0.0625
 74
     0
  0
ENDTAB
  0
TABLE
  2
LAYER
  5
2
102
{ACAD_XDICTIONARY
360
3F9
102
}
330
0
100
AcDbSymbolTable
 70
    10
  0
LAYER
  5
10
330
2
100
AcDbSymbolTableRecord
100
AcDbLayerTableRecord
  2
0
 70
     0
 62
     7
  6
Continuous
370
    -3
390
F
  0
LAYER
  5
A20
330
2
100
AcDbSymbolTableRecord
100
AcDbLayerTableRecord
  2
AM_VIS
 70
     0
 62
     7
  6
Continuous
370
    50
390
F
  0
LAYER
  5
A21
330
2
100
AcDbSymbolTableRecord
100
AcDbLayerTableRecord
  2
AM_7
 70
     0
 62
     1
  6
AM_ISO08W050
370
    25
390
F
  0
LAYER
  5
A22
330
2
100
AcDbSymbolTableRecord
100
AcDbLayerTableRecord
  2
AM_4
 70
     0
 62
     3
  6
Continuous
370
    25
390
F
  0
LAYER
  5
168E
330
2
100
AcDbSymbolTableRecord
100
AcDbLayerTableRecord
  2
AM_5
 70
     0
 62
     5
  6
Continuous
370
    50
390
F
  0
LAYER
  5
16A8
330
2
100
AcDbSymbolTableRecord
100
AcDbLayerTableRecord
  2
Defpoints
 70
     0
 62
     7
  6
Continuous
290
     0
370
    -3
390
F
  0
LAYER
  5
4025
330
2
100
AcDbSymbolTableRecord
100
AcDbLayerTableRecord
  2
LOGO
 70
     0
 62
     7
  6
Continuous
370
    -3
390
F
  0
ENDTAB
  0
TABLE
  2
STYLE
  5
3
330
0
100
AcDbSymbolTable
 70
     7
  0
STYLE
  5
11
330
3
100
AcDbSymbolTableRecord
100
AcDbTextStyleTableRecord
  2
STANDARD
 70
     0
 40
0.0
 41
1.0
 50
0.0
 71
     0
 42
3.0
  3
ISOCP.SHX
  4
CHINESET.SHX
  0
STYLE
  5
6B
330
3
100
AcDbSymbolTableRecord
100
AcDbTextStyleTableRecord
  2

 70
     1
 40
0.0
 41
1.0
 50
0.0
 71
     0
 42
2.5
  3
ltypeshp.shx
  4

  0
STYLE
  5
6D
330
3
100
AcDbSymbolTableRecord
100
AcDbTextStyleTableRecord
  2
ACISOTS
 70
     0
 40
1.0
 41
1.0
 50
0.0
 71
     0
 42
1.0
  3
isocp.shx
  4
chineset.shx
  0
STYLE
  5
79
330
3
100
AcDbSymbolTableRecord
100
AcDbTextStyleTableRecord
  2
ACISOGDT
 70
     0
 40
0.0
 41
1.0
 50
0.0
 71
     0
 42
2.5
  3
amgdt.shx
  4
chineset.shx
  0
STYLE
  5
4026
330
3
100
AcDbSymbolTableRecord
100
AcDbTextStyleTableRecord
  2
CHINESET
 70
     0
 40
0.0
 41
1.0
 50
0.0
 71
     0
 42
3.0
  3
simplex.shx
  4
CHINESET.SHX
  0
ENDTAB
  0
TABLE
  2
VIEW
  5
6
330
0
100
AcDbSymbolTable
 70
     0
  0
ENDTAB
  0
TABLE
  2
UCS
  5
7
330
0
100
AcDbSymbolTable
 70
     0
  0
ENDTAB
  0
TABLE
  2
APPID
  5
9
330
0
100
AcDbSymbolTable
 70
    23
  0
APPID
  5
12
330
9
100
AcDbSymbolTableRecord
100
AcDbRegAppTableRecord
  2
ACAD
 70
     0
  0
APPID
  5
46
330
9
100
AcDbSymbolTableRecord
100
AcDbRegAppTableRecord
  2
MCAD_NO_VIS
 70
     0
  0
APPID
  5
47
330
9
100
AcDbSymbolTableRecord
100
AcDbRegAppTableRecord
  2
ACAD_TEMP_GRAPHIC
 70
     0
  0
APPID
  5
58
330
9
100
AcDbSymbolTableRecord
100
AcDbRegAppTableRecord
  2
ACATTRIBSERVICES
 70
     0
  0
APPID
  5
EE
330
9
100
AcDbSymbolTableRecord
100
AcDbRegAppTableRecord
  2
AD_DRAW
 70
     0
  0
APPID
  5
10C
330
9
100
AcDbSymbolTableRecord
100
AcDbRegAppTableRecord
  2
DESIGNERASSEMBLIES
 70
     0
  0
APPID
  5
111
330
9
100
AcDbSymbolTableRecord
100
AcDbRegAppTableRecord
  2
ACADM_DIM_EDIT
 70
     0
  0
APPID
  5
112
330
9
100
AcDbSymbolTableRecord
100
AcDbRegAppTableRecord
  2
AMDT_DM_ADJ
 70
     0
  0
APPID
  5
22C
330
9
100
AcDbSymbolTableRecord
100
AcDbRegAppTableRecord
  2
ACAD_DSTYLE_DIMTEXT_FILL
 70
     0
  0
APPID
  5
452
330
9
100
AcDbSymbolTableRecord
100
AcDbRegAppTableRecord
  2
GENIUS_GENOENT_13
 70
     0
  0
APPID
  5
453
330
9
100
AcDbSymbolTableRecord
100
AcDbRegAppTableRecord
  2
GENIUS_GENOBJ-N-CRS_13
 70
     0
  0
APPID
  5
454
330
9
100
AcDbSymbolTableRecord
100
AcDbRegAppTableRecord
  2
GENIUS_GENOLIS_13
 70
     0
  0
APPID
  5
455
330
9
100
AcDbSymbolTableRecord
100
AcDbRegAppTableRecord
  2
GENIUS_GENODEF_13
 70
     0
  0
APPID
  5
456
330
9
100
AcDbSymbolTableRecord
100
AcDbRegAppTableRecord
  2
GENIUS_GENOREF_13
 70
     0
  0
APPID
  5
6F3
330
9
100
AcDbSymbolTableRecord
100
AcDbRegAppTableRecord
  2
ACAD_PSEXT
 70
     0
  0
APPID
  5
808
330
9
100
AcDbSymbolTableRecord
100
AcDbRegAppTableRecord
  2
GENIUS_GENDTOL_13
 70
     0
  0
APPID
  5
167D
330
9
100
AcDbSymbolTableRecord
100
AcDbRegAppTableRecord
  2
GENIUS_GENOBJ-N-CEN_13
 70
     0
  0
APPID
  5
167E
330
9
100
AcDbSymbolTableRecord
100
AcDbRegAppTableRecord
  2
GENIUS_GENCEN_19
 70
     0
  0
APPID
  5
27A1
330
9
100
AcDbSymbolTableRecord
100
AcDbRegAppTableRecord
  2
GENIUS_GENOBJ-N-HTC_13
 70
     0
  0
APPID
  5
27A2
330
9
100
AcDbSymbolTableRecord
100
AcDbRegAppTableRecord
  2
GENIUS_GENHATCH_13
 70
     0
  0
APPID
  5
3FA1
330
9
100
AcDbSymbolTableRecord
100
AcDbRegAppTableRecord
  2
AcAecLayerStandard
 70
     0
  0
APPID
  5
3FDE
330
9
100
AcDbSymbolTableRecord
100
AcDbRegAppTableRecord
  2
GENIUS_GENREC_14
 70
     0
  0
APPID
  5
3FDF
330
9
100
AcDbSymbolTableRecord
100
AcDbRegAppTableRecord
  2
GENIUS_GENOBJ-N-REC_13
 70
     0
  0
ENDTAB
  0
TABLE
  2
DIMSTYLE
  5
A
330
0
100
AcDbSymbolTable
 70
    11
100
AcDbDimStyleTable
 71
     3
340
81
340
8B
340
86
  0
DIMSTYLE
105
81
330
A
100
AcDbSymbolTableRecord
100
AcDbDimStyleTableRecord
  2
AM_ISO
 70
     0
  4
"
 41
3.0
 42
1.0
 43
11.0
 44
1.5
 47
0.1
 48
0.1
 73
     0
 74
     0
 77
     1
 78
     8
 79
     2
140
3.5
141
0.0
143
0.0393701
146
0.6
147
0.7
172
     1
176
   256
177
   256
178
   256
271
     2
272
     2
283
     0
284
     8
340
11
371
    -1
372
    -1
  0
DIMSTYLE
105
82
330
A
100
AcDbSymbolTableRecord
100
AcDbDimStyleTableRecord
  2
AM_ISO$3
 70
     0
  4
"
 41
3.0
 42
1.0
 43
11.0
 44
1.5
 47
0.1
 48
0.1
 73
     0
 77
     1
 78
     8
 79
     2
140
3.5
141
0.0
143
0.0393701
146
0.6
147
0.7
176
   256
177
   256
178
   256
271
     2
272
     2
283
     0
284
     8
288
     1
289
     0
340
11
371
    -1
372
    -1
  0
DIMSTYLE
105
83
330
A
100
AcDbSymbolTableRecord
100
AcDbDimStyleTableRecord
  2
AM_ISO$4
 70
     0
  4
"
 41
3.0
 42
1.0
 43
11.0
 44
1.5
 47
0.1
 48
0.1
 73
     0
 77
     1
 78
     8
 79
     2
140
3.5
141
0.0
143
0.0393701
146
0.6
147
0.7
176
   256
177
   256
178
   256
271
     2
272
     2
283
     0
284
     8
288
     1
289
     0
340
11
371
    -1
372
    -1
  0
DIMSTYLE
105
84
330
A
100
AcDbSymbolTableRecord
100
AcDbDimStyleTableRecord
  2
AM_ISO$6
 70
     0
  4
"
 41
3.0
 42
1.0
 43
11.0
 44
1.5
 47
0.1
 48
0.1
 73
     0
 74
     0
 78
     8
 79
     2
140
3.5
141
0.0
143
0.0393701
146
0.6
147
0.7
172
     1
176
   256
177
   256
178
   256
271
     2
272
     2
283
     0
284
     8
340
11
371
    -1
372
    -1
  0
DIMSTYLE
105
85
330
A
100
AcDbSymbolTableRecord
100
AcDbDimStyleTableRecord
  2
AM_ISO$7
 70
     0
  4
"
 41
3.0
 42
1.0
 43
11.0
 44
1.5
 47
0.1
 48
0.1
 73
     0
 74
     0
 77
     1
 78
     8
 79
     2
140
5.0
141
0.0
143
0.0393701
146
0.6
147
0.7
172
     1
176
   256
177
   256
178
   256
271
     2
272
     2
283
     0
284
     8
340
11
371
    -1
372
    -1
  0
DIMSTYLE
105
86
330
A
100
AcDbSymbolTableRecord
100
AcDbDimStyleTableRecord
  2
AM_ISO$SF
 70
     0
  4
"
 41
2.5
 42
1.0
 43
10.0
 44
1.0
 47
0.1
 48
0.1
 73
     0
 74
     0
 75
     1
 76
     1
 77
     1
 78
     8
 79
     2
140
3.5
141
0.0
143
0.0393701
146
0.71
147
1.5
172
     1
176
   256
177
   256
178
     2
271
     2
272
     3
274
     4
283
     0
284
     8
340
11
371
    -1
372
    -1
  0
DIMSTYLE
105
8B
330
A
100
AcDbSymbolTableRecord
100
AcDbDimStyleTableRecord
  2
AM_ISO$SH
 70
     0
  4
"
 41
2.5
 42
1.0
 43
10.0
 44
1.0
 47
0.1
 48
0.1
 73
     0
 74
     0
 75
     1
 76
     1
 77
     1
 78
     8
 79
     2
140
3.5
141
0.0
143
0.0393701
144
2.0
146
0.71
147
1.5
172
     1
173
     1
176
   256
177
   256
178
     2
271
     2
272
     3
274
     4
283
     0
284
     8
340
11
343
87
371
    -1
372
    -1
  0
DIMSTYLE
105
40B
102
{ACAD_REACTORS
330
4F44
330
4F6A
330
4F90
330
4FB6
330
5004
330
502A
330
5050
330
5076
330
509C
330
50C2
330
50E8
330
510E
330
5134
330
515A
330
5184
102
}
330
A
100
AcDbSymbolTableRecord
100
AcDbDimStyleTableRecord
  2
AM_ISO$0
 70
     0
  4
"
 41
3.0
 42
1.0
 43
11.0
 44
1.5
 47
0.1
 48
0.1
 73
     0
 74
     0
 77
     1
 78
     8
 79
     2
140
3.5
141
0.0
143
0.0393701
146
0.6
147
0.7
172
     1
176
   256
177
   256
178
   256
271
     2
272
     2
283
     0
284
     8
340
11
371
    -1
372
    -1
  0
ENDTAB
  0
TABLE
  2
BLOCK_RECORD
  5
1
330
0
100
AcDbSymbolTable
 70
    24
  0
BLOCK_RECORD
  5
1F
102
{ACAD_XDICTIONARY
360
8F
102
}
330
1
100
AcDbSymbolTableRecord
100
AcDbBlockTableRecord
  2
*Model_Space
340
22
  0
BLOCK_RECORD
  5
1B
330
1
100
AcDbSymbolTableRecord
100
AcDbBlockTableRecord
  2
*Paper_Space
340
1E
  0
BLOCK_RECORD
  5
23
330
1
100
AcDbSymbolTableRecord
100
AcDbBlockTableRecord
  2
*Paper_Space0
340
26
  0
BLOCK_RECORD
  5
87
330
1
100
AcDbSymbolTableRecord
100
AcDbBlockTableRecord
  2
GENAXEH
340
0
  0
BLOCK_RECORD
  5
4F45
330
1
100
AcDbSymbolTableRecord
100
AcDbBlockTableRecord
  2
*D2
340
0
  0
BLOCK_RECORD
  5
4F6B
330
1
100
AcDbSymbolTableRecord
100
AcDbBlockTableRecord
  2
*D3
340
0
  0
BLOCK_RECORD
  5
4F91
330
1
100
AcDbSymbolTableRecord
100
AcDbBlockTableRecord
  2
*D4
340
0
  0
BLOCK_RECORD
  5
4FB7
330
1
100
AcDbSymbolTableRecord
100
AcDbBlockTableRecord
  2
*D5
340
0
  0
BLOCK_RECORD
  5
5005
330
1
100
AcDbSymbolTableRecord
100
AcDbBlockTableRecord
  2
*D6
340
0
  0
BLOCK_RECORD
  5
502B
330
1
100
AcDbSymbolTableRecord
100
AcDbBlockTableRecord
  2
*D7
340
0
  0
BLOCK_RECORD
  5
5051
330
1
100
AcDbSymbolTableRecord
100
AcDbBlockTableRecord
  2
*D8
340
0
  0
BLOCK_RECORD
  5
5077
330
1
100
AcDbSymbolTableRecord
100
AcDbBlockTableRecord
  2
*D9
340
0
  0
BLOCK_RECORD
  5
509D
330
1
100
AcDbSymbolTableRecord
100
AcDbBlockTableRecord
  2
*D10
340
0
  0
BLOCK_RECORD
  5
50C3
330
1
100
AcDbSymbolTableRecord
100
AcDbBlockTableRecord
  2
*D11
340
0
  0
BLOCK_RECORD
  5
50E9
330
1
100
AcDbSymbolTableRecord
100
AcDbBlockTableRecord
  2
*D12
340
0
  0
BLOCK_RECORD
  5
510F
330
1
100
AcDbSymbolTableRecord
100
AcDbBlockTableRecord
  2
*D13
340
0
  0
BLOCK_RECORD
  5
5135
330
1
100
AcDbSymbolTableRecord
100
AcDbBlockTableRecord
  2
*D14
340
0
  0
BLOCK_RECORD
  5
515B
330
1
100
AcDbSymbolTableRecord
100
AcDbBlockTableRecord
  2
*D15
340
0
  0
BLOCK_RECORD
  5
5185
330
1
100
AcDbSymbolTableRecord
100
AcDbBlockTableRecord
  2
*D16
340
0
  0
BLOCK_RECORD
  5
5CE3
330
1
100
AcDbSymbolTableRecord
100
AcDbBlockTableRecord
  2
*S17
340
0
102
{BLKREFS
331
5442
102
}
  0
BLOCK_RECORD
  5
5CEB
330
1
100
AcDbSymbolTableRecord
100
AcDbBlockTableRecord
  2
*S18
340
0
102
{BLKREFS
331
5447
102
}
  0
BLOCK_RECORD
  5
5CF3
330
1
100
AcDbSymbolTableRecord
100
AcDbBlockTableRecord
  2
*S19
340
0
102
{BLKREFS
331
544C
102
}
  0
BLOCK_RECORD
  5
5CFB
330
1
100
AcDbSymbolTableRecord
100
AcDbBlockTableRecord
  2
*S20
340
0
102
{BLKREFS
331
5C90
102
}
  0
ENDTAB
  0
ENDSEC
  0
SECTION
  2
BLOCKS
  0
BLOCK
  5
20
330
1F
100
AcDbEntity
  8
0
100
AcDbBlockBegin
  2
*Model_Space
 70
     0
 10
0.0
 20
0.0
 30
0.0
  3
*Model_Space
  1

  0
ENDBLK
  5
21
330
1F
100
AcDbEntity
  8
0
100
AcDbBlockEnd
  0
BLOCK
  5
1C
330
1B
100
AcDbEntity
 67
     1
  8
0
100
AcDbBlockBegin
  2
*Paper_Space
 70
     0
 10
0.0
 20
0.0
 30
0.0
  3
*Paper_Space
  1

  0
ENDBLK
  5
1D
330
1B
100
AcDbEntity
 67
     1
  8
0
100
AcDbBlockEnd
  0
BLOCK
  5
24
330
23
100
AcDbEntity
  8
0
100
AcDbBlockBegin
  2
*Paper_Space0
 70
     0
 10
0.0
 20
0.0
 30
0.0
  3
*Paper_Space0
  1

  0
ENDBLK
  5
25
330
23
100
AcDbEntity
  8
0
100
AcDbBlockEnd
  0
BLOCK
  5
89
330
87
100
AcDbEntity
  8
0
100
AcDbBlockBegin
  2
GENAXEH
 70
     0
 10
0.0
 20
0.0
 30
0.0
  3
GENAXEH
  1

  0
LINE
  5
88
330
87
100
AcDbEntity
  8
0
100
AcDbLine
 10
-1.0
 20
0.0
 30
0.0
 11
1.0
 21
0.0
 31
0.0
  0
ENDBLK
  5
8A
330
87
100
AcDbEntity
  8
0
100
AcDbBlockEnd
  0
BLOCK
  5
4F4F
330
4F45
100
AcDbEntity
  8
0
100
AcDbBlockBegin
  2
*D2
 70
     1
 10
0.0
 20
0.0
 30
0.0
  3
*D2
  1

  0
LINE
  5
5469
330
4F45
100
AcDbEntity
  8
AM_5
100
AcDbLine
 10
791.3213030579961
 20
1208.222330097609
 30
0.0
 11
791.3213030579961
 21
1193.472330097609
 31
0.0
  0
LINE
  5
546A
330
4F45
100
AcDbEntity
  8
AM_5
100
AcDbLine
 10
820.3213030579961
 20
1208.222330097609
 30
0.0
 11
820.3213030579961
 21
1193.472330097609
 31
0.0
  0
LINE
  5
546B
330
4F45
100
AcDbEntity
  8
AM_5
100
AcDbLine
 10
794.3213030579961
 20
1194.972330097609
 30
0.0
 11
817.3213030579962
 21
1194.972330097609
 31
0.0
  0
SOLID
  5
546C
330
4F45
100
AcDbEntity
  8
AM_5
100
AcDbTrace
 10
794.3213030579961
 20
1195.472330097609
 30
0.0
 11
794.3213030579961
 21
1194.472330097609
 31
0.0
 12
791.3213030579961
 22
1194.972330097609
 32
0.0
 13
791.3213030579961
 23
1194.972330097609
 33
0.0
  0
SOLID
  5
546D
330
4F45
100
AcDbEntity
  8
AM_5
100
AcDbTrace
 10
817.3213030579962
 20
1195.472330097609
 30
0.0
 11
817.3213030579962
 21
1194.472330097609
 31
0.0
 12
820.3213030579961
 22
1194.972330097609
 32
0.0
 13
820.3213030579961
 23
1194.972330097609
 33
0.0
  0
MTEXT
  5
546E
330
4F45
100
AcDbEntity
  8
AM_5
100
AcDbMText
 10
805.8213030579961
 20
1197.422674585798
 30
0.0
 40
3.5
 41
0.0
 71
     5
 72
     1
  1
29
 73
     1
 44
1.0
  0
POINT
  5
546F
330
4F45
100
AcDbEntity
  8
Defpoints
 62
     0
100
AcDbPoint
 10
791.3213030579961
 20
1209.222330097609
 30
0.0
  0
POINT
  5
5470
330
4F45
100
AcDbEntity
  8
Defpoints
 62
     0
100
AcDbPoint
 10
820.3213030579961
 20
1209.222330097609
 30
0.0
  0
POINT
  5
5471
330
4F45
100
AcDbEntity
  8
Defpoints
 62
     0
100
AcDbPoint
 10
820.3213030579961
 20
1194.972330097609
 30
0.0
  0
ENDBLK
  5
4F50
330
4F45
100
AcDbEntity
  8
0
100
AcDbBlockEnd
  0
BLOCK
  5
4F75
330
4F6B
100
AcDbEntity
  8
0
100
AcDbBlockBegin
  2
*D3
 70
     1
 10
0.0
 20
0.0
 30
0.0
  3
*D3
  1

  0
LINE
  5
5472
330
4F6B
100
AcDbEntity
  8
AM_5
100
AcDbLine
 10
820.3213030579961
 20
1208.222330097609
 30
0.0
 11
820.3213030579961
 21
1193.472330097609
 31
0.0
  0
LINE
  5
5473
330
4F6B
100
AcDbEntity
  8
AM_5
100
AcDbLine
 10
849.3213030579962
 20
1208.222330097609
 30
0.0
 11
849.3213030579962
 21
1193.472330097609
 31
0.0
  0
LINE
  5
5474
330
4F6B
100
AcDbEntity
  8
AM_5
100
AcDbLine
 10
823.321303057996
 20
1194.972330097609
 30
0.0
 11
846.3213030579961
 21
1194.972330097609
 31
0.0
  0
SOLID
  5
5475
330
4F6B
100
AcDbEntity
  8
AM_5
100
AcDbTrace
 10
823.321303057996
 20
1195.472330097609
 30
0.0
 11
823.321303057996
 21
1194.472330097609
 31
0.0
 12
820.3213030579961
 22
1194.972330097609
 32
0.0
 13
820.3213030579961
 23
1194.972330097609
 33
0.0
  0
SOLID
  5
5476
330
4F6B
100
AcDbEntity
  8
AM_5
100
AcDbTrace
 10
846.3213030579961
 20
1195.472330097609
 30
0.0
 11
846.3213030579961
 21
1194.472330097609
 31
0.0
 12
849.3213030579962
 22
1194.972330097609
 32
0.0
 13
849.3213030579962
 23
1194.972330097609
 33
0.0
  0
MTEXT
  5
5477
330
4F6B
100
AcDbEntity
  8
AM_5
100
AcDbMText
 10
834.8213030579961
 20
1197.422674585798
 30
0.0
 40
3.5
 41
0.0
 71
     5
 72
     1
  1
29
 73
     1
 44
1.0
  0
POINT
  5
5478
330
4F6B
100
AcDbEntity
  8
Defpoints
 62
     0
100
AcDbPoint
 10
820.3213030579961
 20
1209.222330097609
 30
0.0
  0
POINT
  5
5479
330
4F6B
100
AcDbEntity
  8
Defpoints
 62
     0
100
AcDbPoint
 10
849.3213030579962
 20
1209.222330097609
 30
0.0
  0
POINT
  5
547A
330
4F6B
100
AcDbEntity
  8
Defpoints
 62
     0
100
AcDbPoint
 10
849.3213030579962
 20
1194.972330097609
 30
0.0
  0
ENDBLK
  5
4F76
330
4F6B
100
AcDbEntity
  8
0
100
AcDbBlockEnd
  0
BLOCK
  5
4F9B
330
4F91
100
AcDbEntity
  8
0
100
AcDbBlockBegin
  2
*D4
 70
     1
 10
0.0
 20
0.0
 30
0.0
  3
*D4
  1

  0
LINE
  5
5C0A
330
4F91
100
AcDbEntity
  8
AM_5
100
AcDbLine
 10
753.3213030579958
 20
1286.428997407746
 30
0.0
 11
753.3213030579958
 21
1273.928997407745
 31
0.0
  0
LINE
  5
5C0B
330
4F91
100
AcDbEntity
  8
AM_5
100
AcDbLine
 10
805.8213030579961
 20
1289.178997407745
 30
0.0
 11
805.8213030579961
 21
1273.928997407745
 31
0.0
  0
LINE
  5
5C0C
330
4F91
100
AcDbEntity
  8
AM_5
100
AcDbLine
 10
756.3213030579959
 20
1275.428997407745
 30
0.0
 11
802.821303057996
 21
1275.428997407745
 31
0.0
  0
SOLID
  5
5C0D
330
4F91
100
AcDbEntity
  8
AM_5
100
AcDbTrace
 10
756.3213030579959
 20
1275.928997407745
 30
0.0
 11
756.3213030579959
 21
1274.928997407746
 31
0.0
 12
753.3213030579958
 22
1275.428997407745
 32
0.0
 13
753.3213030579958
 23
1275.428997407745
 33
0.0
  0
SOLID
  5
5C0E
330
4F91
100
AcDbEntity
  8
AM_5
100
AcDbTrace
 10
802.821303057996
 20
1275.928997407745
 30
0.0
 11
802.821303057996
 21
1274.928997407746
 31
0.0
 12
805.8213030579961
 22
1275.428997407745
 32
0.0
 13
805.8213030579961
 23
1275.428997407745
 33
0.0
  0
MTEXT
  5
5C0F
330
4F91
100
AcDbEntity
  8
AM_5
100
AcDbMText
 10
779.571303057996
 20
1277.879341895934
 30
0.0
 40
3.5
 41
0.0
 71
     5
 72
     1
  1
52.5
 73
     1
 44
1.0
  0
POINT
  5
5C10
330
4F91
100
AcDbEntity
  8
Defpoints
 62
     0
100
AcDbPoint
 10
753.3213030579958
 20
1287.428997407746
 30
0.0
  0
POINT
  5
5C11
330
4F91
100
AcDbEntity
  8
Defpoints
 62
     0
100
AcDbPoint
 10
805.8213030579961
 20
1290.178997407745
 30
0.0
  0
POINT
  5
5C12
330
4F91
100
AcDbEntity
  8
Defpoints
 62
     0
100
AcDbPoint
 10
805.8213030579961
 20
1275.428997407745
 30
0.0
  0
ENDBLK
  5
4F9C
330
4F91
100
AcDbEntity
  8
0
100
AcDbBlockEnd
  0
BLOCK
  5
4FC1
330
4FB7
100
AcDbEntity
  8
0
100
AcDbBlockBegin
  2
*D5
 70
     1
 10
0.0
 20
0.0
 30
0.0
  3
*D5
  1

  0
LINE
  5
5484
330
4FB7
100
AcDbEntity
  8
AM_5
100
AcDbLine
 10
805.8213030579961
 20
1289.178997407745
 30
0.0
 11
805.8213030579961
 21
1273.928997407745
 31
0.0
  0
LINE
  5
5485
330
4FB7
100
AcDbEntity
  8
AM_5
100
AcDbLine
 10
834.8213030579961
 20
1289.178997407745
 30
0.0
 11
834.8213030579961
 21
1273.928997407745
 31
0.0
  0
LINE
  5
5486
330
4FB7
100
AcDbEntity
  8
AM_5
100
AcDbLine
 10
808.8213030579961
 20
1275.428997407745
 30
0.0
 11
831.8213030579961
 21
1275.428997407745
 31
0.0
  0
SOLID
  5
5487
330
4FB7
100
AcDbEntity
  8
AM_5
100
AcDbTrace
 10
808.8213030579961
 20
1275.928997407745
 30
0.0
 11
808.8213030579961
 21
1274.928997407746
 31
0.0
 12
805.8213030579961
 22
1275.428997407745
 32
0.0
 13
805.8213030579961
 23
1275.428997407745
 33
0.0
  0
SOLID
  5
5488
330
4FB7
100
AcDbEntity
  8
AM_5
100
AcDbTrace
 10
831.8213030579961
 20
1275.928997407745
 30
0.0
 11
831.8213030579961
 21
1274.928997407746
 31
0.0
 12
834.8213030579961
 22
1275.428997407745
 32
0.0
 13
834.8213030579961
 23
1275.428997407745
 33
0.0
  0
MTEXT
  5
5489
330
4FB7
100
AcDbEntity
  8
AM_5
100
AcDbMText
 10
820.3213030579961
 20
1277.879341895934
 30
0.0
 40
3.5
 41
0.0
 71
     5
 72
     1
  1
29
 73
     1
 44
1.0
  0
POINT
  5
548A
330
4FB7
100
AcDbEntity
  8
Defpoints
 62
     0
100
AcDbPoint
 10
805.8213030579961
 20
1290.178997407745
 30
0.0
  0
POINT
  5
548B
330
4FB7
100
AcDbEntity
  8
Defpoints
 62
     0
100
AcDbPoint
 10
834.8213030579961
 20
1290.178997407745
 30
0.0
  0
POINT
  5
548C
330
4FB7
100
AcDbEntity
  8
Defpoints
 62
     0
100
AcDbPoint
 10
834.8213030579961
 20
1275.428997407745
 30
0.0
  0
ENDBLK
  5
4FC2
330
4FB7
100
AcDbEntity
  8
0
100
AcDbBlockEnd
  0
BLOCK
  5
500F
330
5005
100
AcDbEntity
  8
0
100
AcDbBlockBegin
  2
*D6
 70
     1
 10
0.0
 20
0.0
 30
0.0
  3
*D6
  1

  0
LINE
  5
5C13
330
5005
100
AcDbEntity
  8
AM_5
100
AcDbLine
 10
753.3213030579958
 20
1286.428997407746
 30
0.0
 11
753.3213030579958
 21
1262.928997407746
 31
0.0
  0
LINE
  5
5C14
330
5005
100
AcDbEntity
  8
AM_5
100
AcDbLine
 10
887.3213030579961
 20
1286.428997407745
 30
0.0
 11
887.3213030579961
 21
1262.928997407746
 31
0.0
  0
LINE
  5
5C15
330
5005
100
AcDbEntity
  8
AM_5
100
AcDbLine
 10
756.3213030579959
 20
1264.428997407746
 30
0.0
 11
884.3213030579962
 21
1264.428997407746
 31
0.0
  0
SOLID
  5
5C16
330
5005
100
AcDbEntity
  8
AM_5
100
AcDbTrace
 10
756.3213030579959
 20
1264.928997407746
 30
0.0
 11
756.3213030579959
 21
1263.928997407746
 31
0.0
 12
753.3213030579958
 22
1264.428997407746
 32
0.0
 13
753.3213030579958
 23
1264.428997407746
 33
0.0
  0
SOLID
  5
5C17
330
5005
100
AcDbEntity
  8
AM_5
100
AcDbTrace
 10
884.3213030579962
 20
1264.928997407746
 30
0.0
 11
884.3213030579962
 21
1263.928997407746
 31
0.0
 12
887.3213030579961
 22
1264.428997407746
 32
0.0
 13
887.3213030579961
 23
1264.428997407746
 33
0.0
  0
MTEXT
  5
5C18
330
5005
100
AcDbEntity
  8
AM_5
100
AcDbMText
 10
820.3213030579959
 20
1266.878997407746
 30
0.0
 40
3.5
 41
0.0
 71
     5
 72
     1
  1
134
 73
     1
 44
1.0
  0
POINT
  5
5C19
330
5005
100
AcDbEntity
  8
Defpoints
 62
     0
100
AcDbPoint
 10
753.3213030579958
 20
1287.428997407746
 30
0.0
  0
POINT
  5
5C1A
330
5005
100
AcDbEntity
  8
Defpoints
 62
     0
100
AcDbPoint
 10
887.3213030579961
 20
1287.428997407745
 30
0.0
  0
POINT
  5
5C1B
330
5005
100
AcDbEntity
  8
Defpoints
 62
     0
100
AcDbPoint
 10
887.3213030579961
 20
1264.428997407746
 30
0.0
  0
ENDBLK
  5
5010
330
5005
100
AcDbEntity
  8
0
100
AcDbBlockEnd
  0
BLOCK
  5
5035
330
502B
100
AcDbEntity
  8
0
100
AcDbBlockBegin
  2
*D7
 70
     1
 10
0.0
 20
0.0
 30
0.0
  3
*D7
  1

  0
LINE
  5
5496
330
502B
100
AcDbEntity
  8
AM_5
100
AcDbLine
 10
888.3213030579961
 20
1287.428997407745
 30
0.0
 11
900.8213030579961
 21
1287.428997407745
 31
0.0
  0
LINE
  5
5497
330
502B
100
AcDbEntity
  8
AM_5
100
AcDbLine
 10
888.3213030579961
 20
1333.828997407745
 30
0.0
 11
900.8213030579961
 21
1333.828997407745
 31
0.0
  0
LINE
  5
5498
330
502B
100
AcDbEntity
  8
AM_5
100
AcDbLine
 10
899.3213030579962
 20
1290.428997407745
 30
0.0
 11
899.3213030579962
 21
1330.828997407745
 31
0.0
  0
SOLID
  5
5499
330
502B
100
AcDbEntity
  8
AM_5
100
AcDbTrace
 10
898.8213030579961
 20
1290.428997407745
 30
0.0
 11
899.8213030579961
 21
1290.428997407745
 31
0.0
 12
899.3213030579962
 22
1287.428997407745
 32
0.0
 13
899.3213030579962
 23
1287.428997407745
 33
0.0
  0
SOLID
  5
549A
330
502B
100
AcDbEntity
  8
AM_5
100
AcDbTrace
 10
898.8213030579961
 20
1330.828997407745
 30
0.0
 11
899.8213030579961
 21
1330.828997407745
 31
0.0
 12
899.3213030579962
 22
1333.828997407745
 32
0.0
 13
899.3213030579962
 23
1333.828997407745
 33
0.0
  0
MTEXT
  5
549B
330
502B
100
AcDbEntity
  8
AM_5
100
AcDbMText
 10
896.8713030579959
 20
1310.628997407746
 30
0.0
 40
3.5
 41
0.0
 71
     5
 72
     1
  1
46.4
 11
0.0000000000000001
 21
1.0
 31
0.0
 73
     1
 44
1.0
  0
POINT
  5
549C
330
502B
100
AcDbEntity
  8
Defpoints
 62
     0
100
AcDbPoint
 10
887.3213030579961
 20
1287.428997407745
 30
0.0
  0
POINT
  5
549D
330
502B
100
AcDbEntity
  8
Defpoints
 62
     0
100
AcDbPoint
 10
887.3213030579961
 20
1333.828997407745
 30
0.0
  0
POINT
  5
549E
330
502B
100
AcDbEntity
  8
Defpoints
 62
     0
100
AcDbPoint
 10
899.3213030579962
 20
1333.828997407745
 30
0.0
  0
ENDBLK
  5
5036
330
502B
100
AcDbEntity
  8
0
100
AcDbBlockEnd
  0
BLOCK
  5
505B
330
5051
100
AcDbEntity
  8
0
100
AcDbBlockBegin
  2
*D8
 70
     1
 10
0.0
 20
0.0
 30
0.0
  3
*D8
  1

  0
LINE
  5
54F8
330
5051
100
AcDbEntity
  8
AM_5
100
AcDbLine
 10
927.2674815604894
 20
1287.428997407745
 30
0.0
 11
914.7674815604894
 21
1287.428997407745
 31
0.0
  0
LINE
  5
54F9
330
5051
100
AcDbEntity
  8
AM_5
100
AcDbLine
 10
935.4174815604892
 20
1304.428997407745
 30
0.0
 11
914.7674815604894
 21
1304.428997407745
 31
0.0
  0
LINE
  5
54FA
330
5051
100
AcDbEntity
  8
AM_5
100
AcDbLine
 10
916.2674815604894
 20
1290.428997407745
 30
0.0
 11
916.2674815604894
 21
1301.428997407745
 31
0.0
  0
SOLID
  5
54FB
330
5051
100
AcDbEntity
  8
AM_5
100
AcDbTrace
 10
915.7674815604893
 20
1290.428997407745
 30
0.0
 11
916.7674815604893
 21
1290.428997407745
 31
0.0
 12
916.2674815604894
 22
1287.428997407745
 32
0.0
 13
916.2674815604894
 23
1287.428997407745
 33
0.0
  0
SOLID
  5
54FC
330
5051
100
AcDbEntity
  8
AM_5
100
AcDbTrace
 10
915.7674815604893
 20
1301.428997407745
 30
0.0
 11
916.7674815604893
 21
1301.428997407745
 31
0.0
 12
916.2674815604894
 22
1304.428997407745
 32
0.0
 13
916.2674815604894
 23
1304.428997407745
 33
0.0
  0
MTEXT
  5
54FD
330
5051
100
AcDbEntity
  8
AM_5
100
AcDbMText
 10
913.8174815604891
 20
1295.928997407746
 30
0.0
 40
3.5
 41
0.0
 71
     5
 72
     1
  1
17
 11
0.0000000000000001
 21
1.0
 31
0.0
 73
     1
 44
1.0
  0
POINT
  5
54FE
330
5051
100
AcDbEntity
  8
Defpoints
 62
     0
100
AcDbPoint
 10
928.2674815604893
 20
1287.428997407745
 30
0.0
  0
POINT
  5
54FF
330
5051
100
AcDbEntity
  8
Defpoints
 62
     0
100
AcDbPoint
 10
936.4174815604892
 20
1304.428997407745
 30
0.0
  0
POINT
  5
5500
330
5051
100
AcDbEntity
  8
Defpoints
 62
     0
100
AcDbPoint
 10
916.2674815604894
 20
1304.428997407745
 30
0.0
  0
ENDBLK
  5
505C
330
5051
100
AcDbEntity
  8
0
100
AcDbBlockEnd
  0
BLOCK
  5
5081
330
5077
100
AcDbEntity
  8
0
100
AcDbBlockBegin
  2
*D9
 70
     1
 10
0.0
 20
0.0
 30
0.0
  3
*D9
  1

  0
LINE
  5
5C5A
330
5077
100
AcDbEntity
  8
AM_5
100
AcDbLine
 10
777.3213030579961
 20
1417.035043299252
 30
0.0
 11
739.8213030579959
 21
1417.035043299252
 31
0.0
  0
LINE
  5
5C5B
330
5077
100
AcDbEntity
  8
AM_5
100
AcDbLine
 10
849.3213030579962
 20
1394.035043299252
 30
0.0
 11
739.8213030579959
 21
1394.035043299252
 31
0.0
  0
LINE
  5
5C5C
330
5077
100
AcDbEntity
  8
AM_5
100
AcDbLine
 10
741.3213030579959
 20
1414.035043299252
 30
0.0
 11
741.3213030579959
 21
1397.035043299252
 31
0.0
  0
SOLID
  5
5C5D
330
5077
100
AcDbEntity
  8
AM_5
100
AcDbTrace
 10
740.8213030579958
 20
1414.035043299252
 30
0.0
 11
741.8213030579959
 21
1414.035043299252
 31
0.0
 12
741.3213030579959
 22
1417.035043299252
 32
0.0
 13
741.3213030579959
 23
1417.035043299252
 33
0.0
  0
SOLID
  5
5C5E
330
5077
100
AcDbEntity
  8
AM_5
100
AcDbTrace
 10
740.8213030579958
 20
1397.035043299252
 30
0.0
 11
741.8213030579959
 21
1397.035043299252
 31
0.0
 12
741.3213030579959
 22
1394.035043299252
 32
0.0
 13
741.3213030579959
 23
1394.035043299252
 33
0.0
  0
MTEXT
  5
5C5F
330
5077
100
AcDbEntity
  8
AM_5
100
AcDbMText
 10
738.8709585698067
 20
1405.535043299253
 30
0.0
 40
3.5
 41
0.0
 71
     5
 72
     1
  1
23
 11
0.0000000000000001
 21
1.0
 31
0.0
 73
     1
 44
1.0
  0
POINT
  5
5C60
330
5077
100
AcDbEntity
  8
Defpoints
 62
     0
100
AcDbPoint
 10
778.3213030579961
 20
1417.035043299252
 30
0.0
  0
POINT
  5
5C61
330
5077
100
AcDbEntity
  8
Defpoints
 62
     0
100
AcDbPoint
 10
850.3213030579962
 20
1394.035043299252
 30
0.0
  0
POINT
  5
5C62
330
5077
100
AcDbEntity
  8
Defpoints
 62
     0
100
AcDbPoint
 10
741.3213030579959
 20
1394.035043299252
 30
0.0
  0
ENDBLK
  5
5082
330
5077
100
AcDbEntity
  8
0
100
AcDbBlockEnd
  0
BLOCK
  5
50A7
330
509D
100
AcDbEntity
  8
0
100
AcDbBlockBegin
  2
*D10
 70
     1
 10
0.0
 20
0.0
 30
0.0
  3
*D10
  1

  0
LINE
  5
5C75
330
509D
100
AcDbEntity
  8
AM_5
100
AcDbLine
 10
752.3213030579959
 20
1420.535043299252
 30
0.0
 11
728.8213030579959
 21
1420.535043299252
 31
0.0
  0
LINE
  5
5C76
330
509D
100
AcDbEntity
  8
AM_5
100
AcDbLine
 10
752.3213030579959
 20
1390.535043299252
 30
0.0
 11
728.8213030579959
 21
1390.535043299252
 31
0.0
  0
LINE
  5
5C77
330
509D
100
AcDbEntity
  8
AM_5
100
AcDbLine
 10
730.3213030579959
 20
1417.535043299252
 30
0.0
 11
730.3213030579959
 21
1393.535043299252
 31
0.0
  0
SOLID
  5
5C78
330
509D
100
AcDbEntity
  8
AM_5
100
AcDbTrace
 10
729.8213030579959
 20
1417.535043299252
 30
0.0
 11
730.8213030579959
 21
1417.535043299252
 31
0.0
 12
730.3213030579959
 22
1420.535043299252
 32
0.0
 13
730.3213030579959
 23
1420.535043299252
 33
0.0
  0
SOLID
  5
5C79
330
509D
100
AcDbEntity
  8
AM_5
100
AcDbTrace
 10
729.8213030579959
 20
1393.535043299252
 30
0.0
 11
730.8213030579959
 21
1393.535043299252
 31
0.0
 12
730.3213030579959
 22
1390.535043299252
 32
0.0
 13
730.3213030579959
 23
1390.535043299252
 33
0.0
  0
MTEXT
  5
5C7A
330
509D
100
AcDbEntity
  8
AM_5
100
AcDbMText
 10
727.8713030579956
 20
1405.535043299253
 30
0.0
 40
3.5
 41
0.0
 71
     5
 72
     1
  1
30
 11
0.0000000000000001
 21
1.0
 31
0.0
 73
     1
 44
1.0
  0
POINT
  5
5C7B
330
509D
100
AcDbEntity
  8
Defpoints
 62
     0
100
AcDbPoint
 10
753.3213030579958
 20
1420.535043299252
 30
0.0
  0
POINT
  5
5C7C
330
509D
100
AcDbEntity
  8
Defpoints
 62
     0
100
AcDbPoint
 10
753.3213030579958
 20
1390.535043299252
 30
0.0
  0
POINT
  5
5C7D
330
509D
100
AcDbEntity
  8
Defpoints
 62
     0
100
AcDbPoint
 10
730.3213030579959
 20
1390.535043299252
 30
0.0
  0
ENDBLK
  5
50A8
330
509D
100
AcDbEntity
  8
0
100
AcDbBlockEnd
  0
BLOCK
  5
50CD
330
50C3
100
AcDbEntity
  8
0
100
AcDbBlockBegin
  2
*D11
 70
     1
 10
0.0
 20
0.0
 30
0.0
  3
*D11
  1

  0
LINE
  5
54BA
330
50C3
100
AcDbEntity
  8
AM_5
100
AcDbLine
 10
806.321303057996
 20
1421.535043299253
 30
0.0
 11
806.321303057996
 21
1434.035043299252
 31
0.0
  0
LINE
  5
54BB
330
50C3
100
AcDbEntity
  8
AM_5
100
AcDbLine
 10
834.3213030579962
 20
1417.035043299252
 30
0.0
 11
834.3213030579962
 21
1434.035043299252
 31
0.0
  0
LINE
  5
54BC
330
50C3
100
AcDbEntity
  8
AM_5
100
AcDbLine
 10
809.3213030579962
 20
1432.535043299252
 30
0.0
 11
831.321303057996
 21
1432.535043299252
 31
0.0
  0
SOLID
  5
54BD
330
50C3
100
AcDbEntity
  8
AM_5
100
AcDbTrace
 10
809.3213030579962
 20
1433.035043299253
 30
0.0
 11
809.3213030579962
 21
1432.035043299253
 31
0.0
 12
806.321303057996
 22
1432.535043299252
 32
0.0
 13
806.321303057996
 23
1432.535043299252
 33
0.0
  0
SOLID
  5
54BE
330
50C3
100
AcDbEntity
  8
AM_5
100
AcDbTrace
 10
831.321303057996
 20
1433.035043299253
 30
0.0
 11
831.321303057996
 21
1432.035043299253
 31
0.0
 12
834.3213030579962
 22
1432.535043299252
 32
0.0
 13
834.3213030579962
 23
1432.535043299252
 33
0.0
  0
MTEXT
  5
54BF
330
50C3
100
AcDbEntity
  8
AM_5
100
AcDbMText
 10
820.3213030579961
 20
1434.985387787441
 30
0.0
 40
3.5
 41
0.0
 71
     5
 72
     1
  1
28
 73
     1
 44
1.0
  0
POINT
  5
54C0
330
50C3
100
AcDbEntity
  8
Defpoints
 62
     0
100
AcDbPoint
 10
806.321303057996
 20
1420.535043299253
 30
0.0
  0
POINT
  5
54C1
330
50C3
100
AcDbEntity
  8
Defpoints
 62
     0
100
AcDbPoint
 10
834.3213030579962
 20
1416.035043299252
 30
0.0
  0
POINT
  5
54C2
330
50C3
100
AcDbEntity
  8
Defpoints
 62
     0
100
AcDbPoint
 10
834.3213030579962
 20
1432.535043299252
 30
0.0
  0
ENDBLK
  5
50CE
330
50C3
100
AcDbEntity
  8
0
100
AcDbBlockEnd
  0
BLOCK
  5
50F3
330
50E9
100
AcDbEntity
  8
0
100
AcDbBlockBegin
  2
*D12
 70
     1
 10
0.0
 20
0.0
 30
0.0
  3
*D12
  1

  0
LINE
  5
5C7E
330
50E9
100
AcDbEntity
  8
AM_5
100
AcDbLine
 10
753.3213030579958
 20
1389.535043299252
 30
0.0
 11
753.3213030579958
 21
1377.035043299252
 31
0.0
  0
LINE
  5
5C7F
330
50E9
100
AcDbEntity
  8
AM_5
100
AcDbLine
 10
784.3213030579961
 20
1410.035043299252
 30
0.0
 11
784.3213030579961
 21
1377.035043299252
 31
0.0
  0
LINE
  5
5C80
330
50E9
100
AcDbEntity
  8
AM_5
100
AcDbLine
 10
756.3213030579959
 20
1378.535043299252
 30
0.0
 11
781.3213030579961
 21
1378.535043299252
 31
0.0
  0
SOLID
  5
5C81
330
50E9
100
AcDbEntity
  8
AM_5
100
AcDbTrace
 10
756.3213030579959
 20
1379.035043299252
 30
0.0
 11
756.3213030579959
 21
1378.035043299252
 31
0.0
 12
753.3213030579958
 22
1378.535043299252
 32
0.0
 13
753.3213030579958
 23
1378.535043299252
 33
0.0
  0
SOLID
  5
5C82
330
50E9
100
AcDbEntity
  8
AM_5
100
AcDbTrace
 10
781.3213030579961
 20
1379.035043299252
 30
0.0
 11
781.3213030579961
 21
1378.035043299252
 31
0.0
 12
784.3213030579961
 22
1378.535043299252
 32
0.0
 13
784.3213030579961
 23
1378.535043299252
 33
0.0
  0
MTEXT
  5
5C83
330
50E9
100
AcDbEntity
  8
AM_5
100
AcDbMText
 10
768.821303057996
 20
1380.985043299252
 30
0.0
 40
3.5
 41
0.0
 71
     5
 72
     1
  1
31
 73
     1
 44
1.0
  0
POINT
  5
5C84
330
50E9
100
AcDbEntity
  8
Defpoints
 62
     0
100
AcDbPoint
 10
753.3213030579958
 20
1390.535043299252
 30
0.0
  0
POINT
  5
5C85
330
50E9
100
AcDbEntity
  8
Defpoints
 62
     0
100
AcDbPoint
 10
784.3213030579961
 20
1411.035043299252
 30
0.0
  0
POINT
  5
5C86
330
50E9
100
AcDbEntity
  8
Defpoints
 62
     0
100
AcDbPoint
 10
784.3213030579961
 20
1378.535043299252
 30
0.0
  0
ENDBLK
  5
50F4
330
50E9
100
AcDbEntity
  8
0
100
AcDbBlockEnd
  0
BLOCK
  5
5119
330
510F
100
AcDbEntity
  8
0
100
AcDbBlockBegin
  2
*D13
 70
     1
 10
0.0
 20
0.0
 30
0.0
  3
*D13
  1

  0
LINE
  5
54CC
330
510F
100
AcDbEntity
  8
AM_5
100
AcDbLine
 10
784.3213030579961
 20
1409.035043299252
 30
0.0
 11
784.3213030579961
 21
1377.035043299253
 31
0.0
  0
LINE
  5
54CD
330
510F
100
AcDbEntity
  8
AM_5
100
AcDbLine
 10
856.321303057996
 20
1387.035043299252
 30
0.0
 11
856.321303057996
 21
1377.035043299253
 31
0.0
  0
LINE
  5
54CE
330
510F
100
AcDbEntity
  8
AM_5
100
AcDbLine
 10
787.3213030579961
 20
1378.535043299253
 30
0.0
 11
853.3213030579961
 21
1378.535043299253
 31
0.0
  0
SOLID
  5
54CF
330
510F
100
AcDbEntity
  8
AM_5
100
AcDbTrace
 10
787.3213030579961
 20
1379.035043299253
 30
0.0
 11
787.3213030579961
 21
1378.035043299252
 31
0.0
 12
784.3213030579961
 22
1378.535043299253
 32
0.0
 13
784.3213030579961
 23
1378.535043299253
 33
0.0
  0
SOLID
  5
54D0
330
510F
100
AcDbEntity
  8
AM_5
100
AcDbTrace
 10
853.3213030579961
 20
1379.035043299253
 30
0.0
 11
853.3213030579961
 21
1378.035043299252
 31
0.0
 12
856.321303057996
 22
1378.535043299253
 32
0.0
 13
856.321303057996
 23
1378.535043299253
 33
0.0
  0
MTEXT
  5
54D1
330
510F
100
AcDbEntity
  8
AM_5
100
AcDbMText
 10
820.3213030579961
 20
1380.985387787442
 30
0.0
 40
3.5
 41
0.0
 71
     5
 72
     1
  1
72
 73
     1
 44
1.0
  0
POINT
  5
54D2
330
510F
100
AcDbEntity
  8
Defpoints
 62
     0
100
AcDbPoint
 10
784.3213030579961
 20
1410.035043299252
 30
0.0
  0
POINT
  5
54D3
330
510F
100
AcDbEntity
  8
Defpoints
 62
     0
100
AcDbPoint
 10
856.321303057996
 20
1388.035043299252
 30
0.0
  0
POINT
  5
54D4
330
510F
100
AcDbEntity
  8
Defpoints
 62
     0
100
AcDbPoint
 10
856.321303057996
 20
1378.535043299253
 30
0.0
  0
ENDBLK
  5
511A
330
510F
100
AcDbEntity
  8
0
100
AcDbBlockEnd
  0
BLOCK
  5
513F
330
5135
100
AcDbEntity
  8
0
100
AcDbBlockBegin
  2
*D14
 70
     1
 10
0.0
 20
0.0
 30
0.0
  3
*D14
  1

  0
LINE
  5
5C87
330
5135
100
AcDbEntity
  8
AM_5
100
AcDbLine
 10
753.3213030579958
 20
1421.535043299252
 30
0.0
 11
753.3213030579958
 21
1434.035043299252
 31
0.0
  0
LINE
  5
5C88
330
5135
100
AcDbEntity
  8
AM_5
100
AcDbLine
 10
806.321303057996
 20
1421.535043299253
 30
0.0
 11
806.321303057996
 21
1434.035043299252
 31
0.0
  0
LINE
  5
5C89
330
5135
100
AcDbEntity
  8
AM_5
100
AcDbLine
 10
756.3213030579959
 20
1432.535043299252
 30
0.0
 11
803.3213030579961
 21
1432.535043299252
 31
0.0
  0
SOLID
  5
5C8A
330
5135
100
AcDbEntity
  8
AM_5
100
AcDbTrace
 10
756.3213030579959
 20
1433.035043299252
 30
0.0
 11
756.3213030579959
 21
1432.035043299252
 31
0.0
 12
753.3213030579958
 22
1432.535043299252
 32
0.0
 13
753.3213030579958
 23
1432.535043299252
 33
0.0
  0
SOLID
  5
5C8B
330
5135
100
AcDbEntity
  8
AM_5
100
AcDbTrace
 10
803.3213030579961
 20
1433.035043299252
 30
0.0
 11
803.3213030579961
 21
1432.035043299252
 31
0.0
 12
806.321303057996
 22
1432.535043299252
 32
0.0
 13
806.321303057996
 23
1432.535043299252
 33
0.0
  0
MTEXT
  5
5C8C
330
5135
100
AcDbEntity
  8
AM_5
100
AcDbMText
 10
779.821303057996
 20
1434.985043299252
 30
0.0
 40
3.5
 41
0.0
 71
     5
 72
     1
  1
53
 73
     1
 44
1.0
  0
POINT
  5
5C8D
330
5135
100
AcDbEntity
  8
Defpoints
 62
     0
100
AcDbPoint
 10
753.3213030579958
 20
1420.535043299252
 30
0.0
  0
POINT
  5
5C8E
330
5135
100
AcDbEntity
  8
Defpoints
 62
     0
100
AcDbPoint
 10
806.321303057996
 20
1420.535043299253
 30
0.0
  0
POINT
  5
5C8F
330
5135
100
AcDbEntity
  8
Defpoints
 62
     0
100
AcDbPoint
 10
806.321303057996
 20
1432.535043299252
 30
0.0
  0
ENDBLK
  5
5140
330
5135
100
AcDbEntity
  8
0
100
AcDbBlockEnd
  0
BLOCK
  5
5167
330
515B
100
AcDbEntity
  8
0
100
AcDbBlockBegin
  2
*D15
 70
     1
 10
0.0
 20
0.0
 30
0.0
  3
*D15
  1

  0
LINE
  5
5C3D
330
515B
100
AcDbEntity
  8
AM_5
100
AcDbLine
 10
796.6307840819575
 20
1287.428997407745
 30
0.0
 11
787.2424136004667
 21
1287.428997407745
 31
0.0
  0
LINE
  5
5C3E
330
515B
100
AcDbEntity
  8
AM_5
100
AcDbLine
 10
800.5713030579961
 20
1294.428997407745
 30
0.0
 11
787.2424136004667
 21
1294.428997407745
 31
0.0
  0
LINE
  5
5C3F
330
515B
100
AcDbEntity
  8
AM_5
100
AcDbLine
 10
788.7424136004668
 20
1284.428997407745
 30
0.0
 11
788.7424136004668
 21
1281.428997407745
 31
0.0
  0
LINE
  5
5C40
330
515B
100
AcDbEntity
  8
AM_5
100
AcDbLine
 10
788.7424136004668
 20
1297.428997407745
 30
0.0
 11
788.7424136004668
 21
1303.228997407745
 31
0.0
  0
LINE
  5
5C41
330
515B
100
AcDbEntity
  8
AM_5
100
AcDbLine
 10
788.7424136004668
 20
1287.428997407745
 30
0.0
 11
788.7424136004668
 21
1294.428997407745
 31
0.0
  0
SOLID
  5
5C42
330
515B
100
AcDbEntity
  8
AM_5
100
AcDbTrace
 10
788.2424136004667
 20
1284.428997407745
 30
0.0
 11
789.2424136004668
 21
1284.428997407745
 31
0.0
 12
788.7424136004668
 22
1287.428997407745
 32
0.0
 13
788.7424136004668
 23
1287.428997407745
 33
0.0
  0
SOLID
  5
5C43
330
515B
100
AcDbEntity
  8
AM_5
100
AcDbTrace
 10
788.2424136004667
 20
1297.428997407745
 30
0.0
 11
789.2424136004668
 21
1297.428997407745
 31
0.0
 12
788.7424136004668
 22
1294.428997407745
 32
0.0
 13
788.7424136004668
 23
1294.428997407745
 33
0.0
  0
MTEXT
  5
5C44
330
515B
100
AcDbEntity
  8
AM_5
100
AcDbMText
 10
786.2924136004664
 20
1301.828997407746
 30
0.0
 40
3.5
 41
0.0
 71
     5
 72
     1
  1
7
 11
0.0000000000000001
 21
1.0
 31
0.0
 73
     1
 44
1.0
  0
POINT
  5
5C45
330
515B
100
AcDbEntity
  8
Defpoints
 62
     0
100
AcDbPoint
 10
797.6307840819575
 20
1287.428997407745
 30
0.0
  0
POINT
  5
5C46
330
515B
100
AcDbEntity
  8
Defpoints
 62
     0
100
AcDbPoint
 10
801.5713030579961
 20
1294.428997407745
 30
0.0
  0
POINT
  5
5C47
330
515B
100
AcDbEntity
  8
Defpoints
 62
     0
100
AcDbPoint
 10
788.7424136004668
 20
1294.428997407745
 30
0.0
  0
ENDBLK
  5
5168
330
515B
100
AcDbEntity
  8
0
100
AcDbBlockEnd
  0
BLOCK
  5
5191
330
5185
100
AcDbEntity
  8
0
100
AcDbBlockBegin
  2
*D16
 70
     1
 10
0.0
 20
0.0
 30
0.0
  3
*D16
  1

  0
LINE
  5
54E9
330
5185
100
AcDbEntity
  8
AM_5
100
AcDbLine
 10
861.3213030579961
 20
1333.828997407745
 30
0.0
 11
873.8213030579961
 21
1333.828997407745
 31
0.0
  0
LINE
  5
54EA
330
5185
100
AcDbEntity
  8
AM_5
100
AcDbLine
 10
861.3213030579961
 20
1329.828997407745
 30
0.0
 11
873.8213030579961
 21
1329.828997407745
 31
0.0
  0
LINE
  5
54EB
330
5185
100
AcDbEntity
  8
AM_5
100
AcDbLine
 10
872.3213030579961
 20
1336.828997407745
 30
0.0
 11
872.3213030579961
 21
1339.828997407745
 31
0.0
  0
LINE
  5
54EC
330
5185
100
AcDbEntity
  8
AM_5
100
AcDbLine
 10
872.3213030579961
 20
1326.828997407745
 30
0.0
 11
872.3213030579961
 21
1323.828997407745
 31
0.0
  0
LINE
  5
54ED
330
5185
100
AcDbEntity
  8
AM_5
100
AcDbLine
 10
872.3213030579961
 20
1333.828997407745
 30
0.0
 11
872.3213030579961
 21
1329.828997407745
 31
0.0
  0
SOLID
  5
54EE
330
5185
100
AcDbEntity
  8
AM_5
100
AcDbTrace
 10
871.8213030579962
 20
1336.828997407745
 30
0.0
 11
872.8213030579961
 21
1336.828997407745
 31
0.0
 12
872.3213030579961
 22
1333.828997407745
 32
0.0
 13
872.3213030579961
 23
1333.828997407745
 33
0.0
  0
SOLID
  5
54EF
330
5185
100
AcDbEntity
  8
AM_5
100
AcDbTrace
 10
871.8213030579962
 20
1326.828997407745
 30
0.0
 11
872.8213030579961
 21
1326.828997407745
 31
0.0
 12
872.3213030579961
 22
1329.828997407745
 32
0.0
 13
872.3213030579961
 23
1329.828997407745
 33
0.0
  0
MTEXT
  5
54F0
330
5185
100
AcDbEntity
  8
AM_5
100
AcDbMText
 10
869.8713030579959
 20
1331.828997407746
 30
0.0
 40
3.5
 41
0.0
 71
     5
 72
     1
  1
4
 11
0.0000000000000001
 21
1.0
 31
0.0
 73
     1
 44
1.0
  0
POINT
  5
54F1
330
5185
100
AcDbEntity
  8
Defpoints
 62
     0
100
AcDbPoint
 10
860.3213030579961
 20
1333.828997407745
 30
0.0
  0
POINT
  5
54F2
330
5185
100
AcDbEntity
  8
Defpoints
 62
     0
100
AcDbPoint
 10
860.3213030579961
 20
1329.828997407745
 30
0.0
  0
POINT
  5
54F3
330
5185
100
AcDbEntity
  8
Defpoints
 62
     0
100
AcDbPoint
 10
872.3213030579961
 20
1329.828997407745
 30
0.0
  0
ENDBLK
  5
5192
330
5185
100
AcDbEntity
  8
0
100
AcDbBlockEnd
  0
BLOCK
  5
5CE8
330
5CE3
100
AcDbEntity
  8
0
100
AcDbBlockBegin
  2
*S17
 70
     1
 10
0.0
 20
0.0
 30
0.0
  3
*S17
  1

  0
LINE
  5
5CE4
330
5CE3
100
AcDbEntity
  8
AM_5
 62
     5
100
AcDbLine
 10
916.6704875780935
 20
1277.017606046486
 30
0.0
 11
931.8685230186979
 21
1277.017606046486
 31
0.0
  0
LINE
  5
5CE5
330
5CE3
100
AcDbEntity
  8
AM_5
 62
     5
100
AcDbLine
 10
931.8685230186979
 20
1277.017606046486
 30
0.0
 11
939.1641002238788
 21
1296.715432372153
 31
0.0
  0
TRACE
  5
5CE6
330
5CE3
100
AcDbEntity
  8
AM_5
 62
     5
370
    35
100
AcDbTrace
 10
939.5961989903131
 20
1296.555393906047
 30
0.0
 11
938.7320014574447
 21
1296.875470838259
 31
0.0
 12
940.3797130664225
 22
1299.997548369043
 32
0.0
 13
940.3797130664225
 23
1299.997548369043
 33
0.0
  0
MTEXT
  5
5CE7
330
5CE3
100
AcDbEntity
  8
AM_5
 62
     2
100
AcDbMText
 10
916.6704875780935
 20
1282.408596216327
 30
0.0
 40
3.5
 41
0.0
 71
     9
 72
     5
  1

  7
ACISOTS
 73
     1
 44
1.0
  0
ENDBLK
  5
5CE9
330
5CE3
100
AcDbEntity
  8
0
100
AcDbBlockEnd
  0
BLOCK
  5
5CF0
330
5CEB
100
AcDbEntity
  8
0
100
AcDbBlockBegin
  2
*S18
 70
     1
 10
0.0
 20
0.0
 30
0.0
  3
*S18
  1

  0
LINE
  5
5CEC
330
5CEB
100
AcDbEntity
  8
AM_5
 62
     5
100
AcDbLine
 10
880.9321891373535
 20
1197.263513234893
 30
0.0
 11
866.1918869396842
 21
1197.263513234893
 31
0.0
  0
LINE
  5
5CED
330
5CEB
100
AcDbEntity
  8
AM_5
 62
     5
100
AcDbLine
 10
866.1918869396842
 20
1197.263513234893
 30
0.0
 11
858.225112608696
 21
1210.948866109812
 31
0.0
  0
TRACE
  5
5CEE
330
5CEB
100
AcDbEntity
  8
AM_5
 62
     5
370
    35
100
AcDbTrace
 10
858.6233347656122
 20
1211.18068666181
 30
0.0
 11
857.8268904517798
 21
1210.717045557814
 31
0.0
 12
856.4642606895871
 22
1213.973663709482
 32
0.0
 13
856.4642606895871
 23
1213.973663709482
 33
0.0
  0
MTEXT
  5
5CEF
330
5CEB
100
AcDbEntity
  8
AM_5
 62
     2
100
AcDbMText
 10
880.9321891373535
 20
1203.39769869389
 30
0.0
 40
3.5
 41
0.0
 71
     9
 72
     5
  1

  7
ACISOTS
210
0.0
220
0.0
230
-1.0
 11
-1.0
 21
0.0
 31
0.0
 73
     1
 44
1.0
  0
ENDBLK
  5
5CF1
330
5CEB
100
AcDbEntity
  8
0
100
AcDbBlockEnd
  0
BLOCK
  5
5CF8
330
5CF3
100
AcDbEntity
  8
0
100
AcDbBlockBegin
  2
*S19
 70
     1
 10
0.0
 20
0.0
 30
0.0
  3
*S19
  1

  0
LINE
  5
5CF4
330
5CF3
100
AcDbEntity
  8
AM_5
 62
     5
100
AcDbLine
 10
862.6495739753478
 20
1276.152212203444
 30
0.0
 11
845.9782383333237
 21
1276.152212203444
 31
0.0
  0
LINE
  5
5CF5
330
5CF3
100
AcDbEntity
  8
AM_5
 62
     5
100
AcDbLine
 10
845.9782383333237
 20
1276.152212203444
 30
0.0
 11
838.0114640023355
 21
1289.837565078363
 31
0.0
  0
TRACE
  5
5CF6
330
5CF3
100
AcDbEntity
  8
AM_5
 62
     5
370
    35
100
AcDbTrace
 10
838.4096861592517
 20
1290.069385630361
 30
0.0
 11
837.6132418454194
 21
1289.605744526365
 31
0.0
 12
836.2506120832264
 22
1292.862362678033
 32
0.0
 13
836.2506120832264
 23
1292.862362678033
 33
0.0
  0
MTEXT
  5
5CF7
330
5CF3
100
AcDbEntity
  8
AM_5
 62
     2
100
AcDbMText
 10
862.6495739753478
 20
1282.916594412407
 30
0.0
 40
3.5
 41
0.0
 71
     9
 72
     5
  1

  7
ACISOTS
210
0.0
220
0.0
230
-1.0
 11
-1.0
 21
0.0
 31
0.0
 73
     1
 44
1.0
  0
ENDBLK
  5
5CF9
330
5CF3
100
AcDbEntity
  8
0
100
AcDbBlockEnd
  0
BLOCK
  5
5D00
330
5CFB
100
AcDbEntity
  8
0
100
AcDbBlockBegin
  2
*S20
 70
     1
 10
0.0
 20
0.0
 30
0.0
  3
*S20
  1

  0
LINE
  5
5CFC
330
5CFB
100
AcDbEntity
  8
AM_5
 62
     5
100
AcDbLine
 10
882.0334006968082
 20
1380.91981751175
 30
0.0
 11
865.8348465754682
 21
1380.91981751175
 31
0.0
  0
LINE
  5
5CFD
330
5CFB
100
AcDbEntity
  8
AM_5
 62
     5
100
AcDbLine
 10
865.8348465754682
 20
1380.91981751175
 30
0.0
 11
859.8330130639073
 21
1389.698926209114
 31
0.0
  0
TRACE
  5
5CFE
330
5CFB
100
AcDbEntity
  8
AM_5
 62
     5
370
    35
100
AcDbTrace
 10
860.2134006532789
 20
1389.9589780048
 30
0.0
 11
859.4526254745355
 21
1389.438874413428
 31
0.0
 12
857.8577235584896
 22
1392.588256818405
 32
0.0
 13
857.8577235584896
 23
1392.588256818405
 33
0.0
  0
MTEXT
  5
5CFF
330
5CFB
100
AcDbEntity
  8
AM_5
 62
     2
100
AcDbMText
 10
882.0334006968082
 20
1386.220999545168
 30
0.0
 40
3.500000000000001
 41
0.0
 71
     9
 72
     5
  1

  7
ACISOTS
210
0.0
220
0.0
230
-1.0
 11
-1.0
 21
0.0
 31
0.0
 73
     1
 44
1.0
  0
ENDBLK
  5
5D01
330
5CFB
100
AcDbEntity
  8
0
100
AcDbBlockEnd
  0
ENDSEC
  0
SECTION
  2
ENTITIES
  0
LINE
  5
40D9
330
1F
100
AcDbEntity
  8
LOGO
 62
     4
100
AcDbLine
 10
968.0365249725465
 20
1169.583805391821
 30
0.0
 11
711.4071727202506
 21
1169.583805391821
 31
0.0
  0
LWPOLYLINE
  5
40DA
330
1F
100
AcDbEntity
  8
LOGO
 62
     4
100
AcDbPolyline
 90
        4
 70
     1
 43
0.0
 10
711.4071727202506
 20
1169.583805391821
 10
968.0365249725465
 20
1169.583805391821
 10
968.0365249725465
 20
1466.160901370317
 10
711.4071727202506
 20
1466.160901370317
1001
GENIUS_GENREC_14
1002
{
1000
PYDIR
1011
711.4071727202506
1021
1466.160901370317
1031
0.0
1002
}
1002
{
1000
PXDIR
1011
968.0365249725465
1021
1169.583805391821
1031
0.0
1002
}
1002
{
1000
PORI
1011
711.4071727202506
1021
1169.583805391821
1031
0.0
1002
}
1002
{
1000
PINS
1011
711.4071727202506
1021
1169.583805391821
1031
0.0
1002
}
1002
{
1000
PINS2
1011
968.0365249725465
1021
1466.160901370317
1031
0.0
1002
}
1002
{
1000
C
1070
     1
1002
}
1001
GENIUS_GENODEF_13
1002
{
1000
HIER
1070
     0
1002
}
1002
{
1000
MANEDIT
1070
     0
1002
}
1002
{
1000
NOSEL
1070
     0
1002
}
1002
{
1000
BEHIND
1070
     0
1002
}
1002
{
1000
OTHER
1070
     0
1002
}
1002
{
1000
REACTOR
1002
}
1001
GENIUS_GENOBJ-N-REC_13
1002
{
1000
OWNER
1000
GEN
1002
}
  0
LWPOLYLINE
  5
40DB
330
1F
100
AcDbEntity
  8
LOGO
 62
     4
100
AcDbPolyline
 90
        4
 70
     1
 43
0.0
 10
711.4071727202506
 20
1169.583805391821
 10
968.0365249725465
 20
1169.583805391821
 10
968.0365249725465
 20
1140.548010278698
 10
711.4071727202506
 20
1140.548010278698
1001
GENIUS_GENREC_14
1002
{
1000
PYDIR
1011
711.4071727202506
1021
1140.548010278698
1031
0.0
1002
}
1002
{
1000
PXDIR
1011
968.0365249725465
1021
1169.583805391821
1031
0.0
1002
}
1002
{
1000
PORI
1011
711.4071727202506
1021
1169.583805391821
1031
0.0
1002
}
1002
{
1000
PINS
1011
711.4071727202506
1021
1169.583805391821
1031
0.0
1002
}
1002
{
1000
PINS2
1011
968.0365249725465
1021
1140.548010278698
1031
0.0
1002
}
1002
{
1000
C
1070
     1
1002
}
1001
GENIUS_GENOBJ-N-REC_13
1002
{
1000
OWNER
1000
GEN
1002
}
1001
GENIUS_GENODEF_13
1002
{
1000
HIER
1070
     0
1002
}
1002
{
1000
MANEDIT
1070
     0
1002
}
1002
{
1000
NOSEL
1070
     0
1002
}
1002
{
1000
BEHIND
1070
     0
1002
}
1002
{
1000
OTHER
1070
     0
1002
}
1002
{
1000
REACTOR
1002
}
  0
TEXT
  5
40DC
330
1F
100
AcDbEntity
  8
LOGO
 62
     7
100
AcDbText
 10
776.9680754971736
 20
1156.863717639035
 30
0.0
 40
3.87143934841629
  1
Order example:
 41
0.8
  7
CHINESET
100
AcDbText
  0
TEXT
  5
40DD
330
1F
100
AcDbEntity
  8
LOGO
 62
     7
100
AcDbText
 10
777.6626437317807
 20
1162.31390264986
 30
0.0
 40
5.807159022624433
  1
訂購代號：
  7
CHINESET
100
AcDbText
  0
LINE
  5
40DE
330
1F
100
AcDbEntity
  8
LOGO
 62
     4
100
AcDbLine
 10
775.2859219691194
 20
1140.548010278698
 30
0.0
 11
775.2859219691194
 21
1169.583805391821
 31
0.0
  0
TEXT
  5
40DF
330
1F
100
AcDbEntity
  8
LOGO
  6
Continuous
100
AcDbText
 10
721.8369608433083
 20
1146.252048409836
 30
0.0
 40
4.355369266968326
  1
金器工業股份有限公司
  7
CHINESET
100
AcDbText
  0
TEXT
  5
40E0
330
1F
100
AcDbEntity
  8
LOGO
  6
Continuous
100
AcDbText
 10
713.8370091672043
 20
1141.895825831965
 30
0.0
 40
2.903579511312216
  1
MINDMAN INDUSTRIAL CO., LTD.
 41
0.85
  7
CHINESET
100
AcDbText
  0
LINE
  5
40E1
330
1F
100
AcDbEntity
  8
LOGO
 62
     4
100
AcDbLine
 10
775.2859219691194
 20
1163.776646369196
 30
0.0
 11
732.7000891365401
 21
1163.776646369196
 31
0.0
  0
LINE
  5
40E2
330
1F
100
AcDbEntity
  8
LOGO
 62
     4
100
AcDbLine
 10
775.2859219691194
 20
1157.969487346572
 30
0.0
 11
732.7000891365401
 21
1157.969487346572
 31
0.0
  0
LINE
  5
40E3
330
1F
100
AcDbEntity
  8
LOGO
 62
     4
100
AcDbLine
 10
775.2859219691194
 20
1152.162328323948
 30
0.0
 11
711.4071727202506
 21
1152.162328323948
 31
0.0
  0
LINE
  5
40E4
330
1F
100
AcDbEntity
  8
LOGO
 62
     4
100
AcDbLine
 10
732.7000891365401
 20
1152.162328323948
 30
0.0
 11
732.7000891365401
 21
1169.583805391821
 31
0.0
  0
TEXT
  5
40E5
330
1F
100
AcDbEntity
  8
LOGO
100
AcDbText
 10
761.8054958569148
 20
1153.614118079603
 30
0.0
 40
2.903579511312216
  1
mm
  7
CHINESET
 72
     1
 11
765.4004038233014
 21
1155.065907835259
 31
0.0
100
AcDbText
 73
     2
  0
TEXT
  5
40E6
330
1F
100
AcDbEntity
  8
LOGO
100
AcDbText
 10
760.2845732557512
 20
1165.228436124852
 30
0.0
 40
2.903579511312216
  1
1 : 1
  7
CHINESET
 72
     1
 11
765.4004038233014
 21
1166.680225880508
 31
0.0
100
AcDbText
 73
     2
  0
LINE
  5
40E7
330
1F
100
AcDbEntity
  8
LOGO
 62
     4
100
AcDbLine
 10
755.9287252270378
 20
1152.162328323948
 30
0.0
 11
755.9287252270378
 21
1169.583805391821
 31
0.0
  0
TEXT
  5
40E8
330
1F
100
AcDbEntity
  8
LOGO
100
AcDbText
 10
735.0942459925193
 20
1165.229865051777
 30
190.2958178035923
 40
2.903579511312216
  1
比例 Scale:
 41
0.9
  7
CHINESET
 72
     4
 11
744.3144071817889
 21
1166.680225880508
 31
190.2958178035923
100
AcDbText
  0
TEXT
  5
40E9
330
1F
100
AcDbEntity
  8
LOGO
100
AcDbText
 10
734.9270309224483
 20
1159.46212059683
 30
190.2958178035923
 40
2.903579511312216
  1
投影  View:
 41
0.9
  7
CHINESET
 72
     4
 11
744.3144071817889
 21
1160.873066857884
 31
190.2958178035923
100
AcDbText
  0
TEXT
  5
40EA
330
1F
100
AcDbEntity
  8
LOGO
100
AcDbText
 10
735.2109076693132
 20
1153.614118079603
 30
190.2958178035923
 40
2.903579511312216
  1
單位  Unit:
 41
0.9
  7
CHINESET
 72
     4
 11
744.3144071817889
 21
1155.065907835259
 31
190.2958178035923
100
AcDbText
  0
SOLID
  5
40EB
330
1F
100
AcDbEntity
  8
LOGO
 62
     5
100
AcDbTrace
 10
714.4196830621437
 20
1156.989115969506
 30
0.0
 11
715.6751146529087
 21
1156.989115969505
 31
0.0
 12
720.9132947385143
 22
1168.894070709519
 32
0.0
 13
722.1687263292799
 23
1168.894070709518
 33
0.0
  0
SOLID
  5
40EC
330
1F
100
AcDbEntity
  8
LOGO
 62
     5
100
AcDbTrace
 10
716.1946035870197
 20
1156.989115969506
 30
0.0
 11
717.4500351777846
 21
1156.989115969506
 31
0.0
 12
722.1687263292799
 22
1167.941674330317
 32
0.0
 13
720.9132947385143
 23
1163.338425164179
 33
0.0
  0
SOLID
  5
40ED
330
1F
100
AcDbEntity
  8
LOGO
 62
     2
100
AcDbTrace
 10
715.6751146529087
 20
1156.989115969505
 30
0.0
 11
716.1946035870197
 21
1156.989115969506
 31
0.0
 12
722.1687263292799
 22
1168.894070709518
 32
0.0
 13
722.6882152633902
 23
1168.894070709518
 33
0.0
  0
SOLID
  5
40EE
330
1F
100
AcDbEntity
  8
LOGO
 62
     5
100
AcDbTrace
 10
712.4069183526094
 20
1152.660041518592
 30
0.0
 11
712.8398257977011
 21
1152.660041518592
 31
0.0
 12
714.0589268579012
 22
1154.824578744048
 32
0.0
 13
714.4918343029919
 23
1154.824578744048
 33
0.0
  0
SOLID
  5
40EF
330
1F
100
AcDbEntity
  8
LOGO
 62
     5
100
AcDbTrace
 10
714.0589268579012
 20
1154.824578744048
 30
0.0
 11
714.4918343029919
 21
1154.824578744048
 31
0.0
 12
714.0589268579012
 22
1152.660041518592
 32
0.0
 13
714.4918343029919
 23
1152.660041518592
 33
0.0
  0
SOLID
  5
40F0
330
1F
100
AcDbEntity
  8
LOGO
 62
     5
100
AcDbTrace
 10
714.0589268579012
 20
1152.660041518592
 30
0.0
 11
714.4918343029919
 21
1152.660041518592
 31
0.0
 12
715.7109353631938
 22
1154.824578744048
 32
0.0
 13
716.1438428082849
 23
1154.824578744048
 33
0.0
  0
SOLID
  5
40F1
330
1F
100
AcDbEntity
  8
LOGO
 62
     5
100
AcDbTrace
 10
715.7109353631938
 20
1154.824578744048
 30
0.0
 11
716.1438428082849
 21
1154.824578744048
 31
0.0
 12
715.7109353631938
 22
1152.660041518592
 32
0.0
 13
716.1438428082849
 23
1152.660041518592
 33
0.0
  0
POLYLINE
  5
40F2
330
1F
100
AcDbEntity
  8
LOGO
 62
     5
100
AcDb2dPolyline
 66
     1
 10
0.0
 20
0.0
 30
0.0
 40
0.4336012070226244
 41
0.4336012070226244
  0
VERTEX
  5
40F3
330
40F2
100
AcDbEntity
  8
LOGO
 62
     5
100
AcDbVertex
100
AcDb2dVertex
 10
730.2218454508772
 20
1153.958763853866
 30
0.0
 42
1.0
  0
VERTEX
  5
40F4
330
40F2
100
AcDbEntity
  8
LOGO
 62
     5
100
AcDbVertex
100
AcDb2dVertex
 10
728.921041829809
 20
1153.958763853866
 30
0.0
 42
1.0
  0
SEQEND
  5
40F5
330
40F2
100
AcDbEntity
  8
LOGO
 62
     5
  0
POLYLINE
  5
40F6
330
1F
100
AcDbEntity
  8
LOGO
 62
     5
100
AcDb2dPolyline
 66
     1
 10
0.0
 20
0.0
 30
0.0
 70
     1
  0
VERTEX
  5
40F7
330
40F6
100
AcDbEntity
  8
LOGO
 62
     5
100
AcDbVertex
100
AcDb2dVertex
 10
726.4689691443502
 20
1153.74231013132
 30
0.0
 42
1.000000057330635
  0
VERTEX
  5
40F8
330
40F6
100
AcDbEntity
  8
LOGO
 62
     5
100
AcDbVertex
100
AcDb2dVertex
 10
727.7676914796245
 20
1153.74231013132
 30
0.0
 42
1.000000057330635
  0
SEQEND
  5
40F9
330
40F6
100
AcDbEntity
  8
LOGO
 62
     5
  0
CIRCLE
  5
40FA
330
1F
100
AcDbEntity
  8
LOGO
 62
     5
100
AcDbCircle
 10
727.1183303119884
 20
1153.74231013132
 30
0.0
 40
0.6493611676370824
  0
POLYLINE
  5
40FB
330
1F
100
AcDbEntity
  8
LOGO
 62
     5
100
AcDb2dPolyline
 66
     1
 10
0.0
 20
0.0
 30
0.0
 70
     1
 40
0.4336012070226244
 41
0.4336012070226244
  0
VERTEX
  5
40FC
330
40FB
100
AcDbEntity
  8
LOGO
 62
     5
100
AcDbVertex
100
AcDb2dVertex
 10
726.2511278979425
 20
1153.74231013132
 30
0.0
 42
1.0
  0
VERTEX
  5
40FD
330
40FB
100
AcDbEntity
  8
LOGO
 62
     5
100
AcDbVertex
100
AcDb2dVertex
 10
727.9855327260329
 20
1153.74231013132
 30
0.0
 42
1.0
  0
SEQEND
  5
40FE
330
40FB
100
AcDbEntity
  8
LOGO
 62
     5
  0
LINE
  5
40FF
330
1F
100
AcDbEntity
  8
LOGO
100
AcDbLine
 10
730.4372585305252
 20
1152.660041518592
 30
0.0
 11
730.4372585305252
 21
1153.958763853866
 31
0.0
  0
SOLID
  5
4100
330
1F
100
AcDbEntity
  8
LOGO
 62
     5
100
AcDbTrace
 10
727.7676481888818
 20
1154.824578744048
 30
0.0
 11
728.2005556339724
 21
1154.824578744048
 31
0.0
 12
727.7676481888818
 22
1152.660041518592
 32
0.0
 13
728.2005556339724
 23
1152.660041518592
 33
0.0
  0
SOLID
  5
4101
330
1F
100
AcDbEntity
  8
LOGO
 62
     5
100
AcDbTrace
 10
728.7056287501598
 20
1152.660041518592
 30
0.0
 11
729.1385361952515
 21
1152.660041518592
 31
0.0
 12
728.7056287501598
 22
1154.824578744048
 32
0.0
 13
729.1385361952515
 23
1154.824578744048
 33
0.0
  0
SOLID
  5
4102
330
1F
100
AcDbEntity
  8
LOGO
 62
     5
100
AcDbTrace
 10
730.0043510854345
 20
1153.958763853866
 30
0.0
 11
730.4372585305252
 21
1153.958763853866
 31
0.0
 12
730.0043510854345
 22
1152.660041518592
 32
0.0
 13
730.4372585305252
 23
1152.660041518592
 33
0.0
  0
SOLID
  5
4103
330
1F
100
AcDbEntity
  8
LOGO
 62
     5
100
AcDbTrace
 10
728.6623380056505
 20
1167.941674330317
 30
0.0
 11
727.4069064148862
 21
1163.338425164179
 31
0.0
 12
728.6623380056505
 22
1156.989115969505
 32
0.0
 13
727.4069064148862
 23
1156.989115969505
 33
0.0
  0
SOLID
  5
4104
330
1F
100
AcDbEntity
  8
LOGO
 62
     5
100
AcDbTrace
 10
729.1818269397609
 20
1156.989115969505
 30
0.0
 11
730.4372585305252
 21
1156.989115969505
 31
0.0
 12
729.1818269397609
 22
1168.894070709518
 32
0.0
 13
730.4372585305252
 23
1168.894070709519
 33
0.0
  0
SOLID
  5
4105
330
1F
100
AcDbEntity
  8
LOGO
 62
     2
100
AcDbTrace
 10
728.6623380056505
 20
1168.894070709519
 30
0.0
 11
729.1818269397609
 21
1168.894070709518
 31
0.0
 12
728.6623380056505
 22
1156.989115969505
 32
0.0
 13
729.1818269397609
 23
1156.989115969505
 33
0.0
  0
POLYLINE
  5
4106
330
1F
100
AcDbEntity
  8
LOGO
 62
     5
100
AcDb2dPolyline
 66
     1
 10
0.0
 20
0.0
 30
0.0
 40
0.4336012070226244
 41
0.4336012070226244
  0
VERTEX
  5
4107
330
4106
100
AcDbEntity
  8
LOGO
 62
     5
100
AcDbVertex
100
AcDb2dVertex
 10
724.0168098774043
 20
1153.958763853866
 30
0.0
 42
1.0
  0
VERTEX
  5
4108
330
4106
100
AcDbEntity
  8
LOGO
 62
     5
100
AcDbVertex
100
AcDb2dVertex
 10
722.7160062563362
 20
1153.958763853866
 30
0.0
 42
1.0
  0
SEQEND
  5
4109
330
4106
100
AcDbEntity
  8
LOGO
 62
     5
  0
POLYLINE
  5
410A
330
1F
100
AcDbEntity
  8
LOGO
 62
     5
100
AcDb2dPolyline
 66
     1
 10
0.0
 20
0.0
 30
0.0
 40
0.4336012070226244
 41
0.4336012070226244
  0
VERTEX
  5
410B
330
410A
100
AcDbEntity
  8
LOGO
 62
     5
100
AcDbVertex
100
AcDb2dVertex
 10
725.3155322126773
 20
1153.958763853866
 30
0.0
 42
1.0
  0
VERTEX
  5
410C
330
410A
100
AcDbEntity
  8
LOGO
 62
     5
100
AcDbVertex
100
AcDb2dVertex
 10
724.0147285916099
 20
1153.958763853866
 30
0.0
 42
1.0
  0
SEQEND
  5
410D
330
410A
100
AcDbEntity
  8
LOGO
 62
     5
  0
POLYLINE
  5
410E
330
1F
100
AcDbEntity
  8
LOGO
 62
     5
100
AcDb2dPolyline
 66
     1
 10
0.0
 20
0.0
 30
0.0
 40
0.4336012070226244
 41
0.4336012070226244
  0
VERTEX
  5
410F
330
410E
100
AcDbEntity
  8
LOGO
 62
     5
100
AcDbVertex
100
AcDb2dVertex
 10
719.1104966392044
 20
1153.958763853866
 30
0.0
 42
1.0
  0
VERTEX
  5
4110
330
410E
100
AcDbEntity
  8
LOGO
 62
     5
100
AcDbVertex
100
AcDb2dVertex
 10
717.8096930181371
 20
1153.958763853866
 30
0.0
 42
1.0
  0
SEQEND
  5
4111
330
410E
100
AcDbEntity
  8
LOGO
 62
     5
  0
SOLID
  5
4112
330
1F
100
AcDbEntity
  8
LOGO
 62
     5
100
AcDbTrace
 10
717.5942799384884
 20
1154.824578744048
 30
0.0
 11
718.0271873835788
 21
1154.824578744048
 31
0.0
 12
717.5942799384884
 22
1152.660041518592
 32
0.0
 13
718.0271873835788
 23
1152.660041518592
 33
0.0
  0
SOLID
  5
4113
330
1F
100
AcDbEntity
  8
LOGO
 62
     5
100
AcDbTrace
 10
718.8930022737626
 20
1153.958763853866
 30
0.0
 11
719.3259097188545
 21
1153.958763853866
 31
0.0
 12
718.8930022737626
 22
1152.660041518592
 32
0.0
 13
719.3259097188545
 23
1152.660041518592
 33
0.0
  0
POLYLINE
  5
4114
330
1F
100
AcDbEntity
  8
LOGO
 62
     5
100
AcDb2dPolyline
 66
     1
 10
0.0
 20
0.0
 30
0.0
 70
     1
 40
0.4336012070226244
 41
0.4336012070226244
  0
VERTEX
  5
4115
330
4114
100
AcDbEntity
  8
LOGO
 62
     5
100
AcDbVertex
100
AcDb2dVertex
 10
720.0460923244691
 20
1153.74231013132
 30
0.0
 42
1.0
  0
VERTEX
  5
4116
330
4114
100
AcDbEntity
  8
LOGO
 62
     5
100
AcDbVertex
100
AcDb2dVertex
 10
721.7804971525601
 20
1153.74231013132
 30
0.0
 42
1.0
  0
SEQEND
  5
4117
330
4114
100
AcDbEntity
  8
LOGO
 62
     5
  0
SOLID
  5
4118
330
1F
100
AcDbEntity
  8
LOGO
 62
     5
100
AcDbTrace
 10
721.5626126154077
 20
1155.473939911686
 30
0.0
 11
721.995520060499
 21
1155.473939911686
 31
0.0
 12
721.5626126154077
 22
1152.660041518592
 32
0.0
 13
721.995520060499
 23
1152.660041518592
 33
0.0
  0
SOLID
  5
4119
330
1F
100
AcDbEntity
  8
LOGO
 62
     5
100
AcDbTrace
 10
722.5005931766881
 20
1154.824578744048
 30
0.0
 11
722.9335006217787
 21
1154.824578744048
 31
0.0
 12
722.5005931766881
 22
1152.660041518592
 32
0.0
 13
722.9335006217787
 23
1152.660041518592
 33
0.0
  0
SOLID
  5
411A
330
1F
100
AcDbEntity
  8
LOGO
 62
     5
100
AcDbTrace
 10
723.7993155119611
 20
1153.958763853866
 30
0.0
 11
724.2322229570529
 21
1153.958763853866
 31
0.0
 12
723.7993155119611
 22
1152.660041518592
 32
0.0
 13
724.2322229570529
 23
1152.660041518592
 33
0.0
  0
SOLID
  5
411B
330
1F
100
AcDbEntity
  8
LOGO
 62
     5
100
AcDbTrace
 10
725.0980378472354
 20
1153.958763853866
 30
0.0
 11
725.5309452923265
 21
1153.958763853866
 31
0.0
 12
725.0980378472354
 22
1152.660041518591
 32
0.0
 13
725.5309452923265
 23
1152.660041518591
 33
0.0
  0
SOLID
  5
411C
330
1F
100
AcDbEntity
  8
LOGO
 62
     5
100
AcDbTrace
 10
716.6562993772084
 20
1155.127613955613
 30
0.0
 11
717.0892068223011
 21
1155.127613955613
 31
0.0
 12
716.6562993772084
 22
1155.473939911686
 32
0.0
 13
717.0892068223011
 23
1155.473939911686
 33
0.0
  0
SOLID
  5
411D
330
1F
100
AcDbEntity
  8
LOGO
 62
     5
100
AcDbTrace
 10
716.6562993772084
 20
1154.824578744048
 30
0.0
 11
717.0892068223011
 21
1154.824578744048
 31
0.0
 12
716.6562993772084
 22
1152.660041518591
 32
0.0
 13
717.0892068223011
 23
1152.660041518592
 33
0.0
  0
SOLID
  5
411E
330
1F
100
AcDbEntity
  8
LOGO
 62
     5
100
AcDbTrace
 10
720.9132947385143
 20
1156.989115969506
 30
0.0
 11
722.1687263292799
 21
1156.989115969506
 31
0.0
 12
720.9132947385143
 22
1163.338425164179
 32
0.0
 13
722.1687263292799
 23
1167.941674330317
 33
0.0
  0
SOLID
  5
411F
330
1F
100
AcDbEntity
  8
LOGO
 62
     5
100
AcDbTrace
 10
722.6882152633902
 20
1168.894070709518
 30
0.0
 11
723.9436468541546
 21
1168.894070709519
 31
0.0
 12
722.6882152633902
 22
1157.941512348706
 32
0.0
 13
723.9436468541546
 23
1162.544761514845
 33
0.0
  0
SOLID
  5
4120
330
1F
100
AcDbEntity
  8
LOGO
 62
     2
100
AcDbTrace
 10
722.1687263292799
 20
1168.894070709518
 30
0.0
 11
722.6882152633902
 21
1168.894070709518
 31
0.0
 12
722.1687263292799
 22
1156.989115969506
 32
0.0
 13
722.6882152633902
 23
1156.989115969506
 33
0.0
  0
SOLID
  5
4121
330
1F
100
AcDbEntity
  8
LOGO
 62
     5
100
AcDbTrace
 10
722.6882152633902
 20
1157.941512348706
 30
0.0
 11
723.9436468541546
 21
1162.544761514845
 31
0.0
 12
728.6623380056505
 22
1168.894070709519
 32
0.0
 13
727.4069064148862
 23
1168.894070709519
 33
0.0
  0
SOLID
  5
4122
330
1F
100
AcDbEntity
  8
LOGO
 62
     5
100
AcDbTrace
 10
722.6882152633902
 20
1156.989115969506
 30
0.0
 11
723.9436468541546
 21
1156.989115969506
 31
0.0
 12
728.6623380056505
 22
1167.941674330317
 32
0.0
 13
727.4069064148862
 23
1163.338425164179
 33
0.0
  0
SOLID
  5
4123
330
1F
100
AcDbEntity
  8
LOGO
 62
     2
100
AcDbTrace
 10
722.1687263292799
 20
1156.989115969506
 30
0.0
 11
722.6882152633902
 21
1156.989115969506
 31
0.0
 12
728.6623380056505
 22
1168.894070709519
 32
0.0
 13
729.1818269397609
 23
1168.894070709518
 33
0.0
  0
LINE
  5
4124
330
1F
100
AcDbEntity
  8
LOGO
 62
     4
100
AcDbLine
 10
828.9929939787716
 20
1153.614118079604
 30
0.0
 11
828.9929939787716
 21
1142.967659871458
 31
0.0
  0
LINE
  5
4125
330
1F
100
AcDbEntity
  8
LOGO
 62
     4
100
AcDbLine
 10
815.2233694732123
 20
1153.614118079604
 30
0.0
 11
815.2233694732123
 21
1142.967659871458
 31
0.0
  0
LINE
  5
4126
330
1F
100
AcDbEntity
  8
LOGO
 62
     4
100
AcDbLine
 10
828.9929939787716
 20
1142.967659871458
 30
0.0
 11
815.2233694732123
 21
1142.967659871458
 31
0.0
  0
LINE
  5
4127
330
1F
100
AcDbEntity
  8
LOGO
 62
     4
100
AcDbLine
 10
838.2602193113259
 20
1166.680225880508
 30
0.0
 11
815.2233694732123
 21
1166.680225880508
 31
0.0
  0
LINE
  5
4128
330
1F
100
AcDbEntity
  8
LOGO
 62
     4
100
AcDbLine
 10
838.2602193113259
 20
1157.969487346572
 30
0.0
 11
815.2233694732123
 21
1157.969487346572
 31
0.0
  0
LINE
  5
4129
330
1F
100
AcDbEntity
  8
LOGO
 62
     4
100
AcDbLine
 10
815.2233694732123
 20
1166.680225880508
 30
0.0
 11
815.2233694732123
 21
1157.969487346572
 31
0.0
  0
LINE
  5
412A
330
1F
100
AcDbEntity
  8
LOGO
 62
     4
100
AcDbLine
 10
838.2602193113259
 20
1166.680225880508
 30
0.0
 11
838.2602193113259
 21
1157.969487346572
 31
0.0
  0
LINE
  5
412B
330
1F
100
AcDbEntity
  8
LOGO
 62
     4
100
AcDbLine
 10
825.9119273214523
 20
1157.969487346572
 30
0.0
 11
825.9119273214523
 21
1153.614118079604
 31
0.0
  0
TEXT
  5
412C
330
1F
100
AcDbEntity
  8
LOGO
  6
Continuous
 62
     7
100
AcDbText
 10
816.7711312882948
 20
1159.787841280433
 30
0.0
 40
5.082000000000001
  1
MVAA
  7
CHINESET
100
AcDbText
  0
LINE
  5
412D
330
1F
100
AcDbEntity
  8
LOGO
 62
     4
100
AcDbLine
 10
828.9929939787716
 20
1153.614118079604
 30
0.0
 11
815.2233694732123
 21
1153.614118079604
 31
0.0
  0
TEXT
  5
412E
330
1F
100
AcDbEntity
  8
LOGO
  6
Continuous
100
AcDbText
 10
817.7261817376171
 20
1144.470384871199
 30
190.2958178035923
 40
2.177999999999999
  1
Model
 41
0.8
  7
CHINESET
100
AcDbText
  0
TEXT
  5
412F
330
1F
100
AcDbEntity
  8
LOGO
100
AcDbText
 10
817.1464689400423
 20
1148.507927478698
 30
190.2958178035923
 40
3.63
  1
型號
  7
CHINESET
100
AcDbText
  0
LINE
  5
4130
330
1F
100
AcDbEntity
  8
LOGO
  6
Continuous
 62
     7
100
AcDbLine
 10
839.1862428107463
 20
1162.294001801031
 30
0.0
 11
843.0325871066065
 21
1162.294001801031
 31
0.0
  0
LINE
  5
4131
330
1F
100
AcDbEntity
  8
LOGO
 62
     4
100
AcDbLine
 10
848.8983136413782
 20
1153.614118079604
 30
0.0
 11
848.8983136413782
 21
1142.967659871458
 31
0.0
  0
LINE
  5
4132
330
1F
100
AcDbEntity
  8
LOGO
 62
     4
100
AcDbLine
 10
831.2613821079308
 20
1153.614118079604
 30
0.0
 11
831.2613821079308
 21
1142.967659871458
 31
0.0
  0
LINE
  5
4133
330
1F
100
AcDbEntity
  8
LOGO
 62
     4
100
AcDbLine
 10
848.8983136413782
 20
1142.967659871458
 30
0.0
 11
831.2613821079308
 21
1142.967659871458
 31
0.0
  0
LINE
  5
4134
330
1F
100
AcDbEntity
  8
LOGO
 62
     4
100
AcDbLine
 10
859.5109053933274
 20
1166.680225880508
 30
0.0
 11
844.2459059790428
 21
1166.680225880508
 31
0.0
  0
LINE
  5
4135
330
1F
100
AcDbEntity
  8
LOGO
 62
     4
100
AcDbLine
 10
859.5109053933274
 20
1157.969487346572
 30
0.0
 11
844.2459059790428
 21
1157.969487346572
 31
0.0
  0
LINE
  5
4136
330
1F
100
AcDbEntity
  8
LOGO
 62
     4
100
AcDbLine
 10
844.2459059790428
 20
1166.680225880508
 30
0.0
 11
844.2459059790428
 21
1157.969487346572
 31
0.0
  0
LINE
  5
4137
330
1F
100
AcDbEntity
  8
LOGO
 62
     4
100
AcDbLine
 10
859.5109053933274
 20
1166.680225880508
 30
0.0
 11
859.5109053933274
 21
1157.969487346572
 31
0.0
  0
LINE
  5
4138
330
1F
100
AcDbEntity
  8
LOGO
 62
     4
100
AcDbLine
 10
849.4701658336124
 20
1157.969487346572
 30
0.0
 11
849.4701658336124
 21
1155.791802713088
 31
0.0
  0
TEXT
  5
4139
330
1F
100
AcDbEntity
  8
LOGO
  6
Continuous
 62
     7
100
AcDbText
 10
845.6618959424012
 20
1159.787841280433
 30
0.0
 40
5.082000000000001
  1
460
  7
CHINESET
100
AcDbText
  0
LINE
  5
413A
330
1F
100
AcDbEntity
  8
LOGO
 62
     4
100
AcDbLine
 10
848.8983136413782
 20
1153.614118079604
 30
0.0
 11
831.2613821079308
 21
1153.614118079604
 31
0.0
  0
LINE
  5
413B
330
1F
100
AcDbEntity
  8
LOGO
  6
Continuous
 62
     7
100
AcDbLine
 10
860.5844781880243
 20
1162.294001801031
 30
0.0
 11
864.4308224838846
 21
1162.294001801031
 31
0.0
  0
LINE
  5
413C
330
1F
100
AcDbEntity
  8
LOGO
 62
     4
100
AcDbLine
 10
865.8008407722677
 20
1153.614118079604
 30
0.0
 11
865.8008407722677
 21
1142.967659871458
 31
0.0
  0
LINE
  5
413D
330
1F
100
AcDbEntity
  8
LOGO
 62
     4
100
AcDbLine
 10
851.2602045891917
 20
1153.614118079604
 30
0.0
 11
851.2602045891917
 21
1142.967659871458
 31
0.0
  0
LINE
  5
413E
330
1F
100
AcDbEntity
  8
LOGO
 62
     4
100
AcDbLine
 10
865.8008407722677
 20
1142.967659871458
 30
0.0
 11
851.2602045891917
 21
1142.967659871458
 31
0.0
  0
LINE
  5
413F
330
1F
100
AcDbEntity
  8
LOGO
 62
     4
100
AcDbLine
 10
871.827748263805
 20
1166.680225880508
 30
0.0
 11
865.6441413563207
 21
1166.680225880508
 31
0.0
  0
LINE
  5
4140
330
1F
100
AcDbEntity
  8
LOGO
 62
     4
100
AcDbLine
 10
871.827748263805
 20
1157.969487346572
 30
0.0
 11
865.6441413563207
 21
1157.969487346572
 31
0.0
  0
LINE
  5
4141
330
1F
100
AcDbEntity
  8
LOGO
 62
     4
100
AcDbLine
 10
865.6441413563207
 20
1166.680225880508
 30
0.0
 11
865.6441413563207
 21
1157.969487346572
 31
0.0
  0
LINE
  5
4142
330
1F
100
AcDbEntity
  8
LOGO
 62
     4
100
AcDbLine
 10
871.827748263805
 20
1166.680225880508
 30
0.0
 11
871.827748263805
 21
1157.969487346572
 31
0.0
  0
LINE
  5
4143
330
1F
100
AcDbEntity
  8
LOGO
 62
     4
100
AcDbLine
 10
868.7359448100629
 20
1157.969487346572
 30
0.0
 11
868.7359448100629
 21
1155.791802713088
 31
0.0
  0
TEXT
  5
4144
330
1F
100
AcDbEntity
  8
LOGO
  6
Continuous
 62
     7
100
AcDbText
 10
866.8035173626885
 20
1159.787841280433
 30
0.0
 40
5.082000000000001
  1
4
  7
CHINESET
100
AcDbText
  0
LINE
  5
4145
330
1F
100
AcDbEntity
  8
LOGO
 62
     4
100
AcDbLine
 10
865.8008407722677
 20
1153.614118079604
 30
0.0
 11
851.2602045891917
 21
1153.614118079604
 31
0.0
  0
LINE
  5
4146
330
1F
100
AcDbEntity
  8
LOGO
 62
     4
100
AcDbLine
 10
896.3404361418765
 20
1153.614118079604
 30
0.0
 11
896.3404361418765
 21
1142.967659871458
 31
0.0
  0
LINE
  5
4147
330
1F
100
AcDbEntity
  8
LOGO
 62
     4
100
AcDbLine
 10
868.7497379766304
 20
1153.614118079604
 30
0.0
 11
868.7497379766304
 21
1142.967659871458
 31
0.0
  0
LINE
  5
4148
330
1F
100
AcDbEntity
  8
LOGO
 62
     4
100
AcDbLine
 10
896.3404361418765
 20
1142.967659871458
 30
0.0
 11
868.7497379766304
 21
1142.967659871458
 31
0.0
  0
LINE
  5
4149
330
1F
100
AcDbEntity
  8
LOGO
 62
     4
100
AcDbLine
 10
885.0253124560145
 20
1166.680225880508
 30
0.0
 11
873.5328595038206
 21
1166.680225880508
 31
0.0
  0
LINE
  5
414A
330
1F
100
AcDbEntity
  8
LOGO
 62
     4
100
AcDbLine
 10
885.0253124560145
 20
1157.969487346572
 30
0.0
 11
873.5328595038206
 21
1157.969487346572
 31
0.0
  0
LINE
  5
414B
330
1F
100
AcDbEntity
  8
LOGO
 62
     4
100
AcDbLine
 10
873.5328595038206
 20
1166.680225880508
 30
0.0
 11
873.5328595038206
 21
1157.969487346572
 31
0.0
  0
LINE
  5
414C
330
1F
100
AcDbEntity
  8
LOGO
 62
     4
100
AcDbLine
 10
885.0253124560145
 20
1166.680225880508
 30
0.0
 11
885.0253124560145
 21
1157.969487346572
 31
0.0
  0
LINE
  5
414D
330
1F
100
AcDbEntity
  8
LOGO
 62
     4
100
AcDbLine
 10
879.2790859799177
 20
1157.969487346572
 30
0.0
 11
879.2790859799177
 21
1153.614118079604
 31
0.0
  0
TEXT
  5
414E
330
1F
100
AcDbEntity
  8
LOGO
  6
Continuous
 62
     7
100
AcDbText
 10
874.9847623902141
 20
1159.787841280433
 30
0.0
 40
5.082000000000001
  1
A2
  7
CHINESET
100
AcDbText
  0
LINE
  5
414F
330
1F
100
AcDbEntity
  8
LOGO
 62
     4
100
AcDbLine
 10
896.3404361418765
 20
1153.614118079604
 30
0.0
 11
868.7497379766304
 21
1153.614118079604
 31
0.0
  0
TEXT
  5
4150
330
1F
100
AcDbEntity
  8
LOGO
  6
Continuous
100
AcDbText
 10
832.6452083095812
 20
1144.470384871199
 30
190.2958178035923
 40
2.177999999999999
  1
Body width
 41
0.8
  7
CHINESET
100
AcDbText
  0
TEXT
  5
4151
330
1F
100
AcDbEntity
  8
LOGO
100
AcDbText
 10
832.6246907952347
 20
1148.507927478698
 30
190.2958178035923
 40
3.63
  1
本體寬度
  7
CHINESET
100
AcDbText
  0
TEXT
  5
4152
330
1F
100
AcDbEntity
  8
LOGO
  6
Continuous
100
AcDbText
 10
854.1746416782004
 20
1144.470384871199
 30
190.2958178035923
 40
2.177999999999999
  1
4 Way
 41
0.8
  7
CHINESET
100
AcDbText
  0
TEXT
  5
4153
330
1F
100
AcDbEntity
  8
LOGO
100
AcDbText
 10
853.1904074307673
 20
1148.507927478698
 30
190.2958178035923
 40
3.63
  1
4方向
  7
CHINESET
100
AcDbText
  0
TEXT
  5
4154
330
1F
100
AcDbEntity
  8
LOGO
  6
Continuous
100
AcDbText
 10
870.3289349959188
 20
1144.470384871199
 30
190.2958178035923
 40
2.177999999999999
  1
Double air operate
 41
0.8
  7
CHINESET
100
AcDbText
  0
TEXT
  5
4155
330
1F
100
AcDbEntity
  8
LOGO
100
AcDbText
 10
870.4148344829045
 20
1148.507927478698
 30
190.2958178035923
 40
3.63
  1
複動氣壓引導
  7
CHINESET
100
AcDbText
  0
TEXT
  5
4162
330
1F
100
AcDbEntity
  8
LOGO
100
AcDbText
 10
776.8248516475968
 20
1142.092703118472
 30
0.0
 40
2.904
  1
20811193
 41
0.7
  7
CHINESET
 72
     1
 11
783.6976516475967
 21
1142.092703118472
 31
0.0
100
AcDbText
  0
LINE
  5
4163
330
1F
100
AcDbEntity
  8
LOGO
 62
     4
100
AcDbLine
 10
792.7099219691182
 20
1146.355169301323
 30
0.0
 11
792.7099219691195
 21
1140.548010278699
 31
0.0
  0
LINE
  5
4164
330
1F
100
AcDbEntity
  8
LOGO
 62
     4
100
AcDbLine
 10
792.7099219691182
 20
1146.355169301323
 30
0.0
 11
775.2859219691194
 21
1146.355169301323
 31
0.0
  0
CIRCLE
  5
4165
330
1F
100
AcDbEntity
  8
LOGO
  6
Continuous
100
AcDbCircle
 10
761.3050658662166
 20
1160.879277635707
 30
0.0
 40
1.685886606825557
  0
CIRCLE
  5
4166
330
1F
100
AcDbEntity
  8
LOGO
  6
Continuous
100
AcDbCircle
 10
761.3050658662166
 20
1160.879277635707
 30
0.0
 40
0.9877803085024471
  0
LINE
  5
4167
330
1F
100
AcDbEntity
  8
LOGO
100
AcDbLine
 10
771.8993729255178
 20
1159.193391028881
 30
0.0
 11
771.8993729255178
 21
1162.565164242533
 31
0.0
  0
LINE
  5
4168
330
1F
100
AcDbEntity
  8
LOGO
100
AcDbLine
 10
766.6142151876287
 20
1159.891497327204
 30
0.0
 11
766.6142151876287
 21
1161.867057944209
 31
0.0
  0
LINE
  5
4169
330
1F
100
AcDbEntity
  8
LOGO
  6
Continuous
100
AcDbLine
 10
766.6142151876287
 20
1161.867057944209
 30
0.0
 11
771.8993729255178
 21
1162.565164242533
 31
0.0
  0
LINE
  5
416A
330
1F
100
AcDbEntity
  8
LOGO
  6
Continuous
100
AcDbLine
 10
766.6142151876287
 20
1159.891497327204
 30
0.0
 11
771.8993729255178
 21
1159.193391028881
 31
0.0
  0
LINE
  5
416B
330
1F
100
AcDbEntity
  8
LOGO
  6
AM_ISO08W050x2
 48
0.3
100
AcDbLine
 10
758.9810459345435
 20
1160.879277635707
 30
0.0
 11
763.6290857978897
 21
1160.879277635707
 31
0.0
1001
GENIUS_GENOREF_13
1005
4185
  0
LINE
  5
416C
330
1F
100
AcDbEntity
  8
LOGO
  6
AM_ISO08W050x2
 48
0.3
100
AcDbLine
 10
761.3050658662166
 20
1158.555257704033
 30
0.0
 11
761.3050658662166
 21
1163.20329756738
 31
0.0
1001
GENIUS_GENOREF_13
1005
4184
  0
LINE
  5
416D
330
1F
100
AcDbEntity
  8
LOGO
  6
CENTER
 48
0.5
100
AcDbLine
 10
766.1915494688694
 20
1160.879277635707
 30
0.0
 11
772.4315712007855
 21
1160.879277635707
 31
0.0
1001
GENIUS_GENOREF_13
1005
4183
  0
LINE
  5
4176
330
1F
100
AcDbEntity
  8
LOGO
 62
     4
100
AcDbLine
 10
849.4701658336124
 20
1155.791802713088
 30
0.0
 11
840.0798478746542
 21
1155.791802713088
 31
0.0
  0
LINE
  5
4177
330
1F
100
AcDbEntity
  8
LOGO
 62
     4
100
AcDbLine
 10
840.0798478746542
 20
1153.614118079604
 30
0.0
 11
840.0798478746542
 21
1155.791802713088
 31
0.0
  0
LINE
  5
4178
330
1F
100
AcDbEntity
  8
LOGO
 62
     4
100
AcDbLine
 10
868.7359448100629
 20
1155.791802713088
 30
0.0
 11
858.5305226807301
 21
1155.791802713088
 31
0.0
  0
LINE
  5
4179
330
1F
100
AcDbEntity
  8
LOGO
 62
     4
100
AcDbLine
 10
858.5305226807301
 20
1153.614118079604
 30
0.0
 11
858.5305226807301
 21
1155.791802713088
 31
0.0
  0
POINT
  5
4183
330
1F
100
AcDbEntity
  8
0
 60
     1
100
AcDbPoint
 10
-1081.480523388607
 20
102.4479428696627
 30
0.0
1001
GENIUS_GENOBJ-N-CRS_13
1002
{
1000
OWNER
1000
GEN
1002
}
1001
GENIUS_GENOLIS_13
1002
{
1000
ENT
1005
0
1005
0
1005
0
1005
416D
1002
}
1001
GENIUS_GENOENT_13
1002
{
1000
MYREF
1005
4183
1002
}
1002
{
1000
GRP
1005
0
1002
}
1001
GENIUS_GENODEF_13
1002
{
1000
HIER
1070
    10
1002
}
1002
{
1000
MANEDIT
1070
     1
1002
}
1002
{
1000
NOSEL
1070
     0
1002
}
1002
{
1000
BEHIND
1070
     0
1002
}
1002
{
1000
OTHER
1070
     0
1002
}
1002
{
1000
REACTOR
1002
}
  0
POINT
  5
4184
330
1F
100
AcDbEntity
  8
0
 60
     1
100
AcDbPoint
 10
-1092.805108611462
 20
111.3235293482989
 30
0.0
1001
GENIUS_GENOBJ-N-CRS_13
1002
{
1000
OWNER
1000
GEN
1002
}
1001
GENIUS_GENOLIS_13
1002
{
1000
ENT
1005
0
1005
0
1005
0
1005
416C
1002
}
1001
GENIUS_GENOENT_13
1002
{
1000
MYREF
1005
4184
1002
}
1002
{
1000
GRP
1005
0
1002
}
1001
GENIUS_GENODEF_13
1002
{
1000
HIER
1070
    10
1002
}
1002
{
1000
MANEDIT
1070
     1
1002
}
1002
{
1000
NOSEL
1070
     0
1002
}
1002
{
1000
BEHIND
1070
     0
1002
}
1002
{
1000
OTHER
1070
     0
1002
}
1002
{
1000
REACTOR
1002
}
  0
POINT
  5
4185
330
1F
100
AcDbEntity
  8
0
 60
     1
100
AcDbPoint
 10
-1086.446434913625
 20
102.4479428696627
 30
0.0
1001
GENIUS_GENOBJ-N-CRS_13
1002
{
1000
OWNER
1000
GEN
1002
}
1001
GENIUS_GENOLIS_13
1002
{
1000
ENT
1005
0
1005
0
1005
0
1005
416B
1002
}
1001
GENIUS_GENOENT_13
1002
{
1000
MYREF
1005
4185
1002
}
1002
{
1000
GRP
1005
0
1002
}
1001
GENIUS_GENODEF_13
1002
{
1000
HIER
1070
    10
1002
}
1002
{
1000
MANEDIT
1070
     1
1002
}
1002
{
1000
NOSEL
1070
     0
1002
}
1002
{
1000
BEHIND
1070
     0
1002
}
1002
{
1000
OTHER
1070
     0
1002
}
1002
{
1000
REACTOR
1002
}
  0
CIRCLE
  5
4C3E
330
1F
100
AcDbEntity
  8
AM_4
  6
HIDDEN2
100
AcDbCircle
 10
943.2674815604894
 20
1304.428997407745
 30
0.0
 40
4.849999999999999
  0
LINE
  5
4C47
330
1F
100
AcDbEntity
  8
AM_VIS
100
AcDbLine
 10
777.3213030579959
 20
1332.828997407746
 30
0.0
 11
777.3213030579959
 21
1288.428997407745
 31
0.0
  0
LINE
  5
4C4E
330
1F
100
AcDbEntity
  8
AM_VIS
100
AcDbLine
 10
859.3213030579962
 20
1292.428997407745
 30
0.0
 11
853.5713030579961
 21
1292.428997407745
 31
0.0
  0
LINE
  5
4C4F
330
1F
100
AcDbEntity
  8
AM_VIS
100
AcDbLine
 10
860.3213030579961
 20
1293.428997407745
 30
0.0
 11
860.3213030579961
 21
1310.628997407745
 31
0.0
  0
LINE
  5
4C50
330
1F
100
AcDbEntity
  8
AM_VIS
100
AcDbLine
 10
860.3213030579961
 20
1310.628997407745
 30
0.0
 11
860.3213030579961
 21
1325.828997407745
 31
0.0
  0
LINE
  5
4C51
330
1F
100
AcDbEntity
  8
AM_VIS
100
AcDbLine
 10
851.5713030579961
 20
1325.828997407745
 30
0.0
 11
860.3213030579961
 21
1325.828997407745
 31
0.0
  0
LINE
  5
4C52
330
1F
100
AcDbEntity
  8
AM_VIS
100
AcDbLine
 10
849.0713030579961
 20
1329.828997407745
 30
0.0
 11
849.0713030579961
 21
1328.328997407745
 31
0.0
  0
LINE
  5
4C53
330
1F
100
AcDbEntity
  8
AM_VIS
100
AcDbLine
 10
848.0713030579961
 20
1330.828997407746
 30
0.0
 11
837.9268543334601
 21
1330.828997407746
 31
0.0
  0
ARC
  5
4C54
330
1F
100
AcDbEntity
  8
AM_VIS
100
AcDbCircle
 10
838.8982321259723
 20
1310.574292530248
 30
0.0
 40
20.27798423143425
100
AcDbArc
 50
92.74569478008702
 51
103.0445894300081
  0
ARC
  5
4C55
330
1F
100
AcDbEntity
  8
AM_VIS
100
AcDbCircle
 10
829.7443739900193
 20
1310.574292530241
 30
0.0
 40
20.27798423144167
100
AcDbArc
 50
76.95541057000454
 51
87.25430521991297
  0
LINE
  5
4C56
330
1F
100
AcDbEntity
  8
AM_VIS
100
AcDbLine
 10
830.7157517825322
 20
1330.828997407746
 30
0.0
 11
825.3213030579962
 21
1330.828997407746
 31
0.0
  0
LINE
  5
4C57
330
1F
100
AcDbEntity
  8
AM_VIS
100
AcDbLine
 10
824.3213030579962
 20
1329.828997407745
 30
0.0
 11
824.3213030579962
 21
1322.928997407746
 31
0.0
  0
LINE
  5
4C58
330
1F
100
AcDbEntity
  8
AM_VIS
100
AcDbLine
 10
816.3213030579962
 20
1322.928997407746
 30
0.0
 11
816.3213030579962
 21
1329.828997407745
 31
0.0
  0
LINE
  5
4C59
330
1F
100
AcDbEntity
  8
AM_VIS
100
AcDbLine
 10
815.321303057996
 20
1330.828997407746
 30
0.0
 11
780.8213030579961
 21
1330.828997407746
 31
0.0
  0
LINE
  5
4C5A
330
1F
100
AcDbEntity
  8
AM_VIS
100
AcDbLine
 10
780.3213030579962
 20
1330.328997407745
 30
0.0
 11
780.3213030579962
 21
1329.628997407745
 31
0.0
  0
LINE
  5
4C5B
330
1F
100
AcDbEntity
  8
AM_VIS
100
AcDbLine
 10
780.3213030579962
 20
1329.628997407745
 30
0.0
 11
780.3213030579962
 21
1310.628997407745
 31
0.0
  0
LINE
  5
4C5C
330
1F
100
AcDbEntity
  8
AM_VIS
100
AcDbLine
 10
780.3213030579962
 20
1310.628997407745
 30
0.0
 11
780.3213030579962
 21
1291.428997407745
 31
0.0
  0
LINE
  5
4C5D
330
1F
100
AcDbEntity
  8
AM_VIS
100
AcDbLine
 10
781.3213030579961
 20
1290.428997407745
 30
0.0
 11
800.8213030579961
 21
1290.428997407745
 31
0.0
  0
LINE
  5
4C5E
330
1F
100
AcDbEntity
  8
AM_VIS
100
AcDbLine
 10
801.8213030579961
 20
1291.428997407745
 30
0.0
 11
801.8213030579961
 21
1294.428997407745
 31
0.0
  0
LINE
  5
4C5F
330
1F
100
AcDbEntity
  8
AM_VIS
100
AcDbLine
 10
809.8213030579961
 20
1294.428997407745
 30
0.0
 11
809.8213030579961
 21
1291.428997407745
 31
0.0
  0
LINE
  5
4C60
330
1F
100
AcDbEntity
  8
AM_VIS
100
AcDbLine
 10
810.821303057996
 20
1290.428997407745
 30
0.0
 11
829.8213030579962
 21
1290.428997407745
 31
0.0
  0
LINE
  5
4C61
330
1F
100
AcDbEntity
  8
AM_VIS
100
AcDbLine
 10
830.8213030579961
 20
1291.428997407745
 30
0.0
 11
830.8213030579961
 21
1294.428997407745
 31
0.0
  0
LINE
  5
4C62
330
1F
100
AcDbEntity
  8
AM_VIS
100
AcDbLine
 10
838.8213030579962
 20
1294.428997407745
 30
0.0
 11
838.8213030579962
 21
1291.428997407745
 31
0.0
  0
LINE
  5
4C63
330
1F
100
AcDbEntity
  8
AM_VIS
100
AcDbLine
 10
839.8213030579961
 20
1290.428997407745
 30
0.0
 11
851.5713030579961
 21
1290.428997407745
 31
0.0
  0
LINE
  5
4C64
330
1F
100
AcDbEntity
  8
AM_VIS
100
AcDbLine
 10
863.3213030579961
 20
1287.428997407745
 30
0.0
 11
777.3213030579961
 21
1287.428997407745
 31
0.0
  0
LINE
  5
4C65
330
1F
100
AcDbEntity
  8
AM_VIS
100
AcDbLine
 10
852.3213030579961
 20
1329.828997407745
 30
0.0
 11
852.3213030579961
 21
1333.828997407745
 31
0.0
  0
LINE
  5
4C66
330
1F
100
AcDbEntity
  8
AM_VIS
100
AcDbLine
 10
860.3213030579961
 20
1333.828997407745
 30
0.0
 11
860.3213030579961
 21
1329.828997407745
 31
0.0
  0
LINE
  5
4C67
330
1F
100
AcDbEntity
  8
AM_VIS
100
AcDbLine
 10
860.3213030579961
 20
1333.828997407745
 30
0.0
 11
863.3213030579961
 21
1333.828997407745
 31
0.0
  0
LINE
  5
4C68
330
1F
100
AcDbEntity
  8
AM_VIS
100
AcDbLine
 10
777.3213030579961
 20
1333.828997407745
 30
0.0
 11
852.3213030579961
 21
1333.828997407745
 31
0.0
  0
LINE
  5
4C69
330
1F
100
AcDbEntity
  8
AM_VIS
100
AcDbLine
 10
777.3213030579961
 20
1333.828997407745
 30
0.0
 11
777.3213030579961
 21
1287.428997407745
 31
0.0
  0
LINE
  5
4C6A
102
{ACAD_REACTORS
330
5194
102
}
330
1F
100
AcDbEntity
  8
AM_VIS
100
AcDbLine
 10
860.3213030579961
 20
1329.828997407745
 30
0.0
 11
852.3213030579961
 21
1329.828997407745
 31
0.0
  0
LINE
  5
4C6B
330
1F
100
AcDbEntity
  8
AM_VIS
100
AcDbLine
 10
863.3213030579961
 20
1287.428997407745
 30
0.0
 11
863.3213030579961
 21
1333.828997407745
 31
0.0
  0
CIRCLE
  5
4C6C
330
1F
100
AcDbEntity
  8
AM_VIS
100
AcDbCircle
 10
834.8213030579961
 20
1294.428997407745
 30
0.0
 40
2.25
  0
ARC
  5
4C6D
330
1F
100
AcDbEntity
  8
AM_VIS
100
AcDbCircle
 10
859.3213030579962
 20
1293.428997407745
 30
0.0
 40
1.0
100
AcDbArc
 50
270.0
 51
0.0
  0
ARC
  5
4C6E
330
1F
100
AcDbEntity
  8
AM_VIS
100
AcDbCircle
 10
851.5713030579961
 20
1328.328997407745
 30
0.0
 40
2.5
100
AcDbArc
 50
180.0
 51
270.0
  0
ARC
  5
4C6F
330
1F
100
AcDbEntity
  8
AM_VIS
100
AcDbCircle
 10
848.0713030579961
 20
1329.828997407745
 30
0.0
 40
0.9999999999999998
100
AcDbArc
 50
0.0
 51
90.0
  0
ARC
  5
4C70
330
1F
100
AcDbEntity
  8
AM_VIS
100
AcDbCircle
 10
825.3213030579962
 20
1329.828997407745
 30
0.0
 40
0.9999999999999998
100
AcDbArc
 50
90.0
 51
180.0
  0
ARC
  5
4C71
330
1F
100
AcDbEntity
  8
AM_VIS
100
AcDbCircle
 10
820.3213030579961
 20
1322.928997407746
 30
0.0
 40
4.0
100
AcDbArc
 50
180.0
 51
0.0
  0
ARC
  5
4C72
330
1F
100
AcDbEntity
  8
AM_VIS
100
AcDbCircle
 10
815.321303057996
 20
1329.828997407745
 30
0.0
 40
0.9999999999999998
100
AcDbArc
 50
0.0
 51
90.0
  0
ARC
  5
4C73
330
1F
100
AcDbEntity
  8
AM_VIS
100
AcDbCircle
 10
780.8213030579961
 20
1330.328997407745
 30
0.0
 40
0.5
100
AcDbArc
 50
90.0
 51
180.0
  0
ARC
  5
4C74
330
1F
100
AcDbEntity
  8
AM_VIS
100
AcDbCircle
 10
781.3213030579961
 20
1291.428997407745
 30
0.0
 40
0.9999999999999998
100
AcDbArc
 50
180.0
 51
270.0
  0
ARC
  5
4C75
330
1F
100
AcDbEntity
  8
AM_VIS
100
AcDbCircle
 10
800.8213030579961
 20
1291.428997407745
 30
0.0
 40
0.9999999999999998
100
AcDbArc
 50
270.0
 51
0.0
  0
ARC
  5
4C76
330
1F
100
AcDbEntity
  8
AM_VIS
100
AcDbCircle
 10
805.8213030579961
 20
1294.428997407745
 30
0.0
 40
4.0
100
AcDbArc
 50
0.0
 51
180.0
  0
ARC
  5
4C77
330
1F
100
AcDbEntity
  8
AM_VIS
100
AcDbCircle
 10
810.821303057996
 20
1291.428997407745
 30
0.0
 40
1.0
100
AcDbArc
 50
180.0
 51
270.0
  0
ARC
  5
4C78
330
1F
100
AcDbEntity
  8
AM_VIS
100
AcDbCircle
 10
829.8213030579962
 20
1291.428997407745
 30
0.0
 40
0.9999999999999998
100
AcDbArc
 50
270.0
 51
0.0
  0
ARC
  5
4C79
330
1F
100
AcDbEntity
  8
AM_VIS
100
AcDbCircle
 10
834.8213030579961
 20
1294.428997407745
 30
0.0
 40
4.0
100
AcDbArc
 50
0.0
 51
180.0
  0
ARC
  5
4C7A
330
1F
100
AcDbEntity
  8
AM_VIS
100
AcDbCircle
 10
839.8213030579961
 20
1291.428997407745
 30
0.0
 40
1.0
100
AcDbArc
 50
180.0
 51
270.0
  0
ARC
  5
4C7B
330
1F
100
AcDbEntity
  8
AM_VIS
100
AcDbCircle
 10
851.5713030579961
 20
1291.428997407745
 30
0.0
 40
0.9999999999999998
100
AcDbArc
 50
270.0
 51
0.0
  0
ARC
  5
4C7C
330
1F
100
AcDbEntity
  8
AM_VIS
100
AcDbCircle
 10
853.5713030579961
 20
1291.428997407745
 30
0.0
 40
0.9999999999999998
100
AcDbArc
 50
90.0
 51
180.0
  0
CIRCLE
  5
4C7D
330
1F
100
AcDbEntity
  8
AM_VIS
100
AcDbCircle
 10
805.8213030579961
 20
1294.428997407745
 30
0.0
 40
2.25
  0
LINE
  5
4C7E
102
{ACAD_REACTORS
330
5194
102
}
330
1F
100
AcDbEntity
  8
AM_VIS
100
AcDbLine
 10
852.3213030579961
 20
1333.828997407745
 30
0.0
 11
860.3213030579961
 21
1333.828997407745
 31
0.0
  0
LINE
  5
4C97
330
1F
100
AcDbEntity
  8
AM_VIS
100
AcDbLine
 10
863.3213030579961
 20
1333.828997407745
 30
0.0
 11
887.3213030579961
 21
1333.828997407745
 31
0.0
  0
LINE
  5
4C98
102
{ACAD_REACTORS
330
5038
102
}
330
1F
100
AcDbEntity
  8
AM_VIS
100
AcDbLine
 10
887.3213030579961
 20
1287.428997407745
 30
0.0
 11
887.3213030579961
 21
1333.828997407745
 31
0.0
  0
LINE
  5
4C99
102
{ACAD_REACTORS
330
5012
330
5038
102
}
330
1F
100
AcDbEntity
  8
AM_VIS
100
AcDbLine
 10
863.3213030579961
 20
1287.428997407745
 30
0.0
 11
887.3213030579961
 21
1287.428997407745
 31
0.0
  0
LINE
  5
4C9A
330
1F
100
AcDbEntity
  8
AM_VIS
100
AcDbLine
 10
863.3213030579961
 20
1308.628997407745
 30
0.0
 11
863.3213030579961
 21
1287.428997407745
 31
0.0
  0
LINE
  5
4C9B
330
1F
100
AcDbEntity
  8
AM_VIS
100
AcDbLine
 10
863.3213030579961
 20
1333.828997407745
 30
0.0
 11
863.3213030579961
 21
1312.628997407745
 31
0.0
  0
LINE
  5
4C9C
330
1F
100
AcDbEntity
  8
AM_VIS
100
AcDbLine
 10
864.3213030579961
 20
1312.628997407745
 30
0.0
 11
864.3213030579961
 21
1308.628997407745
 31
0.0
  0
LINE
  5
4C9D
330
1F
100
AcDbEntity
  8
AM_VIS
100
AcDbLine
 10
864.3213030579961
 20
1308.628997407745
 30
0.0
 11
863.3213030579961
 21
1308.628997407745
 31
0.0
  0
LINE
  5
4C9E
330
1F
100
AcDbEntity
  8
AM_VIS
100
AcDbLine
 10
863.3213030579961
 20
1312.628997407745
 30
0.0
 11
864.3213030579961
 21
1312.628997407745
 31
0.0
  0
LINE
  5
4CA6
330
1F
100
AcDbEntity
  8
AM_VIS
100
AcDbLine
 10
777.3213030579959
 20
1419.535043299252
 30
0.0
 11
777.3213030579959
 21
1391.535043299252
 31
0.0
  0
ARC
  5
4CEF
330
1F
100
AcDbEntity
  8
AM_VIS
100
AcDbCircle
 10
784.3213030579961
 20
1417.035043475357
 30
0.0
 40
2.100000000000008
100
AcDbArc
 50
180.0000047787926
 51
359.9999951952043
  0
ARC
  5
4CF0
330
1F
100
AcDbEntity
  8
AM_VIS
100
AcDbCircle
 10
856.321303057996
 20
1394.03395777754
 30
0.0
 40
2.100000280561258
100
AcDbArc
 50
0.0296170510321288
 51
179.9703829489809
  0
ARC
  5
4CF1
330
1F
100
AcDbEntity
  8
AM_VIS
100
AcDbCircle
 10
856.3213030351828
 20
1394.035043141554
 30
0.0
 40
2.099999850681458
100
AcDbArc
 50
241.3393335754533
 51
282.1975638978408
  0
LINE
  5
4CF2
330
1F
100
AcDbEntity
  8
AM_VIS
100
AcDbLine
 10
860.3213030579961
 20
1390.535043299252
 30
0.0
 11
863.3213030579961
 21
1390.535043299252
 31
0.0
  0
LINE
  5
4CF3
330
1F
100
AcDbEntity
  8
AM_VIS
100
AcDbLine
 10
860.3213030579961
 20
1394.035043299252
 30
0.0
 11
860.3213030579961
 21
1390.535043299252
 31
0.0
  0
LINE
  5
4CF4
330
1F
100
AcDbEntity
  8
AM_VIS
100
AcDbLine
 10
852.3213030579961
 20
1390.535043299252
 30
0.0
 11
852.3213030579961
 21
1394.035043299252
 31
0.0
  0
LINE
  5
4CF5
330
1F
100
AcDbEntity
  8
AM_VIS
100
AcDbLine
 10
777.3213030579961
 20
1390.535043299252
 30
0.0
 11
852.3213030579961
 21
1390.535043299252
 31
0.0
  0
LINE
  5
4CF6
330
1F
100
AcDbEntity
  8
AM_VIS
100
AcDbLine
 10
780.3213030579962
 20
1420.535043299252
 30
0.0
 11
777.3213030579961
 21
1420.535043299252
 31
0.0
  0
LINE
  5
4CF7
330
1F
100
AcDbEntity
  8
AM_VIS
100
AcDbLine
 10
780.3213030579962
 20
1417.035043299252
 30
0.0
 11
780.3213030579962
 21
1420.535043299252
 31
0.0
  0
LINE
  5
4CF8
330
1F
100
AcDbEntity
  8
AM_VIS
100
AcDbLine
 10
788.3213030579961
 20
1420.535043299252
 30
0.0
 11
788.3213030579961
 21
1417.035043299252
 31
0.0
  0
LINE
  5
4CF9
330
1F
100
AcDbEntity
  8
AM_VIS
100
AcDbLine
 10
863.3213030579961
 20
1420.535043299252
 30
0.0
 11
788.3213030579961
 21
1420.535043299252
 31
0.0
  0
LINE
  5
4D02
330
1F
100
AcDbEntity
  8
AM_VIS
100
AcDbLine
 10
780.3213030579962
 20
1420.535043299252
 30
0.0
 11
788.3213030579961
 21
1420.535043299252
 31
0.0
  0
LINE
  5
4D03
330
1F
100
AcDbEntity
  8
AM_VIS
100
AcDbLine
 10
777.3213030579961
 20
1420.535043299252
 30
0.0
 11
777.3213030579961
 21
1390.535043299252
 31
0.0
  0
LINE
  5
4D04
330
1F
100
AcDbEntity
  8
AM_VIS
100
AcDbLine
 10
860.3213030579961
 20
1390.535043299252
 30
0.0
 11
852.3213030579961
 21
1390.535043299252
 31
0.0
  0
LINE
  5
4D05
330
1F
100
AcDbEntity
  8
AM_VIS
100
AcDbLine
 10
863.3213030579961
 20
1390.535043299252
 30
0.0
 11
863.3213030579961
 21
1420.535043299252
 31
0.0
  0
CIRCLE
  5
4D06
330
1F
100
AcDbEntity
  8
AM_VIS
100
AcDbCircle
 10
834.3213030579962
 20
1403.285043299252
 30
0.0
 40
9.750000000000042
  0
CIRCLE
  5
4D07
330
1F
100
AcDbEntity
  8
AM_VIS
100
AcDbCircle
 10
806.321303057996
 20
1407.785043299252
 30
0.0
 40
9.750000000000042
  0
ARC
  5
4D08
330
1F
100
AcDbEntity
  8
AM_VIS
100
AcDbCircle
 10
856.321303057996
 20
1394.035043299252
 30
0.0
 40
4.0
100
AcDbArc
 50
0.0
 51
180.0
  0
ARC
  5
4D09
330
1F
100
AcDbEntity
  8
AM_VIS
100
AcDbCircle
 10
784.3213030579961
 20
1417.035043299252
 30
0.0
 40
4.0
100
AcDbArc
 50
180.0
 51
0.0
  0
CIRCLE
  5
4D0A
330
1F
100
AcDbEntity
  8
AM_VIS
100
AcDbCircle
 10
806.321303057996
 20
1407.785043299252
 30
0.0
 40
10.7500000000003
  0
CIRCLE
  5
4D0B
330
1F
100
AcDbEntity
  8
AM_VIS
100
AcDbCircle
 10
834.3213030579962
 20
1403.285043299252
 30
0.0
 40
10.74999999999968
  0
CIRCLE
  5
4D0C
330
1F
100
AcDbEntity
  8
AM_VIS
100
AcDbCircle
 10
784.3213030579961
 20
1417.035043299252
 30
0.0
 40
2.1
  0
CIRCLE
  5
4D0D
330
1F
100
AcDbEntity
  8
AM_VIS
100
AcDbCircle
 10
856.321303057996
 20
1394.035043299252
 30
0.0
 40
2.1
  0
LINE
  5
4D25
330
1F
100
AcDbEntity
  8
AM_VIS
100
AcDbLine
 10
863.3213030579961
 20
1420.535043299252
 30
0.0
 11
887.3213030579961
 21
1420.535043299252
 31
0.0
  0
LINE
  5
4D26
330
1F
100
AcDbEntity
  8
AM_VIS
100
AcDbLine
 10
887.3213030579961
 20
1390.535043299252
 30
0.0
 11
887.3213030579961
 21
1420.535043299252
 31
0.0
  0
LINE
  5
4D27
330
1F
100
AcDbEntity
  8
AM_VIS
100
AcDbLine
 10
863.3213030579961
 20
1390.535043299252
 30
0.0
 11
887.3213030579961
 21
1390.535043299252
 31
0.0
  0
LINE
  5
4D28
330
1F
100
AcDbEntity
  8
AM_VIS
100
AcDbLine
 10
863.3213030579961
 20
1420.535043299252
 30
0.0
 11
863.3213030579961
 21
1390.535043299252
 31
0.0
  0
LINE
  5
4D31
330
1F
100
AcDbEntity
  8
AM_VIS
100
AcDbLine
 10
777.3213030579959
 20
1235.972330097609
 30
0.0
 11
777.3213030579959
 21
1207.972330097609
 31
0.0
  0
LINE
  5
4DCA
330
1F
100
AcDbEntity
  8
AM_VIS
100
AcDbLine
 10
863.3213030579961
 20
1236.972330097609
 30
0.0
 11
777.3213030579961
 21
1236.972330097609
 31
0.0
  0
LINE
  5
4DCB
330
1F
100
AcDbEntity
  8
AM_VIS
100
AcDbLine
 10
777.3213030579961
 20
1206.972330097609
 30
0.0
 11
863.3213030579961
 21
1206.972330097609
 31
0.0
  0
LINE
  5
4DCC
330
1F
100
AcDbEntity
  8
AM_VIS
100
AcDbLine
 10
777.3213030579961
 20
1236.972330097609
 30
0.0
 11
777.3213030579961
 21
1206.972330097609
 31
0.0
  0
LINE
  5
4DCD
330
1F
100
AcDbEntity
  8
AM_VIS
100
AcDbLine
 10
863.3213030579961
 20
1206.972330097609
 30
0.0
 11
863.3213030579961
 21
1236.972330097609
 31
0.0
  0
CIRCLE
  5
4DCE
330
1F
100
AcDbEntity
  8
AM_VIS
100
AcDbCircle
 10
791.3213030579961
 20
1221.972330097609
 30
0.0
 40
9.75
  0
CIRCLE
  5
4DCF
330
1F
100
AcDbEntity
  8
AM_VIS
100
AcDbCircle
 10
820.3213030579961
 20
1221.972330097609
 30
0.0
 40
9.749999999999996
  0
CIRCLE
  5
4DD0
330
1F
100
AcDbEntity
  8
AM_VIS
100
AcDbCircle
 10
849.3213030579962
 20
1221.972330097609
 30
0.0
 40
9.75
  0
CIRCLE
  5
4DD1
330
1F
100
AcDbEntity
  8
AM_VIS
100
AcDbCircle
 10
849.3213030579962
 20
1221.972330097609
 30
0.0
 40
10.75
  0
CIRCLE
  5
4DD2
330
1F
100
AcDbEntity
  8
AM_VIS
100
AcDbCircle
 10
791.3213030579961
 20
1221.972330097609
 30
0.0
 40
10.74999999999999
  0
CIRCLE
  5
4DD3
330
1F
100
AcDbEntity
  8
AM_VIS
100
AcDbCircle
 10
820.3213030579961
 20
1221.972330097609
 30
0.0
 40
10.74999999999999
  0
CIRCLE
  5
4DD4
330
1F
100
AcDbEntity
  8
AM_VIS
100
AcDbCircle
 10
856.321303057996
 20
1233.472330097609
 30
0.0
 40
2.1
  0
CIRCLE
  5
4DD5
330
1F
100
AcDbEntity
  8
AM_VIS
100
AcDbCircle
 10
784.3213030579961
 20
1210.472330097609
 30
0.0
 40
2.1
  0
LINE
  5
4DF0
330
1F
100
AcDbEntity
  8
AM_VIS
100
AcDbLine
 10
887.0937289069454
 20
1212.137440245406
 30
0.0
 11
887.1723974512818
 21
1212.168671732606
 31
0.0
  0
LINE
  5
4DF1
330
1F
100
AcDbEntity
  8
AM_VIS
100
AcDbLine
 10
886.9307162744821
 20
1211.6513680706
 30
0.0
 11
887.1723974512821
 21
1211.666856338975
 31
0.0
  0
LINE
  5
4DF2
330
1F
100
AcDbEntity
  8
AM_VIS
100
AcDbLine
 10
887.0990770714788
 20
1210.282502632266
 30
0.0
 11
887.1723974512818
 21
1210.27780385624
 31
0.0
  0
LINE
  5
4DF3
330
1F
100
AcDbEntity
  8
AM_VIS
100
AcDbLine
 10
887.1723974512818
 20
1212.326439317938
 30
0.0
 11
887.0625178333249
 21
1212.282817004716
 31
0.0
  0
LINE
  5
4DF4
330
1F
100
AcDbEntity
  8
AM_VIS
100
AcDbLine
 10
886.9884933471659
 20
1209.848998567504
 30
0.0
 11
887.172397451282
 21
1209.775988462613
 31
0.0
  0
LINE
  5
4DF5
330
1F
100
AcDbEntity
  8
AM_VIS
100
AcDbLine
 10
887.172397451282
 20
1211.255151997394
 30
0.0
 11
886.9374965896483
 21
1211.270205745619
 31
0.0
  0
LINE
  5
4DF6
330
1F
100
AcDbEntity
  8
AM_VIS
100
AcDbLine
 10
887.1723974512818
 20
1209.618220877281
 30
0.0
 11
887.1407045056479
 21
1209.630803006952
 31
0.0
  0
LINE
  5
4DF7
330
1F
100
AcDbEntity
  8
AM_VIS
100
AcDbLine
 10
885.280240570124
 20
1207.064975125303
 30
0.0
 11
884.2213030579962
 21
1206.972330097609
 31
0.0
  0
LINE
  5
4DF8
330
1F
100
AcDbEntity
  8
AM_VIS
100
AcDbLine
 10
884.2213030579962
 20
1206.972330097609
 30
0.0
 11
884.2213030579962
 21
1214.722330097609
 31
0.0
  0
ELLIPSE
  5
4DF9
330
1F
100
AcDbEntity
  8
AM_VIS
100
AcDbEllipse
 10
880.8213030579961
 20
1210.893446304944
 30
0.0
 11
6.481124516625182
 21
-0.0000000000000003
 31
0.0
210
0.0
220
0.0
230
1.0
 40
0.9872203446008962
 41
0.200650658080606
 42
0.2238633709114921
  0
ELLIPSE
  5
4DFA
330
1F
100
AcDbEntity
  8
AM_VIS
100
AcDbEllipse
 10
882.3302743870216
 20
1209.237786419483
 30
0.0
 11
4.582127624772801
 21
3.986235284190598
 31
0.0
210
0.0
220
0.0
230
1.0
 40
0.1208948884426956
 41
6.212490683621145
 42
6.259991375134472
  0
ELLIPSE
  5
4DFB
330
1F
100
AcDbEntity
  8
AM_VIS
100
AcDbEllipse
 10
882.3302743870257
 20
1212.706873775736
 30
0.0
 11
4.582127624767223
 21
-3.986235284195178
 31
0.0
210
0.0
220
0.0
230
1.0
 40
0.1208948884425745
 41
0.0464597162536855
 42
0.186381328290727
  0
ELLIPSE
  5
4DFC
330
1F
100
AcDbEntity
  8
AM_VIS
100
AcDbEllipse
 10
882.3302743870213
 20
1211.252327322984
 30
0.0
 11
-1.108032813882453
 21
5.971451129666653
 31
0.0
210
0.0
220
0.0
230
1.0
 40
0.7489269373483448
 41
4.503611541333603
 42
4.527846448638686
  0
ELLIPSE
  5
4DFD
330
1F
100
AcDbEntity
  8
AM_VIS
100
AcDbEllipse
 10
880.8213030579961
 20
1211.461004168185
 30
0.0
 11
6.481124516625333
 21
-0.0000000000000041
 31
0.0
210
0.0
220
0.0
230
1.0
 40
0.15936119730376
 41
0.2006506580805109
 42
0.3441706105211344
  0
ELLIPSE
  5
4DFE
330
1F
100
AcDbEntity
  8
AM_VIS
100
AcDbEllipse
 10
880.8213030579961
 20
1211.461004168185
 30
0.0
 11
6.481124516625333
 21
-0.0000000000000041
 31
0.0
210
0.0
220
0.0
230
1.0
 40
0.15936119730376
 41
5.944847275188891
 42
6.082534649098914
  0
ELLIPSE
  5
4DFF
330
1F
100
AcDbEntity
  8
AM_VIS
100
AcDbEllipse
 10
882.3302743870213
 20
1210.692332872234
 30
0.0
 11
-1.108032813882461
 21
-5.971451129666652
 31
0.0
210
0.0
220
0.0
230
0.9999999999999998
 40
0.7489269373483449
 41
1.732073074332065
 42
1.89526047057752
  0
ELLIPSE
  5
4E00
330
1F
100
AcDbEntity
  8
AM_VIS
100
AcDbEllipse
 10
880.8213030579961
 20
1211.051213890274
 30
0.0
 11
6.481124516625182
 21
-0.0000000000000003
 31
0.0
210
0.0
220
0.0
230
1.0
 40
0.9872203446008962
 41
0.2006506580807597
 42
0.344170610520802
  0
ELLIPSE
  5
4E01
330
1F
100
AcDbEntity
  8
AM_VIS
100
AcDbEllipse
 10
880.8213030579961
 20
1211.051213890274
 30
0.0
 11
6.481124516625182
 21
-0.0000000000000003
 31
0.0
210
0.0
220
0.0
230
1.0
 40
0.9872203446008962
 41
5.939014696658142
 42
6.082534649098971
  0
ELLIPSE
  5
4E02
330
1F
100
AcDbEntity
  8
AM_VIS
100
AcDbEllipse
 10
880.8213030579961
 20
1210.48365602703
 30
0.0
 11
6.48112451662503
 21
-0.0000000000000041
 31
0.0
210
0.0
220
0.0
230
1.0
 40
0.15936119730376
 41
0.2006506580808561
 42
0.3441706105211124
  0
ELLIPSE
  5
4E03
330
1F
100
AcDbEntity
  8
AM_VIS
100
AcDbEllipse
 10
880.8213030579961
 20
1210.893446304944
 30
0.0
 11
6.481124516625182
 21
-0.0000000000000003
 31
0.0
210
0.0
220
0.0
230
1.0
 40
0.9872203446008962
 41
5.944847275188637
 42
6.082534649098835
  0
ELLIPSE
  5
4E04
330
1F
100
AcDbEntity
  8
AM_VIS
100
AcDbEllipse
 10
881.2718830452208
 20
1211.167436868201
 30
0.0
 11
2.533406213370652
 21
-5.85065364874727
 31
0.0000000000000001
210
0.0
220
0.0
230
1.0
 40
0.9216722696257043
 41
1.270433805594264
 42
1.445998453769715
  0
ELLIPSE
  5
4E05
330
1F
100
AcDbEntity
  8
AM_VIS
100
AcDbEllipse
 10
881.2718830452205
 20
1210.420109205771
 30
0.0
 11
4.939862570295509
 21
4.030639272639166
 31
-0.0000000000000002
210
0.0
220
0.0
230
1.0
 40
0.8263513329524286
 41
5.375539173728109
 42
5.551103821902793
  0
ELLIPSE
  5
4E06
330
1F
100
AcDbEntity
  8
AM_VIS
100
AcDbEllipse
 10
881.2718830452208
 20
1210.777223327018
 30
0.0
 11
2.53340621337066
 21
5.850653648747262
 31
-0.0000000000000001
210
0.0
220
0.0
230
0.9999999999999998
 40
0.9216722696257043
 41
4.93751651750844
 42
5.012751501584671
  0
ELLIPSE
  5
4E07
330
1F
100
AcDbEntity
  8
AM_VIS
100
AcDbEllipse
 10
881.2718830452205
 20
1209.926512426032
 30
0.0
 11
5.855282528136941
 21
2.522689373514308
 31
0.0
210
0.0
220
0.0
230
1.0
 40
0.4363365455147294
 41
6.23620709221863
 42
6.411771740393651
  0
ELLIPSE
  5
4E08
330
1F
100
AcDbEntity
  8
AM_VIS
100
AcDbEllipse
 10
881.2718830452208
 20
1212.138784496048
 30
0.0
 11
5.947313041152885
 21
-2.297338188007491
 31
0.0
210
0.0
220
0.0
230
1.0
 40
0.1541633348983573
 41
6.028256682717519
 42
6.203821330892644
  0
ELLIPSE
  5
4E09
330
1F
100
AcDbEntity
  8
AM_VIS
100
AcDbEllipse
 10
881.2718830452205
 20
1211.524550989447
 30
0.0
 11
4.939862570295502
 21
-4.030639272639175
 31
0.0000000000000002
210
0.0
220
0.0
230
1.0
 40
0.8263513329524283
 41
0.7320814852761513
 42
0.8030492239412932
  0
ARC
  5
4E0A
330
1F
100
AcDbEntity
  8
AM_VIS
100
AcDbCircle
 10
885.1407913817277
 20
1213.285773552969
 30
0.0
 40
1.6
100
AcDbArc
 50
28.17273413185636
 51
63.87660179376084
  0
ARC
  5
4E0B
330
1F
100
AcDbEntity
  8
AM_VIS
100
AcDbCircle
 10
885.1407913817277
 20
1208.658886642249
 30
0.0
 40
1.599999999999999
100
AcDbArc
 50
274.9999999999995
 51
331.8272658681436
  0
ARC
  5
4E0C
330
1F
100
AcDbEntity
  8
AM_VIS
100
AcDbCircle
 10
880.8213030579961
 20
1210.972330097609
 30
0.0
 40
6.499999999999998
100
AcDbArc
 50
331.8272658681321
 51
340.0137706279984
  0
ARC
  5
4E0D
330
1F
100
AcDbEntity
  8
AM_VIS
100
AcDbCircle
 10
880.8213030579961
 20
1210.972330097609
 30
0.0
 40
6.5
100
AcDbArc
 50
19.98622937197268
 51
28.17273413186785
  0
LINE
  5
4E0E
330
1F
100
AcDbEntity
  8
AM_VIS
100
AcDbLine
 10
883.2213030579962
 20
1207.172330097609
 30
0.0
 11
884.2213030579962
 21
1207.172330097609
 31
0.0
  0
LINE
  5
4E0F
330
1F
100
AcDbEntity
  8
AM_VIS
100
AcDbLine
 10
883.2213030579962
 20
1206.972330097609
 30
0.0
 11
883.2213030579962
 21
1214.722330097609
 31
0.0
  0
LINE
  5
4E10
330
1F
100
AcDbEntity
  8
AM_VIS
100
AcDbLine
 10
863.3213030579961
 20
1206.972330097609
 30
0.0
 11
883.2213030579962
 21
1206.972330097609
 31
0.0
  0
LINE
  5
4E11
330
1F
100
AcDbEntity
  8
AM_VIS
100
AcDbLine
 10
883.2213030579962
 20
1214.722330097609
 30
0.0
 11
887.3213030579961
 21
1214.722330097609
 31
0.0
  0
LINE
  5
4E12
330
1F
100
AcDbEntity
  8
AM_VIS
100
AcDbLine
 10
887.3213030579961
 20
1206.972330097609
 30
0.0
 11
883.2213030579962
 21
1206.972330097609
 31
0.0
  0
LINE
  5
4E13
330
1F
100
AcDbEntity
  8
AM_VIS
100
AcDbLine
 10
887.3213030579961
 20
1214.722330097609
 30
0.0
 11
887.3213030579961
 21
1236.972330097609
 31
0.0
  0
LINE
  5
4E14
330
1F
100
AcDbEntity
  8
AM_VIS
100
AcDbLine
 10
887.3213030579961
 20
1210.972330097609
 30
0.0
 11
887.3213030579961
 21
1206.972330097609
 31
0.0
  0
LINE
  5
4E15
330
1F
100
AcDbEntity
  8
AM_VIS
100
AcDbLine
 10
863.3213030579961
 20
1236.972330097609
 30
0.0
 11
887.3213030579961
 21
1236.972330097609
 31
0.0
  0
LINE
  5
4E16
330
1F
100
AcDbEntity
  8
AM_VIS
100
AcDbLine
 10
863.3213030579961
 20
1236.972330097609
 30
0.0
 11
863.3213030579961
 21
1206.972330097609
 31
0.0
  0
LINE
  5
4E17
330
1F
100
AcDbEntity
  8
AM_VIS
100
AcDbLine
 10
887.3213030579961
 20
1214.722330097609
 30
0.0
 11
887.3213030579961
 21
1210.972330097609
 31
0.0
  0
ARC
  5
4E90
330
1F
100
AcDbEntity
  8
AM_VIS
100
AcDbCircle
 10
954.2674815604893
 20
1291.628997407745
 30
0.0
 40
4.000000000000028
100
AcDbArc
 50
200.3641348063164
 51
69.63586519368354
  0
LINE
  5
4E91
330
1F
100
AcDbEntity
  8
AM_VIS
100
AcDbLine
 10
935.2724815604892
 20
1328.628997407746
 30
0.0
 11
935.7674815604893
 21
1328.628997407746
 31
0.0
  0
LINE
  5
4E92
330
1F
100
AcDbEntity
  8
AM_VIS
100
AcDbLine
 10
935.7674815604893
 20
1328.628997407746
 30
0.0
 11
936.2624815604892
 21
1328.628997407746
 31
0.0
  0
LINE
  5
4E93
330
1F
100
AcDbEntity
  8
AM_VIS
100
AcDbLine
 10
935.7674815604882
 20
1328.628997407745
 30
0.0
 11
935.2724815604883
 21
1329.123997407746
 31
0.0
  0
LINE
  5
4E94
330
1F
100
AcDbEntity
  8
AM_VIS
100
AcDbLine
 10
935.2724815604892
 20
1328.133997407747
 30
0.0
 11
935.7674815604893
 21
1328.628997407747
 31
0.0
  0
LINE
  5
4E95
330
1F
100
AcDbEntity
  8
AM_VIS
100
AcDbLine
 10
935.2724815604892
 20
1329.123997407747
 30
0.0
 11
935.2724815604892
 21
1328.133997407747
 31
0.0
  0
LINE
  5
4E96
330
1F
100
AcDbEntity
  8
AM_VIS
100
AcDbLine
 10
936.2624815604892
 20
1328.133997407747
 30
0.0
 11
935.2724815604892
 21
1328.133997407747
 31
0.0
  0
LINE
  5
4E97
330
1F
100
AcDbEntity
  8
AM_VIS
100
AcDbLine
 10
935.7674815604893
 20
1329.123997407747
 30
0.0
 11
935.7674815604893
 21
1328.628997407747
 31
0.0
  0
LINE
  5
4E98
330
1F
100
AcDbEntity
  8
AM_VIS
100
AcDbLine
 10
936.2624815604901
 20
1329.123997407746
 30
0.0
 11
935.7674815604905
 21
1328.628997407745
 31
0.0
  0
LINE
  5
4E99
330
1F
100
AcDbEntity
  8
AM_VIS
100
AcDbLine
 10
936.2624815604892
 20
1328.133997407747
 30
0.0
 11
936.2624815604892
 21
1329.123997407747
 31
0.0
  0
LINE
  5
4E9A
330
1F
100
AcDbEntity
  8
AM_VIS
100
AcDbLine
 10
935.7674815604893
 20
1328.628997407747
 30
0.0
 11
935.7674815604893
 21
1328.133997407747
 31
0.0
  0
LINE
  5
4E9B
330
1F
100
AcDbEntity
  8
AM_VIS
100
AcDbLine
 10
935.7674815604893
 20
1328.628997407747
 30
0.0
 11
936.2624815604895
 21
1328.133997407747
 31
0.0
  0
LINE
  5
4E9C
330
1F
100
AcDbEntity
  8
AM_VIS
100
AcDbLine
 10
935.2724815604892
 20
1329.123997407747
 30
0.0
 11
936.2624815604892
 21
1329.123997407747
 31
0.0
  0
LINE
  5
4E9D
330
1F
100
AcDbEntity
  8
AM_VIS
100
AcDbLine
 10
935.2724815604892
 20
1328.133997407747
 30
0.0
 11
935.2724815604892
 21
1327.3372640732
 31
0.0
  0
LINE
  5
4E9E
330
1F
100
AcDbEntity
  8
AM_VIS
100
AcDbLine
 10
936.2624815604887
 20
1328.133997407747
 30
0.0
 11
937.0592148950336
 21
1328.133997407747
 31
0.0
  0
LINE
  5
4E9F
330
1F
100
AcDbEntity
  8
AM_VIS
100
AcDbLine
 10
937.0592148950359
 20
1329.123997407747
 30
0.0
 11
936.2624815604922
 21
1329.123997407747
 31
0.0
  0
LINE
  5
4EA0
330
1F
100
AcDbEntity
  8
AM_VIS
100
AcDbLine
 10
935.272481560489
 20
1329.123997407747
 30
0.0
 11
934.4757482259437
 21
1329.123997407747
 31
0.0
  0
LINE
  5
4EA1
330
1F
100
AcDbEntity
  8
AM_VIS
100
AcDbLine
 10
936.2624815604892
 20
1327.337264073199
 30
0.0
 11
936.2624815604892
 21
1328.133997407745
 31
0.0
  0
LINE
  5
4EA2
330
1F
100
AcDbEntity
  8
AM_VIS
100
AcDbLine
 10
936.2624815604892
 20
1328.133997407745
 30
0.0
 11
937.3231164791002
 21
1327.073362489134
 31
0.0
  0
LINE
  5
4EA3
330
1F
100
AcDbEntity
  8
AM_VIS
100
AcDbLine
 10
936.2624815604922
 20
1329.123997407747
 30
0.0
 11
937.3231164791006
 21
1330.184632326356
 31
0.0
  0
LINE
  5
4EA4
330
1F
100
AcDbEntity
  8
AM_VIS
100
AcDbLine
 10
936.2624815604892
 20
1329.123997407746
 30
0.0
 11
936.2624815604892
 21
1329.92073074229
 31
0.0
  0
LINE
  5
4EA5
330
1F
100
AcDbEntity
  8
AM_VIS
100
AcDbLine
 10
934.4757482259437
 20
1328.133997407747
 30
0.0
 11
935.2724815604904
 21
1328.133997407747
 31
0.0
  0
LINE
  5
4EA6
330
1F
100
AcDbEntity
  8
AM_VIS
100
AcDbLine
 10
935.2724815604904
 20
1328.133997407747
 30
0.0
 11
934.2118466418778
 21
1327.073362489135
 31
0.0
  0
LINE
  5
4EA7
330
1F
100
AcDbEntity
  8
AM_VIS
100
AcDbLine
 10
935.2724815604892
 20
1329.920730742292
 30
0.0
 11
935.2724815604892
 21
1329.123997407746
 31
0.0
  0
LINE
  5
4EA8
330
1F
100
AcDbEntity
  8
AM_VIS
100
AcDbLine
 10
935.2724815604892
 20
1329.123997407746
 30
0.0
 11
934.2118466418785
 21
1330.184632326357
 31
0.0
  0
LINE
  5
4EA9
330
1F
100
AcDbEntity
  8
AM_VIS
100
AcDbLine
 10
935.2724815604892
 20
1327.3372640732
 30
0.0
 11
935.2724815604892
 21
1326.442162019562
 31
0.0
  0
ELLIPSE
  5
4EAA
330
1F
100
AcDbEntity
  8
AM_VIS
100
AcDbEllipse
 10
935.7674815604893
 20
1330.385994908468
 30
0.0
 11
6.073381703024446
 21
-0.0000000000000043
 31
0.0
210
0.0
220
0.0
230
1.0
 40
0.6515311722874965
 41
4.630795282261953
 42
4.793982678507425
  0
ELLIPSE
  5
4EAB
330
1F
100
AcDbEntity
  8
AM_VIS
100
AcDbEllipse
 10
935.7674815604893
 20
1326.871999907022
 30
0.0
 11
-6.073381703023245
 21
0.0000000000000066
 31
0.0
210
0.0
220
0.0
230
1.0
 40
0.6515311722883823
 41
4.630795282261937
 42
4.793982678507441
  0
ELLIPSE
  5
4EAC
330
1F
100
AcDbEntity
  8
AM_VIS
100
AcDbEllipse
 10
937.5244790612113
 20
1328.628997407746
 30
0.0
 11
-0.0000000000000066
 21
-6.07338170302488
 31
0.0
210
0.0
220
0.0
230
1.0
 40
0.6515311722876046
 41
4.63079528226163
 42
4.793982678507091
  0
LINE
  5
4EAD
330
1F
100
AcDbEntity
  8
AM_VIS
100
AcDbLine
 10
937.0592148950336
 20
1328.133997407747
 30
0.0
 11
937.9543169486744
 21
1328.133997407747
 31
0.0
  0
LINE
  5
4EAE
330
1F
100
AcDbEntity
  8
AM_VIS
100
AcDbLine
 10
933.5806461723041
 20
1328.133997407747
 30
0.0
 11
934.475748225944
 21
1328.133997407747
 31
0.0
  0
ELLIPSE
  5
4EAF
330
1F
100
AcDbEntity
  8
AM_VIS
100
AcDbEllipse
 10
934.0104840597673
 20
1328.628997407746
 30
0.0
 11
0.0000000000000043
 21
6.07338170302488
 31
0.0
210
0.0
220
0.0
230
1.0
 40
0.6515311722876043
 41
4.630795282262288
 42
4.793982678507748
  0
LINE
  5
4EB0
330
1F
100
AcDbEntity
  8
AM_VIS
100
AcDbLine
 10
934.4757482259437
 20
1329.123997407747
 30
0.0
 11
933.5806461723043
 21
1329.123997407747
 31
0.0
  0
LINE
  5
4EB1
330
1F
100
AcDbEntity
  8
AM_VIS
100
AcDbLine
 10
936.2624815604892
 20
1326.442162019562
 30
0.0
 11
936.2624815604892
 21
1327.337264073199
 31
0.0
  0
LINE
  5
4EB2
330
1F
100
AcDbEntity
  8
AM_VIS
100
AcDbLine
 10
936.2624815604892
 20
1329.920730742291
 30
0.0
 11
936.2624815604892
 21
1330.815832795933
 31
0.0
  0
LINE
  5
4EB3
330
1F
100
AcDbEntity
  8
AM_VIS
100
AcDbLine
 10
937.9543169486742
 20
1329.123997407747
 30
0.0
 11
937.0592148950359
 21
1329.123997407747
 31
0.0
  0
LINE
  5
4EB4
330
1F
100
AcDbEntity
  8
AM_VIS
100
AcDbLine
 10
935.2724815604892
 20
1330.815832795933
 30
0.0
 11
935.2724815604892
 21
1329.920730742292
 31
0.0
  0
ELLIPSE
  5
4EB5
330
1F
100
AcDbEntity
  8
AM_VIS
100
AcDbEllipse
 10
935.3889806176566
 20
1329.74945247237
 30
0.0
 11
6.040265643418782
 21
2.04046223108379
 31
0.0
210
0.0
220
0.0
230
1.0
 40
0.3560251305399938
 41
4.397980125344669
 42
4.573544773519788
  0
ELLIPSE
  5
4EB6
330
1F
100
AcDbEntity
  8
AM_VIS
100
AcDbEllipse
 10
934.6470264958648
 20
1328.250496464913
 30
0.0
 11
-2.040462231083788
 21
6.040265643418783
 31
0.0
210
0.0
220
0.0
230
1.0
 40
0.3560251305399932
 41
4.397980125344663
 42
4.573544773520117
  0
ELLIPSE
  5
4EB7
330
1F
100
AcDbEntity
  8
AM_VIS
100
AcDbEllipse
 10
934.6470264958657
 20
1329.007498350577
 30
0.0
 11
2.040462231082185
 21
6.040265643419572
 31
0.0
210
0.0
220
0.0
230
1.0
 40
0.3560251305399901
 41
4.851233187249908
 42
5.026797835424603
  0
ELLIPSE
  5
4EB8
330
1F
100
AcDbEntity
  8
AM_VIS
100
AcDbEllipse
 10
936.8879366251139
 20
1329.007498350578
 30
0.0
 11
2.040462231083787
 21
-6.040265643418781
 31
0.0
210
0.0
220
0.0
230
1.0
 40
0.356025130539994
 41
4.397980125344662
 42
4.573544773519462
  0
ELLIPSE
  5
4EB9
330
1F
100
AcDbEntity
  8
AM_VIS
100
AcDbEllipse
 10
936.1459825033211
 20
1329.749452472369
 30
0.0
 11
6.040265643419568
 21
-2.040462231082185
 31
0.0
210
0.0
220
0.0
230
1.0
 40
0.3560251305399907
 41
4.851233187249573
 42
5.026797835424596
  0
ELLIPSE
  5
4EBA
330
1F
100
AcDbEntity
  8
AM_VIS
100
AcDbEllipse
 10
936.1459825033218
 20
1327.508542343121
 30
0.0
 11
-6.040265643418783
 21
-2.040462231083788
 31
0.0
210
0.0
220
0.0
230
1.0
 40
0.3560251305399935
 41
4.397980125344671
 42
4.573544773519789
  0
ELLIPSE
  5
4EBB
330
1F
100
AcDbEntity
  8
AM_VIS
100
AcDbEllipse
 10
936.887936625113
 20
1328.250496464914
 30
0.0
 11
-2.040462231082185
 21
-6.040265643419573
 31
0.0
210
0.0
220
0.0
230
1.0
 40
0.3560251305399904
 41
4.851233187249251
 42
5.026797835424603
  0
ELLIPSE
  5
4EBC
330
1F
100
AcDbEntity
  8
AM_VIS
100
AcDbEllipse
 10
935.3889806176576
 20
1327.508542343122
 30
0.0
 11
-6.040265643419568
 21
2.040462231082185
 31
0.0
210
0.0
220
0.0
230
1.0
 40
0.3560251305399902
 41
4.851233187249573
 42
5.026797835424596
  0
LINE
  5
4EBD
330
1F
100
AcDbEntity
  8
AM_VIS
100
AcDbLine
 10
958.2674815604894
 20
1287.428997407745
 30
0.0
 11
950.5174815604894
 21
1287.428997407745
 31
0.0
  0
LINE
  5
4EBE
330
1F
100
AcDbEntity
  8
AM_VIS
100
AcDbLine
 10
958.2674815604894
 20
1295.378997407745
 30
0.0
 11
958.2674815604894
 21
1287.428997407745
 31
0.0
  0
LINE
  5
4EBF
330
1F
100
AcDbEntity
  8
AM_VIS
100
AcDbLine
 10
950.5174815604894
 20
1287.428997407745
 30
0.0
 11
950.5174815604894
 21
1291.628997407745
 31
0.0
  0
LINE
  5
4EC0
330
1F
100
AcDbEntity
  8
AM_VIS
100
AcDbLine
 10
950.5174815604894
 20
1287.428997407745
 30
0.0
 11
928.2674815604893
 21
1287.428997407745
 31
0.0
  0
LINE
  5
4EC1
330
1F
100
AcDbEntity
  8
AM_VIS
100
AcDbLine
 10
928.2674815604893
 20
1333.828997407745
 30
0.0
 11
958.2674815604894
 21
1333.828997407745
 31
0.0
  0
LINE
  5
4EC2
330
1F
100
AcDbEntity
  8
AM_VIS
100
AcDbLine
 10
958.2674815604894
 20
1333.828997407745
 30
0.0
 11
958.2674815604891
 21
1295.378997407745
 31
0.0
  0
LINE
  5
4EC3
330
1F
100
AcDbEntity
  8
AM_VIS
100
AcDbLine
 10
954.2674815604893
 20
1295.378997407745
 30
0.0
 11
958.2674815604894
 21
1295.378997407745
 31
0.0
  0
LINE
  5
4EC4
102
{ACAD_REACTORS
330
505E
102
}
330
1F
100
AcDbEntity
  8
AM_VIS
100
AcDbLine
 10
928.2674815604893
 20
1287.428997407745
 30
0.0
 11
928.2674815604893
 21
1333.828997407745
 31
0.0
  0
ARC
  5
4EC5
330
1F
100
AcDbEntity
  8
AM_VIS
100
AcDbCircle
 10
954.2674815604893
 20
1291.628997407745
 30
0.0
 40
3.75
100
AcDbArc
 50
90.0
 51
180.0
  0
CIRCLE
  5
4EC6
330
1F
100
AcDbEntity
  8
AM_VIS
100
AcDbCircle
 10
935.7674815604893
 20
1328.628997407745
 30
0.0
 40
3.75
  0
CIRCLE
  5
4EC7
330
1F
100
AcDbEntity
  8
AM_VIS
100
AcDbCircle
 10
943.2674815604894
 20
1304.428997407745
 30
0.0
 40
4.049999999999999
  0
LINE
  5
4EC9
330
1F
100
AcDbEntity
  8
AM_VIS
100
AcDbLine
 10
954.0224815604892
 20
1291.628997407745
 30
0.0
 11
954.5174815604893
 21
1291.628997407745
 31
0.0
  0
LINE
  5
4ECA
330
1F
100
AcDbEntity
  8
AM_VIS
100
AcDbLine
 10
954.5174815604893
 20
1291.628997407745
 30
0.0
 11
955.0124815604892
 21
1291.628997407745
 31
0.0
  0
LINE
  5
4ECB
330
1F
100
AcDbEntity
  8
AM_VIS
100
AcDbLine
 10
954.5174815604882
 20
1291.628997407745
 30
0.0
 11
954.0224815604883
 21
1292.123997407745
 31
0.0
  0
LINE
  5
4ECC
330
1F
100
AcDbEntity
  8
AM_VIS
100
AcDbLine
 10
954.0224815604892
 20
1291.133997407748
 30
0.0
 11
954.5174815604893
 21
1291.628997407747
 31
0.0
  0
LINE
  5
4ECD
330
1F
100
AcDbEntity
  8
AM_VIS
100
AcDbLine
 10
954.0224815604892
 20
1292.123997407747
 30
0.0
 11
954.0224815604892
 21
1291.133997407748
 31
0.0
  0
LINE
  5
4ECE
330
1F
100
AcDbEntity
  8
AM_VIS
100
AcDbLine
 10
955.0124815604892
 20
1291.133997407748
 30
0.0
 11
954.0224815604892
 21
1291.133997407748
 31
0.0
  0
LINE
  5
4ECF
330
1F
100
AcDbEntity
  8
AM_VIS
100
AcDbLine
 10
954.5174815604893
 20
1292.123997407747
 30
0.0
 11
954.5174815604893
 21
1291.628997407747
 31
0.0
  0
LINE
  5
4ED0
330
1F
100
AcDbEntity
  8
AM_VIS
100
AcDbLine
 10
955.0124815604901
 20
1292.123997407745
 30
0.0
 11
954.5174815604905
 21
1291.628997407745
 31
0.0
  0
LINE
  5
4ED1
330
1F
100
AcDbEntity
  8
AM_VIS
100
AcDbLine
 10
955.0124815604892
 20
1291.133997407748
 30
0.0
 11
955.0124815604892
 21
1292.123997407747
 31
0.0
  0
LINE
  5
4ED2
330
1F
100
AcDbEntity
  8
AM_VIS
100
AcDbLine
 10
954.5174815604893
 20
1291.628997407747
 30
0.0
 11
954.5174815604893
 21
1291.133997407748
 31
0.0
  0
LINE
  5
4ED3
330
1F
100
AcDbEntity
  8
AM_VIS
100
AcDbLine
 10
954.5174815604893
 20
1291.628997407747
 30
0.0
 11
955.0124815604895
 21
1291.133997407748
 31
0.0
  0
LINE
  5
4ED4
330
1F
100
AcDbEntity
  8
AM_VIS
100
AcDbLine
 10
954.0224815604892
 20
1292.123997407747
 30
0.0
 11
955.0124815604892
 21
1292.123997407747
 31
0.0
  0
LINE
  5
4ED5
330
1F
100
AcDbEntity
  8
AM_VIS
100
AcDbLine
 10
954.0224815604892
 20
1291.133997407747
 30
0.0
 11
954.0224815604892
 21
1290.3372640732
 31
0.0
  0
LINE
  5
4ED6
330
1F
100
AcDbEntity
  8
AM_VIS
100
AcDbLine
 10
955.0124815604887
 20
1291.133997407748
 30
0.0
 11
955.8092148950336
 21
1291.133997407748
 31
0.0
  0
LINE
  5
4ED7
330
1F
100
AcDbEntity
  8
AM_VIS
100
AcDbLine
 10
955.8092148950359
 20
1292.123997407747
 30
0.0
 11
955.0124815604922
 21
1292.123997407747
 31
0.0
  0
LINE
  5
4ED8
330
1F
100
AcDbEntity
  8
AM_VIS
100
AcDbLine
 10
954.022481560489
 20
1292.123997407747
 30
0.0
 11
953.2257482259437
 21
1292.123997407747
 31
0.0
  0
LINE
  5
4ED9
330
1F
100
AcDbEntity
  8
AM_VIS
100
AcDbLine
 10
955.0124815604892
 20
1290.3372640732
 30
0.0
 11
955.0124815604892
 21
1291.133997407744
 31
0.0
  0
LINE
  5
4EDA
330
1F
100
AcDbEntity
  8
AM_VIS
100
AcDbLine
 10
955.0124815604892
 20
1291.133997407744
 30
0.0
 11
956.0731164791002
 21
1290.073362489134
 31
0.0
  0
LINE
  5
4EDB
330
1F
100
AcDbEntity
  8
AM_VIS
100
AcDbLine
 10
955.0124815604922
 20
1292.123997407747
 30
0.0
 11
956.0731164791006
 21
1293.184632326356
 31
0.0
  0
LINE
  5
4EDC
330
1F
100
AcDbEntity
  8
AM_VIS
100
AcDbLine
 10
955.0124815604892
 20
1292.123997407746
 30
0.0
 11
955.0124815604892
 21
1292.92073074229
 31
0.0
  0
LINE
  5
4EDD
330
1F
100
AcDbEntity
  8
AM_VIS
100
AcDbLine
 10
953.2257482259437
 20
1291.133997407748
 30
0.0
 11
954.0224815604904
 21
1291.133997407748
 31
0.0
  0
LINE
  5
4EDE
330
1F
100
AcDbEntity
  8
AM_VIS
100
AcDbLine
 10
954.0224815604904
 20
1291.133997407748
 30
0.0
 11
952.9618466418778
 21
1290.073362489135
 31
0.0
  0
LINE
  5
4EDF
330
1F
100
AcDbEntity
  8
AM_VIS
100
AcDbLine
 10
954.0224815604892
 20
1292.920730742291
 30
0.0
 11
954.0224815604892
 21
1292.123997407746
 31
0.0
  0
LINE
  5
4EE0
330
1F
100
AcDbEntity
  8
AM_VIS
100
AcDbLine
 10
954.0224815604892
 20
1292.123997407746
 30
0.0
 11
952.9618466418785
 21
1293.184632326357
 31
0.0
  0
LINE
  5
4EE1
330
1F
100
AcDbEntity
  8
AM_VIS
100
AcDbLine
 10
954.0224815604892
 20
1290.3372640732
 30
0.0
 11
954.0224815604892
 21
1289.442162019562
 31
0.0
  0
ELLIPSE
  5
4EE2
330
1F
100
AcDbEntity
  8
AM_VIS
100
AcDbEllipse
 10
954.5174815604893
 20
1293.385994908468
 30
0.0
 11
6.073381703024446
 21
-0.0000000000000043
 31
0.0
210
0.0
220
0.0
230
1.0
 40
0.6515311722874965
 41
4.630795282261953
 42
4.793982678507425
  0
ELLIPSE
  5
4EE3
330
1F
100
AcDbEntity
  8
AM_VIS
100
AcDbEllipse
 10
954.5174815604893
 20
1289.871999907022
 30
0.0
 11
-6.073381703023245
 21
0.0000000000000066
 31
0.0
210
0.0
220
0.0
230
1.0
 40
0.6515311722883823
 41
4.630795282261937
 42
4.793982678507441
  0
ELLIPSE
  5
4EE4
330
1F
100
AcDbEntity
  8
AM_VIS
100
AcDbEllipse
 10
956.2744790612113
 20
1291.628997407745
 30
0.0
 11
-0.0000000000000066
 21
-6.07338170302488
 31
0.0
210
0.0
220
0.0
230
1.0
 40
0.6515311722876046
 41
4.63079528226163
 42
4.793982678507091
  0
LINE
  5
4EE5
330
1F
100
AcDbEntity
  8
AM_VIS
100
AcDbLine
 10
955.8092148950336
 20
1291.133997407748
 30
0.0
 11
956.7043169486744
 21
1291.133997407748
 31
0.0
  0
LINE
  5
4EE6
330
1F
100
AcDbEntity
  8
AM_VIS
100
AcDbLine
 10
952.3306461723041
 20
1291.133997407748
 30
0.0
 11
953.225748225944
 21
1291.133997407748
 31
0.0
  0
ELLIPSE
  5
4EE7
330
1F
100
AcDbEntity
  8
AM_VIS
100
AcDbEllipse
 10
952.7604840597673
 20
1291.628997407745
 30
0.0
 11
0.0000000000000043
 21
6.07338170302488
 31
0.0
210
0.0
220
0.0
230
1.0
 40
0.6515311722876043
 41
4.630795282262288
 42
4.793982678507748
  0
LINE
  5
4EE8
330
1F
100
AcDbEntity
  8
AM_VIS
100
AcDbLine
 10
953.2257482259437
 20
1292.123997407747
 30
0.0
 11
952.3306461723043
 21
1292.123997407747
 31
0.0
  0
LINE
  5
4EE9
330
1F
100
AcDbEntity
  8
AM_VIS
100
AcDbLine
 10
955.0124815604892
 20
1289.442162019562
 30
0.0
 11
955.0124815604892
 21
1290.3372640732
 31
0.0
  0
LINE
  5
4EEA
330
1F
100
AcDbEntity
  8
AM_VIS
100
AcDbLine
 10
955.0124815604892
 20
1292.92073074229
 30
0.0
 11
955.0124815604892
 21
1293.815832795933
 31
0.0
  0
LINE
  5
4EEB
330
1F
100
AcDbEntity
  8
AM_VIS
100
AcDbLine
 10
956.7043169486742
 20
1292.123997407747
 30
0.0
 11
955.8092148950359
 21
1292.123997407747
 31
0.0
  0
LINE
  5
4EEC
330
1F
100
AcDbEntity
  8
AM_VIS
100
AcDbLine
 10
954.0224815604892
 20
1293.815832795933
 30
0.0
 11
954.0224815604892
 21
1292.920730742291
 31
0.0
  0
ELLIPSE
  5
4EED
330
1F
100
AcDbEntity
  8
AM_VIS
100
AcDbEllipse
 10
954.1389806176566
 20
1292.74945247237
 30
0.0
 11
6.040265643418782
 21
2.04046223108379
 31
0.0
210
0.0
220
0.0
230
1.0
 40
0.3560251305399938
 41
4.397980125344669
 42
4.573544773519788
  0
ELLIPSE
  5
4EEE
330
1F
100
AcDbEntity
  8
AM_VIS
100
AcDbEllipse
 10
953.3970264958648
 20
1291.250496464913
 30
0.0
 11
-2.040462231083788
 21
6.040265643418783
 31
0.0
210
0.0
220
0.0
230
1.0
 40
0.3560251305399932
 41
4.397980125344663
 42
4.573544773520117
  0
ELLIPSE
  5
4EEF
330
1F
100
AcDbEntity
  8
AM_VIS
100
AcDbEllipse
 10
953.3970264958657
 20
1292.007498350577
 30
0.0
 11
2.040462231082185
 21
6.040265643419572
 31
0.0
210
0.0
220
0.0
230
1.0
 40
0.3560251305399901
 41
4.851233187249908
 42
5.026797835424603
  0
ELLIPSE
  5
4EF0
330
1F
100
AcDbEntity
  8
AM_VIS
100
AcDbEllipse
 10
955.6379366251139
 20
1292.007498350578
 30
0.0
 11
2.040462231083787
 21
-6.040265643418781
 31
0.0
210
0.0
220
0.0
230
1.0
 40
0.356025130539994
 41
4.397980125344662
 42
4.573544773519462
  0
ELLIPSE
  5
4EF1
330
1F
100
AcDbEntity
  8
AM_VIS
100
AcDbEllipse
 10
954.8959825033211
 20
1292.749452472369
 30
0.0
 11
6.040265643419568
 21
-2.040462231082185
 31
0.0
210
0.0
220
0.0
230
1.0
 40
0.3560251305399907
 41
4.851233187249573
 42
5.026797835424596
  0
ELLIPSE
  5
4EF2
330
1F
100
AcDbEntity
  8
AM_VIS
100
AcDbEllipse
 10
954.8959825033218
 20
1290.508542343121
 30
0.0
 11
-6.040265643418783
 21
-2.040462231083788
 31
0.0
210
0.0
220
0.0
230
1.0
 40
0.3560251305399935
 41
4.397980125344671
 42
4.573544773519789
  0
ELLIPSE
  5
4EF3
330
1F
100
AcDbEntity
  8
AM_VIS
100
AcDbEllipse
 10
955.637936625113
 20
1291.250496464914
 30
0.0
 11
-2.040462231082185
 21
-6.040265643419573
 31
0.0
210
0.0
220
0.0
230
1.0
 40
0.3560251305399904
 41
4.851233187249251
 42
5.026797835424603
  0
ELLIPSE
  5
4EF4
330
1F
100
AcDbEntity
  8
AM_VIS
100
AcDbEllipse
 10
954.1389806176576
 20
1290.508542343122
 30
0.0
 11
-6.040265643419568
 21
2.040462231082185
 31
0.0
210
0.0
220
0.0
230
1.0
 40
0.3560251305399902
 41
4.851233187249573
 42
5.026797835424596
  0
LINE
  5
4EF5
330
1F
100
AcDbEntity
  8
AM_7
  6
AM_ISO08W050x2
100
AcDbLine
 10
943.2674815604894
 20
1304.428997407745
 30
0.0
 11
950.1174815604896
 21
1304.428997407745
 31
0.0
1001
GENIUS_GENOREF_13
1005
4F33
  0
LINE
  5
4EF6
330
1F
100
AcDbEntity
  8
AM_7
  6
AM_ISO08W050x2
100
AcDbLine
 10
943.2674815604894
 20
1304.428997407745
 30
0.0
 11
943.2674815604894
 21
1311.278997407745
 31
0.0
1001
GENIUS_GENOREF_13
1005
4F33
  0
LINE
  5
4EF7
102
{ACAD_REACTORS
330
505E
102
}
330
1F
100
AcDbEntity
  8
AM_7
  6
AM_ISO08W050x2
100
AcDbLine
 10
943.2674815604894
 20
1304.428997407745
 30
0.0
 11
936.4174815604892
 21
1304.428997407745
 31
0.0
1001
GENIUS_GENOREF_13
1005
4F33
  0
LINE
  5
4EF8
330
1F
100
AcDbEntity
  8
AM_7
  6
AM_ISO08W050x2
100
AcDbLine
 10
943.2674815604894
 20
1304.428997407745
 30
0.0
 11
943.2674815604894
 21
1297.578997407745
 31
0.0
1001
GENIUS_GENOREF_13
1005
4F33
  0
LINE
  5
4EF9
330
1F
100
AcDbEntity
  8
AM_7
  6
AM_ISO08W050x2
100
AcDbLine
 10
805.8213030579961
 20
1294.428997407745
 30
0.0
 11
810.0713030579962
 21
1294.428997407745
 31
0.0
1001
GENIUS_GENOREF_13
1005
4F32
  0
LINE
  5
4EFA
330
1F
100
AcDbEntity
  8
AM_7
  6
AM_ISO08W050x2
100
AcDbLine
 10
805.8213030579961
 20
1294.428997407745
 30
0.0
 11
805.8213030579961
 21
1298.678997407745
 31
0.0
1001
GENIUS_GENOREF_13
1005
4F32
  0
LINE
  5
4EFB
102
{ACAD_REACTORS
330
516A
102
}
330
1F
100
AcDbEntity
  8
AM_7
  6
AM_ISO08W050x2
100
AcDbLine
 10
805.8213030579961
 20
1294.428997407745
 30
0.0
 11
801.5713030579961
 21
1294.428997407745
 31
0.0
1001
GENIUS_GENOREF_13
1005
4F32
  0
LINE
  5
4EFC
102
{ACAD_REACTORS
330
4F9E
330
4FC4
102
}
330
1F
100
AcDbEntity
  8
AM_7
  6
AM_ISO08W050x2
100
AcDbLine
 10
805.8213030579961
 20
1294.428997407745
 30
0.0
 11
805.8213030579961
 21
1290.178997407745
 31
0.0
1001
GENIUS_GENOREF_13
1005
4F32
  0
LINE
  5
4EFD
330
1F
100
AcDbEntity
  8
AM_7
  6
AM_ISO08W050x2
100
AcDbLine
 10
834.8213030579961
 20
1294.428997407745
 30
0.0
 11
839.0713030579961
 21
1294.428997407745
 31
0.0
1001
GENIUS_GENOREF_13
1005
4F31
  0
LINE
  5
4EFE
330
1F
100
AcDbEntity
  8
AM_7
  6
AM_ISO08W050x2
100
AcDbLine
 10
834.8213030579961
 20
1294.428997407745
 30
0.0
 11
834.8213030579961
 21
1298.678997407745
 31
0.0
1001
GENIUS_GENOREF_13
1005
4F31
  0
LINE
  5
4EFF
330
1F
100
AcDbEntity
  8
AM_7
  6
AM_ISO08W050x2
100
AcDbLine
 10
834.8213030579961
 20
1294.428997407745
 30
0.0
 11
830.5713030579962
 21
1294.428997407745
 31
0.0
1001
GENIUS_GENOREF_13
1005
4F31
  0
LINE
  5
4F00
102
{ACAD_REACTORS
330
4FC4
102
}
330
1F
100
AcDbEntity
  8
AM_7
  6
AM_ISO08W050x2
100
AcDbLine
 10
834.8213030579961
 20
1294.428997407745
 30
0.0
 11
834.8213030579961
 21
1290.178997407745
 31
0.0
1001
GENIUS_GENOREF_13
1005
4F31
  0
LINE
  5
4F01
330
1F
100
AcDbEntity
  8
AM_7
100
AcDbLine
 10
791.3213030579961
 20
1221.972330097609
 30
0.0
 11
804.0713030579961
 21
1221.972330097609
 31
0.0
1001
GENIUS_GENOREF_13
1005
4F30
  0
LINE
  5
4F02
330
1F
100
AcDbEntity
  8
AM_7
100
AcDbLine
 10
791.3213030579961
 20
1221.972330097609
 30
0.0
 11
791.3213030579961
 21
1234.722330097609
 31
0.0
1001
GENIUS_GENOREF_13
1005
4F30
  0
LINE
  5
4F03
330
1F
100
AcDbEntity
  8
AM_7
100
AcDbLine
 10
791.3213030579961
 20
1221.972330097609
 30
0.0
 11
778.5713030579962
 21
1221.972330097609
 31
0.0
1001
GENIUS_GENOREF_13
1005
4F30
  0
LINE
  5
4F04
102
{ACAD_REACTORS
330
4F52
102
}
330
1F
100
AcDbEntity
  8
AM_7
100
AcDbLine
 10
791.3213030579961
 20
1221.972330097609
 30
0.0
 11
791.3213030579961
 21
1209.222330097609
 31
0.0
1001
GENIUS_GENOREF_13
1005
4F30
  0
LINE
  5
4F05
330
1F
100
AcDbEntity
  8
AM_7
100
AcDbLine
 10
820.3213030579961
 20
1221.972330097609
 30
0.0
 11
833.0713030579961
 21
1221.972330097609
 31
0.0
1001
GENIUS_GENOREF_13
1005
4F2F
  0
LINE
  5
4F06
330
1F
100
AcDbEntity
  8
AM_7
100
AcDbLine
 10
820.3213030579961
 20
1221.972330097609
 30
0.0
 11
820.3213030579961
 21
1234.722330097609
 31
0.0
1001
GENIUS_GENOREF_13
1005
4F2F
  0
LINE
  5
4F07
330
1F
100
AcDbEntity
  8
AM_7
100
AcDbLine
 10
820.3213030579961
 20
1221.972330097609
 30
0.0
 11
807.5713030579962
 21
1221.972330097609
 31
0.0
1001
GENIUS_GENOREF_13
1005
4F2F
  0
LINE
  5
4F08
102
{ACAD_REACTORS
330
4F52
330
4F78
102
}
330
1F
100
AcDbEntity
  8
AM_7
100
AcDbLine
 10
820.3213030579961
 20
1221.972330097609
 30
0.0
 11
820.3213030579961
 21
1209.222330097609
 31
0.0
1001
GENIUS_GENOREF_13
1005
4F2F
  0
LINE
  5
4F09
330
1F
100
AcDbEntity
  8
AM_7
100
AcDbLine
 10
849.3213030579962
 20
1221.972330097609
 30
0.0
 11
862.0713030579961
 21
1221.972330097609
 31
0.0
1001
GENIUS_GENOREF_13
1005
4F2E
  0
LINE
  5
4F0A
330
1F
100
AcDbEntity
  8
AM_7
100
AcDbLine
 10
849.3213030579962
 20
1221.972330097609
 30
0.0
 11
849.3213030579962
 21
1234.722330097609
 31
0.0
1001
GENIUS_GENOREF_13
1005
4F2E
  0
LINE
  5
4F0B
330
1F
100
AcDbEntity
  8
AM_7
100
AcDbLine
 10
849.3213030579962
 20
1221.972330097609
 30
0.0
 11
836.5713030579961
 21
1221.972330097609
 31
0.0
1001
GENIUS_GENOREF_13
1005
4F2E
  0
LINE
  5
4F0C
102
{ACAD_REACTORS
330
4F78
102
}
330
1F
100
AcDbEntity
  8
AM_7
100
AcDbLine
 10
849.3213030579962
 20
1221.972330097609
 30
0.0
 11
849.3213030579962
 21
1209.222330097609
 31
0.0
1001
GENIUS_GENOREF_13
1005
4F2E
  0
LINE
  5
4F0D
330
1F
100
AcDbEntity
  8
AM_7
  6
AM_ISO08W050x2
100
AcDbLine
 10
856.321303057996
 20
1233.472330097609
 30
0.0
 11
860.4213030579961
 21
1233.472330097609
 31
0.0
1001
GENIUS_GENOREF_13
1005
4F2D
  0
LINE
  5
4F0E
330
1F
100
AcDbEntity
  8
AM_7
  6
AM_ISO08W050x2
100
AcDbLine
 10
856.321303057996
 20
1233.472330097609
 30
0.0
 11
856.321303057996
 21
1237.572330097609
 31
0.0
1001
GENIUS_GENOREF_13
1005
4F2D
  0
LINE
  5
4F0F
330
1F
100
AcDbEntity
  8
AM_7
  6
AM_ISO08W050x2
100
AcDbLine
 10
856.321303057996
 20
1233.472330097609
 30
0.0
 11
852.2213030579962
 21
1233.472330097609
 31
0.0
1001
GENIUS_GENOREF_13
1005
4F2D
  0
LINE
  5
4F10
330
1F
100
AcDbEntity
  8
AM_7
  6
AM_ISO08W050x2
100
AcDbLine
 10
856.321303057996
 20
1233.472330097609
 30
0.0
 11
856.321303057996
 21
1229.372330097609
 31
0.0
1001
GENIUS_GENOREF_13
1005
4F2D
  0
LINE
  5
4F11
330
1F
100
AcDbEntity
  8
AM_7
  6
AM_ISO08W050x2
100
AcDbLine
 10
784.3213030579961
 20
1210.472330097609
 30
0.0
 11
788.421303057996
 21
1210.472330097609
 31
0.0
1001
GENIUS_GENOREF_13
1005
4F2C
  0
LINE
  5
4F12
330
1F
100
AcDbEntity
  8
AM_7
  6
AM_ISO08W050x2
100
AcDbLine
 10
784.3213030579961
 20
1210.472330097609
 30
0.0
 11
784.3213030579961
 21
1214.572330097609
 31
0.0
1001
GENIUS_GENOREF_13
1005
4F2C
  0
LINE
  5
4F13
330
1F
100
AcDbEntity
  8
AM_7
  6
AM_ISO08W050x2
100
AcDbLine
 10
784.3213030579961
 20
1210.472330097609
 30
0.0
 11
780.2213030579962
 21
1210.472330097609
 31
0.0
1001
GENIUS_GENOREF_13
1005
4F2C
  0
LINE
  5
4F14
330
1F
100
AcDbEntity
  8
AM_7
  6
AM_ISO08W050x2
100
AcDbLine
 10
784.3213030579961
 20
1210.472330097609
 30
0.0
 11
784.3213030579961
 21
1206.372330097609
 31
0.0
1001
GENIUS_GENOREF_13
1005
4F2C
  0
LINE
  5
4F15
330
1F
100
AcDbEntity
  8
AM_7
  6
AM_ISO08W050x2
100
AcDbLine
 10
856.321303057996
 20
1394.035043299252
 30
0.0
 11
862.3213030579961
 21
1394.035043299252
 31
0.0
1001
GENIUS_GENOREF_13
1005
4F2B
  0
LINE
  5
4F16
330
1F
100
AcDbEntity
  8
AM_7
  6
AM_ISO08W050x2
100
AcDbLine
 10
856.321303057996
 20
1394.035043299252
 30
0.0
 11
856.321303057996
 21
1400.035043299252
 31
0.0
1001
GENIUS_GENOREF_13
1005
4F2B
  0
LINE
  5
4F17
102
{ACAD_REACTORS
330
5084
102
}
330
1F
100
AcDbEntity
  8
AM_7
  6
AM_ISO08W050x2
100
AcDbLine
 10
856.321303057996
 20
1394.035043299252
 30
0.0
 11
850.3213030579962
 21
1394.035043299252
 31
0.0
1001
GENIUS_GENOREF_13
1005
4F2B
  0
LINE
  5
4F18
102
{ACAD_REACTORS
330
511C
102
}
330
1F
100
AcDbEntity
  8
AM_7
  6
AM_ISO08W050x2
100
AcDbLine
 10
856.321303057996
 20
1394.035043299252
 30
0.0
 11
856.321303057996
 21
1388.035043299252
 31
0.0
1001
GENIUS_GENOREF_13
1005
4F2B
  0
LINE
  5
4F19
330
1F
100
AcDbEntity
  8
AM_7
100
AcDbLine
 10
834.3213030579962
 20
1403.285043299252
 30
0.0
 11
847.0713030579959
 21
1403.285043299252
 31
0.0
1001
GENIUS_GENOREF_13
1005
4F2A
  0
LINE
  5
4F1A
102
{ACAD_REACTORS
330
50D0
102
}
330
1F
100
AcDbEntity
  8
AM_7
100
AcDbLine
 10
834.3213030579962
 20
1403.285043299252
 30
0.0
 11
834.3213030579962
 21
1416.035043299252
 31
0.0
1001
GENIUS_GENOREF_13
1005
4F2A
  0
LINE
  5
4F1B
330
1F
100
AcDbEntity
  8
AM_7
100
AcDbLine
 10
834.3213030579962
 20
1403.285043299252
 30
0.0
 11
821.5713030579966
 21
1403.285043299252
 31
0.0
1001
GENIUS_GENOREF_13
1005
4F2A
  0
LINE
  5
4F1C
330
1F
100
AcDbEntity
  8
AM_7
100
AcDbLine
 10
834.3213030579962
 20
1403.285043299252
 30
0.0
 11
834.3213030579962
 21
1390.535043299253
 31
0.0
1001
GENIUS_GENOREF_13
1005
4F2A
  0
LINE
  5
4F1D
330
1F
100
AcDbEntity
  8
AM_7
100
AcDbLine
 10
806.321303057996
 20
1407.785043299252
 30
0.0
 11
819.0713030579964
 21
1407.785043299252
 31
0.0
1001
GENIUS_GENOREF_13
1005
4F29
  0
LINE
  5
4F1E
102
{ACAD_REACTORS
330
50D0
330
5142
102
}
330
1F
100
AcDbEntity
  8
AM_7
100
AcDbLine
 10
806.321303057996
 20
1407.785043299252
 30
0.0
 11
806.321303057996
 21
1420.535043299253
 31
0.0
1001
GENIUS_GENOREF_13
1005
4F29
  0
LINE
  5
4F1F
330
1F
100
AcDbEntity
  8
AM_7
100
AcDbLine
 10
806.321303057996
 20
1407.785043299252
 30
0.0
 11
793.5713030579959
 21
1407.785043299252
 31
0.0
1001
GENIUS_GENOREF_13
1005
4F29
  0
LINE
  5
4F20
330
1F
100
AcDbEntity
  8
AM_7
100
AcDbLine
 10
806.321303057996
 20
1407.785043299252
 30
0.0
 11
806.321303057996
 21
1395.035043299252
 31
0.0
1001
GENIUS_GENOREF_13
1005
4F29
  0
LINE
  5
4F21
330
1F
100
AcDbEntity
  8
AM_7
  6
AM_ISO08W050x2
100
AcDbLine
 10
784.3213030579961
 20
1417.035043299252
 30
0.0
 11
790.3213030579961
 21
1417.035043299252
 31
0.0
1001
GENIUS_GENOREF_13
1005
4F28
  0
LINE
  5
4F22
330
1F
100
AcDbEntity
  8
AM_7
  6
AM_ISO08W050x2
100
AcDbLine
 10
784.3213030579961
 20
1417.035043299252
 30
0.0
 11
784.3213030579961
 21
1423.035043299252
 31
0.0
1001
GENIUS_GENOREF_13
1005
4F28
  0
LINE
  5
4F23
102
{ACAD_REACTORS
330
5084
102
}
330
1F
100
AcDbEntity
  8
AM_7
  6
AM_ISO08W050x2
100
AcDbLine
 10
784.3213030579961
 20
1417.035043299252
 30
0.0
 11
778.3213030579961
 21
1417.035043299252
 31
0.0
1001
GENIUS_GENOREF_13
1005
4F28
  0
LINE
  5
4F24
102
{ACAD_REACTORS
330
50F6
102
}
330
1F
100
AcDbEntity
  8
AM_7
  6
AM_ISO08W050x2
100
AcDbLine
 10
784.3213030579961
 20
1417.035043299252
 30
0.0
 11
784.3213030579961
 21
1411.035043299252
 31
0.0
1001
GENIUS_GENOREF_13
1005
4F28
  0
LINE
  5
4F25
330
1F
100
AcDbEntity
  8
AM_7
100
AcDbLine
 10
892.7852507833812
 20
1405.535043299252
 30
0.0
 11
748.5694968669839
 21
1405.535043299252
 31
0.0
1001
GENIUS_GENODEF_13
1002
{
1000
HIER
1070
     0
1002
}
1002
{
1000
MANEDIT
1070
     0
1002
}
1002
{
1000
NOSEL
1070
     0
1002
}
1002
{
1000
BEHIND
1070
     0
1002
}
1002
{
1000
OTHER
1070
     0
1002
}
1002
{
1000
REACTOR
1002
}
1001
GENIUS_GENOBJ-N-CEN_13
1002
{
1000
OWNER
1000
GEN
1002
}
1001
GENIUS_GENCEN_19
1002
{
1040
2.0
1002
}
  0
LINE
  5
4F26
330
1F
100
AcDbEntity
  8
AM_7
  6
AM_ISO08W050x2
100
AcDbLine
 10
889.6890964283379
 20
1304.428997407745
 30
0.0
 11
878.1749460589349
 21
1304.428997407745
 31
0.0
  0
LINE
  5
4F27
330
1F
100
AcDbEntity
  8
AM_7
100
AcDbLine
 10
746.7230797921283
 20
1221.972330097609
 30
0.0
 11
890.6384943220814
 21
1221.972330097609
 31
0.0
1001
GENIUS_GENODEF_13
1002
{
1000
HIER
1070
     0
1002
}
1002
{
1000
MANEDIT
1070
     0
1002
}
1002
{
1000
NOSEL
1070
     0
1002
}
1002
{
1000
BEHIND
1070
     0
1002
}
1002
{
1000
OTHER
1070
     0
1002
}
1002
{
1000
REACTOR
1002
}
1001
GENIUS_GENOBJ-N-CEN_13
1002
{
1000
OWNER
1000
GEN
1002
}
1001
GENIUS_GENCEN_19
1002
{
1040
2.0
1002
}
  0
POINT
  5
4F28
330
1F
100
AcDbEntity
  8
0
 60
     1
100
AcDbPoint
 10
864.0768820622957
 20
1068.965654137829
 30
0.0
1001
GENIUS_GENODEF_13
1002
{
1000
HIER
1070
    10
1002
}
1002
{
1000
MANEDIT
1070
     0
1002
}
1002
{
1000
NOSEL
1070
     0
1002
}
1002
{
1000
BEHIND
1070
     0
1002
}
1002
{
1000
OTHER
1070
     0
1002
}
1002
{
1000
REACTOR
1002
}
1001
GENIUS_GENOLIS_13
1002
{
1000
ENT
1005
4F24
1005
4F23
1005
4F22
1005
4F21
1002
}
1001
GENIUS_GENOENT_13
1002
{
1000
MYREF
1005
4F28
1002
}
1002
{
1000
GRP
1005
0
1002
}
1001
GENIUS_GENOBJ-N-CRS_13
1002
{
1000
OWNER
1000
GEN
1002
}
  0
POINT
  5
4F29
330
1F
100
AcDbEntity
  8
0
 60
     1
100
AcDbPoint
 10
864.0768820622957
 20
1068.965654137829
 30
0.0
1001
GENIUS_GENOENT_13
1002
{
1000
MYREF
1005
4F29
1002
}
1002
{
1000
GRP
1005
0
1002
}
1001
GENIUS_GENOBJ-N-CRS_13
1002
{
1000
OWNER
1000
GEN
1002
}
1001
GENIUS_GENOLIS_13
1002
{
1000
ENT
1005
4F20
1005
4F1F
1005
4F1E
1005
4F1D
1002
}
1001
GENIUS_GENODEF_13
1002
{
1000
HIER
1070
    10
1002
}
1002
{
1000
MANEDIT
1070
     0
1002
}
1002
{
1000
NOSEL
1070
     0
1002
}
1002
{
1000
BEHIND
1070
     0
1002
}
1002
{
1000
OTHER
1070
     0
1002
}
1002
{
1000
REACTOR
1002
}
  0
POINT
  5
4F2A
330
1F
100
AcDbEntity
  8
0
 60
     1
100
AcDbPoint
 10
864.0768820622957
 20
1068.965654137829
 30
0.0
1001
GENIUS_GENOLIS_13
1002
{
1000
ENT
1005
4F1C
1005
4F1B
1005
4F1A
1005
4F19
1002
}
1001
GENIUS_GENOENT_13
1002
{
1000
MYREF
1005
4F2A
1002
}
1002
{
1000
GRP
1005
0
1002
}
1001
GENIUS_GENOBJ-N-CRS_13
1002
{
1000
OWNER
1000
GEN
1002
}
1001
GENIUS_GENODEF_13
1002
{
1000
HIER
1070
    10
1002
}
1002
{
1000
MANEDIT
1070
     0
1002
}
1002
{
1000
NOSEL
1070
     0
1002
}
1002
{
1000
BEHIND
1070
     0
1002
}
1002
{
1000
OTHER
1070
     0
1002
}
1002
{
1000
REACTOR
1002
}
  0
POINT
  5
4F2B
330
1F
100
AcDbEntity
  8
0
 60
     1
100
AcDbPoint
 10
864.0768820622957
 20
1068.965654137829
 30
0.0
1001
GENIUS_GENODEF_13
1002
{
1000
HIER
1070
    10
1002
}
1002
{
1000
MANEDIT
1070
     0
1002
}
1002
{
1000
NOSEL
1070
     0
1002
}
1002
{
1000
BEHIND
1070
     0
1002
}
1002
{
1000
OTHER
1070
     0
1002
}
1002
{
1000
REACTOR
1002
}
1001
GENIUS_GENOENT_13
1002
{
1000
MYREF
1005
4F2B
1002
}
1002
{
1000
GRP
1005
0
1002
}
1001
GENIUS_GENOBJ-N-CRS_13
1002
{
1000
OWNER
1000
GEN
1002
}
1001
GENIUS_GENOLIS_13
1002
{
1000
ENT
1005
4F18
1005
4F17
1005
4F16
1005
4F15
1002
}
  0
POINT
  5
4F2C
330
1F
100
AcDbEntity
  8
0
 60
     1
100
AcDbPoint
 10
864.0768820622957
 20
1068.965654137829
 30
0.0
1001
GENIUS_GENODEF_13
1002
{
1000
HIER
1070
    10
1002
}
1002
{
1000
MANEDIT
1070
     0
1002
}
1002
{
1000
NOSEL
1070
     0
1002
}
1002
{
1000
BEHIND
1070
     0
1002
}
1002
{
1000
OTHER
1070
     0
1002
}
1002
{
1000
REACTOR
1002
}
1001
GENIUS_GENOENT_13
1002
{
1000
MYREF
1005
4F2C
1002
}
1002
{
1000
GRP
1005
0
1002
}
1001
GENIUS_GENOBJ-N-CRS_13
1002
{
1000
OWNER
1000
GEN
1002
}
1001
GENIUS_GENOLIS_13
1002
{
1000
ENT
1005
4F14
1005
4F13
1005
4F12
1005
4F11
1002
}
  0
POINT
  5
4F2D
330
1F
100
AcDbEntity
  8
0
 60
     1
100
AcDbPoint
 10
864.0768820622957
 20
1068.965654137829
 30
0.0
1001
GENIUS_GENODEF_13
1002
{
1000
HIER
1070
    10
1002
}
1002
{
1000
MANEDIT
1070
     0
1002
}
1002
{
1000
NOSEL
1070
     0
1002
}
1002
{
1000
BEHIND
1070
     0
1002
}
1002
{
1000
OTHER
1070
     0
1002
}
1002
{
1000
REACTOR
1002
}
1001
GENIUS_GENOENT_13
1002
{
1000
MYREF
1005
4F2D
1002
}
1002
{
1000
GRP
1005
0
1002
}
1001
GENIUS_GENOBJ-N-CRS_13
1002
{
1000
OWNER
1000
GEN
1002
}
1001
GENIUS_GENOLIS_13
1002
{
1000
ENT
1005
4F10
1005
4F0F
1005
4F0E
1005
4F0D
1002
}
  0
POINT
  5
4F2E
330
1F
100
AcDbEntity
  8
0
 60
     1
100
AcDbPoint
 10
864.0768820622957
 20
1068.965654137829
 30
0.0
1001
GENIUS_GENOLIS_13
1002
{
1000
ENT
1005
4F0C
1005
4F0B
1005
4F0A
1005
4F09
1002
}
1001
GENIUS_GENOENT_13
1002
{
1000
MYREF
1005
4F2E
1002
}
1002
{
1000
GRP
1005
0
1002
}
1001
GENIUS_GENOBJ-N-CRS_13
1002
{
1000
OWNER
1000
GEN
1002
}
1001
GENIUS_GENODEF_13
1002
{
1000
HIER
1070
    10
1002
}
1002
{
1000
MANEDIT
1070
     0
1002
}
1002
{
1000
NOSEL
1070
     0
1002
}
1002
{
1000
BEHIND
1070
     0
1002
}
1002
{
1000
OTHER
1070
     0
1002
}
1002
{
1000
REACTOR
1002
}
  0
POINT
  5
4F2F
330
1F
100
AcDbEntity
  8
0
 60
     1
100
AcDbPoint
 10
864.0768820622957
 20
1068.965654137829
 30
0.0
1001
GENIUS_GENODEF_13
1002
{
1000
HIER
1070
    10
1002
}
1002
{
1000
MANEDIT
1070
     0
1002
}
1002
{
1000
NOSEL
1070
     0
1002
}
1002
{
1000
BEHIND
1070
     0
1002
}
1002
{
1000
OTHER
1070
     0
1002
}
1002
{
1000
REACTOR
1002
}
1001
GENIUS_GENOENT_13
1002
{
1000
MYREF
1005
4F2F
1002
}
1002
{
1000
GRP
1005
0
1002
}
1001
GENIUS_GENOBJ-N-CRS_13
1002
{
1000
OWNER
1000
GEN
1002
}
1001
GENIUS_GENOLIS_13
1002
{
1000
ENT
1005
4F08
1005
4F07
1005
4F06
1005
4F05
1002
}
  0
POINT
  5
4F30
330
1F
100
AcDbEntity
  8
0
 60
     1
100
AcDbPoint
 10
864.0768820622957
 20
1068.965654137829
 30
0.0
1001
GENIUS_GENODEF_13
1002
{
1000
HIER
1070
    10
1002
}
1002
{
1000
MANEDIT
1070
     0
1002
}
1002
{
1000
NOSEL
1070
     0
1002
}
1002
{
1000
BEHIND
1070
     0
1002
}
1002
{
1000
OTHER
1070
     0
1002
}
1002
{
1000
REACTOR
1002
}
1001
GENIUS_GENOBJ-N-CRS_13
1002
{
1000
OWNER
1000
GEN
1002
}
1001
GENIUS_GENOLIS_13
1002
{
1000
ENT
1005
4F04
1005
4F03
1005
4F02
1005
4F01
1002
}
1001
GENIUS_GENOENT_13
1002
{
1000
MYREF
1005
4F30
1002
}
1002
{
1000
GRP
1005
0
1002
}
  0
POINT
  5
4F31
330
1F
100
AcDbEntity
  8
0
 60
     1
100
AcDbPoint
 10
864.0768820622957
 20
1068.965654137829
 30
0.0
1001
GENIUS_GENOLIS_13
1002
{
1000
ENT
1005
4F00
1005
4EFF
1005
4EFE
1005
4EFD
1002
}
1001
GENIUS_GENOENT_13
1002
{
1000
MYREF
1005
4F31
1002
}
1002
{
1000
GRP
1005
0
1002
}
1001
GENIUS_GENOBJ-N-CRS_13
1002
{
1000
OWNER
1000
GEN
1002
}
1001
GENIUS_GENODEF_13
1002
{
1000
HIER
1070
    10
1002
}
1002
{
1000
MANEDIT
1070
     0
1002
}
1002
{
1000
NOSEL
1070
     0
1002
}
1002
{
1000
BEHIND
1070
     0
1002
}
1002
{
1000
OTHER
1070
     0
1002
}
1002
{
1000
REACTOR
1002
}
  0
POINT
  5
4F32
330
1F
100
AcDbEntity
  8
0
 60
     1
100
AcDbPoint
 10
864.0768820622957
 20
1068.965654137829
 30
0.0
1001
GENIUS_GENOLIS_13
1002
{
1000
ENT
1005
4EFC
1005
4EFB
1005
4EFA
1005
4EF9
1002
}
1001
GENIUS_GENODEF_13
1002
{
1000
HIER
1070
    10
1002
}
1002
{
1000
MANEDIT
1070
     0
1002
}
1002
{
1000
NOSEL
1070
     0
1002
}
1002
{
1000
BEHIND
1070
     0
1002
}
1002
{
1000
OTHER
1070
     0
1002
}
1002
{
1000
REACTOR
1002
}
1001
GENIUS_GENOENT_13
1002
{
1000
MYREF
1005
4F32
1002
}
1002
{
1000
GRP
1005
0
1002
}
1001
GENIUS_GENOBJ-N-CRS_13
1002
{
1000
OWNER
1000
GEN
1002
}
  0
POINT
  5
4F33
330
1F
100
AcDbEntity
  8
0
 60
     1
100
AcDbPoint
 10
864.0768820622957
 20
1068.965654137829
 30
0.0
1001
GENIUS_GENOLIS_13
1002
{
1000
ENT
1005
4EF8
1005
4EF7
1005
4EF6
1005
4EF5
1002
}
1001
GENIUS_GENODEF_13
1002
{
1000
HIER
1070
    10
1002
}
1002
{
1000
MANEDIT
1070
     0
1002
}
1002
{
1000
NOSEL
1070
     0
1002
}
1002
{
1000
BEHIND
1070
     0
1002
}
1002
{
1000
OTHER
1070
     0
1002
}
1002
{
1000
REACTOR
1002
}
1001
GENIUS_GENOBJ-N-CRS_13
1002
{
1000
OWNER
1000
GEN
1002
}
1001
GENIUS_GENOENT_13
1002
{
1000
MYREF
1005
4F33
1002
}
1002
{
1000
GRP
1005
0
1002
}
  0
DIMENSION
  5
4F44
102
{ACAD_XDICTIONARY
360
4F51
102
}
102
{ACAD_REACTORS
330
4F52
102
}
330
1F
100
AcDbEntity
  8
AM_5
100
AcDbDimension
  2
*D2
 10
820.3213030579961
 20
1194.972330097609
 30
0.0
 11
805.8213030579961
 21
1197.422674585798
 31
0.0
 70
    32
 71
     5
 42
29.0
  3
AM_ISO$0
100
AcDbAlignedDimension
 13
791.3213030579961
 23
1209.222330097609
 33
0.0
 14
820.3213030579961
 24
1209.222330097609
 34
0.0
 50
0.0000000000001018
100
AcDbRotatedDimension
1001
ACAD
1000
DSTYLE
1002
{
1070
    40
1040
1.0
1070
   144
1040
1.0
1070
   272
1070
     8
1002
}
  0
DIMENSION
  5
4F6A
102
{ACAD_XDICTIONARY
360
4F77
102
}
102
{ACAD_REACTORS
330
4F78
102
}
330
1F
100
AcDbEntity
  8
AM_5
100
AcDbDimension
  2
*D3
 10
849.3213030579962
 20
1194.972330097609
 30
0.0
 11
834.8213030579961
 21
1197.422674585798
 31
0.0
 70
    32
 71
     5
 42
29.0
  3
AM_ISO$0
100
AcDbAlignedDimension
 13
820.3213030579961
 23
1209.222330097609
 33
0.0
 14
849.3213030579962
 24
1209.222330097609
 34
0.0
 50
0.0000000000001018
100
AcDbRotatedDimension
1001
ACAD
1000
DSTYLE
1002
{
1070
    40
1040
1.0
1070
   144
1040
1.0
1070
   272
1070
     8
1002
}
  0
DIMENSION
  5
4F90
102
{ACAD_XDICTIONARY
360
4F9D
102
}
102
{ACAD_REACTORS
330
4F9E
102
}
330
1F
100
AcDbEntity
  8
AM_5
100
AcDbDimension
  2
*D4
 10
805.8213030579961
 20
1275.428997407745
 30
0.0
 11
779.571303057996
 21
1277.879341895934
 31
0.0
 70
    32
 71
     5
 42
52.50000000000023
  3
AM_ISO$0
100
AcDbAlignedDimension
 13
753.3213030579958
 23
1287.428997407746
 33
0.0
 14
805.8213030579961
 24
1290.178997407745
 34
0.0
 50
0.0000000000001018
100
AcDbRotatedDimension
1001
ACAD
1000
DSTYLE
1002
{
1070
    40
1040
1.0
1070
   144
1040
1.0
1070
   272
1070
     8
1002
}
  0
DIMENSION
  5
4FB6
102
{ACAD_XDICTIONARY
360
4FC3
102
}
102
{ACAD_REACTORS
330
4FC4
102
}
330
1F
100
AcDbEntity
  8
AM_5
100
AcDbDimension
  2
*D5
 10
834.8213030579961
 20
1275.428997407745
 30
0.0
 11
820.3213030579961
 21
1277.879341895934
 31
0.0
 70
    32
 71
     5
 42
29.0
  3
AM_ISO$0
100
AcDbAlignedDimension
 13
805.8213030579961
 23
1290.178997407745
 33
0.0
 14
834.8213030579961
 24
1290.178997407745
 34
0.0
 50
0.0000000000001018
100
AcDbRotatedDimension
1001
ACAD
1000
DSTYLE
1002
{
1070
    40
1040
1.0
1070
   144
1040
1.0
1070
   272
1070
     8
1002
}
  0
DIMENSION
  5
5004
102
{ACAD_XDICTIONARY
360
5011
102
}
102
{ACAD_REACTORS
330
5012
102
}
330
1F
100
AcDbEntity
  8
AM_5
100
AcDbDimension
  2
*D6
 10
887.3213030579961
 20
1264.428997407746
 30
0.0
 11
820.3213030579959
 21
1266.878997407746
 31
0.0
 70
    32
 71
     5
 42
134.0000000000002
  3
AM_ISO$0
100
AcDbAlignedDimension
 13
753.3213030579958
 23
1287.428997407746
 33
0.0
 14
887.3213030579961
 24
1287.428997407745
 34
0.0
 50
0.0000000000001145
100
AcDbRotatedDimension
1001
ACAD
1000
DSTYLE
1002
{
1070
    40
1040
1.0
1070
   144
1040
1.0
1070
   272
1070
     8
1002
}
  0
DIMENSION
  5
502A
102
{ACAD_XDICTIONARY
360
5037
102
}
102
{ACAD_REACTORS
330
5038
102
}
330
1F
100
AcDbEntity
  8
AM_5
100
AcDbDimension
  2
*D7
 10
899.3213030579962
 20
1333.828997407745
 30
0.0
 11
896.8713030579959
 21
1310.628997407746
 31
0.0
 70
    32
 71
     5
 42
46.39999999999986
  3
AM_ISO$0
100
AcDbAlignedDimension
 13
887.3213030579961
 23
1287.428997407745
 33
0.0
 14
887.3213030579961
 24
1333.828997407745
 34
0.0
 50
90.0
100
AcDbRotatedDimension
1001
ACAD
1000
DSTYLE
1002
{
1070
    40
1040
1.0
1070
   144
1040
1.0
1070
   272
1070
     8
1002
}
  0
DIMENSION
  5
5050
102
{ACAD_XDICTIONARY
360
505D
102
}
102
{ACAD_REACTORS
330
505E
102
}
330
1F
100
AcDbEntity
  8
AM_5
100
AcDbDimension
  2
*D8
 10
916.2674815604894
 20
1304.428997407745
 30
0.0
 11
913.8174815604891
 21
1295.928997407746
 31
0.0
 70
    32
 71
     5
 42
17.0
  3
AM_ISO$0
100
AcDbAlignedDimension
 13
928.2674815604893
 23
1287.428997407745
 33
0.0
 14
936.4174815604892
 24
1304.428997407745
 34
0.0
 50
90.0
100
AcDbRotatedDimension
1001
ACAD
1000
DSTYLE
1002
{
1070
    40
1040
1.0
1070
   144
1040
1.0
1070
   272
1070
     8
1002
}
  0
DIMENSION
  5
5076
102
{ACAD_XDICTIONARY
360
5083
102
}
102
{ACAD_REACTORS
330
5084
102
}
330
1F
100
AcDbEntity
  8
AM_5
100
AcDbDimension
  2
*D9
 10
741.3213030579959
 20
1394.035043299252
 30
0.0
 11
738.8709585698067
 21
1405.535043299253
 31
0.0
 70
    32
 71
     5
 42
23.0
  3
AM_ISO$0
100
AcDbAlignedDimension
 13
778.3213030579961
 23
1417.035043299252
 33
0.0
 14
850.3213030579962
 24
1394.035043299252
 34
0.0
 50
90.0
100
AcDbRotatedDimension
1001
ACAD
1000
DSTYLE
1002
{
1070
    40
1040
1.0
1070
   144
1040
1.0
1070
   272
1070
     8
1002
}
  0
DIMENSION
  5
509C
330
1F
100
AcDbEntity
  8
AM_5
100
AcDbDimension
  2
*D10
 10
730.3213030579959
 20
1390.535043299252
 30
0.0
 11
727.8713030579956
 21
1405.535043299253
 31
0.0
 70
    32
 71
     5
 42
30.00000000000023
  3
AM_ISO$0
100
AcDbAlignedDimension
 13
753.3213030579958
 23
1420.535043299252
 33
0.0
 14
753.3213030579958
 24
1390.535043299252
 34
0.0
 50
90.0
100
AcDbRotatedDimension
1001
ACAD
1000
DSTYLE
1002
{
1070
    40
1040
1.0
1070
   144
1040
1.0
1070
   272
1070
     8
1002
}
  0
DIMENSION
  5
50C2
102
{ACAD_XDICTIONARY
360
50CF
102
}
102
{ACAD_REACTORS
330
50D0
102
}
330
1F
100
AcDbEntity
  8
AM_5
100
AcDbDimension
  2
*D11
 10
834.3213030579962
 20
1432.535043299252
 30
0.0
 11
820.3213030579961
 21
1434.985387787441
 31
0.0
 70
    32
 71
     5
 42
28.0
  3
AM_ISO$0
100
AcDbAlignedDimension
 13
806.321303057996
 23
1420.535043299253
 33
0.0
 14
834.3213030579962
 24
1416.035043299252
 34
0.0
100
AcDbRotatedDimension
1001
ACAD
1000
DSTYLE
1002
{
1070
    40
1040
1.0
1070
   144
1040
1.0
1070
   272
1070
     8
1002
}
  0
DIMENSION
  5
50E8
102
{ACAD_XDICTIONARY
360
50F5
102
}
102
{ACAD_REACTORS
330
50F6
102
}
330
1F
100
AcDbEntity
  8
AM_5
100
AcDbDimension
  2
*D12
 10
784.3213030579961
 20
1378.535043299252
 30
0.0
 11
768.821303057996
 21
1380.985043299252
 31
0.0
 70
    32
 71
     5
 42
31.00000000000023
  3
AM_ISO$0
100
AcDbAlignedDimension
 13
753.3213030579958
 23
1390.535043299252
 33
0.0
 14
784.3213030579961
 24
1411.035043299252
 34
0.0
 50
0.0000000000001145
100
AcDbRotatedDimension
1001
ACAD
1000
DSTYLE
1002
{
1070
    40
1040
1.0
1070
   144
1040
1.0
1070
   272
1070
     8
1002
}
  0
DIMENSION
  5
510E
102
{ACAD_XDICTIONARY
360
511B
102
}
102
{ACAD_REACTORS
330
511C
102
}
330
1F
100
AcDbEntity
  8
AM_5
100
AcDbDimension
  2
*D13
 10
856.321303057996
 20
1378.535043299253
 30
0.0
 11
820.3213030579961
 21
1380.985387787442
 31
0.0
 70
    32
 71
     5
 42
72.0
  3
AM_ISO$0
100
AcDbAlignedDimension
 13
784.3213030579961
 23
1410.035043299252
 33
0.0
 14
856.321303057996
 24
1388.035043299252
 34
0.0
 50
0.0000000000001145
100
AcDbRotatedDimension
1001
ACAD
1000
DSTYLE
1002
{
1070
    40
1040
1.0
1070
   144
1040
1.0
1070
   272
1070
     8
1002
}
  0
DIMENSION
  5
5134
102
{ACAD_XDICTIONARY
360
5141
102
}
102
{ACAD_REACTORS
330
5142
102
}
330
1F
100
AcDbEntity
  8
AM_5
100
AcDbDimension
  2
*D14
 10
806.321303057996
 20
1432.535043299252
 30
0.0
 11
779.821303057996
 21
1434.985043299252
 31
0.0
 70
    32
 71
     5
 42
53.00000000000022
  3
AM_ISO$0
100
AcDbAlignedDimension
 13
753.3213030579958
 23
1420.535043299252
 33
0.0
 14
806.321303057996
 24
1420.535043299253
 34
0.0
100
AcDbRotatedDimension
1001
ACAD
1000
DSTYLE
1002
{
1070
    40
1040
1.0
1070
   144
1040
1.0
1070
   272
1070
     8
1002
}
  0
DIMENSION
  5
515A
102
{ACAD_XDICTIONARY
360
5169
102
}
102
{ACAD_REACTORS
330
516A
102
}
330
1F
100
AcDbEntity
  8
AM_5
100
AcDbDimension
  2
*D15
 10
788.7424136004668
 20
1294.428997407745
 30
0.0
 11
788.7424136004665
 21
1301.828997407746
 31
0.0
 70
   160
 71
     5
 42
7.0
  3
AM_ISO$0
100
AcDbAlignedDimension
 13
797.6307840819575
 23
1287.428997407745
 33
0.0
 14
801.5713030579961
 24
1294.428997407745
 34
0.0
 50
90.0
100
AcDbRotatedDimension
1001
ACAD
1000
DSTYLE
1002
{
1070
    40
1040
1.0
1070
   144
1040
1.0
1070
   272
1070
     8
1002
}
  0
DIMENSION
  5
5184
102
{ACAD_XDICTIONARY
360
5193
102
}
102
{ACAD_REACTORS
330
5194
102
}
330
1F
100
AcDbEntity
  8
AM_5
100
AcDbDimension
  2
*D16
 10
872.3213030579961
 20
1329.828997407745
 30
0.0
 11
869.8713030579959
 21
1331.828997407746
 31
0.0
 70
    32
 71
     5
 42
4.0
  3
AM_ISO$0
100
AcDbAlignedDimension
 13
860.3213030579961
 23
1333.828997407745
 33
0.0
 14
860.3213030579961
 24
1329.828997407745
 34
0.0
 50
90.0
100
AcDbRotatedDimension
1001
ACAD
1000
DSTYLE
1002
{
1070
    40
1040
1.0
1070
   144
1040
1.0
1070
   272
1070
     8
1002
}
  0
TEXT
  5
5407
330
1F
100
AcDbEntity
  8
AM_5
100
AcDbText
 10
867.0890825474934
 20
1381.992134322366
 30
0.0
 40
3.5
  1
2-%%c4.2
100
AcDbText
  0
INSERT
  5
5442
330
1F
100
AcDbEntity
  8
AM_5
100
AcDbBlockReference
  2
*S17
 10
0.0
 20
0.0
 30
0.0
  0
TEXT
  5
5443
330
1F
100
AcDbEntity
  8
AM_5
100
AcDbText
 10
916.7961336602372
 20
1278.32279017988
 30
0.0
 40
3.5
  1
2-G1/8
100
AcDbText
  0
TEXT
  5
5446
330
1F
100
AcDbEntity
  8
AM_5
100
AcDbText
 10
867.2120644069124
 20
1198.313855070607
 30
0.0
 40
3.5
  1
5-G1/2
100
AcDbText
  0
INSERT
  5
5447
330
1F
100
AcDbEntity
  8
AM_5
100
AcDbBlockReference
  2
*S18
 10
0.0
 20
0.0
 30
0.0
  0
TEXT
  5
544B
330
1F
100
AcDbEntity
  8
AM_5
100
AcDbText
 10
846.9984158005519
 20
1277.202554039158
 30
0.0
 40
3.5
  1
2-%%c4.5
100
AcDbText
  0
INSERT
  5
544C
330
1F
100
AcDbEntity
  8
AM_5
100
AcDbBlockReference
  2
*S19
 10
0.0
 20
0.0
 30
0.0
  0
LINE
  5
5BE3
330
1F
100
AcDbEntity
  8
AM_VIS
100
AcDbLine
 10
777.3213030579959
 20
1333.828997407745
 30
0.0
 11
753.3213030579958
 21
1333.828997407745
 31
0.0
  0
LINE
  5
5BE4
330
1F
100
AcDbEntity
  8
AM_VIS
100
AcDbLine
 10
777.3213030579959
 20
1287.428997407746
 30
0.0
 11
757.4213030579958
 21
1287.428997407746
 31
0.0
  0
LINE
  5
5BE5
330
1F
100
AcDbEntity
  8
AM_VIS
100
AcDbLine
 10
757.4213030579958
 20
1295.378997407745
 30
0.0
 11
757.4213030579958
 21
1287.428997407746
 31
0.0
  0
LINE
  5
5BE6
330
1F
100
AcDbEntity
  8
AM_VIS
100
AcDbLine
 10
757.4213030579958
 20
1287.428997407746
 30
0.0
 11
753.3213030579958
 21
1287.428997407746
 31
0.0
  0
LINE
  5
5BE7
330
1F
100
AcDbEntity
  8
AM_VIS
100
AcDbLine
 10
753.3213030579958
 20
1295.378997407745
 30
0.0
 11
757.4213030579958
 21
1295.378997407745
 31
0.0
  0
LINE
  5
5BE8
330
1F
100
AcDbEntity
  8
AM_VIS
100
AcDbLine
 10
753.3213030579958
 20
1287.428997407746
 30
0.0
 11
753.3213030579958
 21
1291.628997407745
 31
0.0
  0
LINE
  5
5BE9
330
1F
100
AcDbEntity
  8
AM_VIS
100
AcDbLine
 10
753.3213030579958
 20
1333.828997407745
 30
0.0
 11
753.3213030579958
 21
1295.378997407745
 31
0.0
  0
LINE
  5
5BEA
330
1F
100
AcDbEntity
  8
AM_VIS
100
AcDbLine
 10
753.3213030579958
 20
1291.628997407745
 30
0.0
 11
753.3213030579958
 21
1295.378997407745
 31
0.0
  0
LINE
  5
5BEB
330
1F
100
AcDbEntity
  8
AM_VIS
100
AcDbLine
 10
753.6142648999221
 20
1292.862799943751
 30
0.0
 11
753.4702086647101
 21
1292.920730742291
 31
0.0
  0
LINE
  5
5BEC
330
1F
100
AcDbEntity
  8
AM_VIS
100
AcDbLine
 10
753.4702086647103
 20
1290.3372640732
 30
0.0
 11
753.6142648999221
 21
1290.395194871739
 31
0.0
  0
LINE
  5
5BED
330
1F
100
AcDbEntity
  8
AM_VIS
100
AcDbLine
 10
755.362365545868
 20
1287.721642435439
 30
0.0
 11
756.4213030579958
 21
1287.628997407746
 31
0.0
  0
LINE
  5
5BEE
330
1F
100
AcDbEntity
  8
AM_VIS
100
AcDbLine
 10
756.4213030579958
 20
1295.378997407745
 30
0.0
 11
756.4213030579958
 21
1287.628997407746
 31
0.0
  0
ARC
  5
5BEF
330
1F
100
AcDbEntity
  8
AM_VIS
100
AcDbCircle
 10
759.8213030579956
 20
1291.628997407746
 30
0.0
 40
6.481124516625182
100
AcDbArc
 50
160.2804765847116
 51
168.5035641354557
  0
LINE
  5
5BF0
330
1F
100
AcDbEntity
  8
AM_VIS
100
AcDbLine
 10
753.720260033644
 20
1293.815832795929
 30
0.0
 11
753.7049315846459
 21
1293.828997407744
 31
0.0
  0
LINE
  5
5BF1
330
1F
100
AcDbEntity
  8
AM_VIS
100
AcDbLine
 10
753.7049315846473
 20
1289.428997407744
 30
0.0
 11
753.7202600336454
 21
1289.442162019559
 31
0.0
  0
ELLIPSE
  5
5BF2
330
1F
100
AcDbEntity
  8
AM_VIS
100
AcDbEllipse
 10
758.3123317289707
 20
1291.628997407746
 30
0.0
 11
0.0
 21
-6.07338170302488
 31
0.0
210
0.0
220
0.0
230
0.9999999999999998
 40
0.7586218633400567
 41
4.630795282262288
 42
4.793982678507748
  0
LINE
  5
5BF3
330
1F
100
AcDbEntity
  8
AM_VIS
100
AcDbLine
 10
753.7202600336447
 20
1292.123997407744
 30
0.0
 11
753.4702086647101
 21
1292.123997407744
 31
0.0
  0
LINE
  5
5BF4
330
1F
100
AcDbEntity
  8
AM_VIS
100
AcDbLine
 10
753.4702086647103
 20
1291.133997407744
 30
0.0
 11
753.7202600336449
 21
1291.133997407744
 31
0.0
  0
ARC
  5
5BF5
330
1F
100
AcDbEntity
  8
AM_VIS
100
AcDbCircle
 10
759.8213030579956
 20
1291.628997407746
 30
0.0
 40
6.481124516625182
100
AcDbArc
 50
191.4964358645443
 51
199.7195234153172
  0
ELLIPSE
  5
5BF6
330
1F
100
AcDbEntity
  8
AM_VIS
100
AcDbEllipse
 10
759.3707230707711
 20
1290.508542343121
 30
0.0
 11
5.915222004772894
 21
-2.378748367060961
 31
0.0
210
0.0
220
0.0
230
1.0
 40
0.2990719770123941
 41
2.946877754473618
 42
3.122442402648753
  0
ELLIPSE
  5
5BF7
330
1F
100
AcDbEntity
  8
AM_VIS
100
AcDbEllipse
 10
759.3707230707711
 20
1291.250496464913
 30
0.0
 11
4.100823830217068
 21
-4.881755736727153
 31
-0.0000000000000002
210
0.0
220
0.0
230
1.0
 40
0.885325961999236
 41
4.092081794601092
 42
4.267646442775903
  0
ELLIPSE
  5
5BF8
330
1F
100
AcDbEntity
  8
AM_VIS
100
AcDbEllipse
 10
759.3707230707716
 20
1292.007498350577
 30
0.0
 11
4.100823830215012
 21
4.881755736729203
 31
0.0000000000000002
210
0.0
220
0.0
230
0.9999999999999998
 40
0.8853259619993208
 41
2.015538864403271
 42
2.191103512578621
  0
ELLIPSE
  5
5BF9
330
1F
100
AcDbEntity
  8
AM_VIS
100
AcDbEllipse
 10
759.3707230707716
 20
1292.749452472369
 30
0.0
 11
5.915222004773235
 21
2.378748367060772
 31
0.0
210
0.0
220
0.0
230
1.0
 40
0.2990719770121611
 41
3.160742904530931
 42
3.336307552705962
  0
ARC
  5
5BFA
330
1F
100
AcDbEntity
  8
AM_VIS
100
AcDbCircle
 10
755.5018147342641
 20
1289.315553952386
 30
0.0
 40
1.6
100
AcDbArc
 50
208.1727341318678
 51
265.0000000000005
  0
ARC
  5
5BFB
330
1F
100
AcDbEntity
  8
AM_VIS
100
AcDbCircle
 10
755.5018147342641
 20
1293.942440863105
 30
0.0
 40
1.599999999999999
100
AcDbArc
 50
116.1233982062392
 51
151.8272658681321
  0
ARC
  5
5BFC
330
1F
100
AcDbEntity
  8
AM_VIS
100
AcDbCircle
 10
759.8213030579956
 20
1291.628997407746
 30
0.0
 40
6.499999999999998
100
AcDbArc
 50
199.7831703726821
 51
208.1727341318678
  0
ARC
  5
5BFD
330
1F
100
AcDbEntity
  8
AM_VIS
100
AcDbCircle
 10
759.8213030579956
 20
1291.628997407746
 30
0.0
 40
6.5
100
AcDbArc
 50
151.8272658681321
 51
160.216829627359
  0
LINE
  5
5BFE
330
1F
100
AcDbEntity
  8
AM_VIS
100
AcDbLine
 10
757.4213030579958
 20
1287.828997407746
 30
0.0
 11
756.4213030579958
 21
1287.828997407746
 31
0.0
  0
LINE
  5
5C51
330
1F
100
AcDbEntity
  8
AM_VIS
100
AcDbLine
 10
777.3213030579959
 20
1390.535043299252
 30
0.0
 11
753.3213030579958
 21
1390.535043299252
 31
0.0
  0
LINE
  5
5C52
330
1F
100
AcDbEntity
  8
AM_VIS
100
AcDbLine
 10
753.3213030579958
 20
1420.535043299252
 30
0.0
 11
753.3213030579958
 21
1390.535043299252
 31
0.0
  0
LINE
  5
5C53
330
1F
100
AcDbEntity
  8
AM_VIS
100
AcDbLine
 10
777.3213030579959
 20
1420.535043299252
 30
0.0
 11
753.3213030579958
 21
1420.535043299252
 31
0.0
  0
INSERT
  5
5C90
330
1F
100
AcDbEntity
  8
AM_5
100
AcDbBlockReference
  2
*S20
 10
0.0
 20
0.0
 30
0.0
  0
LINE
  5
5C91
330
1F
100
AcDbEntity
  8
AM_VIS
100
AcDbLine
 10
757.4213030579958
 20
1236.972330097609
 30
0.0
 11
757.4213030579958
 21
1229.222330097609
 31
0.0
  0
LINE
  5
5C92
330
1F
100
AcDbEntity
  8
AM_VIS
100
AcDbLine
 10
777.3213030579959
 20
1236.972330097609
 30
0.0
 11
757.4213030579958
 21
1236.972330097609
 31
0.0
  0
LINE
  5
5C93
330
1F
100
AcDbEntity
  8
AM_VIS
100
AcDbLine
 10
757.4213030579958
 20
1229.222330097609
 30
0.0
 11
753.3213030579958
 21
1229.222330097609
 31
0.0
  0
LINE
  5
5C94
330
1F
100
AcDbEntity
  8
AM_VIS
100
AcDbLine
 10
753.3213030579958
 20
1236.972330097609
 30
0.0
 11
757.4213030579958
 21
1236.972330097609
 31
0.0
  0
LINE
  5
5C95
330
1F
100
AcDbEntity
  8
AM_VIS
100
AcDbLine
 10
753.3213030579958
 20
1229.222330097609
 30
0.0
 11
753.3213030579958
 21
1206.972330097609
 31
0.0
  0
LINE
  5
5C96
330
1F
100
AcDbEntity
  8
AM_VIS
100
AcDbLine
 10
753.3213030579958
 20
1232.972330097609
 30
0.0
 11
753.3213030579958
 21
1236.972330097609
 31
0.0
  0
LINE
  5
5C97
330
1F
100
AcDbEntity
  8
AM_VIS
100
AcDbLine
 10
777.3213030579959
 20
1206.972330097609
 30
0.0
 11
753.3213030579958
 21
1206.972330097609
 31
0.0
  0
LINE
  5
5C98
330
1F
100
AcDbEntity
  8
AM_VIS
100
AcDbLine
 10
753.3213030579958
 20
1229.222330097609
 30
0.0
 11
753.3213030579958
 21
1232.972330097609
 31
0.0
  0
LINE
  5
5C99
330
1F
100
AcDbEntity
  8
AM_VIS
100
AcDbLine
 10
753.4702086647105
 20
1231.680596763063
 30
0.0
 11
753.6142648999223
 21
1231.738527561602
 31
0.0
  0
LINE
  5
5C9A
330
1F
100
AcDbEntity
  8
AM_VIS
100
AcDbLine
 10
753.6142648999223
 20
1234.206132633615
 30
0.0
 11
753.4702086647103
 21
1234.264063432155
 31
0.0
  0
LINE
  5
5C9B
330
1F
100
AcDbEntity
  8
AM_VIS
100
AcDbLine
 10
755.362365545868
 20
1236.879685069916
 30
0.0
 11
756.4213030579958
 21
1236.972330097609
 31
0.0
  0
LINE
  5
5C9C
330
1F
100
AcDbEntity
  8
AM_VIS
100
AcDbLine
 10
756.4213030579958
 20
1236.972330097609
 30
0.0
 11
756.4213030579958
 21
1229.222330097609
 31
0.0
  0
ELLIPSE
  5
5C9D
330
1F
100
AcDbEntity
  8
AM_VIS
100
AcDbEllipse
 10
758.3123317289662
 20
1232.972330097609
 30
0.0
 11
0.0
 21
-6.073381703023271
 31
0.0
210
0.0
220
0.0
230
1.0
 40
0.758621863339396
 41
4.630795282261937
 42
4.793982678507441
  0
LINE
  5
5C9E
330
1F
100
AcDbEntity
  8
AM_VIS
100
AcDbLine
 10
753.7202600336449
 20
1235.159165485794
 30
0.0
 11
753.7049315846465
 21
1235.172330097609
 31
0.0
  0
LINE
  5
5C9F
330
1F
100
AcDbEntity
  8
AM_VIS
100
AcDbLine
 10
753.7049315846465
 20
1230.772330097609
 30
0.0
 11
753.7202600336449
 21
1230.785494709424
 31
0.0
  0
ARC
  5
5CA0
330
1F
100
AcDbEntity
  8
AM_VIS
100
AcDbCircle
 10
759.8213030579956
 20
1232.972330097609
 30
0.0
 40
6.48112451662503
100
AcDbArc
 50
160.2804765846994
 51
168.5035641354557
  0
LINE
  5
5CA1
330
1F
100
AcDbEntity
  8
AM_VIS
100
AcDbLine
 10
753.4702086647101
 20
1232.477330097609
 30
0.0
 11
753.7202600336454
 21
1232.477330097609
 31
0.0
  0
ARC
  5
5CA2
330
1F
100
AcDbEntity
  8
AM_VIS
100
AcDbCircle
 10
759.8213030579956
 20
1232.972330097609
 30
0.0
 40
6.48112451662503
100
AcDbArc
 50
191.4964358645596
 51
199.7195234153006
  0
LINE
  5
5CA3
330
1F
100
AcDbEntity
  8
AM_VIS
100
AcDbLine
 10
753.7202600336454
 20
1233.467330097609
 30
0.0
 11
753.4702086647103
 21
1233.467330097609
 31
0.0
  0
ELLIPSE
  5
5CA4
330
1F
100
AcDbEntity
  8
AM_VIS
100
AcDbEllipse
 10
759.3707230707716
 20
1234.092785162233
 30
0.0
 11
5.915222004773236
 21
2.378748367060772
 31
0.0
210
0.0
220
0.0
230
1.0
 40
0.2990719770121608
 41
3.16074290453127
 42
3.336307552705964
  0
ELLIPSE
  5
5CA5
330
1F
100
AcDbEntity
  8
AM_VIS
100
AcDbEllipse
 10
759.3707230707711
 20
1231.851875032984
 30
0.0
 11
5.915222004772893
 21
-2.378748367060961
 31
0.0
210
0.0
220
0.0
230
0.9999999999999998
 40
0.2990719770123937
 41
2.946877754473617
 42
3.122442402648428
  0
ELLIPSE
  5
5CA6
330
1F
100
AcDbEntity
  8
AM_VIS
100
AcDbEllipse
 10
759.3707230707711
 20
1232.593829154777
 30
0.0
 11
4.100823830217078
 21
-4.881755736727143
 31
-0.0000000000000002
210
0.0
220
0.0
230
1.0
 40
0.8853259619992366
 41
4.092081794600767
 42
4.267646442775903
  0
ELLIPSE
  5
5CA7
330
1F
100
AcDbEntity
  8
AM_VIS
100
AcDbEllipse
 10
759.3707230707716
 20
1233.350831040441
 30
0.0
 11
4.100823830215012
 21
4.881755736729202
 31
0.0000000000000002
210
0.0
220
0.0
230
1.0
 40
0.8853259619993208
 41
2.015538864403271
 42
2.191103512578303
  0
ARC
  5
5CA8
330
1F
100
AcDbEntity
  8
AM_VIS
100
AcDbCircle
 10
755.5018147342641
 20
1230.658886642249
 30
0.0
 40
1.6
100
AcDbArc
 50
208.1727341318564
 51
243.8766017937608
  0
ARC
  5
5CA9
330
1F
100
AcDbEntity
  8
AM_VIS
100
AcDbCircle
 10
755.5018147342641
 20
1235.285773552969
 30
0.0
 40
1.599999999999999
100
AcDbArc
 50
94.99999999999946
 51
151.8272658681436
  0
ARC
  5
5CAA
330
1F
100
AcDbEntity
  8
AM_VIS
100
AcDbCircle
 10
759.8213030579956
 20
1232.972330097609
 30
0.0
 40
6.5
100
AcDbArc
 50
199.7831703726654
 51
208.1727341318678
  0
ARC
  5
5CAB
330
1F
100
AcDbEntity
  8
AM_VIS
100
AcDbCircle
 10
759.8213030579956
 20
1232.972330097609
 30
0.0
 40
6.5
100
AcDbArc
 50
151.8272658681321
 51
160.2168296273345
  0
LINE
  5
5CAC
330
1F
100
AcDbEntity
  8
AM_VIS
100
AcDbLine
 10
757.4213030579958
 20
1236.772330097609
 30
0.0
 11
756.4213030579958
 21
1236.772330097609
 31
0.0
  0
LINE
  5
5CAE
330
1F
100
AcDbEntity
  8
AM_7
  6
AM_ISO08W050x2
100
AcDbLine
 10
760.8118819375904
 20
1304.428997407745
 30
0.0
 11
749.2977315681874
 21
1304.428997407745
 31
0.0
  0
LINE
  5
6011
330
1F
100
AcDbEntity
  8
AM_VIS
100
AcDbLine
 10
795.0213030579962
 20
1396.035043299252
 30
0.0
 11
795.0213030579962
 21
1392.535043299252
 31
0.0
  0
LINE
  5
6012
330
1F
100
AcDbEntity
  8
AM_VIS
100
AcDbLine
 10
789.0213030579961
 20
1392.535043299252
 30
0.0
 11
789.0213030579961
 21
1396.035043299252
 31
0.0
  0
LINE
  5
6013
330
1F
100
AcDbEntity
  8
AM_VIS
100
AcDbLine
 10
795.0213030579962
 20
1392.535043299252
 30
0.0
 11
789.0213030579961
 21
1392.535043299252
 31
0.0
  0
LINE
  5
6014
330
1F
100
AcDbEntity
  8
AM_VIS
100
AcDbLine
 10
789.0213030579961
 20
1396.035043299252
 30
0.0
 11
795.0213030579962
 21
1396.035043299252
 31
0.0
  0
LINE
  5
6015
330
1F
100
AcDbEntity
  8
AM_VIS
100
AcDbLine
 10
792.5342469832162
 20
1393.834108718027
 30
0.0
 11
791.9454619364874
 21
1395.549061989055
 31
0.0
  0
LINE
  5
6016
330
1F
100
AcDbEntity
  8
AM_VIS
100
AcDbLine
 10
791.3286395065806
 20
1393.834108718027
 30
0.0
 11
792.5342469832162
 21
1393.834108718027
 31
0.0
  0
LINE
  5
6017
330
1F
100
AcDbEntity
  8
AM_VIS
100
AcDbLine
 10
791.9454619364874
 20
1395.549061989055
 30
0.0
 11
791.3286395065808
 21
1393.834108718027
 31
0.0
  0
LINE
  5
6018
330
1F
100
AcDbEntity
  8
AM_VIS
100
AcDbLine
 10
793.5763030579826
 20
1392.628501241392
 30
0.0
 11
793.5763030579826
 21
1392.535043297467
 31
0.0
  0
SPLINE
  5
6019
330
1F
100
AcDbEntity
  8
AM_VIS
100
AcDbSpline
210
0.0
220
0.0
230
1.0
 70
     8
 71
     3
 72
     8
 73
     4
 74
     0
 42
0.0000000001
 43
0.0000000001
 40
0.0
 40
0.0
 40
0.0
 40
0.0
 40
80.0
 40
80.0
 40
80.0
 40
80.0
 10
793.3333124037769
 20
1392.707940493729
 30
0.0
 10
793.3800413757396
 20
1392.670557316158
 30
0.0
 10
793.4610382367073
 20
1392.644077612915
 30
0.0
 10
793.5763030579826
 20
1392.628501241392
 30
0.0
  0
SPLINE
  5
601A
330
1F
100
AcDbEntity
  8
AM_VIS
100
AcDbSpline
210
0.0
220
0.0
230
1.0
 70
     8
 71
     3
 72
     8
 73
     4
 74
     0
 42
0.0000000001
 43
0.0000000001
 40
0.0
 40
0.0
 40
0.0
 40
0.0
 40
80.0
 40
80.0
 40
80.0
 40
80.0
 10
793.1090133383563
 20
1393.086445166626
 30
0.0
 10
793.1775491163664
 20
1392.899529278775
 30
0.0
 10
793.2523154715065
 20
1392.773361054476
 30
0.0
 10
793.3333124037769
 20
1392.707940493729
 30
0.0
  0
LINE
  5
601B
330
1F
100
AcDbEntity
  8
AM_VIS
100
AcDbLine
 10
792.0015367028424
 20
1396.035043297467
 30
0.0
 11
793.1090133383563
 21
1393.086445166626
 31
0.0
  0
LINE
  5
601C
330
1F
100
AcDbEntity
  8
AM_VIS
100
AcDbLine
 10
791.0389198804125
 20
1393.469622736719
 30
0.0
 11
791.9828451140574
 21
1396.035043297467
 31
0.0
  0
SPLINE
  5
601D
330
1F
100
AcDbEntity
  8
AM_VIS
100
AcDbSpline
210
0.0
220
0.0
230
1.0
 70
     8
 71
     3
 72
     8
 73
     4
 74
     0
 42
0.0000000001
 43
0.0000000001
 40
0.0
 40
0.0
 40
0.0
 40
0.0
 40
80.0
 40
80.0
 40
80.0
 40
80.0
 10
790.6977983850854
 20
1392.73130497971
 30
0.0
 10
790.7850257518805
 20
1392.843454441117
 30
0.0
 10
790.8987329645246
 20
1393.089560383888
 30
0.0
 10
791.0389198804125
 20
1393.469622736719
 30
0.0
  0
SPLINE
  5
601E
330
1F
100
AcDbEntity
  8
AM_VIS
100
AcDbSpline
210
0.0
220
0.0
230
1.0
 70
     8
 71
     3
 72
     8
 73
     4
 74
     0
 42
0.0000000001
 43
0.0000000001
 40
0.0
 40
0.0
 40
0.0
 40
0.0
 40
80.0
 40
80.0
 40
80.0
 40
80.0
 10
790.5903217495713
 20
1392.651865727373
 30
0.0
 10
790.6277048558388
 20
1392.661211521766
 30
0.0
 10
790.6635304247777
 20
1392.687691296312
 30
0.0
 10
790.6977983850854
 20
1392.73130497971
 30
0.0
  0
LINE
  5
601F
330
1F
100
AcDbEntity
  8
AM_VIS
100
AcDbLine
 10
790.4689721632835
 20
1392.627743821116
 30
0.0
 11
790.5904650179818
 21
1392.651121156272
 31
0.0
  0
LINE
  5
6020
330
1F
100
AcDbEntity
  8
AM_VIS
100
AcDbLine
 10
790.4688264224684
 20
1392.535043297467
 30
0.0
 11
790.4688264224684
 21
1392.628501241392
 31
0.0
  0
LINE
  5
6021
330
1F
100
AcDbEntity
  8
AM_VIS
100
AcDbLine
 10
791.3239666093845
 20
1392.628501241392
 30
0.0
 11
791.3239666093845
 21
1392.535043297467
 31
0.0
  0
SPLINE
  5
6022
330
1F
100
AcDbEntity
  8
AM_VIS
100
AcDbSpline
210
0.0
220
0.0
230
1.0
 70
     8
 71
     3
 72
     8
 73
     4
 74
     0
 42
0.0000000001
 43
0.0000000001
 40
0.0
 40
0.0
 40
0.0
 40
0.0
 40
80.0
 40
80.0
 40
80.0
 40
80.0
 10
791.1277049271413
 20
1392.665884418962
 30
0.0
 10
791.1619728161465
 20
1392.647192830177
 30
0.0
 10
791.2273933768942
 20
1392.634731818522
 30
0.0
 10
791.3239666093845
 20
1392.628501241392
 30
0.0
  0
SPLINE
  5
6023
330
1F
100
AcDbEntity
  8
AM_VIS
100
AcDbSpline
210
0.0
220
0.0
230
1.0
 70
     8
 71
     3
 72
     8
 73
     4
 74
     0
 42
0.0000000001
 43
0.0000000001
 40
0.0
 40
0.0
 40
0.0
 40
0.0
 40
80.0
 40
80.0
 40
80.0
 40
80.0
 10
791.0155553944312
 20
1392.862146101205
 30
0.0
 10
791.0155553944312
 20
1392.762457651453
 30
0.0
 10
791.0529385720012
 20
1392.697037090705
 30
0.0
 10
791.1277049271413
 20
1392.665884418962
 30
0.0
  0
SPLINE
  5
6024
330
1F
100
AcDbEntity
  8
AM_VIS
100
AcDbSpline
210
0.0
220
0.0
230
1.0
 70
     8
 71
     3
 72
     8
 73
     4
 74
     0
 42
0.0000000001
 43
0.0000000001
 40
0.0
 40
0.0
 40
0.0
 40
0.0
 40
80.0
 40
80.0
 40
80.0
 40
80.0
 10
791.0529385720012
 20
1393.067753577841
 30
0.0
 10
791.0280164060861
 20
1393.005448234355
 30
0.0
 10
791.0155553944312
 20
1392.936912456345
 30
0.0
 10
791.0155553944312
 20
1392.862146101205
 30
0.0
  0
LINE
  5
6025
330
1F
100
AcDbEntity
  8
AM_VIS
100
AcDbLine
 10
791.2865834318145
 20
1393.661211521766
 30
0.0
 11
791.0529385720012
 21
1393.067753577841
 31
0.0
  0
LINE
  5
6026
330
1F
100
AcDbEntity
  8
AM_VIS
100
AcDbLine
 10
792.5949946467676
 20
1393.661211521766
 30
0.0
 11
791.2865834318145
 21
1393.661211521766
 31
0.0
  0
LINE
  5
6027
330
1F
100
AcDbEntity
  8
AM_VIS
100
AcDbLine
 10
792.7632189458331
 20
1393.198594699336
 30
0.0
 11
792.5949946467676
 21
1393.661211521766
 31
0.0
  0
SPLINE
  5
6028
330
1F
100
AcDbEntity
  8
AM_VIS
100
AcDbSpline
210
0.0
220
0.0
230
1.0
 70
     8
 71
     3
 72
     8
 73
     4
 74
     0
 42
0.0000000001
 43
0.0000000001
 40
0.0
 40
0.0
 40
0.0
 40
0.0
 40
80.0
 40
80.0
 40
80.0
 40
80.0
 10
792.8426581981696
 20
1392.862146101205
 30
0.0
 10
792.8426581981696
 20
1392.940027673608
 30
0.0
 10
792.8161784236231
 20
1393.052177206318
 30
0.0
 10
792.7632189458331
 20
1393.198594699336
 30
0.0
  0
SPLINE
  5
6029
330
1F
100
AcDbEntity
  8
AM_VIS
100
AcDbSpline
210
0.0
220
0.0
230
1.0
 70
     8
 71
     3
 72
     8
 73
     4
 74
     0
 42
0.0000000001
 43
0.0000000001
 40
0.0
 40
0.0
 40
0.0
 40
0.0
 40
80.0
 40
80.0
 40
80.0
 40
80.0
 10
792.7258357682631
 20
1392.665884418962
 30
0.0
 10
792.8037173406655
 20
1392.70015237927
 30
0.0
 10
792.8426581981696
 20
1392.765572940017
 30
0.0
 10
792.8426581981696
 20
1392.862146101205
 30
0.0
  0
SPLINE
  5
602A
330
1F
100
AcDbEntity
  8
AM_VIS
100
AcDbSpline
210
0.0
220
0.0
230
1.0
 70
     8
 71
     3
 72
     8
 73
     4
 74
     0
 42
0.0000000001
 43
0.0000000001
 40
0.0
 40
0.0
 40
0.0
 40
0.0
 40
80.0
 40
80.0
 40
80.0
 40
80.0
 10
792.4688264224685
 20
1392.628501241392
 30
0.0
 10
792.5903217495713
 20
1392.634731818522
 30
0.0
 10
792.6759915077353
 20
1392.647192830177
 30
0.0
 10
792.7258357682631
 20
1392.665884418962
 30
0.0
  0
LINE
  5
602B
330
1F
100
AcDbEntity
  8
AM_VIS
100
AcDbLine
 10
792.4688264224685
 20
1392.535043297467
 30
0.0
 11
792.4688264224685
 21
1392.628501241392
 31
0.0
  0
LINE
  5
602C
330
1F
100
AcDbEntity
  8
AM_VIS
100
AcDbLine
 10
845.0213030579961
 20
1415.035043299252
 30
0.0
 11
845.0213030579961
 21
1418.535043299252
 31
0.0
  0
LINE
  5
602D
330
1F
100
AcDbEntity
  8
AM_VIS
100
AcDbLine
 10
851.0213030579961
 20
1418.535043299252
 30
0.0
 11
851.0213030579961
 21
1415.035043299252
 31
0.0
  0
LINE
  5
602E
330
1F
100
AcDbEntity
  8
AM_VIS
100
AcDbLine
 10
851.0213030579961
 20
1415.035043299252
 30
0.0
 11
845.0213030579961
 21
1415.035043299252
 31
0.0
  0
LINE
  5
602F
330
1F
100
AcDbEntity
  8
AM_VIS
100
AcDbLine
 10
845.0213030579961
 20
1418.535043299252
 30
0.0
 11
851.0213030579961
 21
1418.535043299252
 31
0.0
  0
SPLINE
  5
6030
330
1F
100
AcDbEntity
  8
AM_VIS
100
AcDbSpline
210
0.0
220
0.0
230
1.0
 70
     8
 71
     3
 72
     8
 73
     4
 74
     0
 42
0.0000000001
 43
0.0000000001
 40
0.0
 40
0.0
 40
0.0
 40
0.0
 40
80.0
 40
80.0
 40
80.0
 40
80.0
 10
847.0724715362575
 20
1417.593467212296
 30
0.0
 10
847.0724716088195
 20
1417.222543371815
 30
0.0
 10
847.2721998696894
 20
1416.968920135034
 30
0.0
 10
847.6716563188661
 20
1416.832597647078
 30
0.0
  0
SPLINE
  5
6031
330
1F
100
AcDbEntity
  8
AM_VIS
100
AcDbSpline
210
0.0
220
0.0
230
1.0
 70
     8
 71
     3
 72
     8
 73
     4
 74
     0
 42
0.0000000001
 43
0.0000000001
 40
0.0
 40
0.0
 40
0.0
 40
0.0
 40
80.0
 40
80.0
 40
80.0
 40
80.0
 10
848.0853791449531
 20
1418.378113951426
 30
0.0
 10
847.4101074783847
 20
1418.378113878864
 30
0.0
 10
847.0724716088195
 20
1418.116565038383
 30
0.0
 10
847.0724715362575
 20
1417.593467212296
 30
0.0
  0
SPLINE
  5
6032
330
1F
100
AcDbEntity
  8
AM_VIS
100
AcDbSpline
210
0.0
220
0.0
230
1.0
 70
     8
 71
     3
 72
     8
 73
     4
 74
     0
 42
0.0000000001
 43
0.0000000001
 40
0.0
 40
0.0
 40
0.0
 40
0.0
 40
80.0
 40
80.0
 40
80.0
 40
80.0
 10
848.3849715362575
 20
1418.349581342731
 30
0.0
 10
848.3247360773859
 20
1418.368603009299
 30
0.0
 10
848.2248719469509
 20
1418.378113878864
 30
0.0
 10
848.0853791449531
 20
1418.378113951426
 30
0.0
  0
SPLINE
  5
6033
330
1F
100
AcDbEntity
  8
AM_VIS
100
AcDbSpline
210
0.0
220
0.0
230
1.0
 70
     8
 71
     3
 72
     8
 73
     4
 74
     0
 42
0.0000000001
 43
0.0000000001
 40
0.0
 40
0.0
 40
0.0
 40
0.0
 40
80.0
 40
80.0
 40
80.0
 40
80.0
 10
848.5371454493009
 20
1418.126075907948
 30
0.0
 10
848.5371455218631
 20
1418.23703610125
 30
0.0
 10
848.4864208599944
 20
1418.31153786447
 30
0.0
 10
848.3849715362575
 20
1418.349581342731
 30
0.0
  0
LINE
  5
6034
330
1F
100
AcDbEntity
  8
AM_VIS
100
AcDbLine
 10
848.5371454493009
 20
1416.756510690557
 30
0.0
 11
848.5371454493009
 21
1418.126075907948
 31
0.0
  0
SPLINE
  5
6035
330
1F
100
AcDbEntity
  8
AM_VIS
100
AcDbSpline
210
0.0
220
0.0
230
1.0
 70
     8
 71
     3
 72
     8
 73
     4
 74
     0
 42
0.0000000001
 43
0.0000000001
 40
0.0
 40
0.0
 40
0.0
 40
0.0
 40
80.0
 40
80.0
 40
80.0
 40
80.0
 10
847.6716563188661
 20
1416.832597647078
 30
0.0
 10
847.8206599904295
 20
1416.781873057772
 30
0.0
 10
848.1091563188661
 20
1416.756510690557
 30
0.0
 10
848.5371454493009
 20
1416.756510690557
 30
0.0
  0
SPLINE
  5
6036
330
1F
100
AcDbEntity
  8
AM_VIS
100
AcDbSpline
210
0.0
220
0.0
230
1.0
 70
     8
 71
     3
 72
     8
 73
     4
 74
     0
 42
0.0000000001
 43
0.0000000001
 40
0.0
 40
0.0
 40
0.0
 40
0.0
 40
80.0
 40
80.0
 40
80.0
 40
80.0
 10
847.1675802319095
 20
1415.948086777513
 30
0.0
 10
847.1675802319095
 20
1415.444010690557
 30
0.0
 10
847.5099715362576
 20
1415.191972647078
 30
0.0
 10
848.194754144953
 20
1415.191972647078
 30
0.0
  0
SPLINE
  5
6037
330
1F
100
AcDbEntity
  8
AM_VIS
100
AcDbSpline
210
0.0
220
0.0
230
1.0
 70
     8
 71
     3
 72
     8
 73
     4
 74
     0
 42
0.0000000001
 43
0.0000000001
 40
0.0
 40
0.0
 40
0.0
 40
0.0
 40
80.0
 40
80.0
 40
80.0
 40
80.0
 10
847.5289932753877
 20
1416.504472647079
 30
0.0
 10
847.2880512947773
 20
1416.415704579511
 30
0.0
 10
847.1675802319095
 20
1416.230242622989
 30
0.0
 10
847.1675802319095
 20
1415.948086777513
 30
0.0
  0
SPLINE
  5
6038
330
1F
100
AcDbEntity
  8
AM_VIS
100
AcDbSpline
210
0.0
220
0.0
230
1.0
 70
     8
 71
     3
 72
     8
 73
     4
 74
     0
 42
0.0000000001
 43
0.0000000001
 40
0.0
 40
0.0
 40
0.0
 40
0.0
 40
80.0
 40
80.0
 40
80.0
 40
80.0
 10
847.999781318866
 20
1416.556782429687
 30
0.0
 10
847.7842016329086
 20
1416.553612188207
 30
0.0
 10
847.6272722850826
 20
1416.536175569817
 30
0.0
 10
847.5289932753877
 20
1416.504472647079
 30
0.0
  0
LINE
  5
6039
330
1F
100
AcDbEntity
  8
AM_VIS
100
AcDbLine
 10
848.5371454493009
 20
1416.56153786447
 30
0.0
 11
847.999781318866
 21
1416.556782429687
 31
0.0
  0
LINE
  5
603A
330
1F
100
AcDbEntity
  8
AM_VIS
100
AcDbLine
 10
848.5371454493009
 20
1415.329880255774
 30
0.0
 11
848.5371454493009
 21
1416.56153786447
 31
0.0
  0
SPLINE
  5
603B
330
1F
100
AcDbEntity
  8
AM_VIS
100
AcDbSpline
210
0.0
220
0.0
230
1.0
 70
     8
 71
     3
 72
     8
 73
     4
 74
     0
 42
0.0000000001
 43
0.0000000001
 40
0.0
 40
0.0
 40
0.0
 40
0.0
 40
80.0
 40
80.0
 40
80.0
 40
80.0
 10
848.5181237101706
 20
1415.230016125339
 30
0.0
 10
848.5308048937781
 20
1415.245867622989
 30
0.0
 10
848.5371455218631
 20
1415.279155666468
 30
0.0
 10
848.5371454493009
 20
1415.329880255774
 30
0.0
  0
SPLINE
  5
603C
330
1F
100
AcDbEntity
  8
AM_VIS
100
AcDbSpline
210
0.0
220
0.0
230
1.0
 70
     8
 71
     3
 72
     8
 73
     4
 74
     0
 42
0.0000000001
 43
0.0000000001
 40
0.0
 40
0.0
 40
0.0
 40
0.0
 40
80.0
 40
80.0
 40
80.0
 40
80.0
 10
848.413504144953
 20
1415.196728081861
 30
0.0
 10
848.4705693623443
 20
1415.203068709946
 30
0.0
 10
848.5054425991249
 20
1415.214164700251
 30
0.0
 10
848.5181237101706
 20
1415.230016125339
 30
0.0
  0
SPLINE
  5
603D
330
1F
100
AcDbEntity
  8
AM_VIS
100
AcDbSpline
210
0.0
220
0.0
230
1.0
 70
     8
 71
     3
 72
     8
 73
     4
 74
     0
 42
0.0000000001
 43
0.0000000001
 40
0.0
 40
0.0
 40
0.0
 40
0.0
 40
80.0
 40
80.0
 40
80.0
 40
80.0
 10
848.194754144953
 20
1415.191972647078
 30
0.0
 10
848.3279063914283
 20
1415.191972647078
 30
0.0
 10
848.4008230339076
 20
1415.193557840381
 30
0.0
 10
848.413504144953
 20
1415.196728081861
 30
0.0
  0
SPLINE
  5
603E
330
1F
100
AcDbEntity
  8
AM_VIS
100
AcDbSpline
210
0.0
220
0.0
230
1.0
 70
     8
 71
     3
 72
     8
 73
     4
 74
     0
 42
0.0000000001
 43
0.0000000001
 40
0.0
 40
0.0
 40
0.0
 40
0.0
 40
80.0
 40
80.0
 40
80.0
 40
80.0
 10
846.7063030579966
 20
1417.612488951426
 30
0.0
 10
846.7063030579966
 20
1417.815387526338
 30
0.0
 10
846.7633682753879
 20
1417.994508927337
 30
0.0
 10
846.8774987101706
 20
1418.149853081861
 30
0.0
  0
SPLINE
  5
603F
330
1F
100
AcDbEntity
  8
AM_VIS
100
AcDbSpline
210
0.0
220
0.0
230
1.0
 70
     8
 71
     3
 72
     8
 73
     4
 74
     0
 42
0.0000000001
 43
0.0000000001
 40
0.0
 40
0.0
 40
0.0
 40
0.0
 40
80.0
 40
80.0
 40
80.0
 40
80.0
 10
847.4671726232141
 20
1416.708956342731
 30
0.0
 10
846.9599262947772
 20
1416.829427405598
 30
0.0
 10
846.7063030579966
 20
1417.130604917643
 30
0.0
 10
846.7063030579966
 20
1417.612488951426
 30
0.0
  0
LINE
  5
6040
330
1F
100
AcDbEntity
  8
AM_VIS
100
AcDbLine
 10
847.5480150145184
 20
1416.6899346036
 30
0.0
 11
847.4671726232141
 21
1416.708956342731
 31
0.0
  0
SPLINE
  5
6041
330
1F
100
AcDbEntity
  8
AM_VIS
100
AcDbSpline
210
0.0
220
0.0
230
1.0
 70
     8
 71
     3
 72
     8
 73
     4
 74
     0
 42
0.0000000001
 43
0.0000000001
 40
0.0
 40
0.0
 40
0.0
 40
0.0
 40
80.0
 40
80.0
 40
80.0
 40
80.0
 10
846.85847697104
 20
1415.910043299253
 30
0.0
 10
846.85847697104
 20
1416.303159265469
 30
0.0
 10
847.0883230339078
 20
1416.563123057772
 30
0.0
 10
847.5480150145184
 20
1416.6899346036
 30
0.0
  0
SPLINE
  5
6042
330
1F
100
AcDbEntity
  8
AM_VIS
100
AcDbSpline
210
0.0
220
0.0
230
1.0
 70
     8
 71
     3
 72
     8
 73
     4
 74
     0
 42
0.0000000001
 43
0.0000000001
 40
0.0
 40
0.0
 40
0.0
 40
0.0
 40
80.0
 40
80.0
 40
80.0
 40
80.0
 10
848.0616019710401
 20
1415.035043299252
 30
0.0
 10
847.2595186860814
 20
1415.035043299252
 30
0.0
 10
846.85847697104
 20
1415.326710014294
 30
0.0
 10
846.85847697104
 20
1415.910043299253
 30
0.0
  0
LINE
  5
6043
330
1F
100
AcDbEntity
  8
AM_VIS
100
AcDbLine
 10
849.3408139275619
 20
1415.130151994905
 30
0.0
 11
849.3408139275619
 21
1415.035043299252
 31
0.0
  0
SPLINE
  5
6044
330
1F
100
AcDbEntity
  8
AM_VIS
100
AcDbSpline
210
0.0
220
0.0
230
1.0
 70
     8
 71
     3
 72
     8
 73
     4
 74
     0
 42
0.0000000001
 43
0.0000000001
 40
0.0
 40
0.0
 40
0.0
 40
0.0
 40
80.0
 40
80.0
 40
80.0
 40
80.0
 10
848.9413574058225
 20
1415.215749820992
 30
0.0
 10
849.0015929372564
 20
1415.171365787208
 30
0.0
 10
849.1347451111694
 20
1415.142833178512
 30
0.0
 10
849.3408139275619
 20
1415.130151994905
 30
0.0
  0
SPLINE
  5
6045
330
1F
100
AcDbEntity
  8
AM_VIS
100
AcDbSpline
210
0.0
220
0.0
230
1.0
 70
     8
 71
     3
 72
     8
 73
     4
 74
     0
 42
0.0000000001
 43
0.0000000001
 40
0.0
 40
0.0
 40
0.0
 40
0.0
 40
80.0
 40
80.0
 40
80.0
 40
80.0
 10
848.8319824058226
 20
1415.586673734035
 30
0.0
 10
848.8319824058226
 20
1415.396456342731
 30
0.0
 10
848.8684407633433
 20
1415.272815038383
 30
0.0
 10
848.9413574058225
 20
1415.215749820992
 30
0.0
  0
LINE
  5
6046
330
1F
100
AcDbEntity
  8
AM_VIS
100
AcDbLine
 10
848.8319824058226
 20
1417.907325907948
 30
0.0
 11
848.8319824058226
 21
1415.586673734035
 31
0.0
  0
SPLINE
  5
6047
330
1F
100
AcDbEntity
  8
AM_VIS
100
AcDbSpline
210
0.0
220
0.0
230
1.0
 70
     8
 71
     3
 72
     8
 73
     4
 74
     0
 42
0.0000000001
 43
0.0000000001
 40
0.0
 40
0.0
 40
0.0
 40
0.0
 40
80.0
 40
80.0
 40
80.0
 40
80.0
 10
848.93660197104
 20
1418.31153786447
 30
0.0
 10
848.8668556426032
 20
1418.238621221991
 30
0.0
 10
848.8319824058226
 20
1418.103883927337
 30
0.0
 10
848.8319824058226
 20
1417.907325907948
 30
0.0
  0
SPLINE
  5
6048
330
1F
100
AcDbEntity
  8
AM_VIS
100
AcDbSpline
210
0.0
220
0.0
230
1.0
 70
     8
 71
     3
 72
     8
 73
     4
 74
     0
 42
0.0000000001
 43
0.0000000001
 40
0.0
 40
0.0
 40
0.0
 40
0.0
 40
80.0
 40
80.0
 40
80.0
 40
80.0
 10
849.3408139275619
 20
1418.4399346036
 30
0.0
 10
849.1442559807346
 20
1418.427253419993
 30
0.0
 10
849.0095186860814
 20
1418.384454506949
 30
0.0
 10
848.93660197104
 20
1418.31153786447
 30
0.0
  0
LINE
  5
6049
330
1F
100
AcDbEntity
  8
AM_VIS
100
AcDbLine
 10
849.3408139275619
 20
1418.535043299252
 30
0.0
 11
849.3408139275619
 21
1418.4399346036
 31
0.0
  0
SPLINE
  5
604A
330
1F
100
AcDbEntity
  8
AM_VIS
100
AcDbSpline
210
0.0
220
0.0
230
1.0
 70
     8
 71
     3
 72
     8
 73
     4
 74
     0
 42
0.0000000001
 43
0.0000000001
 40
0.0
 40
0.0
 40
0.0
 40
0.0
 40
80.0
 40
80.0
 40
80.0
 40
80.0
 10
846.8774987101706
 20
1418.149853081861
 30
0.0
 10
847.0645458599944
 20
1418.406646560122
 30
0.0
 10
847.3736491208642
 20
1418.535043299252
 30
0.0
 10
847.8048084927793
 20
1418.535043299252
 30
0.0
  0
LINE
  5
60C2
330
1F
100
AcDbEntity
  8
AM_VIS
100
AcDbLine
 10
806.0213030579962
 20
1231.972330097609
 30
0.0
 11
806.0213030579962
 21
1235.472330097609
 31
0.0
  0
LINE
  5
60C3
330
1F
100
AcDbEntity
  8
AM_VIS
100
AcDbLine
 10
806.0213030579962
 20
1235.472330097609
 30
0.0
 11
812.0213030579961
 21
1235.472330097609
 31
0.0
  0
LINE
  5
60C4
330
1F
100
AcDbEntity
  8
AM_VIS
100
AcDbLine
 10
812.0213030579961
 20
1235.472330097609
 30
0.0
 11
812.0213030579961
 21
1231.972330097609
 31
0.0
  0
LINE
  5
60C5
330
1F
100
AcDbEntity
  8
AM_VIS
100
AcDbLine
 10
812.0213030579961
 20
1231.972330097609
 30
0.0
 11
806.0213030579962
 21
1231.972330097609
 31
0.0
  0
SPLINE
  5
60C6
330
1F
100
AcDbEntity
  8
AM_VIS
100
AcDbSpline
210
0.0
220
0.0
230
1.0
 70
     8
 71
     3
 72
     8
 73
     4
 74
     0
 42
0.0000000001
 43
0.0000000001
 40
0.0
 40
0.0
 40
0.0
 40
0.0
 40
80.0
 40
80.0
 40
80.0
 40
80.0
 10
809.8934226232287
 20
1234.521243141087
 30
0.0
 10
809.8934225506665
 20
1235.047511208654
 30
0.0
 10
809.5272540724057
 20
1235.310645315
 30
0.0
 10
808.794917188446
 20
1235.310645315
 30
0.0
  0
SPLINE
  5
60C7
330
1F
100
AcDbEntity
  8
AM_VIS
100
AcDbSpline
210
0.0
220
0.0
230
1.0
 70
     8
 71
     3
 72
     8
 73
     4
 74
     0
 42
0.0000000001
 43
0.0000000001
 40
0.0
 40
0.0
 40
0.0
 40
0.0
 40
80.0
 40
80.0
 40
80.0
 40
80.0
 10
808.9470911014895
 20
1233.689042054131
 30
0.0
 10
809.5779787342742
 20
1233.689042054131
 30
0.0
 10
809.8934225506665
 20
1233.966442392262
 30
0.0
 10
809.8934226232287
 20
1234.521243141087
 30
0.0
  0
SPLINE
  5
60C8
330
1F
100
AcDbEntity
  8
AM_VIS
100
AcDbSpline
210
0.0
220
0.0
230
1.0
 70
     8
 71
     3
 72
     8
 73
     4
 74
     0
 42
0.0000000001
 43
0.0000000001
 40
0.0
 40
0.0
 40
0.0
 40
0.0
 40
80.0
 40
80.0
 40
80.0
 40
80.0
 10
808.5714117536635
 20
1233.708063793261
 30
0.0
 10
808.6760312463185
 20
1233.695382609654
 30
0.0
 10
808.8012577439688
 20
1233.689042054131
 30
0.0
 10
808.9470911014895
 20
1233.689042054131
 30
0.0
  0
LINE
  5
60C9
330
1F
100
AcDbEntity
  8
AM_VIS
100
AcDbLine
 10
808.5714117536635
 20
1235.091895315
 30
0.0
 11
808.5714117536635
 21
1233.708063793261
 31
0.0
  0
SPLINE
  5
60CA
330
1F
100
AcDbEntity
  8
AM_VIS
100
AcDbSpline
210
0.0
220
0.0
230
1.0
 70
     8
 71
     3
 72
     8
 73
     4
 74
     0
 42
0.0000000001
 43
0.0000000001
 40
0.0
 40
0.0
 40
0.0
 40
0.0
 40
80.0
 40
80.0
 40
80.0
 40
80.0
 10
808.6189661014895
 20
1235.282112706305
 30
0.0
 10
808.5872631787514
 20
1235.250409783567
 30
0.0
 10
808.5714117536635
 20
1235.187004010653
 30
0.0
 10
808.5714117536635
 20
1235.091895315
 30
0.0
  0
SPLINE
  5
60CB
330
1F
100
AcDbEntity
  8
AM_VIS
100
AcDbSpline
210
0.0
220
0.0
230
1.0
 70
     8
 71
     3
 72
     8
 73
     4
 74
     0
 42
0.0000000001
 43
0.0000000001
 40
0.0
 40
0.0
 40
0.0
 40
0.0
 40
80.0
 40
80.0
 40
80.0
 40
80.0
 10
808.794917188446
 20
1235.310645315
 30
0.0
 10
808.7029787342741
 20
1235.310645315
 30
0.0
 10
808.6443283961427
 20
1235.301134445435
 30
0.0
 10
808.6189661014895
 20
1235.282112706305
 30
0.0
  0
SPLINE
  5
60CC
330
1F
100
AcDbEntity
  8
AM_VIS
100
AcDbSpline
210
0.0
220
0.0
230
1.0
 70
     8
 71
     3
 72
     8
 73
     4
 74
     0
 42
0.0000000001
 43
0.0000000001
 40
0.0
 40
0.0
 40
0.0
 40
0.0
 40
80.0
 40
80.0
 40
80.0
 40
80.0
 10
810.2263030580113
 20
1234.530754010653
 30
0.0
 10
810.2263030580113
 20
1234.248598165176
 30
0.0
 10
810.137534917882
 20
1234.015581860828
 30
0.0
 10
809.9599987101854
 20
1233.831705097609
 30
0.0
  0
SPLINE
  5
60CD
330
1F
100
AcDbEntity
  8
AM_VIS
100
AcDbSpline
210
0.0
220
0.0
230
1.0
 70
     8
 71
     3
 72
     8
 73
     4
 74
     0
 42
0.0000000001
 43
0.0000000001
 40
0.0
 40
0.0
 40
0.0
 40
0.0
 40
80.0
 40
80.0
 40
80.0
 40
80.0
 10
809.8648900145331
 20
1235.253580097609
 30
0.0
 10
810.1058319951437
 20
1235.085554686915
 30
0.0
 10
810.2263030580113
 20
1234.844612706305
 30
0.0
 10
810.2263030580113
 20
1234.530754010653
 30
0.0
  0
SPLINE
  5
60CE
330
1F
100
AcDbEntity
  8
AM_VIS
100
AcDbSpline
210
0.0
220
0.0
230
1.0
 70
     8
 71
     3
 72
     8
 73
     4
 74
     0
 42
0.0000000001
 43
0.0000000001
 40
0.0
 40
0.0
 40
0.0
 40
0.0
 40
80.0
 40
80.0
 40
80.0
 40
80.0
 10
809.0279334927938
 20
1235.472330097609
 30
0.0
 10
809.3734950386219
 20
1235.472330097609
 30
0.0
 10
809.6524805700557
 20
1235.399413382568
 30
0.0
 10
809.8648900145331
 20
1235.253580097609
 30
0.0
  0
LINE
  5
60CF
330
1F
100
AcDbEntity
  8
AM_VIS
100
AcDbLine
 10
807.8200530580113
 20
1235.377221401957
 30
0.0
 11
807.8200530580113
 21
1235.472330097609
 31
0.0
  0
SPLINE
  5
60D0
330
1F
100
AcDbEntity
  8
AM_VIS
100
AcDbSpline
210
0.0
220
0.0
230
1.0
 70
     8
 71
     3
 72
     8
 73
     4
 74
     0
 42
0.0000000001
 43
0.0000000001
 40
0.0
 40
0.0
 40
0.0
 40
0.0
 40
80.0
 40
80.0
 40
80.0
 40
80.0
 10
808.1814661014895
 20
1235.258335532392
 30
0.0
 10
808.1244008840982
 20
1235.315400749783
 30
0.0
 10
808.0039298212307
 20
1235.355029348784
 30
0.0
 10
807.8200530580113
 20
1235.377221401957
 30
0.0
  0
SPLINE
  5
60D1
330
1F
100
AcDbEntity
  8
AM_VIS
100
AcDbSpline
210
0.0
220
0.0
230
1.0
 70
     8
 71
     3
 72
     8
 73
     4
 74
     0
 42
0.0000000001
 43
0.0000000001
 40
0.0
 40
0.0
 40
0.0
 40
0.0
 40
80.0
 40
80.0
 40
80.0
 40
80.0
 10
808.2718193623591
 20
1234.882656184566
 30
0.0
 10
808.2718193623591
 20
1235.07287357587
 30
0.0
 10
808.2417015603612
 20
1235.198100000958
 30
0.0
 10
808.1814661014895
 20
1235.258335532392
 30
0.0
  0
LINE
  5
60D2
330
1F
100
AcDbEntity
  8
AM_VIS
100
AcDbLine
 10
808.2718193623591
 20
1232.661868141087
 30
0.0
 11
808.2718193623591
 21
1234.882656184566
 31
0.0
  0
SPLINE
  5
60D3
330
1F
100
AcDbEntity
  8
AM_VIS
100
AcDbSpline
210
0.0
220
0.0
230
1.0
 70
     8
 71
     3
 72
     8
 73
     4
 74
     0
 42
0.0000000001
 43
0.0000000001
 40
0.0
 40
0.0
 40
0.0
 40
0.0
 40
80.0
 40
80.0
 40
80.0
 40
80.0
 10
808.1909769710549
 20
1232.22912357587
 30
0.0
 10
808.2448718744037
 20
1232.305210532392
 30
0.0
 10
808.2718193623591
 20
1232.44945869661
 30
0.0
 10
808.2718193623591
 20
1232.661868141087
 30
0.0
  0
SPLINE
  5
60D4
330
1F
100
AcDbEntity
  8
AM_VIS
100
AcDbSpline
210
0.0
220
0.0
230
1.0
 70
     8
 71
     3
 72
     8
 73
     4
 74
     0
 42
0.0000000001
 43
0.0000000001
 40
0.0
 40
0.0
 40
0.0
 40
0.0
 40
80.0
 40
80.0
 40
80.0
 40
80.0
 10
807.8200530580113
 20
1232.067438793261
 30
0.0
 10
808.0071001352733
 20
1232.086460532392
 30
0.0
 10
808.130741439621
 20
1232.140355508303
 30
0.0
 10
808.1909769710549
 20
1232.22912357587
 30
0.0
  0
LINE
  5
60D5
330
1F
100
AcDbEntity
  8
AM_VIS
100
AcDbLine
 10
807.8200530580113
 20
1231.972330097609
 30
0.0
 11
807.8200530580113
 21
1232.067438793261
 31
0.0
  0
LINE
  5
60D6
330
1F
100
AcDbEntity
  8
AM_VIS
100
AcDbLine
 10
809.0707324058373
 20
1232.067438793261
 30
0.0
 11
809.0707324058373
 21
1231.972330097609
 31
0.0
  0
SPLINE
  5
60D7
330
1F
100
AcDbEntity
  8
AM_VIS
100
AcDbSpline
210
0.0
220
0.0
230
1.0
 70
     8
 71
     3
 72
     8
 73
     4
 74
     0
 42
0.0000000001
 43
0.0000000001
 40
0.0
 40
0.0
 40
0.0
 40
0.0
 40
80.0
 40
80.0
 40
80.0
 40
80.0
 10
808.6902976232288
 20
1232.186324662827
 30
0.0
 10
808.7568737101854
 20
1232.119748648432
 30
0.0
 10
808.8836852560135
 20
1232.080119976869
 30
0.0
 10
809.0707324058373
 20
1232.067438793261
 30
0.0
  0
SPLINE
  5
60D8
330
1F
100
AcDbEntity
  8
AM_VIS
100
AcDbSpline
210
0.0
220
0.0
230
1.0
 70
     8
 71
     3
 72
     8
 73
     4
 74
     0
 42
0.0000000001
 43
0.0000000001
 40
0.0
 40
0.0
 40
0.0
 40
0.0
 40
80.0
 40
80.0
 40
80.0
 40
80.0
 10
808.5714117536635
 20
1232.595292054131
 30
0.0
 10
808.5714117536635
 20
1232.401904348784
 30
0.0
 10
808.6110403526644
 20
1232.265581860829
 30
0.0
 10
808.6902976232288
 20
1232.186324662827
 30
0.0
  0
LINE
  5
60D9
330
1F
100
AcDbEntity
  8
AM_VIS
100
AcDbLine
 10
808.5714117536635
 20
1233.536868141087
 30
0.0
 11
808.5714117536635
 21
1232.595292054131
 31
0.0
  0
LINE
  5
60DA
330
1F
100
AcDbEntity
  8
AM_VIS
100
AcDbLine
 10
808.571357382117
 20
1233.534067088082
 30
0.0
 11
808.9803552831533
 21
1233.526127985037
 31
0.0
  0
SPLINE
  5
60DB
330
1F
100
AcDbEntity
  8
AM_VIS
100
AcDbSpline
210
0.0
220
0.0
230
1.0
 70
     8
 71
     3
 72
     8
 73
     4
 74
     0
 42
0.0000000001
 43
0.0000000001
 40
0.0
 40
0.0
 40
0.0
 40
0.0
 40
80.0
 40
80.0
 40
80.0
 40
80.0
 10
809.9599987101854
 20
1233.831705097609
 30
0.0
 10
809.7634406907959
 20
1233.628806522697
 30
0.0
 10
809.4369008115361
 20
1233.527357271522
 30
0.0
 10
808.9803791449678
 20
1233.527357271522
 30
0.0
  0
LINE
  5
60DC
330
1F
100
AcDbEntity
  8
AM_VIS
100
AcDbLine
 10
798.5213030579962
 20
1208.472330097609
 30
0.0
 11
798.5213030579962
 21
1211.972330097609
 31
0.0
  0
LINE
  5
60DD
330
1F
100
AcDbEntity
  8
AM_VIS
100
AcDbLine
 10
798.5213030579962
 20
1211.972330097609
 30
0.0
 11
804.5213030579962
 21
1211.972330097609
 31
0.0
  0
LINE
  5
60DE
330
1F
100
AcDbEntity
  8
AM_VIS
100
AcDbLine
 10
804.5213030579962
 20
1211.972330097609
 30
0.0
 11
804.5213030579962
 21
1208.472330097609
 31
0.0
  0
LINE
  5
60DF
330
1F
100
AcDbEntity
  8
AM_VIS
100
AcDbLine
 10
804.5213030579962
 20
1208.472330097609
 30
0.0
 11
798.5213030579962
 21
1208.472330097609
 31
0.0
  0
LINE
  5
60E0
330
1F
100
AcDbEntity
  8
AM_VIS
100
AcDbLine
 10
835.5213030579962
 20
1208.472330097609
 30
0.0
 11
835.5213030579962
 21
1211.972330097609
 31
0.0
  0
LINE
  5
60E1
330
1F
100
AcDbEntity
  8
AM_VIS
100
AcDbLine
 10
835.5213030579962
 20
1211.972330097609
 30
0.0
 11
841.5213030579961
 21
1211.972330097609
 31
0.0
  0
LINE
  5
60E2
330
1F
100
AcDbEntity
  8
AM_VIS
100
AcDbLine
 10
841.5213030579961
 20
1211.972330097609
 30
0.0
 11
841.5213030579961
 21
1208.472330097609
 31
0.0
  0
LINE
  5
60E3
330
1F
100
AcDbEntity
  8
AM_VIS
100
AcDbLine
 10
841.5213030579961
 20
1208.472330097609
 30
0.0
 11
835.5213030579962
 21
1208.472330097609
 31
0.0
  0
LINE
  5
60E4
330
1F
100
AcDbEntity
  8
AM_VIS
100
AcDbLine
 10
803.8713030580327
 20
1208.56591298531
 30
0.0
 11
803.8713030580327
 21
1208.472330097609
 31
0.0
  0
SPLINE
  5
60E5
330
1F
100
AcDbEntity
  8
AM_VIS
100
AcDbSpline
210
0.0
220
0.0
230
1.0
 70
     8
 71
     3
 72
     8
 73
     4
 74
     0
 42
0.0000000001
 43
0.0000000001
 40
0.0
 40
0.0
 40
0.0
 40
0.0
 40
80.0
 40
80.0
 40
80.0
 40
80.0
 10
803.4969715072303
 20
1208.64077929547
 30
0.0
 10
803.571837817391
 20
1208.590868469628
 30
0.0
 10
803.6966149533929
 20
1208.56591298531
 30
0.0
 10
803.8713030580327
 20
1208.56591298531
 30
0.0
  0
SPLINE
  5
60E6
330
1F
100
AcDbEntity
  8
AM_VIS
100
AcDbSpline
210
0.0
220
0.0
230
1.0
 70
     8
 71
     3
 72
     8
 73
     4
 74
     0
 42
0.0000000001
 43
0.0000000001
 40
0.0
 40
0.0
 40
0.0
 40
0.0
 40
80.0
 40
80.0
 40
80.0
 40
80.0
 10
803.3846720419898
 20
1208.926207102957
 30
0.0
 10
803.3846720419898
 20
1208.792071606787
 30
0.0
 10
803.42210519707
 20
1208.696929099488
 30
0.0
 10
803.4969715072303
 20
1208.64077929547
 30
0.0
  0
LINE
  5
60E7
330
1F
100
AcDbEntity
  8
AM_VIS
100
AcDbLine
 10
803.3846720419898
 20
1211.972330097609
 30
0.0
 11
803.3846720419898
 21
1208.926207102957
 31
0.0
  0
LINE
  5
60E8
330
1F
100
AcDbEntity
  8
AM_VIS
100
AcDbLine
 10
802.5938966409203
 20
1211.593319402422
 30
0.0
 11
803.3846720419898
 21
1211.972330097609
 31
0.0
  0
LINE
  5
60E9
330
1F
100
AcDbEntity
  8
AM_VIS
100
AcDbLine
 10
802.5938966409203
 20
1211.518453092261
 30
0.0
 11
802.5938966409203
 21
1211.593319402422
 31
0.0
  0
SPLINE
  5
60EA
330
1F
100
AcDbEntity
  8
AM_VIS
100
AcDbSpline
210
0.0
220
0.0
230
1.0
 70
     8
 71
     3
 72
     8
 73
     4
 74
     0
 42
0.0000000001
 43
0.0000000001
 40
0.0
 40
0.0
 40
0.0
 40
0.0
 40
80.0
 40
80.0
 40
80.0
 40
80.0
 10
802.9307950366424
 20
1211.602677691192
 30
0.0
 10
802.8496898197031
 20
1211.602677691192
 30
0.0
 10
802.7373903544626
 20
1211.574602824882
 30
0.0
 10
802.5938966409203
 20
1211.518453092261
 30
0.0
  0
SPLINE
  5
60EB
330
1F
100
AcDbEntity
  8
AM_VIS
100
AcDbSpline
210
0.0
220
0.0
230
1.0
 70
     8
 71
     3
 72
     8
 73
     4
 74
     0
 42
0.0000000001
 43
0.0000000001
 40
0.0
 40
0.0
 40
0.0
 40
0.0
 40
80.0
 40
80.0
 40
80.0
 40
80.0
 10
803.1226399564284
 20
1211.335966461245
 30
0.0
 10
803.1226399564284
 20
1211.513773947876
 30
0.0
 10
803.0586916260338
 20
1211.602677691192
 30
0.0
 10
802.9307950366424
 20
1211.602677691192
 30
0.0
  0
LINE
  5
60EC
330
1F
100
AcDbEntity
  8
AM_VIS
100
AcDbLine
 10
803.1226399564284
 20
1209.015110846272
 30
0.0
 11
803.1226399564284
 21
1211.335966461245
 31
0.0
  0
SPLINE
  5
60ED
330
1F
100
AcDbEntity
  8
AM_VIS
100
AcDbSpline
210
0.0
220
0.0
230
1.0
 70
     8
 71
     3
 72
     8
 73
     4
 74
     0
 42
0.0000000001
 43
0.0000000001
 40
0.0
 40
0.0
 40
0.0
 40
0.0
 40
80.0
 40
80.0
 40
80.0
 40
80.0
 10
802.9822656248775
 20
1208.64077929547
 30
0.0
 10
803.0758485125781
 20
1208.706287388259
 30
0.0
 10
803.1226399564284
 20
1208.831064452862
 30
0.0
 10
803.1226399564284
 20
1209.015110846272
 30
0.0
  0
SPLINE
  5
60EE
330
1F
100
AcDbEntity
  8
AM_VIS
100
AcDbSpline
210
0.0
220
0.0
230
1.0
 70
     8
 71
     3
 72
     8
 73
     4
 74
     0
 42
0.0000000001
 43
0.0000000001
 40
0.0
 40
0.0
 40
0.0
 40
0.0
 40
80.0
 40
80.0
 40
80.0
 40
80.0
 10
802.6406880847707
 20
1208.56591298531
 30
0.0
 10
802.8060178292424
 20
1208.572151892088
 30
0.0
 10
802.9198769854785
 20
1208.597107305009
 30
0.0
 10
802.9822656248775
 20
1208.64077929547
 30
0.0
  0
LINE
  5
60EF
330
1F
100
AcDbEntity
  8
AM_VIS
100
AcDbLine
 10
802.6406880847707
 20
1208.472330097609
 30
0.0
 11
802.6406880847707
 21
1208.56591298531
 31
0.0
  0
SPLINE
  5
60F0
330
1F
100
AcDbEntity
  8
AM_VIS
100
AcDbSpline
210
0.0
220
0.0
230
1.0
 70
     8
 71
     3
 72
     8
 73
     4
 74
     0
 42
0.0000000001
 43
0.0000000001
 40
0.0
 40
0.0
 40
0.0
 40
0.0
 40
80.0
 40
80.0
 40
80.0
 40
80.0
 10
801.2205677639151
 20
1211.022463787449
 30
0.0
 10
801.2205676925171
 20
1211.346884441011
 30
0.0
 10
801.0770739789748
 20
1211.563684773718
 30
0.0
 10
800.7900864804925
 20
1211.672864856967
 30
0.0
  0
SPLINE
  5
60F1
330
1F
100
AcDbEntity
  8
AM_VIS
100
AcDbSpline
210
0.0
220
0.0
230
1.0
 70
     8
 71
     3
 72
     8
 73
     4
 74
     0
 42
0.0000000001
 43
0.0000000001
 40
0.0
 40
0.0
 40
0.0
 40
0.0
 40
80.0
 40
80.0
 40
80.0
 40
80.0
 10
800.7292576034872
 20
1210.348666996005
 30
0.0
 10
801.056797639041
 20
1210.464085843237
 30
0.0
 10
801.2205676925171
 20
1210.688684773718
 30
0.0
 10
801.2205677639151
 20
1211.022463787449
 30
0.0
  0
SPLINE
  5
60F2
330
1F
100
AcDbEntity
  8
AM_VIS
100
AcDbSpline
210
0.0
220
0.0
230
1.0
 70
     8
 71
     3
 72
     8
 73
     4
 74
     0
 42
0.0000000001
 43
0.0000000001
 40
0.0
 40
0.0
 40
0.0
 40
0.0
 40
80.0
 40
80.0
 40
80.0
 40
80.0
 10
799.9150864804926
 20
1210.250404963919
 30
0.0
 10
800.2862985779055
 20
1210.253524345911
 30
0.0
 10
800.557688952237
 20
1210.286278356606
 30
0.0
 10
800.7292576034872
 20
1210.348666996005
 30
0.0
  0
LINE
  5
60F3
330
1F
100
AcDbEntity
  8
AM_VIS
100
AcDbLine
 10
799.9150864804926
 20
1211.532490525417
 30
0.0
 11
799.9150864804926
 21
1210.250404963919
 31
0.0
  0
SPLINE
  5
60F4
330
1F
100
AcDbEntity
  8
AM_VIS
100
AcDbSpline
210
0.0
220
0.0
230
1.0
 70
     8
 71
     3
 72
     8
 73
     4
 74
     0
 42
0.0000000001
 43
0.0000000001
 40
0.0
 40
0.0
 40
0.0
 40
0.0
 40
80.0
 40
80.0
 40
80.0
 40
80.0
 10
799.989952790653
 20
1211.724335445203
 30
0.0
 10
799.9400418934133
 20
1211.693141125503
 30
0.0
 10
799.9150864804926
 20
1211.629192795108
 30
0.0
 10
799.9150864804926
 20
1211.532490525417
 30
0.0
  0
SPLINE
  5
60F5
330
1F
100
AcDbEntity
  8
AM_VIS
100
AcDbSpline
210
0.0
220
0.0
230
1.0
 70
     8
 71
     3
 72
     8
 73
     4
 74
     0
 42
0.0000000001
 43
0.0000000001
 40
0.0
 40
0.0
 40
0.0
 40
0.0
 40
80.0
 40
80.0
 40
80.0
 40
80.0
 10
800.2239100099043
 20
1211.757089455898
 30
0.0
 10
800.0991328025042
 20
1211.750850549119
 30
0.0
 10
800.0211470389544
 20
1211.739932569354
 30
0.0
 10
799.989952790653
 20
1211.724335445203
 30
0.0
  0
SPLINE
  5
60F6
330
1F
100
AcDbEntity
  8
AM_VIS
100
AcDbSpline
210
0.0
220
0.0
230
1.0
 70
     8
 71
     3
 72
     8
 73
     4
 74
     0
 42
0.0000000001
 43
0.0000000001
 40
0.0
 40
0.0
 40
0.0
 40
0.0
 40
80.0
 40
80.0
 40
80.0
 40
80.0
 10
800.7900864804925
 20
1211.672864856967
 30
0.0
 10
800.6278761180123
 20
1211.741492260349
 30
0.0
 10
800.4391506516155
 20
1211.769567126659
 30
0.0
 10
800.2239100099043
 20
1211.757089455898
 30
0.0
  0
LINE
  5
60F7
330
1F
100
AcDbEntity
  8
AM_VIS
100
AcDbLine
 10
802.0628137532199
 20
1208.56591298531
 30
0.0
 11
802.0628137532199
 21
1208.472330097609
 31
0.0
  0
SPLINE
  5
60F8
330
1F
100
AcDbEntity
  8
AM_VIS
100
AcDbSpline
210
0.0
220
0.0
230
1.0
 70
     8
 71
     3
 72
     8
 73
     4
 74
     0
 42
0.0000000001
 43
0.0000000001
 40
0.0
 40
0.0
 40
0.0
 40
0.0
 40
80.0
 40
80.0
 40
80.0
 40
80.0
 10
801.6229741810272
 20
1208.753078760711
 30
0.0
 10
801.6853627490284
 20
1208.656376491019
 30
0.0
 10
801.8319759159599
 20
1208.59398785162
 30
0.0
 10
802.0628137532199
 20
1208.56591298531
 30
0.0
  0
LINE
  5
60F9
330
1F
100
AcDbEntity
  8
AM_VIS
100
AcDbLine
 10
800.6777870152518
 20
1210.156822076219
 30
0.0
 11
801.6229741810272
 21
1208.753078760711
 31
0.0
  0
SPLINE
  5
60FA
330
1F
100
AcDbEntity
  8
AM_VIS
100
AcDbSpline
210
0.0
220
0.0
230
1.0
 70
     8
 71
     3
 72
     8
 73
     4
 74
     0
 42
0.0000000001
 43
0.0000000001
 40
0.0
 40
0.0
 40
0.0
 40
0.0
 40
80.0
 40
80.0
 40
80.0
 40
80.0
 10
801.2158886195299
 20
1210.348666996005
 30
0.0
 10
801.0911114121299
 20
1210.264442397074
 30
0.0
 10
800.9117442345031
 20
1210.20049406668
 30
0.0
 10
800.6777870152518
 20
1210.156822076219
 30
0.0
  0
SPLINE
  5
60FB
330
1F
100
AcDbEntity
  8
AM_VIS
100
AcDbSpline
210
0.0
220
0.0
230
1.0
 70
     8
 71
     3
 72
     8
 73
     4
 74
     0
 42
0.0000000001
 43
0.0000000001
 40
0.0
 40
0.0
 40
0.0
 40
0.0
 40
80.0
 40
80.0
 40
80.0
 40
80.0
 10
801.5481078708669
 20
1211.013105498679
 30
0.0
 10
801.5481078708669
 20
1210.716759640028
 30
0.0
 10
801.4373680966219
 20
1210.495280162936
 30
0.0
 10
801.2158886195299
 20
1210.348666996005
 30
0.0
  0
SPLINE
  5
60FC
330
1F
100
AcDbEntity
  8
AM_VIS
100
AcDbSpline
210
0.0
220
0.0
230
1.0
 70
     8
 71
     3
 72
     8
 73
     4
 74
     0
 42
0.0000000001
 43
0.0000000001
 40
0.0
 40
0.0
 40
0.0
 40
0.0
 40
80.0
 40
80.0
 40
80.0
 40
80.0
 10
801.1316640205995
 20
1211.766447744668
 30
0.0
 10
801.4092932303118
 20
1211.616715124347
 30
0.0
 10
801.5481078708669
 20
1211.365601018551
 30
0.0
 10
801.5481078708669
 20
1211.013105498679
 30
0.0
  0
SPLINE
  5
60FD
330
1F
100
AcDbEntity
  8
AM_VIS
100
AcDbSpline
210
0.0
220
0.0
230
1.0
 70
     8
 71
     3
 72
     8
 73
     4
 74
     0
 42
0.0000000001
 43
0.0000000001
 40
0.0
 40
0.0
 40
0.0
 40
0.0
 40
80.0
 40
80.0
 40
80.0
 40
80.0
 10
800.4157549296904
 20
1211.916180364989
 30
0.0
 10
800.7058618815621
 20
1211.916180364989
 30
0.0
 10
800.9444982451984
 20
1211.866269467749
 30
0.0
 10
801.1316640205995
 20
1211.766447744668
 30
0.0
  0
LINE
  5
60FE
330
1F
100
AcDbEntity
  8
AM_VIS
100
AcDbLine
 10
799.1711025232732
 20
1211.916180364989
 30
0.0
 11
800.4157549296904
 21
1211.916180364989
 31
0.0
  0
LINE
  5
60FF
330
1F
100
AcDbEntity
  8
AM_VIS
100
AcDbLine
 10
799.1711025232732
 20
1211.822597477288
 30
0.0
 11
799.1711025232732
 21
1211.916180364989
 31
0.0
  0
SPLINE
  5
6100
330
1F
100
AcDbEntity
  8
AM_VIS
100
AcDbSpline
210
0.0
220
0.0
230
1.0
 70
     8
 71
     3
 72
     8
 73
     4
 74
     0
 42
0.0000000001
 43
0.0000000001
 40
0.0
 40
0.0
 40
0.0
 40
0.0
 40
80.0
 40
80.0
 40
80.0
 40
80.0
 10
799.5173592077653
 20
1211.700939723278
 30
0.0
 10
799.4612094751451
 20
1211.763328291278
 30
0.0
 10
799.3457905565149
 20
1211.803880899748
 30
0.0
 10
799.1711025232732
 20
1211.822597477288
 30
0.0
  0
SPLINE
  5
6101
330
1F
100
AcDbEntity
  8
AM_VIS
100
AcDbSpline
210
0.0
220
0.0
230
1.0
 70
     8
 71
     3
 72
     8
 73
     4
 74
     0
 42
0.0000000001
 43
0.0000000001
 40
0.0
 40
0.0
 40
0.0
 40
0.0
 40
80.0
 40
80.0
 40
80.0
 40
80.0
 10
799.6203003842358
 20
1211.29385416178
 30
0.0
 10
799.6203003128377
 20
1211.490378225951
 30
0.0
 10
799.585986611147
 20
1211.626073413117
 30
0.0
 10
799.5173592077653
 20
1211.700939723278
 30
0.0
  0
LINE
  5
6102
330
1F
100
AcDbEntity
  8
AM_VIS
100
AcDbLine
 10
799.6203003842358
 20
1209.150806033438
 30
0.0
 11
799.6203003842358
 21
1211.29385416178
 31
0.0
  0
SPLINE
  5
6103
330
1F
100
AcDbEntity
  8
AM_VIS
100
AcDbSpline
210
0.0
220
0.0
230
1.0
 70
     8
 71
     3
 72
     8
 73
     4
 74
     0
 42
0.0000000001
 43
0.0000000001
 40
0.0
 40
0.0
 40
0.0
 40
0.0
 40
80.0
 40
80.0
 40
80.0
 40
80.0
 10
799.5313966409203
 20
1208.715645605631
 30
0.0
 10
799.590665755532
 20
1208.793631297782
 30
0.0
 10
799.6203003128377
 20
1208.938684773718
 30
0.0
 10
799.6203003842358
 20
1209.150806033438
 30
0.0
  0
SPLINE
  5
6104
330
1F
100
AcDbEntity
  8
AM_VIS
100
AcDbSpline
210
0.0
220
0.0
230
1.0
 70
     8
 71
     3
 72
     8
 73
     4
 74
     0
 42
0.0000000001
 43
0.0000000001
 40
0.0
 40
0.0
 40
0.0
 40
0.0
 40
80.0
 40
80.0
 40
80.0
 40
80.0
 10
799.1711025232732
 20
1208.56591298531
 30
0.0
 10
799.3520293918956
 20
1208.58462956285
 30
0.0
 10
799.4721274549106
 20
1208.634540460089
 30
0.0
 10
799.5313966409203
 20
1208.715645605631
 30
0.0
  0
LINE
  5
6105
330
1F
100
AcDbEntity
  8
AM_VIS
100
AcDbLine
 10
799.1711025232732
 20
1208.472330097609
 30
0.0
 11
799.1711025232732
 21
1208.56591298531
 31
0.0
  0
LINE
  5
6106
330
1F
100
AcDbEntity
  8
AM_VIS
100
AcDbLine
 10
800.3876800633802
 20
1208.56591298531
 30
0.0
 11
800.3876800633802
 21
1208.472330097609
 31
0.0
  0
SPLINE
  5
6107
330
1F
100
AcDbEntity
  8
AM_VIS
100
AcDbSpline
210
0.0
220
0.0
230
1.0
 70
     8
 71
     3
 72
     8
 73
     4
 74
     0
 42
0.0000000001
 43
0.0000000001
 40
0.0
 40
0.0
 40
0.0
 40
0.0
 40
80.0
 40
80.0
 40
80.0
 40
80.0
 10
800.0180276569631
 20
1208.69692902809
 30
0.0
 10
800.0835356069554
 20
1208.625182171319
 30
0.0
 10
800.2067531233599
 20
1208.581510180859
 30
0.0
 10
800.3876800633802
 20
1208.56591298531
 30
0.0
  0
SPLINE
  5
6108
330
1F
100
AcDbEntity
  8
AM_VIS
100
AcDbSpline
210
0.0
220
0.0
230
1.0
 70
     8
 71
     3
 72
     8
 73
     4
 74
     0
 42
0.0000000001
 43
0.0000000001
 40
0.0
 40
0.0
 40
0.0
 40
0.0
 40
80.0
 40
80.0
 40
80.0
 40
80.0
 10
799.9150864804926
 20
1209.085298012048
 30
0.0
 10
799.9150864804926
 20
1208.901251618638
 30
0.0
 10
799.9494001821833
 20
1208.771795338251
 30
0.0
 10
800.0180276569631
 20
1208.69692902809
 30
0.0
  0
LINE
  5
6109
330
1F
100
AcDbEntity
  8
AM_VIS
100
AcDbLine
 10
799.9150864804926
 20
1210.086634910443
 30
0.0
 11
799.9150864804926
 21
1209.085298012048
 31
0.0
  0
LINE
  5
610A
330
1F
100
AcDbEntity
  8
AM_VIS
100
AcDbLine
 10
800.3081346088348
 20
1210.105351487984
 30
0.0
 11
799.9150864804926
 21
1210.086634910443
 31
0.0
  0
LINE
  5
610B
330
1F
100
AcDbEntity
  8
AM_VIS
100
AcDbLine
 10
801.4170918280861
 20
1208.472330097609
 30
0.0
 11
800.3081346088348
 21
1210.105351487984
 31
0.0
  0
LINE
  5
610C
330
1F
100
AcDbEntity
  8
AM_VIS
100
AcDbLine
 10
841.0463030579617
 20
1209.152756196144
 30
0.0
 11
840.8039595160175
 21
1208.472330097609
 31
0.0
  0
LINE
  5
610D
330
1F
100
AcDbEntity
  8
AM_VIS
100
AcDbLine
 10
840.9530940033677
 20
1209.152756196144
 30
0.0
 11
841.0463030579617
 21
1209.152756196144
 31
0.0
  0
SPLINE
  5
610E
330
1F
100
AcDbEntity
  8
AM_VIS
100
AcDbSpline
210
0.0
220
0.0
230
1.0
 70
     8
 71
     3
 72
     8
 73
     4
 74
     0
 42
0.0000000001
 43
0.0000000001
 40
0.0
 40
0.0
 40
0.0
 40
0.0
 40
80.0
 40
80.0
 40
80.0
 40
80.0
 10
840.7387131778021
 20
1208.817203599606
 30
0.0
 10
840.7915316183675
 20
1208.863808055791
 30
0.0
 10
840.8629918698519
 20
1208.975658992416
 30
0.0
 10
840.9530940033677
 20
1209.152756196144
 30
0.0
  0
SPLINE
  5
610F
330
1F
100
AcDbEntity
  8
AM_VIS
100
AcDbSpline
210
0.0
220
0.0
230
1.0
 70
     8
 71
     3
 72
     8
 73
     4
 74
     0
 42
0.0000000001
 43
0.0000000001
 40
0.0
 40
0.0
 40
0.0
 40
0.0
 40
80.0
 40
80.0
 40
80.0
 40
80.0
 10
840.5010300885876
 20
1208.728654997742
 30
0.0
 10
840.603560048641
 20
1208.728654997742
 30
0.0
 10
840.6827877450457
 20
1208.75817117466
 30
0.0
 10
840.7387131778021
 20
1208.817203599606
 30
0.0
  0
LINE
  5
6110
330
1F
100
AcDbEntity
  8
AM_VIS
100
AcDbLine
 10
839.4570886771361
 20
1208.728654997742
 30
0.0
 11
840.5010300885876
 21
1208.728654997742
 31
0.0
  0
LINE
  5
6111
330
1F
100
AcDbEntity
  8
AM_VIS
100
AcDbLine
 10
840.3285933375888
 20
1209.791238220112
 30
0.0
 11
839.4570886771361
 21
1208.728654997742
 31
0.0
  0
SPLINE
  5
6112
330
1F
100
AcDbEntity
  8
AM_VIS
100
AcDbSpline
210
0.0
220
0.0
230
1.0
 70
     8
 71
     3
 72
     8
 73
     4
 74
     0
 42
0.0000000001
 43
0.0000000001
 40
0.0
 40
0.0
 40
0.0
 40
0.0
 40
80.0
 40
80.0
 40
80.0
 40
80.0
 10
840.8179408742066
 20
1211.04956045713
 30
0.0
 10
840.8179408742066
 20
1210.605263916157
 30
0.0
 10
840.6548250286675
 20
1210.185823170485
 30
0.0
 10
840.3285933375888
 20
1209.791238220112
 30
0.0
  0
SPLINE
  5
6113
330
1F
100
AcDbEntity
  8
AM_VIS
100
AcDbSpline
210
0.0
220
0.0
230
1.0
 70
     8
 71
     3
 72
     8
 73
     4
 74
     0
 42
0.0000000001
 43
0.0000000001
 40
0.0
 40
0.0
 40
0.0
 40
0.0
 40
80.0
 40
80.0
 40
80.0
 40
80.0
 10
840.5662764268033
 20
1211.729986555665
 30
0.0
 10
840.7340527250724
 20
1211.549782359746
 30
0.0
 10
840.8179408742066
 20
1211.32297363653
 30
0.0
 10
840.8179408742066
 20
1211.04956045713
 30
0.0
  0
SPLINE
  5
6114
330
1F
100
AcDbEntity
  8
AM_VIS
100
AcDbSpline
210
0.0
220
0.0
230
1.0
 70
     8
 71
     3
 72
     8
 73
     4
 74
     0
 42
0.0000000001
 43
0.0000000001
 40
0.0
 40
0.0
 40
0.0
 40
0.0
 40
80.0
 40
80.0
 40
80.0
 40
80.0
 10
840.0023616465102
 20
1211.972330097609
 30
0.0
 10
840.2229563853449
 20
1211.972330097609
 30
0.0
 10
840.4109279550716
 20
1211.891548869553
 30
0.0
 10
840.5662764268033
 20
1211.729986555665
 30
0.0
  0
SPLINE
  5
6115
330
1F
100
AcDbEntity
  8
AM_VIS
100
AcDbSpline
210
0.0
220
0.0
230
1.0
 70
     8
 71
     3
 72
     8
 73
     4
 74
     0
 42
0.0000000001
 43
0.0000000001
 40
0.0
 40
0.0
 40
0.0
 40
0.0
 40
80.0
 40
80.0
 40
80.0
 40
80.0
 10
839.4431073189471
 20
1211.757949272043
 30
0.0
 10
839.6015627117566
 20
1211.900869775012
 30
0.0
 10
839.7879808209445
 20
1211.972330097609
 30
0.0
 10
840.0023616465102
 20
1211.972330097609
 30
0.0
  0
SPLINE
  5
6116
330
1F
100
AcDbEntity
  8
AM_VIS
100
AcDbSpline
210
0.0
220
0.0
230
1.0
 70
     8
 71
     3
 72
     8
 73
     4
 74
     0
 42
0.0000000001
 43
0.0000000001
 40
0.0
 40
0.0
 40
0.0
 40
0.0
 40
80.0
 40
80.0
 40
80.0
 40
80.0
 10
839.0656106478418
 20
1210.970332760725
 30
0.0
 10
839.1277499938668
 20
1211.324527168182
 30
0.0
 10
839.2535822175686
 20
1211.587065981583
 30
0.0
 10
839.4431073189471
 20
1211.757949272043
 30
0.0
  0
LINE
  5
6117
330
1F
100
AcDbEntity
  8
AM_VIS
100
AcDbLine
 10
839.1588197024358
 20
1210.956351402536
 30
0.0
 11
839.0656106478418
 21
1210.970332760725
 31
0.0
  0
SPLINE
  5
6118
330
1F
100
AcDbEntity
  8
AM_VIS
100
AcDbSpline
210
0.0
220
0.0
230
1.0
 70
     8
 71
     3
 72
     8
 73
     4
 74
     0
 42
0.0000000001
 43
0.0000000001
 40
0.0
 40
0.0
 40
0.0
 40
0.0
 40
80.0
 40
80.0
 40
80.0
 40
80.0
 10
839.3638796225422
 20
1211.450359391883
 30
0.0
 10
839.3265960007047
 20
1211.388219974745
 30
0.0
 10
839.2582426702983
 20
1211.223550668667
 30
0.0
 10
839.1588197024358
 20
1210.956351402536
 30
0.0
  0
SPLINE
  5
6119
330
1F
100
AcDbEntity
  8
AM_VIS
100
AcDbSpline
210
0.0
220
0.0
230
1.0
 70
     8
 71
     3
 72
     8
 73
     4
 74
     0
 42
0.0000000001
 43
0.0000000001
 40
0.0
 40
0.0
 40
0.0
 40
0.0
 40
80.0
 40
80.0
 40
80.0
 40
80.0
 10
839.8019621791336
 20
1211.725326102935
 30
0.0
 10
839.6217579832143
 20
1211.725326102935
 30
0.0
 10
839.4757304880549
 20
1211.633670508881
 30
0.0
 10
839.3638796225422
 20
1211.450359391883
 30
0.0
  0
SPLINE
  5
611A
330
1F
100
AcDbEntity
  8
AM_VIS
100
AcDbSpline
210
0.0
220
0.0
230
1.0
 70
     8
 71
     3
 72
     8
 73
     4
 74
     0
 42
0.0000000001
 43
0.0000000001
 40
0.0
 40
0.0
 40
0.0
 40
0.0
 40
80.0
 40
80.0
 40
80.0
 40
80.0
 10
840.389179223075
 20
1211.413075770046
 30
0.0
 10
840.2524725622621
 20
1211.62124261123
 30
0.0
 10
840.0567335476148
 20
1211.725326102935
 30
0.0
 10
839.8019621791336
 20
1211.725326102935
 30
0.0
  0
SPLINE
  5
611B
330
1F
100
AcDbEntity
  8
AM_VIS
100
AcDbSpline
210
0.0
220
0.0
230
1.0
 70
     8
 71
     3
 72
     8
 73
     4
 74
     0
 42
0.0000000001
 43
0.0000000001
 40
0.0
 40
0.0
 40
0.0
 40
0.0
 40
80.0
 40
80.0
 40
80.0
 40
80.0
 10
840.5429741631548
 20
1210.867802800672
 30
0.0
 10
840.5554019896921
 20
1211.063541815319
 30
0.0
 10
840.5041370096656
 20
1211.245299471777
 30
0.0
 10
840.389179223075
 20
1211.413075770046
 30
0.0
  0
SPLINE
  5
611C
330
1F
100
AcDbEntity
  8
AM_VIS
100
AcDbSpline
210
0.0
220
0.0
230
1.0
 70
     8
 71
     3
 72
     8
 73
     4
 74
     0
 42
0.0000000001
 43
0.0000000001
 40
0.0
 40
0.0
 40
0.0
 40
0.0
 40
80.0
 40
80.0
 40
80.0
 40
80.0
 10
839.8625480646193
 20
1209.483648339953
 30
0.0
 10
840.2913097157513
 20
1210.008725966756
 30
0.0
 10
840.5181183678546
 20
1210.470110786996
 30
0.0
 10
840.5429741631548
 20
1210.867802800672
 30
0.0
  0
LINE
  5
611D
330
1F
100
AcDbEntity
  8
AM_VIS
100
AcDbLine
 10
839.0516292896528
 20
1208.495632361258
 30
0.0
 11
839.8625480646193
 21
1209.483648339953
 31
0.0
  0
LINE
  5
611E
330
1F
100
AcDbEntity
  8
AM_VIS
100
AcDbLine
 10
839.0516292896528
 20
1208.472330097609
 30
0.0
 11
839.0516292896528
 21
1208.495632361258
 31
0.0
  0
SPLINE
  5
611F
330
1F
100
AcDbEntity
  8
AM_VIS
100
AcDbSpline
210
0.0
220
0.0
230
1.0
 70
     8
 71
     3
 72
     8
 73
     4
 74
     0
 42
0.0000000001
 43
0.0000000001
 40
0.0
 40
0.0
 40
0.0
 40
0.0
 40
80.0
 40
80.0
 40
80.0
 40
80.0
 10
838.0379808209445
 20
1211.012276835292
 30
0.0
 10
838.0379807498316
 20
1211.33540153418
 30
0.0
 10
837.8950602468629
 20
1211.551335820285
 30
0.0
 10
837.6092191698125
 20
1211.66007976472
 30
0.0
  0
SPLINE
  5
6120
330
1F
100
AcDbEntity
  8
AM_VIS
100
AcDbSpline
210
0.0
220
0.0
230
1.0
 70
     8
 71
     3
 72
     8
 73
     4
 74
     0
 42
0.0000000001
 43
0.0000000001
 40
0.0
 40
0.0
 40
0.0
 40
0.0
 40
80.0
 40
80.0
 40
80.0
 40
80.0
 10
837.5486332843266
 20
1210.341171642216
 30
0.0
 10
837.8748649042922
 20
1210.456129428807
 30
0.0
 10
838.0379807498316
 20
1210.679831159832
 30
0.0
 10
838.0379808209445
 20
1211.012276835292
 30
0.0
  0
SPLINE
  5
6121
330
1F
100
AcDbEntity
  8
AM_VIS
100
AcDbSpline
210
0.0
220
0.0
230
1.0
 70
     8
 71
     3
 72
     8
 73
     4
 74
     0
 42
0.0000000001
 43
0.0000000001
 40
0.0
 40
0.0
 40
0.0
 40
0.0
 40
80.0
 40
80.0
 40
80.0
 40
80.0
 10
836.7377145093598
 20
1210.243302134893
 30
0.0
 10
837.1074437355446
 20
1210.246409055971
 30
0.0
 10
837.3777499938668
 20
1210.279032225078
 30
0.0
 10
837.5486332843266
 20
1210.341171642216
 30
0.0
  0
LINE
  5
6122
330
1F
100
AcDbEntity
  8
AM_VIS
100
AcDbLine
 10
836.7377145093598
 20
1211.520266182829
 30
0.0
 11
836.7377145093598
 21
1210.243302134893
 31
0.0
  0
SPLINE
  5
6123
330
1F
100
AcDbEntity
  8
AM_VIS
100
AcDbSpline
210
0.0
220
0.0
230
1.0
 70
     8
 71
     3
 72
     8
 73
     4
 74
     0
 42
0.0000000001
 43
0.0000000001
 40
0.0
 40
0.0
 40
0.0
 40
0.0
 40
80.0
 40
80.0
 40
80.0
 40
80.0
 10
836.812281753035
 20
1211.711344744746
 30
0.0
 10
836.7625702335473
 20
1211.680275036177
 30
0.0
 10
836.7377145093598
 20
1211.6165821585
 30
0.0
 10
836.7377145093598
 20
1211.520266182829
 30
0.0
  0
SPLINE
  5
6124
330
1F
100
AcDbEntity
  8
AM_VIS
100
AcDbSpline
210
0.0
220
0.0
230
1.0
 70
     8
 71
     3
 72
     8
 73
     4
 74
     0
 42
0.0000000001
 43
0.0000000001
 40
0.0
 40
0.0
 40
0.0
 40
0.0
 40
80.0
 40
80.0
 40
80.0
 40
80.0
 10
837.0453043895198
 20
1211.743967913854
 30
0.0
 10
836.9210256263567
 20
1211.737753929473
 30
0.0
 10
836.8433513904911
 20
1211.726879563474
 30
0.0
 10
836.812281753035
 20
1211.711344744746
 30
0.0
  0
SPLINE
  5
6125
330
1F
100
AcDbEntity
  8
AM_VIS
100
AcDbSpline
210
0.0
220
0.0
230
1.0
 70
     8
 71
     3
 72
     8
 73
     4
 74
     0
 42
0.0000000001
 43
0.0000000001
 40
0.0
 40
0.0
 40
0.0
 40
0.0
 40
80.0
 40
80.0
 40
80.0
 40
80.0
 10
837.6092191698125
 20
1211.66007976472
 30
0.0
 10
837.4476567848123
 20
1211.728433024013
 30
0.0
 10
837.2596852150854
 20
1211.756395740392
 30
0.0
 10
837.0453043895198
 20
1211.743967913854
 30
0.0
  0
LINE
  5
6126
330
1F
100
AcDbEntity
  8
AM_VIS
100
AcDbLine
 10
838.8768623122894
 20
1208.565539152203
 30
0.0
 11
838.8768623122894
 21
1208.472330097609
 31
0.0
  0
SPLINE
  5
6127
330
1F
100
AcDbEntity
  8
AM_VIS
100
AcDbSpline
210
0.0
220
0.0
230
1.0
 70
     8
 71
     3
 72
     8
 73
     4
 74
     0
 42
0.0000000001
 43
0.0000000001
 40
0.0
 40
0.0
 40
0.0
 40
0.0
 40
80.0
 40
80.0
 40
80.0
 40
80.0
 10
838.438779755698
 20
1208.751957261391
 30
0.0
 10
838.5009191017232
 20
1208.655641285719
 30
0.0
 10
838.6469465968826
 20
1208.593501868581
 30
0.0
 10
838.8768623122894
 20
1208.565539152203
 30
0.0
  0
LINE
  5
6128
330
1F
100
AcDbEntity
  8
AM_VIS
100
AcDbLine
 10
837.4973683042998
 20
1210.150093080299
 30
0.0
 11
838.438779755698
 21
1208.751957261391
 31
0.0
  0
SPLINE
  5
6129
330
1F
100
AcDbEntity
  8
AM_VIS
100
AcDbSpline
210
0.0
220
0.0
230
1.0
 70
     8
 71
     3
 72
     8
 73
     4
 74
     0
 42
0.0000000001
 43
0.0000000001
 40
0.0
 40
0.0
 40
0.0
 40
0.0
 40
80.0
 40
80.0
 40
80.0
 40
80.0
 10
838.0333203682148
 20
1210.341171642216
 30
0.0
 10
837.9090416050519
 20
1210.257283493082
 30
0.0
 10
837.7303909407846
 20
1210.193590615405
 30
0.0
 10
837.4973683042998
 20
1210.150093080299
 30
0.0
  0
SPLINE
  5
612A
330
1F
100
AcDbEntity
  8
AM_VIS
100
AcDbSpline
210
0.0
220
0.0
230
1.0
 70
     8
 71
     3
 72
     8
 73
     4
 74
     0
 42
0.0000000001
 43
0.0000000001
 40
0.0
 40
0.0
 40
0.0
 40
0.0
 40
80.0
 40
80.0
 40
80.0
 40
80.0
 10
838.3642125120228
 20
1211.002955929833
 30
0.0
 10
838.3642125120228
 20
1210.70779387621
 30
0.0
 10
838.2539151070494
 20
1210.487199137376
 30
0.0
 10
838.0333203682148
 20
1210.341171642216
 30
0.0
  0
SPLINE
  5
612B
330
1F
100
AcDbEntity
  8
AM_VIS
100
AcDbSpline
210
0.0
220
0.0
230
1.0
 70
     8
 71
     3
 72
     8
 73
     4
 74
     0
 42
0.0000000001
 43
0.0000000001
 40
0.0
 40
0.0
 40
0.0
 40
0.0
 40
80.0
 40
80.0
 40
80.0
 40
80.0
 10
837.9494322190803
 20
1211.753288819314
 30
0.0
 10
838.2259523906711
 20
1211.604154331963
 30
0.0
 10
838.3642125120228
 20
1211.354043345099
 30
0.0
 10
838.3642125120228
 20
1211.002955929833
 30
0.0
  0
SPLINE
  5
612C
330
1F
100
AcDbEntity
  8
AM_VIS
100
AcDbSpline
210
0.0
220
0.0
230
1.0
 70
     8
 71
     3
 72
     8
 73
     4
 74
     0
 42
0.0000000001
 43
0.0000000001
 40
0.0
 40
0.0
 40
0.0
 40
0.0
 40
80.0
 40
80.0
 40
80.0
 40
80.0
 10
837.2363829514371
 20
1211.902423306664
 30
0.0
 10
837.5253310206781
 20
1211.902423306664
 30
0.0
 10
837.7630141098926
 20
1211.852711787176
 30
0.0
 10
837.9494322190803
 20
1211.753288819314
 30
0.0
  0
LINE
  5
612D
330
1F
100
AcDbEntity
  8
AM_VIS
100
AcDbLine
 10
835.9967025253386
 20
1211.902423306664
 30
0.0
 11
837.2363829514371
 21
1211.902423306664
 31
0.0
  0
LINE
  5
612E
330
1F
100
AcDbEntity
  8
AM_VIS
100
AcDbLine
 10
835.9967025253386
 20
1211.80921425207
 30
0.0
 11
835.9967025253386
 21
1211.902423306664
 31
0.0
  0
SPLINE
  5
612F
330
1F
100
AcDbEntity
  8
AM_VIS
100
AcDbSpline
210
0.0
220
0.0
230
1.0
 70
     8
 71
     3
 72
     8
 73
     4
 74
     0
 42
0.0000000001
 43
0.0000000001
 40
0.0
 40
0.0
 40
0.0
 40
0.0
 40
80.0
 40
80.0
 40
80.0
 40
80.0
 10
836.341576027336
 20
1211.688042481098
 30
0.0
 10
836.2856505945796
 20
1211.750181827123
 30
0.0
 10
836.1706927368761
 20
1211.790572441151
 30
0.0
 10
835.9967025253386
 20
1211.80921425207
 30
0.0
  0
SPLINE
  5
6130
330
1F
100
AcDbEntity
  8
AM_VIS
100
AcDbSpline
210
0.0
220
0.0
230
1.0
 70
     8
 71
     3
 72
     8
 73
     4
 74
     0
 42
0.0000000001
 43
0.0000000001
 40
0.0
 40
0.0
 40
0.0
 40
0.0
 40
80.0
 40
80.0
 40
80.0
 40
80.0
 10
836.4441059873891
 20
1211.282583093615
 30
0.0
 10
836.4441059162764
 20
1211.478322108261
 30
0.0
 10
836.4099292866294
 20
1211.613475237423
 30
0.0
 10
836.341576027336
 20
1211.688042481098
 30
0.0
  0
LINE
  5
6131
330
1F
100
AcDbEntity
  8
AM_VIS
100
AcDbLine
 10
836.4441059873891
 20
1209.148095743415
 30
0.0
 11
836.4441059873891
 21
1211.282583093615
 31
0.0
  0
SPLINE
  5
6132
330
1F
100
AcDbEntity
  8
AM_VIS
100
AcDbSpline
210
0.0
220
0.0
230
1.0
 70
     8
 71
     3
 72
     8
 73
     4
 74
     0
 42
0.0000000001
 43
0.0000000001
 40
0.0
 40
0.0
 40
0.0
 40
0.0
 40
80.0
 40
80.0
 40
80.0
 40
80.0
 10
836.3555573855249
 20
1208.714673639553
 30
0.0
 10
836.4145897393591
 20
1208.792347804306
 30
0.0
 10
836.4441059162764
 20
1208.936821838927
 30
0.0
 10
836.4441059873891
 20
1209.148095743415
 30
0.0
  0
SPLINE
  5
6133
330
1F
100
AcDbEntity
  8
AM_VIS
100
AcDbSpline
210
0.0
220
0.0
230
1.0
 70
     8
 71
     3
 72
     8
 73
     4
 74
     0
 42
0.0000000001
 43
0.0000000001
 40
0.0
 40
0.0
 40
0.0
 40
0.0
 40
80.0
 40
80.0
 40
80.0
 40
80.0
 10
835.9967025253386
 20
1208.565539152203
 30
0.0
 10
836.1769066501448
 20
1208.584180963122
 30
0.0
 10
836.2965249605778
 20
1208.633892482609
 30
0.0
 10
836.3555573855249
 20
1208.714673639553
 30
0.0
  0
LINE
  5
6134
330
1F
100
AcDbEntity
  8
AM_VIS
100
AcDbLine
 10
835.9967025253386
 20
1208.472330097609
 30
0.0
 11
835.9967025253386
 21
1208.565539152203
 31
0.0
  0
LINE
  5
6135
330
1F
100
AcDbEntity
  8
AM_VIS
100
AcDbLine
 10
837.208420235059
 20
1208.565539152203
 30
0.0
 11
837.208420235059
 21
1208.472330097609
 31
0.0
  0
SPLINE
  5
6136
330
1F
100
AcDbEntity
  8
AM_VIS
100
AcDbSpline
210
0.0
220
0.0
230
1.0
 70
     8
 71
     3
 72
     8
 73
     4
 74
     0
 42
0.0000000001
 43
0.0000000001
 40
0.0
 40
0.0
 40
0.0
 40
0.0
 40
80.0
 40
80.0
 40
80.0
 40
80.0
 10
836.8402444694131
 20
1208.696031828634
 30
0.0
 10
836.9054907365159
 20
1208.62457157715
 30
0.0
 10
837.0282160391397
 20
1208.581074042044
 30
0.0
 10
837.208420235059
 20
1208.565539152203
 30
0.0
  0
SPLINE
  5
6137
330
1F
100
AcDbEntity
  8
AM_VIS
100
AcDbSpline
210
0.0
220
0.0
230
1.0
 70
     8
 71
     3
 72
     8
 73
     4
 74
     0
 42
0.0000000001
 43
0.0000000001
 40
0.0
 40
0.0
 40
0.0
 40
0.0
 40
80.0
 40
80.0
 40
80.0
 40
80.0
 10
836.7377145093598
 20
1209.082849405199
 30
0.0
 10
836.7377145093598
 20
1208.899538217089
 30
0.0
 10
836.7718911390065
 20
1208.770599072309
 30
0.0
 10
836.8402444694131
 20
1208.696031828634
 30
0.0
  0
LINE
  5
6138
330
1F
100
AcDbEntity
  8
AM_VIS
100
AcDbLine
 10
836.7377145093598
 20
1210.080186289353
 30
0.0
 11
836.7377145093598
 21
1209.082849405199
 31
0.0
  0
LINE
  5
6139
330
1F
100
AcDbEntity
  8
AM_VIS
100
AcDbLine
 10
837.1291925386541
 20
1210.098828100272
 30
0.0
 11
836.7377145093598
 21
1210.080186289353
 31
0.0
  0
LINE
  5
613A
330
1F
100
AcDbEntity
  8
AM_VIS
100
AcDbLine
 10
838.2337198355914
 20
1208.472330097609
 30
0.0
 11
837.1291925386541
 21
1210.098828100272
 31
0.0
  0
ENDSEC
  0
SECTION
  2
OBJECTS
  0
DICTIONARY
  5
C
330
0
100
AcDbDictionary
281
     1
  3
ACAD_COLOR
350
BE
  3
ACAD_GROUP
350
D
  3
ACAD_LAYOUT
350
1A
  3
ACAD_MATERIAL
350
BD
  3
ACAD_MLINESTYLE
350
17
  3
ACAD_PLOTSETTINGS
350
19
  3
ACAD_PLOTSTYLENAME
350
E
  3
ACAD_TABLESTYLE
350
11A
  3
AcDbVariableDictionary
350
94
  3
AcmDictionary
350
5B
  3
AMG
350
41
  3
AMGSNAPSETTINGS
350
1B8
  0
DICTIONARY
  5
3F9
330
2
100
AcDbDictionary
280
     1
281
     1
  3
ACAD_LAYERFILTERS
360
5406
  3
ACAD_LAYERSTATES
360
A25
  3
ACLYDICTIONARY
360
5405
  0
DICTIONARY
  5
8F
330
1F
100
AcDbDictionary
280
     1
281
     1
  0
DICTIONARY
  5
4F51
330
4F44
100
AcDbDictionary
280
     1
281
     1
  3
ACAD_DIMASSOC
360
4F52
  0
DICTIONARY
  5
4F77
330
4F6A
100
AcDbDictionary
280
     1
281
     1
  3
ACAD_DIMASSOC
360
4F78
  0
DICTIONARY
  5
4F9D
330
4F90
100
AcDbDictionary
280
     1
281
     1
  3
ACAD_DIMASSOC
360
4F9E
  0
DICTIONARY
  5
4FC3
330
4FB6
100
AcDbDictionary
280
     1
281
     1
  3
ACAD_DIMASSOC
360
4FC4
  0
DICTIONARY
  5
5011
330
5004
100
AcDbDictionary
280
     1
281
     1
  3
ACAD_DIMASSOC
360
5012
  0
DICTIONARY
  5
5037
330
502A
100
AcDbDictionary
280
     1
281
     1
  3
ACAD_DIMASSOC
360
5038
  0
DICTIONARY
  5
505D
330
5050
100
AcDbDictionary
280
     1
281
     1
  3
ACAD_DIMASSOC
360
505E
  0
DICTIONARY
  5
5083
330
5076
100
AcDbDictionary
280
     1
281
     1
  3
ACAD_DIMASSOC
360
5084
  0
DICTIONARY
  5
50CF
330
50C2
100
AcDbDictionary
280
     1
281
     1
  3
ACAD_DIMASSOC
360
50D0
  0
DICTIONARY
  5
50F5
330
50E8
100
AcDbDictionary
280
     1
281
     1
  3
ACAD_DIMASSOC
360
50F6
  0
DICTIONARY
  5
511B
330
510E
100
AcDbDictionary
280
     1
281
     1
  3
ACAD_DIMASSOC
360
511C
  0
DICTIONARY
  5
5141
330
5134
100
AcDbDictionary
280
     1
281
     1
  3
ACAD_DIMASSOC
360
5142
  0
DICTIONARY
  5
5169
330
515A
100
AcDbDictionary
280
     1
281
     1
  3
ACAD_DIMASSOC
360
516A
  0
DICTIONARY
  5
5193
330
5184
100
AcDbDictionary
280
     1
281
     1
  3
ACAD_DIMASSOC
360
5194
  0
DICTIONARY
  5
BE
102
{ACAD_REACTORS
330
C
102
}
330
C
100
AcDbDictionary
281
     1
  0
DICTIONARY
  5
D
102
{ACAD_REACTORS
330
C
102
}
330
C
100
AcDbDictionary
281
     1
  0
DICTIONARY
  5
1A
102
{ACAD_REACTORS
330
C
102
}
330
C
100
AcDbDictionary
281
     1
  3
Model
350
22
  3
配置1
350
1E
  3
配置2
350
26
  0
DICTIONARY
  5
BD
102
{ACAD_REACTORS
330
C
102
}
330
C
100
AcDbDictionary
281
     1
  0
DICTIONARY
  5
17
102
{ACAD_REACTORS
330
C
102
}
330
C
100
AcDbDictionary
281
     1
  3
Standard
350
18
  0
DICTIONARY
  5
19
102
{ACAD_REACTORS
330
C
102
}
330
C
100
AcDbDictionary
281
     1
  0
ACDBDICTIONARYWDFLT
  5
E
102
{ACAD_REACTORS
330
C
102
}
330
C
100
AcDbDictionary
281
     1
  3
Normal
350
F
100
AcDbDictionaryWithDefault
340
F
  0
DICTIONARY
  5
11A
102
{ACAD_REACTORS
330
C
102
}
330
C
100
AcDbDictionary
281
     1
  3
Standard
350
11B
  0
DICTIONARY
  5
94
102
{ACAD_REACTORS
330
C
102
}
330
C
100
AcDbDictionary
281
     1
  3
CTABLESTYLE
350
138
  3
DIMASSOC
350
96
  3
INDEXCTL
350
95
  3
PROJECTNAME
350
4279
  0
DICTIONARY
  5
5B
102
{ACAD_REACTORS
330
C
102
}
330
C
100
AcDbDictionary
281
     1
  3
AcmBOM
350
1B5
  3
AcmStdDictionary
350
61
  3
AMDTSECTSYM_ARROWCOLOR
350
123
  0
DICTIONARY
  5
41
102
{ACAD_REACTORS
330
C
102
}
330
C
100
AcDbDictionary
281
     1
  0
DICTIONARY
  5
1B8
102
{ACAD_REACTORS
330
C
102
}
330
C
100
AcDbDictionary
281
     1
  0
DICTIONARY
  5
5406
102
{ACAD_REACTORS
330
3F9
102
}
330
3F9
100
AcDbDictionary
281
     1
  0
DICTIONARY
  5
A25
102
{ACAD_REACTORS
330
3F9
102
}
330
3F9
100
AcDbDictionary
281
     1
  0
DICTIONARY
  5
5405
102
{ACAD_REACTORS
330
3F9
102
}
330
3F9
100
AcDbDictionary
281
     1
1001
ACAD
1000
<All
  0
DIMASSOC
  5
4F52
102
{ACAD_REACTORS
330
4F51
102
}
330
4F51
100
AcDbDimAssoc
330
4F44
 90
        3
 70
     0
 71
     0
  1
AcDbOsnapPointRef
 72
     1
331
4F04
 73
     0
 91
        0
 40
0.0
 10
0.0
 20
0.0
 30
2.000000000000000E+50
 75
     0
  1
AcDbOsnapPointRef
 72
     1
331
4F08
 73
     0
 91
        0
 40
0.0
 10
0.0
 20
0.0
 30
2.000000000000000E+50
 75
     0
  0
DIMASSOC
  5
4F78
102
{ACAD_REACTORS
330
4F77
102
}
330
4F77
100
AcDbDimAssoc
330
4F6A
 90
        3
 70
     0
 71
     0
  1
AcDbOsnapPointRef
 72
     1
331
4F08
 73
     0
 91
        0
 40
0.0
 10
0.0
 20
0.0
 30
2.000000000000000E+50
 75
     0
  1
AcDbOsnapPointRef
 72
     1
331
4F0C
 73
     0
 91
        0
 40
0.0
 10
0.0
 20
0.0
 30
2.000000000000000E+50
 75
     0
  0
DIMASSOC
  5
4F9E
102
{ACAD_REACTORS
330
4F9D
102
}
330
4F9D
100
AcDbDimAssoc
330
4F90
 90
        2
 70
     0
 71
     0
  1
AcDbOsnapPointRef
 72
     1
331
4EFC
 73
     0
 91
        0
 40
0.0
 10
0.0
 20
0.0
 30
2.000000000000000E+50
 75
     0
  0
DIMASSOC
  5
4FC4
102
{ACAD_REACTORS
330
4FC3
102
}
330
4FC3
100
AcDbDimAssoc
330
4FB6
 90
        3
 70
     0
 71
     0
  1
AcDbOsnapPointRef
 72
     1
331
4EFC
 73
     0
 91
        0
 40
0.0
 10
0.0
 20
0.0
 30
2.000000000000000E+50
 75
     0
  1
AcDbOsnapPointRef
 72
     1
331
4F00
 73
     0
 91
        0
 40
0.0
 10
0.0
 20
0.0
 30
2.000000000000000E+50
 75
     0
  0
DIMASSOC
  5
5012
102
{ACAD_REACTORS
330
5011
102
}
330
5011
100
AcDbDimAssoc
330
5004
 90
        2
 70
     0
 71
     0
  1
AcDbOsnapPointRef
 72
     1
331
4C99
 73
     0
 91
        0
 40
0.0
 10
0.0
 20
0.0
 30
2.000000000000000E+50
 75
     0
  0
DIMASSOC
  5
5038
102
{ACAD_REACTORS
330
5037
102
}
330
5037
100
AcDbDimAssoc
330
502A
 90
        3
 70
     0
 71
     0
  1
AcDbOsnapPointRef
 72
     1
331
4C99
 73
     0
 91
        0
 40
0.0
 10
0.0
 20
0.0
 30
2.000000000000000E+50
 75
     0
  1
AcDbOsnapPointRef
 72
     1
331
4C98
 73
     0
 91
        0
 40
0.0
 10
0.0
 20
0.0
 30
2.000000000000000E+50
 75
     0
  0
DIMASSOC
  5
505E
102
{ACAD_REACTORS
330
505D
102
}
330
505D
100
AcDbDimAssoc
330
5050
 90
        3
 70
     0
 71
     0
  1
AcDbOsnapPointRef
 72
    13
331
4EC4
 73
     0
 91
        0
 40
0.0
 10
0.0
 20
0.0
 30
2.000000000000000E+50
 75
     0
  1
AcDbOsnapPointRef
 72
     1
331
4EF7
 73
     0
 91
        0
 40
0.0
 10
0.0
 20
0.0
 30
2.000000000000000E+50
 75
     0
  0
DIMASSOC
  5
5084
102
{ACAD_REACTORS
330
5083
102
}
330
5083
100
AcDbDimAssoc
330
5076
 90
        3
 70
     0
 71
     0
  1
AcDbOsnapPointRef
 72
     1
331
4F23
 73
     0
 91
        0
 40
0.0
 10
0.0
 20
0.0
 30
2.000000000000000E+50
 75
     0
  1
AcDbOsnapPointRef
 72
     1
331
4F17
 73
     0
 91
        0
 40
0.0
 10
0.0
 20
0.0
 30
2.000000000000000E+50
 75
     0
  0
DIMASSOC
  5
50D0
102
{ACAD_REACTORS
330
50CF
102
}
330
50CF
100
AcDbDimAssoc
330
50C2
 90
        3
 70
     0
 71
     0
  1
AcDbOsnapPointRef
 72
     1
331
4F1E
 73
     0
 91
        0
 40
0.0
 10
0.0
 20
0.0
 30
2.000000000000000E+50
 75
     0
  1
AcDbOsnapPointRef
 72
     1
331
4F1A
 73
     0
 91
        0
 40
0.0
 10
0.0
 20
0.0
 30
2.000000000000000E+50
 75
     0
  0
DIMASSOC
  5
50F6
102
{ACAD_REACTORS
330
50F5
102
}
330
50F5
100
AcDbDimAssoc
330
50E8
 90
        2
 70
     0
 71
     0
  1
AcDbOsnapPointRef
 72
     1
331
4F24
 73
     0
 91
        0
 40
0.0
 10
0.0
 20
0.0
 30
2.000000000000000E+50
 75
     0
  0
DIMASSOC
  5
511C
102
{ACAD_REACTORS
330
511B
102
}
330
511B
100
AcDbDimAssoc
330
510E
 90
        2
 70
     0
 71
     0
  1
AcDbOsnapPointRef
 72
     1
331
4F18
 73
     0
 91
        0
 40
0.0
 10
0.0
 20
0.0
 30
2.000000000000000E+50
 75
     0
  0
DIMASSOC
  5
5142
102
{ACAD_REACTORS
330
5141
102
}
330
5141
100
AcDbDimAssoc
330
5134
 90
        2
 70
     0
 71
     0
  1
AcDbOsnapPointRef
 72
     1
331
4F1E
 73
     0
 91
        0
 40
0.0
 10
0.0
 20
0.0
 30
2.000000000000000E+50
 75
     0
  0
DIMASSOC
  5
516A
102
{ACAD_REACTORS
330
5169
102
}
330
5169
100
AcDbDimAssoc
330
515A
 90
        2
 70
     0
 71
     0
  1
AcDbOsnapPointRef
 72
     1
331
4EFB
 73
     0
 91
        0
 40
0.0
 10
0.0
 20
0.0
 30
2.000000000000000E+50
 75
     0
  0
DIMASSOC
  5
5194
102
{ACAD_REACTORS
330
5193
102
}
330
5193
100
AcDbDimAssoc
330
5184
 90
        3
 70
     0
 71
     0
  1
AcDbOsnapPointRef
 72
     1
331
4C7E
 73
     0
 91
        0
 40
0.0
 10
0.0
 20
0.0
 30
2.000000000000000E+50
 75
     0
  1
AcDbOsnapPointRef
 72
    13
331
4C6A
 73
     0
 91
        0
 40
0.0
 10
0.0
 20
0.0
 30
2.000000000000000E+50
 75
     0
  0
LAYOUT
  5
22
102
{ACAD_REACTORS
330
1A
102
}
330
1A
100
AcDbPlotSettings
  1

  2
\\RD\EPSON Stylus C63 Series單色
  4
A4
  6

 40
3.757083177566528
 41
3.757076978683471
 42
3.757080078125
 43
3.757080078125
 44
209.9733276367187
 45
296.9683227539062
 46
0.0
 47
0.0
 48
0.0
 49
0.0
140
0.0
141
0.0
142
1.0
143
0.3405120737814363
 70
 11952
 72
     1
 73
     0
 74
     0
  7
彩色出圖.ctb
 75
     0
147
2.936753428137963
 76
     0
 77
     2
 78
   300
148
-2047.07469463503
149
-1261.649717473083
100
AcDbLayout
  1
Model
 70
     1
 71
     0
 10
0.0
 20
0.0
 11
12.0
 21
9.0
 12
0.0
 22
0.0
 32
0.0
 14
0.0
 24
0.0
 34
0.0
 15
0.0
 25
0.0
 35
0.0
146
0.0
 13
0.0
 23
0.0
 33
0.0
 16
1.0
 26
0.0
 36
0.0
 17
0.0
 27
1.0
 37
0.0
 76
     0
330
1F
1001
ACAD_PSEXT
1000
\\RD\EPSON Stylus C63 Series單色
1000
EPSON Stylus C63 Series
1000
\\RD
1000

1070
     0
  0
LAYOUT
  5
1E
102
{ACAD_REACTORS
330
1A
102
}
330
1A
100
AcDbPlotSettings
  1

  2

  4

  6

 40
0.0
 41
0.0
 42
0.0
 43
0.0
 44
0.0
 45
0.0
 46
0.0
 47
0.0
 48
0.0
 49
0.0
140
0.0
141
0.0
142
1.0
143
1.0
 70
   688
 72
     0
 73
     0
 74
     5
  7
彩色出圖.ctb
 75
    16
147
1.0
 76
     0
 77
     2
 78
   300
148
0.0
149
0.0
100
AcDbLayout
  1
配置1
 70
     1
 71
     1
 10
0.0
 20
0.0
 11
420.0
 21
297.0
 12
0.0
 22
0.0
 32
0.0
 14
1.000000000000000E+20
 24
1.000000000000000E+20
 34
1.000000000000000E+20
 15
-1.000000000000000E+20
 25
-1.000000000000000E+20
 35
-1.000000000000000E+20
146
0.0
 13
0.0
 23
0.0
 33
0.0
 16
1.0
 26
0.0
 36
0.0
 17
0.0
 27
1.0
 37
0.0
 76
     0
330
1B
  0
LAYOUT
  5
26
102
{ACAD_REACTORS
330
1A
102
}
330
1A
100
AcDbPlotSettings
  1

  2

  4

  6

 40
0.0
 41
0.0
 42
0.0
 43
0.0
 44
0.0
 45
0.0
 46
0.0
 47
0.0
 48
0.0
 49
0.0
140
0.0
141
0.0
142
1.0
143
1.0
 70
   688
 72
     0
 73
     0
 74
     5
  7
彩色出圖.ctb
 75
    16
147
1.0
 76
     0
 77
     2
 78
   300
148
0.0
149
0.0
100
AcDbLayout
  1
配置2
 70
     1
 71
     2
 10
0.0
 20
0.0
 11
12.0
 21
9.0
 12
0.0
 22
0.0
 32
0.0
 14
0.0
 24
0.0
 34
0.0
 15
0.0
 25
0.0
 35
0.0
146
0.0
 13
0.0
 23
0.0
 33
0.0
 16
1.0
 26
0.0
 36
0.0
 17
0.0
 27
1.0
 37
0.0
 76
     0
330
23
  0
MLINESTYLE
  5
18
102
{ACAD_REACTORS
330
17
102
}
330
17
100
AcDbMlineStyle
  2
STANDARD
 70
     0
  3

 62
   256
 51
90.0
 52
90.0
 71
     2
 49
0.5
 62
   256
  6
BYLAYER
 49
-0.5
 62
   256
  6
BYLAYER
  0
ACDBPLACEHOLDER
  5
F
102
{ACAD_REACTORS
330
E
102
}
330
E
  0
TABLESTYLE
  5
11B
102
{ACAD_REACTORS
330
11A
102
}
330
11A
100
AcDbTableStyle
  3
Standard
 70
     0
 71
     0
 40
1.5
 41
1.5
280
     0
281
     0
  7
STANDARD
140
4.5
170
     2
 62
     0
 63
     7
283
     0
274
    -2
284
     1
 64
     0
275
    -2
285
     1
 65
     0
276
    -2
286
     1
 66
     0
277
    -2
287
     1
 67
     0
278
    -2
288
     1
 68
     0
279
    -2
289
     1
 69
     0
  7
STANDARD
140
6.0
170
     5
 62
     0
 63
     7
283
     0
274
    -2
284
     1
 64
     0
275
    -2
285
     1
 65
     0
276
    -2
286
     1
 66
     0
277
    -2
287
     1
 67
     0
278
    -2
288
     1
 68
     0
279
    -2
289
     1
 69
     0
  7
STANDARD
140
4.5
170
     5
 62
     0
 63
     7
283
     0
274
    -2
284
     1
 64
     0
275
    -2
285
     1
 65
     0
276
    -2
286
     1
 66
     0
277
    -2
287
     1
 67
     0
278
    -2
288
     1
 68
     0
279
    -2
289
     1
 69
     0
  0
DICTIONARYVAR
  5
138
102
{ACAD_REACTORS
330
94
102
}
330
94
100
DictionaryVariables
280
     0
  1
STANDARD
  0
DICTIONARYVAR
  5
96
102
{ACAD_REACTORS
330
94
102
}
330
94
100
DictionaryVariables
280
     0
  1
2
  0
DICTIONARYVAR
  5
95
102
{ACAD_REACTORS
330
94
102
}
330
94
100
DictionaryVariables
280
     0
  1
0
  0
DICTIONARYVAR
  5
4279
102
{ACAD_REACTORS
330
94
102
}
330
94
100
DictionaryVariables
280
     0
  1

  0
DICTIONARY
  5
1B5
102
{ACAD_REACTORS
330
5B
102
}
330
5B
100
AcDbDictionary
281
     1
  0
DICTIONARY
  5
61
102
{ACAD_REACTORS
330
5B
102
}
330
5B
100
AcDbDictionary
281
     1
  0
XRECORD
  5
123
102
{ACAD_REACTORS
330
5B
102
}
330
5B
100
AcDbXrecord
280
     1
 90
-1023410169
  0
ENDSEC
  0
EOF
