  0
SECTION
  2
HEADER
  9
$ACADVER
  1
AC1015
  9
$ACADMAINTVER
 70
    20
  9
$DWGCODEPAGE
  3
ANSI_950
  9
$INSBASE
 10
0.0
 20
0.0
 30
0.0
  9
$EXTMIN
 10
171.3921535850704
 20
-17.14480255984324
 30
-0.0057488551821621
  9
$EXTMAX
 10
418.3262277180801
 20
305.2331334686073
 30
188.3986093580112
  9
$LIMMIN
 10
0.0
 20
0.0
  9
$LIMMAX
 10
340.0
 20
270.0
  9
$ORTHOMODE
 70
     1
  9
$REGENMODE
 70
     0
  9
$FILLMODE
 70
     1
  9
$QTEXTMODE
 70
     0
  9
$MIRRTEXT
 70
     1
  9
$LTSCALE
 40
8.0
  9
$ATTMODE
 70
     1
  9
$TEXTSIZE
 40
5.0
  9
$TRACEWID
 40
0.05
  9
$TEXTSTYLE
  7
CHINESET
  9
$CLAYER
  8
0
  9
$CELTYPE
  6
ByLayer
  9
$CECOLOR
 62
   256
  9
$CELTSCALE
 40
1.0
  9
$DISPSILH
 70
     0
  9
$DIMSCALE
 40
1.0
  9
$DIMASZ
 40
3.0
  9
$DIMEXO
 40
2.0
  9
$DIMDLI
 40
7.0
  9
$DIMRND
 40
0.0
  9
$DIMDLE
 40
0.0
  9
$DIMEXE
 40
2.0
  9
$DIMTP
 40
0.0
  9
$DIMTM
 40
0.0
  9
$DIMTXT
 40
3.0
  9
$DIMCEN
 40
2.0
  9
$DIMTSZ
 40
0.0
  9
$DIMTOL
 70
     0
  9
$DIMLIM
 70
     0
  9
$DIMTIH
 70
     0
  9
$DIMTOH
 70
     0
  9
$DIMSE1
 70
     0
  9
$DIMSE2
 70
     0
  9
$DIMTAD
 70
     1
  9
$DIMZIN
 70
     8
  9
$DIMBLK
  1

  9
$DIMASO
 70
     1
  9
$DIMSHO
 70
     0
  9
$DIMPOST
  1

  9
$DIMAPOST
  1

  9
$DIMALT
 70
     0
  9
$DIMALTD
 70
     2
  9
$DIMALTF
 40
25.4
  9
$DIMLFAC
 40
1.0
  9
$DIMTOFL
 70
     0
  9
$DIMTVP
 40
0.0
  9
$DIMTIX
 70
     0
  9
$DIMSOXD
 70
     0
  9
$DIMSAH
 70
     0
  9
$DIMBLK1
  1

  9
$DIMBLK2
  1

  9
$DIMSTYLE
  2
STANDARD
  9
$DIMCLRD
 70
   256
  9
$DIMCLRE
 70
   256
  9
$DIMCLRT
 70
     0
  9
$DIMTFAC
 40
1.0
  9
$DIMGAP
 40
1.0
  9
$DIMJUST
 70
     0
  9
$DIMSD1
 70
     0
  9
$DIMSD2
 70
     0
  9
$DIMTOLJ
 70
     1
  9
$DIMTZIN
 70
     8
  9
$DIMALTZ
 70
     8
  9
$DIMALTTZ
 70
     8
  9
$DIMUPT
 70
     0
  9
$DIMDEC
 70
     2
  9
$DIMTDEC
 70
     2
  9
$DIMALTU
 70
     2
  9
$DIMALTTD
 70
     2
  9
$DIMTXSTY
  7
CHINESET
  9
$DIMAUNIT
 70
     0
  9
$DIMADEC
 70
     0
  9
$DIMALTRND
 40
0.0
  9
$DIMAZIN
 70
     2
  9
$DIMDSEP
 70
    46
  9
$DIMATFIT
 70
     3
  9
$DIMFRAC
 70
     0
  9
$DIMLDRBLK
  1

  9
$DIMLUNIT
 70
     2
  9
$DIMLWD
 70
    -1
  9
$DIMLWE
 70
    -1
  9
$DIMTMOVE
 70
     2
  9
$LUNITS
 70
     2
  9
$LUPREC
 70
     2
  9
$SKETCHINC
 40
0.1
  9
$FILLETRAD
 40
0.0
  9
$AUNITS
 70
     0
  9
$AUPREC
 70
     0
  9
$MENU
  1
C:\CACAD\ACAD
  9
$ELEVATION
 40
0.0
  9
$PELEVATION
 40
0.0
  9
$THICKNESS
 40
0.0
  9
$LIMCHECK
 70
     0
  9
$CHAMFERA
 40
0.3
  9
$CHAMFERB
 40
0.3
  9
$CHAMFERC
 40
0.0
  9
$CHAMFERD
 40
0.0
  9
$SKPOLY
 70
     0
  9
$TDCREATE
 40
2450963.633466239
  9
$TDUCREATE
 40
2450963.300132905
  9
$TDUPDATE
 40
2454789.613398959
  9
$TDUUPDATE
 40
2454789.280065625
  9
$TDINDWG
 40
0.0283279514
  9
$TDUSRTIMER
 40
0.0283279514
  9
$USRTIMER
 70
     1
  9
$ANGBASE
 50
0.0
  9
$ANGDIR
 70
     0
  9
$PDMODE
 70
    65
  9
$PDSIZE
 40
10.3
  9
$PLINEWID
 40
0.0
  9
$SPLFRAME
 70
     0
  9
$SPLINETYPE
 70
     6
  9
$SPLINESEGS
 70
     8
  9
$HANDSEED
  5
C3B
  9
$SURFTAB1
 70
     6
  9
$SURFTAB2
 70
     6
  9
$SURFTYPE
 70
     6
  9
$SURFU
 70
     6
  9
$SURFV
 70
     6
  9
$UCSBASE
  2

  9
$UCSNAME
  2

  9
$UCSORG
 10
0.0
 20
0.0
 30
0.0
  9
$UCSXDIR
 10
1.0
 20
0.0
 30
0.0
  9
$UCSYDIR
 10
0.0
 20
1.0
 30
0.0
  9
$UCSORTHOREF
  2

  9
$UCSORTHOVIEW
 70
     0
  9
$UCSORGTOP
 10
0.0
 20
0.0
 30
0.0
  9
$UCSORGBOTTOM
 10
0.0
 20
0.0
 30
0.0
  9
$UCSORGLEFT
 10
0.0
 20
0.0
 30
0.0
  9
$UCSORGRIGHT
 10
0.0
 20
0.0
 30
0.0
  9
$UCSORGFRONT
 10
0.0
 20
0.0
 30
0.0
  9
$UCSORGBACK
 10
0.0
 20
0.0
 30
0.0
  9
$PUCSBASE
  2

  9
$PUCSNAME
  2

  9
$PUCSORG
 10
0.0
 20
0.0
 30
0.0
  9
$PUCSXDIR
 10
1.0
 20
0.0
 30
0.0
  9
$PUCSYDIR
 10
0.0
 20
1.0
 30
0.0
  9
$PUCSORTHOREF
  2

  9
$PUCSORTHOVIEW
 70
     0
  9
$PUCSORGTOP
 10
0.0
 20
0.0
 30
0.0
  9
$PUCSORGBOTTOM
 10
0.0
 20
0.0
 30
0.0
  9
$PUCSORGLEFT
 10
0.0
 20
0.0
 30
0.0
  9
$PUCSORGRIGHT
 10
0.0
 20
0.0
 30
0.0
  9
$PUCSORGFRONT
 10
0.0
 20
0.0
 30
0.0
  9
$PUCSORGBACK
 10
0.0
 20
0.0
 30
0.0
  9
$USERI1
 70
     0
  9
$USERI2
 70
     0
  9
$USERI3
 70
     0
  9
$USERI4
 70
     0
  9
$USERI5
 70
     0
  9
$USERR1
 40
0.0
  9
$USERR2
 40
0.0
  9
$USERR3
 40
0.0
  9
$USERR4
 40
0.0
  9
$USERR5
 40
0.0
  9
$WORLDVIEW
 70
     1
  9
$SHADEDGE
 70
     3
  9
$SHADEDIF
 70
    70
  9
$TILEMODE
 70
     1
  9
$MAXACTVP
 70
    16
  9
$PINSBASE
 10
0.0
 20
0.0
 30
0.0
  9
$PLIMCHECK
 70
     0
  9
$PEXTMIN
 10
1.000000000000000E+20
 20
1.000000000000000E+20
 30
1.000000000000000E+20
  9
$PEXTMAX
 10
-1.000000000000000E+20
 20
-1.000000000000000E+20
 30
-1.000000000000000E+20
  9
$PLIMMIN
 10
0.0
 20
0.0
  9
$PLIMMAX
 10
12.0
 20
9.0
  9
$UNITMODE
 70
     0
  9
$VISRETAIN
 70
     0
  9
$PLINEGEN
 70
     0
  9
$PSLTSCALE
 70
     0
  9
$TREEDEPTH
 70
  3020
  9
$CMLSTYLE
  2
Standard
  9
$CMLJUST
 70
     0
  9
$CMLSCALE
 40
1.0
  9
$PROXYGRAPHICS
 70
     1
  9
$MEASUREMENT
 70
     0
  9
$CELWEIGHT
370
    -1
  9
$ENDCAPS
280
     0
  9
$JOINSTYLE
280
     0
  9
$LWDISPLAY
290
     0
  9
$INSUNITS
 70
     0
  9
$HYPERLINKBASE
  1

  9
$STYLESHEET
  1
acad.ctb
  9
$XEDIT
290
     1
  9
$CEPSNTYPE
380
     0
  9
$PSTYLEMODE
290
     1
  9
$FINGERPRINTGUID
  2
{22309722-F713-11D4-9D75-0050BAE3FAE1}
  9
$VERSIONGUID
  2
{872A3C5D-A49B-46AA-8117-AED1FA4DFBCB}
  9
$EXTNAMES
290
     1
  9
$PSVPSCALE
 40
0.0
  9
$OLESTARTUP
290
     0
  0
ENDSEC
  0
SECTION
  2
CLASSES
  0
CLASS
  1
ACDBDICTIONARYWDFLT
  2
AcDbDictionaryWithDefault
  3
ObjectDBX Classes
 90
        0
280
     0
281
     0
  0
CLASS
  1
ACDBPLACEHOLDER
  2
AcDbPlaceHolder
  3
ObjectDBX Classes
 90
        0
280
     0
281
     0
  0
CLASS
  1
LAYOUT
  2
AcDbLayout
  3
ObjectDBX Classes
 90
        0
280
     0
281
     0
  0
CLASS
  1
ACME_DOCUMENT
  2
AcMeDbDoc
  3
AcMeServices
 90
        0
280
     0
281
     0
  0
CLASS
  1
AMGSETTINGSOBJ
  2
AmgSettingsObj
  3
"AcadM|Product Description: AutoCAD Mechanical 2000|Company: Autodesk"
 90
        0
280
     0
281
     0
  0
CLASS
  1
ACMESCOPE
  2
AcMeScope
  3
AcMeServices
 90
        0
280
     0
281
     0
  0
CLASS
  1
ACMECOMMANDHISTORY
  2
AcMeCommandHistory
  3
AcMeServices
 90
        0
280
     0
281
     0
  0
CLASS
  1
ACIMSYSVARMAN
  2
AcImSysVarManager
  3
AcMeServices
 90
        0
280
     0
281
     0
  0
CLASS
  1
ACIMREALSYSVAR
  2
AcImRealSysVar
  3
AcMeServices
 90
        0
280
     0
281
     0
  0
CLASS
  1
ACIMINTSYSVAR
  2
AcImIntSysVar
  3
AcMeServices
 90
        0
280
     0
281
     0
  0
CLASS
  1
ACMEDRAWINGMAN
  2
AcMeDrawingMan
  3
AcMeServices
 90
        0
280
     0
281
     0
  0
CLASS
  1
ACMEVIEW
  2
AcMeView
  3
AcMeServices
 90
        0
280
     0
281
     0
  0
CLASS
  1
ACDBENTITYCACHE
  2
AcMeEntityCache
  3
AcMeServices
 90
        0
280
     0
281
     0
  0
CLASS
  1
GSMANAGER
  2
AcMeGSManager
  3
AcMeServices
 90
        0
280
     0
281
     0
  0
CLASS
  1
AMDTINTERNALREACTOR
  2
AmdtInternalReactor
  3
AcMeServices
 90
        0
280
     0
281
     0
  0
CLASS
  1
ACMESTATEMGR
  2
AcMeStateMgr
  3
AcMeServices
 90
        0
280
     0
281
     0
  0
CLASS
  1
ACGREFMASTER
  2
AcGrefMaster
  3
AcAttribServices
 90
        0
280
     0
281
     0
  0
CLASS
  1
ACME_DATABASE
  2
AcMeDbDatabase
  3
AcMeServices
 90
        0
280
     0
281
     0
  0
CLASS
  1
ACRFINSADJUSTERMGR
  2
AcRfInsAdjusterMgr
  3
AcMeServices
 90
        0
280
     0
281
     0
  0
CLASS
  1
ACGREFACADMASTER
  2
AcGrefacadMaster
  3
AcGrefServices
 90
        0
280
     0
281
     0
  0
CLASS
  1
AMIMASTER
  2
AmiMaster
  3
AmiServices
 90
        0
280
     0
281
     0
  0
CLASS
  1
ACMDATADICTIONARY
  2
AcmDataDictionary
  3
"AcmSymBB|Product Description: AutoCAD Mechanical 2004 DX|Company: Autodesk"
 90
        0
280
     0
281
     0
  0
CLASS
  1
ACMDATAENTRYBLOCK
  2
AcmDataEntryBlock
  3
"AcmSymBB|Product Description: AutoCAD Mechanical 2004 DX|Company: Autodesk"
 90
        0
280
     0
281
     0
  0
CLASS
  1
ACIMSTRSYSVAR
  2
AcImStrSysVar
  3
AcMeServices
 90
        0
280
     0
281
     0
  0
CLASS
  1
ACMSTANDARDANSI
  2
AcmStandardANSI
  3
"Amdt_StdImp|Product Description: AutoCAD Mechanical 2004 DX|Company: Autodesk"
 90
        0
280
     0
281
     0
  0
CLASS
  1
AMGOBJPROPCFG
  2
AmgObjPropCfg
  3
"AmgLay|Product Description: AutoCAD Mechanical 2000|Company: Autodesk"
 90
        1
280
     0
281
     0
  0
CLASS
  1
ACMSURFSTANDARDANSI
  2
AcmSurfTextStdANSI
  3
"Amdt_StdImp|Product Description: AutoCAD Mechanical 2004 DX|Company: Autodesk"
 90
        0
280
     0
281
     0
  0
CLASS
  1
ACMFCFSTANDARDANSI
  2
AcmFCFStdANSI
  3
"Amdt_StdImp|Product Description: AutoCAD Mechanical 2004 DX|Company: Autodesk"
 90
        0
280
     0
281
     0
  0
CLASS
  1
ACMWELDSTANDARDANSI
  2
AcmWeldingStdANSI
  3
"Amdt_StdImp|Product Description: AutoCAD Mechanical 2004 DX|Company: Autodesk"
 90
        0
280
     0
281
     0
  0
CLASS
  1
ACMIDSTANDARDANSI
  2
AcmIdStdANSI
  3
"Amdt_StdImp|Product Description: AutoCAD Mechanical 2004 DX|Company: Autodesk"
 90
        0
280
     0
281
     0
  0
CLASS
  1
ACMDATUMSTANDARDANSI
  2
AcmDatumStdANSI
  3
"Amdt_StdImp|Product Description: AutoCAD Mechanical 2004 DX|Company: Autodesk"
 90
        0
280
     0
281
     0
  0
CLASS
  1
ACMBOMSTANDARDANSI
  2
AcmBOMStdANSI
  3
"Amdt_StdImp|Product Description: AutoCAD Mechanical 2004 DX|Company: Autodesk"
 90
        0
280
     0
281
     0
  0
CLASS
  1
ACMDETAILSTANDARDANSI
  2
AmdtDetailSymStdANSI
  3
"Amdt_StdImp|Product Description: AutoCAD Mechanical 2004 DX|Company: Autodesk"
 90
        0
280
     0
281
     0
  0
CLASS
  1
ACMSECTIONSTANDARDANSI
  2
AmdtSectionSymStdANSI
  3
"Amdt_StdImp|Product Description: AutoCAD Mechanical 2004 DX|Company: Autodesk"
 90
        0
280
     0
281
     0
  0
CLASS
  1
ACMCENTERLINESTANDARDANSI
  2
AmdtCenterLineStdANSI
  3
"Amdt_StdImp|Product Description: AutoCAD Mechanical 2004 DX|Company: Autodesk"
 90
        0
280
     0
281
     0
  0
CLASS
  1
ACMNOTESTANDARDANSI
  2
AmdtNoteStdANSI
  3
"Amdt_StdImp|Product Description: AutoCAD Mechanical 2004 DX|Company: Autodesk"
 90
        0
280
     0
281
     0
  0
CLASS
  1
ACAMGLAYSTD
  2
AcAmgLayStd
  3
"AcAmgLayStd|Product Description: AutoCAD Mechanical 2000|Company: Autodesk"
 90
        0
280
     0
281
     0
  0
CLASS
  1
ACAMGDIMSTD
  2
AcAmgDimStd
  3
"AcAmgDimStd|Product Description: AutoCAD Mechanical 2000|Company: Autodesk"
 90
        0
280
     0
281
     0
  0
CLASS
  1
ACAMGHOLECHARTSTDANSI
  2
AcAmgHoleChartStdANSI
  3
ACMSYMBB_MODULE_NAME
 90
        0
280
     0
281
     0
  0
CLASS
  1
ACAMGTITLESTD
  2
AcAmgTitleStd
  3
"TITLEAPP"
 90
        0
280
     0
281
     0
  0
CLASS
  1
ACAMGFILTERDAT
  2
AcAmgFilterDat
  3
"AcadM|Product Description: AutoCAD Mechanical 2000|Company: Autodesk"
 90
    32768
280
     0
281
     0
  0
CLASS
  1
LAYER_INDEX
  2
AcDbLayerIndex
  3
ObjectDBX Classes
 90
        0
280
     0
281
     0
  0
CLASS
  1
IDBUFFER
  2
AcDbIdBuffer
  3
ObjectDBX Classes
 90
        0
280
     0
281
     0
  0
CLASS
  1
DICTIONARYVAR
  2
AcDbDictionaryVar
  3
ObjectDBX Classes
 90
        0
280
     0
281
     0
  0
CLASS
  1
TABLESTYLE
  2
AcDbTableStyle
  3
ObjectDBX Classes
 90
     2047
280
     0
281
     0
  0
CLASS
  1
AM_DRAWING_MGR
  2
AcDmDwgMgr
  3
AcMechDwgViewMgmt
 90
        0
280
     0
281
     0
  0
CLASS
  1
AM_DWG_DOCUMENT
  2
AcDmDwgDocument
  3
AcMechDwgViewMgmt
 90
        0
280
     0
281
     0
  0
CLASS
  1
AM_DWG_SHEET
  2
AcDmSheet
  3
AcMechDwgViewMgmt
 90
        0
280
     0
281
     0
  0
CLASS
  1
AM_VIEWDIMPARMAP
  2
AcDmViewDimParMap
  3
AcMechDwgViewMgmt
 90
        0
280
     0
281
     0
  0
CLASS
  1
AM_DWGMGR_NAME
  2
AcDmDwgMgrName
  3
AcMechDwgViewMgmt
 90
        0
280
     0
281
     0
  0
CLASS
  1
AMDTMENUSTATEMGR
  2
AmdtMenuStateMgr
  3
McadcomServices
 90
        0
280
     0
281
     0
  0
CLASS
  1
AMDTMCOMMENUSTATE
  2
AmdtMcomMenuState
  3
McadcomServices
 90
        0
280
     0
281
     0
  0
CLASS
  1
MAPIAMMOUDLE
  2
MApiAmModule
  3
MApiAmServices
 90
        0
280
     0
281
     0
  0
CLASS
  1
AMDTADMENUSTATE
  2
AmdtAdMenuState
  3
DesignerServices
 90
        0
280
     0
281
     0
  0
CLASS
  1
ADAPPL
  2
AcAdAppl
  3
DesignerServices
 90
        0
280
     0
281
     0
  0
CLASS
  1
DEPMGR
  2
AcAdDepMgr
  3
DesignerServices
 90
        0
280
     0
281
     0
  0
CLASS
  1
PARAMMGR
  2
AcAdParamMgr
  3
DesignerServices
 90
        0
280
     0
281
     0
  0
CLASS
  1
PARAMSCOPE
  2
AcAdParamScope
  3
DesignerServices
 90
        0
280
     0
281
     0
  0
CLASS
  1
NAMEDAPPL
  2
AcAdNamedAppl
  3
DesignerServices
 90
        0
280
     0
281
     0
  0
CLASS
  1
AMDTDMMENUSTATE
  2
AmdtDmMenuState
  3
AcMechDwgViewMgmt
 90
        0
280
     0
281
     0
  0
CLASS
  1
AMDTAMMENUSTATE
  2
AmdtAmMenuState
  3
DesignerAssemblies
 90
        0
280
     0
281
     0
  0
CLASS
  1
ACAMPROJECT
  2
AcAmProject
  3
DesignerAssemblies
 90
        0
280
     0
281
     0
  0
CLASS
  1
ACAMGRCOMPDEF
  2
AcAmGrCompDef
  3
DesignerAssemblies
 90
        0
280
     0
281
     0
  0
CLASS
  1
ACCMCONTEXT
  2
AcCmContext
  3
DesignerAssemblies
 90
        0
280
     0
281
     0
  0
CLASS
  1
ACAMCOMPDEF
  2
AcAmCompDef
  3
DesignerAssemblies
 90
        0
280
     0
281
     0
  0
CLASS
  1
ACAMCOMPDEFMGR
  2
AcAmCompDefMgr
  3
DesignerAssemblies
 90
        0
280
     0
281
     0
  0
CLASS
  1
AMCONTEXTMGR
  2
AcAmContextMgr
  3
DesignerAssemblies
 90
        0
280
     0
281
     0
  0
CLASS
  1
ACAMCONTEXTMODELER
  2
AcAmContextModeler
  3
DesignerAssemblies
 90
        0
280
     0
281
     0
  0
CLASS
  1
ACMTHREADLINESTANDARDANSI
  2
AmdtThreadLineStdANSI
  3
"Amdt_StdImp|Product Description: AutoCAD Mechanical 2004 DX|Company: Autodesk"
 90
        0
280
     0
281
     0
  0
CLASS
  1
CATALOGSTATE
  2
AcAmCatalogState
  3
DesignerAssemblies
 90
        0
280
     0
281
     0
  0
CLASS
  1
ACAMGRCOMPDEFSET
  2
AcAmGrCompDefSet
  3
DesignerAssemblies
 90
        0
280
     0
281
     0
  0
CLASS
  1
AMDTBROWSERDBTAB
  2
AmdtBrowserDbTab
  3
McadcomServices
 90
        0
280
     0
281
     0
  0
CLASS
  1
CBROWSERAPPOBJECT
  2
CBrowserAppObject
  3
McadcomServices
 90
        0
280
     0
281
     0
  0
CLASS
  1
DM_PLACEHOLDER
  2
AcDmSelsetPlaceholder
  3
AcMechDwgViewMgmt
 90
        0
280
     0
281
     0
  0
CLASS
  1
ACMSTANDARDISO
  2
AcmStandardISO
  3
"Amdt_StdImp|Product Description: AutoCAD Mechanical 2004 DX|Company: Autodesk"
 90
        0
280
     0
281
     0
  0
CLASS
  1
AMDTEDGESTANDARDISO13715
  2
AmdtEdgeStdISO13715
  3
"Amdt_StdImp|Product Description: AutoCAD Mechanical 2004 DX|Company: Autodesk"
 90
        0
280
     0
281
     0
  0
CLASS
  1
ACMSURFSTANDARDISO
  2
AcmSurfTextStdISO
  3
"Amdt_StdImp|Product Description: AutoCAD Mechanical 2004 DX|Company: Autodesk"
 90
        0
280
     0
281
     0
  0
CLASS
  1
ACMFCFSTANDARDISO
  2
AcmFCFStdISO
  3
"Amdt_StdImp|Product Description: AutoCAD Mechanical 2004 DX|Company: Autodesk"
 90
        0
280
     0
281
     0
  0
CLASS
  1
ACMWELDSTANDARDISO
  2
AcmWeldingStdISO
  3
"Amdt_StdImp|Product Description: AutoCAD Mechanical 2004 DX|Company: Autodesk"
 90
        0
280
     0
281
     0
  0
CLASS
  1
ACMIDSTANDARDISO
  2
AcmIdStdISO
  3
"Amdt_StdImp|Product Description: AutoCAD Mechanical 2004 DX|Company: Autodesk"
 90
        0
280
     0
281
     0
  0
CLASS
  1
ACMDATUMSTANDARDISO
  2
AcmDatumStdISO
  3
"Amdt_StdImp|Product Description: AutoCAD Mechanical 2004 DX|Company: Autodesk"
 90
        0
280
     0
281
     0
  0
CLASS
  1
ACMBOMSTANDARDISO
  2
AcmBOMStdISO
  3
"Amdt_StdImp|Product Description: AutoCAD Mechanical 2004 DX|Company: Autodesk"
 90
        0
280
     0
281
     0
  0
CLASS
  1
ACMDETAILSTANDARDISO
  2
AmdtDetailSymStdISO
  3
"Amdt_StdImp|Product Description: AutoCAD Mechanical 2004 DX|Company: Autodesk"
 90
        0
280
     0
281
     0
  0
CLASS
  1
ACMSECTIONSTANDARDISO
  2
AmdtSectionSymStdISO
  3
"Amdt_StdImp|Product Description: AutoCAD Mechanical 2004 DX|Company: Autodesk"
 90
        0
280
     0
281
     0
  0
CLASS
  1
ACMCENTERLINESTANDARDISO
  2
AmdtCenterLineStdISO
  3
"Amdt_StdImp|Product Description: AutoCAD Mechanical 2004 DX|Company: Autodesk"
 90
        0
280
     0
281
     0
  0
CLASS
  1
ACMTHREADLINESTANDARDISO
  2
AmdtThreadLineStdISO
  3
"Amdt_StdImp|Product Description: AutoCAD Mechanical 2004 DX|Company: Autodesk"
 90
        0
280
     0
281
     0
  0
CLASS
  1
ACMNOTESTANDARDISO
  2
AmdtNoteStdISO
  3
"Amdt_StdImp|Product Description: AutoCAD Mechanical 2004 DX|Company: Autodesk"
 90
        0
280
     0
281
     0
  0
CLASS
  1
AMDTNOTETEMPLATEDB
  2
AmdtNoteTemplateDB
  3
AMDT_STDIMP_MODULE_NAME
 90
        0
280
     0
281
     0
  0
CLASS
  1
ACAMGHOLECHARTSTDISO
  2
AcAmgHoleChartStdISO
  3
ACMSYMBB_MODULE_NAME
 90
        0
280
     0
281
     0
  0
CLASS
  1
ACRFATTGENMGR
  2
AcRfAttGeneralMgr
  3
AcAttribServices
 90
        0
280
     0
281
     0
  0
ENDSEC
  0
SECTION
  2
TABLES
  0
TABLE
  2
VPORT
  5
2A7
330
0
100
AcDbSymbolTable
 70
     5
  0
VPORT
  5
C34
330
2A7
100
AcDbSymbolTableRecord
100
AcDbViewportTableRecord
  2
*Active
 70
     0
 10
0.0
 20
0.0
 11
1.0
 21
1.0
 12
294.8591906515753
 22
144.044165454382
 13
0.0
 23
0.0
 14
1.0
 24
1.0
 15
0.0
 25
0.0
 16
0.0
 26
0.0
 36
1.0
 17
0.0
 27
0.0
 37
0.0
 40
324.9163449735564
 41
1.283837056504599
 42
50.0
 43
0.0
 44
0.0
 50
0.0
 51
0.0
 71
     0
 72
 10000
 73
     1
 74
     1
 75
     0
 76
     0
 77
     0
 78
     0
281
     0
 65
     1
110
0.0
120
0.0
130
0.0
111
1.0
121
0.0
131
0.0
112
0.0
122
1.0
132
0.0
 79
     0
146
0.0
  0
ENDTAB
  0
TABLE
  2
LTYPE
  5
2A4
330
0
100
AcDbSymbolTable
 70
    19
  0
LTYPE
  5
2B2
330
2A4
100
AcDbSymbolTableRecord
100
AcDbLinetypeTableRecord
  2
ByBlock
 70
     0
  3

 72
    65
 73
     0
 40
0.0
  0
LTYPE
  5
2B3
330
2A4
100
AcDbSymbolTableRecord
100
AcDbLinetypeTableRecord
  2
ByLayer
 70
     0
  3

 72
    65
 73
     0
 40
0.0
  0
LTYPE
  5
2B4
330
2A4
100
AcDbSymbolTableRecord
100
AcDbLinetypeTableRecord
  2
CONTINUOUS
 70
     0
  3
Solid line
 72
    65
 73
     0
 40
0.0
  0
LTYPE
  5
2CF
330
2A4
100
AcDbSymbolTableRecord
100
AcDbLinetypeTableRecord
  2
HIDDEN
 70
     0
  3
_ _ _ _ _ _ _ _ _ _ _ _ _ _ _ _ _ _ _ _ _ _ _
 72
    65
 73
     2
 40
0.375
 49
0.25
 74
     0
 49
-0.125
 74
     0
  0
LTYPE
  5
2D0
330
2A4
100
AcDbSymbolTableRecord
100
AcDbLinetypeTableRecord
  2
CENTER
 70
     0
  3
____ _ ____ _ ____ _ ____ _ ____ _ ____ _ ____
 72
    65
 73
     4
 40
2.0
 49
1.25
 74
     0
 49
-0.25
 74
     0
 49
0.25
 74
     0
 49
-0.25
 74
     0
  0
LTYPE
  5
720
330
2A4
100
AcDbSymbolTableRecord
100
AcDbLinetypeTableRecord
  2
Amconstr
 70
     0
  3
_______________________
 72
    65
 73
     2
 40
9999.0
 49
9999.0
 74
     0
 49
0.0
 74
     0
  0
LTYPE
  5
726
330
2A4
100
AcDbSymbolTableRecord
100
AcDbLinetypeTableRecord
  2
PHANTOM2
 70
     0
  3
Phantom (.5x) ___ _ _ ___ _ _ ___ _ _ ___ _ _
 72
    65
 73
     6
 40
1.25
 49
0.625
 74
     0
 49
-0.125
 74
     0
 49
0.125
 74
     0
 49
-0.125
 74
     0
 49
0.125
 74
     0
 49
-0.125
 74
     0
  0
LTYPE
  5
727
330
2A4
100
AcDbSymbolTableRecord
100
AcDbLinetypeTableRecord
  2
CENTER2
 70
     0
  3
Center (.5x) ___ _ ___ _ ___ _ ___ _ ___ _ ___
 72
    65
 73
     4
 40
1.125
 49
0.75
 74
     0
 49
-0.125
 74
     0
 49
0.125
 74
     0
 49
-0.125
 74
     0
  0
LTYPE
  5
728
330
2A4
100
AcDbSymbolTableRecord
100
AcDbLinetypeTableRecord
  2
HIDDEN2
 70
     0
  3
Hidden (.5x) _ _ _ _ _ _ _ _ _ _ _ _ _ _ _ _ _
 72
    65
 73
     2
 40
0.1875
 49
0.125
 74
     0
 49
-0.0625
 74
     0
  0
LTYPE
  5
729
330
2A4
100
AcDbSymbolTableRecord
100
AcDbLinetypeTableRecord
  2
Amzigzag2
 70
     0
  3
/\/-/\/-/\/-/\/-/\/-/\/
 72
    65
 73
     2
 40
0.4401
 49
0.0001
 74
     4
 75
   135
340
724
 46
0.0016
 50
0.0
 44
0.0
 45
0.0
 49
-0.4400000000000001
 74
     0
  0
LTYPE
  5
736
330
2A4
100
AcDbSymbolTableRecord
100
AcDbLinetypeTableRecord
  2
ACANSTGB
 70
     0
  3
__ . . __ . .
 72
    65
 73
     6
 40
0.35433070866
 49
0.15748031496
 74
     0
 49
-0.03937007874
 74
     0
 49
0.03937007874
 74
     0
 49
-0.03937007874
 74
     0
 49
0.03937007874
 74
     0
 49
-0.03937007874
 74
     0
  0
LTYPE
  5
737
330
2A4
100
AcDbSymbolTableRecord
100
AcDbLinetypeTableRecord
  2
ACANSTGL
 70
     0
  3
_ _ _ _ _
 72
    65
 73
     2
 40
0.11811023622
 49
0.07874015748
 74
     0
 49
-0.03937007874
 74
     0
  0
LTYPE
  5
863
330
2A4
100
AcDbSymbolTableRecord
100
AcDbLinetypeTableRecord
  2
AM_ISO08W050x2
 70
     0
  3
__ . __ . __ . __ . __ . __
 72
    65
 73
     4
 40
9.0
 49
6.0
 74
     0
 49
-0.75
 74
     0
 49
1.5
 74
     0
 49
-0.75
 74
     0
  0
LTYPE
  5
8D8
330
2A4
100
AcDbSymbolTableRecord
100
AcDbLinetypeTableRecord
  2
ACISOWELD
 70
     0
  3
_ _ _ _ _
 72
    65
 73
     2
 40
2.0
 49
2.0
 74
     0
 49
-1.0
 74
     0
  0
LTYPE
  5
8D9
330
2A4
100
AcDbSymbolTableRecord
100
AcDbLinetypeTableRecord
  2
ACISOTGB
 70
     0
  3
__ . . __ . .
 72
    65
 73
     6
 40
9.0
 49
4.0
 74
     0
 49
-1.0
 74
     0
 49
1.0
 74
     0
 49
-1.0
 74
     0
 49
1.0
 74
     0
 49
-1.0
 74
     0
  0
LTYPE
  5
8DA
330
2A4
100
AcDbSymbolTableRecord
100
AcDbLinetypeTableRecord
  2
ACISOTGL
 70
     0
  3
_ _ _ _ _
 72
    65
 73
     2
 40
3.0
 49
2.0
 74
     0
 49
-1.0
 74
     0
  0
ENDTAB
  0
TABLE
  2
LAYER
  5
2A1
102
{ACAD_XDICTIONARY
360
8E8
102
}
330
0
100
AcDbSymbolTable
 70
     8
  0
LAYER
  5
2AF
330
2A1
100
AcDbSymbolTableRecord
100
AcDbLayerTableRecord
  2
0
 70
     0
 62
     7
  6
CONTINUOUS
370
    -3
390
2AE
  0
LAYER
  5
2D3
330
2A1
100
AcDbSymbolTableRecord
100
AcDbLayerTableRecord
  2
DEFPOINTS
 70
     0
 62
    -7
  6
CONTINUOUS
290
     0
370
    -3
390
2AE
  0
LAYER
  5
2D4
330
2A1
100
AcDbSymbolTableRecord
100
AcDbLayerTableRecord
  2
DIM
 70
     0
 62
     5
  6
CONTINUOUS
370
    -3
390
2AE
  0
LAYER
  5
2DE
330
2A1
100
AcDbSymbolTableRecord
100
AcDbLayerTableRecord
  2
LOGO
 70
     0
 62
     7
  6
CONTINUOUS
370
    -3
390
2AE
  0
LAYER
  5
2DF
330
2A1
100
AcDbSymbolTableRecord
100
AcDbLayerTableRecord
  2
center
 70
     0
 62
     1
  6
CENTER
370
    -3
390
2AE
  0
LAYER
  5
2E0
330
2A1
100
AcDbSymbolTableRecord
100
AcDbLayerTableRecord
  2
hidden
 70
     0
 62
     3
  6
HIDDEN
370
    -3
390
2AE
  0
LAYER
  5
8DB
330
2A1
100
AcDbSymbolTableRecord
100
AcDbLayerTableRecord
  2
AM_VIS
 70
     0
 62
     7
  6
CONTINUOUS
370
    30
390
2AE
  0
ENDTAB
  0
TABLE
  2
STYLE
  5
2A2
330
0
100
AcDbSymbolTable
 70
     9
  0
STYLE
  5
2B0
330
2A2
100
AcDbSymbolTableRecord
100
AcDbTextStyleTableRecord
  2
STANDARD
 70
     0
 40
0.0
 41
1.0
 50
0.0
 71
     0
 42
6.0
  3
txt
  4

  0
STYLE
  5
2CE
330
2A2
100
AcDbSymbolTableRecord
100
AcDbTextStyleTableRecord
  2
CHINESET
 70
     0
 40
0.0
 41
1.0
 50
0.0
 71
     0
 42
5.0
  3
C:\r13\com\fonts\simplex.shx
  4
C:\r13\com\fonts\chineset.shx
  0
STYLE
  5
724
330
2A2
100
AcDbSymbolTableRecord
100
AcDbTextStyleTableRecord
  2

 70
     1
 40
0.0
 41
1.0
 50
0.0
 71
     0
 42
5.0
  3
ltypeshp.shx
  4

  0
STYLE
  5
72A
330
2A2
100
AcDbSymbolTableRecord
100
AcDbTextStyleTableRecord
  2
ACANSTS
 70
     0
 40
1.0
 41
1.0
 50
0.0
 71
     0
 42
5.0
  3
romans.shx
  4
chineset.shx
  0
STYLE
  5
735
330
2A2
100
AcDbSymbolTableRecord
100
AcDbTextStyleTableRecord
  2
ACANSGDT
 70
     0
 40
0.0
 41
1.0
 50
0.0
 71
     0
 42
5.0
  3
amgdtans.shx
  4

  0
STYLE
  5
8DD
330
2A2
100
AcDbSymbolTableRecord
100
AcDbTextStyleTableRecord
  2
ACISOTS
 70
     0
 40
1.0
 41
1.0
 50
0.0
 71
     0
 42
1.0
  3
isocp.shx
  4
chineset.shx
  0
STYLE
  5
8DE
330
2A2
100
AcDbSymbolTableRecord
100
AcDbTextStyleTableRecord
  2
ACISOGDT
 70
     0
 40
0.0
 41
1.0
 50
0.0
 71
     0
 42
2.5
  3
amgdt.shx
  4
chineset.shx
  0
ENDTAB
  0
TABLE
  2
VIEW
  5
2A5
330
0
100
AcDbSymbolTable
 70
     0
  0
ENDTAB
  0
TABLE
  2
UCS
  5
2A6
330
0
100
AcDbSymbolTable
 70
     0
  0
ENDTAB
  0
TABLE
  2
APPID
  5
2A8
330
0
100
AcDbSymbolTable
 70
    17
  0
APPID
  5
2B1
330
2A8
100
AcDbSymbolTableRecord
100
AcDbRegAppTableRecord
  2
ACAD
 70
     0
  0
APPID
  5
2E3
330
2A8
100
AcDbSymbolTableRecord
100
AcDbRegAppTableRecord
  2
TCAD
 70
     0
  0
APPID
  5
6FF
330
2A8
100
AcDbSymbolTableRecord
100
AcDbRegAppTableRecord
  2
MCAD_NO_VIS
 70
     0
  0
APPID
  5
700
330
2A8
100
AcDbSymbolTableRecord
100
AcDbRegAppTableRecord
  2
ACAD_TEMP_GRAPHIC
 70
     0
  0
APPID
  5
711
330
2A8
100
AcDbSymbolTableRecord
100
AcDbRegAppTableRecord
  2
ACATTRIBSERVICES
 70
     0
  0
APPID
  5
8AD
330
2A8
100
AcDbSymbolTableRecord
100
AcDbRegAppTableRecord
  2
AD_DRAW
 70
     0
  0
APPID
  5
8CB
330
2A8
100
AcDbSymbolTableRecord
100
AcDbRegAppTableRecord
  2
DESIGNERASSEMBLIES
 70
     0
  0
APPID
  5
8D0
330
2A8
100
AcDbSymbolTableRecord
100
AcDbRegAppTableRecord
  2
ACADM_DIM_EDIT
 70
     0
  0
APPID
  5
8D1
330
2A8
100
AcDbSymbolTableRecord
100
AcDbRegAppTableRecord
  2
AMDT_DM_ADJ
 70
     0
  0
APPID
  5
8E7
330
2A8
100
AcDbSymbolTableRecord
100
AcDbRegAppTableRecord
  2
ACAD_PSEXT
 70
     0
  0
APPID
  5
A88
330
2A8
100
AcDbSymbolTableRecord
100
AcDbRegAppTableRecord
  2
GENIUS_GENOENT_13
 70
     0
  0
APPID
  5
A89
330
2A8
100
AcDbSymbolTableRecord
100
AcDbRegAppTableRecord
  2
GENIUS_GENOBJ-N-CRS_13
 70
     0
  0
APPID
  5
A8A
330
2A8
100
AcDbSymbolTableRecord
100
AcDbRegAppTableRecord
  2
GENIUS_GENOLIS_13
 70
     0
  0
APPID
  5
A8B
330
2A8
100
AcDbSymbolTableRecord
100
AcDbRegAppTableRecord
  2
GENIUS_GENODEF_13
 70
     0
  0
APPID
  5
A8C
330
2A8
100
AcDbSymbolTableRecord
100
AcDbRegAppTableRecord
  2
GENIUS_GENOREF_13
 70
     0
  0
APPID
  5
A8D
330
2A8
100
AcDbSymbolTableRecord
100
AcDbRegAppTableRecord
  2
GENIUS_GENREC_14
 70
     0
  0
APPID
  5
A8E
330
2A8
100
AcDbSymbolTableRecord
100
AcDbRegAppTableRecord
  2
GENIUS_GENOBJ-N-REC_13
 70
     0
  0
ENDTAB
  0
TABLE
  2
DIMSTYLE
  5
2A9
330
0
100
AcDbSymbolTable
 70
    16
100
AcDbDimStyleTable
 71
     1
340
2D2
  0
DIMSTYLE
105
2D2
102
{ACAD_REACTORS
330
1E
330
2D
330
BD
330
D6
330
E5
330
F8
330
1D7
330
235
330
242
330
24F
330
25B
330
750
102
}
330
2A9
100
AcDbSymbolTableRecord
100
AcDbDimStyleTableRecord
  2
STANDARD
 70
     0
 41
3.0
 42
2.0
 43
7.0
 44
2.0
 73
     0
 74
     0
 77
     1
 78
     8
 79
     2
140
3.0
141
2.0
147
1.0
176
   256
177
   256
271
     2
272
     2
279
     2
284
     8
285
     8
286
     8
340
2CE
371
    -1
372
    -1
  0
DIMSTYLE
105
73C
330
2A9
100
AcDbSymbolTableRecord
100
AcDbDimStyleTableRecord
  2
AM_ANSI
 70
     0
  4
mm
 41
0.1
 42
0.05
 43
0.5
 44
0.1
 47
0.1
 48
0.1
 78
     7
 79
     2
140
0.12
141
0.0
146
0.71
147
0.06
176
   256
177
   256
178
     2
274
     4
284
     7
340
2B0
371
    -1
372
    -1
  0
DIMSTYLE
105
73D
330
2A9
100
AcDbSymbolTableRecord
100
AcDbDimStyleTableRecord
  2
AM_ANSI$3
 70
     0
  4
mm
 41
0.1
 42
0.05
 43
0.5
 44
0.1
 47
0.1
 48
0.1
 78
     7
 79
     2
140
0.12
141
0.0
146
0.71
147
0.06
176
   256
177
   256
178
     2
274
     4
284
     7
288
     1
289
     0
340
2B0
371
    -1
372
    -1
  0
DIMSTYLE
105
73E
330
2A9
100
AcDbSymbolTableRecord
100
AcDbDimStyleTableRecord
  2
AM_ANSI$4
 70
     0
  4
mm
 41
0.1
 42
0.05
 43
0.5
 44
0.1
 47
0.1
 48
0.1
 78
     7
 79
     2
140
0.12
141
0.0
146
0.71
147
0.06
176
   256
177
   256
178
     2
274
     4
284
     7
288
     1
289
     0
340
2B0
371
    -1
372
    -1
  0
DIMSTYLE
105
73F
330
2A9
100
AcDbSymbolTableRecord
100
AcDbDimStyleTableRecord
  2
AM_ANSI$7
 70
     0
  4
mm
 41
0.1
 42
0.05
 43
0.5
 44
0.1
 47
0.1
 48
0.1
 78
     7
 79
     2
140
0.24
141
0.0
146
0.71
147
0.06
176
   256
177
   256
178
     2
274
     4
284
     7
340
2B0
371
    -1
372
    -1
  0
DIMSTYLE
105
740
330
2A9
100
AcDbSymbolTableRecord
100
AcDbDimStyleTableRecord
  2
AM_ANSI$SF
 70
     0
  4
mm
 41
0.1
 42
0.05
 43
0.5
 44
0.1
 47
0.1
 48
0.1
 75
     1
 76
     1
 78
     7
 79
     2
140
0.12
141
0.0
146
0.71
147
0.06
176
   256
177
   256
178
     2
274
     4
284
     7
340
2B0
371
    -1
372
    -1
  0
DIMSTYLE
105
745
330
2A9
100
AcDbSymbolTableRecord
100
AcDbDimStyleTableRecord
  2
AM_ANSI$SH
 70
     0
  4
mm
 41
0.1
 42
0.05
 43
0.5
 44
0.1
 47
0.1
 48
0.1
 75
     1
 76
     1
 78
     7
 79
     2
140
0.12
141
0.0
146
0.71
147
0.06
173
     1
176
   256
177
   256
178
     2
274
     4
284
     7
340
2B0
341
741
343
741
371
    -1
372
    -1
  0
DIMSTYLE
105
8DF
330
2A9
100
AcDbSymbolTableRecord
100
AcDbDimStyleTableRecord
  2
AM_ISO
 70
     0
  4
"
 41
3.0
 42
1.0
 43
11.0
 44
1.5
 47
0.1
 48
0.1
 73
     0
 74
     0
 77
     1
 78
     8
 79
     2
140
3.5
141
0.0
143
0.0393701
146
0.6
147
0.7
172
     1
176
   256
177
   256
178
   256
271
     2
272
     2
283
     0
284
     8
340
2B0
371
    -1
372
    -1
  0
DIMSTYLE
105
8E0
330
2A9
100
AcDbSymbolTableRecord
100
AcDbDimStyleTableRecord
  2
AM_ISO$3
 70
     0
  4
"
 41
3.0
 42
1.0
 43
11.0
 44
1.5
 47
0.1
 48
0.1
 73
     0
 77
     1
 78
     8
 79
     2
140
3.5
141
0.0
143
0.0393701
146
0.6
147
0.7
176
   256
177
   256
178
   256
271
     2
272
     2
283
     0
284
     8
288
     1
289
     0
340
2B0
371
    -1
372
    -1
  0
DIMSTYLE
105
8E1
330
2A9
100
AcDbSymbolTableRecord
100
AcDbDimStyleTableRecord
  2
AM_ISO$4
 70
     0
  4
"
 41
3.0
 42
1.0
 43
11.0
 44
1.5
 47
0.1
 48
0.1
 73
     0
 77
     1
 78
     8
 79
     2
140
3.5
141
0.0
143
0.0393701
146
0.6
147
0.7
176
   256
177
   256
178
   256
271
     2
272
     2
283
     0
284
     8
288
     1
289
     0
340
2B0
371
    -1
372
    -1
  0
DIMSTYLE
105
8E2
330
2A9
100
AcDbSymbolTableRecord
100
AcDbDimStyleTableRecord
  2
AM_ISO$6
 70
     0
  4
"
 41
3.0
 42
1.0
 43
11.0
 44
1.5
 47
0.1
 48
0.1
 73
     0
 74
     0
 78
     8
 79
     2
140
3.5
141
0.0
143
0.0393701
146
0.6
147
0.7
172
     1
176
   256
177
   256
178
   256
271
     2
272
     2
283
     0
284
     8
340
2B0
371
    -1
372
    -1
  0
DIMSTYLE
105
8E3
330
2A9
100
AcDbSymbolTableRecord
100
AcDbDimStyleTableRecord
  2
AM_ISO$7
 70
     0
  4
"
 41
3.0
 42
1.0
 43
11.0
 44
1.5
 47
0.1
 48
0.1
 73
     0
 74
     0
 77
     1
 78
     8
 79
     2
140
5.0
141
0.0
143
0.0393701
146
0.6
147
0.7
172
     1
176
   256
177
   256
178
   256
271
     2
272
     2
283
     0
284
     8
340
2B0
371
    -1
372
    -1
  0
DIMSTYLE
105
8E4
330
2A9
100
AcDbSymbolTableRecord
100
AcDbDimStyleTableRecord
  2
AM_ISO$SF
 70
     0
  4
"
 41
2.5
 42
1.0
 43
10.0
 44
1.0
 47
0.1
 48
0.1
 73
     0
 74
     0
 75
     1
 76
     1
 77
     1
 78
     8
 79
     2
140
3.5
141
0.0
143
0.0393701
146
0.71
147
1.5
172
     1
176
   256
177
   256
178
     2
271
     2
272
     3
274
     4
283
     0
284
     8
340
2B0
371
    -1
372
    -1
  0
DIMSTYLE
105
8E5
330
2A9
100
AcDbSymbolTableRecord
100
AcDbDimStyleTableRecord
  2
AM_ISO$SH
 70
     0
  4
"
 41
2.5
 42
1.0
 43
10.0
 44
1.0
 47
0.1
 48
0.1
 73
     0
 74
     0
 75
     1
 76
     1
 77
     1
 78
     8
 79
     2
140
3.5
141
0.0
143
0.0393701
144
2.0
146
0.71
147
1.5
172
     1
173
     1
176
   256
177
   256
178
     2
271
     2
272
     3
274
     4
283
     0
284
     8
340
2B0
343
741
371
    -1
372
    -1
  0
DIMSTYLE
105
8E6
330
2A9
100
AcDbSymbolTableRecord
100
AcDbDimStyleTableRecord
  2
AM_ISO$0
 70
     0
  4
"
 41
3.0
 42
1.0
 43
11.0
 44
1.5
 47
0.1
 48
0.1
 73
     0
 74
     0
 77
     1
 78
     8
 79
     2
140
3.5
141
0.0
143
0.0393701
146
0.6
147
0.7
172
     1
176
   256
177
   256
178
   256
271
     2
272
     2
283
     0
284
     8
340
2B0
371
    -1
372
    -1
  0
ENDTAB
  0
TABLE
  2
BLOCK_RECORD
  5
2A0
330
0
100
AcDbSymbolTable
 70
    17
  0
BLOCK_RECORD
  5
2BD
102
{ACAD_XDICTIONARY
360
6A0
102
}
330
2A0
100
AcDbSymbolTableRecord
100
AcDbBlockTableRecord
  2
*Model_Space
340
2C0
  0
BLOCK_RECORD
  5
2B9
102
{ACAD_XDICTIONARY
360
6A2
102
}
330
2A0
100
AcDbSymbolTableRecord
100
AcDbBlockTableRecord
  2
*Paper_Space
340
2BC
  0
BLOCK_RECORD
  5
377
330
2A0
100
AcDbSymbolTableRecord
100
AcDbBlockTableRecord
  2
*D0
340
0
  0
BLOCK_RECORD
  5
383
330
2A0
100
AcDbSymbolTableRecord
100
AcDbBlockTableRecord
  2
*D1
340
0
  0
BLOCK_RECORD
  5
3A6
330
2A0
100
AcDbSymbolTableRecord
100
AcDbBlockTableRecord
  2
*D2
340
0
  0
BLOCK_RECORD
  5
3B2
330
2A0
100
AcDbSymbolTableRecord
100
AcDbBlockTableRecord
  2
*D3
340
0
  0
BLOCK_RECORD
  5
3BE
330
2A0
100
AcDbSymbolTableRecord
100
AcDbBlockTableRecord
  2
*D4
340
0
  0
BLOCK_RECORD
  5
3CA
330
2A0
100
AcDbSymbolTableRecord
100
AcDbBlockTableRecord
  2
*D5
340
0
  0
BLOCK_RECORD
  5
3D7
330
2A0
100
AcDbSymbolTableRecord
100
AcDbBlockTableRecord
  2
*D6
340
0
  0
BLOCK_RECORD
  5
3E3
330
2A0
100
AcDbSymbolTableRecord
100
AcDbBlockTableRecord
  2
*D7
340
0
  0
BLOCK_RECORD
  5
3F0
330
2A0
100
AcDbSymbolTableRecord
100
AcDbBlockTableRecord
  2
*D8
340
0
  0
BLOCK_RECORD
  5
3FC
330
2A0
100
AcDbSymbolTableRecord
100
AcDbBlockTableRecord
  2
*D9
340
0
  0
BLOCK_RECORD
  5
408
330
2A0
100
AcDbSymbolTableRecord
100
AcDbBlockTableRecord
  2
*D10
340
0
  0
BLOCK_RECORD
  5
741
330
2A0
100
AcDbSymbolTableRecord
100
AcDbBlockTableRecord
  2
GENAXEH
340
0
  0
BLOCK_RECORD
  5
751
330
2A0
100
AcDbSymbolTableRecord
100
AcDbBlockTableRecord
  2
*D12
340
0
  0
ENDTAB
  0
ENDSEC
  0
SECTION
  2
BLOCKS
  0
BLOCK
  5
2D7
330
2BD
100
AcDbEntity
  8
0
100
AcDbBlockBegin
  2
*Model_Space
 70
     0
 10
0.0
 20
0.0
 30
0.0
  3
*Model_Space
  1

  0
ENDBLK
  5
2D8
330
2BD
100
AcDbEntity
  8
0
100
AcDbBlockEnd
  0
BLOCK
  5
2D5
330
2B9
100
AcDbEntity
 67
     1
  8
0
100
AcDbBlockBegin
  2
*Paper_Space
 70
     0
 10
0.0
 20
0.0
 30
0.0
  3
*Paper_Space
  1

  0
ENDBLK
  5
2D6
330
2B9
100
AcDbEntity
 67
     1
  8
0
100
AcDbBlockEnd
  0
BLOCK
  5
381
330
377
100
AcDbEntity
  8
0
100
AcDbBlockBegin
  2
*D0
 70
     1
 10
0.0
 20
0.0
 30
0.0
  3
*D0
  1

  0
LINE
  5
BB8
330
377
100
AcDbEntity
  8
DIM
100
AcDbLine
 10
338.8492257974585
 20
210.5639179593715
 30
0.0
 11
338.8492257974585
 21
200.5983650999005
 31
0.0
  0
LINE
  5
BB9
330
377
100
AcDbEntity
  8
DIM
100
AcDbLine
 10
266.8492257974585
 20
233.5639179593715
 30
0.0
 11
266.8492257974585
 21
200.5983650999005
 31
0.0
  0
LINE
  5
BBA
330
377
100
AcDbEntity
  8
DIM
100
AcDbLine
 10
335.8492257974585
 20
202.5983650999005
 30
0.0
 11
269.8492257974585
 21
202.5983650999005
 31
0.0
  0
SOLID
  5
BBB
330
377
100
AcDbEntity
  8
DIM
100
AcDbTrace
 10
335.8492257974585
 20
203.0983650999005
 30
0.0
 11
335.8492257974585
 21
202.0983650999006
 31
0.0
 12
338.8492257974585
 22
202.5983650999005
 32
0.0
 13
338.8492257974585
 23
202.5983650999005
 33
0.0
  0
SOLID
  5
BBC
330
377
100
AcDbEntity
  8
DIM
100
AcDbTrace
 10
269.8492257974585
 20
203.0983650999005
 30
0.0
 11
269.8492257974585
 21
202.0983650999006
 31
0.0
 12
266.8492257974585
 22
202.5983650999005
 32
0.0
 13
266.8492257974585
 23
202.5983650999005
 33
0.0
  0
MTEXT
  5
BBD
330
377
100
AcDbEntity
  8
DIM
 62
     0
100
AcDbMText
 10
302.8492257974585
 20
205.0983650999005
 30
0.0
 40
3.0
 41
0.0
 71
     5
 72
     1
  1
\A1;72
  7
CHINESET
 73
     1
 44
1.0
1001
ACAD
1000
MTEXTBEGIN
1070
    73
1070
     1
1070
    44
1040
1.0
1070
    74
1070
     0
1000
MTEXTEND
  0
POINT
  5
BBE
330
377
100
AcDbEntity
  8
DEFPOINTS
 62
     0
100
AcDbPoint
 10
338.8492257974585
 20
212.5639179593715
 30
0.0
  0
POINT
  5
BBF
330
377
100
AcDbEntity
  8
DEFPOINTS
 62
     0
100
AcDbPoint
 10
266.8492257974585
 20
235.5639179593715
 30
0.0
  0
POINT
  5
BC0
330
377
100
AcDbEntity
  8
DEFPOINTS
 62
     0
100
AcDbPoint
 10
266.8492257974585
 20
202.5983650999005
 30
0.0
  0
ENDBLK
  5
382
330
377
100
AcDbEntity
  8
0
100
AcDbBlockEnd
  0
BLOCK
  5
38D
330
383
100
AcDbEntity
  8
0
100
AcDbBlockBegin
  2
*D1
 70
     1
 10
0.0
 20
0.0
 30
0.0
  3
*D1
  1

  0
LINE
  5
BC1
330
383
100
AcDbEntity
  8
DIM
100
AcDbLine
 10
208.1492257974586
 20
214.0639179593715
 30
0.0
 11
178.9692666911534
 21
214.0639179593715
 31
0.0
  0
LINE
  5
BC2
330
383
100
AcDbEntity
  8
DIM
100
AcDbLine
 10
208.1492257974586
 20
244.0639179593714
 30
0.0
 11
178.9692666911534
 21
244.0639179593715
 31
0.0
  0
LINE
  5
BC3
330
383
100
AcDbEntity
  8
DIM
100
AcDbLine
 10
180.9692666911534
 20
217.0639179593715
 30
0.0
 11
180.9692666911534
 21
241.0639179593715
 31
0.0
  0
SOLID
  5
BC4
330
383
100
AcDbEntity
  8
DIM
100
AcDbTrace
 10
180.4692666911534
 20
217.0639179593715
 30
0.0
 11
181.4692666911534
 21
217.0639179593715
 31
0.0
 12
180.9692666911534
 22
214.0639179593715
 32
0.0
 13
180.9692666911534
 23
214.0639179593715
 33
0.0
  0
SOLID
  5
BC5
330
383
100
AcDbEntity
  8
DIM
100
AcDbTrace
 10
180.4692666911534
 20
241.0639179593715
 30
0.0
 11
181.4692666911534
 21
241.0639179593715
 31
0.0
 12
180.9692666911534
 22
244.0639179593715
 32
0.0
 13
180.9692666911534
 23
244.0639179593715
 33
0.0
  0
MTEXT
  5
BC6
330
383
100
AcDbEntity
  8
DIM
100
AcDbMText
 10
178.4692666911534
 20
229.0639179593715
 30
0.0
 40
3.0
 41
0.0
 71
     5
 72
     1
  1
\A1;30
  7
CHINESET
 11
0.0000000000000001
 21
1.0
 31
0.0
 73
     1
 44
1.0
1001
ACAD
1000
MTEXTBEGIN
1070
    73
1070
     1
1070
    44
1040
1.0
1070
    74
1070
     0
1000
MTEXTEND
  0
POINT
  5
BC7
330
383
100
AcDbEntity
  8
DEFPOINTS
 62
     0
100
AcDbPoint
 10
210.1492257974586
 20
214.0639179593715
 30
0.0
  0
POINT
  5
BC8
330
383
100
AcDbEntity
  8
DEFPOINTS
 62
     0
100
AcDbPoint
 10
210.1492257974586
 20
244.0639179593714
 30
0.0
  0
POINT
  5
BC9
330
383
100
AcDbEntity
  8
DEFPOINTS
 62
     0
100
AcDbPoint
 10
180.9692666911534
 20
244.0639179593715
 30
0.0
  0
ENDBLK
  5
38E
330
383
100
AcDbEntity
  8
0
100
AcDbBlockEnd
  0
BLOCK
  5
3B0
330
3A6
100
AcDbEntity
  8
0
100
AcDbBlockBegin
  2
*D2
 70
     1
 10
0.0
 20
0.0
 30
0.0
  3
*D2
  1

  0
LINE
  5
BCA
330
3A6
100
AcDbEntity
  8
DIM
100
AcDbLine
 10
208.1492257974586
 20
123.6694003017438
 30
0.0
 11
185.0898549527329
 21
123.6694003017438
 31
0.0
  0
LINE
  5
BCB
330
3A6
100
AcDbEntity
  8
DIM
100
AcDbLine
 10
208.1492257974586
 20
170.0694003017438
 30
0.0
 11
185.0898549527329
 21
170.0694003017438
 31
0.0
  0
LINE
  5
BCC
330
3A6
100
AcDbEntity
  8
DIM
100
AcDbLine
 10
187.0898549527329
 20
126.6694003017438
 30
0.0
 11
187.0898549527329
 21
167.0694003017438
 31
0.0
  0
SOLID
  5
BCD
330
3A6
100
AcDbEntity
  8
DIM
100
AcDbTrace
 10
186.5898549527329
 20
126.6694003017438
 30
0.0
 11
187.5898549527329
 21
126.6694003017438
 31
0.0
 12
187.0898549527329
 22
123.6694003017438
 32
0.0
 13
187.0898549527329
 23
123.6694003017438
 33
0.0
  0
SOLID
  5
BCE
330
3A6
100
AcDbEntity
  8
DIM
100
AcDbTrace
 10
186.5898549527329
 20
167.0694003017438
 30
0.0
 11
187.5898549527329
 21
167.0694003017438
 31
0.0
 12
187.0898549527329
 22
170.0694003017438
 32
0.0
 13
187.0898549527329
 23
170.0694003017438
 33
0.0
  0
MTEXT
  5
BCF
330
3A6
100
AcDbEntity
  8
DIM
100
AcDbMText
 10
184.5898549527329
 20
146.8694003017439
 30
0.0
 40
3.0
 41
0.0
 71
     5
 72
     1
  1
\A1;46.4
  7
CHINESET
 11
0.0000000000000001
 21
1.0
 31
0.0
 73
     1
 44
1.0
1001
ACAD
1000
MTEXTBEGIN
1070
    73
1070
     1
1070
    44
1040
1.0
1070
    74
1070
     0
1000
MTEXTEND
  0
POINT
  5
BD0
330
3A6
100
AcDbEntity
  8
DEFPOINTS
 62
     0
100
AcDbPoint
 10
210.1492257974586
 20
123.6694003017438
 30
0.0
  0
POINT
  5
BD1
330
3A6
100
AcDbEntity
  8
DEFPOINTS
 62
     0
100
AcDbPoint
 10
210.1492257974586
 20
170.0694003017438
 30
0.0
  0
POINT
  5
BD2
330
3A6
100
AcDbEntity
  8
DEFPOINTS
 62
     0
100
AcDbPoint
 10
187.0898549527329
 20
170.0694003017438
 30
0.0
  0
ENDBLK
  5
3B1
330
3A6
100
AcDbEntity
  8
0
100
AcDbBlockEnd
  0
BLOCK
  5
3BC
330
3B2
100
AcDbEntity
  8
0
100
AcDbBlockBegin
  2
*D3
 70
     1
 10
0.0
 20
0.0
 30
0.0
  3
*D3
  1

  0
LINE
  5
BD3
330
3B2
100
AcDbEntity
  8
DIM
100
AcDbLine
 10
209.1492257974585
 20
122.6694003017438
 30
0.0
 11
209.1492257974585
 21
102.1101550579742
 31
0.0
  0
LINE
  5
BD4
330
3B2
100
AcDbEntity
  8
DIM
100
AcDbLine
 10
396.5492257974586
 20
121.6694003017439
 30
0.0
 11
396.5492257974586
 21
102.1101550579742
 31
0.0
  0
LINE
  5
BD5
330
3B2
100
AcDbEntity
  8
DIM
100
AcDbLine
 10
212.1492257974586
 20
104.1101550579742
 30
0.0
 11
393.5492257974586
 21
104.1101550579742
 31
0.0
  0
SOLID
  5
BD6
330
3B2
100
AcDbEntity
  8
DIM
100
AcDbTrace
 10
212.1492257974586
 20
104.6101550579742
 30
0.0
 11
212.1492257974586
 21
103.6101550579742
 31
0.0
 12
209.1492257974585
 22
104.1101550579742
 32
0.0
 13
209.1492257974585
 23
104.1101550579742
 33
0.0
  0
SOLID
  5
BD7
330
3B2
100
AcDbEntity
  8
DIM
100
AcDbTrace
 10
393.5492257974586
 20
104.6101550579742
 30
0.0
 11
393.5492257974586
 21
103.6101550579742
 31
0.0
 12
396.5492257974586
 22
104.1101550579742
 32
0.0
 13
396.5492257974586
 23
104.1101550579742
 33
0.0
  0
MTEXT
  5
BD8
330
3B2
100
AcDbEntity
  8
DIM
 62
     0
100
AcDbMText
 10
302.8492257974585
 20
106.6101550579742
 30
0.0
 40
3.0
 41
0.0
 71
     5
 72
     1
  1
\A1;187.4
  7
CHINESET
 73
     1
 44
1.0
1001
ACAD
1000
MTEXTBEGIN
1070
    73
1070
     1
1070
    44
1040
1.0
1070
    74
1070
     0
1000
MTEXTEND
  0
POINT
  5
BD9
330
3B2
100
AcDbEntity
  8
DEFPOINTS
 62
     0
100
AcDbPoint
 10
209.1492257974585
 20
124.6694003017438
 30
0.0
  0
POINT
  5
BDA
330
3B2
100
AcDbEntity
  8
DEFPOINTS
 62
     0
100
AcDbPoint
 10
396.5492257974586
 20
123.6694003017438
 30
0.0
  0
POINT
  5
BDB
330
3B2
100
AcDbEntity
  8
DEFPOINTS
 62
     0
100
AcDbPoint
 10
396.5492257974586
 20
104.1101550579742
 30
0.0
  0
ENDBLK
  5
3BD
330
3B2
100
AcDbEntity
  8
0
100
AcDbBlockEnd
  0
BLOCK
  5
3C8
330
3BE
100
AcDbEntity
  8
0
100
AcDbBlockBegin
  2
*D4
 70
     1
 10
0.0
 20
0.0
 30
0.0
  3
*D4
  1

  0
LINE
  5
BDC
330
3BE
100
AcDbEntity
  8
DIM
100
AcDbLine
 10
288.3492243948484
 20
123.6694003017438
 30
0.0
 11
288.3492243948484
 21
111.2709175304308
 31
0.0
  0
LINE
  5
BDD
330
3BE
100
AcDbEntity
  8
DIM
100
AcDbLine
 10
317.3492257974585
 20
123.6694003017438
 30
0.0
 11
317.3492257974585
 21
111.2709175304308
 31
0.0
  0
LINE
  5
BDE
330
3BE
100
AcDbEntity
  8
DIM
100
AcDbLine
 10
291.3492243948484
 20
113.2709175304308
 30
0.0
 11
314.3492257974585
 21
113.2709175304308
 31
0.0
  0
SOLID
  5
BDF
330
3BE
100
AcDbEntity
  8
DIM
100
AcDbTrace
 10
291.3492243948484
 20
113.7709175304308
 30
0.0
 11
291.3492243948484
 21
112.7709175304308
 31
0.0
 12
288.3492243948484
 22
113.2709175304308
 32
0.0
 13
288.3492243948484
 23
113.2709175304308
 33
0.0
  0
SOLID
  5
BE0
330
3BE
100
AcDbEntity
  8
DIM
100
AcDbTrace
 10
314.3492257974585
 20
113.7709175304308
 30
0.0
 11
314.3492257974585
 21
112.7709175304308
 31
0.0
 12
317.3492257974585
 22
113.2709175304308
 32
0.0
 13
317.3492257974585
 23
113.2709175304308
 33
0.0
  0
MTEXT
  5
BE1
330
3BE
100
AcDbEntity
  8
DIM
 62
     0
100
AcDbMText
 10
302.8492250961535
 20
115.7709175304308
 30
0.0
 40
3.0
 41
0.0
 71
     5
 72
     1
  1
\A1;29
  7
CHINESET
 73
     1
 44
1.0
1001
ACAD
1000
MTEXTBEGIN
1070
    73
1070
     1
1070
    44
1040
1.0
1070
    74
1070
     0
1000
MTEXTEND
  0
POINT
  5
BE2
330
3BE
100
AcDbEntity
  8
DEFPOINTS
 62
     0
100
AcDbPoint
 10
288.3492243948484
 20
125.6694003017438
 30
0.0
  0
POINT
  5
BE3
330
3BE
100
AcDbEntity
  8
DEFPOINTS
 62
     0
100
AcDbPoint
 10
317.3492257974585
 20
125.6694003017438
 30
0.0
  0
POINT
  5
BE4
330
3BE
100
AcDbEntity
  8
DEFPOINTS
 62
     0
100
AcDbPoint
 10
317.3492257974585
 20
113.2709175304308
 30
0.0
  0
ENDBLK
  5
3C9
330
3BE
100
AcDbEntity
  8
0
100
AcDbBlockEnd
  0
BLOCK
  5
3D5
330
3CA
100
AcDbEntity
  8
0
100
AcDbBlockBegin
  2
*D5
 70
     1
 10
0.0
 20
0.0
 30
0.0
  3
*D5
  1

  0
LINE
  5
BE5
330
3CA
100
AcDbEntity
  8
DIM
100
AcDbLine
 10
208.1492257974586
 20
123.6694003017438
 30
0.0
 11
196.9518871047109
 21
123.6694003017438
 31
0.0
  0
LINE
  5
BE6
330
3CA
100
AcDbEntity
  8
DIM
100
AcDbLine
 10
281.3492243948484
 20
130.6694003017438
 30
0.0
 11
196.9518871047109
 21
130.6694003017438
 31
0.0
  0
LINE
  5
BE7
330
3CA
100
AcDbEntity
  8
DIM
100
AcDbLine
 10
198.9518871047109
 20
120.6694003017439
 30
0.0
 11
198.9518871047109
 21
117.6694003017439
 31
0.0
  0
LINE
  5
BE8
330
3CA
100
AcDbEntity
  8
DIM
100
AcDbLine
 10
198.9518871047109
 20
133.6694003017439
 30
0.0
 11
198.9518871047109
 21
136.6694003017439
 31
0.0
  0
SOLID
  5
BE9
330
3CA
100
AcDbEntity
  8
DIM
100
AcDbTrace
 10
198.4518871047109
 20
120.6694003017439
 30
0.0
 11
199.4518871047109
 21
120.6694003017439
 31
0.0
 12
198.9518871047109
 22
123.6694003017438
 32
0.0
 13
198.9518871047109
 23
123.6694003017438
 33
0.0
  0
SOLID
  5
BEA
330
3CA
100
AcDbEntity
  8
DIM
100
AcDbTrace
 10
198.4518871047109
 20
133.6694003017439
 30
0.0
 11
199.4518871047109
 21
133.6694003017439
 31
0.0
 12
198.9518871047109
 22
130.6694003017438
 32
0.0
 13
198.9518871047109
 23
130.6694003017438
 33
0.0
  0
MTEXT
  5
BEB
330
3CA
100
AcDbEntity
  8
DIM
 62
     0
100
AcDbMText
 10
196.4518871047109
 20
127.1694003017439
 30
0.0
 40
3.0
 41
0.0
 71
     5
 72
     1
  1
\A1;7
  7
CHINESET
 11
0.0000000000000001
 21
1.0
 31
0.0
 73
     1
 44
1.0
1001
ACAD
1000
MTEXTBEGIN
1070
    73
1070
     1
1070
    44
1040
1.0
1070
    74
1070
     0
1000
MTEXTEND
  0
POINT
  5
BEC
330
3CA
100
AcDbEntity
  8
DEFPOINTS
 62
     0
100
AcDbPoint
 10
210.1492257974586
 20
123.6694003017438
 30
0.0
  0
POINT
  5
BED
330
3CA
100
AcDbEntity
  8
DEFPOINTS
 62
     0
100
AcDbPoint
 10
283.3492243948484
 20
130.6694003017438
 30
0.0
  0
POINT
  5
BEE
330
3CA
100
AcDbEntity
  8
DEFPOINTS
 62
     0
100
AcDbPoint
 10
198.9518871047109
 20
130.6694003017438
 30
0.0
  0
ENDBLK
  5
3D6
330
3CA
100
AcDbEntity
  8
0
100
AcDbBlockEnd
  0
BLOCK
  5
3E1
330
3D7
100
AcDbEntity
  8
0
100
AcDbBlockBegin
  2
*D6
 70
     1
 10
0.0
 20
0.0
 30
0.0
  3
*D6
  1

  0
LINE
  5
BEF
330
3D7
100
AcDbEntity
  8
DIM
100
AcDbLine
 10
260.8492257974585
 20
240.5639179593714
 30
0.0
 11
189.5108013085634
 21
240.5639179593715
 31
0.0
  0
LINE
  5
BF0
330
3D7
100
AcDbEntity
  8
DIM
100
AcDbLine
 10
331.8492257974585
 20
217.5639179593715
 30
0.0
 11
189.5108013085634
 21
217.5639179593715
 31
0.0
  0
LINE
  5
BF1
330
3D7
100
AcDbEntity
  8
DIM
100
AcDbLine
 10
191.5108013085634
 20
237.5639179593715
 30
0.0
 11
191.5108013085634
 21
220.5639179593716
 31
0.0
  0
SOLID
  5
BF2
330
3D7
100
AcDbEntity
  8
DIM
100
AcDbTrace
 10
191.0108013085634
 20
237.5639179593715
 30
0.0
 11
192.0108013085634
 21
237.5639179593715
 31
0.0
 12
191.5108013085634
 22
240.5639179593715
 32
0.0
 13
191.5108013085634
 23
240.5639179593715
 33
0.0
  0
SOLID
  5
BF3
330
3D7
100
AcDbEntity
  8
DIM
100
AcDbTrace
 10
191.0108013085634
 20
220.5639179593716
 30
0.0
 11
192.0108013085634
 21
220.5639179593715
 31
0.0
 12
191.5108013085634
 22
217.5639179593715
 32
0.0
 13
191.5108013085634
 23
217.5639179593715
 33
0.0
  0
MTEXT
  5
BF4
330
3D7
100
AcDbEntity
  8
DIM
 62
     0
100
AcDbMText
 10
189.0108013085633
 20
229.0639179593715
 30
0.0
 40
3.0
 41
0.0
 71
     5
 72
     1
  1
\A1;23
  7
CHINESET
 11
0.0000000000000001
 21
1.0
 31
0.0
 73
     1
 44
1.0
1001
ACAD
1000
MTEXTBEGIN
1070
    73
1070
     1
1070
    44
1040
1.0
1070
    74
1070
     0
1000
MTEXTEND
  0
POINT
  5
BF5
330
3D7
100
AcDbEntity
  8
DEFPOINTS
 62
     0
100
AcDbPoint
 10
262.8492257974585
 20
240.5639179593714
 30
0.0
  0
POINT
  5
BF6
330
3D7
100
AcDbEntity
  8
DEFPOINTS
 62
     0
100
AcDbPoint
 10
333.8492257974585
 20
217.5639179593715
 30
0.0
  0
POINT
  5
BF7
330
3D7
100
AcDbEntity
  8
DEFPOINTS
 62
     0
100
AcDbPoint
 10
191.5108013085634
 20
217.5639179593715
 30
0.0
  0
ENDBLK
  5
3E2
330
3D7
100
AcDbEntity
  8
0
100
AcDbBlockEnd
  0
BLOCK
  5
3EE
330
3E3
100
AcDbEntity
  8
0
100
AcDbBlockBegin
  2
*D7
 70
     1
 10
0.0
 20
0.0
 30
0.0
  3
*D7
  1

  0
LINE
  5
BF8
330
3E3
100
AcDbEntity
  8
DIM
100
AcDbLine
 10
303.0992257974582
 20
226.8139179593715
 30
0.0
 11
200.2624106926817
 21
226.8139179593715
 31
0.0
  0
LINE
  5
BF9
330
3E3
100
AcDbEntity
  8
DIM
100
AcDbLine
 10
276.0992257974586
 20
231.3139179593715
 30
0.0
 11
200.2624106926817
 21
231.3139179593715
 31
0.0
  0
LINE
  5
BFA
330
3E3
100
AcDbEntity
  8
DIM
100
AcDbLine
 10
202.2624106926817
 20
223.8139179593714
 30
0.0
 11
202.2624106926817
 21
220.8139179593715
 31
0.0
  0
LINE
  5
BFB
330
3E3
100
AcDbEntity
  8
DIM
100
AcDbLine
 10
202.2624106926817
 20
234.3139179593714
 30
0.0
 11
202.2624106926817
 21
237.3139179593715
 31
0.0
  0
MTEXT
  5
BFC
330
3E3
100
AcDbEntity
  8
DIM
 62
     0
100
AcDbMText
 10
197.2624106926816
 20
229.0639179593715
 30
0.0
 40
3.0
 41
0.0
 71
     5
 72
     1
  1
\A1;4.5
  7
CHINESET
 11
0.0000000000000001
 21
1.0
 31
0.0
 73
     1
 44
1.0
1001
ACAD
1000
MTEXTBEGIN
1070
    73
1070
     1
1070
    44
1040
1.0
1070
    74
1070
     0
1000
MTEXTEND
  0
SOLID
  5
BFD
330
3E3
100
AcDbEntity
  8
DIM
100
AcDbTrace
 10
201.7624106926817
 20
223.8139179593714
 30
0.0
 11
202.7624106926817
 21
223.8139179593714
 31
0.0
 12
202.2624106926817
 22
226.8139179593715
 32
0.0
 13
202.2624106926817
 23
226.8139179593715
 33
0.0
  0
SOLID
  5
BFE
330
3E3
100
AcDbEntity
  8
DIM
100
AcDbTrace
 10
201.7624106926817
 20
234.3139179593714
 30
0.0
 11
202.7624106926817
 21
234.3139179593714
 31
0.0
 12
202.2624106926817
 22
231.3139179593715
 32
0.0
 13
202.2624106926817
 23
231.3139179593715
 33
0.0
  0
POINT
  5
BFF
330
3E3
100
AcDbEntity
  8
DEFPOINTS
 62
     0
100
AcDbPoint
 10
305.0992257974582
 20
226.8139179593715
 30
0.0
  0
POINT
  5
C00
330
3E3
100
AcDbEntity
  8
DEFPOINTS
 62
     0
100
AcDbPoint
 10
278.0992257974586
 20
231.3139179593715
 30
0.0
  0
POINT
  5
C01
330
3E3
100
AcDbEntity
  8
DEFPOINTS
 62
     0
100
AcDbPoint
 10
202.2624106926817
 20
231.3139179593715
 30
0.0
  0
ENDBLK
  5
3EF
330
3E3
100
AcDbEntity
  8
0
100
AcDbBlockEnd
  0
BLOCK
  5
3FA
330
3F0
100
AcDbEntity
  8
0
100
AcDbBlockBegin
  2
*D8
 70
     1
 10
0.0
 20
0.0
 30
0.0
  3
*D8
  1

  0
LINE
  5
C02
330
3F0
100
AcDbEntity
  8
DIM
100
AcDbLine
 10
316.3492257974585
 20
240.0639179593713
 30
0.0
 11
316.3492257974585
 21
253.6738659178557
 31
0.0
  0
LINE
  5
C03
330
3F0
100
AcDbEntity
  8
DIM
100
AcDbLine
 10
289.3492257974585
 20
244.5639179593713
 30
0.0
 11
289.3492257974585
 21
253.6738659178557
 31
0.0
  0
LINE
  5
C04
330
3F0
100
AcDbEntity
  8
DIM
100
AcDbLine
 10
313.3492257974585
 20
251.6738659178557
 30
0.0
 11
292.3492257974585
 21
251.6738659178557
 31
0.0
  0
SOLID
  5
C05
330
3F0
100
AcDbEntity
  8
DIM
100
AcDbTrace
 10
313.3492257974585
 20
252.1738659178557
 30
0.0
 11
313.3492257974585
 21
251.1738659178557
 31
0.0
 12
316.3492257974585
 22
251.6738659178557
 32
0.0
 13
316.3492257974585
 23
251.6738659178557
 33
0.0
  0
SOLID
  5
C06
330
3F0
100
AcDbEntity
  8
DIM
100
AcDbTrace
 10
292.3492257974585
 20
252.1738659178557
 30
0.0
 11
292.3492257974585
 21
251.1738659178557
 31
0.0
 12
289.3492257974585
 22
251.6738659178557
 32
0.0
 13
289.3492257974585
 23
251.6738659178557
 33
0.0
  0
MTEXT
  5
C07
330
3F0
100
AcDbEntity
  8
DIM
 62
     0
100
AcDbMText
 10
302.8492257974585
 20
254.1738659178557
 30
0.0
 40
3.0
 41
0.0
 71
     5
 72
     1
  1
\A1;27
  7
CHINESET
 73
     1
 44
1.0
1001
ACAD
1000
MTEXTBEGIN
1070
    73
1070
     1
1070
    44
1040
1.0
1070
    74
1070
     0
1000
MTEXTEND
  0
POINT
  5
C08
330
3F0
100
AcDbEntity
  8
DEFPOINTS
 62
     0
100
AcDbPoint
 10
316.3492257974585
 20
238.0639179593713
 30
0.0
  0
POINT
  5
C09
330
3F0
100
AcDbEntity
  8
DEFPOINTS
 62
     0
100
AcDbPoint
 10
289.3492257974585
 20
242.5639179593713
 30
0.0
  0
POINT
  5
C0A
330
3F0
100
AcDbEntity
  8
DEFPOINTS
 62
     0
100
AcDbPoint
 10
289.3492257974585
 20
251.6738659178557
 30
0.0
  0
ENDBLK
  5
3FB
330
3F0
100
AcDbEntity
  8
0
100
AcDbBlockEnd
  0
BLOCK
  5
406
330
3FC
100
AcDbEntity
  8
0
100
AcDbBlockBegin
  2
*D9
 70
     1
 10
0.0
 20
0.0
 30
0.0
  3
*D9
  1

  0
LINE
  5
C0B
330
3FC
100
AcDbEntity
  8
DIM
100
AcDbLine
 10
273.8492257974586
 20
73.62414642990265
 30
0.0
 11
273.8492257974586
 21
88.76631822773072
 31
0.0
  0
LINE
  5
C0C
330
3FC
100
AcDbEntity
  8
DIM
100
AcDbLine
 10
302.8492257974585
 20
78.87631106441711
 30
0.0
 11
302.8492257974585
 21
88.76631822773072
 31
0.0
  0
LINE
  5
C0D
330
3FC
100
AcDbEntity
  8
DIM
100
AcDbLine
 10
276.8492257974586
 20
86.76631822773073
 30
0.0
 11
299.8492257974585
 21
86.76631822773073
 31
0.0
  0
SOLID
  5
C0E
330
3FC
100
AcDbEntity
  8
DIM
100
AcDbTrace
 10
276.8492257974586
 20
87.26631822773072
 30
0.0
 11
276.8492257974586
 21
86.26631822773072
 31
0.0
 12
273.8492257974586
 22
86.76631822773073
 32
0.0
 13
273.8492257974586
 23
86.76631822773073
 33
0.0
  0
SOLID
  5
C0F
330
3FC
100
AcDbEntity
  8
DIM
100
AcDbTrace
 10
299.8492257974585
 20
87.26631822773072
 30
0.0
 11
299.8492257974585
 21
86.26631822773072
 31
0.0
 12
302.8492257974585
 22
86.76631822773073
 32
0.0
 13
302.8492257974585
 23
86.76631822773073
 33
0.0
  0
MTEXT
  5
C10
330
3FC
100
AcDbEntity
  8
DIM
 62
     0
100
AcDbMText
 10
288.3492257974586
 20
89.26631822773073
 30
0.0
 40
3.0
 41
0.0
 71
     5
 72
     1
  1
\A1;29
  7
CHINESET
 73
     1
 44
1.0
1001
ACAD
1000
MTEXTBEGIN
1070
    73
1070
     1
1070
    44
1040
1.0
1070
    74
1070
     0
1000
MTEXTEND
  0
POINT
  5
C11
330
3FC
100
AcDbEntity
  8
DEFPOINTS
 62
     0
100
AcDbPoint
 10
273.8492257974586
 20
71.62414642990265
 30
0.0
  0
POINT
  5
C12
330
3FC
100
AcDbEntity
  8
DEFPOINTS
 62
     0
100
AcDbPoint
 10
302.8492257974585
 20
76.87631106441711
 30
0.0
  0
POINT
  5
C13
330
3FC
100
AcDbEntity
  8
DEFPOINTS
 62
     0
100
AcDbPoint
 10
302.8492257974585
 20
86.76631822773073
 30
0.0
  0
ENDBLK
  5
407
330
3FC
100
AcDbEntity
  8
0
100
AcDbBlockEnd
  0
BLOCK
  5
411
330
408
100
AcDbEntity
  8
0
100
AcDbBlockBegin
  2
*D10
 70
     1
 10
0.0
 20
0.0
 30
0.0
  3
*D10
  1

  0
LINE
  5
C14
330
408
100
AcDbEntity
  8
DIM
100
AcDbLine
 10
331.8492257974585
 20
73.62414642990282
 30
0.0
 11
331.8492257974585
 21
88.76631822773072
 31
0.0
  0
LINE
  5
C15
330
408
100
AcDbEntity
  8
DIM
100
AcDbLine
 10
305.8492257974585
 20
86.76631822773073
 30
0.0
 11
328.8492257974585
 21
86.76631822773073
 31
0.0
  0
SOLID
  5
C16
330
408
100
AcDbEntity
  8
DIM
100
AcDbTrace
 10
305.8492257974585
 20
87.26631822773072
 30
0.0
 11
305.8492257974585
 21
86.26631822773072
 31
0.0
 12
302.8492257974585
 22
86.76631822773073
 32
0.0
 13
302.8492257974585
 23
86.76631822773073
 33
0.0
  0
SOLID
  5
C17
330
408
100
AcDbEntity
  8
DIM
100
AcDbTrace
 10
328.8492257974585
 20
87.26631822773072
 30
0.0
 11
328.8492257974585
 21
86.26631822773072
 31
0.0
 12
331.8492257974585
 22
86.76631822773073
 32
0.0
 13
331.8492257974585
 23
86.76631822773073
 33
0.0
  0
MTEXT
  5
C18
330
408
100
AcDbEntity
  8
DIM
 62
     0
100
AcDbMText
 10
317.3492257974585
 20
89.26631822773073
 30
0.0
 40
3.0
 41
0.0
 71
     5
 72
     1
  1
\A1;29
  7
CHINESET
 73
     1
 44
1.0
1001
ACAD
1000
MTEXTBEGIN
1070
    73
1070
     1
1070
    44
1040
1.0
1070
    74
1070
     0
1000
MTEXTEND
  0
POINT
  5
C19
330
408
100
AcDbEntity
  8
DEFPOINTS
 62
     0
100
AcDbPoint
 10
302.8492257974585
 20
76.87631106441711
 30
0.0
  0
POINT
  5
C1A
330
408
100
AcDbEntity
  8
DEFPOINTS
 62
     0
100
AcDbPoint
 10
331.8492257974585
 20
71.62414642990282
 30
0.0
  0
POINT
  5
C1B
330
408
100
AcDbEntity
  8
DEFPOINTS
 62
     0
100
AcDbPoint
 10
331.8492257974585
 20
86.76631822773073
 30
0.0
  0
ENDBLK
  5
412
330
408
100
AcDbEntity
  8
0
100
AcDbBlockEnd
  0
BLOCK
  5
743
330
741
100
AcDbEntity
  8
0
100
AcDbBlockBegin
  2
GENAXEH
 70
     0
 10
0.0
 20
0.0
 30
0.0
  3
GENAXEH
  1

  0
LINE
  5
742
330
741
100
AcDbEntity
  8
0
100
AcDbLine
 10
-1.0
 20
0.0
 30
0.0
 11
1.0
 21
0.0
 31
0.0
  0
ENDBLK
  5
744
330
741
100
AcDbEntity
  8
0
100
AcDbBlockEnd
  0
BLOCK
  5
75C
330
751
100
AcDbEntity
  8
0
100
AcDbBlockBegin
  2
*D12
 70
     1
 10
0.0
 20
0.0
 30
0.0
  3
*D12
  1

  0
LINE
  5
C1C
330
751
100
AcDbEntity
  8
DIM
100
AcDbLine
 10
201.1825411131646
 20
146.8694003017438
 30
0.0
 11
193.9130064924912
 21
146.8694003017438
 31
0.0
  0
LINE
  5
C1D
330
751
100
AcDbEntity
  8
DIM
100
AcDbLine
 10
205.1343725676984
 20
140.6694003017438
 30
0.0
 11
193.9130064924912
 21
140.6694003017438
 31
0.0
  0
LINE
  5
C1E
330
751
100
AcDbEntity
  8
DIM
100
AcDbLine
 10
195.9130064924912
 20
149.8694003017438
 30
0.0
 11
195.9130064924912
 21
152.8694003017438
 31
0.0
  0
LINE
  5
C1F
330
751
100
AcDbEntity
  8
DIM
100
AcDbLine
 10
195.9130064924912
 20
137.6694003017438
 30
0.0
 11
195.9130064924912
 21
134.6694003017438
 31
0.0
  0
MTEXT
  5
C20
330
751
100
AcDbEntity
  8
DIM
 62
     0
100
AcDbMText
 10
190.9130064924912
 20
143.7694003017439
 30
0.0
 40
3.0
 41
0.0
 71
     5
 72
     1
  1
\A1;6.2
  7
CHINESET
 11
0.0000000000000001
 21
1.0
 31
0.0
 73
     1
 44
1.0
1001
ACAD
1000
MTEXTBEGIN
1070
    73
1070
     1
1070
    44
1040
1.0
1070
    74
1070
     0
1000
MTEXTEND
  0
SOLID
  5
C21
330
751
100
AcDbEntity
  8
DIM
100
AcDbTrace
 10
195.4130064924912
 20
149.8694003017438
 30
0.0
 11
196.4130064924912
 21
149.8694003017438
 31
0.0
 12
195.9130064924912
 22
146.8694003017438
 32
0.0
 13
195.9130064924912
 23
146.8694003017438
 33
0.0
  0
SOLID
  5
C22
330
751
100
AcDbEntity
  8
DIM
100
AcDbTrace
 10
195.4130064924912
 20
137.6694003017438
 30
0.0
 11
196.4130064924912
 21
137.6694003017438
 31
0.0
 12
195.9130064924912
 22
140.6694003017438
 32
0.0
 13
195.9130064924912
 23
140.6694003017438
 33
0.0
  0
POINT
  5
C23
330
751
100
AcDbEntity
  8
DEFPOINTS
 62
     0
100
AcDbPoint
 10
203.1825411131646
 20
146.8694003017438
 30
0.0
  0
POINT
  5
C24
330
751
100
AcDbEntity
  8
DEFPOINTS
 62
     0
100
AcDbPoint
 10
207.1343725676984
 20
140.6694003017438
 30
0.0
  0
POINT
  5
C25
330
751
100
AcDbEntity
  8
DEFPOINTS
 62
     0
100
AcDbPoint
 10
195.9130064924912
 20
140.6694003017438
 30
0.0
  0
ENDBLK
  5
75D
330
751
100
AcDbEntity
  8
0
100
AcDbBlockEnd
  0
ENDSEC
  0
SECTION
  2
ENTITIES
  0
DIMENSION
  5
1E
330
2BD
100
AcDbEntity
  8
DIM
100
AcDbDimension
  2
*D0
 10
266.8492257974585
 20
202.5983650999005
 30
0.0
 11
302.8492257974585
 21
205.0983650999005
 31
0.0
 70
    32
 71
     5
 42
72.0
  3
STANDARD
100
AcDbAlignedDimension
 13
338.8492257974585
 23
212.5639179593715
 33
0.0
 14
266.8492257974585
 24
235.5639179593715
 34
0.0
100
AcDbRotatedDimension
  0
DIMENSION
  5
2D
330
2BD
100
AcDbEntity
  8
DIM
100
AcDbDimension
  2
*D1
 10
180.9692666911534
 20
244.0639179593715
 30
0.0
 11
178.4692666911534
 21
229.0639179593715
 31
0.0
 70
    32
 71
     5
 42
29.99999999999997
  3
STANDARD
100
AcDbAlignedDimension
 13
210.1492257974586
 23
214.0639179593715
 33
0.0
 14
210.1492257974586
 24
244.0639179593714
 34
0.0
 50
90.0
100
AcDbRotatedDimension
1001
ACAD
1000
DSTYLE
1002
{
1070
   178
1070
   256
1070
   177
1070
   256
1070
   176
1070
   256
1002
}
  0
LINE
  5
45
330
2BD
100
AcDbEntity
  8
0
 62
     7
100
AcDbLine
 10
342.8492257974578
 20
217.5639179593715
 30
0.0
 11
342.8492257974578
 21
214.0639179593715
 31
0.0
  0
LINE
  5
46
330
2BD
100
AcDbEntity
  8
0
 62
     7
100
AcDbLine
 10
334.8492257974592
 20
217.5639179593715
 30
0.0
 11
334.8492257974592
 21
214.0639179593715
 31
0.0
  0
CIRCLE
  5
47
330
2BD
100
AcDbEntity
  8
0
 62
     7
100
AcDbCircle
 10
338.8492257974585
 20
217.5639179593714
 30
0.0
 40
2.25
  0
LINE
  5
48
330
2BD
100
AcDbEntity
  8
0
100
AcDbLine
 10
345.8492257974585
 20
244.0639179593715
 30
0.0
 11
345.8492257974585
 21
214.0639179593715
 31
0.0
  0
LINE
  5
49
330
2BD
100
AcDbEntity
  8
0
 62
     7
100
AcDbLine
 10
345.8492257974585
 20
244.0639179593715
 30
0.0
 11
345.8492257974585
 21
214.0639179593715
 31
0.0
  0
CIRCLE
  5
4A
330
2BD
100
AcDbEntity
  8
0
 62
     7
100
AcDbCircle
 10
316.3492257974584
 20
226.8139179593715
 30
0.0
 40
10.24999999999997
  0
LINE
  5
4B
330
2BD
100
AcDbEntity
  8
center
  6
CENTER
100
AcDbLine
 10
316.3492257974585
 20
215.5639179593717
 30
0.0
 11
316.3492257974585
 21
238.0639179593713
 31
0.0
  0
LINE
  5
4D
330
2BD
100
AcDbEntity
  8
0
100
AcDbLine
 10
259.8492257974585
 20
244.0639179593715
 30
0.0
 11
259.8492257974585
 21
214.0639179593715
 31
0.0
  0
LINE
  5
4E
330
2BD
100
AcDbEntity
  8
0
100
AcDbLine
 10
209.1492257974585
 20
244.0639179593715
 30
0.0
 11
209.1492257974585
 21
214.0639179593715
 31
0.0
  0
LINE
  5
4F
330
2BD
100
AcDbEntity
  8
0
 62
     7
100
AcDbLine
 10
259.8492257974585
 20
244.0639179593715
 30
0.0
 11
259.8492257974585
 21
214.0639179593715
 31
0.0
  0
LINE
  5
50
330
2BD
100
AcDbEntity
  8
center
  6
CENTER
100
AcDbLine
 10
338.8492257974585
 20
222.5639179593715
 30
0.0
 11
338.8492257974585
 21
212.5639179593715
 31
0.0
  0
TEXT
  5
52
330
2BD
100
AcDbEntity
  8
0
100
AcDbText
 10
318.9629695312598
 20
257.0056182748902
 30
0.0
 40
3.0
  1
S=1:1
  7
CHINESET
100
AcDbText
  0
TEXT
  5
53
330
2BD
100
AcDbEntity
  8
0
100
AcDbText
 10
253.1383572259368
 20
264.3036139978796
 30
0.0
 40
5.0
  1
MVAA-460-4A2C 安裝尺寸圖
  7
CHINESET
100
AcDbText
  0
LINE
  5
55
330
2BD
100
AcDbEntity
  8
center
  6
CENTER
100
AcDbLine
 10
205.7728831366055
 20
60.37414642990282
 30
0.0
 11
402.1304689952608
 21
60.37414642990282
 31
0.0
  0
LINE
  5
56
330
2BD
100
AcDbEntity
  8
0
  6
Continuous
 62
     7
100
AcDbLine
 10
209.1492257974585
 20
45.37414642990282
 30
0.0
 11
396.5492257974586
 21
45.37414642990282
 31
0.0
  0
LINE
  5
57
330
2BD
100
AcDbEntity
  8
0
  6
Continuous
 62
     7
100
AcDbLine
 10
209.1492257974585
 20
75.37414642990282
 30
0.0
 11
396.5492257974585
 21
75.37414642990282
 31
0.0
  0
CIRCLE
  5
58
330
2BD
100
AcDbEntity
  8
0
 62
     7
100
AcDbCircle
 10
302.8492257974585
 20
60.37414642990282
 30
0.0
 40
9.349999999999965
  0
CIRCLE
  5
59
330
2BD
100
AcDbEntity
  8
0
 62
     7
100
AcDbCircle
 10
302.8492257974585
 20
60.37414642990282
 30
0.0
 40
10.24999999999997
  0
LINE
  5
5A
330
2BD
100
AcDbEntity
  8
0
100
AcDbLine
 10
209.1492257974585
 20
75.37414642990282
 30
0.0
 11
209.1492257974585
 21
45.37414642990282
 31
0.0
  0
LINE
  5
5B
330
2BD
100
AcDbEntity
  8
0
  6
Continuous
 62
     7
100
AcDbLine
 10
277.5992257974587
 20
55.12414642990194
 30
0.0
 11
277.5992257974587
 21
65.62414642990233
 31
0.0
  0
LINE
  5
5C
330
2BD
100
AcDbEntity
  8
center
  6
CENTER
100
AcDbLine
 10
273.8492257974586
 20
71.62414642990265
 30
0.0
 11
273.8492257974586
 21
49.12414642990291
 31
0.0
  0
LINE
  5
5D
330
2BD
100
AcDbEntity
  8
0
  6
Continuous
 62
     7
100
AcDbLine
 10
270.0992257974586
 20
55.12414642990194
 30
0.0
 11
270.0992257974586
 21
65.62414642990233
 31
0.0
  0
LINE
  5
5E
330
2BD
100
AcDbEntity
  8
0
 62
     7
100
AcDbLine
 10
259.8492257974585
 20
75.37414642990282
 30
0.0
 11
259.8492257974585
 21
45.37414642990282
 31
0.0
  0
CIRCLE
  5
5F
330
2BD
100
AcDbEntity
  8
0
 62
     7
100
AcDbCircle
 10
273.8492257974586
 20
60.37414642990282
 30
0.0
 40
10.24999999999997
  0
CIRCLE
  5
60
330
2BD
100
AcDbEntity
  8
0
 62
     7
100
AcDbCircle
 10
273.8492257974586
 20
60.37414642990282
 30
0.0
 40
9.349999999999965
  0
LINE
  5
62
330
2BD
100
AcDbEntity
  8
center
  6
CENTER
100
AcDbLine
 10
266.8492257974585
 20
53.87414642990276
 30
0.0
 11
266.8492257974585
 21
43.87414642990276
 31
0.0
  0
CIRCLE
  5
68
330
2BD
100
AcDbEntity
  8
0
 62
     7
100
AcDbCircle
 10
266.8492257974585
 20
48.87414642990276
 30
0.0
 40
2.25
  0
LINE
  5
69
330
2BD
100
AcDbEntity
  8
center
  6
CENTER
100
AcDbLine
 10
261.8492257974585
 20
48.87414642990276
 30
0.0
 11
271.8492257974585
 21
48.87414642990276
 31
0.0
  0
LINE
  5
6A
330
2BD
100
AcDbEntity
  8
center
  6
CENTER
100
AcDbLine
 10
268.8492257974587
 20
55.12414642990197
 30
0.0
 11
278.8492257974586
 21
55.12414642990197
 31
0.0
  0
ARC
  5
6B
330
2BD
100
AcDbEntity
  8
0
 62
     7
100
AcDbCircle
 10
273.8492257974586
 20
55.12414642990197
 30
0.0
 40
3.75
100
AcDbArc
 50
180.0000000000004
 51
0.0
  0
ARC
  5
6E
330
2BD
100
AcDbEntity
  8
0
 62
     7
100
AcDbCircle
 10
273.8492257974586
 20
65.62414642990233
 30
0.0
 40
3.75
100
AcDbArc
 50
0.0
 51
180.0
  0
LINE
  5
6F
330
2BD
100
AcDbEntity
  8
center
  6
CENTER
100
AcDbLine
 10
268.8492257974587
 20
65.62414642990233
 30
0.0
 11
278.8492257974586
 21
65.62414642990233
 31
0.0
  0
LINE
  5
70
330
2BD
100
AcDbEntity
  8
0
  6
Continuous
 62
     7
100
AcDbLine
 10
335.5992257974585
 20
55.12414642990191
 30
0.0
 11
335.5992257974585
 21
65.62414642990231
 31
0.0
  0
LINE
  5
71
330
2BD
100
AcDbEntity
  8
0
 62
     7
100
AcDbLine
 10
345.8492257974585
 20
75.37414642990282
 30
0.0
 11
345.8492257974585
 21
45.37414642990282
 31
0.0
  0
LINE
  5
72
330
2BD
100
AcDbEntity
  8
0
  6
Continuous
 62
     7
100
AcDbLine
 10
306.5992257974585
 20
55.12414642990194
 30
0.0
 11
306.5992257974585
 21
65.62414642990233
 31
0.0
  0
LINE
  5
73
330
2BD
100
AcDbEntity
  8
0
  6
Continuous
 62
     7
100
AcDbLine
 10
328.0992257974585
 20
55.12414642990191
 30
0.0
 11
328.0992257974585
 21
65.62414642990231
 31
0.0
  0
LINE
  5
74
330
2BD
100
AcDbEntity
  8
center
  6
CENTER
100
AcDbLine
 10
331.8492257974585
 20
71.62414642990282
 30
0.0
 11
331.8492257974585
 21
49.12414642990282
 31
0.0
  0
CIRCLE
  5
75
330
2BD
100
AcDbEntity
  8
0
 62
     7
100
AcDbCircle
 10
331.8492257974585
 20
60.37414642990282
 30
0.0
 40
10.24999999999997
  0
CIRCLE
  5
76
330
2BD
100
AcDbEntity
  8
0
 62
     7
100
AcDbCircle
 10
331.8492257974585
 20
60.37414642990282
 30
0.0
 40
9.349999999999965
  0
LINE
  5
77
330
2BD
100
AcDbEntity
  8
0
  6
Continuous
 62
     7
100
AcDbLine
 10
299.0992257974586
 20
55.12414642990194
 30
0.0
 11
299.0992257974586
 21
65.62414642990233
 31
0.0
  0
LINE
  5
78
330
2BD
100
AcDbEntity
  8
center
  6
CENTER
100
AcDbLine
 10
302.8492257974585
 20
76.87631106441711
 30
0.0
 11
302.8492257974585
 21
43.46979307014206
 31
0.0
  0
LINE
  5
79
330
2BD
100
AcDbEntity
  8
center
  6
CENTER
100
AcDbLine
 10
326.8492257974585
 20
55.12414642990194
 30
0.0
 11
336.8492257974585
 21
55.12414642990194
 31
0.0
  0
ARC
  5
7A
330
2BD
100
AcDbEntity
  8
0
 62
     7
100
AcDbCircle
 10
331.8492257974585
 20
55.12414642990194
 30
0.0
 40
3.75
100
AcDbArc
 50
180.0000000000004
 51
0.0
  0
LINE
  5
7D
330
2BD
100
AcDbEntity
  8
center
  6
CENTER
100
AcDbLine
 10
297.8492257974585
 20
55.12414642990197
 30
0.0
 11
307.8492257974585
 21
55.12414642990197
 31
0.0
  0
ARC
  5
7E
330
2BD
100
AcDbEntity
  8
0
 62
     7
100
AcDbCircle
 10
302.8492257974585
 20
55.12414642990197
 30
0.0
 40
3.75
100
AcDbArc
 50
180.0000000000004
 51
0.0
  0
ARC
  5
81
330
2BD
100
AcDbEntity
  8
0
 62
     7
100
AcDbCircle
 10
331.8492257974585
 20
65.62414642990231
 30
0.0
 40
3.75
100
AcDbArc
 50
0.0
 51
180.0
  0
LINE
  5
82
330
2BD
100
AcDbEntity
  8
center
  6
CENTER
100
AcDbLine
 10
326.8492257974585
 20
65.62414642990231
 30
0.0
 11
336.8492257974585
 21
65.62414642990231
 31
0.0
  0
ARC
  5
83
330
2BD
100
AcDbEntity
  8
0
 62
     7
100
AcDbCircle
 10
302.8492257974585
 20
65.62414642990233
 30
0.0
 40
3.75
100
AcDbArc
 50
0.0
 51
180.0
  0
LINE
  5
84
330
2BD
100
AcDbEntity
  8
center
  6
CENTER
100
AcDbLine
 10
297.8492257974585
 20
65.62414642990233
 30
0.0
 11
307.8492257974585
 21
65.62414642990233
 31
0.0
  0
LINE
  5
85
330
2BD
100
AcDbEntity
  8
center
  6
CENTER
100
AcDbLine
 10
338.8492257974585
 20
66.87414642990276
 30
0.0
 11
338.8492257974585
 21
76.87414642990276
 31
0.0
  0
CIRCLE
  5
8A
330
2BD
100
AcDbEntity
  8
0
 62
     7
100
AcDbCircle
 10
338.8492257974585
 20
71.87414642990276
 30
0.0
 40
2.25
  0
LINE
  5
8B
330
2BD
100
AcDbEntity
  8
center
  6
CENTER
100
AcDbLine
 10
343.8492257974585
 20
71.87414642990276
 30
0.0
 11
333.8492257974585
 21
71.87414642990276
 31
0.0
  0
DIMENSION
  5
BD
330
2BD
100
AcDbEntity
  8
DIM
100
AcDbDimension
  2
*D2
 10
187.0898549527329
 20
170.0694003017438
 30
0.0
 11
184.5898549527329
 21
146.8694003017439
 31
0.0
 70
    32
 71
     5
 42
46.39999999999996
  3
STANDARD
100
AcDbAlignedDimension
 13
210.1492257974586
 23
123.6694003017438
 33
0.0
 14
210.1492257974586
 24
170.0694003017438
 34
0.0
 50
90.0
100
AcDbRotatedDimension
1001
ACAD
1000
DSTYLE
1002
{
1070
   178
1070
   256
1070
   177
1070
   256
1070
   176
1070
   256
1002
}
  0
LINE
  5
CF
330
2BD
100
AcDbEntity
  8
0
 62
     7
100
AcDbLine
 10
345.8492257974585
 20
162.7050756701848
 30
0.0
 11
345.8492257974585
 21
145.3050756701848
 31
0.0
  0
LINE
  5
D0
330
2BD
100
AcDbEntity
  8
0
 62
     7
100
AcDbLine
 10
345.8492257974585
 20
123.6694003017438
 30
0.0
 11
345.8492257974585
 21
170.0694003017437
 31
0.0
  0
LINE
  5
D1
330
2BD
100
AcDbEntity
  8
0
100
AcDbLine
 10
209.1492257974585
 20
123.6694003017438
 30
0.0
 11
209.1492257974585
 21
170.0694003017437
 31
0.0
  0
LINE
  5
D2
330
2BD
100
AcDbEntity
  8
0
 62
     7
100
AcDbLine
 10
259.8492257974585
 20
123.6694003017438
 30
0.0
 11
259.8492257974585
 21
170.0694003017437
 31
0.0
  0
LINE
  5
D3
330
2BD
100
AcDbEntity
  8
0
 62
     7
100
AcDbLine
 10
345.8492257974585
 20
170.0694003017439
 30
0.0
 11
345.8492257974585
 21
123.6694003017438
 31
0.0
  0
LINE
  5
D4
330
2BD
100
AcDbEntity
  8
center
  6
CENTER
100
AcDbLine
 10
302.8492257974585
 20
171.5382182365265
 30
0.0
 11
302.8492257974585
 21
121.9882672697336
 31
0.0
  0
LINE
  5
D5
330
2BD
100
AcDbEntity
  8
0
 62
     7
100
AcDbLine
 10
259.8492257974585
 20
170.0694003017438
 30
0.0
 11
259.8492257974585
 21
123.6694003017438
 31
0.0
  0
DIMENSION
  5
D6
330
2BD
100
AcDbEntity
  8
DIM
100
AcDbDimension
  2
*D3
 10
396.5492257974586
 20
104.1101550579742
 30
0.0
 11
302.8492257974585
 21
106.6101550579742
 31
0.0
 70
    32
 71
     5
 42
187.4
  3
STANDARD
100
AcDbAlignedDimension
 13
209.1492257974585
 23
124.6694003017438
 33
0.0
 14
396.5492257974586
 24
123.6694003017438
 34
0.0
100
AcDbRotatedDimension
  0
LINE
  5
E3
330
2BD
100
AcDbEntity
  8
center
  6
CENTER
100
AcDbLine
 10
203.1825411131646
 20
146.8694003017438
 30
0.0
 11
403.1452589174013
 21
146.8694003017438
 31
0.0
  0
LINE
  5
E4
330
2BD
100
AcDbEntity
  8
0
 62
     7
100
AcDbLine
 10
396.5492257974586
 20
123.6694003017438
 30
0.0
 11
345.8492257974585
 21
123.6694003017438
 31
0.0
  0
DIMENSION
  5
E5
330
2BD
100
AcDbEntity
  8
DIM
100
AcDbDimension
  2
*D4
 10
317.3492257974585
 20
113.2709175304308
 30
0.0
 11
302.8492250961535
 21
115.7709175304308
 31
0.0
 70
    32
 71
     5
 42
29.00000140261011
  3
STANDARD
100
AcDbAlignedDimension
 13
288.3492243948484
 23
125.6694003017438
 33
0.0
 14
317.3492257974585
 24
125.6694003017438
 34
0.0
100
AcDbRotatedDimension
  0
LINE
  5
F2
330
2BD
100
AcDbEntity
  8
hidden
  6
HIDDEN
100
AcDbLine
 10
293.4992257974586
 20
136.1694003017438
 30
0.0
 11
312.1992257974586
 21
136.1694003017438
 31
0.0
  0
LINE
  5
F4
330
2BD
100
AcDbEntity
  8
hidden
  6
HIDDEN
100
AcDbLine
 10
292.5992257974585
 20
134.6694003017439
 30
0.0
 11
313.0992257974585
 21
134.6694003017439
 31
0.0
  0
LINE
  5
F5
330
2BD
100
AcDbEntity
  8
0
 62
     7
100
AcDbLine
 10
209.1492257974585
 20
123.6694003017438
 30
0.0
 11
345.8492257974585
 21
123.6694003017438
 31
0.0
  0
LINE
  5
F6
330
2BD
100
AcDbEntity
  8
hidden
  6
HIDDEN
100
AcDbLine
 10
293.4992257974586
 20
124.4765237456265
 30
0.0
 11
312.1992257974586
 21
124.4765237456265
 31
0.0
  0
LINE
  5
F7
330
2BD
100
AcDbEntity
  8
0
 62
     7
100
AcDbLine
 10
259.8492257974585
 20
123.6694003017438
 30
0.0
 11
345.8492257974585
 21
123.6694003017438
 31
0.0
  0
DIMENSION
  5
F8
330
2BD
100
AcDbEntity
  8
DIM
100
AcDbDimension
  2
*D5
 10
198.9518871047109
 20
130.6694003017438
 30
0.0
 11
196.4518871047109
 21
127.1694003017439
 31
0.0
 70
    32
 71
     5
 42
7.000000000000014
  3
STANDARD
100
AcDbAlignedDimension
 13
210.1492257974586
 23
123.6694003017438
 33
0.0
 14
283.3492243948484
 24
130.6694003017438
 34
0.0
 50
90.0
100
AcDbRotatedDimension
  0
LINE
  5
107
330
2BD
100
AcDbEntity
  8
center
  6
CENTER
100
AcDbLine
 10
288.3492243948484
 20
125.6694003017438
 30
0.0
 11
288.3492243948484
 21
135.6694003017439
 31
0.0
  0
CIRCLE
  5
108
330
2BD
100
AcDbEntity
  8
0
 62
     7
100
AcDbCircle
 10
288.3492243948484
 20
130.6694003017438
 30
0.0
 40
2.25
  0
LINE
  5
109
330
2BD
100
AcDbEntity
  8
hidden
  6
HIDDEN
100
AcDbLine
 10
273.8492257974586
 20
138.46351330617
 30
0.0
 11
273.8492257974586
 21
121.9882672697336
 31
0.0
  0
LINE
  5
10A
330
2BD
100
AcDbEntity
  8
hidden
  6
HIDDEN
100
AcDbLine
 10
264.4992257974586
 20
136.1694003017439
 30
0.0
 11
264.4992257974586
 21
124.4765237456265
 31
0.0
  0
LINE
  5
10B
330
2BD
100
AcDbEntity
  8
hidden
  6
HIDDEN
100
AcDbLine
 10
283.1992257974586
 20
136.1694003017439
 30
0.0
 11
283.1992257974587
 21
124.4765237456265
 31
0.0
  0
LINE
  5
10C
330
2BD
100
AcDbEntity
  8
hidden
  6
HIDDEN
100
AcDbLine
 10
263.5992257974586
 20
134.6694003017439
 30
0.0
 11
263.5992257974586
 21
123.6694003017439
 31
0.0
  0
LINE
  5
10D
330
2BD
100
AcDbEntity
  8
hidden
  6
HIDDEN
100
AcDbLine
 10
284.0992257974587
 20
134.6694003017439
 30
0.0
 11
284.0992257974587
 21
123.6694003017439
 31
0.0
  0
LINE
  5
10E
330
2BD
100
AcDbEntity
  8
hidden
  6
HIDDEN
100
AcDbLine
 10
292.5992257974585
 20
134.6694003017439
 30
0.0
 11
292.5992257974585
 21
123.6694003017438
 31
0.0
  0
LINE
  5
10F
330
2BD
100
AcDbEntity
  8
hidden
  6
HIDDEN
100
AcDbLine
 10
293.4992257974586
 20
136.1694003017438
 30
0.0
 11
293.4992257974586
 21
124.4765237456264
 31
0.0
  0
LINE
  5
111
330
2BD
100
AcDbEntity
  8
hidden
  6
HIDDEN
100
AcDbLine
 10
264.4992257974586
 20
124.4765237456265
 30
0.0
 11
283.1992257974587
 21
124.4765237456265
 31
0.0
  0
LINE
  5
112
330
2BD
100
AcDbEntity
  8
hidden
  6
HIDDEN
100
AcDbLine
 10
263.5992257974586
 20
123.6694003017439
 30
0.0
 11
264.4992257974586
 21
124.4765237456265
 31
0.0
  0
LINE
  5
114
330
2BD
100
AcDbEntity
  8
hidden
  6
HIDDEN
100
AcDbLine
 10
292.5992257974585
 20
123.6694003017438
 30
0.0
 11
293.4992257974586
 21
124.4765237456265
 31
0.0
  0
LINE
  5
116
330
2BD
100
AcDbEntity
  8
hidden
  6
HIDDEN
100
AcDbLine
 10
284.0992257974587
 20
123.6694003017439
 30
0.0
 11
283.1992257974587
 21
124.4765237456265
 31
0.0
  0
LINE
  5
117
330
2BD
100
AcDbEntity
  8
hidden
  6
HIDDEN
100
AcDbLine
 10
263.5992257974586
 20
134.6694003017439
 30
0.0
 11
284.0992257974587
 21
134.6694003017439
 31
0.0
  0
LINE
  5
118
330
2BD
100
AcDbEntity
  8
hidden
  6
HIDDEN
100
AcDbLine
 10
264.4992257974586
 20
136.1694003017439
 30
0.0
 11
283.1992257974587
 21
136.1694003017439
 31
0.0
  0
LINE
  5
119
330
2BD
100
AcDbEntity
  8
hidden
  6
HIDDEN
100
AcDbLine
 10
270.0992257974585
 20
138.1694003017438
 30
0.0
 11
270.0992257974586
 21
136.1694003017439
 31
0.0
  0
LINE
  5
11B
330
2BD
100
AcDbEntity
  8
hidden
  6
HIDDEN
100
AcDbLine
 10
263.5992257974586
 20
134.6694003017439
 30
0.0
 11
264.4992257974586
 21
135.4765237456265
 31
0.0
  0
LINE
  5
11C
330
2BD
100
AcDbEntity
  8
center
  6
CENTER
100
AcDbLine
 10
283.3492243948484
 20
130.6694003017438
 30
0.0
 11
293.3492243948484
 21
130.6694003017438
 31
0.0
  0
LINE
  5
11D
330
2BD
100
AcDbEntity
  8
hidden
  6
HIDDEN
100
AcDbLine
 10
292.5992257974585
 20
134.6694003017439
 30
0.0
 11
293.4992257974586
 21
135.4765237456265
 31
0.0
  0
LINE
  5
11E
330
2BD
100
AcDbEntity
  8
hidden
  6
HIDDEN
100
AcDbLine
 10
284.0992257974585
 20
134.6694003017439
 30
0.0
 11
283.1992257974586
 21
135.4765237456265
 31
0.0
  0
LINE
  5
11F
330
2BD
100
AcDbEntity
  8
hidden
  6
HIDDEN
100
AcDbLine
 10
277.5992257974587
 20
138.1694003017438
 30
0.0
 11
277.5992257974587
 21
136.1694003017439
 31
0.0
  0
LINE
  5
120
330
2BD
100
AcDbEntity
  8
center
  6
CENTER
100
AcDbLine
 10
317.3492257974585
 20
125.6694003017438
 30
0.0
 11
317.3492257974585
 21
135.6694003017439
 31
0.0
  0
CIRCLE
  5
121
330
2BD
100
AcDbEntity
  8
0
 62
     7
100
AcDbCircle
 10
317.3492257974585
 20
130.6694003017438
 30
0.0
 40
2.25
  0
LINE
  5
122
330
2BD
100
AcDbEntity
  8
hidden
  6
HIDDEN
100
AcDbLine
 10
331.8492257974585
 20
138.46351330617
 30
0.0
 11
331.8492257974585
 21
121.9882672697336
 31
0.0
  0
LINE
  5
123
330
2BD
100
AcDbEntity
  8
hidden
  6
HIDDEN
100
AcDbLine
 10
322.4992257974585
 20
136.1694003017439
 30
0.0
 11
322.4992257974586
 21
124.4765237456265
 31
0.0
  0
LINE
  5
124
330
2BD
100
AcDbEntity
  8
hidden
  6
HIDDEN
100
AcDbLine
 10
341.1992257974584
 20
136.1694003017439
 30
0.0
 11
341.1992257974584
 21
124.4765237456265
 31
0.0
  0
LINE
  5
125
330
2BD
100
AcDbEntity
  8
hidden
  6
HIDDEN
100
AcDbLine
 10
321.5992257974585
 20
134.6694003017439
 30
0.0
 11
321.5992257974585
 21
123.6694003017439
 31
0.0
  0
LINE
  5
126
330
2BD
100
AcDbEntity
  8
hidden
  6
HIDDEN
100
AcDbLine
 10
342.0992257974585
 20
134.6694003017439
 30
0.0
 11
342.0992257974585
 21
123.6694003017439
 31
0.0
  0
LINE
  5
127
330
2BD
100
AcDbEntity
  8
hidden
  6
HIDDEN
100
AcDbLine
 10
313.0992257974585
 20
134.6694003017439
 30
0.0
 11
313.0992257974585
 21
123.6694003017438
 31
0.0
  0
LINE
  5
128
330
2BD
100
AcDbEntity
  8
hidden
  6
HIDDEN
100
AcDbLine
 10
312.1992257974584
 20
136.1694003017438
 30
0.0
 11
312.1992257974586
 21
124.4765237456265
 31
0.0
  0
SOLID
  5
129
330
2BD
100
AcDbEntity
  8
DIM
  6
Continuous
100
AcDbTrace
 10
-319.7993400046073
 20
126.1981795772103
 30
0.0
 11
-318.9901194608168
 21
129.1299302677547
 31
0.0
 12
-320.7064364153897
 22
126.6191024936042
 32
0.0
 13
-320.7064364153897
 23
126.6191024936042
 33
0.0
210
0.0
220
0.0
230
-1.0
  0
POLYLINE
  5
25D
330
2BD
100
AcDbEntity
  8
DIM
  6
Continuous
100
AcDb3dPolyline
 66
     1
 10
0.0
 20
0.0
 30
0.0
 70
     8
1001
ACAD
1000
R13OBJECT
1002
{
1005
129
1002
}
  0
VERTEX
  5
25E
330
25D
100
AcDbEntity
  8
DIM
  6
Continuous
100
AcDbVertex
100
AcDb3dPolylineVertex
 10
320.2528882099985
 20
126.4086410354072
 30
0.0
 70
    32
1001
ACAD
1000
R13OBJECT
1002
{
1005
129
1002
}
  0
VERTEX
  5
25F
330
25D
100
AcDbEntity
  8
DIM
  6
Continuous
100
AcDbVertex
100
AcDb3dPolylineVertex
 10
326.4711905563375
 20
113.008088297991
 30
0.0
 70
    32
1001
ACAD
1000
R13OBJECT
1002
{
1005
129
1002
}
  0
SEQEND
  5
260
330
25D
100
AcDbEntity
  8
DIM
  6
Continuous
  0
POLYLINE
  5
261
330
2BD
100
AcDbEntity
  8
DIM
  6
Continuous
100
AcDb3dPolyline
 66
     1
 10
0.0
 20
0.0
 30
0.0
 70
     8
1001
ACAD
1000
R13OBJECT
1002
{
1005
129
1002
}
  0
VERTEX
  5
262
330
261
100
AcDbEntity
  8
DIM
  6
Continuous
100
AcDbVertex
100
AcDb3dPolylineVertex
 10
326.4711905563375
 20
113.008088297991
 30
0.0
 70
    32
1001
ACAD
1000
R13OBJECT
1002
{
1005
129
1002
}
  0
VERTEX
  5
263
330
261
100
AcDbEntity
  8
DIM
  6
Continuous
100
AcDbVertex
100
AcDb3dPolylineVertex
 10
346.5426191277661
 20
113.008088297991
 30
0.0
 70
    32
1001
ACAD
1000
R13OBJECT
1002
{
1005
129
1002
}
  0
SEQEND
  5
264
330
261
100
AcDbEntity
  8
DIM
  6
Continuous
  0
LINE
  5
12A
330
2BD
100
AcDbEntity
  8
hidden
  6
HIDDEN
100
AcDbLine
 10
322.4992257974586
 20
124.4765237456265
 30
0.0
 11
341.1992257974584
 21
124.4765237456265
 31
0.0
  0
LINE
  5
12B
330
2BD
100
AcDbEntity
  8
hidden
  6
HIDDEN
100
AcDbLine
 10
321.5992257974585
 20
123.6694003017439
 30
0.0
 11
322.4992257974586
 21
124.4765237456265
 31
0.0
  0
LINE
  5
12D
330
2BD
100
AcDbEntity
  8
hidden
  6
HIDDEN
100
AcDbLine
 10
313.0992257974585
 20
123.6694003017438
 30
0.0
 11
312.1992257974586
 21
124.4765237456265
 31
0.0
  0
TEXT
  5
12E
330
2BD
100
AcDbEntity
  8
DIM
  6
Continuous
100
AcDbText
 10
330.9711905563375
 20
114.5080882979909
 30
0.0
 40
3.0
  1
2-
  7
CHINESET
100
AcDbText
  0
TEXT
  5
265
330
2BD
100
AcDbEntity
  8
DIM
  6
Continuous
100
AcDbText
 10
337.5426191277661
 20
114.5080882979909
 30
0.0
 40
3.0
  1
%%c
  7
CHINESET
100
AcDbText
1001
ACAD
1000
R13OBJECT
1002
{
1005
12E
1002
}
  0
TEXT
  5
266
330
2BD
100
AcDbEntity
  8
DIM
  6
Continuous
100
AcDbText
 10
340.2569048420518
 20
114.5080882979909
 30
0.0
 40
3.0
  1
4.5
  7
CHINESET
100
AcDbText
1001
ACAD
1000
R13OBJECT
1002
{
1005
12E
1002
}
  0
LINE
  5
130
330
2BD
100
AcDbEntity
  8
hidden
  6
HIDDEN
100
AcDbLine
 10
342.0992257974585
 20
123.6694003017439
 30
0.0
 11
341.1992257974584
 21
124.4765237456265
 31
0.0
  0
LINE
  5
132
330
2BD
100
AcDbEntity
  8
hidden
  6
HIDDEN
100
AcDbLine
 10
321.5992257974585
 20
134.6694003017439
 30
0.0
 11
342.0992257974585
 21
134.6694003017439
 31
0.0
  0
LINE
  5
133
330
2BD
100
AcDbEntity
  8
hidden
  6
HIDDEN
100
AcDbLine
 10
322.4992257974585
 20
136.1694003017439
 30
0.0
 11
341.1992257974584
 21
136.1694003017439
 31
0.0
  0
LINE
  5
134
330
2BD
100
AcDbEntity
  8
hidden
  6
HIDDEN
100
AcDbLine
 10
306.5992257974585
 20
138.1694003017438
 30
0.0
 11
306.5992257974585
 21
136.1694003017438
 31
0.0
  0
LINE
  5
135
330
2BD
100
AcDbEntity
  8
hidden
  6
HIDDEN
100
AcDbLine
 10
299.0992257974586
 20
138.1694003017438
 30
0.0
 11
299.0992257974586
 21
136.1694003017438
 31
0.0
  0
LINE
  5
136
330
2BD
100
AcDbEntity
  8
center
  6
CENTER
100
AcDbLine
 10
312.3492257974585
 20
130.6694003017438
 30
0.0
 11
322.3492257974585
 21
130.6694003017438
 31
0.0
  0
LINE
  5
137
330
2BD
100
AcDbEntity
  8
hidden
  6
HIDDEN
100
AcDbLine
 10
328.0992257974585
 20
138.1694003017438
 30
0.0
 11
328.0992257974585
 21
136.1694003017439
 31
0.0
  0
LINE
  5
138
330
2BD
100
AcDbEntity
  8
hidden
  6
HIDDEN
100
AcDbLine
 10
321.5992257974585
 20
134.6694003017439
 30
0.0
 11
322.4992257974585
 21
135.4765237456265
 31
0.0
  0
LINE
  5
13A
330
2BD
100
AcDbEntity
  8
hidden
  6
HIDDEN
100
AcDbLine
 10
313.0992257974585
 20
134.6694003017439
 30
0.0
 11
312.1992257974584
 21
135.4765237456265
 31
0.0
  0
LINE
  5
13B
330
2BD
100
AcDbEntity
  8
hidden
  6
HIDDEN
100
AcDbLine
 10
335.5992257974585
 20
138.1694003017438
 30
0.0
 11
335.5992257974585
 21
136.1694003017439
 31
0.0
  0
LINE
  5
13C
330
2BD
100
AcDbEntity
  8
hidden
  6
HIDDEN
100
AcDbLine
 10
342.0992257974585
 20
134.6694003017439
 30
0.0
 11
341.1992257974584
 21
135.4765237456265
 31
0.0
  0
LINE
  5
144
330
2BD
100
AcDbEntity
  8
0
100
AcDbLine
 10
209.1492257974585
 20
214.0639179593715
 30
0.0
 11
396.5492257974585
 21
214.0639179593715
 31
0.0
  0
LINE
  5
145
330
2BD
100
AcDbEntity
  8
0
 62
     7
100
AcDbLine
 10
396.5492257974585
 20
170.0694003017438
 30
0.0
 11
345.8492257974585
 21
170.0694003017437
 31
0.0
  0
LINE
  5
146
330
2BD
100
AcDbEntity
  8
hidden
  6
HIDDEN
100
AcDbLine
 10
279.9992257974586
 20
169.2622768578613
 30
0.0
 11
298.6992257974586
 21
169.2622768578613
 31
0.0
  0
LINE
  5
147
330
2BD
100
AcDbEntity
  8
hidden
  6
HIDDEN
100
AcDbLine
 10
279.9992257974586
 20
157.5694003017438
 30
0.0
 11
298.6992257974586
 21
157.5694003017438
 31
0.0
  0
LINE
  5
148
330
2BD
100
AcDbEntity
  8
hidden
  6
HIDDEN
100
AcDbLine
 10
279.0992257974585
 20
159.0694003017439
 30
0.0
 11
299.5992257974585
 21
159.0694003017439
 31
0.0
  0
LINE
  5
149
330
2BD
100
AcDbEntity
  8
0
100
AcDbLine
 10
209.1492257974585
 20
170.0694003017437
 30
0.0
 11
345.8492257974585
 21
170.0694003017437
 31
0.0
  0
LINE
  5
14A
330
2BD
100
AcDbEntity
  8
0
 62
     7
100
AcDbLine
 10
259.8492257974585
 20
170.0694003017438
 30
0.0
 11
345.8492257974585
 21
170.0694003017439
 31
0.0
  0
LINE
  5
14B
330
2BD
100
AcDbEntity
  8
hidden
  6
HIDDEN
100
AcDbLine
 10
279.0992257974585
 20
159.0694003017438
 30
0.0
 11
279.0992257974585
 21
170.0694003017438
 31
0.0
  0
LINE
  5
14C
330
2BD
100
AcDbEntity
  8
hidden
  6
HIDDEN
100
AcDbLine
 10
279.9992257974586
 20
157.5694003017438
 30
0.0
 11
279.9992257974586
 21
169.2622768578613
 31
0.0
  0
LINE
  5
14D
330
2BD
100
AcDbEntity
  8
hidden
  6
HIDDEN
100
AcDbLine
 10
289.3492257974585
 20
154.4752872973177
 30
0.0
 11
289.3492257974585
 21
171.7505333337541
 31
0.0
  0
LINE
  5
14E
330
2BD
100
AcDbEntity
  8
hidden
  6
HIDDEN
100
AcDbLine
 10
293.0992257974585
 20
155.5694003017439
 30
0.0
 11
293.0992257974585
 21
157.5694003017438
 31
0.0
  0
LINE
  5
14F
330
2BD
100
AcDbEntity
  8
hidden
  6
HIDDEN
100
AcDbLine
 10
285.5992257974585
 20
155.5694003017439
 30
0.0
 11
285.5992257974585
 21
157.5694003017438
 31
0.0
  0
LINE
  5
152
330
2BD
100
AcDbEntity
  8
hidden
  6
HIDDEN
100
AcDbLine
 10
279.0992257974585
 20
159.0694003017439
 30
0.0
 11
279.9992257974586
 21
158.2622768578613
 31
0.0
  0
LINE
  5
158
330
2BD
100
AcDbEntity
  8
hidden
  6
HIDDEN
100
AcDbLine
 10
279.0992257974585
 20
170.0694003017438
 30
0.0
 11
279.9992257974586
 21
169.2622768578613
 31
0.0
  0
LINE
  5
159
330
2BD
100
AcDbEntity
  8
hidden
  6
HIDDEN
100
AcDbLine
 10
325.6992257974584
 20
157.5694003017438
 30
0.0
 11
325.6992257974584
 21
169.2622768578612
 31
0.0
  0
LINE
  5
15A
330
2BD
100
AcDbEntity
  8
hidden
  6
HIDDEN
100
AcDbLine
 10
326.5992257974585
 20
159.0694003017438
 30
0.0
 11
326.5992257974585
 21
170.0694003017438
 31
0.0
  0
LINE
  5
15B
330
2BD
100
AcDbEntity
  8
hidden
  6
HIDDEN
100
AcDbLine
 10
306.9992257974585
 20
157.5694003017438
 30
0.0
 11
306.9992257974585
 21
169.2622768578612
 31
0.0
  0
LINE
  5
15C
330
2BD
100
AcDbEntity
  8
hidden
  6
HIDDEN
100
AcDbLine
 10
306.0992257974585
 20
159.0694003017438
 30
0.0
 11
306.0992257974585
 21
170.0694003017438
 31
0.0
  0
LINE
  5
15D
330
2BD
100
AcDbEntity
  8
hidden
  6
HIDDEN
100
AcDbLine
 10
316.3492257974585
 20
155.2752872973177
 30
0.0
 11
316.3492257974585
 21
171.7505333337541
 31
0.0
  0
LINE
  5
15E
330
2BD
100
AcDbEntity
  8
hidden
  6
HIDDEN
100
AcDbLine
 10
299.5992257974585
 20
159.0694003017439
 30
0.0
 11
299.5992257974585
 21
170.0694003017439
 31
0.0
  0
LINE
  5
15F
330
2BD
100
AcDbEntity
  8
hidden
  6
HIDDEN
100
AcDbLine
 10
298.6992257974585
 20
157.5694003017438
 30
0.0
 11
298.6992257974586
 21
169.2622768578613
 31
0.0
  0
LINE
  5
160
330
2BD
100
AcDbEntity
  8
hidden
  6
HIDDEN
100
AcDbLine
 10
320.0992257974584
 20
155.5694003017438
 30
0.0
 11
320.0992257974584
 21
157.5694003017438
 31
0.0
  0
LINE
  5
161
330
2BD
100
AcDbEntity
  8
hidden
  6
HIDDEN
100
AcDbLine
 10
312.5992257974584
 20
155.5694003017438
 30
0.0
 11
312.5992257974584
 21
157.5694003017438
 31
0.0
  0
LINE
  5
162
330
2BD
100
AcDbEntity
  8
hidden
  6
HIDDEN
100
AcDbLine
 10
306.0992257974585
 20
159.0694003017438
 30
0.0
 11
326.5992257974585
 21
159.0694003017438
 31
0.0
  0
LINE
  5
163
330
2BD
100
AcDbEntity
  8
hidden
  6
HIDDEN
100
AcDbLine
 10
306.9992257974585
 20
157.5694003017438
 30
0.0
 11
325.6992257974584
 21
157.5694003017438
 31
0.0
  0
LINE
  5
164
330
2BD
100
AcDbEntity
  8
hidden
  6
HIDDEN
100
AcDbLine
 10
306.0992257974585
 20
159.0694003017438
 30
0.0
 11
306.9992257974585
 21
158.2622768578612
 31
0.0
  0
LINE
  5
165
330
2BD
100
AcDbEntity
  8
hidden
  6
HIDDEN
100
AcDbLine
 10
299.5992257974585
 20
159.0694003017439
 30
0.0
 11
298.6992257974585
 21
158.2622768578613
 31
0.0
  0
LINE
  5
166
330
2BD
100
AcDbEntity
  8
hidden
  6
HIDDEN
100
AcDbLine
 10
326.5992257974584
 20
159.0694003017438
 30
0.0
 11
325.6992257974584
 21
158.2622768578612
 31
0.0
  0
LINE
  5
167
330
2BD
100
AcDbEntity
  8
hidden
  6
HIDDEN
100
AcDbLine
 10
306.9992257974585
 20
169.2622768578612
 30
0.0
 11
325.6992257974584
 21
169.2622768578612
 31
0.0
  0
LINE
  5
168
330
2BD
100
AcDbEntity
  8
hidden
  6
HIDDEN
100
AcDbLine
 10
306.0992257974585
 20
170.0694003017438
 30
0.0
 11
306.9992257974585
 21
169.2622768578612
 31
0.0
  0
LINE
  5
169
330
2BD
100
AcDbEntity
  8
hidden
  6
HIDDEN
100
AcDbLine
 10
299.5992257974585
 20
170.0694003017438
 30
0.0
 11
298.6992257974586
 21
169.2622768578613
 31
0.0
  0
LINE
  5
16C
330
2BD
100
AcDbEntity
  8
hidden
  6
HIDDEN
100
AcDbLine
 10
326.5992257974584
 20
170.0694003017438
 30
0.0
 11
325.6992257974584
 21
169.2622768578612
 31
0.0
  0
LINE
  5
173
330
2BD
100
AcDbEntity
  8
0
  6
Continuous
 62
     7
100
AcDbLine
 10
259.8492257974585
 20
214.0639179593715
 30
0.0
 11
345.8492257974585
 21
214.0639179593715
 31
0.0
  0
LINE
  5
1D5
330
2BD
100
AcDbEntity
  8
0
100
AcDbLine
 10
209.1492257974585
 20
244.0639179593715
 30
0.0
 11
396.5492257974585
 21
244.0639179593715
 31
0.0
  0
LINE
  5
1D6
330
2BD
100
AcDbEntity
  8
center
  6
CENTER
100
AcDbLine
 10
205.3220972161786
 20
229.0639179593715
 30
0.0
 11
400.437975123429
 21
229.0639179593715
 31
0.0
  0
DIMENSION
  5
1D7
330
2BD
100
AcDbEntity
  8
DIM
100
AcDbDimension
  2
*D6
 10
191.5108013085634
 20
217.5639179593715
 30
0.0
 11
189.0108013085633
 21
229.0639179593715
 31
0.0
 70
    32
 71
     5
 42
22.99999999999994
  3
STANDARD
100
AcDbAlignedDimension
 13
262.8492257974585
 23
240.5639179593714
 33
0.0
 14
333.8492257974585
 24
217.5639179593715
 34
0.0
 50
90.0
100
AcDbRotatedDimension
  0
LINE
  5
1E4
330
2BD
100
AcDbEntity
  8
center
  6
CENTER
100
AcDbLine
 10
284.3492257974585
 20
226.0639179593706
 30
0.0
 11
294.3492257974585
 21
226.0639179593706
 31
0.0
  0
LINE
  5
1E5
330
2BD
100
AcDbEntity
  8
center
  6
CENTER
100
AcDbLine
 10
278.0992257974586
 20
231.3139179593715
 30
0.0
 11
300.5992257974589
 21
231.3139179593715
 31
0.0
  0
CIRCLE
  5
1E6
330
2BD
100
AcDbEntity
  8
0
 62
     7
100
AcDbCircle
 10
289.3492257974585
 20
231.3139179593715
 30
0.0
 40
10.24999999999997
  0
CIRCLE
  5
1E7
330
2BD
100
AcDbEntity
  8
0
 62
     7
100
AcDbCircle
 10
289.3492257974585
 20
231.3139179593715
 30
0.0
 40
9.349999999999965
  0
LINE
  5
1E8
330
2BD
100
AcDbEntity
  8
0
  6
Continuous
 62
     7
100
AcDbLine
 10
259.8492257974585
 20
244.0639179593715
 30
0.0
 11
345.8492257974585
 21
244.0639179593715
 31
0.0
  0
LINE
  5
1E9
330
2BD
100
AcDbEntity
  8
0
  6
Continuous
 62
     7
100
AcDbLine
 10
285.5992257974585
 20
226.0639179593706
 30
0.0
 11
285.5992257974585
 21
236.563917959371
 31
0.0
  0
LINE
  5
1EA
330
2BD
100
AcDbEntity
  8
0
  6
Continuous
 62
     7
100
AcDbLine
 10
293.0992257974585
 20
226.0639179593706
 30
0.0
 11
293.0992257974585
 21
236.563917959371
 31
0.0
  0
LINE
  5
1EB
330
2BD
100
AcDbEntity
  8
center
  6
CENTER
100
AcDbLine
 10
289.3492257974585
 20
220.0639179593717
 30
0.0
 11
289.3492257974585
 21
242.5639179593713
 31
0.0
  0
ARC
  5
1EC
330
2BD
100
AcDbEntity
  8
0
 62
     7
100
AcDbCircle
 10
289.3492257974585
 20
226.0639179593706
 30
0.0
 40
3.75
100
AcDbArc
 50
180.0000000000004
 51
0.0
  0
LINE
  5
1EF
330
2BD
100
AcDbEntity
  8
0
 62
     7
100
AcDbLine
 10
270.8492257974579
 20
240.5639179593714
 30
0.0
 11
270.8492257974579
 21
244.0639179593715
 31
0.0
  0
LINE
  5
1F0
330
2BD
100
AcDbEntity
  8
0
 62
     7
100
AcDbLine
 10
262.8492257974592
 20
240.5639179593714
 30
0.0
 11
262.8492257974592
 21
244.0639179593715
 31
0.0
  0
LINE
  5
1F1
330
2BD
100
AcDbEntity
  8
center
  6
CENTER
100
AcDbLine
 10
266.8492257974585
 20
235.5639179593715
 30
0.0
 11
266.8492257974585
 21
245.5639179593715
 31
0.0
  0
CIRCLE
  5
1F3
330
2BD
100
AcDbEntity
  8
0
 62
     7
100
AcDbCircle
 10
266.8492257974585
 20
240.5639179593714
 30
0.0
 40
2.25
  0
LINE
  5
1F4
330
2BD
100
AcDbEntity
  8
center
  6
CENTER
100
AcDbLine
 10
261.8492257974585
 20
240.5639179593714
 30
0.0
 11
271.8492257974585
 21
240.5639179593714
 31
0.0
  0
ARC
  5
1F5
330
2BD
100
AcDbEntity
  8
0
 62
     7
100
AcDbCircle
 10
266.8492257974585
 20
240.5639179593714
 30
0.0
 40
4.0
100
AcDbArc
 50
180.0000000000004
 51
0.0
  0
ARC
  5
1F6
330
2BD
100
AcDbEntity
  8
0
 62
     7
100
AcDbCircle
 10
289.3492257974585
 20
236.563917959371
 30
0.0
 40
3.75
100
AcDbArc
 50
0.0
 51
180.0
  0
ARC
  5
1F7
330
2BD
100
AcDbEntity
  8
0
 62
     7
100
AcDbCircle
 10
316.3492257974585
 20
232.063917959371
 30
0.0
 40
3.75
100
AcDbArc
 50
0.0
 51
180.0
  0
CIRCLE
  5
1F8
330
2BD
100
AcDbEntity
  8
0
 62
     7
100
AcDbCircle
 10
316.3492257974584
 20
226.8139179593715
 30
0.0
 40
9.349999999999965
  0
LINE
  5
1F9
330
2BD
100
AcDbEntity
  8
0
  6
Continuous
 62
     7
100
AcDbLine
 10
320.0992257974585
 20
221.5639179593706
 30
0.0
 11
320.0992257974585
 21
232.063917959371
 31
0.0
  0
LINE
  5
1FA
330
2BD
100
AcDbEntity
  8
0
  6
Continuous
 62
     7
100
AcDbLine
 10
312.5992257974585
 20
221.5639179593706
 30
0.0
 11
312.5992257974585
 21
232.063917959371
 31
0.0
  0
ARC
  5
1FB
330
2BD
100
AcDbEntity
  8
0
 62
     7
100
AcDbCircle
 10
316.3492257974585
 20
221.5639179593706
 30
0.0
 40
3.75
100
AcDbArc
 50
180.0000000000004
 51
0.0
  0
LINE
  5
1FC
330
2BD
100
AcDbEntity
  8
center
  6
CENTER
100
AcDbLine
 10
305.0992257974582
 20
226.8139179593715
 30
0.0
 11
327.5992257974587
 21
226.8139179593715
 31
0.0
  0
LINE
  5
200
330
2BD
100
AcDbEntity
  8
center
  6
CENTER
100
AcDbLine
 10
343.8492257974585
 20
217.5639179593714
 30
0.0
 11
333.8492257974585
 21
217.5639179593714
 31
0.0
  0
ARC
  5
201
330
2BD
100
AcDbEntity
  8
0
 62
     7
100
AcDbCircle
 10
338.8492257974585
 20
217.5639179593714
 30
0.0
 40
4.0
100
AcDbArc
 50
0.0000000000004396
 51
180.0
  0
DIMENSION
  5
235
330
2BD
100
AcDbEntity
  8
DIM
100
AcDbDimension
  2
*D7
 10
202.2624106926817
 20
231.3139179593715
 30
0.0
 11
197.2624106926816
 21
229.0639179593715
 31
0.0
 70
    32
 71
     5
 42
4.5
  3
STANDARD
100
AcDbAlignedDimension
 13
305.0992257974582
 23
226.8139179593715
 33
0.0
 14
278.0992257974586
 24
231.3139179593715
 34
0.0
 50
90.0
100
AcDbRotatedDimension
  0
DIMENSION
  5
242
330
2BD
100
AcDbEntity
  8
DIM
100
AcDbDimension
  2
*D8
 10
289.3492257974585
 20
251.6738659178557
 30
0.0
 11
302.8492257974585
 21
254.1738659178557
 31
0.0
 70
    32
 71
     5
 42
27.0
  3
STANDARD
100
AcDbAlignedDimension
 13
316.3492257974585
 23
238.0639179593713
 33
0.0
 14
289.3492257974585
 24
242.5639179593713
 34
0.0
100
AcDbRotatedDimension
  0
DIMENSION
  5
24F
330
2BD
100
AcDbEntity
  8
DIM
100
AcDbDimension
  2
*D9
 10
302.8492257974585
 20
86.76631822773073
 30
0.0
 11
288.3492257974586
 21
89.26631822773073
 31
0.0
 70
    32
 71
     5
 42
28.99999999999989
  3
STANDARD
100
AcDbAlignedDimension
 13
273.8492257974586
 23
71.62414642990265
 33
0.0
 14
302.8492257974585
 24
76.87631106441711
 34
0.0
100
AcDbRotatedDimension
  0
DIMENSION
  5
25B
330
2BD
100
AcDbEntity
  8
DIM
100
AcDbDimension
  2
*D10
 10
331.8492257974585
 20
86.76631822773073
 30
0.0
 11
317.3492257974585
 21
89.26631822773073
 31
0.0
 70
    32
 71
     5
 42
29.0
  3
STANDARD
100
AcDbAlignedDimension
 13
302.8492257974585
 23
76.87631106441711
 33
0.0
 14
331.8492257974585
 24
71.62414642990282
 34
0.0
100
AcDbRotatedDimension
1001
ACAD
1000
DSTYLE
1002
{
1070
    75
1070
     1
1002
}
  0
LINE
  5
491
330
2BD
100
AcDbEntity
  8
0
100
AcDbLine
 10
396.5492257974585
 20
244.0639179593715
 30
0.0
 11
396.5492257974585
 21
214.0639179593715
 31
0.0
  0
LINE
  5
4A7
330
2BD
100
AcDbEntity
  8
hidden
100
AcDbLine
 10
396.5492257974585
 20
224.1995638141339
 30
0.0
 11
389.5492257974585
 21
224.444009200576
 31
0.0
  0
LINE
  5
4A8
330
2BD
100
AcDbEntity
  8
hidden
100
AcDbLine
 10
396.5492257974585
 20
233.9282721046091
 30
0.0
 11
389.5492257974585
 21
233.6838267181668
 31
0.0
  0
LINE
  5
4A9
330
2BD
100
AcDbEntity
  8
hidden
100
AcDbLine
 10
396.0694980062826
 20
224.7976704229859
 30
0.0
 11
387.5492257974585
 21
225.0952048847972
 31
0.0
  0
LINE
  5
4AA
330
2BD
100
AcDbEntity
  8
hidden
100
AcDbLine
 10
396.0694980062826
 20
233.330165495757
 30
0.0
 11
387.5492257974585
 21
233.0326310339458
 31
0.0
  0
LINE
  5
4AB
330
2BD
100
AcDbEntity
  8
hidden
100
AcDbLine
 10
387.5492257974585
 20
233.0326310339458
 30
0.0
 11
387.5492257974585
 21
225.0952048847972
 31
0.0
  0
LINE
  5
4AC
330
2BD
100
AcDbEntity
  8
hidden
100
AcDbLine
 10
389.5492257974585
 20
233.6838267181668
 30
0.0
 11
389.5492257974585
 21
224.444009200576
 31
0.0
  0
LINE
  5
4AD
330
2BD
100
AcDbEntity
  8
hidden
100
AcDbLine
 10
389.5492257974585
 20
233.6838267181668
 30
0.0
 11
389.033178277304
 21
233.0844517964311
 31
0.0
  0
LINE
  5
4AE
330
2BD
100
AcDbEntity
  8
hidden
100
AcDbLine
 10
389.033178277304
 20
225.0433841223118
 30
0.0
 11
389.5492257974585
 21
224.444009200576
 31
0.0
  0
LINE
  5
4B0
330
2BD
100
AcDbEntity
  8
hidden
100
AcDbLine
 10
396.0694980062826
 20
233.330165495757
 30
0.0
 11
396.0694980062826
 21
224.7976704229859
 31
0.0
  0
LINE
  5
4B1
330
2BD
100
AcDbEntity
  8
hidden
100
AcDbLine
 10
396.5492257974585
 20
233.9282721046091
 30
0.0
 11
396.0694980062826
 21
233.330165495757
 31
0.0
  0
LINE
  5
4B2
330
2BD
100
AcDbEntity
  8
hidden
100
AcDbLine
 10
396.0694980062826
 20
224.7976704229859
 30
0.0
 11
396.5492257974585
 21
224.1995638141339
 31
0.0
  0
LINE
  5
4B5
330
2BD
100
AcDbEntity
  8
0
100
AcDbLine
 10
396.5492257974585
 20
170.0694003017438
 30
0.0
 11
396.5492257974586
 21
123.6694003017438
 31
0.0
  0
LINE
  5
4BF
330
2BD
100
AcDbEntity
  8
0
100
AcDbLine
 10
396.5492257974585
 20
75.37414642990282
 30
0.0
 11
396.5492257974586
 21
45.37414642990282
 31
0.0
  0
LINE
  5
4C1
330
2BD
100
AcDbEntity
  8
hidden
100
AcDbLine
 10
396.0694980062826
 20
144.9356478381294
 30
0.0
 11
387.5492257974585
 21
144.6381133763181
 31
0.0
  0
LINE
  5
4C2
330
2BD
100
AcDbEntity
  8
hidden
100
AcDbLine
 10
396.0694980062826
 20
136.4031527653583
 30
0.0
 11
387.5492257974585
 21
136.7006872271696
 31
0.0
  0
LINE
  5
4C3
330
2BD
100
AcDbEntity
  8
hidden
100
AcDbLine
 10
396.5492257974585
 20
145.5337544469814
 30
0.0
 11
389.5492257974585
 21
145.2893090605392
 31
0.0
  0
LINE
  5
4C4
330
2BD
100
AcDbEntity
  8
hidden
100
AcDbLine
 10
396.5492257974585
 20
135.8050461565062
 30
0.0
 11
389.5492257974585
 21
136.0494915429484
 31
0.0
  0
LINE
  5
4C5
330
2BD
100
AcDbEntity
  8
center
  6
CENTER
100
AcDbLine
 10
398.5640790272186
 20
140.6694003017438
 30
0.0
 11
381.9906082930904
 21
140.6694003017438
 31
0.0
  0
LINE
  5
4C6
330
2BD
100
AcDbEntity
  8
hidden
100
AcDbLine
 10
389.5492257974585
 20
145.2893090605392
 30
0.0
 11
389.5492257974585
 21
136.0494915429484
 31
0.0
  0
LINE
  5
4C7
330
2BD
100
AcDbEntity
  8
hidden
100
AcDbLine
 10
387.5492257974585
 20
144.6381133763181
 30
0.0
 11
387.5492257974585
 21
136.7006872271696
 31
0.0
  0
LINE
  5
4C8
330
2BD
100
AcDbEntity
  8
hidden
100
AcDbLine
 10
389.033178277304
 20
136.6488664646841
 30
0.0
 11
389.5492257974585
 21
136.0494915429484
 31
0.0
  0
LINE
  5
4C9
330
2BD
100
AcDbEntity
  8
hidden
100
AcDbLine
 10
389.5492257974585
 20
145.2893090605392
 30
0.0
 11
389.033178277304
 21
144.6899341388034
 31
0.0
  0
LINE
  5
4CA
330
2BD
100
AcDbEntity
  8
hidden
100
AcDbLine
 10
396.0694980062826
 20
144.9356478381294
 30
0.0
 11
396.0694980062826
 21
136.4031527653583
 31
0.0
  0
LINE
  5
4CB
330
2BD
100
AcDbEntity
  8
hidden
100
AcDbLine
 10
396.0694980062826
 20
136.4031527653583
 30
0.0
 11
396.5492257974585
 21
135.8050461565062
 31
0.0
  0
LINE
  5
4CC
330
2BD
100
AcDbEntity
  8
hidden
100
AcDbLine
 10
396.5492257974585
 20
145.5337544469814
 30
0.0
 11
396.0694980062826
 21
144.9356478381294
 31
0.0
  0
LINE
  5
4CD
330
2BD
100
AcDbEntity
  8
hidden
100
AcDbLine
 10
396.0694980062826
 20
64.64039396628837
 30
0.0
 11
387.5492257974585
 21
64.3428595044771
 31
0.0
  0
LINE
  5
4CE
330
2BD
100
AcDbEntity
  8
hidden
100
AcDbLine
 10
396.0694980062826
 20
56.10789889351727
 30
0.0
 11
387.5492257974585
 21
56.4054333553286
 31
0.0
  0
LINE
  5
4CF
330
2BD
100
AcDbEntity
  8
hidden
100
AcDbLine
 10
396.5492257974585
 20
65.23850057514045
 30
0.0
 11
389.5492257974585
 21
64.99405518869821
 31
0.0
  0
LINE
  5
4D0
330
2BD
100
AcDbEntity
  8
hidden
100
AcDbLine
 10
396.5492257974585
 20
55.5097922846652
 30
0.0
 11
389.5492257974585
 21
55.75423767110743
 31
0.0
  0
LINE
  5
4D2
330
2BD
100
AcDbEntity
  8
hidden
100
AcDbLine
 10
389.5492257974585
 20
64.99405518869821
 30
0.0
 11
389.5492257974585
 21
55.75423767110743
 31
0.0
  0
LINE
  5
4D3
330
2BD
100
AcDbEntity
  8
hidden
100
AcDbLine
 10
387.5492257974585
 20
64.3428595044771
 30
0.0
 11
387.5492257974585
 21
56.4054333553286
 31
0.0
  0
LINE
  5
4D4
330
2BD
100
AcDbEntity
  8
hidden
100
AcDbLine
 10
389.033178277304
 20
56.35361259284318
 30
0.0
 11
389.5492257974585
 21
55.75423767110743
 31
0.0
  0
LINE
  5
4D5
330
2BD
100
AcDbEntity
  8
hidden
100
AcDbLine
 10
389.5492257974585
 20
64.99405518869821
 30
0.0
 11
389.033178277304
 21
64.39468026696246
 31
0.0
  0
LINE
  5
4D6
330
2BD
100
AcDbEntity
  8
hidden
100
AcDbLine
 10
396.0694980062826
 20
64.64039396628837
 30
0.0
 11
396.0694980062826
 21
56.10789889351727
 31
0.0
  0
LINE
  5
4D7
330
2BD
100
AcDbEntity
  8
hidden
100
AcDbLine
 10
396.0694980062826
 20
56.10789889351727
 30
0.0
 11
396.5492257974585
 21
55.5097922846652
 31
0.0
  0
LINE
  5
4D8
330
2BD
100
AcDbEntity
  8
hidden
100
AcDbLine
 10
396.5492257974585
 20
65.23850057514045
 30
0.0
 11
396.0694980062826
 21
64.64039396628837
 31
0.0
  0
LINE
  5
65E
330
2BD
100
AcDbEntity
  8
hidden
100
AcDbLine
 10
209.1492257974585
 20
224.1995638141339
 30
0.0
 11
216.1492257974586
 21
224.444009200576
 31
0.0
  0
LINE
  5
65F
330
2BD
100
AcDbEntity
  8
hidden
100
AcDbLine
 10
209.1492257974585
 20
233.9282721046091
 30
0.0
 11
216.1492257974586
 21
233.6838267181668
 31
0.0
  0
LINE
  5
660
330
2BD
100
AcDbEntity
  8
hidden
100
AcDbLine
 10
209.6289535886344
 20
224.7976704229859
 30
0.0
 11
218.1492257974586
 21
225.0952048847972
 31
0.0
  0
LINE
  5
661
330
2BD
100
AcDbEntity
  8
hidden
100
AcDbLine
 10
209.6289535886344
 20
233.330165495757
 30
0.0
 11
218.1492257974586
 21
233.0326310339458
 31
0.0
  0
LINE
  5
662
330
2BD
100
AcDbEntity
  8
hidden
100
AcDbLine
 10
218.1492257974586
 20
233.0326310339458
 30
0.0
 11
218.1492257974586
 21
225.0952048847972
 31
0.0
  0
LINE
  5
663
330
2BD
100
AcDbEntity
  8
hidden
100
AcDbLine
 10
216.1492257974586
 20
233.6838267181668
 30
0.0
 11
216.1492257974586
 21
224.444009200576
 31
0.0
  0
LINE
  5
664
330
2BD
100
AcDbEntity
  8
hidden
100
AcDbLine
 10
216.6652733176131
 20
225.0433841223118
 30
0.0
 11
216.1492257974586
 21
224.444009200576
 31
0.0
  0
LINE
  5
665
330
2BD
100
AcDbEntity
  8
hidden
100
AcDbLine
 10
216.1492257974586
 20
233.6838267181668
 30
0.0
 11
216.6652733176131
 21
233.0844517964311
 31
0.0
  0
LINE
  5
666
330
2BD
100
AcDbEntity
  8
hidden
100
AcDbLine
 10
209.6289535886344
 20
233.330165495757
 30
0.0
 11
209.6289535886344
 21
224.7976704229859
 31
0.0
  0
LINE
  5
667
330
2BD
100
AcDbEntity
  8
hidden
100
AcDbLine
 10
209.6289535886344
 20
224.7976704229859
 30
0.0
 11
209.1492257974585
 21
224.1995638141339
 31
0.0
  0
LINE
  5
668
330
2BD
100
AcDbEntity
  8
hidden
100
AcDbLine
 10
209.1492257974585
 20
233.9282721046091
 30
0.0
 11
209.6289535886344
 21
233.330165495757
 31
0.0
  0
LINE
  5
669
330
2BD
100
AcDbEntity
  8
hidden
100
AcDbLine
 10
209.6289535886344
 20
144.9356478381294
 30
0.0
 11
218.1492257974586
 21
144.6381133763181
 31
0.0
  0
LINE
  5
66A
330
2BD
100
AcDbEntity
  8
hidden
100
AcDbLine
 10
209.6289535886344
 20
136.4031527653583
 30
0.0
 11
218.1492257974586
 21
136.7006872271696
 31
0.0
  0
LINE
  5
66B
330
2BD
100
AcDbEntity
  8
hidden
100
AcDbLine
 10
209.1492257974585
 20
145.5337544469814
 30
0.0
 11
216.1492257974586
 21
145.2893090605392
 31
0.0
  0
LINE
  5
66C
330
2BD
100
AcDbEntity
  8
hidden
100
AcDbLine
 10
209.1492257974585
 20
135.8050461565062
 30
0.0
 11
216.1492257974586
 21
136.0494915429484
 31
0.0
  0
LINE
  5
66D
330
2BD
100
AcDbEntity
  8
center
  6
CENTER
100
AcDbLine
 10
207.1343725676984
 20
140.6694003017438
 30
0.0
 11
223.7078433018267
 21
140.6694003017438
 31
0.0
  0
LINE
  5
66E
330
2BD
100
AcDbEntity
  8
hidden
100
AcDbLine
 10
216.1492257974586
 20
145.2893090605392
 30
0.0
 11
216.1492257974586
 21
136.0494915429484
 31
0.0
  0
LINE
  5
66F
330
2BD
100
AcDbEntity
  8
hidden
100
AcDbLine
 10
218.1492257974586
 20
144.6381133763181
 30
0.0
 11
218.1492257974586
 21
136.7006872271696
 31
0.0
  0
LINE
  5
670
330
2BD
100
AcDbEntity
  8
hidden
100
AcDbLine
 10
216.6652733176131
 20
136.6488664646841
 30
0.0
 11
216.1492257974586
 21
136.0494915429484
 31
0.0
  0
LINE
  5
671
330
2BD
100
AcDbEntity
  8
hidden
100
AcDbLine
 10
216.1492257974586
 20
145.2893090605392
 30
0.0
 11
216.6652733176131
 21
144.6899341388034
 31
0.0
  0
LINE
  5
672
330
2BD
100
AcDbEntity
  8
hidden
100
AcDbLine
 10
209.6289535886344
 20
144.9356478381294
 30
0.0
 11
209.6289535886344
 21
136.4031527653583
 31
0.0
  0
LINE
  5
673
330
2BD
100
AcDbEntity
  8
hidden
100
AcDbLine
 10
209.6289535886344
 20
136.4031527653583
 30
0.0
 11
209.1492257974585
 21
135.8050461565062
 31
0.0
  0
LINE
  5
674
330
2BD
100
AcDbEntity
  8
hidden
100
AcDbLine
 10
209.1492257974585
 20
145.5337544469814
 30
0.0
 11
209.6289535886344
 21
144.9356478381294
 31
0.0
  0
LINE
  5
675
330
2BD
100
AcDbEntity
  8
hidden
100
AcDbLine
 10
209.6289535886344
 20
64.64039396628837
 30
0.0
 11
218.1492257974586
 21
64.3428595044771
 31
0.0
  0
LINE
  5
676
330
2BD
100
AcDbEntity
  8
hidden
100
AcDbLine
 10
209.6289535886344
 20
56.10789889351727
 30
0.0
 11
218.1492257974586
 21
56.4054333553286
 31
0.0
  0
LINE
  5
677
330
2BD
100
AcDbEntity
  8
hidden
100
AcDbLine
 10
209.1492257974585
 20
65.23850057514045
 30
0.0
 11
216.1492257974586
 21
64.99405518869821
 31
0.0
  0
LINE
  5
678
330
2BD
100
AcDbEntity
  8
hidden
100
AcDbLine
 10
209.1492257974585
 20
55.5097922846652
 30
0.0
 11
216.1492257974586
 21
55.75423767110743
 31
0.0
  0
LINE
  5
679
330
2BD
100
AcDbEntity
  8
hidden
100
AcDbLine
 10
216.1492257974586
 20
64.99405518869821
 30
0.0
 11
216.1492257974586
 21
55.75423767110743
 31
0.0
  0
LINE
  5
67A
330
2BD
100
AcDbEntity
  8
hidden
100
AcDbLine
 10
218.1492257974586
 20
64.3428595044771
 30
0.0
 11
218.1492257974586
 21
56.4054333553286
 31
0.0
  0
LINE
  5
67B
330
2BD
100
AcDbEntity
  8
hidden
100
AcDbLine
 10
216.6652733176131
 20
56.35361259284318
 30
0.0
 11
216.1492257974586
 21
55.75423767110743
 31
0.0
  0
LINE
  5
67C
330
2BD
100
AcDbEntity
  8
hidden
100
AcDbLine
 10
216.1492257974586
 20
64.99405518869821
 30
0.0
 11
216.6652733176131
 21
64.39468026696246
 31
0.0
  0
LINE
  5
67D
330
2BD
100
AcDbEntity
  8
hidden
100
AcDbLine
 10
209.6289535886344
 20
64.64039396628837
 30
0.0
 11
209.6289535886344
 21
56.10789889351727
 31
0.0
  0
LINE
  5
67E
330
2BD
100
AcDbEntity
  8
hidden
100
AcDbLine
 10
209.6289535886344
 20
56.10789889351727
 30
0.0
 11
209.1492257974585
 21
55.5097922846652
 31
0.0
  0
LINE
  5
67F
330
2BD
100
AcDbEntity
  8
hidden
100
AcDbLine
 10
209.1492257974585
 20
65.23850057514045
 30
0.0
 11
209.6289535886344
 21
64.64039396628837
 31
0.0
  0
DIMENSION
  5
750
330
2BD
100
AcDbEntity
  8
DIM
100
AcDbDimension
  2
*D12
 10
195.9130064924912
 20
140.6694003017438
 30
0.0
 11
190.9130064924912
 21
143.7694003017439
 31
0.0
 70
    32
 71
     5
 42
6.199999999999988
  3
STANDARD
100
AcDbAlignedDimension
 13
203.1825411131646
 23
146.8694003017438
 33
0.0
 14
207.1343725676984
 24
140.6694003017438
 34
0.0
 50
90.0
100
AcDbRotatedDimension
  0
LINE
  5
7B3
330
2BD
100
AcDbEntity
  8
0
 62
     7
100
AcDbLine
 10
233.1492257974586
 20
170.0694003017438
 30
0.0
 11
233.1492257974586
 21
123.6694003017438
 31
0.0
  0
LINE
  5
7B9
330
2BD
100
AcDbEntity
  8
0
 62
     7
100
AcDbLine
 10
372.5492257974585
 20
170.0694003017439
 30
0.0
 11
372.5492257974585
 21
123.6694003017438
 31
0.0
  0
LINE
  5
7BF
330
2BD
100
AcDbEntity
  8
0
 62
     7
100
AcDbLine
 10
372.5492257974585
 20
244.0639179593715
 30
0.0
 11
372.5492257974585
 21
214.0639179593715
 31
0.0
  0
LINE
  5
7C5
330
2BD
100
AcDbEntity
  8
0
 62
     7
100
AcDbLine
 10
233.1492257974586
 20
244.0639179593715
 30
0.0
 11
233.1492257974586
 21
214.0639179593715
 31
0.0
  0
LINE
  5
7CB
330
2BD
100
AcDbEntity
  8
0
 62
     7
100
AcDbLine
 10
233.1492257974586
 20
75.37414642990282
 30
0.0
 11
233.1492257974586
 21
45.37414642990282
 31
0.0
  0
LINE
  5
7D1
330
2BD
100
AcDbEntity
  8
0
 62
     7
100
AcDbLine
 10
372.5492257974585
 20
75.37414642990282
 30
0.0
 11
372.5492257974585
 21
45.37414642990282
 31
0.0
  0
LEADER
  5
7DD
330
2BD
100
AcDbEntity
  8
DIM
100
AcDbLeader
  3
STANDARD
 73
     0
 40
4.571428571428571
 41
22.28571428571428
 76
     3
 10
209.1492257974585
 20
140.6694003017438
 30
0.0
 10
194.6869561836184
 20
180.4041594998343
 30
0.0
 10
199.0474381966219
 20
180.4041594998343
 30
0.0
340
7DE
213
0.0
223
-1.5
233
0.0
1001
ACAD
1000
DSTYLE
1002
{
1070
     5
1000

1070
    77
1070
     0
1070
   147
1040
1.0
1002
}
  0
MTEXT
  5
7DE
102
{ACAD_REACTORS
330
7DD
102
}
330
2BD
100
AcDbEntity
  8
DIM
100
AcDbMText
 10
200.0474381966219
 20
181.9041594998343
 30
0.0
 40
3.0
 41
0.0
 71
     1
 72
     5
  1
2-PT 1/8
  7
CHINESET
 73
     1
 44
1.0
1001
ACAD
1000
MTEXTBEGIN
1070
    73
1070
     1
1070
    44
1040
1.0
1070
    74
1070
     0
1000
MTEXTEND
  0
LEADER
  5
7DF
330
2BD
100
AcDbEntity
  8
DIM
100
AcDbLeader
  3
STANDARD
 73
     0
 74
     0
 75
     1
 40
4.571428571428571
 41
19.71428571428571
 76
     3
 10
316.3492257974585
 20
170.0694003017439
 30
0.0
 10
328.9364428476116
 20
180.983687179972
 30
0.0
 10
331.9364428476116
 20
180.983687179972
 30
0.0
340
7E0
213
0.0
223
-1.5
233
0.0
1001
ACAD
1000
DSTYLE
1002
{
1070
     5
1000

1070
    77
1070
     0
1070
   147
1040
1.0
1002
}
  0
MTEXT
  5
7E0
102
{ACAD_REACTORS
330
7DF
102
}
330
2BD
100
AcDbEntity
  8
DIM
100
AcDbMText
 10
332.9364428476116
 20
182.483687179972
 30
0.0
 40
3.0
 41
0.0
 71
     1
 72
     5
  1
5-G 1/2
  7
CHINESET
 73
     1
 44
1.0
1001
ACAD
1000
MTEXTBEGIN
1070
    73
1070
     1
1070
    44
1040
1.0
1070
    74
1070
     0
1000
MTEXTEND
  0
LINE
  5
9C7
330
2BD
100
AcDbEntity
  8
AM_VIS
100
AcDbLine
 10
277.5492257974586
 20
219.5639179593714
 30
0.0
 11
277.5492257974586
 21
216.0639179593715
 31
0.0
  0
LINE
  5
9C8
330
2BD
100
AcDbEntity
  8
AM_VIS
100
AcDbLine
 10
271.5492257974586
 20
216.0639179593715
 30
0.0
 11
271.5492257974586
 21
219.5639179593714
 31
0.0
  0
LINE
  5
9C9
330
2BD
100
AcDbEntity
  8
AM_VIS
100
AcDbLine
 10
277.5492257974586
 20
216.0639179593715
 30
0.0
 11
271.5492257974586
 21
216.0639179593715
 31
0.0
  0
LINE
  5
9CA
330
2BD
100
AcDbEntity
  8
AM_VIS
100
AcDbLine
 10
271.5492257974586
 20
219.5639179593714
 30
0.0
 11
277.5492257974586
 21
219.5639179593714
 31
0.0
  0
LINE
  5
9CB
330
2BD
100
AcDbEntity
  8
AM_VIS
100
AcDbLine
 10
275.0621697226786
 20
217.3629833781466
 30
0.0
 11
274.4733846759498
 21
219.0779366491746
 31
0.0
  0
LINE
  5
9CC
330
2BD
100
AcDbEntity
  8
AM_VIS
100
AcDbLine
 10
273.8565622460431
 20
217.3629833781466
 30
0.0
 11
275.0621697226786
 21
217.3629833781466
 31
0.0
  0
LINE
  5
9CD
330
2BD
100
AcDbEntity
  8
AM_VIS
100
AcDbLine
 10
274.4733846759498
 20
219.0779366491746
 30
0.0
 11
273.8565622460433
 21
217.3629833781466
 31
0.0
  0
LINE
  5
9CE
330
2BD
100
AcDbEntity
  8
AM_VIS
100
AcDbLine
 10
276.104225797445
 20
216.157375901511
 30
0.0
 11
276.104225797445
 21
216.0639179575859
 31
0.0
  0
SPLINE
  5
9CF
330
2BD
100
AcDbEntity
  8
AM_VIS
100
AcDbSpline
210
0.0
220
0.0
230
1.0
 70
     8
 71
     3
 72
     8
 73
     4
 74
     0
 42
0.0000000001
 43
0.0000000001
 40
0.0
 40
0.0
 40
0.0
 40
0.0
 40
80.0
 40
80.0
 40
80.0
 40
80.0
 10
275.8612351432394
 20
216.2368151538475
 30
0.0
 10
275.9079641152021
 20
216.1994319762774
 30
0.0
 10
275.9889609761696
 20
216.1729522730337
 30
0.0
 10
276.104225797445
 20
216.157375901511
 30
0.0
  0
SPLINE
  5
9D0
330
2BD
100
AcDbEntity
  8
AM_VIS
100
AcDbSpline
210
0.0
220
0.0
230
1.0
 70
     8
 71
     3
 72
     8
 73
     4
 74
     0
 42
0.0000000001
 43
0.0000000001
 40
0.0
 40
0.0
 40
0.0
 40
0.0
 40
80.0
 40
80.0
 40
80.0
 40
80.0
 10
275.6369360778188
 20
216.6153198267447
 30
0.0
 10
275.7054718558288
 20
216.4284039388943
 30
0.0
 10
275.7802382109689
 20
216.3022357145952
 30
0.0
 10
275.8612351432394
 20
216.2368151538475
 30
0.0
  0
LINE
  5
9D1
330
2BD
100
AcDbEntity
  8
AM_VIS
100
AcDbLine
 10
274.5294594423049
 20
219.5639179575859
 30
0.0
 11
275.6369360778188
 21
216.6153198267447
 31
0.0
  0
LINE
  5
9D2
330
2BD
100
AcDbEntity
  8
AM_VIS
100
AcDbLine
 10
273.5668426198749
 20
216.9984973968382
 30
0.0
 11
274.5107678535198
 21
219.5639179575859
 31
0.0
  0
SPLINE
  5
9D3
330
2BD
100
AcDbEntity
  8
AM_VIS
100
AcDbSpline
210
0.0
220
0.0
230
1.0
 70
     8
 71
     3
 72
     8
 73
     4
 74
     0
 42
0.0000000001
 43
0.0000000001
 40
0.0
 40
0.0
 40
0.0
 40
0.0
 40
80.0
 40
80.0
 40
80.0
 40
80.0
 10
273.2257211245478
 20
216.2601796398288
 30
0.0
 10
273.3129484913429
 20
216.3723291012364
 30
0.0
 10
273.4266557039871
 20
216.618435044007
 30
0.0
 10
273.5668426198749
 20
216.9984973968382
 30
0.0
  0
SPLINE
  5
9D4
330
2BD
100
AcDbEntity
  8
AM_VIS
100
AcDbSpline
210
0.0
220
0.0
230
1.0
 70
     8
 71
     3
 72
     8
 73
     4
 74
     0
 42
0.0000000001
 43
0.0000000001
 40
0.0
 40
0.0
 40
0.0
 40
0.0
 40
80.0
 40
80.0
 40
80.0
 40
80.0
 10
273.1182444890337
 20
216.1807403874924
 30
0.0
 10
273.1556275953012
 20
216.1900861818848
 30
0.0
 10
273.1914531642401
 20
216.2165659564313
 30
0.0
 10
273.2257211245478
 20
216.2601796398288
 30
0.0
  0
LINE
  5
9D5
330
2BD
100
AcDbEntity
  8
AM_VIS
100
AcDbLine
 10
272.9968949027459
 20
216.1566184812349
 30
0.0
 11
273.1183877574442
 21
216.1799958163914
 31
0.0
  0
LINE
  5
9D6
330
2BD
100
AcDbEntity
  8
AM_VIS
100
AcDbLine
 10
272.9967491619309
 20
216.0639179575859
 30
0.0
 11
272.9967491619309
 21
216.157375901511
 31
0.0
  0
LINE
  5
9D7
330
2BD
100
AcDbEntity
  8
AM_VIS
100
AcDbLine
 10
273.8518893488469
 20
216.157375901511
 30
0.0
 11
273.8518893488469
 21
216.0639179575859
 31
0.0
  0
SPLINE
  5
9D8
330
2BD
100
AcDbEntity
  8
AM_VIS
100
AcDbSpline
210
0.0
220
0.0
230
1.0
 70
     8
 71
     3
 72
     8
 73
     4
 74
     0
 42
0.0000000001
 43
0.0000000001
 40
0.0
 40
0.0
 40
0.0
 40
0.0
 40
80.0
 40
80.0
 40
80.0
 40
80.0
 10
273.6556276666038
 20
216.1947590790811
 30
0.0
 10
273.6898955556089
 20
216.1760674902961
 30
0.0
 10
273.7553161163567
 20
216.1636064786413
 30
0.0
 10
273.8518893488469
 20
216.157375901511
 30
0.0
  0
SPLINE
  5
9D9
330
2BD
100
AcDbEntity
  8
AM_VIS
100
AcDbSpline
210
0.0
220
0.0
230
1.0
 70
     8
 71
     3
 72
     8
 73
     4
 74
     0
 42
0.0000000001
 43
0.0000000001
 40
0.0
 40
0.0
 40
0.0
 40
0.0
 40
80.0
 40
80.0
 40
80.0
 40
80.0
 10
273.5434781338936
 20
216.3910207613243
 30
0.0
 10
273.5434781338936
 20
216.2913323115716
 30
0.0
 10
273.5808613114636
 20
216.2259117508239
 30
0.0
 10
273.6556276666038
 20
216.1947590790811
 30
0.0
  0
SPLINE
  5
9DA
330
2BD
100
AcDbEntity
  8
AM_VIS
100
AcDbSpline
210
0.0
220
0.0
230
1.0
 70
     8
 71
     3
 72
     8
 73
     4
 74
     0
 42
0.0000000001
 43
0.0000000001
 40
0.0
 40
0.0
 40
0.0
 40
0.0
 40
80.0
 40
80.0
 40
80.0
 40
80.0
 10
273.5808613114636
 20
216.5966282379596
 30
0.0
 10
273.5559391455486
 20
216.5343228944743
 30
0.0
 10
273.5434781338936
 20
216.4657871164644
 30
0.0
 10
273.5434781338936
 20
216.3910207613243
 30
0.0
  0
LINE
  5
9DB
330
2BD
100
AcDbEntity
  8
AM_VIS
100
AcDbLine
 10
273.8145061712769
 20
217.1900861818848
 30
0.0
 11
273.5808613114636
 21
216.5966282379596
 31
0.0
  0
LINE
  5
9DC
330
2BD
100
AcDbEntity
  8
AM_VIS
100
AcDbLine
 10
275.12291738623
 20
217.1900861818848
 30
0.0
 11
273.8145061712769
 21
217.1900861818848
 31
0.0
  0
LINE
  5
9DD
330
2BD
100
AcDbEntity
  8
AM_VIS
100
AcDbLine
 10
275.2911416852955
 20
216.7274693594551
 30
0.0
 11
275.12291738623
 21
217.1900861818848
 31
0.0
  0
SPLINE
  5
9DE
330
2BD
100
AcDbEntity
  8
AM_VIS
100
AcDbSpline
210
0.0
220
0.0
230
1.0
 70
     8
 71
     3
 72
     8
 73
     4
 74
     0
 42
0.0000000001
 43
0.0000000001
 40
0.0
 40
0.0
 40
0.0
 40
0.0
 40
80.0
 40
80.0
 40
80.0
 40
80.0
 10
275.370580937632
 20
216.3910207613243
 30
0.0
 10
275.370580937632
 20
216.4689023337268
 30
0.0
 10
275.3441011630855
 20
216.581051866437
 30
0.0
 10
275.2911416852955
 20
216.7274693594551
 30
0.0
  0
SPLINE
  5
9DF
330
2BD
100
AcDbEntity
  8
AM_VIS
100
AcDbSpline
210
0.0
220
0.0
230
1.0
 70
     8
 71
     3
 72
     8
 73
     4
 74
     0
 42
0.0000000001
 43
0.0000000001
 40
0.0
 40
0.0
 40
0.0
 40
0.0
 40
80.0
 40
80.0
 40
80.0
 40
80.0
 10
275.2537585077255
 20
216.1947590790811
 30
0.0
 10
275.331640080128
 20
216.229027039389
 30
0.0
 10
275.370580937632
 20
216.2944476001365
 30
0.0
 10
275.370580937632
 20
216.3910207613243
 30
0.0
  0
SPLINE
  5
9E0
330
2BD
100
AcDbEntity
  8
AM_VIS
100
AcDbSpline
210
0.0
220
0.0
230
1.0
 70
     8
 71
     3
 72
     8
 73
     4
 74
     0
 42
0.0000000001
 43
0.0000000001
 40
0.0
 40
0.0
 40
0.0
 40
0.0
 40
80.0
 40
80.0
 40
80.0
 40
80.0
 10
274.9967491619309
 20
216.157375901511
 30
0.0
 10
275.1182444890337
 20
216.1636064786413
 30
0.0
 10
275.2039142471976
 20
216.1760674902961
 30
0.0
 10
275.2537585077255
 20
216.1947590790811
 30
0.0
  0
LINE
  5
9E1
330
2BD
100
AcDbEntity
  8
AM_VIS
100
AcDbLine
 10
274.9967491619309
 20
216.0639179575859
 30
0.0
 11
274.9967491619309
 21
216.157375901511
 31
0.0
  0
LINE
  5
9E2
330
2BD
100
AcDbEntity
  8
AM_VIS
100
AcDbLine
 10
327.5492257974586
 20
238.5639179593714
 30
0.0
 11
327.5492257974586
 21
242.0639179593714
 31
0.0
  0
LINE
  5
9E3
330
2BD
100
AcDbEntity
  8
AM_VIS
100
AcDbLine
 10
333.5492257974586
 20
242.0639179593714
 30
0.0
 11
333.5492257974586
 21
238.5639179593714
 31
0.0
  0
LINE
  5
9E4
330
2BD
100
AcDbEntity
  8
AM_VIS
100
AcDbLine
 10
333.5492257974586
 20
238.5639179593714
 30
0.0
 11
327.5492257974586
 21
238.5639179593714
 31
0.0
  0
LINE
  5
9E5
330
2BD
100
AcDbEntity
  8
AM_VIS
100
AcDbLine
 10
327.5492257974586
 20
242.0639179593714
 30
0.0
 11
333.5492257974586
 21
242.0639179593714
 31
0.0
  0
SPLINE
  5
9E6
330
2BD
100
AcDbEntity
  8
AM_VIS
100
AcDbSpline
210
0.0
220
0.0
230
1.0
 70
     8
 71
     3
 72
     8
 73
     4
 74
     0
 42
0.0000000001
 43
0.0000000001
 40
0.0
 40
0.0
 40
0.0
 40
0.0
 40
80.0
 40
80.0
 40
80.0
 40
80.0
 10
329.60039427572
 20
241.122341872415
 30
0.0
 10
329.600394348282
 20
240.7514180319337
 30
0.0
 10
329.8001226091517
 20
240.4977947951532
 30
0.0
 10
330.1995790583285
 20
240.3614723071977
 30
0.0
  0
SPLINE
  5
9E7
330
2BD
100
AcDbEntity
  8
AM_VIS
100
AcDbSpline
210
0.0
220
0.0
230
1.0
 70
     8
 71
     3
 72
     8
 73
     4
 74
     0
 42
0.0000000001
 43
0.0000000001
 40
0.0
 40
0.0
 40
0.0
 40
0.0
 40
80.0
 40
80.0
 40
80.0
 40
80.0
 10
330.6133018844155
 20
241.9069886115455
 30
0.0
 10
329.9380302178472
 20
241.9069885389832
 30
0.0
 10
329.600394348282
 20
241.6454396985019
 30
0.0
 10
329.60039427572
 20
241.122341872415
 30
0.0
  0
SPLINE
  5
9E8
330
2BD
100
AcDbEntity
  8
AM_VIS
100
AcDbSpline
210
0.0
220
0.0
230
1.0
 70
     8
 71
     3
 72
     8
 73
     4
 74
     0
 42
0.0000000001
 43
0.0000000001
 40
0.0
 40
0.0
 40
0.0
 40
0.0
 40
80.0
 40
80.0
 40
80.0
 40
80.0
 10
330.91289427572
 20
241.8784560028497
 30
0.0
 10
330.8526588168484
 20
241.897477669418
 30
0.0
 10
330.7527946864134
 20
241.9069885389832
 30
0.0
 10
330.6133018844155
 20
241.9069886115455
 30
0.0
  0
SPLINE
  5
9E9
330
2BD
100
AcDbEntity
  8
AM_VIS
100
AcDbSpline
210
0.0
220
0.0
230
1.0
 70
     8
 71
     3
 72
     8
 73
     4
 74
     0
 42
0.0000000001
 43
0.0000000001
 40
0.0
 40
0.0
 40
0.0
 40
0.0
 40
80.0
 40
80.0
 40
80.0
 40
80.0
 10
331.0650681887632
 20
241.6549505680672
 30
0.0
 10
331.0650682613255
 20
241.7659107613696
 30
0.0
 10
331.0143435994569
 20
241.8404125245889
 30
0.0
 10
330.91289427572
 20
241.8784560028497
 30
0.0
  0
LINE
  5
9EA
330
2BD
100
AcDbEntity
  8
AM_VIS
100
AcDbLine
 10
331.0650681887632
 20
240.2853853506759
 30
0.0
 11
331.0650681887632
 21
241.6549505680672
 31
0.0
  0
SPLINE
  5
9EB
330
2BD
100
AcDbEntity
  8
AM_VIS
100
AcDbSpline
210
0.0
220
0.0
230
1.0
 70
     8
 71
     3
 72
     8
 73
     4
 74
     0
 42
0.0000000001
 43
0.0000000001
 40
0.0
 40
0.0
 40
0.0
 40
0.0
 40
80.0
 40
80.0
 40
80.0
 40
80.0
 10
330.1995790583285
 20
240.3614723071977
 30
0.0
 10
330.3485827298918
 20
240.3107477178913
 30
0.0
 10
330.6370790583285
 20
240.2853853506759
 30
0.0
 10
331.0650681887632
 20
240.2853853506759
 30
0.0
  0
SPLINE
  5
9EC
330
2BD
100
AcDbEntity
  8
AM_VIS
100
AcDbSpline
210
0.0
220
0.0
230
1.0
 70
     8
 71
     3
 72
     8
 73
     4
 74
     0
 42
0.0000000001
 43
0.0000000001
 40
0.0
 40
0.0
 40
0.0
 40
0.0
 40
80.0
 40
80.0
 40
80.0
 40
80.0
 10
329.695502971372
 20
239.4769614376325
 30
0.0
 10
329.695502971372
 20
238.9728853506759
 30
0.0
 10
330.03789427572
 20
238.7208473071977
 30
0.0
 10
330.7226768844155
 20
238.7208473071977
 30
0.0
  0
SPLINE
  5
9ED
330
2BD
100
AcDbEntity
  8
AM_VIS
100
AcDbSpline
210
0.0
220
0.0
230
1.0
 70
     8
 71
     3
 72
     8
 73
     4
 74
     0
 42
0.0000000001
 43
0.0000000001
 40
0.0
 40
0.0
 40
0.0
 40
0.0
 40
80.0
 40
80.0
 40
80.0
 40
80.0
 10
330.0569160148502
 20
240.0333473071977
 30
0.0
 10
329.8159740342396
 20
239.9445792396303
 30
0.0
 10
329.695502971372
 20
239.7591172831086
 30
0.0
 10
329.695502971372
 20
239.4769614376325
 30
0.0
  0
SPLINE
  5
9EE
330
2BD
100
AcDbEntity
  8
AM_VIS
100
AcDbSpline
210
0.0
220
0.0
230
1.0
 70
     8
 71
     3
 72
     8
 73
     4
 74
     0
 42
0.0000000001
 43
0.0000000001
 40
0.0
 40
0.0
 40
0.0
 40
0.0
 40
80.0
 40
80.0
 40
80.0
 40
80.0
 10
330.5277040583285
 20
240.0856570898062
 30
0.0
 10
330.312124372371
 20
240.0824868483261
 30
0.0
 10
330.155195024545
 20
240.0650502299358
 30
0.0
 10
330.0569160148502
 20
240.0333473071977
 30
0.0
  0
LINE
  5
9EF
330
2BD
100
AcDbEntity
  8
AM_VIS
100
AcDbLine
 10
331.0650681887632
 20
240.0904125245889
 30
0.0
 11
330.5277040583285
 21
240.0856570898062
 31
0.0
  0
LINE
  5
9F0
330
2BD
100
AcDbEntity
  8
AM_VIS
100
AcDbLine
 10
331.0650681887632
 20
238.8587549158932
 30
0.0
 11
331.0650681887632
 21
240.0904125245889
 31
0.0
  0
SPLINE
  5
9F1
330
2BD
100
AcDbEntity
  8
AM_VIS
100
AcDbSpline
210
0.0
220
0.0
230
1.0
 70
     8
 71
     3
 72
     8
 73
     4
 74
     0
 42
0.0000000001
 43
0.0000000001
 40
0.0
 40
0.0
 40
0.0
 40
0.0
 40
80.0
 40
80.0
 40
80.0
 40
80.0
 10
331.046046449633
 20
238.7588907854584
 30
0.0
 10
331.0587276332406
 20
238.7747422831086
 30
0.0
 10
331.0650682613255
 20
238.8080303265868
 30
0.0
 10
331.0650681887632
 20
238.8587549158932
 30
0.0
  0
SPLINE
  5
9F2
330
2BD
100
AcDbEntity
  8
AM_VIS
100
AcDbSpline
210
0.0
220
0.0
230
1.0
 70
     8
 71
     3
 72
     8
 73
     4
 74
     0
 42
0.0000000001
 43
0.0000000001
 40
0.0
 40
0.0
 40
0.0
 40
0.0
 40
80.0
 40
80.0
 40
80.0
 40
80.0
 10
330.9414268844155
 20
238.7256027419802
 30
0.0
 10
330.9984921018067
 20
238.7319433700651
 30
0.0
 10
331.0333653385874
 20
238.7430393603705
 30
0.0
 10
331.046046449633
 20
238.7588907854584
 30
0.0
  0
SPLINE
  5
9F3
330
2BD
100
AcDbEntity
  8
AM_VIS
100
AcDbSpline
210
0.0
220
0.0
230
1.0
 70
     8
 71
     3
 72
     8
 73
     4
 74
     0
 42
0.0000000001
 43
0.0000000001
 40
0.0
 40
0.0
 40
0.0
 40
0.0
 40
80.0
 40
80.0
 40
80.0
 40
80.0
 10
330.7226768844155
 20
238.7208473071977
 30
0.0
 10
330.8558291308907
 20
238.7208473071977
 30
0.0
 10
330.9287457733701
 20
238.7224325004999
 30
0.0
 10
330.9414268844155
 20
238.7256027419802
 30
0.0
  0
SPLINE
  5
9F4
330
2BD
100
AcDbEntity
  8
AM_VIS
100
AcDbSpline
210
0.0
220
0.0
230
1.0
 70
     8
 71
     3
 72
     8
 73
     4
 74
     0
 42
0.0000000001
 43
0.0000000001
 40
0.0
 40
0.0
 40
0.0
 40
0.0
 40
80.0
 40
80.0
 40
80.0
 40
80.0
 10
329.234225797459
 20
241.1413636115455
 30
0.0
 10
329.234225797459
 20
241.3442621864575
 30
0.0
 10
329.2912910148502
 20
241.5233835874563
 30
0.0
 10
329.405421449633
 20
241.6787277419802
 30
0.0
  0
SPLINE
  5
9F5
330
2BD
100
AcDbEntity
  8
AM_VIS
100
AcDbSpline
210
0.0
220
0.0
230
1.0
 70
     8
 71
     3
 72
     8
 73
     4
 74
     0
 42
0.0000000001
 43
0.0000000001
 40
0.0
 40
0.0
 40
0.0
 40
0.0
 40
80.0
 40
80.0
 40
80.0
 40
80.0
 10
329.9950953626765
 20
240.2378310028497
 30
0.0
 10
329.4878490342396
 20
240.3583020657173
 30
0.0
 10
329.234225797459
 20
240.6594795777618
 30
0.0
 10
329.234225797459
 20
241.1413636115455
 30
0.0
  0
LINE
  5
9F6
330
2BD
100
AcDbEntity
  8
AM_VIS
100
AcDbLine
 10
330.0759377539807
 20
240.2188092637195
 30
0.0
 11
329.9950953626765
 21
240.2378310028497
 31
0.0
  0
SPLINE
  5
9F7
330
2BD
100
AcDbEntity
  8
AM_VIS
100
AcDbSpline
210
0.0
220
0.0
230
1.0
 70
     8
 71
     3
 72
     8
 73
     4
 74
     0
 42
0.0000000001
 43
0.0000000001
 40
0.0
 40
0.0
 40
0.0
 40
0.0
 40
80.0
 40
80.0
 40
80.0
 40
80.0
 10
329.3863997105025
 20
239.4389179593717
 30
0.0
 10
329.3863997105025
 20
239.832033925588
 30
0.0
 10
329.6162457733701
 20
240.0919977178913
 30
0.0
 10
330.0759377539807
 20
240.2188092637195
 30
0.0
  0
SPLINE
  5
9F8
330
2BD
100
AcDbEntity
  8
AM_VIS
100
AcDbSpline
210
0.0
220
0.0
230
1.0
 70
     8
 71
     3
 72
     8
 73
     4
 74
     0
 42
0.0000000001
 43
0.0000000001
 40
0.0
 40
0.0
 40
0.0
 40
0.0
 40
80.0
 40
80.0
 40
80.0
 40
80.0
 10
330.5895247105025
 20
238.5639179593717
 30
0.0
 10
329.7874414255439
 20
238.5639179593717
 30
0.0
 10
329.3863997105025
 20
238.8555846744131
 30
0.0
 10
329.3863997105025
 20
239.4389179593717
 30
0.0
  0
LINE
  5
9F9
330
2BD
100
AcDbEntity
  8
AM_VIS
100
AcDbLine
 10
331.8687366670242
 20
238.6590266550237
 30
0.0
 11
331.8687366670242
 21
238.5639179593717
 31
0.0
  0
SPLINE
  5
9FA
330
2BD
100
AcDbEntity
  8
AM_VIS
100
AcDbSpline
210
0.0
220
0.0
230
1.0
 70
     8
 71
     3
 72
     8
 73
     4
 74
     0
 42
0.0000000001
 43
0.0000000001
 40
0.0
 40
0.0
 40
0.0
 40
0.0
 40
80.0
 40
80.0
 40
80.0
 40
80.0
 10
331.469280145285
 20
238.7446244811107
 30
0.0
 10
331.5295156767188
 20
238.700240447327
 30
0.0
 10
331.6626678506318
 20
238.6717078386313
 30
0.0
 10
331.8687366670242
 20
238.6590266550237
 30
0.0
  0
SPLINE
  5
9FB
330
2BD
100
AcDbEntity
  8
AM_VIS
100
AcDbSpline
210
0.0
220
0.0
230
1.0
 70
     8
 71
     3
 72
     8
 73
     4
 74
     0
 42
0.0000000001
 43
0.0000000001
 40
0.0
 40
0.0
 40
0.0
 40
0.0
 40
80.0
 40
80.0
 40
80.0
 40
80.0
 10
331.359905145285
 20
239.1155483941542
 30
0.0
 10
331.359905145285
 20
238.9253310028497
 30
0.0
 10
331.3963635028058
 20
238.8016896985019
 30
0.0
 10
331.469280145285
 20
238.7446244811107
 30
0.0
  0
LINE
  5
9FC
330
2BD
100
AcDbEntity
  8
AM_VIS
100
AcDbLine
 10
331.359905145285
 20
241.4362005680672
 30
0.0
 11
331.359905145285
 21
239.1155483941542
 31
0.0
  0
SPLINE
  5
9FD
330
2BD
100
AcDbEntity
  8
AM_VIS
100
AcDbSpline
210
0.0
220
0.0
230
1.0
 70
     8
 71
     3
 72
     8
 73
     4
 74
     0
 42
0.0000000001
 43
0.0000000001
 40
0.0
 40
0.0
 40
0.0
 40
0.0
 40
80.0
 40
80.0
 40
80.0
 40
80.0
 10
331.4645247105025
 20
241.8404125245889
 30
0.0
 10
331.3947783820656
 20
241.7674958821097
 30
0.0
 10
331.359905145285
 20
241.6327585874563
 30
0.0
 10
331.359905145285
 20
241.4362005680672
 30
0.0
  0
SPLINE
  5
9FE
330
2BD
100
AcDbEntity
  8
AM_VIS
100
AcDbSpline
210
0.0
220
0.0
230
1.0
 70
     8
 71
     3
 72
     8
 73
     4
 74
     0
 42
0.0000000001
 43
0.0000000001
 40
0.0
 40
0.0
 40
0.0
 40
0.0
 40
80.0
 40
80.0
 40
80.0
 40
80.0
 10
331.8687366670242
 20
241.9688092637194
 30
0.0
 10
331.672178720197
 20
241.9561280801116
 30
0.0
 10
331.5374414255439
 20
241.9133291670681
 30
0.0
 10
331.4645247105025
 20
241.8404125245889
 30
0.0
  0
LINE
  5
9FF
330
2BD
100
AcDbEntity
  8
AM_VIS
100
AcDbLine
 10
331.8687366670242
 20
242.0639179593714
 30
0.0
 11
331.8687366670242
 21
241.9688092637194
 31
0.0
  0
SPLINE
  5
A00
330
2BD
100
AcDbEntity
  8
AM_VIS
100
AcDbSpline
210
0.0
220
0.0
230
1.0
 70
     8
 71
     3
 72
     8
 73
     4
 74
     0
 42
0.0000000001
 43
0.0000000001
 40
0.0
 40
0.0
 40
0.0
 40
0.0
 40
80.0
 40
80.0
 40
80.0
 40
80.0
 10
329.405421449633
 20
241.6787277419802
 30
0.0
 10
329.5924685994569
 20
241.9355212202412
 30
0.0
 10
329.9015718603266
 20
242.0639179593714
 30
0.0
 10
330.3327312322417
 20
242.0639179593714
 30
0.0
  0
LINE
  5
A07
330
2BD
100
AcDbEntity
  8
AM_VIS
100
AcDbLine
 10
288.5492257974586
 20
70.37414642990282
 30
0.0
 11
288.5492257974586
 21
73.87414642990282
 31
0.0
  0
LINE
  5
A08
330
2BD
100
AcDbEntity
  8
AM_VIS
100
AcDbLine
 10
288.5492257974586
 20
73.87414642990282
 30
0.0
 11
294.5492257974586
 21
73.87414642990282
 31
0.0
  0
LINE
  5
A09
330
2BD
100
AcDbEntity
  8
AM_VIS
100
AcDbLine
 10
294.5492257974586
 20
73.87414642990282
 30
0.0
 11
294.5492257974586
 21
70.37414642990282
 31
0.0
  0
LINE
  5
A0A
330
2BD
100
AcDbEntity
  8
AM_VIS
100
AcDbLine
 10
294.5492257974586
 20
70.37414642990282
 30
0.0
 11
288.5492257974586
 21
70.37414642990282
 31
0.0
  0
SPLINE
  5
A0B
330
2BD
100
AcDbEntity
  8
AM_VIS
100
AcDbSpline
210
0.0
220
0.0
230
1.0
 70
     8
 71
     3
 72
     8
 73
     4
 74
     0
 42
0.0000000001
 43
0.0000000001
 40
0.0
 40
0.0
 40
0.0
 40
0.0
 40
80.0
 40
80.0
 40
80.0
 40
80.0
 10
292.4213453626912
 20
72.92305947338107
 30
0.0
 10
292.421345290129
 20
73.44932754094819
 30
0.0
 10
292.055176811868
 20
73.71246164729408
 30
0.0
 10
291.3228399279085
 20
73.71246164729408
 30
0.0
  0
SPLINE
  5
A0C
330
2BD
100
AcDbEntity
  8
AM_VIS
100
AcDbSpline
210
0.0
220
0.0
230
1.0
 70
     8
 71
     3
 72
     8
 73
     4
 74
     0
 42
0.0000000001
 43
0.0000000001
 40
0.0
 40
0.0
 40
0.0
 40
0.0
 40
80.0
 40
80.0
 40
80.0
 40
80.0
 10
291.475013840952
 20
72.09085838642457
 30
0.0
 10
292.1059014737366
 20
72.09085838642457
 30
0.0
 10
292.421345290129
 20
72.368258724556
 30
0.0
 10
292.4213453626912
 20
72.92305947338107
 30
0.0
  0
SPLINE
  5
A0D
330
2BD
100
AcDbEntity
  8
AM_VIS
100
AcDbSpline
210
0.0
220
0.0
230
1.0
 70
     8
 71
     3
 72
     8
 73
     4
 74
     0
 42
0.0000000001
 43
0.0000000001
 40
0.0
 40
0.0
 40
0.0
 40
0.0
 40
80.0
 40
80.0
 40
80.0
 40
80.0
 10
291.099334493126
 20
72.10988012555484
 30
0.0
 10
291.203953985781
 20
72.09719894194726
 30
0.0
 10
291.3291804834312
 20
72.09085838642457
 30
0.0
 10
291.475013840952
 20
72.09085838642457
 30
0.0
  0
LINE
  5
A0E
330
2BD
100
AcDbEntity
  8
AM_VIS
100
AcDbLine
 10
291.099334493126
 20
73.49371164729408
 30
0.0
 11
291.099334493126
 21
72.10988012555507
 31
0.0
  0
SPLINE
  5
A0F
330
2BD
100
AcDbEntity
  8
AM_VIS
100
AcDbSpline
210
0.0
220
0.0
230
1.0
 70
     8
 71
     3
 72
     8
 73
     4
 74
     0
 42
0.0000000001
 43
0.0000000001
 40
0.0
 40
0.0
 40
0.0
 40
0.0
 40
80.0
 40
80.0
 40
80.0
 40
80.0
 10
291.146888840952
 20
73.68392903859834
 30
0.0
 10
291.1151859182139
 20
73.65222611586026
 30
0.0
 10
291.099334493126
 20
73.58882034294632
 30
0.0
 10
291.099334493126
 20
73.49371164729408
 30
0.0
  0
SPLINE
  5
A10
330
2BD
100
AcDbEntity
  8
AM_VIS
100
AcDbSpline
210
0.0
220
0.0
230
1.0
 70
     8
 71
     3
 72
     8
 73
     4
 74
     0
 42
0.0000000001
 43
0.0000000001
 40
0.0
 40
0.0
 40
0.0
 40
0.0
 40
80.0
 40
80.0
 40
80.0
 40
80.0
 10
291.3228399279085
 20
73.71246164729408
 30
0.0
 10
291.2309014737366
 20
73.71246164729408
 30
0.0
 10
291.1722511356052
 20
73.70295077772883
 30
0.0
 10
291.146888840952
 20
73.68392903859834
 30
0.0
  0
SPLINE
  5
A11
330
2BD
100
AcDbEntity
  8
AM_VIS
100
AcDbSpline
210
0.0
220
0.0
230
1.0
 70
     8
 71
     3
 72
     8
 73
     4
 74
     0
 42
0.0000000001
 43
0.0000000001
 40
0.0
 40
0.0
 40
0.0
 40
0.0
 40
80.0
 40
80.0
 40
80.0
 40
80.0
 10
292.7542257974737
 20
72.93257034294632
 30
0.0
 10
292.7542257974737
 20
72.65041449746994
 30
0.0
 10
292.6654576573444
 20
72.41739819312218
 30
0.0
 10
292.4879214496477
 20
72.23352142990282
 30
0.0
  0
SPLINE
  5
A12
330
2BD
100
AcDbEntity
  8
AM_VIS
100
AcDbSpline
210
0.0
220
0.0
230
1.0
 70
     8
 71
     3
 72
     8
 73
     4
 74
     0
 42
0.0000000001
 43
0.0000000001
 40
0.0
 40
0.0
 40
0.0
 40
0.0
 40
80.0
 40
80.0
 40
80.0
 40
80.0
 10
292.3928127539955
 20
73.65539642990282
 30
0.0
 10
292.6337547346061
 20
73.48737101920917
 30
0.0
 10
292.7542257974737
 20
73.24642903859833
 30
0.0
 10
292.7542257974737
 20
72.93257034294632
 30
0.0
  0
SPLINE
  5
A13
330
2BD
100
AcDbEntity
  8
AM_VIS
100
AcDbSpline
210
0.0
220
0.0
230
1.0
 70
     8
 71
     3
 72
     8
 73
     4
 74
     0
 42
0.0000000001
 43
0.0000000001
 40
0.0
 40
0.0
 40
0.0
 40
0.0
 40
80.0
 40
80.0
 40
80.0
 40
80.0
 10
291.5558562322562
 20
73.87414642990282
 30
0.0
 10
291.9014177780844
 20
73.87414642990282
 30
0.0
 10
292.1804033095181
 20
73.80122971486142
 30
0.0
 10
292.3928127539955
 20
73.65539642990282
 30
0.0
  0
LINE
  5
A14
330
2BD
100
AcDbEntity
  8
AM_VIS
100
AcDbLine
 10
290.3479757974738
 20
73.77903773425058
 30
0.0
 11
290.3479757974738
 21
73.87414642990282
 31
0.0
  0
SPLINE
  5
A15
330
2BD
100
AcDbEntity
  8
AM_VIS
100
AcDbSpline
210
0.0
220
0.0
230
1.0
 70
     8
 71
     3
 72
     8
 73
     4
 74
     0
 42
0.0000000001
 43
0.0000000001
 40
0.0
 40
0.0
 40
0.0
 40
0.0
 40
80.0
 40
80.0
 40
80.0
 40
80.0
 10
290.709388840952
 20
73.66015186468533
 30
0.0
 10
290.6523236235607
 20
73.71721708207658
 30
0.0
 10
290.5318525606931
 20
73.75684568107775
 30
0.0
 10
290.3479757974738
 20
73.77903773425058
 30
0.0
  0
SPLINE
  5
A16
330
2BD
100
AcDbEntity
  8
AM_VIS
100
AcDbSpline
210
0.0
220
0.0
230
1.0
 70
     8
 71
     3
 72
     8
 73
     4
 74
     0
 42
0.0000000001
 43
0.0000000001
 40
0.0
 40
0.0
 40
0.0
 40
0.0
 40
80.0
 40
80.0
 40
80.0
 40
80.0
 10
290.7997421018215
 20
73.28447251685933
 30
0.0
 10
290.7997421018215
 20
73.47468990816358
 30
0.0
 10
290.7696242998236
 20
73.59991633325151
 30
0.0
 10
290.709388840952
 20
73.66015186468533
 30
0.0
  0
LINE
  5
A17
330
2BD
100
AcDbEntity
  8
AM_VIS
100
AcDbLine
 10
290.7997421018215
 20
71.06368447338107
 30
0.0
 11
290.7997421018215
 21
73.28447251685933
 31
0.0
  0
SPLINE
  5
A18
330
2BD
100
AcDbEntity
  8
AM_VIS
100
AcDbSpline
210
0.0
220
0.0
230
1.0
 70
     8
 71
     3
 72
     8
 73
     4
 74
     0
 42
0.0000000001
 43
0.0000000001
 40
0.0
 40
0.0
 40
0.0
 40
0.0
 40
80.0
 40
80.0
 40
80.0
 40
80.0
 10
290.7188997105172
 20
70.63093990816359
 30
0.0
 10
290.7727946138662
 20
70.70702686468533
 30
0.0
 10
290.7997421018215
 20
70.85127502890376
 30
0.0
 10
290.7997421018215
 20
71.06368447338107
 30
0.0
  0
SPLINE
  5
A19
330
2BD
100
AcDbEntity
  8
AM_VIS
100
AcDbSpline
210
0.0
220
0.0
230
1.0
 70
     8
 71
     3
 72
     8
 73
     4
 74
     0
 42
0.0000000001
 43
0.0000000001
 40
0.0
 40
0.0
 40
0.0
 40
0.0
 40
80.0
 40
80.0
 40
80.0
 40
80.0
 10
290.3479757974738
 20
70.46925512555484
 30
0.0
 10
290.5350228747357
 20
70.48827686468533
 30
0.0
 10
290.6586641790834
 20
70.54217184059647
 30
0.0
 10
290.7188997105172
 20
70.63093990816359
 30
0.0
  0
LINE
  5
A1A
330
2BD
100
AcDbEntity
  8
AM_VIS
100
AcDbLine
 10
290.3479757974738
 20
70.37414642990282
 30
0.0
 11
290.3479757974738
 21
70.46925512555484
 31
0.0
  0
LINE
  5
A1B
330
2BD
100
AcDbEntity
  8
AM_VIS
100
AcDbLine
 10
291.5986551452998
 20
70.46925512555484
 30
0.0
 11
291.5986551452998
 21
70.37414642990282
 31
0.0
  0
SPLINE
  5
A1C
330
2BD
100
AcDbEntity
  8
AM_VIS
100
AcDbSpline
210
0.0
220
0.0
230
1.0
 70
     8
 71
     3
 72
     8
 73
     4
 74
     0
 42
0.0000000001
 43
0.0000000001
 40
0.0
 40
0.0
 40
0.0
 40
0.0
 40
80.0
 40
80.0
 40
80.0
 40
80.0
 10
291.2182203626912
 20
70.58814099512009
 30
0.0
 10
291.2847964496478
 20
70.5215649807258
 30
0.0
 10
291.4116079954758
 20
70.48193630916265
 30
0.0
 10
291.5986551452998
 20
70.46925512555484
 30
0.0
  0
SPLINE
  5
A1D
330
2BD
100
AcDbEntity
  8
AM_VIS
100
AcDbSpline
210
0.0
220
0.0
230
1.0
 70
     8
 71
     3
 72
     8
 73
     4
 74
     0
 42
0.0000000001
 43
0.0000000001
 40
0.0
 40
0.0
 40
0.0
 40
0.0
 40
80.0
 40
80.0
 40
80.0
 40
80.0
 10
291.099334493126
 20
70.99710838642457
 30
0.0
 10
291.099334493126
 20
70.80372068107775
 30
0.0
 10
291.1389630921269
 20
70.66739819312218
 30
0.0
 10
291.2182203626912
 20
70.58814099512009
 30
0.0
  0
LINE
  5
A1E
330
2BD
100
AcDbEntity
  8
AM_VIS
100
AcDbLine
 10
291.099334493126
 20
71.93868447338108
 30
0.0
 11
291.099334493126
 21
70.99710838642457
 31
0.0
  0
LINE
  5
A1F
330
2BD
100
AcDbEntity
  8
AM_VIS
100
AcDbLine
 10
291.0992801215794
 20
71.9358834203754
 30
0.0
 11
291.5082780226157
 21
71.92794431733094
 31
0.0
  0
SPLINE
  5
A20
330
2BD
100
AcDbEntity
  8
AM_VIS
100
AcDbSpline
210
0.0
220
0.0
230
1.0
 70
     8
 71
     3
 72
     8
 73
     4
 74
     0
 42
0.0000000001
 43
0.0000000001
 40
0.0
 40
0.0
 40
0.0
 40
0.0
 40
80.0
 40
80.0
 40
80.0
 40
80.0
 10
292.4879214496477
 20
72.23352142990282
 30
0.0
 10
292.2913634302584
 20
72.03062285499076
 30
0.0
 10
291.9648235509985
 20
71.92917360381582
 30
0.0
 10
291.5083018844303
 20
71.92917360381582
 30
0.0
  0
LINE
  5
A21
330
2BD
100
AcDbEntity
  8
AM_VIS
100
AcDbLine
 10
281.0492257974586
 20
46.87414642990282
 30
0.0
 11
281.0492257974586
 21
50.37414642990282
 31
0.0
  0
LINE
  5
A22
330
2BD
100
AcDbEntity
  8
AM_VIS
100
AcDbLine
 10
281.0492257974586
 20
50.37414642990282
 30
0.0
 11
287.0492257974586
 21
50.37414642990282
 31
0.0
  0
LINE
  5
A23
330
2BD
100
AcDbEntity
  8
AM_VIS
100
AcDbLine
 10
287.0492257974586
 20
50.37414642990282
 30
0.0
 11
287.0492257974586
 21
46.87414642990282
 31
0.0
  0
LINE
  5
A24
330
2BD
100
AcDbEntity
  8
AM_VIS
100
AcDbLine
 10
287.0492257974586
 20
46.87414642990282
 30
0.0
 11
281.0492257974586
 21
46.87414642990282
 31
0.0
  0
LINE
  5
A25
330
2BD
100
AcDbEntity
  8
AM_VIS
100
AcDbLine
 10
318.0492257974586
 20
46.87414642990282
 30
0.0
 11
318.0492257974586
 21
50.37414642990282
 31
0.0
  0
LINE
  5
A26
330
2BD
100
AcDbEntity
  8
AM_VIS
100
AcDbLine
 10
318.0492257974586
 20
50.37414642990282
 30
0.0
 11
324.0492257974586
 21
50.37414642990282
 31
0.0
  0
LINE
  5
A27
330
2BD
100
AcDbEntity
  8
AM_VIS
100
AcDbLine
 10
324.0492257974586
 20
50.37414642990282
 30
0.0
 11
324.0492257974586
 21
46.87414642990282
 31
0.0
  0
LINE
  5
A28
330
2BD
100
AcDbEntity
  8
AM_VIS
100
AcDbLine
 10
324.0492257974586
 20
46.87414642990282
 30
0.0
 11
318.0492257974586
 21
46.87414642990282
 31
0.0
  0
LINE
  5
A29
330
2BD
100
AcDbEntity
  8
AM_VIS
100
AcDbLine
 10
286.3992257974951
 20
46.96772931760327
 30
0.0
 11
286.3992257974951
 21
46.87414642990282
 31
0.0
  0
SPLINE
  5
A2A
330
2BD
100
AcDbEntity
  8
AM_VIS
100
AcDbSpline
210
0.0
220
0.0
230
1.0
 70
     8
 71
     3
 72
     8
 73
     4
 74
     0
 42
0.0000000001
 43
0.0000000001
 40
0.0
 40
0.0
 40
0.0
 40
0.0
 40
80.0
 40
80.0
 40
80.0
 40
80.0
 10
286.0248942466928
 20
47.04259562776363
 30
0.0
 10
286.0997605568534
 20
46.99268480192225
 30
0.0
 10
286.2245376928554
 20
46.96772931760327
 30
0.0
 10
286.3992257974951
 20
46.96772931760327
 30
0.0
  0
SPLINE
  5
A2B
330
2BD
100
AcDbEntity
  8
AM_VIS
100
AcDbSpline
210
0.0
220
0.0
230
1.0
 70
     8
 71
     3
 72
     8
 73
     4
 74
     0
 42
0.0000000001
 43
0.0000000001
 40
0.0
 40
0.0
 40
0.0
 40
0.0
 40
80.0
 40
80.0
 40
80.0
 40
80.0
 10
285.9125947814523
 20
47.32802343525034
 30
0.0
 10
285.9125947814523
 20
47.19388793908026
 30
0.0
 10
285.9500279365325
 20
47.09874543178218
 30
0.0
 10
286.0248942466928
 20
47.04259562776363
 30
0.0
  0
LINE
  5
A2C
330
2BD
100
AcDbEntity
  8
AM_VIS
100
AcDbLine
 10
285.9125947814523
 20
50.37414642990282
 30
0.0
 11
285.9125947814523
 21
47.32802343525034
 31
0.0
  0
LINE
  5
A2D
330
2BD
100
AcDbEntity
  8
AM_VIS
100
AcDbLine
 10
285.1218193803827
 20
49.99513573471566
 30
0.0
 11
285.9125947814523
 21
50.37414642990282
 31
0.0
  0
LINE
  5
A2E
330
2BD
100
AcDbEntity
  8
AM_VIS
100
AcDbLine
 10
285.1218193803827
 20
49.92026942455507
 30
0.0
 11
285.1218193803827
 21
49.99513573471566
 31
0.0
  0
SPLINE
  5
A2F
330
2BD
100
AcDbEntity
  8
AM_VIS
100
AcDbSpline
210
0.0
220
0.0
230
1.0
 70
     8
 71
     3
 72
     8
 73
     4
 74
     0
 42
0.0000000001
 43
0.0000000001
 40
0.0
 40
0.0
 40
0.0
 40
0.0
 40
80.0
 40
80.0
 40
80.0
 40
80.0
 10
285.4587177761048
 20
50.00449402348571
 30
0.0
 10
285.3776125591655
 20
50.00449402348571
 30
0.0
 10
285.265313093925
 20
49.97641915717557
 30
0.0
 10
285.1218193803827
 20
49.92026942455507
 30
0.0
  0
SPLINE
  5
A30
330
2BD
100
AcDbEntity
  8
AM_VIS
100
AcDbSpline
210
0.0
220
0.0
230
1.0
 70
     8
 71
     3
 72
     8
 73
     4
 74
     0
 42
0.0000000001
 43
0.0000000001
 40
0.0
 40
0.0
 40
0.0
 40
0.0
 40
80.0
 40
80.0
 40
80.0
 40
80.0
 10
285.6505626958908
 20
49.73778279353908
 30
0.0
 10
285.6505626958908
 20
49.91559028017016
 30
0.0
 10
285.5866143654962
 20
50.00449402348571
 30
0.0
 10
285.4587177761048
 20
50.00449402348571
 30
0.0
  0
LINE
  5
A31
330
2BD
100
AcDbEntity
  8
AM_VIS
100
AcDbLine
 10
285.6505626958908
 20
47.41692717856588
 30
0.0
 11
285.6505626958908
 21
49.73778279353908
 31
0.0
  0
SPLINE
  5
A32
330
2BD
100
AcDbEntity
  8
AM_VIS
100
AcDbSpline
210
0.0
220
0.0
230
1.0
 70
     8
 71
     3
 72
     8
 73
     4
 74
     0
 42
0.0000000001
 43
0.0000000001
 40
0.0
 40
0.0
 40
0.0
 40
0.0
 40
80.0
 40
80.0
 40
80.0
 40
80.0
 10
285.5101883643399
 20
47.04259562776363
 30
0.0
 10
285.6037712520406
 20
47.10810372055223
 30
0.0
 10
285.6505626958908
 20
47.23288078515614
 30
0.0
 10
285.6505626958908
 20
47.41692717856588
 30
0.0
  0
SPLINE
  5
A33
330
2BD
100
AcDbEntity
  8
AM_VIS
100
AcDbSpline
210
0.0
220
0.0
230
1.0
 70
     8
 71
     3
 72
     8
 73
     4
 74
     0
 42
0.0000000001
 43
0.0000000001
 40
0.0
 40
0.0
 40
0.0
 40
0.0
 40
80.0
 40
80.0
 40
80.0
 40
80.0
 10
285.1686108242331
 20
46.96772931760327
 30
0.0
 10
285.3339405687048
 20
46.97396822438193
 30
0.0
 10
285.447799724941
 20
46.99892363730285
 30
0.0
 10
285.5101883643399
 20
47.04259562776363
 30
0.0
  0
LINE
  5
A34
330
2BD
100
AcDbEntity
  8
AM_VIS
100
AcDbLine
 10
285.1686108242331
 20
46.87414642990282
 30
0.0
 11
285.1686108242331
 21
46.96772931760327
 31
0.0
  0
SPLINE
  5
A35
330
2BD
100
AcDbEntity
  8
AM_VIS
100
AcDbSpline
210
0.0
220
0.0
230
1.0
 70
     8
 71
     3
 72
     8
 73
     4
 74
     0
 42
0.0000000001
 43
0.0000000001
 40
0.0
 40
0.0
 40
0.0
 40
0.0
 40
80.0
 40
80.0
 40
80.0
 40
80.0
 10
283.7484905033775
 20
49.42428011974223
 30
0.0
 10
283.7484904319794
 20
49.74870077330482
 30
0.0
 10
283.6049967184372
 20
49.96550110601177
 30
0.0
 10
283.318009219955
 20
50.07468118926116
 30
0.0
  0
SPLINE
  5
A36
330
2BD
100
AcDbEntity
  8
AM_VIS
100
AcDbSpline
210
0.0
220
0.0
230
1.0
 70
     8
 71
     3
 72
     8
 73
     4
 74
     0
 42
0.0000000001
 43
0.0000000001
 40
0.0
 40
0.0
 40
0.0
 40
0.0
 40
80.0
 40
80.0
 40
80.0
 40
80.0
 10
283.2571803429496
 20
48.75048332829854
 30
0.0
 10
283.5847203785034
 20
48.86590217553046
 30
0.0
 10
283.7484904319794
 20
49.09050110601177
 30
0.0
 10
283.7484905033775
 20
49.42428011974223
 30
0.0
  0
SPLINE
  5
A37
330
2BD
100
AcDbEntity
  8
AM_VIS
100
AcDbSpline
210
0.0
220
0.0
230
1.0
 70
     8
 71
     3
 72
     8
 73
     4
 74
     0
 42
0.0000000001
 43
0.0000000001
 40
0.0
 40
0.0
 40
0.0
 40
0.0
 40
80.0
 40
80.0
 40
80.0
 40
80.0
 10
282.443009219955
 20
48.65222129621296
 30
0.0
 10
282.8142213173678
 20
48.65534067820433
 30
0.0
 10
283.0856116916994
 20
48.68809468889939
 30
0.0
 10
283.2571803429496
 20
48.75048332829854
 30
0.0
  0
LINE
  5
A38
330
2BD
100
AcDbEntity
  8
AM_VIS
100
AcDbLine
 10
282.443009219955
 20
49.93430685771025
 30
0.0
 11
282.443009219955
 21
48.65222129621296
 31
0.0
  0
SPLINE
  5
A39
330
2BD
100
AcDbEntity
  8
AM_VIS
100
AcDbSpline
210
0.0
220
0.0
230
1.0
 70
     8
 71
     3
 72
     8
 73
     4
 74
     0
 42
0.0000000001
 43
0.0000000001
 40
0.0
 40
0.0
 40
0.0
 40
0.0
 40
80.0
 40
80.0
 40
80.0
 40
80.0
 10
282.5178755301154
 20
50.12615177749629
 30
0.0
 10
282.4679646328757
 20
50.09495745779671
 30
0.0
 10
282.443009219955
 20
50.03100912740208
 30
0.0
 10
282.443009219955
 20
49.93430685771025
 30
0.0
  0
SPLINE
  5
A3A
330
2BD
100
AcDbEntity
  8
AM_VIS
100
AcDbSpline
210
0.0
220
0.0
230
1.0
 70
     8
 71
     3
 72
     8
 73
     4
 74
     0
 42
0.0000000001
 43
0.0000000001
 40
0.0
 40
0.0
 40
0.0
 40
0.0
 40
80.0
 40
80.0
 40
80.0
 40
80.0
 10
282.7518327493667
 20
50.15890578819156
 30
0.0
 10
282.6270555419667
 20
50.1526668814129
 30
0.0
 10
282.5490697784169
 20
50.14174890164716
 30
0.0
 10
282.5178755301154
 20
50.12615177749629
 30
0.0
  0
SPLINE
  5
A3B
330
2BD
100
AcDbEntity
  8
AM_VIS
100
AcDbSpline
210
0.0
220
0.0
230
1.0
 70
     8
 71
     3
 72
     8
 73
     4
 74
     0
 42
0.0000000001
 43
0.0000000001
 40
0.0
 40
0.0
 40
0.0
 40
0.0
 40
80.0
 40
80.0
 40
80.0
 40
80.0
 10
283.318009219955
 20
50.07468118926116
 30
0.0
 10
283.1557988574748
 20
50.14330859264262
 30
0.0
 10
282.967073391078
 20
50.17138345895299
 30
0.0
 10
282.7518327493667
 20
50.15890578819156
 30
0.0
  0
LINE
  5
A3C
330
2BD
100
AcDbEntity
  8
AM_VIS
100
AcDbLine
 10
284.5907364926823
 20
46.96772931760327
 30
0.0
 11
284.5907364926823
 21
46.87414642990282
 31
0.0
  0
SPLINE
  5
A3D
330
2BD
100
AcDbEntity
  8
AM_VIS
100
AcDbSpline
210
0.0
220
0.0
230
1.0
 70
     8
 71
     3
 72
     8
 73
     4
 74
     0
 42
0.0000000001
 43
0.0000000001
 40
0.0
 40
0.0
 40
0.0
 40
0.0
 40
80.0
 40
80.0
 40
80.0
 40
80.0
 10
284.1508969204897
 20
47.15489509300439
 30
0.0
 10
284.2132854884908
 20
47.05819282331257
 30
0.0
 10
284.3598986554223
 20
46.99580418391341
 30
0.0
 10
284.5907364926823
 20
46.96772931760327
 30
0.0
  0
LINE
  5
A3E
330
2BD
100
AcDbEntity
  8
AM_VIS
100
AcDbLine
 10
283.2057097547142
 20
48.55863840851251
 30
0.0
 11
284.1508969204897
 21
47.15489509300439
 31
0.0
  0
SPLINE
  5
A3F
330
2BD
100
AcDbEntity
  8
AM_VIS
100
AcDbSpline
210
0.0
220
0.0
230
1.0
 70
     8
 71
     3
 72
     8
 73
     4
 74
     0
 42
0.0000000001
 43
0.0000000001
 40
0.0
 40
0.0
 40
0.0
 40
0.0
 40
80.0
 40
80.0
 40
80.0
 40
80.0
 10
283.7438113589924
 20
48.75048332829854
 30
0.0
 10
283.6190341515924
 20
48.66625872936791
 30
0.0
 10
283.4396669739656
 20
48.60231039897328
 30
0.0
 10
283.2057097547142
 20
48.55863840851251
 30
0.0
  0
SPLINE
  5
A40
330
2BD
100
AcDbEntity
  8
AM_VIS
100
AcDbSpline
210
0.0
220
0.0
230
1.0
 70
     8
 71
     3
 72
     8
 73
     4
 74
     0
 42
0.0000000001
 43
0.0000000001
 40
0.0
 40
0.0
 40
0.0
 40
0.0
 40
80.0
 40
80.0
 40
80.0
 40
80.0
 10
284.0760306103293
 20
49.41492183097219
 30
0.0
 10
284.0760306103293
 20
49.11857597232191
 30
0.0
 10
283.9652908360843
 20
48.89709649523005
 30
0.0
 10
283.7438113589924
 20
48.75048332829854
 30
0.0
  0
SPLINE
  5
A41
330
2BD
100
AcDbEntity
  8
AM_VIS
100
AcDbSpline
210
0.0
220
0.0
230
1.0
 70
     8
 71
     3
 72
     8
 73
     4
 74
     0
 42
0.0000000001
 43
0.0000000001
 40
0.0
 40
0.0
 40
0.0
 40
0.0
 40
80.0
 40
80.0
 40
80.0
 40
80.0
 10
283.659586760062
 20
50.16826407696161
 30
0.0
 10
283.9372159697741
 20
50.01853145664066
 30
0.0
 10
284.0760306103293
 20
49.76741735084491
 30
0.0
 10
284.0760306103293
 20
49.41492183097219
 30
0.0
  0
SPLINE
  5
A42
330
2BD
100
AcDbEntity
  8
AM_VIS
100
AcDbSpline
210
0.0
220
0.0
230
1.0
 70
     8
 71
     3
 72
     8
 73
     4
 74
     0
 42
0.0000000001
 43
0.0000000001
 40
0.0
 40
0.0
 40
0.0
 40
0.0
 40
80.0
 40
80.0
 40
80.0
 40
80.0
 10
282.9436776691527
 20
50.31799669728233
 30
0.0
 10
283.2337846210246
 20
50.31799669728233
 30
0.0
 10
283.4724209846608
 20
50.26808580004288
 30
0.0
 10
283.659586760062
 20
50.16826407696161
 30
0.0
  0
LINE
  5
A43
330
2BD
100
AcDbEntity
  8
AM_VIS
100
AcDbLine
 10
281.6990252627356
 20
50.31799669728233
 30
0.0
 11
282.9436776691527
 21
50.31799669728233
 31
0.0
  0
LINE
  5
A44
330
2BD
100
AcDbEntity
  8
AM_VIS
100
AcDbLine
 10
281.6990252627356
 20
50.22441380958188
 30
0.0
 11
281.6990252627356
 21
50.31799669728233
 31
0.0
  0
SPLINE
  5
A45
330
2BD
100
AcDbEntity
  8
AM_VIS
100
AcDbSpline
210
0.0
220
0.0
230
1.0
 70
     8
 71
     3
 72
     8
 73
     4
 74
     0
 42
0.0000000001
 43
0.0000000001
 40
0.0
 40
0.0
 40
0.0
 40
0.0
 40
80.0
 40
80.0
 40
80.0
 40
80.0
 10
282.0452819472277
 20
50.10275605557129
 30
0.0
 10
281.9891322146075
 20
50.16514462357216
 30
0.0
 10
281.8737132959773
 20
50.20569723204179
 30
0.0
 10
281.6990252627356
 20
50.22441380958188
 30
0.0
  0
SPLINE
  5
A46
330
2BD
100
AcDbEntity
  8
AM_VIS
100
AcDbSpline
210
0.0
220
0.0
230
1.0
 70
     8
 71
     3
 72
     8
 73
     4
 74
     0
 42
0.0000000001
 43
0.0000000001
 40
0.0
 40
0.0
 40
0.0
 40
0.0
 40
80.0
 40
80.0
 40
80.0
 40
80.0
 10
282.1482231236982
 20
49.69567049407377
 30
0.0
 10
282.1482230523002
 20
49.89219455824493
 30
0.0
 10
282.1139093506094
 20
50.0278897454107
 30
0.0
 10
282.0452819472277
 20
50.10275605557129
 30
0.0
  0
LINE
  5
A47
330
2BD
100
AcDbEntity
  8
AM_VIS
100
AcDbLine
 10
282.1482231236982
 20
47.55262236573165
 30
0.0
 11
282.1482231236982
 21
49.69567049407377
 31
0.0
  0
SPLINE
  5
A48
330
2BD
100
AcDbEntity
  8
AM_VIS
100
AcDbSpline
210
0.0
220
0.0
230
1.0
 70
     8
 71
     3
 72
     8
 73
     4
 74
     0
 42
0.0000000001
 43
0.0000000001
 40
0.0
 40
0.0
 40
0.0
 40
0.0
 40
80.0
 40
80.0
 40
80.0
 40
80.0
 10
282.0593193803827
 20
47.11746193792421
 30
0.0
 10
282.1185884949944
 20
47.19544763007596
 30
0.0
 10
282.1482230523002
 20
47.34050110601176
 30
0.0
 10
282.1482231236982
 20
47.55262236573165
 30
0.0
  0
SPLINE
  5
A49
330
2BD
100
AcDbEntity
  8
AM_VIS
100
AcDbSpline
210
0.0
220
0.0
230
1.0
 70
     8
 71
     3
 72
     8
 73
     4
 74
     0
 42
0.0000000001
 43
0.0000000001
 40
0.0
 40
0.0
 40
0.0
 40
0.0
 40
80.0
 40
80.0
 40
80.0
 40
80.0
 10
281.6990252627356
 20
46.96772931760327
 30
0.0
 10
281.8799521313581
 20
46.98644589514336
 30
0.0
 10
282.000050194373
 20
47.03635679238303
 30
0.0
 10
282.0593193803827
 20
47.11746193792421
 30
0.0
  0
LINE
  5
A4A
330
2BD
100
AcDbEntity
  8
AM_VIS
100
AcDbLine
 10
281.6990252627356
 20
46.87414642990282
 30
0.0
 11
281.6990252627356
 21
46.96772931760327
 31
0.0
  0
LINE
  5
A4B
330
2BD
100
AcDbEntity
  8
AM_VIS
100
AcDbLine
 10
282.9156028028426
 20
46.96772931760327
 30
0.0
 11
282.9156028028426
 21
46.87414642990282
 31
0.0
  0
SPLINE
  5
A4C
330
2BD
100
AcDbEntity
  8
AM_VIS
100
AcDbSpline
210
0.0
220
0.0
230
1.0
 70
     8
 71
     3
 72
     8
 73
     4
 74
     0
 42
0.0000000001
 43
0.0000000001
 40
0.0
 40
0.0
 40
0.0
 40
0.0
 40
80.0
 40
80.0
 40
80.0
 40
80.0
 10
282.5459503964255
 20
47.09874536038412
 30
0.0
 10
282.6114583464177
 20
47.02699850361298
 30
0.0
 10
282.7346758628223
 20
46.98332651315221
 30
0.0
 10
282.9156028028426
 20
46.96772931760327
 30
0.0
  0
SPLINE
  5
A4D
330
2BD
100
AcDbEntity
  8
AM_VIS
100
AcDbSpline
210
0.0
220
0.0
230
1.0
 70
     8
 71
     3
 72
     8
 73
     4
 74
     0
 42
0.0000000001
 43
0.0000000001
 40
0.0
 40
0.0
 40
0.0
 40
0.0
 40
80.0
 40
80.0
 40
80.0
 40
80.0
 10
282.443009219955
 20
47.48711434434134
 30
0.0
 10
282.443009219955
 20
47.30306795093158
 30
0.0
 10
282.4773229216457
 20
47.17361167054448
 30
0.0
 10
282.5459503964255
 20
47.09874536038412
 30
0.0
  0
LINE
  5
A4E
330
2BD
100
AcDbEntity
  8
AM_VIS
100
AcDbLine
 10
282.443009219955
 20
48.48845124273705
 30
0.0
 11
282.443009219955
 21
47.48711434434134
 31
0.0
  0
LINE
  5
A4F
330
2BD
100
AcDbEntity
  8
AM_VIS
100
AcDbLine
 10
282.8360573482973
 20
48.50716782027714
 30
0.0
 11
282.443009219955
 21
48.48845124273705
 31
0.0
  0
LINE
  5
A50
330
2BD
100
AcDbEntity
  8
AM_VIS
100
AcDbLine
 10
283.9450145675485
 20
46.87414642990282
 30
0.0
 11
282.8360573482973
 21
48.50716782027714
 31
0.0
  0
LINE
  5
A51
330
2BD
100
AcDbEntity
  8
AM_VIS
100
AcDbLine
 10
323.5742257974241
 20
47.55457252843806
 30
0.0
 11
323.33188225548
 21
46.87414642990282
 31
0.0
  0
LINE
  5
A52
330
2BD
100
AcDbEntity
  8
AM_VIS
100
AcDbLine
 10
323.4810167428302
 20
47.55457252843806
 30
0.0
 11
323.5742257974241
 21
47.55457252843806
 31
0.0
  0
SPLINE
  5
A53
330
2BD
100
AcDbEntity
  8
AM_VIS
100
AcDbSpline
210
0.0
220
0.0
230
1.0
 70
     8
 71
     3
 72
     8
 73
     4
 74
     0
 42
0.0000000001
 43
0.0000000001
 40
0.0
 40
0.0
 40
0.0
 40
0.0
 40
80.0
 40
80.0
 40
80.0
 40
80.0
 10
323.2666359172644
 20
47.21901993190002
 30
0.0
 10
323.31945435783
 20
47.26562438808426
 30
0.0
 10
323.3909146093142
 20
47.37747532470964
 30
0.0
 10
323.4810167428302
 20
47.55457252843806
 30
0.0
  0
SPLINE
  5
A54
330
2BD
100
AcDbEntity
  8
AM_VIS
100
AcDbSpline
210
0.0
220
0.0
230
1.0
 70
     8
 71
     3
 72
     8
 73
     4
 74
     0
 42
0.0000000001
 43
0.0000000001
 40
0.0
 40
0.0
 40
0.0
 40
0.0
 40
80.0
 40
80.0
 40
80.0
 40
80.0
 10
323.02895282805
 20
47.13047133003581
 30
0.0
 10
323.1314827881033
 20
47.13047133003581
 30
0.0
 10
323.2107104845081
 20
47.15998750695305
 30
0.0
 10
323.2666359172644
 20
47.21901993190002
 30
0.0
  0
LINE
  5
A55
330
2BD
100
AcDbEntity
  8
AM_VIS
100
AcDbLine
 10
321.9850114165986
 20
47.13047133003581
 30
0.0
 11
323.02895282805
 21
47.13047133003581
 31
0.0
  0
LINE
  5
A56
330
2BD
100
AcDbEntity
  8
AM_VIS
100
AcDbLine
 10
322.8565160770513
 20
48.19305455240604
 30
0.0
 11
321.9850114165986
 21
47.13047133003581
 31
0.0
  0
SPLINE
  5
A57
330
2BD
100
AcDbEntity
  8
AM_VIS
100
AcDbSpline
210
0.0
220
0.0
230
1.0
 70
     8
 71
     3
 72
     8
 73
     4
 74
     0
 42
0.0000000001
 43
0.0000000001
 40
0.0
 40
0.0
 40
0.0
 40
0.0
 40
80.0
 40
80.0
 40
80.0
 40
80.0
 10
323.3458636136691
 20
49.45137678942344
 30
0.0
 10
323.3458636136691
 20
49.00708024845065
 30
0.0
 10
323.18274776813
 20
48.58763950277833
 30
0.0
 10
322.8565160770513
 20
48.19305455240604
 30
0.0
  0
SPLINE
  5
A58
330
2BD
100
AcDbEntity
  8
AM_VIS
100
AcDbSpline
210
0.0
220
0.0
230
1.0
 70
     8
 71
     3
 72
     8
 73
     4
 74
     0
 42
0.0000000001
 43
0.0000000001
 40
0.0
 40
0.0
 40
0.0
 40
0.0
 40
80.0
 40
80.0
 40
80.0
 40
80.0
 10
323.0941991662657
 20
50.13180288795869
 30
0.0
 10
323.2619754645348
 20
49.95159869203965
 30
0.0
 10
323.3458636136691
 20
49.72478996882344
 30
0.0
 10
323.3458636136691
 20
49.45137678942344
 30
0.0
  0
SPLINE
  5
A59
330
2BD
100
AcDbEntity
  8
AM_VIS
100
AcDbSpline
210
0.0
220
0.0
230
1.0
 70
     8
 71
     3
 72
     8
 73
     4
 74
     0
 42
0.0000000001
 43
0.0000000001
 40
0.0
 40
0.0
 40
0.0
 40
0.0
 40
80.0
 40
80.0
 40
80.0
 40
80.0
 10
322.5302843859727
 20
50.37414642990282
 30
0.0
 10
322.7508791248074
 20
50.37414642990282
 30
0.0
 10
322.938850694534
 20
50.29336520184623
 30
0.0
 10
323.0941991662657
 20
50.13180288795869
 30
0.0
  0
SPLINE
  5
A5A
330
2BD
100
AcDbEntity
  8
AM_VIS
100
AcDbSpline
210
0.0
220
0.0
230
1.0
 70
     8
 71
     3
 72
     8
 73
     4
 74
     0
 42
0.0000000001
 43
0.0000000001
 40
0.0
 40
0.0
 40
0.0
 40
0.0
 40
80.0
 40
80.0
 40
80.0
 40
80.0
 10
321.9710300584095
 20
50.15976560433685
 30
0.0
 10
322.1294854512191
 20
50.30268610730562
 30
0.0
 10
322.3159035604069
 20
50.37414642990282
 30
0.0
 10
322.5302843859727
 20
50.37414642990282
 30
0.0
  0
SPLINE
  5
A5B
330
2BD
100
AcDbEntity
  8
AM_VIS
100
AcDbSpline
210
0.0
220
0.0
230
1.0
 70
     8
 71
     3
 72
     8
 73
     4
 74
     0
 42
0.0000000001
 43
0.0000000001
 40
0.0
 40
0.0
 40
0.0
 40
0.0
 40
80.0
 40
80.0
 40
80.0
 40
80.0
 10
321.5935333873042
 20
49.37214909301864
 30
0.0
 10
321.6556727333293
 20
49.72634350047545
 30
0.0
 10
321.7815049570311
 20
49.98888231387721
 30
0.0
 10
321.9710300584095
 20
50.15976560433685
 30
0.0
  0
LINE
  5
A5C
330
2BD
100
AcDbEntity
  8
AM_VIS
100
AcDbLine
 10
321.6867424418981
 20
49.35816773482954
 30
0.0
 11
321.5935333873042
 21
49.37214909301864
 31
0.0
  0
SPLINE
  5
A5D
330
2BD
100
AcDbEntity
  8
AM_VIS
100
AcDbSpline
210
0.0
220
0.0
230
1.0
 70
     8
 71
     3
 72
     8
 73
     4
 74
     0
 42
0.0000000001
 43
0.0000000001
 40
0.0
 40
0.0
 40
0.0
 40
0.0
 40
80.0
 40
80.0
 40
80.0
 40
80.0
 10
321.8918023620047
 20
49.85217572417699
 30
0.0
 10
321.8545187401671
 20
49.79003630703918
 30
0.0
 10
321.7861654097608
 20
49.62536700096101
 30
0.0
 10
321.6867424418981
 20
49.35816773482954
 30
0.0
  0
SPLINE
  5
A5E
330
2BD
100
AcDbEntity
  8
AM_VIS
100
AcDbSpline
210
0.0
220
0.0
230
1.0
 70
     8
 71
     3
 72
     8
 73
     4
 74
     0
 42
0.0000000001
 43
0.0000000001
 40
0.0
 40
0.0
 40
0.0
 40
0.0
 40
80.0
 40
80.0
 40
80.0
 40
80.0
 10
322.329884918596
 20
50.12714243522899
 30
0.0
 10
322.1496807226767
 20
50.12714243522899
 30
0.0
 10
322.0036532275174
 20
50.03548684117416
 30
0.0
 10
321.8918023620047
 20
49.85217572417699
 30
0.0
  0
SPLINE
  5
A5F
330
2BD
100
AcDbEntity
  8
AM_VIS
100
AcDbSpline
210
0.0
220
0.0
230
1.0
 70
     8
 71
     3
 72
     8
 73
     4
 74
     0
 42
0.0000000001
 43
0.0000000001
 40
0.0
 40
0.0
 40
0.0
 40
0.0
 40
80.0
 40
80.0
 40
80.0
 40
80.0
 10
322.9171019625373
 20
49.81489210233942
 30
0.0
 10
322.7803953017244
 20
50.02305894352392
 30
0.0
 10
322.5846562870772
 20
50.12714243522899
 30
0.0
 10
322.329884918596
 20
50.12714243522899
 30
0.0
  0
SPLINE
  5
A60
330
2BD
100
AcDbEntity
  8
AM_VIS
100
AcDbSpline
210
0.0
220
0.0
230
1.0
 70
     8
 71
     3
 72
     8
 73
     4
 74
     0
 42
0.0000000001
 43
0.0000000001
 40
0.0
 40
0.0
 40
0.0
 40
0.0
 40
80.0
 40
80.0
 40
80.0
 40
80.0
 10
323.0708969026173
 20
49.26961913296534
 30
0.0
 10
323.0833247291546
 20
49.46535814761253
 30
0.0
 10
323.0320597491279
 20
49.64711580407064
 30
0.0
 10
322.9171019625373
 20
49.81489210233942
 30
0.0
  0
SPLINE
  5
A61
330
2BD
100
AcDbEntity
  8
AM_VIS
100
AcDbSpline
210
0.0
220
0.0
230
1.0
 70
     8
 71
     3
 72
     8
 73
     4
 74
     0
 42
0.0000000001
 43
0.0000000001
 40
0.0
 40
0.0
 40
0.0
 40
0.0
 40
80.0
 40
80.0
 40
80.0
 40
80.0
 10
322.3904708040818
 20
47.8854646722464
 30
0.0
 10
322.8192324552138
 20
48.41054229904992
 30
0.0
 10
323.046041107317
 20
48.8719271192895
 30
0.0
 10
323.0708969026173
 20
49.26961913296534
 30
0.0
  0
LINE
  5
A62
330
2BD
100
AcDbEntity
  8
AM_VIS
100
AcDbLine
 10
321.5795520291151
 20
46.8974486935513
 30
0.0
 11
322.3904708040818
 21
47.8854646722464
 31
0.0
  0
LINE
  5
A63
330
2BD
100
AcDbEntity
  8
AM_VIS
100
AcDbLine
 10
321.5795520291151
 20
46.87414642990282
 30
0.0
 11
321.5795520291151
 21
46.8974486935513
 31
0.0
  0
SPLINE
  5
A64
330
2BD
100
AcDbEntity
  8
AM_VIS
100
AcDbSpline
210
0.0
220
0.0
230
1.0
 70
     8
 71
     3
 72
     8
 73
     4
 74
     0
 42
0.0000000001
 43
0.0000000001
 40
0.0
 40
0.0
 40
0.0
 40
0.0
 40
80.0
 40
80.0
 40
80.0
 40
80.0
 10
320.5659035604069
 20
49.41409316758589
 30
0.0
 10
320.565903489294
 20
49.73721786647368
 30
0.0
 10
320.4229829863252
 20
49.9531521525785
 30
0.0
 10
320.137141909275
 20
50.06189609701326
 30
0.0
  0
SPLINE
  5
A65
330
2BD
100
AcDbEntity
  8
AM_VIS
100
AcDbSpline
210
0.0
220
0.0
230
1.0
 70
     8
 71
     3
 72
     8
 73
     4
 74
     0
 42
0.0000000001
 43
0.0000000001
 40
0.0
 40
0.0
 40
0.0
 40
0.0
 40
80.0
 40
80.0
 40
80.0
 40
80.0
 10
320.0765560237889
 20
48.74298797451004
 30
0.0
 10
320.4027876437546
 20
48.85794576110041
 30
0.0
 10
320.565903489294
 20
49.08164749212577
 30
0.0
 10
320.5659035604069
 20
49.41409316758589
 30
0.0
  0
SPLINE
  5
A66
330
2BD
100
AcDbEntity
  8
AM_VIS
100
AcDbSpline
210
0.0
220
0.0
230
1.0
 70
     8
 71
     3
 72
     8
 73
     4
 74
     0
 42
0.0000000001
 43
0.0000000001
 40
0.0
 40
0.0
 40
0.0
 40
0.0
 40
80.0
 40
80.0
 40
80.0
 40
80.0
 10
319.2656372488223
 20
48.64511846718645
 30
0.0
 10
319.635366475007
 20
48.64822538826437
 30
0.0
 10
319.9056727333293
 20
48.68084855737222
 30
0.0
 10
320.0765560237889
 20
48.74298797451004
 30
0.0
  0
LINE
  5
A67
330
2BD
100
AcDbEntity
  8
AM_VIS
100
AcDbLine
 10
319.2656372488223
 20
49.92208251512241
 30
0.0
 11
319.2656372488223
 21
48.64511846718645
 31
0.0
  0
SPLINE
  5
A68
330
2BD
100
AcDbEntity
  8
AM_VIS
100
AcDbSpline
210
0.0
220
0.0
230
1.0
 70
     8
 71
     3
 72
     8
 73
     4
 74
     0
 42
0.0000000001
 43
0.0000000001
 40
0.0
 40
0.0
 40
0.0
 40
0.0
 40
80.0
 40
80.0
 40
80.0
 40
80.0
 10
319.3402044924974
 20
50.1131610770399
 30
0.0
 10
319.2904929730098
 20
50.08209136847089
 30
0.0
 10
319.2656372488223
 20
50.01839849079423
 30
0.0
 10
319.2656372488223
 20
49.92208251512241
 30
0.0
  0
SPLINE
  5
A69
330
2BD
100
AcDbEntity
  8
AM_VIS
100
AcDbSpline
210
0.0
220
0.0
230
1.0
 70
     8
 71
     3
 72
     8
 73
     4
 74
     0
 42
0.0000000001
 43
0.0000000001
 40
0.0
 40
0.0
 40
0.0
 40
0.0
 40
80.0
 40
80.0
 40
80.0
 40
80.0
 10
319.5732271289821
 20
50.14578424614777
 30
0.0
 10
319.4489483658192
 20
50.1395702617663
 30
0.0
 10
319.3712741299535
 20
50.12869589576784
 30
0.0
 10
319.3402044924974
 20
50.1131610770399
 30
0.0
  0
SPLINE
  5
A6A
330
2BD
100
AcDbEntity
  8
AM_VIS
100
AcDbSpline
210
0.0
220
0.0
230
1.0
 70
     8
 71
     3
 72
     8
 73
     4
 74
     0
 42
0.0000000001
 43
0.0000000001
 40
0.0
 40
0.0
 40
0.0
 40
0.0
 40
80.0
 40
80.0
 40
80.0
 40
80.0
 10
320.137141909275
 20
50.06189609701326
 30
0.0
 10
319.9755795242747
 20
50.1302493563069
 30
0.0
 10
319.7876079545479
 20
50.15821207268507
 30
0.0
 10
319.5732271289821
 20
50.14578424614777
 30
0.0
  0
LINE
  5
A6B
330
2BD
100
AcDbEntity
  8
AM_VIS
100
AcDbLine
 10
321.4047850517518
 20
46.96735548449672
 30
0.0
 11
321.4047850517518
 21
46.87414642990282
 31
0.0
  0
SPLINE
  5
A6C
330
2BD
100
AcDbEntity
  8
AM_VIS
100
AcDbSpline
210
0.0
220
0.0
230
1.0
 70
     8
 71
     3
 72
     8
 73
     4
 74
     0
 42
0.0000000001
 43
0.0000000001
 40
0.0
 40
0.0
 40
0.0
 40
0.0
 40
80.0
 40
80.0
 40
80.0
 40
80.0
 10
320.9667024951605
 20
47.15377359368429
 30
0.0
 10
321.0288418411856
 20
47.0574576180127
 30
0.0
 10
321.174869336345
 20
46.99531820087488
 30
0.0
 10
321.4047850517518
 20
46.96735548449672
 30
0.0
  0
LINE
  5
A6D
330
2BD
100
AcDbEntity
  8
AM_VIS
100
AcDbLine
 10
320.0252910437623
 20
48.55190941259255
 30
0.0
 11
320.9667024951605
 21
47.15377359368429
 31
0.0
  0
SPLINE
  5
A6E
330
2BD
100
AcDbEntity
  8
AM_VIS
100
AcDbSpline
210
0.0
220
0.0
230
1.0
 70
     8
 71
     3
 72
     8
 73
     4
 74
     0
 42
0.0000000001
 43
0.0000000001
 40
0.0
 40
0.0
 40
0.0
 40
0.0
 40
80.0
 40
80.0
 40
80.0
 40
80.0
 10
320.5612431076772
 20
48.74298797451004
 30
0.0
 10
320.4369643445143
 20
48.65909982537553
 30
0.0
 10
320.258313680247
 20
48.59540694769865
 30
0.0
 10
320.0252910437623
 20
48.55190941259255
 30
0.0
  0
SPLINE
  5
A6F
330
2BD
100
AcDbEntity
  8
AM_VIS
100
AcDbSpline
210
0.0
220
0.0
230
1.0
 70
     8
 71
     3
 72
     8
 73
     4
 74
     0
 42
0.0000000001
 43
0.0000000001
 40
0.0
 40
0.0
 40
0.0
 40
0.0
 40
80.0
 40
80.0
 40
80.0
 40
80.0
 10
320.8921352514853
 20
49.40477226212649
 30
0.0
 10
320.8921352514853
 20
49.10961020850393
 30
0.0
 10
320.7818378465117
 20
48.88901546966943
 30
0.0
 10
320.5612431076772
 20
48.74298797451004
 30
0.0
  0
SPLINE
  5
A70
330
2BD
100
AcDbEntity
  8
AM_VIS
100
AcDbSpline
210
0.0
220
0.0
230
1.0
 70
     8
 71
     3
 72
     8
 73
     4
 74
     0
 42
0.0000000001
 43
0.0000000001
 40
0.0
 40
0.0
 40
0.0
 40
0.0
 40
80.0
 40
80.0
 40
80.0
 40
80.0
 10
320.4773549585427
 20
50.15510515160716
 30
0.0
 10
320.7538751301336
 20
50.00597066425692
 30
0.0
 10
320.8921352514853
 20
49.75585967739246
 30
0.0
 10
320.8921352514853
 20
49.40477226212649
 30
0.0
  0
SPLINE
  5
A71
330
2BD
100
AcDbEntity
  8
AM_VIS
100
AcDbSpline
210
0.0
220
0.0
230
1.0
 70
     8
 71
     3
 72
     8
 73
     4
 74
     0
 42
0.0000000001
 43
0.0000000001
 40
0.0
 40
0.0
 40
0.0
 40
0.0
 40
80.0
 40
80.0
 40
80.0
 40
80.0
 10
319.7643056908996
 20
50.30423963895739
 30
0.0
 10
320.0532537601405
 20
50.30423963895739
 30
0.0
 10
320.2909368493549
 20
50.25452811946959
 30
0.0
 10
320.4773549585427
 20
50.15510515160716
 30
0.0
  0
LINE
  5
A72
330
2BD
100
AcDbEntity
  8
AM_VIS
100
AcDbLine
 10
318.524625264801
 20
50.30423963895739
 30
0.0
 11
319.7643056908996
 21
50.30423963895739
 31
0.0
  0
LINE
  5
A73
330
2BD
100
AcDbEntity
  8
AM_VIS
100
AcDbLine
 10
318.524625264801
 20
50.2110305843635
 30
0.0
 11
318.524625264801
 21
50.30423963895739
 31
0.0
  0
SPLINE
  5
A74
330
2BD
100
AcDbEntity
  8
AM_VIS
100
AcDbSpline
210
0.0
220
0.0
230
1.0
 70
     8
 71
     3
 72
     8
 73
     4
 74
     0
 42
0.0000000001
 43
0.0000000001
 40
0.0
 40
0.0
 40
0.0
 40
0.0
 40
80.0
 40
80.0
 40
80.0
 40
80.0
 10
318.8694987667984
 20
50.08985881339143
 30
0.0
 10
318.8135733340421
 20
50.15199815941631
 30
0.0
 10
318.6986154763385
 20
50.19238877344472
 30
0.0
 10
318.524625264801
 20
50.2110305843635
 30
0.0
  0
SPLINE
  5
A75
330
2BD
100
AcDbEntity
  8
AM_VIS
100
AcDbSpline
210
0.0
220
0.0
230
1.0
 70
     8
 71
     3
 72
     8
 73
     4
 74
     0
 42
0.0000000001
 43
0.0000000001
 40
0.0
 40
0.0
 40
0.0
 40
0.0
 40
80.0
 40
80.0
 40
80.0
 40
80.0
 10
318.9720287268515
 20
49.68439942590819
 30
0.0
 10
318.9720286557388
 20
49.88013844055515
 30
0.0
 10
318.9378520260918
 20
50.01529156971631
 30
0.0
 10
318.8694987667984
 20
50.08985881339143
 30
0.0
  0
LINE
  5
A76
330
2BD
100
AcDbEntity
  8
AM_VIS
100
AcDbLine
 10
318.9720287268515
 20
47.54991207570836
 30
0.0
 11
318.9720287268515
 21
49.68439942590819
 31
0.0
  0
SPLINE
  5
A77
330
2BD
100
AcDbEntity
  8
AM_VIS
100
AcDbSpline
210
0.0
220
0.0
230
1.0
 70
     8
 71
     3
 72
     8
 73
     4
 74
     0
 42
0.0000000001
 43
0.0000000001
 40
0.0
 40
0.0
 40
0.0
 40
0.0
 40
80.0
 40
80.0
 40
80.0
 40
80.0
 10
318.8834801249873
 20
47.11648997184673
 30
0.0
 10
318.9425124788215
 20
47.19416413659977
 30
0.0
 10
318.9720286557388
 20
47.3386381712203
 30
0.0
 10
318.9720287268515
 20
47.54991207570836
 30
0.0
  0
SPLINE
  5
A78
330
2BD
100
AcDbEntity
  8
AM_VIS
100
AcDbSpline
210
0.0
220
0.0
230
1.0
 70
     8
 71
     3
 72
     8
 73
     4
 74
     0
 42
0.0000000001
 43
0.0000000001
 40
0.0
 40
0.0
 40
0.0
 40
0.0
 40
80.0
 40
80.0
 40
80.0
 40
80.0
 10
318.524625264801
 20
46.96735548449672
 30
0.0
 10
318.7048293896073
 20
46.9859972954155
 30
0.0
 10
318.8244477000403
 20
47.03570881490307
 30
0.0
 10
318.8834801249873
 20
47.11648997184673
 30
0.0
  0
LINE
  5
A79
330
2BD
100
AcDbEntity
  8
AM_VIS
100
AcDbLine
 10
318.524625264801
 20
46.87414642990282
 30
0.0
 11
318.524625264801
 21
46.96735548449672
 31
0.0
  0
LINE
  5
A7A
330
2BD
100
AcDbEntity
  8
AM_VIS
100
AcDbLine
 10
319.7363429745215
 20
46.96735548449672
 30
0.0
 11
319.7363429745215
 21
46.87414642990282
 31
0.0
  0
SPLINE
  5
A7B
330
2BD
100
AcDbEntity
  8
AM_VIS
100
AcDbSpline
210
0.0
220
0.0
230
1.0
 70
     8
 71
     3
 72
     8
 73
     4
 74
     0
 42
0.0000000001
 43
0.0000000001
 40
0.0
 40
0.0
 40
0.0
 40
0.0
 40
80.0
 40
80.0
 40
80.0
 40
80.0
 10
319.3681672088755
 20
47.09784816092795
 30
0.0
 10
319.4334134759783
 20
47.02638790944368
 30
0.0
 10
319.5561387786022
 20
46.98289037433759
 30
0.0
 10
319.7363429745215
 20
46.96735548449672
 30
0.0
  0
SPLINE
  5
A7C
330
2BD
100
AcDbEntity
  8
AM_VIS
100
AcDbSpline
210
0.0
220
0.0
230
1.0
 70
     8
 71
     3
 72
     8
 73
     4
 74
     0
 42
0.0000000001
 43
0.0000000001
 40
0.0
 40
0.0
 40
0.0
 40
0.0
 40
80.0
 40
80.0
 40
80.0
 40
80.0
 10
319.2656372488223
 20
47.48466573749263
 30
0.0
 10
319.2656372488223
 20
47.30135454938275
 30
0.0
 10
319.299813878469
 20
47.17241540460307
 30
0.0
 10
319.3681672088755
 20
47.09784816092795
 30
0.0
  0
LINE
  5
A7D
330
2BD
100
AcDbEntity
  8
AM_VIS
100
AcDbLine
 10
319.2656372488223
 20
48.48200262164713
 30
0.0
 11
319.2656372488223
 21
47.48466573749263
 31
0.0
  0
LINE
  5
A7E
330
2BD
100
AcDbEntity
  8
AM_VIS
100
AcDbLine
 10
319.6571152781166
 20
48.50064443256591
 30
0.0
 11
319.2656372488223
 21
48.48200262164713
 31
0.0
  0
LINE
  5
A7F
330
2BD
100
AcDbEntity
  8
AM_VIS
100
AcDbLine
 10
320.7616425750539
 20
46.87414642990282
 30
0.0
 11
319.6571152781166
 21
48.50064443256591
 31
0.0
  0
LINE
  5
B24
330
2BD
100
AcDbEntity
  8
LOGO
 62
     4
100
AcDbLine
 10
418.2862213727045
 20
11.61086966615579
 30
0.0
 11
171.443081247053
 21
11.61086966615579
 31
0.0
  0
LWPOLYLINE
  5
B25
330
2BD
100
AcDbEntity
  8
LOGO
 62
     4
100
AcDbPolyline
 90
        4
 70
     1
 43
0.0
 10
171.443081247053
 20
11.6108696661558
 10
418.2862213727045
 20
11.6108696661558
 10
418.2862213727045
 20
305.2221946848675
 10
171.443081247053
 20
305.2221946848675
1001
GENIUS_GENREC_14
1002
{
1000
PYDIR
1011
171.443081247053
1021
305.2221946848675
1031
0.0
1002
}
1002
{
1000
PXDIR
1011
418.2862213727045
1021
11.6108696661558
1031
0.0
1002
}
1002
{
1000
PORI
1011
171.443081247053
1021
11.6108696661558
1031
0.0
1002
}
1002
{
1000
PINS
1011
171.443081247053
1021
11.6108696661558
1031
0.0
1002
}
1002
{
1000
PINS2
1011
418.2862213727045
1021
305.2221946848675
1031
0.0
1002
}
1002
{
1000
C
1070
     1
1002
}
1001
GENIUS_GENODEF_13
1002
{
1000
HIER
1070
     0
1002
}
1002
{
1000
MANEDIT
1070
     0
1002
}
1002
{
1000
NOSEL
1070
     0
1002
}
1002
{
1000
BEHIND
1070
     0
1002
}
1002
{
1000
OTHER
1070
     0
1002
}
1002
{
1000
REACTOR
1002
}
1001
GENIUS_GENOBJ-N-REC_13
1002
{
1000
OWNER
1000
GEN
1002
}
  0
LWPOLYLINE
  5
B26
330
2BD
100
AcDbEntity
  8
LOGO
 62
     4
100
AcDbPolyline
 90
        4
 70
     1
 43
0.0
 10
171.443081247053
 20
11.6108696661558
 10
418.2862213727045
 20
11.6108696661558
 10
418.2862213727045
 20
-17.1345674958352
 10
171.443081247053
 20
-17.1345674958352
1001
GENIUS_GENREC_14
1002
{
1000
PYDIR
1011
171.443081247053
1021
-17.1345674958352
1031
0.0
1002
}
1002
{
1000
PXDIR
1011
418.2862213727045
1021
11.6108696661558
1031
0.0
1002
}
1002
{
1000
PORI
1011
171.443081247053
1021
11.6108696661558
1031
0.0
1002
}
1002
{
1000
PINS
1011
171.443081247053
1021
11.6108696661558
1031
0.0
1002
}
1002
{
1000
PINS2
1011
418.2862213727045
1021
-17.1345674958352
1031
0.0
1002
}
1002
{
1000
C
1070
     1
1002
}
1001
GENIUS_GENOBJ-N-REC_13
1002
{
1000
OWNER
1000
GEN
1002
}
1001
GENIUS_GENODEF_13
1002
{
1000
HIER
1070
     0
1002
}
1002
{
1000
MANEDIT
1070
     0
1002
}
1002
{
1000
NOSEL
1070
     0
1002
}
1002
{
1000
BEHIND
1070
     0
1002
}
1002
{
1000
OTHER
1070
     0
1002
}
1002
{
1000
REACTOR
1002
}
  0
TEXT
  5
B27
330
2BD
100
AcDbEntity
  8
LOGO
 62
     7
100
AcDbText
 10
236.3483749962068
 20
-0.9820172091014569
 30
0.0
 40
3.832724954932127
  1
Order example:
 41
0.8
  7
CHINESET
100
AcDbText
  0
TEXT
  5
B28
330
2BD
100
AcDbEntity
  8
LOGO
 62
     7
100
AcDbText
 10
237.0359975484677
 20
4.413665951614973
 30
0.0
 40
5.749087432398189
  1
訂購代號：
  7
CHINESET
100
AcDbText
  0
LINE
  5
B29
330
2BD
100
AcDbEntity
  8
LOGO
 62
     4
100
AcDbLine
 10
234.6830430034332
 20
-17.1345674958352
 30
0.0
 11
234.6830430034332
 21
11.61086966615579
 31
0.0
  0
TEXT
  5
B2A
330
2BD
100
AcDbEntity
  8
LOGO
  6
Continuous
100
AcDbText
 10
181.7685714888801
 20
-11.4875697460091
 30
0.0
 40
4.311815574298643
  1
金器工業股份有限公司
  7
CHINESET
100
AcDbText
  0
TEXT
  5
B2B
330
2BD
100
AcDbEntity
  8
LOGO
  6
Continuous
100
AcDbText
 10
173.848619329537
 20
-15.80023009810108
 30
0.0
 40
2.874543716199094
  1
MINDMAN INDUSTRIAL CO., LTD.
 41
0.85
  7
CHINESET
100
AcDbText
  0
LINE
  5
B2C
330
2BD
100
AcDbEntity
  8
LOGO
 62
     4
100
AcDbLine
 10
234.6830430034332
 20
5.861782233757992
 30
0.0
 11
192.5230684991796
 21
5.861782233757992
 31
0.0
  0
LINE
  5
B2D
330
2BD
100
AcDbEntity
  8
LOGO
 62
     4
100
AcDbLine
 10
234.6830430034332
 20
0.1126948013594529
 30
0.0
 11
192.5230684991796
 21
0.1126948013594529
 31
0.0
  0
LINE
  5
B2E
330
2BD
100
AcDbEntity
  8
LOGO
 62
     4
100
AcDbLine
 10
234.6830430034332
 20
-5.636392631038091
 30
0.0
 11
171.443081247053
 21
-5.636392631038091
 31
0.0
  0
LINE
  5
B2F
330
2BD
100
AcDbEntity
  8
LOGO
 62
     4
100
AcDbLine
 10
192.5230684991796
 20
-5.636392631038091
 30
0.0
 11
192.5230684991796
 21
11.61086966615579
 31
0.0
  0
TEXT
  5
B30
330
2BD
100
AcDbEntity
  8
LOGO
100
AcDbText
 10
221.3374211523506
 20
-4.199120772939506
 30
0.0
 40
2.874543716199094
  1
mm
  7
CHINESET
 72
     1
 11
224.8963800390733
 21
-2.761848914839958
 31
0.0
100
AcDbText
 73
     2
  0
TEXT
  5
B31
330
2BD
100
AcDbEntity
  8
LOGO
100
AcDbText
 10
219.8317077771987
 20
7.299054091856861
 30
0.0
 40
2.874543716199094
  1
1 : 1
  7
CHINESET
 72
     1
 11
224.8963800390733
 21
8.736325949956409
 31
0.0
100
AcDbText
 73
     2
  0
LINE
  5
B32
330
2BD
100
AcDbEntity
  8
LOGO
 62
     4
100
AcDbLine
 10
215.5194182287723
 20
-5.636392631038091
 30
0.0
 11
215.5194182287723
 21
11.61086966615579
 31
0.0
  0
TEXT
  5
B33
330
2BD
100
AcDbEntity
  8
LOGO
100
AcDbText
 10
194.8932837865991
 20
7.300468729512472
 30
188.3928596255564
 40
2.874543716199094
  1
比例 Scale:
 41
0.9
  7
CHINESET
 72
     4
 11
204.021243363976
 21
8.736325949956409
 31
188.3928596255564
100
AcDbText
  0
TEXT
  5
B34
330
2BD
100
AcDbEntity
  8
LOGO
100
AcDbText
 10
194.7277408672287
 20
1.590401719115242
 30
188.3928596255564
 40
2.874543716199094
  1
投影  View:
 41
0.9
  7
CHINESET
 72
     4
 11
204.021243363976
 21
2.987238517558608
 31
188.3928596255564
100
AcDbText
  0
TEXT
  5
B35
330
2BD
100
AcDbEntity
  8
LOGO
100
AcDbText
 10
195.0087788466249
 20
-4.199120772939506
 30
188.3928596255564
 40
2.874543716199094
  1
單位  Unit:
 41
0.9
  7
CHINESET
 72
     4
 11
204.021243363976
 21
-2.761848914839958
 31
188.3928596255564
100
AcDbText
  0
SOLID
  5
B36
330
2BD
100
AcDbEntity
  8
LOGO
 62
     5
100
AcDbTrace
 10
174.4254664855271
 20
-0.8578728619360731
 30
0.0
 11
175.6683437603844
 21
-0.8578728619368405
 31
0.0
 12
180.854142045134
 22
10.92803233067687
 32
0.0
 13
182.097019319992
 23
10.92803233067636
 33
0.0
  0
SOLID
  5
B37
330
2BD
100
AcDbEntity
  8
LOGO
 62
     5
100
AcDbTrace
 10
176.1826378051544
 20
-0.8578728619360731
 30
0.0
 11
177.4255150800116
 21
-0.8578728619360731
 31
0.0
 12
182.097019319992
 22
9.985159915267303
 32
0.0
 13
180.854142045134
 23
5.427943240790455
 33
0.0
  0
SOLID
  5
B38
330
2BD
100
AcDbEntity
  8
LOGO
 62
     2
100
AcDbTrace
 10
175.6683437603844
 20
-0.8578728619368405
 30
0.0
 11
176.1826378051544
 21
-0.8578728619360731
 31
0.0
 12
182.097019319992
 22
10.92803233067636
 32
0.0
 13
182.6113133647612
 23
10.92803233067636
 33
0.0
  0
SOLID
  5
B39
330
2BD
100
AcDbEntity
  8
LOGO
 62
     5
100
AcDbTrace
 10
172.4328294230881
 20
-5.14365656834029
 30
0.0
 11
172.861407793729
 21
-5.14365656834029
 31
0.0
 12
174.0683178433271
 22
-3.000764715138927
 32
0.0
 13
174.4968962139668
 23
-3.000764715138927
 33
0.0
  0
SOLID
  5
B3A
330
2BD
100
AcDbEntity
  8
LOGO
 62
     5
100
AcDbTrace
 10
174.0683178433271
 20
-3.000764715138927
 30
0.0
 11
174.4968962139668
 21
-3.000764715138927
 31
0.0
 12
174.0683178433271
 22
-5.14365656834029
 32
0.0
 13
174.4968962139668
 23
-5.14365656834029
 33
0.0
  0
SOLID
  5
B3B
330
2BD
100
AcDbEntity
  8
LOGO
 62
     5
100
AcDbTrace
 10
174.0683178433271
 20
-5.14365656834029
 30
0.0
 11
174.4968962139668
 21
-5.14365656834029
 31
0.0
 12
175.7038062635666
 22
-3.000764715138927
 32
0.0
 13
176.1323846342069
 23
-3.000764715138927
 33
0.0
  0
SOLID
  5
B3C
330
2BD
100
AcDbEntity
  8
LOGO
 62
     5
100
AcDbTrace
 10
175.7038062635666
 20
-3.000764715138927
 30
0.0
 11
176.1323846342069
 21
-3.000764715138927
 31
0.0
 12
175.7038062635666
 22
-5.14365656834029
 32
0.0
 13
176.1323846342069
 23
-5.14365656834029
 33
0.0
  0
POLYLINE
  5
B3D
330
2BD
100
AcDbEntity
  8
LOGO
 62
     5
100
AcDb2dPolyline
 66
     1
 10
0.0
 20
0.0
 30
0.0
 40
0.4292651949523983
 41
0.4292651949523983
  0
VERTEX
  5
B3E
330
B3D
100
AcDbEntity
  8
LOGO
 62
     5
100
AcDbVertex
100
AcDb2dVertex
 10
190.0696072503732
 20
-3.857921456419077
 30
0.0
 42
1.0
  0
VERTEX
  5
B3F
330
B3D
100
AcDbEntity
  8
LOGO
 62
     5
100
AcDbVertex
100
AcDb2dVertex
 10
188.7818116655158
 20
-3.857921456419077
 30
0.0
 42
1.0
  0
SEQEND
  5
B40
330
B3D
100
AcDbEntity
  8
LOGO
 62
     5
  0
POLYLINE
  5
B41
330
2BD
100
AcDbEntity
  8
LOGO
 62
     5
100
AcDb2dPolyline
 66
     1
 10
0.0
 20
0.0
 30
0.0
 70
     1
  0
VERTEX
  5
B42
330
B41
100
AcDbEntity
  8
LOGO
 62
     5
100
AcDbVertex
100
AcDb2dVertex
 10
186.3542597069116
 20
-4.072210641740113
 30
0.0
 42
1.000000057330635
  0
VERTEX
  5
B43
330
B41
100
AcDbEntity
  8
LOGO
 62
     5
100
AcDbVertex
100
AcDb2dVertex
 10
187.6399948188331
 20
-4.072210641740113
 30
0.0
 42
1.000000057330635
  0
SEQEND
  5
B44
330
B41
100
AcDbEntity
  8
LOGO
 62
     5
  0
CIRCLE
  5
B45
330
2BD
100
AcDbEntity
  8
LOGO
 62
     5
100
AcDbCircle
 10
186.9971272628733
 20
-4.072210641740113
 30
0.0
 40
0.6428675559607117
  0
POLYLINE
  5
B46
330
2BD
100
AcDbEntity
  8
LOGO
 62
     5
100
AcDb2dPolyline
 66
     1
 10
0.0
 20
0.0
 30
0.0
 70
     1
 40
0.4292651949523983
 41
0.4292651949523983
  0
VERTEX
  5
B47
330
B46
100
AcDbEntity
  8
LOGO
 62
     5
100
AcDbVertex
100
AcDb2dVertex
 10
186.1385968729678
 20
-4.072210641740113
 30
0.0
 42
1.0
  0
VERTEX
  5
B48
330
B46
100
AcDbEntity
  8
LOGO
 62
     5
100
AcDbVertex
100
AcDb2dVertex
 10
187.8556576527774
 20
-4.072210641740113
 30
0.0
 42
1.0
  0
SEQEND
  5
B49
330
B46
100
AcDbEntity
  8
LOGO
 62
     5
  0
LINE
  5
B4A
330
2BD
100
AcDbEntity
  8
LOGO
100
AcDbLine
 10
190.2828661992248
 20
-5.14365656834029
 30
0.0
 11
190.2828661992248
 21
-3.857921456419077
 31
0.0
  0
SOLID
  5
B4B
330
2BD
100
AcDbEntity
  8
LOGO
 62
     5
100
AcDbTrace
 10
187.6399519609978
 20
-3.000764715138927
 30
0.0
 11
188.0685303316375
 21
-3.000764715138927
 31
0.0
 12
187.6399519609978
 22
-5.14365656834029
 32
0.0
 13
188.0685303316375
 23
-5.14365656834029
 33
0.0
  0
SOLID
  5
B4C
330
2BD
100
AcDbEntity
  8
LOGO
 62
     5
100
AcDbTrace
 10
188.568552716663
 20
-5.14365656834029
 30
0.0
 11
188.9971310873039
 21
-5.14365656834029
 31
0.0
 12
188.568552716663
 22
-3.000764715138927
 32
0.0
 13
188.9971310873039
 23
-3.000764715138927
 33
0.0
  0
SOLID
  5
B4D
330
2BD
100
AcDbEntity
  8
LOGO
 62
     5
100
AcDbTrace
 10
189.854287828585
 20
-3.857921456419077
 30
0.0
 11
190.2828661992248
 21
-3.857921456419077
 31
0.0
 12
189.854287828585
 22
-5.14365656834029
 32
0.0
 13
190.2828661992248
 23
-5.14365656834029
 33
0.0
  0
SOLID
  5
B4E
330
2BD
100
AcDbEntity
  8
LOGO
 62
     5
100
AcDbTrace
 10
188.5256948795988
 20
9.985159915267303
 30
0.0
 11
187.2828176047422
 21
5.427943240790455
 31
0.0
 12
188.5256948795988
 22
-0.8578728619368405
 32
0.0
 13
187.2828176047422
 23
-0.8578728619368405
 33
0.0
  0
SOLID
  5
B4F
330
2BD
100
AcDbEntity
  8
LOGO
 62
     5
100
AcDbTrace
 10
189.039988924368
 20
-0.8578728619368405
 30
0.0
 11
190.2828661992248
 21
-0.8578728619368405
 31
0.0
 12
189.039988924368
 22
10.92803233067636
 32
0.0
 13
190.2828661992248
 23
10.92803233067687
 33
0.0
  0
SOLID
  5
B50
330
2BD
100
AcDbEntity
  8
LOGO
 62
     2
100
AcDbTrace
 10
188.5256948795988
 20
10.92803233067687
 30
0.0
 11
189.039988924368
 21
10.92803233067636
 31
0.0
 12
188.5256948795988
 22
-0.8578728619368405
 32
0.0
 13
189.039988924368
 23
-0.8578728619368405
 33
0.0
  0
POLYLINE
  5
B51
330
2BD
100
AcDbEntity
  8
LOGO
 62
     5
100
AcDb2dPolyline
 66
     1
 10
0.0
 20
0.0
 30
0.0
 40
0.4292651949523983
 41
0.4292651949523983
  0
VERTEX
  5
B52
330
B51
100
AcDbEntity
  8
LOGO
 62
     5
100
AcDbVertex
100
AcDb2dVertex
 10
183.9266220326352
 20
-3.857921456419077
 30
0.0
 42
1.0
  0
VERTEX
  5
B53
330
B51
100
AcDbEntity
  8
LOGO
 62
     5
100
AcDbVertex
100
AcDb2dVertex
 10
182.6388264477776
 20
-3.857921456419077
 30
0.0
 42
1.0
  0
SEQEND
  5
B54
330
B51
100
AcDbEntity
  8
LOGO
 62
     5
  0
POLYLINE
  5
B55
330
2BD
100
AcDbEntity
  8
LOGO
 62
     5
100
AcDb2dPolyline
 66
     1
 10
0.0
 20
0.0
 30
0.0
 40
0.4292651949523983
 41
0.4292651949523983
  0
VERTEX
  5
B56
330
B55
100
AcDbEntity
  8
LOGO
 62
     5
100
AcDbVertex
100
AcDb2dVertex
 10
185.2123571445553
 20
-3.857921456419077
 30
0.0
 42
1.0
  0
VERTEX
  5
B57
330
B55
100
AcDbEntity
  8
LOGO
 62
     5
100
AcDbVertex
100
AcDb2dVertex
 10
183.9245615596987
 20
-3.857921456419077
 30
0.0
 42
1.0
  0
SEQEND
  5
B58
330
B55
100
AcDbEntity
  8
LOGO
 62
     5
  0
POLYLINE
  5
B59
330
2BD
100
AcDbEntity
  8
LOGO
 62
     5
100
AcDb2dPolyline
 66
     1
 10
0.0
 20
0.0
 30
0.0
 40
0.4292651949523983
 41
0.4292651949523983
  0
VERTEX
  5
B5A
330
B59
100
AcDbEntity
  8
LOGO
 62
     5
100
AcDbVertex
100
AcDb2dVertex
 10
179.0693719268172
 20
-3.857921456419077
 30
0.0
 42
1.0
  0
VERTEX
  5
B5B
330
B59
100
AcDbEntity
  8
LOGO
 62
     5
100
AcDbVertex
100
AcDb2dVertex
 10
177.7815763419605
 20
-3.857921456419077
 30
0.0
 42
1.0
  0
SEQEND
  5
B5C
330
B59
100
AcDbEntity
  8
LOGO
 62
     5
  0
SOLID
  5
B5D
330
2BD
100
AcDbEntity
  8
LOGO
 62
     5
100
AcDbTrace
 10
177.5683173931083
 20
-3.000764715138927
 30
0.0
 11
177.9968957637479
 21
-3.000764715138927
 31
0.0
 12
177.5683173931083
 22
-5.14365656834029
 32
0.0
 13
177.9968957637479
 23
-5.14365656834029
 33
0.0
  0
SOLID
  5
B5E
330
2BD
100
AcDbEntity
  8
LOGO
 62
     5
100
AcDbTrace
 10
178.8540525050299
 20
-3.857921456419077
 30
0.0
 11
179.2826308756708
 21
-3.857921456419077
 31
0.0
 12
178.8540525050299
 22
-5.14365656834029
 32
0.0
 13
179.2826308756708
 23
-5.14365656834029
 33
0.0
  0
POLYLINE
  5
B5F
330
2BD
100
AcDbEntity
  8
LOGO
 62
     5
100
AcDb2dPolyline
 66
     1
 10
0.0
 20
0.0
 30
0.0
 70
     1
 40
0.4292651949523983
 41
0.4292651949523983
  0
VERTEX
  5
B60
330
B5F
100
AcDbEntity
  8
LOGO
 62
     5
100
AcDbVertex
100
AcDb2dVertex
 10
179.9956116552293
 20
-4.072210641740113
 30
0.0
 42
1.0
  0
VERTEX
  5
B61
330
B5F
100
AcDbEntity
  8
LOGO
 62
     5
100
AcDbVertex
100
AcDb2dVertex
 10
181.7126724350393
 20
-4.072210641740113
 30
0.0
 42
1.0
  0
SEQEND
  5
B62
330
B5F
100
AcDbEntity
  8
LOGO
 62
     5
  0
SOLID
  5
B63
330
2BD
100
AcDbEntity
  8
LOGO
 62
     5
100
AcDbTrace
 10
181.4969667432584
 20
-2.357897159177582
 30
0.0
 11
181.9255451138987
 21
-2.357897159177582
 31
0.0
 12
181.4969667432584
 22
-5.14365656834029
 32
0.0
 13
181.9255451138987
 23
-5.14365656834029
 33
0.0
  0
SOLID
  5
B64
330
2BD
100
AcDbEntity
  8
LOGO
 62
     5
100
AcDbTrace
 10
182.4255674989261
 20
-3.000764715138927
 30
0.0
 11
182.8541458695657
 21
-3.000764715138927
 31
0.0
 12
182.4255674989261
 22
-5.14365656834029
 32
0.0
 13
182.8541458695657
 23
-5.14365656834029
 33
0.0
  0
SOLID
  5
B65
330
2BD
100
AcDbEntity
  8
LOGO
 62
     5
100
AcDbTrace
 10
183.7113026108464
 20
-3.857921456419077
 30
0.0
 11
184.1398809814872
 21
-3.857921456419077
 31
0.0
 12
183.7113026108464
 22
-5.14365656834029
 32
0.0
 13
184.1398809814872
 23
-5.14365656834029
 33
0.0
  0
SOLID
  5
B66
330
2BD
100
AcDbEntity
  8
LOGO
 62
     5
100
AcDbTrace
 10
184.9970377227679
 20
-3.857921456419077
 30
0.0
 11
185.4256160934081
 21
-3.857921456419077
 31
0.0
 12
184.9970377227679
 22
-5.143656568341299
 32
0.0
 13
185.4256160934081
 23
-5.143656568341299
 33
0.0
  0
SOLID
  5
B67
330
2BD
100
AcDbEntity
  8
LOGO
 62
     5
100
AcDbTrace
 10
176.6397166374411
 20
-2.700759855689994
 30
0.0
 11
177.0682950080829
 21
-2.700759855689994
 31
0.0
 12
176.6397166374411
 22
-2.357897159177582
 32
0.0
 13
177.0682950080829
 23
-2.357897159177582
 33
0.0
  0
SOLID
  5
B68
330
2BD
100
AcDbEntity
  8
LOGO
 62
     5
100
AcDbTrace
 10
176.6397166374411
 20
-3.000764715138927
 30
0.0
 11
177.0682950080829
 21
-3.000764715138927
 31
0.0
 12
176.6397166374411
 22
-5.143656568341299
 32
0.0
 13
177.0682950080829
 23
-5.14365656834029
 33
0.0
  0
SOLID
  5
B69
330
2BD
100
AcDbEntity
  8
LOGO
 62
     5
100
AcDbTrace
 10
180.854142045134
 20
-0.8578728619360731
 30
0.0
 11
182.097019319992
 21
-0.8578728619360731
 31
0.0
 12
180.854142045134
 22
5.427943240790455
 32
0.0
 13
182.097019319992
 23
9.985159915267303
 33
0.0
  0
SOLID
  5
B6A
330
2BD
100
AcDbEntity
  8
LOGO
 62
     5
100
AcDbTrace
 10
182.6113133647612
 20
10.92803233067636
 30
0.0
 11
183.8541906396178
 21
10.92803233067687
 31
0.0
 12
182.6113133647612
 22
0.0849995534729828
 32
0.0
 13
183.8541906396178
 23
4.642216227950086
 33
0.0
  0
SOLID
  5
B6B
330
2BD
100
AcDbEntity
  8
LOGO
 62
     2
100
AcDbTrace
 10
182.097019319992
 20
10.92803233067636
 30
0.0
 11
182.6113133647612
 21
10.92803233067636
 31
0.0
 12
182.097019319992
 22
-0.8578728619360731
 32
0.0
 13
182.6113133647612
 23
-0.8578728619360731
 33
0.0
  0
SOLID
  5
B6C
330
2BD
100
AcDbEntity
  8
LOGO
 62
     5
100
AcDbTrace
 10
182.6113133647612
 20
0.0849995534729828
 30
0.0
 11
183.8541906396178
 21
4.642216227950086
 31
0.0
 12
188.5256948795988
 22
10.92803233067687
 32
0.0
 13
187.2828176047422
 23
10.92803233067687
 33
0.0
  0
SOLID
  5
B6D
330
2BD
100
AcDbEntity
  8
LOGO
 62
     5
100
AcDbTrace
 10
182.6113133647612
 20
-0.8578728619360731
 30
0.0
 11
183.8541906396178
 21
-0.8578728619360731
 31
0.0
 12
188.5256948795988
 22
9.985159915267303
 32
0.0
 13
187.2828176047422
 23
5.427943240790455
 33
0.0
  0
SOLID
  5
B6E
330
2BD
100
AcDbEntity
  8
LOGO
 62
     2
100
AcDbTrace
 10
182.097019319992
 20
-0.8578728619360731
 30
0.0
 11
182.6113133647612
 21
-0.8578728619360731
 31
0.0
 12
188.5256948795988
 22
10.92803233067687
 32
0.0
 13
189.039988924368
 23
10.92803233067636
 33
0.0
  0
LINE
  5
B6F
330
2BD
100
AcDbEntity
  8
LOGO
 62
     4
100
AcDbLine
 10
287.8530442929888
 20
-4.199120772938528
 30
0.0
 11
287.8530442929888
 21
-14.73911439900283
 31
0.0
  0
LINE
  5
B70
330
2BD
100
AcDbEntity
  8
LOGO
 62
     4
100
AcDbLine
 10
274.221116032485
 20
-4.199120772938528
 30
0.0
 11
274.221116032485
 21
-14.73911439900283
 31
0.0
  0
LINE
  5
B71
330
2BD
100
AcDbEntity
  8
LOGO
 62
     4
100
AcDbLine
 10
287.8530442929888
 20
-14.73911439900283
 30
0.0
 11
274.221116032485
 21
-14.73911439900283
 31
0.0
  0
LINE
  5
B72
330
2BD
100
AcDbEntity
  8
LOGO
 62
     4
100
AcDbLine
 10
297.0275973722175
 20
8.736325949956409
 30
0.0
 11
274.221116032485
 21
8.736325949956409
 31
0.0
  0
LINE
  5
B73
330
2BD
100
AcDbEntity
  8
LOGO
 62
     4
100
AcDbLine
 10
297.0275973722175
 20
0.1126948013594529
 30
0.0
 11
274.221116032485
 21
0.1126948013594529
 31
0.0
  0
LINE
  5
B74
330
2BD
100
AcDbEntity
  8
LOGO
 62
     4
100
AcDbLine
 10
274.221116032485
 20
8.736325949956409
 30
0.0
 11
274.221116032485
 21
0.1126948013594529
 31
0.0
  0
LINE
  5
B75
330
2BD
100
AcDbEntity
  8
LOGO
 62
     4
100
AcDbLine
 10
297.0275973722175
 20
8.736325949956409
 30
0.0
 11
297.0275973722175
 21
0.1126948013594529
 31
0.0
  0
LINE
  5
B76
330
2BD
100
AcDbEntity
  8
LOGO
 62
     4
100
AcDbLine
 10
284.8027883022427
 20
0.1126948013594529
 30
0.0
 11
284.8027883022427
 21
-4.199120772938528
 31
0.0
  0
TEXT
  5
B77
330
2BD
100
AcDbEntity
  8
LOGO
  6
Continuous
 62
     7
100
AcDbText
 10
275.7534002294168
 20
1.912865195882176
 30
0.0
 40
5.031180000000001
  1
MVAA
  7
CHINESET
100
AcDbText
  0
LINE
  5
B78
330
2BD
100
AcDbEntity
  8
LOGO
 62
     4
100
AcDbLine
 10
287.8530442929888
 20
-4.199120772938528
 30
0.0
 11
274.221116032485
 21
-4.199120772938528
 31
0.0
  0
TEXT
  5
B79
330
2BD
100
AcDbEntity
  8
LOGO
  6
Continuous
100
AcDbText
 10
276.6989001742459
 20
-13.25141664925965
 30
188.3928596255564
 40
2.15622
  1
Model
 41
0.8
  7
CHINESET
100
AcDbText
  0
TEXT
  5
B7A
330
2BD
100
AcDbEntity
  8
LOGO
100
AcDbText
 10
276.1249845046468
 20
-9.254249467835464
 30
188.3928596255564
 40
3.593700000000001
  1
型號
  7
CHINESET
100
AcDbText
  0
LINE
  5
B7B
330
2BD
100
AcDbEntity
  8
LOGO
  6
Continuous
 62
     7
100
AcDbLine
 10
297.9443606366437
 20
4.393964111273874
 30
0.0
 11
301.7522414895454
 21
4.393964111273874
 31
0.0
  0
LINE
  5
B7C
330
2BD
100
AcDbEntity
  8
LOGO
 62
     4
100
AcDbLine
 10
307.5593107589692
 20
-4.199120772938528
 30
0.0
 11
307.5593107589692
 21
-14.73911439900283
 31
0.0
  0
LINE
  5
B7D
330
2BD
100
AcDbEntity
  8
LOGO
 62
     4
100
AcDbLine
 10
290.0987485408565
 20
-4.199120772938528
 30
0.0
 11
290.0987485408565
 21
-14.73911439900283
 31
0.0
  0
LINE
  5
B7E
330
2BD
100
AcDbEntity
  8
LOGO
 62
     4
100
AcDbLine
 10
307.5593107589692
 20
-14.73911439900283
 30
0.0
 11
290.0987485408565
 21
-14.73911439900283
 31
0.0
  0
LINE
  5
B7F
330
2BD
100
AcDbEntity
  8
LOGO
 62
     4
100
AcDbLine
 10
318.2532328437405
 20
8.736325949956409
 30
0.0
 11
302.9534271732572
 21
8.736325949956409
 31
0.0
  0
LINE
  5
B80
330
2BD
100
AcDbEntity
  8
LOGO
 62
     4
100
AcDbLine
 10
318.2532328437405
 20
0.1126948013594529
 30
0.0
 11
302.9534271732572
 21
0.1126948013594529
 31
0.0
  0
LINE
  5
B81
330
2BD
100
AcDbEntity
  8
LOGO
 62
     4
100
AcDbLine
 10
302.9534271732572
 20
8.736325949956409
 30
0.0
 11
302.9534271732572
 21
0.1126948013594529
 31
0.0
  0
LINE
  5
B82
330
2BD
100
AcDbEntity
  8
LOGO
 62
     4
100
AcDbLine
 10
318.2532328437405
 20
8.736325949956409
 30
0.0
 11
318.2532328437405
 21
0.1126948013594529
 31
0.0
  0
LINE
  5
B83
330
2BD
100
AcDbEntity
  8
LOGO
 62
     4
100
AcDbLine
 10
308.125444429281
 20
0.1126948013594529
 30
0.0
 11
308.125444429281
 21
-2.043212985789409
 31
0.0
  0
TEXT
  5
B84
330
2BD
100
AcDbEntity
  8
LOGO
  6
Continuous
 62
     7
100
AcDbText
 10
304.355257236982
 20
1.912865195882176
 30
0.0
 40
5.031180000000001
  1
460
  7
CHINESET
100
AcDbText
  0
LINE
  5
B85
330
2BD
100
AcDbEntity
  8
LOGO
 62
     4
100
AcDbLine
 10
307.5593107589692
 20
-4.199120772938528
 30
0.0
 11
290.0987485408565
 21
-4.199120772938528
 31
0.0
  0
LINE
  5
B86
330
2BD
100
AcDbEntity
  8
LOGO
  6
Continuous
 62
     7
100
AcDbLine
 10
319.1286136601489
 20
4.393964111273874
 30
0.0
 11
322.9364945130507
 21
4.393964111273874
 31
0.0
  0
LINE
  5
B87
330
2BD
100
AcDbEntity
  8
LOGO
 62
     4
100
AcDbLine
 10
324.2928126185499
 20
-4.199120772938528
 30
0.0
 11
324.2928126185499
 21
-14.73911439900283
 31
0.0
  0
LINE
  5
B88
330
2BD
100
AcDbEntity
  8
LOGO
 62
     4
100
AcDbLine
 10
309.8975827973047
 20
-4.199120772938528
 30
0.0
 11
309.8975827973047
 21
-14.73911439900283
 31
0.0
  0
LINE
  5
B89
330
2BD
100
AcDbEntity
  8
LOGO
 62
     4
100
AcDbLine
 10
324.2928126185499
 20
-14.73911439900283
 30
0.0
 11
309.8975827973047
 21
-14.73911439900283
 31
0.0
  0
LINE
  5
B8A
330
2BD
100
AcDbEntity
  8
LOGO
 62
     4
100
AcDbLine
 10
330.2594510351719
 20
8.736325949956409
 30
0.0
 11
324.1376801967624
 21
8.736325949956409
 31
0.0
  0
LINE
  5
B8B
330
2BD
100
AcDbEntity
  8
LOGO
 62
     4
100
AcDbLine
 10
330.2594510351719
 20
0.1126948013594529
 30
0.0
 11
324.1376801967624
 21
0.1126948013594529
 31
0.0
  0
LINE
  5
B8C
330
2BD
100
AcDbEntity
  8
LOGO
 62
     4
100
AcDbLine
 10
324.1376801967624
 20
8.736325949956409
 30
0.0
 11
324.1376801967624
 21
0.1126948013594529
 31
0.0
  0
LINE
  5
B8D
330
2BD
100
AcDbEntity
  8
LOGO
 62
     4
100
AcDbLine
 10
330.2594510351719
 20
8.736325949956409
 30
0.0
 11
330.2594510351719
 21
0.1126948013594529
 31
0.0
  0
LINE
  5
B8E
330
2BD
100
AcDbEntity
  8
LOGO
 62
     4
100
AcDbLine
 10
327.198565615967
 20
0.1126948013594529
 30
0.0
 11
327.198565615967
 21
-2.043212985789409
 31
0.0
  0
TEXT
  5
B8F
330
2BD
100
AcDbEntity
  8
LOGO
  6
Continuous
 62
     7
100
AcDbText
 10
325.2854624430664
 20
1.912865195882176
 30
0.0
 40
5.031180000000001
  1
4
  7
CHINESET
100
AcDbText
  0
LINE
  5
B90
330
2BD
100
AcDbEntity
  8
LOGO
 62
     4
100
AcDbLine
 10
324.2928126185499
 20
-4.199120772938528
 30
0.0
 11
309.8975827973047
 21
-4.199120772938528
 31
0.0
  0
LINE
  5
B91
330
2BD
100
AcDbEntity
  8
LOGO
 62
     4
100
AcDbLine
 10
353.7573649724969
 20
-4.199120772938528
 30
0.0
 11
353.7573649724969
 21
-14.73911439900283
 31
0.0
  0
LINE
  5
B92
330
2BD
100
AcDbEntity
  8
LOGO
 62
     4
100
AcDbLine
 10
327.212220850869
 20
-4.199120772938528
 30
0.0
 11
327.212220850869
 21
-14.73911439900283
 31
0.0
  0
LINE
  5
B93
330
2BD
100
AcDbEntity
  8
LOGO
 62
     4
100
AcDbLine
 10
353.7573649724969
 20
-14.73911439900283
 30
0.0
 11
327.212220850869
 21
-14.73911439900283
 31
0.0
  0
LINE
  5
B94
330
2BD
100
AcDbEntity
  8
LOGO
 62
     4
100
AcDbLine
 10
343.3250395854592
 20
8.736325949956409
 30
0.0
 11
331.9475111627874
 21
8.736325949956409
 31
0.0
  0
LINE
  5
B95
330
2BD
100
AcDbEntity
  8
LOGO
 62
     4
100
AcDbLine
 10
343.3250395854592
 20
0.1126948013594529
 30
0.0
 11
331.9475111627874
 21
0.1126948013594529
 31
0.0
  0
LINE
  5
B96
330
2BD
100
AcDbEntity
  8
LOGO
 62
     4
100
AcDbLine
 10
331.9475111627874
 20
8.736325949956409
 30
0.0
 11
331.9475111627874
 21
0.1126948013594529
 31
0.0
  0
LINE
  5
B97
330
2BD
100
AcDbEntity
  8
LOGO
 62
     4
100
AcDbLine
 10
343.3250395854592
 20
8.736325949956409
 30
0.0
 11
343.3250395854592
 21
0.1126948013594529
 31
0.0
  0
LINE
  5
B98
330
2BD
100
AcDbEntity
  8
LOGO
 62
     4
100
AcDbLine
 10
337.6362753741233
 20
0.1126948013594529
 30
0.0
 11
337.6362753741233
 21
-4.199120772938528
 31
0.0
  0
TEXT
  5
B99
330
2BD
100
AcDbEntity
  8
LOGO
  6
Continuous
 62
     7
100
AcDbText
 10
333.9829582223989
 20
1.912865195882176
 30
0.0
 40
5.031180000000001
  1
A2
  7
CHINESET
100
AcDbText
  0
LINE
  5
B9A
330
2BD
100
AcDbEntity
  8
LOGO
 62
     4
100
AcDbLine
 10
353.7573649724969
 20
-4.199120772938528
 30
0.0
 11
327.212220850869
 21
-4.199120772938528
 31
0.0
  0
TEXT
  5
B9B
330
2BD
100
AcDbEntity
  8
LOGO
  6
Continuous
100
AcDbText
 10
291.4687364804902
 20
-13.25141664925965
 30
188.3928596255564
 40
2.15622
  1
Body width
 41
0.8
  7
CHINESET
100
AcDbText
  0
TEXT
  5
B9C
330
2BD
100
AcDbEntity
  8
LOGO
100
AcDbText
 10
291.4484241412872
 20
-9.254249467835464
 30
188.3928596255564
 40
3.593700000000001
  1
本體寬度
  7
CHINESET
100
AcDbText
  0
TEXT
  5
B9D
330
2BD
100
AcDbEntity
  8
LOGO
  6
Continuous
100
AcDbText
 10
312.7828755154232
 20
-13.25141664925965
 30
188.3928596255564
 40
2.15622
  1
4 Way
 41
0.8
  7
CHINESET
100
AcDbText
  0
TEXT
  5
B9E
330
2BD
100
AcDbEntity
  8
LOGO
100
AcDbText
 10
311.8084836104645
 20
-9.254249467835464
 30
188.3928596255564
 40
3.593700000000001
  1
4方向
  7
CHINESET
100
AcDbText
  0
TEXT
  5
B9F
330
2BD
100
AcDbEntity
  8
LOGO
  6
Continuous
100
AcDbText
 10
328.7756258999646
 20
-13.25141664925965
 30
188.3928596255564
 40
2.15622
  1
Single air operate
 41
0.8
  7
CHINESET
100
AcDbText
  0
TEXT
  5
BA0
330
2BD
100
AcDbEntity
  8
LOGO
100
AcDbText
 10
328.8606663920804
 20
-9.254249467835464
 30
188.3928596255564
 40
3.593700000000001
  1
單動氣壓引導
  7
CHINESET
100
AcDbText
  0
TEXT
  5
BA1
330
2BD
100
AcDbEntity
  8
LOGO
100
AcDbText
 10
236.2065833851256
 20
-15.6053215844594
 30
0.0
 40
2.87496
  1
20811193
 41
0.7
  7
CHINESET
 72
     1
 11
243.0106553851256
 21
-15.6053215844594
 31
0.0
100
AcDbText
  0
LINE
  5
BA2
330
2BD
100
AcDbEntity
  8
LOGO
 62
     4
100
AcDbLine
 10
251.9328030034319
 20
-11.3854800634364
 30
0.0
 11
251.9328030034332
 21
-17.1345674958347
 31
0.0
  0
LINE
  5
BA3
330
2BD
100
AcDbEntity
  8
LOGO
 62
     4
100
AcDbLine
 10
251.9328030034319
 20
-11.3854800634364
 30
0.0
 11
234.6830430034332
 21
-11.3854800634364
 31
0.0
  0
CIRCLE
  5
BA4
330
2BD
100
AcDbEntity
  8
LOGO
  6
Continuous
100
AcDbCircle
 10
220.8419954615592
 20
2.993387187603104
 30
0.0
 40
1.669027740757301
  0
CIRCLE
  5
BA5
330
2BD
100
AcDbEntity
  8
LOGO
  6
Continuous
100
AcDbCircle
 10
220.8419954615592
 20
2.993387187603104
 30
0.0
 40
0.9779025054174226
  0
LINE
  5
BA6
330
2BD
100
AcDbEntity
  8
LOGO
100
AcDbLine
 10
231.3303594502675
 20
1.324359446845164
 30
0.0
 11
231.3303594502675
 21
4.66241492836076
 31
0.0
  0
LINE
  5
BA7
330
2BD
100
AcDbEntity
  8
LOGO
100
AcDbLine
 10
226.0980532897572
 20
2.015484682185871
 30
0.0
 11
226.0980532897572
 21
3.971289693020821
 31
0.0
  0
LINE
  5
BA8
330
2BD
100
AcDbEntity
  8
LOGO
  6
Continuous
100
AcDbLine
 10
226.0980532897572
 20
3.971289693020821
 30
0.0
 11
231.3303594502675
 21
4.66241492836076
 31
0.0
  0
LINE
  5
BA9
330
2BD
100
AcDbEntity
  8
LOGO
  6
Continuous
100
AcDbLine
 10
226.0980532897572
 20
2.015484682185871
 30
0.0
 11
231.3303594502675
 21
1.324359446845164
 31
0.0
  0
LINE
  5
BAA
330
2BD
100
AcDbEntity
  8
LOGO
  6
AM_ISO08W050x2
 48
0.3
100
AcDbLine
 10
218.541215729203
 20
2.993387187603104
 30
0.0
 11
223.1427751939156
 21
2.993387187603104
 31
0.0
1001
GENIUS_GENOREF_13
1005
BB3
  0
LINE
  5
BAB
330
2BD
100
AcDbEntity
  8
LOGO
  6
AM_ISO08W050x2
 48
0.3
100
AcDbLine
 10
220.8419954615592
 20
0.6926074552464457
 30
0.0
 11
220.8419954615592
 21
5.294166919959224
 31
0.0
1001
GENIUS_GENOREF_13
1005
BB2
  0
LINE
  5
BAC
330
2BD
100
AcDbEntity
  8
LOGO
  6
CENTER
 48
0.5
100
AcDbLine
 10
225.6796142281856
 20
2.993387187603104
 30
0.0
 11
231.8572357427824
 21
2.993387187603104
 31
0.0
1001
GENIUS_GENOREF_13
1005
BB1
  0
LINE
  5
BAD
330
2BD
100
AcDbEntity
  8
LOGO
 62
     4
100
AcDbLine
 10
308.125444429281
 20
-2.043212985789409
 30
0.0
 11
298.8290296499125
 21
-2.043212985789409
 31
0.0
  0
LINE
  5
BAE
330
2BD
100
AcDbEntity
  8
LOGO
 62
     4
100
AcDbLine
 10
298.8290296499125
 20
-4.199120772938528
 30
0.0
 11
298.8290296499125
 21
-2.043212985789409
 31
0.0
  0
LINE
  5
BAF
330
2BD
100
AcDbEntity
  8
LOGO
 62
     4
100
AcDbLine
 10
327.198565615967
 20
-2.043212985789409
 30
0.0
 11
317.0951977079276
 21
-2.043212985789409
 31
0.0
  0
LINE
  5
BB0
330
2BD
100
AcDbEntity
  8
LOGO
 62
     4
100
AcDbLine
 10
317.0951977079276
 20
-4.199120772938528
 30
0.0
 11
317.0951977079276
 21
-2.043212985789409
 31
0.0
  0
POINT
  5
BB1
330
2BD
100
AcDbEntity
  8
0
 60
     1
100
AcDbPoint
 10
-1386.039331236877
 20
-1048.046963109624
 30
0.0
1001
GENIUS_GENOBJ-N-CRS_13
1002
{
1000
OWNER
1000
GEN
1002
}
1001
GENIUS_GENOLIS_13
1002
{
1000
ENT
1005
0
1005
0
1005
0
1005
BAC
1002
}
1001
GENIUS_GENOENT_13
1002
{
1000
MYREF
1005
BB1
1002
}
1002
{
1000
GRP
1005
0
1002
}
1001
GENIUS_GENODEF_13
1002
{
1000
HIER
1070
    10
1002
}
1002
{
1000
MANEDIT
1070
     1
1002
}
1002
{
1000
NOSEL
1070
     0
1002
}
1002
{
1000
BEHIND
1070
     0
1002
}
1002
{
1000
OTHER
1070
     0
1002
}
1002
{
1000
REACTOR
1002
}
  0
POINT
  5
BB2
330
2BD
100
AcDbEntity
  8
0
 60
     1
100
AcDbPoint
 10
-1397.363916459732
 20
-1039.171376630988
 30
0.0
1001
GENIUS_GENOBJ-N-CRS_13
1002
{
1000
OWNER
1000
GEN
1002
}
1001
GENIUS_GENOLIS_13
1002
{
1000
ENT
1005
0
1005
0
1005
0
1005
BAB
1002
}
1001
GENIUS_GENOENT_13
1002
{
1000
MYREF
1005
BB2
1002
}
1002
{
1000
GRP
1005
0
1002
}
1001
GENIUS_GENODEF_13
1002
{
1000
HIER
1070
    10
1002
}
1002
{
1000
MANEDIT
1070
     1
1002
}
1002
{
1000
NOSEL
1070
     0
1002
}
1002
{
1000
BEHIND
1070
     0
1002
}
1002
{
1000
OTHER
1070
     0
1002
}
1002
{
1000
REACTOR
1002
}
  0
POINT
  5
BB3
330
2BD
100
AcDbEntity
  8
0
 60
     1
100
AcDbPoint
 10
-1391.005242761895
 20
-1048.046963109624
 30
0.0
1001
GENIUS_GENOBJ-N-CRS_13
1002
{
1000
OWNER
1000
GEN
1002
}
1001
GENIUS_GENOLIS_13
1002
{
1000
ENT
1005
0
1005
0
1005
0
1005
BAA
1002
}
1001
GENIUS_GENOENT_13
1002
{
1000
MYREF
1005
BB3
1002
}
1002
{
1000
GRP
1005
0
1002
}
1001
GENIUS_GENODEF_13
1002
{
1000
HIER
1070
    10
1002
}
1002
{
1000
MANEDIT
1070
     1
1002
}
1002
{
1000
NOSEL
1070
     0
1002
}
1002
{
1000
BEHIND
1070
     0
1002
}
1002
{
1000
OTHER
1070
     0
1002
}
1002
{
1000
REACTOR
1002
}
  0
TEXT
  5
C27
330
2BD
100
AcDbEntity
  8
LOGO
  6
Continuous
 62
     7
100
AcDbText
 10
344.4113036414466
 20
1.912865195882176
 30
0.0
 40
5.031180000000001
  1
C
  7
CHINESET
100
AcDbText
  0
ENDSEC
  0
SECTION
  2
OBJECTS
  0
DICTIONARY
  5
2AB
330
0
100
AcDbDictionary
281
     1
  3
ACAD_COLOR
350
87A
  3
ACAD_GROUP
350
2AC
  3
ACAD_LAYOUT
350
2B8
  3
ACAD_MATERIAL
350
879
  3
ACAD_MLINESTYLE
350
2B5
  3
ACAD_PLOTSETTINGS
350
2B7
  3
ACAD_PLOTSTYLENAME
350
2AD
  3
ACAD_TABLESTYLE
350
87B
  3
ACDBHEADERROUNDTRIPXREC
350
C36
  3
AcDbVariableDictionary
350
839
  3
AcmDictionary
350
714
  3
AMG
350
6FA
  3
AMGSNAPSETTINGS
350
749
  3
DWGPROPS
350
C35
  0
DICTIONARY
  5
8E8
330
2A1
100
AcDbDictionary
280
     1
281
     1
  3
ACAD_LAYERFILTERS
360
BB7
  3
ACAD_LAYERSTATES
360
8E9
  3
ACLYDICTIONARY
360
BB6
  0
DICTIONARY
  5
6A0
330
2BD
100
AcDbDictionary
280
     1
281
     1
  3
ACAD_LAYOUTSELFREF
360
822
  0
DICTIONARY
  5
6A2
330
2B9
100
AcDbDictionary
280
     1
281
     1
  3
ACAD_LAYOUTSELFREF
360
821
  0
DICTIONARY
  5
87A
102
{ACAD_REACTORS
330
2AB
102
}
330
2AB
100
AcDbDictionary
281
     1
  0
DICTIONARY
  5
2AC
102
{ACAD_REACTORS
330
2AB
102
}
330
2AB
100
AcDbDictionary
281
     1
  0
DICTIONARY
  5
2B8
102
{ACAD_REACTORS
330
2AB
102
}
330
2AB
100
AcDbDictionary
281
     1
  3
Model
350
2C0
  3
配置1
350
2BC
  0
DICTIONARY
  5
879
102
{ACAD_REACTORS
330
2AB
102
}
330
2AB
100
AcDbDictionary
281
     1
  0
DICTIONARY
  5
2B5
102
{ACAD_REACTORS
330
2AB
102
}
330
2AB
100
AcDbDictionary
281
     1
  3
Standard
350
2B6
  0
DICTIONARY
  5
2B7
102
{ACAD_REACTORS
330
2AB
102
}
330
2AB
100
AcDbDictionary
281
     1
  0
ACDBDICTIONARYWDFLT
  5
2AD
102
{ACAD_REACTORS
330
2AB
102
}
330
2AB
100
AcDbDictionary
281
     1
  3
Normal
350
2AE
100
AcDbDictionaryWithDefault
340
2AE
1001
ACAD
1000
TREAT_AS_HARD
1070
     0
1000
TREAT_AS_HARD
1070
     0
  0
DICTIONARY
  5
87B
102
{ACAD_REACTORS
330
2AB
102
}
330
2AB
100
AcDbDictionary
281
     1
  3
Standard
350
87C
  0
DICTIONARY
  5
C36
102
{ACAD_REACTORS
330
2AB
102
}
330
2AB
100
AcDbDictionary
281
     1
  0
DICTIONARY
  5
839
102
{ACAD_REACTORS
330
2AB
102
}
330
2AB
100
AcDbDictionary
281
     1
  3
CTABLESTYLE
350
C32
  3
DIMASSOC
350
83B
  3
INDEXCTL
350
83A
  3
PROJECTNAME
350
C33
  0
DICTIONARY
  5
714
102
{ACAD_REACTORS
330
2AB
102
}
330
2AB
100
AcDbDictionary
281
     1
  3
AcmStdDictionary
350
71A
  3
AMDTSECTSYM_ARROWCOLOR
350
887
  0
DICTIONARY
  5
6FA
102
{ACAD_REACTORS
330
2AB
102
}
330
2AB
100
AcDbDictionary
281
     1
  0
DICTIONARY
  5
749
102
{ACAD_REACTORS
330
2AB
102
}
330
2AB
100
AcDbDictionary
281
     1
  0
XRECORD
  5
C35
102
{ACAD_REACTORS
330
2AB
102
}
330
2AB
100
AcDbXrecord
280
     1
  1
DWGPROPS COOKIE
  2

  3

  4

  6

  7

  8

  9

300
AmdtFileType=84
301
=
302
=
303
=
304
=
305
=
306
=
307
=
308
=
309
=
 40
0.0283275925925926
 41
2450963.633466239
 42
2454789.613398959
  1

 90
        1
  0
DICTIONARY
  5
BB7
102
{ACAD_REACTORS
330
8E8
102
}
330
8E8
100
AcDbDictionary
281
     1
  0
DICTIONARY
  5
8E9
102
{ACAD_REACTORS
330
8E8
102
}
330
8E8
100
AcDbDictionary
281
     1
  0
DICTIONARY
  5
BB6
102
{ACAD_REACTORS
330
8E8
102
}
330
8E8
100
AcDbDictionary
281
     1
1001
ACAD
1000
<All
  0
XRECORD
  5
822
102
{ACAD_REACTORS
330
6A0
102
}
330
6A0
100
AcDbXrecord
280
     1
340
2BD
  0
XRECORD
  5
821
102
{ACAD_REACTORS
330
6A2
102
}
330
6A2
100
AcDbXrecord
280
     1
340
2B9
  0
LAYOUT
  5
2C0
102
{ACAD_XDICTIONARY
360
C39
102
}
102
{ACAD_REACTORS
330
2B8
102
}
330
2B8
100
AcDbPlotSettings
  1

  2
DWF Classic.pc3
  4
ISO_expand_A3_(297.00_x_420.00_MM)
  6

 40
5.793749809265136
 41
10.79374980926513
 42
5.79376220703125
 43
10.79376220703125
 44
297.0
 45
420.0
 46
0.0
 47
26.59
 48
0.0
 49
0.0
140
0.0
141
0.0
142
1.0
143
0.8354356066836373
 70
 11924
 72
     1
 73
     0
 74
     1
  7

 75
     0
147
1.196980344145996
148
-42.93032825059436
149
2.29476866113805
100
AcDbLayout
  1
Model
 70
     1
 71
     0
 10
0.0
 20
0.0
 11
12.0
 21
9.0
 12
0.0
 22
0.0
 32
0.0
 14
0.0
 24
0.0
 34
0.0
 15
0.0
 25
0.0
 35
0.0
146
0.0
 13
0.0
 23
0.0
 33
0.0
 16
1.0
 26
0.0
 36
0.0
 17
0.0
 27
1.0
 37
0.0
 76
     0
330
2BD
  0
LAYOUT
  5
2BC
102
{ACAD_XDICTIONARY
360
C37
102
}
102
{ACAD_REACTORS
330
2B8
102
}
330
2B8
100
AcDbPlotSettings
  1

  2
\\WINNT\EPSON Stylus Photo 750 單色
  4

  6

 40
0.0
 41
0.0
 42
0.0
 43
0.0
 44
0.0
 45
0.0
 46
0.0
 47
0.0
 48
0.0
 49
0.0
140
0.0
141
0.0
142
1.0
143
1.0
 70
   688
 72
     0
 73
     0
 74
     5
  7

 75
    16
147
1.0
148
0.0
149
0.0
100
AcDbLayout
  1
配置1
 70
     0
 71
     1
 10
0.0
 20
0.0
 11
12.0
 21
9.0
 12
0.0
 22
0.0
 32
0.0
 14
1.000000000000000E+20
 24
1.000000000000000E+20
 34
1.000000000000000E+20
 15
-1.000000000000000E+20
 25
-1.000000000000000E+20
 35
-1.000000000000000E+20
146
0.0
 13
0.0
 23
0.0
 33
0.0
 16
1.0
 26
0.0
 36
0.0
 17
0.0
 27
1.0
 37
0.0
 76
     0
330
2B9
  0
MLINESTYLE
  5
2B6
102
{ACAD_REACTORS
330
2B5
102
}
330
2B5
100
AcDbMlineStyle
  2
STANDARD
 70
     0
  3

 62
   256
 51
90.0
 52
90.0
 71
     2
 49
0.5
 62
   256
  6
BYLAYER
 49
-0.5
 62
   256
  6
BYLAYER
  0
ACDBPLACEHOLDER
  5
2AE
102
{ACAD_REACTORS
330
2AD
102
}
330
2AD
  0
TABLESTYLE
  5
87C
102
{ACAD_REACTORS
330
87B
102
}
330
87B
100
AcDbTableStyle
  3
Standard
 70
     0
 71
     0
 40
0.06
 41
0.06
280
     0
281
     0
  7
STANDARD
140
0.18
170
     2
 62
     0
 63
     7
283
     0
274
    -2
284
     1
 64
     0
275
    -2
285
     1
 65
     0
276
    -2
286
     1
 66
     0
277
    -2
287
     1
 67
     0
278
    -2
288
     1
 68
     0
279
    -2
289
     1
 69
     0
  7
STANDARD
140
0.25
170
     5
 62
     0
 63
     7
283
     0
274
    -2
284
     1
 64
     0
275
    -2
285
     1
 65
     0
276
    -2
286
     1
 66
     0
277
    -2
287
     1
 67
     0
278
    -2
288
     1
 68
     0
279
    -2
289
     1
 69
     0
  7
STANDARD
140
0.18
170
     5
 62
     0
 63
     7
283
     0
274
    -2
284
     1
 64
     0
275
    -2
285
     1
 65
     0
276
    -2
286
     1
 66
     0
277
    -2
287
     1
 67
     0
278
    -2
288
     1
 68
     0
279
    -2
289
     1
 69
     0
  0
DICTIONARYVAR
  5
C32
102
{ACAD_REACTORS
330
839
102
}
330
839
100
DictionaryVariables
280
     0
  1
STANDARD
  0
DICTIONARYVAR
  5
83B
102
{ACAD_REACTORS
330
839
102
}
330
839
100
DictionaryVariables
280
     0
  1
1
  0
DICTIONARYVAR
  5
83A
102
{ACAD_REACTORS
330
839
102
}
330
839
100
DictionaryVariables
280
     0
  1
0
  0
DICTIONARYVAR
  5
C33
102
{ACAD_REACTORS
330
839
102
}
330
839
100
DictionaryVariables
280
     0
  1

  0
DICTIONARY
  5
71A
102
{ACAD_REACTORS
330
714
102
}
330
714
100
AcDbDictionary
281
     1
  0
XRECORD
  5
887
102
{ACAD_REACTORS
330
714
102
}
330
714
100
AcDbXrecord
280
     1
 90
-1023410169
  0
DICTIONARY
  5
C39
330
2C0
100
AcDbDictionary
280
     1
281
     1
  3
ACAD_XREC_ROUNDTRIP
360
C3A
  0
DICTIONARY
  5
C37
330
2BC
100
AcDbDictionary
280
     1
281
     1
  3
ACAD_XREC_ROUNDTRIP
360
C38
  0
XRECORD
  5
C3A
102
{ACAD_REACTORS
330
C39
102
}
330
C39
100
AcDbXrecord
280
     1
102
SHADEPLOT
 70
     0
102
SHADEPLOTRESLEVEL
 70
     2
102
SHADEPLOTCUSTOMDPI
 70
   300
  0
XRECORD
  5
C38
102
{ACAD_REACTORS
330
C37
102
}
330
C37
100
AcDbXrecord
280
     1
102
SHADEPLOT
 70
     0
102
SHADEPLOTRESLEVEL
 70
     2
102
SHADEPLOTCUSTOMDPI
 70
   300
  0
ENDSEC
  0
EOF
