  0
SECTION
  2
HEADER
  9
$ACADVER
  1
AC1015
  9
$ACADMAINTVER
 70
    20
  9
$DWGCODEPAGE
  3
ANSI_950
  9
$INSBASE
 10
0.0
 20
0.0
 30
0.0
  9
$EXTMIN
 10
94.79231610338798
 20
150.937464951487
 30
0.0
  9
$EXTMAX
 10
230.2060078207888
 20
269.2427227280594
 30
153.7334026510848
  9
$LIMMIN
 10
0.0
 20
0.0
  9
$LIMMAX
 10
420.0
 20
297.0
  9
$ORTHOMODE
 70
     0
  9
$REGENMODE
 70
     1
  9
$FILLMODE
 70
     1
  9
$QTEXTMODE
 70
     0
  9
$MIRRTEXT
 70
     1
  9
$LTSCALE
 40
1.0
  9
$ATTMODE
 70
     1
  9
$TEXTSIZE
 40
3.0
  9
$TRACEWID
 40
1.0
  9
$TEXTSTYLE
  7
STANDARD
  9
$CLAYER
  8
0
  9
$CELTYPE
  6
ByLayer
  9
$CECOLOR
 62
   256
  9
$CELTSCALE
 40
1.0
  9
$DISPSILH
 70
     0
  9
$DIMSCALE
 40
1.0
  9
$DIMASZ
 40
3.0
  9
$DIMEXO
 40
1.0
  9
$DIMDLI
 40
6.0
  9
$DIMRND
 40
0.0
  9
$DIMDLE
 40
0.0
  9
$DIMEXE
 40
1.5
  9
$DIMTP
 40
0.1
  9
$DIMTM
 40
0.1
  9
$DIMTXT
 40
3.0
  9
$DIMCEN
 40
0.0
  9
$DIMTSZ
 40
0.0
  9
$DIMTOL
 70
     0
  9
$DIMLIM
 70
     0
  9
$DIMTIH
 70
     0
  9
$DIMTOH
 70
     0
  9
$DIMSE1
 70
     0
  9
$DIMSE2
 70
     0
  9
$DIMTAD
 70
     1
  9
$DIMZIN
 70
     8
  9
$DIMBLK
  1

  9
$DIMASO
 70
     1
  9
$DIMSHO
 70
     1
  9
$DIMPOST
  1

  9
$DIMAPOST
  1
"
  9
$DIMALT
 70
     0
  9
$DIMALTD
 70
     2
  9
$DIMALTF
 40
0.0393701
  9
$DIMLFAC
 40
1.0
  9
$DIMTOFL
 70
     1
  9
$DIMTVP
 40
0.0
  9
$DIMTIX
 70
     0
  9
$DIMSOXD
 70
     0
  9
$DIMSAH
 70
     0
  9
$DIMBLK1
  1

  9
$DIMBLK2
  1

  9
$DIMSTYLE
  2
AM_ISO
  9
$DIMCLRD
 70
   256
  9
$DIMCLRE
 70
   256
  9
$DIMCLRT
 70
   256
  9
$DIMTFAC
 40
0.71
  9
$DIMGAP
 40
0.8
  9
$DIMJUST
 70
     0
  9
$DIMSD1
 70
     0
  9
$DIMSD2
 70
     0
  9
$DIMTOLJ
 70
     0
  9
$DIMTZIN
 70
     8
  9
$DIMALTZ
 70
     0
  9
$DIMALTTZ
 70
     0
  9
$DIMUPT
 70
     0
  9
$DIMDEC
 70
     2
  9
$DIMTDEC
 70
     8
  9
$DIMALTU
 70
     2
  9
$DIMALTTD
 70
     2
  9
$DIMTXSTY
  7
STANDARD
  9
$DIMAUNIT
 70
     0
  9
$DIMADEC
 70
     0
  9
$DIMALTRND
 40
0.0
  9
$DIMAZIN
 70
     2
  9
$DIMDSEP
 70
    46
  9
$DIMATFIT
 70
     3
  9
$DIMFRAC
 70
     0
  9
$DIMLDRBLK
  1

  9
$DIMLUNIT
 70
     2
  9
$DIMLWD
 70
    -1
  9
$DIMLWE
 70
    -1
  9
$DIMTMOVE
 70
     0
  9
$LUNITS
 70
     2
  9
$LUPREC
 70
     2
  9
$SKETCHINC
 40
1.0
  9
$FILLETRAD
 40
2.5
  9
$AUNITS
 70
     0
  9
$AUPREC
 70
     0
  9
$MENU
  1
.
  9
$ELEVATION
 40
0.0
  9
$PELEVATION
 40
0.0
  9
$THICKNESS
 40
0.0
  9
$LIMCHECK
 70
     0
  9
$CHAMFERA
 40
2.5
  9
$CHAMFERB
 40
2.5
  9
$CHAMFERC
 40
20.0
  9
$CHAMFERD
 40
0.0
  9
$SKPOLY
 70
     0
  9
$TDCREATE
 40
2453061.386136818
  9
$TDUCREATE
 40
2453061.052803484
  9
$TDUPDATE
 40
2456538.647833114
  9
$TDUUPDATE
 40
2456538.314499780
  9
$TDINDWG
 40
0.9746242361
  9
$TDUSRTIMER
 40
0.9746241204
  9
$USRTIMER
 70
     1
  9
$ANGBASE
 50
0.0
  9
$ANGDIR
 70
     0
  9
$PDMODE
 70
     0
  9
$PDSIZE
 40
0.0
  9
$PLINEWID
 40
0.5
  9
$SPLFRAME
 70
     0
  9
$SPLINETYPE
 70
     6
  9
$SPLINESEGS
 70
     8
  9
$HANDSEED
  5
1573
  9
$SURFTAB1
 70
     6
  9
$SURFTAB2
 70
     6
  9
$SURFTYPE
 70
     6
  9
$SURFU
 70
     6
  9
$SURFV
 70
     6
  9
$UCSBASE
  2

  9
$UCSNAME
  2

  9
$UCSORG
 10
0.0
 20
0.0
 30
0.0
  9
$UCSXDIR
 10
1.0
 20
0.0
 30
0.0
  9
$UCSYDIR
 10
0.0
 20
1.0
 30
0.0
  9
$UCSORTHOREF
  2

  9
$UCSORTHOVIEW
 70
     0
  9
$UCSORGTOP
 10
0.0
 20
0.0
 30
0.0
  9
$UCSORGBOTTOM
 10
0.0
 20
0.0
 30
0.0
  9
$UCSORGLEFT
 10
0.0
 20
0.0
 30
0.0
  9
$UCSORGRIGHT
 10
0.0
 20
0.0
 30
0.0
  9
$UCSORGFRONT
 10
0.0
 20
0.0
 30
0.0
  9
$UCSORGBACK
 10
0.0
 20
0.0
 30
0.0
  9
$PUCSBASE
  2

  9
$PUCSNAME
  2

  9
$PUCSORG
 10
0.0
 20
0.0
 30
0.0
  9
$PUCSXDIR
 10
1.0
 20
0.0
 30
0.0
  9
$PUCSYDIR
 10
0.0
 20
1.0
 30
0.0
  9
$PUCSORTHOREF
  2

  9
$PUCSORTHOVIEW
 70
     0
  9
$PUCSORGTOP
 10
0.0
 20
0.0
 30
0.0
  9
$PUCSORGBOTTOM
 10
0.0
 20
0.0
 30
0.0
  9
$PUCSORGLEFT
 10
0.0
 20
0.0
 30
0.0
  9
$PUCSORGRIGHT
 10
0.0
 20
0.0
 30
0.0
  9
$PUCSORGFRONT
 10
0.0
 20
0.0
 30
0.0
  9
$PUCSORGBACK
 10
0.0
 20
0.0
 30
0.0
  9
$USERI1
 70
     0
  9
$USERI2
 70
     0
  9
$USERI3
 70
     0
  9
$USERI4
 70
     0
  9
$USERI5
 70
     0
  9
$USERR1
 40
0.0
  9
$USERR2
 40
0.0
  9
$USERR3
 40
0.0
  9
$USERR4
 40
0.0
  9
$USERR5
 40
0.0
  9
$WORLDVIEW
 70
     1
  9
$SHADEDGE
 70
     3
  9
$SHADEDIF
 70
    70
  9
$TILEMODE
 70
     1
  9
$MAXACTVP
 70
    64
  9
$PINSBASE
 10
0.0
 20
0.0
 30
0.0
  9
$PLIMCHECK
 70
     0
  9
$PEXTMIN
 10
40.3919093613037
 20
115.7291726466998
 30
-0.0015258207003583
  9
$PEXTMAX
 10
212.2795617059057
 20
247.3465292502946
 30
0.0000000349246037
  9
$PLIMMIN
 10
55.32267246022277
 20
-0.5553435086447714
  9
$PLIMMAX
 10
219.9882079194537
 20
232.3335116192115
  9
$UNITMODE
 70
     0
  9
$VISRETAIN
 70
     1
  9
$PLINEGEN
 70
     0
  9
$PSLTSCALE
 70
     1
  9
$TREEDEPTH
 70
  3020
  9
$CMLSTYLE
  2
Standard
  9
$CMLJUST
 70
     0
  9
$CMLSCALE
 40
20.0
  9
$PROXYGRAPHICS
 70
     1
  9
$MEASUREMENT
 70
     1
  9
$CELWEIGHT
370
    -1
  9
$ENDCAPS
280
     0
  9
$JOINSTYLE
280
     0
  9
$LWDISPLAY
290
     0
  9
$INSUNITS
 70
     4
  9
$HYPERLINKBASE
  1

  9
$STYLESHEET
  1
彩色出圖.ctb
  9
$XEDIT
290
     1
  9
$CEPSNTYPE
380
     0
  9
$PSTYLEMODE
290
     1
  9
$FINGERPRINTGUID
  2
{D841939A-2AF0-4C24-A90E-16452407ED34}
  9
$VERSIONGUID
  2
{EDFFB8D2-9C77-4A69-ACB7-5EE87644DB33}
  9
$EXTNAMES
290
     1
  9
$PSVPSCALE
 40
0.0
  9
$OLESTARTUP
290
     0
  0
ENDSEC
  0
SECTION
  2
CLASSES
  0
CLASS
  1
ACDBDICTIONARYWDFLT
  2
AcDbDictionaryWithDefault
  3
ObjectDBX Classes
 90
        0
280
     0
281
     0
  0
CLASS
  1
ACDBPLACEHOLDER
  2
AcDbPlaceHolder
  3
ObjectDBX Classes
 90
        0
280
     0
281
     0
  0
CLASS
  1
LAYOUT
  2
AcDbLayout
  3
ObjectDBX Classes
 90
        0
280
     0
281
     0
  0
CLASS
  1
AMGSETTINGSOBJ
  2
AmgSettingsObj
  3
"AcadM|Product Description: AutoCAD Mechanical 2000|Company: Autodesk"
 90
        0
280
     0
281
     0
  0
CLASS
  1
ACME_DOCUMENT
  2
AcMeDbDoc
  3
AcMeServices
 90
        0
280
     0
281
     0
  0
CLASS
  1
ACMESCOPE
  2
AcMeScope
  3
AcMeServices
 90
        0
280
     0
281
     0
  0
CLASS
  1
ACMECOMMANDHISTORY
  2
AcMeCommandHistory
  3
AcMeServices
 90
        0
280
     0
281
     0
  0
CLASS
  1
ACIMSYSVARMAN
  2
AcImSysVarManager
  3
AcMeServices
 90
        0
280
     0
281
     0
  0
CLASS
  1
ACIMREALSYSVAR
  2
AcImRealSysVar
  3
AcMeServices
 90
        0
280
     0
281
     0
  0
CLASS
  1
ACIMINTSYSVAR
  2
AcImIntSysVar
  3
AcMeServices
 90
        0
280
     0
281
     0
  0
CLASS
  1
ACMEDRAWINGMAN
  2
AcMeDrawingMan
  3
AcMeServices
 90
        0
280
     0
281
     0
  0
CLASS
  1
ACMEVIEW
  2
AcMeView
  3
AcMeServices
 90
        0
280
     0
281
     0
  0
CLASS
  1
ACDBENTITYCACHE
  2
AcMeEntityCache
  3
AcMeServices
 90
        0
280
     0
281
     0
  0
CLASS
  1
GSMANAGER
  2
AcMeGSManager
  3
AcMeServices
 90
        0
280
     0
281
     0
  0
CLASS
  1
AMDTINTERNALREACTOR
  2
AmdtInternalReactor
  3
AcMeServices
 90
        0
280
     0
281
     0
  0
CLASS
  1
ACMESTATEMGR
  2
AcMeStateMgr
  3
AcMeServices
 90
        0
280
     0
281
     0
  0
CLASS
  1
ACGREFMASTER
  2
AcGrefMaster
  3
AcAttribServices
 90
        0
280
     0
281
     0
  0
CLASS
  1
AM_DRAWING_MGR
  2
AcDmDwgMgr
  3
AcMechDwgViewMgmt
 90
        0
280
     0
281
     0
  0
CLASS
  1
AM_DWG_DOCUMENT
  2
AcDmDwgDocument
  3
AcMechDwgViewMgmt
 90
        0
280
     0
281
     0
  0
CLASS
  1
AM_DWG_SHEET
  2
AcDmSheet
  3
AcMechDwgViewMgmt
 90
        0
280
     0
281
     0
  0
CLASS
  1
AM_VIEWDIMPARMAP
  2
AcDmViewDimParMap
  3
AcMechDwgViewMgmt
 90
        0
280
     0
281
     0
  0
CLASS
  1
AM_DWGMGR_NAME
  2
AcDmDwgMgrName
  3
AcMechDwgViewMgmt
 90
        0
280
     0
281
     0
  0
CLASS
  1
ACME_DATABASE
  2
AcMeDbDatabase
  3
AcMeServices
 90
        0
280
     0
281
     0
  0
CLASS
  1
ACRFINSADJUSTERMGR
  2
AcRfInsAdjusterMgr
  3
AcMeServices
 90
        0
280
     0
281
     0
  0
CLASS
  1
ACGREFACADMASTER
  2
AcGrefacadMaster
  3
AcGrefServices
 90
        0
280
     0
281
     0
  0
CLASS
  1
AMDTMENUSTATEMGR
  2
AmdtMenuStateMgr
  3
McadcomServices
 90
        0
280
     0
281
     0
  0
CLASS
  1
AMDTMCOMMENUSTATE
  2
AmdtMcomMenuState
  3
McadcomServices
 90
        0
280
     0
281
     0
  0
CLASS
  1
AMIMASTER
  2
AmiMaster
  3
AmiServices
 90
        0
280
     0
281
     0
  0
CLASS
  1
ASAPP
  2
AcAsAppObject
  3
AutoSurfServices
 90
        0
280
     0
281
     0
  0
CLASS
  1
IM_STATIC_MAN
  2
AcImStaticVarManager
  3
AcMeServices
 90
        0
280
     0
281
     0
  0
CLASS
  1
ACIMSTRSYSVAR
  2
AcImStrSysVar
  3
AcMeServices
 90
        0
280
     0
281
     0
  0
CLASS
  1
ACIMDBLSTATICVAR
  2
AcImDblStaticVar
  3
AcMeServices
 90
        0
280
     0
281
     0
  0
CLASS
  1
ACIMSTRSTATICVAR
  2
AcImStrStaticVar
  3
AcMeServices
 90
        0
280
     0
281
     0
  0
CLASS
  1
ACIMINTSTATICVAR
  2
AcImIntStaticVar
  3
AcMeServices
 90
        0
280
     0
281
     0
  0
CLASS
  1
ACASGREFMASTER
  2
AcAsGrefMaster
  3
AutoSurfResolverServices
 90
        0
280
     0
281
     0
  0
CLASS
  1
ACADGREFMODULE
  2
AcAdGrefModule
  3
AdGrefServices
 90
        0
280
     0
281
     0
  0
CLASS
  1
AMDTMAPISURFMOUDULE
  2
AmdtMApiSurfModule
  3
MApiSurfServices
 90
        0
280
     0
281
     0
  0
CLASS
  1
MAPIAMMOUDLE
  2
MApiAmModule
  3
MApiAmServices
 90
        0
280
     0
281
     0
  0
CLASS
  1
AMDTADMENUSTATE
  2
AmdtAdMenuState
  3
DesignerServices
 90
        0
280
     0
281
     0
  0
CLASS
  1
ADAPPL
  2
AcAdAppl
  3
DesignerServices
 90
        0
280
     0
281
     0
  0
CLASS
  1
DEPMGR
  2
AcAdDepMgr
  3
DesignerServices
 90
        0
280
     0
281
     0
  0
CLASS
  1
PARAMMGR
  2
AcAdParamMgr
  3
DesignerServices
 90
        0
280
     0
281
     0
  0
CLASS
  1
PARAMSCOPE
  2
AcAdParamScope
  3
DesignerServices
 90
        0
280
     0
281
     0
  0
CLASS
  1
NAMEDAPPL
  2
AcAdNamedAppl
  3
DesignerServices
 90
        0
280
     0
281
     0
  0
CLASS
  1
AMDTDMMENUSTATE
  2
AmdtDmMenuState
  3
AcMechDwgViewMgmt
 90
        0
280
     0
281
     0
  0
CLASS
  1
MAPIADMODULE
  2
MApiAdModule
  3
MApiAdServices
 90
        0
280
     0
281
     0
  0
CLASS
  1
AMDTAMMENUSTATE
  2
AmdtAmMenuState
  3
DesignerAssemblies
 90
        0
280
     0
281
     0
  0
CLASS
  1
ACAMPROJECT
  2
AcAmProject
  3
DesignerAssemblies
 90
        0
280
     0
281
     0
  0
CLASS
  1
ACAMGRCOMPDEF
  2
AcAmGrCompDef
  3
DesignerAssemblies
 90
        0
280
     0
281
     0
  0
CLASS
  1
ACCMCONTEXT
  2
AcCmContext
  3
DesignerAssemblies
 90
        0
280
     0
281
     0
  0
CLASS
  1
ACAMCOMPDEF
  2
AcAmCompDef
  3
DesignerAssemblies
 90
        0
280
     0
281
     0
  0
CLASS
  1
ACAMCOMPDEFMGR
  2
AcAmCompDefMgr
  3
DesignerAssemblies
 90
        0
280
     0
281
     0
  0
CLASS
  1
AMCONTEXTMGR
  2
AcAmContextMgr
  3
DesignerAssemblies
 90
        0
280
     0
281
     0
  0
CLASS
  1
ACAMCONTEXTMODELER
  2
AcAmContextModeler
  3
DesignerAssemblies
 90
        0
280
     0
281
     0
  0
CLASS
  1
ACMDATADICTIONARY
  2
AcmDataDictionary
  3
"AcmSymBB|Product Description: AutoCAD Mechanical 2004 DX|Company: Autodesk"
 90
        0
280
     0
281
     0
  0
CLASS
  1
ACMDATAENTRYBLOCK
  2
AcmDataEntryBlock
  3
"AcmSymBB|Product Description: AutoCAD Mechanical 2004 DX|Company: Autodesk"
 90
        0
280
     0
281
     0
  0
CLASS
  1
ACMSTANDARDISO
  2
AcmStandardISO
  3
"Amdt_StdImp|Product Description: AutoCAD Mechanical 2004 DX|Company: Autodesk"
 90
        0
280
     0
281
     0
  0
CLASS
  1
AMGOBJPROPCFG
  2
AmgObjPropCfg
  3
"AmgLay|Product Description: AutoCAD Mechanical 2000|Company: Autodesk"
 90
        1
280
     0
281
     0
  0
CLASS
  1
AMDTEDGESTANDARDISO
  2
AmdtEdgeStdISO
  3
"Amdt_StdImp|Product Description: AutoCAD Mechanical 2004 DX|Company: Autodesk"
 90
    32768
280
     0
281
     0
  0
CLASS
  1
ACMSURFSTANDARDISO
  2
AcmSurfTextStdISO
  3
"Amdt_StdImp|Product Description: AutoCAD Mechanical 2004 DX|Company: Autodesk"
 90
        0
280
     0
281
     0
  0
CLASS
  1
ACMFCFSTANDARDISO
  2
AcmFCFStdISO
  3
"Amdt_StdImp|Product Description: AutoCAD Mechanical 2004 DX|Company: Autodesk"
 90
        0
280
     0
281
     0
  0
CLASS
  1
ACMWELDSTANDARDISO
  2
AcmWeldingStdISO
  3
"Amdt_StdImp|Product Description: AutoCAD Mechanical 2004 DX|Company: Autodesk"
 90
        0
280
     0
281
     0
  0
CLASS
  1
ACMIDSTANDARDISO
  2
AcmIdStdISO
  3
"Amdt_StdImp|Product Description: AutoCAD Mechanical 2004 DX|Company: Autodesk"
 90
        0
280
     0
281
     0
  0
CLASS
  1
ACMDATUMSTANDARDISO
  2
AcmDatumStdISO
  3
"Amdt_StdImp|Product Description: AutoCAD Mechanical 2004 DX|Company: Autodesk"
 90
        0
280
     0
281
     0
  0
CLASS
  1
ACMBOMSTANDARDISO
  2
AcmBOMStdISO
  3
"Amdt_StdImp|Product Description: AutoCAD Mechanical 2004 DX|Company: Autodesk"
 90
        0
280
     0
281
     0
  0
CLASS
  1
ACMDETAILSTANDARDISO
  2
AmdtDetailSymStdISO
  3
"Amdt_StdImp|Product Description: AutoCAD Mechanical 2004 DX|Company: Autodesk"
 90
        0
280
     0
281
     0
  0
CLASS
  1
ACMSECTIONSTANDARDISO
  2
AmdtSectionSymStdISO
  3
"Amdt_StdImp|Product Description: AutoCAD Mechanical 2004 DX|Company: Autodesk"
 90
        0
280
     0
281
     0
  0
CLASS
  1
ACMCENTERLINESTANDARDISO
  2
AmdtCenterLineStdISO
  3
"Amdt_StdImp|Product Description: AutoCAD Mechanical 2004 DX|Company: Autodesk"
 90
        0
280
     0
281
     0
  0
CLASS
  1
ACMTHREADLINESTANDARDISO
  2
AmdtThreadLineStdISO
  3
"Amdt_StdImp|Product Description: AutoCAD Mechanical 2004 DX|Company: Autodesk"
 90
        0
280
     0
281
     0
  0
CLASS
  1
ACMNOTESTANDARDISO
  2
AmdtNoteStdISO
  3
"Amdt_StdImp|Product Description: AutoCAD Mechanical 2004 DX|Company: Autodesk"
 90
        0
280
     0
281
     0
  0
CLASS
  1
ACAMGLAYSTD
  2
AcAmgLayStd
  3
"AcAmgLayStd|Product Description: AutoCAD Mechanical 2000|Company: Autodesk"
 90
        0
280
     0
281
     0
  0
CLASS
  1
ACAMGDIMSTD
  2
AcAmgDimStd
  3
"AcAmgDimStd|Product Description: AutoCAD Mechanical 2000|Company: Autodesk"
 90
        0
280
     0
281
     0
  0
CLASS
  1
ACAMGHOLECHARTSTDISO
  2
AcAmgHoleChartStdISO
  3
ACMSYMBB_MODULE_NAME
 90
        0
280
     0
281
     0
  0
CLASS
  1
ACAMGTITLESTD
  2
AcAmgTitleStd
  3
"TITLEAPP"
 90
        0
280
     0
281
     0
  0
CLASS
  1
CATALOGSTATE
  2
AcAmCatalogState
  3
DesignerAssemblies
 90
        0
280
     0
281
     0
  0
CLASS
  1
ACAMGRCOMPDEFSET
  2
AcAmGrCompDefSet
  3
DesignerAssemblies
 90
        0
280
     0
281
     0
  0
CLASS
  1
AMDTBROWSERDBTAB
  2
AmdtBrowserDbTab
  3
McadcomServices
 90
        0
280
     0
281
     0
  0
CLASS
  1
CBROWSERAPPOBJECT
  2
CBrowserAppObject
  3
McadcomServices
 90
        0
280
     0
281
     0
  0
CLASS
  1
DM_PLACEHOLDER
  2
AcDmSelsetPlaceholder
  3
AcMechDwgViewMgmt
 90
        0
280
     0
281
     0
  0
CLASS
  1
ACAMGFILTERDAT
  2
AcAmgFilterDat
  3
"AcadM|Product Description: AutoCAD Mechanical 2000|Company: Autodesk"
 90
    32768
280
     0
281
     0
  0
CLASS
  1
DIMASSOC
  2
AcDbDimAssoc
  3
"AcDbDimAssoc|Product Desc:     AcDim ARX App For Dimension|Company:          Autodesk, Inc.|WEB Address:      www.autodesk.com"
 90
        0
280
     0
281
     0
  0
CLASS
  1
LAYER_INDEX
  2
AcDbLayerIndex
  3
ObjectDBX Classes
 90
        0
280
     0
281
     0
  0
CLASS
  1
IDBUFFER
  2
AcDbIdBuffer
  3
ObjectDBX Classes
 90
        0
280
     0
281
     0
  0
CLASS
  1
DICTIONARYVAR
  2
AcDbDictionaryVar
  3
ObjectDBX Classes
 90
        0
280
     0
281
     0
  0
CLASS
  1
ADPART
  2
AcAdPart
  3
DesignerServices
 90
    32768
280
     0
281
     1
  0
CLASS
  1
ADBASE
  2
AcAdBase
  3
DesignerServices
 90
    32768
280
     0
281
     0
  0
CLASS
  1
BODYID
  2
AcAdBodyId
  3
DesignerServices
 90
    32768
280
     0
281
     0
  0
CLASS
  1
WORKPLANEDISPLAYMGR
  2
AcAdDisplayMgr
  3
DesignerServices
 90
    32768
280
     0
281
     0
  0
CLASS
  1
ACCMBODY
  2
AcCmBody
  3
DesignerAssemblies
 90
    32768
280
     0
281
     0
  0
CLASS
  1
ACAMCOMPENT
  2
AcAmCompEnt
  3
DesignerAssemblies
 90
    32768
280
     0
281
     1
  0
CLASS
  1
ACAMCOMPFEEDBACK
  2
AcAmCompFeedback
  3
DesignerAssemblies
 90
    32768
280
     0
281
     0
  0
CLASS
  1
ACAMCOMP
  2
AcAmComp
  3
DesignerAssemblies
 90
    32768
280
     0
281
     0
  0
CLASS
  1
ACAMCOMPENTCLONE
  2
AcAmCompEntClone
  3
DesignerAssemblies
 90
    32768
280
     0
281
     1
  0
CLASS
  1
ACAMCLONEREACTOR
  2
AcAmGrCompCloneReactor
  3
DesignerAssemblies
 90
    32768
280
     0
281
     0
  0
CLASS
  1
ADDATUMPLANEABS
  2
AcAdDatumPlaneAbs
  3
DesignerServices
 90
    32768
280
     0
281
     0
  0
CLASS
  1
ADDATUMAXISABS
  2
AcAdDatumAxisAbs
  3
DesignerServices
 90
    32768
280
     0
281
     0
  0
CLASS
  1
ADDATUMORIENTEDPLANE
  2
AcAdDatumOrientedPlane
  3
DesignerServices
 90
    32768
280
     0
281
     0
  0
CLASS
  1
ACMEPLINE
  2
AcImPlineDisplay
  3
AcMeServices
 90
    32768
280
     0
281
     1
  0
CLASS
  1
ACMELINEARARROW
  2
AcImLinearArrowDisplay
  3
AcMeServices
 90
    32768
280
     0
281
     1
  0
CLASS
  1
ACMETEXT
  2
AcImTextDisplay
  3
AcMeServices
 90
    32768
280
     0
281
     1
  0
CLASS
  1
AMDTFORMULAUPDATEDISPATCHER
  2
AmdtFormulaUpdateDispatcher
  3
AcMeServices
 90
    32768
280
     0
281
     0
  0
CLASS
  1
ACAD_LINE
  2
AcAdLine
  3
DesignerServices
 90
    32768
280
     0
281
     1
  0
CLASS
  1
ACADLINEACAD
  2
AcAdVirtualBoundedLineAcad
  3
DesignerServices
 90
    32768
280
     0
281
     0
  0
CLASS
  1
ACADREFLINEACAD
  2
AcAdVirtualReferenceLine
  3
DesignerServices
 90
    32768
280
     0
281
     0
  0
CLASS
  1
ACADCONSLINE
  2
AcAdConstrainedLine
  3
DesignerServices
 90
    32768
280
     0
281
     0
  0
CLASS
  1
ACADCONSGROUP
  2
AcAdConstraintGroup
  3
DesignerServices
 90
    32768
280
     0
281
     0
  0
CLASS
  1
ACADIMPPTACAD
  2
AcAdVirtualImplicitPoint
  3
DesignerServices
 90
    32768
280
     0
281
     0
  0
CLASS
  1
ACADCONSPOINT
  2
AcAdConstrainedPoint
  3
DesignerServices
 90
    32768
280
     0
281
     0
  0
CLASS
  1
ADPCURCNS
  2
AcAdPointCurveConstr
  3
DesignerServices
 90
    32768
280
     0
281
     0
  0
CLASS
  1
ADHORCNS
  2
AcAdHorizontalConstr
  3
DesignerServices
 90
    32768
280
     0
281
     0
  0
CLASS
  1
ADVERCNS
  2
AcAdVerticalConstr
  3
DesignerServices
 90
    32768
280
     0
281
     0
  0
CLASS
  1
ADCLPROF2D
  2
AcAdClosedProfile2d
  3
DesignerServices
 90
    32768
280
     0
281
     0
  0
CLASS
  1
ACAD_FIXCONSTRAINT
  2
AcAdFixedConstraint
  3
DesignerServices
 90
    32768
280
     0
281
     0
  0
CLASS
  1
ADCONSDISP
  2
AcAdConstraintDisplay
  3
DesignerServices
 90
    32768
280
     0
281
     1
  0
CLASS
  1
ADCONSTDSP
  2
AcAdConstraintDisplayTag
  3
DesignerServices
 90
    32768
280
     0
281
     1
  0
CLASS
  1
PARAM
  2
AcAdParam
  3
DesignerServices
 90
    32768
280
     0
281
     0
  0
CLASS
  1
ADHDISTCNS
  2
AcAdHorizontalDistanceConstr
  3
DesignerServices
 90
    32768
280
     0
281
     0
  0
CLASS
  1
ADVDISTCNS
  2
AcAdVerticalDistanceConstr
  3
DesignerServices
 90
    32768
280
     0
281
     0
  0
CLASS
  1
ACADVOLFEATWITHTRIM
  2
AcAdVolFeatWithTrim
  3
DesignerServices
 90
    32768
280
     0
281
     0
  0
CLASS
  1
DEPEDGEFEATUREORDERING
  2
AcAdDepEdgeFeatureOrdering
  3
DesignerServices
 90
    32768
280
     0
281
     0
  0
CLASS
  1
ACMEPOINT
  2
AcImPointDisplay
  3
AcMeServices
 90
    32768
280
     0
281
     1
  0
CLASS
  1
ADPLANEID
  2
AcAdPlaneId
  3
DesignerServices
 90
    32768
280
     0
281
     0
  0
CLASS
  1
ADDATUMPLANEFACE
  2
AcAdDatumPlaneFace
  3
DesignerServices
 90
    32768
280
     0
281
     0
  0
CLASS
  1
OSTREFID
  2
AcAdOrientedStraightRefId
  3
DesignerServices
 90
    32768
280
     0
281
     0
  0
CLASS
  1
ADDATUMPOINT2EDGES
  2
AcAdDatumPoint2Edges
  3
DesignerServices
 90
    32768
280
     0
281
     0
  0
CLASS
  1
ADHOLEFEAT
  2
AcAdHoleFeat
  3
DesignerServices
 90
    32768
280
     0
281
     0
  0
CLASS
  1
ADSURFGEOMID
  2
AcAdSurfGeomId
  3
DesignerServices
 90
    32768
280
     0
281
     0
  0
CLASS
  1
ADDATUMAXISCENTER
  2
AcAdDatumAxisCenter
  3
DesignerServices
 90
    32768
280
     0
281
     0
  0
CLASS
  1
ADDATUMPOINTAXISPLANE
  2
AcAdDatumPointAxisPlane
  3
DesignerServices
 90
    32768
280
     0
281
     0
  0
CLASS
  1
ADFEATUREDISPLAY
  2
AcImFeatureDisplay
  3
ACME_MODULE_NAME
 90
    32768
280
     0
281
     1
  0
CLASS
  1
ADWORKPOINTDISPLAY
  2
AcAdWorkPointDisplay
  3
DesignerServices
 90
    32768
280
     0
281
     1
  0
CLASS
  1
ADVIRTUALPOINTWORKPOINTFREE
  2
AcAdVirtualPointWorkPointFree
  3
DesignerServices
 90
    32768
280
     0
281
     0
  0
CLASS
  1
ADWORKPOINTSKETCH
  2
AcAdWorkPointSketch
  3
DesignerServices
 90
    32768
280
     0
281
     0
  0
CLASS
  1
HVREFID
  2
AcAdHVRefId
  3
DesignerServices
 90
    32768
280
     0
281
     0
  0
CLASS
  1
ACADPOINTDEPID
  2
AcAdVirtualPointDepId
  3
DesignerServices
 90
    32768
280
     0
281
     0
  0
CLASS
  1
DEPEDGESECONDARYDEPID
  2
AcAdDepEdgeSecondaryDepId
  3
DesignerServices
 90
    32768
280
     0
281
     0
  0
CLASS
  1
DEPEDGEPATTERNFEATURE
  2
AcAdDepEdgePatternFeature
  3
DesignerServices
 90
    32768
280
     0
281
     0
  0
CLASS
  1
ACADPATTNFEAT
  2
AcAdPatternFeat
  3
DesignerServices
 90
    32768
280
     0
281
     0
  0
CLASS
  1
EDGEID
  2
AcAdEdgeId
  3
DesignerServices
 90
    32768
280
     0
281
     0
  0
CLASS
  1
ADFILLET
  2
AcAdFillet
  3
DesignerServices
 90
    32768
280
     0
281
     0
  0
CLASS
  1
ACAD_CIRCLE
  2
AcAdCircle
  3
DesignerServices
 90
    32768
280
     0
281
     1
  0
CLASS
  1
ACADCIRCLEACAD
  2
AcAdVirtualCircleAcad
  3
DesignerServices
 90
    32768
280
     0
281
     0
  0
CLASS
  1
ACADCONSCIRCLE
  2
AcAdConstrainedCircle
  3
DesignerServices
 90
    32768
280
     0
281
     0
  0
CLASS
  1
ADCTRPTCNS
  2
AcAdCenterPointConstr
  3
DesignerServices
 90
    32768
280
     0
281
     0
  0
CLASS
  1
ADACADDIACNS
  2
AcAdAcadDiameterConstr
  3
DesignerServices
 90
    32768
280
     0
281
     0
  0
CLASS
  1
ADCONCCNS
  2
AcAdConcentricConstr
  3
DesignerServices
 90
    32768
280
     0
281
     0
  0
CLASS
  1
CIRREFID
  2
AcAdCircleRefId
  3
DesignerServices
 90
    32768
280
     0
281
     0
  0
CLASS
  1
ACADCIRCDEPID
  2
AcAdVirtualCircleDepId
  3
DesignerServices
 90
    32768
280
     0
281
     0
  0
CLASS
  1
DATUMAXISDISPLAY
  2
AcAdDatumAxisDisplay
  3
DesignerServices
 90
    32768
280
     0
281
     1
  0
CLASS
  1
DATUMPLANEDISPLAY
  2
AcAdDatumPlaneDisplay
  3
DesignerServices
 90
    32768
280
     0
281
     1
  0
CLASS
  1
ADDATUMPLANEAXISPLANE
  2
AcAdDatumPlaneAxisPlane
  3
DesignerServices
 90
    32768
280
     0
281
     0
  0
CLASS
  1
ACADBOUNDEDLINEDATUMID
  2
AcAdVirtualBoundedLineDatumId
  3
DesignerServices
 90
    32768
280
     0
281
     0
  0
CLASS
  1
ACMEROTATIONARROW
  2
AcImRotationArrowDisplay
  3
AcMeServices
 90
    32768
280
     0
281
     1
  0
CLASS
  1
ACMEAXIS
  2
AcImAxisDisplay
  3
AcMeServices
 90
    32768
280
     0
281
     1
  0
CLASS
  1
AM_VIEW_SELECT_FILTER
  2
AcDmSelectViewEntFilter
  3
AcMechDwgViewMgmt
 90
    32768
280
     0
281
     0
  0
CLASS
  1
FACEID
  2
AcAdFaceId
  3
DesignerServices
 90
    32768
280
     0
281
     0
  0
CLASS
  1
DEPEDGEPATTERNINSTANCE
  2
AcAdDepEdgePatternInstance
  3
DesignerServices
 90
    32768
280
     0
281
     0
  0
CLASS
  1
ACADPARTPLANARFACERES
  2
AcAdPartPlanarFaceRes
  3
AdGrefServices
 90
    32768
280
     0
281
     0
  0
CLASS
  1
ACRFINSADJ
  2
AcRfInsAdjuster
  3
AcMeServices
 90
    32768
280
     0
281
     0
  0
CLASS
  1
AM_GREF_PLANE
  2
AcDmGrefPlnDef
  3
AcMechDwgViewMgmt
 90
    32768
280
     0
281
     0
  0
CLASS
  1
ACADPARTLINEDGRES
  2
AcAdPartLinEdgRes
  3
AdGrefServices
 90
    32768
280
     0
281
     0
  0
CLASS
  1
AM_GREF_AXIS
  2
AcDmGrefAxisDef
  3
AcMechDwgViewMgmt
 90
    32768
280
     0
281
     0
  0
CLASS
  1
AM_BASE_VIEW_ORIENT
  2
AcDmBaseViewOr
  3
AcMechDwgViewMgmt
 90
    32768
280
     0
281
     0
  0
CLASS
  1
AM_DWG_VIEWPORT
  2
AcDmViewport
  3
AcMechDwgViewMgmt
 90
    32768
280
     0
281
     0
  0
CLASS
  1
AM_VIEW_DISPLAY
  2
AcDmDwgViewDisplay
  3
AcMechDwgViewMgmt
 90
    32768
280
     0
281
     0
  0
CLASS
  1
AM_CLDFLTS
  2
AcDmClDflts
  3
AcMechDwgViewMgmt
 90
    32768
280
     0
281
     0
  0
CLASS
  1
AM_BASE_VIEW
  2
AcDmBaseView
  3
AcMechDwgViewMgmt
 90
    32768
280
     0
281
     0
  0
CLASS
  1
AM_ORTHO_VIEW_ORIENT
  2
AcDmOrthoViewOr
  3
AcMechDwgViewMgmt
 90
    32768
280
     0
281
     0
  0
CLASS
  1
AM_ORTHO_VIEW
  2
AcDmOrthoView
  3
AcMechDwgViewMgmt
 90
    32768
280
     0
281
     0
  0
CLASS
  1
ACDMPARTVIEWDATA
  2
AcDmPartViewData
  3
AcMechDwgViewMgmt
 90
    32768
280
     0
281
     0
  0
CLASS
  1
ACDMDISPLAYATTRIBS
  2
AcDmDisplayAttribs
  3
AcMechDwgViewMgmt
 90
    32768
280
     0
281
     0
  0
CLASS
  1
ACDMBODYINSTANCEDATA
  2
AcDmBodyInstanceData
  3
AcMechDwgViewMgmt
 90
    32768
280
     0
281
     0
  0
CLASS
  1
ACDMVWEDLINE
  2
AcDmViewEdgeLine
  3
AcMechDwgViewMgmt
 90
    32768
280
     0
281
     1
  0
CLASS
  1
ACDMVWEDCIRC
  2
AcDmViewEdgeCircle
  3
AcMechDwgViewMgmt
 90
    32768
280
     0
281
     1
  0
CLASS
  1
AM_ADCIRCTRLINE
  2
AcAdBullsEyeCl
  3
DesignerServices
 90
    32768
280
     0
281
     0
  0
CLASS
  1
AD_CIRCTAPH
  2
AcAdTapHoleCircDisp
  3
DesignerServices
 90
    32768
280
     0
281
     0
  0
CLASS
  1
ACADPARTCIRCEDGRES
  2
AcAdPartCircEdgRes
  3
AdGrefServices
 90
    32768
280
     0
281
     0
  0
CLASS
  1
AM_GREF_POINT
  2
AcDmGrefPntDef
  3
AcMechDwgViewMgmt
 90
    32768
280
     0
281
     0
  0
CLASS
  1
AM_FULLPOINTSECTION
  2
AcDmFullPointSection
  3
AcMechDwgViewMgmt
 90
    32768
280
     0
281
     0
  0
CLASS
  1
AMDTSECTIONSYM
  2
AmdtSectionSym
  3
"AcmSymBB|Product Description: AutoCAD Mechanical 2004 DX|Company: Autodesk"
 90
    33791
280
     0
281
     1
  0
CLASS
  1
AM_VWNOTEADAPTER
  2
AcDmViewAnnotAdapter
  3
AcMechDwgViewMgmt
 90
    32768
280
     0
281
     0
  0
CLASS
  1
AMDTSECTIONSYMLABEL
  2
AmdtSectionSymLabel
  3
"AcmSymBB|Product Description: AutoCAD Mechanical 2004 DX|Company: Autodesk"
 90
    33791
280
     0
281
     1
  0
CLASS
  1
ACDMVWEDSPLINE
  2
AcDmViewEdgeSpline
  3
AcMechDwgViewMgmt
 90
    32768
280
     0
281
     1
  0
CLASS
  1
ACDMVWEDARC
  2
AcDmViewEdgeArc
  3
AcMechDwgViewMgmt
 90
    32768
280
     0
281
     1
  0
CLASS
  1
AM_ADLINCTRLINE
  2
AcAdLineCl
  3
DesignerServices
 90
    32768
280
     0
281
     0
  0
CLASS
  1
AD_LINETAPH
  2
AcAdTapHoleLineDisp
  3
DesignerServices
 90
    32768
280
     0
281
     0
  0
CLASS
  1
ACDMVIEWGEOM
  2
AcDmViewGeometry
  3
AcMechDwgViewMgmt
 90
    32768
280
     0
281
     1
  0
CLASS
  1
CNRREFID
  2
AcAdCornerId
  3
DesignerServices
 90
    32768
280
     0
281
     0
  0
CLASS
  1
ACADPARTPOINTRES
  2
AcAdPartPointRes
  3
AdGrefServices
 90
    32768
280
     0
281
     0
  0
CLASS
  1
AM_VIEWDIMLINEAR
  2
AcDmViewDimLinear
  3
AcMechDwgViewMgmt
 90
    32768
280
     0
281
     0
  0
CLASS
  1
ACDBLINERES
  2
AcDbLineRes
  3
AcGrefServices
 90
    32768
280
     0
281
     0
  0
CLASS
  1
ACRFDMINSADJ
  2
AcRfDMInsAdjuster
  3
AcMechDwgViewMgmt
 90
    32768
280
     0
281
     0
  0
CLASS
  1
ACDMGREFEDIT
  2
AcDmViewEntityGeomrefEdit
  3
AcMechDwgViewMgmt
 90
    32768
280
     0
281
     0
  0
CLASS
  1
ACDMVIEWLINEDGERES
  2
AcDmViewLinEdgeRes
  3
AcMechDwgViewMgmt
 90
    32768
280
     0
281
     0
  0
CLASS
  1
ACADPARTCYLINDERFACERES
  2
AcAdPartCylinderFaceRes
  3
AdGrefServices
 90
    32768
280
     0
281
     0
  0
CLASS
  1
AM_ABS_PLANE
  2
AcDmAbsPlnDef
  3
AcMechDwgViewMgmt
 90
    32768
280
     0
281
     0
  0
CLASS
  1
AM_ABS_AXIS
  2
AcDmAbsAxisDef
  3
AcMechDwgViewMgmt
 90
    32768
280
     0
281
     0
  0
CLASS
  1
ACADPARTDATUMPLANERES
  2
AcAdPartDatumPlaneRes
  3
AdGrefServices
 90
    32768
280
     0
281
     0
  0
CLASS
  1
ACADPARTAXISRES
  2
AcAdPartAxisRes
  3
AdGrefServices
 90
    32768
280
     0
281
     0
  0
CLASS
  1
AM_ISO_VIEW_ORIENT
  2
AcDmIsoViewOr
  3
AcMechDwgViewMgmt
 90
    32768
280
     0
281
     0
  0
CLASS
  1
AM_ISO_VIEW
  2
AcDmIsoView
  3
AcMechDwgViewMgmt
 90
    32768
280
     0
281
     0
  0
CLASS
  1
ACADPARTSPLINEEDGERES
  2
AcAdPartSplineEdgeRes
  3
AdGrefServices
 90
    32768
280
     0
281
     0
  0
CLASS
  1
SILEDGEID
  2
AcAdSilhouetteEdgeId
  3
DesignerServices
 90
    32768
280
     0
281
     0
  0
CLASS
  1
AM_ABS_POINT
  2
AcDmAbsPntDef
  3
AcMechDwgViewMgmt
 90
    32768
280
     0
281
     0
  0
CLASS
  1
ACADPARTCONICALFACERES
  2
AcAdPartConicalFaceRes
  3
AdGrefServices
 90
    32768
280
     0
281
     0
  0
CLASS
  1
AM_VIEWDIMANGULAR
  2
AcDmViewDimAngular
  3
AcMechDwgViewMgmt
 90
    32768
280
     0
281
     0
  0
CLASS
  1
ACAMEXTERNALCOMPDEF
  2
AcAmExternalCompDef
  3
DesignerAssemblies
 90
    32768
280
     0
281
     0
  0
CLASS
  1
ACAMEXPR
  2
AcAmExpr
  3
DesignerAssemblies
 90
    32768
280
     0
281
     0
  0
CLASS
  1
ACCMINSERTPLPL
  2
AcCmInsertPlPl
  3
AcCmServices
 90
    32768
280
     0
281
     0
  0
CLASS
  1
ACCMCONSTREACTOR
  2
AcCmConstraintReactor
  3
DesignerAssemblies
 90
    32768
280
     0
281
     0
  0
CLASS
  1
ACCMDISTLNLN
  2
AcCmDistLnLn
  3
DesignerAssemblies
 90
    32768
280
     0
281
     0
  0
CLASS
  1
ACCMDISTPLPL
  2
AcCmDistPlPl
  3
DesignerAssemblies
 90
    32768
280
     0
281
     0
  0
CLASS
  1
ACAMVIEWREACTOR
  2
AcAmViewReactor
  3
DesignerAssemblies
 90
    32768
280
     0
281
     0
  0
CLASS
  1
AMVIEW
  2
AcAmView
  3
DesignerAssemblies
 90
    32768
280
     0
281
     0
  0
CLASS
  1
ACAMVIEWCONTEXT
  2
AcAmViewContext
  3
DesignerAssemblies
 90
    32768
280
     0
281
     0
  0
CLASS
  1
ACAMCOMPENTVIEW
  2
AcAmCompEntView
  3
DesignerAssemblies
 90
    32768
280
     0
281
     1
  0
CLASS
  1
ACAMCOMPVIEWREACTOR
  2
AcAmGrCompViewReactor
  3
DesignerAssemblies
 90
    32768
280
     0
281
     0
  0
CLASS
  1
ACAMVIEWENTITYFILTER
  2
AcAmViewEntityFilter
  3
DesignerAssemblies
 90
    32768
280
     0
281
     0
  0
CLASS
  1
ACMSTANDARDANSI
  2
AcmStandardANSI
  3
"Amdt_StdImp|Product Description: AutoCAD Mechanical 2004 DX|Company: Autodesk"
 90
    32768
280
     0
281
     0
  0
CLASS
  1
ACMSURFSTANDARDANSI
  2
AcmSurfTextStdANSI
  3
"Amdt_StdImp|Product Description: AutoCAD Mechanical 2004 DX|Company: Autodesk"
 90
    32768
280
     0
281
     0
  0
CLASS
  1
ACMFCFSTANDARDANSI
  2
AcmFCFStdANSI
  3
"Amdt_StdImp|Product Description: AutoCAD Mechanical 2004 DX|Company: Autodesk"
 90
    32768
280
     0
281
     0
  0
CLASS
  1
ACMWELDSTANDARDANSI
  2
AcmWeldingStdANSI
  3
"Amdt_StdImp|Product Description: AutoCAD Mechanical 2004 DX|Company: Autodesk"
 90
    32768
280
     0
281
     0
  0
CLASS
  1
ACMIDSTANDARDANSI
  2
AcmIdStdANSI
  3
"Amdt_StdImp|Product Description: AutoCAD Mechanical 2004 DX|Company: Autodesk"
 90
    32768
280
     0
281
     0
  0
CLASS
  1
ACMDATUMSTANDARDANSI
  2
AcmDatumStdANSI
  3
"Amdt_StdImp|Product Description: AutoCAD Mechanical 2004 DX|Company: Autodesk"
 90
    32768
280
     0
281
     0
  0
CLASS
  1
ACMBOMSTANDARDANSI
  2
AcmBOMStdANSI
  3
"Amdt_StdImp|Product Description: AutoCAD Mechanical 2004 DX|Company: Autodesk"
 90
    32768
280
     0
281
     0
  0
CLASS
  1
ACMDETAILSTANDARDANSI
  2
AmdtDetailSymStdANSI
  3
"Amdt_StdImp|Product Description: AutoCAD Mechanical 2004 DX|Company: Autodesk"
 90
    32768
280
     0
281
     0
  0
CLASS
  1
ACMSECTIONSTANDARDANSI
  2
AmdtSectionSymStdANSI
  3
"Amdt_StdImp|Product Description: AutoCAD Mechanical 2004 DX|Company: Autodesk"
 90
    32768
280
     0
281
     0
  0
CLASS
  1
ACMCENTERLINESTANDARDANSI
  2
AmdtCenterLineStdANSI
  3
"Amdt_StdImp|Product Description: AutoCAD Mechanical 2004 DX|Company: Autodesk"
 90
    32768
280
     0
281
     0
  0
CLASS
  1
ACMTHREADLINESTANDARDANSI
  2
AmdtThreadLineStdANSI
  3
"Amdt_StdImp|Product Description: AutoCAD Mechanical 2004 DX|Company: Autodesk"
 90
    32768
280
     0
281
     0
  0
CLASS
  1
ACMNOTESTANDARDANSI
  2
AmdtNoteStdANSI
  3
"Amdt_StdImp|Product Description: AutoCAD Mechanical 2004 DX|Company: Autodesk"
 90
    32768
280
     0
281
     0
  0
CLASS
  1
ACAMGHOLECHARTSTDANSI
  2
AcAmgHoleChartStdANSI
  3
ACMSYMBB_MODULE_NAME
 90
    32768
280
     0
281
     0
  0
CLASS
  1
ACADPARTTORUSFACERES
  2
AcAdPartTorusFaceRes
  3
AdGrefServices
 90
    32768
280
     0
281
     0
  0
CLASS
  1
ACCMDISTPTPT
  2
AcCmDistPtPt
  3
DesignerAssemblies
 90
    32768
280
     0
281
     0
  0
CLASS
  1
ACCMANGVECVEC
  2
AcCmAngVecVec
  3
DesignerAssemblies
 90
    32768
280
     0
281
     0
  0
CLASS
  1
ACDMVISEDIT
  2
AcDmViewEntityVisEdit
  3
AcMechDwgViewMgmt
 90
    32768
280
     0
281
     0
  0
CLASS
  1
AMDTNOTE
  2
AmdtNote
  3
"AcmSymBB|Product Description: AutoCAD Mechanical 2004 DX|Company: Autodesk"
 90
    33791
280
     0
281
     1
  0
CLASS
  1
TABLESTYLE
  2
AcDbTableStyle
  3
ObjectDBX Classes
 90
     2047
280
     0
281
     0
  0
CLASS
  1
VAACXREFPANELOBJECT
  2
VaAcXREFPanelObject
  3
VAAC_ADDIN
 90
    32768
280
     0
281
     0
  0
CLASS
  1
VAACIMAGEINVENTORY
  2
VaAcImageInventory
  3
VAAC_ADDIN
 90
    32768
280
     0
281
     0
  0
CLASS
  1
AMDTEDGESTANDARDISO13715
  2
AmdtEdgeStdISO13715
  3
"Amdt_StdImp|Product Description: AutoCAD Mechanical 2004 DX|Company: Autodesk"
 90
        0
280
     0
281
     0
  0
CLASS
  1
AMDTNOTETEMPLATEDB
  2
AmdtNoteTemplateDB
  3
AMDT_STDIMP_MODULE_NAME
 90
        0
280
     0
281
     0
  0
ENDSEC
  0
SECTION
  2
TABLES
  0
TABLE
  2
VPORT
  5
1A
330
0
100
AcDbSymbolTable
 70
     6
  0
VPORT
  5
156C
330
1A
100
AcDbSymbolTableRecord
100
AcDbViewportTableRecord
  2
*Active
 70
     0
 10
0.0
 20
0.0
 11
1.0
 21
1.0
 12
19.22382512459262
 22
-31.78188157374116
 13
0.0
 23
0.0
 14
2.5
 24
2.5
 15
10.0
 25
10.0
 16
0.0
 26
0.0
 36
1.0
 17
179.589701992689
 27
241.431900185452
 37
0.0
 40
209.9698972731793
 41
1.263157894736842
 42
50.0
 43
0.0
 44
0.0
 50
0.0
 51
0.0
 71
     0
 72
   100
 73
     1
 74
     3
 75
     0
 76
     0
 77
     0
 78
     0
281
     0
 65
     0
110
0.0
120
0.0
130
0.0
111
1.0
121
0.0
131
0.0
112
0.0
122
1.0
132
0.0
 79
     0
146
0.0
  0
ENDTAB
  0
TABLE
  2
LTYPE
  5
15
330
0
100
AcDbSymbolTable
 70
    16
  0
LTYPE
  5
16
330
15
100
AcDbSymbolTableRecord
100
AcDbLinetypeTableRecord
  2
ByBlock
 70
     0
  3

 72
    65
 73
     0
 40
0.0
  0
LTYPE
  5
17
330
15
100
AcDbSymbolTableRecord
100
AcDbLinetypeTableRecord
  2
ByLayer
 70
     0
  3

 72
    65
 73
     0
 40
0.0
  0
LTYPE
  5
9
330
15
100
AcDbSymbolTableRecord
100
AcDbLinetypeTableRecord
  2
Continuous
 70
     0
  3
Solid line
 72
    65
 73
     0
 40
0.0
  0
LTYPE
  5
50
330
15
100
AcDbSymbolTableRecord
100
AcDbLinetypeTableRecord
  2
AM_ISO02W050
 70
     0
  3
__ __ __ __ __ __ __ __ __ __ __ __ __ __ __
 72
    65
 73
     2
 40
7.5
 49
6.0
 74
     0
 49
-1.5
 74
     0
  0
LTYPE
  5
2B
330
15
100
AcDbSymbolTableRecord
100
AcDbLinetypeTableRecord
  2
AM_ISO08W050
 70
     0
  3
____ . ____ . ____ . ____ . ____ . ____ . ____
 72
    65
 73
     4
 40
18.0
 49
12.0
 74
     0
 49
-1.5
 74
     0
 49
3.0
 74
     0
 49
-1.5
 74
     0
  0
LTYPE
  5
172
330
15
100
AcDbSymbolTableRecord
100
AcDbLinetypeTableRecord
  2
AM_ISO09W050
 70
     0
  3
_____ . . _____ . . _____ . . ____ .. ____
 72
    65
 73
     6
 40
22.5
 49
12.0
 74
     0
 49
-1.5
 74
     0
 49
3.0
 74
     0
 49
-1.5
 74
     0
 49
3.0
 74
     0
 49
-1.5
 74
     0
  0
LTYPE
  5
173
330
15
100
AcDbSymbolTableRecord
100
AcDbLinetypeTableRecord
  2
Amconstr
 70
     0
  3
_______________________
 72
    65
 73
     2
 40
9999.0
 49
9999.0
 74
     0
 49
0.0
 74
     0
  0
LTYPE
  5
174
330
15
100
AcDbSymbolTableRecord
100
AcDbLinetypeTableRecord
  2
AM_ISO08W050x2
 70
     0
  3
__ . __ . __ . __ . __ . __
 72
    65
 73
     4
 40
9.0
 49
6.0
 74
     0
 49
-0.75
 74
     0
 49
1.5
 74
     0
 49
-0.75
 74
     0
  0
LTYPE
  5
175
330
15
100
AcDbSymbolTableRecord
100
AcDbLinetypeTableRecord
  2
AM_ISO02W050x2
 70
     0
  3
 _ _ _ _ _ _ _ _ _ _ _ _
 72
    65
 73
     2
 40
3.75
 49
3.0
 74
     0
 49
-0.75
 74
     0
  0
LTYPE
  5
178
330
15
100
AcDbSymbolTableRecord
100
AcDbLinetypeTableRecord
  2
Amzigzag
 70
     0
  3
/\/-/\/-/\/-/\/-/\/-/\/
 72
    65
 73
     2
 40
11.0001
 49
0.0001
 74
     4
 75
   135
340
177
 46
0.04
 50
0.0
 44
0.0
 45
0.0
 49
-11.0
 74
     0
  0
LTYPE
  5
186
330
15
100
AcDbSymbolTableRecord
100
AcDbLinetypeTableRecord
  2
ACISOWELD
 70
     0
  3
_ _ _ _ _
 72
    65
 73
     2
 40
2.0
 49
2.0
 74
     0
 49
-1.0
 74
     0
  0
LTYPE
  5
187
330
15
100
AcDbSymbolTableRecord
100
AcDbLinetypeTableRecord
  2
ACISOTGB
 70
     0
  3
__ . . __ . .
 72
    65
 73
     6
 40
9.0
 49
4.0
 74
     0
 49
-1.0
 74
     0
 49
1.0
 74
     0
 49
-1.0
 74
     0
 49
1.0
 74
     0
 49
-1.0
 74
     0
  0
LTYPE
  5
188
330
15
100
AcDbSymbolTableRecord
100
AcDbLinetypeTableRecord
  2
ACISOTGL
 70
     0
  3
_ _ _ _ _
 72
    65
 73
     2
 40
3.0
 49
2.0
 74
     0
 49
-1.0
 74
     0
  0
LTYPE
  5
189
330
15
100
AcDbSymbolTableRecord
100
AcDbLinetypeTableRecord
  2
CENTER
 70
     0
  3
__ . __
 72
    65
 73
     4
 40
7.0
 49
4.0
 74
     0
 49
-1.0
 74
     0
 49
1.0
 74
     0
 49
-1.0
 74
     0
  0
LTYPE
  5
1265
330
15
100
AcDbSymbolTableRecord
100
AcDbLinetypeTableRecord
  2
HIDDEN
 70
     0
  3
Hidden __ __ __ __ __ __ __ __ __ __ __ __ __ _
 72
    65
 73
     2
 40
9.524999999999998
 49
6.349999999999999
 74
     0
 49
-3.174999999999999
 74
     0
  0
LTYPE
  5
1266
330
15
100
AcDbSymbolTableRecord
100
AcDbLinetypeTableRecord
  2
PHANTOM2
 70
     0
  3
Phantom (.5x) ___ _ _ ___ _ _ ___ _ _ ___ _ _
 72
    65
 73
     6
 40
31.75
 49
15.875
 74
     0
 49
-3.174999999999999
 74
     0
 49
3.174999999999999
 74
     0
 49
-3.174999999999999
 74
     0
 49
3.174999999999999
 74
     0
 49
-3.174999999999999
 74
     0
  0
LTYPE
  5
1503
330
15
100
AcDbSymbolTableRecord
100
AcDbLinetypeTableRecord
  2
ASULTYPE
 70
     0
  3
實線
 72
    65
 73
     2
 40
3.0
 49
2.5
 74
     0
 49
0.5
 74
     0
  0
LTYPE
  5
1504
330
15
100
AcDbSymbolTableRecord
100
AcDbLinetypeTableRecord
  2
ASVLTYPE
 70
     0
  3
__ __ __ __ __ __ __ __ __ __ __ __ __ __ __ __ __ __ __ __ __
 72
    65
 73
     2
 40
0.75
 49
0.5
 74
     0
 49
-0.25
 74
     0
  0
ENDTAB
  0
TABLE
  2
LAYER
  5
11
330
0
100
AcDbSymbolTable
 70
     8
  0
LAYER
  5
5
330
11
100
AcDbSymbolTableRecord
100
AcDbLayerTableRecord
  2
0
 70
     0
 62
     7
  6
Continuous
370
    -3
390
6
  0
LAYER
  5
2A
330
11
100
AcDbSymbolTableRecord
100
AcDbLayerTableRecord
  2
AM_7
 70
     0
 62
     1
  6
AM_ISO08W050
370
    25
390
6
  0
LAYER
  5
3E
330
11
100
AcDbSymbolTableRecord
100
AcDbLayerTableRecord
  2
AM_4
 70
     0
 62
     3
  6
Continuous
370
    25
390
6
  0
LAYER
  5
5C
330
11
100
AcDbSymbolTableRecord
100
AcDbLayerTableRecord
  2
AM_VIS
 70
     0
 62
     7
  6
Continuous
370
    50
390
6
  0
LAYER
  5
60
330
11
100
AcDbSymbolTableRecord
100
AcDbLayerTableRecord
  2
AM_HID
 70
     0
 62
     3
  6
AM_ISO02W050
370
    25
390
6
  0
LAYER
  5
519
330
11
100
AcDbSymbolTableRecord
100
AcDbLayerTableRecord
  2
Defpoints
 70
     0
 62
     7
  6
Continuous
290
     0
370
    -3
390
6
  0
LAYER
  5
568
330
11
100
AcDbSymbolTableRecord
100
AcDbLayerTableRecord
  2
AM_5
 70
     0
 62
     5
  6
Continuous
370
    50
390
6
  0
LAYER
  5
1297
330
11
100
AcDbSymbolTableRecord
100
AcDbLayerTableRecord
  2
LOGO
 70
     0
 62
     7
  6
Continuous
370
    -3
390
6
  0
ENDTAB
  0
TABLE
  2
STYLE
  5
12
330
0
100
AcDbSymbolTable
 70
     5
  0
STYLE
  5
13
330
12
100
AcDbSymbolTableRecord
100
AcDbTextStyleTableRecord
  2
STANDARD
 70
     0
 40
0.0
 41
1.0
 50
0.0
 71
     0
 42
3.0
  3
ISOCP.SHX
  4
CHINESET.SHX
  0
STYLE
  5
177
330
12
100
AcDbSymbolTableRecord
100
AcDbTextStyleTableRecord
  2

 70
     1
 40
0.0
 41
1.0
 50
0.0
 71
     0
 42
3.0
  3
ltypeshp.shx
  4

  0
STYLE
  5
179
330
12
100
AcDbSymbolTableRecord
100
AcDbTextStyleTableRecord
  2
ACISOTS
 70
     0
 40
1.0
 41
1.0
 50
0.0
 71
     0
 42
3.0
  3
isocp.shx
  4
chineset.shx
  0
STYLE
  5
185
330
12
100
AcDbSymbolTableRecord
100
AcDbTextStyleTableRecord
  2
ACISOGDT
 70
     0
 40
0.0
 41
1.0
 50
0.0
 71
     0
 42
3.0
  3
amgdt.shx
  4

  0
STYLE
  5
51F
330
12
100
AcDbSymbolTableRecord
100
AcDbTextStyleTableRecord
  2
CHINESET
 70
     0
 40
0.0
 41
1.0
 50
0.0
 71
     0
 42
2.5
  3
simplex.shx
  4
CHINESET.shx
  0
ENDTAB
  0
TABLE
  2
VIEW
  5
18
330
0
100
AcDbSymbolTable
 70
     0
  0
ENDTAB
  0
TABLE
  2
UCS
  5
19
330
0
100
AcDbSymbolTable
 70
     0
  0
ENDTAB
  0
TABLE
  2
APPID
  5
1C
330
0
100
AcDbSymbolTable
 70
    19
  0
APPID
  5
1D
330
1C
100
AcDbSymbolTableRecord
100
AcDbRegAppTableRecord
  2
ACAD
 70
     0
  0
APPID
  5
154
330
1C
100
AcDbSymbolTableRecord
100
AcDbRegAppTableRecord
  2
MCAD_NO_VIS
 70
     0
  0
APPID
  5
155
330
1C
100
AcDbSymbolTableRecord
100
AcDbRegAppTableRecord
  2
ACAD_TEMP_GRAPHIC
 70
     0
  0
APPID
  5
166
330
1C
100
AcDbSymbolTableRecord
100
AcDbRegAppTableRecord
  2
ACATTRIBSERVICES
 70
     0
  0
APPID
  5
D06
330
1C
100
AcDbSymbolTableRecord
100
AcDbRegAppTableRecord
  2
GENIUS_GENDIMSH_14
 70
     0
  0
APPID
  5
1268
330
1C
100
AcDbSymbolTableRecord
100
AcDbRegAppTableRecord
  2
AD_DRAW
 70
     0
  0
APPID
  5
1286
330
1C
100
AcDbSymbolTableRecord
100
AcDbRegAppTableRecord
  2
DESIGNERASSEMBLIES
 70
     0
  0
APPID
  5
128B
330
1C
100
AcDbSymbolTableRecord
100
AcDbRegAppTableRecord
  2
ACADM_DIM_EDIT
 70
     0
  0
APPID
  5
128C
330
1C
100
AcDbSymbolTableRecord
100
AcDbRegAppTableRecord
  2
AMDT_DM_ADJ
 70
     0
  0
APPID
  5
1299
330
1C
100
AcDbSymbolTableRecord
100
AcDbRegAppTableRecord
  2
GENIUS_GENODEF_13
 70
     0
  0
APPID
  5
129A
330
1C
100
AcDbSymbolTableRecord
100
AcDbRegAppTableRecord
  2
GENIUS_GENREC_14
 70
     0
  0
APPID
  5
129B
330
1C
100
AcDbSymbolTableRecord
100
AcDbRegAppTableRecord
  2
GENIUS_GENOBJ-N-REC_13
 70
     0
  0
APPID
  5
1430
330
1C
100
AcDbSymbolTableRecord
100
AcDbRegAppTableRecord
  2
GENIUS_GENOBJ-N-CEN_13
 70
     0
  0
APPID
  5
1431
330
1C
100
AcDbSymbolTableRecord
100
AcDbRegAppTableRecord
  2
GENIUS_GENCEN_19
 70
     0
  0
APPID
  5
1485
330
1C
100
AcDbSymbolTableRecord
100
AcDbRegAppTableRecord
  2
GENIUS_GENDIM_13
 70
     0
  0
APPID
  5
1486
330
1C
100
AcDbSymbolTableRecord
100
AcDbRegAppTableRecord
  2
GENIUS_GENDTOL_13
 70
     0
  0
APPID
  5
1487
330
1C
100
AcDbSymbolTableRecord
100
AcDbRegAppTableRecord
  2
GENIUS_GE3DTOL_13
 70
     0
  0
APPID
  5
1505
330
1C
100
AcDbSymbolTableRecord
100
AcDbRegAppTableRecord
  2
ASURF_PCURVE_APPNAME
 70
     0
  0
APPID
  5
150A
330
1C
100
AcDbSymbolTableRecord
100
AcDbRegAppTableRecord
  2
AMG_3D2D_5.0
 70
     0
  0
ENDTAB
  0
TABLE
  2
DIMSTYLE
  5
1E
330
0
100
AcDbSymbolTable
 70
     7
100
AcDbDimStyleTable
 71
     1
340
1F
  0
DIMSTYLE
105
1F
102
{ACAD_REACTORS
330
8E9
330
92A
330
981
330
9C2
330
A03
330
A44
330
A85
330
AC6
330
B07
102
}
330
1E
100
AcDbSymbolTableRecord
100
AcDbDimStyleTableRecord
  2
AM_ISO
 70
     0
  4
"
 41
3.0
 42
1.0
 43
6.0
 44
1.5
 47
0.1
 48
0.1
 73
     0
 74
     0
 77
     1
 78
     8
 79
     2
140
3.0
141
0.0
143
0.0393701
146
0.71
147
0.8
172
     1
176
   256
177
   256
178
   256
271
     2
272
     2
283
     0
284
     8
340
13
371
    -1
372
    -1
  0
DIMSTYLE
105
18C
330
1E
100
AcDbSymbolTableRecord
100
AcDbDimStyleTableRecord
  2
AM_ISO$3
 70
     0
  4
"
 41
3.0
 42
1.0
 43
6.0
 44
1.5
 47
0.1
 48
0.1
 73
     0
 77
     1
 78
     8
 79
     2
140
3.0
141
0.0
143
0.0393701
146
0.71
147
0.8
176
   256
177
   256
178
   256
271
     2
272
     2
283
     0
284
     8
288
     1
289
     0
340
13
371
    -1
372
    -1
  0
DIMSTYLE
105
18D
330
1E
100
AcDbSymbolTableRecord
100
AcDbDimStyleTableRecord
  2
AM_ISO$4
 70
     0
  4
"
 41
3.0
 42
1.0
 43
6.0
 44
1.5
 47
0.1
 48
0.1
 73
     0
 77
     1
 78
     8
 79
     2
140
3.0
141
0.0
143
0.0393701
146
0.71
147
0.8
176
   256
177
   256
178
   256
271
     2
272
     2
283
     0
284
     8
288
     1
289
     0
340
13
371
    -1
372
    -1
  0
DIMSTYLE
105
18E
330
1E
100
AcDbSymbolTableRecord
100
AcDbDimStyleTableRecord
  2
AM_ISO$6
 70
     0
  4
"
 41
3.0
 42
1.0
 43
6.0
 44
1.5
 47
0.1
 48
0.1
 73
     0
 74
     0
 78
     8
 79
     2
140
3.0
141
0.0
143
0.0393701
146
0.71
147
0.8
172
     1
176
   256
177
   256
178
   256
271
     2
272
     2
283
     0
284
     8
340
13
371
    -1
372
    -1
  0
DIMSTYLE
105
18F
330
1E
100
AcDbSymbolTableRecord
100
AcDbDimStyleTableRecord
  2
AM_ISO$7
 70
     0
  4
"
 41
2.5
 42
1.0
 43
6.0
 44
1.5
 47
0.1
 48
0.1
 73
     0
 74
     0
 77
     1
 78
     8
 79
     2
140
5.0
141
0.0
143
0.0393701
146
0.71
147
1.5
172
     1
176
   256
177
   256
178
   256
271
     2
272
     2
283
     0
284
     8
340
13
371
    -1
372
    -1
  0
DIMSTYLE
105
190
330
1E
100
AcDbSymbolTableRecord
100
AcDbDimStyleTableRecord
  2
AM_ISO$SF
 70
     0
  4
"
 41
3.0
 42
1.5
 43
7.0
 44
2.0
 47
0.1
 48
0.1
 73
     0
 74
     0
 75
     1
 76
     1
 77
     1
 78
     8
 79
     2
140
3.0
141
0.0
143
0.0393701
146
0.71
147
0.8
172
     1
176
   256
177
   256
178
   256
271
     2
272
     2
283
     0
284
     8
340
13
371
    -1
372
    -1
  0
DIMSTYLE
105
195
330
1E
100
AcDbSymbolTableRecord
100
AcDbDimStyleTableRecord
  2
AM_ISO$SH
 70
     0
  4
"
 41
3.0
 42
1.5
 43
7.0
 44
2.0
 47
0.1
 48
0.1
 73
     0
 74
     0
 75
     1
 76
     1
 77
     1
 78
     8
 79
     2
140
3.0
141
0.0
143
0.0393701
144
2.0
146
0.71
147
0.8
172
     1
173
     1
176
   256
177
   256
178
   256
271
     2
272
     2
283
     0
284
     8
340
13
343
191
371
    -1
372
    -1
  0
ENDTAB
  0
TABLE
  2
BLOCK_RECORD
  5
1
330
0
100
AcDbSymbolTable
 70
    13
  0
BLOCK_RECORD
  5
2
102
{ACAD_XDICTIONARY
360
3
102
}
330
1
100
AcDbSymbolTableRecord
100
AcDbBlockTableRecord
  2
*Model_Space
340
B
  0
BLOCK_RECORD
  5
D
330
1
100
AcDbSymbolTableRecord
100
AcDbBlockTableRecord
  2
*Paper_Space
340
10
  0
BLOCK_RECORD
  5
191
330
1
100
AcDbSymbolTableRecord
100
AcDbBlockTableRecord
  2
GENAXEH
340
0
  0
BLOCK_RECORD
  5
8EA
330
1
100
AcDbSymbolTableRecord
100
AcDbBlockTableRecord
  2
*D1
340
0
  0
BLOCK_RECORD
  5
92B
330
1
100
AcDbSymbolTableRecord
100
AcDbBlockTableRecord
  2
*D2
340
0
  0
BLOCK_RECORD
  5
982
330
1
100
AcDbSymbolTableRecord
100
AcDbBlockTableRecord
  2
*D3
340
0
  0
BLOCK_RECORD
  5
9C3
330
1
100
AcDbSymbolTableRecord
100
AcDbBlockTableRecord
  2
*D4
340
0
  0
BLOCK_RECORD
  5
A04
330
1
100
AcDbSymbolTableRecord
100
AcDbBlockTableRecord
  2
*D5
340
0
  0
BLOCK_RECORD
  5
A45
330
1
100
AcDbSymbolTableRecord
100
AcDbBlockTableRecord
  2
*D6
340
0
  0
BLOCK_RECORD
  5
A86
330
1
100
AcDbSymbolTableRecord
100
AcDbBlockTableRecord
  2
*D7
340
0
  0
BLOCK_RECORD
  5
AC7
330
1
100
AcDbSymbolTableRecord
100
AcDbBlockTableRecord
  2
*D8
340
0
  0
BLOCK_RECORD
  5
B08
330
1
100
AcDbSymbolTableRecord
100
AcDbBlockTableRecord
  2
*D9
340
0
  0
BLOCK_RECORD
  5
1463
330
1
100
AcDbSymbolTableRecord
100
AcDbBlockTableRecord
  2
*S10
340
0
102
{BLKREFS
331
1056
102
}
  0
BLOCK_RECORD
  5
146B
330
1
100
AcDbSymbolTableRecord
100
AcDbBlockTableRecord
  2
*S11
340
0
102
{BLKREFS
331
110F
102
}
  0
ENDTAB
  0
ENDSEC
  0
SECTION
  2
BLOCKS
  0
BLOCK
  5
4
330
2
100
AcDbEntity
  8
0
100
AcDbBlockBegin
  2
*Model_Space
 70
     0
 10
0.0
 20
0.0
 30
0.0
  3
*Model_Space
  1

  0
ENDBLK
  5
A
330
2
100
AcDbEntity
  8
0
100
AcDbBlockEnd
  0
BLOCK
  5
E
330
D
100
AcDbEntity
 67
     1
  8
0
100
AcDbBlockBegin
  2
*Paper_Space
 70
     0
 10
0.0
 20
0.0
 30
0.0
  3
*Paper_Space
  1

  0
ENDBLK
  5
F
330
D
100
AcDbEntity
 67
     1
  8
0
100
AcDbBlockEnd
  0
BLOCK
  5
193
330
191
100
AcDbEntity
  8
0
100
AcDbBlockBegin
  2
GENAXEH
 70
     0
 10
0.0
 20
0.0
 30
0.0
  3
GENAXEH
  1

  0
LINE
  5
192
330
191
100
AcDbEntity
  8
0
100
AcDbLine
 10
-1.0
 20
0.0
 30
0.0
 11
1.0
 21
0.0
 31
0.0
  0
ENDBLK
  5
194
330
191
100
AcDbEntity
  8
0
100
AcDbBlockEnd
  0
BLOCK
  5
8F4
330
8EA
100
AcDbEntity
  8
0
100
AcDbBlockBegin
  2
*D1
 70
     1
 10
0.0
 20
0.0
 30
0.0
  3
*D1
  1

  0
LINE
  5
13CF
330
8EA
100
AcDbEntity
  8
AM_5
100
AcDbLine
 10
164.9260004196564
 20
243.1252144978442
 30
0.0
 11
164.9260004196564
 21
235.421554799351
 31
0.0
  0
LINE
  5
13D0
330
8EA
100
AcDbEntity
  8
AM_5
100
AcDbLine
 10
142.4260004196564
 20
246.0902144978442
 30
0.0
 11
142.4260004196564
 21
235.421554799351
 31
0.0
  0
LINE
  5
13D1
330
8EA
100
AcDbEntity
  8
AM_5
100
AcDbLine
 10
161.9260004196565
 20
236.9215547993511
 30
0.0
 11
145.4260004196564
 21
236.9215547993511
 31
0.0
  0
SOLID
  5
13D2
330
8EA
100
AcDbEntity
  8
AM_5
100
AcDbTrace
 10
161.9260004196565
 20
237.421554799351
 30
0.0
 11
161.9260004196565
 21
236.421554799351
 31
0.0
 12
164.9260004196564
 22
236.9215547993511
 32
0.0
 13
164.9260004196564
 23
236.9215547993511
 33
0.0
  0
SOLID
  5
13D3
330
8EA
100
AcDbEntity
  8
AM_5
100
AcDbTrace
 10
145.4260004196564
 20
237.421554799351
 30
0.0
 11
145.4260004196564
 21
236.421554799351
 31
0.0
 12
142.4260004196564
 22
236.9215547993511
 32
0.0
 13
142.4260004196564
 23
236.9215547993511
 33
0.0
  0
MTEXT
  5
13D4
330
8EA
100
AcDbEntity
  8
AM_5
100
AcDbMText
 10
153.6760004196564
 20
239.2218500749416
 30
0.0
 40
3.0
 41
0.0
 71
     5
 72
     1
  1
22.5
 73
     1
 44
1.0
1001
ACAD
1000
MTEXTBEGIN
1070
    73
1070
     1
1070
    44
1040
1.0
1070
    74
1070
     0
1000
MTEXTEND
  0
POINT
  5
13D5
330
8EA
100
AcDbEntity
  8
Defpoints
 62
     0
100
AcDbPoint
 10
164.9260004196564
 20
244.1252144978442
 30
0.0
  0
POINT
  5
13D6
330
8EA
100
AcDbEntity
  8
Defpoints
 62
     0
100
AcDbPoint
 10
142.4260004196564
 20
247.0902144978442
 30
0.0
  0
POINT
  5
13D7
330
8EA
100
AcDbEntity
  8
Defpoints
 62
     0
100
AcDbPoint
 10
142.4260004196564
 20
236.9215547993511
 30
0.0
  0
ENDBLK
  5
8F5
330
8EA
100
AcDbEntity
  8
0
100
AcDbBlockEnd
  0
BLOCK
  5
935
330
92B
100
AcDbEntity
  8
0
100
AcDbBlockBegin
  2
*D2
 70
     1
 10
0.0
 20
0.0
 30
0.0
  3
*D2
  1

  0
LINE
  5
13D8
330
92B
100
AcDbEntity
  8
AM_5
100
AcDbLine
 10
164.9260004196564
 20
243.1252144978442
 30
0.0
 11
164.9260004196564
 21
229.421554799351
 31
0.0
  0
LINE
  5
13D9
330
92B
100
AcDbEntity
  8
AM_5
100
AcDbLine
 10
119.9260004196565
 20
243.1252144978442
 30
0.0
 11
119.9260004196565
 21
229.421554799351
 31
0.0
  0
LINE
  5
13DA
330
92B
100
AcDbEntity
  8
AM_5
100
AcDbLine
 10
161.9260004196565
 20
230.9215547993511
 30
0.0
 11
122.9260004196564
 21
230.9215547993511
 31
0.0
  0
SOLID
  5
13DB
330
92B
100
AcDbEntity
  8
AM_5
100
AcDbTrace
 10
161.9260004196565
 20
231.421554799351
 30
0.0
 11
161.9260004196565
 21
230.4215547993511
 31
0.0
 12
164.9260004196564
 22
230.9215547993511
 32
0.0
 13
164.9260004196564
 23
230.9215547993511
 33
0.0
  0
SOLID
  5
13DC
330
92B
100
AcDbEntity
  8
AM_5
100
AcDbTrace
 10
122.9260004196564
 20
231.421554799351
 30
0.0
 11
122.9260004196564
 21
230.4215547993511
 31
0.0
 12
119.9260004196565
 22
230.9215547993511
 32
0.0
 13
119.9260004196565
 23
230.9215547993511
 33
0.0
  0
MTEXT
  5
13DD
330
92B
100
AcDbEntity
  8
AM_5
100
AcDbMText
 10
142.4260004196564
 20
233.2215547993511
 30
0.0
 40
3.0
 41
0.0
 71
     5
 72
     1
  1
45
 73
     1
 44
1.0
1001
ACAD
1000
MTEXTBEGIN
1070
    73
1070
     1
1070
    44
1040
1.0
1070
    74
1070
     0
1000
MTEXTEND
  0
POINT
  5
13DE
330
92B
100
AcDbEntity
  8
Defpoints
 62
     0
100
AcDbPoint
 10
164.9260004196564
 20
244.1252144978442
 30
0.0
  0
POINT
  5
13DF
330
92B
100
AcDbEntity
  8
Defpoints
 62
     0
100
AcDbPoint
 10
119.9260004196565
 20
244.1252144978442
 30
0.0
  0
POINT
  5
13E0
330
92B
100
AcDbEntity
  8
Defpoints
 62
     0
100
AcDbPoint
 10
119.9260004196565
 20
230.9215547993511
 30
0.0
  0
ENDBLK
  5
936
330
92B
100
AcDbEntity
  8
0
100
AcDbBlockEnd
  0
BLOCK
  5
98C
330
982
100
AcDbEntity
  8
0
100
AcDbBlockBegin
  2
*D3
 70
     1
 10
0.0
 20
0.0
 30
0.0
  3
*D3
  1

  0
LINE
  5
13E1
330
982
100
AcDbEntity
  8
AM_5
100
AcDbLine
 10
130.4260004196565
 20
208.7540090006052
 30
0.0
 11
130.4260004196565
 21
216.5746318104265
 31
0.0
  0
LINE
  5
13E2
330
982
100
AcDbEntity
  8
AM_5
100
AcDbLine
 10
154.4260004196565
 20
208.7540090006052
 30
0.0
 11
154.4260004196565
 21
216.5746318104265
 31
0.0
  0
LINE
  5
13E3
330
982
100
AcDbEntity
  8
AM_5
100
AcDbLine
 10
133.4260004196565
 20
215.0746318104265
 30
0.0
 11
151.4260004196565
 21
215.0746318104265
 31
0.0
  0
SOLID
  5
13E4
330
982
100
AcDbEntity
  8
AM_5
100
AcDbTrace
 10
133.4260004196565
 20
215.5746318104265
 30
0.0
 11
133.4260004196565
 21
214.5746318104265
 31
0.0
 12
130.4260004196565
 22
215.0746318104265
 32
0.0
 13
130.4260004196565
 23
215.0746318104265
 33
0.0
  0
SOLID
  5
13E5
330
982
100
AcDbEntity
  8
AM_5
100
AcDbTrace
 10
151.4260004196565
 20
215.5746318104265
 30
0.0
 11
151.4260004196565
 21
214.5746318104265
 31
0.0
 12
154.4260004196565
 22
215.0746318104265
 32
0.0
 13
154.4260004196565
 23
215.0746318104265
 33
0.0
  0
MTEXT
  5
13E6
330
982
100
AcDbEntity
  8
AM_5
100
AcDbMText
 10
142.4260004196564
 20
217.3749270860171
 30
0.0
 40
3.0
 41
0.0
 71
     5
 72
     1
  1
24
 73
     1
 44
1.0
1001
ACAD
1000
MTEXTBEGIN
1070
    73
1070
     1
1070
    44
1040
1.0
1070
    74
1070
     0
1000
MTEXTEND
  0
POINT
  5
13E7
330
982
100
AcDbEntity
  8
Defpoints
 62
     0
100
AcDbPoint
 10
130.4260004196565
 20
207.7540090006052
 30
0.0
  0
POINT
  5
13E8
330
982
100
AcDbEntity
  8
Defpoints
 62
     0
100
AcDbPoint
 10
154.4260004196565
 20
207.7540090006052
 30
0.0
  0
POINT
  5
13E9
330
982
100
AcDbEntity
  8
Defpoints
 62
     0
100
AcDbPoint
 10
154.4260004196565
 20
215.0746318104265
 30
0.0
  0
ENDBLK
  5
98D
330
982
100
AcDbEntity
  8
0
100
AcDbBlockEnd
  0
BLOCK
  5
9CD
330
9C3
100
AcDbEntity
  8
0
100
AcDbBlockBegin
  2
*D4
 70
     1
 10
0.0
 20
0.0
 30
0.0
  3
*D4
  1

  0
LINE
  5
13EA
330
9C3
100
AcDbEntity
  8
AM_5
100
AcDbLine
 10
119.9260004196565
 20
209.7540090006052
 30
0.0
 11
119.9260004196565
 21
222.5746318104265
 31
0.0
  0
LINE
  5
13EB
330
9C3
100
AcDbEntity
  8
AM_5
100
AcDbLine
 10
164.9260004196564
 20
209.7540090006052
 30
0.0
 11
164.9260004196564
 21
222.5746318104265
 31
0.0
  0
LINE
  5
13EC
330
9C3
100
AcDbEntity
  8
AM_5
100
AcDbLine
 10
122.9260004196564
 20
221.0746318104265
 30
0.0
 11
161.9260004196565
 21
221.0746318104265
 31
0.0
  0
SOLID
  5
13ED
330
9C3
100
AcDbEntity
  8
AM_5
100
AcDbTrace
 10
122.9260004196564
 20
221.5746318104265
 30
0.0
 11
122.9260004196564
 21
220.5746318104265
 31
0.0
 12
119.9260004196565
 22
221.0746318104265
 32
0.0
 13
119.9260004196565
 23
221.0746318104265
 33
0.0
  0
SOLID
  5
13EE
330
9C3
100
AcDbEntity
  8
AM_5
100
AcDbTrace
 10
161.9260004196565
 20
221.5746318104265
 30
0.0
 11
161.9260004196565
 21
220.5746318104265
 31
0.0
 12
164.9260004196564
 22
221.0746318104265
 32
0.0
 13
164.9260004196564
 23
221.0746318104265
 33
0.0
  0
MTEXT
  5
13EF
330
9C3
100
AcDbEntity
  8
AM_5
100
AcDbMText
 10
142.4260004196564
 20
223.3746318104266
 30
0.0
 40
3.0
 41
0.0
 71
     5
 72
     1
  1
45
 73
     1
 44
1.0
1001
ACAD
1000
MTEXTBEGIN
1070
    73
1070
     1
1070
    44
1040
1.0
1070
    74
1070
     0
1000
MTEXTEND
  0
POINT
  5
13F0
330
9C3
100
AcDbEntity
  8
Defpoints
 62
     0
100
AcDbPoint
 10
119.9260004196565
 20
208.7540090006052
 30
0.0
  0
POINT
  5
13F1
330
9C3
100
AcDbEntity
  8
Defpoints
 62
     0
100
AcDbPoint
 10
164.9260004196564
 20
208.7540090006052
 30
0.0
  0
POINT
  5
13F2
330
9C3
100
AcDbEntity
  8
Defpoints
 62
     0
100
AcDbPoint
 10
164.9260004196564
 20
221.0746318104265
 30
0.0
  0
ENDBLK
  5
9CE
330
9C3
100
AcDbEntity
  8
0
100
AcDbBlockEnd
  0
BLOCK
  5
A0E
330
A04
100
AcDbEntity
  8
0
100
AcDbBlockBegin
  2
*D5
 70
     1
 10
0.0
 20
0.0
 30
0.0
  3
*D5
  1

  0
LINE
  5
13F3
330
A04
100
AcDbEntity
  8
AM_5
100
AcDbLine
 10
118.9260004196565
 20
182.7540090006052
 30
0.0
 11
111.3296692858982
 21
182.7540090006052
 31
0.0
  0
LINE
  5
13F4
330
A04
100
AcDbEntity
  8
AM_5
100
AcDbLine
 10
126.4260004196565
 20
204.7540090006052
 30
0.0
 11
111.3296692858982
 21
204.7540090006052
 31
0.0
  0
LINE
  5
13F5
330
A04
100
AcDbEntity
  8
AM_5
100
AcDbLine
 10
112.8296692858982
 20
185.7540090006052
 30
0.0
 11
112.8296692858982
 21
201.7540090006052
 31
0.0
  0
SOLID
  5
13F6
330
A04
100
AcDbEntity
  8
AM_5
100
AcDbTrace
 10
112.3296692858982
 20
185.7540090006052
 30
0.0
 11
113.3296692858982
 21
185.7540090006052
 31
0.0
 12
112.8296692858982
 22
182.7540090006052
 32
0.0
 13
112.8296692858982
 23
182.7540090006052
 33
0.0
  0
SOLID
  5
13F7
330
A04
100
AcDbEntity
  8
AM_5
100
AcDbTrace
 10
112.3296692858982
 20
201.7540090006052
 30
0.0
 11
113.3296692858982
 21
201.7540090006052
 31
0.0
 12
112.8296692858982
 22
204.7540090006052
 32
0.0
 13
112.8296692858982
 23
204.7540090006052
 33
0.0
  0
MTEXT
  5
13F8
330
A04
100
AcDbEntity
  8
AM_5
100
AcDbMText
 10
110.5293740103077
 20
193.7540090006052
 30
0.0
 40
3.0
 41
0.0
 71
     5
 72
     1
  1
22
 11
0.0000000000000001
 21
1.0
 31
0.0
 73
     1
 44
1.0
1001
ACAD
1000
MTEXTBEGIN
1070
    73
1070
     1
1070
    44
1040
1.0
1070
    74
1070
     0
1000
MTEXTEND
  0
POINT
  5
13F9
330
A04
100
AcDbEntity
  8
Defpoints
 62
     0
100
AcDbPoint
 10
119.9260004196565
 20
182.7540090006052
 30
0.0
  0
POINT
  5
13FA
330
A04
100
AcDbEntity
  8
Defpoints
 62
     0
100
AcDbPoint
 10
127.4260004196565
 20
204.7540090006052
 30
0.0
  0
POINT
  5
13FB
330
A04
100
AcDbEntity
  8
Defpoints
 62
     0
100
AcDbPoint
 10
112.8296692858982
 20
204.7540090006052
 30
0.0
  0
ENDBLK
  5
A0F
330
A04
100
AcDbEntity
  8
0
100
AcDbBlockEnd
  0
BLOCK
  5
A4F
330
A45
100
AcDbEntity
  8
0
100
AcDbBlockBegin
  2
*D6
 70
     1
 10
0.0
 20
0.0
 30
0.0
  3
*D6
  1

  0
LINE
  5
13FC
330
A45
100
AcDbEntity
  8
AM_5
100
AcDbLine
 10
118.9260004196565
 20
182.7540090006052
 30
0.0
 11
105.3296692858982
 21
182.7540090006052
 31
0.0
  0
LINE
  5
13FD
330
A45
100
AcDbEntity
  8
AM_5
100
AcDbLine
 10
118.9260004196565
 20
208.7540090006052
 30
0.0
 11
105.3296692858982
 21
208.7540090006052
 31
0.0
  0
LINE
  5
13FE
330
A45
100
AcDbEntity
  8
AM_5
100
AcDbLine
 10
106.8296692858982
 20
185.7540090006052
 30
0.0
 11
106.8296692858982
 21
205.7540090006052
 31
0.0
  0
SOLID
  5
13FF
330
A45
100
AcDbEntity
  8
AM_5
100
AcDbTrace
 10
106.3296692858982
 20
185.7540090006052
 30
0.0
 11
107.3296692858982
 21
185.7540090006052
 31
0.0
 12
106.8296692858982
 22
182.7540090006052
 32
0.0
 13
106.8296692858982
 23
182.7540090006052
 33
0.0
  0
SOLID
  5
1400
330
A45
100
AcDbEntity
  8
AM_5
100
AcDbTrace
 10
106.3296692858982
 20
205.7540090006052
 30
0.0
 11
107.3296692858982
 21
205.7540090006052
 31
0.0
 12
106.8296692858982
 22
208.7540090006052
 32
0.0
 13
106.8296692858982
 23
208.7540090006052
 33
0.0
  0
MTEXT
  5
1401
330
A45
100
AcDbEntity
  8
AM_5
100
AcDbMText
 10
104.5293740103077
 20
195.7540090006052
 30
0.0
 40
3.0
 41
0.0
 71
     5
 72
     1
  1
26
 11
0.0000000000000001
 21
1.0
 31
0.0
 73
     1
 44
1.0
1001
ACAD
1000
MTEXTBEGIN
1070
    73
1070
     1
1070
    44
1040
1.0
1070
    74
1070
     0
1000
MTEXTEND
  0
POINT
  5
1402
330
A45
100
AcDbEntity
  8
Defpoints
 62
     0
100
AcDbPoint
 10
119.9260004196565
 20
182.7540090006052
 30
0.0
  0
POINT
  5
1403
330
A45
100
AcDbEntity
  8
Defpoints
 62
     0
100
AcDbPoint
 10
119.9260004196565
 20
208.7540090006052
 30
0.0
  0
POINT
  5
1404
330
A45
100
AcDbEntity
  8
Defpoints
 62
     0
100
AcDbPoint
 10
106.8296692858982
 20
208.7540090006052
 30
0.0
  0
ENDBLK
  5
A50
330
A45
100
AcDbEntity
  8
0
100
AcDbBlockEnd
  0
BLOCK
  5
A90
330
A86
100
AcDbEntity
  8
0
100
AcDbBlockBegin
  2
*D7
 70
     1
 10
0.0
 20
0.0
 30
0.0
  3
*D7
  1

  0
LINE
  5
1405
330
A86
100
AcDbEntity
  8
AM_5
100
AcDbLine
 10
215.31277397
 20
209.7540090006052
 30
0.0
 11
215.31277397
 21
216.5746318104265
 31
0.0
  0
LINE
  5
1406
330
A86
100
AcDbEntity
  8
AM_5
100
AcDbLine
 10
207.06277397
 20
211.4756904076738
 30
0.0
 11
207.06277397
 21
216.5746318104265
 31
0.0
  0
LINE
  5
1407
330
A86
100
AcDbEntity
  8
AM_5
100
AcDbLine
 10
212.31277397
 20
215.0746318104265
 30
0.0
 11
210.06277397
 21
215.0746318104265
 31
0.0
  0
SOLID
  5
1408
330
A86
100
AcDbEntity
  8
AM_5
100
AcDbTrace
 10
212.31277397
 20
215.5746318104265
 30
0.0
 11
212.31277397
 21
214.5746318104265
 31
0.0
 12
215.31277397
 22
215.0746318104265
 32
0.0
 13
215.31277397
 23
215.0746318104265
 33
0.0
  0
SOLID
  5
1409
330
A86
100
AcDbEntity
  8
AM_5
100
AcDbTrace
 10
210.06277397
 20
215.5746318104265
 30
0.0
 11
210.06277397
 21
214.5746318104265
 31
0.0
 12
207.06277397
 22
215.0746318104265
 32
0.0
 13
207.06277397
 23
215.0746318104265
 33
0.0
  0
MTEXT
  5
140A
330
A86
100
AcDbEntity
  8
AM_5
100
AcDbMText
 10
211.18777397
 20
217.3749270860171
 30
0.0
 40
3.0
 41
0.0
 71
     5
 72
     1
  1
8.25
 73
     1
 44
1.0
1001
ACAD
1000
MTEXTBEGIN
1070
    73
1070
     1
1070
    44
1040
1.0
1070
    74
1070
     0
1000
MTEXTEND
  0
POINT
  5
140B
330
A86
100
AcDbEntity
  8
Defpoints
 62
     0
100
AcDbPoint
 10
215.31277397
 20
208.7540090006052
 30
0.0
  0
POINT
  5
140C
330
A86
100
AcDbEntity
  8
Defpoints
 62
     0
100
AcDbPoint
 10
207.06277397
 20
210.4756904076738
 30
0.0
  0
POINT
  5
140D
330
A86
100
AcDbEntity
  8
Defpoints
 62
     0
100
AcDbPoint
 10
207.06277397
 20
215.0746318104265
 30
0.0
  0
ENDBLK
  5
A91
330
A86
100
AcDbEntity
  8
0
100
AcDbBlockEnd
  0
BLOCK
  5
AD1
330
AC7
100
AcDbEntity
  8
0
100
AcDbBlockBegin
  2
*D8
 70
     1
 10
0.0
 20
0.0
 30
0.0
  3
*D8
  1

  0
LINE
  5
140E
330
AC7
100
AcDbEntity
  8
AM_5
100
AcDbLine
 10
215.31277397
 20
209.7540090006052
 30
0.0
 11
215.31277397
 21
222.5746318104265
 31
0.0
  0
LINE
  5
140F
330
AC7
100
AcDbEntity
  8
AM_5
100
AcDbLine
 10
198.8127739699999
 20
209.7540090006052
 30
0.0
 11
198.8127739699999
 21
222.5746318104265
 31
0.0
  0
LINE
  5
1410
330
AC7
100
AcDbEntity
  8
AM_5
100
AcDbLine
 10
212.31277397
 20
221.0746318104265
 30
0.0
 11
201.81277397
 21
221.0746318104265
 31
0.0
  0
SOLID
  5
1411
330
AC7
100
AcDbEntity
  8
AM_5
100
AcDbTrace
 10
212.31277397
 20
221.5746318104265
 30
0.0
 11
212.31277397
 21
220.5746318104265
 31
0.0
 12
215.31277397
 22
221.0746318104265
 32
0.0
 13
215.31277397
 23
221.0746318104265
 33
0.0
  0
SOLID
  5
1412
330
AC7
100
AcDbEntity
  8
AM_5
100
AcDbTrace
 10
201.81277397
 20
221.5746318104265
 30
0.0
 11
201.81277397
 21
220.5746318104265
 31
0.0
 12
198.8127739699999
 22
221.0746318104265
 32
0.0
 13
198.8127739699999
 23
221.0746318104265
 33
0.0
  0
MTEXT
  5
1413
330
AC7
100
AcDbEntity
  8
AM_5
100
AcDbMText
 10
207.06277397
 20
223.3746318104266
 30
0.0
 40
3.0
 41
0.0
 71
     5
 72
     1
  1
16.5
 73
     1
 44
1.0
1001
ACAD
1000
MTEXTBEGIN
1070
    73
1070
     1
1070
    44
1040
1.0
1070
    74
1070
     0
1000
MTEXTEND
  0
POINT
  5
1414
330
AC7
100
AcDbEntity
  8
Defpoints
 62
     0
100
AcDbPoint
 10
215.31277397
 20
208.7540090006052
 30
0.0
  0
POINT
  5
1415
330
AC7
100
AcDbEntity
  8
Defpoints
 62
     0
100
AcDbPoint
 10
198.8127739699999
 20
208.7540090006052
 30
0.0
  0
POINT
  5
1416
330
AC7
100
AcDbEntity
  8
Defpoints
 62
     0
100
AcDbPoint
 10
198.8127739699999
 20
221.0746318104265
 30
0.0
  0
ENDBLK
  5
AD2
330
AC7
100
AcDbEntity
  8
0
100
AcDbBlockEnd
  0
BLOCK
  5
B12
330
B08
100
AcDbEntity
  8
0
100
AcDbBlockBegin
  2
*D9
 70
     1
 10
0.0
 20
0.0
 30
0.0
  3
*D9
  1

  0
LINE
  5
1417
330
B08
100
AcDbEntity
  8
AM_5
100
AcDbLine
 10
197.8127739699999
 20
182.7540090006052
 30
0.0
 11
191.5211380035982
 21
182.7540090006052
 31
0.0
  0
LINE
  5
1418
330
B08
100
AcDbEntity
  8
AM_5
100
AcDbLine
 10
198.459216978134
 20
191.7540090006052
 30
0.0
 11
191.5211380035982
 21
191.7540090006052
 31
0.0
  0
LINE
  5
1419
330
B08
100
AcDbEntity
  8
AM_5
100
AcDbLine
 10
193.0211380035982
 20
185.7540090006052
 30
0.0
 11
193.0211380035982
 21
188.7540090006052
 31
0.0
  0
SOLID
  5
141A
330
B08
100
AcDbEntity
  8
AM_5
100
AcDbTrace
 10
192.5211380035982
 20
185.7540090006052
 30
0.0
 11
193.5211380035982
 21
185.7540090006052
 31
0.0
 12
193.0211380035982
 22
182.7540090006052
 32
0.0
 13
193.0211380035982
 23
182.7540090006052
 33
0.0
  0
SOLID
  5
141B
330
B08
100
AcDbEntity
  8
AM_5
100
AcDbTrace
 10
192.5211380035982
 20
188.7540090006052
 30
0.0
 11
193.5211380035982
 21
188.7540090006052
 31
0.0
 12
193.0211380035982
 22
191.7540090006052
 32
0.0
 13
193.0211380035982
 23
191.7540090006052
 33
0.0
  0
MTEXT
  5
141C
330
B08
100
AcDbEntity
  8
AM_5
100
AcDbMText
 10
190.7211380035982
 20
187.2540090006052
 30
0.0
 40
3.0
 41
0.0
 71
     5
 72
     1
  1
9
 11
0.0000000000000001
 21
1.0
 31
0.0
 73
     1
 44
1.0
1001
ACAD
1000
MTEXTBEGIN
1070
    73
1070
     1
1070
    44
1040
1.0
1070
    74
1070
     0
1000
MTEXTEND
  0
POINT
  5
141D
330
B08
100
AcDbEntity
  8
Defpoints
 62
     0
100
AcDbPoint
 10
198.8127739699999
 20
182.7540090006052
 30
0.0
  0
POINT
  5
141E
330
B08
100
AcDbEntity
  8
Defpoints
 62
     0
100
AcDbPoint
 10
199.459216978134
 20
191.7540090006052
 30
0.0
  0
POINT
  5
141F
330
B08
100
AcDbEntity
  8
Defpoints
 62
     0
100
AcDbPoint
 10
193.0211380035982
 20
191.7540090006052
 30
0.0
  0
ENDBLK
  5
B13
330
B08
100
AcDbEntity
  8
0
100
AcDbBlockEnd
  0
BLOCK
  5
1468
330
1463
100
AcDbEntity
  8
0
100
AcDbBlockBegin
  2
*S10
 70
     1
 10
0.0
 20
0.0
 30
0.0
  3
*S10
  1

  0
LINE
  5
1464
330
1463
100
AcDbEntity
  8
AM_5
 62
     5
100
AcDbLine
 10
177.3217509871576
 20
217.3502985080099
 30
0.0
 11
167.631964515896
 21
217.3502985080099
 31
0.0
  0
LINE
  5
1465
330
1463
100
AcDbEntity
  8
AM_5
 62
     5
100
AcDbLine
 10
167.631964515896
 20
217.3502985080099
 30
0.0
 11
158.7325382682132
 21
208.5580303673323
 31
0.0
  0
TRACE
  5
1466
330
1463
100
AcDbEntity
  8
AM_5
 62
     5
100
AcDbTrace
 10
158.408694404535
 20
208.8858211642524
 30
0.0
 11
159.0563821318914
 21
208.2302395704121
 31
0.0
 12
156.2427199632843
 22
206.0981919969427
 32
0.0
 13
156.2427199632843
 23
206.0981919969427
 33
0.0
  0
MTEXT
  5
1467
330
1463
100
AcDbEntity
  8
AM_5
 62
     2
100
AcDbMText
 10
177.3217509871576
 20
217.7619615101288
 30
0.0
 40
3.5
 41
0.0
 71
     7
 72
     5
  1

  7
ACISOTS
 73
     1
 44
1.0
1001
ACAD
1000
MTEXTBEGIN
1070
    73
1070
     1
1070
    44
1040
1.0
1070
    74
1070
     0
1000
MTEXTEND
  0
ENDBLK
  5
1469
330
1463
100
AcDbEntity
  8
0
100
AcDbBlockEnd
  0
BLOCK
  5
1470
330
146B
100
AcDbEntity
  8
0
100
AcDbBlockBegin
  2
*S11
 70
     1
 10
0.0
 20
0.0
 30
0.0
  3
*S11
  1

  0
LINE
  5
146C
330
146B
100
AcDbEntity
  8
AM_5
 62
     5
100
AcDbLine
 10
186.8980962347077
 20
199.7070518802956
 30
0.0
 11
172.031430378553
 21
199.7070518802956
 31
0.0
  0
LINE
  5
146D
330
146B
100
AcDbEntity
  8
AM_5
 62
     5
100
AcDbLine
 10
172.031430378553
 20
199.7070518802956
 30
0.0
 11
167.2578770175745
 21
194.364057186383
 31
0.0
  0
TRACE
  5
146E
330
146B
100
AcDbEntity
  8
AM_5
 62
     5
100
AcDbTrace
 10
166.9142576566266
 20
194.6710545631948
 30
0.0
 11
167.6014963785225
 21
194.0570598095712
 31
0.0
 12
164.9260004196564
 22
191.7540090006052
 32
0.0
 13
164.9260004196564
 23
191.7540090006052
 33
0.0
  0
MTEXT
  5
146F
330
146B
100
AcDbEntity
  8
AM_5
 62
     2
100
AcDbMText
 10
186.8980962347077
 20
199.8538838487982
 30
0.0
 40
3.5
 41
0.0
 71
     7
 72
     5
  1

  7
ACISOTS
 73
     1
 44
1.0
1001
ACAD
1000
MTEXTBEGIN
1070
    73
1070
     1
1070
    44
1040
1.0
1070
    74
1070
     0
1000
MTEXTEND
  0
ENDBLK
  5
1471
330
146B
100
AcDbEntity
  8
0
100
AcDbBlockEnd
  0
ENDSEC
  0
SECTION
  2
ENTITIES
  0
POINT
  5
25
330
2
100
AcDbEntity
  8
0
 60
     1
100
AcDbPoint
 10
0.0
 20
0.0
 30
0.0
  0
POINT
  5
26
330
2
100
AcDbEntity
  8
0
 60
     1
100
AcDbPoint
 10
0.0
 20
0.0
 30
0.0
  0
POINT
  5
27
330
2
100
AcDbEntity
  8
0
 60
     1
100
AcDbPoint
 10
0.0
 20
0.0
 30
0.0
  0
POINT
  5
28
330
2
100
AcDbEntity
  8
0
 60
     1
100
AcDbPoint
 10
0.0
 20
0.0
 30
0.0
  0
LINE
  5
29
330
2
100
AcDbEntity
  8
AM_7
100
AcDbLine
 10
130.4260004196565
 20
204.7540090006052
 30
0.0
 11
130.4260004196565
 21
204.7540090006052
 31
0.0
  0
LINE
  5
2C
330
2
100
AcDbEntity
  8
AM_7
100
AcDbLine
 10
130.4260004196565
 20
204.7540090006052
 30
0.0
 11
130.4260004196565
 21
204.7540090006052
 31
0.0
  0
LINE
  5
2D
102
{ACAD_REACTORS
330
A1A
102
}
330
2
100
AcDbEntity
  8
AM_7
100
AcDbLine
 10
127.4260004196565
 20
204.7540090006052
 30
0.0
 11
130.4260004196565
 21
204.7540090006052
 31
0.0
  0
LINE
  5
2E
330
2
100
AcDbEntity
  8
AM_7
100
AcDbLine
 10
130.4260004196565
 20
204.7540090006052
 30
0.0
 11
133.4260004196565
 21
204.7540090006052
 31
0.0
  0
LINE
  5
2F
330
2
100
AcDbEntity
  8
AM_7
100
AcDbLine
 10
130.4260004196565
 20
201.7540090006052
 30
0.0
 11
130.4260004196565
 21
204.7540090006052
 31
0.0
  0
LINE
  5
30
102
{ACAD_REACTORS
330
998
102
}
330
2
100
AcDbEntity
  8
AM_7
100
AcDbLine
 10
130.4260004196565
 20
204.7540090006052
 30
0.0
 11
130.4260004196565
 21
207.7540090006052
 31
0.0
  0
LINE
  5
31
330
2
100
AcDbEntity
  8
AM_7
100
AcDbLine
 10
154.4260004196565
 20
204.7540090006052
 30
0.0
 11
154.4260004196565
 21
204.7540090006052
 31
0.0
  0
LINE
  5
32
330
2
100
AcDbEntity
  8
AM_7
100
AcDbLine
 10
154.4260004196565
 20
204.7540090006052
 30
0.0
 11
154.4260004196565
 21
204.7540090006052
 31
0.0
  0
LINE
  5
33
330
2
100
AcDbEntity
  8
AM_7
100
AcDbLine
 10
151.4260004196565
 20
204.7540090006052
 30
0.0
 11
154.4260004196565
 21
204.7540090006052
 31
0.0
  0
LINE
  5
34
330
2
100
AcDbEntity
  8
AM_7
100
AcDbLine
 10
154.4260004196565
 20
204.7540090006052
 30
0.0
 11
157.4260004196565
 21
204.7540090006052
 31
0.0
  0
LINE
  5
35
330
2
100
AcDbEntity
  8
AM_7
100
AcDbLine
 10
154.4260004196565
 20
201.7540090006052
 30
0.0
 11
154.4260004196565
 21
204.7540090006052
 31
0.0
  0
LINE
  5
36
102
{ACAD_REACTORS
330
998
102
}
330
2
100
AcDbEntity
  8
AM_7
100
AcDbLine
 10
154.4260004196565
 20
204.7540090006052
 30
0.0
 11
154.4260004196565
 21
207.7540090006052
 31
0.0
  0
LINE
  5
37
330
2
100
AcDbEntity
  8
AM_7
100
AcDbLine
 10
207.06277397
 20
191.7540090006052
 30
0.0
 11
207.06277397
 21
191.7540090006052
 31
0.0
  0
LINE
  5
38
330
2
100
AcDbEntity
  8
AM_7
100
AcDbLine
 10
207.06277397
 20
191.7540090006052
 30
0.0
 11
207.06277397
 21
191.7540090006052
 31
0.0
  0
LINE
  5
39
102
{ACAD_REACTORS
330
B1E
102
}
330
2
100
AcDbEntity
  8
AM_7
100
AcDbLine
 10
199.459216978134
 20
191.7540090006052
 30
0.0
 11
215.0179790755706
 21
191.7540090006052
 31
0.0
  0
LINE
  5
3B
330
2
100
AcDbEntity
  8
AM_7
100
AcDbLine
 10
207.06277397
 20
181.7358854209715
 30
0.0
 11
207.06277397
 21
191.7540090006052
 31
0.0
  0
LINE
  5
3C
102
{ACAD_REACTORS
330
A9C
102
}
330
2
100
AcDbEntity
  8
AM_7
100
AcDbLine
 10
207.06277397
 20
191.7540090006052
 30
0.0
 11
207.06277397
 21
210.4756904076738
 31
0.0
  0
LINE
  5
3F
330
2
100
AcDbEntity
  8
AM_7
100
AcDbLine
 10
142.4260004196564
 20
210.1035962392467
 30
0.0
 11
142.4260004196564
 21
203.1608496893641
 31
0.0
  0
LINE
  5
40
330
2
100
AcDbEntity
  8
AM_7
100
AcDbLine
 10
128.1074458633245
 20
191.7540090006052
 30
0.0
 11
118.2492173600483
 21
191.7540090006052
 31
0.0
  0
LINE
  5
4F
330
2
100
AcDbEntity
  8
AM_4
  6
AM_ISO02W050
100
AcDbLine
 10
137.5610004196564
 20
208.2540090006052
 30
0.0
 11
137.9037722869054
 21
203.7540090006052
 31
0.0
  0
LINE
  5
51
330
2
100
AcDbEntity
  8
AM_4
  6
AM_ISO02W050
100
AcDbLine
 10
147.2910004196565
 20
208.2540090006052
 30
0.0
 11
146.9864761700842
 21
203.7540090006052
 31
0.0
  0
LINE
  5
53
330
2
100
AcDbEntity
  8
AM_4
  6
AM_ISO02W050
100
AcDbLine
 10
120.4260004196564
 20
186.8890090006052
 30
0.0
 11
125.9260004196564
 21
187.3120859236821
 31
0.0
  0
LINE
  5
54
330
2
100
AcDbEntity
  8
AM_4
  6
AM_ISO02W050
100
AcDbLine
 10
120.4260004196564
 20
196.6190090006052
 30
0.0
 11
125.9260004196564
 21
196.1959320775283
 31
0.0
  0
LINE
  5
56
330
2
100
AcDbEntity
  8
AM_4
  6
AM_ISO02W050
100
AcDbLine
 10
164.1260004196564
 20
196.6190090006052
 30
0.0
 11
158.9260004196565
 21
196.2190090006052
 31
0.0
  0
LINE
  5
57
330
2
100
AcDbEntity
  8
AM_4
  6
AM_ISO02W050
100
AcDbLine
 10
164.1260004196564
 20
186.8890090006052
 30
0.0
 11
158.9260004196565
 21
187.2890090006052
 31
0.0
  0
LINE
  5
5B
330
2
100
AcDbEntity
  8
AM_VIS
100
AcDbLine
 10
164.9260004196564
 20
182.7540090006052
 30
0.0
 11
164.9260004196564
 21
208.7540090006052
 31
0.0
  0
LINE
  5
5D
102
{ACAD_REACTORS
330
9D9
330
A5B
102
}
330
2
100
AcDbEntity
  8
AM_VIS
100
AcDbLine
 10
119.9260004196565
 20
208.7540090006052
 30
0.0
 11
164.9260004196564
 21
208.7540090006052
 31
0.0
  0
LINE
  5
5E
330
2
100
AcDbEntity
  8
AM_VIS
100
AcDbLine
 10
119.9260004196565
 20
182.7540090006052
 30
0.0
 11
119.9260004196565
 21
208.7540090006052
 31
0.0
  0
LINE
  5
62
102
{ACAD_REACTORS
330
A1A
330
A5B
102
}
330
2
100
AcDbEntity
  8
AM_VIS
100
AcDbLine
 10
119.9260004196565
 20
182.7540090006052
 30
0.0
 11
164.9260004196564
 21
182.7540090006052
 31
0.0
  0
LINE
  5
6B
330
2
100
AcDbEntity
  8
AM_HID
100
AcDbLine
 10
138.1410004196565
 20
208.2540090006052
 30
0.0
 11
137.6410004196565
 21
208.7540090006052
 31
0.0
  0
LINE
  5
6C
330
2
100
AcDbEntity
  8
AM_HID
100
AcDbLine
 10
146.7110004196564
 20
208.2540090006052
 30
0.0
 11
147.2110004196564
 21
208.7540090006052
 31
0.0
  0
LINE
  5
6D
330
2
100
AcDbEntity
  8
AM_HID
100
AcDbLine
 10
146.7110004196564
 20
208.2540090006052
 30
0.0
 11
146.4764061826542
 21
203.7540090006052
 31
0.0
  0
LINE
  5
6E
330
2
100
AcDbEntity
  8
AM_HID
100
AcDbLine
 10
138.1410004196565
 20
208.2540090006052
 30
0.0
 11
138.4035118676831
 21
203.7540090006052
 31
0.0
  0
LINE
  5
6F
330
2
100
AcDbEntity
  8
AM_HID
100
AcDbLine
 10
120.4260004196564
 20
187.4690090006052
 30
0.0
 11
119.9260004196565
 21
186.9690090006052
 31
0.0
  0
LINE
  5
70
330
2
100
AcDbEntity
  8
AM_HID
100
AcDbLine
 10
120.4260004196564
 20
196.0390090006052
 30
0.0
 11
119.9260004196565
 21
196.5390090006052
 31
0.0
  0
LINE
  5
71
330
2
100
AcDbEntity
  8
AM_HID
100
AcDbLine
 10
120.4260004196564
 20
196.0390090006052
 30
0.0
 11
125.9260004196564
 21
195.7154795888405
 31
0.0
  0
LINE
  5
72
330
2
100
AcDbEntity
  8
AM_HID
100
AcDbLine
 10
120.4260004196564
 20
187.4690090006052
 30
0.0
 11
125.9260004196564
 21
187.7925384123699
 31
0.0
  0
LINE
  5
80
330
2
100
AcDbEntity
  8
AM_HID
100
AcDbLine
 10
138.1410004196565
 20
208.2540090006052
 30
0.0
 11
146.7110004196564
 21
208.2540090006052
 31
0.0
  0
LINE
  5
82
330
2
100
AcDbEntity
  8
AM_HID
100
AcDbLine
 10
120.4260004196564
 20
187.4690090006052
 30
0.0
 11
120.4260004196564
 21
196.0390090006052
 31
0.0
  0
LINE
  5
92
330
2
100
AcDbEntity
  8
AM_HID
100
AcDbLine
 10
164.1260004196564
 20
187.4690090006052
 30
0.0
 11
164.6260004196564
 21
186.9690090006052
 31
0.0
  0
LINE
  5
93
330
2
100
AcDbEntity
  8
AM_HID
100
AcDbLine
 10
164.1260004196564
 20
196.0390090006052
 30
0.0
 11
164.6260004196564
 21
196.5390090006052
 31
0.0
  0
LINE
  5
98
330
2
100
AcDbEntity
  8
AM_HID
100
AcDbLine
 10
164.1260004196564
 20
187.4690090006052
 30
0.0
 11
158.9260004196565
 21
187.7748913535464
 31
0.0
  0
LINE
  5
99
330
2
100
AcDbEntity
  8
AM_HID
100
AcDbLine
 10
164.1260004196564
 20
196.0390090006052
 30
0.0
 11
158.9260004196565
 21
195.733126647664
 31
0.0
  0
LINE
  5
A6
330
2
100
AcDbEntity
  8
AM_HID
100
AcDbLine
 10
164.1260004196564
 20
191.0040090006052
 30
0.0
 11
164.1260004196564
 21
187.4690090006052
 31
0.0
  0
LINE
  5
A7
330
2
100
AcDbEntity
  8
AM_HID
100
AcDbLine
 10
164.1260004196564
 20
196.0390090006052
 30
0.0
 11
164.1260004196564
 21
192.5040090006052
 31
0.0
  0
LINE
  5
F4
330
2
100
AcDbEntity
  8
AM_VIS
100
AcDbLine
 10
215.31277397
 20
182.7540090006052
 30
0.0
 11
198.8127739699999
 21
182.7540090006052
 31
0.0
  0
LINE
  5
F5
102
{ACAD_REACTORS
330
A9C
330
ADD
102
}
330
2
100
AcDbEntity
  8
AM_VIS
100
AcDbLine
 10
215.31277397
 20
208.7540090006052
 30
0.0
 11
215.31277397
 21
182.7540090006052
 31
0.0
  0
LINE
  5
F6
330
2
100
AcDbEntity
  8
AM_VIS
100
AcDbLine
 10
198.8127739699999
 20
208.7540090006052
 30
0.0
 11
215.31277397
 21
208.7540090006052
 31
0.0
  0
LINE
  5
F7
102
{ACAD_REACTORS
330
ADD
330
B1E
102
}
330
2
100
AcDbEntity
  8
AM_VIS
100
AcDbLine
 10
198.8127739699999
 20
182.7540090006052
 30
0.0
 11
198.8127739699999
 21
208.7540090006052
 31
0.0
  0
CIRCLE
  5
F8
330
2
100
AcDbEntity
  8
AM_VIS
100
AcDbCircle
 10
207.06277397
 20
191.7540090006052
 30
0.0
 40
7.25
  0
LINE
  5
FA
330
2
100
AcDbEntity
  8
AM_VIS
100
AcDbLine
 10
199.851671419072
 20
191.0040090006052
 30
0.0
 11
202.8439204527515
 21
191.0040090006052
 31
0.0
  0
LINE
  5
FB
330
2
100
AcDbEntity
  8
AM_VIS
100
AcDbLine
 10
200.1030685164624
 20
191.0040090006052
 30
0.0
 11
200.4048839138335
 21
191.0040090006052
 31
0.0
  0
LINE
  5
FC
330
2
100
AcDbEntity
  8
AM_VIS
100
AcDbLine
 10
211.2816274872484
 20
191.0040090006052
 30
0.0
 11
211.7886310351258
 21
191.0040090006052
 31
0.0
  0
LINE
  5
FD
330
2
100
AcDbEntity
  8
AM_VIS
100
AcDbLine
 10
213.7206640261664
 20
191.0040090006052
 30
0.0
 11
211.7886310351258
 21
191.0040090006052
 31
0.0
  0
LINE
  5
FE
330
2
100
AcDbEntity
  8
AM_VIS
100
AcDbLine
 10
199.851671419072
 20
192.5040090006052
 30
0.0
 11
200.4048839138335
 21
192.5040090006052
 31
0.0
  0
LINE
  5
FF
330
2
100
AcDbEntity
  8
AM_VIS
100
AcDbLine
 10
199.851671419072
 20
192.5040090006052
 30
0.0
 11
202.8439204527515
 21
192.5040090006052
 31
0.0
  0
LINE
  5
100
330
2
100
AcDbEntity
  8
AM_VIS
100
AcDbLine
 10
202.3369169048741
 20
192.5040090006052
 30
0.0
 11
202.8439204527515
 21
192.5040090006052
 31
0.0
  0
LINE
  5
101
330
2
100
AcDbEntity
  8
AM_VIS
100
AcDbLine
 10
200.4048839138335
 20
192.5040090006052
 30
0.0
 11
202.3369169048741
 21
192.5040090006052
 31
0.0
  0
LINE
  5
102
330
2
100
AcDbEntity
  8
AM_VIS
100
AcDbLine
 10
202.3369169048741
 20
191.0040090006052
 30
0.0
 11
199.851671419072
 21
191.0040090006052
 31
0.0
  0
LINE
  5
103
330
2
100
AcDbEntity
  8
AM_VIS
100
AcDbLine
 10
202.3369169048741
 20
191.0040090006052
 30
0.0
 11
202.8439204527515
 21
191.0040090006052
 31
0.0
  0
LINE
  5
104
330
2
100
AcDbEntity
  8
AM_VIS
100
AcDbLine
 10
211.7886310351258
 20
192.5040090006052
 30
0.0
 11
213.7206640261664
 21
192.5040090006052
 31
0.0
  0
LINE
  5
105
330
2
100
AcDbEntity
  8
AM_VIS
100
AcDbLine
 10
211.2816274872484
 20
192.5040090006052
 30
0.0
 11
211.7886310351258
 21
192.5040090006052
 31
0.0
  0
ARC
  5
10C
330
2
100
AcDbEntity
  8
AM_VIS
100
AcDbCircle
 10
207.06277397
 20
191.7540090006052
 30
0.0
 40
4.285
100
AcDbArc
 50
169.9196442856116
 51
190.0803557143884
  0
ARC
  5
10D
330
2
100
AcDbEntity
  8
AM_VIS
100
AcDbCircle
 10
207.06277397
 20
191.7540090006052
 30
0.0
 40
4.285
100
AcDbArc
 50
349.9196442856116
 51
10.0803557143884
  0
ARC
  5
10F
330
2
100
AcDbEntity
  8
AM_VIS
100
AcDbCircle
 10
207.06277397
 20
191.7540090006052
 30
0.0
 40
4.285
100
AcDbArc
 50
190.0803557143884
 51
349.9196442856116
  0
ARC
  5
111
330
2
100
AcDbEntity
  8
AM_VIS
100
AcDbCircle
 10
207.06277397
 20
191.7540090006052
 30
0.0
 40
4.285
100
AcDbArc
 50
10.0803557143884
 51
169.9196442856116
  0
LINE
  5
1D1
330
2
100
AcDbEntity
  8
AM_VIS
100
AcDbLine
 10
119.9260004196565
 20
244.1252144978442
 30
0.0
 11
164.9260004196564
 21
244.1252144978442
 31
0.0
  0
LINE
  5
1D2
330
2
100
AcDbEntity
  8
AM_VIS
100
AcDbLine
 10
119.9260004196565
 20
260.6252144978442
 30
0.0
 11
164.9260004196564
 21
260.6252144978442
 31
0.0
  0
LINE
  5
1D3
102
{ACAD_REACTORS
330
941
102
}
330
2
100
AcDbEntity
  8
AM_VIS
100
AcDbLine
 10
119.9260004196565
 20
244.1252144978442
 30
0.0
 11
119.9260004196565
 21
260.6252144978442
 31
0.0
  0
ARC
  5
1D4
330
2
100
AcDbEntity
  8
AM_4
100
AcDbCircle
 10
142.4260004196564
 20
252.3752144978441
 30
0.0
 40
4.865
100
AcDbArc
 50
259.9999999999998
 51
190.0000000000002
  0
LINE
  5
1D5
330
2
100
AcDbEntity
  8
AM_7
100
AcDbLine
 10
142.4260004196564
 20
252.3752144978441
 30
0.0
 11
142.4260004196564
 21
257.6602144978441
 31
0.0
  0
CIRCLE
  5
1D8
330
2
100
AcDbEntity
  8
AM_VIS
100
AcDbCircle
 10
142.4260004196564
 20
252.3752144978442
 30
0.0
 40
2.5
  0
CIRCLE
  5
1DA
330
2
100
AcDbEntity
  8
AM_VIS
100
AcDbCircle
 10
142.4260004196564
 20
252.3752144978442
 30
0.0
 40
4.285
  0
LINE
  5
1DB
330
2
100
AcDbEntity
  8
AM_7
100
AcDbLine
 10
142.1260004196564
 20
252.3752144978441
 30
0.0
 11
144.6260004196564
 21
252.3752144978441
 31
0.0
  0
LINE
  5
1DC
330
2
100
AcDbEntity
  8
AM_7
100
AcDbLine
 10
138.1260004196564
 20
252.3752144978441
 30
0.0
 11
147.9648267660413
 21
252.3752144978441
 31
0.0
  0
LINE
  5
1DD
330
2
100
AcDbEntity
  8
AM_7
100
AcDbLine
 10
142.4260004196564
 20
252.3752144978441
 30
0.0
 11
147.7110004196565
 21
252.3752144978441
 31
0.0
  0
LINE
  5
1E0
102
{ACAD_REACTORS
330
900
102
}
330
2
100
AcDbEntity
  8
AM_7
100
AcDbLine
 10
142.4260004196564
 20
247.0902144978442
 30
0.0
 11
142.4260004196564
 21
252.3752144978441
 31
0.0
  0
LINE
  5
1E2
330
2
100
AcDbEntity
  8
AM_7
100
AcDbLine
 10
137.1410004196565
 20
252.3752144978441
 30
0.0
 11
142.4260004196564
 21
252.3752144978441
 31
0.0
  0
LINE
  5
1E9
330
2
100
AcDbEntity
  8
AM_7
100
AcDbLine
 10
144.6260004196564
 20
252.3752144978441
 30
0.0
 11
147.1260004196564
 21
252.3752144978441
 31
0.0
  0
LINE
  5
1EA
330
2
100
AcDbEntity
  8
AM_7
100
AcDbLine
 10
144.6260004196564
 20
252.3752144978441
 30
0.0
 11
144.6260004196564
 21
252.3752144978441
 31
0.0
  0
LINE
  5
1EB
330
2
100
AcDbEntity
  8
AM_7
100
AcDbLine
 10
144.6260004196564
 20
252.3752144978441
 30
0.0
 11
144.6260004196564
 21
252.3752144978441
 31
0.0
  0
LINE
  5
1EC
102
{ACAD_REACTORS
330
900
330
941
102
}
330
2
100
AcDbEntity
  8
AM_VIS
100
AcDbLine
 10
164.9260004196564
 20
244.1252144978442
 30
0.0
 11
164.9260004196564
 21
260.6252144978442
 31
0.0
  0
ARC
  5
1EE
330
2
100
AcDbEntity
  8
AM_4
100
AcDbCircle
 10
207.06277397
 20
191.7540090006052
 30
0.0
 40
4.865
100
AcDbArc
 50
259.9999999999998
 51
190.0000000000002
  0
LINE
  5
3E3
330
2
100
AcDbEntity
  8
AM_HID
100
AcDbLine
 10
202.77777397
 20
208.2540090006052
 30
0.0
 11
211.3477739699999
 21
208.2540090006052
 31
0.0
  0
LINE
  5
3E4
330
2
100
AcDbEntity
  8
AM_4
  6
AM_ISO02W050
100
AcDbLine
 10
202.19777397
 20
208.2540090006052
 30
0.0
 11
202.6960494038172
 21
201.7125169284194
 31
0.0
  0
LINE
  5
3E5
330
2
100
AcDbEntity
  8
AM_HID
100
AcDbLine
 10
202.77777397
 20
208.2540090006052
 30
0.0
 11
203.1593776491387
 21
201.7125169284195
 31
0.0
  0
LINE
  5
3E6
330
2
100
AcDbEntity
  8
AM_HID
100
AcDbLine
 10
202.77777397
 20
208.2540090006052
 30
0.0
 11
202.2777739699999
 21
208.7540090006052
 31
0.0
  0
LINE
  5
3E7
330
2
100
AcDbEntity
  8
AM_4
  6
AM_ISO02W050
100
AcDbLine
 10
211.92777397
 20
208.2540090006052
 30
0.0
 11
211.4737350349651
 21
201.5446083189627
 31
0.0
  0
LINE
  5
3E8
330
2
100
AcDbEntity
  8
AM_HID
100
AcDbLine
 10
211.3477739699999
 20
208.2540090006052
 30
0.0
 11
211.0067525607709
 21
201.7125169284194
 31
0.0
  0
LINE
  5
3E9
330
2
100
AcDbEntity
  8
AM_HID
100
AcDbLine
 10
211.3477739699999
 20
208.2540090006052
 30
0.0
 11
211.84777397
 21
208.7540090006052
 31
0.0
  0
DIMENSION
  5
8E9
102
{ACAD_XDICTIONARY
360
8F6
102
}
102
{ACAD_REACTORS
330
900
102
}
330
2
100
AcDbEntity
  8
AM_5
100
AcDbDimension
  2
*D1
 10
142.4260004196564
 20
236.9215547993511
 30
0.0
 11
153.6760004196564
 21
239.2218500749416
 31
0.0
 70
    32
 71
     5
 42
22.5
  3
AM_ISO
100
AcDbAlignedDimension
 13
164.9260004196564
 23
244.1252144978442
 33
0.0
 14
142.4260004196564
 24
247.0902144978442
 34
0.0
100
AcDbRotatedDimension
  0
DIMENSION
  5
92A
102
{ACAD_XDICTIONARY
360
937
102
}
102
{ACAD_REACTORS
330
941
102
}
330
2
100
AcDbEntity
  8
AM_5
100
AcDbDimension
  2
*D2
 10
119.9260004196565
 20
230.9215547993511
 30
0.0
 11
142.4260004196564
 21
233.2215547993511
 31
0.0
 70
    32
 71
     5
 42
45.0
  3
AM_ISO
100
AcDbAlignedDimension
 13
164.9260004196564
 23
244.1252144978442
 33
0.0
 14
119.9260004196565
 24
244.1252144978442
 34
0.0
100
AcDbRotatedDimension
  0
DIMENSION
  5
981
102
{ACAD_XDICTIONARY
360
98E
102
}
102
{ACAD_REACTORS
330
998
102
}
330
2
100
AcDbEntity
  8
AM_5
100
AcDbDimension
  2
*D3
 10
154.4260004196565
 20
215.0746318104265
 30
0.0
 11
142.4260004196564
 21
217.3749270860171
 31
0.0
 70
    32
 71
     5
 42
24.0
  3
AM_ISO
100
AcDbAlignedDimension
 13
130.4260004196565
 23
207.7540090006052
 33
0.0
 14
154.4260004196565
 24
207.7540090006052
 34
0.0
100
AcDbRotatedDimension
  0
DIMENSION
  5
9C2
102
{ACAD_XDICTIONARY
360
9CF
102
}
102
{ACAD_REACTORS
330
9D9
102
}
330
2
100
AcDbEntity
  8
AM_5
100
AcDbDimension
  2
*D4
 10
164.9260004196564
 20
221.0746318104265
 30
0.0
 11
142.4260004196564
 21
223.3746318104266
 31
0.0
 70
    32
 71
     5
 42
45.0
  3
AM_ISO
100
AcDbAlignedDimension
 13
119.9260004196565
 23
208.7540090006052
 33
0.0
 14
164.9260004196564
 24
208.7540090006052
 34
0.0
100
AcDbRotatedDimension
  0
DIMENSION
  5
A03
102
{ACAD_XDICTIONARY
360
A10
102
}
102
{ACAD_REACTORS
330
A1A
102
}
330
2
100
AcDbEntity
  8
AM_5
100
AcDbDimension
  2
*D5
 10
112.8296692858982
 20
204.7540090006052
 30
0.0
 11
110.5293740103077
 21
193.7540090006052
 31
0.0
 70
    32
 71
     5
 42
22.0
  3
AM_ISO
100
AcDbAlignedDimension
 13
119.9260004196565
 23
182.7540090006052
 33
0.0
 14
127.4260004196565
 24
204.7540090006052
 34
0.0
 50
90.00000000000003
100
AcDbRotatedDimension
  0
DIMENSION
  5
A44
102
{ACAD_XDICTIONARY
360
A51
102
}
102
{ACAD_REACTORS
330
A5B
102
}
330
2
100
AcDbEntity
  8
AM_5
100
AcDbDimension
  2
*D6
 10
106.8296692858982
 20
208.7540090006052
 30
0.0
 11
104.5293740103077
 21
195.7540090006052
 31
0.0
 70
    32
 71
     5
 42
26.0
  3
AM_ISO
100
AcDbAlignedDimension
 13
119.9260004196565
 23
182.7540090006052
 33
0.0
 14
119.9260004196565
 24
208.7540090006052
 34
0.0
 50
90.00000000000003
100
AcDbRotatedDimension
  0
DIMENSION
  5
A85
102
{ACAD_XDICTIONARY
360
A92
102
}
102
{ACAD_REACTORS
330
A9C
102
}
330
2
100
AcDbEntity
  8
AM_5
100
AcDbDimension
  2
*D7
 10
207.06277397
 20
215.0746318104265
 30
0.0
 11
211.18777397
 21
217.3749270860171
 31
0.0
 70
    32
 71
     5
 42
8.25
  3
AM_ISO
100
AcDbAlignedDimension
 13
215.31277397
 23
208.7540090006052
 33
0.0
 14
207.06277397
 24
210.4756904076738
 34
0.0
100
AcDbRotatedDimension
  0
DIMENSION
  5
AC6
102
{ACAD_XDICTIONARY
360
AD3
102
}
102
{ACAD_REACTORS
330
ADD
102
}
330
2
100
AcDbEntity
  8
AM_5
100
AcDbDimension
  2
*D8
 10
198.8127739699999
 20
221.0746318104265
 30
0.0
 11
207.06277397
 21
223.3746318104266
 31
0.0
 70
    32
 71
     5
 42
16.5
  3
AM_ISO
100
AcDbAlignedDimension
 13
215.31277397
 23
208.7540090006052
 33
0.0
 14
198.8127739699999
 24
208.7540090006052
 34
0.0
100
AcDbRotatedDimension
  0
DIMENSION
  5
B07
102
{ACAD_XDICTIONARY
360
B14
102
}
102
{ACAD_REACTORS
330
B1E
102
}
330
2
100
AcDbEntity
  8
AM_5
100
AcDbDimension
  2
*D9
 10
193.0211380035982
 20
191.7540090006052
 30
0.0
 11
190.7211380035982
 21
187.2540090006052
 31
0.0
 70
    32
 71
     5
 42
9.0
  3
AM_ISO
100
AcDbAlignedDimension
 13
198.8127739699999
 23
182.7540090006052
 33
0.0
 14
199.459216978134
 24
191.7540090006052
 34
0.0
 50
90.0
100
AcDbRotatedDimension
  0
LINE
  5
1033
330
2
100
AcDbEntity
  8
AM_7
100
AcDbLine
 10
166.3182847970708
 20
191.7540090006052
 30
0.0
 11
157.6668004238342
 21
191.7540090006052
 31
0.0
  0
INSERT
  5
1056
330
2
100
AcDbEntity
  8
AM_5
100
AcDbBlockReference
  2
*S10
 10
0.0
 20
0.0
 30
0.0
  0
TEXT
  5
1057
330
2
100
AcDbEntity
  8
AM_5
100
AcDbText
 10
168.258454325497
 20
218.2422346887081
 30
0.0
 40
3.0
  1
2-%%c4.2
100
AcDbText
  0
TEXT
  5
1059
330
2
100
AcDbEntity
  8
AM_5
100
AcDbText
 10
172.4478153584471
 20
200.5000491554232
 30
0.0
 40
3.0
  1
3-PT1/8
100
AcDbText
  0
LINE
  5
10BE
330
2
100
AcDbEntity
  8
AM_VIS
100
AcDbLine
 10
211.2816274872485
 20
192.5040090006052
 30
0.0
 11
214.2738765209279
 21
192.5040090006052
 31
0.0
  0
LINE
  5
10BF
330
2
100
AcDbEntity
  8
AM_VIS
100
AcDbLine
 10
211.2816274872485
 20
191.0040090006052
 30
0.0
 11
214.2738765209279
 21
191.0040090006052
 31
0.0
  0
LINE
  5
1103
330
2
100
AcDbEntity
  8
0
100
AcDbLine
 10
143.7450043643155
 20
190.9418090006052
 30
0.0
 11
133.4810654953943
 21
190.9418090006052
 31
0.0
  0
LWPOLYLINE
  5
1104
330
2
100
AcDbEntity
  8
0
100
AcDbPolyline
 90
        6
 70
     0
 43
0.0
 10
148.5267043643155
 20
187.7540090006052
 10
148.5267043643155
 20
194.1296090006052
 10
135.7755043643154
 20
194.1296090006052
 10
135.7755043643154
 20
192.5357090006052
 10
135.7755043643154
 20
187.7540090006052
 10
148.5267043643155
 20
187.7540090006052
  0
TEXT
  5
1105
330
2
100
AcDbEntity
  8
0
100
AcDbText
 10
130.2079740081638
 20
189.6070273815849
 30
0.0
 40
2.390850000000014
  1
E
100
AcDbText
  0
LINE
  5
1106
330
2
100
AcDbEntity
  8
0
100
AcDbLine
 10
147.7297543643155
 20
190.9418090006052
 30
0.0
 11
151.7145043643155
 21
190.9418090006052
 31
0.0
  0
TEXT
  5
1107
330
2
100
AcDbEntity
  8
0
100
AcDbText
 10
141.0420733536763
 20
200.0356260682992
 30
0.0
 40
2.390850000000014
  1
A
100
AcDbText
  0
LINE
  5
1108
330
2
100
AcDbEntity
  8
0
100
AcDbLine
 10
142.1511043643155
 20
190.9418090006052
 30
0.0
 11
142.1511043643155
 21
199.3986581879599
 31
0.0
  0
LINE
  5
1109
330
2
100
AcDbEntity
  8
0
100
AcDbLine
 10
136.5724543643153
 20
190.9418090006052
 30
0.0
 11
138.8265692619654
 21
193.1959238982553
 31
0.0
  0
LINE
  5
110A
330
2
100
AcDbEntity
  8
0
100
AcDbLine
 10
136.5724543643153
 20
190.9418090006052
 30
0.0
 11
138.8265692619654
 21
188.6876941029552
 31
0.0
  0
LINE
  5
110B
330
2
100
AcDbEntity
  8
0
  6
Continuous
100
AcDbLine
 10
147.7297543643155
 20
190.9418090006052
 30
0.0
 11
145.4756394666655
 21
193.1959238982553
 31
0.0
  0
LINE
  5
110C
330
2
100
AcDbEntity
  8
0
  6
Continuous
100
AcDbLine
 10
147.7297543643155
 20
190.9418090006052
 30
0.0
 11
145.4756394666655
 21
188.6876941029552
 31
0.0
  0
CIRCLE
  5
110D
330
2
100
AcDbEntity
  8
0
100
AcDbCircle
 10
145.3389043643155
 20
190.9418090006052
 30
0.0
 40
1.59390000000001
  0
TEXT
  5
110E
330
2
100
AcDbEntity
  8
0
100
AcDbText
 10
152.8454271512321
 20
189.6070273815849
 30
0.0
 40
2.390850000000014
  1
E
100
AcDbText
  0
INSERT
  5
110F
330
2
100
AcDbEntity
  8
AM_5
100
AcDbBlockReference
  2
*S11
 10
0.0
 20
0.0
 30
0.0
  0
TEXT
  5
1327
330
2
100
AcDbEntity
  8
LOGO
 62
     7
100
AcDbText
 10
147.7566995622824
 20
164.1183600342827
 30
0.0
 40
3.12760180995475
  1
Order example:
 41
0.8
  7
CHINESET
100
AcDbText
  0
TEXT
  5
1328
330
2
100
AcDbEntity
  8
LOGO
 62
     7
100
AcDbText
 10
148.3178171912028
 20
168.5213758044812
 30
0.0
 40
4.691402714932126
  1
訂購代號:
  7
CHINESET
100
AcDbText
  0
LINE
  5
1329
330
2
100
AcDbEntity
  8
LOGO
 62
     1
100
AcDbLine
 10
230.2060078207888
 20
174.3944785261477
 30
0.0
 11
94.79231610338798
 21
174.3944785261477
 31
0.0
  0
LINE
  5
132A
330
2
100
AcDbEntity
  8
LOGO
 62
     1
100
AcDbLine
 10
230.2060078207888
 20
150.937464951487
 30
0.0
 11
94.79231610338798
 21
150.937464951487
 31
0.0
  0
LINE
  5
132B
330
2
100
AcDbEntity
  8
LOGO
 62
     1
100
AcDbLine
 10
146.3977459676415
 20
150.937464951487
 30
0.0
 11
146.3977459676415
 21
174.3944785261477
 31
0.0
  0
LINE
  5
132C
330
2
100
AcDbEntity
  8
LOGO
 62
     1
100
AcDbLine
 10
94.79231610338798
 20
150.937464951487
 30
0.0
 11
94.79231610338798
 21
174.3944785261477
 31
0.0
  0
TEXT
  5
132D
330
2
100
AcDbEntity
  8
LOGO
  6
Continuous
 62
     5
100
AcDbText
 10
103.2181808207226
 20
155.5455598685091
 30
0.0
 40
3.518552036199094
  1
金器工業股份有限公司
  7
CHINESET
100
AcDbText
  0
TEXT
  5
132E
330
2
100
AcDbEntity
  8
LOGO
  6
Continuous
 62
     5
100
AcDbText
 10
98.43760073387517
 20
152.0263184719761
 30
0.0
 40
2.345701357466063
  1
MINDMAN INDUSTRIAL CO.,LTD
 41
0.85
  7
CHINESET
100
AcDbText
  0
LINE
  5
132F
330
2
100
AcDbEntity
  8
LOGO
 62
     1
100
AcDbLine
 10
146.3977459676415
 20
169.7030758112157
 30
0.0
 11
111.9941260581392
 21
169.7030758112157
 31
0.0
  0
LINE
  5
1330
330
2
100
AcDbEntity
  8
LOGO
 62
     1
100
AcDbLine
 10
146.3977459676415
 20
165.0116730962834
 30
0.0
 11
111.9941260581392
 21
165.0116730962834
 31
0.0
  0
LINE
  5
1331
330
2
100
AcDbEntity
  8
LOGO
 62
     1
100
AcDbLine
 10
146.3977459676415
 20
160.3202703813513
 30
0.0
 11
94.79231610338798
 21
160.3202703813513
 31
0.0
  0
SOLID
  5
1332
330
2
100
AcDbEntity
  8
LOGO
 62
     5
100
AcDbTrace
 10
97.22601890740271
 20
164.2196650038424
 30
0.0
 11
98.24023862316733
 21
164.219665003842
 31
0.0
 12
102.4719829544618
 22
173.8372657567838
 32
0.0
 13
103.4862026702264
 23
173.837265756783
 33
0.0
  0
SOLID
  5
1333
330
2
100
AcDbEntity
  8
LOGO
 62
     5
100
AcDbTrace
 10
98.65991574693277
 20
164.2196650038424
 30
0.0
 11
99.67413546269717
 21
164.2196650038424
 31
0.0
 12
103.4862026702264
 22
173.067857696548
 32
0.0
 13
102.4719829544618
 23
169.3490520720772
 33
0.0
  0
SOLID
  5
1334
330
2
100
AcDbEntity
  8
LOGO
 62
     2
100
AcDbTrace
 10
98.24023862316733
 20
164.219665003842
 30
0.0
 11
98.65991574693277
 21
164.2196650038424
 31
0.0
 12
103.4862026702264
 22
173.837265756783
 32
0.0
 13
103.9058797939914
 23
173.837265756783
 33
0.0
  0
SOLID
  5
1335
330
2
100
AcDbEntity
  8
LOGO
 62
     5
100
AcDbTrace
 10
95.59997598589143
 20
160.7223556391367
 30
0.0
 11
95.94970692236262
 21
160.7223556391367
 31
0.0
 12
96.9345764603441
 22
162.4710103214893
 32
0.0
 13
97.28430739681449
 23
162.4710103214893
 33
0.0
  0
SOLID
  5
1336
330
2
100
AcDbEntity
  8
LOGO
 62
     5
100
AcDbTrace
 10
96.9345764603441
 20
162.4710103214893
 30
0.0
 11
97.28430739681449
 21
162.4710103214893
 31
0.0
 12
96.9345764603441
 22
160.7223556391367
 32
0.0
 13
97.28430739681449
 23
160.7223556391367
 33
0.0
  0
SOLID
  5
1337
330
2
100
AcDbEntity
  8
LOGO
 62
     5
100
AcDbTrace
 10
96.9345764603441
 20
160.7223556391367
 30
0.0
 11
97.28430739681449
 21
160.7223556391367
 31
0.0
 12
98.26917693479726
 22
162.4710103214893
 32
0.0
 13
98.61890787126743
 23
162.4710103214893
 33
0.0
  0
SOLID
  5
1338
330
2
100
AcDbEntity
  8
LOGO
 62
     5
100
AcDbTrace
 10
98.26917693479726
 20
162.4710103214893
 30
0.0
 11
98.61890787126743
 21
162.4710103214893
 31
0.0
 12
98.26917693479726
 22
160.7223556391367
 32
0.0
 13
98.61890787126743
 23
160.7223556391367
 33
0.0
  0
POLYLINE
  5
1339
330
2
100
AcDbEntity
  8
LOGO
 62
     5
100
AcDb2dPolyline
 66
     1
 10
0.0
 20
0.0
 30
0.0
 40
0.350291402714932
 41
0.350291402714932
  0
VERTEX
  5
133A
330
1339
100
AcDbEntity
  8
LOGO
 62
     5
100
AcDbVertex
100
AcDb2dVertex
 10
109.9920387879462
 20
161.7715484485481
 30
0.0
 42
1.0
  0
VERTEX
  5
133B
330
1339
100
AcDbEntity
  8
LOGO
 62
     5
100
AcDbVertex
100
AcDb2dVertex
 10
108.9411645798013
 20
161.7715484485481
 30
0.0
 42
1.0
  0
SEQEND
  5
133C
330
1339
100
AcDbEntity
  8
LOGO
 62
     5
  0
POLYLINE
  5
133D
330
2
100
AcDbEntity
  8
LOGO
 62
     5
100
AcDb2dPolyline
 66
     1
 10
0.0
 20
0.0
 30
0.0
 70
     1
  0
VERTEX
  5
133E
330
133D
100
AcDbEntity
  8
LOGO
 62
     5
100
AcDbVertex
100
AcDb2dVertex
 10
106.9602199545631
 20
161.5966829803129
 30
0.0
 42
1.000000057330635
  0
VERTEX
  5
133F
330
133D
100
AcDbEntity
  8
LOGO
 62
     5
100
AcDbVertex
100
AcDb2dVertex
 10
108.0094127639751
 20
161.5966829803129
 30
0.0
 42
1.000000057330635
  0
SEQEND
  5
1340
330
133D
100
AcDbEntity
  8
LOGO
 62
     5
  0
CIRCLE
  5
1341
330
2
100
AcDbEntity
  8
LOGO
 62
     5
100
AcDbCircle
 10
107.4848163592693
 20
161.5966829803129
 30
0.0
 40
0.5245964047058825
  0
POLYLINE
  5
1342
330
2
100
AcDbEntity
  8
LOGO
 62
     5
100
AcDb2dPolyline
 66
     1
 10
0.0
 20
0.0
 30
0.0
 70
     1
 40
0.350291402714932
 41
0.350291402714932
  0
VERTEX
  5
1343
330
1342
100
AcDbEntity
  8
LOGO
 62
     5
100
AcDbVertex
100
AcDb2dVertex
 10
106.7842335538393
 20
161.5966829803129
 30
0.0
 42
1.0
  0
VERTEX
  5
1344
330
1342
100
AcDbEntity
  8
LOGO
 62
     5
100
AcDbVertex
100
AcDb2dVertex
 10
108.185399164699
 20
161.5966829803129
 30
0.0
 42
1.0
  0
SEQEND
  5
1345
330
1342
100
AcDbEntity
  8
LOGO
 62
     5
  0
LINE
  5
1346
330
2
100
AcDbEntity
  8
LOGO
 62
     5
100
AcDbLine
 10
110.1660635568147
 20
160.7223556391367
 30
0.0
 11
110.1660635568147
 21
161.7715484485481
 31
0.0
  0
SOLID
  5
1347
330
2
100
AcDbEntity
  8
LOGO
 62
     5
100
AcDbTrace
 10
108.0093777908822
 20
162.4710103214893
 30
0.0
 11
108.3591087273524
 21
162.4710103214893
 31
0.0
 12
108.0093777908822
 22
160.7223556391367
 32
0.0
 13
108.3591087273524
 23
160.7223556391367
 33
0.0
  0
SOLID
  5
1348
330
2
100
AcDbEntity
  8
LOGO
 62
     5
100
AcDbTrace
 10
108.7671398109321
 20
160.7223556391367
 30
0.0
 11
109.1168707474032
 21
160.7223556391367
 31
0.0
 12
108.7671398109321
 22
162.4710103214893
 32
0.0
 13
109.1168707474032
 23
162.4710103214893
 33
0.0
  0
SOLID
  5
1349
330
2
100
AcDbEntity
  8
LOGO
 62
     5
100
AcDbTrace
 10
109.8163326203444
 20
161.7715484485481
 30
0.0
 11
110.1660635568147
 21
161.7715484485481
 31
0.0
 12
109.8163326203444
 22
160.7223556391367
 32
0.0
 13
110.1660635568147
 23
160.7223556391367
 33
0.0
  0
LINE
  5
134A
330
2
100
AcDbEntity
  8
LOGO
 62
     1
100
AcDbLine
 10
111.9941260581392
 20
160.3202703813513
 30
0.0
 11
111.9941260581392
 21
174.3944785261477
 31
0.0
  0
SOLID
  5
134B
330
2
100
AcDbEntity
  8
LOGO
 62
     5
100
AcDbTrace
 10
108.7321667172851
 20
173.067857696548
 30
0.0
 11
107.7179470015205
 21
169.3490520720772
 31
0.0
 12
108.7321667172851
 22
164.219665003842
 32
0.0
 13
107.7179470015205
 23
164.219665003842
 33
0.0
  0
SOLID
  5
134C
330
2
100
AcDbEntity
  8
LOGO
 62
     5
100
AcDbTrace
 10
109.1518438410501
 20
164.219665003842
 30
0.0
 11
110.1660635568147
 21
164.219665003842
 31
0.0
 12
109.1518438410501
 22
173.837265756783
 32
0.0
 13
110.1660635568147
 23
173.8372657567838
 33
0.0
  0
SOLID
  5
134D
330
2
100
AcDbEntity
  8
LOGO
 62
     2
100
AcDbTrace
 10
108.7321667172851
 20
173.8372657567838
 30
0.0
 11
109.1518438410501
 21
173.837265756783
 31
0.0
 12
108.7321667172851
 22
164.219665003842
 32
0.0
 13
109.1518438410501
 23
164.219665003842
 33
0.0
  0
POLYLINE
  5
134E
330
2
100
AcDbEntity
  8
LOGO
 62
     5
100
AcDb2dPolyline
 66
     1
 10
0.0
 20
0.0
 30
0.0
 40
0.350291402714932
 41
0.350291402714932
  0
VERTEX
  5
134F
330
134E
100
AcDbEntity
  8
LOGO
 62
     5
100
AcDbVertex
100
AcDb2dVertex
 10
104.9792053831385
 20
161.7715484485481
 30
0.0
 42
1.0
  0
VERTEX
  5
1350
330
134E
100
AcDbEntity
  8
LOGO
 62
     5
100
AcDbVertex
100
AcDb2dVertex
 10
103.9283311749936
 20
161.7715484485481
 30
0.0
 42
1.0
  0
SEQEND
  5
1351
330
134E
100
AcDbEntity
  8
LOGO
 62
     5
  0
POLYLINE
  5
1352
330
2
100
AcDbEntity
  8
LOGO
 62
     5
100
AcDb2dPolyline
 66
     1
 10
0.0
 20
0.0
 30
0.0
 40
0.350291402714932
 41
0.350291402714932
  0
VERTEX
  5
1353
330
1352
100
AcDbEntity
  8
LOGO
 62
     5
100
AcDbVertex
100
AcDb2dVertex
 10
106.0283981925501
 20
161.7715484485481
 30
0.0
 42
1.0
  0
VERTEX
  5
1354
330
1352
100
AcDbEntity
  8
LOGO
 62
     5
100
AcDbVertex
100
AcDb2dVertex
 10
104.977523984405
 20
161.7715484485481
 30
0.0
 42
1.0
  0
SEQEND
  5
1355
330
1352
100
AcDbEntity
  8
LOGO
 62
     5
  0
POLYLINE
  5
1356
330
2
100
AcDbEntity
  8
LOGO
 62
     5
100
AcDb2dPolyline
 66
     1
 10
0.0
 20
0.0
 30
0.0
 40
0.350291402714932
 41
0.350291402714932
  0
VERTEX
  5
1357
330
1356
100
AcDbEntity
  8
LOGO
 62
     5
100
AcDbVertex
100
AcDb2dVertex
 10
101.0155647877425
 20
161.7715484485481
 30
0.0
 42
1.0
  0
VERTEX
  5
1358
330
1356
100
AcDbEntity
  8
LOGO
 62
     5
100
AcDbVertex
100
AcDb2dVertex
 10
99.9646905795978
 20
161.7715484485481
 30
0.0
 42
1.0
  0
SEQEND
  5
1359
330
1356
100
AcDbEntity
  8
LOGO
 62
     5
  0
SOLID
  5
135A
330
2
100
AcDbEntity
  8
LOGO
 62
     5
100
AcDbTrace
 10
99.79066581072936
 20
162.4710103214893
 30
0.0
 11
100.1403967471995
 21
162.4710103214893
 31
0.0
 12
99.79066581072936
 22
160.7223556391367
 32
0.0
 13
100.1403967471995
 23
160.7223556391367
 33
0.0
  0
SOLID
  5
135B
330
2
100
AcDbEntity
  8
LOGO
 62
     5
100
AcDbTrace
 10
100.8398586201408
 20
161.7715484485481
 30
0.0
 11
101.1895895566117
 21
161.7715484485481
 31
0.0
 12
100.8398586201408
 22
160.7223556391367
 32
0.0
 13
101.1895895566117
 23
160.7223556391367
 33
0.0
  0
POLYLINE
  5
135C
330
2
100
AcDbEntity
  8
LOGO
 62
     5
100
AcDb2dPolyline
 66
     1
 10
0.0
 20
0.0
 30
0.0
 70
     1
 40
0.350291402714932
 41
0.350291402714932
  0
VERTEX
  5
135D
330
135C
100
AcDbEntity
  8
LOGO
 62
     5
100
AcDbVertex
100
AcDb2dVertex
 10
101.7714001490315
 20
161.5966829803129
 30
0.0
 42
1.0
  0
VERTEX
  5
135E
330
135C
100
AcDbEntity
  8
LOGO
 62
     5
100
AcDbVertex
100
AcDb2dVertex
 10
103.1725657598912
 20
161.5966829803129
 30
0.0
 42
1.0
  0
SEQEND
  5
135F
330
135C
100
AcDbEntity
  8
LOGO
 62
     5
  0
SOLID
  5
1360
330
2
100
AcDbEntity
  8
LOGO
 62
     5
100
AcDbTrace
 10
102.9965443860743
 20
162.9956067261954
 30
0.0
 11
103.3462753225445
 21
162.9956067261954
 31
0.0
 12
102.9965443860743
 22
160.7223556391367
 32
0.0
 13
103.3462753225445
 23
160.7223556391367
 33
0.0
  0
SOLID
  5
1361
330
2
100
AcDbEntity
  8
LOGO
 62
     5
100
AcDbTrace
 10
103.7543064061253
 20
162.4710103214893
 30
0.0
 11
104.1040373425957
 21
162.4710103214893
 31
0.0
 12
103.7543064061253
 22
160.7223556391367
 32
0.0
 13
104.1040373425957
 23
160.7223556391367
 33
0.0
  0
SOLID
  5
1362
330
2
100
AcDbEntity
  8
LOGO
 62
     5
100
AcDbTrace
 10
104.8034992155368
 20
161.7715484485481
 30
0.0
 11
105.1532301520072
 21
161.7715484485481
 31
0.0
 12
104.8034992155368
 22
160.7223556391367
 32
0.0
 13
105.1532301520072
 23
160.7223556391367
 33
0.0
  0
SOLID
  5
1363
330
2
100
AcDbEntity
  8
LOGO
 62
     5
100
AcDbTrace
 10
105.8526920249484
 20
161.7715484485481
 30
0.0
 11
106.2024229614185
 21
161.7715484485481
 31
0.0
 12
105.8526920249484
 22
160.722355639136
 32
0.0
 13
106.2024229614185
 23
160.722355639136
 33
0.0
  0
SOLID
  5
1364
330
2
100
AcDbEntity
  8
LOGO
 62
     5
100
AcDbTrace
 10
99.03290379067819
 20
162.7158219770185
 30
0.0
 11
99.38263472714954
 21
162.7158219770185
 31
0.0
 12
99.03290379067819
 22
162.9956067261954
 32
0.0
 13
99.38263472714954
 23
162.9956067261954
 33
0.0
  0
SOLID
  5
1365
330
2
100
AcDbEntity
  8
LOGO
 62
     5
100
AcDbTrace
 10
99.03290379067819
 20
162.4710103214893
 30
0.0
 11
99.38263472714954
 21
162.4710103214893
 31
0.0
 12
99.03290379067819
 22
160.722355639136
 32
0.0
 13
99.38263472714954
 23
160.7223556391367
 33
0.0
  0
SOLID
  5
1366
330
2
100
AcDbEntity
  8
LOGO
 62
     5
100
AcDbTrace
 10
102.4719829544618
 20
164.2196650038424
 30
0.0
 11
103.4862026702264
 21
164.2196650038424
 31
0.0
 12
102.4719829544618
 22
169.3490520720772
 32
0.0
 13
103.4862026702264
 23
173.067857696548
 33
0.0
  0
SOLID
  5
1367
330
2
100
AcDbEntity
  8
LOGO
 62
     5
100
AcDbTrace
 10
103.9058797939914
 20
173.837265756783
 30
0.0
 11
104.920099509756
 21
173.8372657567838
 31
0.0
 12
103.9058797939914
 22
164.9890730640774
 32
0.0
 13
104.920099509756
 23
168.7078786885482
 33
0.0
  0
SOLID
  5
1368
330
2
100
AcDbEntity
  8
LOGO
 62
     2
100
AcDbTrace
 10
103.4862026702264
 20
173.837265756783
 30
0.0
 11
103.9058797939914
 21
173.837265756783
 31
0.0
 12
103.4862026702264
 22
164.2196650038424
 32
0.0
 13
103.9058797939914
 23
164.2196650038424
 33
0.0
  0
SOLID
  5
1369
330
2
100
AcDbEntity
  8
LOGO
 62
     5
100
AcDbTrace
 10
103.9058797939914
 20
164.9890730640774
 30
0.0
 11
104.920099509756
 21
168.7078786885482
 31
0.0
 12
108.7321667172851
 22
173.8372657567838
 32
0.0
 13
107.7179470015205
 23
173.8372657567838
 33
0.0
  0
SOLID
  5
136A
330
2
100
AcDbEntity
  8
LOGO
 62
     5
100
AcDbTrace
 10
103.9058797939914
 20
164.2196650038424
 30
0.0
 11
104.920099509756
 21
164.2196650038424
 31
0.0
 12
108.7321667172851
 22
173.067857696548
 32
0.0
 13
107.7179470015205
 23
169.3490520720772
 33
0.0
  0
SOLID
  5
136B
330
2
100
AcDbEntity
  8
LOGO
 62
     2
100
AcDbTrace
 10
103.4862026702264
 20
164.2196650038424
 30
0.0
 11
103.9058797939914
 21
164.2196650038424
 31
0.0
 12
108.7321667172851
 22
173.8372657567838
 32
0.0
 13
109.1518438410501
 23
173.837265756783
 33
0.0
  0
TEXT
  5
136C
330
2
100
AcDbEntity
  8
LOGO
 62
     6
100
AcDbText
 10
134.2786757291053
 20
161.4931210600843
 30
0.0
 40
2.345701357466063
  1
m/m
  7
CHINESET
 72
     1
 11
138.4115781208313
 21
162.6659717388174
 31
0.0
100
AcDbText
 73
     2
  0
TEXT
  5
136D
330
2
100
AcDbEntity
  8
LOGO
 62
     6
100
AcDbText
 10
134.2786757291053
 20
170.8759264899486
 30
0.0
 40
2.345701357466063
  1
1 : 1
  7
CHINESET
 72
     1
 11
138.4115781208313
 21
172.0487771686816
 31
0.0
100
AcDbText
 73
     2
  0
LINE
  5
136E
330
2
100
AcDbEntity
  8
LOGO
 62
     1
100
AcDbLine
 10
130.7597369178676
 20
160.3202703813513
 30
0.0
 11
130.7597369178676
 21
174.3944785261477
 31
0.0
  0
CIRCLE
  5
136F
330
2
100
AcDbEntity
  8
LOGO
  6
Continuous
 62
     6
100
AcDbCircle
 10
135.103096376904
 20
167.3623919261185
 30
0.0
 40
1.361969419730946
  0
CIRCLE
  5
1370
330
2
100
AcDbEntity
  8
LOGO
  6
Continuous
 62
     6
100
AcDbCircle
 10
135.103096376904
 20
167.3623919261185
 30
0.0
 40
0.7979935116311991
  0
LINE
  5
1371
330
2
100
AcDbEntity
  8
LOGO
 62
     6
100
AcDbLine
 10
143.6618702467419
 20
166.0004225063875
 30
0.0
 11
143.6618702467419
 21
168.7243613458495
 31
0.0
  0
LINE
  5
1372
330
2
100
AcDbEntity
  8
LOGO
 62
     6
100
AcDbLine
 10
139.3921742966602
 20
166.5643984144873
 30
0.0
 11
139.3921742966602
 21
168.1603854377498
 31
0.0
  0
LINE
  5
1373
330
2
100
AcDbEntity
  8
LOGO
  6
Continuous
 62
     6
100
AcDbLine
 10
139.3921742966602
 20
168.1603854377498
 30
0.0
 11
143.6618702467419
 21
168.7243613458495
 31
0.0
  0
LINE
  5
1374
330
2
100
AcDbEntity
  8
LOGO
  6
Continuous
 62
     6
100
AcDbLine
 10
139.3921742966602
 20
166.5643984144873
 30
0.0
 11
143.6618702467419
 21
166.0004225063875
 31
0.0
  0
LINE
  5
137A
330
2
100
AcDbEntity
  8
LOGO
 62
     6
100
AcDbLine
 10
219.0263737107702
 20
161.4931210600844
 30
0.0
 11
219.0263737107702
 21
152.8922160827087
 31
0.0
  0
LINE
  5
137B
330
2
100
AcDbEntity
  8
LOGO
 62
     6
100
AcDbLine
 10
202.9641120495026
 20
161.4931210600844
 30
0.0
 11
202.9641120495026
 21
152.8922160827087
 31
0.0
  0
LINE
  5
137C
330
2
100
AcDbEntity
  8
LOGO
 62
     6
100
AcDbLine
 10
195.8636370192255
 20
161.4931210600844
 30
0.0
 11
195.8636370192255
 21
152.8922160827087
 31
0.0
  0
LINE
  5
137D
330
2
100
AcDbEntity
  8
LOGO
 62
     6
100
AcDbLine
 10
180.225627969452
 20
161.4931210600844
 30
0.0
 11
180.225627969452
 21
152.8922160827087
 31
0.0
  0
LINE
  5
137E
330
2
100
AcDbEntity
  8
LOGO
 62
     6
100
AcDbLine
 10
195.8636370192255
 20
152.8922160827087
 30
0.0
 11
180.225627969452
 21
152.8922160827087
 31
0.0
  0
LINE
  5
137F
330
2
100
AcDbEntity
  8
LOGO
 62
     6
100
AcDbLine
 10
219.0263737107702
 20
152.8922160827087
 30
0.0
 11
202.9641120495026
 21
152.8922160827087
 31
0.0
  0
LINE
  5
1380
330
2
100
AcDbEntity
  8
LOGO
  6
Continuous
 62
     7
100
AcDbLine
 10
198.6398251987984
 20
168.5052985977328
 30
0.0
 11
201.7471535846517
 21
168.5052985977328
 31
0.0
  0
LINE
  5
1381
330
2
100
AcDbEntity
  8
LOGO
 62
     6
100
AcDbLine
 10
197.4274379242029
 20
172.0487771686816
 30
0.0
 11
178.6618270644745
 21
172.0487771686816
 31
0.0
  0
LINE
  5
1382
330
2
100
AcDbEntity
  8
LOGO
 62
     6
100
AcDbLine
 10
197.4274379242029
 20
165.0116730962834
 30
0.0
 11
178.6618270644745
 21
165.0116730962834
 31
0.0
  0
LINE
  5
1383
330
2
100
AcDbEntity
  8
LOGO
 62
     6
100
AcDbLine
 10
178.6618270644745
 20
172.0487771686816
 30
0.0
 11
178.6618270644745
 21
165.0116730962834
 31
0.0
  0
LINE
  5
1384
330
2
100
AcDbEntity
  8
LOGO
 62
     6
100
AcDbLine
 10
197.4274379242029
 20
172.0487771686816
 30
0.0
 11
197.4274379242029
 21
165.0116730962834
 31
0.0
  0
LINE
  5
1385
330
2
100
AcDbEntity
  8
LOGO
 62
     6
100
AcDbLine
 10
188.0446324943386
 20
165.0116730962834
 30
0.0
 11
188.0446324943386
 21
161.4931210600844
 31
0.0
  0
TEXT
  5
1386
330
2
100
AcDbEntity
  8
LOGO
  6
Continuous
 62
     7
100
AcDbText
 10
180.5979615182559
 20
166.5754740012608
 30
0.0
 40
3.909502262443438
  1
MVAS
  7
CHINESET
 72
     1
 11
188.0446324943386
 21
168.5302251324825
 31
0.0
100
AcDbText
 73
     2
  0
LINE
  5
1387
330
2
100
AcDbEntity
  8
LOGO
 62
     6
100
AcDbLine
 10
195.8636370192255
 20
161.4931210600844
 30
0.0
 11
180.225627969452
 21
161.4931210600844
 31
0.0
  0
LINE
  5
1388
330
2
100
AcDbEntity
  8
LOGO
 62
     6
100
AcDbLine
 10
219.0263737107702
 20
172.0487771686816
 30
0.0
 11
202.9641120495026
 21
172.0487771686816
 31
0.0
  0
LINE
  5
1389
330
2
100
AcDbEntity
  8
LOGO
 62
     6
100
AcDbLine
 10
219.0263737107702
 20
161.4931210600844
 30
0.0
 11
202.9641120495026
 21
161.4931210600844
 31
0.0
  0
LINE
  5
138A
330
2
100
AcDbEntity
  8
LOGO
 62
     6
100
AcDbLine
 10
219.0263737107702
 20
165.0116730962834
 30
0.0
 11
202.9641120495026
 21
165.0116730962834
 31
0.0
  0
TEXT
  5
138B
330
2
100
AcDbEntity
  8
LOGO
  6
Continuous
 62
     7
100
AcDbText
 10
208.0752879938495
 20
166.5311399992562
 30
0.0
 40
3.909502262443438
  1
6A
  7
CHINESET
 72
     1
 11
211.4262899330867
 21
168.4858911304779
 31
0.0
100
AcDbText
 73
     2
  0
LINE
  5
138C
330
2
100
AcDbEntity
  8
LOGO
 62
     6
100
AcDbLine
 10
211.4262899330867
 20
165.0116730962834
 30
0.0
 11
211.4262899330867
 21
161.4931210600844
 31
0.0
  0
LINE
  5
138D
330
2
100
AcDbEntity
  8
LOGO
 62
     6
100
AcDbLine
 10
202.9641120495026
 20
172.0487771686816
 30
0.0
 11
202.9641120495026
 21
165.0116730962834
 31
0.0
  0
LINE
  5
1392
330
2
100
AcDbEntity
  8
LOGO
 62
     6
100
AcDbLine
 10
219.0263737107702
 20
172.0487771686816
 30
0.0
 11
219.0263737107702
 21
165.0116730962834
 31
0.0
  0
LINE
  5
1393
330
2
100
AcDbEntity
  8
LOGO
 62
     1
100
AcDbLine
 10
230.2060078207888
 20
150.937464951487
 30
0.0
 11
230.2060078207888
 21
174.3944785261477
 31
0.0
  0
TEXT
  5
13A1
330
2
100
AcDbEntity
  8
LOGO
 62
     6
100
AcDbText
 10
113.9282824899428
 20
170.8770808705379
 30
153.7334026510848
 40
2.345701357466063
  1
比例 Scale:
 41
0.9
  7
CHINESET
 72
     4
 11
121.3769314880035
 21
172.0487771686816
 31
153.7334026510848
100
AcDbText
  0
TEXT
  5
13A2
330
2
100
AcDbEntity
  8
LOGO
 62
     6
100
AcDbText
 10
114.7482307769499
 20
166.217519820194
 30
153.7334026510848
 40
2.345701357466063
  1
投影 View:
 41
0.9
  7
CHINESET
 72
     4
 11
121.3769314880035
 21
167.3573744537494
 31
153.7334026510848
100
AcDbText
  0
TEXT
  5
13A3
330
2
100
AcDbEntity
  8
LOGO
 62
     6
100
AcDbText
 10
114.9775649721664
 20
161.4931210600843
 30
153.7334026510848
 40
2.345701357466063
  1
單位 Unit:
 41
0.9
  7
CHINESET
 72
     4
 11
121.3769314880035
 21
162.6659717388174
 31
153.7334026510848
100
AcDbText
  0
TEXT
  5
13A4
330
2
100
AcDbEntity
  8
LOGO
  6
Continuous
 62
     6
100
AcDbText
 10
184.3212970062973
 20
153.8695916483196
 30
153.7334026510848
 40
1.954751131221719
  1
Model
  7
CHINESET
 72
     4
 11
188.0446324943386
 21
154.8469672139305
 31
153.7334026510848
100
AcDbText
  0
TEXT
  5
13A5
330
2
100
AcDbEntity
  8
LOGO
  6
Continuous
 62
     6
100
AcDbText
 10
204.7242860546123
 20
153.8695916483196
 30
153.7334026510848
 40
1.954751131221719
  1
Bore size
  7
CHINESET
 72
     4
 11
211.4262899330867
 21
154.8469672139305
 31
153.7334026510848
100
AcDbText
  0
TEXT
  5
13A7
330
2
100
AcDbEntity
  8
LOGO
 62
     6
100
AcDbText
 10
184.9170306843839
 20
157.2727056255883
 30
153.7334026510848
 40
3.12760180995475
  1
型式
  7
CHINESET
 72
     4
 11
188.0446324943386
 21
158.7564694763739
 31
153.7334026510848
100
AcDbText
  0
TEXT
  5
13A8
330
2
100
AcDbEntity
  8
LOGO
 62
     6
100
AcDbText
 10
205.1385071276568
 20
157.1926685713965
 30
153.7334026510848
 40
3.12760180995475
  1
配管口徑
  7
CHINESET
 72
     4
 11
211.4262899330867
 21
158.7564694763739
 31
153.7334026510848
100
AcDbText
  0
LWPOLYLINE
  5
13AC
330
2
100
AcDbEntity
  8
0
 62
     4
100
AcDbPolyline
 90
        4
 70
     1
 43
0.0
 10
94.79231610338819
 20
174.3944785261477
 10
230.2060078207887
 20
174.3944785261477
 10
230.2060078207887
 20
269.2427227280594
 10
94.79231610338819
 20
269.2427227280594
1001
GENIUS_GENREC_14
1002
{
1000
PYDIR
1011
94.79231610338819
1021
269.2427227280594
1031
0.0
1002
}
1002
{
1000
PXDIR
1011
230.2060078207887
1021
174.3944785261477
1031
0.0
1002
}
1002
{
1000
PORI
1011
94.79231610338819
1021
174.3944785261477
1031
0.0
1002
}
1002
{
1000
PINS
1011
94.79231610338819
1021
174.3944785261477
1031
0.0
1002
}
1002
{
1000
PINS2
1011
230.2060078207887
1021
269.2427227280594
1031
0.0
1002
}
1002
{
1000
C
1070
     1
1002
}
1001
GENIUS_GENODEF_13
1002
{
1000
HIER
1070
     0
1002
}
1002
{
1000
MANEDIT
1070
     0
1002
}
1002
{
1000
NOSEL
1070
     0
1002
}
1002
{
1000
BEHIND
1070
     0
1002
}
1002
{
1000
OTHER
1070
     0
1002
}
1002
{
1000
REACTOR
1002
}
1001
GENIUS_GENOBJ-N-REC_13
1002
{
1000
OWNER
1000
GEN
1002
}
  0
LINE
  5
142F
330
2
100
AcDbEntity
  8
AM_7
100
AcDbLine
 10
116.9260004196565
 20
252.3752144978442
 30
0.0
 11
167.9260004196565
 21
252.3752144978442
 31
0.0
1001
GENIUS_GENOBJ-N-CEN_13
1002
{
1000
OWNER
1000
GEN
1002
}
1001
GENIUS_GENODEF_13
1002
{
1000
HIER
1070
     0
1002
}
1002
{
1000
MANEDIT
1070
     0
1002
}
1002
{
1000
NOSEL
1070
     0
1002
}
1002
{
1000
BEHIND
1070
     0
1002
}
1002
{
1000
OTHER
1070
     0
1002
}
1002
{
1000
REACTOR
1002
}
1001
GENIUS_GENCEN_19
1002
{
1040
3.0
1002
}
  0
CIRCLE
  5
155D
330
2
100
AcDbEntity
  8
0
100
AcDbCircle
 10
154.4260004196565
 20
204.7540090006052
 30
0.0
 40
2.1
  0
CIRCLE
  5
1560
330
2
100
AcDbEntity
  8
0
100
AcDbCircle
 10
130.4260004196565
 20
204.7540090006052
 30
0.0
 40
2.1
  0
ENDSEC
  0
SECTION
  2
OBJECTS
  0
DICTIONARY
  5
8
330
0
100
AcDbDictionary
281
     1
  3
ACAD_COLOR
350
122E
  3
ACAD_GROUP
350
21
  3
ACAD_LAYOUT
350
C
  3
ACAD_MATERIAL
350
122D
  3
ACAD_MLINESTYLE
350
22
  3
ACAD_PLOTSETTINGS
350
23
  3
ACAD_PLOTSTYLENAME
350
7
  3
ACAD_TABLESTYLE
350
122F
  3
ACDBHEADERROUNDTRIPXREC
350
156E
  3
AcDbVariableDictionary
350
147
  3
AcmDictionary
350
169
  3
AMG
350
14F
  3
AMGSNAPSETTINGS
350
199
  3
DWGPROPS
350
156D
  3
MAPISURF_MODULE
350
1508
  0
DICTIONARY
  5
3
330
2
100
AcDbDictionary
280
     1
281
     1
  3
ACAD_INDEX
360
1561
  0
DICTIONARY
  5
8F6
330
8E9
100
AcDbDictionary
280
     1
281
     1
  3
ACAD_DIMASSOC
360
900
  0
DICTIONARY
  5
937
330
92A
100
AcDbDictionary
280
     1
281
     1
  3
ACAD_DIMASSOC
360
941
  0
DICTIONARY
  5
98E
330
981
100
AcDbDictionary
280
     1
281
     1
  3
ACAD_DIMASSOC
360
998
  0
DICTIONARY
  5
9CF
330
9C2
100
AcDbDictionary
280
     1
281
     1
  3
ACAD_DIMASSOC
360
9D9
  0
DICTIONARY
  5
A10
330
A03
100
AcDbDictionary
280
     1
281
     1
  3
ACAD_DIMASSOC
360
A1A
  0
DICTIONARY
  5
A51
330
A44
100
AcDbDictionary
280
     1
281
     1
  3
ACAD_DIMASSOC
360
A5B
  0
DICTIONARY
  5
A92
330
A85
100
AcDbDictionary
280
     1
281
     1
  3
ACAD_DIMASSOC
360
A9C
  0
DICTIONARY
  5
AD3
330
AC6
100
AcDbDictionary
280
     1
281
     1
  3
ACAD_DIMASSOC
360
ADD
  0
DICTIONARY
  5
B14
330
B07
100
AcDbDictionary
280
     1
281
     1
  3
ACAD_DIMASSOC
360
B1E
  0
DICTIONARY
  5
122E
102
{ACAD_REACTORS
330
8
102
}
330
8
100
AcDbDictionary
281
     1
  0
DICTIONARY
  5
21
102
{ACAD_REACTORS
330
8
102
}
330
8
100
AcDbDictionary
281
     1
  0
DICTIONARY
  5
C
102
{ACAD_REACTORS
330
8
102
}
330
8
100
AcDbDictionary
281
     1
  3
Layout2
350
10
  3
Model
350
B
  0
DICTIONARY
  5
122D
102
{ACAD_REACTORS
330
8
102
}
330
8
100
AcDbDictionary
281
     1
  0
DICTIONARY
  5
22
102
{ACAD_REACTORS
330
8
102
}
330
8
100
AcDbDictionary
281
     1
  3
Standard
350
24
  0
DICTIONARY
  5
23
102
{ACAD_REACTORS
330
8
102
}
330
8
100
AcDbDictionary
281
     1
  0
ACDBDICTIONARYWDFLT
  5
7
102
{ACAD_REACTORS
330
8
102
}
330
8
100
AcDbDictionary
281
     1
  3
Normal
350
6
100
AcDbDictionaryWithDefault
340
6
  0
DICTIONARY
  5
122F
102
{ACAD_REACTORS
330
8
102
}
330
8
100
AcDbDictionary
281
     1
  3
Standard
350
1230
  0
DICTIONARY
  5
156E
102
{ACAD_REACTORS
330
8
102
}
330
8
100
AcDbDictionary
281
     1
  0
DICTIONARY
  5
147
102
{ACAD_REACTORS
330
8
102
}
330
8
100
AcDbDictionary
281
     1
  3
CTABLESTYLE
350
1295
  3
DIMASSOC
350
149
  3
HIDETEXT
350
148
  3
INDEXCTL
350
1AB
  3
PROJECTNAME
350
147A
  0
DICTIONARY
  5
169
102
{ACAD_REACTORS
330
8
102
}
330
8
100
AcDbDictionary
281
     1
  3
AcmStdDictionary
350
16F
  3
AMDTSECTSYM_ARROWCOLOR
350
1240
  0
DICTIONARY
  5
14F
102
{ACAD_REACTORS
330
8
102
}
330
8
100
AcDbDictionary
281
     1
  3
AcMgSettings
350
1483
  0
DICTIONARY
  5
199
102
{ACAD_REACTORS
330
8
102
}
330
8
100
AcDbDictionary
281
     1
  0
XRECORD
  5
156D
102
{ACAD_REACTORS
330
8
102
}
330
8
100
AcDbXrecord
280
     1
  1
DWGPROPS COOKIE
  2

  3

  4

  6

  7

  8

  9

300
AmdtFileType=84
301
=
302
=
303
=
304
=
305
=
306
=
307
=
308
=
309
=
 40
0.9746235069444445
 41
2453061.386136818
 42
2456538.647833114
  1

 90
        1
  0
DICTIONARY
  5
1561
102
{ACAD_REACTORS
330
3
102
}
330
3
100
AcDbDictionary
281
     1
  3
*A1
350
1562
  0
DIMASSOC
  5
900
102
{ACAD_REACTORS
330
8F6
102
}
330
8F6
100
AcDbDimAssoc
330
8E9
 90
        3
 70
     0
 71
     0
  1
AcDbOsnapPointRef
 72
    13
331
1EC
 73
     0
 91
        0
 40
0.0
 10
164.9260004196564
 20
244.1252144978442
 30
0.0
 75
     0
  1
AcDbOsnapPointRef
 72
    13
331
1E0
 73
     0
 91
        0
 40
0.0
 10
142.4260004196564
 20
247.0902144978442
 30
0.0
 75
     0
  0
DIMASSOC
  5
941
102
{ACAD_REACTORS
330
937
102
}
330
937
100
AcDbDimAssoc
330
92A
 90
        3
 70
     0
 71
     0
  1
AcDbOsnapPointRef
 72
    13
331
1EC
 73
     0
 91
        0
 40
0.0
 10
164.9260004196564
 20
244.1252144978442
 30
0.0
 75
     0
  1
AcDbOsnapPointRef
 72
    13
331
1D3
 73
     0
 91
        0
 40
0.0
 10
119.9260004196565
 20
244.1252144978442
 30
0.0
 75
     0
  0
DIMASSOC
  5
998
102
{ACAD_REACTORS
330
98E
102
}
330
98E
100
AcDbDimAssoc
330
981
 90
        3
 70
     0
 71
     0
  1
AcDbOsnapPointRef
 72
     1
331
30
 73
     0
 91
        0
 40
0.0
 10
130.4260004196565
 20
207.7540090006052
 30
0.0
 75
     0
  1
AcDbOsnapPointRef
 72
     1
331
36
 73
     0
 91
        0
 40
0.0
 10
154.4260004196565
 20
207.7540090006052
 30
0.0
 75
     0
  0
DIMASSOC
  5
9D9
102
{ACAD_REACTORS
330
9CF
102
}
330
9CF
100
AcDbDimAssoc
330
9C2
 90
        3
 70
     0
 71
     0
  1
AcDbOsnapPointRef
 72
    13
331
5D
 73
     0
 91
        0
 40
0.0
 10
119.9260004196565
 20
208.7540090006052
 30
0.0
 75
     0
  1
AcDbOsnapPointRef
 72
     1
331
5D
 73
     0
 91
        0
 40
0.0
 10
164.9260004196564
 20
208.7540090006052
 30
0.0
 75
     0
  0
DIMASSOC
  5
A1A
102
{ACAD_REACTORS
330
A10
102
}
330
A10
100
AcDbDimAssoc
330
A03
 90
        3
 70
     0
 71
     0
  1
AcDbOsnapPointRef
 72
    13
331
62
 73
     0
 91
        0
 40
0.0
 10
119.9260004196565
 20
182.7540090006052
 30
0.0
 75
     0
  1
AcDbOsnapPointRef
 72
    13
331
2D
 73
     0
 91
        0
 40
0.0
 10
127.4260004196565
 20
204.7540090006052
 30
0.0
 75
     0
  0
DIMASSOC
  5
A5B
102
{ACAD_REACTORS
330
A51
102
}
330
A51
100
AcDbDimAssoc
330
A44
 90
        3
 70
     0
 71
     0
  1
AcDbOsnapPointRef
 72
    13
331
62
 73
     0
 91
        0
 40
0.0
 10
119.9260004196565
 20
182.7540090006052
 30
0.0
 75
     0
  1
AcDbOsnapPointRef
 72
    13
331
5D
 73
     0
 91
        0
 40
0.0
 10
119.9260004196565
 20
208.7540090006052
 30
0.0
 75
     0
  0
DIMASSOC
  5
A9C
102
{ACAD_REACTORS
330
A92
102
}
330
A92
100
AcDbDimAssoc
330
A85
 90
        3
 70
     0
 71
     0
  1
AcDbOsnapPointRef
 72
    13
331
F5
 73
     0
 91
        0
 40
0.0
 10
215.31277397
 20
208.7540090006052
 30
0.0
 75
     0
  1
AcDbOsnapPointRef
 72
     1
331
3C
 73
     0
 91
        0
 40
0.0
 10
207.06277397
 20
210.4756904076738
 30
0.0
 75
     0
  0
DIMASSOC
  5
ADD
102
{ACAD_REACTORS
330
AD3
102
}
330
AD3
100
AcDbDimAssoc
330
AC6
 90
        3
 70
     0
 71
     0
  1
AcDbOsnapPointRef
 72
    13
331
F5
 73
     0
 91
        0
 40
0.0
 10
215.31277397
 20
208.7540090006052
 30
0.0
 75
     0
  1
AcDbOsnapPointRef
 72
     1
331
F7
 73
     0
 91
        0
 40
0.0
 10
198.8127739699999
 20
208.7540090006052
 30
0.0
 75
     0
  0
DIMASSOC
  5
B1E
102
{ACAD_REACTORS
330
B14
102
}
330
B14
100
AcDbDimAssoc
330
B07
 90
        3
 70
     0
 71
     0
  1
AcDbOsnapPointRef
 72
    13
331
F7
 73
     0
 91
        0
 40
0.0
 10
198.8127739699999
 20
182.7540090006052
 30
0.0
 75
     0
  1
AcDbOsnapPointRef
 72
    13
331
39
 73
     0
 91
        0
 40
0.0
 10
199.459216978134
 20
191.7540090006052
 30
0.0
 75
     0
  0
LAYOUT
  5
10
102
{ACAD_XDICTIONARY
360
1571
102
}
102
{ACAD_REACTORS
330
C
102
}
330
C
100
AcDbPlotSettings
  1

  2
自動 RD 上的 Epson Stylus Photo 750 單色
  4
A4
  6

 40
3.757083177566528
 41
14.7637300491333
 42
3.757080078125
 43
3.757080078125
 44
209.9733276367187
 45
296.9683227539062
 46
27.33
 47
0.0
 48
0.0
 49
0.0
140
0.0
141
0.0
142
1.0
143
0.7842212023430129
 70
   692
 72
     1
 73
     0
 74
     1
  7
彩色出圖.ctb
 75
     0
147
1.275150425686408
148
-79.70182220707124
149
-11.02268662155421
100
AcDbLayout
  1
Layout2
 70
     1
 71
     1
 10
55.32267246022277
 20
-0.5553435086447714
 11
219.9882079194537
 21
232.3335116192115
 12
0.0
 22
0.0
 32
0.0
 14
40.3919093613037
 24
115.7291726466998
 34
-0.0015258207003583
 15
212.2795617059057
 25
247.3465292502946
 35
0.0000000349246037
146
0.0
 13
0.0
 23
0.0
 33
0.0
 16
1.0
 26
0.0
 36
0.0
 17
0.0
 27
1.0
 37
0.0
 76
     0
330
D
  0
LAYOUT
  5
B
102
{ACAD_XDICTIONARY
360
156F
102
}
102
{ACAD_REACTORS
330
C
102
}
330
C
100
AcDbPlotSettings
  1

  2
\\RD\EPSON Stylus C63 Series單色
  4
A4
  6

 40
3.757083177566528
 41
3.757076978683471
 42
3.757080078125
 43
3.757080078125
 44
209.9733276367187
 45
296.9683227539062
 46
0.0
 47
6.95
 48
0.0
 49
0.0
140
0.0
141
0.0
142
1.0
143
0.9990078796685944
 70
 11956
 72
     1
 73
     0
 74
     1
  7
彩色出圖.ctb
 75
     0
147
1.000993105611674
148
-50.51971539217015
149
-1.667725302823555
100
AcDbLayout
  1
Model
 70
     1
 71
     0
 10
0.0
 20
0.0
 11
12.0
 21
9.0
 12
0.0
 22
0.0
 32
0.0
 14
0.0
 24
0.0
 34
0.0
 15
0.0
 25
0.0
 35
0.0
146
0.0
 13
0.0
 23
0.0
 33
0.0
 16
1.0
 26
0.0
 36
0.0
 17
0.0
 27
1.0
 37
0.0
 76
     0
330
2
  0
MLINESTYLE
  5
24
102
{ACAD_REACTORS
330
22
102
}
330
22
100
AcDbMlineStyle
  2
STANDARD
 70
     0
  3

 62
   256
 51
90.0
 52
90.0
 71
     2
 49
0.5
 62
   256
  6
BYLAYER
 49
-0.5
 62
   256
  6
BYLAYER
  0
ACDBPLACEHOLDER
  5
6
102
{ACAD_REACTORS
330
7
102
}
330
7
  0
TABLESTYLE
  5
1230
102
{ACAD_REACTORS
330
122F
102
}
330
122F
100
AcDbTableStyle
  3
Standard
 70
     0
 71
     0
 40
1.5
 41
1.5
280
     0
281
     0
  7
STANDARD
140
4.5
170
     2
 62
     0
 63
     7
283
     0
274
    -2
284
     1
 64
     0
275
    -2
285
     1
 65
     0
276
    -2
286
     1
 66
     0
277
    -2
287
     1
 67
     0
278
    -2
288
     1
 68
     0
279
    -2
289
     1
 69
     0
  7
STANDARD
140
6.0
170
     5
 62
     0
 63
     7
283
     0
274
    -2
284
     1
 64
     0
275
    -2
285
     1
 65
     0
276
    -2
286
     1
 66
     0
277
    -2
287
     1
 67
     0
278
    -2
288
     1
 68
     0
279
    -2
289
     1
 69
     0
  7
STANDARD
140
4.5
170
     5
 62
     0
 63
     7
283
     0
274
    -2
284
     1
 64
     0
275
    -2
285
     1
 65
     0
276
    -2
286
     1
 66
     0
277
    -2
287
     1
 67
     0
278
    -2
288
     1
 68
     0
279
    -2
289
     1
 69
     0
  0
DICTIONARYVAR
  5
1295
102
{ACAD_REACTORS
330
147
102
}
330
147
100
DictionaryVariables
280
     0
  1
STANDARD
  0
DICTIONARYVAR
  5
149
102
{ACAD_REACTORS
330
147
102
}
330
147
100
DictionaryVariables
280
     0
  1
2
  0
DICTIONARYVAR
  5
148
102
{ACAD_REACTORS
330
147
102
}
330
147
100
DictionaryVariables
280
     0
  1
1
  0
DICTIONARYVAR
  5
1AB
102
{ACAD_REACTORS
330
147
102
}
330
147
100
DictionaryVariables
280
     0
  1
1
  0
DICTIONARYVAR
  5
147A
102
{ACAD_REACTORS
330
147
102
}
330
147
100
DictionaryVariables
280
     0
  1

  0
DICTIONARY
  5
16F
102
{ACAD_REACTORS
330
169
102
}
330
169
100
AcDbDictionary
281
     1
  0
XRECORD
  5
1240
102
{ACAD_REACTORS
330
169
102
}
330
169
100
AcDbXrecord
280
     1
 90
-1023410169
  0
DICTIONARY
  5
1483
102
{ACAD_REACTORS
330
14F
102
}
330
14F
100
AcDbDictionary
281
     1
  3
DWGSETTINGS
350
1484
  3
TRANSSETTINGS
350
1488
  0
LAYER_INDEX
  5
1562
102
{ACAD_REACTORS
330
1561
102
}
330
1561
100
AcDbIndex
 40
2456538.647833114
100
AcDbLayerIndex
  8
0
360
1563
 90
       19
  8
AM_7
360
1564
 90
       30
  8
AM_4
360
1565
 90
       10
  8
AM_VIS
360
1566
 90
       33
  8
AM_HID
360
1567
 90
       21
  8
Defpoints
360
1568
 90
        0
  8
AM_5
360
1569
 90
       13
  8
LOGO
360
156A
 90
       86
  0
DICTIONARY
  5
1571
330
10
100
AcDbDictionary
280
     1
281
     1
  3
ACAD_XREC_ROUNDTRIP
360
1572
  0
DICTIONARY
  5
156F
330
B
100
AcDbDictionary
280
     1
281
     1
  3
ACAD_XREC_ROUNDTRIP
360
1570
  0
IDBUFFER
  5
1563
330
0
100
AcDbIdBuffer
330
13AC
330
155D
330
1560
330
25
330
26
330
27
330
28
330
1103
330
1104
330
1105
330
1106
330
1107
330
1108
330
1109
330
110A
330
110B
330
110C
330
110D
330
110E
  0
IDBUFFER
  5
1564
330
0
100
AcDbIdBuffer
330
3C
330
3F
330
40
330
1D5
330
1DB
330
1DC
330
1DD
330
1E0
330
1E2
330
1E9
330
1EA
330
1EB
330
1033
330
142F
330
29
330
2C
330
2D
330
2E
330
2F
330
30
330
31
330
32
330
33
330
34
330
35
330
36
330
37
330
38
330
39
330
3B
  0
IDBUFFER
  5
1565
330
0
100
AcDbIdBuffer
330
4F
330
51
330
53
330
54
330
56
330
57
330
1D4
330
1EE
330
3E4
330
3E7
  0
IDBUFFER
  5
1566
330
0
100
AcDbIdBuffer
330
101
330
102
330
103
330
104
330
105
330
10C
330
10D
330
10F
330
111
330
1D1
330
1D2
330
1D3
330
1D8
330
1DA
330
1EC
330
10BE
330
10BF
330
5B
330
5D
330
5E
330
62
330
F4
330
F5
330
F6
330
F7
330
F8
330
FA
330
FB
330
FC
330
FD
330
FE
330
FF
330
100
  0
IDBUFFER
  5
1567
330
0
100
AcDbIdBuffer
330
3E3
330
3E5
330
3E6
330
3E8
330
3E9
330
6B
330
6C
330
6D
330
6E
330
6F
330
70
330
71
330
72
330
80
330
82
330
92
330
93
330
98
330
99
330
A6
330
A7
  0
IDBUFFER
  5
1568
330
0
100
AcDbIdBuffer
  0
IDBUFFER
  5
1569
330
0
100
AcDbIdBuffer
330
8E9
330
92A
330
981
330
9C2
330
A03
330
A44
330
A85
330
AC6
330
B07
330
1056
330
1057
330
1059
330
110F
  0
IDBUFFER
  5
156A
330
0
100
AcDbIdBuffer
330
136C
330
136D
330
136E
330
136F
330
1370
330
1371
330
1372
330
1373
330
1374
330
137A
330
137B
330
137C
330
137D
330
137E
330
137F
330
1380
330
1381
330
1382
330
1383
330
1384
330
1385
330
1386
330
1387
330
1388
330
1389
330
138A
330
138B
330
138C
330
138D
330
1392
330
1393
330
13A1
330
13A2
330
13A3
330
13A4
330
13A5
330
13A7
330
13A8
330
1327
330
1328
330
1329
330
132A
330
132B
330
132C
330
132D
330
132E
330
132F
330
1330
330
1331
330
1332
330
1333
330
1334
330
1335
330
1336
330
1337
330
1338
330
1339
330
133D
330
1341
330
1342
330
1346
330
1347
330
1348
330
1349
330
134A
330
134B
330
134C
330
134D
330
134E
330
1352
330
1356
330
135A
330
135B
330
135C
330
1360
330
1361
330
1362
330
1363
330
1364
330
1365
330
1366
330
1367
330
1368
330
1369
330
136A
330
136B
  0
XRECORD
  5
1572
102
{ACAD_REACTORS
330
1571
102
}
330
1571
100
AcDbXrecord
280
     1
102
SHADEPLOT
 70
     0
102
SHADEPLOTRESLEVEL
 70
     2
102
SHADEPLOTCUSTOMDPI
 70
   300
  0
XRECORD
  5
1570
102
{ACAD_REACTORS
330
156F
102
}
330
156F
100
AcDbXrecord
280
     1
102
SHADEPLOT
 70
     0
102
SHADEPLOTRESLEVEL
 70
     2
102
SHADEPLOTCUSTOMDPI
 70
   300
  0
ENDSEC
  0
EOF
