  0
SECTION
  2
HEADER
  9
$ACADVER
  1
AC1015
  9
$ACADMAINTVER
 70
    20
  9
$DWGCODEPAGE
  3
ANSI_950
  9
$INSBASE
 10
0.0
 20
0.0
 30
0.0
  9
$EXTMIN
 10
80.23775398599999
 20
18.97970425653288
 30
0.0
  9
$EXTMAX
 10
260.8416692779372
 20
179.2090144857595
 30
211.3834286452417
  9
$LIMMIN
 10
0.0
 20
0.0
  9
$LIMMAX
 10
420.0
 20
297.0
  9
$ORTHOMODE
 70
     0
  9
$REGENMODE
 70
     1
  9
$FILLMODE
 70
     1
  9
$QTEXTMODE
 70
     0
  9
$MIRRTEXT
 70
     1
  9
$LTSCALE
 40
1.0
  9
$ATTMODE
 70
     1
  9
$TEXTSIZE
 40
3.0
  9
$TRACEWID
 40
1.0
  9
$TEXTSTYLE
  7
STANDARD
  9
$CLAYER
  8
0
  9
$CELTYPE
  6
ByLayer
  9
$CECOLOR
 62
   256
  9
$CELTSCALE
 40
1.0
  9
$DISPSILH
 70
     0
  9
$DIMSCALE
 40
1.0
  9
$DIMASZ
 40
3.0
  9
$DIMEXO
 40
1.0
  9
$DIMDLI
 40
6.0
  9
$DIMRND
 40
0.0
  9
$DIMDLE
 40
0.0
  9
$DIMEXE
 40
1.5
  9
$DIMTP
 40
0.1
  9
$DIMTM
 40
0.1
  9
$DIMTXT
 40
3.0
  9
$DIMCEN
 40
0.0
  9
$DIMTSZ
 40
0.0
  9
$DIMTOL
 70
     0
  9
$DIMLIM
 70
     0
  9
$DIMTIH
 70
     0
  9
$DIMTOH
 70
     0
  9
$DIMSE1
 70
     0
  9
$DIMSE2
 70
     0
  9
$DIMTAD
 70
     1
  9
$DIMZIN
 70
     8
  9
$DIMBLK
  1

  9
$DIMASO
 70
     1
  9
$DIMSHO
 70
     1
  9
$DIMPOST
  1

  9
$DIMAPOST
  1
"
  9
$DIMALT
 70
     0
  9
$DIMALTD
 70
     2
  9
$DIMALTF
 40
0.0393701
  9
$DIMLFAC
 40
1.0
  9
$DIMTOFL
 70
     1
  9
$DIMTVP
 40
0.0
  9
$DIMTIX
 70
     0
  9
$DIMSOXD
 70
     0
  9
$DIMSAH
 70
     0
  9
$DIMBLK1
  1

  9
$DIMBLK2
  1

  9
$DIMSTYLE
  2
AM_ISO
  9
$DIMCLRD
 70
   256
  9
$DIMCLRE
 70
   256
  9
$DIMCLRT
 70
   256
  9
$DIMTFAC
 40
0.71
  9
$DIMGAP
 40
0.8
  9
$DIMJUST
 70
     0
  9
$DIMSD1
 70
     0
  9
$DIMSD2
 70
     0
  9
$DIMTOLJ
 70
     0
  9
$DIMTZIN
 70
     8
  9
$DIMALTZ
 70
     0
  9
$DIMALTTZ
 70
     0
  9
$DIMUPT
 70
     0
  9
$DIMDEC
 70
     2
  9
$DIMTDEC
 70
     8
  9
$DIMALTU
 70
     2
  9
$DIMALTTD
 70
     2
  9
$DIMTXSTY
  7
STANDARD
  9
$DIMAUNIT
 70
     0
  9
$DIMADEC
 70
     0
  9
$DIMALTRND
 40
0.0
  9
$DIMAZIN
 70
     2
  9
$DIMDSEP
 70
    46
  9
$DIMATFIT
 70
     3
  9
$DIMFRAC
 70
     0
  9
$DIMLDRBLK
  1

  9
$DIMLUNIT
 70
     2
  9
$DIMLWD
 70
    -1
  9
$DIMLWE
 70
    -1
  9
$DIMTMOVE
 70
     0
  9
$LUNITS
 70
     2
  9
$LUPREC
 70
     2
  9
$SKETCHINC
 40
1.0
  9
$FILLETRAD
 40
2.5
  9
$AUNITS
 70
     0
  9
$AUPREC
 70
     0
  9
$MENU
  1
.
  9
$ELEVATION
 40
0.0
  9
$PELEVATION
 40
0.0
  9
$THICKNESS
 40
0.0
  9
$LIMCHECK
 70
     0
  9
$CHAMFERA
 40
2.5
  9
$CHAMFERB
 40
2.5
  9
$CHAMFERC
 40
20.0
  9
$CHAMFERD
 40
0.0
  9
$SKPOLY
 70
     0
  9
$TDCREATE
 40
2453061.386136818
  9
$TDUCREATE
 40
2453061.052803484
  9
$TDUPDATE
 40
2456538.648947662
  9
$TDUUPDATE
 40
2456538.315614329
  9
$TDINDWG
 40
0.9750527431
  9
$TDUSRTIMER
 40
0.9750526273
  9
$USRTIMER
 70
     1
  9
$ANGBASE
 50
0.0
  9
$ANGDIR
 70
     0
  9
$PDMODE
 70
     0
  9
$PDSIZE
 40
0.0
  9
$PLINEWID
 40
0.5
  9
$SPLFRAME
 70
     0
  9
$SPLINETYPE
 70
     6
  9
$SPLINESEGS
 70
     8
  9
$HANDSEED
  5
1566
  9
$SURFTAB1
 70
     6
  9
$SURFTAB2
 70
     6
  9
$SURFTYPE
 70
     6
  9
$SURFU
 70
     6
  9
$SURFV
 70
     6
  9
$UCSBASE
  2

  9
$UCSNAME
  2

  9
$UCSORG
 10
0.0
 20
0.0
 30
0.0
  9
$UCSXDIR
 10
1.0
 20
0.0
 30
0.0
  9
$UCSYDIR
 10
0.0
 20
1.0
 30
0.0
  9
$UCSORTHOREF
  2

  9
$UCSORTHOVIEW
 70
     0
  9
$UCSORGTOP
 10
0.0
 20
0.0
 30
0.0
  9
$UCSORGBOTTOM
 10
0.0
 20
0.0
 30
0.0
  9
$UCSORGLEFT
 10
0.0
 20
0.0
 30
0.0
  9
$UCSORGRIGHT
 10
0.0
 20
0.0
 30
0.0
  9
$UCSORGFRONT
 10
0.0
 20
0.0
 30
0.0
  9
$UCSORGBACK
 10
0.0
 20
0.0
 30
0.0
  9
$PUCSBASE
  2

  9
$PUCSNAME
  2

  9
$PUCSORG
 10
0.0
 20
0.0
 30
0.0
  9
$PUCSXDIR
 10
1.0
 20
0.0
 30
0.0
  9
$PUCSYDIR
 10
0.0
 20
1.0
 30
0.0
  9
$PUCSORTHOREF
  2

  9
$PUCSORTHOVIEW
 70
     0
  9
$PUCSORGTOP
 10
0.0
 20
0.0
 30
0.0
  9
$PUCSORGBOTTOM
 10
0.0
 20
0.0
 30
0.0
  9
$PUCSORGLEFT
 10
0.0
 20
0.0
 30
0.0
  9
$PUCSORGRIGHT
 10
0.0
 20
0.0
 30
0.0
  9
$PUCSORGFRONT
 10
0.0
 20
0.0
 30
0.0
  9
$PUCSORGBACK
 10
0.0
 20
0.0
 30
0.0
  9
$USERI1
 70
     0
  9
$USERI2
 70
     0
  9
$USERI3
 70
     0
  9
$USERI4
 70
     0
  9
$USERI5
 70
     0
  9
$USERR1
 40
0.0
  9
$USERR2
 40
0.0
  9
$USERR3
 40
0.0
  9
$USERR4
 40
0.0
  9
$USERR5
 40
0.0
  9
$WORLDVIEW
 70
     1
  9
$SHADEDGE
 70
     3
  9
$SHADEDIF
 70
    70
  9
$TILEMODE
 70
     1
  9
$MAXACTVP
 70
    64
  9
$PINSBASE
 10
0.0
 20
0.0
 30
0.0
  9
$PLIMCHECK
 70
     0
  9
$PEXTMIN
 10
40.3919093613037
 20
115.7291726466998
 30
-0.0015258207003583
  9
$PEXTMAX
 10
212.2795617059057
 20
247.3465292502946
 30
0.0000000349246037
  9
$PLIMMIN
 10
55.32267246022277
 20
-0.5553435086447714
  9
$PLIMMAX
 10
219.9882079194537
 20
232.3335116192115
  9
$UNITMODE
 70
     0
  9
$VISRETAIN
 70
     1
  9
$PLINEGEN
 70
     0
  9
$PSLTSCALE
 70
     1
  9
$TREEDEPTH
 70
  3020
  9
$CMLSTYLE
  2
Standard
  9
$CMLJUST
 70
     0
  9
$CMLSCALE
 40
20.0
  9
$PROXYGRAPHICS
 70
     1
  9
$MEASUREMENT
 70
     1
  9
$CELWEIGHT
370
    -1
  9
$ENDCAPS
280
     0
  9
$JOINSTYLE
280
     0
  9
$LWDISPLAY
290
     0
  9
$INSUNITS
 70
     4
  9
$HYPERLINKBASE
  1

  9
$STYLESHEET
  1
彩色出圖.ctb
  9
$XEDIT
290
     1
  9
$CEPSNTYPE
380
     0
  9
$PSTYLEMODE
290
     1
  9
$FINGERPRINTGUID
  2
{D841939A-2AF0-4C24-A90E-16452407ED34}
  9
$VERSIONGUID
  2
{1ACA2672-E246-43B5-A5AA-E290E33BE52C}
  9
$EXTNAMES
290
     1
  9
$PSVPSCALE
 40
0.0
  9
$OLESTARTUP
290
     0
  0
ENDSEC
  0
SECTION
  2
CLASSES
  0
CLASS
  1
ACDBDICTIONARYWDFLT
  2
AcDbDictionaryWithDefault
  3
ObjectDBX Classes
 90
        0
280
     0
281
     0
  0
CLASS
  1
ACDBPLACEHOLDER
  2
AcDbPlaceHolder
  3
ObjectDBX Classes
 90
        0
280
     0
281
     0
  0
CLASS
  1
LAYOUT
  2
AcDbLayout
  3
ObjectDBX Classes
 90
        0
280
     0
281
     0
  0
CLASS
  1
AMGSETTINGSOBJ
  2
AmgSettingsObj
  3
"AcadM|Product Description: AutoCAD Mechanical 2000|Company: Autodesk"
 90
        0
280
     0
281
     0
  0
CLASS
  1
ACME_DOCUMENT
  2
AcMeDbDoc
  3
AcMeServices
 90
        0
280
     0
281
     0
  0
CLASS
  1
ACMESCOPE
  2
AcMeScope
  3
AcMeServices
 90
        0
280
     0
281
     0
  0
CLASS
  1
ACMECOMMANDHISTORY
  2
AcMeCommandHistory
  3
AcMeServices
 90
        0
280
     0
281
     0
  0
CLASS
  1
ACIMSYSVARMAN
  2
AcImSysVarManager
  3
AcMeServices
 90
        0
280
     0
281
     0
  0
CLASS
  1
ACIMREALSYSVAR
  2
AcImRealSysVar
  3
AcMeServices
 90
        0
280
     0
281
     0
  0
CLASS
  1
ACIMINTSYSVAR
  2
AcImIntSysVar
  3
AcMeServices
 90
        0
280
     0
281
     0
  0
CLASS
  1
ACMEDRAWINGMAN
  2
AcMeDrawingMan
  3
AcMeServices
 90
        0
280
     0
281
     0
  0
CLASS
  1
ACMEVIEW
  2
AcMeView
  3
AcMeServices
 90
        0
280
     0
281
     0
  0
CLASS
  1
ACDBENTITYCACHE
  2
AcMeEntityCache
  3
AcMeServices
 90
        0
280
     0
281
     0
  0
CLASS
  1
GSMANAGER
  2
AcMeGSManager
  3
AcMeServices
 90
        0
280
     0
281
     0
  0
CLASS
  1
AMDTINTERNALREACTOR
  2
AmdtInternalReactor
  3
AcMeServices
 90
        0
280
     0
281
     0
  0
CLASS
  1
ACMESTATEMGR
  2
AcMeStateMgr
  3
AcMeServices
 90
        0
280
     0
281
     0
  0
CLASS
  1
ACGREFMASTER
  2
AcGrefMaster
  3
AcAttribServices
 90
        0
280
     0
281
     0
  0
CLASS
  1
AM_DRAWING_MGR
  2
AcDmDwgMgr
  3
AcMechDwgViewMgmt
 90
        0
280
     0
281
     0
  0
CLASS
  1
AM_DWG_DOCUMENT
  2
AcDmDwgDocument
  3
AcMechDwgViewMgmt
 90
        0
280
     0
281
     0
  0
CLASS
  1
AM_DWG_SHEET
  2
AcDmSheet
  3
AcMechDwgViewMgmt
 90
        0
280
     0
281
     0
  0
CLASS
  1
AM_VIEWDIMPARMAP
  2
AcDmViewDimParMap
  3
AcMechDwgViewMgmt
 90
        0
280
     0
281
     0
  0
CLASS
  1
AM_DWGMGR_NAME
  2
AcDmDwgMgrName
  3
AcMechDwgViewMgmt
 90
        0
280
     0
281
     0
  0
CLASS
  1
ACME_DATABASE
  2
AcMeDbDatabase
  3
AcMeServices
 90
        0
280
     0
281
     0
  0
CLASS
  1
ACRFINSADJUSTERMGR
  2
AcRfInsAdjusterMgr
  3
AcMeServices
 90
        0
280
     0
281
     0
  0
CLASS
  1
ACGREFACADMASTER
  2
AcGrefacadMaster
  3
AcGrefServices
 90
        0
280
     0
281
     0
  0
CLASS
  1
AMDTMENUSTATEMGR
  2
AmdtMenuStateMgr
  3
McadcomServices
 90
        0
280
     0
281
     0
  0
CLASS
  1
AMDTMCOMMENUSTATE
  2
AmdtMcomMenuState
  3
McadcomServices
 90
        0
280
     0
281
     0
  0
CLASS
  1
AMIMASTER
  2
AmiMaster
  3
AmiServices
 90
        0
280
     0
281
     0
  0
CLASS
  1
ASAPP
  2
AcAsAppObject
  3
AutoSurfServices
 90
        0
280
     0
281
     0
  0
CLASS
  1
IM_STATIC_MAN
  2
AcImStaticVarManager
  3
AcMeServices
 90
        0
280
     0
281
     0
  0
CLASS
  1
ACIMSTRSYSVAR
  2
AcImStrSysVar
  3
AcMeServices
 90
        0
280
     0
281
     0
  0
CLASS
  1
ACIMDBLSTATICVAR
  2
AcImDblStaticVar
  3
AcMeServices
 90
        0
280
     0
281
     0
  0
CLASS
  1
ACIMSTRSTATICVAR
  2
AcImStrStaticVar
  3
AcMeServices
 90
        0
280
     0
281
     0
  0
CLASS
  1
ACIMINTSTATICVAR
  2
AcImIntStaticVar
  3
AcMeServices
 90
        0
280
     0
281
     0
  0
CLASS
  1
ACASGREFMASTER
  2
AcAsGrefMaster
  3
AutoSurfResolverServices
 90
        0
280
     0
281
     0
  0
CLASS
  1
ACADGREFMODULE
  2
AcAdGrefModule
  3
AdGrefServices
 90
        0
280
     0
281
     0
  0
CLASS
  1
AMDTMAPISURFMOUDULE
  2
AmdtMApiSurfModule
  3
MApiSurfServices
 90
        0
280
     0
281
     0
  0
CLASS
  1
MAPIAMMOUDLE
  2
MApiAmModule
  3
MApiAmServices
 90
        0
280
     0
281
     0
  0
CLASS
  1
AMDTADMENUSTATE
  2
AmdtAdMenuState
  3
DesignerServices
 90
        0
280
     0
281
     0
  0
CLASS
  1
ADAPPL
  2
AcAdAppl
  3
DesignerServices
 90
        0
280
     0
281
     0
  0
CLASS
  1
DEPMGR
  2
AcAdDepMgr
  3
DesignerServices
 90
        0
280
     0
281
     0
  0
CLASS
  1
PARAMMGR
  2
AcAdParamMgr
  3
DesignerServices
 90
        0
280
     0
281
     0
  0
CLASS
  1
PARAMSCOPE
  2
AcAdParamScope
  3
DesignerServices
 90
        0
280
     0
281
     0
  0
CLASS
  1
NAMEDAPPL
  2
AcAdNamedAppl
  3
DesignerServices
 90
        0
280
     0
281
     0
  0
CLASS
  1
AMDTDMMENUSTATE
  2
AmdtDmMenuState
  3
AcMechDwgViewMgmt
 90
        0
280
     0
281
     0
  0
CLASS
  1
MAPIADMODULE
  2
MApiAdModule
  3
MApiAdServices
 90
        0
280
     0
281
     0
  0
CLASS
  1
AMDTAMMENUSTATE
  2
AmdtAmMenuState
  3
DesignerAssemblies
 90
        0
280
     0
281
     0
  0
CLASS
  1
ACAMPROJECT
  2
AcAmProject
  3
DesignerAssemblies
 90
        0
280
     0
281
     0
  0
CLASS
  1
ACAMGRCOMPDEF
  2
AcAmGrCompDef
  3
DesignerAssemblies
 90
        0
280
     0
281
     0
  0
CLASS
  1
ACCMCONTEXT
  2
AcCmContext
  3
DesignerAssemblies
 90
        0
280
     0
281
     0
  0
CLASS
  1
ACAMCOMPDEF
  2
AcAmCompDef
  3
DesignerAssemblies
 90
        0
280
     0
281
     0
  0
CLASS
  1
ACAMCOMPDEFMGR
  2
AcAmCompDefMgr
  3
DesignerAssemblies
 90
        0
280
     0
281
     0
  0
CLASS
  1
AMCONTEXTMGR
  2
AcAmContextMgr
  3
DesignerAssemblies
 90
        0
280
     0
281
     0
  0
CLASS
  1
ACAMCONTEXTMODELER
  2
AcAmContextModeler
  3
DesignerAssemblies
 90
        0
280
     0
281
     0
  0
CLASS
  1
ACMDATADICTIONARY
  2
AcmDataDictionary
  3
"AcmSymBB|Product Description: AutoCAD Mechanical 2004 DX|Company: Autodesk"
 90
        0
280
     0
281
     0
  0
CLASS
  1
ACMDATAENTRYBLOCK
  2
AcmDataEntryBlock
  3
"AcmSymBB|Product Description: AutoCAD Mechanical 2004 DX|Company: Autodesk"
 90
        0
280
     0
281
     0
  0
CLASS
  1
ACMSTANDARDISO
  2
AcmStandardISO
  3
"Amdt_StdImp|Product Description: AutoCAD Mechanical 2004 DX|Company: Autodesk"
 90
        0
280
     0
281
     0
  0
CLASS
  1
AMGOBJPROPCFG
  2
AmgObjPropCfg
  3
"AmgLay|Product Description: AutoCAD Mechanical 2000|Company: Autodesk"
 90
        1
280
     0
281
     0
  0
CLASS
  1
AMDTEDGESTANDARDISO
  2
AmdtEdgeStdISO
  3
"Amdt_StdImp|Product Description: AutoCAD Mechanical 2004 DX|Company: Autodesk"
 90
    32768
280
     0
281
     0
  0
CLASS
  1
ACMSURFSTANDARDISO
  2
AcmSurfTextStdISO
  3
"Amdt_StdImp|Product Description: AutoCAD Mechanical 2004 DX|Company: Autodesk"
 90
        0
280
     0
281
     0
  0
CLASS
  1
ACMFCFSTANDARDISO
  2
AcmFCFStdISO
  3
"Amdt_StdImp|Product Description: AutoCAD Mechanical 2004 DX|Company: Autodesk"
 90
        0
280
     0
281
     0
  0
CLASS
  1
ACMWELDSTANDARDISO
  2
AcmWeldingStdISO
  3
"Amdt_StdImp|Product Description: AutoCAD Mechanical 2004 DX|Company: Autodesk"
 90
        0
280
     0
281
     0
  0
CLASS
  1
ACMIDSTANDARDISO
  2
AcmIdStdISO
  3
"Amdt_StdImp|Product Description: AutoCAD Mechanical 2004 DX|Company: Autodesk"
 90
        0
280
     0
281
     0
  0
CLASS
  1
ACMDATUMSTANDARDISO
  2
AcmDatumStdISO
  3
"Amdt_StdImp|Product Description: AutoCAD Mechanical 2004 DX|Company: Autodesk"
 90
        0
280
     0
281
     0
  0
CLASS
  1
ACMBOMSTANDARDISO
  2
AcmBOMStdISO
  3
"Amdt_StdImp|Product Description: AutoCAD Mechanical 2004 DX|Company: Autodesk"
 90
        0
280
     0
281
     0
  0
CLASS
  1
ACMDETAILSTANDARDISO
  2
AmdtDetailSymStdISO
  3
"Amdt_StdImp|Product Description: AutoCAD Mechanical 2004 DX|Company: Autodesk"
 90
        0
280
     0
281
     0
  0
CLASS
  1
ACMSECTIONSTANDARDISO
  2
AmdtSectionSymStdISO
  3
"Amdt_StdImp|Product Description: AutoCAD Mechanical 2004 DX|Company: Autodesk"
 90
        0
280
     0
281
     0
  0
CLASS
  1
ACMCENTERLINESTANDARDISO
  2
AmdtCenterLineStdISO
  3
"Amdt_StdImp|Product Description: AutoCAD Mechanical 2004 DX|Company: Autodesk"
 90
        0
280
     0
281
     0
  0
CLASS
  1
ACMTHREADLINESTANDARDISO
  2
AmdtThreadLineStdISO
  3
"Amdt_StdImp|Product Description: AutoCAD Mechanical 2004 DX|Company: Autodesk"
 90
        0
280
     0
281
     0
  0
CLASS
  1
ACMNOTESTANDARDISO
  2
AmdtNoteStdISO
  3
"Amdt_StdImp|Product Description: AutoCAD Mechanical 2004 DX|Company: Autodesk"
 90
        0
280
     0
281
     0
  0
CLASS
  1
ACAMGLAYSTD
  2
AcAmgLayStd
  3
"AcAmgLayStd|Product Description: AutoCAD Mechanical 2000|Company: Autodesk"
 90
        0
280
     0
281
     0
  0
CLASS
  1
ACAMGDIMSTD
  2
AcAmgDimStd
  3
"AcAmgDimStd|Product Description: AutoCAD Mechanical 2000|Company: Autodesk"
 90
        0
280
     0
281
     0
  0
CLASS
  1
ACAMGHOLECHARTSTDISO
  2
AcAmgHoleChartStdISO
  3
ACMSYMBB_MODULE_NAME
 90
        0
280
     0
281
     0
  0
CLASS
  1
ACAMGTITLESTD
  2
AcAmgTitleStd
  3
"TITLEAPP"
 90
        0
280
     0
281
     0
  0
CLASS
  1
CATALOGSTATE
  2
AcAmCatalogState
  3
DesignerAssemblies
 90
        0
280
     0
281
     0
  0
CLASS
  1
ACAMGRCOMPDEFSET
  2
AcAmGrCompDefSet
  3
DesignerAssemblies
 90
        0
280
     0
281
     0
  0
CLASS
  1
AMDTBROWSERDBTAB
  2
AmdtBrowserDbTab
  3
McadcomServices
 90
        0
280
     0
281
     0
  0
CLASS
  1
CBROWSERAPPOBJECT
  2
CBrowserAppObject
  3
McadcomServices
 90
        0
280
     0
281
     0
  0
CLASS
  1
DM_PLACEHOLDER
  2
AcDmSelsetPlaceholder
  3
AcMechDwgViewMgmt
 90
        0
280
     0
281
     0
  0
CLASS
  1
ACAMGFILTERDAT
  2
AcAmgFilterDat
  3
"AcadM|Product Description: AutoCAD Mechanical 2000|Company: Autodesk"
 90
    32768
280
     0
281
     0
  0
CLASS
  1
DIMASSOC
  2
AcDbDimAssoc
  3
"AcDbDimAssoc|Product Desc:     AcDim ARX App For Dimension|Company:          Autodesk, Inc.|WEB Address:      www.autodesk.com"
 90
        0
280
     0
281
     0
  0
CLASS
  1
LAYER_INDEX
  2
AcDbLayerIndex
  3
ObjectDBX Classes
 90
        0
280
     0
281
     0
  0
CLASS
  1
IDBUFFER
  2
AcDbIdBuffer
  3
ObjectDBX Classes
 90
        0
280
     0
281
     0
  0
CLASS
  1
DICTIONARYVAR
  2
AcDbDictionaryVar
  3
ObjectDBX Classes
 90
        0
280
     0
281
     0
  0
CLASS
  1
ADPART
  2
AcAdPart
  3
DesignerServices
 90
    32768
280
     0
281
     1
  0
CLASS
  1
ADBASE
  2
AcAdBase
  3
DesignerServices
 90
    32768
280
     0
281
     0
  0
CLASS
  1
BODYID
  2
AcAdBodyId
  3
DesignerServices
 90
    32768
280
     0
281
     0
  0
CLASS
  1
WORKPLANEDISPLAYMGR
  2
AcAdDisplayMgr
  3
DesignerServices
 90
    32768
280
     0
281
     0
  0
CLASS
  1
ACCMBODY
  2
AcCmBody
  3
DesignerAssemblies
 90
    32768
280
     0
281
     0
  0
CLASS
  1
ACAMCOMPENT
  2
AcAmCompEnt
  3
DesignerAssemblies
 90
    32768
280
     0
281
     1
  0
CLASS
  1
ACAMCOMPFEEDBACK
  2
AcAmCompFeedback
  3
DesignerAssemblies
 90
    32768
280
     0
281
     0
  0
CLASS
  1
ACAMCOMP
  2
AcAmComp
  3
DesignerAssemblies
 90
    32768
280
     0
281
     0
  0
CLASS
  1
ACAMCOMPENTCLONE
  2
AcAmCompEntClone
  3
DesignerAssemblies
 90
    32768
280
     0
281
     1
  0
CLASS
  1
ACAMCLONEREACTOR
  2
AcAmGrCompCloneReactor
  3
DesignerAssemblies
 90
    32768
280
     0
281
     0
  0
CLASS
  1
ADDATUMPLANEABS
  2
AcAdDatumPlaneAbs
  3
DesignerServices
 90
    32768
280
     0
281
     0
  0
CLASS
  1
ADDATUMAXISABS
  2
AcAdDatumAxisAbs
  3
DesignerServices
 90
    32768
280
     0
281
     0
  0
CLASS
  1
ADDATUMORIENTEDPLANE
  2
AcAdDatumOrientedPlane
  3
DesignerServices
 90
    32768
280
     0
281
     0
  0
CLASS
  1
ACMEPLINE
  2
AcImPlineDisplay
  3
AcMeServices
 90
    32768
280
     0
281
     1
  0
CLASS
  1
ACMELINEARARROW
  2
AcImLinearArrowDisplay
  3
AcMeServices
 90
    32768
280
     0
281
     1
  0
CLASS
  1
ACMETEXT
  2
AcImTextDisplay
  3
AcMeServices
 90
    32768
280
     0
281
     1
  0
CLASS
  1
AMDTFORMULAUPDATEDISPATCHER
  2
AmdtFormulaUpdateDispatcher
  3
AcMeServices
 90
    32768
280
     0
281
     0
  0
CLASS
  1
ACAD_LINE
  2
AcAdLine
  3
DesignerServices
 90
    32768
280
     0
281
     1
  0
CLASS
  1
ACADLINEACAD
  2
AcAdVirtualBoundedLineAcad
  3
DesignerServices
 90
    32768
280
     0
281
     0
  0
CLASS
  1
ACADREFLINEACAD
  2
AcAdVirtualReferenceLine
  3
DesignerServices
 90
    32768
280
     0
281
     0
  0
CLASS
  1
ACADCONSLINE
  2
AcAdConstrainedLine
  3
DesignerServices
 90
    32768
280
     0
281
     0
  0
CLASS
  1
ACADCONSGROUP
  2
AcAdConstraintGroup
  3
DesignerServices
 90
    32768
280
     0
281
     0
  0
CLASS
  1
ACADIMPPTACAD
  2
AcAdVirtualImplicitPoint
  3
DesignerServices
 90
    32768
280
     0
281
     0
  0
CLASS
  1
ACADCONSPOINT
  2
AcAdConstrainedPoint
  3
DesignerServices
 90
    32768
280
     0
281
     0
  0
CLASS
  1
ADPCURCNS
  2
AcAdPointCurveConstr
  3
DesignerServices
 90
    32768
280
     0
281
     0
  0
CLASS
  1
ADHORCNS
  2
AcAdHorizontalConstr
  3
DesignerServices
 90
    32768
280
     0
281
     0
  0
CLASS
  1
ADVERCNS
  2
AcAdVerticalConstr
  3
DesignerServices
 90
    32768
280
     0
281
     0
  0
CLASS
  1
ADCLPROF2D
  2
AcAdClosedProfile2d
  3
DesignerServices
 90
    32768
280
     0
281
     0
  0
CLASS
  1
ACAD_FIXCONSTRAINT
  2
AcAdFixedConstraint
  3
DesignerServices
 90
    32768
280
     0
281
     0
  0
CLASS
  1
ADCONSDISP
  2
AcAdConstraintDisplay
  3
DesignerServices
 90
    32768
280
     0
281
     1
  0
CLASS
  1
ADCONSTDSP
  2
AcAdConstraintDisplayTag
  3
DesignerServices
 90
    32768
280
     0
281
     1
  0
CLASS
  1
PARAM
  2
AcAdParam
  3
DesignerServices
 90
    32768
280
     0
281
     0
  0
CLASS
  1
ADHDISTCNS
  2
AcAdHorizontalDistanceConstr
  3
DesignerServices
 90
    32768
280
     0
281
     0
  0
CLASS
  1
ADVDISTCNS
  2
AcAdVerticalDistanceConstr
  3
DesignerServices
 90
    32768
280
     0
281
     0
  0
CLASS
  1
ACADVOLFEATWITHTRIM
  2
AcAdVolFeatWithTrim
  3
DesignerServices
 90
    32768
280
     0
281
     0
  0
CLASS
  1
DEPEDGEFEATUREORDERING
  2
AcAdDepEdgeFeatureOrdering
  3
DesignerServices
 90
    32768
280
     0
281
     0
  0
CLASS
  1
ACMEPOINT
  2
AcImPointDisplay
  3
AcMeServices
 90
    32768
280
     0
281
     1
  0
CLASS
  1
ADPLANEID
  2
AcAdPlaneId
  3
DesignerServices
 90
    32768
280
     0
281
     0
  0
CLASS
  1
ADDATUMPLANEFACE
  2
AcAdDatumPlaneFace
  3
DesignerServices
 90
    32768
280
     0
281
     0
  0
CLASS
  1
OSTREFID
  2
AcAdOrientedStraightRefId
  3
DesignerServices
 90
    32768
280
     0
281
     0
  0
CLASS
  1
ADDATUMPOINT2EDGES
  2
AcAdDatumPoint2Edges
  3
DesignerServices
 90
    32768
280
     0
281
     0
  0
CLASS
  1
ADHOLEFEAT
  2
AcAdHoleFeat
  3
DesignerServices
 90
    32768
280
     0
281
     0
  0
CLASS
  1
ADSURFGEOMID
  2
AcAdSurfGeomId
  3
DesignerServices
 90
    32768
280
     0
281
     0
  0
CLASS
  1
ADDATUMAXISCENTER
  2
AcAdDatumAxisCenter
  3
DesignerServices
 90
    32768
280
     0
281
     0
  0
CLASS
  1
ADDATUMPOINTAXISPLANE
  2
AcAdDatumPointAxisPlane
  3
DesignerServices
 90
    32768
280
     0
281
     0
  0
CLASS
  1
ADFEATUREDISPLAY
  2
AcImFeatureDisplay
  3
ACME_MODULE_NAME
 90
    32768
280
     0
281
     1
  0
CLASS
  1
ADWORKPOINTDISPLAY
  2
AcAdWorkPointDisplay
  3
DesignerServices
 90
    32768
280
     0
281
     1
  0
CLASS
  1
ADVIRTUALPOINTWORKPOINTFREE
  2
AcAdVirtualPointWorkPointFree
  3
DesignerServices
 90
    32768
280
     0
281
     0
  0
CLASS
  1
ADWORKPOINTSKETCH
  2
AcAdWorkPointSketch
  3
DesignerServices
 90
    32768
280
     0
281
     0
  0
CLASS
  1
HVREFID
  2
AcAdHVRefId
  3
DesignerServices
 90
    32768
280
     0
281
     0
  0
CLASS
  1
ACADPOINTDEPID
  2
AcAdVirtualPointDepId
  3
DesignerServices
 90
    32768
280
     0
281
     0
  0
CLASS
  1
DEPEDGESECONDARYDEPID
  2
AcAdDepEdgeSecondaryDepId
  3
DesignerServices
 90
    32768
280
     0
281
     0
  0
CLASS
  1
DEPEDGEPATTERNFEATURE
  2
AcAdDepEdgePatternFeature
  3
DesignerServices
 90
    32768
280
     0
281
     0
  0
CLASS
  1
ACADPATTNFEAT
  2
AcAdPatternFeat
  3
DesignerServices
 90
    32768
280
     0
281
     0
  0
CLASS
  1
EDGEID
  2
AcAdEdgeId
  3
DesignerServices
 90
    32768
280
     0
281
     0
  0
CLASS
  1
ADFILLET
  2
AcAdFillet
  3
DesignerServices
 90
    32768
280
     0
281
     0
  0
CLASS
  1
ACAD_CIRCLE
  2
AcAdCircle
  3
DesignerServices
 90
    32768
280
     0
281
     1
  0
CLASS
  1
ACADCIRCLEACAD
  2
AcAdVirtualCircleAcad
  3
DesignerServices
 90
    32768
280
     0
281
     0
  0
CLASS
  1
ACADCONSCIRCLE
  2
AcAdConstrainedCircle
  3
DesignerServices
 90
    32768
280
     0
281
     0
  0
CLASS
  1
ADCTRPTCNS
  2
AcAdCenterPointConstr
  3
DesignerServices
 90
    32768
280
     0
281
     0
  0
CLASS
  1
ADACADDIACNS
  2
AcAdAcadDiameterConstr
  3
DesignerServices
 90
    32768
280
     0
281
     0
  0
CLASS
  1
ADCONCCNS
  2
AcAdConcentricConstr
  3
DesignerServices
 90
    32768
280
     0
281
     0
  0
CLASS
  1
CIRREFID
  2
AcAdCircleRefId
  3
DesignerServices
 90
    32768
280
     0
281
     0
  0
CLASS
  1
ACADCIRCDEPID
  2
AcAdVirtualCircleDepId
  3
DesignerServices
 90
    32768
280
     0
281
     0
  0
CLASS
  1
DATUMAXISDISPLAY
  2
AcAdDatumAxisDisplay
  3
DesignerServices
 90
    32768
280
     0
281
     1
  0
CLASS
  1
DATUMPLANEDISPLAY
  2
AcAdDatumPlaneDisplay
  3
DesignerServices
 90
    32768
280
     0
281
     1
  0
CLASS
  1
ADDATUMPLANEAXISPLANE
  2
AcAdDatumPlaneAxisPlane
  3
DesignerServices
 90
    32768
280
     0
281
     0
  0
CLASS
  1
ACADBOUNDEDLINEDATUMID
  2
AcAdVirtualBoundedLineDatumId
  3
DesignerServices
 90
    32768
280
     0
281
     0
  0
CLASS
  1
ACMEROTATIONARROW
  2
AcImRotationArrowDisplay
  3
AcMeServices
 90
    32768
280
     0
281
     1
  0
CLASS
  1
ACMEAXIS
  2
AcImAxisDisplay
  3
AcMeServices
 90
    32768
280
     0
281
     1
  0
CLASS
  1
AM_VIEW_SELECT_FILTER
  2
AcDmSelectViewEntFilter
  3
AcMechDwgViewMgmt
 90
    32768
280
     0
281
     0
  0
CLASS
  1
FACEID
  2
AcAdFaceId
  3
DesignerServices
 90
    32768
280
     0
281
     0
  0
CLASS
  1
DEPEDGEPATTERNINSTANCE
  2
AcAdDepEdgePatternInstance
  3
DesignerServices
 90
    32768
280
     0
281
     0
  0
CLASS
  1
ACADPARTPLANARFACERES
  2
AcAdPartPlanarFaceRes
  3
AdGrefServices
 90
    32768
280
     0
281
     0
  0
CLASS
  1
ACRFINSADJ
  2
AcRfInsAdjuster
  3
AcMeServices
 90
    32768
280
     0
281
     0
  0
CLASS
  1
AM_GREF_PLANE
  2
AcDmGrefPlnDef
  3
AcMechDwgViewMgmt
 90
    32768
280
     0
281
     0
  0
CLASS
  1
ACADPARTLINEDGRES
  2
AcAdPartLinEdgRes
  3
AdGrefServices
 90
    32768
280
     0
281
     0
  0
CLASS
  1
AM_GREF_AXIS
  2
AcDmGrefAxisDef
  3
AcMechDwgViewMgmt
 90
    32768
280
     0
281
     0
  0
CLASS
  1
AM_BASE_VIEW_ORIENT
  2
AcDmBaseViewOr
  3
AcMechDwgViewMgmt
 90
    32768
280
     0
281
     0
  0
CLASS
  1
AM_DWG_VIEWPORT
  2
AcDmViewport
  3
AcMechDwgViewMgmt
 90
    32768
280
     0
281
     0
  0
CLASS
  1
AM_VIEW_DISPLAY
  2
AcDmDwgViewDisplay
  3
AcMechDwgViewMgmt
 90
    32768
280
     0
281
     0
  0
CLASS
  1
AM_CLDFLTS
  2
AcDmClDflts
  3
AcMechDwgViewMgmt
 90
    32768
280
     0
281
     0
  0
CLASS
  1
AM_BASE_VIEW
  2
AcDmBaseView
  3
AcMechDwgViewMgmt
 90
    32768
280
     0
281
     0
  0
CLASS
  1
AM_ORTHO_VIEW_ORIENT
  2
AcDmOrthoViewOr
  3
AcMechDwgViewMgmt
 90
    32768
280
     0
281
     0
  0
CLASS
  1
AM_ORTHO_VIEW
  2
AcDmOrthoView
  3
AcMechDwgViewMgmt
 90
    32768
280
     0
281
     0
  0
CLASS
  1
ACDMPARTVIEWDATA
  2
AcDmPartViewData
  3
AcMechDwgViewMgmt
 90
    32768
280
     0
281
     0
  0
CLASS
  1
ACDMDISPLAYATTRIBS
  2
AcDmDisplayAttribs
  3
AcMechDwgViewMgmt
 90
    32768
280
     0
281
     0
  0
CLASS
  1
ACDMBODYINSTANCEDATA
  2
AcDmBodyInstanceData
  3
AcMechDwgViewMgmt
 90
    32768
280
     0
281
     0
  0
CLASS
  1
ACDMVWEDLINE
  2
AcDmViewEdgeLine
  3
AcMechDwgViewMgmt
 90
    32768
280
     0
281
     1
  0
CLASS
  1
ACDMVWEDCIRC
  2
AcDmViewEdgeCircle
  3
AcMechDwgViewMgmt
 90
    32768
280
     0
281
     1
  0
CLASS
  1
AM_ADCIRCTRLINE
  2
AcAdBullsEyeCl
  3
DesignerServices
 90
    32768
280
     0
281
     0
  0
CLASS
  1
AD_CIRCTAPH
  2
AcAdTapHoleCircDisp
  3
DesignerServices
 90
    32768
280
     0
281
     0
  0
CLASS
  1
ACADPARTCIRCEDGRES
  2
AcAdPartCircEdgRes
  3
AdGrefServices
 90
    32768
280
     0
281
     0
  0
CLASS
  1
AM_GREF_POINT
  2
AcDmGrefPntDef
  3
AcMechDwgViewMgmt
 90
    32768
280
     0
281
     0
  0
CLASS
  1
AM_FULLPOINTSECTION
  2
AcDmFullPointSection
  3
AcMechDwgViewMgmt
 90
    32768
280
     0
281
     0
  0
CLASS
  1
AMDTSECTIONSYM
  2
AmdtSectionSym
  3
"AcmSymBB|Product Description: AutoCAD Mechanical 2004 DX|Company: Autodesk"
 90
    33791
280
     0
281
     1
  0
CLASS
  1
AM_VWNOTEADAPTER
  2
AcDmViewAnnotAdapter
  3
AcMechDwgViewMgmt
 90
    32768
280
     0
281
     0
  0
CLASS
  1
AMDTSECTIONSYMLABEL
  2
AmdtSectionSymLabel
  3
"AcmSymBB|Product Description: AutoCAD Mechanical 2004 DX|Company: Autodesk"
 90
    33791
280
     0
281
     1
  0
CLASS
  1
ACDMVWEDSPLINE
  2
AcDmViewEdgeSpline
  3
AcMechDwgViewMgmt
 90
    32768
280
     0
281
     1
  0
CLASS
  1
ACDMVWEDARC
  2
AcDmViewEdgeArc
  3
AcMechDwgViewMgmt
 90
    32768
280
     0
281
     1
  0
CLASS
  1
AM_ADLINCTRLINE
  2
AcAdLineCl
  3
DesignerServices
 90
    32768
280
     0
281
     0
  0
CLASS
  1
AD_LINETAPH
  2
AcAdTapHoleLineDisp
  3
DesignerServices
 90
    32768
280
     0
281
     0
  0
CLASS
  1
ACDMVIEWGEOM
  2
AcDmViewGeometry
  3
AcMechDwgViewMgmt
 90
    32768
280
     0
281
     1
  0
CLASS
  1
CNRREFID
  2
AcAdCornerId
  3
DesignerServices
 90
    32768
280
     0
281
     0
  0
CLASS
  1
ACADPARTPOINTRES
  2
AcAdPartPointRes
  3
AdGrefServices
 90
    32768
280
     0
281
     0
  0
CLASS
  1
AM_VIEWDIMLINEAR
  2
AcDmViewDimLinear
  3
AcMechDwgViewMgmt
 90
    32768
280
     0
281
     0
  0
CLASS
  1
ACDBLINERES
  2
AcDbLineRes
  3
AcGrefServices
 90
    32768
280
     0
281
     0
  0
CLASS
  1
ACRFDMINSADJ
  2
AcRfDMInsAdjuster
  3
AcMechDwgViewMgmt
 90
    32768
280
     0
281
     0
  0
CLASS
  1
ACDMGREFEDIT
  2
AcDmViewEntityGeomrefEdit
  3
AcMechDwgViewMgmt
 90
    32768
280
     0
281
     0
  0
CLASS
  1
ACDMVIEWLINEDGERES
  2
AcDmViewLinEdgeRes
  3
AcMechDwgViewMgmt
 90
    32768
280
     0
281
     0
  0
CLASS
  1
ACADPARTCYLINDERFACERES
  2
AcAdPartCylinderFaceRes
  3
AdGrefServices
 90
    32768
280
     0
281
     0
  0
CLASS
  1
AM_ABS_PLANE
  2
AcDmAbsPlnDef
  3
AcMechDwgViewMgmt
 90
    32768
280
     0
281
     0
  0
CLASS
  1
AM_ABS_AXIS
  2
AcDmAbsAxisDef
  3
AcMechDwgViewMgmt
 90
    32768
280
     0
281
     0
  0
CLASS
  1
ACADPARTDATUMPLANERES
  2
AcAdPartDatumPlaneRes
  3
AdGrefServices
 90
    32768
280
     0
281
     0
  0
CLASS
  1
ACADPARTAXISRES
  2
AcAdPartAxisRes
  3
AdGrefServices
 90
    32768
280
     0
281
     0
  0
CLASS
  1
AM_ISO_VIEW_ORIENT
  2
AcDmIsoViewOr
  3
AcMechDwgViewMgmt
 90
    32768
280
     0
281
     0
  0
CLASS
  1
AM_ISO_VIEW
  2
AcDmIsoView
  3
AcMechDwgViewMgmt
 90
    32768
280
     0
281
     0
  0
CLASS
  1
ACADPARTSPLINEEDGERES
  2
AcAdPartSplineEdgeRes
  3
AdGrefServices
 90
    32768
280
     0
281
     0
  0
CLASS
  1
SILEDGEID
  2
AcAdSilhouetteEdgeId
  3
DesignerServices
 90
    32768
280
     0
281
     0
  0
CLASS
  1
AM_ABS_POINT
  2
AcDmAbsPntDef
  3
AcMechDwgViewMgmt
 90
    32768
280
     0
281
     0
  0
CLASS
  1
ACADPARTCONICALFACERES
  2
AcAdPartConicalFaceRes
  3
AdGrefServices
 90
    32768
280
     0
281
     0
  0
CLASS
  1
AM_VIEWDIMANGULAR
  2
AcDmViewDimAngular
  3
AcMechDwgViewMgmt
 90
    32768
280
     0
281
     0
  0
CLASS
  1
ACAMEXTERNALCOMPDEF
  2
AcAmExternalCompDef
  3
DesignerAssemblies
 90
    32768
280
     0
281
     0
  0
CLASS
  1
ACAMEXPR
  2
AcAmExpr
  3
DesignerAssemblies
 90
    32768
280
     0
281
     0
  0
CLASS
  1
ACCMINSERTPLPL
  2
AcCmInsertPlPl
  3
AcCmServices
 90
    32768
280
     0
281
     0
  0
CLASS
  1
ACCMCONSTREACTOR
  2
AcCmConstraintReactor
  3
DesignerAssemblies
 90
    32768
280
     0
281
     0
  0
CLASS
  1
ACCMDISTLNLN
  2
AcCmDistLnLn
  3
DesignerAssemblies
 90
    32768
280
     0
281
     0
  0
CLASS
  1
ACCMDISTPLPL
  2
AcCmDistPlPl
  3
DesignerAssemblies
 90
    32768
280
     0
281
     0
  0
CLASS
  1
ACAMVIEWREACTOR
  2
AcAmViewReactor
  3
DesignerAssemblies
 90
    32768
280
     0
281
     0
  0
CLASS
  1
AMVIEW
  2
AcAmView
  3
DesignerAssemblies
 90
    32768
280
     0
281
     0
  0
CLASS
  1
ACAMVIEWCONTEXT
  2
AcAmViewContext
  3
DesignerAssemblies
 90
    32768
280
     0
281
     0
  0
CLASS
  1
ACAMCOMPENTVIEW
  2
AcAmCompEntView
  3
DesignerAssemblies
 90
    32768
280
     0
281
     1
  0
CLASS
  1
ACAMCOMPVIEWREACTOR
  2
AcAmGrCompViewReactor
  3
DesignerAssemblies
 90
    32768
280
     0
281
     0
  0
CLASS
  1
ACAMVIEWENTITYFILTER
  2
AcAmViewEntityFilter
  3
DesignerAssemblies
 90
    32768
280
     0
281
     0
  0
CLASS
  1
ACMSTANDARDANSI
  2
AcmStandardANSI
  3
"Amdt_StdImp|Product Description: AutoCAD Mechanical 2004 DX|Company: Autodesk"
 90
    32768
280
     0
281
     0
  0
CLASS
  1
ACMSURFSTANDARDANSI
  2
AcmSurfTextStdANSI
  3
"Amdt_StdImp|Product Description: AutoCAD Mechanical 2004 DX|Company: Autodesk"
 90
    32768
280
     0
281
     0
  0
CLASS
  1
ACMFCFSTANDARDANSI
  2
AcmFCFStdANSI
  3
"Amdt_StdImp|Product Description: AutoCAD Mechanical 2004 DX|Company: Autodesk"
 90
    32768
280
     0
281
     0
  0
CLASS
  1
ACMWELDSTANDARDANSI
  2
AcmWeldingStdANSI
  3
"Amdt_StdImp|Product Description: AutoCAD Mechanical 2004 DX|Company: Autodesk"
 90
    32768
280
     0
281
     0
  0
CLASS
  1
ACMIDSTANDARDANSI
  2
AcmIdStdANSI
  3
"Amdt_StdImp|Product Description: AutoCAD Mechanical 2004 DX|Company: Autodesk"
 90
    32768
280
     0
281
     0
  0
CLASS
  1
ACMDATUMSTANDARDANSI
  2
AcmDatumStdANSI
  3
"Amdt_StdImp|Product Description: AutoCAD Mechanical 2004 DX|Company: Autodesk"
 90
    32768
280
     0
281
     0
  0
CLASS
  1
ACMBOMSTANDARDANSI
  2
AcmBOMStdANSI
  3
"Amdt_StdImp|Product Description: AutoCAD Mechanical 2004 DX|Company: Autodesk"
 90
    32768
280
     0
281
     0
  0
CLASS
  1
ACMDETAILSTANDARDANSI
  2
AmdtDetailSymStdANSI
  3
"Amdt_StdImp|Product Description: AutoCAD Mechanical 2004 DX|Company: Autodesk"
 90
    32768
280
     0
281
     0
  0
CLASS
  1
ACMSECTIONSTANDARDANSI
  2
AmdtSectionSymStdANSI
  3
"Amdt_StdImp|Product Description: AutoCAD Mechanical 2004 DX|Company: Autodesk"
 90
    32768
280
     0
281
     0
  0
CLASS
  1
ACMCENTERLINESTANDARDANSI
  2
AmdtCenterLineStdANSI
  3
"Amdt_StdImp|Product Description: AutoCAD Mechanical 2004 DX|Company: Autodesk"
 90
    32768
280
     0
281
     0
  0
CLASS
  1
ACMTHREADLINESTANDARDANSI
  2
AmdtThreadLineStdANSI
  3
"Amdt_StdImp|Product Description: AutoCAD Mechanical 2004 DX|Company: Autodesk"
 90
    32768
280
     0
281
     0
  0
CLASS
  1
ACMNOTESTANDARDANSI
  2
AmdtNoteStdANSI
  3
"Amdt_StdImp|Product Description: AutoCAD Mechanical 2004 DX|Company: Autodesk"
 90
    32768
280
     0
281
     0
  0
CLASS
  1
ACAMGHOLECHARTSTDANSI
  2
AcAmgHoleChartStdANSI
  3
ACMSYMBB_MODULE_NAME
 90
    32768
280
     0
281
     0
  0
CLASS
  1
ACADPARTTORUSFACERES
  2
AcAdPartTorusFaceRes
  3
AdGrefServices
 90
    32768
280
     0
281
     0
  0
CLASS
  1
ACCMDISTPTPT
  2
AcCmDistPtPt
  3
DesignerAssemblies
 90
    32768
280
     0
281
     0
  0
CLASS
  1
ACCMANGVECVEC
  2
AcCmAngVecVec
  3
DesignerAssemblies
 90
    32768
280
     0
281
     0
  0
CLASS
  1
ACDMVISEDIT
  2
AcDmViewEntityVisEdit
  3
AcMechDwgViewMgmt
 90
    32768
280
     0
281
     0
  0
CLASS
  1
AMDTNOTE
  2
AmdtNote
  3
"AcmSymBB|Product Description: AutoCAD Mechanical 2004 DX|Company: Autodesk"
 90
    33791
280
     0
281
     1
  0
CLASS
  1
TABLESTYLE
  2
AcDbTableStyle
  3
ObjectDBX Classes
 90
     2047
280
     0
281
     0
  0
CLASS
  1
VAACXREFPANELOBJECT
  2
VaAcXREFPanelObject
  3
VAAC_ADDIN
 90
    32768
280
     0
281
     0
  0
CLASS
  1
VAACIMAGEINVENTORY
  2
VaAcImageInventory
  3
VAAC_ADDIN
 90
    32768
280
     0
281
     0
  0
CLASS
  1
AMDTEDGESTANDARDISO13715
  2
AmdtEdgeStdISO13715
  3
"Amdt_StdImp|Product Description: AutoCAD Mechanical 2004 DX|Company: Autodesk"
 90
        0
280
     0
281
     0
  0
CLASS
  1
AMDTNOTETEMPLATEDB
  2
AmdtNoteTemplateDB
  3
AMDT_STDIMP_MODULE_NAME
 90
        0
280
     0
281
     0
  0
ENDSEC
  0
SECTION
  2
TABLES
  0
TABLE
  2
VPORT
  5
1A
330
0
100
AcDbSymbolTable
 70
     5
  0
VPORT
  5
155F
330
1A
100
AcDbSymbolTableRecord
100
AcDbViewportTableRecord
  2
*Active
 70
     0
 10
0.0
 20
0.0
 11
1.0
 21
1.0
 12
-2.255197609061127
 22
-40.5055709942186
 13
0.0
 23
0.0
 14
2.5
 24
2.5
 15
10.0
 25
10.0
 16
0.0
 26
0.0
 36
1.0
 17
170.538483597965
 27
134.671839312519
 37
0.0
 40
223.8606877508023
 41
1.263157894736842
 42
50.0
 43
0.0
 44
0.0
 50
0.0
 51
0.0
 71
     0
 72
   100
 73
     1
 74
     3
 75
     0
 76
     0
 77
     0
 78
     0
281
     0
 65
     0
110
0.0
120
0.0
130
0.0
111
1.0
121
0.0
131
0.0
112
0.0
122
1.0
132
0.0
 79
     0
146
0.0
  0
ENDTAB
  0
TABLE
  2
LTYPE
  5
15
330
0
100
AcDbSymbolTable
 70
    16
  0
LTYPE
  5
16
330
15
100
AcDbSymbolTableRecord
100
AcDbLinetypeTableRecord
  2
ByBlock
 70
     0
  3

 72
    65
 73
     0
 40
0.0
  0
LTYPE
  5
17
330
15
100
AcDbSymbolTableRecord
100
AcDbLinetypeTableRecord
  2
ByLayer
 70
     0
  3

 72
    65
 73
     0
 40
0.0
  0
LTYPE
  5
9
330
15
100
AcDbSymbolTableRecord
100
AcDbLinetypeTableRecord
  2
Continuous
 70
     0
  3
Solid line
 72
    65
 73
     0
 40
0.0
  0
LTYPE
  5
50
330
15
100
AcDbSymbolTableRecord
100
AcDbLinetypeTableRecord
  2
AM_ISO02W050
 70
     0
  3
__ __ __ __ __ __ __ __ __ __ __ __ __ __ __
 72
    65
 73
     2
 40
7.5
 49
6.0
 74
     0
 49
-1.5
 74
     0
  0
LTYPE
  5
2B
330
15
100
AcDbSymbolTableRecord
100
AcDbLinetypeTableRecord
  2
AM_ISO08W050
 70
     0
  3
____ . ____ . ____ . ____ . ____ . ____ . ____
 72
    65
 73
     4
 40
18.0
 49
12.0
 74
     0
 49
-1.5
 74
     0
 49
3.0
 74
     0
 49
-1.5
 74
     0
  0
LTYPE
  5
172
330
15
100
AcDbSymbolTableRecord
100
AcDbLinetypeTableRecord
  2
AM_ISO09W050
 70
     0
  3
_____ . . _____ . . _____ . . ____ .. ____
 72
    65
 73
     6
 40
22.5
 49
12.0
 74
     0
 49
-1.5
 74
     0
 49
3.0
 74
     0
 49
-1.5
 74
     0
 49
3.0
 74
     0
 49
-1.5
 74
     0
  0
LTYPE
  5
173
330
15
100
AcDbSymbolTableRecord
100
AcDbLinetypeTableRecord
  2
Amconstr
 70
     0
  3
_______________________
 72
    65
 73
     2
 40
9999.0
 49
9999.0
 74
     0
 49
0.0
 74
     0
  0
LTYPE
  5
174
330
15
100
AcDbSymbolTableRecord
100
AcDbLinetypeTableRecord
  2
AM_ISO08W050x2
 70
     0
  3
__ . __ . __ . __ . __ . __
 72
    65
 73
     4
 40
9.0
 49
6.0
 74
     0
 49
-0.75
 74
     0
 49
1.5
 74
     0
 49
-0.75
 74
     0
  0
LTYPE
  5
175
330
15
100
AcDbSymbolTableRecord
100
AcDbLinetypeTableRecord
  2
AM_ISO02W050x2
 70
     0
  3
 _ _ _ _ _ _ _ _ _ _ _ _
 72
    65
 73
     2
 40
3.75
 49
3.0
 74
     0
 49
-0.75
 74
     0
  0
LTYPE
  5
178
330
15
100
AcDbSymbolTableRecord
100
AcDbLinetypeTableRecord
  2
Amzigzag
 70
     0
  3
/\/-/\/-/\/-/\/-/\/-/\/
 72
    65
 73
     2
 40
11.0001
 49
0.0001
 74
     4
 75
   135
340
177
 46
0.04
 50
0.0
 44
0.0
 45
0.0
 49
-11.0
 74
     0
  0
LTYPE
  5
186
330
15
100
AcDbSymbolTableRecord
100
AcDbLinetypeTableRecord
  2
ACISOWELD
 70
     0
  3
_ _ _ _ _
 72
    65
 73
     2
 40
2.0
 49
2.0
 74
     0
 49
-1.0
 74
     0
  0
LTYPE
  5
187
330
15
100
AcDbSymbolTableRecord
100
AcDbLinetypeTableRecord
  2
ACISOTGB
 70
     0
  3
__ . . __ . .
 72
    65
 73
     6
 40
9.0
 49
4.0
 74
     0
 49
-1.0
 74
     0
 49
1.0
 74
     0
 49
-1.0
 74
     0
 49
1.0
 74
     0
 49
-1.0
 74
     0
  0
LTYPE
  5
188
330
15
100
AcDbSymbolTableRecord
100
AcDbLinetypeTableRecord
  2
ACISOTGL
 70
     0
  3
_ _ _ _ _
 72
    65
 73
     2
 40
3.0
 49
2.0
 74
     0
 49
-1.0
 74
     0
  0
LTYPE
  5
189
330
15
100
AcDbSymbolTableRecord
100
AcDbLinetypeTableRecord
  2
CENTER
 70
     0
  3
__ . __
 72
    65
 73
     4
 40
7.0
 49
4.0
 74
     0
 49
-1.0
 74
     0
 49
1.0
 74
     0
 49
-1.0
 74
     0
  0
LTYPE
  5
1265
330
15
100
AcDbSymbolTableRecord
100
AcDbLinetypeTableRecord
  2
HIDDEN
 70
     0
  3
Hidden __ __ __ __ __ __ __ __ __ __ __ __ __ _
 72
    65
 73
     2
 40
9.524999999999998
 49
6.349999999999999
 74
     0
 49
-3.174999999999999
 74
     0
  0
LTYPE
  5
1266
330
15
100
AcDbSymbolTableRecord
100
AcDbLinetypeTableRecord
  2
PHANTOM2
 70
     0
  3
Phantom (.5x) ___ _ _ ___ _ _ ___ _ _ ___ _ _
 72
    65
 73
     6
 40
31.75
 49
15.875
 74
     0
 49
-3.174999999999999
 74
     0
 49
3.174999999999999
 74
     0
 49
-3.174999999999999
 74
     0
 49
3.174999999999999
 74
     0
 49
-3.174999999999999
 74
     0
  0
LTYPE
  5
14F8
330
15
100
AcDbSymbolTableRecord
100
AcDbLinetypeTableRecord
  2
ASULTYPE
 70
     0
  3
實線
 72
    65
 73
     2
 40
3.0
 49
2.5
 74
     0
 49
0.5
 74
     0
  0
LTYPE
  5
14F9
330
15
100
AcDbSymbolTableRecord
100
AcDbLinetypeTableRecord
  2
ASVLTYPE
 70
     0
  3
__ __ __ __ __ __ __ __ __ __ __ __ __ __ __ __ __ __ __ __ __
 72
    65
 73
     2
 40
0.75
 49
0.5
 74
     0
 49
-0.25
 74
     0
  0
ENDTAB
  0
TABLE
  2
LAYER
  5
11
330
0
100
AcDbSymbolTable
 70
     8
  0
LAYER
  5
5
330
11
100
AcDbSymbolTableRecord
100
AcDbLayerTableRecord
  2
0
 70
     0
 62
     7
  6
Continuous
370
    -3
390
6
  0
LAYER
  5
2A
330
11
100
AcDbSymbolTableRecord
100
AcDbLayerTableRecord
  2
AM_7
 70
     0
 62
     1
  6
AM_ISO08W050
370
    25
390
6
  0
LAYER
  5
3E
330
11
100
AcDbSymbolTableRecord
100
AcDbLayerTableRecord
  2
AM_4
 70
     0
 62
     3
  6
Continuous
370
    25
390
6
  0
LAYER
  5
5C
330
11
100
AcDbSymbolTableRecord
100
AcDbLayerTableRecord
  2
AM_VIS
 70
     0
 62
     7
  6
Continuous
370
    50
390
6
  0
LAYER
  5
60
330
11
100
AcDbSymbolTableRecord
100
AcDbLayerTableRecord
  2
AM_HID
 70
     0
 62
     3
  6
AM_ISO02W050
370
    25
390
6
  0
LAYER
  5
519
330
11
100
AcDbSymbolTableRecord
100
AcDbLayerTableRecord
  2
Defpoints
 70
     0
 62
     7
  6
Continuous
290
     0
370
    -3
390
6
  0
LAYER
  5
568
330
11
100
AcDbSymbolTableRecord
100
AcDbLayerTableRecord
  2
AM_5
 70
     0
 62
     5
  6
Continuous
370
    50
390
6
  0
LAYER
  5
1297
330
11
100
AcDbSymbolTableRecord
100
AcDbLayerTableRecord
  2
LOGO
 70
     0
 62
     7
  6
Continuous
370
    -3
390
6
  0
ENDTAB
  0
TABLE
  2
STYLE
  5
12
330
0
100
AcDbSymbolTable
 70
     5
  0
STYLE
  5
13
330
12
100
AcDbSymbolTableRecord
100
AcDbTextStyleTableRecord
  2
STANDARD
 70
     0
 40
0.0
 41
1.0
 50
0.0
 71
     0
 42
3.0
  3
ISOCP.SHX
  4
CHINESET.SHX
  0
STYLE
  5
177
330
12
100
AcDbSymbolTableRecord
100
AcDbTextStyleTableRecord
  2

 70
     1
 40
0.0
 41
1.0
 50
0.0
 71
     0
 42
3.0
  3
ltypeshp.shx
  4

  0
STYLE
  5
179
330
12
100
AcDbSymbolTableRecord
100
AcDbTextStyleTableRecord
  2
ACISOTS
 70
     0
 40
1.0
 41
1.0
 50
0.0
 71
     0
 42
3.0
  3
isocp.shx
  4
chineset.shx
  0
STYLE
  5
185
330
12
100
AcDbSymbolTableRecord
100
AcDbTextStyleTableRecord
  2
ACISOGDT
 70
     0
 40
0.0
 41
1.0
 50
0.0
 71
     0
 42
3.0
  3
amgdt.shx
  4

  0
STYLE
  5
51F
330
12
100
AcDbSymbolTableRecord
100
AcDbTextStyleTableRecord
  2
CHINESET
 70
     0
 40
0.0
 41
1.0
 50
0.0
 71
     0
 42
2.5
  3
simplex.shx
  4
CHINESET.shx
  0
ENDTAB
  0
TABLE
  2
VIEW
  5
18
330
0
100
AcDbSymbolTable
 70
     0
  0
ENDTAB
  0
TABLE
  2
UCS
  5
19
330
0
100
AcDbSymbolTable
 70
     0
  0
ENDTAB
  0
TABLE
  2
APPID
  5
1C
330
0
100
AcDbSymbolTable
 70
    17
  0
APPID
  5
1D
330
1C
100
AcDbSymbolTableRecord
100
AcDbRegAppTableRecord
  2
ACAD
 70
     0
  0
APPID
  5
154
330
1C
100
AcDbSymbolTableRecord
100
AcDbRegAppTableRecord
  2
MCAD_NO_VIS
 70
     0
  0
APPID
  5
155
330
1C
100
AcDbSymbolTableRecord
100
AcDbRegAppTableRecord
  2
ACAD_TEMP_GRAPHIC
 70
     0
  0
APPID
  5
166
330
1C
100
AcDbSymbolTableRecord
100
AcDbRegAppTableRecord
  2
ACATTRIBSERVICES
 70
     0
  0
APPID
  5
D06
330
1C
100
AcDbSymbolTableRecord
100
AcDbRegAppTableRecord
  2
GENIUS_GENDIMSH_14
 70
     0
  0
APPID
  5
1268
330
1C
100
AcDbSymbolTableRecord
100
AcDbRegAppTableRecord
  2
AD_DRAW
 70
     0
  0
APPID
  5
1286
330
1C
100
AcDbSymbolTableRecord
100
AcDbRegAppTableRecord
  2
DESIGNERASSEMBLIES
 70
     0
  0
APPID
  5
128B
330
1C
100
AcDbSymbolTableRecord
100
AcDbRegAppTableRecord
  2
ACADM_DIM_EDIT
 70
     0
  0
APPID
  5
128C
330
1C
100
AcDbSymbolTableRecord
100
AcDbRegAppTableRecord
  2
AMDT_DM_ADJ
 70
     0
  0
APPID
  5
1299
330
1C
100
AcDbSymbolTableRecord
100
AcDbRegAppTableRecord
  2
GENIUS_GENODEF_13
 70
     0
  0
APPID
  5
129A
330
1C
100
AcDbSymbolTableRecord
100
AcDbRegAppTableRecord
  2
GENIUS_GENREC_14
 70
     0
  0
APPID
  5
129B
330
1C
100
AcDbSymbolTableRecord
100
AcDbRegAppTableRecord
  2
GENIUS_GENOBJ-N-REC_13
 70
     0
  0
APPID
  5
147A
330
1C
100
AcDbSymbolTableRecord
100
AcDbRegAppTableRecord
  2
GENIUS_GENDIM_13
 70
     0
  0
APPID
  5
147B
330
1C
100
AcDbSymbolTableRecord
100
AcDbRegAppTableRecord
  2
GENIUS_GENDTOL_13
 70
     0
  0
APPID
  5
147C
330
1C
100
AcDbSymbolTableRecord
100
AcDbRegAppTableRecord
  2
GENIUS_GE3DTOL_13
 70
     0
  0
APPID
  5
14FA
330
1C
100
AcDbSymbolTableRecord
100
AcDbRegAppTableRecord
  2
ASURF_PCURVE_APPNAME
 70
     0
  0
APPID
  5
14FF
330
1C
100
AcDbSymbolTableRecord
100
AcDbRegAppTableRecord
  2
AMG_3D2D_5.0
 70
     0
  0
ENDTAB
  0
TABLE
  2
DIMSTYLE
  5
1E
330
0
100
AcDbSymbolTable
 70
     7
100
AcDbDimStyleTable
 71
     1
340
1F
  0
DIMSTYLE
105
1F
102
{ACAD_REACTORS
330
577
330
5B8
330
63E
330
67F
330
705
330
746
330
787
330
80B
330
84C
330
88D
102
}
330
1E
100
AcDbSymbolTableRecord
100
AcDbDimStyleTableRecord
  2
AM_ISO
 70
     0
  4
"
 41
3.0
 42
1.0
 43
6.0
 44
1.5
 47
0.1
 48
0.1
 73
     0
 74
     0
 77
     1
 78
     8
 79
     2
140
3.0
141
0.0
143
0.0393701
146
0.71
147
0.8
172
     1
176
   256
177
   256
178
   256
271
     2
272
     2
283
     0
284
     8
340
13
371
    -1
372
    -1
  0
DIMSTYLE
105
18C
330
1E
100
AcDbSymbolTableRecord
100
AcDbDimStyleTableRecord
  2
AM_ISO$3
 70
     0
  4
"
 41
3.0
 42
1.0
 43
6.0
 44
1.5
 47
0.1
 48
0.1
 73
     0
 77
     1
 78
     8
 79
     2
140
3.0
141
0.0
143
0.0393701
146
0.71
147
0.8
176
   256
177
   256
178
   256
271
     2
272
     2
283
     0
284
     8
288
     1
289
     0
340
13
371
    -1
372
    -1
  0
DIMSTYLE
105
18D
330
1E
100
AcDbSymbolTableRecord
100
AcDbDimStyleTableRecord
  2
AM_ISO$4
 70
     0
  4
"
 41
3.0
 42
1.0
 43
6.0
 44
1.5
 47
0.1
 48
0.1
 73
     0
 77
     1
 78
     8
 79
     2
140
3.0
141
0.0
143
0.0393701
146
0.71
147
0.8
176
   256
177
   256
178
   256
271
     2
272
     2
283
     0
284
     8
288
     1
289
     0
340
13
371
    -1
372
    -1
  0
DIMSTYLE
105
18E
330
1E
100
AcDbSymbolTableRecord
100
AcDbDimStyleTableRecord
  2
AM_ISO$6
 70
     0
  4
"
 41
3.0
 42
1.0
 43
6.0
 44
1.5
 47
0.1
 48
0.1
 73
     0
 74
     0
 78
     8
 79
     2
140
3.0
141
0.0
143
0.0393701
146
0.71
147
0.8
172
     1
176
   256
177
   256
178
   256
271
     2
272
     2
283
     0
284
     8
340
13
371
    -1
372
    -1
  0
DIMSTYLE
105
18F
330
1E
100
AcDbSymbolTableRecord
100
AcDbDimStyleTableRecord
  2
AM_ISO$7
 70
     0
  4
"
 41
2.5
 42
1.0
 43
6.0
 44
1.5
 47
0.1
 48
0.1
 73
     0
 74
     0
 77
     1
 78
     8
 79
     2
140
5.0
141
0.0
143
0.0393701
146
0.71
147
1.5
172
     1
176
   256
177
   256
178
   256
271
     2
272
     2
283
     0
284
     8
340
13
371
    -1
372
    -1
  0
DIMSTYLE
105
190
330
1E
100
AcDbSymbolTableRecord
100
AcDbDimStyleTableRecord
  2
AM_ISO$SF
 70
     0
  4
"
 41
3.0
 42
1.5
 43
7.0
 44
2.0
 47
0.1
 48
0.1
 73
     0
 74
     0
 75
     1
 76
     1
 77
     1
 78
     8
 79
     2
140
3.0
141
0.0
143
0.0393701
146
0.71
147
0.8
172
     1
176
   256
177
   256
178
   256
271
     2
272
     2
283
     0
284
     8
340
13
371
    -1
372
    -1
  0
DIMSTYLE
105
195
330
1E
100
AcDbSymbolTableRecord
100
AcDbDimStyleTableRecord
  2
AM_ISO$SH
 70
     0
  4
"
 41
3.0
 42
1.5
 43
7.0
 44
2.0
 47
0.1
 48
0.1
 73
     0
 74
     0
 75
     1
 76
     1
 77
     1
 78
     8
 79
     2
140
3.0
141
0.0
143
0.0393701
144
2.0
146
0.71
147
0.8
172
     1
173
     1
176
   256
177
   256
178
   256
271
     2
272
     2
283
     0
284
     8
340
13
343
191
371
    -1
372
    -1
  0
ENDTAB
  0
TABLE
  2
BLOCK_RECORD
  5
1
330
0
100
AcDbSymbolTable
 70
    14
  0
BLOCK_RECORD
  5
2
102
{ACAD_XDICTIONARY
360
3
102
}
330
1
100
AcDbSymbolTableRecord
100
AcDbBlockTableRecord
  2
*Model_Space
340
B
  0
BLOCK_RECORD
  5
D
330
1
100
AcDbSymbolTableRecord
100
AcDbBlockTableRecord
  2
*Paper_Space
340
10
  0
BLOCK_RECORD
  5
191
330
1
100
AcDbSymbolTableRecord
100
AcDbBlockTableRecord
  2
GENAXEH
340
0
  0
BLOCK_RECORD
  5
578
330
1
100
AcDbSymbolTableRecord
100
AcDbBlockTableRecord
  2
*D1
340
0
  0
BLOCK_RECORD
  5
5B9
330
1
100
AcDbSymbolTableRecord
100
AcDbBlockTableRecord
  2
*D2
340
0
  0
BLOCK_RECORD
  5
63F
330
1
100
AcDbSymbolTableRecord
100
AcDbBlockTableRecord
  2
*D3
340
0
  0
BLOCK_RECORD
  5
680
330
1
100
AcDbSymbolTableRecord
100
AcDbBlockTableRecord
  2
*D4
340
0
  0
BLOCK_RECORD
  5
706
330
1
100
AcDbSymbolTableRecord
100
AcDbBlockTableRecord
  2
*D5
340
0
  0
BLOCK_RECORD
  5
747
330
1
100
AcDbSymbolTableRecord
100
AcDbBlockTableRecord
  2
*D6
340
0
  0
BLOCK_RECORD
  5
788
330
1
100
AcDbSymbolTableRecord
100
AcDbBlockTableRecord
  2
*D7
340
0
  0
BLOCK_RECORD
  5
80C
330
1
100
AcDbSymbolTableRecord
100
AcDbBlockTableRecord
  2
*D8
340
0
  0
BLOCK_RECORD
  5
84D
330
1
100
AcDbSymbolTableRecord
100
AcDbBlockTableRecord
  2
*D9
340
0
  0
BLOCK_RECORD
  5
88E
330
1
100
AcDbSymbolTableRecord
100
AcDbBlockTableRecord
  2
*D10
340
0
  0
BLOCK_RECORD
  5
1458
330
1
100
AcDbSymbolTableRecord
100
AcDbBlockTableRecord
  2
*S11
340
0
102
{BLKREFS
331
103F
102
}
  0
BLOCK_RECORD
  5
1460
330
1
100
AcDbSymbolTableRecord
100
AcDbBlockTableRecord
  2
*S12
340
0
102
{BLKREFS
331
1110
102
}
  0
ENDTAB
  0
ENDSEC
  0
SECTION
  2
BLOCKS
  0
BLOCK
  5
4
330
2
100
AcDbEntity
  8
0
100
AcDbBlockBegin
  2
*Model_Space
 70
     0
 10
0.0
 20
0.0
 30
0.0
  3
*Model_Space
  1

  0
ENDBLK
  5
A
330
2
100
AcDbEntity
  8
0
100
AcDbBlockEnd
  0
BLOCK
  5
E
330
D
100
AcDbEntity
 67
     1
  8
0
100
AcDbBlockBegin
  2
*Paper_Space
 70
     0
 10
0.0
 20
0.0
 30
0.0
  3
*Paper_Space
  1

  0
ENDBLK
  5
F
330
D
100
AcDbEntity
 67
     1
  8
0
100
AcDbBlockEnd
  0
BLOCK
  5
193
330
191
100
AcDbEntity
  8
0
100
AcDbBlockBegin
  2
GENAXEH
 70
     0
 10
0.0
 20
0.0
 30
0.0
  3
GENAXEH
  1

  0
LINE
  5
192
330
191
100
AcDbEntity
  8
0
100
AcDbLine
 10
-1.0
 20
0.0
 30
0.0
 11
1.0
 21
0.0
 31
0.0
  0
ENDBLK
  5
194
330
191
100
AcDbEntity
  8
0
100
AcDbBlockEnd
  0
BLOCK
  5
582
330
578
100
AcDbEntity
  8
0
100
AcDbBlockBegin
  2
*D1
 70
     1
 10
0.0
 20
0.0
 30
0.0
  3
*D1
  1

  0
LINE
  5
13D1
330
578
100
AcDbEntity
  8
AM_5
100
AcDbLine
 10
124.9260004196564
 20
103.2672734487249
 30
0.0
 11
124.9260004196564
 21
111.9094069222645
 31
0.0
  0
LINE
  5
13D2
330
578
100
AcDbEntity
  8
AM_5
100
AcDbLine
 10
169.9260004196565
 20
103.2672734487249
 30
0.0
 11
169.9260004196565
 21
111.9094069222645
 31
0.0
  0
LINE
  5
13D3
330
578
100
AcDbEntity
  8
AM_5
100
AcDbLine
 10
127.9260004196564
 20
110.4094069222645
 30
0.0
 11
166.9260004196565
 21
110.4094069222645
 31
0.0
  0
SOLID
  5
13D4
330
578
100
AcDbEntity
  8
AM_5
100
AcDbTrace
 10
127.9260004196564
 20
110.9094069222645
 30
0.0
 11
127.9260004196564
 21
109.9094069222645
 31
0.0
 12
124.9260004196564
 22
110.4094069222645
 32
0.0
 13
124.9260004196564
 23
110.4094069222645
 33
0.0
  0
SOLID
  5
13D5
330
578
100
AcDbEntity
  8
AM_5
100
AcDbTrace
 10
166.9260004196565
 20
110.9094069222645
 30
0.0
 11
166.9260004196565
 21
109.9094069222645
 31
0.0
 12
169.9260004196565
 22
110.4094069222645
 32
0.0
 13
169.9260004196565
 23
110.4094069222645
 33
0.0
  0
MTEXT
  5
13D6
330
578
100
AcDbEntity
  8
AM_5
100
AcDbMText
 10
147.4260004196564
 20
112.7094069222645
 30
0.0
 40
3.0
 41
0.0
 71
     5
 72
     1
  1
45
 73
     1
 44
1.0
1001
ACAD
1000
MTEXTBEGIN
1070
    73
1070
     1
1070
    44
1040
1.0
1070
    74
1070
     0
1000
MTEXTEND
  0
POINT
  5
13D7
330
578
100
AcDbEntity
  8
Defpoints
 62
     0
100
AcDbPoint
 10
124.9260004196564
 20
102.2672734487249
 30
0.0
  0
POINT
  5
13D8
330
578
100
AcDbEntity
  8
Defpoints
 62
     0
100
AcDbPoint
 10
169.9260004196565
 20
102.2672734487249
 30
0.0
  0
POINT
  5
13D9
330
578
100
AcDbEntity
  8
Defpoints
 62
     0
100
AcDbPoint
 10
169.9260004196565
 20
110.4094069222645
 30
0.0
  0
ENDBLK
  5
583
330
578
100
AcDbEntity
  8
0
100
AcDbBlockEnd
  0
BLOCK
  5
5C3
330
5B9
100
AcDbEntity
  8
0
100
AcDbBlockBegin
  2
*D2
 70
     1
 10
0.0
 20
0.0
 30
0.0
  3
*D2
  1

  0
LINE
  5
13DA
330
5B9
100
AcDbEntity
  8
AM_5
100
AcDbLine
 10
119.9260004196565
 20
105.6672734487249
 30
0.0
 11
119.9260004196565
 21
117.9094069222645
 31
0.0
  0
LINE
  5
13DB
330
5B9
100
AcDbEntity
  8
AM_5
100
AcDbLine
 10
174.9260004196564
 20
105.667273448725
 30
0.0
 11
174.9260004196564
 21
117.9094069222645
 31
0.0
  0
LINE
  5
13DC
330
5B9
100
AcDbEntity
  8
AM_5
100
AcDbLine
 10
122.9260004196564
 20
116.4094069222645
 30
0.0
 11
171.9260004196565
 21
116.4094069222645
 31
0.0
  0
SOLID
  5
13DD
330
5B9
100
AcDbEntity
  8
AM_5
100
AcDbTrace
 10
122.9260004196564
 20
116.9094069222645
 30
0.0
 11
122.9260004196564
 21
115.9094069222645
 31
0.0
 12
119.9260004196565
 22
116.4094069222645
 32
0.0
 13
119.9260004196565
 23
116.4094069222645
 33
0.0
  0
SOLID
  5
13DE
330
5B9
100
AcDbEntity
  8
AM_5
100
AcDbTrace
 10
171.9260004196565
 20
116.9094069222645
 30
0.0
 11
171.9260004196565
 21
115.9094069222645
 31
0.0
 12
174.9260004196564
 22
116.4094069222645
 32
0.0
 13
174.9260004196564
 23
116.4094069222645
 33
0.0
  0
MTEXT
  5
13DF
330
5B9
100
AcDbEntity
  8
AM_5
100
AcDbMText
 10
147.4260004196564
 20
118.7094069222645
 30
0.0
 40
3.0
 41
0.0
 71
     5
 72
     1
  1
55
 73
     1
 44
1.0
1001
ACAD
1000
MTEXTBEGIN
1070
    73
1070
     1
1070
    44
1040
1.0
1070
    74
1070
     0
1000
MTEXTEND
  0
POINT
  5
13E0
330
5B9
100
AcDbEntity
  8
Defpoints
 62
     0
100
AcDbPoint
 10
119.9260004196565
 20
104.6672734487249
 30
0.0
  0
POINT
  5
13E1
330
5B9
100
AcDbEntity
  8
Defpoints
 62
     0
100
AcDbPoint
 10
174.9260004196564
 20
104.667273448725
 30
0.0
  0
POINT
  5
13E2
330
5B9
100
AcDbEntity
  8
Defpoints
 62
     0
100
AcDbPoint
 10
174.9260004196564
 20
116.4094069222645
 30
0.0
  0
ENDBLK
  5
5C4
330
5B9
100
AcDbEntity
  8
0
100
AcDbBlockEnd
  0
BLOCK
  5
649
330
63F
100
AcDbEntity
  8
0
100
AcDbBlockBegin
  2
*D3
 70
     1
 10
0.0
 20
0.0
 30
0.0
  3
*D3
  1

  0
LINE
  5
13E3
330
63F
100
AcDbEntity
  8
AM_5
100
AcDbLine
 10
120.4260004196564
 20
98.76727344872495
 30
0.0
 11
106.4260004196565
 21
98.76727344872495
 31
0.0
  0
LINE
  5
13E4
330
63F
100
AcDbEntity
  8
AM_5
100
AcDbLine
 10
118.9260004196565
 20
69.26727344872495
 30
0.0
 11
106.4260004196565
 21
69.26727344872495
 31
0.0
  0
LINE
  5
13E5
330
63F
100
AcDbEntity
  8
AM_5
100
AcDbLine
 10
107.9260004196564
 20
95.76727344872494
 30
0.0
 11
107.9260004196564
 21
72.26727344872495
 31
0.0
  0
SOLID
  5
13E6
330
63F
100
AcDbEntity
  8
AM_5
100
AcDbTrace
 10
107.4260004196565
 20
95.76727344872494
 30
0.0
 11
108.4260004196565
 21
95.76727344872494
 31
0.0
 12
107.9260004196565
 22
98.76727344872495
 32
0.0
 13
107.9260004196565
 23
98.76727344872495
 33
0.0
  0
SOLID
  5
13E7
330
63F
100
AcDbEntity
  8
AM_5
100
AcDbTrace
 10
107.4260004196565
 20
72.26727344872495
 30
0.0
 11
108.4260004196565
 21
72.26727344872495
 31
0.0
 12
107.9260004196564
 22
69.26727344872495
 32
0.0
 13
107.9260004196564
 23
69.26727344872495
 33
0.0
  0
MTEXT
  5
13E8
330
63F
100
AcDbEntity
  8
AM_5
100
AcDbMText
 10
105.6257051440659
 20
84.01727344872497
 30
0.0
 40
3.0
 41
0.0
 71
     5
 72
     1
  1
29.5
 11
0.0000000000000001
 21
1.0
 31
0.0
 73
     1
 44
1.0
1001
ACAD
1000
MTEXTBEGIN
1070
    73
1070
     1
1070
    44
1040
1.0
1070
    74
1070
     0
1000
MTEXTEND
  0
POINT
  5
13E9
330
63F
100
AcDbEntity
  8
Defpoints
 62
     0
100
AcDbPoint
 10
121.4260004196564
 20
98.76727344872495
 30
0.0
  0
POINT
  5
13EA
330
63F
100
AcDbEntity
  8
Defpoints
 62
     0
100
AcDbPoint
 10
119.9260004196565
 20
69.26727344872495
 30
0.0
  0
POINT
  5
13EB
330
63F
100
AcDbEntity
  8
Defpoints
 62
     0
100
AcDbPoint
 10
107.9260004196564
 20
69.26727344872495
 30
0.0
  0
ENDBLK
  5
64A
330
63F
100
AcDbEntity
  8
0
100
AcDbBlockEnd
  0
BLOCK
  5
68A
330
680
100
AcDbEntity
  8
0
100
AcDbBlockBegin
  2
*D4
 70
     1
 10
0.0
 20
0.0
 30
0.0
  3
*D4
  1

  0
LINE
  5
13EC
330
680
100
AcDbEntity
  8
AM_5
100
AcDbLine
 10
118.9260004196565
 20
104.6672734487249
 30
0.0
 11
100.4260004196565
 21
104.6672734487249
 31
0.0
  0
LINE
  5
13ED
330
680
100
AcDbEntity
  8
AM_5
100
AcDbLine
 10
118.9260004196565
 20
69.26727344872495
 30
0.0
 11
100.4260004196565
 21
69.26727344872495
 31
0.0
  0
LINE
  5
13EE
330
680
100
AcDbEntity
  8
AM_5
100
AcDbLine
 10
101.9260004196565
 20
101.6672734487249
 30
0.0
 11
101.9260004196564
 21
72.26727344872495
 31
0.0
  0
SOLID
  5
13EF
330
680
100
AcDbEntity
  8
AM_5
100
AcDbTrace
 10
101.4260004196565
 20
101.6672734487249
 30
0.0
 11
102.4260004196565
 21
101.6672734487249
 31
0.0
 12
101.9260004196565
 22
104.6672734487249
 32
0.0
 13
101.9260004196565
 23
104.6672734487249
 33
0.0
  0
SOLID
  5
13F0
330
680
100
AcDbEntity
  8
AM_5
100
AcDbTrace
 10
101.4260004196565
 20
72.26727344872495
 30
0.0
 11
102.4260004196565
 21
72.26727344872495
 31
0.0
 12
101.9260004196564
 22
69.26727344872495
 32
0.0
 13
101.9260004196564
 23
69.26727344872495
 33
0.0
  0
MTEXT
  5
13F1
330
680
100
AcDbEntity
  8
AM_5
100
AcDbMText
 10
99.62600041965647
 20
86.96727344872497
 30
0.0
 40
3.0
 41
0.0
 71
     5
 72
     1
  1
35.4
 11
0.0000000000000001
 21
1.0
 31
0.0
 73
     1
 44
1.0
1001
ACAD
1000
MTEXTBEGIN
1070
    73
1070
     1
1070
    44
1040
1.0
1070
    74
1070
     0
1000
MTEXTEND
  0
POINT
  5
13F2
330
680
100
AcDbEntity
  8
Defpoints
 62
     0
100
AcDbPoint
 10
119.9260004196565
 20
104.6672734487249
 30
0.0
  0
POINT
  5
13F3
330
680
100
AcDbEntity
  8
Defpoints
 62
     0
100
AcDbPoint
 10
119.9260004196565
 20
69.26727344872495
 30
0.0
  0
POINT
  5
13F4
330
680
100
AcDbEntity
  8
Defpoints
 62
     0
100
AcDbPoint
 10
101.9260004196564
 20
69.26727344872495
 30
0.0
  0
ENDBLK
  5
68B
330
680
100
AcDbEntity
  8
0
100
AcDbBlockEnd
  0
BLOCK
  5
710
330
706
100
AcDbEntity
  8
0
100
AcDbBlockBegin
  2
*D5
 70
     1
 10
0.0
 20
0.0
 30
0.0
  3
*D5
  1

  0
LINE
  5
13F5
330
706
100
AcDbEntity
  8
AM_5
100
AcDbLine
 10
236.3494679182224
 20
105.6672734487249
 30
0.0
 11
236.3494679182224
 21
111.9094069222645
 31
0.0
  0
LINE
  5
13F6
330
706
100
AcDbEntity
  8
AM_5
100
AcDbLine
 10
223.1494679182225
 20
107.9344432338465
 30
0.0
 11
223.1494679182225
 21
111.9094069222645
 31
0.0
  0
LINE
  5
13F7
330
706
100
AcDbEntity
  8
AM_5
100
AcDbLine
 10
233.3494679182225
 20
110.4094069222645
 30
0.0
 11
226.1494679182225
 21
110.4094069222645
 31
0.0
  0
SOLID
  5
13F8
330
706
100
AcDbEntity
  8
AM_5
100
AcDbTrace
 10
233.3494679182225
 20
110.9094069222645
 30
0.0
 11
233.3494679182225
 21
109.9094069222645
 31
0.0
 12
236.3494679182224
 22
110.4094069222645
 32
0.0
 13
236.3494679182224
 23
110.4094069222645
 33
0.0
  0
SOLID
  5
13F9
330
706
100
AcDbEntity
  8
AM_5
100
AcDbTrace
 10
226.1494679182225
 20
110.9094069222645
 30
0.0
 11
226.1494679182225
 21
109.9094069222645
 31
0.0
 12
223.1494679182225
 22
110.4094069222645
 32
0.0
 13
223.1494679182225
 23
110.4094069222645
 33
0.0
  0
MTEXT
  5
13FA
330
706
100
AcDbEntity
  8
AM_5
100
AcDbMText
 10
229.7494679182225
 20
112.709702197855
 30
0.0
 40
3.0
 41
0.0
 71
     5
 72
     1
  1
13.2
 73
     1
 44
1.0
1001
ACAD
1000
MTEXTBEGIN
1070
    73
1070
     1
1070
    44
1040
1.0
1070
    74
1070
     0
1000
MTEXTEND
  0
POINT
  5
13FB
330
706
100
AcDbEntity
  8
Defpoints
 62
     0
100
AcDbPoint
 10
236.3494679182224
 20
104.6672734487249
 30
0.0
  0
POINT
  5
13FC
330
706
100
AcDbEntity
  8
Defpoints
 62
     0
100
AcDbPoint
 10
223.1494679182225
 20
106.9344432338465
 30
0.0
  0
POINT
  5
13FD
330
706
100
AcDbEntity
  8
Defpoints
 62
     0
100
AcDbPoint
 10
223.1494679182225
 20
110.4094069222645
 30
0.0
  0
ENDBLK
  5
711
330
706
100
AcDbEntity
  8
0
100
AcDbBlockEnd
  0
BLOCK
  5
751
330
747
100
AcDbEntity
  8
0
100
AcDbBlockBegin
  2
*D6
 70
     1
 10
0.0
 20
0.0
 30
0.0
  3
*D6
  1

  0
LINE
  5
13FE
330
747
100
AcDbEntity
  8
AM_5
100
AcDbLine
 10
236.3494679182224
 20
105.6672734487249
 30
0.0
 11
236.3494679182224
 21
117.9094069222645
 31
0.0
  0
LINE
  5
13FF
330
747
100
AcDbEntity
  8
AM_5
100
AcDbLine
 10
209.9494679182224
 20
105.6672734487249
 30
0.0
 11
209.9494679182224
 21
117.9094069222645
 31
0.0
  0
LINE
  5
1400
330
747
100
AcDbEntity
  8
AM_5
100
AcDbLine
 10
233.3494679182225
 20
116.4094069222645
 30
0.0
 11
212.9494679182224
 21
116.4094069222645
 31
0.0
  0
SOLID
  5
1401
330
747
100
AcDbEntity
  8
AM_5
100
AcDbTrace
 10
233.3494679182225
 20
116.9094069222645
 30
0.0
 11
233.3494679182225
 21
115.9094069222645
 31
0.0
 12
236.3494679182224
 22
116.4094069222645
 32
0.0
 13
236.3494679182224
 23
116.4094069222645
 33
0.0
  0
SOLID
  5
1402
330
747
100
AcDbEntity
  8
AM_5
100
AcDbTrace
 10
212.9494679182224
 20
116.9094069222645
 30
0.0
 11
212.9494679182224
 21
115.9094069222645
 31
0.0
 12
209.9494679182224
 22
116.4094069222645
 32
0.0
 13
209.9494679182224
 23
116.4094069222645
 33
0.0
  0
MTEXT
  5
1403
330
747
100
AcDbEntity
  8
AM_5
100
AcDbMText
 10
223.1494679182224
 20
118.709702197855
 30
0.0
 40
3.0
 41
0.0
 71
     5
 72
     1
  1
26.4
 73
     1
 44
1.0
1001
ACAD
1000
MTEXTBEGIN
1070
    73
1070
     1
1070
    44
1040
1.0
1070
    74
1070
     0
1000
MTEXTEND
  0
POINT
  5
1404
330
747
100
AcDbEntity
  8
Defpoints
 62
     0
100
AcDbPoint
 10
236.3494679182224
 20
104.6672734487249
 30
0.0
  0
POINT
  5
1405
330
747
100
AcDbEntity
  8
Defpoints
 62
     0
100
AcDbPoint
 10
209.9494679182224
 20
104.6672734487249
 30
0.0
  0
POINT
  5
1406
330
747
100
AcDbEntity
  8
Defpoints
 62
     0
100
AcDbPoint
 10
209.9494679182224
 20
116.4094069222645
 30
0.0
  0
ENDBLK
  5
752
330
747
100
AcDbEntity
  8
0
100
AcDbBlockEnd
  0
BLOCK
  5
792
330
788
100
AcDbEntity
  8
0
100
AcDbBlockBegin
  2
*D7
 70
     1
 10
0.0
 20
0.0
 30
0.0
  3
*D7
  1

  0
LINE
  5
1407
330
788
100
AcDbEntity
  8
AM_5
100
AcDbLine
 10
208.9494679182224
 20
69.26727344872493
 30
0.0
 11
200.6691155060619
 21
69.26727344872493
 31
0.0
  0
LINE
  5
1408
330
788
100
AcDbEntity
  8
AM_5
100
AcDbLine
 10
208.1494679182224
 20
82.26727344872491
 30
0.0
 11
200.6691155060619
 21
82.26727344872491
 31
0.0
  0
LINE
  5
1409
330
788
100
AcDbEntity
  8
AM_5
100
AcDbLine
 10
202.1691155060619
 20
72.26727344872493
 30
0.0
 11
202.1691155060619
 21
79.26727344872492
 31
0.0
  0
SOLID
  5
140A
330
788
100
AcDbEntity
  8
AM_5
100
AcDbTrace
 10
201.6691155060619
 20
72.26727344872493
 30
0.0
 11
202.6691155060619
 21
72.26727344872493
 31
0.0
 12
202.1691155060619
 22
69.26727344872493
 32
0.0
 13
202.1691155060619
 23
69.26727344872493
 33
0.0
  0
SOLID
  5
140B
330
788
100
AcDbEntity
  8
AM_5
100
AcDbTrace
 10
201.6691155060619
 20
79.26727344872492
 30
0.0
 11
202.6691155060619
 21
79.26727344872492
 31
0.0
 12
202.1691155060619
 22
82.26727344872491
 32
0.0
 13
202.1691155060619
 23
82.26727344872491
 33
0.0
  0
MTEXT
  5
140C
330
788
100
AcDbEntity
  8
AM_5
100
AcDbMText
 10
199.8691155060618
 20
75.76727344872496
 30
0.0
 40
3.0
 41
0.0
 71
     5
 72
     1
  1
13
 11
0.0000000000000001
 21
1.0
 31
0.0
 73
     1
 44
1.0
1001
ACAD
1000
MTEXTBEGIN
1070
    73
1070
     1
1070
    44
1040
1.0
1070
    74
1070
     0
1000
MTEXTEND
  0
POINT
  5
140D
330
788
100
AcDbEntity
  8
Defpoints
 62
     0
100
AcDbPoint
 10
209.9494679182224
 20
69.26727344872493
 30
0.0
  0
POINT
  5
140E
330
788
100
AcDbEntity
  8
Defpoints
 62
     0
100
AcDbPoint
 10
209.1494679182225
 20
82.26727344872491
 30
0.0
  0
POINT
  5
140F
330
788
100
AcDbEntity
  8
Defpoints
 62
     0
100
AcDbPoint
 10
202.1691155060619
 20
82.26727344872491
 30
0.0
  0
ENDBLK
  5
793
330
788
100
AcDbEntity
  8
0
100
AcDbBlockEnd
  0
BLOCK
  5
816
330
80C
100
AcDbEntity
  8
0
100
AcDbBlockBegin
  2
*D8
 70
     1
 10
0.0
 20
0.0
 30
0.0
  3
*D8
  1

  0
LINE
  5
1410
330
80C
100
AcDbEntity
  8
AM_5
100
AcDbLine
 10
174.9260004196564
 20
139.2073531231226
 30
0.0
 11
174.9260004196564
 21
131.6506739449248
 31
0.0
  0
LINE
  5
1411
330
80C
100
AcDbEntity
  8
AM_5
100
AcDbLine
 10
150.9260004196564
 20
144.5696281291501
 30
0.0
 11
150.9260004196564
 21
131.6506739449248
 31
0.0
  0
LINE
  5
1412
330
80C
100
AcDbEntity
  8
AM_5
100
AcDbLine
 10
171.9260004196565
 20
133.1506739449248
 30
0.0
 11
153.9260004196564
 21
133.1506739449248
 31
0.0
  0
SOLID
  5
1413
330
80C
100
AcDbEntity
  8
AM_5
100
AcDbTrace
 10
171.9260004196565
 20
133.6506739449248
 30
0.0
 11
171.9260004196565
 21
132.6506739449248
 31
0.0
 12
174.9260004196564
 22
133.1506739449248
 32
0.0
 13
174.9260004196564
 23
133.1506739449248
 33
0.0
  0
SOLID
  5
1414
330
80C
100
AcDbEntity
  8
AM_5
100
AcDbTrace
 10
153.9260004196564
 20
133.6506739449248
 30
0.0
 11
153.9260004196564
 21
132.6506739449248
 31
0.0
 12
150.9260004196564
 22
133.1506739449248
 32
0.0
 13
150.9260004196564
 23
133.1506739449248
 33
0.0
  0
MTEXT
  5
1415
330
80C
100
AcDbEntity
  8
AM_5
100
AcDbMText
 10
162.9260004196565
 20
135.4509692205153
 30
0.0
 40
3.0
 41
0.0
 71
     5
 72
     1
  1
24
 73
     1
 44
1.0
1001
ACAD
1000
MTEXTBEGIN
1070
    73
1070
     1
1070
    44
1040
1.0
1070
    74
1070
     0
1000
MTEXTEND
  0
POINT
  5
1416
330
80C
100
AcDbEntity
  8
Defpoints
 62
     0
100
AcDbPoint
 10
174.9260004196564
 20
140.2073531231226
 30
0.0
  0
POINT
  5
1417
330
80C
100
AcDbEntity
  8
Defpoints
 62
     0
100
AcDbPoint
 10
150.9260004196564
 20
145.5696281291501
 30
0.0
  0
POINT
  5
1418
330
80C
100
AcDbEntity
  8
Defpoints
 62
     0
100
AcDbPoint
 10
150.9260004196564
 20
133.1506739449248
 30
0.0
  0
ENDBLK
  5
817
330
80C
100
AcDbEntity
  8
0
100
AcDbBlockEnd
  0
BLOCK
  5
857
330
84D
100
AcDbEntity
  8
0
100
AcDbBlockBegin
  2
*D9
 70
     1
 10
0.0
 20
0.0
 30
0.0
  3
*D9
  1

  0
LINE
  5
1419
330
84D
100
AcDbEntity
  8
AM_5
100
AcDbLine
 10
181.9260004196563
 20
142.4073531231226
 30
0.0
 11
181.9260004196563
 21
125.6506739449247
 31
0.0
  0
LINE
  5
141A
330
84D
100
AcDbEntity
  8
AM_5
100
AcDbLine
 10
119.9260004196565
 20
139.2073531231226
 30
0.0
 11
119.9260004196565
 21
125.6506739449247
 31
0.0
  0
LINE
  5
141B
330
84D
100
AcDbEntity
  8
AM_5
100
AcDbLine
 10
178.9260004196563
 20
127.1506739449247
 30
0.0
 11
122.9260004196564
 21
127.1506739449247
 31
0.0
  0
SOLID
  5
141C
330
84D
100
AcDbEntity
  8
AM_5
100
AcDbTrace
 10
178.9260004196563
 20
127.6506739449247
 30
0.0
 11
178.9260004196563
 21
126.6506739449247
 31
0.0
 12
181.9260004196563
 22
127.1506739449247
 32
0.0
 13
181.9260004196563
 23
127.1506739449247
 33
0.0
  0
SOLID
  5
141D
330
84D
100
AcDbEntity
  8
AM_5
100
AcDbTrace
 10
122.9260004196564
 20
127.6506739449247
 30
0.0
 11
122.9260004196564
 21
126.6506739449247
 31
0.0
 12
119.9260004196565
 22
127.1506739449247
 32
0.0
 13
119.9260004196565
 23
127.1506739449247
 33
0.0
  0
MTEXT
  5
141E
330
84D
100
AcDbEntity
  8
AM_5
100
AcDbMText
 10
150.9260004196564
 20
129.4509692205153
 30
0.0
 40
3.0
 41
0.0
 71
     5
 72
     1
  1
62
 73
     1
 44
1.0
1001
ACAD
1000
MTEXTBEGIN
1070
    73
1070
     1
1070
    44
1040
1.0
1070
    74
1070
     0
1000
MTEXTEND
  0
POINT
  5
141F
330
84D
100
AcDbEntity
  8
Defpoints
 62
     0
100
AcDbPoint
 10
181.9260004196563
 20
143.4073531231226
 30
0.0
  0
POINT
  5
1420
330
84D
100
AcDbEntity
  8
Defpoints
 62
     0
100
AcDbPoint
 10
119.9260004196565
 20
140.2073531231226
 30
0.0
  0
POINT
  5
1421
330
84D
100
AcDbEntity
  8
Defpoints
 62
     0
100
AcDbPoint
 10
119.9260004196565
 20
127.1506739449247
 30
0.0
  0
ENDBLK
  5
858
330
84D
100
AcDbEntity
  8
0
100
AcDbBlockEnd
  0
BLOCK
  5
898
330
88E
100
AcDbEntity
  8
0
100
AcDbBlockBegin
  2
*D10
 70
     1
 10
0.0
 20
0.0
 30
0.0
  3
*D10
  1

  0
LINE
  5
1422
330
88E
100
AcDbEntity
  8
AM_5
100
AcDbLine
 10
213.1494679182225
 20
74.63402386801408
 30
0.0
 11
213.1494679182225
 21
60.33946653858277
 31
0.0
  0
LINE
  5
1423
330
88E
100
AcDbEntity
  8
AM_5
100
AcDbLine
 10
233.1494679182224
 20
74.63402386801408
 30
0.0
 11
233.1494679182224
 21
60.33946653858277
 31
0.0
  0
LINE
  5
1424
330
88E
100
AcDbEntity
  8
AM_5
100
AcDbLine
 10
216.1494679182225
 20
61.83946653858277
 30
0.0
 11
230.1494679182224
 21
61.83946653858277
 31
0.0
  0
SOLID
  5
1425
330
88E
100
AcDbEntity
  8
AM_5
100
AcDbTrace
 10
216.1494679182225
 20
62.33946653858277
 30
0.0
 11
216.1494679182225
 21
61.33946653858277
 31
0.0
 12
213.1494679182225
 22
61.83946653858277
 32
0.0
 13
213.1494679182225
 23
61.83946653858277
 33
0.0
  0
SOLID
  5
1426
330
88E
100
AcDbEntity
  8
AM_5
100
AcDbTrace
 10
230.1494679182224
 20
62.33946653858277
 30
0.0
 11
230.1494679182224
 21
61.33946653858277
 31
0.0
 12
233.1494679182224
 22
61.83946653858277
 32
0.0
 13
233.1494679182224
 23
61.83946653858277
 33
0.0
  0
MTEXT
  5
1427
330
88E
100
AcDbEntity
  8
AM_5
100
AcDbMText
 10
223.1494679182225
 20
64.13976181417332
 30
0.0
 40
3.0
 41
0.0
 71
     5
 72
     1
  1
20
 73
     1
 44
1.0
1001
ACAD
1000
MTEXTBEGIN
1070
    73
1070
     1
1070
    44
1040
1.0
1070
    74
1070
     0
1000
MTEXTEND
  0
POINT
  5
1428
330
88E
100
AcDbEntity
  8
Defpoints
 62
     0
100
AcDbPoint
 10
213.1494679182225
 20
75.63402386801408
 30
0.0
  0
POINT
  5
1429
330
88E
100
AcDbEntity
  8
Defpoints
 62
     0
100
AcDbPoint
 10
233.1494679182224
 20
75.63402386801408
 30
0.0
  0
POINT
  5
142A
330
88E
100
AcDbEntity
  8
Defpoints
 62
     0
100
AcDbPoint
 10
233.1494679182224
 20
61.83946653858277
 30
0.0
  0
ENDBLK
  5
899
330
88E
100
AcDbEntity
  8
0
100
AcDbBlockEnd
  0
BLOCK
  5
145D
330
1458
100
AcDbEntity
  8
0
100
AcDbBlockBegin
  2
*S11
 70
     1
 10
0.0
 20
0.0
 30
0.0
  3
*S11
  1

  0
LINE
  5
1459
330
1458
100
AcDbEntity
  8
AM_5
 62
     5
100
AcDbLine
 10
192.5405800146786
 20
111.5429295936773
 30
0.0
 11
182.850793543417
 21
111.5429295936773
 31
0.0
  0
LINE
  5
145A
330
1458
100
AcDbEntity
  8
AM_5
 62
     5
100
AcDbLine
 10
182.850793543417
 20
111.5429295936773
 30
0.0
 11
173.9513672957342
 21
102.7506614529996
 31
0.0
  0
TRACE
  5
145B
330
1458
100
AcDbEntity
  8
AM_5
 62
     5
100
AcDbTrace
 10
173.627523432056
 20
103.0784522499198
 30
0.0
 11
174.2752111594124
 21
102.4228706560794
 31
0.0
 12
171.4615489908053
 22
100.29082308261
 32
0.0
 13
171.4615489908053
 23
100.29082308261
 33
0.0
  0
MTEXT
  5
145C
330
1458
100
AcDbEntity
  8
AM_5
 62
     2
100
AcDbMText
 10
192.5405800146786
 20
111.9545925957961
 30
0.0
 40
3.5
 41
0.0
 71
     7
 72
     5
  1

  7
ACISOTS
 73
     1
 44
1.0
1001
ACAD
1000
MTEXTBEGIN
1070
    73
1070
     1
1070
    44
1040
1.0
1070
    74
1070
     0
1000
MTEXTEND
  0
ENDBLK
  5
145E
330
1458
100
AcDbEntity
  8
0
100
AcDbBlockEnd
  0
BLOCK
  5
1465
330
1460
100
AcDbEntity
  8
0
100
AcDbBlockBegin
  2
*S12
 70
     1
 10
0.0
 20
0.0
 30
0.0
  3
*S12
  1

  0
LINE
  5
1461
330
1460
100
AcDbEntity
  8
AM_5
 62
     5
100
AcDbLine
 10
96.38707273420823
 20
59.88850569636804
 30
0.0
 11
112.6186427874613
 21
59.88850569636804
 31
0.0
  0
LINE
  5
1462
330
1460
100
AcDbEntity
  8
AM_5
 62
     5
100
AcDbLine
 10
112.6186427874613
 20
59.88850569636804
 30
0.0
 11
118.8395935257983
 21
78.94015456582079
 31
0.0
  0
TRACE
  5
1463
330
1460
100
AcDbEntity
  8
AM_5
 62
     5
100
AcDbTrace
 10
119.2776170345485
 20
78.79712638548635
 30
0.0
 11
118.4015700170482
 21
79.08318274615521
 31
0.0
 12
119.9260004196565
 22
82.26727344872497
 32
0.0
 13
119.9260004196565
 23
82.26727344872497
 33
0.0
  0
MTEXT
  5
1464
330
1460
100
AcDbEntity
  8
AM_5
 62
     2
100
AcDbMText
 10
96.38707273420823
 20
60.30016869848691
 30
0.0
 40
3.5
 41
0.0
 71
     7
 72
     5
  1

  7
ACISOTS
210
0.0
220
0.0
230
-1.0
 11
-1.0
 21
0.0
 31
0.0
 73
     1
 44
1.0
1001
ACAD
1000
MTEXTBEGIN
1070
    73
1070
     1
1070
    44
1040
1.0
1070
    74
1070
     0
1000
MTEXTEND
  0
ENDBLK
  5
1466
330
1460
100
AcDbEntity
  8
0
100
AcDbBlockEnd
  0
ENDSEC
  0
SECTION
  2
ENTITIES
  0
POINT
  5
25
330
2
100
AcDbEntity
  8
0
 60
     1
100
AcDbPoint
 10
0.0
 20
0.0
 30
0.0
  0
POINT
  5
26
330
2
100
AcDbEntity
  8
0
 60
     1
100
AcDbPoint
 10
0.0
 20
0.0
 30
0.0
  0
POINT
  5
27
330
2
100
AcDbEntity
  8
0
 60
     1
100
AcDbPoint
 10
0.0
 20
0.0
 30
0.0
  0
POINT
  5
28
330
2
100
AcDbEntity
  8
0
 60
     1
100
AcDbPoint
 10
0.0
 20
0.0
 30
0.0
  0
LINE
  5
2E5
102
{ACAD_REACTORS
330
863
102
}
330
2
100
AcDbEntity
  8
AM_VIS
100
AcDbLine
 10
181.9260004196563
 20
163.4073531231226
 30
0.0
 11
181.9260004196563
 21
143.4073531231226
 31
0.0
  0
LINE
  5
2E6
102
{ACAD_REACTORS
330
863
102
}
330
2
100
AcDbEntity
  8
AM_VIS
100
AcDbLine
 10
119.9260004196565
 20
166.6073531231226
 30
0.0
 11
119.9260004196565
 21
140.2073531231226
 31
0.0
  0
LINE
  5
2E7
330
2
100
AcDbEntity
  8
AM_VIS
100
AcDbLine
 10
174.9260004196564
 20
140.2073531231226
 30
0.0
 11
174.9260004196564
 21
166.6073531231226
 31
0.0
  0
LINE
  5
2E8
330
2
100
AcDbEntity
  8
AM_VIS
100
AcDbLine
 10
119.9260004196565
 20
140.2073531231226
 30
0.0
 11
174.9260004196564
 21
140.2073531231226
 31
0.0
  0
LINE
  5
2F3
330
2
100
AcDbEntity
  8
AM_VIS
100
AcDbLine
 10
119.9260004196565
 20
69.26727344872493
 30
0.0
 11
174.9260004196564
 21
69.26727344872493
 31
0.0
  0
LINE
  5
2F4
102
{ACAD_REACTORS
330
5CF
330
696
102
}
330
2
100
AcDbEntity
  8
AM_VIS
100
AcDbLine
 10
119.9260004196565
 20
104.6672734487249
 30
0.0
 11
174.9260004196564
 21
104.667273448725
 31
0.0
  0
LINE
  5
2F7
330
2
100
AcDbEntity
  8
AM_7
100
AcDbLine
 10
129.9231634677342
 20
82.26727344872493
 30
0.0
 11
118.4304277180004
 21
82.26727344872497
 31
0.0
  0
LINE
  5
2F8
330
2
100
AcDbEntity
  8
AM_7
100
AcDbLine
 10
169.9260004196565
 20
98.76727344872495
 30
0.0
 11
173.4260004196564
 21
98.76727344872495
 31
0.0
  0
LINE
  5
2FB
330
2
100
AcDbEntity
  8
AM_HID
100
AcDbLine
 10
145.2010004196564
 20
103.667273448725
 30
0.0
 11
145.835921054577
 21
96.66727344872496
 31
0.0
  0
LINE
  5
2FC
330
2
100
AcDbEntity
  8
AM_HID
100
AcDbLine
 10
156.6510004196565
 20
103.6672734487249
 30
0.0
 11
156.0160797847358
 21
96.66727344872496
 31
0.0
  0
LINE
  5
2FD
102
{ACAD_REACTORS
330
655
330
696
102
}
330
2
100
AcDbEntity
  8
AM_VIS
100
AcDbLine
 10
119.9260004196565
 20
104.6672734487249
 30
0.0
 11
119.9260004196565
 21
69.26727344872495
 31
0.0
  0
LINE
  5
2FE
330
2
100
AcDbEntity
  8
AM_4
  6
AM_ISO02W050
100
AcDbLine
 10
157.5060004196564
 20
103.6672734487249
 30
0.0
 11
156.7282226418787
 21
96.66727344872496
 31
0.0
  0
LINE
  5
2FF
330
2
100
AcDbEntity
  8
AM_4
  6
AM_ISO02W050
100
AcDbLine
 10
144.3460004196565
 20
103.6672734487249
 30
0.0
 11
145.1237781974343
 21
96.66727344872496
 31
0.0
  0
LINE
  5
300
330
2
100
AcDbEntity
  8
AM_7
100
AcDbLine
 10
150.9260004196564
 20
106.4701452531512
 30
0.0
 11
150.9260004196564
 21
96.257829762921
 31
0.0
  0
LINE
  5
302
330
2
100
AcDbEntity
  8
AM_7
100
AcDbLine
 10
124.9260004196564
 20
95.26727344872496
 30
0.0
 11
124.9260004196564
 21
98.76727344872495
 31
0.0
  0
LINE
  5
307
330
2
100
AcDbEntity
  8
AM_HID
100
AcDbLine
 10
120.9260004196565
 20
76.54227344872495
 30
0.0
 11
127.9260004196564
 21
77.54227344872494
 31
0.0
  0
LINE
  5
308
330
2
100
AcDbEntity
  8
AM_HID
100
AcDbLine
 10
120.9260004196565
 20
87.99227344872495
 30
0.0
 11
127.9260004196564
 21
86.99227344872495
 31
0.0
  0
LINE
  5
309
330
2
100
AcDbEntity
  8
AM_4
  6
AM_ISO02W050
100
AcDbLine
 10
120.9260004196565
 20
88.84727344872493
 30
0.0
 11
127.9260004196564
 21
87.84727344872495
 31
0.0
  0
LINE
  5
30A
330
2
100
AcDbEntity
  8
AM_4
  6
AM_ISO02W050
100
AcDbLine
 10
120.9260004196565
 20
75.68727344872494
 30
0.0
 11
127.9260004196564
 21
76.68727344872495
 31
0.0
  0
LINE
  5
30B
330
2
100
AcDbEntity
  8
AM_HID
100
AcDbLine
 10
120.9260004196565
 20
76.54227344872495
 30
0.0
 11
120.9260004196565
 21
87.99227344872495
 31
0.0
  0
LINE
  5
30C
330
2
100
AcDbEntity
  8
AM_HID
100
AcDbLine
 10
120.9260004196565
 20
76.54227344872495
 30
0.0
 11
119.9260004196565
 21
75.54227344872495
 31
0.0
  0
LINE
  5
30D
330
2
100
AcDbEntity
  8
AM_HID
100
AcDbLine
 10
120.9260004196565
 20
87.99227344872495
 30
0.0
 11
119.9260004196565
 21
88.99227344872494
 31
0.0
  0
LINE
  5
370
102
{ACAD_REACTORS
330
655
102
}
330
2
100
AcDbEntity
  8
AM_7
100
AcDbLine
 10
121.4260004196564
 20
98.76727344872495
 30
0.0
 11
124.9260004196564
 21
98.76727344872495
 31
0.0
  0
LINE
  5
371
330
2
100
AcDbEntity
  8
AM_7
100
AcDbLine
 10
124.9260004196564
 20
98.76727344872495
 30
0.0
 11
128.4260004196565
 21
98.76727344872495
 31
0.0
  0
LINE
  5
372
102
{ACAD_REACTORS
330
58E
102
}
330
2
100
AcDbEntity
  8
AM_7
100
AcDbLine
 10
124.9260004196564
 20
98.76727344872495
 30
0.0
 11
124.9260004196564
 21
102.2672734487249
 31
0.0
  0
LINE
  5
373
330
2
100
AcDbEntity
  8
AM_7
100
AcDbLine
 10
124.9260004196564
 20
98.76727344872495
 30
0.0
 11
124.9260004196564
 21
98.76727344872495
 31
0.0
  0
LINE
  5
374
330
2
100
AcDbEntity
  8
AM_7
100
AcDbLine
 10
124.9260004196564
 20
98.76727344872495
 30
0.0
 11
124.9260004196564
 21
98.76727344872495
 31
0.0
  0
LINE
  5
375
330
2
100
AcDbEntity
  8
AM_HID
100
AcDbLine
 10
145.2010004196564
 20
103.6672734487249
 30
0.0
 11
156.6510004196565
 21
103.6672734487249
 31
0.0
  0
LINE
  5
376
330
2
100
AcDbEntity
  8
AM_HID
100
AcDbLine
 10
145.2010004196564
 20
103.6672734487249
 30
0.0
 11
144.2010004196564
 21
104.6672734487249
 31
0.0
  0
LINE
  5
377
330
2
100
AcDbEntity
  8
AM_HID
100
AcDbLine
 10
156.6510004196565
 20
103.6672734487249
 30
0.0
 11
157.6510004196565
 21
104.6672734487249
 31
0.0
  0
LINE
  5
378
330
2
100
AcDbEntity
  8
AM_7
100
AcDbLine
 10
166.4260004196564
 20
98.76727344872495
 30
0.0
 11
169.9260004196565
 21
98.76727344872495
 31
0.0
  0
LINE
  5
379
102
{ACAD_REACTORS
330
58E
102
}
330
2
100
AcDbEntity
  8
AM_7
100
AcDbLine
 10
169.9260004196565
 20
98.76727344872495
 30
0.0
 11
169.9260004196565
 21
102.2672734487249
 31
0.0
  0
LINE
  5
37A
330
2
100
AcDbEntity
  8
AM_7
100
AcDbLine
 10
169.9260004196565
 20
98.76727344872495
 30
0.0
 11
169.9260004196565
 21
98.76727344872495
 31
0.0
  0
LINE
  5
37B
330
2
100
AcDbEntity
  8
AM_7
100
AcDbLine
 10
169.9260004196565
 20
98.76727344872495
 30
0.0
 11
169.9260004196565
 21
98.76727344872495
 31
0.0
  0
CIRCLE
  5
37D
330
2
100
AcDbEntity
  8
AM_VIS
100
AcDbCircle
 10
150.9260004196564
 20
153.4073531231226
 30
0.0
 40
5.724999999999999
  0
ARC
  5
37E
330
2
100
AcDbEntity
  8
AM_4
100
AcDbCircle
 10
150.9260004196564
 20
153.4073531231226
 30
0.0
 40
6.58
100
AcDbArc
 50
259.9999999999998
 51
190.0000000000002
  0
LINE
  5
37F
330
2
100
AcDbEntity
  8
AM_7
100
AcDbLine
 10
184.8311635432676
 20
153.4073531231225
 30
0.0
 11
117.4295873974263
 21
153.4073531231226
 31
0.0
  0
LINE
  5
380
330
2
100
AcDbEntity
  8
AM_7
100
AcDbLine
 10
150.9260004196564
 20
153.4073531231226
 30
0.0
 11
158.1510004196564
 21
153.4073531231226
 31
0.0
  0
LINE
  5
386
102
{ACAD_REACTORS
330
822
102
}
330
2
100
AcDbEntity
  8
AM_7
100
AcDbLine
 10
150.9260004196564
 20
145.5696281291501
 30
0.0
 11
150.9260004196564
 21
161.5706499008606
 31
0.0
  0
LINE
  5
388
330
2
100
AcDbEntity
  8
AM_7
100
AcDbLine
 10
143.7010004196565
 20
153.4073531231226
 30
0.0
 11
150.9260004196564
 21
153.4073531231226
 31
0.0
  0
LINE
  5
38B
330
2
100
AcDbEntity
  8
AM_7
100
AcDbLine
 10
150.9260004196564
 20
153.4073531231226
 30
0.0
 11
150.9260004196564
 21
153.4073531231226
 31
0.0
  0
LINE
  5
38C
330
2
100
AcDbEntity
  8
AM_7
100
AcDbLine
 10
150.9260004196564
 20
153.4073531231226
 30
0.0
 11
150.9260004196564
 21
153.4073531231226
 31
0.0
  0
LINE
  5
38F
330
2
100
AcDbEntity
  8
AM_VIS
100
AcDbLine
 10
174.9260004196564
 20
69.26727344872493
 30
0.0
 11
174.9260004196564
 21
104.6672734487249
 31
0.0
  0
LINE
  5
393
330
2
100
AcDbEntity
  8
AM_VIS
100
AcDbLine
 10
181.9260004196563
 20
76.29483252822388
 30
0.0
 11
181.9260004196563
 21
70.56727344872493
 31
0.0
  0
LINE
  5
395
330
2
100
AcDbEntity
  8
AM_VIS
100
AcDbLine
 10
181.6260004196564
 20
70.26727344872492
 30
0.0
 11
174.9260004196564
 21
70.26727344872492
 31
0.0
  0
LINE
  5
398
330
2
100
AcDbEntity
  8
AM_VIS
100
AcDbLine
 10
181.9260004196563
 20
70.5672734487249
 30
0.0
 11
181.6260004196563
 21
70.26727344872489
 31
0.0
  0
LINE
  5
399
330
2
100
AcDbEntity
  8
AM_VIS
100
AcDbLine
 10
176.9260004196563
 20
88.90052302943578
 30
0.0
 11
176.9260004196563
 21
75.63402386801408
 31
0.0
  0
LINE
  5
39B
330
2
100
AcDbEntity
  8
AM_VIS
100
AcDbLine
 10
181.9260004196563
 20
87.54363583203408
 30
0.0
 11
181.9260004196563
 21
76.29483252822388
 31
0.0
  0
LINE
  5
39D
330
2
100
AcDbEntity
  8
AM_VIS
100
AcDbLine
 10
181.9260004196563
 20
75.63402386801408
 30
0.0
 11
176.9260004196563
 21
75.63402386801408
 31
0.0
  0
LINE
  5
39F
330
2
100
AcDbEntity
  8
AM_VIS
100
AcDbLine
 10
181.6260004196564
 20
94.26727344872492
 30
0.0
 11
174.9260004196564
 21
94.26727344872492
 31
0.0
  0
LINE
  5
3A5
330
2
100
AcDbEntity
  8
AM_VIS
100
AcDbLine
 10
181.9260004196563
 20
93.96727344872491
 30
0.0
 11
181.9260004196563
 21
87.54363583203408
 31
0.0
  0
LINE
  5
3A7
330
2
100
AcDbEntity
  8
AM_VIS
100
AcDbLine
 10
181.9260004196563
 20
93.96727344872493
 30
0.0
 11
181.6260004196563
 21
94.26727344872494
 31
0.0
  0
LINE
  5
3A8
330
2
100
AcDbEntity
  8
AM_VIS
100
AcDbLine
 10
176.9260004196563
 20
143.4073531231226
 30
0.0
 11
181.6260004196563
 21
143.4073531231226
 31
0.0
  0
LINE
  5
3A9
330
2
100
AcDbEntity
  8
AM_VIS
100
AcDbLine
 10
176.9260004196563
 20
141.4073531231226
 30
0.0
 11
174.9260004196564
 21
141.4073531231226
 31
0.0
  0
LINE
  5
3AB
330
2
100
AcDbEntity
  8
AM_VIS
100
AcDbLine
 10
176.9260004196563
 20
143.4073531231226
 30
0.0
 11
176.9260004196563
 21
141.4073531231226
 31
0.0
  0
LINE
  5
3AC
330
2
100
AcDbEntity
  8
AM_VIS
100
AcDbLine
 10
181.6260004196563
 20
143.4073531231226
 30
0.0
 11
181.9260004196563
 21
143.4073531231226
 31
0.0
  0
LINE
  5
3AE
330
2
100
AcDbEntity
  8
AM_VIS
100
AcDbLine
 10
119.9260004196565
 20
166.6073531231226
 30
0.0
 11
174.9260004196564
 21
166.6073531231226
 31
0.0
  0
LINE
  5
3B0
330
2
100
AcDbEntity
  8
AM_VIS
100
AcDbLine
 10
181.6260004196563
 20
163.4073531231226
 30
0.0
 11
176.9260004196563
 21
163.4073531231226
 31
0.0
  0
LINE
  5
3B1
330
2
100
AcDbEntity
  8
AM_VIS
100
AcDbLine
 10
176.9260004196563
 20
165.4073531231226
 30
0.0
 11
174.9260004196564
 21
165.4073531231226
 31
0.0
  0
LINE
  5
3B3
330
2
100
AcDbEntity
  8
AM_VIS
100
AcDbLine
 10
176.9260004196563
 20
165.4073531231226
 30
0.0
 11
176.9260004196563
 21
163.4073531231226
 31
0.0
  0
LINE
  5
3B4
330
2
100
AcDbEntity
  8
AM_VIS
100
AcDbLine
 10
181.6260004196563
 20
163.4073531231226
 30
0.0
 11
181.9260004196563
 21
163.4073531231226
 31
0.0
  0
LINE
  5
3B5
330
2
100
AcDbEntity
  8
AM_VIS
100
AcDbLine
 10
236.3494679182224
 20
104.6672734487249
 30
0.0
 11
236.3494679182224
 21
69.26727344872495
 31
0.0
  0
LINE
  5
3B6
102
{ACAD_REACTORS
330
75D
330
79E
102
}
330
2
100
AcDbEntity
  8
AM_VIS
100
AcDbLine
 10
209.9494679182224
 20
69.26727344872493
 30
0.0
 11
209.9494679182224
 21
104.6672734487249
 31
0.0
  0
LINE
  5
3B9
330
2
100
AcDbEntity
  8
AM_7
100
AcDbLine
 10
223.1494679182225
 20
68.26727344872492
 30
0.0
 11
223.1494679182225
 21
82.26727344872491
 31
0.0
  0
LINE
  5
3BA
330
2
100
AcDbEntity
  8
AM_VIS
100
AcDbLine
 10
236.3494679182224
 20
69.26727344872495
 30
0.0
 11
209.9494679182224
 21
69.26727344872495
 31
0.0
  0
CIRCLE
  5
3BE
330
2
100
AcDbEntity
  8
AM_VIS
100
AcDbCircle
 10
223.1494679182225
 20
82.26727344872495
 30
0.0
 40
5.724999999999999
  0
ARC
  5
3C0
330
2
100
AcDbEntity
  8
AM_4
100
AcDbCircle
 10
223.1494679182225
 20
82.26727344872491
 30
0.0
 40
6.58
100
AcDbArc
 50
259.9999999999998
 51
190.0000000000002
  0
LINE
  5
3C1
102
{ACAD_REACTORS
330
79E
102
}
330
2
100
AcDbEntity
  8
AM_7
100
AcDbLine
 10
209.1494679182225
 20
82.26727344872491
 30
0.0
 11
223.1494679182225
 21
82.26727344872491
 31
0.0
  0
LINE
  5
3C8
102
{ACAD_REACTORS
330
71C
102
}
330
2
100
AcDbEntity
  8
AM_7
100
AcDbLine
 10
223.1494679182225
 20
82.26727344872491
 30
0.0
 11
223.1494679182225
 21
106.9344432338465
 31
0.0
  0
LINE
  5
3C9
330
2
100
AcDbEntity
  8
AM_7
100
AcDbLine
 10
223.1494679182225
 20
82.26727344872491
 30
0.0
 11
237.1494679182224
 21
82.26727344872491
 31
0.0
  0
LINE
  5
3CA
330
2
100
AcDbEntity
  8
AM_7
100
AcDbLine
 10
223.1494679182225
 20
82.26727344872491
 30
0.0
 11
223.1494679182225
 21
82.26727344872491
 31
0.0
  0
LINE
  5
3CB
330
2
100
AcDbEntity
  8
AM_7
100
AcDbLine
 10
223.1494679182225
 20
82.26727344872491
 30
0.0
 11
223.1494679182225
 21
82.26727344872491
 31
0.0
  0
LINE
  5
3CE
102
{ACAD_REACTORS
330
71C
330
75D
102
}
330
2
100
AcDbEntity
  8
AM_VIS
100
AcDbLine
 10
209.9494679182224
 20
104.6672734487249
 30
0.0
 11
236.3494679182224
 21
104.6672734487249
 31
0.0
  0
LINE
  5
3CF
330
2
100
AcDbEntity
  8
AM_VIS
100
AcDbLine
 10
181.9260004196563
 20
88.90052302943578
 30
0.0
 11
176.9260004196563
 21
75.63402386801408
 31
0.0
  0
LINE
  5
3D0
330
2
100
AcDbEntity
  8
AM_VIS
100
AcDbLine
 10
176.9260004196563
 20
88.90052302943578
 30
0.0
 11
181.9260004196563
 21
75.63402386801408
 31
0.0
  0
LINE
  5
3D1
330
2
100
AcDbEntity
  8
AM_7
100
AcDbLine
 10
169.9260004196565
 20
98.76727344872495
 30
0.0
 11
169.9260004196565
 21
95.26727344872496
 31
0.0
  0
LINE
  5
3D5
330
2
100
AcDbEntity
  8
AM_7
100
AcDbLine
 10
183.4355001143217
 20
82.26727344872493
 30
0.0
 11
170.9924338393887
 21
82.26727344872497
 31
0.0
  0
LINE
  5
3D6
330
2
100
AcDbEntity
  8
AM_4
  6
AM_ISO02W050
100
AcDbLine
 10
216.5694679182224
 20
103.6672734487249
 30
0.0
 11
217.3472456960003
 21
96.66727344872494
 31
0.0
  0
LINE
  5
3D7
330
2
100
AcDbEntity
  8
AM_HID
100
AcDbLine
 10
217.4244679182224
 20
103.6672734487249
 30
0.0
 11
216.4244679182224
 21
104.6672734487249
 31
0.0
  0
LINE
  5
3D9
330
2
100
AcDbEntity
  8
AM_HID
100
AcDbLine
 10
228.8744679182225
 20
103.6672734487249
 30
0.0
 11
229.8744679182224
 21
104.6672734487249
 31
0.0
  0
LINE
  5
3DA
330
2
100
AcDbEntity
  8
AM_HID
100
AcDbLine
 10
217.4244679182224
 20
103.6672734487249
 30
0.0
 11
228.8744679182225
 21
103.6672734487249
 31
0.0
  0
LINE
  5
3DB
330
2
100
AcDbEntity
  8
AM_HID
100
AcDbLine
 10
217.4244679182224
 20
103.6672734487249
 30
0.0
 11
218.059388553143
 21
96.66727344872494
 31
0.0
  0
LINE
  5
3DC
330
2
100
AcDbEntity
  8
AM_4
  6
AM_ISO02W050
100
AcDbLine
 10
229.7294679182224
 20
103.6672734487249
 30
0.0
 11
228.9516901404446
 21
96.66727344872494
 31
0.0
  0
LINE
  5
3DD
330
2
100
AcDbEntity
  8
AM_HID
100
AcDbLine
 10
228.8744679182225
 20
103.6672734487249
 30
0.0
 11
228.2395472833018
 21
96.66727344872494
 31
0.0
  0
DIMENSION
  5
577
102
{ACAD_XDICTIONARY
360
584
102
}
102
{ACAD_REACTORS
330
58E
102
}
330
2
100
AcDbEntity
  8
AM_5
100
AcDbDimension
  2
*D1
 10
169.9260004196565
 20
110.4094069222645
 30
0.0
 11
147.4260004196564
 21
112.7094069222645
 31
0.0
 70
    32
 71
     5
 42
45.0
  3
AM_ISO
100
AcDbAlignedDimension
 13
124.9260004196564
 23
102.2672734487249
 33
0.0
 14
169.9260004196565
 24
102.2672734487249
 34
0.0
100
AcDbRotatedDimension
  0
DIMENSION
  5
5B8
102
{ACAD_XDICTIONARY
360
5C5
102
}
102
{ACAD_REACTORS
330
5CF
102
}
330
2
100
AcDbEntity
  8
AM_5
100
AcDbDimension
  2
*D2
 10
174.9260004196564
 20
116.4094069222645
 30
0.0
 11
147.4260004196564
 21
118.7094069222645
 31
0.0
 70
    32
 71
     5
 42
55.0
  3
AM_ISO
100
AcDbAlignedDimension
 13
119.9260004196565
 23
104.6672734487249
 33
0.0
 14
174.9260004196564
 24
104.667273448725
 34
0.0
100
AcDbRotatedDimension
  0
DIMENSION
  5
63E
102
{ACAD_XDICTIONARY
360
64B
102
}
102
{ACAD_REACTORS
330
655
102
}
330
2
100
AcDbEntity
  8
AM_5
100
AcDbDimension
  2
*D3
 10
107.9260004196564
 20
69.26727344872495
 30
0.0
 11
105.6257051440659
 21
84.01727344872497
 31
0.0
 70
    32
 71
     5
 42
29.5
  3
AM_ISO
100
AcDbAlignedDimension
 13
121.4260004196564
 23
98.76727344872495
 33
0.0
 14
119.9260004196565
 24
69.26727344872495
 34
0.0
 50
90.00000000000003
100
AcDbRotatedDimension
  0
DIMENSION
  5
67F
102
{ACAD_XDICTIONARY
360
68C
102
}
102
{ACAD_REACTORS
330
696
102
}
330
2
100
AcDbEntity
  8
AM_5
100
AcDbDimension
  2
*D4
 10
101.9260004196564
 20
69.26727344872495
 30
0.0
 11
99.62600041965647
 21
86.96727344872497
 31
0.0
 70
    32
 71
     5
 42
35.40000000000001
  3
AM_ISO
100
AcDbAlignedDimension
 13
119.9260004196565
 23
104.6672734487249
 33
0.0
 14
119.9260004196565
 24
69.26727344872495
 34
0.0
 50
90.00000000000005
100
AcDbRotatedDimension
  0
DIMENSION
  5
705
102
{ACAD_XDICTIONARY
360
712
102
}
102
{ACAD_REACTORS
330
71C
102
}
330
2
100
AcDbEntity
  8
AM_5
100
AcDbDimension
  2
*D5
 10
223.1494679182225
 20
110.4094069222645
 30
0.0
 11
229.7494679182225
 21
112.709702197855
 31
0.0
 70
    32
 71
     5
 42
13.19999999999999
  3
AM_ISO
100
AcDbAlignedDimension
 13
236.3494679182224
 23
104.6672734487249
 33
0.0
 14
223.1494679182225
 24
106.9344432338465
 34
0.0
100
AcDbRotatedDimension
  0
DIMENSION
  5
746
102
{ACAD_XDICTIONARY
360
753
102
}
102
{ACAD_REACTORS
330
75D
102
}
330
2
100
AcDbEntity
  8
AM_5
100
AcDbDimension
  2
*D6
 10
209.9494679182224
 20
116.4094069222645
 30
0.0
 11
223.1494679182224
 21
118.709702197855
 31
0.0
 70
    32
 71
     5
 42
26.40000000000004
  3
AM_ISO
100
AcDbAlignedDimension
 13
236.3494679182224
 23
104.6672734487249
 33
0.0
 14
209.9494679182224
 24
104.6672734487249
 34
0.0
100
AcDbRotatedDimension
  0
DIMENSION
  5
787
102
{ACAD_XDICTIONARY
360
794
102
}
102
{ACAD_REACTORS
330
79E
102
}
330
2
100
AcDbEntity
  8
AM_5
100
AcDbDimension
  2
*D7
 10
202.1691155060619
 20
82.26727344872491
 30
0.0
 11
199.8691155060618
 21
75.76727344872496
 31
0.0
 70
    32
 71
     5
 42
12.99999999999998
  3
AM_ISO
100
AcDbAlignedDimension
 13
209.9494679182224
 23
69.26727344872493
 33
0.0
 14
209.1494679182225
 24
82.26727344872491
 34
0.0
 50
90.00000000000003
100
AcDbRotatedDimension
  0
DIMENSION
  5
80B
102
{ACAD_XDICTIONARY
360
818
102
}
102
{ACAD_REACTORS
330
822
102
}
330
2
100
AcDbEntity
  8
AM_5
100
AcDbDimension
  2
*D8
 10
150.9260004196564
 20
133.1506739449248
 30
0.0
 11
162.9260004196565
 21
135.4509692205153
 31
0.0
 70
    32
 71
     5
 42
24.0
  3
AM_ISO
100
AcDbAlignedDimension
 13
174.9260004196564
 23
140.2073531231226
 33
0.0
 14
150.9260004196564
 24
145.5696281291501
 34
0.0
 50
0.0000000000001132
100
AcDbRotatedDimension
  0
DIMENSION
  5
84C
102
{ACAD_XDICTIONARY
360
859
102
}
102
{ACAD_REACTORS
330
863
102
}
330
2
100
AcDbEntity
  8
AM_5
100
AcDbDimension
  2
*D9
 10
119.9260004196565
 20
127.1506739449247
 30
0.0
 11
150.9260004196564
 21
129.4509692205153
 31
0.0
 70
    32
 71
     5
 42
61.99999999999988
  3
AM_ISO
100
AcDbAlignedDimension
 13
181.9260004196563
 23
143.4073531231226
 33
0.0
 14
119.9260004196565
 24
140.2073531231226
 34
0.0
 50
0.0000000000001132
100
AcDbRotatedDimension
  0
DIMENSION
  5
88D
330
2
100
AcDbEntity
  8
AM_5
100
AcDbDimension
  2
*D10
 10
233.1494679182224
 20
61.83946653858277
 30
0.0
 11
223.1494679182225
 21
64.13976181417332
 31
0.0
 70
    32
 71
     5
 42
19.99999999999994
  3
AM_ISO
100
AcDbAlignedDimension
 13
213.1494679182225
 23
75.63402386801408
 33
0.0
 14
233.1494679182224
 24
75.63402386801408
 34
0.0
 50
0.0000000000001132
100
AcDbRotatedDimension
  0
INSERT
  5
103F
330
2
100
AcDbEntity
  8
AM_5
100
AcDbBlockReference
  2
*S11
 10
0.0
 20
0.0
 30
0.0
  0
TEXT
  5
1040
330
2
100
AcDbEntity
  8
AM_5
100
AcDbText
 10
183.477283353018
 20
111.9348657743754
 30
0.0
 40
3.0
  1
2-%%c4.2
100
AcDbText
  0
LINE
  5
10C0
330
2
100
AcDbEntity
  8
AM_VIS
100
AcDbLine
 10
176.9260004196563
 20
88.90052302943578
 30
0.0
 11
181.9260004196564
 21
88.90052302943578
 31
0.0
  0
LINE
  5
10F7
330
2
100
AcDbEntity
  8
0
100
AcDbLine
 10
150.1422440927779
 20
82.45963399717332
 30
0.0
 11
139.2980317540809
 21
82.45963399717332
 31
0.0
  0
TEXT
  5
10F8
330
2
100
AcDbEntity
  8
0
100
AcDbText
 10
147.1952388393107
 20
91.55345106486732
 30
0.0
 40
2.390850000000014
  1
A
100
AcDbText
  0
LWPOLYLINE
  5
10F9
330
2
100
AcDbEntity
  8
0
100
AcDbPolyline
 90
        6
 70
     0
 43
0.0
 10
154.923944092778
 20
79.2718339971733
 10
154.923944092778
 20
85.64743399717336
 10
142.1727440927779
 20
85.64743399717336
 10
142.1727440927779
 20
84.05353399717334
 10
142.1727440927779
 20
79.2718339971733
 10
154.923944092778
 20
79.2718339971733
  0
TEXT
  5
10FA
330
2
100
AcDbEntity
  8
0
100
AcDbText
 10
135.4957313016645
 20
81.12485237815306
 30
0.0
 40
2.390850000000014
  1
E
100
AcDbText
  0
LINE
  5
10FB
330
2
100
AcDbEntity
  8
0
100
AcDbLine
 10
142.9696940927779
 20
82.45963399717332
 30
0.0
 11
145.2238089904279
 21
84.71374889482339
 31
0.0
  0
LINE
  5
10FC
330
2
100
AcDbEntity
  8
0
100
AcDbLine
 10
142.9696940927779
 20
82.45963399717332
 30
0.0
 11
145.2238089904279
 21
80.20551909952333
 31
0.0
  0
LINE
  5
10FD
330
2
100
AcDbEntity
  8
0
100
AcDbLine
 10
148.548344092778
 20
82.45963399717332
 30
0.0
 11
148.548344092778
 21
90.91648318452804
 31
0.0
  0
LINE
  5
10FE
330
2
100
AcDbEntity
  8
0
100
AcDbLine
 10
154.126994092778
 20
82.45963399717332
 30
0.0
 11
158.111744092778
 21
82.45963399717332
 31
0.0
  0
CIRCLE
  5
10FF
330
2
100
AcDbEntity
  8
0
100
AcDbCircle
 10
151.736144092778
 20
82.45963399717332
 30
0.0
 40
1.59390000000001
  0
LINE
  5
1100
330
2
100
AcDbEntity
  8
0
  6
Continuous
100
AcDbLine
 10
154.126994092778
 20
82.45963399717332
 30
0.0
 11
151.872879195128
 21
84.71374889482339
 31
0.0
  0
LINE
  5
1101
330
2
100
AcDbEntity
  8
0
  6
Continuous
100
AcDbLine
 10
154.126994092778
 20
82.45963399717332
 30
0.0
 11
151.872879195128
 21
80.20551909952333
 31
0.0
  0
TEXT
  5
1102
330
2
100
AcDbEntity
  8
0
100
AcDbText
 10
159.2426668796946
 20
81.12485237815306
 30
0.0
 40
2.390850000000014
  1
E
100
AcDbText
  0
INSERT
  5
1110
330
2
100
AcDbEntity
  8
AM_5
100
AcDbBlockReference
  2
*S12
 10
0.0
 20
0.0
 30
0.0
  0
TEXT
  5
1111
330
2
100
AcDbEntity
  8
AM_5
100
AcDbText
 10
96.71381689768237
 20
60.68150297149566
 30
0.0
 40
3.0
  1
3-PT1/4
100
AcDbText
  0
CIRCLE
  5
112E
330
2
100
AcDbEntity
  8
0
100
AcDbCircle
 10
223.1494679182225
 20
82.26727344872491
 30
0.0
 40
12.0
  0
LINE
  5
1138
330
2
100
AcDbEntity
  8
0
100
AcDbLine
 10
233.1494679182224
 20
75.63402386801408
 30
0.0
 11
233.1494679182224
 21
88.90052302943574
 31
0.0
  0
LINE
  5
1139
330
2
100
AcDbEntity
  8
0
100
AcDbLine
 10
213.1494679182225
 20
75.63402386801408
 30
0.0
 11
213.1494679182225
 21
88.90052302943574
 31
0.0
  0
TEXT
  5
1327
330
2
100
AcDbEntity
  8
LOGO
 62
     7
100
AcDbText
 10
153.06378124198
 20
37.10343499537699
 30
0.0
 40
4.300452488687782
  1
Order example:
 41
0.8
  7
CHINESET
100
AcDbText
  0
TEXT
  5
1328
330
2
100
AcDbEntity
  8
LOGO
 62
     7
100
AcDbText
 10
153.8353179817454
 20
43.15758167939992
 30
0.0
 40
6.450678733031674
  1
訂購代號:
  7
CHINESET
100
AcDbText
  0
LINE
  5
1329
330
2
100
AcDbEntity
  8
LOGO
 62
     1
100
AcDbLine
 10
260.8416692779372
 20
51.23309792169132
 30
0.0
 11
80.23775398599999
 21
51.23309792169132
 31
0.0
  0
LINE
  5
132A
330
2
100
AcDbEntity
  8
LOGO
 62
     1
100
AcDbLine
 10
260.8416692779372
 20
18.97970425653288
 30
0.0
 11
80.23775398599999
 21
18.97970425653288
 31
0.0
  0
LINE
  5
132B
330
2
100
AcDbEntity
  8
LOGO
 62
     1
100
AcDbLine
 10
151.1952200493486
 20
18.97970425653288
 30
0.0
 11
151.1952200493486
 21
51.23309792169132
 31
0.0
  0
LINE
  5
132C
330
2
100
AcDbEntity
  8
LOGO
 62
     1
100
AcDbLine
 10
80.23775398599999
 20
18.97970425653288
 30
0.0
 11
80.23775398599999
 21
51.23309792169132
 31
0.0
  0
TEXT
  5
132D
330
2
100
AcDbEntity
  8
LOGO
  6
Continuous
 62
     5
100
AcDbText
 10
91.82331797233516
 20
25.31583476743818
 30
0.0
 40
4.838009049773755
  1
金器工業股份有限公司
  7
CHINESET
100
AcDbText
  0
TEXT
  5
132E
330
2
100
AcDbEntity
  8
LOGO
  6
Continuous
 62
     5
100
AcDbText
 10
85.25002035291988
 20
20.47687784720535
 30
0.0
 40
3.225339366515837
  1
MINDMAN INDUSTRIAL CO.,LTD
 41
0.85
  7
CHINESET
100
AcDbText
  0
LINE
  5
132F
330
2
100
AcDbEntity
  8
LOGO
 62
     1
100
AcDbLine
 10
151.1952200493486
 20
44.78241918865975
 30
0.0
 11
103.890242673783
 21
44.78241918865975
 31
0.0
  0
LINE
  5
1330
330
2
100
AcDbEntity
  8
LOGO
 62
     1
100
AcDbLine
 10
151.1952200493486
 20
38.33174045562788
 30
0.0
 11
103.890242673783
 21
38.33174045562788
 31
0.0
  0
LINE
  5
1331
330
2
100
AcDbEntity
  8
LOGO
 62
     1
100
AcDbLine
 10
151.1952200493486
 20
31.88106172259629
 30
0.0
 11
80.23775398599999
 21
31.88106172259629
 31
0.0
  0
SOLID
  5
1332
330
2
100
AcDbEntity
  8
LOGO
 62
     5
100
AcDbTrace
 10
83.58409534152031
 20
37.24272932852148
 30
0.0
 11
84.97864745069666
 21
37.24272932852094
 31
0.0
 12
90.79729590622662
 22
50.46693036381594
 32
0.0
 13
92.19184801540288
 23
50.46693036381487
 33
0.0
  0
SOLID
  5
1333
330
2
100
AcDbEntity
  8
LOGO
 62
     5
100
AcDbTrace
 10
85.55570349587407
 20
37.24272932852148
 30
0.0
 11
86.95025560505021
 21
37.24272932852148
 31
0.0
 12
92.19184801540288
 22
49.40899428099174
 32
0.0
 13
90.79729590622662
 23
44.29563654734439
 33
0.0
  0
SOLID
  5
1334
330
2
100
AcDbEntity
  8
LOGO
 62
     2
100
AcDbTrace
 10
84.97864745069666
 20
37.24272932852094
 30
0.0
 11
85.55570349587407
 21
37.24272932852148
 31
0.0
 12
92.19184801540288
 22
50.46693036381487
 32
0.0
 13
92.76890406057981
 23
50.46693036381487
 33
0.0
  0
SOLID
  5
1335
330
2
100
AcDbEntity
  8
LOGO
 62
     5
100
AcDbTrace
 10
81.3482863244423
 20
32.43392895205128
 30
0.0
 11
81.82916636209013
 21
32.43392895205128
 31
0.0
 12
83.18336197681464
 22
34.83832914028599
 32
0.0
 13
83.66424201446145
 23
34.83832914028599
 33
0.0
  0
SOLID
  5
1336
330
2
100
AcDbEntity
  8
LOGO
 62
     5
100
AcDbTrace
 10
83.18336197681464
 20
34.83832914028599
 30
0.0
 11
83.66424201446145
 21
34.83832914028599
 31
0.0
 12
83.18336197681464
 22
32.43392895205128
 32
0.0
 13
83.66424201446145
 23
32.43392895205128
 33
0.0
  0
SOLID
  5
1337
330
2
100
AcDbEntity
  8
LOGO
 62
     5
100
AcDbTrace
 10
83.18336197681464
 20
32.43392895205128
 30
0.0
 11
83.66424201446145
 21
32.43392895205128
 31
0.0
 12
85.01843762918779
 22
34.83832914028599
 32
0.0
 13
85.49931766683426
 23
34.83832914028599
 33
0.0
  0
SOLID
  5
1338
330
2
100
AcDbEntity
  8
LOGO
 62
     5
100
AcDbTrace
 10
85.01843762918779
 20
34.83832914028599
 30
0.0
 11
85.49931766683426
 21
34.83832914028599
 31
0.0
 12
85.01843762918779
 22
32.43392895205128
 32
0.0
 13
85.49931766683426
 23
32.43392895205128
 33
0.0
  0
POLYLINE
  5
1339
330
2
100
AcDbEntity
  8
LOGO
 62
     5
100
AcDb2dPolyline
 66
     1
 10
0.0
 20
0.0
 30
0.0
 40
0.4816506787330316
 41
0.4816506787330316
  0
VERTEX
  5
133A
330
1339
100
AcDbEntity
  8
LOGO
 62
     5
100
AcDbVertex
100
AcDb2dVertex
 10
101.1373726772677
 20
33.87656906499188
 30
0.0
 42
1.0
  0
VERTEX
  5
133B
330
1339
100
AcDbEntity
  8
LOGO
 62
     5
100
AcDbVertex
100
AcDb2dVertex
 10
99.69242064106834
 20
33.87656906499188
 30
0.0
 42
1.0
  0
SEQEND
  5
133C
330
1339
100
AcDbEntity
  8
LOGO
 62
     5
  0
POLYLINE
  5
133D
330
2
100
AcDbEntity
  8
LOGO
 62
     5
100
AcDb2dPolyline
 66
     1
 10
0.0
 20
0.0
 30
0.0
 70
     1
  0
VERTEX
  5
133E
330
133D
100
AcDbEntity
  8
LOGO
 62
     5
100
AcDbVertex
100
AcDb2dVertex
 10
96.96862178136591
 20
33.63612904616851
 30
0.0
 42
1.000000057330635
  0
VERTEX
  5
133F
330
133D
100
AcDbEntity
  8
LOGO
 62
     5
100
AcDbVertex
100
AcDb2dVertex
 10
98.41126189430738
 20
33.63612904616851
 30
0.0
 42
1.000000057330635
  0
SEQEND
  5
1340
330
133D
100
AcDbEntity
  8
LOGO
 62
     5
  0
CIRCLE
  5
1341
330
2
100
AcDbEntity
  8
LOGO
 62
     5
100
AcDbCircle
 10
97.68994183783684
 20
33.63612904616851
 30
0.0
 40
0.7213200564705885
  0
POLYLINE
  5
1342
330
2
100
AcDbEntity
  8
LOGO
 62
     5
100
AcDb2dPolyline
 66
     1
 10
0.0
 20
0.0
 30
0.0
 70
     1
 40
0.4816506787330316
 41
0.4816506787330316
  0
VERTEX
  5
1343
330
1342
100
AcDbEntity
  8
LOGO
 62
     5
100
AcDbVertex
100
AcDb2dVertex
 10
96.72664048037063
 20
33.63612904616851
 30
0.0
 42
1.0
  0
VERTEX
  5
1344
330
1342
100
AcDbEntity
  8
LOGO
 62
     5
100
AcDbVertex
100
AcDb2dVertex
 10
98.65324319530271
 20
33.63612904616851
 30
0.0
 42
1.0
  0
SEQEND
  5
1345
330
1342
100
AcDbEntity
  8
LOGO
 62
     5
  0
LINE
  5
1346
330
2
100
AcDbEntity
  8
LOGO
 62
     5
100
AcDbLine
 10
101.3766567344619
 20
32.43392895205128
 30
0.0
 11
101.3766567344619
 21
33.87656906499188
 31
0.0
  0
SOLID
  5
1347
330
2
100
AcDbEntity
  8
LOGO
 62
     5
100
AcDbTrace
 10
98.41121380630466
 20
34.83832914028599
 30
0.0
 11
98.89209384395115
 21
34.83832914028599
 31
0.0
 12
98.41121380630466
 22
32.43392895205128
 32
0.0
 13
98.89209384395115
 23
32.43392895205128
 33
0.0
  0
SOLID
  5
1348
330
2
100
AcDbEntity
  8
LOGO
 62
     5
100
AcDbTrace
 10
99.45313658387334
 20
32.43392895205128
 30
0.0
 11
99.93401662152102
 21
32.43392895205128
 31
0.0
 12
99.45313658387334
 22
34.83832914028599
 32
0.0
 13
99.93401662152102
 23
34.83832914028599
 33
0.0
  0
SOLID
  5
1349
330
2
100
AcDbEntity
  8
LOGO
 62
     5
100
AcDbTrace
 10
100.8957766968151
 20
33.87656906499188
 30
0.0
 11
101.3766567344619
 21
33.87656906499188
 31
0.0
 12
100.8957766968151
 22
32.43392895205128
 32
0.0
 13
101.3766567344619
 23
32.43392895205128
 33
0.0
  0
LINE
  5
134A
330
2
100
AcDbEntity
  8
LOGO
 62
     1
100
AcDbLine
 10
103.890242673783
 20
31.88106172259629
 30
0.0
 11
103.890242673783
 21
51.23309792169132
 31
0.0
  0
SOLID
  5
134B
330
2
100
AcDbEntity
  8
LOGO
 62
     5
100
AcDbTrace
 10
99.40504858010866
 20
49.40899428099174
 30
0.0
 11
98.01049647093229
 21
44.29563654734439
 31
0.0
 12
99.40504858010866
 22
37.24272932852094
 32
0.0
 13
98.01049647093229
 23
37.24272932852094
 33
0.0
  0
SOLID
  5
134C
330
2
100
AcDbEntity
  8
LOGO
 62
     5
100
AcDbTrace
 10
99.98210462528556
 20
37.24272932852094
 30
0.0
 11
101.3766567344619
 21
37.24272932852094
 31
0.0
 12
99.98210462528556
 22
50.46693036381487
 32
0.0
 13
101.3766567344619
 23
50.46693036381594
 33
0.0
  0
SOLID
  5
134D
330
2
100
AcDbEntity
  8
LOGO
 62
     2
100
AcDbTrace
 10
99.40504858010866
 20
50.46693036381594
 30
0.0
 11
99.98210462528556
 21
50.46693036381487
 31
0.0
 12
99.40504858010866
 22
37.24272932852094
 32
0.0
 13
99.98210462528556
 23
37.24272932852094
 33
0.0
  0
POLYLINE
  5
134E
330
2
100
AcDbEntity
  8
LOGO
 62
     5
100
AcDb2dPolyline
 66
     1
 10
0.0
 20
0.0
 30
0.0
 40
0.4816506787330316
 41
0.4816506787330316
  0
VERTEX
  5
134F
330
134E
100
AcDbEntity
  8
LOGO
 62
     5
100
AcDbVertex
100
AcDb2dVertex
 10
94.24472674565711
 20
33.87656906499188
 30
0.0
 42
1.0
  0
VERTEX
  5
1350
330
134E
100
AcDbEntity
  8
LOGO
 62
     5
100
AcDbVertex
100
AcDb2dVertex
 10
92.79977470945778
 20
33.87656906499188
 30
0.0
 42
1.0
  0
SEQEND
  5
1351
330
134E
100
AcDbEntity
  8
LOGO
 62
     5
  0
POLYLINE
  5
1352
330
2
100
AcDbEntity
  8
LOGO
 62
     5
100
AcDb2dPolyline
 66
     1
 10
0.0
 20
0.0
 30
0.0
 40
0.4816506787330316
 41
0.4816506787330316
  0
VERTEX
  5
1353
330
1352
100
AcDbEntity
  8
LOGO
 62
     5
100
AcDbVertex
100
AcDb2dVertex
 10
95.68736685859803
 20
33.87656906499188
 30
0.0
 42
1.0
  0
VERTEX
  5
1354
330
1352
100
AcDbEntity
  8
LOGO
 62
     5
100
AcDbVertex
100
AcDb2dVertex
 10
94.24241482239859
 20
33.87656906499188
 30
0.0
 42
1.0
  0
SEQEND
  5
1355
330
1352
100
AcDbEntity
  8
LOGO
 62
     5
  0
POLYLINE
  5
1356
330
2
100
AcDbEntity
  8
LOGO
 62
     5
100
AcDb2dPolyline
 66
     1
 10
0.0
 20
0.0
 30
0.0
 40
0.4816506787330316
 41
0.4816506787330316
  0
VERTEX
  5
1357
330
1356
100
AcDbEntity
  8
LOGO
 62
     5
100
AcDbVertex
100
AcDb2dVertex
 10
88.79472092698762
 20
33.87656906499188
 30
0.0
 42
1.0
  0
VERTEX
  5
1358
330
1356
100
AcDbEntity
  8
LOGO
 62
     5
100
AcDbVertex
100
AcDb2dVertex
 10
87.34976889078856
 20
33.87656906499188
 30
0.0
 42
1.0
  0
SEQEND
  5
1359
330
1356
100
AcDbEntity
  8
LOGO
 62
     5
  0
SOLID
  5
135A
330
2
100
AcDbEntity
  8
LOGO
 62
     5
100
AcDbTrace
 10
87.11048483359446
 20
34.83832914028599
 30
0.0
 11
87.59136487124086
 21
34.83832914028599
 31
0.0
 12
87.11048483359446
 22
32.43392895205128
 32
0.0
 13
87.59136487124086
 23
32.43392895205128
 33
0.0
  0
SOLID
  5
135B
330
2
100
AcDbEntity
  8
LOGO
 62
     5
100
AcDbTrace
 10
88.55312494653523
 20
33.87656906499188
 30
0.0
 11
89.03400498418262
 21
33.87656906499188
 31
0.0
 12
88.55312494653523
 22
32.43392895205128
 32
0.0
 13
89.03400498418262
 23
32.43392895205128
 33
0.0
  0
POLYLINE
  5
135C
330
2
100
AcDbEntity
  8
LOGO
 62
     5
100
AcDb2dPolyline
 66
     1
 10
0.0
 20
0.0
 30
0.0
 70
     1
 40
0.4816506787330316
 41
0.4816506787330316
  0
VERTEX
  5
135D
330
135C
100
AcDbEntity
  8
LOGO
 62
     5
100
AcDbVertex
100
AcDb2dVertex
 10
89.83399454875996
 20
33.63612904616851
 30
0.0
 42
1.0
  0
VERTEX
  5
135E
330
135C
100
AcDbEntity
  8
LOGO
 62
     5
100
AcDbVertex
100
AcDb2dVertex
 10
91.76059726369203
 20
33.63612904616851
 30
0.0
 42
1.0
  0
SEQEND
  5
135F
330
135C
100
AcDbEntity
  8
LOGO
 62
     5
  0
SOLID
  5
1360
330
2
100
AcDbEntity
  8
LOGO
 62
     5
100
AcDbTrace
 10
91.51856787469375
 20
35.55964919675695
 30
0.0
 11
91.99944791234031
 21
35.55964919675695
 31
0.0
 12
91.51856787469375
 22
32.43392895205128
 32
0.0
 13
91.99944791234031
 23
32.43392895205128
 33
0.0
  0
SOLID
  5
1361
330
2
100
AcDbEntity
  8
LOGO
 62
     5
100
AcDbTrace
 10
92.56049065226383
 20
34.83832914028599
 30
0.0
 11
93.04137068991066
 21
34.83832914028599
 31
0.0
 12
92.56049065226383
 22
32.43392895205128
 32
0.0
 13
93.04137068991066
 23
32.43392895205128
 33
0.0
  0
SOLID
  5
1362
330
2
100
AcDbEntity
  8
LOGO
 62
     5
100
AcDbTrace
 10
94.00313076520466
 20
33.87656906499188
 30
0.0
 11
94.48401080285151
 21
33.87656906499188
 31
0.0
 12
94.00313076520466
 22
32.43392895205128
 32
0.0
 13
94.48401080285151
 23
32.43392895205128
 33
0.0
  0
SOLID
  5
1363
330
2
100
AcDbEntity
  8
LOGO
 62
     5
100
AcDbTrace
 10
95.44577087814559
 20
33.87656906499188
 30
0.0
 11
95.92665091579215
 21
33.87656906499188
 31
0.0
 12
95.44577087814559
 22
32.43392895205021
 32
0.0
 13
95.92665091579215
 23
32.43392895205021
 33
0.0
  0
SOLID
  5
1364
330
2
100
AcDbEntity
  8
LOGO
 62
     5
100
AcDbTrace
 10
86.06856205602401
 20
35.17494516663868
 30
0.0
 11
86.5494420936722
 21
35.17494516663868
 31
0.0
 12
86.06856205602401
 22
35.55964919675695
 32
0.0
 13
86.5494420936722
 23
35.55964919675695
 33
0.0
  0
SOLID
  5
1365
330
2
100
AcDbEntity
  8
LOGO
 62
     5
100
AcDbTrace
 10
86.06856205602401
 20
34.83832914028599
 30
0.0
 11
86.5494420936722
 21
34.83832914028599
 31
0.0
 12
86.06856205602401
 22
32.43392895205021
 32
0.0
 13
86.5494420936722
 23
32.43392895205128
 33
0.0
  0
SOLID
  5
1366
330
2
100
AcDbEntity
  8
LOGO
 62
     5
100
AcDbTrace
 10
90.79729590622662
 20
37.24272932852148
 30
0.0
 11
92.19184801540288
 21
37.24272932852148
 31
0.0
 12
90.79729590622662
 22
44.29563654734439
 32
0.0
 13
92.19184801540288
 23
49.40899428099174
 33
0.0
  0
SOLID
  5
1367
330
2
100
AcDbEntity
  8
LOGO
 62
     5
100
AcDbTrace
 10
92.76890406057981
 20
50.46693036381487
 30
0.0
 11
94.16345616975613
 21
50.46693036381594
 31
0.0
 12
92.76890406057981
 22
38.30066541134462
 32
0.0
 13
94.16345616975613
 23
43.41402314499196
 33
0.0
  0
SOLID
  5
1368
330
2
100
AcDbEntity
  8
LOGO
 62
     2
100
AcDbTrace
 10
92.19184801540288
 20
50.46693036381487
 30
0.0
 11
92.76890406057981
 21
50.46693036381487
 31
0.0
 12
92.19184801540288
 22
37.24272932852148
 32
0.0
 13
92.76890406057981
 23
37.24272932852148
 33
0.0
  0
SOLID
  5
1369
330
2
100
AcDbEntity
  8
LOGO
 62
     5
100
AcDbTrace
 10
92.76890406057981
 20
38.30066541134462
 30
0.0
 11
94.16345616975613
 21
43.41402314499196
 31
0.0
 12
99.40504858010866
 22
50.46693036381594
 32
0.0
 13
98.01049647093229
 23
50.46693036381594
 33
0.0
  0
SOLID
  5
136A
330
2
100
AcDbEntity
  8
LOGO
 62
     5
100
AcDbTrace
 10
92.76890406057981
 20
37.24272932852148
 30
0.0
 11
94.16345616975613
 21
37.24272932852148
 31
0.0
 12
99.40504858010866
 22
49.40899428099174
 32
0.0
 13
98.01049647093229
 23
44.29563654734439
 33
0.0
  0
SOLID
  5
136B
330
2
100
AcDbEntity
  8
LOGO
 62
     2
100
AcDbTrace
 10
92.19184801540288
 20
37.24272932852148
 30
0.0
 11
92.76890406057981
 21
37.24272932852148
 31
0.0
 12
99.40504858010866
 22
50.46693036381594
 32
0.0
 13
99.98210462528556
 23
50.46693036381487
 33
0.0
  0
TEXT
  5
136C
330
2
100
AcDbEntity
  8
LOGO
 62
     6
100
AcDbText
 10
134.5314984713615
 20
33.49373140585418
 30
0.0
 40
3.225339366515837
  1
m/m
  7
CHINESET
 72
     1
 11
140.2142392599846
 21
35.1064010891121
 31
0.0
100
AcDbText
 73
     2
  0
TEXT
  5
136D
330
2
100
AcDbEntity
  8
LOGO
 62
     6
100
AcDbText
 10
134.5314984713615
 20
46.39508887191762
 30
0.0
 40
3.225339366515837
  1
1 : 1
  7
CHINESET
 72
     1
 11
140.2142392599846
 21
48.00775855517555
 31
0.0
100
AcDbText
 73
     2
  0
LINE
  5
136E
330
2
100
AcDbEntity
  8
LOGO
 62
     1
100
AcDbLine
 10
129.6929576059096
 20
31.88106172259629
 30
0.0
 11
129.6929576059096
 21
51.23309792169132
 31
0.0
  0
CIRCLE
  5
136F
330
2
100
AcDbEntity
  8
LOGO
  6
Continuous
 62
     6
100
AcDbCircle
 10
135.6650768620845
 20
41.56397884665116
 30
0.0
 40
1.872707952130051
  0
CIRCLE
  5
1370
330
2
100
AcDbEntity
  8
LOGO
  6
Continuous
 62
     6
100
AcDbCircle
 10
135.6650768620845
 20
41.56397884665116
 30
0.0
 40
1.097241078492898
  0
LINE
  5
1371
330
2
100
AcDbEntity
  8
LOGO
 62
     6
100
AcDbLine
 10
147.4333909331118
 20
39.69127089452101
 30
0.0
 11
147.4333909331118
 21
43.4366867987813
 31
0.0
  0
LINE
  5
1372
330
2
100
AcDbEntity
  8
LOGO
 62
     6
100
AcDbLine
 10
141.5625590017494
 20
40.46673776815833
 30
0.0
 11
141.5625590017494
 21
42.66121992514426
 31
0.0
  0
LINE
  5
1373
330
2
100
AcDbEntity
  8
LOGO
  6
Continuous
 62
     6
100
AcDbLine
 10
141.5625590017494
 20
42.66121992514426
 30
0.0
 11
147.4333909331118
 21
43.4366867987813
 31
0.0
  0
LINE
  5
1374
330
2
100
AcDbEntity
  8
LOGO
  6
Continuous
 62
     6
100
AcDbLine
 10
141.5625590017494
 20
40.46673776815833
 30
0.0
 11
147.4333909331118
 21
39.69127089452101
 31
0.0
  0
LINE
  5
137A
330
2
100
AcDbEntity
  8
LOGO
 62
     6
100
AcDbLine
 10
251.0595831961506
 20
33.49373140585433
 30
0.0
 11
251.0595831961506
 21
21.66748706196273
 31
0.0
  0
LINE
  5
137B
330
2
100
AcDbEntity
  8
LOGO
 62
     6
100
AcDbLine
 10
228.9739734119077
 20
33.49373140585433
 30
0.0
 11
228.9739734119077
 21
21.66748706196273
 31
0.0
  0
LINE
  5
137C
330
2
100
AcDbEntity
  8
LOGO
 62
     6
100
AcDbLine
 10
219.2108202452768
 20
33.49373140585433
 30
0.0
 11
219.2108202452768
 21
21.66748706196273
 31
0.0
  0
LINE
  5
137D
330
2
100
AcDbEntity
  8
LOGO
 62
     6
100
AcDbLine
 10
197.708557801838
 20
33.49373140585433
 30
0.0
 11
197.708557801838
 21
21.66748706196273
 31
0.0
  0
LINE
  5
137E
330
2
100
AcDbEntity
  8
LOGO
 62
     6
100
AcDbLine
 10
219.2108202452768
 20
21.66748706196273
 30
0.0
 11
197.708557801838
 21
21.66748706196273
 31
0.0
  0
LINE
  5
137F
330
2
100
AcDbEntity
  8
LOGO
 62
     6
100
AcDbLine
 10
251.0595831961506
 20
21.66748706196273
 30
0.0
 11
228.9739734119077
 21
21.66748706196273
 31
0.0
  0
LINE
  5
1380
330
2
100
AcDbEntity
  8
LOGO
  6
Continuous
 62
     7
100
AcDbLine
 10
223.0280789921895
 20
43.13547552012088
 30
0.0
 11
227.3006555227377
 21
43.13547552012088
 31
0.0
  0
LINE
  5
1381
330
2
100
AcDbEntity
  8
LOGO
 62
     6
100
AcDbLine
 10
221.3610464896207
 20
48.00775855517555
 30
0.0
 11
195.5583315574941
 21
48.00775855517555
 31
0.0
  0
LINE
  5
1382
330
2
100
AcDbEntity
  8
LOGO
 62
     6
100
AcDbLine
 10
221.3610464896207
 20
38.33174045562788
 30
0.0
 11
195.5583315574941
 21
38.33174045562788
 31
0.0
  0
LINE
  5
1383
330
2
100
AcDbEntity
  8
LOGO
 62
     6
100
AcDbLine
 10
195.5583315574941
 20
48.00775855517555
 30
0.0
 11
195.5583315574941
 21
38.33174045562788
 31
0.0
  0
LINE
  5
1384
330
2
100
AcDbEntity
  8
LOGO
 62
     6
100
AcDbLine
 10
221.3610464896207
 20
48.00775855517555
 30
0.0
 11
221.3610464896207
 21
38.33174045562788
 31
0.0
  0
LINE
  5
1385
330
2
100
AcDbEntity
  8
LOGO
 62
     6
100
AcDbLine
 10
208.4596890235573
 20
38.33174045562788
 30
0.0
 11
208.4596890235573
 21
33.49373140585433
 31
0.0
  0
TEXT
  5
1386
330
2
100
AcDbEntity
  8
LOGO
  6
Continuous
 62
     7
100
AcDbText
 10
198.2205164314435
 20
40.48196669997185
 30
0.0
 40
5.375565610859728
  1
MVAS
  7
CHINESET
 72
     1
 11
208.4596890235573
 21
43.16974950540171
 31
0.0
100
AcDbText
 73
     2
  0
LINE
  5
1387
330
2
100
AcDbEntity
  8
LOGO
 62
     6
100
AcDbLine
 10
219.2108202452768
 20
33.49373140585433
 30
0.0
 11
197.708557801838
 21
33.49373140585433
 31
0.0
  0
LINE
  5
1388
330
2
100
AcDbEntity
  8
LOGO
 62
     6
100
AcDbLine
 10
251.0595831961506
 20
48.00775855517555
 30
0.0
 11
228.9739734119077
 21
48.00775855517555
 31
0.0
  0
LINE
  5
1389
330
2
100
AcDbEntity
  8
LOGO
 62
     6
100
AcDbLine
 10
251.0595831961506
 20
33.49373140585433
 30
0.0
 11
228.9739734119077
 21
33.49373140585433
 31
0.0
  0
LINE
  5
138A
330
2
100
AcDbEntity
  8
LOGO
 62
     6
100
AcDbLine
 10
251.0595831961506
 20
38.33174045562788
 30
0.0
 11
228.9739734119077
 21
38.33174045562788
 31
0.0
  0
TEXT
  5
138B
330
2
100
AcDbEntity
  8
LOGO
  6
Continuous
 62
     7
100
AcDbText
 10
236.0018403353846
 20
40.42100744721554
 30
0.0
 40
5.375565610859728
  1
8A
  7
CHINESET
 72
     1
 11
240.6094680018358
 21
43.1087902526454
 31
0.0
100
AcDbText
 73
     2
  0
LINE
  5
138C
330
2
100
AcDbEntity
  8
LOGO
 62
     6
100
AcDbLine
 10
240.6094680018358
 20
38.33174045562788
 30
0.0
 11
240.6094680018358
 21
33.49373140585433
 31
0.0
  0
LINE
  5
138D
330
2
100
AcDbEntity
  8
LOGO
 62
     6
100
AcDbLine
 10
228.9739734119077
 20
48.00775855517555
 30
0.0
 11
228.9739734119077
 21
38.33174045562788
 31
0.0
  0
LINE
  5
1392
330
2
100
AcDbEntity
  8
LOGO
 62
     6
100
AcDbLine
 10
251.0595831961506
 20
48.00775855517555
 30
0.0
 11
251.0595831961506
 21
38.33174045562788
 31
0.0
  0
LINE
  5
1393
330
2
100
AcDbEntity
  8
LOGO
 62
     1
100
AcDbLine
 10
260.8416692779372
 20
18.97970425653288
 30
0.0
 11
260.8416692779372
 21
51.23309792169132
 31
0.0
  0
TEXT
  5
13A1
330
2
100
AcDbEntity
  8
LOGO
 62
     6
100
AcDbText
 10
106.5497077675129
 20
46.39667614522791
 30
211.3834286452417
 40
3.225339366515837
  1
比例 Scale:
 41
0.9
  7
CHINESET
 72
     4
 11
116.7916001398465
 21
48.00775855517555
 31
211.3834286452417
100
AcDbText
  0
TEXT
  5
13A2
330
2
100
AcDbEntity
  8
LOGO
 62
     6
100
AcDbText
 10
107.6771366621477
 20
39.98977970100498
 30
211.3834286452417
 40
3.225339366515837
  1
投影 View:
 41
0.9
  7
CHINESET
 72
     4
 11
116.7916001398465
 21
41.55707982214368
 31
211.3834286452417
100
AcDbText
  0
TEXT
  5
13A3
330
2
100
AcDbEntity
  8
LOGO
 62
     6
100
AcDbText
 10
107.9924711805704
 20
33.49373140585418
 30
211.3834286452417
 40
3.225339366515837
  1
單位 Unit:
 41
0.9
  7
CHINESET
 72
     4
 11
116.7916001398465
 21
35.1064010891121
 31
211.3834286452417
100
AcDbText
  0
TEXT
  5
13A4
330
2
100
AcDbEntity
  8
LOGO
  6
Continuous
 62
     6
100
AcDbText
 10
203.3401027275004
 20
23.01137846467768
 30
211.3834286452417
 40
2.687782805429864
  1
Model
  7
CHINESET
 72
     4
 11
208.4596890235573
 21
24.35526986739261
 31
211.3834286452417
100
AcDbText
  0
TEXT
  5
13A5
330
2
100
AcDbEntity
  8
LOGO
  6
Continuous
 62
     6
100
AcDbText
 10
231.3942126689334
 20
23.01137846467768
 30
211.3834286452417
 40
2.687782805429864
  1
Bore size
  7
CHINESET
 72
     4
 11
240.6094680018358
 21
24.35526986739261
 31
211.3834286452417
100
AcDbText
  0
TEXT
  5
13A7
330
2
100
AcDbEntity
  8
LOGO
 62
     6
100
AcDbText
 10
204.1592365348695
 20
27.69066018342212
 30
211.3834286452417
 40
4.300452488687782
  1
型式
  7
CHINESET
 72
     4
 11
208.4596890235573
 21
29.73083547825235
 31
211.3834286452417
100
AcDbText
  0
TEXT
  5
13A8
330
2
100
AcDbEntity
  8
LOGO
 62
     6
100
AcDbText
 10
231.9637666443697
 20
27.58060923390845
 30
211.3834286452417
 40
4.300452488687782
  1
配管口徑
  7
CHINESET
 72
     4
 11
240.6094680018358
 21
29.73083547825235
 31
211.3834286452417
100
AcDbText
  0
LWPOLYLINE
  5
13AC
330
2
100
AcDbEntity
  8
0
 62
     4
100
AcDbPolyline
 90
        4
 70
     1
 43
0.0
 10
80.23775398600024
 20
51.23309792169132
 10
260.8416692779372
 20
51.23309792169132
 10
260.8416692779372
 20
179.2090144857595
 10
80.23775398600024
 20
179.2090144857595
1001
GENIUS_GENREC_14
1002
{
1000
PYDIR
1011
80.23775398600024
1021
179.2090144857595
1031
0.0
1002
}
1002
{
1000
PXDIR
1011
260.8416692779372
1021
51.23309792169132
1031
0.0
1002
}
1002
{
1000
PORI
1011
80.23775398600024
1021
51.23309792169132
1031
0.0
1002
}
1002
{
1000
PINS
1011
80.23775398600024
1021
51.23309792169132
1031
0.0
1002
}
1002
{
1000
PINS2
1011
260.8416692779372
1021
179.2090144857595
1031
0.0
1002
}
1002
{
1000
C
1070
     1
1002
}
1001
GENIUS_GENODEF_13
1002
{
1000
HIER
1070
     0
1002
}
1002
{
1000
MANEDIT
1070
     0
1002
}
1002
{
1000
NOSEL
1070
     0
1002
}
1002
{
1000
BEHIND
1070
     0
1002
}
1002
{
1000
OTHER
1070
     0
1002
}
1002
{
1000
REACTOR
1002
}
1001
GENIUS_GENOBJ-N-REC_13
1002
{
1000
OWNER
1000
GEN
1002
}
  0
CIRCLE
  5
1551
330
2
100
AcDbEntity
  8
0
100
AcDbCircle
 10
169.9260004196565
 20
98.76727344872495
 30
0.0
 40
2.1
  0
CIRCLE
  5
1553
330
2
100
AcDbEntity
  8
0
100
AcDbCircle
 10
124.9260004196564
 20
98.76727344872495
 30
0.0
 40
2.1
  0
ENDSEC
  0
SECTION
  2
OBJECTS
  0
DICTIONARY
  5
8
330
0
100
AcDbDictionary
281
     1
  3
ACAD_COLOR
350
122E
  3
ACAD_GROUP
350
21
  3
ACAD_LAYOUT
350
C
  3
ACAD_MATERIAL
350
122D
  3
ACAD_MLINESTYLE
350
22
  3
ACAD_PLOTSETTINGS
350
23
  3
ACAD_PLOTSTYLENAME
350
7
  3
ACAD_TABLESTYLE
350
122F
  3
ACDBHEADERROUNDTRIPXREC
350
1561
  3
AcDbVariableDictionary
350
147
  3
AcmDictionary
350
169
  3
AMG
350
14F
  3
AMGSNAPSETTINGS
350
199
  3
DWGPROPS
350
1560
  3
MAPISURF_MODULE
350
14FD
  0
DICTIONARY
  5
3
330
2
100
AcDbDictionary
280
     1
281
     1
  3
ACAD_INDEX
360
1554
  0
DICTIONARY
  5
584
330
577
100
AcDbDictionary
280
     1
281
     1
  3
ACAD_DIMASSOC
360
58E
  0
DICTIONARY
  5
5C5
330
5B8
100
AcDbDictionary
280
     1
281
     1
  3
ACAD_DIMASSOC
360
5CF
  0
DICTIONARY
  5
64B
330
63E
100
AcDbDictionary
280
     1
281
     1
  3
ACAD_DIMASSOC
360
655
  0
DICTIONARY
  5
68C
330
67F
100
AcDbDictionary
280
     1
281
     1
  3
ACAD_DIMASSOC
360
696
  0
DICTIONARY
  5
712
330
705
100
AcDbDictionary
280
     1
281
     1
  3
ACAD_DIMASSOC
360
71C
  0
DICTIONARY
  5
753
330
746
100
AcDbDictionary
280
     1
281
     1
  3
ACAD_DIMASSOC
360
75D
  0
DICTIONARY
  5
794
330
787
100
AcDbDictionary
280
     1
281
     1
  3
ACAD_DIMASSOC
360
79E
  0
DICTIONARY
  5
818
330
80B
100
AcDbDictionary
280
     1
281
     1
  3
ACAD_DIMASSOC
360
822
  0
DICTIONARY
  5
859
330
84C
100
AcDbDictionary
280
     1
281
     1
  3
ACAD_DIMASSOC
360
863
  0
DICTIONARY
  5
122E
102
{ACAD_REACTORS
330
8
102
}
330
8
100
AcDbDictionary
281
     1
  0
DICTIONARY
  5
21
102
{ACAD_REACTORS
330
8
102
}
330
8
100
AcDbDictionary
281
     1
  0
DICTIONARY
  5
C
102
{ACAD_REACTORS
330
8
102
}
330
8
100
AcDbDictionary
281
     1
  3
Layout2
350
10
  3
Model
350
B
  0
DICTIONARY
  5
122D
102
{ACAD_REACTORS
330
8
102
}
330
8
100
AcDbDictionary
281
     1
  0
DICTIONARY
  5
22
102
{ACAD_REACTORS
330
8
102
}
330
8
100
AcDbDictionary
281
     1
  3
Standard
350
24
  0
DICTIONARY
  5
23
102
{ACAD_REACTORS
330
8
102
}
330
8
100
AcDbDictionary
281
     1
  0
ACDBDICTIONARYWDFLT
  5
7
102
{ACAD_REACTORS
330
8
102
}
330
8
100
AcDbDictionary
281
     1
  3
Normal
350
6
100
AcDbDictionaryWithDefault
340
6
  0
DICTIONARY
  5
122F
102
{ACAD_REACTORS
330
8
102
}
330
8
100
AcDbDictionary
281
     1
  3
Standard
350
1230
  0
DICTIONARY
  5
1561
102
{ACAD_REACTORS
330
8
102
}
330
8
100
AcDbDictionary
281
     1
  0
DICTIONARY
  5
147
102
{ACAD_REACTORS
330
8
102
}
330
8
100
AcDbDictionary
281
     1
  3
CTABLESTYLE
350
1295
  3
DIMASSOC
350
149
  3
HIDETEXT
350
148
  3
INDEXCTL
350
1AB
  3
PROJECTNAME
350
146F
  0
DICTIONARY
  5
169
102
{ACAD_REACTORS
330
8
102
}
330
8
100
AcDbDictionary
281
     1
  3
AcmStdDictionary
350
16F
  3
AMDTSECTSYM_ARROWCOLOR
350
1240
  0
DICTIONARY
  5
14F
102
{ACAD_REACTORS
330
8
102
}
330
8
100
AcDbDictionary
281
     1
  3
AcMgSettings
350
1478
  0
DICTIONARY
  5
199
102
{ACAD_REACTORS
330
8
102
}
330
8
100
AcDbDictionary
281
     1
  0
XRECORD
  5
1560
102
{ACAD_REACTORS
330
8
102
}
330
8
100
AcDbXrecord
280
     1
  1
DWGPROPS COOKIE
  2

  3

  4

  6

  7

  8

  9

300
AmdtFileType=84
301
=
302
=
303
=
304
=
305
=
306
=
307
=
308
=
309
=
 40
0.9750527430555555
 41
2453061.386136818
 42
2456538.648947662
  1

 90
        1
  0
DICTIONARY
  5
1554
102
{ACAD_REACTORS
330
3
102
}
330
3
100
AcDbDictionary
281
     1
  3
*A1
350
1555
  0
DIMASSOC
  5
58E
102
{ACAD_REACTORS
330
584
102
}
330
584
100
AcDbDimAssoc
330
577
 90
        3
 70
     0
 71
     0
  1
AcDbOsnapPointRef
 72
     1
331
372
 73
     0
 91
        0
 40
0.0
 10
124.9260004196564
 20
102.2672734487249
 30
0.0
 75
     0
  1
AcDbOsnapPointRef
 72
     1
331
379
 73
     0
 91
        0
 40
0.0
 10
169.9260004196565
 20
102.2672734487249
 30
0.0
 75
     0
  0
DIMASSOC
  5
5CF
102
{ACAD_REACTORS
330
5C5
102
}
330
5C5
100
AcDbDimAssoc
330
5B8
 90
        3
 70
     0
 71
     0
  1
AcDbOsnapPointRef
 72
    13
331
2F4
 73
     0
 91
        0
 40
0.0
 10
119.9260004196565
 20
104.6672734487249
 30
0.0
 75
     0
  1
AcDbOsnapPointRef
 72
     1
331
2F4
 73
     0
 91
        0
 40
0.0
 10
174.9260004196564
 20
104.667273448725
 30
0.0
 75
     0
  0
DIMASSOC
  5
655
102
{ACAD_REACTORS
330
64B
102
}
330
64B
100
AcDbDimAssoc
330
63E
 90
        3
 70
     0
 71
     0
  1
AcDbOsnapPointRef
 72
    13
331
370
 73
     0
 91
        0
 40
0.0
 10
121.4260004196564
 20
98.76727344872495
 30
0.0
 75
     0
  1
AcDbOsnapPointRef
 72
     1
331
2FD
 73
     0
 91
        0
 40
0.0
 10
119.9260004196565
 20
69.26727344872495
 30
0.0
 75
     0
  0
DIMASSOC
  5
696
102
{ACAD_REACTORS
330
68C
102
}
330
68C
100
AcDbDimAssoc
330
67F
 90
        3
 70
     0
 71
     0
  1
AcDbOsnapPointRef
 72
    13
331
2F4
 73
     0
 91
        0
 40
0.0
 10
119.9260004196565
 20
104.6672734487249
 30
0.0
 75
     0
  1
AcDbOsnapPointRef
 72
     1
331
2FD
 73
     0
 91
        0
 40
0.0
 10
119.9260004196565
 20
69.26727344872495
 30
0.0
 75
     0
  0
DIMASSOC
  5
71C
102
{ACAD_REACTORS
330
712
102
}
330
712
100
AcDbDimAssoc
330
705
 90
        3
 70
     0
 71
     0
  1
AcDbOsnapPointRef
 72
     1
331
3CE
 73
     0
 91
        0
 40
0.0
 10
236.3494679182224
 20
104.6672734487249
 30
0.0
 75
     0
  1
AcDbOsnapPointRef
 72
     1
331
3C8
 73
     0
 91
        0
 40
0.0
 10
223.1494679182225
 20
106.9344432338465
 30
0.0
 75
     0
  0
DIMASSOC
  5
75D
102
{ACAD_REACTORS
330
753
102
}
330
753
100
AcDbDimAssoc
330
746
 90
        3
 70
     0
 71
     0
  1
AcDbOsnapPointRef
 72
     1
331
3CE
 73
     0
 91
        0
 40
0.0
 10
236.3494679182224
 20
104.6672734487249
 30
0.0
 75
     0
  1
AcDbOsnapPointRef
 72
     1
331
3B6
 73
     0
 91
        0
 40
0.0
 10
209.9494679182224
 20
104.6672734487249
 30
0.0
 75
     0
  0
DIMASSOC
  5
79E
102
{ACAD_REACTORS
330
794
102
}
330
794
100
AcDbDimAssoc
330
787
 90
        3
 70
     0
 71
     0
  1
AcDbOsnapPointRef
 72
    13
331
3B6
 73
     0
 91
        0
 40
0.0
 10
209.9494679182224
 20
69.26727344872493
 30
0.0
 75
     0
  1
AcDbOsnapPointRef
 72
    13
331
3C1
 73
     0
 91
        0
 40
0.0
 10
209.1494679182225
 20
82.26727344872491
 30
0.0
 75
     0
  0
DIMASSOC
  5
822
102
{ACAD_REACTORS
330
818
102
}
330
818
100
AcDbDimAssoc
330
80B
 90
        2
 70
     0
 71
     0
  1
AcDbOsnapPointRef
 72
    13
331
386
 73
     0
 91
        0
 40
0.0
 10
150.9260004196564
 20
145.5696281291501
 30
0.0
 75
     0
  0
DIMASSOC
  5
863
102
{ACAD_REACTORS
330
859
102
}
330
859
100
AcDbDimAssoc
330
84C
 90
        3
 70
     0
 71
     0
  1
AcDbOsnapPointRef
 72
     1
331
2E5
 73
     0
 91
        0
 40
0.0
 10
181.9260004196563
 20
143.4073531231226
 30
0.0
 75
     0
  1
AcDbOsnapPointRef
 72
     1
331
2E6
 73
     0
 91
        0
 40
0.0
 10
119.9260004196565
 20
140.2073531231226
 30
0.0
 75
     0
  0
LAYOUT
  5
10
102
{ACAD_XDICTIONARY
360
1564
102
}
102
{ACAD_REACTORS
330
C
102
}
330
C
100
AcDbPlotSettings
  1

  2
自動 RD 上的 Epson Stylus Photo 750 單色
  4
A4
  6

 40
3.757083177566528
 41
14.7637300491333
 42
3.757080078125
 43
3.757080078125
 44
209.9733276367187
 45
296.9683227539062
 46
27.33
 47
0.0
 48
0.0
 49
0.0
140
0.0
141
0.0
142
1.0
143
0.7842212023430129
 70
   692
 72
     1
 73
     0
 74
     1
  7
單色出圖.ctb
 75
     0
147
1.275150425686408
148
-79.70182220707124
149
-11.02268662155421
100
AcDbLayout
  1
Layout2
 70
     1
 71
     1
 10
55.32267246022277
 20
-0.5553435086447714
 11
219.9882079194537
 21
232.3335116192115
 12
0.0
 22
0.0
 32
0.0
 14
40.3919093613037
 24
115.7291726466998
 34
-0.0015258207003583
 15
212.2795617059057
 25
247.3465292502946
 35
0.0000000349246037
146
0.0
 13
0.0
 23
0.0
 33
0.0
 16
1.0
 26
0.0
 36
0.0
 17
0.0
 27
1.0
 37
0.0
 76
     0
330
D
  0
LAYOUT
  5
B
102
{ACAD_XDICTIONARY
360
1562
102
}
102
{ACAD_REACTORS
330
C
102
}
330
C
100
AcDbPlotSettings
  1

  2
\\RD\EPSON Stylus C63 Series單色
  4
A4
  6

 40
3.757083177566528
 41
3.757076978683471
 42
3.757080078125
 43
3.757080078125
 44
209.9733276367187
 45
296.9683227539062
 46
0.0
 47
6.95
 48
0.0
 49
0.0
140
0.0
141
0.0
142
1.0
143
0.9990078796685944
 70
 11956
 72
     1
 73
     0
 74
     1
  7
單色出圖.ctb
 75
     0
147
1.000993105611674
148
-50.51971539217015
149
-1.667725302823555
100
AcDbLayout
  1
Model
 70
     1
 71
     0
 10
0.0
 20
0.0
 11
12.0
 21
9.0
 12
0.0
 22
0.0
 32
0.0
 14
0.0
 24
0.0
 34
0.0
 15
0.0
 25
0.0
 35
0.0
146
0.0
 13
0.0
 23
0.0
 33
0.0
 16
1.0
 26
0.0
 36
0.0
 17
0.0
 27
1.0
 37
0.0
 76
     0
330
2
  0
MLINESTYLE
  5
24
102
{ACAD_REACTORS
330
22
102
}
330
22
100
AcDbMlineStyle
  2
STANDARD
 70
     0
  3

 62
   256
 51
90.0
 52
90.0
 71
     2
 49
0.5
 62
   256
  6
BYLAYER
 49
-0.5
 62
   256
  6
BYLAYER
  0
ACDBPLACEHOLDER
  5
6
102
{ACAD_REACTORS
330
7
102
}
330
7
  0
TABLESTYLE
  5
1230
102
{ACAD_REACTORS
330
122F
102
}
330
122F
100
AcDbTableStyle
  3
Standard
 70
     0
 71
     0
 40
1.5
 41
1.5
280
     0
281
     0
  7
STANDARD
140
4.5
170
     2
 62
     0
 63
     7
283
     0
274
    -2
284
     1
 64
     0
275
    -2
285
     1
 65
     0
276
    -2
286
     1
 66
     0
277
    -2
287
     1
 67
     0
278
    -2
288
     1
 68
     0
279
    -2
289
     1
 69
     0
  7
STANDARD
140
6.0
170
     5
 62
     0
 63
     7
283
     0
274
    -2
284
     1
 64
     0
275
    -2
285
     1
 65
     0
276
    -2
286
     1
 66
     0
277
    -2
287
     1
 67
     0
278
    -2
288
     1
 68
     0
279
    -2
289
     1
 69
     0
  7
STANDARD
140
4.5
170
     5
 62
     0
 63
     7
283
     0
274
    -2
284
     1
 64
     0
275
    -2
285
     1
 65
     0
276
    -2
286
     1
 66
     0
277
    -2
287
     1
 67
     0
278
    -2
288
     1
 68
     0
279
    -2
289
     1
 69
     0
  0
DICTIONARYVAR
  5
1295
102
{ACAD_REACTORS
330
147
102
}
330
147
100
DictionaryVariables
280
     0
  1
STANDARD
  0
DICTIONARYVAR
  5
149
102
{ACAD_REACTORS
330
147
102
}
330
147
100
DictionaryVariables
280
     0
  1
2
  0
DICTIONARYVAR
  5
148
102
{ACAD_REACTORS
330
147
102
}
330
147
100
DictionaryVariables
280
     0
  1
1
  0
DICTIONARYVAR
  5
1AB
102
{ACAD_REACTORS
330
147
102
}
330
147
100
DictionaryVariables
280
     0
  1
1
  0
DICTIONARYVAR
  5
146F
102
{ACAD_REACTORS
330
147
102
}
330
147
100
DictionaryVariables
280
     0
  1

  0
DICTIONARY
  5
16F
102
{ACAD_REACTORS
330
169
102
}
330
169
100
AcDbDictionary
281
     1
  0
XRECORD
  5
1240
102
{ACAD_REACTORS
330
169
102
}
330
169
100
AcDbXrecord
280
     1
 90
-1023410169
  0
DICTIONARY
  5
1478
102
{ACAD_REACTORS
330
14F
102
}
330
14F
100
AcDbDictionary
281
     1
  3
DWGSETTINGS
350
1479
  3
TRANSSETTINGS
350
147D
  0
LAYER_INDEX
  5
1555
102
{ACAD_REACTORS
330
1554
102
}
330
1554
100
AcDbIndex
 40
2456538.648947662
100
AcDbLayerIndex
  8
0
360
1556
 90
       22
  8
AM_7
360
1557
 90
       27
  8
AM_4
360
1558
 90
        8
  8
AM_VIS
360
1559
 90
       35
  8
AM_HID
360
155A
 90
       15
  8
Defpoints
360
155B
 90
        0
  8
AM_5
360
155C
 90
       14
  8
LOGO
360
155D
 90
       86
  0
DICTIONARY
  5
1564
330
10
100
AcDbDictionary
280
     1
281
     1
  3
ACAD_XREC_ROUNDTRIP
360
1565
  0
DICTIONARY
  5
1562
330
B
100
AcDbDictionary
280
     1
281
     1
  3
ACAD_XREC_ROUNDTRIP
360
1563
  0
IDBUFFER
  5
1556
330
0
100
AcDbIdBuffer
330
112E
330
1138
330
1139
330
13AC
330
1551
330
1553
330
25
330
26
330
27
330
28
330
10F7
330
10F8
330
10F9
330
10FA
330
10FB
330
10FC
330
10FD
330
10FE
330
10FF
330
1100
330
1101
330
1102
  0
IDBUFFER
  5
1557
330
0
100
AcDbIdBuffer
330
388
330
38B
330
38C
330
3B9
330
3C1
330
3C8
330
3C9
330
3CA
330
3CB
330
3D1
330
3D5
330
2F7
330
2F8
330
300
330
302
330
370
330
371
330
372
330
373
330
374
330
378
330
379
330
37A
330
37B
330
37F
330
380
330
386
  0
IDBUFFER
  5
1558
330
0
100
AcDbIdBuffer
330
2FE
330
2FF
330
309
330
30A
330
37E
330
3C0
330
3D6
330
3DC
  0
IDBUFFER
  5
1559
330
0
100
AcDbIdBuffer
330
3A5
330
3A7
330
3A8
330
3A9
330
3AB
330
3AC
330
3AE
330
3B0
330
3B1
330
3B3
330
3B4
330
3B5
330
3B6
330
3BA
330
3BE
330
3CE
330
3CF
330
3D0
330
10C0
330
2E5
330
2E6
330
2E7
330
2E8
330
2F3
330
2F4
330
2FD
330
37D
330
38F
330
393
330
395
330
398
330
399
330
39B
330
39D
330
39F
  0
IDBUFFER
  5
155A
330
0
100
AcDbIdBuffer
330
2FB
330
2FC
330
307
330
308
330
30B
330
30C
330
30D
330
375
330
376
330
377
330
3D7
330
3D9
330
3DA
330
3DB
330
3DD
  0
IDBUFFER
  5
155B
330
0
100
AcDbIdBuffer
  0
IDBUFFER
  5
155C
330
0
100
AcDbIdBuffer
330
577
330
5B8
330
63E
330
67F
330
705
330
746
330
787
330
80B
330
84C
330
88D
330
103F
330
1040
330
1110
330
1111
  0
IDBUFFER
  5
155D
330
0
100
AcDbIdBuffer
330
136C
330
136D
330
136E
330
136F
330
1370
330
1371
330
1372
330
1373
330
1374
330
137A
330
137B
330
137C
330
137D
330
137E
330
137F
330
1380
330
1381
330
1382
330
1383
330
1384
330
1385
330
1386
330
1387
330
1388
330
1389
330
138A
330
138B
330
138C
330
138D
330
1392
330
1393
330
13A1
330
13A2
330
13A3
330
13A4
330
13A5
330
13A7
330
13A8
330
1327
330
1328
330
1329
330
132A
330
132B
330
132C
330
132D
330
132E
330
132F
330
1330
330
1331
330
1332
330
1333
330
1334
330
1335
330
1336
330
1337
330
1338
330
1339
330
133D
330
1341
330
1342
330
1346
330
1347
330
1348
330
1349
330
134A
330
134B
330
134C
330
134D
330
134E
330
1352
330
1356
330
135A
330
135B
330
135C
330
1360
330
1361
330
1362
330
1363
330
1364
330
1365
330
1366
330
1367
330
1368
330
1369
330
136A
330
136B
  0
XRECORD
  5
1565
102
{ACAD_REACTORS
330
1564
102
}
330
1564
100
AcDbXrecord
280
     1
102
SHADEPLOT
 70
     0
102
SHADEPLOTRESLEVEL
 70
     2
102
SHADEPLOTCUSTOMDPI
 70
   300
  0
XRECORD
  5
1563
102
{ACAD_REACTORS
330
1562
102
}
330
1562
100
AcDbXrecord
280
     1
102
SHADEPLOT
 70
     0
102
SHADEPLOTRESLEVEL
 70
     2
102
SHADEPLOTCUSTOMDPI
 70
   300
  0
ENDSEC
  0
EOF
