  0
SECTION
  2
HEADER
  9
$ACADVER
  1
AC1015
  9
$ACADMAINTVER
 70
    20
  9
$DWGCODEPAGE
  3
ANSI_950
  9
$INSBASE
 10
0.0
 20
0.0
 30
0.0
  9
$EXTMIN
 10
621.6399119003481
 20
61.6695564273623
 30
-0.0019983784608257
  9
$EXTMAX
 10
874.8991315098656
 20
192.6856389978035
 30
131.0597259694776
  9
$LIMMIN
 10
0.0
 20
0.0
  9
$LIMMAX
 10
420.0
 20
297.0
  9
$ORTHOMODE
 70
     0
  9
$REGENMODE
 70
     1
  9
$FILLMODE
 70
     1
  9
$QTEXTMODE
 70
     0
  9
$MIRRTEXT
 70
     1
  9
$LTSCALE
 40
1.0
  9
$ATTMODE
 70
     1
  9
$TEXTSIZE
 40
3.5
  9
$TRACEWID
 40
1.0
  9
$TEXTSTYLE
  7
STANDARD
  9
$CLAYER
  8
0
  9
$CELTYPE
  6
ByLayer
  9
$CECOLOR
 62
   256
  9
$CELTSCALE
 40
1.0
  9
$DISPSILH
 70
     0
  9
$DIMSCALE
 40
1.0
  9
$DIMASZ
 40
3.0
  9
$DIMEXO
 40
1.0
  9
$DIMDLI
 40
5.0
  9
$DIMRND
 40
0.0
  9
$DIMDLE
 40
0.0
  9
$DIMEXE
 40
1.5
  9
$DIMTP
 40
0.1
  9
$DIMTM
 40
0.1
  9
$DIMTXT
 40
3.5
  9
$DIMCEN
 40
3.0
  9
$DIMTSZ
 40
0.0
  9
$DIMTOL
 70
     0
  9
$DIMLIM
 70
     0
  9
$DIMTIH
 70
     0
  9
$DIMTOH
 70
     0
  9
$DIMSE1
 70
     0
  9
$DIMSE2
 70
     0
  9
$DIMTAD
 70
     1
  9
$DIMZIN
 70
     8
  9
$DIMBLK
  1

  9
$DIMASO
 70
     1
  9
$DIMSHO
 70
     1
  9
$DIMPOST
  1

  9
$DIMAPOST
  1
"
  9
$DIMALT
 70
     0
  9
$DIMALTD
 70
     2
  9
$DIMALTF
 40
0.0393701
  9
$DIMLFAC
 40
1.0
  9
$DIMTOFL
 70
     1
  9
$DIMTVP
 40
0.0
  9
$DIMTIX
 70
     0
  9
$DIMSOXD
 70
     0
  9
$DIMSAH
 70
     0
  9
$DIMBLK1
  1

  9
$DIMBLK2
  1

  9
$DIMSTYLE
  2
AM_ISO
  9
$DIMCLRD
 70
   256
  9
$DIMCLRE
 70
   256
  9
$DIMCLRT
 70
   256
  9
$DIMTFAC
 40
0.71
  9
$DIMGAP
 40
0.8
  9
$DIMJUST
 70
     0
  9
$DIMSD1
 70
     0
  9
$DIMSD2
 70
     0
  9
$DIMTOLJ
 70
     0
  9
$DIMTZIN
 70
     8
  9
$DIMALTZ
 70
     0
  9
$DIMALTTZ
 70
     0
  9
$DIMUPT
 70
     0
  9
$DIMDEC
 70
     2
  9
$DIMTDEC
 70
     8
  9
$DIMALTU
 70
     2
  9
$DIMALTTD
 70
     2
  9
$DIMTXSTY
  7
STANDARD
  9
$DIMAUNIT
 70
     0
  9
$DIMADEC
 70
     0
  9
$DIMALTRND
 40
0.0
  9
$DIMAZIN
 70
     2
  9
$DIMDSEP
 70
    46
  9
$DIMATFIT
 70
     3
  9
$DIMFRAC
 70
     0
  9
$DIMLDRBLK
  1

  9
$DIMLUNIT
 70
     2
  9
$DIMLWD
 70
    -1
  9
$DIMLWE
 70
    -1
  9
$DIMTMOVE
 70
     0
  9
$LUNITS
 70
     2
  9
$LUPREC
 70
     2
  9
$SKETCHINC
 40
1.0
  9
$FILLETRAD
 40
2.5
  9
$AUNITS
 70
     0
  9
$AUPREC
 70
     0
  9
$MENU
  1
.
  9
$ELEVATION
 40
0.0
  9
$PELEVATION
 40
0.0
  9
$THICKNESS
 40
0.0
  9
$LIMCHECK
 70
     0
  9
$CHAMFERA
 40
2.5
  9
$CHAMFERB
 40
2.5
  9
$CHAMFERC
 40
20.0
  9
$CHAMFERD
 40
0.0
  9
$SKPOLY
 70
     0
  9
$TDCREATE
 40
2453021.369367211
  9
$TDUCREATE
 40
2453021.036033877
  9
$TDUPDATE
 40
2453726.361529757
  9
$TDUUPDATE
 40
2453726.028196424
  9
$TDINDWG
 40
0.7836828241
  9
$TDUSRTIMER
 40
0.7836824769
  9
$USRTIMER
 70
     1
  9
$ANGBASE
 50
0.0
  9
$ANGDIR
 70
     0
  9
$PDMODE
 70
     0
  9
$PDSIZE
 40
0.0
  9
$PLINEWID
 40
0.0
  9
$SPLFRAME
 70
     0
  9
$SPLINETYPE
 70
     6
  9
$SPLINESEGS
 70
     8
  9
$HANDSEED
  5
5CC6
  9
$SURFTAB1
 70
     6
  9
$SURFTAB2
 70
     6
  9
$SURFTYPE
 70
     6
  9
$SURFU
 70
     6
  9
$SURFV
 70
     6
  9
$UCSBASE
  2

  9
$UCSNAME
  2

  9
$UCSORG
 10
0.0
 20
0.0
 30
0.0
  9
$UCSXDIR
 10
1.0
 20
0.0
 30
0.0
  9
$UCSYDIR
 10
0.0
 20
1.0
 30
0.0
  9
$UCSORTHOREF
  2

  9
$UCSORTHOVIEW
 70
     0
  9
$UCSORGTOP
 10
0.0
 20
0.0
 30
0.0
  9
$UCSORGBOTTOM
 10
0.0
 20
0.0
 30
0.0
  9
$UCSORGLEFT
 10
0.0
 20
0.0
 30
0.0
  9
$UCSORGRIGHT
 10
0.0
 20
0.0
 30
0.0
  9
$UCSORGFRONT
 10
0.0
 20
0.0
 30
0.0
  9
$UCSORGBACK
 10
0.0
 20
0.0
 30
0.0
  9
$PUCSBASE
  2

  9
$PUCSNAME
  2

  9
$PUCSORG
 10
0.0
 20
0.0
 30
0.0
  9
$PUCSXDIR
 10
1.0
 20
0.0
 30
0.0
  9
$PUCSYDIR
 10
0.0
 20
1.0
 30
0.0
  9
$PUCSORTHOREF
  2

  9
$PUCSORTHOVIEW
 70
     0
  9
$PUCSORGTOP
 10
0.0
 20
0.0
 30
0.0
  9
$PUCSORGBOTTOM
 10
0.0
 20
0.0
 30
0.0
  9
$PUCSORGLEFT
 10
0.0
 20
0.0
 30
0.0
  9
$PUCSORGRIGHT
 10
0.0
 20
0.0
 30
0.0
  9
$PUCSORGFRONT
 10
0.0
 20
0.0
 30
0.0
  9
$PUCSORGBACK
 10
0.0
 20
0.0
 30
0.0
  9
$USERI1
 70
     0
  9
$USERI2
 70
     0
  9
$USERI3
 70
     0
  9
$USERI4
 70
     0
  9
$USERI5
 70
     0
  9
$USERR1
 40
0.0
  9
$USERR2
 40
0.0
  9
$USERR3
 40
0.0
  9
$USERR4
 40
0.0
  9
$USERR5
 40
0.0
  9
$WORLDVIEW
 70
     1
  9
$SHADEDGE
 70
     3
  9
$SHADEDIF
 70
    70
  9
$TILEMODE
 70
     1
  9
$MAXACTVP
 70
    64
  9
$PINSBASE
 10
0.0
 20
0.0
 30
0.0
  9
$PLIMCHECK
 70
     0
  9
$PEXTMIN
 10
1.000000000000000E+20
 20
1.000000000000000E+20
 30
1.000000000000000E+20
  9
$PEXTMAX
 10
-1.000000000000000E+20
 20
-1.000000000000000E+20
 30
-1.000000000000000E+20
  9
$PLIMMIN
 10
0.0
 20
0.0
  9
$PLIMMAX
 10
420.0
 20
297.0
  9
$UNITMODE
 70
     0
  9
$VISRETAIN
 70
     1
  9
$PLINEGEN
 70
     0
  9
$PSLTSCALE
 70
     1
  9
$TREEDEPTH
 70
  3020
  9
$CMLSTYLE
  2
Standard
  9
$CMLJUST
 70
     0
  9
$CMLSCALE
 40
20.0
  9
$PROXYGRAPHICS
 70
     1
  9
$MEASUREMENT
 70
     1
  9
$CELWEIGHT
370
    -1
  9
$ENDCAPS
280
     0
  9
$JOINSTYLE
280
     0
  9
$LWDISPLAY
290
     0
  9
$INSUNITS
 70
     4
  9
$HYPERLINKBASE
  1

  9
$STYLESHEET
  1
彩色出圖.ctb
  9
$XEDIT
290
     1
  9
$CEPSNTYPE
380
     0
  9
$PSTYLEMODE
290
     1
  9
$FINGERPRINTGUID
  2
{6C02722A-18D3-491A-897A-B8025DE410A9}
  9
$VERSIONGUID
  2
{0DEA6377-60A0-4495-83AA-6EA46331F109}
  9
$EXTNAMES
290
     1
  9
$PSVPSCALE
 40
0.0
  9
$OLESTARTUP
290
     0
  0
ENDSEC
  0
SECTION
  2
CLASSES
  0
CLASS
  1
ACDBDICTIONARYWDFLT
  2
AcDbDictionaryWithDefault
  3
ObjectDBX Classes
 90
        0
280
     0
281
     0
  0
CLASS
  1
ACDBPLACEHOLDER
  2
AcDbPlaceHolder
  3
ObjectDBX Classes
 90
        0
280
     0
281
     0
  0
CLASS
  1
LAYOUT
  2
AcDbLayout
  3
ObjectDBX Classes
 90
        0
280
     0
281
     0
  0
CLASS
  1
AMGSETTINGSOBJ
  2
AmgSettingsObj
  3
"AcadM|Product Description: AutoCAD Mechanical 2000|Company: Autodesk"
 90
        0
280
     0
281
     0
  0
CLASS
  1
ACME_DOCUMENT
  2
AcMeDbDoc
  3
AcMeServices
 90
        0
280
     0
281
     0
  0
CLASS
  1
ACMESCOPE
  2
AcMeScope
  3
AcMeServices
 90
        0
280
     0
281
     0
  0
CLASS
  1
ACMECOMMANDHISTORY
  2
AcMeCommandHistory
  3
AcMeServices
 90
        0
280
     0
281
     0
  0
CLASS
  1
ACIMSYSVARMAN
  2
AcImSysVarManager
  3
AcMeServices
 90
        0
280
     0
281
     0
  0
CLASS
  1
ACIMREALSYSVAR
  2
AcImRealSysVar
  3
AcMeServices
 90
        0
280
     0
281
     0
  0
CLASS
  1
ACIMINTSYSVAR
  2
AcImIntSysVar
  3
AcMeServices
 90
        0
280
     0
281
     0
  0
CLASS
  1
ACMEDRAWINGMAN
  2
AcMeDrawingMan
  3
AcMeServices
 90
        0
280
     0
281
     0
  0
CLASS
  1
ACMEVIEW
  2
AcMeView
  3
AcMeServices
 90
        0
280
     0
281
     0
  0
CLASS
  1
ACDBENTITYCACHE
  2
AcMeEntityCache
  3
AcMeServices
 90
        0
280
     0
281
     0
  0
CLASS
  1
GSMANAGER
  2
AcMeGSManager
  3
AcMeServices
 90
        0
280
     0
281
     0
  0
CLASS
  1
AMDTINTERNALREACTOR
  2
AmdtInternalReactor
  3
AcMeServices
 90
        0
280
     0
281
     0
  0
CLASS
  1
ACMESTATEMGR
  2
AcMeStateMgr
  3
AcMeServices
 90
        0
280
     0
281
     0
  0
CLASS
  1
ACGREFMASTER
  2
AcGrefMaster
  3
AcAttribServices
 90
        0
280
     0
281
     0
  0
CLASS
  1
ACME_DATABASE
  2
AcMeDbDatabase
  3
AcMeServices
 90
        0
280
     0
281
     0
  0
CLASS
  1
ACRFINSADJUSTERMGR
  2
AcRfInsAdjusterMgr
  3
AcMeServices
 90
        0
280
     0
281
     0
  0
CLASS
  1
ACGREFACADMASTER
  2
AcGrefacadMaster
  3
AcGrefServices
 90
        0
280
     0
281
     0
  0
CLASS
  1
AMIMASTER
  2
AmiMaster
  3
AmiServices
 90
        0
280
     0
281
     0
  0
CLASS
  1
ACMDATADICTIONARY
  2
AcmDataDictionary
  3
"AcmSymBB|Product Description: AutoCAD Mechanical 2004 DX|Company: Autodesk"
 90
        0
280
     0
281
     0
  0
CLASS
  1
ACMDATAENTRYBLOCK
  2
AcmDataEntryBlock
  3
"AcmSymBB|Product Description: AutoCAD Mechanical 2004 DX|Company: Autodesk"
 90
    32768
280
     0
281
     0
  0
CLASS
  1
ACIMSTRSYSVAR
  2
AcImStrSysVar
  3
AcMeServices
 90
        0
280
     0
281
     0
  0
CLASS
  1
ACMSTANDARDISO
  2
AcmStandardISO
  3
"Amdt_StdImp|Product Description: AutoCAD Mechanical 2004 DX|Company: Autodesk"
 90
        0
280
     0
281
     0
  0
CLASS
  1
AMGOBJPROPCFG
  2
AmgObjPropCfg
  3
"AmgLay|Product Description: AutoCAD Mechanical 2000|Company: Autodesk"
 90
        1
280
     0
281
     0
  0
CLASS
  1
AMDTEDGESTANDARDISO
  2
AmdtEdgeStdISO
  3
"Amdt_StdImp|Product Description: AutoCAD Mechanical 2004 DX|Company: Autodesk"
 90
    32768
280
     0
281
     0
  0
CLASS
  1
ACMSURFSTANDARDISO
  2
AcmSurfTextStdISO
  3
"Amdt_StdImp|Product Description: AutoCAD Mechanical 2004 DX|Company: Autodesk"
 90
        0
280
     0
281
     0
  0
CLASS
  1
ACMFCFSTANDARDISO
  2
AcmFCFStdISO
  3
"Amdt_StdImp|Product Description: AutoCAD Mechanical 2004 DX|Company: Autodesk"
 90
        0
280
     0
281
     0
  0
CLASS
  1
ACMWELDSTANDARDISO
  2
AcmWeldingStdISO
  3
"Amdt_StdImp|Product Description: AutoCAD Mechanical 2004 DX|Company: Autodesk"
 90
        0
280
     0
281
     0
  0
CLASS
  1
ACMIDSTANDARDISO
  2
AcmIdStdISO
  3
"Amdt_StdImp|Product Description: AutoCAD Mechanical 2004 DX|Company: Autodesk"
 90
        0
280
     0
281
     0
  0
CLASS
  1
ACMDATUMSTANDARDISO
  2
AcmDatumStdISO
  3
"Amdt_StdImp|Product Description: AutoCAD Mechanical 2004 DX|Company: Autodesk"
 90
        0
280
     0
281
     0
  0
CLASS
  1
ACMBOMSTANDARDISO
  2
AcmBOMStdISO
  3
"Amdt_StdImp|Product Description: AutoCAD Mechanical 2004 DX|Company: Autodesk"
 90
        0
280
     0
281
     0
  0
CLASS
  1
ACMDETAILSTANDARDISO
  2
AmdtDetailSymStdISO
  3
"Amdt_StdImp|Product Description: AutoCAD Mechanical 2004 DX|Company: Autodesk"
 90
        0
280
     0
281
     0
  0
CLASS
  1
ACMSECTIONSTANDARDISO
  2
AmdtSectionSymStdISO
  3
"Amdt_StdImp|Product Description: AutoCAD Mechanical 2004 DX|Company: Autodesk"
 90
        0
280
     0
281
     0
  0
CLASS
  1
ACMCENTERLINESTANDARDISO
  2
AmdtCenterLineStdISO
  3
"Amdt_StdImp|Product Description: AutoCAD Mechanical 2004 DX|Company: Autodesk"
 90
        0
280
     0
281
     0
  0
CLASS
  1
ACMNOTESTANDARDISO
  2
AmdtNoteStdISO
  3
"Amdt_StdImp|Product Description: AutoCAD Mechanical 2004 DX|Company: Autodesk"
 90
        0
280
     0
281
     0
  0
CLASS
  1
ACAMGLAYSTD
  2
AcAmgLayStd
  3
"AcAmgLayStd|Product Description: AutoCAD Mechanical 2000|Company: Autodesk"
 90
        0
280
     0
281
     0
  0
CLASS
  1
ACAMGDIMSTD
  2
AcAmgDimStd
  3
"AcAmgDimStd|Product Description: AutoCAD Mechanical 2000|Company: Autodesk"
 90
        0
280
     0
281
     0
  0
CLASS
  1
ACAMGHOLECHARTSTDISO
  2
AcAmgHoleChartStdISO
  3
ACMSYMBB_MODULE_NAME
 90
        0
280
     0
281
     0
  0
CLASS
  1
ACAMGTITLESTD
  2
AcAmgTitleStd
  3
"TITLEAPP"
 90
        0
280
     0
281
     0
  0
CLASS
  1
LAYER_INDEX
  2
AcDbLayerIndex
  3
ObjectDBX Classes
 90
    32768
280
     0
281
     0
  0
CLASS
  1
IDBUFFER
  2
AcDbIdBuffer
  3
ObjectDBX Classes
 90
    32768
280
     0
281
     0
  0
CLASS
  1
DICTIONARYVAR
  2
AcDbDictionaryVar
  3
ObjectDBX Classes
 90
        0
280
     0
281
     0
  0
CLASS
  1
ACAMGFILTERDAT
  2
AcAmgFilterDat
  3
"AcadM|Product Description: AutoCAD Mechanical 2000|Company: Autodesk"
 90
    32768
280
     0
281
     0
  0
CLASS
  1
AMDTFORMULAUPDATEDISPATCHER
  2
AmdtFormulaUpdateDispatcher
  3
AcMeServices
 90
        0
280
     0
281
     0
  0
CLASS
  1
DIMASSOC
  2
AcDbDimAssoc
  3
"AcDbDimAssoc|Product Desc:     AcDim ARX App For Dimension|Company:          Autodesk, Inc.|WEB Address:      www.autodesk.com"
 90
        0
280
     0
281
     0
  0
CLASS
  1
AMDTNOTE
  2
AmdtNote
  3
"AcmSymBB|Product Description: AutoCAD Mechanical 2004 DX|Company: Autodesk"
 90
     1023
280
     0
281
     1
  0
CLASS
  1
TABLESTYLE
  2
AcDbTableStyle
  3
ObjectDBX Classes
 90
     2047
280
     0
281
     0
  0
CLASS
  1
AM_DRAWING_MGR
  2
AcDmDwgMgr
  3
AcMechDwgViewMgmt
 90
        0
280
     0
281
     0
  0
CLASS
  1
AM_DWG_DOCUMENT
  2
AcDmDwgDocument
  3
AcMechDwgViewMgmt
 90
        0
280
     0
281
     0
  0
CLASS
  1
AM_DWG_SHEET
  2
AcDmSheet
  3
AcMechDwgViewMgmt
 90
        0
280
     0
281
     0
  0
CLASS
  1
AM_VIEWDIMPARMAP
  2
AcDmViewDimParMap
  3
AcMechDwgViewMgmt
 90
        0
280
     0
281
     0
  0
CLASS
  1
AM_DWGMGR_NAME
  2
AcDmDwgMgrName
  3
AcMechDwgViewMgmt
 90
        0
280
     0
281
     0
  0
CLASS
  1
AMDTMENUSTATEMGR
  2
AmdtMenuStateMgr
  3
McadcomServices
 90
        0
280
     0
281
     0
  0
CLASS
  1
AMDTMCOMMENUSTATE
  2
AmdtMcomMenuState
  3
McadcomServices
 90
        0
280
     0
281
     0
  0
CLASS
  1
MAPIAMMOUDLE
  2
MApiAmModule
  3
MApiAmServices
 90
        0
280
     0
281
     0
  0
CLASS
  1
AMDTADMENUSTATE
  2
AmdtAdMenuState
  3
DesignerServices
 90
        0
280
     0
281
     0
  0
CLASS
  1
ADAPPL
  2
AcAdAppl
  3
DesignerServices
 90
        0
280
     0
281
     0
  0
CLASS
  1
DEPMGR
  2
AcAdDepMgr
  3
DesignerServices
 90
        0
280
     0
281
     0
  0
CLASS
  1
PARAMMGR
  2
AcAdParamMgr
  3
DesignerServices
 90
        0
280
     0
281
     0
  0
CLASS
  1
PARAMSCOPE
  2
AcAdParamScope
  3
DesignerServices
 90
        0
280
     0
281
     0
  0
CLASS
  1
NAMEDAPPL
  2
AcAdNamedAppl
  3
DesignerServices
 90
        0
280
     0
281
     0
  0
CLASS
  1
AMDTDMMENUSTATE
  2
AmdtDmMenuState
  3
AcMechDwgViewMgmt
 90
        0
280
     0
281
     0
  0
CLASS
  1
AMDTAMMENUSTATE
  2
AmdtAmMenuState
  3
DesignerAssemblies
 90
        0
280
     0
281
     0
  0
CLASS
  1
ACAMPROJECT
  2
AcAmProject
  3
DesignerAssemblies
 90
        0
280
     0
281
     0
  0
CLASS
  1
ACAMGRCOMPDEF
  2
AcAmGrCompDef
  3
DesignerAssemblies
 90
        0
280
     0
281
     0
  0
CLASS
  1
ACCMCONTEXT
  2
AcCmContext
  3
DesignerAssemblies
 90
        0
280
     0
281
     0
  0
CLASS
  1
ACAMCOMPDEF
  2
AcAmCompDef
  3
DesignerAssemblies
 90
        0
280
     0
281
     0
  0
CLASS
  1
ACAMCOMPDEFMGR
  2
AcAmCompDefMgr
  3
DesignerAssemblies
 90
        0
280
     0
281
     0
  0
CLASS
  1
AMCONTEXTMGR
  2
AcAmContextMgr
  3
DesignerAssemblies
 90
        0
280
     0
281
     0
  0
CLASS
  1
ACAMCONTEXTMODELER
  2
AcAmContextModeler
  3
DesignerAssemblies
 90
        0
280
     0
281
     0
  0
CLASS
  1
ACMTHREADLINESTANDARDISO
  2
AmdtThreadLineStdISO
  3
"Amdt_StdImp|Product Description: AutoCAD Mechanical 2004 DX|Company: Autodesk"
 90
        0
280
     0
281
     0
  0
CLASS
  1
CATALOGSTATE
  2
AcAmCatalogState
  3
DesignerAssemblies
 90
        0
280
     0
281
     0
  0
CLASS
  1
ACAMGRCOMPDEFSET
  2
AcAmGrCompDefSet
  3
DesignerAssemblies
 90
        0
280
     0
281
     0
  0
CLASS
  1
AMDTBROWSERDBTAB
  2
AmdtBrowserDbTab
  3
McadcomServices
 90
        0
280
     0
281
     0
  0
CLASS
  1
CBROWSERAPPOBJECT
  2
CBrowserAppObject
  3
McadcomServices
 90
        0
280
     0
281
     0
  0
CLASS
  1
DM_PLACEHOLDER
  2
AcDmSelsetPlaceholder
  3
AcMechDwgViewMgmt
 90
        0
280
     0
281
     0
  0
CLASS
  1
VAACXREFPANELOBJECT
  2
VaAcXREFPanelObject
  3
VAAC_ADDIN
 90
    32768
280
     0
281
     0
  0
CLASS
  1
VAACIMAGEINVENTORY
  2
VaAcImageInventory
  3
VAAC_ADDIN
 90
    32768
280
     0
281
     0
  0
CLASS
  1
AMDTEDGESTANDARDISO13715
  2
AmdtEdgeStdISO13715
  3
"Amdt_StdImp|Product Description: AutoCAD Mechanical 2004 DX|Company: Autodesk"
 90
        0
280
     0
281
     0
  0
CLASS
  1
AMDTNOTETEMPLATEDB
  2
AmdtNoteTemplateDB
  3
AMDT_STDIMP_MODULE_NAME
 90
        0
280
     0
281
     0
  0
CLASS
  1
ACRFATTGENMGR
  2
AcRfAttGeneralMgr
  3
AcAttribServices
 90
        0
280
     0
281
     0
  0
CLASS
  1
SORTENTSTABLE
  2
AcDbSortentsTable
  3
ObjectDBX Classes
 90
        0
280
     0
281
     0
  0
CLASS
  1
ACMDIMBREAKPERSREACTOR
  2
AcmDimBreakPersReactor
  3
amgDimApp().moduleName()
 90
    33791
280
     0
281
     0
  0
ENDSEC
  0
SECTION
  2
TABLES
  0
TABLE
  2
VPORT
  5
8
330
0
100
AcDbSymbolTable
 70
     4
  0
VPORT
  5
5CBD
330
8
100
AcDbSymbolTableRecord
100
AcDbViewportTableRecord
  2
*Active
 70
     0
 10
0.0
 20
0.0
 11
1.0
 21
1.0
 12
748.2695217051068
 22
127.1775977125829
 13
0.0
 23
0.0
 14
2.5
 24
2.5
 15
10.0
 25
10.0
 16
0.0
 26
0.0
 36
1.0
 17
0.0
 27
0.0
 37
0.0
 40
140.2148627762231
 41
1.81766917293233
 42
50.0
 43
0.0
 44
0.0
 50
0.0
 51
0.0
 71
     0
 72
   100
 73
     1
 74
     3
 75
     0
 76
     0
 77
     0
 78
     0
281
     0
 65
     1
110
0.0
120
0.0
130
0.0
111
1.0
121
0.0
131
0.0
112
0.0
122
1.0
132
0.0
 79
     0
146
0.0
  0
ENDTAB
  0
TABLE
  2
LTYPE
  5
5
330
0
100
AcDbSymbolTable
 70
    14
  0
LTYPE
  5
14
330
5
100
AcDbSymbolTableRecord
100
AcDbLinetypeTableRecord
  2
ByBlock
 70
     0
  3

 72
    65
 73
     0
 40
0.0
  0
LTYPE
  5
15
330
5
100
AcDbSymbolTableRecord
100
AcDbLinetypeTableRecord
  2
ByLayer
 70
     0
  3

 72
    65
 73
     0
 40
0.0
  0
LTYPE
  5
16
330
5
100
AcDbSymbolTableRecord
100
AcDbLinetypeTableRecord
  2
Continuous
 70
     0
  3
Solid line
 72
    65
 73
     0
 40
0.0
  0
LTYPE
  5
4D
330
5
100
AcDbSymbolTableRecord
100
AcDbLinetypeTableRecord
  2
AM_ISO02W050
 70
     0
  3
__ __ __ __ __ __ __ __ __ __ __ __ __ __ __
 72
    65
 73
     2
 40
7.5
 49
6.0
 74
     0
 49
-1.5
 74
     0
  0
LTYPE
  5
4E
330
5
100
AcDbSymbolTableRecord
100
AcDbLinetypeTableRecord
  2
AM_ISO08W050
 70
     0
  3
____ . ____ . ____ . ____ . ____ . ____ . ____
 72
    65
 73
     4
 40
18.0
 49
12.0
 74
     0
 49
-1.5
 74
     0
 49
3.0
 74
     0
 49
-1.5
 74
     0
  0
LTYPE
  5
4F
330
5
100
AcDbSymbolTableRecord
100
AcDbLinetypeTableRecord
  2
AM_ISO09W050
 70
     0
  3
_____ . . _____ . . _____ . . ____ .. ____
 72
    65
 73
     6
 40
22.5
 49
12.0
 74
     0
 49
-1.5
 74
     0
 49
3.0
 74
     0
 49
-1.5
 74
     0
 49
3.0
 74
     0
 49
-1.5
 74
     0
  0
LTYPE
  5
50
330
5
100
AcDbSymbolTableRecord
100
AcDbLinetypeTableRecord
  2
Amconstr
 70
     0
  3
_______________________
 72
    65
 73
     2
 40
9999.0
 49
9999.0
 74
     0
 49
0.0
 74
     0
  0
LTYPE
  5
51
330
5
100
AcDbSymbolTableRecord
100
AcDbLinetypeTableRecord
  2
AM_ISO08W050x2
 70
     0
  3
__ . __ . __ . __ . __ . __
 72
    65
 73
     4
 40
9.0
 49
6.0
 74
     0
 49
-0.75
 74
     0
 49
1.5
 74
     0
 49
-0.75
 74
     0
  0
LTYPE
  5
52
330
5
100
AcDbSymbolTableRecord
100
AcDbLinetypeTableRecord
  2
AM_ISO02W050x2
 70
     0
  3
 _ _ _ _ _ _ _ _ _ _ _ _
 72
    65
 73
     2
 40
3.75
 49
3.0
 74
     0
 49
-0.75
 74
     0
  0
LTYPE
  5
55
330
5
100
AcDbSymbolTableRecord
100
AcDbLinetypeTableRecord
  2
Amzigzag
 70
     0
  3
/\/-/\/-/\/-/\/-/\/-/\/
 72
    65
 73
     2
 40
11.0001
 49
0.0001
 74
     4
 75
   135
340
54
 46
0.04
 50
0.0
 44
0.0
 45
0.0
 49
-11.0
 74
     0
  0
LTYPE
  5
63
330
5
100
AcDbSymbolTableRecord
100
AcDbLinetypeTableRecord
  2
ACISOWELD
 70
     0
  3
_ _ _ _ _
 72
    65
 73
     2
 40
2.0
 49
2.0
 74
     0
 49
-1.0
 74
     0
  0
LTYPE
  5
64
330
5
100
AcDbSymbolTableRecord
100
AcDbLinetypeTableRecord
  2
ACISOTGB
 70
     0
  3
__ . . __ . .
 72
    65
 73
     6
 40
9.0
 49
4.0
 74
     0
 49
-1.0
 74
     0
 49
1.0
 74
     0
 49
-1.0
 74
     0
 49
1.0
 74
     0
 49
-1.0
 74
     0
  0
LTYPE
  5
65
330
5
100
AcDbSymbolTableRecord
100
AcDbLinetypeTableRecord
  2
ACISOTGL
 70
     0
  3
_ _ _ _ _
 72
    65
 73
     2
 40
3.0
 49
2.0
 74
     0
 49
-1.0
 74
     0
  0
LTYPE
  5
68
330
5
100
AcDbSymbolTableRecord
100
AcDbLinetypeTableRecord
  2
CENTER
 70
     0
  3
__ . __
 72
    65
 73
     4
 40
7.0
 49
4.0
 74
     0
 49
-1.0
 74
     0
 49
1.0
 74
     0
 49
-1.0
 74
     0
  0
LTYPE
  5
6A6
330
5
100
AcDbSymbolTableRecord
100
AcDbLinetypeTableRecord
  2
HIDDEN
 70
     0
  3
Hidden __ __ __ __ __ __ __ __ __ __ __ __ __ _
 72
    65
 73
     2
 40
9.524999999999998
 49
6.349999999999999
 74
     0
 49
-3.174999999999999
 74
     0
  0
LTYPE
  5
6A7
330
5
100
AcDbSymbolTableRecord
100
AcDbLinetypeTableRecord
  2
PHANTOM2
 70
     0
  3
Phantom (.5x) ___ _ _ ___ _ _ ___ _ _ ___ _ _
 72
    65
 73
     6
 40
31.75
 49
15.875
 74
     0
 49
-3.174999999999999
 74
     0
 49
3.174999999999999
 74
     0
 49
-3.174999999999999
 74
     0
 49
3.174999999999999
 74
     0
 49
-3.174999999999999
 74
     0
  0
ENDTAB
  0
TABLE
  2
LAYER
  5
2
102
{ACAD_XDICTIONARY
360
A9F
102
}
330
0
100
AcDbSymbolTable
 70
     7
  0
LAYER
  5
10
330
2
100
AcDbSymbolTableRecord
100
AcDbLayerTableRecord
  2
0
 70
     0
 62
     7
  6
Continuous
370
    -3
390
F
  0
LAYER
  5
42A
330
2
100
AcDbSymbolTableRecord
100
AcDbLayerTableRecord
  2
AM_5
 70
     0
 62
     5
  6
Continuous
370
    50
390
F
  0
LAYER
  5
43E
330
2
100
AcDbSymbolTableRecord
100
AcDbLayerTableRecord
  2
Defpoints
 70
     0
 62
     7
  6
Continuous
290
     0
370
    -3
390
F
  0
LAYER
  5
AD5
330
2
100
AcDbSymbolTableRecord
100
AcDbLayerTableRecord
  2
AM_VIS
 70
     0
 62
     7
  6
Continuous
370
    50
390
F
  0
LAYER
  5
AD7
330
2
100
AcDbSymbolTableRecord
100
AcDbLayerTableRecord
  2
AM_4
 70
     0
 62
     3
  6
Continuous
370
    25
390
F
  0
LAYER
  5
1B10
330
2
100
AcDbSymbolTableRecord
100
AcDbLayerTableRecord
  2
AM_7
 70
     0
 62
     1
  6
CENTER
370
    25
390
F
  0
LAYER
  5
59C4
330
2
100
AcDbSymbolTableRecord
100
AcDbLayerTableRecord
  2
LOGO
 70
     0
 62
     7
  6
Continuous
370
    -3
390
F
  0
ENDTAB
  0
TABLE
  2
STYLE
  5
3
330
0
100
AcDbSymbolTable
 70
     7
  0
STYLE
  5
11
330
3
100
AcDbSymbolTableRecord
100
AcDbTextStyleTableRecord
  2
STANDARD
 70
     0
 40
0.0
 41
1.0
 50
0.0
 71
     0
 42
3.5
  3
ISOCP.SHX
  4
CHINESET.SHX
  0
STYLE
  5
54
330
3
100
AcDbSymbolTableRecord
100
AcDbTextStyleTableRecord
  2

 70
     1
 40
0.0
 41
1.0
 50
0.0
 71
     0
 42
2.5
  3
ltypeshp.shx
  4

  0
STYLE
  5
56
330
3
100
AcDbSymbolTableRecord
100
AcDbTextStyleTableRecord
  2
ACISOTS
 70
     0
 40
1.0
 41
1.0
 50
0.0
 71
     0
 42
2.5
  3
isocp.shx
  4
chineset.shx
  0
STYLE
  5
62
330
3
100
AcDbSymbolTableRecord
100
AcDbTextStyleTableRecord
  2
ACISOGDT
 70
     0
 40
0.0
 41
1.0
 50
0.0
 71
     0
 42
3.5
  3
amgdt.shx
  4

  0
STYLE
  5
59C5
330
3
100
AcDbSymbolTableRecord
100
AcDbTextStyleTableRecord
  2
CHINESET
 70
     0
 40
0.0
 41
1.0
 50
0.0
 71
     0
 42
4.0
  3
simplex.shx
  4
chineset.shx
  0
ENDTAB
  0
TABLE
  2
VIEW
  5
6
330
0
100
AcDbSymbolTable
 70
     0
  0
ENDTAB
  0
TABLE
  2
UCS
  5
7
330
0
100
AcDbSymbolTable
 70
     0
  0
ENDTAB
  0
TABLE
  2
APPID
  5
9
330
0
100
AcDbSymbolTable
 70
    26
  0
APPID
  5
12
330
9
100
AcDbSymbolTableRecord
100
AcDbRegAppTableRecord
  2
ACAD
 70
     0
  0
APPID
  5
30
330
9
100
AcDbSymbolTableRecord
100
AcDbRegAppTableRecord
  2
MCAD_NO_VIS
 70
     0
  0
APPID
  5
31
330
9
100
AcDbSymbolTableRecord
100
AcDbRegAppTableRecord
  2
ACAD_TEMP_GRAPHIC
 70
     0
  0
APPID
  5
42
330
9
100
AcDbSymbolTableRecord
100
AcDbRegAppTableRecord
  2
ACATTRIBSERVICES
 70
     0
  0
APPID
  5
20A
330
9
100
AcDbSymbolTableRecord
100
AcDbRegAppTableRecord
  2
GENIUS_GENODEF_13
 70
     0
  0
APPID
  5
20B
330
9
100
AcDbSymbolTableRecord
100
AcDbRegAppTableRecord
  2
GENIUS_GENOBJ-N-HTC_13
 70
     0
  0
APPID
  5
20C
330
9
100
AcDbSymbolTableRecord
100
AcDbRegAppTableRecord
  2
GENIUS_GENHATCH_13
 70
     0
  0
APPID
  5
6A9
330
9
100
AcDbSymbolTableRecord
100
AcDbRegAppTableRecord
  2
AD_DRAW
 70
     0
  0
APPID
  5
6C7
330
9
100
AcDbSymbolTableRecord
100
AcDbRegAppTableRecord
  2
DESIGNERASSEMBLIES
 70
     0
  0
APPID
  5
6CC
330
9
100
AcDbSymbolTableRecord
100
AcDbRegAppTableRecord
  2
ACADM_DIM_EDIT
 70
     0
  0
APPID
  5
6CD
330
9
100
AcDbSymbolTableRecord
100
AcDbRegAppTableRecord
  2
AMDT_DM_ADJ
 70
     0
  0
APPID
  5
A4A
330
9
100
AcDbSymbolTableRecord
100
AcDbRegAppTableRecord
  2
ACAD_DSTYLE_DIMTEXT_FILL
 70
     0
  0
APPID
  5
ADA
330
9
100
AcDbSymbolTableRecord
100
AcDbRegAppTableRecord
  2
ACAD_PSEXT
 70
     0
  0
APPID
  5
1B16
330
9
100
AcDbSymbolTableRecord
100
AcDbRegAppTableRecord
  2
GENIUS_GENOLIS_13
 70
     0
  0
APPID
  5
1B17
330
9
100
AcDbSymbolTableRecord
100
AcDbRegAppTableRecord
  2
GENIUS_GENOBJ-N-CRS_13
 70
     0
  0
APPID
  5
1B18
330
9
100
AcDbSymbolTableRecord
100
AcDbRegAppTableRecord
  2
GENIUS_GENOENT_13
 70
     0
  0
APPID
  5
1B19
330
9
100
AcDbSymbolTableRecord
100
AcDbRegAppTableRecord
  2
GENIUS_GENOREF_13
 70
     0
  0
APPID
  5
1BDB
330
9
100
AcDbSymbolTableRecord
100
AcDbRegAppTableRecord
  2
GENIUS_GENOBJ-N-CEN_13
 70
     0
  0
APPID
  5
1BDC
330
9
100
AcDbSymbolTableRecord
100
AcDbRegAppTableRecord
  2
GENIUS_GENCEN_19
 70
     0
  0
APPID
  5
48C2
330
9
100
AcDbSymbolTableRecord
100
AcDbRegAppTableRecord
  2
AcAecLayerStandard
 70
     0
  0
APPID
  5
5343
330
9
100
AcDbSymbolTableRecord
100
AcDbRegAppTableRecord
  2
GENIUS_GENDTOL_13
 70
     0
  0
APPID
  5
548C
330
9
100
AcDbSymbolTableRecord
100
AcDbRegAppTableRecord
  2
ACAD_DIMASSOC_DIMLFAC
 70
     0
  0
APPID
  5
548D
330
9
100
AcDbSymbolTableRecord
100
AcDbRegAppTableRecord
  2
ACAD_DIMASSOC_CALC_DIMLFAC
 70
     0
  0
APPID
  5
548E
330
9
100
AcDbSymbolTableRecord
100
AcDbRegAppTableRecord
  2
ACAD_DIMASSOC_OVERRIDDEN_DIMLFAC
 70
     0
  0
APPID
  5
59C6
330
9
100
AcDbSymbolTableRecord
100
AcDbRegAppTableRecord
  2
GENIUS_GENREC_14
 70
     0
  0
APPID
  5
59C7
330
9
100
AcDbSymbolTableRecord
100
AcDbRegAppTableRecord
  2
GENIUS_GENOBJ-N-REC_13
 70
     0
  0
ENDTAB
  0
TABLE
  2
DIMSTYLE
  5
A
330
0
100
AcDbSymbolTable
 70
    11
100
AcDbDimStyleTable
 71
     2
340
6B
340
75
  0
DIMSTYLE
105
6B
330
A
100
AcDbSymbolTableRecord
100
AcDbDimStyleTableRecord
  2
AM_ISO
 70
     0
  4
"
 41
3.0
 42
1.0
 43
5.0
 44
1.5
 47
0.1
 48
0.1
 73
     0
 74
     0
 77
     1
 78
     8
 79
     2
140
3.5
141
3.0
143
0.0393701
146
0.71
147
0.8
172
     1
176
   256
177
   256
178
   256
271
     2
272
     2
283
     0
284
     8
340
11
371
    -1
372
    -1
  0
DIMSTYLE
105
6C
330
A
100
AcDbSymbolTableRecord
100
AcDbDimStyleTableRecord
  2
AM_ISO$3
 70
     0
  4
"
 41
3.0
 42
1.0
 43
5.0
 44
1.5
 47
0.1
 48
0.1
 73
     0
 77
     1
 78
     8
 79
     2
140
3.5
141
3.0
143
0.0393701
146
0.71
147
0.8
176
   256
177
   256
178
   256
271
     2
272
     2
283
     0
284
     8
288
     1
289
     0
340
11
371
    -1
372
    -1
  0
DIMSTYLE
105
6D
330
A
100
AcDbSymbolTableRecord
100
AcDbDimStyleTableRecord
  2
AM_ISO$4
 70
     0
  4
"
 41
3.0
 42
1.0
 43
5.0
 44
1.5
 47
0.1
 48
0.1
 73
     0
 77
     1
 78
     8
 79
     2
140
3.5
141
3.0
143
0.0393701
146
0.71
147
0.8
176
   256
177
   256
178
   256
271
     2
272
     2
283
     0
284
     8
288
     1
289
     0
340
11
371
    -1
372
    -1
  0
DIMSTYLE
105
6E
330
A
100
AcDbSymbolTableRecord
100
AcDbDimStyleTableRecord
  2
AM_ISO$6
 70
     0
  4
"
 41
3.0
 42
1.0
 43
5.0
 44
1.5
 47
0.1
 48
0.1
 73
     0
 74
     0
 78
     8
 79
     2
140
3.5
141
3.0
143
0.0393701
146
0.71
147
0.8
172
     1
176
   256
177
   256
178
   256
271
     2
272
     2
283
     0
284
     8
340
11
371
    -1
372
    -1
  0
DIMSTYLE
105
6F
330
A
100
AcDbSymbolTableRecord
100
AcDbDimStyleTableRecord
  2
AM_ISO$7
 70
     0
  4
"
 41
3.0
 42
1.0
 43
5.0
 44
1.5
 47
0.1
 48
0.1
 73
     0
 74
     0
 77
     1
 78
     8
 79
     2
140
5.0
141
3.0
143
0.0393701
146
0.71
147
0.8
172
     1
176
   256
177
   256
178
   256
271
     2
272
     2
283
     0
284
     8
340
11
371
    -1
372
    -1
  0
DIMSTYLE
105
70
330
A
100
AcDbSymbolTableRecord
100
AcDbDimStyleTableRecord
  2
AM_ISO$SF
 70
     0
  4
"
 41
2.5
 42
1.0
 43
10.0
 44
1.0
 47
0.1
 48
0.1
 73
     0
 74
     0
 75
     1
 76
     1
 77
     1
 78
     8
 79
     2
140
3.5
141
0.0
143
0.0393701
146
0.71
147
1.5
172
     1
176
   256
177
   256
178
     2
271
     2
272
     3
274
     4
283
     0
284
     8
340
11
371
    -1
372
    -1
  0
DIMSTYLE
105
75
330
A
100
AcDbSymbolTableRecord
100
AcDbDimStyleTableRecord
  2
AM_ISO$SH
 70
     0
  4
"
 41
2.5
 42
1.0
 43
10.0
 44
1.0
 47
0.1
 48
0.1
 73
     0
 74
     0
 75
     1
 76
     1
 77
     1
 78
     8
 79
     2
140
3.5
141
0.0
143
0.0393701
144
2.0
146
0.71
147
1.5
172
     1
173
     1
176
   256
177
   256
178
     2
271
     2
272
     3
274
     4
283
     0
284
     8
340
11
343
71
371
    -1
372
    -1
  0
DIMSTYLE
105
1CDB
102
{ACAD_REACTORS
330
1D05
330
1D2B
330
1CDF
330
1D51
330
1D80
330
1DAA
330
1EEA
330
1E74
330
1DFE
330
1DD4
330
1E4E
330
1E24
330
1EC4
330
1E9E
330
44AF
330
4489
330
4555
330
452F
330
53A5
330
53F3
330
5508
330
5540
330
5589
102
}
330
A
100
AcDbSymbolTableRecord
100
AcDbDimStyleTableRecord
  2
AM_ISO$0
 70
     0
  4
"
 41
3.0
 42
1.0
 43
5.0
 44
1.5
 47
0.1
 48
0.1
 73
     0
 74
     0
 77
     1
 78
     8
 79
     2
140
3.5
141
3.0
143
0.0393701
146
0.71
147
0.8
172
     1
176
   256
177
   256
178
   256
271
     2
272
     2
283
     0
284
     8
340
11
371
    -1
372
    -1
  0
DIMSTYLE
105
5454
330
A
100
AcDbSymbolTableRecord
100
AcDbDimStyleTableRecord
  2
AM_ISO$2
 70
     0
  4
"
 41
3.0
 42
1.0
 43
5.0
 44
1.5
 47
0.1
 48
0.1
 73
     0
 74
     0
 77
     1
 78
     8
 79
     2
140
3.5
141
3.0
143
0.0393701
146
0.71
147
0.8
172
     1
176
   256
177
   256
178
   256
271
     2
272
     2
283
     0
284
     8
340
11
371
    -1
372
    -1
  0
ENDTAB
  0
TABLE
  2
BLOCK_RECORD
  5
1
330
0
100
AcDbSymbolTable
 70
    36
  0
BLOCK_RECORD
  5
1F
102
{ACAD_XDICTIONARY
360
7D
102
}
330
1
100
AcDbSymbolTableRecord
100
AcDbBlockTableRecord
  2
*Model_Space
340
22
  0
BLOCK_RECORD
  5
1B
330
1
100
AcDbSymbolTableRecord
100
AcDbBlockTableRecord
  2
*Paper_Space
340
1E
  0
BLOCK_RECORD
  5
23
330
1
100
AcDbSymbolTableRecord
100
AcDbBlockTableRecord
  2
*Paper_Space0
340
26
  0
BLOCK_RECORD
  5
71
330
1
100
AcDbSymbolTableRecord
100
AcDbBlockTableRecord
  2
GENAXEH
340
0
  0
BLOCK_RECORD
  5
1CE0
330
1
100
AcDbSymbolTableRecord
100
AcDbBlockTableRecord
  2
*D2
340
0
  0
BLOCK_RECORD
  5
1D06
330
1
100
AcDbSymbolTableRecord
100
AcDbBlockTableRecord
  2
*D3
340
0
  0
BLOCK_RECORD
  5
1D2C
330
1
100
AcDbSymbolTableRecord
100
AcDbBlockTableRecord
  2
*D4
340
0
  0
BLOCK_RECORD
  5
1D52
330
1
100
AcDbSymbolTableRecord
100
AcDbBlockTableRecord
  2
*D5
340
0
  0
BLOCK_RECORD
  5
1D81
330
1
100
AcDbSymbolTableRecord
100
AcDbBlockTableRecord
  2
*D6
340
0
  0
BLOCK_RECORD
  5
1DAB
330
1
100
AcDbSymbolTableRecord
100
AcDbBlockTableRecord
  2
*D7
340
0
  0
BLOCK_RECORD
  5
1DD5
330
1
100
AcDbSymbolTableRecord
100
AcDbBlockTableRecord
  2
*D8
340
0
  0
BLOCK_RECORD
  5
1DFF
330
1
100
AcDbSymbolTableRecord
100
AcDbBlockTableRecord
  2
*D9
340
0
  0
BLOCK_RECORD
  5
1E25
330
1
100
AcDbSymbolTableRecord
100
AcDbBlockTableRecord
  2
*D10
340
0
  0
BLOCK_RECORD
  5
1E4F
330
1
100
AcDbSymbolTableRecord
100
AcDbBlockTableRecord
  2
*D11
340
0
  0
BLOCK_RECORD
  5
1E75
330
1
100
AcDbSymbolTableRecord
100
AcDbBlockTableRecord
  2
*D12
340
0
  0
BLOCK_RECORD
  5
1E9F
330
1
100
AcDbSymbolTableRecord
100
AcDbBlockTableRecord
  2
*D13
340
0
  0
BLOCK_RECORD
  5
1EC5
330
1
100
AcDbSymbolTableRecord
100
AcDbBlockTableRecord
  2
*D14
340
0
  0
BLOCK_RECORD
  5
1EEB
330
1
100
AcDbSymbolTableRecord
100
AcDbBlockTableRecord
  2
*D15
340
0
  0
BLOCK_RECORD
  5
448A
330
1
100
AcDbSymbolTableRecord
100
AcDbBlockTableRecord
  2
*D16
340
0
  0
BLOCK_RECORD
  5
44B0
330
1
100
AcDbSymbolTableRecord
100
AcDbBlockTableRecord
  2
*D17
340
0
  0
BLOCK_RECORD
  5
4530
330
1
100
AcDbSymbolTableRecord
100
AcDbBlockTableRecord
  2
*D18
340
0
  0
BLOCK_RECORD
  5
4556
330
1
100
AcDbSymbolTableRecord
100
AcDbBlockTableRecord
  2
*D19
340
0
  0
BLOCK_RECORD
  5
53A6
330
1
100
AcDbSymbolTableRecord
100
AcDbBlockTableRecord
  2
*D20
340
0
  0
BLOCK_RECORD
  5
53F4
330
1
100
AcDbSymbolTableRecord
100
AcDbBlockTableRecord
  2
*D21
340
0
  0
BLOCK_RECORD
  5
5509
330
1
100
AcDbSymbolTableRecord
100
AcDbBlockTableRecord
  2
*D22
340
0
  0
BLOCK_RECORD
  5
5541
330
1
100
AcDbSymbolTableRecord
100
AcDbBlockTableRecord
  2
*D23
340
0
  0
BLOCK_RECORD
  5
558A
330
1
100
AcDbSymbolTableRecord
100
AcDbBlockTableRecord
  2
*D24
340
0
  0
BLOCK_RECORD
  5
5BD7
330
1
100
AcDbSymbolTableRecord
100
AcDbBlockTableRecord
  2
*S25
340
0
  0
BLOCK_RECORD
  5
5BDF
330
1
100
AcDbSymbolTableRecord
100
AcDbBlockTableRecord
  2
*S26
340
0
102
{BLKREFS
331
4444
102
}
  0
BLOCK_RECORD
  5
5BE7
330
1
100
AcDbSymbolTableRecord
100
AcDbBlockTableRecord
  2
*S27
340
0
102
{BLKREFS
331
451E
102
}
  0
BLOCK_RECORD
  5
5BEF
330
1
100
AcDbSymbolTableRecord
100
AcDbBlockTableRecord
  2
*S28
340
0
102
{BLKREFS
331
5630
102
}
  0
BLOCK_RECORD
  5
5BF7
330
1
100
AcDbSymbolTableRecord
100
AcDbBlockTableRecord
  2
*S29
340
0
102
{BLKREFS
331
5634
102
}
  0
BLOCK_RECORD
  5
5BFF
330
1
100
AcDbSymbolTableRecord
100
AcDbBlockTableRecord
  2
*S30
340
0
102
{BLKREFS
331
563F
102
}
  0
BLOCK_RECORD
  5
5C07
330
1
100
AcDbSymbolTableRecord
100
AcDbBlockTableRecord
  2
*S31
340
0
102
{BLKREFS
331
5772
102
}
  0
BLOCK_RECORD
  5
5C0F
330
1
100
AcDbSymbolTableRecord
100
AcDbBlockTableRecord
  2
*S32
340
0
102
{BLKREFS
331
5773
102
}
  0
ENDTAB
  0
ENDSEC
  0
SECTION
  2
BLOCKS
  0
BLOCK
  5
20
330
1F
100
AcDbEntity
  8
0
100
AcDbBlockBegin
  2
*Model_Space
 70
     0
 10
0.0
 20
0.0
 30
0.0
  3
*Model_Space
  1

  0
ENDBLK
  5
21
330
1F
100
AcDbEntity
  8
0
100
AcDbBlockEnd
  0
BLOCK
  5
1C
330
1B
100
AcDbEntity
 67
     1
  8
0
100
AcDbBlockBegin
  2
*Paper_Space
 70
     0
 10
0.0
 20
0.0
 30
0.0
  3
*Paper_Space
  1

  0
ENDBLK
  5
1D
330
1B
100
AcDbEntity
 67
     1
  8
0
100
AcDbBlockEnd
  0
BLOCK
  5
24
330
23
100
AcDbEntity
  8
0
100
AcDbBlockBegin
  2
*Paper_Space0
 70
     0
 10
0.0
 20
0.0
 30
0.0
  3
*Paper_Space0
  1

  0
ENDBLK
  5
25
330
23
100
AcDbEntity
  8
0
100
AcDbBlockEnd
  0
BLOCK
  5
73
330
71
100
AcDbEntity
  8
0
100
AcDbBlockBegin
  2
GENAXEH
 70
     0
 10
0.0
 20
0.0
 30
0.0
  3
GENAXEH
  1

  0
LINE
  5
72
330
71
100
AcDbEntity
  8
0
100
AcDbLine
 10
-1.0
 20
0.0
 30
0.0
 11
1.0
 21
0.0
 31
0.0
  0
ENDBLK
  5
74
330
71
100
AcDbEntity
  8
0
100
AcDbBlockEnd
  0
BLOCK
  5
1CEA
330
1CE0
100
AcDbEntity
  8
0
100
AcDbBlockBegin
  2
*D2
 70
     1
 10
0.0
 20
0.0
 30
0.0
  3
*D2
  1

  0
LINE
  5
58AF
330
1CE0
100
AcDbEntity
  8
AM_5
100
AcDbLine
 10
690.8545436277363
 20
129.1390238870344
 30
0.0
 11
698.0183667432789
 21
129.1390238870344
 31
0.0
  0
LINE
  5
58B0
330
1CE0
100
AcDbEntity
  8
AM_5
100
AcDbLine
 10
690.8545436277363
 20
142.1390238870344
 30
0.0
 11
698.0183667432789
 21
142.1390238870344
 31
0.0
  0
LINE
  5
58B1
330
1CE0
100
AcDbEntity
  8
AM_5
100
AcDbLine
 10
696.9683667432789
 20
131.2390238870344
 30
0.0
 11
696.9683667432789
 21
140.0390238870344
 31
0.0
  0
SOLID
  5
58B2
330
1CE0
100
AcDbEntity
  8
AM_5
100
AcDbTrace
 10
696.6183667432789
 20
131.2390238870344
 30
0.0
 11
697.3183667432789
 21
131.2390238870344
 31
0.0
 12
696.9683667432789
 22
129.1390238870344
 32
0.0
 13
696.9683667432789
 23
129.1390238870344
 33
0.0
  0
SOLID
  5
58B3
330
1CE0
100
AcDbEntity
  8
AM_5
100
AcDbTrace
 10
696.6183667432789
 20
140.0390238870344
 30
0.0
 11
697.3183667432789
 21
140.0390238870344
 31
0.0
 12
696.9683667432789
 22
142.1390238870344
 32
0.0
 13
696.9683667432789
 23
142.1390238870344
 33
0.0
  0
MTEXT
  5
58B4
330
1CE0
100
AcDbEntity
  8
AM_5
100
AcDbMText
 10
695.1833667432789
 20
135.6390238870345
 30
0.0
 40
2.449999999999999
 41
0.0
 71
     5
 72
     1
  1
13
 11
0.0000000000000001
 21
1.0
 31
0.0
 73
     1
 44
1.0
1001
ACAD
1000
MTEXTBEGIN
1070
    73
1070
     1
1070
    44
1040
1.0
1070
    74
1070
     0
1000
MTEXTEND
  0
POINT
  5
58B5
330
1CE0
100
AcDbEntity
  8
Defpoints
 62
     0
100
AcDbPoint
 10
690.1545436277363
 20
129.1390238870344
 30
0.0
  0
POINT
  5
58B6
330
1CE0
100
AcDbEntity
  8
Defpoints
 62
     0
100
AcDbPoint
 10
690.1545436277363
 20
142.1390238870344
 30
0.0
  0
POINT
  5
58B7
330
1CE0
100
AcDbEntity
  8
Defpoints
 62
     0
100
AcDbPoint
 10
696.9683667432789
 20
142.1390238870344
 30
0.0
  0
ENDBLK
  5
1CEB
330
1CE0
100
AcDbEntity
  8
0
100
AcDbBlockEnd
  0
BLOCK
  5
1D10
330
1D06
100
AcDbEntity
  8
0
100
AcDbBlockBegin
  2
*D3
 70
     1
 10
0.0
 20
0.0
 30
0.0
  3
*D3
  1

  0
LINE
  5
58B8
330
1D06
100
AcDbEntity
  8
AM_5
100
AcDbLine
 10
690.8545436277363
 20
100.9744893828457
 30
0.0
 11
697.8388667360412
 21
100.9744893828457
 31
0.0
  0
LINE
  5
58B9
330
1D06
100
AcDbEntity
  8
AM_5
100
AcDbLine
 10
690.8545436277363
 20
110.9744893828457
 30
0.0
 11
697.8388667360412
 21
110.9744893828457
 31
0.0
  0
LINE
  5
58BA
330
1D06
100
AcDbEntity
  8
AM_5
100
AcDbLine
 10
696.7888667360412
 20
103.0744893828457
 30
0.0
 11
696.7888667360412
 21
108.8744893828457
 31
0.0
  0
SOLID
  5
58BB
330
1D06
100
AcDbEntity
  8
AM_5
100
AcDbTrace
 10
696.4388667360411
 20
103.0744893828457
 30
0.0
 11
697.1388667360412
 21
103.0744893828457
 31
0.0
 12
696.7888667360412
 22
100.9744893828457
 32
0.0
 13
696.7888667360412
 23
100.9744893828457
 33
0.0
  0
SOLID
  5
58BC
330
1D06
100
AcDbEntity
  8
AM_5
100
AcDbTrace
 10
696.4388667360411
 20
108.8744893828457
 30
0.0
 11
697.1388667360412
 21
108.8744893828457
 31
0.0
 12
696.7888667360412
 22
110.9744893828457
 32
0.0
 13
696.7888667360412
 23
110.9744893828457
 33
0.0
  0
MTEXT
  5
58BD
330
1D06
100
AcDbEntity
  8
AM_5
100
AcDbMText
 10
695.0038667360412
 20
105.9744893828458
 30
0.0
 40
2.449999999999999
 41
0.0
 71
     5
 72
     1
  1
10
 11
0.0000000000000001
 21
1.0
 31
0.0
 73
     1
 44
1.0
1001
ACAD
1000
MTEXTBEGIN
1070
    73
1070
     1
1070
    44
1040
1.0
1070
    74
1070
     0
1000
MTEXTEND
  0
POINT
  5
58BE
330
1D06
100
AcDbEntity
  8
Defpoints
 62
     0
100
AcDbPoint
 10
690.1545436277363
 20
100.9744893828457
 30
0.0
  0
POINT
  5
58BF
330
1D06
100
AcDbEntity
  8
Defpoints
 62
     0
100
AcDbPoint
 10
690.1545436277363
 20
110.9744893828457
 30
0.0
  0
POINT
  5
58C0
330
1D06
100
AcDbEntity
  8
Defpoints
 62
     0
100
AcDbPoint
 10
696.7888667360412
 20
110.9744893828457
 30
0.0
  0
ENDBLK
  5
1D11
330
1D06
100
AcDbEntity
  8
0
100
AcDbBlockEnd
  0
BLOCK
  5
1D36
330
1D2C
100
AcDbEntity
  8
0
100
AcDbBlockBegin
  2
*D4
 70
     1
 10
0.0
 20
0.0
 30
0.0
  3
*D4
  1

  0
LINE
  5
58C1
330
1D2C
100
AcDbEntity
  8
AM_5
100
AcDbLine
 10
690.1545436277363
 20
111.6744893828457
 30
0.0
 11
690.1545436277363
 21
116.4793307487364
 31
0.0
  0
LINE
  5
58C2
330
1D2C
100
AcDbEntity
  8
AM_5
100
AcDbLine
 10
662.6545436277362
 20
111.6744893828457
 30
0.0
 11
662.6545436277362
 21
116.4793307487364
 31
0.0
  0
LINE
  5
58C3
330
1D2C
100
AcDbEntity
  8
AM_5
100
AcDbLine
 10
688.0545436277363
 20
115.4293307487364
 30
0.0
 11
664.7545436277363
 21
115.4293307487364
 31
0.0
  0
SOLID
  5
58C4
330
1D2C
100
AcDbEntity
  8
AM_5
100
AcDbTrace
 10
688.0545436277363
 20
115.7793307487364
 30
0.0
 11
688.0545436277363
 21
115.0793307487364
 31
0.0
 12
690.1545436277363
 22
115.4293307487364
 32
0.0
 13
690.1545436277363
 23
115.4293307487364
 33
0.0
  0
SOLID
  5
58C5
330
1D2C
100
AcDbEntity
  8
AM_5
100
AcDbTrace
 10
664.7545436277363
 20
115.7793307487364
 30
0.0
 11
664.7545436277363
 21
115.0793307487364
 31
0.0
 12
662.6545436277362
 22
115.4293307487364
 32
0.0
 13
662.6545436277362
 23
115.4293307487364
 33
0.0
  0
MTEXT
  5
58C6
330
1D2C
100
AcDbEntity
  8
AM_5
100
AcDbMText
 10
676.4045436277362
 20
117.2145718904687
 30
0.0
 40
2.449999999999999
 41
0.0
 71
     5
 72
     1
  1
27.5
 73
     1
 44
1.0
1001
ACAD
1000
MTEXTBEGIN
1070
    73
1070
     1
1070
    44
1040
1.0
1070
    74
1070
     0
1000
MTEXTEND
  0
POINT
  5
58C7
330
1D2C
100
AcDbEntity
  8
Defpoints
 62
     0
100
AcDbPoint
 10
690.1545436277363
 20
110.9744893828457
 30
0.0
  0
POINT
  5
58C8
330
1D2C
100
AcDbEntity
  8
Defpoints
 62
     0
100
AcDbPoint
 10
662.6545436277362
 20
110.9744893828457
 30
0.0
  0
POINT
  5
58C9
330
1D2C
100
AcDbEntity
  8
Defpoints
 62
     0
100
AcDbPoint
 10
662.6545436277362
 20
115.4293307487364
 30
0.0
  0
ENDBLK
  5
1D37
330
1D2C
100
AcDbEntity
  8
0
100
AcDbBlockEnd
  0
BLOCK
  5
1D5C
330
1D52
100
AcDbEntity
  8
0
100
AcDbBlockBegin
  2
*D5
 70
     1
 10
0.0
 20
0.0
 30
0.0
  3
*D5
  1

  0
LINE
  5
58CA
330
1D52
100
AcDbEntity
  8
AM_5
100
AcDbLine
 10
661.9545436277363
 20
129.1390238870344
 30
0.0
 11
655.092312340814
 21
129.1390238870344
 31
0.0
  0
LINE
  5
58CB
330
1D52
100
AcDbEntity
  8
AM_5
100
AcDbLine
 10
664.4545436277362
 20
151.6390238870344
 30
0.0
 11
655.092312340814
 21
151.6390238870344
 31
0.0
  0
LINE
  5
58CC
330
1D52
100
AcDbEntity
  8
AM_5
100
AcDbLine
 10
656.142312340814
 20
131.2390238870344
 30
0.0
 11
656.142312340814
 21
149.5390238870344
 31
0.0
  0
SOLID
  5
58CD
330
1D52
100
AcDbEntity
  8
AM_5
100
AcDbTrace
 10
655.7923123408139
 20
131.2390238870344
 30
0.0
 11
656.4923123408139
 21
131.2390238870344
 31
0.0
 12
656.142312340814
 22
129.1390238870344
 32
0.0
 13
656.142312340814
 23
129.1390238870344
 33
0.0
  0
SOLID
  5
58CE
330
1D52
100
AcDbEntity
  8
AM_5
100
AcDbTrace
 10
655.7923123408139
 20
149.5390238870344
 30
0.0
 11
656.4923123408139
 21
149.5390238870344
 31
0.0
 12
656.142312340814
 22
151.6390238870344
 32
0.0
 13
656.142312340814
 23
151.6390238870344
 33
0.0
  0
MTEXT
  5
58CF
330
1D52
100
AcDbEntity
  8
AM_5
100
AcDbMText
 10
654.3570711990817
 20
140.3890238870346
 30
0.0
 40
2.449999999999999
 41
0.0
 71
     5
 72
     1
  1
22.5
 11
0.0000000000000001
 21
1.0
 31
0.0
 73
     1
 44
1.0
1001
ACAD
1000
MTEXTBEGIN
1070
    73
1070
     1
1070
    44
1040
1.0
1070
    74
1070
     0
1000
MTEXTEND
  0
POINT
  5
58D0
330
1D52
100
AcDbEntity
  8
Defpoints
 62
     0
100
AcDbPoint
 10
662.6545436277362
 20
129.1390238870344
 30
0.0
  0
POINT
  5
58D1
330
1D52
100
AcDbEntity
  8
Defpoints
 62
     0
100
AcDbPoint
 10
665.1545436277363
 20
151.6390238870344
 30
0.0
  0
POINT
  5
58D2
330
1D52
100
AcDbEntity
  8
Defpoints
 62
     0
100
AcDbPoint
 10
656.142312340814
 20
151.6390238870344
 30
0.0
  0
ENDBLK
  5
1D5D
330
1D52
100
AcDbEntity
  8
0
100
AcDbBlockEnd
  0
BLOCK
  5
1D8D
330
1D81
100
AcDbEntity
  8
0
100
AcDbBlockBegin
  2
*D6
 70
     1
 10
0.0
 20
0.0
 30
0.0
  3
*D6
  1

  0
LINE
  5
58D3
330
1D81
100
AcDbEntity
  8
AM_5
100
AcDbLine
 10
743.4827621468342
 20
100.7571387496235
 30
0.0
 11
743.4827621468342
 21
93.93715228071013
 31
0.0
  0
LINE
  5
58D4
330
1D81
100
AcDbEntity
  8
AM_5
100
AcDbLine
 10
748.4827621468342
 20
102.7571387496235
 30
0.0
 11
748.4827621468342
 21
93.93715228071013
 31
0.0
  0
LINE
  5
58D5
330
1D81
100
AcDbEntity
  8
AM_5
100
AcDbLine
 10
741.3827621468342
 20
94.98715228071011
 30
0.0
 11
739.2827621468342
 21
94.98715228071011
 31
0.0
  0
LINE
  5
58D6
330
1D81
100
AcDbEntity
  8
AM_5
100
AcDbLine
 10
750.5827621468342
 20
94.98715228071011
 30
0.0
 11
752.6827621468343
 21
94.98715228071011
 31
0.0
  0
LINE
  5
58D7
330
1D81
100
AcDbEntity
  8
AM_5
100
AcDbLine
 10
743.4827621468342
 20
94.98715228071011
 30
0.0
 11
748.4827621468342
 21
94.98715228071011
 31
0.0
  0
SOLID
  5
58D8
330
1D81
100
AcDbEntity
  8
AM_5
100
AcDbTrace
 10
741.3827621468342
 20
95.33715228071011
 30
0.0
 11
741.3827621468342
 21
94.63715228071013
 31
0.0
 12
743.4827621468342
 22
94.98715228071011
 32
0.0
 13
743.4827621468342
 23
94.98715228071011
 33
0.0
  0
SOLID
  5
58D9
330
1D81
100
AcDbEntity
  8
AM_5
100
AcDbTrace
 10
750.5827621468342
 20
95.33715228071011
 30
0.0
 11
750.5827621468342
 21
94.63715228071013
 31
0.0
 12
748.4827621468342
 22
94.98715228071011
 32
0.0
 13
748.4827621468342
 23
94.98715228071011
 33
0.0
  0
MTEXT
  5
58DA
330
1D81
100
AcDbEntity
  8
AM_5
100
AcDbMText
 10
745.9827621468342
 20
96.77215228071013
 30
0.0
 40
2.449999999999999
 41
0.0
 71
     5
 72
     1
  1
5
 73
     1
 44
1.0
1001
ACAD
1000
MTEXTBEGIN
1070
    73
1070
     1
1070
    44
1040
1.0
1070
    74
1070
     0
1000
MTEXTEND
  0
POINT
  5
58DB
330
1D81
100
AcDbEntity
  8
Defpoints
 62
     0
100
AcDbPoint
 10
743.4827621468342
 20
101.4571387496235
 30
0.0
  0
POINT
  5
58DC
330
1D81
100
AcDbEntity
  8
Defpoints
 62
     0
100
AcDbPoint
 10
748.4827621468342
 20
103.4571387496235
 30
0.0
  0
POINT
  5
58DD
330
1D81
100
AcDbEntity
  8
Defpoints
 62
     0
100
AcDbPoint
 10
748.4827621468342
 20
94.98715228071011
 30
0.0
  0
ENDBLK
  5
1D8E
330
1D81
100
AcDbEntity
  8
0
100
AcDbBlockEnd
  0
BLOCK
  5
1DB7
330
1DAB
100
AcDbEntity
  8
0
100
AcDbBlockBegin
  2
*D7
 70
     1
 10
0.0
 20
0.0
 30
0.0
  3
*D7
  1

  0
LINE
  5
58DE
330
1DAB
100
AcDbEntity
  8
AM_5
100
AcDbLine
 10
742.7827621468342
 20
101.4571387496235
 30
0.0
 11
735.7848144328129
 21
101.4571387496235
 31
0.0
  0
LINE
  5
58DF
330
1DAB
100
AcDbEntity
  8
AM_5
100
AcDbLine
 10
744.2827621468341
 20
106.9571387496235
 30
0.0
 11
735.7848144328129
 21
106.9571387496235
 31
0.0
  0
LINE
  5
58E0
330
1DAB
100
AcDbEntity
  8
AM_5
100
AcDbLine
 10
736.8348144328129
 20
103.5571387496235
 30
0.0
 11
736.8348144328129
 21
104.8571387496235
 31
0.0
  0
SOLID
  5
58E1
330
1DAB
100
AcDbEntity
  8
AM_5
100
AcDbTrace
 10
736.4848144328128
 20
103.5571387496235
 30
0.0
 11
737.1848144328128
 21
103.5571387496235
 31
0.0
 12
736.8348144328129
 22
101.4571387496235
 32
0.0
 13
736.8348144328129
 23
101.4571387496235
 33
0.0
  0
SOLID
  5
58E2
330
1DAB
100
AcDbEntity
  8
AM_5
100
AcDbTrace
 10
736.4848144328128
 20
104.8571387496235
 30
0.0
 11
737.1848144328128
 21
104.8571387496235
 31
0.0
 12
736.8348144328129
 22
106.9571387496235
 32
0.0
 13
736.8348144328129
 23
106.9571387496235
 33
0.0
  0
MTEXT
  5
58E3
330
1DAB
100
AcDbEntity
  8
AM_5
100
AcDbMText
 10
735.0498144328128
 20
104.2071387496236
 30
0.0
 40
2.449999999999999
 41
0.0
 71
     5
 72
     1
  1
5.5
 11
0.0000000000000001
 21
1.0
 31
0.0
 73
     1
 44
1.0
1001
ACAD
1000
MTEXTBEGIN
1070
    73
1070
     1
1070
    44
1040
1.0
1070
    74
1070
     0
1000
MTEXTEND
  0
POINT
  5
58E4
330
1DAB
100
AcDbEntity
  8
Defpoints
 62
     0
100
AcDbPoint
 10
743.4827621468342
 20
101.4571387496235
 30
0.0
  0
POINT
  5
58E5
330
1DAB
100
AcDbEntity
  8
Defpoints
 62
     0
100
AcDbPoint
 10
744.9827621468342
 20
106.9571387496235
 30
0.0
  0
POINT
  5
58E6
330
1DAB
100
AcDbEntity
  8
Defpoints
 62
     0
100
AcDbPoint
 10
736.8348144328129
 20
106.9571387496235
 30
0.0
  0
ENDBLK
  5
1DB8
330
1DAB
100
AcDbEntity
  8
0
100
AcDbBlockEnd
  0
BLOCK
  5
1DE1
330
1DD5
100
AcDbEntity
  8
0
100
AcDbBlockBegin
  2
*D8
 70
     1
 10
0.0
 20
0.0
 30
0.0
  3
*D8
  1

  0
LINE
  5
58E7
330
1DD5
100
AcDbEntity
  8
AM_5
100
AcDbLine
 10
837.30412355682
 20
100.7571387496235
 30
0.0
 11
837.30412355682
 21
92.25494317000201
 31
0.0
  0
LINE
  5
58E8
330
1DD5
100
AcDbEntity
  8
AM_5
100
AcDbLine
 10
832.3041235568201
 20
102.7571387496235
 30
0.0
 11
832.3041235568201
 21
92.25494317000201
 31
0.0
  0
LINE
  5
58E9
330
1DD5
100
AcDbEntity
  8
AM_5
100
AcDbLine
 10
839.4041235568201
 20
93.304943170002
 30
0.0
 11
841.5041235568201
 21
93.304943170002
 31
0.0
  0
LINE
  5
58EA
330
1DD5
100
AcDbEntity
  8
AM_5
100
AcDbLine
 10
830.20412355682
 20
93.304943170002
 30
0.0
 11
828.1041235568199
 21
93.304943170002
 31
0.0
  0
LINE
  5
58EB
330
1DD5
100
AcDbEntity
  8
AM_5
100
AcDbLine
 10
837.30412355682
 20
93.304943170002
 30
0.0
 11
832.3041235568201
 21
93.304943170002
 31
0.0
  0
SOLID
  5
58EC
330
1DD5
100
AcDbEntity
  8
AM_5
100
AcDbTrace
 10
839.4041235568201
 20
93.654943170002
 30
0.0
 11
839.4041235568201
 21
92.95494317000201
 31
0.0
 12
837.30412355682
 22
93.304943170002
 32
0.0
 13
837.30412355682
 23
93.304943170002
 33
0.0
  0
SOLID
  5
58ED
330
1DD5
100
AcDbEntity
  8
AM_5
100
AcDbTrace
 10
830.20412355682
 20
93.654943170002
 30
0.0
 11
830.20412355682
 21
92.95494317000201
 31
0.0
 12
832.3041235568201
 22
93.304943170002
 32
0.0
 13
832.3041235568201
 23
93.304943170002
 33
0.0
  0
MTEXT
  5
58EE
330
1DD5
100
AcDbEntity
  8
AM_5
100
AcDbMText
 10
834.8041235568199
 20
95.08994317000199
 30
0.0
 40
2.449999999999999
 41
0.0
 71
     5
 72
     1
  1
5
 73
     1
 44
1.0
1001
ACAD
1000
MTEXTBEGIN
1070
    73
1070
     1
1070
    44
1040
1.0
1070
    74
1070
     0
1000
MTEXTEND
  0
POINT
  5
58EF
330
1DD5
100
AcDbEntity
  8
Defpoints
 62
     0
100
AcDbPoint
 10
837.30412355682
 20
101.4571387496235
 30
0.0
  0
POINT
  5
58F0
330
1DD5
100
AcDbEntity
  8
Defpoints
 62
     0
100
AcDbPoint
 10
832.3041235568201
 20
103.4571387496235
 30
0.0
  0
POINT
  5
58F1
330
1DD5
100
AcDbEntity
  8
Defpoints
 62
     0
100
AcDbPoint
 10
832.3041235568201
 20
93.304943170002
 30
0.0
  0
ENDBLK
  5
1DE2
330
1DD5
100
AcDbEntity
  8
0
100
AcDbBlockEnd
  0
BLOCK
  5
1E09
330
1DFF
100
AcDbEntity
  8
0
100
AcDbBlockBegin
  2
*D9
 70
     1
 10
0.0
 20
0.0
 30
0.0
  3
*D9
  1

  0
LINE
  5
58F2
330
1DFF
100
AcDbEntity
  8
AM_5
100
AcDbLine
 10
837.30412355682
 20
100.7571387496235
 30
0.0
 11
837.30412355682
 21
87.25494317000197
 31
0.0
  0
LINE
  5
58F3
330
1DFF
100
AcDbEntity
  8
AM_5
100
AcDbLine
 10
821.80412355682
 20
100.7571387496235
 30
0.0
 11
821.80412355682
 21
87.25494317000197
 31
0.0
  0
LINE
  5
58F4
330
1DFF
100
AcDbEntity
  8
AM_5
100
AcDbLine
 10
835.2041235568201
 20
88.30494317000198
 30
0.0
 11
823.9041235568201
 21
88.30494317000198
 31
0.0
  0
SOLID
  5
58F5
330
1DFF
100
AcDbEntity
  8
AM_5
100
AcDbTrace
 10
835.2041235568201
 20
88.65494317000196
 30
0.0
 11
835.2041235568201
 21
87.95494317000198
 31
0.0
 12
837.30412355682
 22
88.30494317000198
 32
0.0
 13
837.30412355682
 23
88.30494317000198
 33
0.0
  0
SOLID
  5
58F6
330
1DFF
100
AcDbEntity
  8
AM_5
100
AcDbTrace
 10
823.9041235568201
 20
88.65494317000196
 30
0.0
 11
823.9041235568201
 21
87.95494317000198
 31
0.0
 12
821.80412355682
 22
88.30494317000198
 32
0.0
 13
821.80412355682
 23
88.30494317000198
 33
0.0
  0
MTEXT
  5
58F7
330
1DFF
100
AcDbEntity
  8
AM_5
100
AcDbMText
 10
829.5541235568201
 20
90.08994317000198
 30
0.0
 40
2.449999999999999
 41
0.0
 71
     5
 72
     1
  1
15.5
 73
     1
 44
1.0
1001
ACAD
1000
MTEXTBEGIN
1070
    73
1070
     1
1070
    44
1040
1.0
1070
    74
1070
     0
1000
MTEXTEND
  0
POINT
  5
58F8
330
1DFF
100
AcDbEntity
  8
Defpoints
 62
     0
100
AcDbPoint
 10
837.30412355682
 20
101.4571387496235
 30
0.0
  0
POINT
  5
58F9
330
1DFF
100
AcDbEntity
  8
Defpoints
 62
     0
100
AcDbPoint
 10
821.80412355682
 20
101.4571387496235
 30
0.0
  0
POINT
  5
58FA
330
1DFF
100
AcDbEntity
  8
Defpoints
 62
     0
100
AcDbPoint
 10
821.80412355682
 20
88.30494317000198
 30
0.0
  0
ENDBLK
  5
1E0A
330
1DFF
100
AcDbEntity
  8
0
100
AcDbBlockEnd
  0
BLOCK
  5
1E31
330
1E25
100
AcDbEntity
  8
0
100
AcDbBlockBegin
  2
*D10
 70
     1
 10
0.0
 20
0.0
 30
0.0
  3
*D10
  1

  0
LINE
  5
58FB
330
1E25
100
AcDbEntity
  8
AM_5
100
AcDbLine
 10
838.0041235568201
 20
101.4571387496235
 30
0.0
 11
850.3541235568199
 21
101.4571387496235
 31
0.0
  0
LINE
  5
58FC
330
1E25
100
AcDbEntity
  8
AM_5
100
AcDbLine
 10
836.5041235568201
 20
106.9571387496235
 30
0.0
 11
850.3541235568199
 21
106.9571387496235
 31
0.0
  0
LINE
  5
58FD
330
1E25
100
AcDbEntity
  8
AM_5
100
AcDbLine
 10
849.3041235568201
 20
103.5571387496235
 30
0.0
 11
849.3041235568201
 21
104.8571387496235
 31
0.0
  0
SOLID
  5
58FE
330
1E25
100
AcDbEntity
  8
AM_5
100
AcDbTrace
 10
848.95412355682
 20
103.5571387496235
 30
0.0
 11
849.65412355682
 21
103.5571387496235
 31
0.0
 12
849.3041235568201
 22
101.4571387496235
 32
0.0
 13
849.3041235568201
 23
101.4571387496235
 33
0.0
  0
SOLID
  5
58FF
330
1E25
100
AcDbEntity
  8
AM_5
100
AcDbTrace
 10
848.95412355682
 20
104.8571387496235
 30
0.0
 11
849.65412355682
 21
104.8571387496235
 31
0.0
 12
849.3041235568201
 22
106.9571387496235
 32
0.0
 13
849.3041235568201
 23
106.9571387496235
 33
0.0
  0
MTEXT
  5
5900
330
1E25
100
AcDbEntity
  8
AM_5
100
AcDbMText
 10
847.51912355682
 20
104.2071387496236
 30
0.0
 40
2.449999999999999
 41
0.0
 71
     5
 72
     1
  1
5.5
 11
0.0000000000000001
 21
1.0
 31
0.0
 73
     1
 44
1.0
1001
ACAD
1000
MTEXTBEGIN
1070
    73
1070
     1
1070
    44
1040
1.0
1070
    74
1070
     0
1000
MTEXTEND
  0
POINT
  5
5901
330
1E25
100
AcDbEntity
  8
Defpoints
 62
     0
100
AcDbPoint
 10
837.30412355682
 20
101.4571387496235
 30
0.0
  0
POINT
  5
5902
330
1E25
100
AcDbEntity
  8
Defpoints
 62
     0
100
AcDbPoint
 10
835.8041235568201
 20
106.9571387496235
 30
0.0
  0
POINT
  5
5903
330
1E25
100
AcDbEntity
  8
Defpoints
 62
     0
100
AcDbPoint
 10
849.3041235568201
 20
106.9571387496235
 30
0.0
  0
ENDBLK
  5
1E32
330
1E25
100
AcDbEntity
  8
0
100
AcDbBlockEnd
  0
BLOCK
  5
1E59
330
1E4F
100
AcDbEntity
  8
0
100
AcDbBlockBegin
  2
*D11
 70
     1
 10
0.0
 20
0.0
 30
0.0
  3
*D11
  1

  0
LINE
  5
5904
330
1E4F
100
AcDbEntity
  8
AM_5
100
AcDbLine
 10
838.0041235568201
 20
101.4571387496235
 30
0.0
 11
855.35412355682
 21
101.4571387496235
 31
0.0
  0
LINE
  5
5905
330
1E4F
100
AcDbEntity
  8
AM_5
100
AcDbLine
 10
836.15412355682
 20
135.9571387496235
 30
0.0
 11
855.35412355682
 21
135.9571387496235
 31
0.0
  0
LINE
  5
5906
330
1E4F
100
AcDbEntity
  8
AM_5
100
AcDbLine
 10
854.30412355682
 20
103.5571387496235
 30
0.0
 11
854.30412355682
 21
133.8571387496235
 31
0.0
  0
SOLID
  5
5907
330
1E4F
100
AcDbEntity
  8
AM_5
100
AcDbTrace
 10
853.9541235568201
 20
103.5571387496235
 30
0.0
 11
854.65412355682
 21
103.5571387496235
 31
0.0
 12
854.30412355682
 22
101.4571387496235
 32
0.0
 13
854.30412355682
 23
101.4571387496235
 33
0.0
  0
SOLID
  5
5908
330
1E4F
100
AcDbEntity
  8
AM_5
100
AcDbTrace
 10
853.9541235568201
 20
133.8571387496235
 30
0.0
 11
854.65412355682
 21
133.8571387496235
 31
0.0
 12
854.30412355682
 22
135.9571387496235
 32
0.0
 13
854.30412355682
 23
135.9571387496235
 33
0.0
  0
MTEXT
  5
5909
330
1E4F
100
AcDbEntity
  8
AM_5
100
AcDbMText
 10
852.51912355682
 20
118.7071387496237
 30
0.0
 40
2.449999999999999
 41
0.0
 71
     5
 72
     1
  1
34.5
 11
0.0000000000000001
 21
1.0
 31
0.0
 73
     1
 44
1.0
1001
ACAD
1000
MTEXTBEGIN
1070
    73
1070
     1
1070
    44
1040
1.0
1070
    74
1070
     0
1000
MTEXTEND
  0
POINT
  5
590A
330
1E4F
100
AcDbEntity
  8
Defpoints
 62
     0
100
AcDbPoint
 10
837.30412355682
 20
101.4571387496235
 30
0.0
  0
POINT
  5
590B
330
1E4F
100
AcDbEntity
  8
Defpoints
 62
     0
100
AcDbPoint
 10
835.45412355682
 20
135.9571387496235
 30
0.0
  0
POINT
  5
590C
330
1E4F
100
AcDbEntity
  8
Defpoints
 62
     0
100
AcDbPoint
 10
854.30412355682
 20
135.9571387496235
 30
0.0
  0
ENDBLK
  5
1E5A
330
1E4F
100
AcDbEntity
  8
0
100
AcDbBlockEnd
  0
BLOCK
  5
1E81
330
1E75
100
AcDbEntity
  8
0
100
AcDbBlockBegin
  2
*D12
 70
     1
 10
0.0
 20
0.0
 30
0.0
  3
*D12
  1

  0
LINE
  5
590D
330
1E75
100
AcDbEntity
  8
AM_5
100
AcDbLine
 10
799.8107889150432
 20
159.129173142592
 30
0.0
 11
799.8107889150432
 21
150.7897985149717
 31
0.0
  0
LINE
  5
590E
330
1E75
100
AcDbEntity
  8
AM_5
100
AcDbLine
 10
796.8107889150432
 20
159.329173142592
 30
0.0
 11
796.8107889150432
 21
150.7897985149717
 31
0.0
  0
LINE
  5
590F
330
1E75
100
AcDbEntity
  8
AM_5
100
AcDbLine
 10
801.9107889150431
 20
151.8397985149717
 30
0.0
 11
804.0107889150432
 21
151.8397985149717
 31
0.0
  0
LINE
  5
5910
330
1E75
100
AcDbEntity
  8
AM_5
100
AcDbLine
 10
794.7107889150431
 20
151.8397985149717
 30
0.0
 11
792.6107889150431
 21
151.8397985149717
 31
0.0
  0
LINE
  5
5911
330
1E75
100
AcDbEntity
  8
AM_5
100
AcDbLine
 10
799.8107889150432
 20
151.8397985149717
 30
0.0
 11
796.8107889150432
 21
151.8397985149717
 31
0.0
  0
SOLID
  5
5912
330
1E75
100
AcDbEntity
  8
AM_5
100
AcDbTrace
 10
801.9107889150431
 20
152.1897985149717
 30
0.0
 11
801.9107889150431
 21
151.4897985149717
 31
0.0
 12
799.8107889150432
 22
151.8397985149717
 32
0.0
 13
799.8107889150432
 23
151.8397985149717
 33
0.0
  0
SOLID
  5
5913
330
1E75
100
AcDbEntity
  8
AM_5
100
AcDbTrace
 10
794.7107889150431
 20
152.1897985149717
 30
0.0
 11
794.7107889150431
 21
151.4897985149717
 31
0.0
 12
796.8107889150432
 22
151.8397985149717
 32
0.0
 13
796.8107889150432
 23
151.8397985149717
 33
0.0
  0
MTEXT
  5
5914
330
1E75
100
AcDbEntity
  8
AM_5
100
AcDbMText
 10
798.3107889150431
 20
153.6247985149717
 30
0.0
 40
2.449999999999999
 41
0.0
 71
     5
 72
     1
  1
3
 73
     1
 44
1.0
1001
ACAD
1000
MTEXTBEGIN
1070
    73
1070
     1
1070
    44
1040
1.0
1070
    74
1070
     0
1000
MTEXTEND
  0
POINT
  5
5915
330
1E75
100
AcDbEntity
  8
Defpoints
 62
     0
100
AcDbPoint
 10
799.8107889150432
 20
159.8291731425919
 30
0.0
  0
POINT
  5
5916
330
1E75
100
AcDbEntity
  8
Defpoints
 62
     0
100
AcDbPoint
 10
796.8107889150432
 20
160.029173142592
 30
0.0
  0
POINT
  5
5917
330
1E75
100
AcDbEntity
  8
Defpoints
 62
     0
100
AcDbPoint
 10
796.8107889150432
 20
151.8397985149717
 30
0.0
  0
ENDBLK
  5
1E82
330
1E75
100
AcDbEntity
  8
0
100
AcDbBlockEnd
  0
BLOCK
  5
1EA9
330
1E9F
100
AcDbEntity
  8
0
100
AcDbBlockBegin
  2
*D13
 70
     1
 10
0.0
 20
0.0
 30
0.0
  3
*D13
  1

  0
LINE
  5
5918
330
1E9F
100
AcDbEntity
  8
AM_5
100
AcDbLine
 10
796.8107889150432
 20
159.329173142592
 30
0.0
 11
796.8107889150432
 21
150.7897985149717
 31
0.0
  0
LINE
  5
5919
330
1E9F
100
AcDbEntity
  8
AM_5
100
AcDbLine
 10
783.8107889150432
 20
159.129173142592
 30
0.0
 11
783.8107889150432
 21
150.7897985149717
 31
0.0
  0
LINE
  5
591A
330
1E9F
100
AcDbEntity
  8
AM_5
100
AcDbLine
 10
794.7107889150431
 20
151.8397985149717
 30
0.0
 11
785.9107889150432
 21
151.8397985149717
 31
0.0
  0
SOLID
  5
591B
330
1E9F
100
AcDbEntity
  8
AM_5
100
AcDbTrace
 10
794.7107889150431
 20
152.1897985149717
 30
0.0
 11
794.7107889150431
 21
151.4897985149717
 31
0.0
 12
796.8107889150432
 22
151.8397985149717
 32
0.0
 13
796.8107889150432
 23
151.8397985149717
 33
0.0
  0
SOLID
  5
591C
330
1E9F
100
AcDbEntity
  8
AM_5
100
AcDbTrace
 10
785.9107889150432
 20
152.1897985149717
 30
0.0
 11
785.9107889150432
 21
151.4897985149717
 31
0.0
 12
783.8107889150432
 22
151.8397985149717
 32
0.0
 13
783.8107889150432
 23
151.8397985149717
 33
0.0
  0
MTEXT
  5
591D
330
1E9F
100
AcDbEntity
  8
AM_5
100
AcDbMText
 10
790.3107889150431
 20
153.6247985149717
 30
0.0
 40
2.449999999999999
 41
0.0
 71
     5
 72
     1
  1
13
 73
     1
 44
1.0
1001
ACAD
1000
MTEXTBEGIN
1070
    73
1070
     1
1070
    44
1040
1.0
1070
    74
1070
     0
1000
MTEXTEND
  0
POINT
  5
591E
330
1E9F
100
AcDbEntity
  8
Defpoints
 62
     0
100
AcDbPoint
 10
796.8107889150432
 20
160.029173142592
 30
0.0
  0
POINT
  5
591F
330
1E9F
100
AcDbEntity
  8
Defpoints
 62
     0
100
AcDbPoint
 10
783.8107889150432
 20
159.8291731425919
 30
0.0
  0
POINT
  5
5920
330
1E9F
100
AcDbEntity
  8
Defpoints
 62
     0
100
AcDbPoint
 10
783.8107889150432
 20
151.8397985149717
 30
0.0
  0
ENDBLK
  5
1EAA
330
1E9F
100
AcDbEntity
  8
0
100
AcDbBlockEnd
  0
BLOCK
  5
1ECF
330
1EC5
100
AcDbEntity
  8
0
100
AcDbBlockBegin
  2
*D14
 70
     1
 10
0.0
 20
0.0
 30
0.0
  3
*D14
  1

  0
LINE
  5
5921
330
1EC5
100
AcDbEntity
  8
AM_5
100
AcDbLine
 10
780.8107889150432
 20
159.129173142592
 30
0.0
 11
780.8107889150432
 21
145.7897985149717
 31
0.0
  0
LINE
  5
5922
330
1EC5
100
AcDbEntity
  8
AM_5
100
AcDbLine
 10
799.8107889150432
 20
159.129173142592
 30
0.0
 11
799.8107889150432
 21
145.7897985149717
 31
0.0
  0
LINE
  5
5923
330
1EC5
100
AcDbEntity
  8
AM_5
100
AcDbLine
 10
782.9107889150431
 20
146.8397985149717
 30
0.0
 11
797.7107889150431
 21
146.8397985149717
 31
0.0
  0
SOLID
  5
5924
330
1EC5
100
AcDbEntity
  8
AM_5
100
AcDbTrace
 10
782.9107889150431
 20
147.1897985149717
 30
0.0
 11
782.9107889150431
 21
146.4897985149717
 31
0.0
 12
780.8107889150432
 22
146.8397985149717
 32
0.0
 13
780.8107889150432
 23
146.8397985149717
 33
0.0
  0
SOLID
  5
5925
330
1EC5
100
AcDbEntity
  8
AM_5
100
AcDbTrace
 10
797.7107889150431
 20
147.1897985149717
 30
0.0
 11
797.7107889150431
 21
146.4897985149717
 31
0.0
 12
799.8107889150432
 22
146.8397985149717
 32
0.0
 13
799.8107889150432
 23
146.8397985149717
 33
0.0
  0
MTEXT
  5
5926
330
1EC5
100
AcDbEntity
  8
AM_5
100
AcDbMText
 10
790.3107889150431
 20
148.6247985149717
 30
0.0
 40
2.449999999999999
 41
0.0
 71
     5
 72
     1
  1
19
 73
     1
 44
1.0
1001
ACAD
1000
MTEXTBEGIN
1070
    73
1070
     1
1070
    44
1040
1.0
1070
    74
1070
     0
1000
MTEXTEND
  0
POINT
  5
5927
330
1EC5
100
AcDbEntity
  8
Defpoints
 62
     0
100
AcDbPoint
 10
780.8107889150432
 20
159.8291731425919
 30
0.0
  0
POINT
  5
5928
330
1EC5
100
AcDbEntity
  8
Defpoints
 62
     0
100
AcDbPoint
 10
799.8107889150432
 20
159.8291731425919
 30
0.0
  0
POINT
  5
5929
330
1EC5
100
AcDbEntity
  8
Defpoints
 62
     0
100
AcDbPoint
 10
799.8107889150432
 20
146.8397985149717
 30
0.0
  0
ENDBLK
  5
1ED0
330
1EC5
100
AcDbEntity
  8
0
100
AcDbBlockEnd
  0
BLOCK
  5
1EF5
330
1EEB
100
AcDbEntity
  8
0
100
AcDbBlockBegin
  2
*D15
 70
     1
 10
0.0
 20
0.0
 30
0.0
  3
*D15
  1

  0
LINE
  5
592A
330
1EEB
100
AcDbEntity
  8
AM_5
100
AcDbLine
 10
772.3107889150432
 20
164.629173142592
 30
0.0
 11
772.3107889150432
 21
140.7897985149717
 31
0.0
  0
LINE
  5
592B
330
1EEB
100
AcDbEntity
  8
AM_5
100
AcDbLine
 10
799.8107889150432
 20
159.129173142592
 30
0.0
 11
799.8107889150432
 21
140.7897985149717
 31
0.0
  0
LINE
  5
592C
330
1EEB
100
AcDbEntity
  8
AM_5
100
AcDbLine
 10
774.4107889150432
 20
141.8397985149717
 30
0.0
 11
797.7107889150431
 21
141.8397985149717
 31
0.0
  0
SOLID
  5
592D
330
1EEB
100
AcDbEntity
  8
AM_5
100
AcDbTrace
 10
774.4107889150432
 20
142.1897985149717
 30
0.0
 11
774.4107889150432
 21
141.4897985149717
 31
0.0
 12
772.3107889150432
 22
141.8397985149717
 32
0.0
 13
772.3107889150432
 23
141.8397985149717
 33
0.0
  0
SOLID
  5
592E
330
1EEB
100
AcDbEntity
  8
AM_5
100
AcDbTrace
 10
797.7107889150431
 20
142.1897985149717
 30
0.0
 11
797.7107889150431
 21
141.4897985149717
 31
0.0
 12
799.8107889150432
 22
141.8397985149717
 32
0.0
 13
799.8107889150432
 23
141.8397985149717
 33
0.0
  0
MTEXT
  5
592F
330
1EEB
100
AcDbEntity
  8
AM_5
100
AcDbMText
 10
786.0607889150432
 20
143.625039656704
 30
0.0
 40
2.449999999999999
 41
0.0
 71
     5
 72
     1
  1
27.5
 73
     1
 44
1.0
1001
ACAD
1000
MTEXTBEGIN
1070
    73
1070
     1
1070
    44
1040
1.0
1070
    74
1070
     0
1000
MTEXTEND
  0
POINT
  5
5930
330
1EEB
100
AcDbEntity
  8
Defpoints
 62
     0
100
AcDbPoint
 10
772.3107889150432
 20
165.329173142592
 30
0.0
  0
POINT
  5
5931
330
1EEB
100
AcDbEntity
  8
Defpoints
 62
     0
100
AcDbPoint
 10
799.8107889150432
 20
159.8291731425919
 30
0.0
  0
POINT
  5
5932
330
1EEB
100
AcDbEntity
  8
Defpoints
 62
     0
100
AcDbPoint
 10
799.8107889150432
 20
141.8397985149717
 30
0.0
  0
ENDBLK
  5
1EF6
330
1EEB
100
AcDbEntity
  8
0
100
AcDbBlockEnd
  0
BLOCK
  5
4494
330
448A
100
AcDbEntity
  8
0
100
AcDbBlockBegin
  2
*D16
 70
     1
 10
0.0
 20
0.0
 30
0.0
  3
*D16
  1

  0
LINE
  5
5933
330
448A
100
AcDbEntity
  8
AM_5
100
AcDbLine
 10
800.5107889150432
 20
101.4571387496235
 30
0.0
 11
808.1600942563898
 21
101.4571387496235
 31
0.0
  0
LINE
  5
5934
330
448A
100
AcDbEntity
  8
AM_5
100
AcDbLine
 10
800.5107889150432
 20
113.4571387496235
 30
0.0
 11
808.1600942563898
 21
113.4571387496235
 31
0.0
  0
LINE
  5
5935
330
448A
100
AcDbEntity
  8
AM_5
100
AcDbLine
 10
807.1100942563898
 20
103.5571387496235
 30
0.0
 11
807.1100942563898
 21
111.3571387496235
 31
0.0
  0
SOLID
  5
5936
330
448A
100
AcDbEntity
  8
AM_5
100
AcDbTrace
 10
806.7600942563897
 20
103.5571387496235
 30
0.0
 11
807.4600942563899
 21
103.5571387496235
 31
0.0
 12
807.1100942563898
 22
101.4571387496235
 32
0.0
 13
807.1100942563898
 23
101.4571387496235
 33
0.0
  0
SOLID
  5
5937
330
448A
100
AcDbEntity
  8
AM_5
100
AcDbTrace
 10
806.7600942563897
 20
111.3571387496235
 30
0.0
 11
807.4600942563899
 21
111.3571387496235
 31
0.0
 12
807.1100942563898
 22
113.4571387496235
 32
0.0
 13
807.1100942563898
 23
113.4571387496235
 33
0.0
  0
MTEXT
  5
5938
330
448A
100
AcDbEntity
  8
AM_5
100
AcDbMText
 10
805.3248531146575
 20
107.4571387496236
 30
0.0
 40
2.449999999999999
 41
0.0
 71
     5
 72
     1
  1
12
 11
0.0000000000000001
 21
1.0
 31
0.0
 73
     1
 44
1.0
1001
ACAD
1000
MTEXTBEGIN
1070
    73
1070
     1
1070
    44
1040
1.0
1070
    74
1070
     0
1000
MTEXTEND
  0
POINT
  5
5939
330
448A
100
AcDbEntity
  8
Defpoints
 62
     0
100
AcDbPoint
 10
799.8107889150432
 20
101.4571387496235
 30
0.0
  0
POINT
  5
593A
330
448A
100
AcDbEntity
  8
Defpoints
 62
     0
100
AcDbPoint
 10
799.8107889150432
 20
113.4571387496235
 30
0.0
  0
POINT
  5
593B
330
448A
100
AcDbEntity
  8
Defpoints
 62
     0
100
AcDbPoint
 10
807.1100942563898
 20
113.4571387496235
 30
0.0
  0
ENDBLK
  5
4495
330
448A
100
AcDbEntity
  8
0
100
AcDbBlockEnd
  0
BLOCK
  5
44BA
330
44B0
100
AcDbEntity
  8
0
100
AcDbBlockBegin
  2
*D17
 70
     1
 10
0.0
 20
0.0
 30
0.0
  3
*D17
  1

  0
LINE
  5
593C
330
44B0
100
AcDbEntity
  8
AM_5
100
AcDbLine
 10
800.5107889150432
 20
101.4571387496235
 30
0.0
 11
813.1600942563897
 21
101.4571387496235
 31
0.0
  0
LINE
  5
593D
330
44B0
100
AcDbEntity
  8
AM_5
100
AcDbLine
 10
800.5107889150432
 20
126.4571387496235
 30
0.0
 11
813.1600942563897
 21
126.4571387496235
 31
0.0
  0
LINE
  5
593E
330
44B0
100
AcDbEntity
  8
AM_5
100
AcDbLine
 10
812.1100942563899
 20
103.5571387496235
 30
0.0
 11
812.1100942563899
 21
124.3571387496235
 31
0.0
  0
SOLID
  5
593F
330
44B0
100
AcDbEntity
  8
AM_5
100
AcDbTrace
 10
811.7600942563898
 20
103.5571387496235
 30
0.0
 11
812.4600942563898
 21
103.5571387496235
 31
0.0
 12
812.1100942563899
 22
101.4571387496235
 32
0.0
 13
812.1100942563899
 23
101.4571387496235
 33
0.0
  0
SOLID
  5
5940
330
44B0
100
AcDbEntity
  8
AM_5
100
AcDbTrace
 10
811.7600942563898
 20
124.3571387496235
 30
0.0
 11
812.4600942563898
 21
124.3571387496235
 31
0.0
 12
812.1100942563899
 22
126.4571387496235
 32
0.0
 13
812.1100942563899
 23
126.4571387496235
 33
0.0
  0
MTEXT
  5
5941
330
44B0
100
AcDbEntity
  8
AM_5
100
AcDbMText
 10
810.3248531146576
 20
113.9571387496236
 30
0.0
 40
2.449999999999999
 41
0.0
 71
     5
 72
     1
  1
25
 11
0.0000000000000001
 21
1.0
 31
0.0
 73
     1
 44
1.0
1001
ACAD
1000
MTEXTBEGIN
1070
    73
1070
     1
1070
    44
1040
1.0
1070
    74
1070
     0
1000
MTEXTEND
  0
POINT
  5
5942
330
44B0
100
AcDbEntity
  8
Defpoints
 62
     0
100
AcDbPoint
 10
799.8107889150432
 20
101.4571387496235
 30
0.0
  0
POINT
  5
5943
330
44B0
100
AcDbEntity
  8
Defpoints
 62
     0
100
AcDbPoint
 10
799.8107889150432
 20
126.4571387496235
 30
0.0
  0
POINT
  5
5944
330
44B0
100
AcDbEntity
  8
Defpoints
 62
     0
100
AcDbPoint
 10
812.1100942563899
 20
126.4571387496235
 30
0.0
  0
ENDBLK
  5
44BB
330
44B0
100
AcDbEntity
  8
0
100
AcDbBlockEnd
  0
BLOCK
  5
453A
330
4530
100
AcDbEntity
  8
0
100
AcDbBlockBegin
  2
*D18
 70
     1
 10
0.0
 20
0.0
 30
0.0
  3
*D18
  1

  0
LINE
  5
5945
330
4530
100
AcDbEntity
  8
AM_5
100
AcDbLine
 10
800.5107889150432
 20
175.329173142592
 30
0.0
 11
811.7607889150431
 21
175.329173142592
 31
0.0
  0
LINE
  5
5946
330
4530
100
AcDbEntity
  8
AM_5
100
AcDbLine
 10
800.5107889150432
 20
165.3291731425919
 30
0.0
 11
811.7607889150431
 21
165.3291731425919
 31
0.0
  0
LINE
  5
5947
330
4530
100
AcDbEntity
  8
AM_5
100
AcDbLine
 10
810.7107889150432
 20
173.229173142592
 30
0.0
 11
810.7107889150432
 21
167.4291731425919
 31
0.0
  0
SOLID
  5
5948
330
4530
100
AcDbEntity
  8
AM_5
100
AcDbTrace
 10
810.3607889150431
 20
173.229173142592
 30
0.0
 11
811.0607889150431
 21
173.229173142592
 31
0.0
 12
810.7107889150432
 22
175.329173142592
 32
0.0
 13
810.7107889150432
 23
175.329173142592
 33
0.0
  0
SOLID
  5
5949
330
4530
100
AcDbEntity
  8
AM_5
100
AcDbTrace
 10
810.3607889150431
 20
167.4291731425919
 30
0.0
 11
811.0607889150431
 21
167.4291731425919
 31
0.0
 12
810.7107889150432
 22
165.3291731425919
 32
0.0
 13
810.7107889150432
 23
165.3291731425919
 33
0.0
  0
MTEXT
  5
594A
330
4530
100
AcDbEntity
  8
AM_5
100
AcDbMText
 10
808.9257889150431
 20
170.3291731425921
 30
0.0
 40
2.449999999999999
 41
0.0
 71
     5
 72
     1
  1
10
 11
0.0000000000000001
 21
1.0
 31
0.0
 73
     1
 44
1.0
1001
ACAD
1000
MTEXTBEGIN
1070
    73
1070
     1
1070
    44
1040
1.0
1070
    74
1070
     0
1000
MTEXTEND
  0
POINT
  5
594B
330
4530
100
AcDbEntity
  8
Defpoints
 62
     0
100
AcDbPoint
 10
799.8107889150432
 20
175.329173142592
 30
0.0
  0
POINT
  5
594C
330
4530
100
AcDbEntity
  8
Defpoints
 62
     0
100
AcDbPoint
 10
799.8107889150432
 20
165.3291731425919
 30
0.0
  0
POINT
  5
594D
330
4530
100
AcDbEntity
  8
Defpoints
 62
     0
100
AcDbPoint
 10
810.7107889150432
 20
165.3291731425919
 30
0.0
  0
ENDBLK
  5
453B
330
4530
100
AcDbEntity
  8
0
100
AcDbBlockEnd
  0
BLOCK
  5
4560
330
4556
100
AcDbEntity
  8
0
100
AcDbBlockBegin
  2
*D19
 70
     1
 10
0.0
 20
0.0
 30
0.0
  3
*D19
  1

  0
LINE
  5
594E
330
4556
100
AcDbEntity
  8
AM_5
100
AcDbLine
 10
800.5107889150432
 20
175.329173142592
 30
0.0
 11
816.7607889150431
 21
175.329173142592
 31
0.0
  0
LINE
  5
594F
330
4556
100
AcDbEntity
  8
AM_5
100
AcDbLine
 10
799.8107889150432
 20
162.3291731425919
 30
0.0
 11
816.7607889150431
 21
162.3291731425919
 31
0.0
  0
LINE
  5
5950
330
4556
100
AcDbEntity
  8
AM_5
100
AcDbLine
 10
815.7107889150431
 20
173.229173142592
 30
0.0
 11
815.7107889150431
 21
164.4291731425919
 31
0.0
  0
SOLID
  5
5951
330
4556
100
AcDbEntity
  8
AM_5
100
AcDbTrace
 10
815.3607889150432
 20
173.229173142592
 30
0.0
 11
816.0607889150432
 21
173.229173142592
 31
0.0
 12
815.7107889150431
 22
175.329173142592
 32
0.0
 13
815.7107889150431
 23
175.329173142592
 33
0.0
  0
SOLID
  5
5952
330
4556
100
AcDbEntity
  8
AM_5
100
AcDbTrace
 10
815.3607889150432
 20
164.4291731425919
 30
0.0
 11
816.0607889150432
 21
164.4291731425919
 31
0.0
 12
815.7107889150431
 22
162.3291731425919
 32
0.0
 13
815.7107889150431
 23
162.3291731425919
 33
0.0
  0
MTEXT
  5
5953
330
4556
100
AcDbEntity
  8
AM_5
100
AcDbMText
 10
813.9257889150432
 20
168.8291731425921
 30
0.0
 40
2.449999999999999
 41
0.0
 71
     5
 72
     1
  1
13
 11
0.0000000000000001
 21
1.0
 31
0.0
 73
     1
 44
1.0
1001
ACAD
1000
MTEXTBEGIN
1070
    73
1070
     1
1070
    44
1040
1.0
1070
    74
1070
     0
1000
MTEXTEND
  0
POINT
  5
5954
330
4556
100
AcDbEntity
  8
Defpoints
 62
     0
100
AcDbPoint
 10
799.8107889150432
 20
175.329173142592
 30
0.0
  0
POINT
  5
5955
330
4556
100
AcDbEntity
  8
Defpoints
 62
     0
100
AcDbPoint
 10
799.1107889150431
 20
162.3291731425919
 30
0.0
  0
POINT
  5
5956
330
4556
100
AcDbEntity
  8
Defpoints
 62
     0
100
AcDbPoint
 10
815.7107889150431
 20
162.3291731425919
 30
0.0
  0
ENDBLK
  5
4561
330
4556
100
AcDbEntity
  8
0
100
AcDbBlockEnd
  0
BLOCK
  5
53B0
330
53A6
100
AcDbEntity
  8
0
100
AcDbBlockBegin
  2
*D20
 70
     1
 10
0.0
 20
0.0
 30
0.0
  3
*D20
  1

  0
LINE
  5
5957
330
53A6
100
AcDbEntity
  8
AM_5
100
AcDbLine
 10
759.6827621468342
 20
101.4571387496235
 30
0.0
 11
767.4427279557687
 21
101.4571387496235
 31
0.0
  0
LINE
  5
5958
330
53A6
100
AcDbEntity
  8
AM_5
100
AcDbLine
 10
759.6827621468342
 20
109.9571387496235
 30
0.0
 11
767.4427279557687
 21
109.9571387496235
 31
0.0
  0
LINE
  5
5959
330
53A6
100
AcDbEntity
  8
AM_5
100
AcDbLine
 10
766.3927279557688
 20
103.5571387496235
 30
0.0
 11
766.3927279557688
 21
107.8571387496235
 31
0.0
  0
SOLID
  5
595A
330
53A6
100
AcDbEntity
  8
AM_5
100
AcDbTrace
 10
766.0427279557687
 20
103.5571387496235
 30
0.0
 11
766.7427279557688
 21
103.5571387496235
 31
0.0
 12
766.3927279557688
 22
101.4571387496235
 32
0.0
 13
766.3927279557688
 23
101.4571387496235
 33
0.0
  0
SOLID
  5
595B
330
53A6
100
AcDbEntity
  8
AM_5
100
AcDbTrace
 10
766.0427279557687
 20
107.8571387496235
 30
0.0
 11
766.7427279557688
 21
107.8571387496235
 31
0.0
 12
766.3927279557688
 22
109.9571387496235
 32
0.0
 13
766.3927279557688
 23
109.9571387496235
 33
0.0
  0
MTEXT
  5
595C
330
53A6
100
AcDbEntity
  8
AM_5
100
AcDbMText
 10
764.6077279557688
 20
105.7071387496236
 30
0.0
 40
2.449999999999999
 41
0.0
 71
     5
 72
     1
  1
8.5
 11
0.0000000000000001
 21
1.0
 31
0.0
 73
     1
 44
1.0
1001
ACAD
1000
MTEXTBEGIN
1070
    73
1070
     1
1070
    44
1040
1.0
1070
    74
1070
     0
1000
MTEXTEND
  0
POINT
  5
595D
330
53A6
100
AcDbEntity
  8
Defpoints
 62
     0
100
AcDbPoint
 10
758.9827621468343
 20
101.4571387496235
 30
0.0
  0
POINT
  5
595E
330
53A6
100
AcDbEntity
  8
Defpoints
 62
     0
100
AcDbPoint
 10
758.9827621468343
 20
109.9571387496235
 30
0.0
  0
POINT
  5
595F
330
53A6
100
AcDbEntity
  8
Defpoints
 62
     0
100
AcDbPoint
 10
766.3927279557688
 20
109.9571387496235
 30
0.0
  0
ENDBLK
  5
53B1
330
53A6
100
AcDbEntity
  8
0
100
AcDbBlockEnd
  0
BLOCK
  5
53FE
330
53F4
100
AcDbEntity
  8
0
100
AcDbBlockBegin
  2
*D21
 70
     1
 10
0.0
 20
0.0
 30
0.0
  3
*D21
  1

  0
LINE
  5
5960
330
53F4
100
AcDbEntity
  8
AM_5
100
AcDbLine
 10
780.1107889150431
 20
101.4571387496235
 30
0.0
 11
775.3284115685398
 21
101.4571387496235
 31
0.0
  0
LINE
  5
5961
330
53F4
100
AcDbEntity
  8
AM_5
100
AcDbLine
 10
786.1107889150432
 20
109.4571387496235
 30
0.0
 11
775.3284115685398
 21
109.4571387496235
 31
0.0
  0
LINE
  5
5962
330
53F4
100
AcDbEntity
  8
AM_5
100
AcDbLine
 10
776.3784115685398
 20
103.5571387496235
 30
0.0
 11
776.3784115685398
 21
107.3571387496235
 31
0.0
  0
SOLID
  5
5963
330
53F4
100
AcDbEntity
  8
AM_5
100
AcDbTrace
 10
776.0284115685398
 20
103.5571387496235
 30
0.0
 11
776.7284115685399
 21
103.5571387496235
 31
0.0
 12
776.3784115685398
 22
101.4571387496235
 32
0.0
 13
776.3784115685398
 23
101.4571387496235
 33
0.0
  0
SOLID
  5
5964
330
53F4
100
AcDbEntity
  8
AM_5
100
AcDbTrace
 10
776.0284115685398
 20
107.3571387496235
 30
0.0
 11
776.7284115685399
 21
107.3571387496235
 31
0.0
 12
776.3784115685398
 22
109.4571387496235
 32
0.0
 13
776.3784115685398
 23
109.4571387496235
 33
0.0
  0
MTEXT
  5
5965
330
53F4
100
AcDbEntity
  8
AM_5
100
AcDbMText
 10
774.5934115685399
 20
105.4571387496236
 30
0.0
 40
2.449999999999999
 41
0.0
 71
     5
 72
     1
  1
8
 11
0.0000000000000001
 21
1.0
 31
0.0
 73
     1
 44
1.0
1001
ACAD
1000
MTEXTBEGIN
1070
    73
1070
     1
1070
    44
1040
1.0
1070
    74
1070
     0
1000
MTEXTEND
  0
POINT
  5
5966
330
53F4
100
AcDbEntity
  8
Defpoints
 62
     0
100
AcDbPoint
 10
780.8107889150432
 20
101.4571387496235
 30
0.0
  0
POINT
  5
5967
330
53F4
100
AcDbEntity
  8
Defpoints
 62
     0
100
AcDbPoint
 10
786.8107889150431
 20
109.4571387496235
 30
0.0
  0
POINT
  5
5968
330
53F4
100
AcDbEntity
  8
Defpoints
 62
     0
100
AcDbPoint
 10
776.3784115685398
 20
109.4571387496235
 30
0.0
  0
ENDBLK
  5
53FF
330
53F4
100
AcDbEntity
  8
0
100
AcDbBlockEnd
  0
BLOCK
  5
5515
330
5509
100
AcDbEntity
  8
0
100
AcDbBlockBegin
  2
*D22
 70
     1
 10
0.0
 20
0.0
 30
0.0
  3
*D22
  1

  0
LINE
  5
5969
330
5509
100
AcDbEntity
  8
AM_5
100
AcDbLine
 10
687.3545436277364
 20
162.0912666435183
 30
0.0
 11
696.5269710494083
 21
162.0912666435183
 31
0.0
  0
LINE
  5
596A
330
5509
100
AcDbEntity
  8
AM_5
100
AcDbLine
 10
687.3545436277363
 20
168.5912666435183
 30
0.0
 11
696.5269710494083
 21
168.5912666435183
 31
0.0
  0
LINE
  5
596B
330
5509
100
AcDbEntity
  8
AM_5
100
AcDbLine
 10
695.4769710494083
 20
164.1912666435183
 30
0.0
 11
695.4769710494083
 21
166.4912666435183
 31
0.0
  0
SOLID
  5
596C
330
5509
100
AcDbEntity
  8
AM_5
100
AcDbTrace
 10
695.1269710494083
 20
164.1912666435183
 30
0.0
 11
695.8269710494083
 21
164.1912666435183
 31
0.0
 12
695.4769710494083
 22
162.0912666435183
 32
0.0
 13
695.4769710494083
 23
162.0912666435183
 33
0.0
  0
SOLID
  5
596D
330
5509
100
AcDbEntity
  8
AM_5
100
AcDbTrace
 10
695.1269710494083
 20
166.4912666435183
 30
0.0
 11
695.8269710494083
 21
166.4912666435183
 31
0.0
 12
695.4769710494083
 22
168.5912666435183
 32
0.0
 13
695.4769710494083
 23
168.5912666435183
 33
0.0
  0
MTEXT
  5
596E
330
5509
100
AcDbEntity
  8
AM_5
100
AcDbMText
 10
693.6919710494083
 20
165.3412666435184
 30
0.0
 40
2.449999999999999
 41
0.0
 71
     5
 72
     1
  1
6.5
 11
0.0000000000000001
 21
1.0
 31
0.0
 73
     1
 44
1.0
1001
ACAD
1000
MTEXTBEGIN
1070
    73
1070
     1
1070
    44
1040
1.0
1070
    74
1070
     0
1000
MTEXTEND
  0
POINT
  5
596F
330
5509
100
AcDbEntity
  8
Defpoints
 62
     0
100
AcDbPoint
 10
686.6545436277363
 20
162.0912666435183
 30
0.0
  0
POINT
  5
5970
330
5509
100
AcDbEntity
  8
Defpoints
 62
     0
100
AcDbPoint
 10
686.6545436277363
 20
168.5912666435183
 30
0.0
  0
POINT
  5
5971
330
5509
100
AcDbEntity
  8
Defpoints
 62
     0
100
AcDbPoint
 10
695.4769710494083
 20
168.5912666435183
 30
0.0
  0
ENDBLK
  5
5516
330
5509
100
AcDbEntity
  8
0
100
AcDbBlockEnd
  0
BLOCK
  5
554D
330
5541
100
AcDbEntity
  8
0
100
AcDbBlockBegin
  2
*D23
 70
     1
 10
0.0
 20
0.0
 30
0.0
  3
*D23
  1

  0
LINE
  5
5972
330
5541
100
AcDbEntity
  8
AM_5
100
AcDbLine
 10
690.1545436277363
 20
171.0412666435183
 30
0.0
 11
690.1545436277363
 21
177.1208272439419
 31
0.0
  0
LINE
  5
5973
330
5541
100
AcDbEntity
  8
AM_5
100
AcDbLine
 10
684.0545436277364
 20
171.8912666435183
 30
0.0
 11
684.0545436277364
 21
177.1208272439419
 31
0.0
  0
LINE
  5
5974
330
5541
100
AcDbEntity
  8
AM_5
100
AcDbLine
 10
688.0545436277363
 20
176.0708272439419
 30
0.0
 11
686.1545436277364
 21
176.0708272439419
 31
0.0
  0
SOLID
  5
5975
330
5541
100
AcDbEntity
  8
AM_5
100
AcDbTrace
 10
688.0545436277363
 20
176.4208272439419
 30
0.0
 11
688.0545436277363
 21
175.7208272439419
 31
0.0
 12
690.1545436277363
 22
176.0708272439419
 32
0.0
 13
690.1545436277363
 23
176.0708272439419
 33
0.0
  0
SOLID
  5
5976
330
5541
100
AcDbEntity
  8
AM_5
100
AcDbTrace
 10
686.1545436277364
 20
176.4208272439419
 30
0.0
 11
686.1545436277364
 21
175.7208272439419
 31
0.0
 12
684.0545436277364
 22
176.0708272439419
 32
0.0
 13
684.0545436277364
 23
176.0708272439419
 33
0.0
  0
MTEXT
  5
5977
330
5541
100
AcDbEntity
  8
AM_5
100
AcDbMText
 10
687.1045436277363
 20
177.8558272439419
 30
0.0
 40
2.449999999999999
 41
0.0
 71
     5
 72
     1
  1
6.1
 73
     1
 44
1.0
1001
ACAD
1000
MTEXTBEGIN
1070
    73
1070
     1
1070
    44
1040
1.0
1070
    74
1070
     0
1000
MTEXTEND
  0
POINT
  5
5978
330
5541
100
AcDbEntity
  8
Defpoints
 62
     0
100
AcDbPoint
 10
690.1545436277363
 20
170.3412666435183
 30
0.0
  0
POINT
  5
5979
330
5541
100
AcDbEntity
  8
Defpoints
 62
     0
100
AcDbPoint
 10
684.0545436277364
 20
171.1912666435183
 30
0.0
  0
POINT
  5
597A
330
5541
100
AcDbEntity
  8
Defpoints
 62
     0
100
AcDbPoint
 10
684.0545436277364
 20
176.0708272439419
 30
0.0
  0
ENDBLK
  5
554E
330
5541
100
AcDbEntity
  8
0
100
AcDbBlockEnd
  0
BLOCK
  5
5596
330
558A
100
AcDbEntity
  8
0
100
AcDbBlockBegin
  2
*D24
 70
     1
 10
0.0
 20
0.0
 30
0.0
  3
*D24
  1

  0
LINE
  5
597B
330
558A
100
AcDbEntity
  8
AM_5
100
AcDbLine
 10
685.3398361277363
 20
126.6390238870344
 30
0.0
 11
698.0183667432789
 21
126.6390238870344
 31
0.0
  0
LINE
  5
597C
330
558A
100
AcDbEntity
  8
AM_5
100
AcDbLine
 10
690.8545436277363
 20
129.1390238870344
 30
0.0
 11
698.0183667432789
 21
129.1390238870344
 31
0.0
  0
LINE
  5
597D
330
558A
100
AcDbEntity
  8
AM_5
100
AcDbLine
 10
696.9683667432789
 20
131.2390238870344
 30
0.0
 11
696.9683667432789
 21
133.3390238870344
 31
0.0
  0
LINE
  5
597E
330
558A
100
AcDbEntity
  8
AM_5
100
AcDbLine
 10
696.9683667432789
 20
124.5390238870344
 30
0.0
 11
696.9683667432789
 21
117.7253269973238
 31
0.0
  0
LINE
  5
597F
330
558A
100
AcDbEntity
  8
AM_5
100
AcDbLine
 10
696.9683667432789
 20
129.1390238870344
 30
0.0
 11
696.9683667432789
 21
126.6390238870344
 31
0.0
  0
SOLID
  5
5980
330
558A
100
AcDbEntity
  8
AM_5
100
AcDbTrace
 10
696.6183667432789
 20
131.2390238870344
 30
0.0
 11
697.3183667432789
 21
131.2390238870344
 31
0.0
 12
696.9683667432789
 22
129.1390238870344
 32
0.0
 13
696.9683667432789
 23
129.1390238870344
 33
0.0
  0
SOLID
  5
5981
330
558A
100
AcDbEntity
  8
AM_5
100
AcDbTrace
 10
696.6183667432789
 20
124.5390238870344
 30
0.0
 11
697.3183667432789
 21
124.5390238870344
 31
0.0
 12
696.9683667432789
 22
126.6390238870344
 32
0.0
 13
696.9683667432789
 23
126.6390238870344
 33
0.0
  0
MTEXT
  5
5982
330
558A
100
AcDbEntity
  8
AM_5
100
AcDbMText
 10
695.1831256015466
 20
120.0821754421791
 30
0.0
 40
2.449999999999999
 41
0.0
 71
     5
 72
     1
  1
2.5
 11
0.0000000000000001
 21
1.0
 31
0.0
 73
     1
 44
1.0
1001
ACAD
1000
MTEXTBEGIN
1070
    73
1070
     1
1070
    44
1040
1.0
1070
    74
1070
     0
1000
MTEXTEND
  0
POINT
  5
5983
330
558A
100
AcDbEntity
  8
Defpoints
 62
     0
100
AcDbPoint
 10
684.6398361277363
 20
126.6390238870344
 30
0.0
  0
POINT
  5
5984
330
558A
100
AcDbEntity
  8
Defpoints
 62
     0
100
AcDbPoint
 10
690.1545436277363
 20
129.1390238870344
 30
0.0
  0
POINT
  5
5985
330
558A
100
AcDbEntity
  8
Defpoints
 62
     0
100
AcDbPoint
 10
696.9683667432789
 20
129.1390238870344
 30
0.0
  0
ENDBLK
  5
5597
330
558A
100
AcDbEntity
  8
0
100
AcDbBlockEnd
  0
BLOCK
  5
5BDC
330
5BD7
100
AcDbEntity
  8
0
100
AcDbBlockBegin
  2
*S25
 70
     1
 10
0.0
 20
0.0
 30
0.0
  3
*S25
  1

  0
LINE
  5
5BD8
330
5BD7
100
AcDbEntity
  8
AM_5
 62
     5
100
AcDbLine
 10
665.3526756904734
 20
175.6187193529501
 30
0.0
 11
676.4738503059892
 21
175.6187193529501
 31
0.0
  0
LINE
  5
5BD9
330
5BD7
100
AcDbEntity
  8
AM_5
 62
     5
100
AcDbLine
 10
676.4738503059892
 20
175.6187193529501
 30
0.0
 11
680.5118318331961
 21
168.6683557753861
 31
0.0
  0
TRACE
  5
5BDA
330
5BD7
100
AcDbEntity
  8
AM_5
 62
     5
370
    35
100
AcDbTrace
 10
680.2329352048758
 20
168.5063240455938
 30
0.0
 11
680.7907284615164
 21
168.8303875051784
 31
0.0
 12
681.7425850166489
 22
166.5499255543449
 32
0.0
 13
681.7425850166489
 23
166.5499255543449
 33
0.0
  0
MTEXT
  5
5BDB
330
5BD7
100
AcDbEntity
  8
AM_5
 62
     2
100
AcDbMText
 10
665.3526756904734
 20
175.6479260196583
 30
0.0
 40
2.449999999999999
 41
0.0
 71
     7
 72
     5
  1

  7
ACISOTS
210
0.0
220
0.0
230
-1.0
 11
-1.0
 21
0.0000000000000002
 31
0.0
 73
     1
 44
1.0
1001
ACAD
1000
MTEXTBEGIN
1070
    73
1070
     1
1070
    44
1040
1.0
1070
    74
1070
     0
1000
MTEXTEND
  0
ENDBLK
  5
5BDD
330
5BD7
100
AcDbEntity
  8
0
100
AcDbBlockEnd
  0
BLOCK
  5
5BE4
330
5BDF
100
AcDbEntity
  8
0
100
AcDbBlockBegin
  2
*S26
 70
     1
 10
0.0
 20
0.0
 30
0.0
  3
*S26
  1

  0
LINE
  5
5BE0
330
5BDF
100
AcDbEntity
  8
AM_5
 62
     5
100
AcDbLine
 10
772.9535592820866
 20
94.68530033877721
 30
0.0
 11
758.9745974987493
 21
94.68530033877721
 31
0.0
  0
LINE
  5
5BE1
330
5BDF
100
AcDbEntity
  8
AM_5
 62
     5
100
AcDbLine
 10
758.9745974987493
 20
94.68530033877721
 30
0.0
 11
752.0012812001405
 21
103.5357122805899
 31
0.0
  0
TRACE
  5
5BE2
330
5BDF
100
AcDbEntity
  8
AM_5
 62
     5
370
    35
100
AcDbTrace
 10
752.254636772887
 20
103.7353333328519
 30
0.0
 11
751.7479256273938
 21
103.3360912283279
 31
0.0
 12
750.4850087646696
 22
105.4601389228476
 32
0.0
 13
750.4850087646696
 23
105.4601389228476
 33
0.0
  0
MTEXT
  5
5BE3
330
5BDF
100
AcDbEntity
  8
AM_5
 62
     2
100
AcDbMText
 10
772.9535592820866
 20
94.71450700548542
 30
0.0
 40
2.449999999999999
 41
0.0
 71
     7
 72
     5
  1

  7
ACISOTS
 73
     1
 44
1.0
1001
ACAD
1000
MTEXTBEGIN
1070
    73
1070
     1
1070
    44
1040
1.0
1070
    74
1070
     0
1000
MTEXTEND
  0
ENDBLK
  5
5BE5
330
5BDF
100
AcDbEntity
  8
0
100
AcDbBlockEnd
  0
BLOCK
  5
5BEC
330
5BE7
100
AcDbEntity
  8
0
100
AcDbBlockBegin
  2
*S27
 70
     1
 10
0.0
 20
0.0
 30
0.0
  3
*S27
  1

  0
LINE
  5
5BE8
330
5BE7
100
AcDbEntity
  8
AM_5
 62
     5
100
AcDbLine
 10
818.5080616616746
 20
153.2518223127969
 30
0.0
 11
807.8434730847172
 21
153.2518223127969
 31
0.0
  0
LINE
  5
5BE9
330
5BE7
100
AcDbEntity
  8
AM_5
 62
     5
100
AcDbLine
 10
807.8434730847172
 20
153.2518223127969
 30
0.0
 11
799.6950017971932
 21
159.8446216583878
 31
0.0
  0
TRACE
  5
5BEA
330
5BE7
100
AcDbEntity
  8
AM_5
 62
     5
370
    35
100
AcDbTrace
 10
799.8978822153101
 20
160.0953748172765
 30
0.0
 11
799.4921213790763
 21
159.5938684994991
 31
0.0
 12
797.7903424507876
 22
161.385651435566
 32
0.0
 13
797.7903424507876
 23
161.385651435566
 33
0.0
  0
MTEXT
  5
5BEB
330
5BE7
100
AcDbEntity
  8
AM_5
 62
     2
100
AcDbMText
 10
818.5080616616746
 20
153.2810289795051
 30
0.0
 40
2.449999999999999
 41
0.0
 71
     7
 72
     5
  1

  7
ACISOTS
 73
     1
 44
1.0
1001
ACAD
1000
MTEXTBEGIN
1070
    73
1070
     1
1070
    44
1040
1.0
1070
    74
1070
     0
1000
MTEXTEND
  0
ENDBLK
  5
5BED
330
5BE7
100
AcDbEntity
  8
0
100
AcDbBlockEnd
  0
BLOCK
  5
5BF4
330
5BEF
100
AcDbEntity
  8
0
100
AcDbBlockBegin
  2
*S28
 70
     1
 10
0.0
 20
0.0
 30
0.0
  3
*S28
  1

  0
LINE
  5
5BF0
330
5BEF
100
AcDbEntity
  8
AM_5
 62
     5
100
AcDbLine
 10
671.8750082550655
 20
122.851079508327
 30
0.0
 11
678.0094051690602
 21
122.851079508327
 31
0.0
  0
LINE
  5
5BF1
330
5BEF
100
AcDbEntity
  8
AM_5
 62
     5
100
AcDbLine
 10
678.0094051690602
 20
122.851079508327
 30
0.0
 11
681.4520464468571
 21
126.0926313145702
 31
0.0
  0
TRACE
  5
5BF2
330
5BEF
100
AcDbEntity
  8
AM_5
 62
     5
370
    35
100
AcDbTrace
 10
681.6731611993112
 20
125.8577997217317
 30
0.0
 11
681.2309316944029
 21
126.3274629074087
 31
0.0
 12
683.2357694919162
 22
127.7721646124017
 32
0.0
 13
683.2357694919162
 23
127.7721646124017
 33
0.0
  0
MTEXT
  5
5BF3
330
5BEF
100
AcDbEntity
  8
AM_5
 62
     2
100
AcDbMText
 10
671.8750082550655
 20
122.8802861750353
 30
0.0
 40
2.449999999999999
 41
0.0
 71
     7
 72
     5
  1

  7
ACISOTS
210
0.0
220
0.0
230
-1.0
 11
-1.0
 21
0.0000000000000002
 31
0.0
 73
     1
 44
1.0
1001
ACAD
1000
MTEXTBEGIN
1070
    73
1070
     1
1070
    44
1040
1.0
1070
    74
1070
     0
1000
MTEXTEND
  0
ENDBLK
  5
5BF5
330
5BEF
100
AcDbEntity
  8
0
100
AcDbBlockEnd
  0
BLOCK
  5
5BFC
330
5BF7
100
AcDbEntity
  8
0
100
AcDbBlockBegin
  2
*S29
 70
     1
 10
0.0
 20
0.0
 30
0.0
  3
*S29
  1

  0
LINE
  5
5BF8
330
5BF7
100
AcDbEntity
  8
AM_5
 62
     5
100
AcDbLine
 10
674.2287301534101
 20
91.49114262489263
 30
0.0
 11
676.9154384852668
 21
91.49114262489263
 31
0.0
  0
LINE
  5
5BF9
330
5BF7
100
AcDbEntity
  8
AM_5
 62
     5
100
AcDbLine
 10
676.9154384852668
 20
91.49114262489263
 30
0.0
 11
681.4379919338833
 21
102.7023905750261
 31
0.0
  0
TRACE
  5
5BFA
330
5BF7
100
AcDbEntity
  8
AM_5
 62
     5
370
    35
100
AcDbTrace
 10
681.7371194153634
 20
102.5817242559008
 30
0.0
 11
681.1388644524031
 21
102.8230568941515
 31
0.0
 12
682.3545436277363
 22
104.9744893828457
 32
0.0
 13
682.3545436277363
 23
104.9744893828457
 33
0.0
  0
MTEXT
  5
5BFB
330
5BF7
100
AcDbEntity
  8
AM_5
 62
     2
100
AcDbMText
 10
674.2287301534101
 20
91.52034929160084
 30
0.0
 40
2.449999999999999
 41
0.0
 71
     7
 72
     5
  1

  7
ACISOTS
210
0.0
220
0.0
230
-1.0
 11
-1.0
 21
0.0000000000000002
 31
0.0
 73
     1
 44
1.0
1001
ACAD
1000
MTEXTBEGIN
1070
    73
1070
     1
1070
    44
1040
1.0
1070
    74
1070
     0
1000
MTEXTEND
  0
ENDBLK
  5
5BFD
330
5BF7
100
AcDbEntity
  8
0
100
AcDbBlockEnd
  0
BLOCK
  5
5C04
330
5BFF
100
AcDbEntity
  8
0
100
AcDbBlockBegin
  2
*S30
 70
     1
 10
0.0
 20
0.0
 30
0.0
  3
*S30
  1

  0
LINE
  5
5C00
330
5BFF
100
AcDbEntity
  8
AM_5
 62
     5
100
AcDbLine
 10
674.2287301534101
 20
96.08528724597988
 30
0.0
 11
676.9154384852668
 21
96.08528724597988
 31
0.0
  0
LINE
  5
5C01
330
5BFF
100
AcDbEntity
  8
AM_5
 62
     5
100
AcDbLine
 10
676.9154384852668
 20
96.08528724597988
 30
0.0
 11
679.5482966889924
 21
102.6982608165507
 31
0.0
  0
TRACE
  5
5C02
330
5BFF
100
AcDbEntity
  8
AM_5
 62
     5
370
    35
100
AcDbTrace
 10
679.8479678634879
 20
102.5789511441665
 30
0.0
 11
679.248625514497
 21
102.817570488935
 31
0.0
 12
680.4545436277363
 22
104.9744893828457
 32
0.0
 13
680.4545436277363
 23
104.9744893828457
 33
0.0
  0
MTEXT
  5
5C03
330
5BFF
100
AcDbEntity
  8
AM_5
 62
     2
100
AcDbMText
 10
674.2287301534101
 20
96.11449391268809
 30
0.0
 40
2.449999999999999
 41
0.0
 71
     7
 72
     5
  1

  7
ACISOTS
210
0.0
220
0.0
230
-1.0
 11
-1.0
 21
0.0000000000000002
 31
0.0
 73
     1
 44
1.0
1001
ACAD
1000
MTEXTBEGIN
1070
    73
1070
     1
1070
    44
1040
1.0
1070
    74
1070
     0
1000
MTEXTEND
  0
ENDBLK
  5
5C05
330
5BFF
100
AcDbEntity
  8
0
100
AcDbBlockEnd
  0
BLOCK
  5
5C0C
330
5C07
100
AcDbEntity
  8
0
100
AcDbBlockBegin
  2
*S31
 70
     1
 10
0.0
 20
0.0
 30
0.0
  3
*S31
  1

  0
LINE
  5
5C08
330
5C07
100
AcDbEntity
  8
AM_5
 62
     5
100
AcDbLine
 10
693.1802373319334
 20
91.49114262489263
 30
0.0
 11
690.4935290000768
 21
91.49114262489263
 31
0.0
  0
LINE
  5
5C09
330
5C07
100
AcDbEntity
  8
AM_5
 62
     5
100
AcDbLine
 10
690.4935290000768
 20
91.49114262489263
 30
0.0
 11
685.9709755514603
 21
102.7023905750261
 31
0.0
  0
TRACE
  5
5C0A
330
5C07
100
AcDbEntity
  8
AM_5
 62
     5
370
    35
100
AcDbTrace
 10
686.2701030329405
 20
102.8230568941515
 30
0.0
 11
685.6718480699802
 21
102.5817242559008
 31
0.0
 12
685.0544238576072
 22
104.9744893828457
 32
0.0
 13
685.0544238576072
 23
104.9744893828457
 33
0.0
  0
MTEXT
  5
5C0B
330
5C07
100
AcDbEntity
  8
AM_5
 62
     2
100
AcDbMText
 10
693.1802373319334
 20
91.52034929160084
 30
0.0
 40
2.449999999999999
 41
0.0
 71
     7
 72
     5
  1

  7
ACISOTS
 73
     1
 44
1.0
1001
ACAD
1000
MTEXTBEGIN
1070
    73
1070
     1
1070
    44
1040
1.0
1070
    74
1070
     0
1000
MTEXTEND
  0
ENDBLK
  5
5C0D
330
5C07
100
AcDbEntity
  8
0
100
AcDbBlockEnd
  0
BLOCK
  5
5C14
330
5C0F
100
AcDbEntity
  8
0
100
AcDbBlockBegin
  2
*S32
 70
     1
 10
0.0
 20
0.0
 30
0.0
  3
*S32
  1

  0
LINE
  5
5C10
330
5C0F
100
AcDbEntity
  8
AM_5
 62
     5
100
AcDbLine
 10
693.1802373319334
 20
96.08528724597988
 30
0.0
 11
690.4935290000768
 21
96.08528724597988
 31
0.0
  0
LINE
  5
5C11
330
5C0F
100
AcDbEntity
  8
AM_5
 62
     5
100
AcDbLine
 10
690.4935290000768
 20
96.08528724597988
 30
0.0
 11
687.8606707963512
 21
102.6982608165507
 31
0.0
  0
TRACE
  5
5C12
330
5C0F
100
AcDbEntity
  8
AM_5
 62
     5
370
    35
100
AcDbTrace
 10
688.1603419708466
 20
102.817570488935
 30
0.0
 11
687.5609996218557
 21
102.5789511441665
 31
0.0
 12
686.9544238576072
 22
104.9744893828457
 32
0.0
 13
686.9544238576072
 23
104.9744893828457
 33
0.0
  0
MTEXT
  5
5C13
330
5C0F
100
AcDbEntity
  8
AM_5
 62
     2
100
AcDbMText
 10
693.1802373319334
 20
96.11449391268809
 30
0.0
 40
2.449999999999999
 41
0.0
 71
     7
 72
     5
  1

  7
ACISOTS
 73
     1
 44
1.0
1001
ACAD
1000
MTEXTBEGIN
1070
    73
1070
     1
1070
    44
1040
1.0
1070
    74
1070
     0
1000
MTEXTEND
  0
ENDBLK
  5
5C15
330
5C0F
100
AcDbEntity
  8
0
100
AcDbBlockEnd
  0
ENDSEC
  0
SECTION
  2
ENTITIES
  0
LINE
  5
D14
330
1F
100
AcDbEntity
  8
AM_VIS
100
AcDbLine
 10
745.6974360598691
 20
110.4571387496235
 30
0.0
 11
744.9827621468256
 21
110.4571387496235
 31
0.0
  0
LINE
  5
D15
330
1F
100
AcDbEntity
  8
AM_VIS
100
AcDbLine
 10
744.9827621468256
 20
110.4571387496235
 30
0.0
 11
744.9827621468256
 21
110.5114865757105
 31
0.0
  0
SPLINE
  5
D16
330
1F
100
AcDbEntity
  8
AM_VIS
100
AcDbSpline
210
0.0
220
0.0
230
1.0
 70
     8
 71
     3
 72
     8
 73
     4
 74
     0
 42
0.0000000001
 43
0.0000000001
 40
0.0
 40
0.0
 40
0.0
 40
0.0
 40
80.0
 40
80.0
 40
80.0
 40
80.0
 10
744.9827621468256
 20
110.5114865757105
 30
0.0
 10
745.0896461909752
 20
110.5223561409278
 30
0.0
 10
745.1602983648882
 20
110.5531532700199
 30
0.0
 10
745.1947186685647
 20
110.6038778800583
 30
0.0
  0
SPLINE
  5
D17
330
1F
100
AcDbEntity
  8
AM_VIS
100
AcDbSpline
210
0.0
220
0.0
230
1.0
 70
     8
 71
     3
 72
     8
 73
     4
 74
     0
 42
0.0000000001
 43
0.0000000001
 40
0.0
 40
0.0
 40
0.0
 40
0.0
 40
80.0
 40
80.0
 40
80.0
 40
80.0
 10
745.1947186685647
 20
110.6038778800583
 30
0.0
 10
745.2255157561926
 20
110.6473561409278
 30
0.0
 10
745.2409143207386
 20
110.7297836633383
 30
0.0
 10
745.2409143207386
 20
110.851160488754
 30
0.0
  0
LINE
  5
D18
330
1F
100
AcDbEntity
  8
AM_VIS
100
AcDbLine
 10
745.2409143207386
 20
110.851160488754
 30
0.0
 11
745.2409143207386
 21
112.1201822278844
 31
0.0
  0
SPLINE
  5
D19
330
1F
100
AcDbEntity
  8
AM_VIS
100
AcDbSpline
210
0.0
220
0.0
230
1.0
 70
     8
 71
     3
 72
     8
 73
     4
 74
     0
 42
0.0000000001
 43
0.0000000001
 40
0.0
 40
0.0
 40
0.0
 40
0.0
 40
80.0
 40
80.0
 40
80.0
 40
80.0
 10
745.2409143207386
 20
112.1201822278844
 30
0.0
 10
745.2409143207386
 20
112.2288778800583
 30
0.0
 10
745.2237041481684
 20
112.3004358372514
 30
0.0
 10
745.189283885956
 20
112.3348561409278
 30
0.0
  0
SPLINE
  5
D1A
330
1F
100
AcDbEntity
  8
AM_VIS
100
AcDbSpline
210
0.0
220
0.0
230
1.0
 70
     8
 71
     3
 72
     8
 73
     4
 74
     0
 42
0.0000000001
 43
0.0000000001
 40
0.0
 40
0.0
 40
0.0
 40
0.0
 40
80.0
 40
80.0
 40
80.0
 40
80.0
 10
745.189283885956
 20
112.3348561409278
 30
0.0
 10
745.1566751903039
 20
112.36746483658
 30
0.0
 10
745.087834582951
 20
112.3901097502949
 30
0.0
 10
744.9827621468256
 20
112.4027909235366
 30
0.0
  0
LINE
  5
D1B
330
1F
100
AcDbEntity
  8
AM_VIS
100
AcDbLine
 10
744.9827621468256
 20
112.4027909235365
 30
0.0
 11
744.9827621468256
 21
112.4571387496235
 31
0.0
  0
LINE
  5
D1C
330
1F
100
AcDbEntity
  8
AM_VIS
100
AcDbLine
 10
744.9827621468256
 20
112.4571387496235
 30
0.0
 11
745.6729795381299
 21
112.4571387496235
 31
0.0
  0
SPLINE
  5
D1D
330
1F
100
AcDbEntity
  8
AM_VIS
100
AcDbSpline
210
0.0
220
0.0
230
1.0
 70
     8
 71
     3
 72
     8
 73
     4
 74
     0
 42
0.0000000001
 43
0.0000000001
 40
0.0
 40
0.0
 40
0.0
 40
0.0
 40
80.0
 40
80.0
 40
80.0
 40
80.0
 10
745.6729795381299
 20
112.4571387496235
 30
0.0
 10
745.8704432786031
 20
112.4571387496235
 30
0.0
 10
746.0298635822796
 20
112.4154720553141
 30
0.0
 10
746.1512404076952
 20
112.3321387496235
 30
0.0
  0
SPLINE
  5
D1E
330
1F
100
AcDbEntity
  8
AM_VIS
100
AcDbSpline
210
0.0
220
0.0
230
1.0
 70
     8
 71
     3
 72
     8
 73
     4
 74
     0
 42
0.0000000001
 43
0.0000000001
 40
0.0
 40
0.0
 40
0.0
 40
0.0
 40
80.0
 40
80.0
 40
80.0
 40
80.0
 10
746.1512404076952
 20
112.3321387496235
 30
0.0
 10
746.2889215394727
 20
112.2361242292272
 30
0.0
 10
746.3577621468256
 20
112.0984430974496
 30
0.0
 10
746.3577621468256
 20
111.9190952713626
 30
0.0
  0
CIRCLE
  5
D20
330
1F
100
AcDbEntity
  8
AM_VIS
100
AcDbCircle
 10
748.4827621468342
 20
106.9571387496235
 30
0.0
 40
2.1
  0
LINE
  5
D21
330
1F
100
AcDbEntity
  8
AM_VIS
100
AcDbLine
 10
753.4827621468342
 20
113.4571387496235
 30
0.0
 11
756.4827621468342
 21
113.4571387496235
 31
0.0
  0
LINE
  5
D25
330
1F
100
AcDbEntity
  8
AM_VIS
100
AcDbLine
 10
753.4827621468342
 20
126.4571387496235
 30
0.0
 11
753.4827621468342
 21
113.4571387496235
 31
0.0
  0
LINE
  5
D26
330
1F
100
AcDbEntity
  8
AM_VIS
100
AcDbLine
 10
743.4827621468342
 20
113.4571387496235
 30
0.0
 11
743.4827621468342
 21
126.4571387496235
 31
0.0
  0
LINE
  5
D27
330
1F
100
AcDbEntity
  8
AM_VIS
100
AcDbLine
 10
753.4827621468342
 20
113.4571387496235
 30
0.0
 11
743.4827621468342
 21
113.4571387496235
 31
0.0
  0
LINE
  5
D28
330
1F
100
AcDbEntity
  8
AM_VIS
100
AcDbLine
 10
753.4827621468342
 20
126.4571387496235
 30
0.0
 11
743.4827621468342
 21
126.4571387496235
 31
0.0
  0
LINE
  5
D29
330
1F
100
AcDbEntity
  8
AM_VIS
100
AcDbLine
 10
752.4827621468342
 20
131.4571387496235
 30
0.0
 11
753.4827621468342
 21
129.9571387496235
 31
0.0
  0
LINE
  5
D2A
330
1F
100
AcDbEntity
  8
AM_VIS
100
AcDbLine
 10
744.7327621468343
 20
131.4571387496235
 30
0.0
 11
744.7327621468343
 21
134.9571387496235
 31
0.0
  0
LINE
  5
D2B
330
1F
100
AcDbEntity
  8
AM_VIS
100
AcDbLine
 10
744.7327621468343
 20
134.9571387496235
 30
0.0
 11
745.3327621468343
 21
135.9571387496235
 31
0.0
  0
LINE
  5
D2C
330
1F
100
AcDbEntity
  8
AM_VIS
100
AcDbLine
 10
745.4827621468342
 20
135.9571387496235
 30
0.0
 11
745.3327621468343
 21
135.9571387496235
 31
0.0
  0
LINE
  5
D2D
330
1F
100
AcDbEntity
  8
AM_VIS
100
AcDbLine
 10
745.4827621468342
 20
135.9571387496235
 30
0.0
 11
746.3827621468342
 21
135.9571387496235
 31
0.0
  0
LINE
  5
D2E
330
1F
100
AcDbEntity
  8
AM_VIS
100
AcDbLine
 10
745.4827621468342
 20
131.4571387496235
 30
0.0
 11
745.4827621468342
 21
135.9571387496235
 31
0.0
  0
LINE
  5
D2F
330
1F
100
AcDbEntity
  8
AM_VIS
100
AcDbLine
 10
746.3827621468342
 20
135.9571387496235
 30
0.0
 11
746.3827621468342
 21
131.4571387496235
 31
0.0
  0
LINE
  5
D30
330
1F
100
AcDbEntity
  8
AM_VIS
100
AcDbLine
 10
750.5827621468342
 20
135.9571387496235
 30
0.0
 11
746.3827621468342
 21
135.9571387496235
 31
0.0
  0
LINE
  5
D31
330
1F
100
AcDbEntity
  8
AM_VIS
100
AcDbLine
 10
751.6327621468342
 20
135.9571387496235
 30
0.0
 11
751.4827621468342
 21
135.9571387496235
 31
0.0
  0
LINE
  5
D32
330
1F
100
AcDbEntity
  8
AM_VIS
100
AcDbLine
 10
751.6327621468342
 20
135.9571387496235
 30
0.0
 11
752.2327621468342
 21
134.9571387496235
 31
0.0
  0
LINE
  5
D33
330
1F
100
AcDbEntity
  8
AM_VIS
100
AcDbLine
 10
752.2327621468342
 20
131.4571387496235
 30
0.0
 11
752.2327621468342
 21
134.9571387496235
 31
0.0
  0
LINE
  5
D34
330
1F
100
AcDbEntity
  8
AM_VIS
100
AcDbLine
 10
750.5827621468342
 20
135.9571387496235
 30
0.0
 11
751.4827621468342
 21
135.9571387496235
 31
0.0
  0
LINE
  5
D35
330
1F
100
AcDbEntity
  8
AM_VIS
100
AcDbLine
 10
750.5827621468342
 20
131.4571387496235
 30
0.0
 11
750.5827621468342
 21
135.9571387496235
 31
0.0
  0
LINE
  5
D36
330
1F
100
AcDbEntity
  8
AM_VIS
100
AcDbLine
 10
751.4827621468342
 20
135.9571387496235
 30
0.0
 11
751.4827621468342
 21
131.4571387496235
 31
0.0
  0
LINE
  5
D37
330
1F
100
AcDbEntity
  8
AM_VIS
100
AcDbLine
 10
747.9827621468342
 20
134.4571387496235
 30
0.0
 11
747.9827621468342
 21
133.2571387496235
 31
0.0
  0
LINE
  5
D38
330
1F
100
AcDbEntity
  8
AM_VIS
100
AcDbLine
 10
747.9827621468342
 20
134.4571387496235
 30
0.0
 11
748.9827621468342
 21
134.4571387496235
 31
0.0
  0
LINE
  5
D39
330
1F
100
AcDbEntity
  8
AM_VIS
100
AcDbLine
 10
748.9827621468342
 20
133.2571387496235
 30
0.0
 11
748.9827621468342
 21
134.4571387496235
 31
0.0
  0
LINE
  5
D3A
330
1F
100
AcDbEntity
  8
AM_VIS
100
AcDbLine
 10
747.9827621468342
 20
133.2571387496235
 30
0.0
 11
748.9827621468342
 21
133.2571387496235
 31
0.0
  0
LINE
  5
D3B
330
1F
100
AcDbEntity
  8
AM_VIS
100
AcDbLine
 10
752.4827621468342
 20
131.4571387496235
 30
0.0
 11
750.4827621468343
 21
131.4571387496235
 31
0.0
  0
LINE
  5
D3C
330
1F
100
AcDbEntity
  8
AM_VIS
100
AcDbLine
 10
743.4827621468342
 20
129.9571387496235
 30
0.0
 11
744.4827621468342
 21
131.4571387496235
 31
0.0
  0
LINE
  5
D3D
330
1F
100
AcDbEntity
  8
AM_VIS
100
AcDbLine
 10
746.4827621468343
 20
131.4571387496235
 30
0.0
 11
744.4827621468342
 21
131.4571387496235
 31
0.0
  0
LINE
  5
D3E
330
1F
100
AcDbEntity
  8
AM_VIS
100
AcDbLine
 10
750.4827621468343
 20
129.9571387496235
 30
0.0
 11
753.4827621468342
 21
129.9571387496235
 31
0.0
  0
LINE
  5
D3F
330
1F
100
AcDbEntity
  8
AM_VIS
100
AcDbLine
 10
753.4827621468342
 20
126.4571387496235
 30
0.0
 11
753.4827621468342
 21
129.9571387496235
 31
0.0
  0
LINE
  5
D40
330
1F
100
AcDbEntity
  8
AM_VIS
100
AcDbLine
 10
743.4827621468342
 20
126.4571387496235
 30
0.0
 11
753.4827621468342
 21
126.4571387496235
 31
0.0
  0
LINE
  5
D41
330
1F
100
AcDbEntity
  8
AM_VIS
100
AcDbLine
 10
743.4827621468342
 20
126.4571387496235
 30
0.0
 11
743.4827621468342
 21
129.9571387496235
 31
0.0
  0
LINE
  5
D42
330
1F
100
AcDbEntity
  8
AM_VIS
100
AcDbLine
 10
743.4827621468342
 20
129.9571387496235
 30
0.0
 11
746.4827621468343
 21
129.9571387496235
 31
0.0
  0
LINE
  5
D43
330
1F
100
AcDbEntity
  8
AM_VIS
100
AcDbLine
 10
750.4827621468343
 20
131.4571387496235
 30
0.0
 11
750.4827621468343
 21
129.9571387496235
 31
0.0
  0
LINE
  5
D44
330
1F
100
AcDbEntity
  8
AM_VIS
100
AcDbLine
 10
750.4827621468343
 20
129.9571387496235
 30
0.0
 11
750.4827621468343
 21
129.1571387496235
 31
0.0
  0
LINE
  5
D45
330
1F
100
AcDbEntity
  8
AM_VIS
100
AcDbLine
 10
746.4827621468343
 20
129.1571387496235
 30
0.0
 11
746.4827621468343
 21
129.9571387496235
 31
0.0
  0
LINE
  5
D46
330
1F
100
AcDbEntity
  8
AM_VIS
100
AcDbLine
 10
746.4827621468343
 20
129.9571387496235
 30
0.0
 11
746.4827621468343
 21
131.4571387496235
 31
0.0
  0
LINE
  5
D47
330
1F
100
AcDbEntity
  8
AM_VIS
100
AcDbLine
 10
750.4827621468343
 20
129.1571387496235
 30
0.0
 11
746.4827621468343
 21
129.1571387496235
 31
0.0
  0
LINE
  5
D48
330
1F
100
AcDbEntity
  8
AM_VIS
100
AcDbLine
 10
750.4827621468343
 20
129.8742960371489
 30
0.0
 11
746.4827621468343
 21
129.8742960371489
 31
0.0
  0
LINE
  5
D49
330
1F
100
AcDbEntity
  8
AM_VIS
100
AcDbLine
 10
746.4827621468343
 20
131.4571387496235
 30
0.0
 11
750.4827621468343
 21
131.4571387496235
 31
0.0
  0
ARC
  5
DA7
330
1F
100
AcDbEntity
  8
AM_4
100
AcDbCircle
 10
748.4827621468342
 20
106.9571387496235
 30
0.0
 40
2.5
100
AcDbArc
 50
280.0
 51
190.0
  0
LINE
  5
DA8
330
1F
100
AcDbEntity
  8
AM_VIS
100
AcDbLine
 10
780.8107889150432
 20
159.8291731425919
 30
0.0
 11
780.8107889150432
 21
165.3291731425919
 31
0.0
  0
LINE
  5
DA9
102
{ACAD_REACTORS
330
1ED2
102
}
330
1F
100
AcDbEntity
  8
AM_VIS
100
AcDbLine
 10
786.8107889150431
 20
159.8291731425919
 30
0.0
 11
780.8107889150432
 21
159.8291731425919
 31
0.0
  0
LINE
  5
DAA
102
{ACAD_REACTORS
330
1E84
330
1ED2
330
1EF8
102
}
330
1F
100
AcDbEntity
  8
AM_VIS
100
AcDbLine
 10
799.8107889150432
 20
159.8291731425919
 30
0.0
 11
793.8107889150431
 21
159.8291731425919
 31
0.0
  0
LINE
  5
DAB
102
{ACAD_REACTORS
330
453D
102
}
330
1F
100
AcDbEntity
  8
AM_VIS
100
AcDbLine
 10
799.8107889150432
 20
165.3291731425919
 30
0.0
 11
799.8107889150432
 21
159.829173142592
 31
0.0
  0
LINE
  5
DAC
330
1F
100
AcDbEntity
  8
AM_VIS
100
AcDbLine
 10
793.8107889150431
 20
159.8291731425919
 30
0.0
 11
793.8107889150431
 21
162.3291731425919
 31
0.0
  0
LINE
  5
DAD
330
1F
100
AcDbEntity
  8
AM_VIS
100
AcDbLine
 10
793.8107889150431
 20
159.8291731425919
 30
0.0
 11
786.8107889150431
 21
159.8291731425919
 31
0.0
  0
LINE
  5
DAE
330
1F
100
AcDbEntity
  8
AM_VIS
100
AcDbLine
 10
786.8107889150431
 20
162.3291731425919
 30
0.0
 11
786.8107889150431
 21
159.8291731425919
 31
0.0
  0
LINE
  5
DAF
330
1F
100
AcDbEntity
  8
AM_VIS
100
AcDbLine
 10
799.8107889150432
 20
173.3400427077963
 30
0.0
 11
799.8107889150432
 21
173.0900427077963
 31
0.0
  0
LINE
  5
DB0
330
1F
100
AcDbEntity
  8
AM_VIS
100
AcDbLine
 10
799.8107889150432
 20
173.0900427077963
 30
0.0
 11
799.8107889150432
 21
172.7612383599702
 31
0.0
  0
LINE
  5
DB1
330
1F
100
AcDbEntity
  8
AM_VIS
100
AcDbLine
 10
799.8107889150432
 20
172.7612383599702
 30
0.0
 11
799.8107889150432
 21
172.6253687947529
 31
0.0
  0
LINE
  5
DB2
330
1F
100
AcDbEntity
  8
AM_VIS
100
AcDbLine
 10
799.8107889150432
 20
172.6253687947529
 30
0.0
 11
799.8107889150432
 21
172.5818905338833
 31
0.0
  0
CIRCLE
  5
DB3
330
1F
100
AcDbEntity
  8
AM_VIS
100
AcDbCircle
 10
783.8107889150432
 20
162.3291731425919
 30
0.0
 40
1.3
  0
CIRCLE
  5
DB4
330
1F
100
AcDbEntity
  8
AM_VIS
100
AcDbCircle
 10
796.8107889150432
 20
162.3291731425919
 30
0.0
 40
1.3
  0
ARC
  5
DB5
330
1F
100
AcDbEntity
  8
AM_VIS
100
AcDbCircle
 10
796.8107889150432
 20
162.3291731425919
 30
0.0
 40
3.0
100
AcDbArc
 50
90.0
 51
180.0
  0
ARC
  5
DB6
330
1F
100
AcDbEntity
  8
AM_VIS
100
AcDbCircle
 10
783.8107889150432
 20
162.3291731425919
 30
0.0
 40
3.0
100
AcDbArc
 50
0.0
 51
90.0
  0
LINE
  5
DB7
330
1F
100
AcDbEntity
  8
AM_VIS
100
AcDbLine
 10
789.3107889150432
 20
167.729173142592
 30
0.0
 11
792.0108183270623
 21
167.729173142592
 31
0.0
  0
LINE
  5
DB8
330
1F
100
AcDbEntity
  8
AM_VIS
100
AcDbLine
 10
796.7107889150431
 20
166.429173142592
 30
0.0
 11
796.7107889150431
 21
174.229173142592
 31
0.0
  0
LINE
  5
DB9
330
1F
100
AcDbEntity
  8
AM_VIS
100
AcDbLine
 10
796.2107889150431
 20
173.729173142592
 30
0.0
 11
796.7107889150431
 21
173.729173142592
 31
0.0
  0
LINE
  5
DBA
330
1F
100
AcDbEntity
  8
AM_VIS
100
AcDbLine
 10
796.7107889150431
 20
166.929173142592
 30
0.0
 11
796.2107889150431
 21
166.929173142592
 31
0.0
  0
LINE
  5
DBB
330
1F
100
AcDbEntity
  8
AM_VIS
100
AcDbLine
 10
792.0108183270623
 20
172.929173142592
 30
0.0
 11
789.3107889150432
 21
172.929173142592
 31
0.0
  0
LINE
  5
DBC
330
1F
100
AcDbEntity
  8
AM_VIS
100
AcDbLine
 10
792.0107889150431
 20
175.329173142592
 30
0.0
 11
795.5307889150432
 21
175.329173142592
 31
0.0
  0
ARC
  5
DBD
330
1F
100
AcDbEntity
  8
AM_VIS
100
AcDbCircle
 10
793.7082814186958
 20
173.5841740102247
 30
0.0
 40
1.825539782311383
100
AcDbArc
 50
288.6363679025929
 51
304.6231278646357
  0
LINE
  5
DBE
330
1F
100
AcDbEntity
  8
AM_VIS
100
AcDbLine
 10
796.2107889150431
 20
166.429173142592
 30
0.0
 11
796.2107889150431
 21
167.079173142592
 31
0.0
  0
LINE
  5
DBF
330
1F
100
AcDbEntity
  8
AM_VIS
100
AcDbLine
 10
798.7107889150431
 20
166.429173142592
 30
0.0
 11
796.2107889150431
 21
166.429173142592
 31
0.0
  0
LINE
  5
DC0
330
1F
100
AcDbEntity
  8
AM_VIS
100
AcDbLine
 10
798.7107889150431
 20
174.229173142592
 30
0.0
 11
798.7107889150431
 21
166.429173142592
 31
0.0
  0
LINE
  5
DC1
330
1F
100
AcDbEntity
  8
AM_VIS
100
AcDbLine
 10
796.2107889150431
 20
174.229173142592
 30
0.0
 11
798.7107889150431
 21
174.229173142592
 31
0.0
  0
LINE
  5
DC2
330
1F
100
AcDbEntity
  8
AM_VIS
100
AcDbLine
 10
796.2107889150431
 20
173.579173142592
 30
0.0
 11
796.2107889150431
 21
174.229173142592
 31
0.0
  0
LINE
  5
DC3
330
1F
100
AcDbEntity
  8
AM_VIS
100
AcDbLine
 10
795.5307889150432
 20
175.329173142592
 30
0.0
 11
795.5307889150432
 21
173.579173142592
 31
0.0
  0
LINE
  5
DC4
330
1F
100
AcDbEntity
  8
AM_VIS
100
AcDbLine
 10
795.5307889150432
 20
175.329173142592
 30
0.0
 11
799.8107889150432
 21
175.329173142592
 31
0.0
  0
LINE
  5
DC5
102
{ACAD_REACTORS
330
453D
330
4563
102
}
330
1F
100
AcDbEntity
  8
AM_VIS
100
AcDbLine
 10
799.8107889150432
 20
175.329173142592
 30
0.0
 11
799.8107889150432
 21
165.329173142592
 31
0.0
  0
LINE
  5
DC6
330
1F
100
AcDbEntity
  8
AM_VIS
100
AcDbLine
 10
799.8107889150432
 20
165.329173142592
 30
0.0
 11
795.5307889150432
 21
165.329173142592
 31
0.0
  0
LINE
  5
DC7
330
1F
100
AcDbEntity
  8
AM_VIS
100
AcDbLine
 10
795.5307889150432
 20
165.329173142592
 30
0.0
 11
792.0107889150431
 21
165.329173142592
 31
0.0
  0
ARC
  5
DC8
330
1F
100
AcDbEntity
  8
AM_VIS
100
AcDbCircle
 10
793.7082814186956
 20
167.0741722749587
 30
0.0
 40
1.825539782311866
100
AcDbArc
 50
55.37687213536496
 51
71.36363209740074
  0
LINE
  5
DC9
330
1F
100
AcDbEntity
  8
AM_VIS
100
AcDbLine
 10
795.5307889150432
 20
167.079173142592
 30
0.0
 11
795.5307889150432
 21
165.329173142592
 31
0.0
  0
LINE
  5
DCA
330
1F
100
AcDbEntity
  8
AM_VIS
100
AcDbLine
 10
792.6107889150431
 20
171.7988669882619
 30
0.0
 11
792.6107889150431
 21
170.729173142592
 31
0.0
  0
LINE
  5
DCB
330
1F
100
AcDbEntity
  8
AM_VIS
100
AcDbLine
 10
792.6107889150431
 20
169.929173142592
 30
0.0
 11
792.6107889150431
 21
168.8594792969221
 31
0.0
  0
LINE
  5
DCC
330
1F
100
AcDbEntity
  8
AM_VIS
100
AcDbLine
 10
792.0107889150431
 20
170.729173142592
 30
0.0
 11
792.0107889150431
 21
171.7988669882619
 31
0.0
  0
LINE
  5
DCD
330
1F
100
AcDbEntity
  8
AM_VIS
100
AcDbLine
 10
792.0107889150431
 20
168.8594792969221
 30
0.0
 11
792.0107889150431
 21
169.929173142592
 31
0.0
  0
ARC
  5
DCE
330
1F
100
AcDbEntity
  8
AM_VIS
100
AcDbCircle
 10
792.3107889150432
 20
170.329173142592
 30
0.0
 40
2.5
100
AcDbArc
 50
322.4052366676981
 51
37.5947633323019
  0
ARC
  5
DCF
330
1F
100
AcDbEntity
  8
AM_VIS
100
AcDbCircle
 10
792.3107889150432
 20
170.329173142592
 30
0.0
 40
3.0
100
AcDbArc
 50
337.3077220085489
 51
22.69227799145108
  0
ARC
  5
DD0
330
1F
100
AcDbEntity
  8
AM_VIS
100
AcDbCircle
 10
793.7107889150431
 20
173.579173142592
 30
0.0
 40
1.819999999999999
100
AcDbArc
 50
200.9248324276391
 51
288.6118775363934
  0
ARC
  5
DD1
330
1F
100
AcDbEntity
  8
AM_VIS
100
AcDbCircle
 10
792.3107889150432
 20
170.329173142592
 30
0.0
 40
3.0
100
AcDbArc
 50
324.249947146107
 51
337.3077220085489
  0
ARC
  5
DD2
330
1F
100
AcDbEntity
  8
AM_VIS
100
AcDbCircle
 10
793.7107889150431
 20
167.079173142592
 30
0.0
 40
2.5
100
AcDbArc
 50
0.0
 51
56.831157478123
  0
ARC
  5
DD3
330
1F
100
AcDbEntity
  8
AM_VIS
100
AcDbCircle
 10
793.7107889150431
 20
173.579173142592
 30
0.0
 40
2.5
100
AcDbArc
 50
303.168842521877
 51
0.0
  0
ARC
  5
DD4
330
1F
100
AcDbEntity
  8
AM_VIS
100
AcDbCircle
 10
792.3107889150432
 20
170.329173142592
 30
0.0
 40
3.0
100
AcDbArc
 50
22.69227799145108
 51
35.750052853893
  0
ARC
  5
DD5
330
1F
100
AcDbEntity
  8
AM_VIS
100
AcDbCircle
 10
793.7107889150431
 20
173.579173142592
 30
0.0
 40
1.819999999999999
100
AcDbArc
 50
304.647618230835
 51
0.0
  0
ARC
  5
DD6
330
1F
100
AcDbEntity
  8
AM_VIS
100
AcDbCircle
 10
793.7107889150431
 20
167.079173142592
 30
0.0
 40
1.819999999999999
100
AcDbArc
 50
159.0751675723605
 51
159.0777603174244
  0
ARC
  5
DD7
330
1F
100
AcDbEntity
  8
AM_VIS
100
AcDbCircle
 10
793.7107889150431
 20
167.079173142592
 30
0.0
 40
1.819999999999999
100
AcDbArc
 50
71.38812246360666
 51
159.0751675723608
  0
ARC
  5
DD8
330
1F
100
AcDbEntity
  8
AM_VIS
100
AcDbCircle
 10
793.7107889150431
 20
167.079173142592
 30
0.0
 40
1.819999999999999
100
AcDbArc
 50
0.0
 51
55.352381769165
  0
CIRCLE
  5
DD9
330
1F
100
AcDbEntity
  8
AM_VIS
100
AcDbCircle
 10
792.3107889150432
 20
170.329173142592
 30
0.0
 40
1.6
  0
ARC
  5
DDA
330
1F
100
AcDbEntity
  8
AM_VIS
100
AcDbCircle
 10
792.3107889150432
 20
170.329173142592
 30
0.0
 40
1.5
100
AcDbArc
 50
101.536959032818
 51
258.4630409671819
  0
ARC
  5
DDB
330
1F
100
AcDbEntity
  8
AM_VIS
100
AcDbCircle
 10
792.3107889150432
 20
170.329173142592
 30
0.0
 40
1.5
100
AcDbArc
 50
281.5369590328181
 51
78.46304096718196
  0
ARC
  5
DDC
330
1F
100
AcDbEntity
  8
AM_VIS
100
AcDbCircle
 10
792.3107889150432
 20
170.329173142592
 30
0.0
 40
1.5
100
AcDbArc
 50
78.46304096718196
 51
101.536959032818
  0
ARC
  5
DDD
330
1F
100
AcDbEntity
  8
AM_VIS
100
AcDbCircle
 10
792.3107889150432
 20
170.329173142592
 30
0.0
 40
1.5
100
AcDbArc
 50
258.4630409671819
 51
281.5369590328181
  0
ARC
  5
DDE
330
1F
100
AcDbEntity
  8
AM_VIS
100
AcDbCircle
 10
792.3107889150432
 20
170.329173142592
 30
0.0
 40
0.5
100
AcDbArc
 50
53.13010235415483
 51
126.8698976458451
  0
ARC
  5
DDF
330
1F
100
AcDbEntity
  8
AM_VIS
100
AcDbCircle
 10
792.3107889150432
 20
170.329173142592
 30
0.0
 40
0.5
100
AcDbArc
 50
306.8698976458452
 51
53.13010235415483
  0
ARC
  5
DE0
330
1F
100
AcDbEntity
  8
AM_VIS
100
AcDbCircle
 10
792.3107889150432
 20
170.329173142592
 30
0.0
 40
0.5
100
AcDbArc
 50
233.1301023541549
 51
306.8698976458452
  0
ARC
  5
DE1
330
1F
100
AcDbEntity
  8
AM_VIS
100
AcDbCircle
 10
792.3107889150432
 20
170.329173142592
 30
0.0
 40
0.5
100
AcDbArc
 50
126.8698976458451
 51
233.1301023541549
  0
LINE
  5
DE2
330
1F
100
AcDbEntity
  8
AM_VIS
100
AcDbLine
 10
791.5107889150431
 20
165.329173142592
 30
0.0
 11
789.3107889150432
 21
165.329173142592
 31
0.0
  0
LINE
  5
DE3
330
1F
100
AcDbEntity
  8
AM_VIS
100
AcDbLine
 10
791.5107889150431
 20
167.729173142592
 30
0.0
 11
789.3107889150432
 21
167.729173142592
 31
0.0
  0
LINE
  5
DE4
330
1F
100
AcDbEntity
  8
AM_VIS
100
AcDbLine
 10
791.5107889150431
 20
167.729173142592
 30
0.0
 11
791.5107889150431
 21
165.329173142592
 31
0.0
  0
LINE
  5
DE5
330
1F
100
AcDbEntity
  8
AM_VIS
100
AcDbLine
 10
792.0107889150431
 20
165.329173142592
 30
0.0
 11
792.0107889150431
 21
167.729173142592
 31
0.0
  0
LINE
  5
DE6
330
1F
100
AcDbEntity
  8
AM_VIS
100
AcDbLine
 10
791.5107889150431
 20
165.329173142592
 30
0.0
 11
792.0107889150431
 21
165.329173142592
 31
0.0
  0
LINE
  5
DE7
330
1F
100
AcDbEntity
  8
AM_VIS
100
AcDbLine
 10
791.5107889150431
 20
175.329173142592
 30
0.0
 11
789.3107889150432
 21
175.329173142592
 31
0.0
  0
LINE
  5
DE8
330
1F
100
AcDbEntity
  8
AM_VIS
100
AcDbLine
 10
789.3107889150432
 20
172.929173142592
 30
0.0
 11
791.5107889150431
 21
172.929173142592
 31
0.0
  0
LINE
  5
DE9
330
1F
100
AcDbEntity
  8
AM_VIS
100
AcDbLine
 10
791.5107889150431
 20
175.329173142592
 30
0.0
 11
791.5107889150431
 21
172.929173142592
 31
0.0
  0
LINE
  5
DEA
330
1F
100
AcDbEntity
  8
AM_VIS
100
AcDbLine
 10
792.0107889150431
 20
175.329173142592
 30
0.0
 11
791.5107889150431
 21
175.329173142592
 31
0.0
  0
LINE
  5
DEB
330
1F
100
AcDbEntity
  8
AM_VIS
100
AcDbLine
 10
792.0107889150431
 20
172.929173142592
 30
0.0
 11
792.0107889150431
 21
175.329173142592
 31
0.0
  0
LINE
  5
DEC
330
1F
100
AcDbEntity
  8
AM_VIS
100
AcDbLine
 10
789.3107889150432
 20
165.329173142592
 30
0.0
 11
789.3107889150432
 21
175.329173142592
 31
0.0
  0
LINE
  5
DED
330
1F
100
AcDbEntity
  8
AM_VIS
100
AcDbLine
 10
789.3107889150432
 20
175.329173142592
 30
0.0
 11
772.3107889150432
 21
175.329173142592
 31
0.0
  0
LINE
  5
DEE
330
1F
100
AcDbEntity
  8
AM_VIS
100
AcDbLine
 10
787.8107889150432
 20
174.329173142592
 30
0.0
 11
789.3107889150432
 21
175.329173142592
 31
0.0
  0
LINE
  5
DEF
330
1F
100
AcDbEntity
  8
AM_VIS
100
AcDbLine
 10
789.3107889150432
 20
165.329173142592
 30
0.0
 11
787.8107889150432
 21
166.329173142592
 31
0.0
  0
LINE
  5
DF0
330
1F
100
AcDbEntity
  8
AM_VIS
100
AcDbLine
 10
772.3107889150432
 20
165.329173142592
 30
0.0
 11
789.3107889150432
 21
165.329173142592
 31
0.0
  0
LINE
  5
DF1
330
1F
100
AcDbEntity
  8
AM_VIS
100
AcDbLine
 10
773.8107889150431
 20
166.329173142592
 30
0.0
 11
772.3107889150432
 21
165.329173142592
 31
0.0
  0
LINE
  5
DF2
330
1F
100
AcDbEntity
  8
AM_VIS
100
AcDbLine
 10
781.7107889150431
 20
174.079173142592
 30
0.0
 11
776.3107889150432
 21
174.079173142592
 31
0.0
  0
LINE
  5
DF3
330
1F
100
AcDbEntity
  8
AM_VIS
100
AcDbLine
 10
777.3107889150431
 20
167.579173142592
 30
0.0
 11
777.3107889150431
 21
173.079173142592
 31
0.0
  0
LINE
  5
DF4
330
1F
100
AcDbEntity
  8
AM_VIS
100
AcDbLine
 10
780.7107889150431
 20
167.579173142592
 30
0.0
 11
777.3107889150431
 21
167.579173142592
 31
0.0
  0
LINE
  5
DF5
330
1F
100
AcDbEntity
  8
AM_VIS
100
AcDbLine
 10
780.7107889150431
 20
173.079173142592
 30
0.0
 11
780.7107889150431
 21
167.579173142592
 31
0.0
  0
LINE
  5
DF6
330
1F
100
AcDbEntity
  8
AM_VIS
100
AcDbLine
 10
777.3107889150431
 20
173.079173142592
 30
0.0
 11
780.7107889150431
 21
173.079173142592
 31
0.0
  0
LINE
  5
DF7
330
1F
100
AcDbEntity
  8
AM_VIS
100
AcDbLine
 10
776.3107889150432
 20
173.479173142592
 30
0.0
 11
781.4107889150432
 21
173.479173142592
 31
0.0
  0
LINE
  5
DF8
330
1F
100
AcDbEntity
  8
AM_VIS
100
AcDbLine
 10
776.3107889150432
 20
166.579173142592
 30
0.0
 11
781.7107889150431
 21
166.579173142592
 31
0.0
  0
LINE
  5
DF9
330
1F
100
AcDbEntity
  8
AM_VIS
100
AcDbLine
 10
781.4107889150432
 20
167.179173142592
 30
0.0
 11
776.3107889150432
 21
167.179173142592
 31
0.0
  0
LINE
  5
DFA
330
1F
100
AcDbEntity
  8
AM_VIS
100
AcDbLine
 10
781.4107889150432
 20
173.479173142592
 30
0.0
 11
781.4107889150432
 21
167.179173142592
 31
0.0
  0
LINE
  5
DFB
330
1F
100
AcDbEntity
  8
AM_VIS
100
AcDbLine
 10
781.7107889150431
 20
174.079173142592
 30
0.0
 11
781.4107889150432
 21
173.479173142592
 31
0.0
  0
LINE
  5
DFC
330
1F
100
AcDbEntity
  8
AM_VIS
100
AcDbLine
 10
781.7107889150431
 20
166.579173142592
 30
0.0
 11
781.7107889150431
 21
174.079173142592
 31
0.0
  0
LINE
  5
DFD
330
1F
100
AcDbEntity
  8
AM_VIS
100
AcDbLine
 10
781.4107889150432
 20
167.179173142592
 30
0.0
 11
781.7107889150431
 21
166.579173142592
 31
0.0
  0
LINE
  5
DFE
330
1F
100
AcDbEntity
  8
AM_VIS
100
AcDbLine
 10
776.3107889150432
 20
174.079173142592
 30
0.0
 11
776.3107889150432
 21
173.479173142592
 31
0.0
  0
LINE
  5
DFF
330
1F
100
AcDbEntity
  8
AM_VIS
100
AcDbLine
 10
776.3107889150432
 20
173.329173142592
 30
0.0
 11
776.3107889150432
 21
173.479173142592
 31
0.0
  0
LINE
  5
E00
330
1F
100
AcDbEntity
  8
AM_VIS
100
AcDbLine
 10
774.8107889150432
 20
173.329173142592
 30
0.0
 11
774.8107889150432
 21
172.429173142592
 31
0.0
  0
LINE
  5
E01
330
1F
100
AcDbEntity
  8
AM_VIS
100
AcDbLine
 10
776.3107889150432
 20
173.329173142592
 30
0.0
 11
774.8107889150432
 21
173.329173142592
 31
0.0
  0
LINE
  5
E02
330
1F
100
AcDbEntity
  8
AM_VIS
100
AcDbLine
 10
776.3107889150432
 20
172.429173142592
 30
0.0
 11
774.8107889150432
 21
172.429173142592
 31
0.0
  0
LINE
  5
E03
330
1F
100
AcDbEntity
  8
AM_VIS
100
AcDbLine
 10
776.3107889150432
 20
168.229173142592
 30
0.0
 11
776.3107889150432
 21
172.429173142592
 31
0.0
  0
LINE
  5
E04
330
1F
100
AcDbEntity
  8
AM_VIS
100
AcDbLine
 10
776.3107889150432
 20
167.179173142592
 30
0.0
 11
776.3107889150432
 21
167.329173142592
 31
0.0
  0
LINE
  5
E05
330
1F
100
AcDbEntity
  8
AM_VIS
100
AcDbLine
 10
776.3107889150432
 20
167.179173142592
 30
0.0
 11
776.3107889150432
 21
166.579173142592
 31
0.0
  0
LINE
  5
E06
330
1F
100
AcDbEntity
  8
AM_VIS
100
AcDbLine
 10
774.8107889150432
 20
168.229173142592
 30
0.0
 11
774.8107889150432
 21
167.329173142592
 31
0.0
  0
LINE
  5
E07
330
1F
100
AcDbEntity
  8
AM_VIS
100
AcDbLine
 10
776.3107889150432
 20
168.229173142592
 30
0.0
 11
774.8107889150432
 21
168.229173142592
 31
0.0
  0
LINE
  5
E08
330
1F
100
AcDbEntity
  8
AM_VIS
100
AcDbLine
 10
776.3107889150432
 20
167.329173142592
 30
0.0
 11
774.8107889150432
 21
167.329173142592
 31
0.0
  0
LINE
  5
E09
330
1F
100
AcDbEntity
  8
AM_VIS
100
AcDbLine
 10
776.3107889150432
 20
170.829173142592
 30
0.0
 11
775.8107889150432
 21
170.829173142592
 31
0.0
  0
LINE
  5
E0A
330
1F
100
AcDbEntity
  8
AM_VIS
100
AcDbLine
 10
775.8107889150432
 20
169.829173142592
 30
0.0
 11
776.3107889150432
 21
169.829173142592
 31
0.0
  0
LINE
  5
E0B
330
1F
100
AcDbEntity
  8
AM_VIS
100
AcDbLine
 10
775.8107889150432
 20
170.829173142592
 30
0.0
 11
775.8107889150432
 21
169.829173142592
 31
0.0
  0
LINE
  5
E0C
330
1F
100
AcDbEntity
  8
AM_VIS
100
AcDbLine
 10
773.8107889150431
 20
174.329173142592
 30
0.0
 11
787.8107889150432
 21
174.329173142592
 31
0.0
  0
LINE
  5
E0D
330
1F
100
AcDbEntity
  8
AM_VIS
100
AcDbLine
 10
787.8107889150432
 20
174.329173142592
 30
0.0
 11
787.8107889150432
 21
166.329173142592
 31
0.0
  0
LINE
  5
E0E
330
1F
100
AcDbEntity
  8
AM_VIS
100
AcDbLine
 10
787.8107889150432
 20
166.329173142592
 30
0.0
 11
773.8107889150431
 21
166.329173142592
 31
0.0
  0
LINE
  5
E0F
330
1F
100
AcDbEntity
  8
AM_VIS
100
AcDbLine
 10
773.8107889150431
 20
166.329173142592
 30
0.0
 11
773.8107889150431
 21
168.329173142592
 31
0.0
  0
LINE
  5
E10
330
1F
100
AcDbEntity
  8
AM_VIS
100
AcDbLine
 10
772.3107889150432
 20
175.329173142592
 30
0.0
 11
773.8107889150431
 21
174.329173142592
 31
0.0
  0
LINE
  5
E11
330
1F
100
AcDbEntity
  8
AM_VIS
100
AcDbLine
 10
773.8107889150431
 20
172.329173142592
 30
0.0
 11
773.8107889150431
 21
174.329173142592
 31
0.0
  0
LINE
  5
E12
102
{ACAD_REACTORS
330
1EF8
102
}
330
1F
100
AcDbEntity
  8
AM_VIS
100
AcDbLine
 10
772.3107889150432
 20
168.329173142592
 30
0.0
 11
772.3107889150432
 21
165.329173142592
 31
0.0
  0
LINE
  5
E13
330
1F
100
AcDbEntity
  8
AM_VIS
100
AcDbLine
 10
772.3107889150432
 20
175.329173142592
 30
0.0
 11
772.3107889150432
 21
172.329173142592
 31
0.0
  0
LINE
  5
E14
330
1F
100
AcDbEntity
  8
AM_VIS
100
AcDbLine
 10
774.0936316275178
 20
168.329173142592
 30
0.0
 11
773.8107889150431
 21
168.329173142592
 31
0.0
  0
LINE
  5
E15
330
1F
100
AcDbEntity
  8
AM_VIS
100
AcDbLine
 10
773.8107889150431
 20
168.329173142592
 30
0.0
 11
772.3107889150432
 21
168.329173142592
 31
0.0
  0
LINE
  5
E16
330
1F
100
AcDbEntity
  8
AM_VIS
100
AcDbLine
 10
773.8107889150431
 20
172.329173142592
 30
0.0
 11
774.0936316275178
 21
172.329173142592
 31
0.0
  0
LINE
  5
E17
330
1F
100
AcDbEntity
  8
AM_VIS
100
AcDbLine
 10
772.3107889150432
 20
172.329173142592
 30
0.0
 11
773.8107889150431
 21
172.329173142592
 31
0.0
  0
LINE
  5
E18
330
1F
100
AcDbEntity
  8
AM_VIS
100
AcDbLine
 10
772.3107889150432
 20
168.329173142592
 30
0.0
 11
772.3107889150432
 21
172.329173142592
 31
0.0
  0
LINE
  5
E19
330
1F
100
AcDbEntity
  8
AM_VIS
100
AcDbLine
 10
772.5107889150431
 20
168.329173142592
 30
0.0
 11
772.5107889150431
 21
172.329173142592
 31
0.0
  0
LINE
  5
E1A
330
1F
100
AcDbEntity
  8
AM_VIS
100
AcDbLine
 10
774.0936316275178
 20
172.329173142592
 30
0.0
 11
774.0936316275178
 21
168.329173142592
 31
0.0
  0
CIRCLE
  5
E1B
330
1F
100
AcDbEntity
  8
AM_VIS
100
AcDbCircle
 10
779.5107889150432
 20
171.829173142592
 30
0.0
 40
0.25
  0
CIRCLE
  5
E1C
330
1F
100
AcDbEntity
  8
AM_VIS
100
AcDbCircle
 10
779.5107889150431
 20
168.829173142592
 30
0.0
 40
0.25
  0
LINE
  5
E1D
330
1F
100
AcDbEntity
  8
AM_VIS
100
AcDbLine
 10
793.6577597679467
 20
167.2952614568485
 30
0.0
 11
793.7107889150431
 21
167.079173142592
 31
0.0
  0
LINE
  5
E1E
330
1F
100
AcDbEntity
  8
AM_VIS
100
AcDbLine
 10
793.7107889150431
 20
167.079173142592
 30
0.0
 11
793.7638180621396
 21
166.8630848283354
 31
0.0
  0
LINE
  5
E1F
330
1F
100
AcDbEntity
  8
AM_VIS
100
AcDbLine
 10
793.7107889150431
 20
167.079173142592
 30
0.0
 11
793.8738480822036
 21
167.3482906039456
 31
0.0
  0
LINE
  5
E20
330
1F
100
AcDbEntity
  8
AM_VIS
100
AcDbLine
 10
793.4416714536909
 20
167.2422323097515
 30
0.0
 11
793.7107889150431
 21
167.079173142592
 31
0.0
  0
LINE
  5
E21
330
1F
100
AcDbEntity
  8
AM_VIS
100
AcDbLine
 10
793.8738480822051
 20
167.3482906039455
 30
0.0
 11
793.4416714536921
 21
167.2422323097524
 31
0.0
  0
LINE
  5
E22
330
1F
100
AcDbEntity
  8
AM_VIS
100
AcDbLine
 10
793.547729747885
 20
166.8100556812394
 30
0.0
 11
793.441671453692
 21
167.2422323097524
 31
0.0
  0
LINE
  5
E23
330
1F
100
AcDbEntity
  8
AM_VIS
100
AcDbLine
 10
793.9268772293015
 20
167.1322022896889
 30
0.0
 11
793.7107889150431
 21
167.079173142592
 31
0.0
  0
LINE
  5
E24
330
1F
100
AcDbEntity
  8
AM_VIS
100
AcDbLine
 10
793.9799063763969
 20
166.9161139754316
 30
0.0
 11
793.7107889150431
 21
167.079173142592
 31
0.0
  0
LINE
  5
E25
330
1F
100
AcDbEntity
  8
AM_VIS
100
AcDbLine
 10
793.547729747885
 20
166.8100556812394
 30
0.0
 11
793.9799063763981
 21
166.9161139754324
 31
0.0
  0
LINE
  5
E26
330
1F
100
AcDbEntity
  8
AM_VIS
100
AcDbLine
 10
793.7107889150431
 20
167.079173142592
 30
0.0
 11
793.4947006007886
 21
167.0261439954959
 31
0.0
  0
LINE
  5
E27
330
1F
100
AcDbEntity
  8
AM_VIS
100
AcDbLine
 10
793.7107889150431
 20
167.079173142592
 30
0.0
 11
793.5477297478836
 21
166.8100556812396
 31
0.0
  0
LINE
  5
E28
330
1F
100
AcDbEntity
  8
AM_VIS
100
AcDbLine
 10
793.8738480822051
 20
167.3482906039455
 30
0.0
 11
793.979906376398
 21
166.9161139754324
 31
0.0
  0
LINE
  5
E29
330
1F
100
AcDbEntity
  8
AM_VIS
100
AcDbLine
 10
793.8738480822051
 20
167.3482906039455
 30
0.0
 11
794.1292088102589
 21
167.4109573967206
 31
0.0
  0
LINE
  5
E2A
330
1F
100
AcDbEntity
  8
AM_VIS
100
AcDbLine
 10
793.8111812894297
 20
167.6036513320003
 30
0.0
 11
793.8738480822051
 21
167.3482906039455
 31
0.0
  0
LINE
  5
E2B
330
1F
100
AcDbEntity
  8
AM_VIS
100
AcDbLine
 10
793.1863107256345
 20
167.1795655169763
 30
0.0
 11
793.441671453692
 21
167.2422323097524
 31
0.0
  0
LINE
  5
E2C
330
1F
100
AcDbEntity
  8
AM_VIS
100
AcDbLine
 10
793.3790046609162
 20
167.497593037809
 30
0.0
 11
793.441671453692
 21
167.2422323097524
 31
0.0
  0
LINE
  5
E2D
330
1F
100
AcDbEntity
  8
AM_VIS
100
AcDbLine
 10
793.2923690198274
 20
166.7473888884634
 30
0.0
 11
793.547729747885
 21
166.8100556812394
 31
0.0
  0
LINE
  5
E2E
330
1F
100
AcDbEntity
  8
AM_VIS
100
AcDbLine
 10
793.547729747885
 20
166.8100556812394
 30
0.0
 11
793.6103965406609
 21
166.5546949531828
 31
0.0
  0
LINE
  5
E2F
330
1F
100
AcDbEntity
  8
AM_VIS
100
AcDbLine
 10
793.9799063763981
 20
166.9161139754324
 30
0.0
 11
794.235267104452
 21
166.9787807682076
 31
0.0
  0
LINE
  5
E30
330
1F
100
AcDbEntity
  8
AM_VIS
100
AcDbLine
 10
793.9799063763981
 20
166.9161139754325
 30
0.0
 11
794.0425731691735
 21
166.6607532473776
 31
0.0
  0
CIRCLE
  5
E31
330
1F
100
AcDbEntity
  8
AM_VIS
100
AcDbCircle
 10
793.7107889150431
 20
167.079173142592
 30
0.0
 40
1.600000000000022
  0
LINE
  5
E32
330
1F
100
AcDbEntity
  8
AM_VIS
100
AcDbLine
 10
793.1863107256345
 20
167.1795655169763
 30
0.0
 11
792.8387635694445
 21
167.0942757162206
 31
0.0
  0
ELLIPSE
  5
E33
330
1F
100
AcDbEntity
  8
AM_VIS
100
AcDbEllipse
 10
794.3401483873413
 20
167.233621087396
 30
0.0
 11
0.5611981234118772
 21
-2.286824568972776
 31
0.0
210
0.0
220
0.0
230
1.0
 40
0.6361945781365061
 41
4.617755055602462
 42
4.807022905166919
  0
LINE
  5
E34
330
1F
100
AcDbEntity
  8
AM_VIS
100
AcDbLine
 10
794.235267104452
 20
166.9787807682076
 30
0.0
 11
794.5828142606418
 21
167.0640705689633
 31
0.0
  0
ELLIPSE
  5
E35
330
1F
100
AcDbEntity
  8
AM_VIS
100
AcDbEllipse
 10
793.0814294427449
 20
166.9247251977879
 30
0.0
 11
-0.5611981234118784
 21
2.286824568972776
 31
0.0
210
0.0
220
0.0
230
1.0
 40
0.6361945781365059
 41
4.61775505560246
 42
4.807022905166915
  0
LINE
  5
E36
330
1F
100
AcDbEntity
  8
AM_VIS
100
AcDbLine
 10
794.1278629699294
 20
166.3132060911869
 30
0.0
 11
794.0425731691735
 21
166.6607532473776
 31
0.0
  0
ELLIPSE
  5
E37
330
1F
100
AcDbEntity
  8
AM_VIS
100
AcDbEllipse
 10
793.8652368598472
 20
166.4498136702937
 30
0.0
 11
-2.286824568972776
 21
-0.5611981234118774
 31
0.0
210
0.0
220
0.0
230
0.9999999999999998
 40
0.6361945781365086
 41
4.617755055601611
 42
4.807022905166066
  0
LINE
  5
E38
330
1F
100
AcDbEntity
  8
AM_VIS
100
AcDbLine
 10
793.6103965406609
 20
166.5546949531828
 30
0.0
 11
793.6956863414165
 21
166.2071477969936
 31
0.0
  0
LINE
  5
E39
330
1F
100
AcDbEntity
  8
AM_VIS
100
AcDbLine
 10
793.2937148601608
 20
167.8451401939982
 30
0.0
 11
793.3790046609162
 21
167.497593037809
 31
0.0
  0
ELLIPSE
  5
E3A
330
1F
100
AcDbEntity
  8
AM_VIS
100
AcDbEllipse
 10
793.5563409702391
 20
167.7085326148902
 30
0.0
 11
2.286824568972776
 21
0.5611981234118778
 31
0.0
210
0.0
220
0.0
230
0.9999999999999998
 40
0.6361945781365093
 41
4.617755055603312
 42
4.807022905167768
  0
LINE
  5
E3B
330
1F
100
AcDbEntity
  8
AM_VIS
100
AcDbLine
 10
793.8111812894296
 20
167.6036513320003
 30
0.0
 11
793.7258914886738
 21
167.951198488191
 31
0.0
  0
LINE
  5
E3C
330
1F
100
AcDbEntity
  8
AM_VIS
100
AcDbLine
 10
792.9448218636374
 20
166.6620990877077
 30
0.0
 11
793.2923690198274
 21
166.7473888884634
 31
0.0
  0
LINE
  5
E3D
330
1F
100
AcDbEntity
  8
AM_VIS
100
AcDbLine
 10
794.4767559664488
 20
167.4962471974763
 30
0.0
 11
794.1292088102589
 21
167.4109573967206
 31
0.0
  0
ARC
  5
E3E
330
1F
100
AcDbEntity
  8
AM_VIS
100
AcDbCircle
 10
793.7107889150431
 20
167.079173142592
 30
0.0
 40
0.5339999999999919
100
AcDbArc
 50
38.41250636692942
 51
79.16386966236598
  0
ARC
  5
E3F
330
1F
100
AcDbEntity
  8
AM_VIS
100
AcDbCircle
 10
793.7107889150431
 20
167.079173142592
 30
0.0
 40
0.5339999999999919
100
AcDbArc
 50
128.4125063666978
 51
169.1638696626031
  0
ARC
  5
E40
330
1F
100
AcDbEntity
  8
AM_VIS
100
AcDbCircle
 10
793.7107889150431
 20
167.079173142592
 30
0.0
 40
0.5339999999999919
100
AcDbArc
 50
218.41250636693
 51
259.1638696628367
  0
ARC
  5
E41
330
1F
100
AcDbEntity
  8
AM_VIS
100
AcDbCircle
 10
793.7107889150431
 20
167.079173142592
 30
0.0
 40
0.5339999999999919
100
AcDbArc
 50
308.4125063671643
 51
349.1638696626039
  0
LINE
  5
E42
330
1F
100
AcDbEntity
  8
AM_VIS
100
AcDbLine
 10
793.6577597679467
 20
173.7952614568484
 30
0.0
 11
793.7107889150431
 21
173.5791731425919
 31
0.0
  0
LINE
  5
E43
330
1F
100
AcDbEntity
  8
AM_VIS
100
AcDbLine
 10
793.7107889150431
 20
173.5791731425919
 30
0.0
 11
793.7638180621396
 21
173.3630848283354
 31
0.0
  0
LINE
  5
E44
330
1F
100
AcDbEntity
  8
AM_VIS
100
AcDbLine
 10
793.7107889150431
 20
173.5791731425919
 30
0.0
 11
793.8738480822036
 21
173.8482906039456
 31
0.0
  0
LINE
  5
E45
330
1F
100
AcDbEntity
  8
AM_VIS
100
AcDbLine
 10
793.4416714536909
 20
173.7422323097515
 30
0.0
 11
793.7107889150431
 21
173.5791731425919
 31
0.0
  0
LINE
  5
E46
330
1F
100
AcDbEntity
  8
AM_VIS
100
AcDbLine
 10
793.8738480822051
 20
173.8482906039454
 30
0.0
 11
793.4416714536921
 21
173.7422323097524
 31
0.0
  0
LINE
  5
E47
330
1F
100
AcDbEntity
  8
AM_VIS
100
AcDbLine
 10
793.547729747885
 20
173.3100556812394
 30
0.0
 11
793.441671453692
 21
173.7422323097524
 31
0.0
  0
LINE
  5
E48
330
1F
100
AcDbEntity
  8
AM_VIS
100
AcDbLine
 10
793.9268772293015
 20
173.6322022896889
 30
0.0
 11
793.7107889150431
 21
173.5791731425919
 31
0.0
  0
LINE
  5
E49
330
1F
100
AcDbEntity
  8
AM_VIS
100
AcDbLine
 10
793.9799063763969
 20
173.4161139754316
 30
0.0
 11
793.7107889150431
 21
173.5791731425919
 31
0.0
  0
LINE
  5
E4A
330
1F
100
AcDbEntity
  8
AM_VIS
100
AcDbLine
 10
793.547729747885
 20
173.3100556812394
 30
0.0
 11
793.9799063763981
 21
173.4161139754324
 31
0.0
  0
LINE
  5
E4B
330
1F
100
AcDbEntity
  8
AM_VIS
100
AcDbLine
 10
793.7107889150431
 20
173.5791731425919
 30
0.0
 11
793.4947006007886
 21
173.5261439954959
 31
0.0
  0
LINE
  5
E4C
330
1F
100
AcDbEntity
  8
AM_VIS
100
AcDbLine
 10
793.7107889150431
 20
173.5791731425919
 30
0.0
 11
793.5477297478836
 21
173.3100556812396
 31
0.0
  0
LINE
  5
E4D
330
1F
100
AcDbEntity
  8
AM_VIS
100
AcDbLine
 10
793.8738480822051
 20
173.8482906039454
 30
0.0
 11
793.979906376398
 21
173.4161139754324
 31
0.0
  0
LINE
  5
E4E
330
1F
100
AcDbEntity
  8
AM_VIS
100
AcDbLine
 10
793.8738480822051
 20
173.8482906039454
 30
0.0
 11
794.1292088102589
 21
173.9109573967206
 31
0.0
  0
LINE
  5
E4F
330
1F
100
AcDbEntity
  8
AM_VIS
100
AcDbLine
 10
793.8111812894296
 20
174.1036513320002
 30
0.0
 11
793.8738480822051
 21
173.8482906039454
 31
0.0
  0
LINE
  5
E50
330
1F
100
AcDbEntity
  8
AM_VIS
100
AcDbLine
 10
793.1863107256345
 20
173.6795655169763
 30
0.0
 11
793.441671453692
 21
173.7422323097524
 31
0.0
  0
LINE
  5
E51
330
1F
100
AcDbEntity
  8
AM_VIS
100
AcDbLine
 10
793.3790046609162
 20
173.997593037809
 30
0.0
 11
793.441671453692
 21
173.7422323097524
 31
0.0
  0
LINE
  5
E52
330
1F
100
AcDbEntity
  8
AM_VIS
100
AcDbLine
 10
793.2923690198274
 20
173.2473888884634
 30
0.0
 11
793.547729747885
 21
173.3100556812394
 31
0.0
  0
LINE
  5
E53
330
1F
100
AcDbEntity
  8
AM_VIS
100
AcDbLine
 10
793.547729747885
 20
173.3100556812394
 30
0.0
 11
793.6103965406609
 21
173.0546949531828
 31
0.0
  0
LINE
  5
E54
330
1F
100
AcDbEntity
  8
AM_VIS
100
AcDbLine
 10
793.9799063763981
 20
173.4161139754324
 30
0.0
 11
794.235267104452
 21
173.4787807682075
 31
0.0
  0
LINE
  5
E55
330
1F
100
AcDbEntity
  8
AM_VIS
100
AcDbLine
 10
793.9799063763981
 20
173.4161139754324
 30
0.0
 11
794.0425731691735
 21
173.1607532473776
 31
0.0
  0
CIRCLE
  5
E56
330
1F
100
AcDbEntity
  8
AM_VIS
100
AcDbCircle
 10
793.7107889150431
 20
173.5791731425919
 30
0.0
 40
1.600000000000022
  0
LINE
  5
E57
330
1F
100
AcDbEntity
  8
AM_VIS
100
AcDbLine
 10
793.1863107256345
 20
173.6795655169763
 30
0.0
 11
792.8387635694445
 21
173.5942757162206
 31
0.0
  0
ELLIPSE
  5
E58
330
1F
100
AcDbEntity
  8
AM_VIS
100
AcDbEllipse
 10
794.3401483873413
 20
173.733621087396
 30
0.0
 11
0.5611981234118796
 21
-2.286824568972777
 31
0.0
210
0.0
220
0.0
230
1.0
 40
0.6361945781365075
 41
4.617755055602462
 42
4.807022905166919
  0
LINE
  5
E59
330
1F
100
AcDbEntity
  8
AM_VIS
100
AcDbLine
 10
794.235267104452
 20
173.4787807682076
 30
0.0
 11
794.5828142606418
 21
173.5640705689633
 31
0.0
  0
ELLIPSE
  5
E5A
330
1F
100
AcDbEntity
  8
AM_VIS
100
AcDbEllipse
 10
793.0814294427449
 20
173.4247251977879
 30
0.0
 11
-0.56119812341188
 21
2.286824568972777
 31
0.0
210
0.0
220
0.0
230
1.0
 40
0.6361945781365045
 41
4.617755055602462
 42
4.807022905166917
  0
LINE
  5
E5B
330
1F
100
AcDbEntity
  8
AM_VIS
100
AcDbLine
 10
794.1278629699294
 20
172.8132060911869
 30
0.0
 11
794.0425731691735
 21
173.1607532473776
 31
0.0
  0
ELLIPSE
  5
E5C
330
1F
100
AcDbEntity
  8
AM_VIS
100
AcDbEllipse
 10
793.8652368598472
 20
172.9498136702937
 30
0.0
 11
-2.286824568972777
 21
-0.561198123411876
 31
0.0
210
0.0
220
0.0
230
1.0
 40
0.6361945781365085
 41
4.617755055601613
 42
4.807022905166068
  0
LINE
  5
E5D
330
1F
100
AcDbEntity
  8
AM_VIS
100
AcDbLine
 10
793.6103965406609
 20
173.0546949531828
 30
0.0
 11
793.6956863414165
 21
172.7071477969936
 31
0.0
  0
LINE
  5
E5E
330
1F
100
AcDbEntity
  8
AM_VIS
100
AcDbLine
 10
793.2937148601608
 20
174.3451401939982
 30
0.0
 11
793.3790046609162
 21
173.997593037809
 31
0.0
  0
ELLIPSE
  5
E5F
330
1F
100
AcDbEntity
  8
AM_VIS
100
AcDbEllipse
 10
793.5563409702391
 20
174.2085326148902
 30
0.0
 11
2.286824568972774
 21
0.5611981234118828
 31
0.0
210
0.0
220
0.0
230
0.9999999999999998
 40
0.6361945781365091
 41
4.617755055603312
 42
4.807022905167765
  0
LINE
  5
E60
330
1F
100
AcDbEntity
  8
AM_VIS
100
AcDbLine
 10
793.8111812894296
 20
174.1036513320003
 30
0.0
 11
793.7258914886738
 21
174.451198488191
 31
0.0
  0
LINE
  5
E61
330
1F
100
AcDbEntity
  8
AM_VIS
100
AcDbLine
 10
792.9448218636374
 20
173.1620990877076
 30
0.0
 11
793.2923690198274
 21
173.2473888884634
 31
0.0
  0
LINE
  5
E62
330
1F
100
AcDbEntity
  8
AM_VIS
100
AcDbLine
 10
794.4767559664488
 20
173.9962471974763
 30
0.0
 11
794.1292088102589
 21
173.9109573967206
 31
0.0
  0
ARC
  5
E63
330
1F
100
AcDbEntity
  8
AM_VIS
100
AcDbCircle
 10
793.7107889150431
 20
173.5791731425919
 30
0.0
 40
0.5339999999999919
100
AcDbArc
 50
38.41250636692942
 51
79.16386966236598
  0
ARC
  5
E64
330
1F
100
AcDbEntity
  8
AM_VIS
100
AcDbCircle
 10
793.7107889150431
 20
173.5791731425919
 30
0.0
 40
0.5339999999999919
100
AcDbArc
 50
128.4125063666978
 51
169.1638696626031
  0
ARC
  5
E65
330
1F
100
AcDbEntity
  8
AM_VIS
100
AcDbCircle
 10
793.7107889150431
 20
173.5791731425919
 30
0.0
 40
0.5339999999999919
100
AcDbArc
 50
218.41250636693
 51
259.1638696628367
  0
ARC
  5
E66
330
1F
100
AcDbEntity
  8
AM_VIS
100
AcDbCircle
 10
793.7107889150431
 20
173.5791731425919
 30
0.0
 40
0.5339999999999919
100
AcDbArc
 50
308.4125063671643
 51
349.1638696626039
  0
LINE
  5
E67
330
1F
100
AcDbEntity
  8
AM_VIS
100
AcDbLine
 10
780.8107889150432
 20
109.9571387496235
 30
0.0
 11
780.8107889150432
 21
113.4571387496235
 31
0.0
  0
LINE
  5
E68
330
1F
100
AcDbEntity
  8
AM_VIS
100
AcDbLine
 10
780.8107889150432
 20
101.4571387496235
 30
0.0
 11
799.8107889150432
 21
101.4571387496235
 31
0.0
  0
LINE
  5
E69
330
1F
100
AcDbEntity
  8
AM_VIS
100
AcDbLine
 10
780.8107889150432
 20
101.4571387496235
 30
0.0
 11
780.8107889150432
 21
109.9571387496235
 31
0.0
  0
LINE
  5
E6A
330
1F
100
AcDbEntity
  8
AM_VIS
100
AcDbLine
 10
786.8107889150431
 20
109.9571387496235
 30
0.0
 11
780.8107889150432
 21
109.9571387496235
 31
0.0
  0
LINE
  5
E6B
330
1F
100
AcDbEntity
  8
AM_VIS
100
AcDbLine
 10
786.8107889150431
 20
113.4571387496235
 30
0.0
 11
786.8107889150431
 21
109.9571387496235
 31
0.0
  0
LINE
  5
E6C
330
1F
100
AcDbEntity
  8
AM_VIS
100
AcDbLine
 10
793.8107889150431
 20
109.9571387496235
 30
0.0
 11
793.8107889150431
 21
113.4571387496235
 31
0.0
  0
LINE
  5
E6D
330
1F
100
AcDbEntity
  8
AM_VIS
100
AcDbLine
 10
799.8107889150432
 20
109.9571387496235
 30
0.0
 11
793.8107889150431
 21
109.9571387496235
 31
0.0
  0
LINE
  5
E6E
102
{ACAD_REACTORS
330
4497
330
44BD
102
}
330
1F
100
AcDbEntity
  8
AM_VIS
100
AcDbLine
 10
799.8107889150432
 20
101.4571387496235
 30
0.0
 11
799.8107889150432
 21
109.9571387496235
 31
0.0
  0
LINE
  5
E6F
330
1F
100
AcDbEntity
  8
AM_VIS
100
AcDbLine
 10
799.8107889150432
 20
113.4571387496235
 30
0.0
 11
799.8107889150432
 21
109.9571387496235
 31
0.0
  0
LINE
  5
E70
330
1F
100
AcDbEntity
  8
AM_VIS
100
AcDbLine
 10
793.8107889150431
 20
113.4571387496235
 30
0.0
 11
786.8107889150431
 21
113.4571387496235
 31
0.0
  0
LINE
  5
E71
330
1F
100
AcDbEntity
  8
AM_VIS
100
AcDbLine
 10
780.8107889150432
 20
113.4571387496235
 30
0.0
 11
783.8107889150432
 21
113.4571387496235
 31
0.0
  0
LINE
  5
E72
330
1F
100
AcDbEntity
  8
AM_VIS
100
AcDbLine
 10
796.8107889150432
 20
113.4571387496235
 30
0.0
 11
799.8107889150432
 21
113.4571387496235
 31
0.0
  0
LINE
  5
E73
330
1F
100
AcDbEntity
  8
AM_VIS
100
AcDbLine
 10
780.8107889150432
 20
112.3647474452757
 30
0.0
 11
780.8107889150432
 21
111.9136604887539
 31
0.0
  0
LINE
  5
E74
330
1F
100
AcDbEntity
  8
AM_VIS
100
AcDbLine
 10
780.8107889150432
 20
111.9136604887539
 30
0.0
 11
780.8107889150432
 21
111.4381170104931
 31
0.0
  0
LINE
  5
E75
330
1F
100
AcDbEntity
  8
AM_VIS
100
AcDbLine
 10
785.9910292354704
 20
106.1994618470868
 30
0.0
 11
785.6545806373396
 21
107.1794351448171
 31
0.0
  0
LINE
  5
E76
330
1F
100
AcDbEntity
  8
AM_VIS
100
AcDbLine
 10
785.6545806373396
 20
107.1794351448171
 30
0.0
 11
785.302110677393
 21
106.1994618470868
 31
0.0
  0
LINE
  5
E77
330
1F
100
AcDbEntity
  8
AM_VIS
100
AcDbLine
 10
785.302110677393
 20
106.1994618470868
 30
0.0
 11
785.9910292354704
 21
106.1994618470868
 31
0.0
  0
LINE
  5
E78
330
1F
100
AcDbEntity
  8
AM_VIS
100
AcDbLine
 10
786.5864898496226
 20
105.4571387496235
 30
0.0
 11
785.9536460579002
 21
105.4571387496235
 31
0.0
  0
LINE
  5
E79
330
1F
100
AcDbEntity
  8
AM_VIS
100
AcDbLine
 10
785.9536460579002
 20
105.4571387496235
 30
0.0
 11
785.9536460579002
 21
105.5105432890093
 31
0.0
  0
SPLINE
  5
E7A
330
1F
100
AcDbEntity
  8
AM_VIS
100
AcDbSpline
210
0.0
220
0.0
230
1.0
 70
     8
 71
     3
 72
     8
 73
     4
 74
     0
 42
0.0000000001
 43
0.0000000001
 40
0.0
 40
0.0
 40
0.0
 40
0.0
 40
80.0
 40
80.0
 40
80.0
 40
80.0
 10
785.9536460579002
 20
105.5105432890093
 30
0.0
 10
786.0230719591019
 20
105.514103618798
 30
0.0
 10
786.0720261066241
 20
105.5212241968866
 30
0.0
 10
786.1005085412114
 20
105.5319051047637
 30
0.0
  0
SPLINE
  5
E7B
330
1F
100
AcDbEntity
  8
AM_VIS
100
AcDbSpline
210
0.0
220
0.0
230
1.0
 70
     8
 71
     3
 72
     8
 73
     4
 74
     0
 42
0.0000000001
 43
0.0000000001
 40
0.0
 40
0.0
 40
0.0
 40
0.0
 40
80.0
 40
80.0
 40
80.0
 40
80.0
 10
786.1005085412114
 20
105.5319051047637
 30
0.0
 10
786.1450122968699
 20
105.5514867963682
 30
0.0
 10
786.1672642154437
 20
105.5888699739382
 30
0.0
 10
786.1672642154437
 20
105.644054637474
 30
0.0
  0
SPLINE
  5
E7C
330
1F
100
AcDbEntity
  8
AM_VIS
100
AcDbSpline
210
0.0
220
0.0
230
1.0
 70
     8
 71
     3
 72
     8
 73
     4
 74
     0
 42
0.0000000001
 43
0.0000000001
 40
0.0
 40
0.0
 40
0.0
 40
0.0
 40
80.0
 40
80.0
 40
80.0
 40
80.0
 10
786.1672642154437
 20
105.644054637474
 30
0.0
 10
786.1672642154437
 20
105.6885583931325
 30
0.0
 10
786.1521329157028
 20
105.7526438403956
 30
0.0
 10
786.1218703569656
 20
105.8363109792631
 30
0.0
  0
LINE
  5
E7D
330
1F
100
AcDbEntity
  8
AM_VIS
100
AcDbLine
 10
786.1218703569656
 20
105.836310979263
 30
0.0
 11
786.0257421860711
 21
106.100663449223
 31
0.0
  0
LINE
  5
E7E
330
1F
100
AcDbEntity
  8
AM_VIS
100
AcDbLine
 10
786.0257421860711
 20
106.100663449223
 30
0.0
 11
785.2780786346693
 21
106.100663449223
 31
0.0
  0
LINE
  5
E7F
330
1F
100
AcDbEntity
  8
AM_VIS
100
AcDbLine
 10
785.2780786346693
 20
106.100663449223
 30
0.0
 11
785.1445672862047
 21
105.7615446241229
 31
0.0
  0
SPLINE
  5
E80
330
1F
100
AcDbEntity
  8
AM_VIS
100
AcDbSpline
210
0.0
220
0.0
230
1.0
 70
     8
 71
     3
 72
     8
 73
     4
 74
     0
 42
0.0000000001
 43
0.0000000001
 40
0.0
 40
0.0
 40
0.0
 40
0.0
 40
80.0
 40
80.0
 40
80.0
 40
80.0
 10
785.1445672862047
 20
105.7615446241228
 30
0.0
 10
785.1303260485389
 20
105.7259415707026
 30
0.0
 10
785.1232054704503
 20
105.6867782689827
 30
0.0
 10
785.1232054704503
 20
105.644054637474
 30
0.0
  0
SPLINE
  5
E81
330
1F
100
AcDbEntity
  8
AM_VIS
100
AcDbSpline
210
0.0
220
0.0
230
1.0
 70
     8
 71
     3
 72
     8
 73
     4
 74
     0
 42
0.0000000001
 43
0.0000000001
 40
0.0
 40
0.0
 40
0.0
 40
0.0
 40
80.0
 40
80.0
 40
80.0
 40
80.0
 10
785.1232054704503
 20
105.644054637474
 30
0.0
 10
785.1232054704503
 20
105.5870898090439
 30
0.0
 10
785.1445672862047
 20
105.5497066314738
 30
0.0
 10
785.1872909177134
 20
105.5319051047637
 30
0.0
  0
SPLINE
  5
E82
330
1F
100
AcDbEntity
  8
AM_VIS
100
AcDbSpline
210
0.0
220
0.0
230
1.0
 70
     8
 71
     3
 72
     8
 73
     4
 74
     0
 42
0.0000000001
 43
0.0000000001
 40
0.0
 40
0.0
 40
0.0
 40
0.0
 40
80.0
 40
80.0
 40
80.0
 40
80.0
 10
785.1872909177134
 20
105.5319051047637
 30
0.0
 10
785.2068725685734
 20
105.5212241968866
 30
0.0
 10
785.2442557461435
 20
105.514103618798
 30
0.0
 10
785.2994404504237
 20
105.5105432890093
 30
0.0
  0
LINE
  5
E83
330
1F
100
AcDbEntity
  8
AM_VIS
100
AcDbLine
 10
785.2994404504237
 20
105.5105432890093
 30
0.0
 11
785.2994404504237
 21
105.4571387496235
 31
0.0
  0
LINE
  5
E84
330
1F
100
AcDbEntity
  8
AM_VIS
100
AcDbLine
 10
785.2994404504237
 20
105.4571387496235
 30
0.0
 11
784.8107889150432
 21
105.4571387496235
 31
0.0
  0
LINE
  5
E85
330
1F
100
AcDbEntity
  8
AM_VIS
100
AcDbLine
 10
784.8107889150432
 20
105.4571387496235
 30
0.0
 11
784.8107889150432
 21
105.5105432890093
 31
0.0
  0
LINE
  5
E86
330
1F
100
AcDbEntity
  8
AM_VIS
100
AcDbLine
 10
784.8108721955088
 20
105.5101104774229
 30
0.0
 11
784.8802966839079
 21
105.5234689546553
 31
0.0
  0
SPLINE
  5
E87
330
1F
100
AcDbEntity
  8
AM_VIS
100
AcDbSpline
210
0.0
220
0.0
230
1.0
 70
     8
 71
     3
 72
     8
 73
     4
 74
     0
 42
0.0000000001
 43
0.0000000001
 40
0.0
 40
0.0
 40
0.0
 40
0.0
 40
80.0
 40
80.0
 40
80.0
 40
80.0
 10
784.8802148162448
 20
105.5238944238558
 30
0.0
 10
784.9015765912546
 20
105.5292348777944
 30
0.0
 10
784.922048344934
 20
105.5443661775352
 30
0.0
 10
784.9416300365385
 20
105.5692882823338
 30
0.0
  0
SPLINE
  5
E88
330
1F
100
AcDbEntity
  8
AM_VIS
100
AcDbSpline
210
0.0
220
0.0
230
1.0
 70
     8
 71
     3
 72
     8
 73
     4
 74
     0
 42
0.0000000001
 43
0.0000000001
 40
0.0
 40
0.0
 40
0.0
 40
0.0
 40
80.0
 40
80.0
 40
80.0
 40
80.0
 10
784.9416300365385
 20
105.5692882823338
 30
0.0
 10
784.9914742461357
 20
105.6333736888524
 30
0.0
 10
785.0564497962181
 20
105.7740056561499
 30
0.0
 10
785.1365566052968
 20
105.991184143482
 30
0.0
  0
LINE
  5
E89
330
1F
100
AcDbEntity
  8
AM_VIS
100
AcDbLine
 10
785.1365566052968
 20
105.991184143482
 30
0.0
 11
785.6759424530939
 21
107.4571387496235
 31
0.0
  0
LINE
  5
E8A
330
1F
100
AcDbEntity
  8
AM_VIS
100
AcDbLine
 10
785.6759424530939
 20
107.4571387496235
 30
0.0
 11
785.6866233609711
 21
107.4571387496235
 31
0.0
  0
LINE
  5
E8B
330
1F
100
AcDbEntity
  8
AM_VIS
100
AcDbLine
 10
785.6866233609711
 20
107.4571387496235
 30
0.0
 11
786.3194671526934
 21
105.772225532
 31
0.0
  0
SPLINE
  5
E8C
330
1F
100
AcDbEntity
  8
AM_VIS
100
AcDbSpline
210
0.0
220
0.0
230
1.0
 70
     8
 71
     3
 72
     8
 73
     4
 74
     0
 42
0.0000000001
 43
0.0000000001
 40
0.0
 40
0.0
 40
0.0
 40
0.0
 40
80.0
 40
80.0
 40
80.0
 40
80.0
 10
786.3194671526934
 20
105.772225532
 30
0.0
 10
786.3586304544134
 20
105.6654164532283
 30
0.0
 10
786.4013540859221
 20
105.5933203250574
 30
0.0
 10
786.4476380472194
 20
105.5559371474874
 30
0.0
  0
SPLINE
  5
E8D
330
1F
100
AcDbEntity
  8
AM_VIS
100
AcDbSpline
210
0.0
220
0.0
230
1.0
 70
     8
 71
     3
 72
     8
 73
     4
 74
     0
 42
0.0000000001
 43
0.0000000001
 40
0.0
 40
0.0
 40
0.0
 40
0.0
 40
80.0
 40
80.0
 40
80.0
 40
80.0
 10
786.4476380472194
 20
105.5559371474874
 30
0.0
 10
786.4743403169122
 20
105.534575331733
 30
0.0
 10
786.5206242374652
 20
105.5194440727366
 30
0.0
 10
786.5864898496226
 20
105.5105432890093
 30
0.0
  0
LINE
  5
E8E
330
1F
100
AcDbEntity
  8
AM_VIS
100
AcDbLine
 10
786.5864898496226
 20
105.5105432890093
 30
0.0
 11
786.5864898496226
 21
105.4571387496235
 31
0.0
  0
LINE
  5
E8F
330
1F
100
AcDbEntity
  8
AM_VIS
100
AcDbLine
 10
799.8107889150432
 20
112.366419675283
 30
0.0
 11
799.8107889150432
 21
112.3647474452757
 31
0.0
  0
LINE
  5
E90
330
1F
100
AcDbEntity
  8
AM_VIS
100
AcDbLine
 10
799.8107889150432
 20
112.3647474452757
 30
0.0
 11
799.8107889150432
 21
112.3457257061453
 31
0.0
  0
LINE
  5
E91
330
1F
100
AcDbEntity
  8
AM_VIS
100
AcDbLine
 10
799.8107889150432
 20
112.3457257061453
 30
0.0
 11
799.8107889150432
 21
112.234312662667
 31
0.0
  0
CIRCLE
  5
E93
330
1F
100
AcDbEntity
  8
AM_VIS
100
AcDbCircle
 10
790.3107889150431
 20
109.4571387496235
 30
0.0
 40
2.1
  0
LINE
  5
E94
330
1F
100
AcDbEntity
  8
AM_VIS
100
AcDbLine
 10
793.8107889150431
 20
113.4571387496235
 30
0.0
 11
796.8107889150432
 21
113.4571387496235
 31
0.0
  0
LINE
  5
E95
330
1F
100
AcDbEntity
  8
AM_VIS
100
AcDbLine
 10
783.8107889150432
 20
113.4571387496235
 30
0.0
 11
786.8107889150431
 21
113.4571387496235
 31
0.0
  0
LINE
  5
E97
330
1F
100
AcDbEntity
  8
AM_VIS
100
AcDbLine
 10
791.5107889150431
 20
128.4571387496235
 30
0.0
 11
792.0108183270623
 21
128.4571387496235
 31
0.0
  0
LINE
  5
E98
330
1F
100
AcDbEntity
  8
AM_VIS
100
AcDbLine
 10
797.8107889150432
 20
116.0571387496235
 30
0.0
 11
797.8107889150432
 21
123.7571387496235
 31
0.0
  0
LINE
  5
E99
330
1F
100
AcDbEntity
  8
AM_VIS
100
AcDbLine
 10
798.9107889150432
 20
116.0571387496235
 30
0.0
 11
797.8107889150432
 21
116.0571387496235
 31
0.0
  0
LINE
  5
E9A
330
1F
100
AcDbEntity
  8
AM_VIS
100
AcDbLine
 10
798.9107889150432
 20
123.7571387496235
 30
0.0
 11
798.9107889150432
 21
116.0571387496235
 31
0.0
  0
LINE
  5
E9B
330
1F
100
AcDbEntity
  8
AM_VIS
100
AcDbLine
 10
797.8107889150432
 20
123.7571387496235
 30
0.0
 11
798.9107889150432
 21
123.7571387496235
 31
0.0
  0
LINE
  5
E9C
330
1F
100
AcDbEntity
  8
AM_VIS
100
AcDbLine
 10
799.8107889150432
 20
126.4571387496235
 30
0.0
 11
795.5307889150432
 21
126.4571387496235
 31
0.0
  0
LINE
  5
E9D
102
{ACAD_REACTORS
330
44BD
102
}
330
1F
100
AcDbEntity
  8
AM_VIS
100
AcDbLine
 10
799.8107889150432
 20
113.4571387496235
 30
0.0
 11
799.8107889150432
 21
126.4571387496235
 31
0.0
  0
LINE
  5
E9E
102
{ACAD_REACTORS
330
4497
102
}
330
1F
100
AcDbEntity
  8
AM_VIS
100
AcDbLine
 10
796.8107889150432
 20
113.4571387496235
 30
0.0
 11
799.8107889150432
 21
113.4571387496235
 31
0.0
  0
LINE
  5
E9F
330
1F
100
AcDbEntity
  8
AM_VIS
100
AcDbLine
 10
792.0107889150431
 20
124.9571387496235
 30
0.0
 11
792.0107889150431
 21
113.4571387496235
 31
0.0
  0
LINE
  5
EA0
330
1F
100
AcDbEntity
  8
AM_VIS
100
AcDbLine
 10
795.5307889150432
 20
124.9571387496235
 30
0.0
 11
792.0107889150431
 21
124.9571387496235
 31
0.0
  0
LINE
  5
EA1
330
1F
100
AcDbEntity
  8
AM_VIS
100
AcDbLine
 10
792.0108183270623
 20
126.4571387496235
 30
0.0
 11
792.0108183270623
 21
128.4571387496235
 31
0.0
  0
LINE
  5
EA2
330
1F
100
AcDbEntity
  8
AM_VIS
100
AcDbLine
 10
794.2977525938628
 20
128.4585191697628
 30
0.0
 11
794.750399098888
 21
126.4582452859388
 31
0.0
  0
LINE
  5
EA3
330
1F
100
AcDbEntity
  8
AM_VIS
100
AcDbLine
 10
795.5307889150432
 20
126.4571387496235
 30
0.0
 11
795.5307889150432
 21
124.9571387496235
 31
0.0
  0
LINE
  5
EA4
330
1F
100
AcDbEntity
  8
AM_VIS
100
AcDbLine
 10
792.6107889150431
 20
128.6571387496235
 30
0.0
 11
792.6107889150431
 21
128.4571387496235
 31
0.0
  0
LINE
  5
EA5
330
1F
100
AcDbEntity
  8
AM_VIS
100
AcDbLine
 10
792.0107889150431
 20
128.4571387496235
 30
0.0
 11
792.0107889150431
 21
128.6571387496235
 31
0.0
  0
LINE
  5
EA6
330
1F
100
AcDbEntity
  8
AM_VIS
100
AcDbLine
 10
798.9107889150432
 20
123.3571387496235
 30
0.0
 11
797.8107889150432
 21
123.3571387496235
 31
0.0
  0
LINE
  5
EA7
330
1F
100
AcDbEntity
  8
AM_VIS
100
AcDbLine
 10
798.9107889150432
 20
116.5571387496235
 30
0.0
 11
797.8107889150432
 21
116.5571387496235
 31
0.0
  0
LINE
  5
EA8
330
1F
100
AcDbEntity
  8
AM_VIS
100
AcDbLine
 10
794.8107889150431
 20
128.4571387496235
 30
0.0
 11
795.3107889150431
 21
126.4571387496235
 31
0.0
  0
LINE
  5
EA9
330
1F
100
AcDbEntity
  8
AM_VIS
100
AcDbLine
 10
793.8107889150431
 20
128.4571387496235
 30
0.0
 11
793.8107889150431
 21
128.6571387496235
 31
0.0
  0
LINE
  5
EAA
330
1F
100
AcDbEntity
  8
AM_VIS
100
AcDbLine
 10
790.8107889150431
 20
128.4571387496235
 30
0.0
 11
790.8107889150431
 21
128.6571387496235
 31
0.0
  0
LINE
  5
EAB
330
1F
100
AcDbEntity
  8
AM_VIS
100
AcDbLine
 10
794.2916524288939
 20
128.4571387496235
 30
0.0
 11
794.8107889150431
 21
128.4571387496235
 31
0.0
  0
LINE
  5
EAC
330
1F
100
AcDbEntity
  8
AM_VIS
100
AcDbLine
 10
792.0107889150431
 20
126.4571387496235
 30
0.0
 11
792.0108183270623
 21
126.4571387496235
 31
0.0
  0
LINE
  5
EAD
330
1F
100
AcDbEntity
  8
AM_VIS
100
AcDbLine
 10
792.0108183270623
 20
128.4571387496235
 30
0.0
 11
794.2916524288939
 21
128.4571387496235
 31
0.0
  0
LINE
  5
EAE
330
1F
100
AcDbEntity
  8
AM_VIS
100
AcDbLine
 10
794.745509244071
 20
126.4571387496235
 30
0.0
 11
795.5307889150432
 21
126.4571387496235
 31
0.0
  0
LINE
  5
EAF
330
1F
100
AcDbEntity
  8
AM_VIS
100
AcDbLine
 10
790.8107889150431
 20
128.6571387496235
 30
0.0
 11
792.0107889150431
 21
128.6571387496235
 31
0.0
  0
LINE
  5
EB0
330
1F
100
AcDbEntity
  8
AM_VIS
100
AcDbLine
 10
792.6107889150431
 20
128.6571387496235
 30
0.0
 11
793.8107889150431
 21
128.6571387496235
 31
0.0
  0
LINE
  5
EB1
330
1F
100
AcDbEntity
  8
AM_VIS
100
AcDbLine
 10
772.3107889150432
 20
126.4571387496235
 30
0.0
 11
772.3107889150432
 21
113.4571387496235
 31
0.0
  0
LINE
  5
EB2
330
1F
100
AcDbEntity
  8
AM_VIS
100
AcDbLine
 10
783.8107889150432
 20
113.4571387496235
 30
0.0
 11
772.3107889150432
 21
113.4571387496235
 31
0.0
  0
LINE
  5
EB3
330
1F
100
AcDbEntity
  8
AM_VIS
100
AcDbLine
 10
791.5107889150431
 20
128.4571387496235
 30
0.0
 11
789.3107889150432
 21
128.4571387496235
 31
0.0
  0
LINE
  5
EB4
330
1F
100
AcDbEntity
  8
AM_VIS
100
AcDbLine
 10
789.3107889150432
 20
126.4571387496235
 30
0.0
 11
772.3107889150432
 21
126.4571387496235
 31
0.0
  0
LINE
  5
EB5
330
1F
100
AcDbEntity
  8
AM_VIS
100
AcDbLine
 10
789.3107889150432
 20
128.4571387496235
 30
0.0
 11
789.3107889150432
 21
126.4571387496235
 31
0.0
  0
LINE
  5
EB6
330
1F
100
AcDbEntity
  8
AM_VIS
100
AcDbLine
 10
792.0107889150431
 20
126.9571387496235
 30
0.0
 11
792.0107889150431
 21
113.4571387496235
 31
0.0
  0
LINE
  5
EB7
330
1F
100
AcDbEntity
  8
AM_VIS
100
AcDbLine
 10
791.5107889150431
 20
128.4571387496235
 30
0.0
 11
792.0107889150431
 21
126.9571387496235
 31
0.0
  0
LINE
  5
EB8
330
1F
100
AcDbEntity
  8
AM_VIS
100
AcDbLine
 10
789.3107889150432
 20
126.4571387496235
 30
0.0
 11
789.3107889150432
 21
129.9571387496235
 31
0.0
  0
LINE
  5
EB9
330
1F
100
AcDbEntity
  8
AM_VIS
100
AcDbLine
 10
772.3107889150432
 20
126.4571387496235
 30
0.0
 11
789.3107889150432
 21
126.4571387496235
 31
0.0
  0
LINE
  5
EBA
330
1F
100
AcDbEntity
  8
AM_VIS
100
AcDbLine
 10
789.3107889150432
 20
129.9571387496235
 30
0.0
 11
787.8107889150432
 21
131.4571387496235
 31
0.0
  0
LINE
  5
EBB
330
1F
100
AcDbEntity
  8
AM_VIS
100
AcDbLine
 10
772.3107889150432
 20
129.9571387496235
 30
0.0
 11
789.3107889150432
 21
129.9571387496235
 31
0.0
  0
LINE
  5
EBC
330
1F
100
AcDbEntity
  8
AM_VIS
100
AcDbLine
 10
773.8107889150431
 20
131.4571387496235
 30
0.0
 11
772.3107889150432
 21
129.9571387496235
 31
0.0
  0
LINE
  5
EBD
330
1F
100
AcDbEntity
  8
AM_VIS
100
AcDbLine
 10
776.3107889150432
 20
134.9571387496235
 30
0.0
 11
781.7107889150431
 21
134.9571387496235
 31
0.0
  0
LINE
  5
EBE
330
1F
100
AcDbEntity
  8
AM_VIS
100
AcDbLine
 10
781.4107889150432
 20
135.9571387496235
 30
0.0
 11
776.3107889150432
 21
135.9571387496235
 31
0.0
  0
LINE
  5
EBF
330
1F
100
AcDbEntity
  8
AM_VIS
100
AcDbLine
 10
781.7107889150431
 20
131.4571387496235
 30
0.0
 11
781.7107889150431
 21
134.9571387496235
 31
0.0
  0
LINE
  5
EC0
330
1F
100
AcDbEntity
  8
AM_VIS
100
AcDbLine
 10
781.4107889150432
 20
135.9571387496235
 30
0.0
 11
781.7107889150431
 21
134.9571387496235
 31
0.0
  0
LINE
  5
EC1
330
1F
100
AcDbEntity
  8
AM_VIS
100
AcDbLine
 10
776.3107889150432
 20
135.9571387496235
 30
0.0
 11
776.3107889150432
 21
134.9571387496235
 31
0.0
  0
LINE
  5
EC2
330
1F
100
AcDbEntity
  8
AM_VIS
100
AcDbLine
 10
776.3107889150432
 20
131.4571387496235
 30
0.0
 11
776.3107889150432
 21
134.9571387496235
 31
0.0
  0
LINE
  5
EC3
330
1F
100
AcDbEntity
  8
AM_VIS
100
AcDbLine
 10
776.3107889150432
 20
135.9571387496235
 30
0.0
 11
774.8107889150432
 21
135.9571387496235
 31
0.0
  0
LINE
  5
EC4
330
1F
100
AcDbEntity
  8
AM_VIS
100
AcDbLine
 10
774.8107889150432
 20
135.9571387496235
 30
0.0
 11
774.8107889150432
 21
131.4571387496235
 31
0.0
  0
LINE
  5
EC5
330
1F
100
AcDbEntity
  8
AM_VIS
100
AcDbLine
 10
787.8107889150432
 20
131.4571387496235
 30
0.0
 11
773.8107889150431
 21
131.4571387496235
 31
0.0
  0
LINE
  5
EC6
330
1F
100
AcDbEntity
  8
AM_VIS
100
AcDbLine
 10
772.3107889150432
 20
126.4571387496235
 30
0.0
 11
772.3107889150432
 21
129.9571387496235
 31
0.0
  0
LINE
  5
EC7
330
1F
100
AcDbEntity
  8
AM_VIS
100
AcDbLine
 10
793.811163584896
 20
126.1994395313789
 30
0.0
 11
793.8228327390791
 21
126.1067847094975
 31
0.0
  0
LINE
  5
EC8
330
1F
100
AcDbEntity
  8
AM_VIS
100
AcDbLine
 10
793.1863077560734
 20
126.1994402482001
 30
0.0
 11
793.1972715632994
 21
126.1779205780118
 31
0.0
  0
LINE
  5
EC9
330
1F
100
AcDbEntity
  8
AM_VIS
100
AcDbLine
 10
794.0307948896028
 20
126.1057845994579
 30
0.0
 11
794.0425912717646
 21
126.1994394809995
 31
0.0
  0
LINE
  5
ECA
330
1F
100
AcDbEntity
  8
AM_VIS
100
AcDbLine
 10
792.152053125837
 20
125.4287908372304
 30
0.0
 11
792.1107889150431
 21
124.9571387496235
 31
0.0
  0
LINE
  5
ECB
330
1F
100
AcDbEntity
  8
AM_VIS
100
AcDbLine
 10
795.2695247042493
 20
125.4287908372304
 30
0.0
 11
795.3107889150431
 21
124.9571387496235
 31
0.0
  0
ELLIPSE
  5
ECC
330
1F
100
AcDbEntity
  8
AM_VIS
100
AcDbEllipse
 10
793.6577597679467
 20
123.7571387496235
 30
0.0
 11
-0.0000000000000001
 21
2.490079065009783
 31
0.0
210
0.0
220
0.0
230
1.0
 40
0.9711834348606759
 41
0.1962051514771419
 42
0.3428970250348993
  0
ELLIPSE
  5
ECD
330
1F
100
AcDbEntity
  8
AM_VIS
100
AcDbEllipse
 10
794.3401483873413
 20
124.2915005596322
 30
0.0
 11
-1.52402036779382
 21
1.794957342537177
 31
0.0
210
0.0
220
0.0
230
0.9999999999999998
 40
0.1838809272074932
 41
6.033676357464735
 42
6.216405892020739
  0
ELLIPSE
  5
ECE
330
1F
100
AcDbEntity
  8
AM_VIS
100
AcDbEllipse
 10
793.7638180621396
 20
123.7571387496235
 30
0.0
 11
-0.0000000000000001
 21
2.490079065009783
 31
0.0
210
0.0
220
0.0
230
1.0
 40
0.9711834348606759
 41
5.937689964444293
 42
6.086980155702427
  0
ELLIPSE
  5
ECF
330
1F
100
AcDbEntity
  8
AM_VIS
100
AcDbEllipse
 10
793.0814294427449
 20
124.2915005596322
 30
0.0
 11
1.52402036779382
 21
1.794957342537177
 31
0.0
210
0.0
220
0.0
230
1.0
 40
0.1838809272074933
 41
0.0602411001503922
 42
0.0739494530812683
  0
ELLIPSE
  5
ED0
330
1F
100
AcDbEntity
  8
AM_VIS
100
AcDbEllipse
 10
793.9268772293015
 20
123.7571387496235
 30
0.0
 11
-0.0000000000000006
 21
2.490079065009606
 31
0.0
210
0.0
220
0.0
230
1.0
 40
0.2383332453775999
 41
5.937689964444312
 42
6.086980155702798
  0
ELLIPSE
  5
ED1
330
1F
100
AcDbEntity
  8
AM_VIS
100
AcDbEllipse
 10
793.8652368598472
 20
124.2915005596322
 30
0.0
 11
-2.262086191913684
 21
0.6538164905628965
 31
0.0
210
0.0
220
0.0
230
0.9999999999999998
 40
0.7492958450165216
 41
4.992445536876735
 42
4.999615574798074
  0
ELLIPSE
  5
ED2
330
1F
100
AcDbEntity
  8
AM_VIS
100
AcDbEllipse
 10
793.4947006007886
 20
123.7571387496235
 30
0.0
 11
-0.0000000000000006
 21
2.490079065009962
 31
0.0
210
0.0
220
0.0
230
1.0
 40
0.2383332453775999
 41
5.937689964444259
 42
6.086980155702072
  0
ELLIPSE
  5
ED3
330
1F
100
AcDbEntity
  8
AM_VIS
100
AcDbEllipse
 10
793.5563409702391
 20
124.2915005596322
 30
0.0
 11
2.262086191913684
 21
0.6538164905628961
 31
0.0
210
0.0
220
0.0
230
1.0
 40
0.7492958450165208
 41
1.108010235745998
 42
1.297278085310454
  0
ELLIPSE
  5
ED4
330
1F
100
AcDbEntity
  8
AM_VIS
100
AcDbEllipse
 10
793.9268772293015
 20
123.7571387496235
 30
0.0
 11
-0.0000000000000006
 21
2.490079065009606
 31
0.0
210
0.0
220
0.0
230
1.0
 40
0.2383332453775999
 41
0.1962051514767864
 42
0.3428970250345802
  0
ELLIPSE
  5
ED5
330
1F
100
AcDbEntity
  8
AM_VIS
100
AcDbEllipse
 10
793.7638180621396
 20
123.7571387496235
 30
0.0
 11
-0.0000000000000001
 21
2.490079065009783
 31
0.0
210
0.0
220
0.0
230
1.0
 40
0.9711834348606759
 41
0.1962051514771419
 42
0.345495342735295
  0
LINE
  5
ED6
330
1F
100
AcDbEntity
  8
AM_VIS
100
AcDbLine
 10
793.8111812894296
 20
126.1994417611272
 30
0.0
 11
794.0425731691735
 21
126.1994417611272
 31
0.0
  0
LINE
  5
ED7
330
1F
100
AcDbEntity
  8
AM_VIS
100
AcDbLine
 10
793.1863107256345
 20
126.1994417611272
 30
0.0
 11
793.2923690198274
 21
126.1994417611272
 31
0.0
  0
LINE
  5
ED8
330
1F
100
AcDbEntity
  8
AM_VIS
100
AcDbLine
 10
793.2923690198274
 20
126.1994417611272
 30
0.0
 11
793.6103965406609
 21
126.1994417611272
 31
0.0
  0
LINE
  5
ED9
330
1F
100
AcDbEntity
  8
AM_VIS
100
AcDbLine
 10
794.0425731691735
 20
126.1994417611272
 30
0.0
 11
794.2352671044518
 21
126.1994417611272
 31
0.0
  0
ARC
  5
EDA
330
1F
100
AcDbEntity
  8
AM_VIS
100
AcDbCircle
 10
792.7896177326157
 20
125.3730111618719
 30
0.0
 40
0.6400000000000002
100
AcDbArc
 50
119.6864561869256
 51
175.0000000000008
  0
ARC
  5
EDB
330
1F
100
AcDbEntity
  8
AM_VIS
100
AcDbCircle
 10
794.6319600974706
 20
125.3730111618719
 30
0.0
 40
0.6400000000000002
100
AcDbArc
 50
4.999999999999621
 51
60.31354381308037
  0
ARC
  5
EDC
330
1F
100
AcDbEntity
  8
AM_VIS
100
AcDbCircle
 10
793.7107889150431
 20
123.7571387496235
 30
0.0
 40
2.5
100
AcDbArc
 50
60.31354381308087
 51
69.65356152820672
  0
ARC
  5
EDD
330
1F
100
AcDbEntity
  8
AM_VIS
100
AcDbCircle
 10
793.7107889150431
 20
123.7571387496235
 30
0.0
 40
2.5
100
AcDbArc
 50
110.3464384717933
 51
119.6864561869193
  0
LINE
  5
EDE
330
1F
100
AcDbEntity
  8
AM_VIS
100
AcDbLine
 10
821.80412355682
 20
109.9571387496235
 30
0.0
 11
821.80412355682
 21
113.4571387496235
 31
0.0
  0
LINE
  5
EDF
330
1F
100
AcDbEntity
  8
AM_VIS
100
AcDbLine
 10
837.30412355682
 20
101.4571387496235
 30
0.0
 11
837.30412355682
 21
113.4571387496235
 31
0.0
  0
LINE
  5
EE0
102
{ACAD_REACTORS
330
1DE4
330
1E0C
330
1E34
330
1E5C
102
}
330
1F
100
AcDbEntity
  8
AM_VIS
100
AcDbLine
 10
821.80412355682
 20
101.4571387496235
 30
0.0
 11
837.30412355682
 21
101.4571387496235
 31
0.0
  0
LINE
  5
EE1
102
{ACAD_REACTORS
330
1E0C
102
}
330
1F
100
AcDbEntity
  8
AM_VIS
100
AcDbLine
 10
821.80412355682
 20
101.4571387496235
 30
0.0
 11
821.80412355682
 21
109.9571387496235
 31
0.0
  0
LINE
  5
EE2
330
1F
100
AcDbEntity
  8
AM_VIS
100
AcDbLine
 10
827.30412355682
 20
109.9571387496235
 30
0.0
 11
821.80412355682
 21
109.9571387496235
 31
0.0
  0
LINE
  5
EE3
330
1F
100
AcDbEntity
  8
AM_VIS
100
AcDbLine
 10
827.30412355682
 20
113.4571387496235
 30
0.0
 11
827.30412355682
 21
109.9571387496235
 31
0.0
  0
LINE
  5
EE4
330
1F
100
AcDbEntity
  8
AM_VIS
100
AcDbLine
 10
821.80412355682
 20
113.4571387496235
 30
0.0
 11
824.3041235568201
 21
113.4571387496235
 31
0.0
  0
LINE
  5
EE5
330
1F
100
AcDbEntity
  8
AM_VIS
100
AcDbLine
 10
837.30412355682
 20
113.4571387496235
 30
0.0
 11
827.30412355682
 21
113.4571387496235
 31
0.0
  0
SPLINE
  5
EE6
330
1F
100
AcDbEntity
  8
AM_VIS
100
AcDbSpline
210
0.0
220
0.0
230
1.0
 70
     8
 71
     3
 72
     8
 73
     4
 74
     0
 42
0.0000000001
 43
0.0000000001
 40
0.0
 40
0.0
 40
0.0
 40
0.0
 40
80.0
 40
80.0
 40
80.0
 40
80.0
 10
835.3149931220244
 20
111.9381170104931
 30
0.0
 10
835.3149930805603
 20
112.1265227937731
 30
0.0
 10
835.2316597748696
 20
112.2524285770532
 30
0.0
 10
835.0649931220244
 20
112.3158344017975
 30
0.0
  0
SPLINE
  5
EE7
330
1F
100
AcDbEntity
  8
AM_VIS
100
AcDbSpline
210
0.0
220
0.0
230
1.0
 70
     8
 71
     3
 72
     8
 73
     4
 74
     0
 42
0.0000000001
 43
0.0000000001
 40
0.0
 40
0.0
 40
0.0
 40
0.0
 40
80.0
 40
80.0
 40
80.0
 40
80.0
 10
835.0649931220244
 20
112.3158344017975
 30
0.0
 10
834.9707902096524
 20
112.3556894466185
 30
0.0
 10
834.8611887741983
 20
112.3719937944445
 30
0.0
 10
834.7361887741984
 20
112.3647474452757
 30
0.0
  0
SPLINE
  5
EE8
330
1F
100
AcDbEntity
  8
AM_VIS
100
AcDbSpline
210
0.0
220
0.0
230
1.0
 70
     8
 71
     3
 72
     8
 73
     4
 74
     0
 42
0.0000000001
 43
0.0000000001
 40
0.0
 40
0.0
 40
0.0
 40
0.0
 40
80.0
 40
80.0
 40
80.0
 40
80.0
 10
834.7361887741984
 20
112.3647474452757
 30
0.0
 10
834.663724992261
 20
112.3611242292272
 30
0.0
 10
834.6184351233672
 20
112.3547836633383
 30
0.0
 10
834.600319208981
 20
112.3457257061453
 30
0.0
  0
SPLINE
  5
EE9
330
1F
100
AcDbEntity
  8
AM_VIS
100
AcDbSpline
210
0.0
220
0.0
230
1.0
 70
     8
 71
     3
 72
     8
 73
     4
 74
     0
 42
0.0000000001
 43
0.0000000001
 40
0.0
 40
0.0
 40
0.0
 40
0.0
 40
80.0
 40
80.0
 40
80.0
 40
80.0
 10
834.600319208981
 20
112.3457257061453
 30
0.0
 10
834.5713336879132
 20
112.3276097502949
 30
0.0
 10
834.5568409481114
 20
112.2904720553141
 30
0.0
 10
834.5568409481114
 20
112.234312662667
 30
0.0
  0
LINE
  5
EEA
330
1F
100
AcDbEntity
  8
AM_VIS
100
AcDbLine
 10
834.5568409481114
 20
112.234312662667
 30
0.0
 11
834.5568409481114
 21
111.4897474452757
 31
0.0
  0
SPLINE
  5
EEB
330
1F
100
AcDbEntity
  8
AM_VIS
100
AcDbSpline
210
0.0
220
0.0
230
1.0
 70
     8
 71
     3
 72
     8
 73
     4
 74
     0
 42
0.0000000001
 43
0.0000000001
 40
0.0
 40
0.0
 40
0.0
 40
0.0
 40
80.0
 40
80.0
 40
80.0
 40
80.0
 10
834.5568409481114
 20
111.4897474452757
 30
0.0
 10
834.772420644435
 20
111.4915590118358
 30
0.0
 10
834.9300293400871
 20
111.5105807509663
 30
0.0
 10
835.0296670350678
 20
111.5468126626669
 30
0.0
  0
SPLINE
  5
EEC
330
1F
100
AcDbEntity
  8
AM_VIS
100
AcDbSpline
210
0.0
220
0.0
230
1.0
 70
     8
 71
     3
 72
     8
 73
     4
 74
     0
 42
0.0000000001
 43
0.0000000001
 40
0.0
 40
0.0
 40
0.0
 40
0.0
 40
80.0
 40
80.0
 40
80.0
 40
80.0
 10
835.0296670350678
 20
111.5468126626669
 30
0.0
 10
835.219884384908
 20
111.6138416205315
 30
0.0
 10
835.3149930805603
 20
111.7442764031402
 30
0.0
 10
835.3149931220244
 20
111.9381170104931
 30
0.0
  0
LINE
  5
EED
330
1F
100
AcDbEntity
  8
AM_VIS
100
AcDbLine
 10
835.8041235568071
 20
110.4571387496235
 30
0.0
 11
835.4291235568071
 21
110.4571387496235
 31
0.0
  0
LINE
  5
EEE
330
1F
100
AcDbEntity
  8
AM_VIS
100
AcDbLine
 10
835.4291235568071
 20
110.4571387496235
 30
0.0
 11
834.7851018176765
 21
111.4055083148409
 31
0.0
  0
LINE
  5
EEF
330
1F
100
AcDbEntity
  8
AM_VIS
100
AcDbLine
 10
834.7851018176765
 20
111.4055083148409
 30
0.0
 11
834.5568409481114
 21
111.3946387496235
 31
0.0
  0
LINE
  5
EF0
330
1F
100
AcDbEntity
  8
AM_VIS
100
AcDbLine
 10
834.5568409481114
 20
111.3946387496235
 30
0.0
 11
834.5568409481114
 21
110.8131170104931
 31
0.0
  0
SPLINE
  5
EF1
330
1F
100
AcDbEntity
  8
AM_VIS
100
AcDbSpline
210
0.0
220
0.0
230
1.0
 70
     8
 71
     3
 72
     8
 73
     4
 74
     0
 42
0.0000000001
 43
0.0000000001
 40
0.0
 40
0.0
 40
0.0
 40
0.0
 40
80.0
 40
80.0
 40
80.0
 40
80.0
 10
834.5568409481114
 20
110.8131170104931
 30
0.0
 10
834.5568409481114
 20
110.7062329248793
 30
0.0
 10
834.5767684705219
 20
110.6310517931018
 30
0.0
 10
834.6166235568071
 20
110.5875735322322
 30
0.0
  0
SPLINE
  5
EF2
330
1F
100
AcDbEntity
  8
AM_VIS
100
AcDbSpline
210
0.0
220
0.0
230
1.0
 70
     8
 71
     3
 72
     8
 73
     4
 74
     0
 42
0.0000000001
 43
0.0000000001
 40
0.0
 40
0.0
 40
0.0
 40
0.0
 40
80.0
 40
80.0
 40
80.0
 40
80.0
 10
834.6166235568071
 20
110.5875735322322
 30
0.0
 10
834.6546669936037
 20
110.5459068793869
 30
0.0
 10
834.7262249922609
 20
110.5205445743677
 30
0.0
 10
834.8312974698504
 20
110.5114865757105
 30
0.0
  0
LINE
  5
EF3
330
1F
100
AcDbEntity
  8
AM_VIS
100
AcDbLine
 10
834.8312974698504
 20
110.5114865757105
 30
0.0
 11
834.8312974698504
 21
110.4571387496235
 31
0.0
  0
LINE
  5
EF4
330
1F
100
AcDbEntity
  8
AM_VIS
100
AcDbLine
 10
834.8312974698504
 20
110.4571387496235
 30
0.0
 11
834.1247757307201
 21
110.4571387496235
 31
0.0
  0
LINE
  5
EF5
330
1F
100
AcDbEntity
  8
AM_VIS
100
AcDbLine
 10
834.1247757307201
 20
110.4571387496235
 30
0.0
 11
834.1247757307201
 21
110.5114865757105
 31
0.0
  0
SPLINE
  5
EF6
330
1F
100
AcDbEntity
  8
AM_VIS
100
AcDbSpline
210
0.0
220
0.0
230
1.0
 70
     8
 71
     3
 72
     8
 73
     4
 74
     0
 42
0.0000000001
 43
0.0000000001
 40
0.0
 40
0.0
 40
0.0
 40
0.0
 40
80.0
 40
80.0
 40
80.0
 40
80.0
 10
834.1247757307201
 20
110.5114865757105
 30
0.0
 10
834.2298481668455
 20
110.5223561409278
 30
0.0
 10
834.2995945574784
 20
110.5513416619956
 30
0.0
 10
834.3340148611549
 20
110.5984430974496
 30
0.0
  0
SPLINE
  5
EF7
330
1F
100
AcDbEntity
  8
AM_VIS
100
AcDbSpline
210
0.0
220
0.0
230
1.0
 70
     8
 71
     3
 72
     8
 73
     4
 74
     0
 42
0.0000000001
 43
0.0000000001
 40
0.0
 40
0.0
 40
0.0
 40
0.0
 40
80.0
 40
80.0
 40
80.0
 40
80.0
 10
834.3340148611549
 20
110.5984430974496
 30
0.0
 10
834.3684351233672
 20
110.6437329248793
 30
0.0
 10
834.3856452544734
 20
110.7279720553141
 30
0.0
 10
834.3856452959375
 20
110.851160488754
 30
0.0
  0
LINE
  5
EF8
330
1F
100
AcDbEntity
  8
AM_VIS
100
AcDbLine
 10
834.3856452959375
 20
110.851160488754
 30
0.0
 11
834.3856452959375
 21
112.0957257061453
 31
0.0
  0
SPLINE
  5
EF9
330
1F
100
AcDbEntity
  8
AM_VIS
100
AcDbSpline
210
0.0
220
0.0
230
1.0
 70
     8
 71
     3
 72
     8
 73
     4
 74
     0
 42
0.0000000001
 43
0.0000000001
 40
0.0
 40
0.0
 40
0.0
 40
0.0
 40
80.0
 40
80.0
 40
80.0
 40
80.0
 10
834.3856452959375
 20
112.0957257061453
 30
0.0
 10
834.3856452544734
 20
112.2098561409278
 30
0.0
 10
834.3657177320629
 20
112.288660488754
 30
0.0
 10
834.3258626872419
 20
112.3321387496235
 30
0.0
  0
SPLINE
  5
EFA
330
1F
100
AcDbEntity
  8
AM_VIS
100
AcDbSpline
210
0.0
220
0.0
230
1.0
 70
     8
 71
     3
 72
     8
 73
     4
 74
     0
 42
0.0000000001
 43
0.0000000001
 40
0.0
 40
0.0
 40
0.0
 40
0.0
 40
80.0
 40
80.0
 40
80.0
 40
80.0
 10
834.3258626872419
 20
112.3321387496235
 30
0.0
 10
834.2932539915896
 20
112.3683706198601
 30
0.0
 10
834.226224992261
 20
112.3919213583192
 30
0.0
 10
834.1247757307201
 20
112.4027909235366
 30
0.0
  0
LINE
  5
EFB
330
1F
100
AcDbEntity
  8
AM_VIS
100
AcDbLine
 10
834.1247757307201
 20
112.4027909235366
 30
0.0
 11
834.1247757307201
 21
112.4571387496235
 31
0.0
  0
LINE
  5
EFC
330
1F
100
AcDbEntity
  8
AM_VIS
100
AcDbLine
 10
834.1247757307201
 20
112.4571387496235
 30
0.0
 11
834.8476018176766
 21
112.4571387496235
 31
0.0
  0
SPLINE
  5
EFD
330
1F
100
AcDbEntity
  8
AM_VIS
100
AcDbSpline
210
0.0
220
0.0
230
1.0
 70
     8
 71
     3
 72
     8
 73
     4
 74
     0
 42
0.0000000001
 43
0.0000000001
 40
0.0
 40
0.0
 40
0.0
 40
0.0
 40
80.0
 40
80.0
 40
80.0
 40
80.0
 10
834.8476018176766
 20
112.4571387496235
 30
0.0
 10
835.0160800785461
 20
112.4571387496235
 30
0.0
 10
835.1546670350678
 20
112.4281532285558
 30
0.0
 10
835.2633626872417
 20
112.3701822278844
 30
0.0
  0
SPLINE
  5
EFE
330
1F
100
AcDbEntity
  8
AM_VIS
100
AcDbSpline
210
0.0
220
0.0
230
1.0
 70
     8
 71
     3
 72
     8
 73
     4
 74
     0
 42
0.0000000001
 43
0.0000000001
 40
0.0
 40
0.0
 40
0.0
 40
0.0
 40
80.0
 40
80.0
 40
80.0
 40
80.0
 10
835.2633626872417
 20
112.3701822278844
 30
0.0
 10
835.4245945574785
 20
112.2832257061453
 30
0.0
 10
835.5052105133289
 20
112.1373923589906
 30
0.0
 10
835.5052105133289
 20
111.9326822278844
 30
0.0
  0
SPLINE
  5
EFF
330
1F
100
AcDbEntity
  8
AM_VIS
100
AcDbSpline
210
0.0
220
0.0
230
1.0
 70
     8
 71
     3
 72
     8
 73
     4
 74
     0
 42
0.0000000001
 43
0.0000000001
 40
0.0
 40
0.0
 40
0.0
 40
0.0
 40
80.0
 40
80.0
 40
80.0
 40
80.0
 10
835.5052105133289
 20
111.9326822278844
 30
0.0
 10
835.5052105133289
 20
111.7605807509663
 30
0.0
 10
835.4408989053045
 20
111.6319575763818
 30
0.0
 10
835.31227573072
 20
111.5468126626669
 30
0.0
  0
SPLINE
  5
F00
330
1F
100
AcDbEntity
  8
AM_VIS
100
AcDbSpline
210
0.0
220
0.0
230
1.0
 70
     8
 71
     3
 72
     8
 73
     4
 74
     0
 42
0.0000000001
 43
0.0000000001
 40
0.0
 40
0.0
 40
0.0
 40
0.0
 40
80.0
 40
80.0
 40
80.0
 40
80.0
 10
835.31227573072
 20
111.5468126626669
 30
0.0
 10
835.2398119487826
 20
111.4978996191887
 30
0.0
 10
835.1356452959375
 20
111.460761924208
 30
0.0
 10
834.9997757307201
 20
111.4353996191887
 30
0.0
  0
LINE
  5
F01
330
1F
100
AcDbEntity
  8
AM_VIS
100
AcDbLine
 10
834.9997757307201
 20
111.4353996191887
 30
0.0
 11
835.5486887741983
 21
110.6201822278844
 31
0.0
  0
SPLINE
  5
F02
330
1F
100
AcDbEntity
  8
AM_VIS
100
AcDbSpline
210
0.0
220
0.0
230
1.0
 70
     8
 71
     3
 72
     8
 73
     4
 74
     0
 42
0.0000000001
 43
0.0000000001
 40
0.0
 40
0.0
 40
0.0
 40
0.0
 40
80.0
 40
80.0
 40
80.0
 40
80.0
 10
835.5486887741983
 20
110.6201822278844
 30
0.0
 10
835.584920644435
 20
110.5640228352373
 30
0.0
 10
835.6700655581498
 20
110.5277909235366
 30
0.0
 10
835.8041235568071
 20
110.5114865757105
 30
0.0
  0
LINE
  5
F03
330
1F
100
AcDbEntity
  8
AM_VIS
100
AcDbLine
 10
835.8041235568071
 20
110.5114865757105
 30
0.0
 11
835.8041235568071
 21
110.4571387496235
 31
0.0
  0
CIRCLE
  5
F05
330
1F
100
AcDbEntity
  8
AM_VIS
100
AcDbCircle
 10
832.3041235568201
 20
106.9571387496235
 30
0.0
 40
2.1
  0
LINE
  5
F06
330
1F
100
AcDbEntity
  8
AM_VIS
100
AcDbLine
 10
824.3041235568201
 20
113.4571387496235
 30
0.0
 11
827.30412355682
 21
113.4571387496235
 31
0.0
  0
LINE
  5
F07
330
1F
100
AcDbEntity
  8
AM_VIS
100
AcDbLine
 10
827.30412355682
 20
113.4571387496235
 30
0.0
 11
837.30412355682
 21
113.4571387496235
 31
0.0
  0
LINE
  5
F08
330
1F
100
AcDbEntity
  8
AM_VIS
100
AcDbLine
 10
837.30412355682
 20
113.4571387496235
 30
0.0
 11
837.30412355682
 21
126.4571387496235
 31
0.0
  0
LINE
  5
F09
330
1F
100
AcDbEntity
  8
AM_VIS
100
AcDbLine
 10
833.8211961500626
 20
128.456210238911
 30
0.0
 11
834.0501772509234
 21
126.4563718815982
 31
0.0
  0
LINE
  5
F0A
330
1F
100
AcDbEntity
  8
AM_VIS
100
AcDbLine
 10
834.9041235568201
 20
128.4571387496235
 30
0.0
 11
834.9041235568201
 21
126.4571387496235
 31
0.0
  0
LINE
  5
F0B
330
1F
100
AcDbEntity
  8
AM_VIS
100
AcDbLine
 10
837.30412355682
 20
126.4571387496235
 30
0.0
 11
827.30412355682
 21
126.4571387496235
 31
0.0
  0
LINE
  5
F0C
330
1F
100
AcDbEntity
  8
AM_VIS
100
AcDbLine
 10
827.30412355682
 20
113.4571387496235
 30
0.0
 11
827.30412355682
 21
126.4571387496235
 31
0.0
  0
LINE
  5
F0D
330
1F
100
AcDbEntity
  8
AM_VIS
100
AcDbLine
 10
829.7041235568199
 20
126.4571387496235
 30
0.0
 11
829.7041235568199
 21
128.4571387496235
 31
0.0
  0
LINE
  5
F0E
330
1F
100
AcDbEntity
  8
AM_VIS
100
AcDbLine
 10
830.5580698627165
 20
126.4563718815982
 30
0.0
 11
830.7870509635774
 21
128.456210238911
 31
0.0
  0
LINE
  5
F0F
330
1F
100
AcDbEntity
  8
AM_VIS
100
AcDbLine
 10
833.7738174024899
 20
128.4571387496235
 30
0.0
 11
833.7738174024899
 21
128.6571387496235
 31
0.0
  0
LINE
  5
F10
330
1F
100
AcDbEntity
  8
AM_VIS
100
AcDbLine
 10
830.8344297111501
 20
128.6571387496235
 30
0.0
 11
830.8344297111501
 21
128.4571387496235
 31
0.0
  0
CIRCLE
  5
F11
330
1F
100
AcDbEntity
  8
AM_VIS
100
AcDbCircle
 10
832.3041235568201
 20
119.9571387496235
 30
0.0
 40
3.399999999999999
  0
CIRCLE
  5
F12
330
1F
100
AcDbEntity
  8
AM_VIS
100
AcDbCircle
 10
832.3041235568201
 20
119.9571387496235
 30
0.0
 40
2.7
  0
CIRCLE
  5
F13
330
1F
100
AcDbEntity
  8
AM_VIS
100
AcDbCircle
 10
832.3041235568201
 20
119.9571387496235
 30
0.0
 40
2.5
  0
LINE
  5
F15
330
1F
100
AcDbEntity
  8
AM_VIS
100
AcDbLine
 10
830.7789416858636
 20
128.4571387496235
 30
0.0
 11
833.8293054277766
 21
128.4571387496235
 31
0.0
  0
LINE
  5
F16
330
1F
100
AcDbEntity
  8
AM_VIS
100
AcDbLine
 10
833.8293054277766
 20
128.4571387496235
 30
0.0
 11
834.9041235568201
 21
128.4571387496235
 31
0.0
  0
LINE
  5
F17
330
1F
100
AcDbEntity
  8
AM_VIS
100
AcDbLine
 10
829.7041235568199
 20
128.4571387496235
 30
0.0
 11
830.7789416858636
 21
128.4571387496235
 31
0.0
  0
LINE
  5
F18
330
1F
100
AcDbEntity
  8
AM_VIS
100
AcDbLine
 10
830.8344297111501
 20
128.6571387496235
 30
0.0
 11
833.7738174024899
 21
128.6571387496235
 31
0.0
  0
LINE
  5
F19
330
1F
100
AcDbEntity
  8
AM_VIS
100
AcDbLine
 10
837.30412355682
 20
126.4571387496235
 30
0.0
 11
837.30412355682
 21
126.9571387496235
 31
0.0
  0
LINE
  5
F1A
330
1F
100
AcDbEntity
  8
AM_VIS
100
AcDbLine
 10
827.30412355682
 20
126.9571387496235
 30
0.0
 11
827.30412355682
 21
126.4571387496235
 31
0.0
  0
LINE
  5
F1B
330
1F
100
AcDbEntity
  8
AM_VIS
100
AcDbLine
 10
829.7041235568199
 20
128.4571387496235
 30
0.0
 11
827.30412355682
 21
128.4571387496235
 31
0.0
  0
LINE
  5
F1C
330
1F
100
AcDbEntity
  8
AM_VIS
100
AcDbLine
 10
827.30412355682
 20
126.9571387496235
 30
0.0
 11
829.7041235568199
 21
126.9571387496235
 31
0.0
  0
LINE
  5
F1D
330
1F
100
AcDbEntity
  8
AM_VIS
100
AcDbLine
 10
827.30412355682
 20
128.4571387496235
 30
0.0
 11
827.30412355682
 21
126.9571387496235
 31
0.0
  0
LINE
  5
F1E
330
1F
100
AcDbEntity
  8
AM_VIS
100
AcDbLine
 10
837.30412355682
 20
128.4571387496235
 30
0.0
 11
834.9041235568201
 21
128.4571387496235
 31
0.0
  0
LINE
  5
F1F
330
1F
100
AcDbEntity
  8
AM_VIS
100
AcDbLine
 10
837.30412355682
 20
126.9571387496235
 30
0.0
 11
837.30412355682
 21
128.4571387496235
 31
0.0
  0
LINE
  5
F20
330
1F
100
AcDbEntity
  8
AM_VIS
100
AcDbLine
 10
834.9041235568201
 20
126.9571387496235
 30
0.0
 11
837.30412355682
 21
126.9571387496235
 31
0.0
  0
LINE
  5
F21
330
1F
100
AcDbEntity
  8
AM_VIS
100
AcDbLine
 10
827.30412355682
 20
128.4571387496235
 30
0.0
 11
827.30412355682
 21
129.9571387496235
 31
0.0
  0
LINE
  5
F22
330
1F
100
AcDbEntity
  8
AM_VIS
100
AcDbLine
 10
827.30412355682
 20
129.9571387496235
 30
0.0
 11
837.30412355682
 21
129.9571387496235
 31
0.0
  0
LINE
  5
F23
330
1F
100
AcDbEntity
  8
AM_VIS
100
AcDbLine
 10
837.30412355682
 20
128.4571387496235
 30
0.0
 11
837.30412355682
 21
129.9571387496235
 31
0.0
  0
LINE
  5
F24
330
1F
100
AcDbEntity
  8
AM_VIS
100
AcDbLine
 10
836.30412355682
 20
131.4571387496235
 30
0.0
 11
837.30412355682
 21
129.9571387496235
 31
0.0
  0
LINE
  5
F25
330
1F
100
AcDbEntity
  8
AM_VIS
100
AcDbLine
 10
827.30412355682
 20
129.9571387496235
 30
0.0
 11
828.30412355682
 21
131.4571387496235
 31
0.0
  0
LINE
  5
F26
330
1F
100
AcDbEntity
  8
AM_VIS
100
AcDbLine
 10
836.05412355682
 20
131.4571387496235
 30
0.0
 11
836.05412355682
 21
134.9571387496235
 31
0.0
  0
LINE
  5
F27
330
1F
100
AcDbEntity
  8
AM_VIS
100
AcDbLine
 10
828.5541235568199
 20
131.4571387496235
 30
0.0
 11
828.5541235568199
 21
134.9571387496235
 31
0.0
  0
LINE
  5
F28
330
1F
100
AcDbEntity
  8
AM_VIS
100
AcDbLine
 10
835.45412355682
 20
135.9571387496235
 30
0.0
 11
829.15412355682
 21
135.9571387496235
 31
0.0
  0
LINE
  5
F29
102
{ACAD_REACTORS
330
1E5C
102
}
330
1F
100
AcDbEntity
  8
AM_VIS
100
AcDbLine
 10
836.05412355682
 20
134.9571387496235
 30
0.0
 11
835.45412355682
 21
135.9571387496235
 31
0.0
  0
LINE
  5
F2A
330
1F
100
AcDbEntity
  8
AM_VIS
100
AcDbLine
 10
828.5541235568199
 20
134.9571387496235
 30
0.0
 11
836.05412355682
 21
134.9571387496235
 31
0.0
  0
LINE
  5
F2B
330
1F
100
AcDbEntity
  8
AM_VIS
100
AcDbLine
 10
829.15412355682
 20
135.9571387496235
 30
0.0
 11
828.5541235568199
 21
134.9571387496235
 31
0.0
  0
LINE
  5
F2C
330
1F
100
AcDbEntity
  8
AM_VIS
100
AcDbLine
 10
836.30412355682
 20
131.4571387496235
 30
0.0
 11
828.30412355682
 21
131.4571387496235
 31
0.0
  0
LINE
  5
F2D
330
1F
100
AcDbEntity
  8
AM_VIS
100
AcDbLine
 10
743.4827621468342
 20
101.4571387496235
 30
0.0
 11
758.9827621468343
 21
101.4571387496235
 31
0.0
  0
LINE
  5
F2E
102
{ACAD_REACTORS
330
1D90
330
1DBA
102
}
330
1F
100
AcDbEntity
  8
AM_VIS
100
AcDbLine
 10
743.4827621468342
 20
101.4571387496235
 30
0.0
 11
743.4827621468342
 21
113.4571387496235
 31
0.0
  0
LINE
  5
F2F
330
1F
100
AcDbEntity
  8
AM_VIS
100
AcDbLine
 10
753.4827621468342
 20
109.9571387496235
 30
0.0
 11
753.4827621468342
 21
113.4571387496235
 31
0.0
  0
LINE
  5
F30
330
1F
100
AcDbEntity
  8
AM_VIS
100
AcDbLine
 10
758.9827621468343
 20
109.9571387496235
 30
0.0
 11
753.4827621468342
 21
109.9571387496235
 31
0.0
  0
LINE
  5
F31
330
1F
100
AcDbEntity
  8
AM_VIS
100
AcDbLine
 10
758.9827621468343
 20
101.4571387496235
 30
0.0
 11
758.9827621468343
 21
109.9571387496235
 31
0.0
  0
LINE
  5
F32
102
{ACAD_REACTORS
330
53B3
102
}
330
1F
100
AcDbEntity
  8
AM_VIS
100
AcDbLine
 10
758.9827621468343
 20
113.4571387496235
 30
0.0
 11
758.9827621468343
 21
109.9571387496235
 31
0.0
  0
LINE
  5
F33
330
1F
100
AcDbEntity
  8
AM_VIS
100
AcDbLine
 10
756.4827621468342
 20
113.4571387496235
 30
0.0
 11
758.9827621468343
 21
113.4571387496235
 31
0.0
  0
SPLINE
  5
F3A
330
1F
100
AcDbEntity
  8
AM_VIS
100
AcDbSpline
210
0.0
220
0.0
230
1.0
 70
     8
 71
     3
 72
     8
 73
     4
 74
     0
 42
0.0000000001
 43
0.0000000001
 40
0.0
 40
0.0
 40
0.0
 40
0.0
 40
80.0
 40
80.0
 40
80.0
 40
80.0
 10
746.1675447555212
 20
111.9136604887539
 30
0.0
 10
746.1675447140571
 20
112.2143850987924
 30
0.0
 10
745.9583055836223
 20
112.3647474452757
 30
0.0
 10
745.5398273642169
 20
112.3647474452757
 30
0.0
  0
SPLINE
  5
F3B
330
1F
100
AcDbEntity
  8
AM_VIS
100
AcDbSpline
210
0.0
220
0.0
230
1.0
 70
     8
 71
     3
 72
     8
 73
     4
 74
     0
 42
0.0000000001
 43
0.0000000001
 40
0.0
 40
0.0
 40
0.0
 40
0.0
 40
80.0
 40
80.0
 40
80.0
 40
80.0
 10
745.5398273642169
 20
112.3647474452757
 30
0.0
 10
745.4872911046901
 20
112.3647474452757
 30
0.0
 10
745.4537766257579
 20
112.359312662667
 30
0.0
 10
745.4392838859559
 20
112.3484430974496
 30
0.0
  0
SPLINE
  5
F3C
330
1F
100
AcDbEntity
  8
AM_VIS
100
AcDbSpline
210
0.0
220
0.0
230
1.0
 70
     8
 71
     3
 72
     8
 73
     4
 74
     0
 42
0.0000000001
 43
0.0000000001
 40
0.0
 40
0.0
 40
0.0
 40
0.0
 40
80.0
 40
80.0
 40
80.0
 40
80.0
 10
745.4392838859559
 20
112.3484430974496
 30
0.0
 10
745.4211679301056
 20
112.3303271415992
 30
0.0
 10
745.4121099729126
 20
112.2940952713626
 30
0.0
 10
745.4121099729126
 20
112.2397474452757
 30
0.0
  0
LINE
  5
F3D
330
1F
100
AcDbEntity
  8
AM_VIS
100
AcDbLine
 10
745.4121099729126
 20
112.2397474452757
 30
0.0
 11
745.4121099729126
 21
111.4489865757104
 31
0.0
  0
SPLINE
  5
F3E
330
1F
100
AcDbEntity
  8
AM_VIS
100
AcDbSpline
210
0.0
220
0.0
230
1.0
 70
     8
 71
     3
 72
     8
 73
     4
 74
     0
 42
0.0000000001
 43
0.0000000001
 40
0.0
 40
0.0
 40
0.0
 40
0.0
 40
80.0
 40
80.0
 40
80.0
 40
80.0
 10
745.4121099729126
 20
111.4489865757104
 30
0.0
 10
745.4718925401441
 20
111.4417401850775
 30
0.0
 10
745.5434505388013
 20
111.4381170104931
 30
0.0
 10
745.626783885956
 20
111.4381170104931
 30
0.0
  0
SPLINE
  5
F3F
330
1F
100
AcDbEntity
  8
AM_VIS
100
AcDbSpline
210
0.0
220
0.0
230
1.0
 70
     8
 71
     3
 72
     8
 73
     4
 74
     0
 42
0.0000000001
 43
0.0000000001
 40
0.0
 40
0.0
 40
0.0
 40
0.0
 40
80.0
 40
80.0
 40
80.0
 40
80.0
 10
745.626783885956
 20
111.4381170104931
 30
0.0
 10
745.9872911046901
 20
111.4381170104931
 30
0.0
 10
746.1675447140571
 20
111.5966314894253
 30
0.0
 10
746.1675447555212
 20
111.9136604887539
 30
0.0
  0
SPLINE
  5
F40
330
1F
100
AcDbEntity
  8
AM_VIS
100
AcDbSpline
210
0.0
220
0.0
230
1.0
 70
     8
 71
     3
 72
     8
 73
     4
 74
     0
 42
0.0000000001
 43
0.0000000001
 40
0.0
 40
0.0
 40
0.0
 40
0.0
 40
80.0
 40
80.0
 40
80.0
 40
80.0
 10
746.3577621468256
 20
111.9190952713626
 30
0.0
 10
746.3577621468256
 20
111.757863359662
 30
0.0
 10
746.3070374953231
 20
111.6247111857489
 30
0.0
 10
746.2055882337821
 20
111.5196387496235
 30
0.0
  0
SPLINE
  5
F41
330
1F
100
AcDbEntity
  8
AM_VIS
100
AcDbSpline
210
0.0
220
0.0
230
1.0
 70
     8
 71
     3
 72
     8
 73
     4
 74
     0
 42
0.0000000001
 43
0.0000000001
 40
0.0
 40
0.0
 40
0.0
 40
0.0
 40
80.0
 40
80.0
 40
80.0
 40
80.0
 10
746.2055882337821
 20
111.5196387496235
 30
0.0
 10
746.0932693655596
 20
111.4036967068166
 30
0.0
 10
745.9066751488397
 20
111.3457257061453
 30
0.0
 10
745.6458056250864
 20
111.3457257061453
 30
0.0
  0
LINE
  5
F42
330
1F
100
AcDbEntity
  8
AM_VIS
100
AcDbLine
 10
745.4120789034573
 20
111.3495598870365
 30
0.0
 11
745.6457919897639
 21
111.3450232567253
 31
0.0
  0
LINE
  5
F43
330
1F
100
AcDbEntity
  8
AM_VIS
100
AcDbLine
 10
745.4121099729126
 20
111.3511604887539
 30
0.0
 11
745.4121099729126
 21
110.8131170104931
 31
0.0
  0
SPLINE
  5
F44
330
1F
100
AcDbEntity
  8
AM_VIS
100
AcDbSpline
210
0.0
220
0.0
230
1.0
 70
     8
 71
     3
 72
     8
 73
     4
 74
     0
 42
0.0000000001
 43
0.0000000001
 40
0.0
 40
0.0
 40
0.0
 40
0.0
 40
80.0
 40
80.0
 40
80.0
 40
80.0
 10
745.4121099729126
 20
110.8131170104931
 30
0.0
 10
745.4121099729126
 20
110.7026097502949
 30
0.0
 10
745.4347548866273
 20
110.6247111857489
 30
0.0
 10
745.4800447555212
 20
110.5794213583192
 30
0.0
  0
SPLINE
  5
F45
330
1F
100
AcDbEntity
  8
AM_VIS
100
AcDbSpline
210
0.0
220
0.0
230
1.0
 70
     8
 71
     3
 72
     8
 73
     4
 74
     0
 42
0.0000000001
 43
0.0000000001
 40
0.0
 40
0.0
 40
0.0
 40
0.0
 40
80.0
 40
80.0
 40
80.0
 40
80.0
 10
745.4800447555212
 20
110.5794213583192
 30
0.0
 10
745.518088233782
 20
110.5413779215224
 30
0.0
 10
745.5905519742554
 20
110.5187329663434
 30
0.0
 10
745.6974360598691
 20
110.5114865757105
 30
0.0
  0
LINE
  5
F46
330
1F
100
AcDbEntity
  8
AM_VIS
100
AcDbLine
 10
745.6974360598691
 20
110.5114865757105
 30
0.0
 11
745.6974360598691
 21
110.4571387496235
 31
0.0
  0
LINE
  5
1126
330
1F
100
AcDbEntity
  8
AM_VIS
100
AcDbLine
 10
684.1665874517723
 20
141.7886698469084
 30
0.0
 11
684.1549182975892
 21
141.8813246687898
 31
0.0
  0
LINE
  5
1127
330
1F
100
AcDbEntity
  8
AM_VIS
100
AcDbLine
 10
683.5410262759926
 20
141.8598057154228
 30
0.0
 11
683.5300624687667
 21
141.881325385611
 31
0.0
  0
LINE
  5
1128
330
1F
100
AcDbEntity
  8
AM_VIS
100
AcDbLine
 10
684.3745496022959
 20
141.7876697368689
 30
0.0
 11
684.3863459844577
 21
141.8813246184105
 31
0.0
  0
LINE
  5
1129
330
1F
100
AcDbEntity
  8
AM_VIS
100
AcDbLine
 10
682.4958078385302
 20
141.1106759746413
 30
0.0
 11
682.4545436277362
 21
140.6390238870344
 31
0.0
  0
LINE
  5
112A
330
1F
100
AcDbEntity
  8
AM_VIS
100
AcDbLine
 10
685.6132794169424
 20
141.1106759746413
 30
0.0
 11
685.6545436277364
 21
140.6390238870344
 31
0.0
  0
LINE
  5
112B
330
1F
100
AcDbEntity
  8
AM_VIS
100
AcDbLine
 10
684.8545436277363
 20
126.8537313870342
 30
0.0
 11
684.8545436277363
 21
129.1390238870344
 31
0.0
  0
LINE
  5
112C
330
1F
100
AcDbEntity
  8
AM_VIS
100
AcDbLine
 10
683.2545436277363
 20
126.8537313870342
 30
0.0
 11
683.2545436277363
 21
129.1390238870344
 31
0.0
  0
LINE
  5
112D
102
{ACAD_REACTORS
330
5599
102
}
330
1F
100
AcDbEntity
  8
AM_VIS
100
AcDbLine
 10
684.6398361277363
 20
126.6390238870344
 30
0.0
 11
684.8545436277363
 21
126.8537313870342
 31
0.0
  0
LINE
  5
112E
330
1F
100
AcDbEntity
  8
AM_VIS
100
AcDbLine
 10
683.4692511277363
 20
126.6390238870344
 30
0.0
 11
683.2545436277363
 21
126.8537313870342
 31
0.0
  0
LINE
  5
112F
330
1F
100
AcDbEntity
  8
AM_VIS
100
AcDbLine
 10
684.6398361277363
 20
126.6390238870344
 30
0.0
 11
683.4692511277363
 21
126.6390238870344
 31
0.0
  0
ELLIPSE
  5
1131
330
1F
100
AcDbEntity
  8
AM_VIS
100
AcDbEllipse
 10
684.0015144806398
 20
139.4390238870344
 30
0.0
 11
0.0000000000000004
 21
2.490079065009783
 31
0.0
210
0.0
220
0.0
230
1.0
 40
0.9711834348606759
 41
0.1962051514771408
 42
0.342897025034902
  0
ELLIPSE
  5
1132
330
1F
100
AcDbEntity
  8
AM_VIS
100
AcDbEllipse
 10
684.6839031000346
 20
139.9733856970431
 30
0.0
 11
-1.524020367793821
 21
1.794957342537177
 31
0.0
210
0.0
220
0.0
230
1.0
 40
0.1838809272074932
 41
6.033676357464737
 42
6.216405892020739
  0
ELLIPSE
  5
1133
330
1F
100
AcDbEntity
  8
AM_VIS
100
AcDbEllipse
 10
684.1075727748329
 20
139.4390238870344
 30
0.0
 11
0.0000000000000004
 21
2.490079065009783
 31
0.0
210
0.0
220
0.0
230
1.0
 40
0.9711834348606759
 41
5.937689964444293
 42
6.086980155702427
  0
ELLIPSE
  5
1134
330
1F
100
AcDbEntity
  8
AM_VIS
100
AcDbEllipse
 10
683.425184155438
 20
139.9733856970431
 30
0.0
 11
1.52402036779382
 21
1.794957342537178
 31
0.0
210
0.0
220
0.0
230
1.0
 40
0.1838809272074936
 41
0.0602411001503935
 42
0.073949453081265
  0
ELLIPSE
  5
1135
330
1F
100
AcDbEntity
  8
AM_VIS
100
AcDbEllipse
 10
684.2706319419948
 20
139.4390238870344
 30
0.0
 11
-0.0000000000000001
 21
2.490079065009606
 31
0.0
210
0.0
220
0.0
230
1.0
 40
0.2383332453776002
 41
5.937689964444311
 42
6.086980155702799
  0
ELLIPSE
  5
1136
330
1F
100
AcDbEntity
  8
AM_VIS
100
AcDbEllipse
 10
684.2089915725404
 20
139.9733856970431
 30
0.0
 11
-2.262086191913684
 21
0.6538164905628979
 31
0.0
210
0.0
220
0.0
230
0.9999999999999998
 40
0.7492958450165219
 41
4.992445536876735
 42
4.99961557479808
  0
ELLIPSE
  5
1137
330
1F
100
AcDbEntity
  8
AM_VIS
100
AcDbEllipse
 10
683.8384553134817
 20
139.4390238870344
 30
0.0
 11
-0.0000000000000001
 21
2.490079065009962
 31
0.0
210
0.0
220
0.0
230
1.0
 40
0.2383332453776003
 41
5.93768996444426
 42
6.086980155702071
  0
ELLIPSE
  5
1138
330
1F
100
AcDbEntity
  8
AM_VIS
100
AcDbEllipse
 10
683.9000956829322
 20
139.9733856970431
 30
0.0
 11
2.262086191913684
 21
0.6538164905628955
 31
0.0
210
0.0
220
0.0
230
1.0
 40
0.7492958450165205
 41
1.108010235745996
 42
1.297278085310452
  0
ELLIPSE
  5
1139
330
1F
100
AcDbEntity
  8
AM_VIS
100
AcDbEllipse
 10
684.2706319419948
 20
139.4390238870344
 30
0.0
 11
-0.0000000000000001
 21
2.490079065009606
 31
0.0
210
0.0
220
0.0
230
1.0
 40
0.2383332453776002
 41
0.196205151476786
 42
0.3428970250345784
  0
ELLIPSE
  5
113A
330
1F
100
AcDbEntity
  8
AM_VIS
100
AcDbEllipse
 10
684.1075727748329
 20
139.4390238870344
 30
0.0
 11
0.0000000000000004
 21
2.490079065009783
 31
0.0
210
0.0
220
0.0
230
1.0
 40
0.9711834348606759
 41
0.196205151477141
 42
0.345495342735295
  0
LINE
  5
113B
330
1F
100
AcDbEntity
  8
AM_VIS
100
AcDbLine
 10
684.1549360021229
 20
141.8813268985382
 30
0.0
 11
684.3863278818666
 21
141.8813268985382
 31
0.0
  0
LINE
  5
113C
330
1F
100
AcDbEntity
  8
AM_VIS
100
AcDbLine
 10
683.5300654383275
 20
141.8813268985382
 30
0.0
 11
683.6361237325206
 21
141.8813268985382
 31
0.0
  0
LINE
  5
113D
330
1F
100
AcDbEntity
  8
AM_VIS
100
AcDbLine
 10
683.6361237325206
 20
141.8813268985382
 30
0.0
 11
683.9541512533541
 21
141.8813268985382
 31
0.0
  0
LINE
  5
113E
330
1F
100
AcDbEntity
  8
AM_VIS
100
AcDbLine
 10
684.3863278818666
 20
141.8813268985382
 30
0.0
 11
684.579021817145
 21
141.8813268985382
 31
0.0
  0
ARC
  5
113F
330
1F
100
AcDbEntity
  8
AM_VIS
100
AcDbCircle
 10
683.1333724453088
 20
141.0548962992828
 30
0.0
 40
0.6400000000000002
100
AcDbArc
 50
119.6864561869235
 51
175.0000000000002
  0
ARC
  5
1140
330
1F
100
AcDbEntity
  8
AM_VIS
100
AcDbCircle
 10
684.9757148101637
 20
141.0548962992828
 30
0.0
 40
0.6400000000000002
100
AcDbArc
 50
4.999999999999822
 51
60.31354381307705
  0
ARC
  5
1141
330
1F
100
AcDbEntity
  8
AM_VIS
100
AcDbCircle
 10
684.0545436277363
 20
139.4390238870343
 30
0.0
 40
2.5
100
AcDbArc
 50
60.31354381307993
 51
69.65356152820795
  0
ARC
  5
1142
330
1F
100
AcDbEntity
  8
AM_VIS
100
AcDbCircle
 10
684.0545436277363
 20
139.4390238870343
 30
0.0
 40
2.5
100
AcDbArc
 50
110.3464384717939
 51
119.6864561869201
  0
LINE
  5
1143
330
1F
100
AcDbEntity
  8
AM_VIS
100
AcDbLine
 10
679.6545436277362
 20
142.1390238870344
 30
0.0
 11
679.6545436277362
 21
145.6390238870344
 31
0.0
  0
LINE
  5
1144
330
1F
100
AcDbEntity
  8
AM_VIS
100
AcDbLine
 10
662.6545436277362
 20
142.1390238870344
 30
0.0
 11
679.6545436277362
 21
142.1390238870344
 31
0.0
  0
LINE
  5
1145
330
1F
100
AcDbEntity
  8
AM_VIS
100
AcDbLine
 10
679.6545436277362
 20
145.6390238870344
 30
0.0
 11
678.1545436277363
 21
147.1390238870344
 31
0.0
  0
LINE
  5
1146
330
1F
100
AcDbEntity
  8
AM_VIS
100
AcDbLine
 10
662.6545436277362
 20
145.6390238870344
 30
0.0
 11
679.6545436277362
 21
145.6390238870344
 31
0.0
  0
LINE
  5
1147
330
1F
100
AcDbEntity
  8
AM_VIS
100
AcDbLine
 10
664.1545436277363
 20
147.1390238870344
 30
0.0
 11
662.6545436277362
 21
145.6390238870344
 31
0.0
  0
LINE
  5
1148
330
1F
100
AcDbEntity
  8
AM_VIS
100
AcDbLine
 10
666.6545436277362
 20
150.6390238870344
 30
0.0
 11
672.0545436277364
 21
150.6390238870344
 31
0.0
  0
LINE
  5
1149
330
1F
100
AcDbEntity
  8
AM_VIS
100
AcDbLine
 10
671.7545436277363
 20
151.6390238870344
 30
0.0
 11
666.6545436277362
 21
151.6390238870344
 31
0.0
  0
LINE
  5
114A
330
1F
100
AcDbEntity
  8
AM_VIS
100
AcDbLine
 10
672.0545436277364
 20
147.1390238870344
 30
0.0
 11
672.0545436277364
 21
150.6390238870344
 31
0.0
  0
LINE
  5
114B
330
1F
100
AcDbEntity
  8
AM_VIS
100
AcDbLine
 10
671.7545436277363
 20
151.6390238870344
 30
0.0
 11
672.0545436277364
 21
150.6390238870344
 31
0.0
  0
LINE
  5
114C
330
1F
100
AcDbEntity
  8
AM_VIS
100
AcDbLine
 10
666.6545436277362
 20
151.6390238870344
 30
0.0
 11
666.6545436277362
 21
150.6390238870344
 31
0.0
  0
LINE
  5
114D
330
1F
100
AcDbEntity
  8
AM_VIS
100
AcDbLine
 10
666.6545436277362
 20
147.1390238870344
 30
0.0
 11
666.6545436277362
 21
150.6390238870344
 31
0.0
  0
LINE
  5
114E
330
1F
100
AcDbEntity
  8
AM_VIS
100
AcDbLine
 10
666.6545436277362
 20
151.6390238870344
 30
0.0
 11
665.1545436277363
 21
151.6390238870344
 31
0.0
  0
LINE
  5
114F
102
{ACAD_REACTORS
330
1D5F
102
}
330
1F
100
AcDbEntity
  8
AM_VIS
100
AcDbLine
 10
665.1545436277363
 20
151.6390238870344
 30
0.0
 11
665.1545436277363
 21
147.1390238870344
 31
0.0
  0
LINE
  5
1150
330
1F
100
AcDbEntity
  8
AM_VIS
100
AcDbLine
 10
678.1545436277363
 20
147.1390238870344
 30
0.0
 11
664.1545436277363
 21
147.1390238870344
 31
0.0
  0
LINE
  5
1151
330
1F
100
AcDbEntity
  8
AM_VIS
100
AcDbLine
 10
662.6545436277362
 20
142.1390238870344
 30
0.0
 11
662.6545436277362
 21
145.6390238870344
 31
0.0
  0
LINE
  5
1152
330
1F
100
AcDbEntity
  8
AM_VIS
100
AcDbLine
 10
662.6545436277362
 20
142.1390238870344
 30
0.0
 11
662.6545436277362
 21
129.1390238870344
 31
0.0
  0
LINE
  5
1153
102
{ACAD_REACTORS
330
1D5F
102
}
330
1F
100
AcDbEntity
  8
AM_VIS
100
AcDbLine
 10
682.3545436277363
 20
129.1390238870344
 30
0.0
 11
662.6545436277362
 21
129.1390238870344
 31
0.0
  0
LINE
  5
1154
330
1F
100
AcDbEntity
  8
AM_VIS
100
AcDbLine
 10
681.8545436277363
 20
144.1390238870344
 30
0.0
 11
679.6545436277362
 21
144.1390238870344
 31
0.0
  0
LINE
  5
1155
330
1F
100
AcDbEntity
  8
AM_VIS
100
AcDbLine
 10
679.6545436277362
 20
142.1390238870344
 30
0.0
 11
662.6545436277362
 21
142.1390238870344
 31
0.0
  0
LINE
  5
1156
330
1F
100
AcDbEntity
  8
AM_VIS
100
AcDbLine
 10
679.6545436277362
 20
144.1390238870344
 30
0.0
 11
679.6545436277362
 21
142.1390238870344
 31
0.0
  0
LINE
  5
1157
330
1F
100
AcDbEntity
  8
AM_VIS
100
AcDbLine
 10
682.3545436277363
 20
142.6390238870344
 30
0.0
 11
682.3545436277363
 21
129.1390238870344
 31
0.0
  0
LINE
  5
1158
330
1F
100
AcDbEntity
  8
AM_VIS
100
AcDbLine
 10
681.8545436277363
 20
144.1390238870344
 30
0.0
 11
682.3545436277363
 21
142.6390238870344
 31
0.0
  0
LINE
  5
1159
330
1F
100
AcDbEntity
  8
AM_VIS
100
AcDbLine
 10
681.8545436277363
 20
144.1390238870344
 30
0.0
 11
682.3545730397555
 21
144.1390238870344
 31
0.0
  0
LINE
  5
115A
330
1F
100
AcDbEntity
  8
AM_VIS
100
AcDbLine
 10
688.1545436277363
 20
131.7390238870345
 30
0.0
 11
688.1545436277363
 21
139.4390238870344
 31
0.0
  0
LINE
  5
115B
330
1F
100
AcDbEntity
  8
AM_VIS
100
AcDbLine
 10
689.2545436277363
 20
131.7390238870345
 30
0.0
 11
688.1545436277363
 21
131.7390238870345
 31
0.0
  0
LINE
  5
115C
330
1F
100
AcDbEntity
  8
AM_VIS
100
AcDbLine
 10
689.2545436277363
 20
139.4390238870344
 30
0.0
 11
689.2545436277363
 21
131.7390238870345
 31
0.0
  0
LINE
  5
115D
330
1F
100
AcDbEntity
  8
AM_VIS
100
AcDbLine
 10
688.1545436277363
 20
139.4390238870344
 30
0.0
 11
689.2545436277363
 21
139.4390238870344
 31
0.0
  0
LINE
  5
115E
330
1F
100
AcDbEntity
  8
AM_VIS
100
AcDbLine
 10
690.1545436277363
 20
142.1390238870344
 30
0.0
 11
685.8745436277363
 21
142.1390238870344
 31
0.0
  0
LINE
  5
115F
102
{ACAD_REACTORS
330
1CED
102
}
330
1F
100
AcDbEntity
  8
AM_VIS
100
AcDbLine
 10
690.1545436277363
 20
129.1390238870344
 30
0.0
 11
690.1545436277363
 21
142.1390238870344
 31
0.0
  0
LINE
  5
1160
102
{ACAD_REACTORS
330
1CED
102
}
330
1F
100
AcDbEntity
  8
AM_VIS
100
AcDbLine
 10
682.3545436277363
 20
129.1390238870344
 30
0.0
 11
690.1545436277363
 21
129.1390238870344
 31
0.0
  0
LINE
  5
1161
330
1F
100
AcDbEntity
  8
AM_VIS
100
AcDbLine
 10
682.3545436277363
 20
140.6390238870344
 30
0.0
 11
682.3545436277363
 21
129.1390238870344
 31
0.0
  0
LINE
  5
1162
330
1F
100
AcDbEntity
  8
AM_VIS
100
AcDbLine
 10
685.8745436277363
 20
140.6390238870344
 30
0.0
 11
682.3545436277363
 21
140.6390238870344
 31
0.0
  0
LINE
  5
1163
330
1F
100
AcDbEntity
  8
AM_VIS
100
AcDbLine
 10
682.3545730397555
 20
142.1390238870344
 30
0.0
 11
682.3545730397555
 21
144.1390238870344
 31
0.0
  0
LINE
  5
1164
330
1F
100
AcDbEntity
  8
AM_VIS
100
AcDbLine
 10
685.0941538115812
 20
142.1401304233498
 30
0.0
 11
684.641507306556
 21
144.1404043071737
 31
0.0
  0
LINE
  5
1165
330
1F
100
AcDbEntity
  8
AM_VIS
100
AcDbLine
 10
685.8745436277363
 20
142.1390238870344
 30
0.0
 11
685.8745436277363
 21
140.6390238870344
 31
0.0
  0
LINE
  5
1166
330
1F
100
AcDbEntity
  8
AM_VIS
100
AcDbLine
 10
682.9545436277363
 20
144.3390238870345
 30
0.0
 11
682.9545436277363
 21
144.1390238870344
 31
0.0
  0
LINE
  5
1167
330
1F
100
AcDbEntity
  8
AM_VIS
100
AcDbLine
 10
682.3545436277363
 20
144.1390238870344
 30
0.0
 11
682.3545436277363
 21
144.3390238870345
 31
0.0
  0
LINE
  5
1168
330
1F
100
AcDbEntity
  8
AM_VIS
100
AcDbLine
 10
689.2545436277363
 20
139.0390238870344
 30
0.0
 11
688.1545436277363
 21
139.0390238870344
 31
0.0
  0
LINE
  5
1169
330
1F
100
AcDbEntity
  8
AM_VIS
100
AcDbLine
 10
689.2545436277363
 20
132.2390238870345
 30
0.0
 11
688.1545436277363
 21
132.2390238870345
 31
0.0
  0
LINE
  5
116A
330
1F
100
AcDbEntity
  8
AM_VIS
100
AcDbLine
 10
685.1545436277363
 20
144.1390238870344
 30
0.0
 11
685.6545436277363
 21
142.1390238870344
 31
0.0
  0
LINE
  5
116B
330
1F
100
AcDbEntity
  8
AM_VIS
100
AcDbLine
 10
684.1545436277363
 20
144.1390238870344
 30
0.0
 11
684.1545436277363
 21
144.3390238870345
 31
0.0
  0
LINE
  5
116C
330
1F
100
AcDbEntity
  8
AM_VIS
100
AcDbLine
 10
681.1545436277363
 20
144.1390238870344
 30
0.0
 11
681.1545436277363
 21
144.3390238870345
 31
0.0
  0
LINE
  5
116D
330
1F
100
AcDbEntity
  8
AM_VIS
100
AcDbLine
 10
684.6354071415872
 20
144.1390238870344
 30
0.0
 11
685.1545436277363
 21
144.1390238870344
 31
0.0
  0
LINE
  5
116E
330
1F
100
AcDbEntity
  8
AM_VIS
100
AcDbLine
 10
682.3545436277363
 20
142.1390238870344
 30
0.0
 11
682.3545730397555
 21
142.1390238870344
 31
0.0
  0
LINE
  5
116F
330
1F
100
AcDbEntity
  8
AM_VIS
100
AcDbLine
 10
682.3545730397555
 20
144.1390238870344
 30
0.0
 11
684.6354071415872
 21
144.1390238870344
 31
0.0
  0
LINE
  5
1170
330
1F
100
AcDbEntity
  8
AM_VIS
100
AcDbLine
 10
685.0892639567641
 20
142.1390238870344
 30
0.0
 11
685.8745436277363
 21
142.1390238870344
 31
0.0
  0
LINE
  5
1171
330
1F
100
AcDbEntity
  8
AM_VIS
100
AcDbLine
 10
681.1545436277363
 20
144.3390238870345
 30
0.0
 11
682.3545436277363
 21
144.3390238870345
 31
0.0
  0
LINE
  5
1172
330
1F
100
AcDbEntity
  8
AM_VIS
100
AcDbLine
 10
682.9545436277363
 20
144.3390238870345
 30
0.0
 11
684.1545436277363
 21
144.3390238870345
 31
0.0
  0
LINE
  5
1173
330
1F
100
AcDbEntity
  8
AM_VIS
100
AcDbLine
 10
639.0587639990179
 20
126.8537313870342
 30
0.0
 11
639.0587639990179
 21
129.1390238870344
 31
0.0
  0
LINE
  5
1174
330
1F
100
AcDbEntity
  8
AM_VIS
100
AcDbLine
 10
637.4587639990179
 20
126.8537313870342
 30
0.0
 11
637.4587639990179
 21
129.1390238870344
 31
0.0
  0
LINE
  5
1175
330
1F
100
AcDbEntity
  8
AM_VIS
100
AcDbLine
 10
638.8440564990179
 20
126.6390238870344
 30
0.0
 11
639.0587639990179
 21
126.8537313870342
 31
0.0
  0
LINE
  5
1176
330
1F
100
AcDbEntity
  8
AM_VIS
100
AcDbLine
 10
637.6734714990179
 20
126.6390238870344
 30
0.0
 11
637.4587639990178
 21
126.8537313870342
 31
0.0
  0
LINE
  5
1177
330
1F
100
AcDbEntity
  8
AM_VIS
100
AcDbLine
 10
638.8440564990179
 20
126.6390238870344
 30
0.0
 11
637.6734714990179
 21
126.6390238870344
 31
0.0
  0
LINE
  5
1179
330
1F
100
AcDbEntity
  8
AM_VIS
100
AcDbLine
 10
645.5587639990179
 20
126.8537313870342
 30
0.0
 11
645.5587639990179
 21
129.1390238870344
 31
0.0
  0
LINE
  5
117A
330
1F
100
AcDbEntity
  8
AM_VIS
100
AcDbLine
 10
643.9587639990179
 20
126.8537313870342
 30
0.0
 11
643.9587639990179
 21
129.1390238870344
 31
0.0
  0
LINE
  5
117B
330
1F
100
AcDbEntity
  8
AM_VIS
100
AcDbLine
 10
645.3440564990179
 20
126.6390238870344
 30
0.0
 11
645.5587639990179
 21
126.8537313870342
 31
0.0
  0
LINE
  5
117C
330
1F
100
AcDbEntity
  8
AM_VIS
100
AcDbLine
 10
644.173471499018
 20
126.6390238870344
 30
0.0
 11
643.9587639990178
 21
126.8537313870342
 31
0.0
  0
LINE
  5
117D
330
1F
100
AcDbEntity
  8
AM_VIS
100
AcDbLine
 10
645.3440564990179
 20
126.6390238870344
 30
0.0
 11
644.173471499018
 21
126.6390238870344
 31
0.0
  0
LINE
  5
117F
330
1F
100
AcDbEntity
  8
AM_VIS
100
AcDbLine
 10
645.5087639990178
 20
147.1390238870344
 30
0.0
 11
646.5087639990179
 21
145.6390238870344
 31
0.0
  0
LINE
  5
1180
330
1F
100
AcDbEntity
  8
AM_VIS
100
AcDbLine
 10
637.7587639990179
 20
147.1390238870344
 30
0.0
 11
637.7587639990179
 21
150.6390238870344
 31
0.0
  0
LINE
  5
1181
330
1F
100
AcDbEntity
  8
AM_VIS
100
AcDbLine
 10
637.7587639990179
 20
150.6390238870344
 30
0.0
 11
638.3587639990179
 21
151.6390238870344
 31
0.0
  0
LINE
  5
1182
330
1F
100
AcDbEntity
  8
AM_VIS
100
AcDbLine
 10
638.5087639990179
 20
151.6390238870344
 30
0.0
 11
638.3587639990179
 21
151.6390238870344
 31
0.0
  0
LINE
  5
1183
330
1F
100
AcDbEntity
  8
AM_VIS
100
AcDbLine
 10
638.5087639990179
 20
151.6390238870344
 30
0.0
 11
639.4087639990178
 21
151.6390238870344
 31
0.0
  0
LINE
  5
1184
330
1F
100
AcDbEntity
  8
AM_VIS
100
AcDbLine
 10
638.5087639990179
 20
147.1390238870344
 30
0.0
 11
638.5087639990179
 21
151.6390238870344
 31
0.0
  0
LINE
  5
1185
330
1F
100
AcDbEntity
  8
AM_VIS
100
AcDbLine
 10
639.4087639990178
 20
151.6390238870344
 30
0.0
 11
639.4087639990178
 21
147.1390238870344
 31
0.0
  0
LINE
  5
1186
330
1F
100
AcDbEntity
  8
AM_VIS
100
AcDbLine
 10
643.6087639990179
 20
151.6390238870344
 30
0.0
 11
639.4087639990178
 21
151.6390238870344
 31
0.0
  0
LINE
  5
1187
330
1F
100
AcDbEntity
  8
AM_VIS
100
AcDbLine
 10
644.6587639990179
 20
151.6390238870344
 30
0.0
 11
644.5087639990179
 21
151.6390238870344
 31
0.0
  0
LINE
  5
1188
330
1F
100
AcDbEntity
  8
AM_VIS
100
AcDbLine
 10
644.6587639990179
 20
151.6390238870344
 30
0.0
 11
645.2587639990179
 21
150.6390238870344
 31
0.0
  0
LINE
  5
1189
330
1F
100
AcDbEntity
  8
AM_VIS
100
AcDbLine
 10
645.2587639990179
 20
147.1390238870344
 30
0.0
 11
645.2587639990179
 21
150.6390238870344
 31
0.0
  0
LINE
  5
118A
330
1F
100
AcDbEntity
  8
AM_VIS
100
AcDbLine
 10
643.6087639990179
 20
151.6390238870344
 30
0.0
 11
644.5087639990179
 21
151.6390238870344
 31
0.0
  0
LINE
  5
118B
330
1F
100
AcDbEntity
  8
AM_VIS
100
AcDbLine
 10
643.6087639990179
 20
147.1390238870344
 30
0.0
 11
643.6087639990179
 21
151.6390238870344
 31
0.0
  0
LINE
  5
118C
330
1F
100
AcDbEntity
  8
AM_VIS
100
AcDbLine
 10
644.5087639990179
 20
151.6390238870344
 30
0.0
 11
644.5087639990179
 21
147.1390238870344
 31
0.0
  0
LINE
  5
118D
330
1F
100
AcDbEntity
  8
AM_VIS
100
AcDbLine
 10
641.0087639990178
 20
150.1390238870344
 30
0.0
 11
641.0087639990178
 21
148.9390238870345
 31
0.0
  0
LINE
  5
118E
330
1F
100
AcDbEntity
  8
AM_VIS
100
AcDbLine
 10
641.0087639990178
 20
150.1390238870344
 30
0.0
 11
642.0087639990178
 21
150.1390238870344
 31
0.0
  0
LINE
  5
118F
330
1F
100
AcDbEntity
  8
AM_VIS
100
AcDbLine
 10
642.0087639990178
 20
148.9390238870344
 30
0.0
 11
642.0087639990178
 21
150.1390238870344
 31
0.0
  0
LINE
  5
1190
330
1F
100
AcDbEntity
  8
AM_VIS
100
AcDbLine
 10
641.0087639990178
 20
148.9390238870344
 30
0.0
 11
642.0087639990178
 21
148.9390238870344
 31
0.0
  0
LINE
  5
1191
330
1F
100
AcDbEntity
  8
AM_VIS
100
AcDbLine
 10
645.5087639990178
 20
147.1390238870344
 30
0.0
 11
643.5087639990179
 21
147.1390238870344
 31
0.0
  0
LINE
  5
1192
330
1F
100
AcDbEntity
  8
AM_VIS
100
AcDbLine
 10
636.5087639990179
 20
145.6390238870344
 30
0.0
 11
637.5087639990178
 21
147.1390238870344
 31
0.0
  0
LINE
  5
1193
330
1F
100
AcDbEntity
  8
AM_VIS
100
AcDbLine
 10
639.5087639990179
 20
147.1390238870344
 30
0.0
 11
637.5087639990178
 21
147.1390238870344
 31
0.0
  0
LINE
  5
1194
330
1F
100
AcDbEntity
  8
AM_VIS
100
AcDbLine
 10
643.5087639990179
 20
145.6390238870344
 30
0.0
 11
646.5087639990179
 21
145.6390238870344
 31
0.0
  0
LINE
  5
1195
330
1F
100
AcDbEntity
  8
AM_VIS
100
AcDbLine
 10
646.5087639990179
 20
142.1390238870344
 30
0.0
 11
646.5087639990179
 21
145.6390238870344
 31
0.0
  0
LINE
  5
1196
330
1F
100
AcDbEntity
  8
AM_VIS
100
AcDbLine
 10
636.5087639990179
 20
142.1390238870344
 30
0.0
 11
646.5087639990179
 21
142.1390238870344
 31
0.0
  0
LINE
  5
1197
330
1F
100
AcDbEntity
  8
AM_VIS
100
AcDbLine
 10
636.5087639990179
 20
142.1390238870344
 30
0.0
 11
636.5087639990179
 21
145.6390238870344
 31
0.0
  0
LINE
  5
1198
330
1F
100
AcDbEntity
  8
AM_VIS
100
AcDbLine
 10
636.5087639990179
 20
145.6390238870344
 30
0.0
 11
639.5087639990179
 21
145.6390238870344
 31
0.0
  0
LINE
  5
1199
330
1F
100
AcDbEntity
  8
AM_VIS
100
AcDbLine
 10
643.5087639990179
 20
147.1390238870344
 30
0.0
 11
643.5087639990179
 21
145.6390238870344
 31
0.0
  0
LINE
  5
119A
330
1F
100
AcDbEntity
  8
AM_VIS
100
AcDbLine
 10
643.5087639990179
 20
145.6390238870344
 30
0.0
 11
643.5087639990179
 21
144.8390238870345
 31
0.0
  0
LINE
  5
119B
330
1F
100
AcDbEntity
  8
AM_VIS
100
AcDbLine
 10
639.5087639990179
 20
144.8390238870345
 30
0.0
 11
639.5087639990179
 21
145.6390238870344
 31
0.0
  0
LINE
  5
119C
330
1F
100
AcDbEntity
  8
AM_VIS
100
AcDbLine
 10
639.5087639990179
 20
145.6390238870344
 30
0.0
 11
639.5087639990179
 21
147.1390238870344
 31
0.0
  0
LINE
  5
119D
330
1F
100
AcDbEntity
  8
AM_VIS
100
AcDbLine
 10
643.5087639990179
 20
144.8390238870345
 30
0.0
 11
639.5087639990179
 21
144.8390238870345
 31
0.0
  0
LINE
  5
119E
330
1F
100
AcDbEntity
  8
AM_VIS
100
AcDbLine
 10
643.5087639990179
 20
145.5561811745598
 30
0.0
 11
639.5087639990179
 21
145.5561811745598
 31
0.0
  0
LINE
  5
119F
330
1F
100
AcDbEntity
  8
AM_VIS
100
AcDbLine
 10
639.5087639990179
 20
147.1390238870344
 30
0.0
 11
643.5087639990179
 21
147.1390238870344
 31
0.0
  0
LINE
  5
11A0
330
1F
100
AcDbEntity
  8
AM_VIS
100
AcDbLine
 10
646.5087639990179
 20
142.1390238870344
 30
0.0
 11
646.5087639990179
 21
129.1390238870344
 31
0.0
  0
LINE
  5
11A1
330
1F
100
AcDbEntity
  8
AM_VIS
100
AcDbLine
 10
636.5087639990179
 20
129.1390238870344
 30
0.0
 11
636.5087639990179
 21
142.1390238870344
 31
0.0
  0
LINE
  5
11A2
330
1F
100
AcDbEntity
  8
AM_VIS
100
AcDbLine
 10
646.5087639990179
 20
129.1390238870344
 30
0.0
 11
636.5087639990179
 21
129.1390238870344
 31
0.0
  0
LINE
  5
11A3
330
1F
100
AcDbEntity
  8
AM_VIS
100
AcDbLine
 10
646.5087639990179
 20
142.1390238870344
 30
0.0
 11
636.5087639990179
 21
142.1390238870344
 31
0.0
  0
LINE
  5
11A4
330
1F
100
AcDbEntity
  8
AM_VIS
100
AcDbLine
 10
684.0545435966121
 20
168.8137666435182
 30
0.0
 11
684.0545436277364
 21
168.5912666435183
 31
0.0
  0
LINE
  5
11A5
330
1F
100
AcDbEntity
  8
AM_VIS
100
AcDbLine
 10
684.0545436277364
 20
168.5912666435183
 30
0.0
 11
684.0545436588605
 21
168.3687666435182
 31
0.0
  0
LINE
  5
11A6
330
1F
100
AcDbEntity
  8
AM_VIS
100
AcDbLine
 10
684.0545436277364
 20
168.5912666435183
 30
0.0
 11
684.2770435966127
 21
168.8137666746431
 31
0.0
  0
LINE
  5
11A7
330
1F
100
AcDbEntity
  8
AM_VIS
100
AcDbLine
 10
683.8320435966127
 20
168.8137666123934
 30
0.0
 11
684.0545436277364
 21
168.5912666435183
 31
0.0
  0
LINE
  5
11A8
330
1F
100
AcDbEntity
  8
AM_VIS
100
AcDbLine
 10
684.2770435966141
 20
168.8137666746426
 30
0.0
 11
683.8320435966141
 21
168.8137666123941
 31
0.0
  0
LINE
  5
11A9
330
1F
100
AcDbEntity
  8
AM_VIS
100
AcDbLine
 10
683.8320436588625
 20
168.3687666123941
 30
0.0
 11
683.832043596614
 21
168.8137666123941
 31
0.0
  0
LINE
  5
11AA
330
1F
100
AcDbEntity
  8
AM_VIS
100
AcDbLine
 10
684.2770436277382
 20
168.5912666746426
 30
0.0
 11
684.0545436277364
 21
168.5912666435183
 31
0.0
  0
LINE
  5
11AB
330
1F
100
AcDbEntity
  8
AM_VIS
100
AcDbLine
 10
684.2770436588611
 20
168.368766674642
 30
0.0
 11
684.0545436277364
 21
168.5912666435183
 31
0.0
  0
LINE
  5
11AC
330
1F
100
AcDbEntity
  8
AM_VIS
100
AcDbLine
 10
683.8320436588625
 20
168.3687666123941
 30
0.0
 11
684.2770436588625
 21
168.3687666746425
 31
0.0
  0
LINE
  5
11AD
330
1F
100
AcDbEntity
  8
AM_VIS
100
AcDbLine
 10
684.0545436277364
 20
168.5912666435183
 30
0.0
 11
683.8320436277383
 21
168.591266612394
 31
0.0
  0
LINE
  5
11AE
330
1F
100
AcDbEntity
  8
AM_VIS
100
AcDbLine
 10
684.0545436277364
 20
168.5912666435183
 30
0.0
 11
683.8320436588611
 21
168.3687666123946
 31
0.0
  0
LINE
  5
11AF
330
1F
100
AcDbEntity
  8
AM_VIS
100
AcDbLine
 10
684.2770435966141
 20
168.8137666746426
 30
0.0
 11
684.2770436588625
 21
168.3687666746425
 31
0.0
  0
LINE
  5
11B0
330
1F
100
AcDbEntity
  8
AM_VIS
100
AcDbLine
 10
684.2770435966141
 20
168.8137666746426
 30
0.0
 11
684.5399812857134
 21
168.8137667114233
 31
0.0
  0
LINE
  5
11B1
330
1F
100
AcDbEntity
  8
AM_VIS
100
AcDbLine
 10
684.2770435966141
 20
168.8137666746426
 30
0.0
 11
684.2770435598334
 21
169.0767043637429
 31
0.0
  0
LINE
  5
11B2
330
1F
100
AcDbEntity
  8
AM_VIS
100
AcDbLine
 10
683.5691059075108
 20
168.8137665756132
 30
0.0
 11
683.832043596614
 21
168.8137666123941
 31
0.0
  0
LINE
  5
11B3
330
1F
100
AcDbEntity
  8
AM_VIS
100
AcDbLine
 10
683.832043596614
 20
168.8137666123941
 30
0.0
 11
683.8320435598333
 21
169.0767043014963
 31
0.0
  0
LINE
  5
11B4
330
1F
100
AcDbEntity
  8
AM_VIS
100
AcDbLine
 10
683.5691059697593
 20
168.3687665756133
 30
0.0
 11
683.8320436588625
 21
168.3687666123941
 31
0.0
  0
LINE
  5
11B5
330
1F
100
AcDbEntity
  8
AM_VIS
100
AcDbLine
 10
683.8320436956434
 20
168.1058289232919
 30
0.0
 11
683.8320436588625
 21
168.3687666123941
 31
0.0
  0
LINE
  5
11B6
330
1F
100
AcDbEntity
  8
AM_VIS
100
AcDbLine
 10
684.2770436588625
 20
168.3687666746425
 30
0.0
 11
684.5399813479619
 21
168.3687667114234
 31
0.0
  0
LINE
  5
11B7
330
1F
100
AcDbEntity
  8
AM_VIS
100
AcDbLine
 10
684.2770436956433
 20
168.105828985542
 30
0.0
 11
684.2770436588625
 21
168.3687666746425
 31
0.0
  0
CIRCLE
  5
11B8
330
1F
100
AcDbEntity
  8
AM_VIS
100
AcDbCircle
 10
684.0545436277363
 20
168.5912666435183
 30
0.0
 40
1.600000000000022
  0
LINE
  5
11B9
330
1F
100
AcDbEntity
  8
AM_VIS
100
AcDbLine
 10
683.5691059075108
 20
168.8137665756134
 30
0.0
 11
683.2112464715744
 21
168.8137665255544
 31
0.0
  0
ELLIPSE
  5
11BA
330
1F
100
AcDbEntity
  8
AM_VIS
100
AcDbEllipse
 10
684.702577201732
 20
168.5912667341681
 30
0.0
 11
0.0000003293819832
 21
-2.354678309871315
 31
0.0
210
0.0
220
0.0
230
1.0
 40
0.6361945781365074
 41
4.617755055602461
 42
4.807022905166916
  0
LINE
  5
11BB
330
1F
100
AcDbEntity
  8
AM_VIS
100
AcDbLine
 10
684.5399813479619
 20
168.3687667114234
 30
0.0
 11
684.8978407838982
 21
168.3687667614822
 31
0.0
  0
ELLIPSE
  5
11BC
330
1F
100
AcDbEntity
  8
AM_VIS
100
AcDbEllipse
 10
683.4065100537405
 20
168.5912665528688
 30
0.0
 11
-0.0000003293819834
 21
2.354678309871315
 31
0.0
210
0.0
220
0.0
230
1.0
 40
0.6361945781365043
 41
4.617755055602461
 42
4.807022905166916
  0
LINE
  5
11BD
330
1F
100
AcDbEntity
  8
AM_VIS
100
AcDbLine
 10
684.2770437457021
 20
167.7479695496049
 30
0.0
 11
684.2770436956433
 21
168.105828985542
 31
0.0
  0
ELLIPSE
  5
11BE
330
1F
100
AcDbEntity
  8
AM_VIS
100
AcDbEllipse
 10
684.0545437183859
 20
167.9432330695226
 30
0.0
 11
-2.354678309871315
 21
-0.0000003293819796
 31
0.0
210
0.0
220
0.0
230
1.0
 40
0.6361945781365084
 41
4.617755055601614
 42
4.807022905166069
  0
LINE
  5
11BF
330
1F
100
AcDbEntity
  8
AM_VIS
100
AcDbLine
 10
683.8320436956434
 20
168.1058289232919
 30
0.0
 11
683.8320437457022
 21
167.7479694873563
 31
0.0
  0
LINE
  5
11C0
330
1F
100
AcDbEntity
  8
AM_VIS
100
AcDbLine
 10
683.8320435097744
 20
169.4345637374318
 30
0.0
 11
683.8320435598333
 21
169.0767043014963
 31
0.0
  0
ELLIPSE
  5
11C1
330
1F
100
AcDbEntity
  8
AM_VIS
100
AcDbEllipse
 10
684.0545435370868
 20
169.2393002175142
 30
0.0
 11
2.354678309871314
 21
0.0000003293819866
 31
0.0
210
0.0
220
0.0
230
0.9999999999999998
 40
0.6361945781365091
 41
4.617755055603312
 42
4.807022905167769
  0
LINE
  5
11C2
330
1F
100
AcDbEntity
  8
AM_VIS
100
AcDbLine
 10
684.2770435598334
 20
169.0767043637429
 30
0.0
 11
684.2770435097746
 21
169.4345637996799
 31
0.0
  0
LINE
  5
11C3
330
1F
100
AcDbEntity
  8
AM_VIS
100
AcDbLine
 10
683.2112465338229
 20
168.3687665255545
 30
0.0
 11
683.5691059697593
 21
168.3687665756133
 31
0.0
  0
LINE
  5
11C4
330
1F
100
AcDbEntity
  8
AM_VIS
100
AcDbLine
 10
684.8978407216498
 20
168.8137667614821
 30
0.0
 11
684.5399812857134
 21
168.8137667114232
 31
0.0
  0
ARC
  5
11C5
330
1F
100
AcDbEntity
  8
AM_VIS
100
AcDbCircle
 10
684.0545436277363
 20
168.5912666435183
 30
0.0
 40
0.5339999999999919
100
AcDbArc
 50
24.62432636693013
 51
65.37568966236737
  0
ARC
  5
11C6
330
1F
100
AcDbEntity
  8
AM_VIS
100
AcDbCircle
 10
684.0545436277363
 20
168.5912666435183
 30
0.0
 40
0.5339999999999919
100
AcDbArc
 50
114.6243263666982
 51
155.3756896626014
  0
ARC
  5
11C7
330
1F
100
AcDbEntity
  8
AM_VIS
100
AcDbCircle
 10
684.0545436277363
 20
168.5912666435183
 30
0.0
 40
0.5339999999999919
100
AcDbArc
 50
204.6243263669305
 51
245.375689662835
  0
ARC
  5
11C8
330
1F
100
AcDbEntity
  8
AM_VIS
100
AcDbCircle
 10
684.0545436277363
 20
168.5912666435183
 30
0.0
 40
0.5339999999999919
100
AcDbArc
 50
294.6243263671651
 51
335.3756896626046
  0
LINE
  5
11C9
330
1F
100
AcDbEntity
  8
AM_VIS
100
AcDbLine
 10
684.0545435966121
 20
162.3137666435182
 30
0.0
 11
684.0545436277364
 21
162.0912666435183
 31
0.0
  0
LINE
  5
11CA
330
1F
100
AcDbEntity
  8
AM_VIS
100
AcDbLine
 10
684.0545436277364
 20
162.0912666435183
 30
0.0
 11
684.0545436588605
 21
161.8687666435182
 31
0.0
  0
LINE
  5
11CB
330
1F
100
AcDbEntity
  8
AM_VIS
100
AcDbLine
 10
684.0545436277364
 20
162.0912666435183
 30
0.0
 11
684.2770435966127
 21
162.3137666746431
 31
0.0
  0
LINE
  5
11CC
330
1F
100
AcDbEntity
  8
AM_VIS
100
AcDbLine
 10
683.8320435966127
 20
162.3137666123934
 30
0.0
 11
684.0545436277364
 21
162.0912666435183
 31
0.0
  0
LINE
  5
11CD
330
1F
100
AcDbEntity
  8
AM_VIS
100
AcDbLine
 10
684.2770435966141
 20
162.3137666746426
 30
0.0
 11
683.832043596614
 21
162.3137666123941
 31
0.0
  0
LINE
  5
11CE
330
1F
100
AcDbEntity
  8
AM_VIS
100
AcDbLine
 10
683.8320436588625
 20
161.8687666123941
 30
0.0
 11
683.832043596614
 21
162.3137666123941
 31
0.0
  0
LINE
  5
11CF
330
1F
100
AcDbEntity
  8
AM_VIS
100
AcDbLine
 10
684.2770436277382
 20
162.0912666746425
 30
0.0
 11
684.0545436277364
 21
162.0912666435183
 31
0.0
  0
LINE
  5
11D0
330
1F
100
AcDbEntity
  8
AM_VIS
100
AcDbLine
 10
684.2770436588611
 20
161.868766674642
 30
0.0
 11
684.0545436277363
 21
162.0912666435183
 31
0.0
  0
LINE
  5
11D1
330
1F
100
AcDbEntity
  8
AM_VIS
100
AcDbLine
 10
683.8320436588625
 20
161.8687666123941
 30
0.0
 11
684.2770436588625
 21
161.8687666746425
 31
0.0
  0
LINE
  5
11D2
330
1F
100
AcDbEntity
  8
AM_VIS
100
AcDbLine
 10
684.0545436277364
 20
162.0912666435183
 30
0.0
 11
683.8320436277383
 21
162.091266612394
 31
0.0
  0
LINE
  5
11D3
330
1F
100
AcDbEntity
  8
AM_VIS
100
AcDbLine
 10
684.0545436277363
 20
162.0912666435183
 30
0.0
 11
683.8320436588611
 21
161.8687666123947
 31
0.0
  0
LINE
  5
11D4
330
1F
100
AcDbEntity
  8
AM_VIS
100
AcDbLine
 10
684.2770435966141
 20
162.3137666746426
 30
0.0
 11
684.2770436588625
 21
161.8687666746425
 31
0.0
  0
LINE
  5
11D5
330
1F
100
AcDbEntity
  8
AM_VIS
100
AcDbLine
 10
684.2770435966141
 20
162.3137666746426
 30
0.0
 11
684.5399812857134
 21
162.3137667114233
 31
0.0
  0
LINE
  5
11D6
330
1F
100
AcDbEntity
  8
AM_VIS
100
AcDbLine
 10
684.2770435966141
 20
162.3137666746426
 30
0.0
 11
684.2770435598334
 21
162.5767043637429
 31
0.0
  0
LINE
  5
11D7
330
1F
100
AcDbEntity
  8
AM_VIS
100
AcDbLine
 10
683.5691059075108
 20
162.3137665756134
 30
0.0
 11
683.832043596614
 21
162.3137666123941
 31
0.0
  0
LINE
  5
11D8
330
1F
100
AcDbEntity
  8
AM_VIS
100
AcDbLine
 10
683.832043596614
 20
162.3137666123941
 30
0.0
 11
683.8320435598333
 21
162.5767043014963
 31
0.0
  0
LINE
  5
11D9
330
1F
100
AcDbEntity
  8
AM_VIS
100
AcDbLine
 10
683.5691059697593
 20
161.8687665756133
 30
0.0
 11
683.8320436588625
 21
161.8687666123942
 31
0.0
  0
LINE
  5
11DA
330
1F
100
AcDbEntity
  8
AM_VIS
100
AcDbLine
 10
683.8320436956433
 20
161.6058289232919
 30
0.0
 11
683.8320436588625
 21
161.8687666123941
 31
0.0
  0
LINE
  5
11DB
330
1F
100
AcDbEntity
  8
AM_VIS
100
AcDbLine
 10
684.2770436588625
 20
161.8687666746425
 30
0.0
 11
684.5399813479619
 21
161.8687667114234
 31
0.0
  0
LINE
  5
11DC
330
1F
100
AcDbEntity
  8
AM_VIS
100
AcDbLine
 10
684.2770436956433
 20
161.6058289855422
 30
0.0
 11
684.2770436588625
 21
161.8687666746425
 31
0.0
  0
CIRCLE
  5
11DD
330
1F
100
AcDbEntity
  8
AM_VIS
100
AcDbCircle
 10
684.0545436277363
 20
162.0912666435183
 30
0.0
 40
1.600000000000022
  0
LINE
  5
11DE
330
1F
100
AcDbEntity
  8
AM_VIS
100
AcDbLine
 10
683.5691059075108
 20
162.3137665756134
 30
0.0
 11
683.2112464715745
 21
162.3137665255546
 31
0.0
  0
ELLIPSE
  5
11DF
330
1F
100
AcDbEntity
  8
AM_VIS
100
AcDbEllipse
 10
684.7025772017322
 20
162.091266734168
 30
0.0
 11
0.0000003293819807
 21
-2.354678309871315
 31
0.0
210
0.0
220
0.0
230
1.0
 40
0.6361945781365061
 41
4.617755055602462
 42
4.807022905166917
  0
LINE
  5
11E0
330
1F
100
AcDbEntity
  8
AM_VIS
100
AcDbLine
 10
684.5399813479619
 20
161.8687667114234
 30
0.0
 11
684.8978407838981
 21
161.8687667614822
 31
0.0
  0
ELLIPSE
  5
11E1
330
1F
100
AcDbEntity
  8
AM_VIS
100
AcDbEllipse
 10
683.4065100537404
 20
162.0912665528686
 30
0.0
 11
-0.0000003293819822
 21
2.354678309871315
 31
0.0
210
0.0
220
0.0
230
1.0
 40
0.6361945781365059
 41
4.617755055602461
 42
4.807022905166916
  0
LINE
  5
11E2
330
1F
100
AcDbEntity
  8
AM_VIS
100
AcDbLine
 10
684.2770437457021
 20
161.247969549605
 30
0.0
 11
684.2770436956433
 21
161.6058289855422
 31
0.0
  0
ELLIPSE
  5
11E3
330
1F
100
AcDbEntity
  8
AM_VIS
100
AcDbEllipse
 10
684.0545437183857
 20
161.4432330695224
 30
0.0
 11
-2.354678309871314
 21
-0.0000003293819815
 31
0.0
210
0.0
220
0.0
230
1.0
 40
0.6361945781365083
 41
4.61775505560161
 42
4.807022905166065
  0
LINE
  5
11E4
330
1F
100
AcDbEntity
  8
AM_VIS
100
AcDbLine
 10
683.8320436956434
 20
161.6058289232919
 30
0.0
 11
683.8320437457022
 21
161.2479694873562
 31
0.0
  0
LINE
  5
11E5
330
1F
100
AcDbEntity
  8
AM_VIS
100
AcDbLine
 10
683.8320435097744
 20
162.9345637374318
 30
0.0
 11
683.8320435598333
 21
162.5767043014963
 31
0.0
  0
ELLIPSE
  5
11E6
330
1F
100
AcDbEntity
  8
AM_VIS
100
AcDbEllipse
 10
684.0545435370868
 20
162.7393002175141
 30
0.0
 11
2.354678309871314
 21
0.0000003293819818
 31
0.0
210
0.0
220
0.0
230
0.9999999999999998
 40
0.6361945781365093
 41
4.617755055603312
 42
4.807022905167768
  0
LINE
  5
11E7
330
1F
100
AcDbEntity
  8
AM_VIS
100
AcDbLine
 10
684.2770435598334
 20
162.5767043637429
 30
0.0
 11
684.2770435097744
 21
162.9345637996799
 31
0.0
  0
LINE
  5
11E8
330
1F
100
AcDbEntity
  8
AM_VIS
100
AcDbLine
 10
683.2112465338228
 20
161.8687665255545
 30
0.0
 11
683.5691059697593
 21
161.8687665756133
 31
0.0
  0
LINE
  5
11E9
330
1F
100
AcDbEntity
  8
AM_VIS
100
AcDbLine
 10
684.8978407216498
 20
162.3137667614821
 30
0.0
 11
684.5399812857134
 21
162.3137667114232
 31
0.0
  0
ARC
  5
11EA
330
1F
100
AcDbEntity
  8
AM_VIS
100
AcDbCircle
 10
684.0545436277363
 20
162.0912666435182
 30
0.0
 40
0.5339999999999919
100
AcDbArc
 50
24.62432636693013
 51
65.37568966236737
  0
ARC
  5
11EB
330
1F
100
AcDbEntity
  8
AM_VIS
100
AcDbCircle
 10
684.0545436277363
 20
162.0912666435182
 30
0.0
 40
0.5339999999999919
100
AcDbArc
 50
114.6243263666982
 51
155.3756896626014
  0
ARC
  5
11EC
330
1F
100
AcDbEntity
  8
AM_VIS
100
AcDbCircle
 10
684.0545436277363
 20
162.0912666435182
 30
0.0
 40
0.5339999999999919
100
AcDbArc
 50
204.6243263669305
 51
245.375689662835
  0
ARC
  5
11ED
330
1F
100
AcDbEntity
  8
AM_VIS
100
AcDbCircle
 10
684.0545436277363
 20
162.0912666435182
 30
0.0
 40
0.5339999999999919
100
AcDbArc
 50
294.6243263671651
 51
335.3756896626046
  0
LINE
  5
11EE
330
1F
100
AcDbEntity
  8
AM_VIS
100
AcDbLine
 10
679.6545436277362
 20
160.3412666435183
 30
0.0
 11
679.6545436277362
 21
170.3412666435183
 31
0.0
  0
LINE
  5
11EF
330
1F
100
AcDbEntity
  8
AM_VIS
100
AcDbLine
 10
679.6545436277362
 20
170.3412666435183
 30
0.0
 11
662.6545436277362
 21
170.3412666435183
 31
0.0
  0
LINE
  5
11F0
330
1F
100
AcDbEntity
  8
AM_VIS
100
AcDbLine
 10
678.1545436277363
 20
169.3412666435183
 30
0.0
 11
679.6545436277362
 21
170.3412666435183
 31
0.0
  0
LINE
  5
11F1
330
1F
100
AcDbEntity
  8
AM_VIS
100
AcDbLine
 10
679.6545436277362
 20
160.3412666435183
 30
0.0
 11
678.1545436277363
 21
161.3412666435183
 31
0.0
  0
LINE
  5
11F2
330
1F
100
AcDbEntity
  8
AM_VIS
100
AcDbLine
 10
662.6545436277362
 20
160.3412666435183
 30
0.0
 11
679.6545436277362
 21
160.3412666435183
 31
0.0
  0
LINE
  5
11F3
330
1F
100
AcDbEntity
  8
AM_VIS
100
AcDbLine
 10
664.1545436277363
 20
161.3412666435183
 30
0.0
 11
662.6545436277362
 21
160.3412666435183
 31
0.0
  0
LINE
  5
11F4
330
1F
100
AcDbEntity
  8
AM_VIS
100
AcDbLine
 10
672.0545436277364
 20
169.0912666435183
 30
0.0
 11
666.6545436277362
 21
169.0912666435183
 31
0.0
  0
LINE
  5
11F5
330
1F
100
AcDbEntity
  8
AM_VIS
100
AcDbLine
 10
667.6545436277363
 20
162.5912666435183
 30
0.0
 11
667.6545436277363
 21
168.0912666435183
 31
0.0
  0
LINE
  5
11F6
330
1F
100
AcDbEntity
  8
AM_VIS
100
AcDbLine
 10
671.0545436277364
 20
162.5912666435183
 30
0.0
 11
667.6545436277363
 21
162.5912666435183
 31
0.0
  0
LINE
  5
11F7
330
1F
100
AcDbEntity
  8
AM_VIS
100
AcDbLine
 10
671.0545436277364
 20
168.0912666435183
 30
0.0
 11
671.0545436277364
 21
162.5912666435183
 31
0.0
  0
LINE
  5
11F8
330
1F
100
AcDbEntity
  8
AM_VIS
100
AcDbLine
 10
667.6545436277363
 20
168.0912666435183
 30
0.0
 11
671.0545436277364
 21
168.0912666435183
 31
0.0
  0
LINE
  5
11F9
330
1F
100
AcDbEntity
  8
AM_VIS
100
AcDbLine
 10
666.6545436277362
 20
168.4912666435184
 30
0.0
 11
671.7545436277364
 21
168.4912666435184
 31
0.0
  0
LINE
  5
11FA
330
1F
100
AcDbEntity
  8
AM_VIS
100
AcDbLine
 10
666.6545436277362
 20
161.5912666435183
 30
0.0
 11
672.0545436277364
 21
161.5912666435183
 31
0.0
  0
LINE
  5
11FB
330
1F
100
AcDbEntity
  8
AM_VIS
100
AcDbLine
 10
671.7545436277364
 20
162.1912666435183
 30
0.0
 11
666.6545436277362
 21
162.1912666435183
 31
0.0
  0
LINE
  5
11FC
330
1F
100
AcDbEntity
  8
AM_VIS
100
AcDbLine
 10
671.7545436277364
 20
168.4912666435184
 30
0.0
 11
671.7545436277364
 21
162.1912666435183
 31
0.0
  0
LINE
  5
11FD
330
1F
100
AcDbEntity
  8
AM_VIS
100
AcDbLine
 10
672.0545436277364
 20
169.0912666435183
 30
0.0
 11
671.7545436277364
 21
168.4912666435184
 31
0.0
  0
LINE
  5
11FE
330
1F
100
AcDbEntity
  8
AM_VIS
100
AcDbLine
 10
672.0545436277364
 20
161.5912666435183
 30
0.0
 11
672.0545436277364
 21
169.0912666435183
 31
0.0
  0
LINE
  5
11FF
330
1F
100
AcDbEntity
  8
AM_VIS
100
AcDbLine
 10
671.7545436277364
 20
162.1912666435183
 30
0.0
 11
672.0545436277364
 21
161.5912666435183
 31
0.0
  0
LINE
  5
1200
330
1F
100
AcDbEntity
  8
AM_VIS
100
AcDbLine
 10
666.6545436277362
 20
169.0912666435183
 30
0.0
 11
666.6545436277362
 21
168.4912666435184
 31
0.0
  0
LINE
  5
1201
330
1F
100
AcDbEntity
  8
AM_VIS
100
AcDbLine
 10
666.6545436277362
 20
168.3412666435183
 30
0.0
 11
666.6545436277362
 21
168.4912666435184
 31
0.0
  0
LINE
  5
1202
330
1F
100
AcDbEntity
  8
AM_VIS
100
AcDbLine
 10
665.1545436277363
 20
168.3412666435183
 30
0.0
 11
665.1545436277363
 21
167.4412666435183
 31
0.0
  0
LINE
  5
1203
330
1F
100
AcDbEntity
  8
AM_VIS
100
AcDbLine
 10
666.6545436277362
 20
168.3412666435183
 30
0.0
 11
665.1545436277363
 21
168.3412666435183
 31
0.0
  0
LINE
  5
1204
330
1F
100
AcDbEntity
  8
AM_VIS
100
AcDbLine
 10
666.6545436277362
 20
167.4412666435183
 30
0.0
 11
665.1545436277363
 21
167.4412666435183
 31
0.0
  0
LINE
  5
1205
330
1F
100
AcDbEntity
  8
AM_VIS
100
AcDbLine
 10
666.6545436277362
 20
163.2412666435184
 30
0.0
 11
666.6545436277362
 21
167.4412666435183
 31
0.0
  0
LINE
  5
1206
330
1F
100
AcDbEntity
  8
AM_VIS
100
AcDbLine
 10
666.6545436277362
 20
162.1912666435183
 30
0.0
 11
666.6545436277362
 21
162.3412666435183
 31
0.0
  0
LINE
  5
1207
330
1F
100
AcDbEntity
  8
AM_VIS
100
AcDbLine
 10
666.6545436277362
 20
162.1912666435183
 30
0.0
 11
666.6545436277362
 21
161.5912666435183
 31
0.0
  0
LINE
  5
1208
330
1F
100
AcDbEntity
  8
AM_VIS
100
AcDbLine
 10
665.1545436277363
 20
163.2412666435184
 30
0.0
 11
665.1545436277363
 21
162.3412666435183
 31
0.0
  0
LINE
  5
1209
330
1F
100
AcDbEntity
  8
AM_VIS
100
AcDbLine
 10
666.6545436277362
 20
163.2412666435184
 30
0.0
 11
665.1545436277363
 21
163.2412666435184
 31
0.0
  0
LINE
  5
120A
330
1F
100
AcDbEntity
  8
AM_VIS
100
AcDbLine
 10
666.6545436277362
 20
162.3412666435183
 30
0.0
 11
665.1545436277363
 21
162.3412666435183
 31
0.0
  0
LINE
  5
120B
330
1F
100
AcDbEntity
  8
AM_VIS
100
AcDbLine
 10
666.6545436277362
 20
165.8412666435183
 30
0.0
 11
666.1545436277362
 21
165.8412666435183
 31
0.0
  0
LINE
  5
120C
330
1F
100
AcDbEntity
  8
AM_VIS
100
AcDbLine
 10
666.1545436277362
 20
164.8412666435183
 30
0.0
 11
666.6545436277362
 21
164.8412666435183
 31
0.0
  0
LINE
  5
120D
330
1F
100
AcDbEntity
  8
AM_VIS
100
AcDbLine
 10
666.1545436277362
 20
165.8412666435183
 30
0.0
 11
666.1545436277362
 21
164.8412666435183
 31
0.0
  0
LINE
  5
120E
330
1F
100
AcDbEntity
  8
AM_VIS
100
AcDbLine
 10
664.1545436277363
 20
169.3412666435183
 30
0.0
 11
678.1545436277363
 21
169.3412666435183
 31
0.0
  0
LINE
  5
120F
330
1F
100
AcDbEntity
  8
AM_VIS
100
AcDbLine
 10
678.1545436277363
 20
169.3412666435183
 30
0.0
 11
678.1545436277363
 21
161.3412666435183
 31
0.0
  0
LINE
  5
1210
330
1F
100
AcDbEntity
  8
AM_VIS
100
AcDbLine
 10
678.1545436277363
 20
161.3412666435183
 30
0.0
 11
664.1545436277363
 21
161.3412666435183
 31
0.0
  0
LINE
  5
1211
330
1F
100
AcDbEntity
  8
AM_VIS
100
AcDbLine
 10
664.1545436277363
 20
161.3412666435183
 30
0.0
 11
664.1545436277363
 21
163.3412666435183
 31
0.0
  0
LINE
  5
1212
330
1F
100
AcDbEntity
  8
AM_VIS
100
AcDbLine
 10
662.6545436277362
 20
170.3412666435183
 30
0.0
 11
664.1545436277363
 21
169.3412666435183
 31
0.0
  0
LINE
  5
1213
330
1F
100
AcDbEntity
  8
AM_VIS
100
AcDbLine
 10
664.1545436277363
 20
167.3412666435183
 30
0.0
 11
664.1545436277363
 21
169.3412666435183
 31
0.0
  0
LINE
  5
1214
330
1F
100
AcDbEntity
  8
AM_VIS
100
AcDbLine
 10
662.6545436277362
 20
163.3412666435183
 30
0.0
 11
662.6545436277362
 21
160.3412666435183
 31
0.0
  0
LINE
  5
1215
330
1F
100
AcDbEntity
  8
AM_VIS
100
AcDbLine
 10
662.6545436277362
 20
170.3412666435183
 30
0.0
 11
662.6545436277362
 21
167.3412666435183
 31
0.0
  0
LINE
  5
1216
330
1F
100
AcDbEntity
  8
AM_VIS
100
AcDbLine
 10
664.4373863402109
 20
163.3412666435183
 30
0.0
 11
664.1545436277363
 21
163.3412666435183
 31
0.0
  0
LINE
  5
1217
330
1F
100
AcDbEntity
  8
AM_VIS
100
AcDbLine
 10
664.1545436277363
 20
163.3412666435183
 30
0.0
 11
662.6545436277362
 21
163.3412666435183
 31
0.0
  0
LINE
  5
1218
330
1F
100
AcDbEntity
  8
AM_VIS
100
AcDbLine
 10
664.1545436277363
 20
167.3412666435183
 30
0.0
 11
664.4373863402109
 21
167.3412666435183
 31
0.0
  0
LINE
  5
1219
330
1F
100
AcDbEntity
  8
AM_VIS
100
AcDbLine
 10
662.6545436277362
 20
167.3412666435183
 30
0.0
 11
664.1545436277363
 21
167.3412666435183
 31
0.0
  0
LINE
  5
121A
330
1F
100
AcDbEntity
  8
AM_VIS
100
AcDbLine
 10
662.6545436277362
 20
163.3412666435183
 30
0.0
 11
662.6545436277362
 21
167.3412666435183
 31
0.0
  0
LINE
  5
121B
330
1F
100
AcDbEntity
  8
AM_VIS
100
AcDbLine
 10
662.8545436277363
 20
163.3412666435183
 30
0.0
 11
662.8545436277363
 21
167.3412666435183
 31
0.0
  0
LINE
  5
121C
330
1F
100
AcDbEntity
  8
AM_VIS
100
AcDbLine
 10
664.4373863402109
 20
167.3412666435183
 30
0.0
 11
664.4373863402109
 21
163.3412666435183
 31
0.0
  0
CIRCLE
  5
121D
330
1F
100
AcDbEntity
  8
AM_VIS
100
AcDbCircle
 10
669.8545436277363
 20
166.8412666435183
 30
0.0
 40
0.25
  0
CIRCLE
  5
121E
330
1F
100
AcDbEntity
  8
AM_VIS
100
AcDbCircle
 10
669.8545436277363
 20
163.8412666435183
 30
0.0
 40
0.25
  0
LINE
  5
121F
330
1F
100
AcDbEntity
  8
AM_VIS
100
AcDbLine
 10
681.8545436277363
 20
160.3412666435183
 30
0.0
 11
679.6545436277362
 21
160.3412666435183
 31
0.0
  0
LINE
  5
1220
330
1F
100
AcDbEntity
  8
AM_VIS
100
AcDbLine
 10
681.8545436277363
 20
162.7412666435184
 30
0.0
 11
679.6545436277362
 21
162.7412666435184
 31
0.0
  0
LINE
  5
1221
330
1F
100
AcDbEntity
  8
AM_VIS
100
AcDbLine
 10
681.8545436277363
 20
162.7412666435184
 30
0.0
 11
681.8545436277363
 21
160.3412666435183
 31
0.0
  0
LINE
  5
1222
330
1F
100
AcDbEntity
  8
AM_VIS
100
AcDbLine
 10
682.3545436277363
 20
160.3412666435183
 30
0.0
 11
682.3545436277363
 21
162.7412666435184
 31
0.0
  0
LINE
  5
1223
330
1F
100
AcDbEntity
  8
AM_VIS
100
AcDbLine
 10
681.8545436277363
 20
160.3412666435183
 30
0.0
 11
682.3545436277363
 21
160.3412666435183
 31
0.0
  0
LINE
  5
1224
330
1F
100
AcDbEntity
  8
AM_VIS
100
AcDbLine
 10
681.8545436277363
 20
170.3412666435183
 30
0.0
 11
679.6545436277362
 21
170.3412666435183
 31
0.0
  0
LINE
  5
1225
330
1F
100
AcDbEntity
  8
AM_VIS
100
AcDbLine
 10
679.6545436277362
 20
167.9412666435183
 30
0.0
 11
681.8545436277363
 21
167.9412666435183
 31
0.0
  0
LINE
  5
1226
330
1F
100
AcDbEntity
  8
AM_VIS
100
AcDbLine
 10
681.8545436277363
 20
170.3412666435183
 30
0.0
 11
681.8545436277363
 21
167.9412666435183
 31
0.0
  0
LINE
  5
1227
330
1F
100
AcDbEntity
  8
AM_VIS
100
AcDbLine
 10
682.3545436277363
 20
170.3412666435183
 30
0.0
 11
681.8545436277363
 21
170.3412666435183
 31
0.0
  0
LINE
  5
1228
330
1F
100
AcDbEntity
  8
AM_VIS
100
AcDbLine
 10
682.3545436277363
 20
167.9412666435183
 30
0.0
 11
682.3545436277363
 21
170.3412666435183
 31
0.0
  0
LINE
  5
1229
330
1F
100
AcDbEntity
  8
AM_VIS
100
AcDbLine
 10
679.6545436277362
 20
162.7412666435183
 30
0.0
 11
682.3545730397555
 21
162.7412666435183
 31
0.0
  0
LINE
  5
122A
330
1F
100
AcDbEntity
  8
AM_VIS
100
AcDbLine
 10
687.0545436277364
 20
161.4412666435183
 30
0.0
 11
687.0545436277364
 21
169.2412666435184
 31
0.0
  0
LINE
  5
122B
330
1F
100
AcDbEntity
  8
AM_VIS
100
AcDbLine
 10
686.5545436277364
 20
168.7412666435183
 30
0.0
 11
687.0545436277364
 21
168.7412666435183
 31
0.0
  0
LINE
  5
122C
330
1F
100
AcDbEntity
  8
AM_VIS
100
AcDbLine
 10
687.0545436277364
 20
161.9412666435183
 30
0.0
 11
686.5545436277364
 21
161.9412666435183
 31
0.0
  0
LINE
  5
122D
330
1F
100
AcDbEntity
  8
AM_VIS
100
AcDbLine
 10
682.3545730397555
 20
167.9412666435183
 30
0.0
 11
679.6545436277362
 21
167.9412666435183
 31
0.0
  0
LINE
  5
122E
330
1F
100
AcDbEntity
  8
AM_VIS
100
AcDbLine
 10
682.3545436277363
 20
170.3412666435183
 30
0.0
 11
685.8745436277363
 21
170.3412666435183
 31
0.0
  0
ARC
  5
122F
330
1F
100
AcDbEntity
  8
AM_VIS
100
AcDbCircle
 10
684.0520361313893
 20
168.5962675111504
 30
0.0
 40
1.825539782310714
100
AcDbArc
 50
288.6363679025913
 51
304.6231278646398
  0
LINE
  5
1230
330
1F
100
AcDbEntity
  8
AM_VIS
100
AcDbLine
 10
686.5545436277364
 20
161.4412666435183
 30
0.0
 11
686.5545436277364
 21
162.0912666435183
 31
0.0
  0
LINE
  5
1231
330
1F
100
AcDbEntity
  8
AM_VIS
100
AcDbLine
 10
689.0545436277363
 20
161.4412666435183
 30
0.0
 11
686.5545436277364
 21
161.4412666435183
 31
0.0
  0
LINE
  5
1232
330
1F
100
AcDbEntity
  8
AM_VIS
100
AcDbLine
 10
689.0545436277363
 20
169.2412666435183
 30
0.0
 11
689.0545436277363
 21
161.4412666435183
 31
0.0
  0
LINE
  5
1233
330
1F
100
AcDbEntity
  8
AM_VIS
100
AcDbLine
 10
686.5545436277364
 20
169.2412666435183
 30
0.0
 11
689.0545436277363
 21
169.2412666435183
 31
0.0
  0
LINE
  5
1234
330
1F
100
AcDbEntity
  8
AM_VIS
100
AcDbLine
 10
686.5545436277364
 20
168.5912666435183
 30
0.0
 11
686.5545436277364
 21
169.2412666435183
 31
0.0
  0
LINE
  5
1235
330
1F
100
AcDbEntity
  8
AM_VIS
100
AcDbLine
 10
685.8745436277363
 20
170.3412666435183
 30
0.0
 11
685.8745436277363
 21
168.5912666435183
 31
0.0
  0
LINE
  5
1236
330
1F
100
AcDbEntity
  8
AM_VIS
100
AcDbLine
 10
685.8745436277363
 20
170.3412666435183
 30
0.0
 11
690.1545436277363
 21
170.3412666435183
 31
0.0
  0
LINE
  5
1237
330
1F
100
AcDbEntity
  8
AM_VIS
100
AcDbLine
 10
690.1545436277363
 20
170.3412666435183
 30
0.0
 11
690.1545436277363
 21
160.3412666435183
 31
0.0
  0
LINE
  5
1238
330
1F
100
AcDbEntity
  8
AM_VIS
100
AcDbLine
 10
690.1545436277363
 20
160.3412666435183
 30
0.0
 11
685.8745436277363
 21
160.3412666435183
 31
0.0
  0
LINE
  5
1239
330
1F
100
AcDbEntity
  8
AM_VIS
100
AcDbLine
 10
685.8745436277363
 20
160.3412666435183
 30
0.0
 11
682.3545436277363
 21
160.3412666435183
 31
0.0
  0
ARC
  5
123A
330
1F
100
AcDbEntity
  8
AM_VIS
100
AcDbCircle
 10
684.0520361313894
 20
162.0862657758864
 30
0.0
 40
1.825539782310412
100
AcDbArc
 50
55.37687213535868
 51
71.36363209740949
  0
LINE
  5
123B
330
1F
100
AcDbEntity
  8
AM_VIS
100
AcDbLine
 10
685.8745436277363
 20
162.0912666435183
 30
0.0
 11
685.8745436277363
 21
160.3412666435183
 31
0.0
  0
LINE
  5
123C
330
1F
100
AcDbEntity
  8
AM_VIS
100
AcDbLine
 10
682.9545436277363
 20
166.8109604891882
 30
0.0
 11
682.9545436277363
 21
165.7412666435183
 31
0.0
  0
LINE
  5
123D
330
1F
100
AcDbEntity
  8
AM_VIS
100
AcDbLine
 10
682.9545436277363
 20
164.9412666435183
 30
0.0
 11
682.9545436277363
 21
163.8715727978484
 31
0.0
  0
LINE
  5
123E
330
1F
100
AcDbEntity
  8
AM_VIS
100
AcDbLine
 10
682.3545436277363
 20
165.7412666435183
 30
0.0
 11
682.3545436277363
 21
166.8109604891882
 31
0.0
  0
LINE
  5
123F
330
1F
100
AcDbEntity
  8
AM_VIS
100
AcDbLine
 10
682.3545436277363
 20
163.8715727978484
 30
0.0
 11
682.3545436277363
 21
164.9412666435183
 31
0.0
  0
ARC
  5
1240
330
1F
100
AcDbEntity
  8
AM_VIS
100
AcDbCircle
 10
682.6545436277362
 20
165.3412666435183
 30
0.0
 40
2.5
100
AcDbArc
 50
322.4052366676984
 51
37.59476333230145
  0
ARC
  5
1241
330
1F
100
AcDbEntity
  8
AM_VIS
100
AcDbCircle
 10
682.6545436277362
 20
165.3412666435183
 30
0.0
 40
3.0
100
AcDbArc
 50
337.307722008551
 51
22.69227799144888
  0
ARC
  5
1242
330
1F
100
AcDbEntity
  8
AM_VIS
100
AcDbCircle
 10
684.0545436277363
 20
168.5912666435183
 30
0.0
 40
1.819999999999999
100
AcDbArc
 50
200.9248324276401
 51
288.6118775363959
  0
ARC
  5
1243
330
1F
100
AcDbEntity
  8
AM_VIS
100
AcDbCircle
 10
682.6545436277362
 20
165.3412666435183
 30
0.0
 40
3.0
100
AcDbArc
 50
324.249947146109
 51
337.307722008551
  0
ARC
  5
1244
330
1F
100
AcDbEntity
  8
AM_VIS
100
AcDbCircle
 10
684.0545436277363
 20
162.0912666435183
 30
0.0
 40
2.5
100
AcDbArc
 50
0.0
 51
56.83115747812099
  0
ARC
  5
1245
330
1F
100
AcDbEntity
  8
AM_VIS
100
AcDbCircle
 10
684.0545436277363
 20
168.5912666435183
 30
0.0
 40
2.5
100
AcDbArc
 50
303.168842521879
 51
0.0
  0
ARC
  5
1246
330
1F
100
AcDbEntity
  8
AM_VIS
100
AcDbCircle
 10
682.6545436277362
 20
165.3412666435183
 30
0.0
 40
3.0
100
AcDbArc
 50
22.69227799144888
 51
35.75005285389102
  0
ARC
  5
1247
330
1F
100
AcDbEntity
  8
AM_VIS
100
AcDbCircle
 10
684.0545436277363
 20
168.5912666435183
 30
0.0
 40
1.819999999999999
100
AcDbArc
 50
304.6476182308364
 51
0.0
  0
ARC
  5
1248
330
1F
100
AcDbEntity
  8
AM_VIS
100
AcDbCircle
 10
684.0545436277363
 20
162.0912666435183
 30
0.0
 40
1.819999999999999
100
AcDbArc
 50
159.0751675723599
 51
159.0777603174226
  0
ARC
  5
1249
330
1F
100
AcDbEntity
  8
AM_VIS
100
AcDbCircle
 10
684.0545436277363
 20
162.0912666435183
 30
0.0
 40
1.819999999999999
100
AcDbArc
 50
71.38812246360387
 51
159.0751675723599
  0
ARC
  5
124A
330
1F
100
AcDbEntity
  8
AM_VIS
100
AcDbCircle
 10
684.0545436277363
 20
162.0912666435183
 30
0.0
 40
1.819999999999999
100
AcDbArc
 50
0.0
 51
55.35238176916359
  0
CIRCLE
  5
124B
330
1F
100
AcDbEntity
  8
AM_VIS
100
AcDbCircle
 10
682.6545436277362
 20
165.3412666435183
 30
0.0
 40
1.6
  0
ARC
  5
124C
330
1F
100
AcDbEntity
  8
AM_VIS
100
AcDbCircle
 10
682.6545436277362
 20
165.3412666435183
 30
0.0
 40
1.5
100
AcDbArc
 50
101.5369590328157
 51
258.4630409671843
  0
ARC
  5
124D
330
1F
100
AcDbEntity
  8
AM_VIS
100
AcDbCircle
 10
682.6545436277362
 20
165.3412666435183
 30
0.0
 40
1.5
100
AcDbArc
 50
281.5369590328158
 51
78.46304096718424
  0
ARC
  5
124E
330
1F
100
AcDbEntity
  8
AM_VIS
100
AcDbCircle
 10
682.6545436277362
 20
165.3412666435183
 30
0.0
 40
1.5
100
AcDbArc
 50
78.46304096718424
 51
101.5369590328157
  0
ARC
  5
124F
330
1F
100
AcDbEntity
  8
AM_VIS
100
AcDbCircle
 10
682.6545436277362
 20
165.3412666435183
 30
0.0
 40
1.5
100
AcDbArc
 50
258.4630409671843
 51
281.5369590328158
  0
ARC
  5
1250
330
1F
100
AcDbEntity
  8
AM_VIS
100
AcDbCircle
 10
682.6545436277362
 20
165.3412666435183
 30
0.0
 40
0.5
100
AcDbArc
 50
53.13010235415646
 51
126.869897645844
  0
ARC
  5
1251
330
1F
100
AcDbEntity
  8
AM_VIS
100
AcDbCircle
 10
682.6545436277362
 20
165.3412666435183
 30
0.0
 40
0.5
100
AcDbArc
 50
306.8698976458439
 51
53.13010235415646
  0
ARC
  5
1252
330
1F
100
AcDbEntity
  8
AM_VIS
100
AcDbCircle
 10
682.6545436277362
 20
165.3412666435183
 30
0.0
 40
0.5
100
AcDbArc
 50
233.130102354156
 51
306.8698976458435
  0
ARC
  5
1253
330
1F
100
AcDbEntity
  8
AM_VIS
100
AcDbCircle
 10
682.6545436277362
 20
165.3412666435183
 30
0.0
 40
0.5
100
AcDbArc
 50
126.869897645844
 51
233.130102354156
  0
CIRCLE
  5
1254
330
1F
100
AcDbEntity
  8
AM_VIS
100
AcDbCircle
 10
684.0545436277363
 20
102.7244893828457
 30
0.0
 40
0.58529249999998
  0
CIRCLE
  5
1255
330
1F
100
AcDbEntity
  8
AM_VIS
100
AcDbCircle
 10
684.0545436277364
 20
102.7244893828457
 30
0.0
 40
0.8000000000000113
  0
CIRCLE
  5
1256
330
1F
100
AcDbEntity
  8
AM_VIS
100
AcDbCircle
 10
684.0545436277363
 20
109.2244893828457
 30
0.0
 40
0.58529249999998
  0
CIRCLE
  5
1257
330
1F
100
AcDbEntity
  8
AM_VIS
100
AcDbCircle
 10
684.0545436277364
 20
109.2244893828457
 30
0.0
 40
0.8000000000000113
  0
LINE
  5
1258
330
1F
100
AcDbEntity
  8
AM_VIS
100
AcDbLine
 10
682.3545436277363
 20
104.1744893828457
 30
0.0
 11
682.3545436277363
 21
100.9744893828457
 31
0.0
  0
LINE
  5
1259
330
1F
100
AcDbEntity
  8
AM_VIS
100
AcDbLine
 10
682.3545436277363
 20
100.9744893828457
 30
0.0
 11
662.6545436277362
 21
100.9744893828457
 31
0.0
  0
LINE
  5
125A
330
1F
100
AcDbEntity
  8
AM_VIS
100
AcDbLine
 10
662.6545436277362
 20
110.9744893828457
 30
0.0
 11
662.6545436277362
 21
100.9744893828457
 31
0.0
  0
LINE
  5
125B
102
{ACAD_REACTORS
330
1D39
102
}
330
1F
100
AcDbEntity
  8
AM_VIS
100
AcDbLine
 10
682.3545436277363
 20
110.9744893828457
 30
0.0
 11
662.6545436277362
 21
110.9744893828457
 31
0.0
  0
LINE
  5
125C
330
1F
100
AcDbEntity
  8
AM_VIS
100
AcDbLine
 10
682.3545436277363
 20
104.1744893828457
 30
0.0
 11
680.1545436277363
 21
104.1744893828457
 31
0.0
  0
LINE
  5
125D
330
1F
100
AcDbEntity
  8
AM_VIS
100
AcDbLine
 10
682.3545436277363
 20
110.9744893828457
 30
0.0
 11
682.3545436277363
 21
107.7744893828457
 31
0.0
  0
LINE
  5
125E
330
1F
100
AcDbEntity
  8
AM_VIS
100
AcDbLine
 10
680.1545436277363
 20
107.7744893828457
 30
0.0
 11
682.3545436277363
 21
107.7744893828457
 31
0.0
  0
LINE
  5
125F
330
1F
100
AcDbEntity
  8
AM_VIS
100
AcDbLine
 10
679.6545436277362
 20
104.6744893828456
 30
0.0
 11
679.6545436277362
 21
107.2744893828456
 31
0.0
  0
ARC
  5
1260
330
1F
100
AcDbEntity
  8
AM_VIS
100
AcDbCircle
 10
680.1545436277363
 20
107.2744893828456
 30
0.0
 40
0.5
100
AcDbArc
 50
90.0
 51
180.0
  0
ARC
  5
1261
330
1F
100
AcDbEntity
  8
AM_VIS
100
AcDbCircle
 10
680.1545436277363
 20
104.6744893828457
 30
0.0
 40
0.5
100
AcDbArc
 50
180.0
 51
270.0
  0
LINE
  5
1262
330
1F
100
AcDbEntity
  8
AM_VIS
100
AcDbLine
 10
690.1545436277363
 20
110.9744893828457
 30
0.0
 11
690.1545436277363
 21
100.9744893828457
 31
0.0
  0
LINE
  5
1263
330
1F
100
AcDbEntity
  8
AM_VIS
100
AcDbLine
 10
682.3545436277363
 20
104.1744893828457
 30
0.0
 11
682.3545436277363
 21
100.9744893828457
 31
0.0
  0
LINE
  5
1264
330
1F
100
AcDbEntity
  8
AM_VIS
100
AcDbLine
 10
687.2545436277363
 20
104.1744893828457
 30
0.0
 11
682.3545436277363
 21
104.1744893828457
 31
0.0
  0
LINE
  5
1265
330
1F
100
AcDbEntity
  8
AM_VIS
100
AcDbLine
 10
687.2545436277363
 20
104.7244893828457
 30
0.0
 11
685.8545436277363
 21
104.7244893828457
 31
0.0
  0
LINE
  5
1266
330
1F
100
AcDbEntity
  8
AM_VIS
100
AcDbLine
 10
687.2545436277363
 20
107.2244893828457
 30
0.0
 11
687.2545436277363
 21
104.7244893828457
 31
0.0
  0
LINE
  5
1267
330
1F
100
AcDbEntity
  8
AM_VIS
100
AcDbLine
 10
685.8545436277363
 20
107.2244893828457
 30
0.0
 11
687.2545436277363
 21
107.2244893828457
 31
0.0
  0
LINE
  5
1268
330
1F
100
AcDbEntity
  8
AM_VIS
100
AcDbLine
 10
685.8545436277363
 20
104.7244893828457
 30
0.0
 11
685.8545436277363
 21
107.2244893828457
 31
0.0
  0
LINE
  5
1269
330
1F
100
AcDbEntity
  8
AM_VIS
100
AcDbLine
 10
686.9545436277364
 20
104.9744893828457
 30
0.0
 11
686.1545436277363
 21
104.9744893828457
 31
0.0
  0
LINE
  5
126A
330
1F
100
AcDbEntity
  8
AM_VIS
100
AcDbLine
 10
686.9545436277364
 20
106.9744893828457
 30
0.0
 11
686.9545436277364
 21
104.9744893828457
 31
0.0
  0
LINE
  5
126B
330
1F
100
AcDbEntity
  8
AM_VIS
100
AcDbLine
 10
681.5545436277363
 20
104.7244893828457
 30
0.0
 11
680.1545436277363
 21
104.7244893828457
 31
0.0
  0
LINE
  5
126C
330
1F
100
AcDbEntity
  8
AM_VIS
100
AcDbLine
 10
681.5545436277363
 20
107.2244893828457
 30
0.0
 11
681.5545436277363
 21
104.7244893828457
 31
0.0
  0
LINE
  5
126D
330
1F
100
AcDbEntity
  8
AM_VIS
100
AcDbLine
 10
680.1545436277363
 20
107.2244893828457
 30
0.0
 11
681.5545436277363
 21
107.2244893828457
 31
0.0
  0
LINE
  5
126E
330
1F
100
AcDbEntity
  8
AM_VIS
100
AcDbLine
 10
680.1545436277363
 20
104.7244893828457
 30
0.0
 11
680.1545436277363
 21
107.2244893828457
 31
0.0
  0
LINE
  5
126F
330
1F
100
AcDbEntity
  8
AM_VIS
100
AcDbLine
 10
685.3545436277364
 20
104.7244893828457
 30
0.0
 11
683.9545436277363
 21
104.7244893828457
 31
0.0
  0
LINE
  5
1270
330
1F
100
AcDbEntity
  8
AM_VIS
100
AcDbLine
 10
685.3545436277364
 20
107.2244893828457
 30
0.0
 11
685.3545436277364
 21
104.7244893828457
 31
0.0
  0
LINE
  5
1271
330
1F
100
AcDbEntity
  8
AM_VIS
100
AcDbLine
 10
683.9545436277363
 20
107.2244893828457
 30
0.0
 11
685.3545436277364
 21
107.2244893828457
 31
0.0
  0
LINE
  5
1272
330
1F
100
AcDbEntity
  8
AM_VIS
100
AcDbLine
 10
683.9545436277363
 20
104.7244893828457
 30
0.0
 11
683.9545436277363
 21
107.2244893828457
 31
0.0
  0
LINE
  5
1273
330
1F
100
AcDbEntity
  8
AM_VIS
100
AcDbLine
 10
683.4545436277363
 20
104.7244893828457
 30
0.0
 11
682.0545436277363
 21
104.7244893828457
 31
0.0
  0
LINE
  5
1274
330
1F
100
AcDbEntity
  8
AM_VIS
100
AcDbLine
 10
683.4545436277363
 20
107.2244893828457
 30
0.0
 11
683.4545436277363
 21
104.7244893828457
 31
0.0
  0
LINE
  5
1275
330
1F
100
AcDbEntity
  8
AM_VIS
100
AcDbLine
 10
682.0545436277363
 20
107.2244893828457
 30
0.0
 11
683.4545436277363
 21
107.2244893828457
 31
0.0
  0
LINE
  5
1276
330
1F
100
AcDbEntity
  8
AM_VIS
100
AcDbLine
 10
682.0545436277363
 20
104.7244893828457
 30
0.0
 11
682.0545436277363
 21
107.2244893828457
 31
0.0
  0
LINE
  5
1277
330
1F
100
AcDbEntity
  8
AM_VIS
100
AcDbLine
 10
685.0545436277363
 20
104.9744893828457
 30
0.0
 11
684.2545436277363
 21
104.9744893828457
 31
0.0
  0
LINE
  5
1278
330
1F
100
AcDbEntity
  8
AM_VIS
100
AcDbLine
 10
685.0545436277363
 20
106.9744893828457
 30
0.0
 11
685.0545436277363
 21
104.9744893828457
 31
0.0
  0
LINE
  5
1279
330
1F
100
AcDbEntity
  8
AM_VIS
100
AcDbLine
 10
683.1545436277362
 20
104.9744893828457
 30
0.0
 11
682.3545436277363
 21
104.9744893828457
 31
0.0
  0
LINE
  5
127A
330
1F
100
AcDbEntity
  8
AM_VIS
100
AcDbLine
 10
682.3545436277363
 20
104.9744893828457
 30
0.0
 11
682.3545436277363
 21
106.9744893828457
 31
0.0
  0
LINE
  5
127B
330
1F
100
AcDbEntity
  8
AM_VIS
100
AcDbLine
 10
682.3545436277363
 20
106.9744893828457
 30
0.0
 11
683.1545436277362
 21
106.9744893828457
 31
0.0
  0
LINE
  5
127C
330
1F
100
AcDbEntity
  8
AM_VIS
100
AcDbLine
 10
683.1545436277362
 20
106.9744893828457
 30
0.0
 11
683.1545436277362
 21
104.9744893828457
 31
0.0
  0
LINE
  5
127D
330
1F
100
AcDbEntity
  8
AM_VIS
100
AcDbLine
 10
681.2545436277363
 20
104.9744893828457
 30
0.0
 11
680.4545436277363
 21
104.9744893828457
 31
0.0
  0
LINE
  5
127E
330
1F
100
AcDbEntity
  8
AM_VIS
100
AcDbLine
 10
680.4545436277363
 20
104.9744893828457
 30
0.0
 11
680.4545436277363
 21
106.9744893828457
 31
0.0
  0
LINE
  5
127F
330
1F
100
AcDbEntity
  8
AM_VIS
100
AcDbLine
 10
680.4545436277363
 20
106.9744893828457
 30
0.0
 11
681.2545436277363
 21
106.9744893828457
 31
0.0
  0
LINE
  5
1280
330
1F
100
AcDbEntity
  8
AM_VIS
100
AcDbLine
 10
681.2545436277363
 20
106.9744893828457
 30
0.0
 11
681.2545436277363
 21
104.9744893828457
 31
0.0
  0
LINE
  5
1281
330
1F
100
AcDbEntity
  8
AM_VIS
100
AcDbLine
 10
686.3545436277363
 20
108.6744893828457
 30
0.0
 11
686.3545436277363
 21
109.9744893828457
 31
0.0
  0
LINE
  5
1282
330
1F
100
AcDbEntity
  8
AM_VIS
100
AcDbLine
 10
689.4545436277363
 20
109.9744893828457
 30
0.0
 11
689.4545436277363
 21
101.9744893828457
 31
0.0
  0
LINE
  5
1283
330
1F
100
AcDbEntity
  8
AM_VIS
100
AcDbLine
 10
689.4545436277363
 20
101.9744893828457
 30
0.0
 11
686.3545436277363
 21
101.9744893828457
 31
0.0
  0
LINE
  5
1284
330
1F
100
AcDbEntity
  8
AM_VIS
100
AcDbLine
 10
686.3545436277363
 20
109.9744893828457
 30
0.0
 11
689.4545436277363
 21
109.9744893828457
 31
0.0
  0
LINE
  5
1285
330
1F
100
AcDbEntity
  8
AM_VIS
100
AcDbLine
 10
687.1545436277362
 20
103.2744893828456
 30
0.0
 11
687.1545436277362
 21
101.9744893828457
 31
0.0
  0
LINE
  5
1286
330
1F
100
AcDbEntity
  8
AM_VIS
100
AcDbLine
 10
687.7545436277363
 20
107.2744893828456
 30
0.0
 11
687.7545436277363
 21
104.6744893828457
 31
0.0
  0
LINE
  5
1287
330
1F
100
AcDbEntity
  8
AM_VIS
100
AcDbLine
 10
682.3545436277363
 20
107.7744893828457
 30
0.0
 11
687.2545436277363
 21
107.7744893828457
 31
0.0
  0
LINE
  5
1288
330
1F
100
AcDbEntity
  8
AM_VIS
100
AcDbLine
 10
688.6545436277363
 20
104.2744893828456
 30
0.0
 11
688.6545436277363
 21
107.6744893828457
 31
0.0
  0
LINE
  5
1289
330
1F
100
AcDbEntity
  8
AM_VIS
100
AcDbLine
 10
687.6545436277362
 20
108.6744893828457
 30
0.0
 11
686.3545436277363
 21
108.6744893828457
 31
0.0
  0
LINE
  5
128A
330
1F
100
AcDbEntity
  8
AM_VIS
100
AcDbLine
 10
686.1545436277363
 20
106.9744893828457
 30
0.0
 11
686.9545436277364
 21
106.9744893828457
 31
0.0
  0
LINE
  5
128B
330
1F
100
AcDbEntity
  8
AM_VIS
100
AcDbLine
 10
686.1545436277363
 20
104.9744893828457
 30
0.0
 11
686.1545436277363
 21
106.9744893828457
 31
0.0
  0
LINE
  5
128C
330
1F
100
AcDbEntity
  8
AM_VIS
100
AcDbLine
 10
684.2545436277363
 20
106.9744893828457
 30
0.0
 11
685.0545436277363
 21
106.9744893828457
 31
0.0
  0
LINE
  5
128D
330
1F
100
AcDbEntity
  8
AM_VIS
100
AcDbLine
 10
684.2545436277363
 20
104.9744893828457
 30
0.0
 11
684.2545436277363
 21
106.9744893828457
 31
0.0
  0
LINE
  5
128E
330
1F
100
AcDbEntity
  8
AM_VIS
100
AcDbLine
 10
686.3545436277363
 20
103.2744893828456
 30
0.0
 11
687.6545436277362
 21
103.2744893828456
 31
0.0
  0
LINE
  5
128F
330
1F
100
AcDbEntity
  8
AM_VIS
100
AcDbLine
 10
686.3545436277363
 20
101.9744893828457
 30
0.0
 11
686.3545436277363
 21
103.2744893828456
 31
0.0
  0
LINE
  5
1290
330
1F
100
AcDbEntity
  8
AM_VIS
100
AcDbLine
 10
687.1545436277362
 20
109.9744893828457
 30
0.0
 11
687.1545436277362
 21
108.6744893828457
 31
0.0
  0
LINE
  5
1291
330
1F
100
AcDbEntity
  8
AM_VIS
100
AcDbLine
 10
686.3545436277363
 20
109.0257186433242
 30
0.0
 11
687.1545436277362
 21
109.0257186433242
 31
0.0
  0
LINE
  5
1292
330
1F
100
AcDbEntity
  8
AM_VIS
100
AcDbLine
 10
687.1545436277362
 20
102.9232601223672
 30
0.0
 11
686.3545436277363
 21
102.9232601223672
 31
0.0
  0
LINE
  5
1293
102
{ACAD_REACTORS
330
1D13
102
}
330
1F
100
AcDbEntity
  8
AM_VIS
100
AcDbLine
 10
690.1545436277363
 20
100.9744893828457
 30
0.0
 11
682.3545436277363
 21
100.9744893828457
 31
0.0
  0
LINE
  5
1294
330
1F
100
AcDbEntity
  8
AM_VIS
100
AcDbLine
 10
682.3545436277363
 20
110.9744893828457
 30
0.0
 11
682.3545436277363
 21
107.7744893828457
 31
0.0
  0
LINE
  5
1295
102
{ACAD_REACTORS
330
1D13
330
1D39
102
}
330
1F
100
AcDbEntity
  8
AM_VIS
100
AcDbLine
 10
682.3545436277363
 20
110.9744893828457
 30
0.0
 11
690.1545436277363
 21
110.9744893828457
 31
0.0
  0
ARC
  5
1296
330
1F
100
AcDbEntity
  8
AM_VIS
100
AcDbCircle
 10
687.2545436277363
 20
104.6744893828457
 30
0.0
 40
0.5
100
AcDbArc
 50
270.0
 51
0.0
  0
ARC
  5
1297
330
1F
100
AcDbEntity
  8
AM_VIS
100
AcDbCircle
 10
687.2545436277363
 20
107.2744893828456
 30
0.0
 40
0.5
100
AcDbArc
 50
0.0
 51
90.0
  0
ARC
  5
1298
330
1F
100
AcDbEntity
  8
AM_VIS
100
AcDbCircle
 10
687.6545436277362
 20
104.2744893828456
 30
0.0
 40
0.9999999999999998
100
AcDbArc
 50
270.0
 51
0.0
  0
ARC
  5
1299
330
1F
100
AcDbEntity
  8
AM_VIS
100
AcDbCircle
 10
687.6545436277362
 20
107.6744893828457
 30
0.0
 40
0.9999999999999998
100
AcDbArc
 50
0.0
 51
90.0
  0
CIRCLE
  5
129A
330
1F
100
AcDbEntity
  8
AM_VIS
100
AcDbCircle
 10
684.0545436277363
 20
109.2244893828457
 30
0.0
 40
0.9
  0
CIRCLE
  5
129B
330
1F
100
AcDbEntity
  8
AM_VIS
100
AcDbCircle
 10
684.0545436277363
 20
109.2244893828457
 30
0.0
 40
1.1
  0
CIRCLE
  5
129C
330
1F
100
AcDbEntity
  8
AM_VIS
100
AcDbCircle
 10
684.0545436277363
 20
102.7244893828457
 30
0.0
 40
0.9
  0
CIRCLE
  5
129D
330
1F
100
AcDbEntity
  8
AM_VIS
100
AcDbCircle
 10
684.0545436277363
 20
102.7244893828457
 30
0.0
 40
1.1
  0
LINE
  5
1B11
330
1F
100
AcDbEntity
  8
AM_7
  6
AM_ISO08W050x2
100
AcDbLine
 10
748.4827621468342
 20
106.9571387496235
 30
0.0
 11
751.9827621468342
 21
106.9571387496235
 31
0.0
1001
GENIUS_GENOREF_13
1005
1B15
  0
LINE
  5
1B12
330
1F
100
AcDbEntity
  8
AM_7
  6
AM_ISO08W050x2
100
AcDbLine
 10
748.4827621468342
 20
106.9571387496235
 30
0.0
 11
748.4827621468342
 21
110.4571387496235
 31
0.0
1001
GENIUS_GENOREF_13
1005
1B15
  0
LINE
  5
1B13
102
{ACAD_REACTORS
330
1DBA
102
}
330
1F
100
AcDbEntity
  8
AM_7
  6
AM_ISO08W050x2
100
AcDbLine
 10
748.4827621468342
 20
106.9571387496235
 30
0.0
 11
744.9827621468342
 21
106.9571387496235
 31
0.0
1001
GENIUS_GENOREF_13
1005
1B15
  0
LINE
  5
1B14
102
{ACAD_REACTORS
330
1D90
102
}
330
1F
100
AcDbEntity
  8
AM_7
  6
AM_ISO08W050x2
100
AcDbLine
 10
748.4827621468342
 20
106.9571387496235
 30
0.0
 11
748.4827621468342
 21
103.4571387496235
 31
0.0
1001
GENIUS_GENOREF_13
1005
1B15
  0
POINT
  5
1B15
330
1F
100
AcDbEntity
  8
0
 60
     1
100
AcDbPoint
 10
0.0
 20
0.0
 30
0.0
1001
GENIUS_GENOLIS_13
1002
{
1000
ENT
1005
1B14
1005
1B13
1005
1B12
1005
1B11
1002
}
1001
GENIUS_GENODEF_13
1002
{
1000
HIER
1070
    10
1002
}
1002
{
1000
MANEDIT
1070
     0
1002
}
1002
{
1000
NOSEL
1070
     0
1002
}
1002
{
1000
BEHIND
1070
     0
1002
}
1002
{
1000
OTHER
1070
     0
1002
}
1002
{
1000
REACTOR
1002
}
1001
GENIUS_GENOBJ-N-CRS_13
1002
{
1000
OWNER
1000
GEN
1002
}
1001
GENIUS_GENOENT_13
1002
{
1000
MYREF
1005
1B15
1002
}
1002
{
1000
GRP
1005
0
1002
}
  0
LINE
  5
1B27
330
1F
100
AcDbEntity
  8
AM_7
  6
AM_ISO08W050x2
100
AcDbLine
 10
790.3107889150431
 20
109.4571387496235
 30
0.0
 11
793.8107889150431
 21
109.4571387496235
 31
0.0
1001
GENIUS_GENOREF_13
1005
1B2B
  0
LINE
  5
1B28
330
1F
100
AcDbEntity
  8
AM_7
  6
AM_ISO08W050x2
100
AcDbLine
 10
790.3107889150431
 20
109.4571387496235
 30
0.0
 11
790.3107889150431
 21
112.9571387496235
 31
0.0
1001
GENIUS_GENOREF_13
1005
1B2B
  0
LINE
  5
1B29
102
{ACAD_REACTORS
330
5401
102
}
330
1F
100
AcDbEntity
  8
AM_7
  6
AM_ISO08W050x2
100
AcDbLine
 10
790.3107889150431
 20
109.4571387496235
 30
0.0
 11
786.8107889150431
 21
109.4571387496235
 31
0.0
1001
GENIUS_GENOREF_13
1005
1B2B
  0
LINE
  5
1B2A
330
1F
100
AcDbEntity
  8
AM_7
  6
AM_ISO08W050x2
100
AcDbLine
 10
790.3107889150431
 20
109.4571387496235
 30
0.0
 11
790.3107889150431
 21
105.9571387496235
 31
0.0
1001
GENIUS_GENOREF_13
1005
1B2B
  0
POINT
  5
1B2B
330
1F
100
AcDbEntity
  8
0
 60
     1
100
AcDbPoint
 10
0.0
 20
0.0
 30
0.0
1001
GENIUS_GENOENT_13
1002
{
1000
MYREF
1005
1B2B
1002
}
1002
{
1000
GRP
1005
0
1002
}
1001
GENIUS_GENOBJ-N-CRS_13
1002
{
1000
OWNER
1000
GEN
1002
}
1001
GENIUS_GENOLIS_13
1002
{
1000
ENT
1005
1B2A
1005
1B29
1005
1B28
1005
1B27
1002
}
1001
GENIUS_GENODEF_13
1002
{
1000
HIER
1070
    10
1002
}
1002
{
1000
MANEDIT
1070
     0
1002
}
1002
{
1000
NOSEL
1070
     0
1002
}
1002
{
1000
BEHIND
1070
     0
1002
}
1002
{
1000
OTHER
1070
     0
1002
}
1002
{
1000
REACTOR
1002
}
  0
LINE
  5
1B39
102
{ACAD_REACTORS
330
1E34
102
}
330
1F
100
AcDbEntity
  8
AM_7
  6
AM_ISO08W050x2
100
AcDbLine
 10
832.3041235568201
 20
106.9571387496235
 30
0.0
 11
835.8041235568201
 21
106.9571387496235
 31
0.0
1001
GENIUS_GENOREF_13
1005
1B3D
  0
LINE
  5
1B3A
330
1F
100
AcDbEntity
  8
AM_7
  6
AM_ISO08W050x2
100
AcDbLine
 10
832.3041235568201
 20
106.9571387496235
 30
0.0
 11
832.3041235568201
 21
110.4571387496235
 31
0.0
1001
GENIUS_GENOREF_13
1005
1B3D
  0
LINE
  5
1B3B
330
1F
100
AcDbEntity
  8
AM_7
  6
AM_ISO08W050x2
100
AcDbLine
 10
832.3041235568201
 20
106.9571387496235
 30
0.0
 11
828.8041235568201
 21
106.9571387496235
 31
0.0
1001
GENIUS_GENOREF_13
1005
1B3D
  0
LINE
  5
1B3C
102
{ACAD_REACTORS
330
1DE4
102
}
330
1F
100
AcDbEntity
  8
AM_7
  6
AM_ISO08W050x2
100
AcDbLine
 10
832.3041235568201
 20
106.9571387496235
 30
0.0
 11
832.3041235568201
 21
103.4571387496235
 31
0.0
1001
GENIUS_GENOREF_13
1005
1B3D
  0
POINT
  5
1B3D
330
1F
100
AcDbEntity
  8
0
 60
     1
100
AcDbPoint
 10
0.0
 20
0.0
 30
0.0
1001
GENIUS_GENOENT_13
1002
{
1000
MYREF
1005
1B3D
1002
}
1002
{
1000
GRP
1005
0
1002
}
1001
GENIUS_GENOBJ-N-CRS_13
1002
{
1000
OWNER
1000
GEN
1002
}
1001
GENIUS_GENODEF_13
1002
{
1000
HIER
1070
    10
1002
}
1002
{
1000
MANEDIT
1070
     0
1002
}
1002
{
1000
NOSEL
1070
     0
1002
}
1002
{
1000
BEHIND
1070
     0
1002
}
1002
{
1000
OTHER
1070
     0
1002
}
1002
{
1000
REACTOR
1002
}
1001
GENIUS_GENOLIS_13
1002
{
1000
ENT
1005
1B3C
1005
1B3B
1005
1B3A
1005
1B39
1002
}
  0
LINE
  5
1BDA
330
1F
100
AcDbEntity
  8
AM_7
100
AcDbLine
 10
661.6545436277363
 20
105.9744893828457
 30
0.0
 11
691.1545436277362
 21
105.9744893828457
 31
0.0
1001
GENIUS_GENODEF_13
1002
{
1000
HIER
1070
     0
1002
}
1002
{
1000
MANEDIT
1070
     0
1002
}
1002
{
1000
NOSEL
1070
     0
1002
}
1002
{
1000
BEHIND
1070
     0
1002
}
1002
{
1000
OTHER
1070
     0
1002
}
1002
{
1000
REACTOR
1002
}
1001
GENIUS_GENOBJ-N-CEN_13
1002
{
1000
OWNER
1000
GEN
1002
}
1001
GENIUS_GENCEN_19
1002
{
1040
1.0
1002
}
  0
LINE
  5
1BE9
330
1F
100
AcDbEntity
  8
AM_7
100
AcDbLine
 10
641.5087639990178
 20
128.1390238870344
 30
0.0
 11
641.5087639990178
 21
152.6390238870344
 31
0.0
1001
GENIUS_GENOBJ-N-CEN_13
1002
{
1000
OWNER
1000
GEN
1002
}
1001
GENIUS_GENODEF_13
1002
{
1000
HIER
1070
     0
1002
}
1002
{
1000
MANEDIT
1070
     0
1002
}
1002
{
1000
NOSEL
1070
     0
1002
}
1002
{
1000
BEHIND
1070
     0
1002
}
1002
{
1000
OTHER
1070
     0
1002
}
1002
{
1000
REACTOR
1002
}
1001
GENIUS_GENCEN_19
1002
{
1040
1.0
1002
}
  0
LINE
  5
1BF6
330
1F
100
AcDbEntity
  8
AM_7
100
AcDbLine
 10
661.6545436277363
 20
165.3412666435183
 30
0.0
 11
691.1545436277362
 21
165.3412666435183
 31
0.0
1001
GENIUS_GENODEF_13
1002
{
1000
HIER
1070
     0
1002
}
1002
{
1000
MANEDIT
1070
     0
1002
}
1002
{
1000
NOSEL
1070
     0
1002
}
1002
{
1000
BEHIND
1070
     0
1002
}
1002
{
1000
OTHER
1070
     0
1002
}
1002
{
1000
REACTOR
1002
}
1001
GENIUS_GENOBJ-N-CEN_13
1002
{
1000
OWNER
1000
GEN
1002
}
1001
GENIUS_GENCEN_19
1002
{
1040
1.0
1002
}
  0
LINE
  5
1C03
330
1F
100
AcDbEntity
  8
AM_7
100
AcDbLine
 10
684.0545436277364
 20
125.6390238870344
 30
0.0
 11
684.0545436277364
 21
143.2770626937788
 31
0.0
1001
GENIUS_GENOBJ-N-CEN_13
1002
{
1000
OWNER
1000
GEN
1002
}
1001
GENIUS_GENODEF_13
1002
{
1000
HIER
1070
     0
1002
}
1002
{
1000
MANEDIT
1070
     0
1002
}
1002
{
1000
NOSEL
1070
     0
1002
}
1002
{
1000
BEHIND
1070
     0
1002
}
1002
{
1000
OTHER
1070
     0
1002
}
1002
{
1000
REACTOR
1002
}
1001
GENIUS_GENCEN_19
1002
{
1040
1.0
1002
}
  0
LINE
  5
1C11
330
1F
100
AcDbEntity
  8
AM_7
  6
AM_ISO08W050x2
100
AcDbLine
 10
783.8107889150432
 20
162.3291731425919
 30
0.0
 11
786.1107889150432
 21
162.3291731425919
 31
0.0
1001
GENIUS_GENOREF_13
1005
1C15
  0
LINE
  5
1C12
330
1F
100
AcDbEntity
  8
AM_7
  6
AM_ISO08W050x2
100
AcDbLine
 10
783.8107889150432
 20
162.3291731425919
 30
0.0
 11
783.8107889150432
 21
164.6291731425919
 31
0.0
1001
GENIUS_GENOREF_13
1005
1C15
  0
LINE
  5
1C13
330
1F
100
AcDbEntity
  8
AM_7
  6
AM_ISO08W050x2
100
AcDbLine
 10
783.8107889150432
 20
162.3291731425919
 30
0.0
 11
781.5107889150432
 21
162.3291731425919
 31
0.0
1001
GENIUS_GENOREF_13
1005
1C15
  0
LINE
  5
1C14
330
1F
100
AcDbEntity
  8
AM_7
  6
AM_ISO08W050x2
100
AcDbLine
 10
783.8107889150432
 20
162.3291731425919
 30
0.0
 11
783.8107889150432
 21
160.029173142592
 31
0.0
1001
GENIUS_GENOREF_13
1005
1C15
  0
POINT
  5
1C15
330
1F
100
AcDbEntity
  8
0
 60
     1
100
AcDbPoint
 10
0.0
 20
0.0
 30
0.0
1001
GENIUS_GENOENT_13
1002
{
1000
MYREF
1005
1C15
1002
}
1002
{
1000
GRP
1005
0
1002
}
1001
GENIUS_GENOBJ-N-CRS_13
1002
{
1000
OWNER
1000
GEN
1002
}
1001
GENIUS_GENOLIS_13
1002
{
1000
ENT
1005
1C14
1005
1C13
1005
1C12
1005
1C11
1002
}
1001
GENIUS_GENODEF_13
1002
{
1000
HIER
1070
    10
1002
}
1002
{
1000
MANEDIT
1070
     0
1002
}
1002
{
1000
NOSEL
1070
     0
1002
}
1002
{
1000
BEHIND
1070
     0
1002
}
1002
{
1000
OTHER
1070
     0
1002
}
1002
{
1000
REACTOR
1002
}
  0
LINE
  5
1C23
102
{ACAD_REACTORS
330
4563
102
}
330
1F
100
AcDbEntity
  8
AM_7
  6
AM_ISO08W050x2
100
AcDbLine
 10
796.8107889150432
 20
162.3291731425919
 30
0.0
 11
799.1107889150431
 21
162.3291731425919
 31
0.0
1001
GENIUS_GENOREF_13
1005
1C27
  0
LINE
  5
1C24
330
1F
100
AcDbEntity
  8
AM_7
  6
AM_ISO08W050x2
100
AcDbLine
 10
796.8107889150432
 20
162.3291731425919
 30
0.0
 11
796.8107889150432
 21
164.6291731425919
 31
0.0
1001
GENIUS_GENOREF_13
1005
1C27
  0
LINE
  5
1C25
330
1F
100
AcDbEntity
  8
AM_7
  6
AM_ISO08W050x2
100
AcDbLine
 10
796.8107889150432
 20
162.3291731425919
 30
0.0
 11
794.5107889150432
 21
162.3291731425919
 31
0.0
1001
GENIUS_GENOREF_13
1005
1C27
  0
LINE
  5
1C26
102
{ACAD_REACTORS
330
1E84
330
1EAC
102
}
330
1F
100
AcDbEntity
  8
AM_7
  6
AM_ISO08W050x2
100
AcDbLine
 10
796.8107889150432
 20
162.3291731425919
 30
0.0
 11
796.8107889150432
 21
160.029173142592
 31
0.0
1001
GENIUS_GENOREF_13
1005
1C27
  0
POINT
  5
1C27
330
1F
100
AcDbEntity
  8
0
 60
     1
100
AcDbPoint
 10
0.0
 20
0.0
 30
0.0
1001
GENIUS_GENOENT_13
1002
{
1000
MYREF
1005
1C27
1002
}
1002
{
1000
GRP
1005
0
1002
}
1001
GENIUS_GENOBJ-N-CRS_13
1002
{
1000
OWNER
1000
GEN
1002
}
1001
GENIUS_GENODEF_13
1002
{
1000
HIER
1070
    10
1002
}
1002
{
1000
MANEDIT
1070
     0
1002
}
1002
{
1000
NOSEL
1070
     0
1002
}
1002
{
1000
BEHIND
1070
     0
1002
}
1002
{
1000
OTHER
1070
     0
1002
}
1002
{
1000
REACTOR
1002
}
1001
GENIUS_GENOLIS_13
1002
{
1000
ENT
1005
1C26
1005
1C25
1005
1C24
1005
1C23
1002
}
  0
LINE
  5
1C34
330
1F
100
AcDbEntity
  8
AM_7
100
AcDbLine
 10
771.3107889150432
 20
170.329173142592
 30
0.0
 11
800.8107889150432
 21
170.329173142592
 31
0.0
1001
GENIUS_GENODEF_13
1002
{
1000
HIER
1070
     0
1002
}
1002
{
1000
MANEDIT
1070
     0
1002
}
1002
{
1000
NOSEL
1070
     0
1002
}
1002
{
1000
BEHIND
1070
     0
1002
}
1002
{
1000
OTHER
1070
     0
1002
}
1002
{
1000
REACTOR
1002
}
1001
GENIUS_GENOBJ-N-CEN_13
1002
{
1000
OWNER
1000
GEN
1002
}
1001
GENIUS_GENCEN_19
1002
{
1040
1.0
1002
}
  0
LINE
  5
1C7F
330
1F
100
AcDbEntity
  8
AM_7
100
AcDbLine
 10
748.4827621468342
 20
136.9571387496235
 30
0.0
 11
748.4827621468342
 21
110.6226127213714
 31
0.0
1001
GENIUS_GENOBJ-N-CEN_13
1002
{
1000
OWNER
1000
GEN
1002
}
1001
GENIUS_GENODEF_13
1002
{
1000
HIER
1070
     0
1002
}
1002
{
1000
MANEDIT
1070
     0
1002
}
1002
{
1000
NOSEL
1070
     0
1002
}
1002
{
1000
BEHIND
1070
     0
1002
}
1002
{
1000
OTHER
1070
     0
1002
}
1002
{
1000
REACTOR
1002
}
1001
GENIUS_GENCEN_19
1002
{
1040
1.0
1002
}
  0
LINE
  5
1C8C
330
1F
100
AcDbEntity
  8
AM_7
100
AcDbLine
 10
832.3041235568201
 20
136.9571387496235
 30
0.0
 11
832.3041235568201
 21
111.4926648465554
 31
0.0
1001
GENIUS_GENODEF_13
1002
{
1000
HIER
1070
     0
1002
}
1002
{
1000
MANEDIT
1070
     0
1002
}
1002
{
1000
NOSEL
1070
     0
1002
}
1002
{
1000
BEHIND
1070
     0
1002
}
1002
{
1000
OTHER
1070
     0
1002
}
1002
{
1000
REACTOR
1002
}
1001
GENIUS_GENOBJ-N-CEN_13
1002
{
1000
OWNER
1000
GEN
1002
}
1001
GENIUS_GENCEN_19
1002
{
1040
1.0
1002
}
  0
DIMENSION
  5
1CDF
102
{ACAD_XDICTIONARY
360
1CEC
102
}
102
{ACAD_REACTORS
330
1CED
102
}
330
1F
100
AcDbEntity
  8
AM_5
100
AcDbDimension
  2
*D2
 10
696.9683667432789
 20
142.1390238870344
 30
0.0
 11
695.1833667432789
 21
135.6390238870345
 31
0.0
 70
    32
 71
     5
 42
13.0
  3
AM_ISO$0
100
AcDbAlignedDimension
 13
690.1545436277363
 23
129.1390238870344
 33
0.0
 14
690.1545436277363
 24
142.1390238870344
 34
0.0
 50
90.0
100
AcDbRotatedDimension
1001
ACAD
1000
DSTYLE
1002
{
1070
    40
1040
0.7
1070
   272
1070
     8
1002
}
  0
DIMENSION
  5
1D05
102
{ACAD_XDICTIONARY
360
1D12
102
}
102
{ACAD_REACTORS
330
1D13
102
}
330
1F
100
AcDbEntity
  8
AM_5
100
AcDbDimension
  2
*D3
 10
696.7888667360412
 20
110.9744893828457
 30
0.0
 11
695.0038667360412
 21
105.9744893828458
 31
0.0
 70
    32
 71
     5
 42
10.0
  3
AM_ISO$0
100
AcDbAlignedDimension
 13
690.1545436277363
 23
100.9744893828457
 33
0.0
 14
690.1545436277363
 24
110.9744893828457
 34
0.0
 50
90.0
100
AcDbRotatedDimension
1001
ACAD
1000
DSTYLE
1002
{
1070
    40
1040
0.7
1070
   144
1040
1.0
1070
   272
1070
     8
1002
}
  0
DIMENSION
  5
1D2B
102
{ACAD_XDICTIONARY
360
1D38
102
}
102
{ACAD_REACTORS
330
1D39
102
}
330
1F
100
AcDbEntity
  8
AM_5
100
AcDbDimension
  2
*D4
 10
662.6545436277362
 20
115.4293307487364
 30
0.0
 11
676.4045436277362
 21
117.2145718904687
 31
0.0
 70
    32
 71
     5
 42
27.5
  3
AM_ISO$0
100
AcDbAlignedDimension
 13
690.1545436277363
 23
110.9744893828457
 33
0.0
 14
662.6545436277362
 24
110.9744893828457
 34
0.0
 50
180.0
100
AcDbRotatedDimension
1001
ACAD
1000
DSTYLE
1002
{
1070
    40
1040
0.7
1070
   272
1070
     8
1002
}
  0
DIMENSION
  5
1D51
102
{ACAD_XDICTIONARY
360
1D5E
102
}
102
{ACAD_REACTORS
330
1D5F
102
}
330
1F
100
AcDbEntity
  8
AM_5
100
AcDbDimension
  2
*D5
 10
656.142312340814
 20
151.6390238870344
 30
0.0
 11
654.3570711990817
 21
140.3890238870346
 31
0.0
 70
    32
 71
     5
 42
22.5
  3
AM_ISO$0
100
AcDbAlignedDimension
 13
662.6545436277362
 23
129.1390238870344
 33
0.0
 14
665.1545436277363
 24
151.6390238870344
 34
0.0
 50
90.0
100
AcDbRotatedDimension
1001
ACAD
1000
DSTYLE
1002
{
1070
    40
1040
0.7
1070
   272
1070
     8
1002
}
  0
TEXT
  5
1D6C
330
1F
100
AcDbEntity
  8
AM_5
100
AcDbText
 10
656.9871403510984
 20
176.4478902008175
 30
0.0
 40
2.5
  1
Manual override
 41
0.8
100
AcDbText
  0
DIMENSION
  5
1D80
102
{ACAD_XDICTIONARY
360
1D8F
102
}
102
{ACAD_REACTORS
330
1D90
102
}
330
1F
100
AcDbEntity
  8
AM_5
100
AcDbDimension
  2
*D6
 10
748.4827621468342
 20
94.98715228071011
 30
0.0
 11
745.9827621468342
 21
96.77215228071013
 31
0.0
 70
    32
 71
     5
 42
5.0
  3
AM_ISO$0
100
AcDbAlignedDimension
 13
743.4827621468342
 23
101.4571387496235
 33
0.0
 14
748.4827621468342
 24
103.4571387496235
 34
0.0
 50
0.0000000000001018
100
AcDbRotatedDimension
1001
ACAD
1000
DSTYLE
1002
{
1070
    40
1040
0.7
1070
   272
1070
     8
1002
}
  0
DIMENSION
  5
1DAA
102
{ACAD_XDICTIONARY
360
1DB9
102
}
102
{ACAD_REACTORS
330
1DBA
102
}
330
1F
100
AcDbEntity
  8
AM_5
100
AcDbDimension
  2
*D7
 10
736.8348144328129
 20
106.9571387496235
 30
0.0
 11
735.0498144328128
 21
104.2071387496236
 31
0.0
 70
    32
 71
     5
 42
5.5
  3
AM_ISO$0
100
AcDbAlignedDimension
 13
743.4827621468342
 23
101.4571387496235
 33
0.0
 14
744.9827621468342
 24
106.9571387496235
 34
0.0
 50
90.0
100
AcDbRotatedDimension
1001
ACAD
1000
DSTYLE
1002
{
1070
    40
1040
0.7
1070
   272
1070
     8
1002
}
  0
DIMENSION
  5
1DD4
102
{ACAD_XDICTIONARY
360
1DE3
102
}
102
{ACAD_REACTORS
330
1DE4
102
}
330
1F
100
AcDbEntity
  8
AM_5
100
AcDbDimension
  2
*D8
 10
832.3041235568201
 20
93.304943170002
 30
0.0
 11
834.8041235568199
 21
95.08994317000199
 31
0.0
 70
    32
 71
     5
 42
5.0
  3
AM_ISO$0
100
AcDbAlignedDimension
 13
837.30412355682
 23
101.4571387496235
 33
0.0
 14
832.3041235568201
 24
103.4571387496235
 34
0.0
 50
0.0000000000001018
100
AcDbRotatedDimension
1001
ACAD
1000
DSTYLE
1002
{
1070
    40
1040
0.7
1070
   272
1070
     8
1002
}
  0
DIMENSION
  5
1DFE
102
{ACAD_XDICTIONARY
360
1E0B
102
}
102
{ACAD_REACTORS
330
1E0C
102
}
330
1F
100
AcDbEntity
  8
AM_5
100
AcDbDimension
  2
*D9
 10
821.80412355682
 20
88.30494317000198
 30
0.0
 11
829.5541235568201
 21
90.08994317000198
 31
0.0
 70
    32
 71
     5
 42
15.5
  3
AM_ISO$0
100
AcDbAlignedDimension
 13
837.30412355682
 23
101.4571387496235
 33
0.0
 14
821.80412355682
 24
101.4571387496235
 34
0.0
 50
0.0000000000001018
100
AcDbRotatedDimension
1001
ACAD
1000
DSTYLE
1002
{
1070
    40
1040
0.7
1070
   272
1070
     8
1002
}
  0
DIMENSION
  5
1E24
102
{ACAD_XDICTIONARY
360
1E33
102
}
102
{ACAD_REACTORS
330
1E34
102
}
330
1F
100
AcDbEntity
  8
AM_5
100
AcDbDimension
  2
*D10
 10
849.3041235568201
 20
106.9571387496235
 30
0.0
 11
849.3041235568201
 21
104.2071387496236
 31
0.0
 70
   160
 71
     5
 42
5.5
  3
AM_ISO$0
100
AcDbAlignedDimension
 13
837.30412355682
 23
101.4571387496235
 33
0.0
 14
835.8041235568201
 24
106.9571387496235
 34
0.0
 50
90.0
100
AcDbRotatedDimension
1001
ACAD
1000
DSTYLE
1002
{
1070
    40
1040
0.7
1070
   272
1070
     8
1002
}
  0
DIMENSION
  5
1E4E
102
{ACAD_XDICTIONARY
360
1E5B
102
}
102
{ACAD_REACTORS
330
1E5C
102
}
330
1F
100
AcDbEntity
  8
AM_5
100
AcDbDimension
  2
*D11
 10
854.30412355682
 20
135.9571387496235
 30
0.0
 11
852.51912355682
 21
118.7071387496237
 31
0.0
 70
    32
 71
     5
 42
34.50000000000001
  3
AM_ISO$0
100
AcDbAlignedDimension
 13
837.30412355682
 23
101.4571387496235
 33
0.0
 14
835.45412355682
 24
135.9571387496235
 34
0.0
 50
90.0
100
AcDbRotatedDimension
1001
ACAD
1000
DSTYLE
1002
{
1070
    40
1040
0.7
1070
   272
1070
     8
1002
}
  0
DIMENSION
  5
1E74
102
{ACAD_XDICTIONARY
360
1E83
102
}
102
{ACAD_REACTORS
330
1E84
102
}
330
1F
100
AcDbEntity
  8
AM_5
100
AcDbDimension
  2
*D12
 10
796.8107889150432
 20
151.8397985149717
 30
0.0
 11
798.3107889150431
 21
153.6247985149717
 31
0.0
 70
    32
 71
     5
 42
3.0
  3
AM_ISO$0
100
AcDbAlignedDimension
 13
799.8107889150432
 23
159.8291731425919
 33
0.0
 14
796.8107889150432
 24
160.029173142592
 34
0.0
 50
0.0000000000001018
100
AcDbRotatedDimension
1001
ACAD
1000
DSTYLE
1002
{
1070
    40
1040
0.7
1070
   272
1070
     8
1002
}
  0
DIMENSION
  5
1E9E
102
{ACAD_XDICTIONARY
360
1EAB
102
}
102
{ACAD_REACTORS
330
1EAC
102
}
330
1F
100
AcDbEntity
  8
AM_5
100
AcDbDimension
  2
*D13
 10
783.8107889150432
 20
151.8397985149717
 30
0.0
 11
790.3107889150431
 21
153.6247985149717
 31
0.0
 70
    32
 71
     5
 42
13.0
  3
AM_ISO$0
100
AcDbAlignedDimension
 13
796.8107889150432
 23
160.029173142592
 33
0.0
 14
783.8107889150432
 24
159.8291731425919
 34
0.0
 50
0.0000000000001018
100
AcDbRotatedDimension
1001
ACAD
1000
DSTYLE
1002
{
1070
    40
1040
0.7
1070
   272
1070
     8
1002
}
  0
DIMENSION
  5
1EC4
102
{ACAD_XDICTIONARY
360
1ED1
102
}
102
{ACAD_REACTORS
330
1ED2
102
}
330
1F
100
AcDbEntity
  8
AM_5
100
AcDbDimension
  2
*D14
 10
799.8107889150432
 20
146.8397985149717
 30
0.0
 11
790.3107889150431
 21
148.6247985149717
 31
0.0
 70
    32
 71
     5
 42
19.0
  3
AM_ISO$0
100
AcDbAlignedDimension
 13
780.8107889150432
 23
159.8291731425919
 33
0.0
 14
799.8107889150432
 24
159.8291731425919
 34
0.0
 50
0.0000000000001018
100
AcDbRotatedDimension
1001
ACAD
1000
DSTYLE
1002
{
1070
    40
1040
0.7
1070
   272
1070
     8
1002
}
  0
DIMENSION
  5
1EEA
102
{ACAD_XDICTIONARY
360
1EF7
102
}
102
{ACAD_REACTORS
330
1EF8
102
}
330
1F
100
AcDbEntity
  8
AM_5
100
AcDbDimension
  2
*D15
 10
799.8107889150432
 20
141.8397985149717
 30
0.0
 11
786.0607889150432
 21
143.625039656704
 31
0.0
 70
    32
 71
     5
 42
27.5
  3
AM_ISO$0
100
AcDbAlignedDimension
 13
772.3107889150432
 23
165.329173142592
 33
0.0
 14
799.8107889150432
 24
159.8291731425919
 34
0.0
 50
0.0000000000001018
100
AcDbRotatedDimension
1001
ACAD
1000
DSTYLE
1002
{
1070
    40
1040
0.7
1070
   272
1070
     8
1002
}
  0
TEXT
  5
4442
330
1F
100
AcDbEntity
  8
AM_5
100
AcDbText
 10
759.251150964685
 20
95.51447118664457
 30
0.0
 40
2.5
  1
3-M5x0.8
100
AcDbText
  0
INSERT
  5
4444
330
1F
100
AcDbEntity
  8
AM_5
100
AcDbBlockReference
  2
*S26
 10
0.0
 20
0.0
 30
0.0
  0
ARC
  5
4445
330
1F
100
AcDbEntity
  8
AM_4
100
AcDbCircle
 10
790.3107889150431
 20
109.4571387496235
 30
0.0
 40
2.5
100
AcDbArc
 50
280.0
 51
190.0
  0
ARC
  5
4446
330
1F
100
AcDbEntity
  8
AM_4
100
AcDbCircle
 10
832.3041235568201
 20
106.9571387496235
 30
0.0
 40
2.5
100
AcDbArc
 50
280.0
 51
190.0
  0
DIMENSION
  5
4489
102
{ACAD_XDICTIONARY
360
4496
102
}
102
{ACAD_REACTORS
330
4497
102
}
330
1F
100
AcDbEntity
  8
AM_5
100
AcDbDimension
  2
*D16
 10
807.1100942563898
 20
113.4571387496235
 30
0.0
 11
805.3248531146575
 21
107.4571387496236
 31
0.0
 70
    32
 71
     5
 42
12.0
  3
AM_ISO$0
100
AcDbAlignedDimension
 13
799.8107889150432
 23
101.4571387496235
 33
0.0
 14
799.8107889150432
 24
113.4571387496235
 34
0.0
 50
90.0
100
AcDbRotatedDimension
1001
ACAD
1000
DSTYLE
1002
{
1070
    40
1040
0.7
1070
   272
1070
     8
1002
}
  0
DIMENSION
  5
44AF
102
{ACAD_XDICTIONARY
360
44BC
102
}
102
{ACAD_REACTORS
330
44BD
102
}
330
1F
100
AcDbEntity
  8
AM_5
100
AcDbDimension
  2
*D17
 10
812.1100942563899
 20
126.4571387496235
 30
0.0
 11
810.3248531146576
 21
113.9571387496236
 31
0.0
 70
    32
 71
     5
 42
25.0
  3
AM_ISO$0
100
AcDbAlignedDimension
 13
799.8107889150432
 23
101.4571387496235
 33
0.0
 14
799.8107889150432
 24
126.4571387496235
 34
0.0
 50
90.0
100
AcDbRotatedDimension
1001
ACAD
1000
DSTYLE
1002
{
1070
    40
1040
0.7
1070
   272
1070
     8
1002
}
  0
LINE
  5
451B
330
1F
100
AcDbEntity
  8
AM_7
  6
AM_ISO08W050x2
100
AcDbLine
 10
783.8107889150432
 20
110.9253081308613
 30
0.0
 11
783.8107889150432
 21
100.6384759472599
 31
0.0
  0
LINE
  5
451C
330
1F
100
AcDbEntity
  8
AM_7
  6
AM_ISO08W050x2
100
AcDbLine
 10
796.8107889150432
 20
110.9253081308613
 30
0.0
 11
796.8107889150432
 21
100.6384759472599
 31
0.0
  0
TEXT
  5
451D
330
1F
100
AcDbEntity
  8
AM_5
100
AcDbText
 10
808.1200265506531
 20
154.0809931606642
 30
0.0
 40
2.5
  1
2-%%c2.6
100
AcDbText
  0
INSERT
  5
451E
330
1F
100
AcDbEntity
  8
AM_5
100
AcDbBlockReference
  2
*S27
 10
0.0
 20
0.0
 30
0.0
  0
DIMENSION
  5
452F
102
{ACAD_XDICTIONARY
360
453C
102
}
102
{ACAD_REACTORS
330
453D
102
}
330
1F
100
AcDbEntity
  8
AM_5
100
AcDbDimension
  2
*D18
 10
810.7107889150432
 20
165.3291731425919
 30
0.0
 11
808.9257889150431
 21
170.3291731425921
 31
0.0
 70
    32
 71
     5
 42
10.00000000000003
  3
AM_ISO$0
100
AcDbAlignedDimension
 13
799.8107889150432
 23
175.329173142592
 33
0.0
 14
799.8107889150432
 24
165.3291731425919
 34
0.0
 50
90.0
100
AcDbRotatedDimension
1001
ACAD
1000
DSTYLE
1002
{
1070
    40
1040
0.7
1070
   272
1070
     8
1002
}
  0
DIMENSION
  5
4555
102
{ACAD_XDICTIONARY
360
4562
102
}
102
{ACAD_REACTORS
330
4563
102
}
330
1F
100
AcDbEntity
  8
AM_5
100
AcDbDimension
  2
*D19
 10
815.7107889150431
 20
162.3291731425919
 30
0.0
 11
813.9257889150432
 21
168.8291731425921
 31
0.0
 70
    32
 71
     5
 42
13.00000000000003
  3
AM_ISO$0
100
AcDbAlignedDimension
 13
799.8107889150432
 23
175.329173142592
 33
0.0
 14
799.1107889150431
 24
162.3291731425919
 34
0.0
 50
90.0
100
AcDbRotatedDimension
1001
ACAD
1000
DSTYLE
1002
{
1070
    40
1040
0.7
1070
   272
1070
     8
1002
}
  0
DIMENSION
  5
53A5
102
{ACAD_XDICTIONARY
360
53B2
102
}
102
{ACAD_REACTORS
330
53B3
102
}
330
1F
100
AcDbEntity
  8
AM_5
100
AcDbDimension
  2
*D20
 10
766.3927279557688
 20
109.9571387496235
 30
0.0
 11
764.6077279557688
 21
105.7071387496236
 31
0.0
 70
    32
 71
     5
 42
8.5
  3
AM_ISO$0
100
AcDbAlignedDimension
 13
758.9827621468343
 23
101.4571387496235
 33
0.0
 14
758.9827621468343
 24
109.9571387496235
 34
0.0
 50
90.00000000000003
100
AcDbRotatedDimension
1001
ACAD
1000
DSTYLE
1002
{
1070
    40
1040
0.7
1070
   272
1070
     8
1002
}
  0
DIMENSION
  5
53F3
102
{ACAD_XDICTIONARY
360
5400
102
}
102
{ACAD_REACTORS
330
5401
102
}
330
1F
100
AcDbEntity
  8
AM_5
100
AcDbDimension
  2
*D21
 10
776.3784115685398
 20
109.4571387496235
 30
0.0
 11
774.5934115685399
 21
105.4571387496236
 31
0.0
 70
    32
 71
     5
 42
8.0
  3
AM_ISO$0
100
AcDbAlignedDimension
 13
780.8107889150432
 23
101.4571387496235
 33
0.0
 14
786.8107889150431
 24
109.4571387496235
 34
0.0
 50
90.00000000000003
100
AcDbRotatedDimension
1001
ACAD
1000
DSTYLE
1002
{
1070
    40
1040
0.7
1070
   272
1070
     8
1002
}
  0
LINE
  5
54E2
330
1F
100
AcDbEntity
  8
AM_7
  6
AM_ISO08W050x2
100
AcDbLine
 10
684.0545436277364
 20
162.0912666435183
 30
0.0
 11
684.0545436277364
 21
164.6912666435183
 31
0.0
1001
GENIUS_GENOREF_13
1005
54E6
  0
LINE
  5
54E3
330
1F
100
AcDbEntity
  8
AM_7
  6
AM_ISO08W050x2
100
AcDbLine
 10
684.0545436277364
 20
162.0912666435183
 30
0.0
 11
681.4545436277363
 21
162.0912666435183
 31
0.0
1001
GENIUS_GENOREF_13
1005
54E6
  0
LINE
  5
54E4
330
1F
100
AcDbEntity
  8
AM_7
  6
AM_ISO08W050x2
100
AcDbLine
 10
684.0545436277364
 20
162.0912666435183
 30
0.0
 11
684.0545436277364
 21
159.4912666435183
 31
0.0
1001
GENIUS_GENOREF_13
1005
54E6
  0
LINE
  5
54E5
102
{ACAD_REACTORS
330
5518
102
}
330
1F
100
AcDbEntity
  8
AM_7
  6
AM_ISO08W050x2
100
AcDbLine
 10
684.0545436277364
 20
162.0912666435183
 30
0.0
 11
686.6545436277363
 21
162.0912666435183
 31
0.0
1001
GENIUS_GENOREF_13
1005
54E6
  0
POINT
  5
54E6
330
1F
100
AcDbEntity
  8
0
 60
     1
100
AcDbPoint
 10
0.0
 20
0.0
 30
0.0
1001
GENIUS_GENOENT_13
1002
{
1000
MYREF
1005
54E6
1002
}
1002
{
1000
GRP
1005
0
1002
}
1001
GENIUS_GENOBJ-N-CRS_13
1002
{
1000
OWNER
1000
GEN
1002
}
1001
GENIUS_GENOLIS_13
1002
{
1000
ENT
1005
54E5
1005
54E4
1005
54E3
1005
54E2
1002
}
1001
GENIUS_GENODEF_13
1002
{
1000
HIER
1070
    10
1002
}
1002
{
1000
MANEDIT
1070
     0
1002
}
1002
{
1000
NOSEL
1070
     0
1002
}
1002
{
1000
BEHIND
1070
     0
1002
}
1002
{
1000
OTHER
1070
     0
1002
}
1002
{
1000
REACTOR
1002
}
  0
LINE
  5
54F4
102
{ACAD_REACTORS
330
5550
102
}
330
1F
100
AcDbEntity
  8
AM_7
  6
AM_ISO08W050x2
100
AcDbLine
 10
684.0545436277364
 20
168.5912666435183
 30
0.0
 11
684.0545436277364
 21
171.1912666435183
 31
0.0
1001
GENIUS_GENOREF_13
1005
54F8
  0
LINE
  5
54F5
330
1F
100
AcDbEntity
  8
AM_7
  6
AM_ISO08W050x2
100
AcDbLine
 10
684.0545436277364
 20
168.5912666435183
 30
0.0
 11
681.4545436277362
 21
168.5912666435183
 31
0.0
1001
GENIUS_GENOREF_13
1005
54F8
  0
LINE
  5
54F6
330
1F
100
AcDbEntity
  8
AM_7
  6
AM_ISO08W050x2
100
AcDbLine
 10
684.0545436277364
 20
168.5912666435183
 30
0.0
 11
684.0545436277364
 21
165.9912666435183
 31
0.0
1001
GENIUS_GENOREF_13
1005
54F8
  0
LINE
  5
54F7
102
{ACAD_REACTORS
330
5518
102
}
330
1F
100
AcDbEntity
  8
AM_7
  6
AM_ISO08W050x2
100
AcDbLine
 10
684.0545436277364
 20
168.5912666435183
 30
0.0
 11
686.6545436277363
 21
168.5912666435183
 31
0.0
1001
GENIUS_GENOREF_13
1005
54F8
  0
POINT
  5
54F8
330
1F
100
AcDbEntity
  8
0
 60
     1
100
AcDbPoint
 10
0.0
 20
0.0
 30
0.0
1001
GENIUS_GENODEF_13
1002
{
1000
HIER
1070
    10
1002
}
1002
{
1000
MANEDIT
1070
     0
1002
}
1002
{
1000
NOSEL
1070
     0
1002
}
1002
{
1000
BEHIND
1070
     0
1002
}
1002
{
1000
OTHER
1070
     0
1002
}
1002
{
1000
REACTOR
1002
}
1001
GENIUS_GENOLIS_13
1002
{
1000
ENT
1005
54F7
1005
54F6
1005
54F5
1005
54F4
1002
}
1001
GENIUS_GENOENT_13
1002
{
1000
MYREF
1005
54F8
1002
}
1002
{
1000
GRP
1005
0
1002
}
1001
GENIUS_GENOBJ-N-CRS_13
1002
{
1000
OWNER
1000
GEN
1002
}
  0
DIMENSION
  5
5508
102
{ACAD_XDICTIONARY
360
5517
102
}
102
{ACAD_REACTORS
330
5518
102
}
330
1F
100
AcDbEntity
  8
AM_5
100
AcDbDimension
  2
*D22
 10
695.4769710494083
 20
168.5912666435183
 30
0.0
 11
693.6919710494083
 21
165.3412666435184
 31
0.0
 70
    32
 71
     5
 42
6.5
  3
AM_ISO$0
100
AcDbAlignedDimension
 13
686.6545436277363
 23
162.0912666435183
 33
0.0
 14
686.6545436277363
 24
168.5912666435183
 34
0.0
 50
90.0
100
AcDbRotatedDimension
1001
ACAD
1000
DSTYLE
1002
{
1070
    40
1040
0.7
1070
   272
1070
     8
1002
}
  0
DIMENSION
  5
5540
102
{ACAD_XDICTIONARY
360
554F
102
}
102
{ACAD_REACTORS
330
5550
102
}
330
1F
100
AcDbEntity
  8
AM_5
100
AcDbDimension
  2
*D23
 10
684.0545436277364
 20
176.0708272439419
 30
0.0
 11
687.1045436277363
 21
177.8558272439419
 31
0.0
 70
    32
 71
     5
 42
6.099999999999909
  3
AM_ISO$0
100
AcDbAlignedDimension
 13
690.1545436277363
 23
170.3412666435183
 33
0.0
 14
684.0545436277364
 24
171.1912666435183
 34
0.0
 50
180.0
100
AcDbRotatedDimension
1001
ACAD
1000
DSTYLE
1002
{
1070
    40
1040
0.7
1070
   272
1070
     8
1002
}
  0
DIMENSION
  5
5589
102
{ACAD_XDICTIONARY
360
5598
102
}
102
{ACAD_REACTORS
330
5599
102
}
330
1F
100
AcDbEntity
  8
AM_5
100
AcDbDimension
  2
*D24
 10
696.9683667432789
 20
129.1390238870344
 30
0.0
 11
696.9683667432789
 21
120.0821754421791
 31
0.0
 70
   160
 71
     5
 42
2.499999999999985
  3
AM_ISO$0
100
AcDbAlignedDimension
 13
684.6398361277363
 23
126.6390238870344
 33
0.0
 14
690.1545436277363
 24
129.1390238870344
 34
0.0
 50
90.0
100
AcDbRotatedDimension
1001
ACAD
1000
DSTYLE
1002
{
1070
    40
1040
0.7
1070
   272
1070
     8
1002
}
  0
TEXT
  5
562F
330
1F
100
AcDbEntity
  8
AM_5
100
AcDbText
 10
671.9874782300887
 20
123.6802503561945
 30
0.0
 40
2.5
  1
M1.6
100
AcDbText
  0
INSERT
  5
5630
330
1F
100
AcDbEntity
  8
AM_5
100
AcDbBlockReference
  2
*S28
 10
0.0
 20
0.0
 30
0.0
  0
TEXT
  5
5633
330
1F
100
AcDbEntity
  8
AM_5
100
AcDbText
 10
674.3883247110375
 20
92.32031347276004
 30
0.0
 40
2.5
  1
P
100
AcDbText
  0
INSERT
  5
5634
330
1F
100
AcDbEntity
  8
AM_5
100
AcDbBlockReference
  2
*S29
 10
0.0
 20
0.0
 30
0.0
  0
TEXT
  5
563E
330
1F
100
AcDbEntity
  8
AM_5
100
AcDbText
 10
674.3883247110375
 20
96.91445809384731
 30
0.0
 40
2.5
  1
A
100
AcDbText
  0
INSERT
  5
563F
330
1F
100
AcDbEntity
  8
AM_5
100
AcDbBlockReference
  2
*S30
 10
0.0
 20
0.0
 30
0.0
  0
TEXT
  5
576E
330
1F
100
AcDbEntity
  8
AM_5
100
AcDbText
 10
690.653123557704
 20
92.32031347276004
 30
0.0
 40
2.5
  1
R
100
AcDbText
  0
TEXT
  5
5770
330
1F
100
AcDbEntity
  8
AM_5
100
AcDbText
 10
690.653123557704
 20
96.91445809384731
 30
0.0
 40
2.5
  1
A
100
AcDbText
  0
INSERT
  5
5772
330
1F
100
AcDbEntity
  8
AM_5
100
AcDbBlockReference
  2
*S31
 10
0.0
 20
0.0
 30
0.0
  0
INSERT
  5
5773
330
1F
100
AcDbEntity
  8
AM_5
100
AcDbBlockReference
  2
*S32
 10
0.0
 20
0.0
 30
0.0
  0
TEXT
  5
5A55
330
1F
100
AcDbEntity
  8
LOGO
 62
     7
100
AcDbText
 10
666.8489571392473
 20
72.92163907852011
 30
0.0
 40
2.666280542986424
  1
Order example:
 41
0.8
  7
CHINESET
100
AcDbText
  0
TEXT
  5
5A56
330
1F
100
AcDbEntity
  8
LOGO
 62
     7
100
AcDbText
 10
667.3273099179018
 20
76.67521002261435
 30
0.0
 40
3.999420814479637
  1
訂購代號:
  7
CHINESET
100
AcDbText
  0
LINE
  5
5A57
330
1F
100
AcDbEntity
  8
LOGO
 62
     1
100
AcDbLine
 10
874.8780488143212
 20
81.68203009283502
 30
0.0
 11
621.6968202405397
 21
81.68203009283502
 31
0.0
  0
LINE
  5
5A58
330
1F
100
AcDbEntity
  8
LOGO
 62
     1
100
AcDbLine
 10
665.6904491998158
 20
61.68492602043679
 30
0.0
 11
665.6904491998158
 21
81.68203009283502
 31
0.0
  0
TEXT
  5
5A59
330
1F
100
AcDbEntity
  8
LOGO
  6
Continuous
 62
     5
100
AcDbText
 10
628.8798699120674
 20
65.61332693719808
 30
0.0
 40
2.999565610859728
  1
金器工業股份有限公司
  7
CHINESET
100
AcDbText
  0
TEXT
  5
5A5A
330
1F
100
AcDbEntity
  8
LOGO
  6
Continuous
 62
     5
100
AcDbText
 10
623.3702613197088
 20
62.61317364665372
 30
0.0
 40
1.999710407239818
  1
MINDMAN INDUSTRIAL CO., LTD.
 41
0.85
  7
CHINESET
100
AcDbText
  0
LINE
  5
5A5B
330
1F
100
AcDbEntity
  8
LOGO
 62
     1
100
AcDbLine
 10
665.6904491998158
 20
77.68260927835545
 30
0.0
 11
636.3613632269651
 21
77.68260927835545
 31
0.0
  0
LINE
  5
5A5C
330
1F
100
AcDbEntity
  8
LOGO
 62
     1
100
AcDbLine
 10
665.6904491998158
 20
73.6831884638757
 30
0.0
 11
636.3613632269651
 21
73.6831884638757
 31
0.0
  0
LINE
  5
5A5D
330
1F
100
AcDbEntity
  8
LOGO
 62
     1
100
AcDbLine
 10
665.6904491998158
 20
69.68376764939612
 30
0.0
 11
621.6968202405397
 21
69.68376764939612
 31
0.0
  0
LINE
  5
5A5E
330
1F
100
AcDbEntity
  8
LOGO
 62
     1
100
AcDbLine
 10
636.3613632269651
 20
69.68376764939612
 30
0.0
 11
636.3613632269651
 21
81.68203009283502
 31
0.0
  0
TEXT
  5
5A5F
330
1F
100
AcDbEntity
  8
LOGO
 62
     6
100
AcDbText
 10
655.3589418214637
 20
70.683622853016
 30
0.0
 40
1.999710407239818
  1
m/m
  7
CHINESET
 72
     1
 11
658.88224111041
 21
71.68347805663592
 31
0.0
100
AcDbText
 73
     2
  0
TEXT
  5
5A60
330
1F
100
AcDbEntity
  8
LOGO
 62
     6
100
AcDbText
 10
655.3589418214637
 20
78.68246448197533
 30
0.0
 40
1.999710407239818
  1
1 : 1
  7
CHINESET
 72
     1
 11
658.88224111041
 21
79.68231968559525
 31
0.0
100
AcDbText
 73
     2
  0
LINE
  5
5A61
330
1F
100
AcDbEntity
  8
LOGO
 62
     1
100
AcDbLine
 10
652.3590464848836
 20
69.68376764939612
 30
0.0
 11
652.3590464848836
 21
81.68203009283502
 31
0.0
  0
CIRCLE
  5
5A62
330
1F
100
AcDbEntity
  8
LOGO
  6
Continuous
 62
     6
100
AcDbCircle
 10
656.0617604237121
 20
75.68717626631013
 30
0.0
 40
1.161078930320631
  0
CIRCLE
  5
5A63
330
1F
100
AcDbEntity
  8
LOGO
  6
Continuous
 62
     6
100
AcDbCircle
 10
656.0617604237121
 20
75.68717626631013
 30
0.0
 40
0.6802894686655972
  0
LINE
  5
5A64
330
1F
100
AcDbEntity
  8
LOGO
 62
     6
100
AcDbLine
 10
663.3581151477488
 20
74.52609733598944
 30
0.0
 11
663.3581151477488
 21
76.84825519663082
 31
0.0
  0
LINE
  5
5A65
330
1F
100
AcDbEntity
  8
LOGO
 62
     6
100
AcDbLine
 10
659.7181993503043
 20
75.00688679764457
 30
0.0
 11
659.7181993503043
 21
76.36746573497584
 31
0.0
  0
LINE
  5
5A66
330
1F
100
AcDbEntity
  8
LOGO
  6
Continuous
 62
     6
100
AcDbLine
 10
659.7181993503043
 20
76.36746573497584
 30
0.0
 11
663.3581151477488
 21
76.84825519663082
 31
0.0
  0
LINE
  5
5A67
330
1F
100
AcDbEntity
  8
LOGO
  6
Continuous
 62
     6
100
AcDbLine
 10
659.7181993503043
 20
75.00688679764457
 30
0.0
 11
663.3581151477488
 21
74.52609733598944
 31
0.0
  0
LINE
  5
5A68
330
1F
100
AcDbEntity
  8
LOGO
 62
     6
100
AcDbLine
 10
741.2696656129987
 20
79.68231968559525
 30
0.0
 11
736.0010451690515
 21
79.68231968559525
 31
0.0
  0
LINE
  5
5A69
330
1F
100
AcDbEntity
  8
LOGO
 62
     6
100
AcDbLine
 10
744.1253483649908
 20
70.68362285301609
 30
0.0
 11
733.4232955298258
 21
70.68362285301609
 31
0.0
  0
LINE
  5
5A6A
330
1F
100
AcDbEntity
  8
LOGO
 62
     6
100
AcDbLine
 10
741.2696656129987
 20
73.6831884638757
 30
0.0
 11
736.0010451690515
 21
73.6831884638757
 31
0.0
  0
LINE
  5
5A6B
330
1F
100
AcDbEntity
  8
LOGO
 62
     6
100
AcDbLine
 10
744.1253483649908
 20
63.35135135980348
 30
0.0
 11
733.4232955298258
 21
63.3513513598033
 31
0.0
  0
LINE
  5
5A6C
330
1F
100
AcDbEntity
  8
LOGO
 62
     6
100
AcDbLine
 10
733.4232955298258
 20
70.68362285301609
 30
0.0
 11
733.4232955298258
 21
63.35135135980348
 31
0.0
  0
LINE
  5
5A6D
330
1F
100
AcDbEntity
  8
LOGO
 62
     6
100
AcDbLine
 10
731.2810304772336
 20
70.68362285301609
 30
0.0
 11
731.2810304772336
 21
63.3513513598033
 31
0.0
  0
LINE
  5
5A6E
330
1F
100
AcDbEntity
  8
LOGO
 62
     6
100
AcDbLine
 10
713.9132762846023
 20
70.68362285301609
 30
0.0
 11
713.9132762846023
 21
63.3513513598033
 31
0.0
  0
LINE
  5
5A6F
330
1F
100
AcDbEntity
  8
LOGO
 62
     6
100
AcDbLine
 10
707.8601213212913
 20
70.68362285301609
 30
0.0
 11
707.8601213212913
 21
63.3513513598033
 31
0.0
  0
LINE
  5
5A70
330
1F
100
AcDbEntity
  8
LOGO
 62
     6
100
AcDbLine
 10
694.5287186063592
 20
70.68362285301609
 30
0.0
 11
694.5287186063592
 21
63.3513513598033
 31
0.0
  0
LINE
  5
5A71
330
1F
100
AcDbEntity
  8
LOGO
 62
     6
100
AcDbLine
 10
707.8601213212913
 20
63.3513513598033
 30
0.0
 11
694.5287186063592
 21
63.3513513598033
 31
0.0
  0
LINE
  5
5A72
330
1F
100
AcDbEntity
  8
LOGO
 62
     6
100
AcDbLine
 10
731.2810304772336
 20
63.3513513598033
 30
0.0
 11
713.9132762846023
 21
63.3513513598033
 31
0.0
  0
LINE
  5
5A73
330
1F
100
AcDbEntity
  8
LOGO
  6
Continuous
 62
     7
100
AcDbLine
 10
710.2268217443771
 20
76.66150420386134
 30
0.0
 11
712.8758191933169
 21
76.66150420386134
 31
0.0
  0
LINE
  5
5A74
330
1F
100
AcDbEntity
  8
LOGO
 62
     6
100
AcDbLine
 10
709.1932615927844
 20
79.68231968559525
 30
0.0
 11
693.1955783348659
 21
79.68231968559525
 31
0.0
  0
LINE
  5
5A75
330
1F
100
AcDbEntity
  8
LOGO
 62
     6
100
AcDbLine
 10
709.1932615927844
 20
73.6831884638757
 30
0.0
 11
693.1955783348659
 21
73.6831884638757
 31
0.0
  0
LINE
  5
5A76
330
1F
100
AcDbEntity
  8
LOGO
 62
     6
100
AcDbLine
 10
693.1955783348659
 20
79.68231968559525
 30
0.0
 11
693.1955783348659
 21
73.6831884638757
 31
0.0
  0
LINE
  5
5A77
330
1F
100
AcDbEntity
  8
LOGO
 62
     6
100
AcDbLine
 10
709.1932615927844
 20
79.68231968559525
 30
0.0
 11
709.1932615927844
 21
73.6831884638757
 31
0.0
  0
LINE
  5
5A78
330
1F
100
AcDbEntity
  8
LOGO
 62
     6
100
AcDbLine
 10
701.1944199638252
 20
73.6831884638757
 30
0.0
 11
701.1944199638252
 21
70.68362285301609
 31
0.0
  0
TEXT
  5
5A79
330
1F
100
AcDbEntity
  8
LOGO
  6
Continuous
 62
     7
100
AcDbText
 10
694.7667793691258
 20
75.01632873536893
 30
0.0
 40
3.33285067873303
  1
MVDY
  7
CHINESET
 72
     1
 11
701.1944199638252
 21
76.68275407473544
 31
0.0
100
AcDbText
 73
     2
  0
LINE
  5
5A7A
330
1F
100
AcDbEntity
  8
LOGO
 62
     6
100
AcDbLine
 10
707.8601213212913
 20
70.68362285301609
 30
0.0
 11
694.5287186063592
 21
70.68362285301609
 31
0.0
  0
LINE
  5
5A7B
330
1F
100
AcDbEntity
  8
LOGO
 62
     6
100
AcDbLine
 10
731.2810304772336
 20
79.68231968559525
 30
0.0
 11
713.9132762846023
 21
79.68231968559525
 31
0.0
  0
LINE
  5
5A7C
330
1F
100
AcDbEntity
  8
LOGO
 62
     6
100
AcDbLine
 10
731.2810304772336
 20
70.68362285301609
 30
0.0
 11
713.9132762846023
 21
70.68362285301609
 31
0.0
  0
LINE
  5
5A7D
330
1F
100
AcDbEntity
  8
LOGO
 62
     6
100
AcDbLine
 10
731.2810304772336
 20
73.6831884638757
 30
0.0
 11
713.9132762846023
 21
73.6831884638757
 31
0.0
  0
TEXT
  5
5A7E
330
1F
100
AcDbEntity
  8
LOGO
  6
Continuous
 62
     7
100
AcDbText
 10
718.6294740014739
 20
74.97853399866004
 30
0.0
 40
3.33285067873303
  1
100
  7
CHINESET
 72
     1
 11
722.597153380918
 21
76.64495933802655
 31
0.0
100
AcDbText
 73
     2
  0
LINE
  5
5A7F
330
1F
100
AcDbEntity
  8
LOGO
 62
     6
100
AcDbLine
 10
722.597153380918
 20
73.6831884638757
 30
0.0
 11
722.597153380918
 21
70.68362285301609
 31
0.0
  0
LINE
  5
5A80
330
1F
100
AcDbEntity
  8
LOGO
 62
     6
100
AcDbLine
 10
713.9132762846023
 20
79.68231968559525
 30
0.0
 11
713.9132762846023
 21
73.6831884638757
 31
0.0
  0
TEXT
  5
5A81
330
1F
100
AcDbEntity
  8
LOGO
  6
Continuous
 62
     7
100
AcDbText
 10
737.3286621490859
 20
74.97853399866004
 30
0.0
 40
3.33285067873303
  1
3
  7
CHINESET
 72
     1
 11
738.4396123753303
 21
76.64495933802655
 31
0.0
100
AcDbText
 73
     2
  0
LINE
  5
5A82
330
1F
100
AcDbEntity
  8
LOGO
  6
Continuous
 62
     7
100
AcDbLine
 10
732.314590628826
 20
76.66150420386134
 30
0.0
 11
734.963588077766
 21
76.66150420386134
 31
0.0
  0
LINE
  5
5A83
330
1F
100
AcDbEntity
  8
LOGO
 62
     6
100
AcDbLine
 10
738.7177612109598
 20
73.6831884638757
 30
0.0
 11
738.7177612109598
 21
70.68362285301609
 31
0.0
  0
LINE
  5
5A84
330
1F
100
AcDbEntity
  8
LOGO
 62
     6
100
AcDbLine
 10
736.0010451690515
 20
79.68231968559525
 30
0.0
 11
736.0010451690515
 21
73.6831884638757
 31
0.0
  0
LINE
  5
5A85
330
1F
100
AcDbEntity
  8
LOGO
 62
     6
100
AcDbLine
 10
731.2810304772336
 20
79.68231968559525
 30
0.0
 11
731.2810304772336
 21
73.6831884638757
 31
0.0
  0
LINE
  5
5A86
330
1F
100
AcDbEntity
  8
LOGO
 62
     6
100
AcDbLine
 10
774.4423211922946
 20
70.68362285301609
 30
0.0
 11
774.4423211922946
 21
63.32370383440573
 31
0.0
  0
LINE
  5
5A87
330
1F
100
AcDbEntity
  8
LOGO
 62
     6
100
AcDbLine
 10
764.6714574097464
 20
70.68362285301609
 30
0.0
 11
764.6714574097464
 21
63.3513513598033
 31
0.0
  0
LINE
  5
5A88
330
1F
100
AcDbEntity
  8
LOGO
 62
     6
100
AcDbLine
 10
744.1253483649908
 20
70.68362285301609
 30
0.0
 11
744.1253483649908
 21
63.35135135980348
 31
0.0
  0
LINE
  5
5A89
330
1F
100
AcDbEntity
  8
LOGO
 62
     6
100
AcDbLine
 10
774.4423211922946
 20
63.3513513598033
 30
0.0
 11
764.6714574097464
 21
63.3513513598033
 31
0.0
  0
LINE
  5
5A8A
330
1F
100
AcDbEntity
  8
LOGO
 62
     6
100
AcDbLine
 10
774.4423211922946
 20
70.68362285301609
 30
0.0
 11
764.6714574097464
 21
70.68362285301609
 31
0.0
  0
LINE
  5
5A8B
330
1F
100
AcDbEntity
  8
LOGO
 62
     6
100
AcDbLine
 10
764.8856661705914
 20
73.6831884638757
 30
0.0
 11
753.7816621165504
 21
73.6831884638757
 31
0.0
  0
LINE
  5
5A8C
330
1F
100
AcDbEntity
  8
LOGO
 62
     6
100
AcDbLine
 10
764.8856661705914
 20
79.68231968559525
 30
0.0
 11
753.7816621165504
 21
79.68231968559525
 31
0.0
  0
LINE
  5
5A8E
330
1F
100
AcDbEntity
  8
LOGO
  6
Continuous
 62
     7
100
AcDbLine
 10
749.8138996265002
 20
76.66150420386134
 30
0.0
 11
752.4628970754398
 21
76.66150420386134
 31
0.0
  0
LINE
  5
5A8F
330
1F
100
AcDbEntity
  8
LOGO
 62
     6
100
AcDbLine
 10
753.7816621165504
 20
79.68231968559525
 30
0.0
 11
753.7816621165504
 21
73.6831884638757
 31
0.0
  0
LINE
  5
5A90
330
1F
100
AcDbEntity
  8
LOGO
 62
     6
100
AcDbLine
 10
741.2696656129987
 20
79.68231968559525
 30
0.0
 11
741.2696656129987
 21
73.6831884638757
 31
0.0
  0
TEXT
  5
5A91
330
1F
100
AcDbEntity
  8
LOGO
  6
Continuous
 62
     7
100
AcDbText
 10
758.0482504040424
 20
74.97853399866004
 30
0.0
 40
3.33285067873303
  1
?
  7
CHINESET
 72
     1
 11
758.9211398675201
 21
76.64495933802655
 31
0.0
100
AcDbText
 73
     2
  0
LINE
  5
5A92
330
1F
100
AcDbEntity
  8
LOGO
 62
     6
100
AcDbLine
 10
764.8856661705914
 20
79.68231968559525
 30
0.0
 11
764.8856661705914
 21
73.6831884638757
 31
0.0
  0
TEXT
  5
5A93
330
1F
100
AcDbEntity
  8
LOGO
 62
     6
100
AcDbText
 10
638.0102315850777
 20
78.68344859142772
 30
131.0577257600498
 40
1.999710407239818
  1
比例 Scale:
 41
0.9
  7
CHINESET
 72
     4
 11
644.3602048559244
 21
79.68231968559525
 31
131.0577257600498
100
AcDbText
  0
TEXT
  5
5A94
330
1F
100
AcDbEntity
  8
LOGO
 62
     6
100
AcDbText
 10
638.7092374997512
 20
74.71117279600948
 30
131.0577257600498
 40
1.999710407239818
  1
投影 View:
 41
0.9
  7
CHINESET
 72
     4
 11
644.3602048559244
 21
75.68289887111546
 31
131.0577257600498
100
AcDbText
  0
TEXT
  5
5A95
330
1F
100
AcDbEntity
  8
LOGO
 62
     6
100
AcDbText
 10
638.9047449011733
 20
70.683622853016
 30
131.0577257600498
 40
1.999710407239818
  1
單位 Unit:
 41
0.9
  7
CHINESET
 72
     4
 11
644.3602048559244
 21
71.68347805663592
 31
131.0577257600498
100
AcDbText
  0
TEXT
  5
5A96
330
1F
100
AcDbEntity
  8
LOGO
  6
Continuous
 62
     6
100
AcDbText
 10
698.02027646027
 20
64.18456402948655
 30
131.0577257600498
 40
1.666425339366515
  1
Model
  7
CHINESET
 72
     4
 11
701.1944199638252
 21
65.01777669916982
 31
131.0577257600498
100
AcDbText
  0
TEXT
  5
5A97
330
1F
100
AcDbEntity
  8
LOGO
  6
Continuous
 62
     6
100
AcDbText
 10
714.7808250034131
 20
64.46230158604764
 30
131.0577257600498
 40
1.666425339366515
  1
Bearing type
  7
CHINESET
 72
     4
 11
722.597153380918
 21
65.01777669916982
 31
131.0577257600498
100
AcDbText
  0
TEXT
  5
5A98
330
1F
100
AcDbEntity
  8
LOGO
  6
Continuous
 62
     6
100
AcDbText
 10
735.7588856190308
 20
64.46230158604764
 30
131.0577257600498
 40
1.666425339366515
  1
3 Way
 41
0.8
  7
CHINESET
 72
     4
 11
738.7743219474083
 21
65.01777669916982
 31
131.0577257600498
100
AcDbText
  0
TEXT
  5
5A99
330
1F
100
AcDbEntity
  8
LOGO
 62
     6
100
AcDbText
 10
698.4725919095266
 20
67.05160290075889
 30
131.0577257600498
 40
2.666280542986424
  1
型號
  7
CHINESET
 72
     4
 11
701.1944199638252
 21
68.35062737790287
 31
131.0577257600498
100
AcDbText
  0
TEXT
  5
5A9A
330
1F
100
AcDbEntity
  8
LOGO
 62
     6
100
AcDbText
 10
717.236818539289
 20
67.10069902788326
 30
131.0577257600498
 40
2.666280542986424
  1
本體寬度
  7
CHINESET
 72
     4
 11
722.597153380918
 21
68.35062737790287
 31
131.0577257600498
100
AcDbText
  0
TEXT
  5
5A9B
330
1F
100
AcDbEntity
  8
LOGO
 62
     6
100
AcDbText
 10
735.3569596978931
 20
67.02667212796521
 30
131.0577257600498
 40
2.666280542986424
  1
3方向
 41
0.9
  7
CHINESET
 72
     4
 11
738.7743219474083
 21
68.35062737790287
 31
131.0577257600498
100
AcDbText
  0
TEXT
  5
5A9C
330
1F
100
AcDbEntity
  8
LOGO
  6
Continuous
 62
     6
100
AcDbText
 10
766.0335900120742
 20
64.46230158604764
 30
131.0577257600498
 40
1.666425339366515
  1
Voltage
 41
0.8
  7
CHINESET
 72
     4
 11
769.5568893010205
 21
65.01777669916982
 31
131.0577257600498
100
AcDbText
  0
TEXT
  5
5A9D
330
1F
100
AcDbEntity
  8
LOGO
 62
     6
100
AcDbText
 10
767.1322404322422
 20
67.04591693503402
 30
131.0577257600498
 40
2.666280542986424
  1
電壓
 41
0.9
  7
CHINESET
 72
     4
 11
769.5568893010205
 21
68.35062737790287
 31
131.0577257600498
100
AcDbText
  0
LWPOLYLINE
  5
5A9E
330
1F
100
AcDbEntity
  8
0
 62
     4
100
AcDbPolyline
 90
        4
 70
     1
 43
0.0
 10
621.6968202405398
 20
81.68203009283502
 10
874.8780488143212
 20
81.68203009283502
 10
874.8780488143212
 20
192.6662805423585
 10
621.6968202405398
 20
192.6662805423585
1001
GENIUS_GENREC_14
1002
{
1000
PYDIR
1011
621.6968202405398
1021
192.6662805423585
1031
0.0
1002
}
1002
{
1000
PXDIR
1011
874.8780488143212
1021
81.68203009283502
1031
0.0
1002
}
1002
{
1000
PORI
1011
621.6968202405398
1021
81.68203009283502
1031
0.0
1002
}
1002
{
1000
PINS
1011
621.6968202405398
1021
81.68203009283502
1031
0.0
1002
}
1002
{
1000
PINS2
1011
874.8780488143212
1021
192.6662805423585
1031
0.0
1002
}
1002
{
1000
C
1070
     1
1002
}
1001
GENIUS_GENODEF_13
1002
{
1000
HIER
1070
     0
1002
}
1002
{
1000
MANEDIT
1070
     0
1002
}
1002
{
1000
NOSEL
1070
     0
1002
}
1002
{
1000
BEHIND
1070
     0
1002
}
1002
{
1000
OTHER
1070
     0
1002
}
1002
{
1000
REACTOR
1002
}
1001
GENIUS_GENOBJ-N-REC_13
1002
{
1000
OWNER
1000
GEN
1002
}
  0
SOLID
  5
5A9F
330
1F
100
AcDbEntity
  8
LOGO
 62
     5
100
AcDbTrace
 10
623.7715518809622
 20
73.00800156506972
 30
0.0
 11
624.6361741886516
 21
73.00800156506937
 31
0.0
 12
628.2437362310801
 22
81.20700620695229
 32
0.0
 13
629.1083585387695
 23
81.20700620695163
 33
0.0
  0
SOLID
  5
5AA0
330
1F
100
AcDbEntity
  8
LOGO
 62
     5
100
AcDbTrace
 10
624.9939489366616
 20
73.00800156506972
 30
0.0
 11
625.8585712443508
 21
73.00800156506972
 31
0.0
 12
629.1083585387695
 22
80.55108583560127
 32
0.0
 13
628.2437362310801
 23
77.38080404073992
 33
0.0
  0
SOLID
  5
5AA1
330
1F
100
AcDbEntity
  8
LOGO
 62
     2
100
AcDbTrace
 10
624.6361741886516
 20
73.00800156506937
 30
0.0
 11
624.9939489366616
 21
73.00800156506972
 31
0.0
 12
629.1083585387695
 22
81.20700620695163
 32
0.0
 13
629.4661332867791
 23
81.20700620695163
 33
0.0
  0
SOLID
  5
5AA2
330
1F
100
AcDbEntity
  8
LOGO
 62
     5
100
AcDbTrace
 10
622.3853502903739
 20
70.02654533165821
 30
0.0
 11
622.6834959137155
 21
70.02654533165821
 31
0.0
 12
623.5230971948448
 22
71.51727344836371
 32
0.0
 13
623.8212428181858
 23
71.51727344836371
 33
0.0
  0
SOLID
  5
5AA3
330
1F
100
AcDbEntity
  8
LOGO
 62
     5
100
AcDbTrace
 10
623.5230971948448
 20
71.51727344836371
 30
0.0
 11
623.8212428181858
 21
71.51727344836371
 31
0.0
 12
623.5230971948448
 22
70.02654533165821
 32
0.0
 13
623.8212428181858
 23
70.02654533165821
 33
0.0
  0
SOLID
  5
5AA4
330
1F
100
AcDbEntity
  8
LOGO
 62
     5
100
AcDbTrace
 10
623.5230971948448
 20
70.02654533165821
 30
0.0
 11
623.8212428181858
 21
70.02654533165821
 31
0.0
 12
624.6608440993161
 22
71.51727344836371
 32
0.0
 13
624.9589897226569
 23
71.51727344836371
 33
0.0
  0
SOLID
  5
5AA5
330
1F
100
AcDbEntity
  8
LOGO
 62
     5
100
AcDbTrace
 10
624.6608440993161
 20
71.51727344836371
 30
0.0
 11
624.9589897226569
 21
71.51727344836371
 31
0.0
 12
624.6608440993161
 22
70.02654533165821
 32
0.0
 13
624.9589897226569
 23
70.02654533165821
 33
0.0
  0
POLYLINE
  5
5AA6
330
1F
100
AcDbEntity
  8
LOGO
 62
     5
100
AcDb2dPolyline
 66
     1
 10
0.0
 20
0.0
 30
0.0
 40
0.2986234208144796
 41
0.2986234208144796
  0
VERTEX
  5
5AA7
330
5AA6
100
AcDbEntity
  8
LOGO
 62
     5
100
AcDbVertex
100
AcDb2dVertex
 10
634.6545838291257
 20
70.92098220168137
 30
0.0
 42
1.0
  0
VERTEX
  5
5AA8
330
5AA6
100
AcDbEntity
  8
LOGO
 62
     5
100
AcDbVertex
100
AcDb2dVertex
 10
633.758713566682
 20
70.92098220168137
 30
0.0
 42
1.0
  0
SEQEND
  5
5AA9
330
5AA6
100
AcDbEntity
  8
LOGO
 62
     5
  0
POLYLINE
  5
5AAA
330
1F
100
AcDbEntity
  8
LOGO
 62
     5
100
AcDb2dPolyline
 66
     1
 10
0.0
 20
0.0
 30
0.0
 70
     1
  0
VERTEX
  5
5AAB
330
5AAA
100
AcDbEntity
  8
LOGO
 62
     5
100
AcDbVertex
100
AcDb2dVertex
 10
632.0699582736665
 20
70.77190939001088
 30
0.0
 42
1.000000057330635
  0
VERTEX
  5
5AAC
330
5AAA
100
AcDbEntity
  8
LOGO
 62
     5
100
AcDbVertex
100
AcDb2dVertex
 10
632.9643951436902
 20
70.77190939001088
 30
0.0
 42
1.000000057330635
  0
SEQEND
  5
5AAD
330
5AAA
100
AcDbEntity
  8
LOGO
 62
     5
  0
CIRCLE
  5
5AAE
330
1F
100
AcDbEntity
  8
LOGO
 62
     5
100
AcDbCircle
 10
632.5171767086786
 20
70.77190939001088
 30
0.0
 40
0.4472184350117648
  0
POLYLINE
  5
5AAF
330
1F
100
AcDbEntity
  8
LOGO
 62
     5
100
AcDb2dPolyline
 66
     1
 10
0.0
 20
0.0
 30
0.0
 70
     1
 40
0.2986234208144796
 41
0.2986234208144796
  0
VERTEX
  5
5AB0
330
5AAF
100
AcDbEntity
  8
LOGO
 62
     5
100
AcDbVertex
100
AcDb2dVertex
 10
631.9199298670493
 20
70.77190939001088
 30
0.0
 42
1.0
  0
VERTEX
  5
5AB1
330
5AAF
100
AcDbEntity
  8
LOGO
 62
     5
100
AcDbVertex
100
AcDb2dVertex
 10
633.1144235503074
 20
70.77190939001088
 30
0.0
 42
1.0
  0
SEQEND
  5
5AB2
330
5AAF
100
AcDbEntity
  8
LOGO
 62
     5
  0
LINE
  5
5AB3
330
1F
100
AcDbEntity
  8
LOGO
 62
     5
100
AcDbLine
 10
634.8029399445859
 20
70.02654533165821
 30
0.0
 11
634.8029399445859
 21
70.92098220168137
 31
0.0
  0
SOLID
  5
5AB4
330
1F
100
AcDbEntity
  8
LOGO
 62
     5
100
AcDbTrace
 10
632.9643653291285
 20
71.51727344836371
 30
0.0
 11
633.2625109524693
 21
71.51727344836371
 31
0.0
 12
632.9643653291285
 22
70.02654533165821
 32
0.0
 13
633.2625109524693
 23
70.02654533165821
 33
0.0
  0
SOLID
  5
5AB5
330
1F
100
AcDbEntity
  8
LOGO
 62
     5
100
AcDbTrace
 10
633.6103574512211
 20
70.02654533165821
 30
0.0
 11
633.9085030745626
 21
70.02654533165821
 31
0.0
 12
633.6103574512211
 22
71.51727344836371
 32
0.0
 13
633.9085030745626
 23
71.51727344836371
 33
0.0
  0
SOLID
  5
5AB6
330
1F
100
AcDbEntity
  8
LOGO
 62
     5
100
AcDbTrace
 10
634.504794321245
 20
70.92098220168137
 30
0.0
 11
634.8029399445859
 21
70.92098220168137
 31
0.0
 12
634.504794321245
 22
70.02654533165821
 32
0.0
 13
634.8029399445859
 23
70.02654533165821
 33
0.0
  0
SOLID
  5
5AB7
330
1F
100
AcDbEntity
  8
LOGO
 62
     5
100
AcDbTrace
 10
633.580542888887
 20
80.55108583560127
 30
0.0
 11
632.7159205811977
 21
77.38080404073992
 31
0.0
 12
633.580542888887
 22
73.00800156506937
 32
0.0
 13
632.7159205811977
 23
73.00800156506937
 33
0.0
  0
SOLID
  5
5AB8
330
1F
100
AcDbEntity
  8
LOGO
 62
     5
100
AcDbTrace
 10
633.9383176368967
 20
73.00800156506937
 30
0.0
 11
634.8029399445859
 21
73.00800156506937
 31
0.0
 12
633.9383176368967
 22
81.20700620695163
 32
0.0
 13
634.8029399445859
 23
81.20700620695229
 33
0.0
  0
SOLID
  5
5AB9
330
1F
100
AcDbEntity
  8
LOGO
 62
     2
100
AcDbTrace
 10
633.580542888887
 20
81.20700620695229
 30
0.0
 11
633.9383176368967
 21
81.20700620695163
 31
0.0
 12
633.580542888887
 22
73.00800156506937
 32
0.0
 13
633.9383176368967
 23
73.00800156506937
 33
0.0
  0
POLYLINE
  5
5ABA
330
1F
100
AcDbEntity
  8
LOGO
 62
     5
100
AcDb2dPolyline
 66
     1
 10
0.0
 20
0.0
 30
0.0
 40
0.2986234208144796
 41
0.2986234208144796
  0
VERTEX
  5
5ABB
330
5ABA
100
AcDbEntity
  8
LOGO
 62
     5
100
AcDbVertex
100
AcDb2dVertex
 10
630.3811433515271
 20
70.92098220168137
 30
0.0
 42
1.0
  0
VERTEX
  5
5ABC
330
5ABA
100
AcDbEntity
  8
LOGO
 62
     5
100
AcDbVertex
100
AcDb2dVertex
 10
629.4852730890835
 20
70.92098220168137
 30
0.0
 42
1.0
  0
SEQEND
  5
5ABD
330
5ABA
100
AcDbEntity
  8
LOGO
 62
     5
  0
POLYLINE
  5
5ABE
330
1F
100
AcDbEntity
  8
LOGO
 62
     5
100
AcDb2dPolyline
 66
     1
 10
0.0
 20
0.0
 30
0.0
 40
0.2986234208144796
 41
0.2986234208144796
  0
VERTEX
  5
5ABF
330
5ABE
100
AcDbEntity
  8
LOGO
 62
     5
100
AcDbVertex
100
AcDb2dVertex
 10
631.2755802215503
 20
70.92098220168137
 30
0.0
 42
1.0
  0
VERTEX
  5
5AC0
330
5ABE
100
AcDbEntity
  8
LOGO
 62
     5
100
AcDbVertex
100
AcDb2dVertex
 10
630.3797099591068
 20
70.92098220168137
 30
0.0
 42
1.0
  0
SEQEND
  5
5AC1
330
5ABE
100
AcDbEntity
  8
LOGO
 62
     5
  0
POLYLINE
  5
5AC2
330
1F
100
AcDbEntity
  8
LOGO
 62
     5
100
AcDb2dPolyline
 66
     1
 10
0.0
 20
0.0
 30
0.0
 40
0.2986234208144796
 41
0.2986234208144796
  0
VERTEX
  5
5AC3
330
5AC2
100
AcDbEntity
  8
LOGO
 62
     5
100
AcDbVertex
100
AcDb2dVertex
 10
627.0021397439519
 20
70.92098220168137
 30
0.0
 42
1.0
  0
VERTEX
  5
5AC4
330
5AC2
100
AcDbEntity
  8
LOGO
 62
     5
100
AcDbVertex
100
AcDb2dVertex
 10
626.1062694815085
 20
70.92098220168137
 30
0.0
 42
1.0
  0
SEQEND
  5
5AC5
330
5AC2
100
AcDbEntity
  8
LOGO
 62
     5
  0
SOLID
  5
5AC6
330
1F
100
AcDbEntity
  8
LOGO
 62
     5
100
AcDbTrace
 10
625.9579133660483
 20
71.51727344836371
 30
0.0
 11
626.256058989389
 21
71.51727344836371
 31
0.0
 12
625.9579133660483
 22
70.02654533165821
 32
0.0
 13
626.256058989389
 23
70.02654533165821
 33
0.0
  0
SOLID
  5
5AC7
330
1F
100
AcDbEntity
  8
LOGO
 62
     5
100
AcDbTrace
 10
626.8523502360714
 20
70.92098220168137
 30
0.0
 11
627.1504958594128
 21
70.92098220168137
 31
0.0
 12
626.8523502360714
 22
70.02654533165821
 32
0.0
 13
627.1504958594128
 23
70.02654533165821
 33
0.0
  0
POLYLINE
  5
5AC8
330
1F
100
AcDbEntity
  8
LOGO
 62
     5
100
AcDb2dPolyline
 66
     1
 10
0.0
 20
0.0
 30
0.0
 70
     1
 40
0.2986234208144796
 41
0.2986234208144796
  0
VERTEX
  5
5AC9
330
5AC8
100
AcDbEntity
  8
LOGO
 62
     5
100
AcDbVertex
100
AcDb2dVertex
 10
627.6464893894508
 20
70.77190939001088
 30
0.0
 42
1.0
  0
VERTEX
  5
5ACA
330
5AC8
100
AcDbEntity
  8
LOGO
 62
     5
100
AcDbVertex
100
AcDb2dVertex
 10
628.8409830727088
 20
70.77190939001088
 30
0.0
 42
1.0
  0
SEQEND
  5
5ACB
330
5AC8
100
AcDbEntity
  8
LOGO
 62
     5
  0
SOLID
  5
5ACC
330
1F
100
AcDbEntity
  8
LOGO
 62
     5
100
AcDbTrace
 10
628.6909248515298
 20
71.96449188337573
 30
0.0
 11
628.9890704748707
 21
71.96449188337573
 31
0.0
 12
628.6909248515298
 22
70.02654533165821
 32
0.0
 13
628.9890704748707
 23
70.02654533165821
 33
0.0
  0
SOLID
  5
5ACD
330
1F
100
AcDbEntity
  8
LOGO
 62
     5
100
AcDbTrace
 10
629.3369169736232
 20
71.51727344836371
 30
0.0
 11
629.6350625969643
 21
71.51727344836371
 31
0.0
 12
629.3369169736232
 22
70.02654533165821
 32
0.0
 13
629.6350625969643
 23
70.02654533165821
 33
0.0
  0
SOLID
  5
5ACE
330
1F
100
AcDbEntity
  8
LOGO
 62
     5
100
AcDbTrace
 10
630.2313538436465
 20
70.92098220168137
 30
0.0
 11
630.5294994669877
 21
70.92098220168137
 31
0.0
 12
630.2313538436465
 22
70.02654533165821
 32
0.0
 13
630.5294994669877
 23
70.02654533165821
 33
0.0
  0
SOLID
  5
5ACF
330
1F
100
AcDbEntity
  8
LOGO
 62
     5
100
AcDbTrace
 10
631.1257907136699
 20
70.92098220168137
 30
0.0
 11
631.4239363370107
 21
70.92098220168137
 31
0.0
 12
631.1257907136699
 22
70.02654533165753
 32
0.0
 13
631.4239363370107
 23
70.02654533165753
 33
0.0
  0
SOLID
  5
5AD0
330
1F
100
AcDbEntity
  8
LOGO
 62
     5
100
AcDbTrace
 10
625.3119212439545
 20
71.72597538470239
 30
0.0
 11
625.6100668672964
 21
71.72597538470239
 31
0.0
 12
625.3119212439545
 22
71.96449188337573
 32
0.0
 13
625.6100668672964
 23
71.96449188337573
 33
0.0
  0
SOLID
  5
5AD1
330
1F
100
AcDbEntity
  8
LOGO
 62
     5
100
AcDbTrace
 10
625.3119212439545
 20
71.51727344836371
 30
0.0
 11
625.6100668672964
 21
71.51727344836371
 31
0.0
 12
625.3119212439545
 22
70.02654533165753
 32
0.0
 13
625.6100668672964
 23
70.02654533165821
 33
0.0
  0
SOLID
  5
5AD2
330
1F
100
AcDbEntity
  8
LOGO
 62
     5
100
AcDbTrace
 10
628.2437362310801
 20
73.00800156506972
 30
0.0
 11
629.1083585387695
 21
73.00800156506972
 31
0.0
 12
628.2437362310801
 22
77.38080404073992
 32
0.0
 13
629.1083585387695
 23
80.55108583560127
 33
0.0
  0
SOLID
  5
5AD3
330
1F
100
AcDbEntity
  8
LOGO
 62
     5
100
AcDbTrace
 10
629.4661332867791
 20
81.20700620695163
 30
0.0
 11
630.3307555944685
 21
81.20700620695229
 31
0.0
 12
629.4661332867791
 22
73.66392193642008
 32
0.0
 13
630.3307555944685
 23
76.83420373128143
 33
0.0
  0
SOLID
  5
5AD4
330
1F
100
AcDbEntity
  8
LOGO
 62
     2
100
AcDbTrace
 10
629.1083585387695
 20
81.20700620695163
 30
0.0
 11
629.4661332867791
 21
81.20700620695163
 31
0.0
 12
629.1083585387695
 22
73.00800156506972
 32
0.0
 13
629.4661332867791
 23
73.00800156506972
 33
0.0
  0
SOLID
  5
5AD5
330
1F
100
AcDbEntity
  8
LOGO
 62
     5
100
AcDbTrace
 10
629.4661332867791
 20
73.66392193642008
 30
0.0
 11
630.3307555944685
 21
76.83420373128143
 31
0.0
 12
633.580542888887
 22
81.20700620695229
 32
0.0
 13
632.7159205811977
 23
81.20700620695229
 33
0.0
  0
SOLID
  5
5AD6
330
1F
100
AcDbEntity
  8
LOGO
 62
     5
100
AcDbTrace
 10
629.4661332867791
 20
73.00800156506972
 30
0.0
 11
630.3307555944685
 21
73.00800156506972
 31
0.0
 12
633.580542888887
 22
80.55108583560127
 32
0.0
 13
632.7159205811977
 23
77.38080404073992
 33
0.0
  0
SOLID
  5
5AD7
330
1F
100
AcDbEntity
  8
LOGO
 62
     2
100
AcDbTrace
 10
629.1083585387695
 20
73.00800156506972
 30
0.0
 11
629.4661332867791
 21
73.00800156506972
 31
0.0
 12
633.580542888887
 22
81.20700620695229
 32
0.0
 13
633.9383176368967
 23
81.20700620695163
 33
0.0
  0
TEXT
  5
5AD8
330
1F
100
AcDbEntity
  8
0
100
AcDbText
 10
666.9576925143513
 20
62.74876406435783
 30
0.0
 40
1.667489999999999
  1
1051116
 41
0.8
  7
CHINESET
 72
     1
 11
670.6738130857798
 21
62.74876406435783
 31
0.0
100
AcDbText
  0
LINE
  5
5AD9
330
1F
100
AcDbEntity
  8
LOGO
 62
     1
100
AcDbLine
 10
675.8187079533589
 20
65.68434683491654
 30
0.0
 11
675.8187079533591
 21
61.68492602043679
 31
0.0
  0
LINE
  5
5ADA
330
1F
100
AcDbEntity
  8
LOGO
 62
     1
100
AcDbLine
 10
675.8187079533589
 20
65.68434683491654
 30
0.0
 11
665.6904491998158
 21
65.68434683491654
 31
0.0
  0
LWPOLYLINE
  5
5ADB
330
1F
100
AcDbEntity
  8
0
 62
     1
100
AcDbPolyline
 90
        4
 70
     1
 43
0.0
 10
621.6968202405398
 20
81.68203009283502
 10
874.8780488143212
 20
81.68203009283502
 10
874.8780488143212
 20
61.68492602043681
 10
621.6968202405398
 20
61.68492602043681
1001
GENIUS_GENREC_14
1002
{
1000
PYDIR
1011
621.6968202405398
1021
61.68492602043679
1031
0.0
1002
}
1002
{
1000
PXDIR
1011
874.8780488143212
1021
81.68203009283502
1031
0.0
1002
}
1002
{
1000
PORI
1011
621.6968202405398
1021
81.68203009283502
1031
0.0
1002
}
1002
{
1000
PINS
1011
621.6968202405398
1021
81.68203009283502
1031
0.0
1002
}
1002
{
1000
PINS2
1011
874.8780488143212
1021
61.68492602043681
1031
0.0
1002
}
1002
{
1000
C
1070
     1
1002
}
1001
GENIUS_GENOBJ-N-REC_13
1002
{
1000
OWNER
1000
GEN
1002
}
1001
GENIUS_GENODEF_13
1002
{
1000
HIER
1070
     0
1002
}
1002
{
1000
MANEDIT
1070
     0
1002
}
1002
{
1000
NOSEL
1070
     0
1002
}
1002
{
1000
BEHIND
1070
     0
1002
}
1002
{
1000
OTHER
1070
     0
1002
}
1002
{
1000
REACTOR
1002
}
  0
LINE
  5
5ADD
330
1F
100
AcDbEntity
  8
0
 62
     4
100
AcDbLine
 10
721.3438766597951
 20
192.6662805423585
 30
0.0
 11
721.3438766597951
 21
81.68203009283502
 31
0.0
  0
LINE
  5
5B91
330
1F
100
AcDbEntity
  8
LOGO
 62
     6
100
AcDbLine
 10
748.7585932343858
 20
79.68231968559525
 30
0.0
 11
742.1263760546677
 21
79.68231968559525
 31
0.0
  0
LINE
  5
5B92
330
1F
100
AcDbEntity
  8
LOGO
 62
     6
100
AcDbLine
 10
763.0789421083867
 20
70.68362285301609
 30
0.0
 11
745.4574133847344
 21
70.68362285301609
 31
0.0
  0
LINE
  5
5B93
330
1F
100
AcDbEntity
  8
LOGO
 62
     6
100
AcDbLine
 10
748.7585932343858
 20
73.6831884638757
 30
0.0
 11
742.1263760546677
 21
73.6831884638757
 31
0.0
  0
LINE
  5
5B94
330
1F
100
AcDbEntity
  8
LOGO
 62
     6
100
AcDbLine
 10
763.0789421083867
 20
63.35135135980348
 30
0.0
 11
745.4574133847344
 21
63.3513513598033
 31
0.0
  0
LINE
  5
5B95
330
1F
100
AcDbEntity
  8
LOGO
 62
     6
100
AcDbLine
 10
745.4574133847344
 20
70.68362285301609
 30
0.0
 11
745.4574133847344
 21
63.35135135980348
 31
0.0
  0
TEXT
  5
5B96
330
1F
100
AcDbEntity
  8
LOGO
  6
Continuous
 62
     7
100
AcDbText
 10
743.4420814511741
 20
74.97853399866004
 30
0.0
 40
3.33285067873303
  1
E1
  7
CHINESET
 72
     1
 11
745.3465675533074
 21
76.64495933802655
 31
0.0
100
AcDbText
 73
     2
  0
LINE
  5
5B97
330
1F
100
AcDbEntity
  8
LOGO
 62
     6
100
AcDbLine
 10
754.1823988586626
 20
72.18340565844591
 30
0.0
 11
754.1823988586626
 21
70.68362285301609
 31
0.0
  0
LINE
  5
5B98
330
1F
100
AcDbEntity
  8
LOGO
 62
     6
100
AcDbLine
 10
742.1263760546677
 20
79.68231968559525
 30
0.0
 11
742.1263760546677
 21
73.6831884638757
 31
0.0
  0
LINE
  5
5B99
330
1F
100
AcDbEntity
  8
LOGO
 62
     6
100
AcDbLine
 10
763.0789421083867
 20
70.68362285301609
 30
0.0
 11
763.0789421083867
 21
63.35135135980348
 31
0.0
  0
LINE
  5
5B9A
330
1F
100
AcDbEntity
  8
LOGO
 62
     6
100
AcDbLine
 10
748.7585932343858
 20
79.68231968559525
 30
0.0
 11
748.7585932343858
 21
73.6831884638757
 31
0.0
  0
TEXT
  5
5B9B
330
1F
100
AcDbEntity
  8
LOGO
  6
Continuous
 62
     6
100
AcDbText
 10
746.8501275191504
 20
64.46230158604764
 30
131.0577257600498
 40
1.666425339366515
  1
Single solenoid
 41
0.8
  7
CHINESET
 72
     4
 11
754.1823990123631
 21
65.01777669916982
 31
131.0577257600498
100
AcDbText
  0
TEXT
  5
5B9C
330
1F
100
AcDbEntity
  8
LOGO
 62
     6
100
AcDbText
 10
750.6329130395124
 20
67.01748710640966
 30
131.0577257600498
 40
2.666280542986424
  1
單線圈
 41
0.9
  7
CHINESET
 72
     4
 11
754.1823990123631
 21
68.35062737790287
 31
131.0577257600498
100
AcDbText
  0
LINE
  5
5B9F
330
1F
100
AcDbEntity
  8
LOGO
 62
     6
100
AcDbLine
 10
745.4424846445268
 20
73.6831884638757
 30
0.0
 11
745.4424846445266
 21
72.18340565844589
 31
0.0
  0
LINE
  5
5BA0
330
1F
100
AcDbEntity
  8
LOGO
 62
     6
100
AcDbLine
 10
754.1823988586626
 20
72.18340565844589
 30
0.0
 11
745.4424846445266
 21
72.18340565844589
 31
0.0
  0
LINE
  5
5BA1
330
1F
100
AcDbEntity
  8
LOGO
 62
     6
100
AcDbLine
 10
769.5568893010205
 20
72.18340565844591
 30
0.0
 11
769.5568893010205
 21
70.68362285301609
 31
0.0
  0
LINE
  5
5BA2
330
1F
100
AcDbEntity
  8
LOGO
 62
     6
100
AcDbLine
 10
759.3336641435708
 20
73.6831884638757
 30
0.0
 11
759.3336641435707
 21
72.18340565844589
 31
0.0
  0
LINE
  5
5BA3
330
1F
100
AcDbEntity
  8
LOGO
 62
     6
100
AcDbLine
 10
769.5568893010205
 20
72.18340565844589
 30
0.0
 11
759.3336641435707
 21
72.18340565844589
 31
0.0
  0
TEXT
  5
5BAF
330
1F
100
AcDbEntity
  8
0
100
AcDbText
 10
726.9017602978744
 20
183.9889171915187
 30
0.0
 40
3.5
  1
Base type
100
AcDbText
  0
LINE
  5
5C9C
330
1F
100
AcDbEntity
  8
AM_5
100
AcDbLine
 10
656.1112139285005
 20
175.9883493500666
 30
0.0
 11
676.9030627605693
 21
175.9883493500666
 31
0.0
  0
LINE
  5
5C9D
330
1F
100
AcDbEntity
  8
AM_5
100
AcDbLine
 10
676.9030627605693
 20
175.9883493500666
 30
0.0
 11
679.8531933040456
 21
169.6929161895354
 31
0.0
  0
TRACE
  5
5C9E
330
1F
100
AcDbEntity
  8
AM_5
100
AcDbTrace
 10
679.4359508064847
 20
169.4973903528371
 30
0.0
 11
680.2704358016068
 21
169.8884420262338
 31
0.0
 12
681.3383594889176
 22
166.5236447585417
 32
0.0
 13
681.3383594889176
 23
166.5236447585417
 33
0.0
  0
MTEXT
  5
5C9F
330
1F
100
AcDbEntity
  8
AM_5
 62
     2
100
AcDbMText
 10
656.1112139285005
 20
177.7383493500666
 30
0.0
 40
3.5
 41
0.0
 71
     9
 72
     5
  1

  7
ACISOTS
 73
     1
 44
1.0
1001
ACAD
1000
MTEXTBEGIN
1070
    73
1070
     1
1070
    44
1040
1.0
1070
    74
1070
     0
1000
MTEXTEND
  0
ENDSEC
  0
SECTION
  2
OBJECTS
  0
DICTIONARY
  5
C
330
0
100
AcDbDictionary
281
     1
  3
ACAD_COLOR
350
672
  3
ACAD_GROUP
350
D
  3
ACAD_LAYOUT
350
1A
  3
ACAD_MATERIAL
350
671
  3
ACAD_MLINESTYLE
350
17
  3
ACAD_PLOTSETTINGS
350
19
  3
ACAD_PLOTSTYLENAME
350
E
  3
ACAD_TABLESTYLE
350
673
  3
ACDBHEADERROUNDTRIPXREC
350
5CBF
  3
AcDbVariableDictionary
350
82
  3
AcmDictionary
350
45
  3
AMG
350
2B
  3
AMGSNAPSETTINGS
350
87
  3
DWGPROPS
350
5CBE
  0
DICTIONARY
  5
A9F
330
2
100
AcDbDictionary
280
     1
281
     1
  3
ACAD_LAYERFILTERS
360
5BAD
  3
ACAD_LAYERSTATES
360
AA0
  3
ACLYDICTIONARY
360
5BAC
  0
DICTIONARY
  5
7D
330
1F
100
AcDbDictionary
280
     1
281
     1
  3
ACAD_SORTENTS
360
5CA0
  0
DICTIONARY
  5
1CEC
330
1CDF
100
AcDbDictionary
280
     1
281
     1
  3
ACAD_DIMASSOC
360
1CED
  0
DICTIONARY
  5
1D12
330
1D05
100
AcDbDictionary
280
     1
281
     1
  3
ACAD_DIMASSOC
360
1D13
  0
DICTIONARY
  5
1D38
330
1D2B
100
AcDbDictionary
280
     1
281
     1
  3
ACAD_DIMASSOC
360
1D39
  0
DICTIONARY
  5
1D5E
330
1D51
100
AcDbDictionary
280
     1
281
     1
  3
ACAD_DIMASSOC
360
1D5F
  0
DICTIONARY
  5
1D8F
330
1D80
100
AcDbDictionary
280
     1
281
     1
  3
ACAD_DIMASSOC
360
1D90
  0
DICTIONARY
  5
1DB9
330
1DAA
100
AcDbDictionary
280
     1
281
     1
  3
ACAD_DIMASSOC
360
1DBA
  0
DICTIONARY
  5
1DE3
330
1DD4
100
AcDbDictionary
280
     1
281
     1
  3
ACAD_DIMASSOC
360
1DE4
  0
DICTIONARY
  5
1E0B
330
1DFE
100
AcDbDictionary
280
     1
281
     1
  3
ACAD_DIMASSOC
360
1E0C
  0
DICTIONARY
  5
1E33
330
1E24
100
AcDbDictionary
280
     1
281
     1
  3
ACAD_DIMASSOC
360
1E34
  0
DICTIONARY
  5
1E5B
330
1E4E
100
AcDbDictionary
280
     1
281
     1
  3
ACAD_DIMASSOC
360
1E5C
  0
DICTIONARY
  5
1E83
330
1E74
100
AcDbDictionary
280
     1
281
     1
  3
ACAD_DIMASSOC
360
1E84
  0
DICTIONARY
  5
1EAB
330
1E9E
100
AcDbDictionary
280
     1
281
     1
  3
ACAD_DIMASSOC
360
1EAC
  0
DICTIONARY
  5
1ED1
330
1EC4
100
AcDbDictionary
280
     1
281
     1
  3
ACAD_DIMASSOC
360
1ED2
  0
DICTIONARY
  5
1EF7
330
1EEA
100
AcDbDictionary
280
     1
281
     1
  3
ACAD_DIMASSOC
360
1EF8
  0
DICTIONARY
  5
4496
330
4489
100
AcDbDictionary
280
     1
281
     1
  3
ACAD_DIMASSOC
360
4497
  0
DICTIONARY
  5
44BC
330
44AF
100
AcDbDictionary
280
     1
281
     1
  3
ACAD_DIMASSOC
360
44BD
  0
DICTIONARY
  5
453C
330
452F
100
AcDbDictionary
280
     1
281
     1
  3
ACAD_DIMASSOC
360
453D
  0
DICTIONARY
  5
4562
330
4555
100
AcDbDictionary
280
     1
281
     1
  3
ACAD_DIMASSOC
360
4563
  0
DICTIONARY
  5
53B2
330
53A5
100
AcDbDictionary
280
     1
281
     1
  3
ACAD_DIMASSOC
360
53B3
  0
DICTIONARY
  5
5400
330
53F3
100
AcDbDictionary
280
     1
281
     1
  3
ACAD_DIMASSOC
360
5401
  0
DICTIONARY
  5
5517
330
5508
100
AcDbDictionary
280
     1
281
     1
  3
ACAD_DIMASSOC
360
5518
  0
DICTIONARY
  5
554F
330
5540
100
AcDbDictionary
280
     1
281
     1
  3
ACAD_DIMASSOC
360
5550
  0
DICTIONARY
  5
5598
330
5589
100
AcDbDictionary
280
     1
281
     1
  3
ACAD_DIMASSOC
360
5599
  0
DICTIONARY
  5
672
102
{ACAD_REACTORS
330
C
102
}
330
C
100
AcDbDictionary
281
     1
  0
DICTIONARY
  5
D
102
{ACAD_REACTORS
330
C
102
}
330
C
100
AcDbDictionary
281
     1
  0
DICTIONARY
  5
1A
102
{ACAD_REACTORS
330
C
102
}
330
C
100
AcDbDictionary
281
     1
  3
Layout1
350
1E
  3
Layout2
350
26
  3
Model
350
22
  0
DICTIONARY
  5
671
102
{ACAD_REACTORS
330
C
102
}
330
C
100
AcDbDictionary
281
     1
  0
DICTIONARY
  5
17
102
{ACAD_REACTORS
330
C
102
}
330
C
100
AcDbDictionary
281
     1
  3
Standard
350
18
  0
DICTIONARY
  5
19
102
{ACAD_REACTORS
330
C
102
}
330
C
100
AcDbDictionary
281
     1
  0
ACDBDICTIONARYWDFLT
  5
E
102
{ACAD_REACTORS
330
C
102
}
330
C
100
AcDbDictionary
281
     1
  3
Normal
350
F
100
AcDbDictionaryWithDefault
340
F
  0
DICTIONARY
  5
673
102
{ACAD_REACTORS
330
C
102
}
330
C
100
AcDbDictionary
281
     1
  3
Standard
350
674
  0
DICTIONARY
  5
5CBF
102
{ACAD_REACTORS
330
C
102
}
330
C
100
AcDbDictionary
281
     1
  0
DICTIONARY
  5
82
102
{ACAD_REACTORS
330
C
102
}
330
C
100
AcDbDictionary
281
     1
  3
CTABLESTYLE
350
6E6
  3
DIMASSOC
350
85
  3
HIDETEXT
350
84
  3
INDEXCTL
350
83
  3
PROJECTNAME
350
6E7
  0
DICTIONARY
  5
45
102
{ACAD_REACTORS
330
C
102
}
330
C
100
AcDbDictionary
281
     1
  3
AcmStdDictionary
350
4A
  3
AMDTSECTSYM_ARROWCOLOR
350
67F
  0
DICTIONARY
  5
2B
102
{ACAD_REACTORS
330
C
102
}
330
C
100
AcDbDictionary
281
     1
  0
DICTIONARY
  5
87
102
{ACAD_REACTORS
330
C
102
}
330
C
100
AcDbDictionary
281
     1
  0
XRECORD
  5
5CBE
102
{ACAD_REACTORS
330
C
102
}
330
C
100
AcDbXrecord
280
     1
  1
DWGPROPS COOKIE
  2

  3

  4

  6

  7

  8

  9

300
AmdtFileType=84
301
=
302
=
303
=
304
=
305
=
306
=
307
=
308
=
309
=
 40
0.7836822800925926
 41
2453021.369367211
 42
2453726.361529757
  1

 90
        1
  0
DICTIONARY
  5
5BAD
102
{ACAD_REACTORS
330
A9F
102
}
330
A9F
100
AcDbDictionary
281
     1
  0
DICTIONARY
  5
AA0
102
{ACAD_REACTORS
330
A9F
102
}
330
A9F
100
AcDbDictionary
281
     1
  0
DICTIONARY
  5
5BAC
102
{ACAD_REACTORS
330
A9F
102
}
330
A9F
100
AcDbDictionary
281
     1
1001
ACAD
1000
<All
  0
SORTENTSTABLE
  5
5CA0
102
{ACAD_REACTORS
330
7D
102
}
330
7D
100
AcDbSortentsTable
330
1F
331
F40
  5
F40
331
1229
  5
1229
331
EB0
  5
EB0
331
124B
  5
124B
331
113A
  5
113A
331
5A55
  5
5A55
331
126D
  5
126D
331
115C
  5
115C
331
54F6
  5
54F6
331
5A77
  5
5A77
331
1287
  5
1287
331
5540
  5
5540
331
1198
  5
1198
331
5A99
  5
5A99
331
ED1
  5
ED1
331
11BA
  5
11BA
331
EF3
  5
EF3
331
1E74
  5
1E74
331
11DC
  5
11DC
331
E5B
  5
E5B
331
E41
  5
E41
331
E1F
  5
E1F
331
DFD
  5
DFD
331
DDB
  5
DDB
331
DC1
  5
DC1
331
5AD5
  5
5AD5
331
F15
  5
F15
331
11FE
  5
11FE
331
E7D
  5
E7D
331
1C7F
  5
1C7F
331
1218
  5
1218
331
E9F
  5
E9F
331
1129
  5
1129
331
123A
  5
123A
331
EC1
  5
EC1
331
451C
  5
451C
331
125C
  5
125C
331
114B
  5
114B
331
54E5
  5
54E5
331
5A66
  5
5A66
331
127E
  5
127E
331
116D
  5
116D
331
5A88
  5
5A88
331
1298
  5
1298
331
118F
  5
118F
331
1B2A
  5
1B2A
331
11A9
  5
11A9
331
5AAA
  5
5AAA
331
11CB
  5
11CB
331
EE2
  5
EE2
331
11ED
  5
11ED
331
E6C
  5
E6C
331
E30
  5
E30
331
E0E
  5
E0E
331
DEC
  5
DEC
331
DD2
  5
DD2
331
DB0
  5
DB0
331
D3E
  5
D3E
331
5C9D
  5
5C9D
331
5B96
  5
5B96
331
F26
  5
F26
331
E8E
  5
E8E
331
D2D
  5
D2D
331
D1C
  5
D1C
331
1249
  5
1249
331
1138
  5
1138
331
126B
  5
126B
331
115A
  5
115A
331
54F4
  5
54F4
331
5A75
  5
5A75
331
1285
  5
1285
331
117C
  5
117C
331
1196
  5
1196
331
5A97
  5
5A97
331
ECF
  5
ECF
331
11B8
  5
11B8
331
5AB9
  5
5AB9
331
EF1
  5
EF1
331
11DA
  5
11DA
331
E59
  5
E59
331
E3F
  5
E3F
331
E1D
  5
E1D
331
DFB
  5
DFB
331
DD9
  5
DD9
331
1C13
  5
1C13
331
5AD3
  5
5AD3
331
F13
  5
F13
331
11FC
  5
11FC
331
E7B
  5
E7B
331
1216
  5
1216
331
E9D
  5
E9D
331
1127
  5
1127
331
1238
  5
1238
331
EBF
  5
EBF
331
125A
  5
125A
331
1149
  5
1149
331
54E3
  5
54E3
331
5A64
  5
5A64
331
127C
  5
127C
331
116B
  5
116B
331
5A86
  5
5A86
331
1296
  5
1296
331
118D
  5
118D
331
1B28
  5
1B28
331
11A7
  5
11A7
331
11C9
  5
11C9
331
F02
  5
F02
331
EE0
  5
EE0
331
11EB
  5
11EB
331
E6A
  5
E6A
331
E2E
  5
E2E
331
E0C
  5
E0C
331
DEA
  5
DEA
331
DD0
  5
DD0
331
DAE
  5
DAE
331
D3C
  5
D3C
331
5B94
  5
5B94
331
F24
  5
F24
331
1227
  5
1227
331
EAE
  5
EAE
331
E8C
  5
E8C
331
DBF
  5
DBF
331
D2B
  5
D2B
331
D1A
  5
D1A
331
1269
  5
1269
331
1158
  5
1158
331
5A73
  5
5A73
331
1283
  5
1283
331
117A
  5
117A
331
1194
  5
1194
331
5A95
  5
5A95
331
ECD
  5
ECD
331
11B6
  5
11B6
331
5AB7
  5
5AB7
331
EEF
  5
EEF
331
11D8
  5
11D8
331
E57
  5
E57
331
E3D
  5
E3D
331
E1B
  5
E1B
331
DF9
  5
DF9
331
1C11
  5
1C11
331
5AD1
  5
5AD1
331
F11
  5
F11
331
11FA
  5
11FA
331
E79
  5
E79
331
5BA3
  5
5BA3
331
F33
  5
F33
331
1214
  5
1214
331
E9B
  5
E9B
331
1236
  5
1236
331
EBD
  5
EBD
331
1258
  5
1258
331
1147
  5
1147
331
5A62
  5
5A62
331
127A
  5
127A
331
1169
  5
1169
331
5A84
  5
5A84
331
1294
  5
1294
331
118B
  5
118B
331
11A5
  5
11A5
331
5AA6
  5
5AA6
331
EDE
  5
EDE
331
11C7
  5
11C7
331
F00
  5
F00
331
11E9
  5
11E9
331
E68
  5
E68
331
E4E
  5
E4E
331
E2C
  5
E2C
331
E0A
  5
E0A
331
DE8
  5
DE8
331
DCE
  5
DCE
331
DAC
  5
DAC
331
D3A
  5
D3A
331
5B92
  5
5B92
331
F22
  5
F22
331
1225
  5
1225
331
EAC
  5
EAC
331
E8A
  5
E8A
331
44AF
  5
44AF
331
1247
  5
1247
331
1136
  5
1136
331
DBD
  5
DBD
331
D29
  5
D29
331
D18
  5
D18
331
5A71
  5
5A71
331
1281
  5
1281
331
1B13
  5
1B13
331
1192
  5
1192
331
5A93
  5
5A93
331
ECB
  5
ECB
331
11B4
  5
11B4
331
5AB5
  5
5AB5
331
EED
  5
EED
331
11D6
  5
11D6
331
E55
  5
E55
331
E3B
  5
E3B
331
E19
  5
E19
331
5ACF
  5
5ACF
331
F0F
  5
F0F
331
11F8
  5
11F8
331
E77
  5
E77
331
5BA1
  5
5BA1
331
F31
  5
F31
331
1EEA
  5
1EEA
331
1212
  5
1212
331
E99
  5
E99
331
1234
  5
1234
331
EBB
  5
EBB
331
1256
  5
1256
331
1145
  5
1145
331
5A60
  5
5A60
331
1278
  5
1278
331
1167
  5
1167
331
5A82
  5
5A82
331
1292
  5
1292
331
1189
  5
1189
331
11A3
  5
11A3
331
5AA4
  5
5AA4
331
EDC
  5
EDC
331
11C5
  5
11C5
331
5AC6
  5
5AC6
331
EFE
  5
EFE
331
11E7
  5
11E7
331
E66
  5
E66
331
E4C
  5
E4C
331
E2A
  5
E2A
331
E08
  5
E08
331
DE6
  5
DE6
331
DCC
  5
DCC
331
DAA
  5
DAA
331
D38
  5
D38
331
F20
  5
F20
331
E88
  5
E88
331
1223
  5
1223
331
EAA
  5
EAA
331
1245
  5
1245
331
1267
  5
1267
331
1156
  5
1156
331
1134
  5
1134
331
DF7
  5
DF7
331
DBB
  5
DBB
331
D49
  5
D49
331
D27
  5
D27
331
D16
  5
D16
331
1B11
  5
1B11
331
1190
  5
1190
331
5A91
  5
5A91
331
EC9
  5
EC9
331
1B3B
  5
1B3B
331
11B2
  5
11B2
331
5AB3
  5
5AB3
331
EEB
  5
EEB
331
5634
  5
5634
331
11D4
  5
11D4
331
E53
  5
E53
331
E39
  5
E39
331
5ACD
  5
5ACD
331
F0D
  5
F0D
331
1E9E
  5
1E9E
331
11F6
  5
11F6
331
E75
  5
E75
331
452F
  5
452F
331
5B9F
  5
5B9F
331
F2F
  5
F2F
331
1210
  5
1210
331
E97
  5
E97
331
1232
  5
1232
331
EB9
  5
EB9
331
53F3
  5
53F3
331
1254
  5
1254
331
1143
  5
1143
331
5A5E
  5
5A5E
331
1276
  5
1276
331
1165
  5
1165
331
5A80
  5
5A80
331
1290
  5
1290
331
1187
  5
1187
331
11A1
  5
11A1
331
5AA2
  5
5AA2
331
EDA
  5
EDA
331
11C3
  5
11C3
331
EFC
  5
EFC
331
11E5
  5
11E5
331
E64
  5
E64
331
E4A
  5
E4A
331
E28
  5
E28
331
E06
  5
E06
331
DE4
  5
DE4
331
DCA
  5
DCA
331
DA8
  5
DA8
331
D36
  5
D36
331
1C26
  5
1C26
331
F1E
  5
F1E
331
1207
  5
1207
331
E86
  5
E86
331
1221
  5
1221
331
EA8
  5
EA8
331
1243
  5
1243
331
1265
  5
1265
331
1154
  5
1154
331
1132
  5
1132
331
5A6F
  5
5A6F
331
1176
  5
1176
331
E17
  5
E17
331
DF5
  5
DF5
331
DB9
  5
DB9
331
D47
  5
D47
331
D25
  5
D25
331
D14
  5
D14
331
1B39
  5
1B39
331
11B0
  5
11B0
331
EE9
  5
EE9
331
1C03
  5
1C03
331
11D2
  5
11D2
331
F0B
  5
F0B
331
11F4
  5
11F4
331
E73
  5
E73
331
E51
  5
E51
331
F2D
  5
F2D
331
120E
  5
120E
331
1230
  5
1230
331
EB7
  5
EB7
331
E95
  5
E95
331
1252
  5
1252
331
1141
  5
1141
331
5A5C
  5
5A5C
331
1274
  5
1274
331
1163
  5
1163
331
5A7E
  5
5A7E
331
128E
  5
128E
331
1185
  5
1185
331
119F
  5
119F
331
5AA0
  5
5AA0
331
ED8
  5
ED8
331
11C1
  5
11C1
331
5AC2
  5
5AC2
331
EFA
  5
EFA
331
1C24
  5
1C24
331
11E3
  5
11E3
331
F1C
  5
F1C
331
1205
  5
1205
331
E84
  5
E84
331
E62
  5
E62
331
E48
  5
E48
331
E26
  5
E26
331
E04
  5
E04
331
DE2
  5
DE2
331
DC8
  5
DC8
331
F3E
  5
F3E
331
121F
  5
121F
331
EA6
  5
EA6
331
1241
  5
1241
331
1263
  5
1263
331
1152
  5
1152
331
5A6D
  5
5A6D
331
1174
  5
1174
331
5A8F
  5
5A8F
331
E37
  5
E37
331
E15
  5
E15
331
DF3
  5
DF3
331
DB7
  5
DB7
331
D45
  5
D45
331
D34
  5
D34
331
5630
  5
5630
331
11D0
  5
11D0
331
F09
  5
F09
331
5772
  5
5772
331
11F2
  5
11F2
331
E71
  5
E71
331
5B9B
  5
5B9B
331
F2B
  5
F2B
331
120C
  5
120C
331
F45
  5
F45
331
4446
  5
4446
331
122E
  5
122E
331
EB5
  5
EB5
331
E93
  5
E93
331
1250
  5
1250
331
113F
  5
113F
331
5A5A
  5
5A5A
331
1272
  5
1272
331
1161
  5
1161
331
5A7C
  5
5A7C
331
128C
  5
128C
331
1183
  5
1183
331
119D
  5
119D
331
5A9E
  5
5A9E
331
ED6
  5
ED6
331
11BF
  5
11BF
331
EF8
  5
EF8
331
11E1
  5
11E1
331
E60
  5
E60
331
E46
  5
E46
331
E24
  5
E24
331
E02
  5
E02
331
DE0
  5
DE0
331
DC6
  5
DC6
331
D32
  5
D32
331
5ADA
  5
5ADA
331
F1A
  5
F1A
331
1203
  5
1203
331
E82
  5
E82
331
1C8C
  5
1C8C
331
F3C
  5
F3C
331
121D
  5
121D
331
EA4
  5
EA4
331
112E
  5
112E
331
123F
  5
123F
331
EC6
  5
EC6
331
1261
  5
1261
331
1150
  5
1150
331
5A6B
  5
5A6B
331
1172
  5
1172
331
129D
  5
129D
331
1DFE
  5
1DFE
331
11AE
  5
11AE
331
5AAF
  5
5AAF
331
EE7
  5
EE7
331
E35
  5
E35
331
E13
  5
E13
331
DF1
  5
DF1
331
DD7
  5
DD7
331
DB5
  5
DB5
331
D43
  5
D43
331
D21
  5
D21
331
5770
  5
5770
331
11F0
  5
11F0
331
5B99
  5
5B99
331
F29
  5
F29
331
120A
  5
120A
331
F43
  5
F43
331
4444
  5
4444
331
122C
  5
122C
331
EB3
  5
EB3
331
E91
  5
E91
331
124E
  5
124E
331
113D
  5
113D
331
5A58
  5
5A58
331
1270
  5
1270
331
115F
  5
115F
331
5A7A
  5
5A7A
331
128A
  5
128A
331
1181
  5
1181
331
119B
  5
119B
331
5A9C
  5
5A9C
331
ED4
  5
ED4
331
11BD
  5
11BD
331
5ABE
  5
5ABE
331
EF6
  5
EF6
331
563F
  5
563F
331
11DF
  5
11DF
331
5AD8
  5
5AD8
331
F18
  5
F18
331
1201
  5
1201
331
E80
  5
E80
331
E5E
  5
E5E
331
E44
  5
E44
331
E22
  5
E22
331
E00
  5
E00
331
DDE
  5
DDE
331
DC4
  5
DC4
331
F3A
  5
F3A
331
121B
  5
121B
331
EA2
  5
EA2
331
112C
  5
112C
331
123D
  5
123D
331
EC4
  5
EC4
331
125F
  5
125F
331
114E
  5
114E
331
5A69
  5
5A69
331
1170
  5
1170
331
5A8B
  5
5A8B
331
129B
  5
129B
331
11AC
  5
11AC
331
1E4E
  5
1E4E
331
11CE
  5
11CE
331
F07
  5
F07
331
EE5
  5
EE5
331
E6F
  5
E6F
331
E33
  5
E33
331
E11
  5
E11
331
DEF
  5
DEF
331
DD5
  5
DD5
331
DB3
  5
DB3
331
D41
  5
D41
331
D30
  5
D30
331
1208
  5
1208
331
F41
  5
F41
331
4442
  5
4442
331
122A
  5
122A
331
EB1
  5
EB1
331
1D2B
  5
1D2B
331
124C
  5
124C
331
113B
  5
113B
331
5A56
  5
5A56
331
126E
  5
126E
331
115D
  5
115D
331
54F7
  5
54F7
331
5A78
  5
5A78
331
1288
  5
1288
331
117F
  5
117F
331
1199
  5
1199
331
5A9A
  5
5A9A
331
ED2
  5
ED2
331
11BB
  5
11BB
331
EF4
  5
EF4
331
11DD
  5
11DD
331
E5C
  5
E5C
331
E42
  5
E42
331
E20
  5
E20
331
DFE
  5
DFE
331
DDC
  5
DDC
331
DC2
  5
DC2
331
5AD6
  5
5AD6
331
F16
  5
F16
331
11FF
  5
11FF
331
E7E
  5
E7E
331
1219
  5
1219
331
EA0
  5
EA0
331
112A
  5
112A
331
123B
  5
123B
331
EC2
  5
EC2
331
451D
  5
451D
331
125D
  5
125D
331
114C
  5
114C
331
5A67
  5
5A67
331
127F
  5
127F
331
116E
  5
116E
331
5A89
  5
5A89
331
1299
  5
1299
331
11AA
  5
11AA
331
11CC
  5
11CC
331
F05
  5
F05
331
EE3
  5
EE3
331
11EE
  5
11EE
331
E6D
  5
E6D
331
E31
  5
E31
331
E0F
  5
E0F
331
DED
  5
DED
331
DD3
  5
DD3
331
DB1
  5
DB1
331
D3F
  5
D3F
331
5C9E
  5
5C9E
331
5B97
  5
5B97
331
F27
  5
F27
331
E8F
  5
E8F
331
D2E
  5
D2E
331
D1D
  5
D1D
331
1228
  5
1228
331
124A
  5
124A
331
1139
  5
1139
331
126C
  5
126C
331
115B
  5
115B
331
54F5
  5
54F5
331
5A76
  5
5A76
331
1286
  5
1286
331
117D
  5
117D
331
1197
  5
1197
331
5A98
  5
5A98
331
ED0
  5
ED0
331
1BDA
  5
1BDA
331
11B9
  5
11B9
331
5ABA
  5
5ABA
331
EF2
  5
EF2
331
11DB
  5
11DB
331
E5A
  5
E5A
331
E40
  5
E40
331
E1E
  5
E1E
331
DFC
  5
DFC
331
DDA
  5
DDA
331
DC0
  5
DC0
331
5AD4
  5
5AD4
331
1C14
  5
1C14
331
11FD
  5
11FD
331
E7C
  5
E7C
331
1217
  5
1217
331
E9E
  5
E9E
331
1128
  5
1128
331
1239
  5
1239
331
EC0
  5
EC0
331
451B
  5
451B
331
125B
  5
125B
331
114A
  5
114A
331
54E4
  5
54E4
331
5A65
  5
5A65
331
127D
  5
127D
331
116C
  5
116C
331
5A87
  5
5A87
331
1297
  5
1297
331
118E
  5
118E
331
1B29
  5
1B29
331
11A8
  5
11A8
331
11CA
  5
11CA
331
F03
  5
F03
331
EE1
  5
EE1
331
11EC
  5
11EC
331
E6B
  5
E6B
331
E2F
  5
E2F
331
E0D
  5
E0D
331
DEB
  5
DEB
331
DD1
  5
DD1
331
DAF
  5
DAF
331
D3D
  5
D3D
331
5C9C
  5
5C9C
331
5B95
  5
5B95
331
F25
  5
F25
331
1CDF
  5
1CDF
331
EAF
  5
EAF
331
E8D
  5
E8D
331
D2C
  5
D2C
331
D1B
  5
D1B
331
1248
  5
1248
331
126A
  5
126A
331
1159
  5
1159
331
5A74
  5
5A74
331
1284
  5
1284
331
117B
  5
117B
331
1195
  5
1195
331
5A96
  5
5A96
331
ECE
  5
ECE
331
11B7
  5
11B7
331
5AB8
  5
5AB8
331
EF0
  5
EF0
331
11D9
  5
11D9
331
E58
  5
E58
331
E3E
  5
E3E
331
E1C
  5
E1C
331
DFA
  5
DFA
331
DD8
  5
DD8
331
1C12
  5
1C12
331
5AD2
  5
5AD2
331
F12
  5
F12
331
11FB
  5
11FB
331
E7A
  5
E7A
331
1215
  5
1215
331
E9C
  5
E9C
331
1126
  5
1126
331
1237
  5
1237
331
EBE
  5
EBE
331
1259
  5
1259
331
1148
  5
1148
331
54E2
  5
54E2
331
5A63
  5
5A63
331
127B
  5
127B
331
116A
  5
116A
331
5A85
  5
5A85
331
1295
  5
1295
331
118C
  5
118C
331
1B27
  5
1B27
331
11A6
  5
11A6
331
EDF
  5
EDF
331
11C8
  5
11C8
331
F01
  5
F01
331
11EA
  5
11EA
331
E69
  5
E69
331
E4F
  5
E4F
331
E2D
  5
E2D
331
E0B
  5
E0B
331
DE9
  5
DE9
331
DCF
  5
DCF
331
DAD
  5
DAD
331
D3B
  5
D3B
331
5B93
  5
5B93
331
F23
  5
F23
331
4555
  5
4555
331
1226
  5
1226
331
EAD
  5
EAD
331
E8B
  5
E8B
331
1137
  5
1137
331
DBE
  5
DBE
331
D2A
  5
D2A
331
D19
  5
D19
331
1268
  5
1268
331
5A72
  5
5A72
331
1282
  5
1282
331
1179
  5
1179
331
1B14
  5
1B14
331
1193
  5
1193
331
5A94
  5
5A94
331
ECC
  5
ECC
331
11B5
  5
11B5
331
5AB6
  5
5AB6
331
EEE
  5
EEE
331
11D7
  5
11D7
331
E56
  5
E56
331
E3C
  5
E3C
331
E1A
  5
E1A
331
DF8
  5
DF8
331
5AD0
  5
5AD0
331
F10
  5
F10
331
11F9
  5
11F9
331
E78
  5
E78
331
5BA2
  5
5BA2
331
F32
  5
F32
331
1213
  5
1213
331
E9A
  5
E9A
331
1235
  5
1235
331
EBC
  5
EBC
331
1257
  5
1257
331
1146
  5
1146
331
1D80
  5
1D80
331
5A61
  5
5A61
331
1279
  5
1279
331
1168
  5
1168
331
1DAA
  5
1DAA
331
5A83
  5
5A83
331
1293
  5
1293
331
118A
  5
118A
331
11A4
  5
11A4
331
5AA5
  5
5AA5
331
EDD
  5
EDD
331
11C6
  5
11C6
331
5AC7
  5
5AC7
331
EFF
  5
EFF
331
11E8
  5
11E8
331
E67
  5
E67
331
E4D
  5
E4D
331
E2B
  5
E2B
331
E09
  5
E09
331
DE7
  5
DE7
331
DCD
  5
DCD
331
DAB
  5
DAB
331
D39
  5
D39
331
5B91
  5
5B91
331
F21
  5
F21
331
1224
  5
1224
331
EAB
  5
EAB
331
E89
  5
E89
331
53A5
  5
53A5
331
1246
  5
1246
331
1157
  5
1157
331
1135
  5
1135
331
DBC
  5
DBC
331
D28
  5
D28
331
D17
  5
D17
331
5A70
  5
5A70
331
1280
  5
1280
331
1B12
  5
1B12
331
1191
  5
1191
331
5A92
  5
5A92
331
ECA
  5
ECA
331
1B3C
  5
1B3C
331
11B3
  5
11B3
331
5AB4
  5
5AB4
331
EEC
  5
EEC
331
11D5
  5
11D5
331
E54
  5
E54
331
E3A
  5
E3A
331
E18
  5
E18
331
5ACE
  5
5ACE
331
F0E
  5
F0E
331
11F7
  5
11F7
331
E76
  5
E76
331
5BA0
  5
5BA0
331
F30
  5
F30
331
1211
  5
1211
331
E98
  5
E98
331
1233
  5
1233
331
EBA
  5
EBA
331
1255
  5
1255
331
1144
  5
1144
331
5A5F
  5
5A5F
331
1277
  5
1277
331
1166
  5
1166
331
5508
  5
5508
331
5A81
  5
5A81
331
1291
  5
1291
331
1188
  5
1188
331
11A2
  5
11A2
331
5AA3
  5
5AA3
331
EDB
  5
EDB
331
11C4
  5
11C4
331
EFD
  5
EFD
331
576E
  5
576E
331
11E6
  5
11E6
331
E65
  5
E65
331
E4B
  5
E4B
331
E29
  5
E29
331
E07
  5
E07
331
DE5
  5
DE5
331
DCB
  5
DCB
331
DA9
  5
DA9
331
D37
  5
D37
331
F1F
  5
F1F
331
E87
  5
E87
331
1222
  5
1222
331
EA9
  5
EA9
331
1244
  5
1244
331
1266
  5
1266
331
1155
  5
1155
331
1133
  5
1133
331
1177
  5
1177
331
DF6
  5
DF6
331
DBA
  5
DBA
331
D48
  5
D48
331
D26
  5
D26
331
D15
  5
D15
331
5A90
  5
5A90
331
EC8
  5
EC8
331
5589
  5
5589
331
1B3A
  5
1B3A
331
11B1
  5
11B1
331
EEA
  5
EEA
331
5633
  5
5633
331
11D3
  5
11D3
331
5ACC
  5
5ACC
331
F0C
  5
F0C
331
11F5
  5
11F5
331
E74
  5
E74
331
E52
  5
E52
331
E38
  5
E38
331
120F
  5
120F
331
F2E
  5
F2E
331
4489
  5
4489
331
1231
  5
1231
331
EB8
  5
EB8
331
1253
  5
1253
331
1142
  5
1142
331
1D6C
  5
1D6C
331
5A5D
  5
5A5D
331
1275
  5
1275
331
1164
  5
1164
331
5A7F
  5
5A7F
331
128F
  5
128F
331
1186
  5
1186
331
11A0
  5
11A0
331
5AA1
  5
5AA1
331
ED9
  5
ED9
331
11C2
  5
11C2
331
EFB
  5
EFB
331
1C25
  5
1C25
331
11E4
  5
11E4
331
5ADD
  5
5ADD
331
F1D
  5
F1D
331
1206
  5
1206
331
E85
  5
E85
331
E63
  5
E63
331
E49
  5
E49
331
E27
  5
E27
331
E05
  5
E05
331
DE3
  5
DE3
331
DC9
  5
DC9
331
DA7
  5
DA7
331
5BAF
  5
5BAF
331
F3F
  5
F3F
331
1220
  5
1220
331
EA7
  5
EA7
331
1242
  5
1242
331
1264
  5
1264
331
1153
  5
1153
331
1131
  5
1131
331
5A6E
  5
5A6E
331
1175
  5
1175
331
E16
  5
E16
331
DF4
  5
DF4
331
DB8
  5
DB8
331
D46
  5
D46
331
D35
  5
D35
331
EE8
  5
EE8
331
11D1
  5
11D1
331
F0A
  5
F0A
331
5773
  5
5773
331
11F3
  5
11F3
331
E72
  5
E72
331
E50
  5
E50
331
1C34
  5
1C34
331
5B9C
  5
5B9C
331
F2C
  5
F2C
331
120D
  5
120D
331
F46
  5
F46
331
122F
  5
122F
331
EB6
  5
EB6
331
E94
  5
E94
331
1251
  5
1251
331
1140
  5
1140
331
5A5B
  5
5A5B
331
1273
  5
1273
331
1162
  5
1162
331
5A7D
  5
5A7D
331
128D
  5
128D
331
1184
  5
1184
331
119E
  5
119E
331
5A9F
  5
5A9F
331
ED7
  5
ED7
331
1BE9
  5
1BE9
331
11C0
  5
11C0
331
EF9
  5
EF9
331
1C23
  5
1C23
331
11E2
  5
11E2
331
5ADB
  5
5ADB
331
F1B
  5
F1B
331
1EC4
  5
1EC4
331
1204
  5
1204
331
E83
  5
E83
331
E61
  5
E61
331
E47
  5
E47
331
E25
  5
E25
331
E03
  5
E03
331
DE1
  5
DE1
331
DC7
  5
DC7
331
F3D
  5
F3D
331
121E
  5
121E
331
EA5
  5
EA5
331
112F
  5
112F
331
1D51
  5
1D51
331
1240
  5
1240
331
1262
  5
1262
331
1151
  5
1151
331
EC7
  5
EC7
331
5A6C
  5
5A6C
331
1173
  5
1173
331
5A8E
  5
5A8E
331
11AF
  5
11AF
331
E36
  5
E36
331
E14
  5
E14
331
DF2
  5
DF2
331
DB6
  5
DB6
331
D44
  5
D44
331
D33
  5
D33
331
5AC8
  5
5AC8
331
F08
  5
F08
331
11F1
  5
11F1
331
E70
  5
E70
331
5B9A
  5
5B9A
331
120B
  5
120B
331
F44
  5
F44
331
F2A
  5
F2A
331
4445
  5
4445
331
122D
  5
122D
331
EB4
  5
EB4
331
124F
  5
124F
331
113E
  5
113E
331
5A59
  5
5A59
331
1271
  5
1271
331
1160
  5
1160
331
5A7B
  5
5A7B
331
128B
  5
128B
331
1182
  5
1182
331
1DD4
  5
1DD4
331
119C
  5
119C
331
5A9D
  5
5A9D
331
ED5
  5
ED5
331
11BE
  5
11BE
331
EF7
  5
EF7
331
11E0
  5
11E0
331
E5F
  5
E5F
331
E45
  5
E45
331
E23
  5
E23
331
E01
  5
E01
331
DDF
  5
DDF
331
DC5
  5
DC5
331
D31
  5
D31
331
5AD9
  5
5AD9
331
F19
  5
F19
331
1202
  5
1202
331
E81
  5
E81
331
F3B
  5
F3B
331
121C
  5
121C
331
EA3
  5
EA3
331
1D05
  5
1D05
331
112D
  5
112D
331
123E
  5
123E
331
EC5
  5
EC5
331
1260
  5
1260
331
114F
  5
114F
331
5A6A
  5
5A6A
331
1171
  5
1171
331
5A8C
  5
5A8C
331
129C
  5
129C
331
11AD
  5
11AD
331
5AAE
  5
5AAE
331
562F
  5
562F
331
11CF
  5
11CF
331
EE6
  5
EE6
331
E34
  5
E34
331
E12
  5
E12
331
DF0
  5
DF0
331
DD6
  5
DD6
331
DB4
  5
DB4
331
D42
  5
D42
331
D20
  5
D20
331
5B98
  5
5B98
331
F28
  5
F28
331
1209
  5
1209
331
F42
  5
F42
331
122B
  5
122B
331
EB2
  5
EB2
331
E90
  5
E90
331
124D
  5
124D
331
113C
  5
113C
331
5A57
  5
5A57
331
126F
  5
126F
331
115E
  5
115E
331
5A79
  5
5A79
331
1289
  5
1289
331
1180
  5
1180
331
119A
  5
119A
331
5A9B
  5
5A9B
331
ED3
  5
ED3
331
1E24
  5
1E24
331
11BC
  5
11BC
331
EF5
  5
EF5
331
563E
  5
563E
331
11DE
  5
11DE
331
E5D
  5
E5D
331
E43
  5
E43
331
E21
  5
E21
331
DFF
  5
DFF
331
DDD
  5
DDD
331
DC3
  5
DC3
331
5AD7
  5
5AD7
331
F17
  5
F17
331
1200
  5
1200
331
E7F
  5
E7F
331
121A
  5
121A
331
EA1
  5
EA1
331
112B
  5
112B
331
123C
  5
123C
331
EC3
  5
EC3
331
451E
  5
451E
331
125E
  5
125E
331
114D
  5
114D
331
5A68
  5
5A68
331
116F
  5
116F
331
5A8A
  5
5A8A
331
129A
  5
129A
331
11AB
  5
11AB
331
1BF6
  5
1BF6
331
11CD
  5
11CD
331
F06
  5
F06
331
EE4
  5
EE4
331
11EF
  5
11EF
331
E6E
  5
E6E
331
E32
  5
E32
331
E10
  5
E10
331
DEE
  5
DEE
331
DD4
  5
DD4
331
DB2
  5
DB2
331
D40
  5
D40
331
5C9F
  5
5C9F
331
D2F
  5
D2F
331
D1E
  5
D1E
  0
DIMASSOC
  5
1CED
102
{ACAD_REACTORS
330
1CEC
102
}
330
1CEC
100
AcDbDimAssoc
330
1CDF
 90
        3
 70
     0
 71
     0
  1
AcDbOsnapPointRef
 72
     1
331
1160
 73
     0
 91
        0
 40
0.0
 10
0.0
 20
0.0
 30
2.000000000000000E+50
 75
     0
  1
AcDbOsnapPointRef
 72
     1
331
115F
 73
     0
 91
        0
 40
0.0
 10
0.0
 20
0.0
 30
2.000000000000000E+50
 75
     0
  0
DIMASSOC
  5
1D13
102
{ACAD_REACTORS
330
1D12
102
}
330
1D12
100
AcDbDimAssoc
330
1D05
 90
        3
 70
     0
 71
     0
  1
AcDbOsnapPointRef
 72
    13
331
1293
 73
     0
 91
        0
 40
0.0
 10
0.0
 20
0.0
 30
2.000000000000000E+50
 75
     0
  1
AcDbOsnapPointRef
 72
     1
331
1295
 73
     0
 91
        0
 40
0.0
 10
0.0
 20
0.0
 30
2.000000000000000E+50
 75
     0
  0
DIMASSOC
  5
1D39
102
{ACAD_REACTORS
330
1D38
102
}
330
1D38
100
AcDbDimAssoc
330
1D2B
 90
        3
 70
     0
 71
     0
  1
AcDbOsnapPointRef
 72
     1
331
1295
 73
     0
 91
        0
 40
0.0
 10
0.0
 20
0.0
 30
2.000000000000000E+50
 75
     0
  1
AcDbOsnapPointRef
 72
     1
331
125B
 73
     0
 91
        0
 40
0.0
 10
0.0
 20
0.0
 30
2.000000000000000E+50
 75
     0
  0
DIMASSOC
  5
1D5F
102
{ACAD_REACTORS
330
1D5E
102
}
330
1D5E
100
AcDbDimAssoc
330
1D51
 90
        3
 70
     0
 71
     0
  1
AcDbOsnapPointRef
 72
     1
331
1153
 73
     0
 91
        0
 40
0.0
 10
0.0
 20
0.0
 30
2.000000000000000E+50
 75
     0
  1
AcDbOsnapPointRef
 72
    13
331
114F
 73
     0
 91
        0
 40
0.0
 10
0.0
 20
0.0
 30
2.000000000000000E+50
 75
     0
  0
DIMASSOC
  5
1D90
102
{ACAD_REACTORS
330
1D8F
102
}
330
1D8F
100
AcDbDimAssoc
330
1D80
 90
        3
 70
     0
 71
     0
  1
AcDbOsnapPointRef
 72
    13
331
F2E
 73
     0
 91
        0
 40
0.0
 10
0.0
 20
0.0
 30
2.000000000000000E+50
 75
     0
  1
AcDbOsnapPointRef
 72
     1
331
1B14
 73
     0
 91
        0
 40
0.0
 10
0.0
 20
0.0
 30
2.000000000000000E+50
 75
     0
  0
DIMASSOC
  5
1DBA
102
{ACAD_REACTORS
330
1DB9
102
}
330
1DB9
100
AcDbDimAssoc
330
1DAA
 90
        3
 70
     0
 71
     0
  1
AcDbOsnapPointRef
 72
    13
331
F2E
 73
     0
 91
        0
 40
0.0
 10
0.0
 20
0.0
 30
2.000000000000000E+50
 75
     0
  1
AcDbOsnapPointRef
 72
     1
331
1B13
 73
     0
 91
        0
 40
0.0
 10
0.0
 20
0.0
 30
2.000000000000000E+50
 75
     0
  0
DIMASSOC
  5
1DE4
102
{ACAD_REACTORS
330
1DE3
102
}
330
1DE3
100
AcDbDimAssoc
330
1DD4
 90
        3
 70
     0
 71
     0
  1
AcDbOsnapPointRef
 72
     1
331
EE0
 73
     0
 91
        0
 40
0.0
 10
0.0
 20
0.0
 30
2.000000000000000E+50
 75
     0
  1
AcDbOsnapPointRef
 72
     1
331
1B3C
 73
     0
 91
        0
 40
0.0
 10
0.0
 20
0.0
 30
2.000000000000000E+50
 75
     0
  0
DIMASSOC
  5
1E0C
102
{ACAD_REACTORS
330
1E0B
102
}
330
1E0B
100
AcDbDimAssoc
330
1DFE
 90
        3
 70
     0
 71
     0
  1
AcDbOsnapPointRef
 72
     1
331
EE0
 73
     0
 91
        0
 40
0.0
 10
0.0
 20
0.0
 30
2.000000000000000E+50
 75
     0
  1
AcDbOsnapPointRef
 72
    13
331
EE1
 73
     0
 91
        0
 40
0.0
 10
0.0
 20
0.0
 30
2.000000000000000E+50
 75
     0
  0
DIMASSOC
  5
1E34
102
{ACAD_REACTORS
330
1E33
102
}
330
1E33
100
AcDbDimAssoc
330
1E24
 90
        3
 70
     0
 71
     0
  1
AcDbOsnapPointRef
 72
     1
331
EE0
 73
     0
 91
        0
 40
0.0
 10
0.0
 20
0.0
 30
2.000000000000000E+50
 75
     0
  1
AcDbOsnapPointRef
 72
     1
331
1B39
 73
     0
 91
        0
 40
0.0
 10
0.0
 20
0.0
 30
2.000000000000000E+50
 75
     0
  0
DIMASSOC
  5
1E5C
102
{ACAD_REACTORS
330
1E5B
102
}
330
1E5B
100
AcDbDimAssoc
330
1E4E
 90
        3
 70
     0
 71
     0
  1
AcDbOsnapPointRef
 72
     1
331
EE0
 73
     0
 91
        0
 40
0.0
 10
0.0
 20
0.0
 30
2.000000000000000E+50
 75
     0
  1
AcDbOsnapPointRef
 72
     1
331
F29
 73
     0
 91
        0
 40
0.0
 10
0.0
 20
0.0
 30
2.000000000000000E+50
 75
     0
  0
DIMASSOC
  5
1E84
102
{ACAD_REACTORS
330
1E83
102
}
330
1E83
100
AcDbDimAssoc
330
1E74
 90
        3
 70
     0
 71
     0
  1
AcDbOsnapPointRef
 72
    13
331
DAA
 73
     0
 91
        0
 40
0.0
 10
0.0
 20
0.0
 30
2.000000000000000E+50
 75
     0
  1
AcDbOsnapPointRef
 72
     1
331
1C26
 73
     0
 91
        0
 40
0.0
 10
0.0
 20
0.0
 30
2.000000000000000E+50
 75
     0
  0
DIMASSOC
  5
1EAC
102
{ACAD_REACTORS
330
1EAB
102
}
330
1EAB
100
AcDbDimAssoc
330
1E9E
 90
        1
 70
     0
 71
     0
  1
AcDbOsnapPointRef
 72
     1
331
1C26
 73
     0
 91
        0
 40
0.0
 10
0.0
 20
0.0
 30
2.000000000000000E+50
 75
     0
  0
DIMASSOC
  5
1ED2
102
{ACAD_REACTORS
330
1ED1
102
}
330
1ED1
100
AcDbDimAssoc
330
1EC4
 90
        3
 70
     0
 71
     0
  1
AcDbOsnapPointRef
 72
     1
331
DA9
 73
     0
 91
        0
 40
0.0
 10
0.0
 20
0.0
 30
2.000000000000000E+50
 75
     0
  1
AcDbOsnapPointRef
 72
    13
331
DAA
 73
     0
 91
        0
 40
0.0
 10
0.0
 20
0.0
 30
2.000000000000000E+50
 75
     0
  0
DIMASSOC
  5
1EF8
102
{ACAD_REACTORS
330
1EF7
102
}
330
1EF7
100
AcDbDimAssoc
330
1EEA
 90
        3
 70
     0
 71
     0
  1
AcDbOsnapPointRef
 72
     1
331
E12
 73
     0
 91
        0
 40
0.0
 10
0.0
 20
0.0
 30
2.000000000000000E+50
 75
     0
  1
AcDbOsnapPointRef
 72
    13
331
DAA
 73
     0
 91
        0
 40
0.0
 10
0.0
 20
0.0
 30
2.000000000000000E+50
 75
     0
  0
DIMASSOC
  5
4497
102
{ACAD_REACTORS
330
4496
102
}
330
4496
100
AcDbDimAssoc
330
4489
 90
        3
 70
     0
 71
     0
  1
AcDbOsnapPointRef
 72
    13
331
E6E
 73
     0
 91
        0
 40
0.0
 10
0.0
 20
0.0
 30
2.000000000000000E+50
 75
     0
  1
AcDbOsnapPointRef
 72
     1
331
E9E
 73
     0
 91
        0
 40
0.0
 10
0.0
 20
0.0
 30
2.000000000000000E+50
 75
     0
  0
DIMASSOC
  5
44BD
102
{ACAD_REACTORS
330
44BC
102
}
330
44BC
100
AcDbDimAssoc
330
44AF
 90
        3
 70
     0
 71
     0
  1
AcDbOsnapPointRef
 72
    13
331
E6E
 73
     0
 91
        0
 40
0.0
 10
0.0
 20
0.0
 30
2.000000000000000E+50
 75
     0
  1
AcDbOsnapPointRef
 72
     1
331
E9D
 73
     0
 91
        0
 40
0.0
 10
0.0
 20
0.0
 30
2.000000000000000E+50
 75
     0
  0
DIMASSOC
  5
453D
102
{ACAD_REACTORS
330
453C
102
}
330
453C
100
AcDbDimAssoc
330
452F
 90
        3
 70
     0
 71
     0
  1
AcDbOsnapPointRef
 72
    13
331
DC5
 73
     0
 91
        0
 40
0.0
 10
0.0
 20
0.0
 30
2.000000000000000E+50
 75
     0
  1
AcDbOsnapPointRef
 72
    13
331
DAB
 73
     0
 91
        0
 40
0.0
 10
0.0
 20
0.0
 30
2.000000000000000E+50
 75
     0
  0
DIMASSOC
  5
4563
102
{ACAD_REACTORS
330
4562
102
}
330
4562
100
AcDbDimAssoc
330
4555
 90
        3
 70
     0
 71
     0
  1
AcDbOsnapPointRef
 72
    13
331
DC5
 73
     0
 91
        0
 40
0.0
 10
0.0
 20
0.0
 30
2.000000000000000E+50
 75
     0
  1
AcDbOsnapPointRef
 72
     1
331
1C23
 73
     0
 91
        0
 40
0.0
 10
0.0
 20
0.0
 30
2.000000000000000E+50
 75
     0
  0
DIMASSOC
  5
53B3
102
{ACAD_REACTORS
330
53B2
102
}
330
53B2
100
AcDbDimAssoc
330
53A5
 90
        2
 70
     0
 71
     0
  1
AcDbOsnapPointRef
 72
     1
331
F32
 73
     0
 91
        0
 40
0.0
 10
0.0
 20
0.0
 30
2.000000000000000E+50
 75
     0
  0
DIMASSOC
  5
5401
102
{ACAD_REACTORS
330
5400
102
}
330
5400
100
AcDbDimAssoc
330
53F3
 90
        2
 70
     0
 71
     0
  1
AcDbOsnapPointRef
 72
     1
331
1B29
 73
     0
 91
        0
 40
0.0
 10
0.0
 20
0.0
 30
2.000000000000000E+50
 75
     0
  0
DIMASSOC
  5
5518
102
{ACAD_REACTORS
330
5517
102
}
330
5517
100
AcDbDimAssoc
330
5508
 90
        3
 70
     0
 71
     0
  1
AcDbOsnapPointRef
 72
     1
331
54E5
 73
     0
 91
        0
 40
0.0
 10
0.0
 20
0.0
 30
2.000000000000000E+50
 75
     0
  1
AcDbOsnapPointRef
 72
     1
331
54F7
 73
     0
 91
        0
 40
0.0
 10
0.0
 20
0.0
 30
2.000000000000000E+50
 75
     0
  0
DIMASSOC
  5
5550
102
{ACAD_REACTORS
330
554F
102
}
330
554F
100
AcDbDimAssoc
330
5540
 90
        2
 70
     0
 71
     0
  1
AcDbOsnapPointRef
 72
     1
331
54F4
 73
     0
 91
        0
 40
0.0
 10
0.0
 20
0.0
 30
2.000000000000000E+50
 75
     0
  0
DIMASSOC
  5
5599
102
{ACAD_REACTORS
330
5598
102
}
330
5598
100
AcDbDimAssoc
330
5589
 90
        1
 70
     0
 71
     0
  1
AcDbOsnapPointRef
 72
    13
331
112D
 73
     0
 91
        0
 40
0.0
 10
0.0
 20
0.0
 30
2.000000000000000E+50
 75
     0
  0
LAYOUT
  5
1E
102
{ACAD_XDICTIONARY
360
5CC0
102
}
102
{ACAD_REACTORS
330
1A
102
}
330
1A
100
AcDbPlotSettings
  1

  2
自動 RD 上的 Epson Stylus Photo 750 單色
  4

  6

 40
0.0
 41
0.0
 42
0.0
 43
0.0
 44
0.0
 45
0.0
 46
0.0
 47
0.0
 48
0.0
 49
0.0
140
0.0
141
0.0
142
1.0
143
1.0
 70
   688
 72
     0
 73
     0
 74
     5
  7
彩色出圖.ctb
 75
    16
147
1.0
148
0.0
149
0.0
100
AcDbLayout
  1
Layout1
 70
     1
 71
     1
 10
0.0
 20
0.0
 11
420.0
 21
297.0
 12
0.0
 22
0.0
 32
0.0
 14
1.000000000000000E+20
 24
1.000000000000000E+20
 34
1.000000000000000E+20
 15
-1.000000000000000E+20
 25
-1.000000000000000E+20
 35
-1.000000000000000E+20
146
0.0
 13
0.0
 23
0.0
 33
0.0
 16
1.0
 26
0.0
 36
0.0
 17
0.0
 27
1.0
 37
0.0
 76
     0
330
1B
  0
LAYOUT
  5
26
102
{ACAD_XDICTIONARY
360
5CC4
102
}
102
{ACAD_REACTORS
330
1A
102
}
330
1A
100
AcDbPlotSettings
  1

  2
自動 RD 上的 Epson Stylus Photo 750 單色
  4

  6

 40
0.0
 41
0.0
 42
0.0
 43
0.0
 44
0.0
 45
0.0
 46
0.0
 47
0.0
 48
0.0
 49
0.0
140
0.0
141
0.0
142
1.0
143
1.0
 70
   688
 72
     0
 73
     0
 74
     5
  7
彩色出圖.ctb
 75
    16
147
1.0
148
0.0
149
0.0
100
AcDbLayout
  1
Layout2
 70
     1
 71
     2
 10
0.0
 20
0.0
 11
12.0
 21
9.0
 12
0.0
 22
0.0
 32
0.0
 14
0.0
 24
0.0
 34
0.0
 15
0.0
 25
0.0
 35
0.0
146
0.0
 13
0.0
 23
0.0
 33
0.0
 16
1.0
 26
0.0
 36
0.0
 17
0.0
 27
1.0
 37
0.0
 76
     0
330
23
  0
LAYOUT
  5
22
102
{ACAD_XDICTIONARY
360
5CC2
102
}
102
{ACAD_REACTORS
330
1A
102
}
330
1A
100
AcDbPlotSettings
  1

  2
自動 RD 上的 Epson Stylus Photo 750 單色
  4
A4
  6

 40
3.757083177566528
 41
14.7637300491333
 42
3.757080078125
 43
3.757080078125
 44
209.9733276367187
 45
296.9683227539062
 46
7.54
 47
0.0
 48
0.0
 49
0.0
140
0.0
141
0.0
142
1.0
143
1.817317462545654
 70
 11956
 72
     1
 73
     0
 74
     1
  7
彩色出圖.ctb
 75
     0
147
0.5502615919395967
148
-125.5654918467224
149
222.8859553785132
100
AcDbLayout
  1
Model
 70
     1
 71
     0
 10
0.0
 20
0.0
 11
12.0
 21
9.0
 12
0.0
 22
0.0
 32
0.0
 14
0.0
 24
0.0
 34
0.0
 15
0.0
 25
0.0
 35
0.0
146
0.0
 13
0.0
 23
0.0
 33
0.0
 16
1.0
 26
0.0
 36
0.0
 17
0.0
 27
1.0
 37
0.0
 76
     0
330
1F
  0
MLINESTYLE
  5
18
102
{ACAD_REACTORS
330
17
102
}
330
17
100
AcDbMlineStyle
  2
STANDARD
 70
     0
  3

 62
   256
 51
90.0
 52
90.0
 71
     2
 49
0.5
 62
   256
  6
BYLAYER
 49
-0.5
 62
   256
  6
BYLAYER
  0
ACDBPLACEHOLDER
  5
F
102
{ACAD_REACTORS
330
E
102
}
330
E
  0
TABLESTYLE
  5
674
102
{ACAD_REACTORS
330
673
102
}
330
673
100
AcDbTableStyle
  3
Standard
 70
     0
 71
     0
 40
1.5
 41
1.5
280
     0
281
     0
  7
STANDARD
140
4.5
170
     2
 62
     0
 63
     7
283
     0
274
    -2
284
     1
 64
     0
275
    -2
285
     1
 65
     0
276
    -2
286
     1
 66
     0
277
    -2
287
     1
 67
     0
278
    -2
288
     1
 68
     0
279
    -2
289
     1
 69
     0
  7
STANDARD
140
6.0
170
     5
 62
     0
 63
     7
283
     0
274
    -2
284
     1
 64
     0
275
    -2
285
     1
 65
     0
276
    -2
286
     1
 66
     0
277
    -2
287
     1
 67
     0
278
    -2
288
     1
 68
     0
279
    -2
289
     1
 69
     0
  7
STANDARD
140
4.5
170
     5
 62
     0
 63
     7
283
     0
274
    -2
284
     1
 64
     0
275
    -2
285
     1
 65
     0
276
    -2
286
     1
 66
     0
277
    -2
287
     1
 67
     0
278
    -2
288
     1
 68
     0
279
    -2
289
     1
 69
     0
  0
DICTIONARYVAR
  5
6E6
102
{ACAD_REACTORS
330
82
102
}
330
82
100
DictionaryVariables
280
     0
  1
STANDARD
  0
DICTIONARYVAR
  5
85
102
{ACAD_REACTORS
330
82
102
}
330
82
100
DictionaryVariables
280
     0
  1
2
  0
DICTIONARYVAR
  5
84
102
{ACAD_REACTORS
330
82
102
}
330
82
100
DictionaryVariables
280
     0
  1
1
  0
DICTIONARYVAR
  5
83
102
{ACAD_REACTORS
330
82
102
}
330
82
100
DictionaryVariables
280
     0
  1
0
  0
DICTIONARYVAR
  5
6E7
102
{ACAD_REACTORS
330
82
102
}
330
82
100
DictionaryVariables
280
     0
  1

  0
DICTIONARY
  5
4A
102
{ACAD_REACTORS
330
45
102
}
330
45
100
AcDbDictionary
281
     1
  0
XRECORD
  5
67F
102
{ACAD_REACTORS
330
45
102
}
330
45
100
AcDbXrecord
280
     1
 90
-1023410169
  0
DICTIONARY
  5
5CC0
330
1E
100
AcDbDictionary
280
     1
281
     1
  3
ACAD_XREC_ROUNDTRIP
360
5CC1
  0
DICTIONARY
  5
5CC4
330
26
100
AcDbDictionary
280
     1
281
     1
  3
ACAD_XREC_ROUNDTRIP
360
5CC5
  0
DICTIONARY
  5
5CC2
330
22
100
AcDbDictionary
280
     1
281
     1
  3
ACAD_XREC_ROUNDTRIP
360
5CC3
  0
XRECORD
  5
5CC1
102
{ACAD_REACTORS
330
5CC0
102
}
330
5CC0
100
AcDbXrecord
280
     1
102
SHADEPLOT
 70
     0
102
SHADEPLOTRESLEVEL
 70
     2
102
SHADEPLOTCUSTOMDPI
 70
   300
  0
XRECORD
  5
5CC5
102
{ACAD_REACTORS
330
5CC4
102
}
330
5CC4
100
AcDbXrecord
280
     1
102
SHADEPLOT
 70
     0
102
SHADEPLOTRESLEVEL
 70
     2
102
SHADEPLOTCUSTOMDPI
 70
   300
  0
XRECORD
  5
5CC3
102
{ACAD_REACTORS
330
5CC2
102
}
330
5CC2
100
AcDbXrecord
280
     1
102
SHADEPLOT
 70
     0
102
SHADEPLOTRESLEVEL
 70
     2
102
SHADEPLOTCUSTOMDPI
 70
   300
  0
ENDSEC
  0
EOF
