  0
SECTION
  2
HEADER
  9
$ACADVER
  1
AC1015
  9
$ACADMAINTVER
 70
    20
  9
$DWGCODEPAGE
  3
ANSI_950
  9
$INSBASE
 10
0.0
 20
0.0
 30
0.0
  9
$EXTMIN
 10
622.645517616047
 20
62.19072036839873
 30
-0.003999259246882
  9
$EXTMAX
 10
815.2503932735866
 20
202.225205048948
 30
91.74600768155125
  9
$LIMMIN
 10
0.0
 20
0.0
  9
$LIMMAX
 10
420.0
 20
297.0
  9
$ORTHOMODE
 70
     1
  9
$REGENMODE
 70
     1
  9
$FILLMODE
 70
     1
  9
$QTEXTMODE
 70
     0
  9
$MIRRTEXT
 70
     1
  9
$LTSCALE
 40
1.0
  9
$ATTMODE
 70
     1
  9
$TEXTSIZE
 40
3.5
  9
$TRACEWID
 40
1.0
  9
$TEXTSTYLE
  7
STANDARD
  9
$CLAYER
  8
0
  9
$CELTYPE
  6
ByLayer
  9
$CECOLOR
 62
   256
  9
$CELTSCALE
 40
1.0
  9
$DISPSILH
 70
     0
  9
$DIMSCALE
 40
1.0
  9
$DIMASZ
 40
3.0
  9
$DIMEXO
 40
1.0
  9
$DIMDLI
 40
5.0
  9
$DIMRND
 40
0.0
  9
$DIMDLE
 40
0.0
  9
$DIMEXE
 40
1.5
  9
$DIMTP
 40
0.1
  9
$DIMTM
 40
0.1
  9
$DIMTXT
 40
3.5
  9
$DIMCEN
 40
3.0
  9
$DIMTSZ
 40
0.0
  9
$DIMTOL
 70
     0
  9
$DIMLIM
 70
     0
  9
$DIMTIH
 70
     0
  9
$DIMTOH
 70
     0
  9
$DIMSE1
 70
     0
  9
$DIMSE2
 70
     0
  9
$DIMTAD
 70
     1
  9
$DIMZIN
 70
     8
  9
$DIMBLK
  1

  9
$DIMASO
 70
     1
  9
$DIMSHO
 70
     1
  9
$DIMPOST
  1

  9
$DIMAPOST
  1
"
  9
$DIMALT
 70
     0
  9
$DIMALTD
 70
     2
  9
$DIMALTF
 40
0.0393701
  9
$DIMLFAC
 40
1.0
  9
$DIMTOFL
 70
     1
  9
$DIMTVP
 40
0.0
  9
$DIMTIX
 70
     0
  9
$DIMSOXD
 70
     0
  9
$DIMSAH
 70
     0
  9
$DIMBLK1
  1

  9
$DIMBLK2
  1

  9
$DIMSTYLE
  2
AM_ISO
  9
$DIMCLRD
 70
   256
  9
$DIMCLRE
 70
   256
  9
$DIMCLRT
 70
   256
  9
$DIMTFAC
 40
0.71
  9
$DIMGAP
 40
0.8
  9
$DIMJUST
 70
     0
  9
$DIMSD1
 70
     0
  9
$DIMSD2
 70
     0
  9
$DIMTOLJ
 70
     0
  9
$DIMTZIN
 70
     8
  9
$DIMALTZ
 70
     0
  9
$DIMALTTZ
 70
     0
  9
$DIMUPT
 70
     0
  9
$DIMDEC
 70
     2
  9
$DIMTDEC
 70
     8
  9
$DIMALTU
 70
     2
  9
$DIMALTTD
 70
     2
  9
$DIMTXSTY
  7
STANDARD
  9
$DIMAUNIT
 70
     0
  9
$DIMADEC
 70
     0
  9
$DIMALTRND
 40
0.0
  9
$DIMAZIN
 70
     2
  9
$DIMDSEP
 70
    46
  9
$DIMATFIT
 70
     3
  9
$DIMFRAC
 70
     0
  9
$DIMLDRBLK
  1

  9
$DIMLUNIT
 70
     2
  9
$DIMLWD
 70
    -1
  9
$DIMLWE
 70
    -1
  9
$DIMTMOVE
 70
     0
  9
$LUNITS
 70
     2
  9
$LUPREC
 70
     2
  9
$SKETCHINC
 40
1.0
  9
$FILLETRAD
 40
2.5
  9
$AUNITS
 70
     0
  9
$AUPREC
 70
     0
  9
$MENU
  1
.
  9
$ELEVATION
 40
0.0
  9
$PELEVATION
 40
0.0
  9
$THICKNESS
 40
0.0
  9
$LIMCHECK
 70
     0
  9
$CHAMFERA
 40
2.5
  9
$CHAMFERB
 40
2.5
  9
$CHAMFERC
 40
20.0
  9
$CHAMFERD
 40
0.0
  9
$SKPOLY
 70
     0
  9
$TDCREATE
 40
2453021.369367211
  9
$TDUCREATE
 40
2453021.036033877
  9
$TDUPDATE
 40
2454341.492432176
  9
$TDUUPDATE
 40
2454341.159098843
  9
$TDINDWG
 40
0.7889768981
  9
$TDUSRTIMER
 40
0.7889765509
  9
$USRTIMER
 70
     1
  9
$ANGBASE
 50
0.0
  9
$ANGDIR
 70
     0
  9
$PDMODE
 70
     0
  9
$PDSIZE
 40
0.0
  9
$PLINEWID
 40
0.0
  9
$SPLFRAME
 70
     0
  9
$SPLINETYPE
 70
     6
  9
$SPLINESEGS
 70
     8
  9
$HANDSEED
  5
6FFF
  9
$SURFTAB1
 70
     6
  9
$SURFTAB2
 70
     6
  9
$SURFTYPE
 70
     6
  9
$SURFU
 70
     6
  9
$SURFV
 70
     6
  9
$UCSBASE
  2

  9
$UCSNAME
  2

  9
$UCSORG
 10
0.0
 20
0.0
 30
0.0
  9
$UCSXDIR
 10
1.0
 20
0.0
 30
0.0
  9
$UCSYDIR
 10
0.0
 20
1.0
 30
0.0
  9
$UCSORTHOREF
  2

  9
$UCSORTHOVIEW
 70
     0
  9
$UCSORGTOP
 10
0.0
 20
0.0
 30
0.0
  9
$UCSORGBOTTOM
 10
0.0
 20
0.0
 30
0.0
  9
$UCSORGLEFT
 10
0.0
 20
0.0
 30
0.0
  9
$UCSORGRIGHT
 10
0.0
 20
0.0
 30
0.0
  9
$UCSORGFRONT
 10
0.0
 20
0.0
 30
0.0
  9
$UCSORGBACK
 10
0.0
 20
0.0
 30
0.0
  9
$PUCSBASE
  2

  9
$PUCSNAME
  2

  9
$PUCSORG
 10
0.0
 20
0.0
 30
0.0
  9
$PUCSXDIR
 10
1.0
 20
0.0
 30
0.0
  9
$PUCSYDIR
 10
0.0
 20
1.0
 30
0.0
  9
$PUCSORTHOREF
  2

  9
$PUCSORTHOVIEW
 70
     0
  9
$PUCSORGTOP
 10
0.0
 20
0.0
 30
0.0
  9
$PUCSORGBOTTOM
 10
0.0
 20
0.0
 30
0.0
  9
$PUCSORGLEFT
 10
0.0
 20
0.0
 30
0.0
  9
$PUCSORGRIGHT
 10
0.0
 20
0.0
 30
0.0
  9
$PUCSORGFRONT
 10
0.0
 20
0.0
 30
0.0
  9
$PUCSORGBACK
 10
0.0
 20
0.0
 30
0.0
  9
$USERI1
 70
     0
  9
$USERI2
 70
     0
  9
$USERI3
 70
     0
  9
$USERI4
 70
     0
  9
$USERI5
 70
     0
  9
$USERR1
 40
0.0
  9
$USERR2
 40
0.0
  9
$USERR3
 40
0.0
  9
$USERR4
 40
0.0
  9
$USERR5
 40
0.0
  9
$WORLDVIEW
 70
     1
  9
$SHADEDGE
 70
     3
  9
$SHADEDIF
 70
    70
  9
$TILEMODE
 70
     1
  9
$MAXACTVP
 70
    64
  9
$PINSBASE
 10
0.0
 20
0.0
 30
0.0
  9
$PLIMCHECK
 70
     0
  9
$PEXTMIN
 10
1.000000000000000E+20
 20
1.000000000000000E+20
 30
1.000000000000000E+20
  9
$PEXTMAX
 10
-1.000000000000000E+20
 20
-1.000000000000000E+20
 30
-1.000000000000000E+20
  9
$PLIMMIN
 10
0.0
 20
0.0
  9
$PLIMMAX
 10
420.0
 20
297.0
  9
$UNITMODE
 70
     0
  9
$VISRETAIN
 70
     1
  9
$PLINEGEN
 70
     0
  9
$PSLTSCALE
 70
     1
  9
$TREEDEPTH
 70
  3020
  9
$CMLSTYLE
  2
Standard
  9
$CMLJUST
 70
     0
  9
$CMLSCALE
 40
20.0
  9
$PROXYGRAPHICS
 70
     1
  9
$MEASUREMENT
 70
     1
  9
$CELWEIGHT
370
    -1
  9
$ENDCAPS
280
     0
  9
$JOINSTYLE
280
     0
  9
$LWDISPLAY
290
     0
  9
$INSUNITS
 70
     4
  9
$HYPERLINKBASE
  1

  9
$STYLESHEET
  1
彩色出圖.ctb
  9
$XEDIT
290
     1
  9
$CEPSNTYPE
380
     0
  9
$PSTYLEMODE
290
     1
  9
$FINGERPRINTGUID
  2
{6C02722A-18D3-491A-897A-B8025DE410A9}
  9
$VERSIONGUID
  2
{C06BF7AD-61CE-4EBF-935A-614AC4E05A0C}
  9
$EXTNAMES
290
     1
  9
$PSVPSCALE
 40
0.0
  9
$OLESTARTUP
290
     0
  0
ENDSEC
  0
SECTION
  2
CLASSES
  0
CLASS
  1
ACDBDICTIONARYWDFLT
  2
AcDbDictionaryWithDefault
  3
ObjectDBX Classes
 90
        0
280
     0
281
     0
  0
CLASS
  1
ACDBPLACEHOLDER
  2
AcDbPlaceHolder
  3
ObjectDBX Classes
 90
        0
280
     0
281
     0
  0
CLASS
  1
LAYOUT
  2
AcDbLayout
  3
ObjectDBX Classes
 90
        0
280
     0
281
     0
  0
CLASS
  1
AMGSETTINGSOBJ
  2
AmgSettingsObj
  3
"AcadM|Product Description: AutoCAD Mechanical 2000|Company: Autodesk"
 90
        0
280
     0
281
     0
  0
CLASS
  1
ACME_DOCUMENT
  2
AcMeDbDoc
  3
AcMeServices
 90
        0
280
     0
281
     0
  0
CLASS
  1
ACMESCOPE
  2
AcMeScope
  3
AcMeServices
 90
        0
280
     0
281
     0
  0
CLASS
  1
ACMECOMMANDHISTORY
  2
AcMeCommandHistory
  3
AcMeServices
 90
        0
280
     0
281
     0
  0
CLASS
  1
ACIMSYSVARMAN
  2
AcImSysVarManager
  3
AcMeServices
 90
        0
280
     0
281
     0
  0
CLASS
  1
ACIMREALSYSVAR
  2
AcImRealSysVar
  3
AcMeServices
 90
        0
280
     0
281
     0
  0
CLASS
  1
ACIMINTSYSVAR
  2
AcImIntSysVar
  3
AcMeServices
 90
        0
280
     0
281
     0
  0
CLASS
  1
ACMEDRAWINGMAN
  2
AcMeDrawingMan
  3
AcMeServices
 90
        0
280
     0
281
     0
  0
CLASS
  1
ACMEVIEW
  2
AcMeView
  3
AcMeServices
 90
        0
280
     0
281
     0
  0
CLASS
  1
ACDBENTITYCACHE
  2
AcMeEntityCache
  3
AcMeServices
 90
        0
280
     0
281
     0
  0
CLASS
  1
GSMANAGER
  2
AcMeGSManager
  3
AcMeServices
 90
        0
280
     0
281
     0
  0
CLASS
  1
AMDTINTERNALREACTOR
  2
AmdtInternalReactor
  3
AcMeServices
 90
        0
280
     0
281
     0
  0
CLASS
  1
ACMESTATEMGR
  2
AcMeStateMgr
  3
AcMeServices
 90
        0
280
     0
281
     0
  0
CLASS
  1
ACGREFMASTER
  2
AcGrefMaster
  3
AcAttribServices
 90
        0
280
     0
281
     0
  0
CLASS
  1
ACME_DATABASE
  2
AcMeDbDatabase
  3
AcMeServices
 90
        0
280
     0
281
     0
  0
CLASS
  1
ACRFINSADJUSTERMGR
  2
AcRfInsAdjusterMgr
  3
AcMeServices
 90
        0
280
     0
281
     0
  0
CLASS
  1
ACGREFACADMASTER
  2
AcGrefacadMaster
  3
AcGrefServices
 90
        0
280
     0
281
     0
  0
CLASS
  1
AMIMASTER
  2
AmiMaster
  3
AmiServices
 90
        0
280
     0
281
     0
  0
CLASS
  1
ACMDATADICTIONARY
  2
AcmDataDictionary
  3
"AcmSymBB|Product Description: AutoCAD Mechanical 2004 DX|Company: Autodesk"
 90
        0
280
     0
281
     0
  0
CLASS
  1
ACMDATAENTRYBLOCK
  2
AcmDataEntryBlock
  3
"AcmSymBB|Product Description: AutoCAD Mechanical 2004 DX|Company: Autodesk"
 90
    32768
280
     0
281
     0
  0
CLASS
  1
ACIMSTRSYSVAR
  2
AcImStrSysVar
  3
AcMeServices
 90
        0
280
     0
281
     0
  0
CLASS
  1
ACMSTANDARDISO
  2
AcmStandardISO
  3
"Amdt_StdImp|Product Description: AutoCAD Mechanical 2004 DX|Company: Autodesk"
 90
        0
280
     0
281
     0
  0
CLASS
  1
AMGOBJPROPCFG
  2
AmgObjPropCfg
  3
"AmgLay|Product Description: AutoCAD Mechanical 2000|Company: Autodesk"
 90
        1
280
     0
281
     0
  0
CLASS
  1
AMDTEDGESTANDARDISO
  2
AmdtEdgeStdISO
  3
"Amdt_StdImp|Product Description: AutoCAD Mechanical 2004 DX|Company: Autodesk"
 90
    32768
280
     0
281
     0
  0
CLASS
  1
ACMSURFSTANDARDISO
  2
AcmSurfTextStdISO
  3
"Amdt_StdImp|Product Description: AutoCAD Mechanical 2004 DX|Company: Autodesk"
 90
        0
280
     0
281
     0
  0
CLASS
  1
ACMFCFSTANDARDISO
  2
AcmFCFStdISO
  3
"Amdt_StdImp|Product Description: AutoCAD Mechanical 2004 DX|Company: Autodesk"
 90
        0
280
     0
281
     0
  0
CLASS
  1
ACMWELDSTANDARDISO
  2
AcmWeldingStdISO
  3
"Amdt_StdImp|Product Description: AutoCAD Mechanical 2004 DX|Company: Autodesk"
 90
        0
280
     0
281
     0
  0
CLASS
  1
ACMIDSTANDARDISO
  2
AcmIdStdISO
  3
"Amdt_StdImp|Product Description: AutoCAD Mechanical 2004 DX|Company: Autodesk"
 90
        0
280
     0
281
     0
  0
CLASS
  1
ACMDATUMSTANDARDISO
  2
AcmDatumStdISO
  3
"Amdt_StdImp|Product Description: AutoCAD Mechanical 2004 DX|Company: Autodesk"
 90
        0
280
     0
281
     0
  0
CLASS
  1
ACMBOMSTANDARDISO
  2
AcmBOMStdISO
  3
"Amdt_StdImp|Product Description: AutoCAD Mechanical 2004 DX|Company: Autodesk"
 90
        0
280
     0
281
     0
  0
CLASS
  1
ACMDETAILSTANDARDISO
  2
AmdtDetailSymStdISO
  3
"Amdt_StdImp|Product Description: AutoCAD Mechanical 2004 DX|Company: Autodesk"
 90
        0
280
     0
281
     0
  0
CLASS
  1
ACMSECTIONSTANDARDISO
  2
AmdtSectionSymStdISO
  3
"Amdt_StdImp|Product Description: AutoCAD Mechanical 2004 DX|Company: Autodesk"
 90
        0
280
     0
281
     0
  0
CLASS
  1
ACMCENTERLINESTANDARDISO
  2
AmdtCenterLineStdISO
  3
"Amdt_StdImp|Product Description: AutoCAD Mechanical 2004 DX|Company: Autodesk"
 90
        0
280
     0
281
     0
  0
CLASS
  1
ACMNOTESTANDARDISO
  2
AmdtNoteStdISO
  3
"Amdt_StdImp|Product Description: AutoCAD Mechanical 2004 DX|Company: Autodesk"
 90
        0
280
     0
281
     0
  0
CLASS
  1
ACAMGLAYSTD
  2
AcAmgLayStd
  3
"AcAmgLayStd|Product Description: AutoCAD Mechanical 2000|Company: Autodesk"
 90
        0
280
     0
281
     0
  0
CLASS
  1
ACAMGDIMSTD
  2
AcAmgDimStd
  3
"AcAmgDimStd|Product Description: AutoCAD Mechanical 2000|Company: Autodesk"
 90
        0
280
     0
281
     0
  0
CLASS
  1
ACAMGHOLECHARTSTDISO
  2
AcAmgHoleChartStdISO
  3
ACMSYMBB_MODULE_NAME
 90
        0
280
     0
281
     0
  0
CLASS
  1
ACAMGTITLESTD
  2
AcAmgTitleStd
  3
"TITLEAPP"
 90
        0
280
     0
281
     0
  0
CLASS
  1
LAYER_INDEX
  2
AcDbLayerIndex
  3
ObjectDBX Classes
 90
    32768
280
     0
281
     0
  0
CLASS
  1
IDBUFFER
  2
AcDbIdBuffer
  3
ObjectDBX Classes
 90
    32768
280
     0
281
     0
  0
CLASS
  1
DICTIONARYVAR
  2
AcDbDictionaryVar
  3
ObjectDBX Classes
 90
        0
280
     0
281
     0
  0
CLASS
  1
ACAMGFILTERDAT
  2
AcAmgFilterDat
  3
"AcadM|Product Description: AutoCAD Mechanical 2000|Company: Autodesk"
 90
    32768
280
     0
281
     0
  0
CLASS
  1
AMDTFORMULAUPDATEDISPATCHER
  2
AmdtFormulaUpdateDispatcher
  3
AcMeServices
 90
    32768
280
     0
281
     0
  0
CLASS
  1
DIMASSOC
  2
AcDbDimAssoc
  3
"AcDbDimAssoc|Product Desc:     AcDim ARX App For Dimension|Company:          Autodesk, Inc.|WEB Address:      www.autodesk.com"
 90
        0
280
     0
281
     0
  0
CLASS
  1
AMDTNOTE
  2
AmdtNote
  3
"AcmSymBB|Product Description: AutoCAD Mechanical 2004 DX|Company: Autodesk"
 90
    33791
280
     0
281
     1
  0
CLASS
  1
TABLESTYLE
  2
AcDbTableStyle
  3
ObjectDBX Classes
 90
     2047
280
     0
281
     0
  0
CLASS
  1
AM_DRAWING_MGR
  2
AcDmDwgMgr
  3
AcMechDwgViewMgmt
 90
        0
280
     0
281
     0
  0
CLASS
  1
AM_DWG_DOCUMENT
  2
AcDmDwgDocument
  3
AcMechDwgViewMgmt
 90
        0
280
     0
281
     0
  0
CLASS
  1
AM_DWG_SHEET
  2
AcDmSheet
  3
AcMechDwgViewMgmt
 90
        0
280
     0
281
     0
  0
CLASS
  1
AM_VIEWDIMPARMAP
  2
AcDmViewDimParMap
  3
AcMechDwgViewMgmt
 90
        0
280
     0
281
     0
  0
CLASS
  1
AM_DWGMGR_NAME
  2
AcDmDwgMgrName
  3
AcMechDwgViewMgmt
 90
        0
280
     0
281
     0
  0
CLASS
  1
AMDTMENUSTATEMGR
  2
AmdtMenuStateMgr
  3
McadcomServices
 90
        0
280
     0
281
     0
  0
CLASS
  1
AMDTMCOMMENUSTATE
  2
AmdtMcomMenuState
  3
McadcomServices
 90
        0
280
     0
281
     0
  0
CLASS
  1
MAPIAMMOUDLE
  2
MApiAmModule
  3
MApiAmServices
 90
        0
280
     0
281
     0
  0
CLASS
  1
AMDTADMENUSTATE
  2
AmdtAdMenuState
  3
DesignerServices
 90
        0
280
     0
281
     0
  0
CLASS
  1
ADAPPL
  2
AcAdAppl
  3
DesignerServices
 90
        0
280
     0
281
     0
  0
CLASS
  1
DEPMGR
  2
AcAdDepMgr
  3
DesignerServices
 90
        0
280
     0
281
     0
  0
CLASS
  1
PARAMMGR
  2
AcAdParamMgr
  3
DesignerServices
 90
        0
280
     0
281
     0
  0
CLASS
  1
PARAMSCOPE
  2
AcAdParamScope
  3
DesignerServices
 90
        0
280
     0
281
     0
  0
CLASS
  1
NAMEDAPPL
  2
AcAdNamedAppl
  3
DesignerServices
 90
        0
280
     0
281
     0
  0
CLASS
  1
AMDTDMMENUSTATE
  2
AmdtDmMenuState
  3
AcMechDwgViewMgmt
 90
        0
280
     0
281
     0
  0
CLASS
  1
AMDTAMMENUSTATE
  2
AmdtAmMenuState
  3
DesignerAssemblies
 90
        0
280
     0
281
     0
  0
CLASS
  1
ACAMPROJECT
  2
AcAmProject
  3
DesignerAssemblies
 90
        0
280
     0
281
     0
  0
CLASS
  1
ACAMGRCOMPDEF
  2
AcAmGrCompDef
  3
DesignerAssemblies
 90
        0
280
     0
281
     0
  0
CLASS
  1
ACCMCONTEXT
  2
AcCmContext
  3
DesignerAssemblies
 90
        0
280
     0
281
     0
  0
CLASS
  1
ACAMCOMPDEF
  2
AcAmCompDef
  3
DesignerAssemblies
 90
        0
280
     0
281
     0
  0
CLASS
  1
ACAMCOMPDEFMGR
  2
AcAmCompDefMgr
  3
DesignerAssemblies
 90
        0
280
     0
281
     0
  0
CLASS
  1
AMCONTEXTMGR
  2
AcAmContextMgr
  3
DesignerAssemblies
 90
        0
280
     0
281
     0
  0
CLASS
  1
ACAMCONTEXTMODELER
  2
AcAmContextModeler
  3
DesignerAssemblies
 90
        0
280
     0
281
     0
  0
CLASS
  1
ACMTHREADLINESTANDARDISO
  2
AmdtThreadLineStdISO
  3
"Amdt_StdImp|Product Description: AutoCAD Mechanical 2004 DX|Company: Autodesk"
 90
        0
280
     0
281
     0
  0
CLASS
  1
CATALOGSTATE
  2
AcAmCatalogState
  3
DesignerAssemblies
 90
        0
280
     0
281
     0
  0
CLASS
  1
ACAMGRCOMPDEFSET
  2
AcAmGrCompDefSet
  3
DesignerAssemblies
 90
        0
280
     0
281
     0
  0
CLASS
  1
AMDTBROWSERDBTAB
  2
AmdtBrowserDbTab
  3
McadcomServices
 90
        0
280
     0
281
     0
  0
CLASS
  1
CBROWSERAPPOBJECT
  2
CBrowserAppObject
  3
McadcomServices
 90
        0
280
     0
281
     0
  0
CLASS
  1
DM_PLACEHOLDER
  2
AcDmSelsetPlaceholder
  3
AcMechDwgViewMgmt
 90
        0
280
     0
281
     0
  0
CLASS
  1
VAACXREFPANELOBJECT
  2
VaAcXREFPanelObject
  3
VAAC_ADDIN
 90
    32768
280
     0
281
     0
  0
CLASS
  1
VAACIMAGEINVENTORY
  2
VaAcImageInventory
  3
VAAC_ADDIN
 90
    32768
280
     0
281
     0
  0
CLASS
  1
AMDTEDGESTANDARDISO13715
  2
AmdtEdgeStdISO13715
  3
"Amdt_StdImp|Product Description: AutoCAD Mechanical 2004 DX|Company: Autodesk"
 90
        0
280
     0
281
     0
  0
CLASS
  1
AMDTNOTETEMPLATEDB
  2
AmdtNoteTemplateDB
  3
AMDT_STDIMP_MODULE_NAME
 90
        0
280
     0
281
     0
  0
CLASS
  1
ACRFATTGENMGR
  2
AcRfAttGeneralMgr
  3
AcAttribServices
 90
        0
280
     0
281
     0
  0
CLASS
  1
SORTENTSTABLE
  2
AcDbSortentsTable
  3
ObjectDBX Classes
 90
    32768
280
     0
281
     0
  0
CLASS
  1
ACMDIMBREAKPERSREACTOR
  2
AcmDimBreakPersReactor
  3
amgDimApp().moduleName()
 90
    33791
280
     0
281
     0
  0
ENDSEC
  0
SECTION
  2
TABLES
  0
TABLE
  2
VPORT
  5
8
330
0
100
AcDbSymbolTable
 70
    20
  0
VPORT
  5
6FF6
330
8
100
AcDbSymbolTableRecord
100
AcDbViewportTableRecord
  2
*Active
 70
     0
 10
0.0
 20
0.0
 11
1.0
 21
1.0
 12
718.9479554448169
 22
132.2079627086734
 13
0.0
 23
0.0
 14
2.5
 24
2.5
 15
10.0
 25
10.0
 16
0.0
 26
0.0
 36
1.0
 17
0.0
 27
0.0
 37
0.0
 40
141.1745211908387
 41
1.661684782608695
 42
50.0
 43
0.0
 44
0.0
 50
0.0
 51
0.0
 71
     0
 72
   100
 73
     1
 74
     3
 75
     0
 76
     0
 77
     0
 78
     0
281
     0
 65
     1
110
0.0
120
0.0
130
0.0
111
1.0
121
0.0
131
0.0
112
0.0
122
1.0
132
0.0
 79
     0
146
0.0
  0
ENDTAB
  0
TABLE
  2
LTYPE
  5
5
330
0
100
AcDbSymbolTable
 70
    14
  0
LTYPE
  5
14
330
5
100
AcDbSymbolTableRecord
100
AcDbLinetypeTableRecord
  2
ByBlock
 70
     0
  3

 72
    65
 73
     0
 40
0.0
  0
LTYPE
  5
15
330
5
100
AcDbSymbolTableRecord
100
AcDbLinetypeTableRecord
  2
ByLayer
 70
     0
  3

 72
    65
 73
     0
 40
0.0
  0
LTYPE
  5
16
330
5
100
AcDbSymbolTableRecord
100
AcDbLinetypeTableRecord
  2
Continuous
 70
     0
  3
Solid line
 72
    65
 73
     0
 40
0.0
  0
LTYPE
  5
4D
330
5
100
AcDbSymbolTableRecord
100
AcDbLinetypeTableRecord
  2
AM_ISO02W050
 70
     0
  3
__ __ __ __ __ __ __ __ __ __ __ __ __ __ __
 72
    65
 73
     2
 40
7.5
 49
6.0
 74
     0
 49
-1.5
 74
     0
  0
LTYPE
  5
4E
330
5
100
AcDbSymbolTableRecord
100
AcDbLinetypeTableRecord
  2
AM_ISO08W050
 70
     0
  3
____ . ____ . ____ . ____ . ____ . ____ . ____
 72
    65
 73
     4
 40
18.0
 49
12.0
 74
     0
 49
-1.5
 74
     0
 49
3.0
 74
     0
 49
-1.5
 74
     0
  0
LTYPE
  5
4F
330
5
100
AcDbSymbolTableRecord
100
AcDbLinetypeTableRecord
  2
AM_ISO09W050
 70
     0
  3
_____ . . _____ . . _____ . . ____ .. ____
 72
    65
 73
     6
 40
22.5
 49
12.0
 74
     0
 49
-1.5
 74
     0
 49
3.0
 74
     0
 49
-1.5
 74
     0
 49
3.0
 74
     0
 49
-1.5
 74
     0
  0
LTYPE
  5
50
330
5
100
AcDbSymbolTableRecord
100
AcDbLinetypeTableRecord
  2
Amconstr
 70
     0
  3
_______________________
 72
    65
 73
     2
 40
9999.0
 49
9999.0
 74
     0
 49
0.0
 74
     0
  0
LTYPE
  5
51
330
5
100
AcDbSymbolTableRecord
100
AcDbLinetypeTableRecord
  2
AM_ISO08W050x2
 70
     0
  3
__ . __ . __ . __ . __ . __
 72
    65
 73
     4
 40
9.0
 49
6.0
 74
     0
 49
-0.75
 74
     0
 49
1.5
 74
     0
 49
-0.75
 74
     0
  0
LTYPE
  5
52
330
5
100
AcDbSymbolTableRecord
100
AcDbLinetypeTableRecord
  2
AM_ISO02W050x2
 70
     0
  3
 _ _ _ _ _ _ _ _ _ _ _ _
 72
    65
 73
     2
 40
3.75
 49
3.0
 74
     0
 49
-0.75
 74
     0
  0
LTYPE
  5
55
330
5
100
AcDbSymbolTableRecord
100
AcDbLinetypeTableRecord
  2
Amzigzag
 70
     0
  3
/\/-/\/-/\/-/\/-/\/-/\/
 72
    65
 73
     2
 40
11.0001
 49
0.0001
 74
     4
 75
   135
340
54
 46
0.04
 50
0.0
 44
0.0
 45
0.0
 49
-11.0
 74
     0
  0
LTYPE
  5
63
330
5
100
AcDbSymbolTableRecord
100
AcDbLinetypeTableRecord
  2
ACISOWELD
 70
     0
  3
_ _ _ _ _
 72
    65
 73
     2
 40
2.0
 49
2.0
 74
     0
 49
-1.0
 74
     0
  0
LTYPE
  5
64
330
5
100
AcDbSymbolTableRecord
100
AcDbLinetypeTableRecord
  2
ACISOTGB
 70
     0
  3
__ . . __ . .
 72
    65
 73
     6
 40
9.0
 49
4.0
 74
     0
 49
-1.0
 74
     0
 49
1.0
 74
     0
 49
-1.0
 74
     0
 49
1.0
 74
     0
 49
-1.0
 74
     0
  0
LTYPE
  5
65
330
5
100
AcDbSymbolTableRecord
100
AcDbLinetypeTableRecord
  2
ACISOTGL
 70
     0
  3
_ _ _ _ _
 72
    65
 73
     2
 40
3.0
 49
2.0
 74
     0
 49
-1.0
 74
     0
  0
LTYPE
  5
68
330
5
100
AcDbSymbolTableRecord
100
AcDbLinetypeTableRecord
  2
CENTER
 70
     0
  3
__ . __
 72
    65
 73
     4
 40
7.0
 49
4.0
 74
     0
 49
-1.0
 74
     0
 49
1.0
 74
     0
 49
-1.0
 74
     0
  0
LTYPE
  5
6A6
330
5
100
AcDbSymbolTableRecord
100
AcDbLinetypeTableRecord
  2
HIDDEN
 70
     0
  3
Hidden __ __ __ __ __ __ __ __ __ __ __ __ __ _
 72
    65
 73
     2
 40
9.524999999999998
 49
6.349999999999999
 74
     0
 49
-3.174999999999999
 74
     0
  0
LTYPE
  5
6A7
330
5
100
AcDbSymbolTableRecord
100
AcDbLinetypeTableRecord
  2
PHANTOM2
 70
     0
  3
Phantom (.5x) ___ _ _ ___ _ _ ___ _ _ ___ _ _
 72
    65
 73
     6
 40
31.75
 49
15.875
 74
     0
 49
-3.174999999999999
 74
     0
 49
3.174999999999999
 74
     0
 49
-3.174999999999999
 74
     0
 49
3.174999999999999
 74
     0
 49
-3.174999999999999
 74
     0
  0
ENDTAB
  0
TABLE
  2
LAYER
  5
2
102
{ACAD_XDICTIONARY
360
A9F
102
}
330
0
100
AcDbSymbolTable
 70
     7
  0
LAYER
  5
10
330
2
100
AcDbSymbolTableRecord
100
AcDbLayerTableRecord
  2
0
 70
     0
 62
     7
  6
Continuous
370
    -3
390
F
  0
LAYER
  5
42A
330
2
100
AcDbSymbolTableRecord
100
AcDbLayerTableRecord
  2
AM_5
 70
     0
 62
     5
  6
Continuous
370
    50
390
F
  0
LAYER
  5
43E
330
2
100
AcDbSymbolTableRecord
100
AcDbLayerTableRecord
  2
Defpoints
 70
     0
 62
     7
  6
Continuous
290
     0
370
    -3
390
F
  0
LAYER
  5
AD5
330
2
100
AcDbSymbolTableRecord
100
AcDbLayerTableRecord
  2
AM_VIS
 70
     0
 62
     7
  6
Continuous
370
    50
390
F
  0
LAYER
  5
AD7
330
2
100
AcDbSymbolTableRecord
100
AcDbLayerTableRecord
  2
AM_4
 70
     0
 62
     3
  6
Continuous
370
    25
390
F
  0
LAYER
  5
1B10
330
2
100
AcDbSymbolTableRecord
100
AcDbLayerTableRecord
  2
AM_7
 70
     0
 62
     1
  6
CENTER
370
    25
390
F
  0
LAYER
  5
59C4
330
2
100
AcDbSymbolTableRecord
100
AcDbLayerTableRecord
  2
LOGO
 70
     0
 62
     7
  6
Continuous
370
    -3
390
F
  0
ENDTAB
  0
TABLE
  2
STYLE
  5
3
330
0
100
AcDbSymbolTable
 70
     6
  0
STYLE
  5
11
330
3
100
AcDbSymbolTableRecord
100
AcDbTextStyleTableRecord
  2
STANDARD
 70
     0
 40
0.0
 41
1.0
 50
0.0
 71
     0
 42
3.5
  3
ISOCP.SHX
  4
CHINESET.SHX
  0
STYLE
  5
54
330
3
100
AcDbSymbolTableRecord
100
AcDbTextStyleTableRecord
  2

 70
     1
 40
0.0
 41
1.0
 50
0.0
 71
     0
 42
2.5
  3
ltypeshp.shx
  4

  0
STYLE
  5
56
330
3
100
AcDbSymbolTableRecord
100
AcDbTextStyleTableRecord
  2
ACISOTS
 70
     0
 40
1.0
 41
1.0
 50
0.0
 71
     0
 42
2.5
  3
isocp.shx
  4
chineset.shx
  0
STYLE
  5
62
330
3
100
AcDbSymbolTableRecord
100
AcDbTextStyleTableRecord
  2
ACISOGDT
 70
     0
 40
0.0
 41
1.0
 50
0.0
 71
     0
 42
3.5
  3
amgdt.shx
  4

  0
STYLE
  5
59C5
330
3
100
AcDbSymbolTableRecord
100
AcDbTextStyleTableRecord
  2
CHINESET
 70
     0
 40
0.0
 41
1.0
 50
0.0
 71
     0
 42
4.0
  3
simplex.shx
  4
chineset.shx
  0
ENDTAB
  0
TABLE
  2
VIEW
  5
6
330
0
100
AcDbSymbolTable
 70
     0
  0
ENDTAB
  0
TABLE
  2
UCS
  5
7
330
0
100
AcDbSymbolTable
 70
     0
  0
ENDTAB
  0
TABLE
  2
APPID
  5
9
330
0
100
AcDbSymbolTable
 70
    26
  0
APPID
  5
12
330
9
100
AcDbSymbolTableRecord
100
AcDbRegAppTableRecord
  2
ACAD
 70
     0
  0
APPID
  5
30
330
9
100
AcDbSymbolTableRecord
100
AcDbRegAppTableRecord
  2
MCAD_NO_VIS
 70
     0
  0
APPID
  5
31
330
9
100
AcDbSymbolTableRecord
100
AcDbRegAppTableRecord
  2
ACAD_TEMP_GRAPHIC
 70
     0
  0
APPID
  5
42
330
9
100
AcDbSymbolTableRecord
100
AcDbRegAppTableRecord
  2
ACATTRIBSERVICES
 70
     0
  0
APPID
  5
20A
330
9
100
AcDbSymbolTableRecord
100
AcDbRegAppTableRecord
  2
GENIUS_GENODEF_13
 70
     0
  0
APPID
  5
20B
330
9
100
AcDbSymbolTableRecord
100
AcDbRegAppTableRecord
  2
GENIUS_GENOBJ-N-HTC_13
 70
     0
  0
APPID
  5
20C
330
9
100
AcDbSymbolTableRecord
100
AcDbRegAppTableRecord
  2
GENIUS_GENHATCH_13
 70
     0
  0
APPID
  5
6A9
330
9
100
AcDbSymbolTableRecord
100
AcDbRegAppTableRecord
  2
AD_DRAW
 70
     0
  0
APPID
  5
6C7
330
9
100
AcDbSymbolTableRecord
100
AcDbRegAppTableRecord
  2
DESIGNERASSEMBLIES
 70
     0
  0
APPID
  5
6CC
330
9
100
AcDbSymbolTableRecord
100
AcDbRegAppTableRecord
  2
ACADM_DIM_EDIT
 70
     0
  0
APPID
  5
6CD
330
9
100
AcDbSymbolTableRecord
100
AcDbRegAppTableRecord
  2
AMDT_DM_ADJ
 70
     0
  0
APPID
  5
A4A
330
9
100
AcDbSymbolTableRecord
100
AcDbRegAppTableRecord
  2
ACAD_DSTYLE_DIMTEXT_FILL
 70
     0
  0
APPID
  5
ADA
330
9
100
AcDbSymbolTableRecord
100
AcDbRegAppTableRecord
  2
ACAD_PSEXT
 70
     0
  0
APPID
  5
1B16
330
9
100
AcDbSymbolTableRecord
100
AcDbRegAppTableRecord
  2
GENIUS_GENOLIS_13
 70
     0
  0
APPID
  5
1B17
330
9
100
AcDbSymbolTableRecord
100
AcDbRegAppTableRecord
  2
GENIUS_GENOBJ-N-CRS_13
 70
     0
  0
APPID
  5
1B18
330
9
100
AcDbSymbolTableRecord
100
AcDbRegAppTableRecord
  2
GENIUS_GENOENT_13
 70
     0
  0
APPID
  5
1B19
330
9
100
AcDbSymbolTableRecord
100
AcDbRegAppTableRecord
  2
GENIUS_GENOREF_13
 70
     0
  0
APPID
  5
1BDB
330
9
100
AcDbSymbolTableRecord
100
AcDbRegAppTableRecord
  2
GENIUS_GENOBJ-N-CEN_13
 70
     0
  0
APPID
  5
1BDC
330
9
100
AcDbSymbolTableRecord
100
AcDbRegAppTableRecord
  2
GENIUS_GENCEN_19
 70
     0
  0
APPID
  5
48C2
330
9
100
AcDbSymbolTableRecord
100
AcDbRegAppTableRecord
  2
AcAecLayerStandard
 70
     0
  0
APPID
  5
5343
330
9
100
AcDbSymbolTableRecord
100
AcDbRegAppTableRecord
  2
GENIUS_GENDTOL_13
 70
     0
  0
APPID
  5
548C
330
9
100
AcDbSymbolTableRecord
100
AcDbRegAppTableRecord
  2
ACAD_DIMASSOC_DIMLFAC
 70
     0
  0
APPID
  5
548D
330
9
100
AcDbSymbolTableRecord
100
AcDbRegAppTableRecord
  2
ACAD_DIMASSOC_CALC_DIMLFAC
 70
     0
  0
APPID
  5
548E
330
9
100
AcDbSymbolTableRecord
100
AcDbRegAppTableRecord
  2
ACAD_DIMASSOC_OVERRIDDEN_DIMLFAC
 70
     0
  0
APPID
  5
59C6
330
9
100
AcDbSymbolTableRecord
100
AcDbRegAppTableRecord
  2
GENIUS_GENREC_14
 70
     0
  0
APPID
  5
59C7
330
9
100
AcDbSymbolTableRecord
100
AcDbRegAppTableRecord
  2
GENIUS_GENOBJ-N-REC_13
 70
     0
  0
ENDTAB
  0
TABLE
  2
DIMSTYLE
  5
A
330
0
100
AcDbSymbolTable
 70
    10
100
AcDbDimStyleTable
 71
     2
340
6B
340
75
  0
DIMSTYLE
105
6B
330
A
100
AcDbSymbolTableRecord
100
AcDbDimStyleTableRecord
  2
AM_ISO
 70
     0
  4
"
 41
3.0
 42
1.0
 43
5.0
 44
1.5
 47
0.1
 48
0.1
 73
     0
 74
     0
 77
     1
 78
     8
 79
     2
140
3.5
141
3.0
143
0.0393701
146
0.71
147
0.8
172
     1
176
   256
177
   256
178
   256
271
     2
272
     2
283
     0
284
     8
340
11
371
    -1
372
    -1
  0
DIMSTYLE
105
6C
330
A
100
AcDbSymbolTableRecord
100
AcDbDimStyleTableRecord
  2
AM_ISO$3
 70
     0
  4
"
 41
3.0
 42
1.0
 43
5.0
 44
1.5
 47
0.1
 48
0.1
 73
     0
 77
     1
 78
     8
 79
     2
140
3.5
141
3.0
143
0.0393701
146
0.71
147
0.8
176
   256
177
   256
178
   256
271
     2
272
     2
283
     0
284
     8
288
     1
289
     0
340
11
371
    -1
372
    -1
  0
DIMSTYLE
105
6D
330
A
100
AcDbSymbolTableRecord
100
AcDbDimStyleTableRecord
  2
AM_ISO$4
 70
     0
  4
"
 41
3.0
 42
1.0
 43
5.0
 44
1.5
 47
0.1
 48
0.1
 73
     0
 77
     1
 78
     8
 79
     2
140
3.5
141
3.0
143
0.0393701
146
0.71
147
0.8
176
   256
177
   256
178
   256
271
     2
272
     2
283
     0
284
     8
288
     1
289
     0
340
11
371
    -1
372
    -1
  0
DIMSTYLE
105
6E
330
A
100
AcDbSymbolTableRecord
100
AcDbDimStyleTableRecord
  2
AM_ISO$6
 70
     0
  4
"
 41
3.0
 42
1.0
 43
5.0
 44
1.5
 47
0.1
 48
0.1
 73
     0
 74
     0
 78
     8
 79
     2
140
3.5
141
3.0
143
0.0393701
146
0.71
147
0.8
172
     1
176
   256
177
   256
178
   256
271
     2
272
     2
283
     0
284
     8
340
11
371
    -1
372
    -1
  0
DIMSTYLE
105
6F
330
A
100
AcDbSymbolTableRecord
100
AcDbDimStyleTableRecord
  2
AM_ISO$7
 70
     0
  4
"
 41
3.0
 42
1.0
 43
5.0
 44
1.5
 47
0.1
 48
0.1
 73
     0
 74
     0
 77
     1
 78
     8
 79
     2
140
5.0
141
3.0
143
0.0393701
146
0.71
147
0.8
172
     1
176
   256
177
   256
178
   256
271
     2
272
     2
283
     0
284
     8
340
11
371
    -1
372
    -1
  0
DIMSTYLE
105
70
330
A
100
AcDbSymbolTableRecord
100
AcDbDimStyleTableRecord
  2
AM_ISO$SF
 70
     0
  4
"
 41
2.5
 42
1.0
 43
10.0
 44
1.0
 47
0.1
 48
0.1
 73
     0
 74
     0
 75
     1
 76
     1
 77
     1
 78
     8
 79
     2
140
3.5
141
0.0
143
0.0393701
146
0.71
147
1.5
172
     1
176
   256
177
   256
178
     2
271
     2
272
     3
274
     4
283
     0
284
     8
340
11
371
    -1
372
    -1
  0
DIMSTYLE
105
75
330
A
100
AcDbSymbolTableRecord
100
AcDbDimStyleTableRecord
  2
AM_ISO$SH
 70
     0
  4
"
 41
2.5
 42
1.0
 43
10.0
 44
1.0
 47
0.1
 48
0.1
 73
     0
 74
     0
 75
     1
 76
     1
 77
     1
 78
     8
 79
     2
140
3.5
141
0.0
143
0.0393701
144
2.0
146
0.71
147
1.5
172
     1
173
     1
176
   256
177
   256
178
     2
271
     2
272
     3
274
     4
283
     0
284
     8
340
11
343
71
371
    -1
372
    -1
  0
DIMSTYLE
105
1CDB
102
{ACAD_REACTORS
330
64CD
330
64D0
330
64D3
330
64D6
330
64DC
330
64DF
330
64E2
330
64E5
330
64E8
330
64EB
330
64EE
330
64F7
330
64FD
102
}
330
A
100
AcDbSymbolTableRecord
100
AcDbDimStyleTableRecord
  2
AM_ISO$0
 70
     0
  4
"
 41
3.0
 42
1.0
 43
5.0
 44
1.5
 47
0.1
 48
0.1
 73
     0
 74
     0
 77
     1
 78
     8
 79
     2
140
3.5
141
3.0
143
0.0393701
146
0.71
147
0.8
172
     1
176
   256
177
   256
178
   256
271
     2
272
     2
283
     0
284
     8
340
11
371
    -1
372
    -1
  0
DIMSTYLE
105
5454
330
A
100
AcDbSymbolTableRecord
100
AcDbDimStyleTableRecord
  2
AM_ISO$2
 70
     0
  4
"
 41
3.0
 42
1.0
 43
5.0
 44
1.5
 47
0.1
 48
0.1
 73
     0
 74
     0
 77
     1
 78
     8
 79
     2
140
3.5
141
3.0
143
0.0393701
146
0.71
147
0.8
172
     1
176
   256
177
   256
178
   256
271
     2
272
     2
283
     0
284
     8
340
11
371
    -1
372
    -1
  0
ENDTAB
  0
TABLE
  2
BLOCK_RECORD
  5
1
330
0
100
AcDbSymbolTable
 70
    28
  0
BLOCK_RECORD
  5
1F
102
{ACAD_XDICTIONARY
360
7D
102
}
330
1
100
AcDbSymbolTableRecord
100
AcDbBlockTableRecord
  2
*Model_Space
340
22
  0
BLOCK_RECORD
  5
1B
330
1
100
AcDbSymbolTableRecord
100
AcDbBlockTableRecord
  2
*Paper_Space
340
1E
  0
BLOCK_RECORD
  5
23
330
1
100
AcDbSymbolTableRecord
100
AcDbBlockTableRecord
  2
*Paper_Space0
340
26
  0
BLOCK_RECORD
  5
71
330
1
100
AcDbSymbolTableRecord
100
AcDbBlockTableRecord
  2
GENAXEH
340
0
  0
BLOCK_RECORD
  5
5BB4
102
{ACAD_XDICTIONARY
360
5BB5
102
}
330
1
100
AcDbSymbolTableRecord
100
AcDbBlockTableRecord
  2
A$C24FE6367
340
0
102
{BLKREFS
331
619D
102
}
  0
BLOCK_RECORD
  5
5BD0
102
{ACAD_XDICTIONARY
360
5BD1
102
}
330
1
100
AcDbSymbolTableRecord
100
AcDbBlockTableRecord
  2
A$C125B1E63
340
0
102
{BLKREFS
331
619E
102
}
  0
BLOCK_RECORD
  5
5BF2
102
{ACAD_XDICTIONARY
360
5BF3
102
}
330
1
100
AcDbSymbolTableRecord
100
AcDbBlockTableRecord
  2
A$C69534E5A
340
0
102
{BLKREFS
331
61A0
102
}
  0
BLOCK_RECORD
  5
6606
330
1
100
AcDbSymbolTableRecord
100
AcDbBlockTableRecord
  2
*D6
340
0
  0
BLOCK_RECORD
  5
6612
330
1
100
AcDbSymbolTableRecord
100
AcDbBlockTableRecord
  2
*D7
340
0
  0
BLOCK_RECORD
  5
661E
330
1
100
AcDbSymbolTableRecord
100
AcDbBlockTableRecord
  2
*D8
340
0
  0
BLOCK_RECORD
  5
662A
330
1
100
AcDbSymbolTableRecord
100
AcDbBlockTableRecord
  2
*D9
340
0
  0
BLOCK_RECORD
  5
6644
330
1
100
AcDbSymbolTableRecord
100
AcDbBlockTableRecord
  2
*D11
340
0
  0
BLOCK_RECORD
  5
6652
330
1
100
AcDbSymbolTableRecord
100
AcDbBlockTableRecord
  2
*D12
340
0
  0
BLOCK_RECORD
  5
665E
330
1
100
AcDbSymbolTableRecord
100
AcDbBlockTableRecord
  2
*D13
340
0
  0
BLOCK_RECORD
  5
666A
330
1
100
AcDbSymbolTableRecord
100
AcDbBlockTableRecord
  2
*D14
340
0
  0
BLOCK_RECORD
  5
6676
330
1
100
AcDbSymbolTableRecord
100
AcDbBlockTableRecord
  2
*D15
340
0
  0
BLOCK_RECORD
  5
6682
330
1
100
AcDbSymbolTableRecord
100
AcDbBlockTableRecord
  2
*D16
340
0
  0
BLOCK_RECORD
  5
6690
330
1
100
AcDbSymbolTableRecord
100
AcDbBlockTableRecord
  2
*D17
340
0
  0
BLOCK_RECORD
  5
66B4
330
1
100
AcDbSymbolTableRecord
100
AcDbBlockTableRecord
  2
*D18
340
0
  0
BLOCK_RECORD
  5
66CE
330
1
100
AcDbSymbolTableRecord
100
AcDbBlockTableRecord
  2
*D19
340
0
  0
BLOCK_RECORD
  5
6DB2
330
1
100
AcDbSymbolTableRecord
100
AcDbBlockTableRecord
  2
*S20
340
0
102
{BLKREFS
331
650D
102
}
  0
BLOCK_RECORD
  5
6DC2
330
1
100
AcDbSymbolTableRecord
100
AcDbBlockTableRecord
  2
*S22
340
0
102
{BLKREFS
331
6514
102
}
  0
BLOCK_RECORD
  5
6DCA
330
1
100
AcDbSymbolTableRecord
100
AcDbBlockTableRecord
  2
*S23
340
0
102
{BLKREFS
331
65E9
102
}
  0
BLOCK_RECORD
  5
6DD2
330
1
100
AcDbSymbolTableRecord
100
AcDbBlockTableRecord
  2
*S24
340
0
102
{BLKREFS
331
65EB
102
}
  0
ENDTAB
  0
ENDSEC
  0
SECTION
  2
BLOCKS
  0
BLOCK
  5
20
330
1F
100
AcDbEntity
  8
0
100
AcDbBlockBegin
  2
*Model_Space
 70
     0
 10
0.0
 20
0.0
 30
0.0
  3
*Model_Space
  1

  0
ENDBLK
  5
21
330
1F
100
AcDbEntity
  8
0
100
AcDbBlockEnd
  0
BLOCK
  5
1C
330
1B
100
AcDbEntity
 67
     1
  8
0
100
AcDbBlockBegin
  2
*Paper_Space
 70
     0
 10
0.0
 20
0.0
 30
0.0
  3
*Paper_Space
  1

  0
ENDBLK
  5
1D
330
1B
100
AcDbEntity
 67
     1
  8
0
100
AcDbBlockEnd
  0
BLOCK
  5
24
330
23
100
AcDbEntity
  8
0
100
AcDbBlockBegin
  2
*Paper_Space0
 70
     0
 10
0.0
 20
0.0
 30
0.0
  3
*Paper_Space0
  1

  0
ENDBLK
  5
25
330
23
100
AcDbEntity
  8
0
100
AcDbBlockEnd
  0
BLOCK
  5
73
330
71
100
AcDbEntity
  8
0
100
AcDbBlockBegin
  2
GENAXEH
 70
     0
 10
0.0
 20
0.0
 30
0.0
  3
GENAXEH
  1

  0
LINE
  5
72
330
71
100
AcDbEntity
  8
0
100
AcDbLine
 10
-1.0
 20
0.0
 30
0.0
 11
1.0
 21
0.0
 31
0.0
  0
ENDBLK
  5
74
330
71
100
AcDbEntity
  8
0
100
AcDbBlockEnd
  0
BLOCK
  5
5BB6
330
5BB4
100
AcDbEntity
  8
0
100
AcDbBlockBegin
  2
A$C24FE6367
 70
     0
 10
0.0
 20
0.0
 30
0.0
  3
A$C24FE6367
  1

  0
LINE
  5
5BB7
330
5BB4
100
AcDbEntity
  8
AM_VIS
100
AcDbLine
 10
0.7146728819806186
 20
-0.0000004210356224
 30
0.0
 11
-0.0000010310628795
 21
-0.0000004210356224
 31
0.0
  0
LINE
  5
5BB8
330
5BB4
100
AcDbEntity
  8
AM_VIS
100
AcDbLine
 10
-0.0000010310628795
 20
-0.0000004210356224
 30
0.0
 11
-0.0000010310628795
 21
0.0543474050513169
 31
0.0
  0
SPLINE
  5
5BB9
330
5BB4
100
AcDbEntity
  8
AM_VIS
100
AcDbSpline
210
0.0
220
0.0
230
1.0
 70
     8
 71
     3
 72
     8
 73
     4
 74
     0
 42
0.0000000001
 43
0.0000000001
 40
0.0
 40
0.0
 40
0.0
 40
0.0
 40
80.0
 40
80.0
 40
80.0
 40
80.0
 10
-0.0000010310628795
 20
0.0543474050513169
 30
0.0
 10
0.1068830130867582
 20
0.0652169702687218
 30
0.0
 10
0.1775351869997621
 20
0.0960140993607297
 30
0.0
 10
0.211955490676246
 20
0.146738709399159
 30
0.0
  0
SPLINE
  5
5BBA
330
5BB4
100
AcDbEntity
  8
AM_VIS
100
AcDbSpline
210
0.0
220
0.0
230
1.0
 70
     8
 71
     3
 72
     8
 73
     4
 74
     0
 42
0.0000000001
 43
0.0000000001
 40
0.0
 40
0.0
 40
0.0
 40
0.0
 40
80.0
 40
80.0
 40
80.0
 40
80.0
 10
0.211955490676246
 20
0.146738709399159
 30
0.0
 10
0.2427525783041347
 20
0.1902169702687217
 30
0.0
 10
0.2581511428501244
 20
0.272644492679234
 30
0.0
 10
0.2581511428501244
 20
0.3940213180948149
 30
0.0
  0
LINE
  5
5BBB
330
5BB4
100
AcDbEntity
  8
AM_VIS
100
AcDbLine
 10
0.2581511428501244
 20
0.3940213180948149
 30
0.0
 11
0.2581511428501244
 21
1.663043057225252
 31
0.0
  0
SPLINE
  5
5BBC
330
5BB4
100
AcDbEntity
  8
AM_VIS
100
AcDbSpline
210
0.0
220
0.0
230
1.0
 70
     8
 71
     3
 72
     8
 73
     4
 74
     0
 42
0.0000000001
 43
0.0000000001
 40
0.0
 40
0.0
 40
0.0
 40
0.0
 40
80.0
 40
80.0
 40
80.0
 40
80.0
 10
0.2581511428501244
 20
1.663043057225252
 30
0.0
 10
0.2581511428501244
 20
1.771738709399159
 30
0.0
 10
0.2409409702798939
 20
1.843296666592266
 30
0.0
 10
0.2065207080675009
 20
1.877716970268721
 30
0.0
  0
SPLINE
  5
5BBD
330
5BB4
100
AcDbEntity
  8
AM_VIS
100
AcDbSpline
210
0.0
220
0.0
230
1.0
 70
     8
 71
     3
 72
     8
 73
     4
 74
     0
 42
0.0000000001
 43
0.0000000001
 40
0.0
 40
0.0
 40
0.0
 40
0.0
 40
80.0
 40
80.0
 40
80.0
 40
80.0
 10
0.2065207080675009
 20
1.877716970268721
 30
0.0
 10
0.1739120124153715
 20
1.910325665920879
 30
0.0
 10
0.1050714050625174
 20
1.932970579635764
 30
0.0
 10
-0.0000010310628795
 20
1.945651752877409
 30
0.0
  0
LINE
  5
5BBE
330
5BB4
100
AcDbEntity
  8
AM_VIS
100
AcDbLine
 10
-0.0000010310628795
 20
1.945651752877409
 30
0.0
 11
-0.0000010310628795
 21
1.999999578964377
 31
0.0
  0
LINE
  5
5BBF
330
5BB4
100
AcDbEntity
  8
AM_VIS
100
AcDbLine
 10
-0.0000010310628795
 20
1.999999578964377
 30
0.0
 11
0.6902163602414931
 21
1.999999578964377
 31
0.0
  0
SPLINE
  5
5BC0
330
5BB4
100
AcDbEntity
  8
AM_VIS
100
AcDbSpline
210
0.0
220
0.0
230
1.0
 70
     8
 71
     3
 72
     8
 73
     4
 74
     0
 42
0.0000000001
 43
0.0000000001
 40
0.0
 40
0.0
 40
0.0
 40
0.0
 40
80.0
 40
80.0
 40
80.0
 40
80.0
 10
0.6902163602414931
 20
1.999999578964377
 30
0.0
 10
0.8876801007146468
 20
1.999999578964377
 30
0.0
 10
1.04710040439113
 20
1.958332884654964
 30
0.0
 10
1.16847722980674
 20
1.874999578964377
 30
0.0
  0
SPLINE
  5
5BC1
330
5BB4
100
AcDbEntity
  8
AM_VIS
100
AcDbSpline
210
0.0
220
0.0
230
1.0
 70
     8
 71
     3
 72
     8
 73
     4
 74
     0
 42
0.0000000001
 43
0.0000000001
 40
0.0
 40
0.0
 40
0.0
 40
0.0
 40
80.0
 40
80.0
 40
80.0
 40
80.0
 10
1.16847722980674
 20
1.874999578964377
 30
0.0
 10
1.306158361584266
 20
1.778985058568025
 30
0.0
 10
1.37499896893712
 20
1.641303926790442
 30
0.0
 10
1.37499896893712
 20
1.461956100703503
 30
0.0
  0
SPLINE
  5
5BC2
330
5BB4
100
AcDbEntity
  8
AM_VIS
100
AcDbSpline
210
0.0
220
0.0
230
1.0
 70
     8
 71
     3
 72
     8
 73
     4
 74
     0
 42
0.0000000001
 43
0.0000000001
 40
0.0
 40
0.0
 40
0.0
 40
0.0
 40
80.0
 40
80.0
 40
80.0
 40
80.0
 10
1.184781577632747
 20
1.456521318094814
 30
0.0
 10
1.184781536168657
 20
1.757245928133215
 30
0.0
 10
0.9755424057339041
 20
1.907608274616535
 30
0.0
 10
0.5570641863283754
 20
1.907608274616535
 30
0.0
  0
SPLINE
  5
5BC3
330
5BB4
100
AcDbEntity
  8
AM_VIS
100
AcDbSpline
210
0.0
220
0.0
230
1.0
 70
     8
 71
     3
 72
     8
 73
     4
 74
     0
 42
0.0000000001
 43
0.0000000001
 40
0.0
 40
0.0
 40
0.0
 40
0.0
 40
80.0
 40
80.0
 40
80.0
 40
80.0
 10
0.5570641863283754
 20
1.907608274616535
 30
0.0
 10
0.504527926801643
 20
1.907608274616535
 30
0.0
 10
0.4710134478693817
 20
1.902173492007847
 30
0.0
 10
0.4565207080675009
 20
1.891303926790442
 30
0.0
  0
SPLINE
  5
5BC4
330
5BB4
100
AcDbEntity
  8
AM_VIS
100
AcDbSpline
210
0.0
220
0.0
230
1.0
 70
     8
 71
     3
 72
     8
 73
     4
 74
     0
 42
0.0000000001
 43
0.0000000001
 40
0.0
 40
0.0
 40
0.0
 40
0.0
 40
80.0
 40
80.0
 40
80.0
 40
80.0
 10
0.4565207080675009
 20
1.891303926790442
 30
0.0
 10
0.4384047522171386
 20
1.873187970940108
 30
0.0
 10
0.4293467950241166
 20
1.836956100703503
 30
0.0
 10
0.4293467950241166
 20
1.782608274616535
 30
0.0
  0
LINE
  5
5BC5
330
5BB4
100
AcDbEntity
  8
AM_VIS
100
AcDbLine
 10
0.4293467950241166
 20
1.782608274616535
 30
0.0
 11
0.4293467950241166
 21
0.9918474050513168
 31
0.0
  0
SPLINE
  5
5BC6
330
5BB4
100
AcDbEntity
  8
AM_VIS
100
AcDbSpline
210
0.0
220
0.0
230
1.0
 70
     8
 71
     3
 72
     8
 73
     4
 74
     0
 42
0.0000000001
 43
0.0000000001
 40
0.0
 40
0.0
 40
0.0
 40
0.0
 40
80.0
 40
80.0
 40
80.0
 40
80.0
 10
0.4293467950241166
 20
0.9918474050513168
 30
0.0
 10
0.4891293622556532
 20
0.9846010144183594
 30
0.0
 10
0.5606873609128798
 20
0.9809778398339403
 30
0.0
 10
0.6440207080675009
 20
0.9809778398339403
 30
0.0
  0
SPLINE
  5
5BC7
330
5BB4
100
AcDbEntity
  8
AM_VIS
100
AcDbSpline
210
0.0
220
0.0
230
1.0
 70
     8
 71
     3
 72
     8
 73
     4
 74
     0
 42
0.0000000001
 43
0.0000000001
 40
0.0
 40
0.0
 40
0.0
 40
0.0
 40
80.0
 40
80.0
 40
80.0
 40
80.0
 10
0.6440207080675009
 20
0.9809778398339403
 30
0.0
 10
1.004527926801642
 20
0.9809778398339403
 30
0.0
 10
1.184781536168657
 20
1.139492318766201
 30
0.0
 10
1.184781577632747
 20
1.456521318094814
 30
0.0
  0
SPLINE
  5
5BC8
330
5BB4
100
AcDbEntity
  8
AM_VIS
100
AcDbSpline
210
0.0
220
0.0
230
1.0
 70
     8
 71
     3
 72
     8
 73
     4
 74
     0
 42
0.0000000001
 43
0.0000000001
 40
0.0
 40
0.0
 40
0.0
 40
0.0
 40
80.0
 40
80.0
 40
80.0
 40
80.0
 10
1.37499896893712
 20
1.461956100703503
 30
0.0
 10
1.37499896893712
 20
1.300724189002806
 30
0.0
 10
1.324274317434628
 20
1.167572015089746
 30
0.0
 10
1.222825055893622
 20
1.062499578964377
 30
0.0
  0
SPLINE
  5
5BC9
330
5BB4
100
AcDbEntity
  8
AM_VIS
100
AcDbSpline
210
0.0
220
0.0
230
1.0
 70
     8
 71
     3
 72
     8
 73
     4
 74
     0
 42
0.0000000001
 43
0.0000000001
 40
0.0
 40
0.0
 40
0.0
 40
0.0
 40
80.0
 40
80.0
 40
80.0
 40
80.0
 10
1.222825055893622
 20
1.062499578964377
 30
0.0
 10
1.110506187671148
 20
0.9465575361575133
 30
0.0
 10
0.9239119709512806
 20
0.8885865354861266
 30
0.0
 10
0.663042447197995
 20
0.8885865354861266
 30
0.0
  0
LINE
  5
5BCA
330
5BB4
100
AcDbEntity
  8
AM_VIS
100
AcDbLine
 10
0.429315725568813
 20
0.8924207163773303
 30
0.0
 11
0.6630288118753925
 21
0.887884086066208
 31
0.0
  0
LINE
  5
5BCB
330
5BB4
100
AcDbEntity
  8
AM_VIS
100
AcDbLine
 10
0.4293467950241166
 20
0.8940213180948148
 30
0.0
 11
0.4293467950241166
 21
0.3559778398339404
 31
0.0
  0
SPLINE
  5
5BCC
330
5BB4
100
AcDbEntity
  8
AM_VIS
100
AcDbSpline
210
0.0
220
0.0
230
1.0
 70
     8
 71
     3
 72
     8
 73
     4
 74
     0
 42
0.0000000001
 43
0.0000000001
 40
0.0
 40
0.0
 40
0.0
 40
0.0
 40
80.0
 40
80.0
 40
80.0
 40
80.0
 10
0.4293467950241166
 20
0.3559778398339404
 30
0.0
 10
0.4293467950241166
 20
0.2454705796357643
 30
0.0
 10
0.4519917087388876
 20
0.1675720150897462
 30
0.0
 10
0.497281577632748
 20
0.1222821876600335
 30
0.0
  0
SPLINE
  5
5BCD
330
5BB4
100
AcDbEntity
  8
AM_VIS
100
AcDbSpline
210
0.0
220
0.0
230
1.0
 70
     8
 71
     3
 72
     8
 73
     4
 74
     0
 42
0.0000000001
 43
0.0000000001
 40
0.0
 40
0.0
 40
0.0
 40
0.0
 40
80.0
 40
80.0
 40
80.0
 40
80.0
 10
0.497281577632748
 20
0.1222821876600335
 30
0.0
 10
0.5353250558936225
 20
0.0842387508632499
 30
0.0
 10
0.60778879636689
 20
0.0615937956843027
 30
0.0
 10
0.7146728819806186
 20
0.0543474050513169
 30
0.0
  0
LINE
  5
5BCE
330
5BB4
100
AcDbEntity
  8
AM_VIS
100
AcDbLine
 10
0.7146728819806186
 20
0.0543474050513169
 30
0.0
 11
0.7146728819806186
 21
-0.0000004210356224
 31
0.0
  0
ENDBLK
  5
5BCF
330
5BB4
100
AcDbEntity
  8
0
100
AcDbBlockEnd
  0
BLOCK
  5
5BD2
330
5BD0
100
AcDbEntity
  8
0
100
AcDbBlockBegin
  2
A$C125B1E63
 70
     0
 10
0.0
 20
0.0
 30
0.0
  3
A$C125B1E63
  1

  0
SPLINE
  5
5BD3
330
5BD0
100
AcDbEntity
  8
AM_VIS
100
AcDbSpline
210
0.0
220
0.0
230
1.0
 70
     8
 71
     3
 72
     8
 73
     4
 74
     0
 42
0.0000000001
 43
0.0000000001
 40
0.0
 40
0.0
 40
0.0
 40
0.0
 40
80.0
 40
80.0
 40
80.0
 40
80.0
 10
1.190217277086844
 20
1.48097783983394
 30
0.0
 10
1.190217235622753
 20
1.669383623114015
 30
0.0
 10
1.106883929932109
 20
1.795289406394118
 30
0.0
 10
0.9402172770868446
 20
1.858695231138284
 30
0.0
  0
SPLINE
  5
5BD4
330
5BD0
100
AcDbEntity
  8
AM_VIS
100
AcDbSpline
210
0.0
220
0.0
230
1.0
 70
     8
 71
     3
 72
     8
 73
     4
 74
     0
 42
0.0000000001
 43
0.0000000001
 40
0.0
 40
0.0
 40
0.0
 40
0.0
 40
80.0
 40
80.0
 40
80.0
 40
80.0
 10
0.9402172770868446
 20
1.858695231138284
 30
0.0
 10
0.8460143647147333
 20
1.898550275959337
 30
0.0
 10
0.7364129292607231
 20
1.914854623785402
 30
0.0
 10
0.6114129292607231
 20
1.907608274616563
 30
0.0
  0
SPLINE
  5
5BD5
330
5BD0
100
AcDbEntity
  8
AM_VIS
100
AcDbSpline
210
0.0
220
0.0
230
1.0
 70
     8
 71
     3
 72
     8
 73
     4
 74
     0
 42
0.0000000001
 43
0.0000000001
 40
0.0
 40
0.0
 40
0.0
 40
0.0
 40
80.0
 40
80.0
 40
80.0
 40
80.0
 10
0.6114129292607231
 20
1.907608274616563
 30
0.0
 10
0.5389491473233648
 20
1.903985058568025
 30
0.0
 10
0.4936592784296181
 20
1.897644492679233
 30
0.0
 10
0.4755433640433467
 20
1.888586535486126
 30
0.0
  0
SPLINE
  5
5BD6
330
5BD0
100
AcDbEntity
  8
AM_VIS
100
AcDbSpline
210
0.0
220
0.0
230
1.0
 70
     8
 71
     3
 72
     8
 73
     4
 74
     0
 42
0.0000000001
 43
0.0000000001
 40
0.0
 40
0.0
 40
0.0
 40
0.0
 40
80.0
 40
80.0
 40
80.0
 40
80.0
 10
0.4755433640433467
 20
1.888586535486126
 30
0.0
 10
0.4465578429756079
 20
1.870470579635764
 30
0.0
 10
0.4320651031737271
 20
1.833332884654964
 30
0.0
 10
0.4320651031737271
 20
1.777173492007847
 30
0.0
  0
LINE
  5
5BD7
330
5BD0
100
AcDbEntity
  8
AM_VIS
100
AcDbLine
 10
0.4320651031737271
 20
1.777173492007847
 30
0.0
 11
0.4320651031737271
 21
1.032608274616563
 31
0.0
  0
SPLINE
  5
5BD8
330
5BD0
100
AcDbEntity
  8
AM_VIS
100
AcDbSpline
210
0.0
220
0.0
230
1.0
 70
     8
 71
     3
 72
     8
 73
     4
 74
     0
 42
0.0000000001
 43
0.0000000001
 40
0.0
 40
0.0
 40
0.0
 40
0.0
 40
80.0
 40
80.0
 40
80.0
 40
80.0
 10
0.4320651031737271
 20
1.032608274616563
 30
0.0
 10
0.6476447994973569
 20
1.034419841176713
 30
0.0
 10
0.8052534951494862
 20
1.053441580307151
 30
0.0
 10
0.904891190130229
 20
1.089673492007847
 30
0.0
  0
SPLINE
  5
5BD9
330
5BD0
100
AcDbEntity
  8
AM_VIS
100
AcDbSpline
210
0.0
220
0.0
230
1.0
 70
     8
 71
     3
 72
     8
 73
     4
 74
     0
 42
0.0000000001
 43
0.0000000001
 40
0.0
 40
0.0
 40
0.0
 40
0.0
 40
80.0
 40
80.0
 40
80.0
 40
80.0
 10
0.904891190130229
 20
1.089673492007847
 30
0.0
 10
1.09510853997051
 20
1.156702449872369
 30
0.0
 10
1.190217235622753
 20
1.287137232481057
 30
0.0
 10
1.190217277086844
 20
1.48097783983394
 30
0.0
  0
LINE
  5
5BDA
330
5BD0
100
AcDbEntity
  8
AM_VIS
100
AcDbLine
 10
1.679347711869468
 20
-0.0000004210356224
 30
0.0
 11
1.304347711869468
 21
-0.0000004210356224
 31
0.0
  0
LINE
  5
5BDB
330
5BD0
100
AcDbEntity
  8
AM_VIS
100
AcDbLine
 10
1.304347711869468
 20
-0.0000004210356224
 30
0.0
 11
0.6603259727389741
 21
0.9483691441817825
 31
0.0
  0
LINE
  5
5BDC
330
5BD0
100
AcDbEntity
  8
AM_VIS
100
AcDbLine
 10
0.6603259727389741
 20
0.9483691441817825
 30
0.0
 11
0.4320651031737271
 21
0.9374995789643776
 31
0.0
  0
LINE
  5
5BDD
330
5BD0
100
AcDbEntity
  8
AM_VIS
100
AcDbLine
 10
0.4320651031737271
 20
0.9374995789643776
 30
0.0
 11
0.4320651031737271
 21
0.3559778398339404
 31
0.0
  0
SPLINE
  5
5BDE
330
5BD0
100
AcDbEntity
  8
AM_VIS
100
AcDbSpline
210
0.0
220
0.0
230
1.0
 70
     8
 71
     3
 72
     8
 73
     4
 74
     0
 42
0.0000000001
 43
0.0000000001
 40
0.0
 40
0.0
 40
0.0
 40
0.0
 40
80.0
 40
80.0
 40
80.0
 40
80.0
 10
0.4320651031737271
 20
0.3559778398339404
 30
0.0
 10
0.4320651031737271
 20
0.2490937542201834
 30
0.0
 10
0.4519926255842393
 20
0.1739126224426286
 30
0.0
 10
0.4918477118694682
 20
0.1304343615730659
 30
0.0
  0
SPLINE
  5
5BDF
330
5BD0
100
AcDbEntity
  8
AM_VIS
100
AcDbSpline
210
0.0
220
0.0
230
1.0
 70
     8
 71
     3
 72
     8
 73
     4
 74
     0
 42
0.0000000001
 43
0.0000000001
 40
0.0
 40
0.0
 40
0.0
 40
0.0
 40
80.0
 40
80.0
 40
80.0
 40
80.0
 10
0.4918477118694682
 20
0.1304343615730659
 30
0.0
 10
0.5298911486661382
 20
0.0887677087277723
 30
0.0
 10
0.6014491473233648
 20
0.0634054037085719
 30
0.0
 10
0.7065216249128526
 20
0.0543474050513453
 30
0.0
  0
LINE
  5
5BE0
330
5BD0
100
AcDbEntity
  8
AM_VIS
100
AcDbLine
 10
0.7065216249128526
 20
0.0543474050513453
 30
0.0
 11
0.7065216249128526
 21
-0.0000004210356224
 31
0.0
  0
LINE
  5
5BE1
330
5BD0
100
AcDbEntity
  8
AM_VIS
100
AcDbLine
 10
0.7065216249128526
 20
-0.0000004210356224
 30
0.0
 11
-0.0000001142175279
 21
-0.0000004210356224
 31
0.0
  0
LINE
  5
5BE2
330
5BD0
100
AcDbEntity
  8
AM_VIS
100
AcDbLine
 10
-0.0000001142175279
 20
-0.0000004210356224
 30
0.0
 11
-0.0000001142175279
 21
0.0543474050513453
 31
0.0
  0
SPLINE
  5
5BE3
330
5BD0
100
AcDbEntity
  8
AM_VIS
100
AcDbSpline
210
0.0
220
0.0
230
1.0
 70
     8
 71
     3
 72
     8
 73
     4
 74
     0
 42
0.0000000001
 43
0.0000000001
 40
0.0
 40
0.0
 40
0.0
 40
0.0
 40
80.0
 40
80.0
 40
80.0
 40
80.0
 10
-0.0000001142175279
 20
0.0543474050513453
 30
0.0
 10
0.1050723219078691
 20
0.0652169702687218
 30
0.0
 10
0.1748187125408549
 20
0.0942024913364605
 30
0.0
 10
0.2092390162172251
 20
0.1413039267904708
 30
0.0
  0
SPLINE
  5
5BE4
330
5BD0
100
AcDbEntity
  8
AM_VIS
100
AcDbSpline
210
0.0
220
0.0
230
1.0
 70
     8
 71
     3
 72
     8
 73
     4
 74
     0
 42
0.0000000001
 43
0.0000000001
 40
0.0
 40
0.0
 40
0.0
 40
0.0
 40
80.0
 40
80.0
 40
80.0
 40
80.0
 10
0.2092390162172251
 20
0.1413039267904708
 30
0.0
 10
0.2436592784296181
 20
0.1865937542201834
 30
0.0
 10
0.2608694095357578
 20
0.2708328846549648
 30
0.0
 10
0.2608694509998486
 20
0.3940213180948149
 30
0.0
  0
LINE
  5
5BE5
330
5BD0
100
AcDbEntity
  8
AM_VIS
100
AcDbLine
 10
0.2608694509998486
 20
0.3940213180948149
 30
0.0
 11
0.2608694509998486
 21
1.638586535486126
 31
0.0
  0
SPLINE
  5
5BE6
330
5BD0
100
AcDbEntity
  8
AM_VIS
100
AcDbSpline
210
0.0
220
0.0
230
1.0
 70
     8
 71
     3
 72
     8
 73
     4
 74
     0
 42
0.0000000001
 43
0.0000000001
 40
0.0
 40
0.0
 40
0.0
 40
0.0
 40
80.0
 40
80.0
 40
80.0
 40
80.0
 10
0.2608694509998486
 20
1.638586535486126
 30
0.0
 10
0.2608694095357578
 20
1.752716970268721
 30
0.0
 10
0.2409418871252456
 20
1.831521318094814
 30
0.0
 10
0.2010868423042211
 20
1.874999578964377
 30
0.0
  0
SPLINE
  5
5BE7
330
5BD0
100
AcDbEntity
  8
AM_VIS
100
AcDbSpline
210
0.0
220
0.0
230
1.0
 70
     8
 71
     3
 72
     8
 73
     4
 74
     0
 42
0.0000000001
 43
0.0000000001
 40
0.0
 40
0.0
 40
0.0
 40
0.0
 40
80.0
 40
80.0
 40
80.0
 40
80.0
 10
0.2010868423042211
 20
1.874999578964377
 30
0.0
 10
0.168478146651978
 20
1.911231449200982
 30
0.0
 10
0.1014491473233647
 20
1.934782187660033
 30
0.0
 10
-0.0000001142175279
 20
1.945651752877438
 30
0.0
  0
LINE
  5
5BE8
330
5BD0
100
AcDbEntity
  8
AM_VIS
100
AcDbLine
 10
-0.0000001142175279
 20
1.945651752877438
 30
0.0
 11
-0.0000001142175279
 21
1.999999578964377
 31
0.0
  0
LINE
  5
5BE9
330
5BD0
100
AcDbEntity
  8
AM_VIS
100
AcDbLine
 10
-0.0000001142175279
 20
1.999999578964377
 30
0.0
 11
0.7228259727389741
 21
1.999999578964377
 31
0.0
  0
SPLINE
  5
5BEA
330
5BD0
100
AcDbEntity
  8
AM_VIS
100
AcDbSpline
210
0.0
220
0.0
230
1.0
 70
     8
 71
     3
 72
     8
 73
     4
 74
     0
 42
0.0000000001
 43
0.0000000001
 40
0.0
 40
0.0
 40
0.0
 40
0.0
 40
80.0
 40
80.0
 40
80.0
 40
80.0
 10
0.7228259727389741
 20
1.999999578964377
 30
0.0
 10
0.8913042336085936
 20
1.999999578964377
 30
0.0
 10
1.029891190130229
 20
1.971014057896638
 30
0.0
 10
1.138586842304221
 20
1.913043057225252
 30
0.0
  0
SPLINE
  5
5BEB
330
5BD0
100
AcDbEntity
  8
AM_VIS
100
AcDbSpline
210
0.0
220
0.0
230
1.0
 70
     8
 71
     3
 72
     8
 73
     4
 74
     0
 42
0.0000000001
 43
0.0000000001
 40
0.0
 40
0.0
 40
0.0
 40
0.0
 40
80.0
 40
80.0
 40
80.0
 40
80.0
 10
1.138586842304221
 20
1.913043057225252
 30
0.0
 10
1.299818712540854
 20
1.826086535486126
 30
0.0
 10
1.380434668391217
 20
1.68025318833142
 30
0.0
 10
1.380434668391217
 20
1.475543057225252
 30
0.0
  0
SPLINE
  5
5BEC
330
5BD0
100
AcDbEntity
  8
AM_VIS
100
AcDbSpline
210
0.0
220
0.0
230
1.0
 70
     8
 71
     3
 72
     8
 73
     4
 74
     0
 42
0.0000000001
 43
0.0000000001
 40
0.0
 40
0.0
 40
0.0
 40
0.0
 40
80.0
 40
80.0
 40
80.0
 40
80.0
 10
1.380434668391217
 20
1.475543057225252
 30
0.0
 10
1.380434668391217
 20
1.303441580307151
 30
0.0
 10
1.316123060366862
 20
1.174818405722731
 30
0.0
 10
1.187499885782472
 20
1.089673492007847
 30
0.0
  0
SPLINE
  5
5BED
330
5BD0
100
AcDbEntity
  8
AM_VIS
100
AcDbSpline
210
0.0
220
0.0
230
1.0
 70
     8
 71
     3
 72
     8
 73
     4
 74
     0
 42
0.0000000001
 43
0.0000000001
 40
0.0
 40
0.0
 40
0.0
 40
0.0
 40
80.0
 40
80.0
 40
80.0
 40
80.0
 10
1.187499885782472
 20
1.089673492007847
 30
0.0
 10
1.115036103845113
 20
1.040760448529596
 30
0.0
 10
1.010869450999848
 20
1.003622753548825
 30
0.0
 10
0.8749998857824721
 20
0.9782604485295962
 30
0.0
  0
LINE
  5
5BEE
330
5BD0
100
AcDbEntity
  8
AM_VIS
100
AcDbLine
 10
0.8749998857824721
 20
0.9782604485295962
 30
0.0
 11
1.423912929260723
 21
0.1630430572252521
 31
0.0
  0
SPLINE
  5
5BEF
330
5BD0
100
AcDbEntity
  8
AM_VIS
100
AcDbSpline
210
0.0
220
0.0
230
1.0
 70
     8
 71
     3
 72
     8
 73
     4
 74
     0
 42
0.0000000001
 43
0.0000000001
 40
0.0
 40
0.0
 40
0.0
 40
0.0
 40
80.0
 40
80.0
 40
80.0
 40
80.0
 10
1.423912929260723
 20
0.1630430572252521
 30
0.0
 10
1.460144799497356
 20
0.1068836645781346
 30
0.0
 10
1.545289713212241
 20
0.07065175287741
 30
0.0
 10
1.679347711869468
 20
0.0543474050513453
 30
0.0
  0
LINE
  5
5BF0
330
5BD0
100
AcDbEntity
  8
AM_VIS
100
AcDbLine
 10
1.679347711869468
 20
0.0543474050513453
 30
0.0
 11
1.679347711869468
 21
-0.0000004210356224
 31
0.0
  0
ENDBLK
  5
5BF1
330
5BD0
100
AcDbEntity
  8
0
100
AcDbBlockEnd
  0
BLOCK
  5
5BF4
330
5BF2
100
AcDbEntity
  8
0
100
AcDbBlockBegin
  2
A$C69534E5A
 70
     0
 10
0.0
 20
0.0
 30
0.0
  3
A$C69534E5A
  1

  0
LINE
  5
5BF5
330
5BF2
100
AcDbEntity
  8
AM_VIS
100
AcDbLine
 10
1.180241151700215
 20
0.7423228813186143
 30
0.0
 11
0.8437925535694148
 21
1.722296179048925
 31
0.0
  0
LINE
  5
5BF6
330
5BF2
100
AcDbEntity
  8
AM_VIS
100
AcDbLine
 10
0.8437925535694148
 20
1.722296179048925
 30
0.0
 11
0.4913225936228401
 21
0.7423228813186143
 31
0.0
  0
LINE
  5
5BF7
330
5BF2
100
AcDbEntity
  8
AM_VIS
100
AcDbLine
 10
0.4913225936228401
 20
0.7423228813186143
 30
0.0
 11
1.180241151700215
 21
0.7423228813186143
 31
0.0
  0
LINE
  5
5BF8
330
5BF2
100
AcDbEntity
  8
AM_VIS
100
AcDbLine
 10
1.775701765852431
 20
-0.000000216144656
 30
0.0
 11
1.142857974130151
 21
-0.000000216144656
 31
0.0
  0
LINE
  5
5BF9
330
5BF2
100
AcDbEntity
  8
AM_VIS
100
AcDbLine
 10
1.142857974130151
 20
-0.000000216144656
 30
0.0
 11
1.142857974130151
 21
0.0534043232411818
 31
0.0
  0
SPLINE
  5
5BFA
330
5BF2
100
AcDbEntity
  8
AM_VIS
100
AcDbSpline
210
0.0
220
0.0
230
1.0
 70
     8
 71
     3
 72
     8
 73
     4
 74
     0
 42
0.0000000001
 43
0.0000000001
 40
0.0
 40
0.0
 40
0.0
 40
0.0
 40
80.0
 40
80.0
 40
80.0
 40
80.0
 10
1.142857974130151
 20
0.0534043232411818
 30
0.0
 10
1.212283875331763
 20
0.0569646530298655
 30
0.0
 10
1.261238022853945
 20
0.0640852311183551
 30
0.0
 10
1.289720457441262
 20
0.0747661389955283
 30
0.0
  0
SPLINE
  5
5BFB
330
5BF2
100
AcDbEntity
  8
AM_VIS
100
AcDbSpline
210
0.0
220
0.0
230
1.0
 70
     8
 71
     3
 72
     8
 73
     4
 74
     0
 42
0.0000000001
 43
0.0000000001
 40
0.0
 40
0.0
 40
0.0
 40
0.0
 40
80.0
 40
80.0
 40
80.0
 40
80.0
 10
1.289720457441262
 20
0.0747661389955283
 30
0.0
 10
1.334224213099787
 20
0.0943478305999577
 30
0.0
 10
1.356476131673616
 20
0.1317310081700498
 30
0.0
 10
1.356476131673616
 20
0.1869156717058047
 30
0.0
  0
SPLINE
  5
5BFC
330
5BF2
100
AcDbEntity
  8
AM_VIS
100
AcDbSpline
210
0.0
220
0.0
230
1.0
 70
     8
 71
     3
 72
     8
 73
     4
 74
     0
 42
0.0000000001
 43
0.0000000001
 40
0.0
 40
0.0
 40
0.0
 40
0.0
 40
80.0
 40
80.0
 40
80.0
 40
80.0
 10
1.356476131673616
 20
0.1869156717058047
 30
0.0
 10
1.356476131673616
 20
0.2314194273643864
 30
0.0
 10
1.341344831932701
 20
0.2955048746273974
 30
0.0
 10
1.311082273195552
 20
0.3791720134948662
 30
0.0
  0
LINE
  5
5BFD
330
5BF2
100
AcDbEntity
  8
AM_VIS
100
AcDbLine
 10
1.311082273195552
 20
0.3791720134948662
 30
0.0
 11
1.214954102301021
 21
0.6435244834547973
 31
0.0
  0
LINE
  5
5BFE
330
5BF2
100
AcDbEntity
  8
AM_VIS
100
AcDbLine
 10
1.214954102301021
 20
0.6435244834548258
 30
0.0
 11
0.467290550899179
 21
0.6435244834548258
 31
0.0
  0
LINE
  5
5BFF
330
5BF2
100
AcDbEntity
  8
AM_VIS
100
AcDbLine
 10
0.467290550899179
 20
0.6435244834548258
 30
0.0
 11
0.3337792024345845
 21
0.3044056583546819
 31
0.0
  0
SPLINE
  5
5C00
330
5BF2
100
AcDbEntity
  8
AM_VIS
100
AcDbSpline
210
0.0
220
0.0
230
1.0
 70
     8
 71
     3
 72
     8
 73
     4
 74
     0
 42
0.0000000001
 43
0.0000000001
 40
0.0
 40
0.0
 40
0.0
 40
0.0
 40
80.0
 40
80.0
 40
80.0
 40
80.0
 10
0.3337792024345845
 20
0.3044056583546819
 30
0.0
 10
0.3195379647687559
 20
0.2688026049344785
 30
0.0
 10
0.3124173866801811
 20
0.2296393032144977
 30
0.0
 10
0.3124173866801811
 20
0.1869156717058047
 30
0.0
  0
SPLINE
  5
5C01
330
5BF2
100
AcDbEntity
  8
AM_VIS
100
AcDbSpline
210
0.0
220
0.0
230
1.0
 70
     8
 71
     3
 72
     8
 73
     4
 74
     0
 42
0.0000000001
 43
0.0000000001
 40
0.0
 40
0.0
 40
0.0
 40
0.0
 40
80.0
 40
80.0
 40
80.0
 40
80.0
 10
0.3124173866801811
 20
0.1869156717058047
 30
0.0
 10
0.3124173866801811
 20
0.1299508432757079
 30
0.0
 10
0.3337792024345845
 20
0.0925676657056158
 30
0.0
 10
0.3765028339432774
 20
0.0747661389955283
 30
0.0
  0
SPLINE
  5
5C02
330
5BF2
100
AcDbEntity
  8
AM_VIS
100
AcDbSpline
210
0.0
220
0.0
230
1.0
 70
     8
 71
     3
 72
     8
 73
     4
 74
     0
 42
0.0000000001
 43
0.0000000001
 40
0.0
 40
0.0
 40
0.0
 40
0.0
 40
80.0
 40
80.0
 40
80.0
 40
80.0
 10
0.3765028339432774
 20
0.0747661389955283
 30
0.0
 10
0.3960844848032821
 20
0.0640852311183551
 30
0.0
 10
0.4334676623733458
 20
0.0569646530298655
 30
0.0
 10
0.4886523666535823
 20
0.0534043232411818
 30
0.0
  0
LINE
  5
5C03
330
5BF2
100
AcDbEntity
  8
AM_VIS
100
AcDbLine
 10
0.4886523666535823
 20
0.0534043232411818
 30
0.0
 11
0.4886523666535823
 21
-0.000000216144656
 31
0.0
  0
LINE
  5
5C04
330
5BF2
100
AcDbEntity
  8
AM_VIS
100
AcDbLine
 10
0.4886523666535823
 20
-0.000000216144656
 30
0.0
 11
0.0000008312730415
 21
-0.000000216144656
 31
0.0
  0
LINE
  5
5C05
330
5BF2
100
AcDbEntity
  8
AM_VIS
100
AcDbLine
 10
0.0000008312730415
 20
-0.000000216144656
 30
0.0
 11
0.0000008312730415
 21
0.0534043232411818
 31
0.0
  0
LINE
  5
5C06
330
5BF2
100
AcDbEntity
  8
AM_VIS
100
AcDbLine
 10
0.0000841117387154
 20
0.0529715116547607
 30
0.0
 11
0.0695086001377376
 21
0.0663299888871336
 31
0.0
  0
SPLINE
  5
5C07
330
5BF2
100
AcDbEntity
  8
AM_VIS
100
AcDbSpline
210
0.0
220
0.0
230
1.0
 70
     8
 71
     3
 72
     8
 73
     4
 74
     0
 42
0.0000000001
 43
0.0000000001
 40
0.0
 40
0.0
 40
0.0
 40
0.0
 40
80.0
 40
80.0
 40
80.0
 40
80.0
 10
0.0694267324746534
 20
0.0667554580876413
 30
0.0
 10
0.0907885074844899
 20
0.0720959120262421
 30
0.0
 10
0.1112602611639204
 20
0.0872272117670434
 30
0.0
 10
0.1308419527683782
 20
0.1121493165656204
 30
0.0
  0
SPLINE
  5
5C08
330
5BF2
100
AcDbEntity
  8
AM_VIS
100
AcDbSpline
210
0.0
220
0.0
230
1.0
 70
     8
 71
     3
 72
     8
 73
     4
 74
     0
 42
0.0000000001
 43
0.0000000001
 40
0.0
 40
0.0
 40
0.0
 40
0.0
 40
80.0
 40
80.0
 40
80.0
 40
80.0
 10
0.1308419527683782
 20
0.1121493165656204
 30
0.0
 10
0.1806861623655322
 20
0.1762347230842067
 30
0.0
 10
0.2456617124479408
 20
0.3168666903817439
 30
0.0
 10
0.3257685215266974
 20
0.5340451777138356
 30
0.0
  0
LINE
  5
5C09
330
5BF2
100
AcDbEntity
  8
AM_VIS
100
AcDbLine
 10
0.3257685215266974
 20
0.5340451777138356
 30
0.0
 11
0.8651543693238181
 21
1.999999783855344
 31
0.0
  0
LINE
  5
5C0A
330
5BF2
100
AcDbEntity
  8
AM_VIS
100
AcDbLine
 10
0.8651543693238181
 20
1.999999783855344
 30
0.0
 11
0.8758352772009629
 21
1.999999783855344
 31
0.0
  0
LINE
  5
5C0B
330
5BF2
100
AcDbEntity
  8
AM_VIS
100
AcDbLine
 10
0.8758352772009629
 20
1.999999783855344
 30
0.0
 11
1.508679068923242
 21
0.3150865662318552
 31
0.0
  0
SPLINE
  5
5C0C
330
5BF2
100
AcDbEntity
  8
AM_VIS
100
AcDbSpline
210
0.0
220
0.0
230
1.0
 70
     8
 71
     3
 72
     8
 73
     4
 74
     0
 42
0.0000000001
 43
0.0000000001
 40
0.0
 40
0.0
 40
0.0
 40
0.0
 40
80.0
 40
80.0
 40
80.0
 40
80.0
 10
1.508679068923242
 20
0.3150865662318552
 30
0.0
 10
1.547842370643252
 20
0.2082774874601512
 30
0.0
 10
1.590566002151945
 20
0.1361813592892531
 30
0.0
 10
1.636849963449321
 20
0.098798181719161
 30
0.0
  0
SPLINE
  5
5C0D
330
5BF2
100
AcDbEntity
  8
AM_VIS
100
AcDbSpline
210
0.0
220
0.0
230
1.0
 70
     8
 71
     3
 72
     8
 73
     4
 74
     0
 42
0.0000000001
 43
0.0000000001
 40
0.0
 40
0.0
 40
0.0
 40
0.0
 40
80.0
 40
80.0
 40
80.0
 40
80.0
 10
1.636849963449321
 20
0.098798181719161
 30
0.0
 10
1.663552233142127
 20
0.0774363659648145
 30
0.0
 10
1.70983615369505
 20
0.062305106968438
 30
0.0
 10
1.775701765852431
 20
0.0534043232411818
 30
0.0
  0
LINE
  5
5C0E
330
5BF2
100
AcDbEntity
  8
AM_VIS
100
AcDbLine
 10
1.775701765852431
 20
0.0534043232411818
 30
0.0
 11
1.775701765852431
 21
-0.000000216144656
 31
0.0
  0
ENDBLK
  5
5C0F
330
5BF2
100
AcDbEntity
  8
0
100
AcDbBlockEnd
  0
BLOCK
  5
6610
330
6606
100
AcDbEntity
  8
0
100
AcDbBlockBegin
  2
*D6
 70
     1
 10
0.0
 20
0.0
 30
0.0
  3
*D6
  1

  0
LINE
  5
6E93
330
6606
100
AcDbEntity
  8
AM_5
100
AcDbLine
 10
659.4876290834575
 20
108.8711757469561
 30
0.0
 11
659.4876290834575
 21
99.07635915817982
 31
0.0
  0
LINE
  5
6E94
330
6606
100
AcDbEntity
  8
AM_5
100
AcDbLine
 10
676.4876290834575
 20
115.2511757469562
 30
0.0
 11
676.4876290834575
 21
99.07635915817982
 31
0.0
  0
LINE
  5
6E95
330
6606
100
AcDbEntity
  8
AM_5
100
AcDbLine
 10
661.5876290834575
 20
100.1263591581798
 30
0.0
 11
674.3876290834574
 21
100.1263591581798
 31
0.0
  0
SOLID
  5
6E96
330
6606
100
AcDbEntity
  8
AM_5
100
AcDbTrace
 10
661.5876290834575
 20
100.4763591581798
 30
0.0
 11
661.5876290834575
 21
99.77635915817982
 31
0.0
 12
659.4876290834575
 22
100.1263591581798
 32
0.0
 13
659.4876290834575
 23
100.1263591581798
 33
0.0
  0
SOLID
  5
6E97
330
6606
100
AcDbEntity
  8
AM_5
100
AcDbTrace
 10
674.3876290834574
 20
100.4763591581798
 30
0.0
 11
674.3876290834574
 21
99.77635915817982
 31
0.0
 12
676.4876290834575
 22
100.1263591581798
 32
0.0
 13
676.4876290834575
 23
100.1263591581798
 33
0.0
  0
MTEXT
  5
6E98
330
6606
100
AcDbEntity
  8
AM_5
100
AcDbMText
 10
667.9876290834575
 20
101.9113591581798
 30
0.0
 40
2.449999999999999
 41
0.0
 71
     5
 72
     1
  1
17
 73
     1
 44
1.0
1001
ACAD
1000
MTEXTBEGIN
1070
    73
1070
     1
1070
    44
1040
1.0
1070
    74
1070
     0
1000
MTEXTEND
  0
POINT
  5
6E99
330
6606
100
AcDbEntity
  8
Defpoints
 62
     0
100
AcDbPoint
 10
659.4876290834575
 20
109.5711757469561
 30
0.0
  0
POINT
  5
6E9A
330
6606
100
AcDbEntity
  8
Defpoints
 62
     0
100
AcDbPoint
 10
676.4876290834575
 20
115.9511757469562
 30
0.0
  0
POINT
  5
6E9B
330
6606
100
AcDbEntity
  8
Defpoints
 62
     0
100
AcDbPoint
 10
676.4876290834575
 20
100.1263591581798
 30
0.0
  0
ENDBLK
  5
6611
330
6606
100
AcDbEntity
  8
0
100
AcDbBlockEnd
  0
BLOCK
  5
661C
330
6612
100
AcDbEntity
  8
0
100
AcDbBlockBegin
  2
*D7
 70
     1
 10
0.0
 20
0.0
 30
0.0
  3
*D7
  1

  0
LINE
  5
6E8A
330
6612
100
AcDbEntity
  8
AM_5
100
AcDbLine
 10
676.4876290834575
 20
115.2511757469562
 30
0.0
 11
676.4876290834575
 21
99.07635915817982
 31
0.0
  0
LINE
  5
6E8B
330
6612
100
AcDbEntity
  8
AM_5
100
AcDbLine
 10
686.9876290834574
 20
115.2511757469562
 30
0.0
 11
686.9876290834574
 21
99.07635915817982
 31
0.0
  0
LINE
  5
6E8C
330
6612
100
AcDbEntity
  8
AM_5
100
AcDbLine
 10
678.5876290834575
 20
100.1263591581798
 30
0.0
 11
684.8876290834574
 21
100.1263591581798
 31
0.0
  0
SOLID
  5
6E8D
330
6612
100
AcDbEntity
  8
AM_5
100
AcDbTrace
 10
678.5876290834575
 20
100.4763591581798
 30
0.0
 11
678.5876290834575
 21
99.77635915817982
 31
0.0
 12
676.4876290834575
 22
100.1263591581798
 32
0.0
 13
676.4876290834575
 23
100.1263591581798
 33
0.0
  0
SOLID
  5
6E8E
330
6612
100
AcDbEntity
  8
AM_5
100
AcDbTrace
 10
684.8876290834574
 20
100.4763591581798
 30
0.0
 11
684.8876290834574
 21
99.77635915817982
 31
0.0
 12
686.9876290834574
 22
100.1263591581798
 32
0.0
 13
686.9876290834574
 23
100.1263591581798
 33
0.0
  0
MTEXT
  5
6E8F
330
6612
100
AcDbEntity
  8
AM_5
100
AcDbMText
 10
681.7376290834574
 20
101.9113591581798
 30
0.0
 40
2.449999999999999
 41
0.0
 71
     5
 72
     1
  1
10.5
 73
     1
 44
1.0
1001
ACAD
1000
MTEXTBEGIN
1070
    73
1070
     1
1070
    44
1040
1.0
1070
    74
1070
     0
1000
MTEXTEND
  0
POINT
  5
6E90
330
6612
100
AcDbEntity
  8
Defpoints
 62
     0
100
AcDbPoint
 10
676.4876290834575
 20
115.9511757469562
 30
0.0
  0
POINT
  5
6E91
330
6612
100
AcDbEntity
  8
Defpoints
 62
     0
100
AcDbPoint
 10
686.9876290834574
 20
115.9511757469562
 30
0.0
  0
POINT
  5
6E92
330
6612
100
AcDbEntity
  8
Defpoints
 62
     0
100
AcDbPoint
 10
686.9876290834574
 20
100.1263591581798
 30
0.0
  0
ENDBLK
  5
661D
330
6612
100
AcDbEntity
  8
0
100
AcDbBlockEnd
  0
BLOCK
  5
6628
330
661E
100
AcDbEntity
  8
0
100
AcDbBlockBegin
  2
*D8
 70
     1
 10
0.0
 20
0.0
 30
0.0
  3
*D8
  1

  0
LINE
  5
6E81
330
661E
100
AcDbEntity
  8
AM_5
100
AcDbLine
 10
686.9876290834574
 20
115.2511757469562
 30
0.0
 11
686.9876290834574
 21
99.07635915817984
 31
0.0
  0
LINE
  5
6E82
330
661E
100
AcDbEntity
  8
AM_5
100
AcDbLine
 10
697.4876290834575
 20
115.2511757469562
 30
0.0
 11
697.4876290834575
 21
99.07635915817984
 31
0.0
  0
LINE
  5
6E83
330
661E
100
AcDbEntity
  8
AM_5
100
AcDbLine
 10
689.0876290834575
 20
100.1263591581798
 30
0.0
 11
695.3876290834574
 21
100.1263591581798
 31
0.0
  0
SOLID
  5
6E84
330
661E
100
AcDbEntity
  8
AM_5
100
AcDbTrace
 10
689.0876290834575
 20
100.4763591581798
 30
0.0
 11
689.0876290834575
 21
99.77635915817984
 31
0.0
 12
686.9876290834574
 22
100.1263591581798
 32
0.0
 13
686.9876290834574
 23
100.1263591581798
 33
0.0
  0
SOLID
  5
6E85
330
661E
100
AcDbEntity
  8
AM_5
100
AcDbTrace
 10
695.3876290834574
 20
100.4763591581798
 30
0.0
 11
695.3876290834574
 21
99.77635915817984
 31
0.0
 12
697.4876290834575
 22
100.1263591581798
 32
0.0
 13
697.4876290834575
 23
100.1263591581798
 33
0.0
  0
MTEXT
  5
6E86
330
661E
100
AcDbEntity
  8
AM_5
100
AcDbMText
 10
692.2376290834574
 20
101.9113591581798
 30
0.0
 40
2.449999999999999
 41
0.0
 71
     5
 72
     1
  1
10.5
 73
     1
 44
1.0
1001
ACAD
1000
MTEXTBEGIN
1070
    73
1070
     1
1070
    44
1040
1.0
1070
    74
1070
     0
1000
MTEXTEND
  0
POINT
  5
6E87
330
661E
100
AcDbEntity
  8
Defpoints
 62
     0
100
AcDbPoint
 10
686.9876290834574
 20
115.9511757469562
 30
0.0
  0
POINT
  5
6E88
330
661E
100
AcDbEntity
  8
Defpoints
 62
     0
100
AcDbPoint
 10
697.4876290834575
 20
115.9511757469562
 30
0.0
  0
POINT
  5
6E89
330
661E
100
AcDbEntity
  8
Defpoints
 62
     0
100
AcDbPoint
 10
697.4876290834575
 20
100.1263591581798
 30
0.0
  0
ENDBLK
  5
6629
330
661E
100
AcDbEntity
  8
0
100
AcDbBlockEnd
  0
BLOCK
  5
6636
330
662A
100
AcDbEntity
  8
0
100
AcDbBlockBegin
  2
*D9
 70
     1
 10
0.0
 20
0.0
 30
0.0
  3
*D9
  1

  0
LINE
  5
6D1F
330
662A
100
AcDbEntity
  8
AM_5
100
AcDbLine
 10
658.7876290834572
 20
124.5711757469561
 30
0.0
 11
648.9990385814294
 21
124.5711757469561
 31
0.0
  0
LINE
  5
6D20
330
662A
100
AcDbEntity
  8
AM_5
100
AcDbLine
 10
672.1676290834575
 20
119.5711757469561
 30
0.0
 11
648.9990385814294
 21
119.5711757469561
 31
0.0
  0
LINE
  5
6D21
330
662A
100
AcDbEntity
  8
AM_5
100
AcDbLine
 10
650.0490385814294
 20
126.6711757469561
 30
0.0
 11
650.0490385814294
 21
128.7711757469561
 31
0.0
  0
LINE
  5
6D22
330
662A
100
AcDbEntity
  8
AM_5
100
AcDbLine
 10
650.0490385814294
 20
117.4711757469561
 30
0.0
 11
650.0490385814294
 21
115.3711757469561
 31
0.0
  0
LINE
  5
6D23
330
662A
100
AcDbEntity
  8
AM_5
100
AcDbLine
 10
650.0490385814294
 20
124.5711757469561
 30
0.0
 11
650.0490385814294
 21
119.5711757469561
 31
0.0
  0
SOLID
  5
6D24
330
662A
100
AcDbEntity
  8
AM_5
100
AcDbTrace
 10
649.6990385814293
 20
126.6711757469561
 30
0.0
 11
650.3990385814294
 21
126.6711757469561
 31
0.0
 12
650.0490385814294
 22
124.5711757469561
 32
0.0
 13
650.0490385814294
 23
124.5711757469561
 33
0.0
  0
SOLID
  5
6D25
330
662A
100
AcDbEntity
  8
AM_5
100
AcDbTrace
 10
649.6990385814293
 20
117.4711757469561
 30
0.0
 11
650.3990385814294
 21
117.4711757469561
 31
0.0
 12
650.0490385814294
 22
119.5711757469561
 32
0.0
 13
650.0490385814294
 23
119.5711757469561
 33
0.0
  0
MTEXT
  5
6D26
330
662A
100
AcDbEntity
  8
AM_5
100
AcDbMText
 10
648.2640385814294
 20
122.0711757469562
 30
0.0
 40
2.449999999999999
 41
0.0
 71
     5
 72
     1
  1
5
 11
0.0000000000000001
 21
1.0
 31
0.0
 73
     1
 44
1.0
1001
ACAD
1000
MTEXTBEGIN
1070
    73
1070
     1
1070
    44
1040
1.0
1070
    74
1070
     0
1000
MTEXTEND
  0
POINT
  5
6D27
330
662A
100
AcDbEntity
  8
Defpoints
 62
     0
100
AcDbPoint
 10
659.4876290834573
 20
124.5711757469561
 30
0.0
  0
POINT
  5
6D28
330
662A
100
AcDbEntity
  8
Defpoints
 62
     0
100
AcDbPoint
 10
672.8676290834576
 20
119.5711757469561
 30
0.0
  0
POINT
  5
6D29
330
662A
100
AcDbEntity
  8
Defpoints
 62
     0
100
AcDbPoint
 10
650.0490385814294
 20
119.5711757469561
 30
0.0
  0
ENDBLK
  5
6637
330
662A
100
AcDbEntity
  8
0
100
AcDbBlockEnd
  0
BLOCK
  5
6650
330
6644
100
AcDbEntity
  8
0
100
AcDbBlockBegin
  2
*D11
 70
     1
 10
0.0
 20
0.0
 30
0.0
  3
*D11
  1

  0
LINE
  5
6D33
330
6644
100
AcDbEntity
  8
AM_5
100
AcDbLine
 10
786.5441458507371
 20
124.5711757469561
 30
0.0
 11
792.4941458507371
 21
124.5711757469561
 31
0.0
  0
LINE
  5
6D34
330
6644
100
AcDbEntity
  8
AM_5
100
AcDbLine
 10
779.7641458507371
 20
121.0711757469561
 30
0.0
 11
792.4941458507371
 21
121.0711757469561
 31
0.0
  0
LINE
  5
6D35
330
6644
100
AcDbEntity
  8
AM_5
100
AcDbLine
 10
791.4441458507371
 20
118.9711757469561
 30
0.0
 11
791.4441458507371
 21
116.8711757469561
 31
0.0
  0
LINE
  5
6D36
330
6644
100
AcDbEntity
  8
AM_5
100
AcDbLine
 10
791.4441458507371
 20
126.6711757469561
 30
0.0
 11
791.4441458507371
 21
134.354906807079
 31
0.0
  0
LINE
  5
6D37
330
6644
100
AcDbEntity
  8
AM_5
100
AcDbLine
 10
791.4441458507371
 20
121.0711757469561
 30
0.0
 11
791.4441458507371
 21
124.5711757469561
 31
0.0
  0
SOLID
  5
6D38
330
6644
100
AcDbEntity
  8
AM_5
100
AcDbTrace
 10
791.0941458507371
 20
118.9711757469561
 30
0.0
 11
791.7941458507372
 21
118.9711757469561
 31
0.0
 12
791.4441458507371
 22
121.0711757469561
 32
0.0
 13
791.4441458507371
 23
121.0711757469561
 33
0.0
  0
SOLID
  5
6D39
330
6644
100
AcDbEntity
  8
AM_5
100
AcDbTrace
 10
791.0941458507371
 20
126.6711757469561
 30
0.0
 11
791.7941458507372
 21
126.6711757469561
 31
0.0
 12
791.4441458507371
 22
124.5711757469561
 32
0.0
 13
791.4441458507371
 23
124.5711757469561
 33
0.0
  0
MTEXT
  5
6D3A
330
6644
100
AcDbEntity
  8
AM_5
100
AcDbMText
 10
789.6591458507372
 20
132.0291656456884
 30
0.0
 40
2.449999999999999
 41
0.0
 71
     5
 72
     1
  1
3.5
 11
0.0000000000000001
 21
1.0
 31
0.0
 73
     1
 44
1.0
1001
ACAD
1000
MTEXTBEGIN
1070
    73
1070
     1
1070
    44
1040
1.0
1070
    74
1070
     0
1000
MTEXTEND
  0
POINT
  5
6D3B
330
6644
100
AcDbEntity
  8
Defpoints
 62
     0
100
AcDbPoint
 10
785.844145850737
 20
124.5711757469561
 30
0.0
  0
POINT
  5
6D3C
330
6644
100
AcDbEntity
  8
Defpoints
 62
     0
100
AcDbPoint
 10
779.064145850737
 20
121.0711757469561
 30
0.0
  0
POINT
  5
6D3D
330
6644
100
AcDbEntity
  8
Defpoints
 62
     0
100
AcDbPoint
 10
791.4441458507371
 20
121.0711757469561
 30
0.0
  0
ENDBLK
  5
6651
330
6644
100
AcDbEntity
  8
0
100
AcDbBlockEnd
  0
BLOCK
  5
665C
330
6652
100
AcDbEntity
  8
0
100
AcDbBlockBegin
  2
*D12
 70
     1
 10
0.0
 20
0.0
 30
0.0
  3
*D12
  1

  0
LINE
  5
6D3E
330
6652
100
AcDbEntity
  8
AM_5
100
AcDbLine
 10
786.5441458507371
 20
124.5711757469561
 30
0.0
 11
798.4941458507371
 21
124.5711757469561
 31
0.0
  0
LINE
  5
6D3F
330
6652
100
AcDbEntity
  8
AM_5
100
AcDbLine
 10
769.7641458507371
 20
116.0711757469561
 30
0.0
 11
798.4941458507371
 21
116.0711757469561
 31
0.0
  0
LINE
  5
6D40
330
6652
100
AcDbEntity
  8
AM_5
100
AcDbLine
 10
797.4441458507372
 20
122.4711757469561
 30
0.0
 11
797.4441458507372
 21
118.1711757469561
 31
0.0
  0
SOLID
  5
6D41
330
6652
100
AcDbEntity
  8
AM_5
100
AcDbTrace
 10
797.0941458507371
 20
122.4711757469561
 30
0.0
 11
797.7941458507372
 21
122.4711757469561
 31
0.0
 12
797.4441458507372
 22
124.5711757469561
 32
0.0
 13
797.4441458507372
 23
124.5711757469561
 33
0.0
  0
SOLID
  5
6D42
330
6652
100
AcDbEntity
  8
AM_5
100
AcDbTrace
 10
797.0941458507371
 20
118.1711757469561
 30
0.0
 11
797.7941458507372
 21
118.1711757469561
 31
0.0
 12
797.4441458507372
 22
116.0711757469561
 32
0.0
 13
797.4441458507372
 23
116.0711757469561
 33
0.0
  0
MTEXT
  5
6D43
330
6652
100
AcDbEntity
  8
AM_5
100
AcDbMText
 10
795.6591458507372
 20
120.3211757469562
 30
0.0
 40
2.449999999999999
 41
0.0
 71
     5
 72
     1
  1
8.5
 11
0.0000000000000001
 21
1.0
 31
0.0
 73
     1
 44
1.0
1001
ACAD
1000
MTEXTBEGIN
1070
    73
1070
     1
1070
    44
1040
1.0
1070
    74
1070
     0
1000
MTEXTEND
  0
POINT
  5
6D44
330
6652
100
AcDbEntity
  8
Defpoints
 62
     0
100
AcDbPoint
 10
785.844145850737
 20
124.5711757469561
 30
0.0
  0
POINT
  5
6D45
330
6652
100
AcDbEntity
  8
Defpoints
 62
     0
100
AcDbPoint
 10
769.0641458507371
 20
116.0711757469561
 30
0.0
  0
POINT
  5
6D46
330
6652
100
AcDbEntity
  8
Defpoints
 62
     0
100
AcDbPoint
 10
797.4441458507372
 20
116.0711757469561
 30
0.0
  0
ENDBLK
  5
665D
330
6652
100
AcDbEntity
  8
0
100
AcDbBlockEnd
  0
BLOCK
  5
6668
330
665E
100
AcDbEntity
  8
0
100
AcDbBlockBegin
  2
*D13
 70
     1
 10
0.0
 20
0.0
 30
0.0
  3
*D13
  1

  0
LINE
  5
6E78
330
665E
100
AcDbEntity
  8
AM_5
100
AcDbLine
 10
658.7876290834572
 20
124.5711757469561
 30
0.0
 11
643.5151932977316
 21
124.5711757469561
 31
0.0
  0
LINE
  5
6E79
330
665E
100
AcDbEntity
  8
AM_5
100
AcDbLine
 10
658.7876290834574
 20
109.5711757469561
 30
0.0
 11
643.5151932977316
 21
109.5711757469561
 31
0.0
  0
LINE
  5
6E7A
330
665E
100
AcDbEntity
  8
AM_5
100
AcDbLine
 10
644.5651932977315
 20
122.4711757469561
 30
0.0
 11
644.5651932977315
 21
111.6711757469561
 31
0.0
  0
SOLID
  5
6E7B
330
665E
100
AcDbEntity
  8
AM_5
100
AcDbTrace
 10
644.2151932977314
 20
122.4711757469561
 30
0.0
 11
644.9151932977315
 21
122.4711757469561
 31
0.0
 12
644.5651932977315
 22
124.5711757469561
 32
0.0
 13
644.5651932977315
 23
124.5711757469561
 33
0.0
  0
SOLID
  5
6E7C
330
665E
100
AcDbEntity
  8
AM_5
100
AcDbTrace
 10
644.2151932977314
 20
111.6711757469561
 30
0.0
 11
644.9151932977315
 21
111.6711757469561
 31
0.0
 12
644.5651932977315
 22
109.5711757469561
 32
0.0
 13
644.5651932977315
 23
109.5711757469561
 33
0.0
  0
MTEXT
  5
6E7D
330
665E
100
AcDbEntity
  8
AM_5
100
AcDbMText
 10
642.7801932977315
 20
117.0711757469562
 30
0.0
 40
2.449999999999999
 41
0.0
 71
     5
 72
     1
  1
15
 11
0.0000000000000001
 21
1.0
 31
0.0
 73
     1
 44
1.0
1001
ACAD
1000
MTEXTBEGIN
1070
    73
1070
     1
1070
    44
1040
1.0
1070
    74
1070
     0
1000
MTEXTEND
  0
POINT
  5
6E7E
330
665E
100
AcDbEntity
  8
Defpoints
 62
     0
100
AcDbPoint
 10
659.4876290834573
 20
124.5711757469561
 30
0.0
  0
POINT
  5
6E7F
330
665E
100
AcDbEntity
  8
Defpoints
 62
     0
100
AcDbPoint
 10
659.4876290834575
 20
109.5711757469561
 30
0.0
  0
POINT
  5
6E80
330
665E
100
AcDbEntity
  8
Defpoints
 62
     0
100
AcDbPoint
 10
644.5651932977315
 20
109.5711757469561
 30
0.0
  0
ENDBLK
  5
6669
330
665E
100
AcDbEntity
  8
0
100
AcDbBlockEnd
  0
BLOCK
  5
6674
330
666A
100
AcDbEntity
  8
0
100
AcDbBlockBegin
  2
*D14
 70
     1
 10
0.0
 20
0.0
 30
0.0
  3
*D14
  1

  0
LINE
  5
6D50
330
666A
100
AcDbEntity
  8
AM_5
100
AcDbLine
 10
754.4441458507371
 20
108.8711757469561
 30
0.0
 11
754.4441458507371
 21
98.98633376532659
 31
0.0
  0
LINE
  5
6D51
330
666A
100
AcDbEntity
  8
AM_5
100
AcDbLine
 10
765.4441458507371
 20
111.7511757469562
 30
0.0
 11
765.4441458507371
 21
98.98633376532659
 31
0.0
  0
LINE
  5
6D52
330
666A
100
AcDbEntity
  8
AM_5
100
AcDbLine
 10
756.5441458507372
 20
100.0363337653266
 30
0.0
 11
763.3441458507371
 21
100.0363337653266
 31
0.0
  0
SOLID
  5
6D53
330
666A
100
AcDbEntity
  8
AM_5
100
AcDbTrace
 10
756.5441458507372
 20
100.3863337653265
 30
0.0
 11
756.5441458507372
 21
99.68633376532659
 31
0.0
 12
754.4441458507371
 22
100.0363337653266
 32
0.0
 13
754.4441458507371
 23
100.0363337653266
 33
0.0
  0
SOLID
  5
6D54
330
666A
100
AcDbEntity
  8
AM_5
100
AcDbTrace
 10
763.3441458507371
 20
100.3863337653265
 30
0.0
 11
763.3441458507371
 21
99.68633376532659
 31
0.0
 12
765.4441458507371
 22
100.0363337653266
 32
0.0
 13
765.4441458507371
 23
100.0363337653266
 33
0.0
  0
MTEXT
  5
6D55
330
666A
100
AcDbEntity
  8
AM_5
100
AcDbMText
 10
759.9441458507372
 20
101.8213337653266
 30
0.0
 40
2.449999999999999
 41
0.0
 71
     5
 72
     1
  1
11
 73
     1
 44
1.0
1001
ACAD
1000
MTEXTBEGIN
1070
    73
1070
     1
1070
    44
1040
1.0
1070
    74
1070
     0
1000
MTEXTEND
  0
POINT
  5
6D56
330
666A
100
AcDbEntity
  8
Defpoints
 62
     0
100
AcDbPoint
 10
754.4441458507371
 20
109.5711757469561
 30
0.0
  0
POINT
  5
6D57
330
666A
100
AcDbEntity
  8
Defpoints
 62
     0
100
AcDbPoint
 10
765.4441458507371
 20
112.4511757469562
 30
0.0
  0
POINT
  5
6D58
330
666A
100
AcDbEntity
  8
Defpoints
 62
     0
100
AcDbPoint
 10
765.4441458507371
 20
100.0363337653266
 30
0.0
  0
ENDBLK
  5
6675
330
666A
100
AcDbEntity
  8
0
100
AcDbBlockEnd
  0
BLOCK
  5
6680
330
6676
100
AcDbEntity
  8
0
100
AcDbBlockBegin
  2
*D15
 70
     1
 10
0.0
 20
0.0
 30
0.0
  3
*D15
  1

  0
LINE
  5
6D59
330
6676
100
AcDbEntity
  8
AM_5
100
AcDbLine
 10
754.4441458507371
 20
108.8711757469561
 30
0.0
 11
754.4441458507371
 21
93.98633376532655
 31
0.0
  0
LINE
  5
6D5A
330
6676
100
AcDbEntity
  8
AM_5
100
AcDbLine
 10
775.4441458507372
 20
116.7511757469562
 30
0.0
 11
775.4441458507372
 21
93.98633376532655
 31
0.0
  0
LINE
  5
6D5B
330
6676
100
AcDbEntity
  8
AM_5
100
AcDbLine
 10
756.5441458507372
 20
95.03633376532656
 30
0.0
 11
773.3441458507371
 21
95.03633376532656
 31
0.0
  0
SOLID
  5
6D5C
330
6676
100
AcDbEntity
  8
AM_5
100
AcDbTrace
 10
756.5441458507372
 20
95.38633376532656
 30
0.0
 11
756.5441458507372
 21
94.68633376532656
 31
0.0
 12
754.4441458507371
 22
95.03633376532656
 32
0.0
 13
754.4441458507371
 23
95.03633376532656
 33
0.0
  0
SOLID
  5
6D5D
330
6676
100
AcDbEntity
  8
AM_5
100
AcDbTrace
 10
773.3441458507371
 20
95.38633376532656
 30
0.0
 11
773.3441458507371
 21
94.68633376532656
 31
0.0
 12
775.4441458507372
 22
95.03633376532656
 32
0.0
 13
775.4441458507372
 23
95.03633376532656
 33
0.0
  0
MTEXT
  5
6D5E
330
6676
100
AcDbEntity
  8
AM_5
100
AcDbMText
 10
764.9441458507372
 20
96.82157490705884
 30
0.0
 40
2.449999999999999
 41
0.0
 71
     5
 72
     1
  1
21
 73
     1
 44
1.0
1001
ACAD
1000
MTEXTBEGIN
1070
    73
1070
     1
1070
    44
1040
1.0
1070
    74
1070
     0
1000
MTEXTEND
  0
POINT
  5
6D5F
330
6676
100
AcDbEntity
  8
Defpoints
 62
     0
100
AcDbPoint
 10
754.4441458507371
 20
109.5711757469561
 30
0.0
  0
POINT
  5
6D60
330
6676
100
AcDbEntity
  8
Defpoints
 62
     0
100
AcDbPoint
 10
775.4441458507372
 20
117.4511757469562
 30
0.0
  0
POINT
  5
6D61
330
6676
100
AcDbEntity
  8
Defpoints
 62
     0
100
AcDbPoint
 10
775.4441458507372
 20
95.03633376532656
 30
0.0
  0
ENDBLK
  5
6681
330
6676
100
AcDbEntity
  8
0
100
AcDbBlockEnd
  0
BLOCK
  5
668E
330
6682
100
AcDbEntity
  8
0
100
AcDbBlockBegin
  2
*D16
 70
     1
 10
0.0
 20
0.0
 30
0.0
  3
*D16
  1

  0
LINE
  5
6D62
330
6682
100
AcDbEntity
  8
AM_5
100
AcDbLine
 10
658.7876290834574
 20
158.7245083678362
 30
0.0
 11
651.7228898839857
 21
158.7245083678362
 31
0.0
  0
LINE
  5
6D63
330
6682
100
AcDbEntity
  8
AM_5
100
AcDbLine
 10
659.0376290834574
 20
162.7245083678363
 30
0.0
 11
651.7228898839857
 21
162.7245083678363
 31
0.0
  0
LINE
  5
6D64
330
6682
100
AcDbEntity
  8
AM_5
100
AcDbLine
 10
652.7728898839857
 20
156.6245083678362
 30
0.0
 11
652.7728898839857
 21
154.5245083678362
 31
0.0
  0
LINE
  5
6D65
330
6682
100
AcDbEntity
  8
AM_5
100
AcDbLine
 10
652.7728898839857
 20
164.8245083678363
 30
0.0
 11
652.7728898839857
 21
166.9245083678362
 31
0.0
  0
LINE
  5
6D66
330
6682
100
AcDbEntity
  8
AM_5
100
AcDbLine
 10
652.7728898839857
 20
158.7245083678362
 30
0.0
 11
652.7728898839857
 21
162.7245083678363
 31
0.0
  0
SOLID
  5
6D67
330
6682
100
AcDbEntity
  8
AM_5
100
AcDbTrace
 10
652.4228898839857
 20
156.6245083678362
 30
0.0
 11
653.1228898839857
 21
156.6245083678362
 31
0.0
 12
652.7728898839857
 22
158.7245083678362
 32
0.0
 13
652.7728898839857
 23
158.7245083678362
 33
0.0
  0
SOLID
  5
6D68
330
6682
100
AcDbEntity
  8
AM_5
100
AcDbTrace
 10
652.4228898839857
 20
164.8245083678363
 30
0.0
 11
653.1228898839857
 21
164.8245083678363
 31
0.0
 12
652.7728898839857
 22
162.7245083678363
 32
0.0
 13
652.7728898839857
 23
162.7245083678363
 33
0.0
  0
MTEXT
  5
6D69
330
6682
100
AcDbEntity
  8
AM_5
100
AcDbMText
 10
650.9878898839858
 20
160.7245083678363
 30
0.0
 40
2.449999999999999
 41
0.0
 71
     5
 72
     1
  1
4
 11
0.0000000000000001
 21
1.0
 31
0.0
 73
     1
 44
1.0
1001
ACAD
1000
MTEXTBEGIN
1070
    73
1070
     1
1070
    44
1040
1.0
1070
    74
1070
     0
1000
MTEXTEND
  0
POINT
  5
6D6A
330
6682
100
AcDbEntity
  8
Defpoints
 62
     0
100
AcDbPoint
 10
659.4876290834575
 20
158.7245083678362
 30
0.0
  0
POINT
  5
6D6B
330
6682
100
AcDbEntity
  8
Defpoints
 62
     0
100
AcDbPoint
 10
659.7376290834574
 20
162.7245083678363
 30
0.0
  0
POINT
  5
6D6C
330
6682
100
AcDbEntity
  8
Defpoints
 62
     0
100
AcDbPoint
 10
652.7728898839857
 20
162.7245083678363
 30
0.0
  0
ENDBLK
  5
668F
330
6682
100
AcDbEntity
  8
0
100
AcDbBlockEnd
  0
BLOCK
  5
669A
330
6690
100
AcDbEntity
  8
0
100
AcDbBlockBegin
  2
*D17
 70
     1
 10
0.0
 20
0.0
 30
0.0
  3
*D17
  1

  0
LINE
  5
6D6D
330
6690
100
AcDbEntity
  8
AM_5
100
AcDbLine
 10
658.7876290834572
 20
158.7245083678362
 30
0.0
 11
646.7228898839858
 21
158.7245083678362
 31
0.0
  0
LINE
  5
6D6E
330
6690
100
AcDbEntity
  8
AM_5
100
AcDbLine
 10
658.7876290834574
 20
183.7245083678363
 30
0.0
 11
646.7228898839858
 21
183.7245083678363
 31
0.0
  0
LINE
  5
6D6F
330
6690
100
AcDbEntity
  8
AM_5
100
AcDbLine
 10
647.7728898839857
 20
160.8245083678362
 30
0.0
 11
647.7728898839857
 21
181.6245083678363
 31
0.0
  0
SOLID
  5
6D70
330
6690
100
AcDbEntity
  8
AM_5
100
AcDbTrace
 10
647.4228898839856
 20
160.8245083678362
 30
0.0
 11
648.1228898839857
 21
160.8245083678362
 31
0.0
 12
647.7728898839857
 22
158.7245083678362
 32
0.0
 13
647.7728898839857
 23
158.7245083678362
 33
0.0
  0
SOLID
  5
6D71
330
6690
100
AcDbEntity
  8
AM_5
100
AcDbTrace
 10
647.4228898839856
 20
181.6245083678363
 30
0.0
 11
648.1228898839857
 21
181.6245083678363
 31
0.0
 12
647.7728898839857
 22
183.7245083678363
 32
0.0
 13
647.7728898839857
 23
183.7245083678363
 33
0.0
  0
MTEXT
  5
6D72
330
6690
100
AcDbEntity
  8
AM_5
100
AcDbMText
 10
645.9876487422534
 20
171.2245083678363
 30
0.0
 40
2.449999999999999
 41
0.0
 71
     5
 72
     1
  1
25
 11
0.0000000000000001
 21
1.0
 31
0.0
 73
     1
 44
1.0
1001
ACAD
1000
MTEXTBEGIN
1070
    73
1070
     1
1070
    44
1040
1.0
1070
    74
1070
     0
1000
MTEXTEND
  0
POINT
  5
6D73
330
6690
100
AcDbEntity
  8
Defpoints
 62
     0
100
AcDbPoint
 10
659.4876290834573
 20
158.7245083678362
 30
0.0
  0
POINT
  5
6D74
330
6690
100
AcDbEntity
  8
Defpoints
 62
     0
100
AcDbPoint
 10
659.4876290834575
 20
183.7245083678363
 30
0.0
  0
POINT
  5
6D75
330
6690
100
AcDbEntity
  8
Defpoints
 62
     0
100
AcDbPoint
 10
647.7728898839857
 20
183.7245083678363
 30
0.0
  0
ENDBLK
  5
669B
330
6690
100
AcDbEntity
  8
0
100
AcDbBlockEnd
  0
BLOCK
  5
66C0
330
66B4
100
AcDbEntity
  8
0
100
AcDbBlockBegin
  2
*D18
 70
     1
 10
0.0
 20
0.0
 30
0.0
  3
*D18
  1

  0
LINE
  5
6D76
330
66B4
100
AcDbEntity
  8
AM_5
100
AcDbLine
 10
659.4876290834573
 20
158.0245083678362
 30
0.0
 11
659.4876290834573
 21
147.6815474773697
 31
0.0
  0
LINE
  5
6D77
330
66B4
100
AcDbEntity
  8
AM_5
100
AcDbLine
 10
663.9876290834575
 20
157.7745083678363
 30
0.0
 11
663.9876290834575
 21
147.6815474773697
 31
0.0
  0
LINE
  5
6D78
330
66B4
100
AcDbEntity
  8
AM_5
100
AcDbLine
 10
666.0876290834575
 20
148.7315474773697
 30
0.0
 11
668.1876290834575
 21
148.7315474773697
 31
0.0
  0
LINE
  5
6D79
330
66B4
100
AcDbEntity
  8
AM_5
100
AcDbLine
 10
657.3876290834573
 20
148.7315474773697
 30
0.0
 11
650.3911467606759
 21
148.7315474773697
 31
0.0
  0
LINE
  5
6D7A
330
66B4
100
AcDbEntity
  8
AM_5
100
AcDbLine
 10
663.9876290834575
 20
148.7315474773697
 30
0.0
 11
659.4876290834573
 21
148.7315474773697
 31
0.0
  0
SOLID
  5
6D7B
330
66B4
100
AcDbEntity
  8
AM_5
100
AcDbTrace
 10
666.0876290834575
 20
149.0815474773697
 30
0.0
 11
666.0876290834575
 21
148.3815474773697
 31
0.0
 12
663.9876290834575
 22
148.7315474773697
 32
0.0
 13
663.9876290834575
 23
148.7315474773697
 33
0.0
  0
SOLID
  5
6D7C
330
66B4
100
AcDbEntity
  8
AM_5
100
AcDbTrace
 10
657.3876290834573
 20
149.0815474773697
 30
0.0
 11
657.3876290834573
 21
148.3815474773697
 31
0.0
 12
659.4876290834573
 22
148.7315474773697
 32
0.0
 13
659.4876290834573
 23
148.7315474773697
 33
0.0
  0
MTEXT
  5
6D7D
330
66B4
100
AcDbEntity
  8
AM_5
100
AcDbMText
 10
652.8393879220666
 20
150.5165474773697
 30
0.0
 40
2.449999999999999
 41
0.0
 71
     5
 72
     1
  1
4.5
 73
     1
 44
1.0
1001
ACAD
1000
MTEXTBEGIN
1070
    73
1070
     1
1070
    44
1040
1.0
1070
    74
1070
     0
1000
MTEXTEND
  0
POINT
  5
6D7E
330
66B4
100
AcDbEntity
  8
Defpoints
 62
     0
100
AcDbPoint
 10
659.4876290834573
 20
158.7245083678362
 30
0.0
  0
POINT
  5
6D7F
330
66B4
100
AcDbEntity
  8
Defpoints
 62
     0
100
AcDbPoint
 10
663.9876290834575
 20
158.4745083678362
 30
0.0
  0
POINT
  5
6D80
330
66B4
100
AcDbEntity
  8
Defpoints
 62
     0
100
AcDbPoint
 10
663.9876290834575
 20
148.7315474773697
 30
0.0
  0
ENDBLK
  5
66C1
330
66B4
100
AcDbEntity
  8
0
100
AcDbBlockEnd
  0
BLOCK
  5
66DA
330
66CE
100
AcDbEntity
  8
0
100
AcDbBlockBegin
  2
*D19
 70
     1
 10
0.0
 20
0.0
 30
0.0
  3
*D19
  1

  0
LINE
  5
6D81
330
66CE
100
AcDbEntity
  8
AM_5
100
AcDbLine
 10
730.9876290834575
 20
157.7745083678363
 30
0.0
 11
730.9876290834575
 21
147.6815474773699
 31
0.0
  0
LINE
  5
6D82
330
66CE
100
AcDbEntity
  8
AM_5
100
AcDbLine
 10
735.4876290834575
 20
158.0245083678363
 30
0.0
 11
735.4876290834575
 21
147.6815474773699
 31
0.0
  0
LINE
  5
6D83
330
66CE
100
AcDbEntity
  8
AM_5
100
AcDbLine
 10
728.8876290834574
 20
148.73154747737
 30
0.0
 11
726.7876290834574
 21
148.73154747737
 31
0.0
  0
LINE
  5
6D84
330
66CE
100
AcDbEntity
  8
AM_5
100
AcDbLine
 10
737.5876290834574
 20
148.73154747737
 30
0.0
 11
744.5841114062389
 21
148.73154747737
 31
0.0
  0
LINE
  5
6D85
330
66CE
100
AcDbEntity
  8
AM_5
100
AcDbLine
 10
730.9876290834575
 20
148.73154747737
 30
0.0
 11
735.4876290834575
 21
148.73154747737
 31
0.0
  0
SOLID
  5
6D86
330
66CE
100
AcDbEntity
  8
AM_5
100
AcDbTrace
 10
728.8876290834574
 20
149.08154747737
 30
0.0
 11
728.8876290834574
 21
148.38154747737
 31
0.0
 12
730.9876290834575
 22
148.73154747737
 32
0.0
 13
730.9876290834575
 23
148.73154747737
 33
0.0
  0
SOLID
  5
6D87
330
66CE
100
AcDbEntity
  8
AM_5
100
AcDbTrace
 10
737.5876290834574
 20
149.08154747737
 30
0.0
 11
737.5876290834574
 21
148.38154747737
 31
0.0
 12
735.4876290834575
 22
148.73154747737
 32
0.0
 13
735.4876290834575
 23
148.73154747737
 33
0.0
  0
MTEXT
  5
6D88
330
66CE
100
AcDbEntity
  8
AM_5
100
AcDbMText
 10
742.1358702448482
 20
150.51654747737
 30
0.0
 40
2.449999999999999
 41
0.0
 71
     5
 72
     1
  1
4.5
 73
     1
 44
1.0
1001
ACAD
1000
MTEXTBEGIN
1070
    73
1070
     1
1070
    44
1040
1.0
1070
    74
1070
     0
1000
MTEXTEND
  0
POINT
  5
6D89
330
66CE
100
AcDbEntity
  8
Defpoints
 62
     0
100
AcDbPoint
 10
730.9876290834575
 20
158.4745083678362
 30
0.0
  0
POINT
  5
6D8A
330
66CE
100
AcDbEntity
  8
Defpoints
 62
     0
100
AcDbPoint
 10
735.4876290834575
 20
158.7245083678363
 30
0.0
  0
POINT
  5
6D8B
330
66CE
100
AcDbEntity
  8
Defpoints
 62
     0
100
AcDbPoint
 10
735.4876290834575
 20
148.73154747737
 30
0.0
  0
ENDBLK
  5
66DB
330
66CE
100
AcDbEntity
  8
0
100
AcDbBlockEnd
  0
BLOCK
  5
6DB7
330
6DB2
100
AcDbEntity
  8
0
100
AcDbBlockBegin
  2
*S20
 70
     1
 10
0.0
 20
0.0
 30
0.0
  3
*S20
  1

  0
LINE
  5
6DB3
330
6DB2
100
AcDbEntity
  8
AM_5
 62
     5
100
AcDbLine
 10
758.9024030896955
 20
171.1820134476842
 30
0.0
 11
741.324849710727
 21
171.1820134476842
 31
0.0
  0
LINE
  5
6DB4
330
6DB2
100
AcDbEntity
  8
AM_5
 62
     5
100
AcDbLine
 10
741.324849710727
 20
171.1820134476842
 30
0.0
 11
735.5856113317302
 21
166.3033445031793
 31
0.0
  0
TRACE
  5
6DB5
330
6DB2
100
AcDbEntity
  8
AM_5
 62
     5
370
    35
100
AcDbTrace
 10
735.3767053656349
 20
166.5491002926894
 30
0.0
 11
735.7945172978254
 21
166.0575887136692
 31
0.0
 12
733.7189107745041
 22
164.7165461449587
 32
0.0
 13
733.7189107745041
 23
164.7165461449587
 33
0.0
  0
MTEXT
  5
6DB6
330
6DB2
100
AcDbEntity
  8
AM_5
 62
     2
100
AcDbMText
 10
758.9024030896955
 20
171.2112201143924
 30
0.0
 40
2.449999999999999
 41
0.0
 71
     7
 72
     5
  1

  7
ACISOTS
 73
     1
 44
1.0
1001
ACAD
1000
MTEXTBEGIN
1070
    73
1070
     1
1070
    44
1040
1.0
1070
    74
1070
     0
1000
MTEXTEND
  0
ENDBLK
  5
6DB8
330
6DB2
100
AcDbEntity
  8
0
100
AcDbBlockEnd
  0
BLOCK
  5
6DC7
330
6DC2
100
AcDbEntity
  8
0
100
AcDbBlockBegin
  2
*S22
 70
     1
 10
0.0
 20
0.0
 30
0.0
  3
*S22
  1

  0
LINE
  5
6DC3
330
6DC2
100
AcDbEntity
  8
AM_5
 62
     5
100
AcDbLine
 10
801.3311624393718
 20
103.8896485634317
 30
0.0
 11
785.0893776661902
 21
103.8896485634317
 31
0.0
  0
LINE
  5
6DC4
330
6DC2
100
AcDbEntity
  8
AM_5
 62
     5
100
AcDbLine
 10
785.0893776661902
 20
103.8896485634317
 30
0.0
 11
769.4682961840489
 21
112.8454681669455
 31
0.0
  0
TRACE
  5
6DC5
330
6DC2
100
AcDbEntity
  8
AM_5
 62
     5
370
    35
100
AcDbTrace
 10
769.6287231408359
 20
113.1252909720989
 30
0.0
 11
769.3078692272617
 21
112.565645361792
 31
0.0
 12
767.342830951487
 22
114.0640318891901
 32
0.0
 13
767.342830951487
 23
114.0640318891901
 33
0.0
  0
MTEXT
  5
6DC6
330
6DC2
100
AcDbEntity
  8
AM_5
 62
     2
100
AcDbMText
 10
801.3311624393718
 20
103.9188552301399
 30
0.0
 40
2.449999999999999
 41
0.0
 71
     7
 72
     5
  1

  7
ACISOTS
 73
     1
 44
1.0
1001
ACAD
1000
MTEXTBEGIN
1070
    73
1070
     1
1070
    44
1040
1.0
1070
    74
1070
     0
1000
MTEXTEND
  0
ENDBLK
  5
6DC8
330
6DC2
100
AcDbEntity
  8
0
100
AcDbBlockEnd
  0
BLOCK
  5
6DCF
330
6DCA
100
AcDbEntity
  8
0
100
AcDbBlockBegin
  2
*S23
 70
     1
 10
0.0
 20
0.0
 30
0.0
  3
*S23
  1

  0
LINE
  5
6DCB
330
6DCA
100
AcDbEntity
  8
AM_5
 62
     5
100
AcDbLine
 10
801.3311624393718
 20
103.8896485634317
 30
0.0
 11
785.0893776661902
 21
103.8896485634317
 31
0.0
  0
LINE
  5
6DCC
330
6DCA
100
AcDbEntity
  8
AM_5
 62
     5
100
AcDbLine
 10
785.0893776661902
 20
103.8896485634317
 30
0.0
 11
778.7209718977166
 21
116.9525104233458
 31
0.0
  0
TRACE
  5
6DCD
330
6DCA
100
AcDbEntity
  8
AM_5
 62
     5
370
    35
100
AcDbTrace
 10
779.0109009610285
 20
117.0938566259654
 30
0.0
 11
778.4310428344046
 21
116.8111642207262
 31
0.0
 12
777.6473408930601
 22
119.1547403082217
 32
0.0
 13
777.6473408930601
 23
119.1547403082217
 33
0.0
  0
MTEXT
  5
6DCE
330
6DCA
100
AcDbEntity
  8
AM_5
 62
     2
100
AcDbMText
 10
801.3311624393718
 20
103.9188552301399
 30
0.0
 40
2.449999999999999
 41
0.0
 71
     7
 72
     5
  1

  7
ACISOTS
 73
     1
 44
1.0
1001
ACAD
1000
MTEXTBEGIN
1070
    73
1070
     1
1070
    44
1040
1.0
1070
    74
1070
     0
1000
MTEXTEND
  0
ENDBLK
  5
6DD0
330
6DCA
100
AcDbEntity
  8
0
100
AcDbBlockEnd
  0
BLOCK
  5
6DD7
330
6DD2
100
AcDbEntity
  8
0
100
AcDbBlockBegin
  2
*S24
 70
     1
 10
0.0
 20
0.0
 30
0.0
  3
*S24
  1

  0
LINE
  5
6DD3
330
6DD2
100
AcDbEntity
  8
AM_5
 62
     5
100
AcDbLine
 10
746.8966823897716
 20
136.1141286530096
 30
0.0
 11
732.6801278145085
 21
136.1141286530096
 31
0.0
  0
LINE
  5
6DD4
330
6DD2
100
AcDbEntity
  8
AM_5
 62
     5
100
AcDbLine
 10
732.6801278145085
 20
136.1141286530096
 30
0.0
 11
721.9160693965619
 21
123.299772487286
 31
0.0
  0
TRACE
  5
6DD5
330
6DD2
100
AcDbEntity
  8
AM_5
 62
     5
370
    35
100
AcDbTrace
 10
721.6690923436702
 20
123.5072331970429
 30
0.0
 11
722.1630464494538
 21
123.0923117775291
 31
0.0
 12
720.3402488501661
 22
121.4237955136649
 32
0.0
 13
720.3402488501661
 23
121.4237955136649
 33
0.0
  0
MTEXT
  5
6DD6
330
6DD2
100
AcDbEntity
  8
AM_5
 62
     2
100
AcDbMText
 10
746.8966823897716
 20
136.1433353197178
 30
0.0
 40
2.449999999999999
 41
0.0
 71
     7
 72
     5
  1

  7
ACISOTS
 73
     1
 44
1.0
1001
ACAD
1000
MTEXTBEGIN
1070
    73
1070
     1
1070
    44
1040
1.0
1070
    74
1070
     0
1000
MTEXTEND
  0
ENDBLK
  5
6DD8
330
6DD2
100
AcDbEntity
  8
0
100
AcDbBlockEnd
  0
ENDSEC
  0
SECTION
  2
ENTITIES
  0
INSERT
  5
619D
330
1F
100
AcDbEntity
  8
0
100
AcDbBlockReference
  2
A$C24FE6367
 10
771.7746167315453
 20
117.1989897258252
 30
0.0
  0
INSERT
  5
619E
330
1F
100
AcDbEntity
  8
0
100
AcDbBlockReference
  2
A$C125B1E63
 10
761.7309321367504
 20
112.2102489420444
 30
0.0
  0
INSERT
  5
61A0
330
1F
100
AcDbEntity
  8
0
100
AcDbBlockReference
  2
A$C69534E5A
 10
671.9411750271044
 20
121.4562840382343
 30
0.0
  0
LINE
  5
6367
102
{ACAD_REACTORS
330
64ED
102
}
330
1F
100
AcDbEntity
  8
AM_VIS
100
AcDbLine
 10
659.4876290834575
 20
158.7245083678363
 30
0.0
 11
659.4876290834575
 21
183.7245083678363
 31
0.0
  0
LINE
  5
636B
330
1F
100
AcDbEntity
  8
AM_VIS
100
AcDbLine
 10
659.4876290834575
 20
183.7245083678363
 30
0.0
 11
735.4876290834575
 21
183.7245083678363
 31
0.0
  0
LINE
  5
636C
330
1F
100
AcDbEntity
  8
AM_VIS
100
AcDbLine
 10
735.4876290834575
 20
183.7245083678363
 30
0.0
 11
735.4876290834575
 21
158.7245083678363
 31
0.0
  0
LINE
  5
636D
102
{ACAD_REACTORS
330
64ED
330
64F0
330
64F9
330
64FF
102
}
330
1F
100
AcDbEntity
  8
AM_VIS
100
AcDbLine
 10
735.4876290834575
 20
158.7245083678363
 30
0.0
 11
659.4876290834573
 21
158.7245083678362
 31
0.0
  0
CIRCLE
  5
636E
330
1F
100
AcDbEntity
  8
AM_VIS
100
AcDbCircle
 10
730.9876290834575
 20
162.7245083678363
 30
0.0
 40
1.7
  0
CIRCLE
  5
636F
330
1F
100
AcDbEntity
  8
AM_VIS
100
AcDbCircle
 10
663.9876290834575
 20
162.7245083678363
 30
0.0
 40
1.7
  0
ARC
  5
6370
330
1F
100
AcDbEntity
  8
AM_4
100
AcDbCircle
 10
718.4876290834575
 20
119.5711757469561
 30
0.0
 40
2.62
100
AcDbArc
 50
260.0000000000014
 51
190.0000000000002
  0
ARC
  5
6371
330
1F
100
AcDbEntity
  8
AM_4
100
AcDbCircle
 10
707.9876290834574
 20
119.5711757469561
 30
0.0
 40
2.62
100
AcDbArc
 50
260.0000000000014
 51
190.0000000000002
  0
ARC
  5
6372
330
1F
100
AcDbEntity
  8
AM_4
100
AcDbCircle
 10
697.4876290834575
 20
119.5711757469561
 30
0.0
 40
2.62
100
AcDbArc
 50
260.0000000000014
 51
190.0000000000002
  0
ARC
  5
6373
330
1F
100
AcDbEntity
  8
AM_4
100
AcDbCircle
 10
686.9876290834574
 20
119.5711757469561
 30
0.0
 40
2.62
100
AcDbArc
 50
260.0000000000014
 51
190.0000000000002
  0
ARC
  5
6374
330
1F
100
AcDbEntity
  8
AM_4
100
AcDbCircle
 10
676.4876290834575
 20
119.5711757469561
 30
0.0
 40
2.62
100
AcDbArc
 50
260.0000000000014
 51
190.0000000000002
  0
ARC
  5
6377
330
1F
100
AcDbEntity
  8
AM_4
100
AcDbCircle
 10
775.4441458507372
 20
121.0711757469561
 30
0.0
 40
2.62
100
AcDbArc
 50
260.0000000000014
 51
190.0000000000002
  0
ARC
  5
6378
330
1F
100
AcDbEntity
  8
AM_4
100
AcDbCircle
 10
765.4441458507371
 20
116.0711757469561
 30
0.0
 40
2.62
100
AcDbArc
 50
260.0000000000014
 51
190.0000000000002
  0
LINE
  5
63E8
330
1F
100
AcDbEntity
  8
AM_VIS
100
AcDbLine
 10
735.4876290834575
 20
109.5711757469561
 30
0.0
 11
735.4876290834575
 21
124.5711757469561
 31
0.0
  0
LINE
  5
63E9
330
1F
100
AcDbEntity
  8
AM_VIS
100
AcDbLine
 10
659.4876290834575
 20
109.5711757469561
 30
0.0
 11
735.4876290834575
 21
109.5711757469561
 31
0.0
  0
LINE
  5
63EA
102
{ACAD_REACTORS
330
64CF
330
64E4
102
}
330
1F
100
AcDbEntity
  8
AM_VIS
100
AcDbLine
 10
659.4876290834575
 20
109.5711757469561
 30
0.0
 11
659.4876290834575
 21
124.5711757469561
 31
0.0
  0
LINE
  5
63EB
102
{ACAD_REACTORS
330
64D8
330
64E4
102
}
330
1F
100
AcDbEntity
  8
AM_VIS
100
AcDbLine
 10
735.4876290834575
 20
124.5711757469561
 30
0.0
 11
659.4876290834573
 21
124.5711757469561
 31
0.0
  0
CIRCLE
  5
63EC
330
1F
100
AcDbEntity
  8
AM_VIS
100
AcDbCircle
 10
718.4876290834575
 20
119.5711757469561
 30
0.0
 40
2.166999999999999
  0
CIRCLE
  5
63ED
330
1F
100
AcDbEntity
  8
AM_VIS
100
AcDbCircle
 10
707.9876290834574
 20
119.5711757469561
 30
0.0
 40
2.166999999999999
  0
CIRCLE
  5
63EE
330
1F
100
AcDbEntity
  8
AM_VIS
100
AcDbCircle
 10
697.4876290834575
 20
119.5711757469561
 30
0.0
 40
2.166999999999999
  0
CIRCLE
  5
63EF
330
1F
100
AcDbEntity
  8
AM_VIS
100
AcDbCircle
 10
686.9876290834574
 20
119.5711757469561
 30
0.0
 40
2.166999999999999
  0
CIRCLE
  5
63F0
330
1F
100
AcDbEntity
  8
AM_VIS
100
AcDbCircle
 10
676.4876290834575
 20
119.5711757469561
 30
0.0
 40
2.166999999999999
  0
CIRCLE
  5
6449
330
1F
100
AcDbEntity
  8
AM_VIS
100
AcDbCircle
 10
730.9876290834575
 20
162.7245083678363
 30
0.0
 40
3.25
  0
CIRCLE
  5
644A
330
1F
100
AcDbEntity
  8
AM_VIS
100
AcDbCircle
 10
663.9876290834575
 20
162.7245083678363
 30
0.0
 40
3.25
  0
LINE
  5
6491
330
1F
100
AcDbEntity
  8
AM_VIS
100
AcDbLine
 10
779.4441458507372
 20
109.5711757469561
 30
0.0
 11
779.4441458507372
 21
124.5711757469561
 31
0.0
  0
LINE
  5
6492
330
1F
100
AcDbEntity
  8
AM_VIS
100
AcDbLine
 10
754.4441458507371
 20
109.5711757469561
 30
0.0
 11
779.4441458507372
 21
109.5711757469561
 31
0.0
  0
LINE
  5
6493
330
1F
100
AcDbEntity
  8
AM_VIS
100
AcDbLine
 10
779.4441458507372
 20
124.5711757469561
 30
0.0
 11
754.4441458507371
 21
124.5711757469561
 31
0.0
  0
LINE
  5
6494
102
{ACAD_REACTORS
330
64E7
330
64EA
102
}
330
1F
100
AcDbEntity
  8
AM_VIS
100
AcDbLine
 10
754.4441458507371
 20
109.5711757469561
 30
0.0
 11
754.4441458507371
 21
124.5711757469561
 31
0.0
  0
CIRCLE
  5
6495
330
1F
100
AcDbEntity
  8
AM_VIS
100
AcDbCircle
 10
775.4441458507372
 20
121.0711757469561
 30
0.0
 40
2.166999999999999
  0
CIRCLE
  5
6496
330
1F
100
AcDbEntity
  8
AM_VIS
100
AcDbCircle
 10
765.4441458507371
 20
116.0711757469561
 30
0.0
 40
2.166999999999999
  0
LINE
  5
649B
330
1F
100
AcDbEntity
  8
AM_7
  6
AM_ISO08W050x2
100
AcDbLine
 10
676.4876290834575
 20
119.5711757469561
 30
0.0
 11
680.1076290834573
 21
119.5711757469561
 31
0.0
1001
GENIUS_GENOREF_13
1005
65F7
  0
LINE
  5
649C
330
1F
100
AcDbEntity
  8
AM_7
  6
AM_ISO08W050x2
100
AcDbLine
 10
676.4876290834575
 20
119.5711757469561
 30
0.0
 11
676.4876290834575
 21
123.191175746956
 31
0.0
1001
GENIUS_GENOREF_13
1005
65F7
  0
LINE
  5
649D
102
{ACAD_REACTORS
330
64D8
102
}
330
1F
100
AcDbEntity
  8
AM_7
  6
AM_ISO08W050x2
100
AcDbLine
 10
676.4876290834575
 20
119.5711757469561
 30
0.0
 11
672.8676290834576
 21
119.5711757469561
 31
0.0
1001
GENIUS_GENOREF_13
1005
65F7
  0
LINE
  5
649E
102
{ACAD_REACTORS
330
64CF
330
64D2
102
}
330
1F
100
AcDbEntity
  8
AM_7
  6
AM_ISO08W050x2
100
AcDbLine
 10
676.4876290834575
 20
119.5711757469561
 30
0.0
 11
676.4876290834575
 21
115.9511757469562
 31
0.0
1001
GENIUS_GENOREF_13
1005
65F7
  0
LINE
  5
649F
330
1F
100
AcDbEntity
  8
AM_7
  6
AM_ISO08W050x2
100
AcDbLine
 10
686.9876290834574
 20
119.5711757469561
 30
0.0
 11
690.6076290834573
 21
119.5711757469561
 31
0.0
1001
GENIUS_GENOREF_13
1005
65F6
  0
LINE
  5
64A0
330
1F
100
AcDbEntity
  8
AM_7
  6
AM_ISO08W050x2
100
AcDbLine
 10
686.9876290834574
 20
119.5711757469561
 30
0.0
 11
686.9876290834574
 21
123.191175746956
 31
0.0
1001
GENIUS_GENOREF_13
1005
65F6
  0
LINE
  5
64A1
330
1F
100
AcDbEntity
  8
AM_7
  6
AM_ISO08W050x2
100
AcDbLine
 10
686.9876290834574
 20
119.5711757469561
 30
0.0
 11
683.3676290834575
 21
119.5711757469561
 31
0.0
1001
GENIUS_GENOREF_13
1005
65F6
  0
LINE
  5
64A2
102
{ACAD_REACTORS
330
64D2
330
64D5
102
}
330
1F
100
AcDbEntity
  8
AM_7
  6
AM_ISO08W050x2
100
AcDbLine
 10
686.9876290834574
 20
119.5711757469561
 30
0.0
 11
686.9876290834574
 21
115.9511757469562
 31
0.0
1001
GENIUS_GENOREF_13
1005
65F6
  0
LINE
  5
64A3
330
1F
100
AcDbEntity
  8
AM_7
  6
AM_ISO08W050x2
100
AcDbLine
 10
697.4876290834575
 20
119.5711757469561
 30
0.0
 11
701.1076290834573
 21
119.5711757469561
 31
0.0
1001
GENIUS_GENOREF_13
1005
65F5
  0
LINE
  5
64A4
330
1F
100
AcDbEntity
  8
AM_7
  6
AM_ISO08W050x2
100
AcDbLine
 10
697.4876290834575
 20
119.5711757469561
 30
0.0
 11
697.4876290834575
 21
123.191175746956
 31
0.0
1001
GENIUS_GENOREF_13
1005
65F5
  0
LINE
  5
64A5
330
1F
100
AcDbEntity
  8
AM_7
  6
AM_ISO08W050x2
100
AcDbLine
 10
697.4876290834575
 20
119.5711757469561
 30
0.0
 11
693.8676290834576
 21
119.5711757469561
 31
0.0
1001
GENIUS_GENOREF_13
1005
65F5
  0
LINE
  5
64A6
102
{ACAD_REACTORS
330
64D5
102
}
330
1F
100
AcDbEntity
  8
AM_7
  6
AM_ISO08W050x2
100
AcDbLine
 10
697.4876290834575
 20
119.5711757469561
 30
0.0
 11
697.4876290834575
 21
115.9511757469562
 31
0.0
1001
GENIUS_GENOREF_13
1005
65F5
  0
LINE
  5
64A7
330
1F
100
AcDbEntity
  8
AM_7
  6
AM_ISO08W050x2
100
AcDbLine
 10
707.9876290834574
 20
119.5711757469561
 30
0.0
 11
711.6076290834573
 21
119.5711757469561
 31
0.0
1001
GENIUS_GENOREF_13
1005
65F4
  0
LINE
  5
64A8
330
1F
100
AcDbEntity
  8
AM_7
  6
AM_ISO08W050x2
100
AcDbLine
 10
707.9876290834574
 20
119.5711757469561
 30
0.0
 11
707.9876290834574
 21
123.191175746956
 31
0.0
1001
GENIUS_GENOREF_13
1005
65F4
  0
LINE
  5
64A9
330
1F
100
AcDbEntity
  8
AM_7
  6
AM_ISO08W050x2
100
AcDbLine
 10
707.9876290834574
 20
119.5711757469561
 30
0.0
 11
704.3676290834575
 21
119.5711757469561
 31
0.0
1001
GENIUS_GENOREF_13
1005
65F4
  0
LINE
  5
64AA
330
1F
100
AcDbEntity
  8
AM_7
  6
AM_ISO08W050x2
100
AcDbLine
 10
707.9876290834574
 20
119.5711757469561
 30
0.0
 11
707.9876290834574
 21
115.9511757469562
 31
0.0
1001
GENIUS_GENOREF_13
1005
65F4
  0
LINE
  5
64AB
330
1F
100
AcDbEntity
  8
AM_7
  6
AM_ISO08W050x2
100
AcDbLine
 10
718.4876290834575
 20
119.5711757469561
 30
0.0
 11
722.1076290834574
 21
119.5711757469561
 31
0.0
1001
GENIUS_GENOREF_13
1005
65F3
  0
LINE
  5
64AC
330
1F
100
AcDbEntity
  8
AM_7
  6
AM_ISO08W050x2
100
AcDbLine
 10
718.4876290834575
 20
119.5711757469561
 30
0.0
 11
718.4876290834575
 21
123.191175746956
 31
0.0
1001
GENIUS_GENOREF_13
1005
65F3
  0
LINE
  5
64AD
330
1F
100
AcDbEntity
  8
AM_7
  6
AM_ISO08W050x2
100
AcDbLine
 10
718.4876290834575
 20
119.5711757469561
 30
0.0
 11
714.8676290834576
 21
119.5711757469561
 31
0.0
1001
GENIUS_GENOREF_13
1005
65F3
  0
LINE
  5
64AE
330
1F
100
AcDbEntity
  8
AM_7
  6
AM_ISO08W050x2
100
AcDbLine
 10
718.4876290834575
 20
119.5711757469561
 30
0.0
 11
718.4876290834575
 21
115.9511757469562
 31
0.0
1001
GENIUS_GENOREF_13
1005
65F3
  0
LINE
  5
64B3
102
{ACAD_REACTORS
330
64E1
102
}
330
1F
100
AcDbEntity
  8
AM_7
  6
AM_ISO08W050x2
100
AcDbLine
 10
765.4441458507371
 20
116.0711757469561
 30
0.0
 11
769.0641458507371
 21
116.0711757469561
 31
0.0
1001
GENIUS_GENOREF_13
1005
65F1
  0
LINE
  5
64B4
330
1F
100
AcDbEntity
  8
AM_7
  6
AM_ISO08W050x2
100
AcDbLine
 10
765.4441458507371
 20
116.0711757469561
 30
0.0
 11
765.4441458507371
 21
119.691175746956
 31
0.0
1001
GENIUS_GENOREF_13
1005
65F1
  0
LINE
  5
64B5
330
1F
100
AcDbEntity
  8
AM_7
  6
AM_ISO08W050x2
100
AcDbLine
 10
765.4441458507371
 20
116.0711757469561
 30
0.0
 11
761.8241458507372
 21
116.0711757469561
 31
0.0
1001
GENIUS_GENOREF_13
1005
65F1
  0
LINE
  5
64B6
102
{ACAD_REACTORS
330
64E7
102
}
330
1F
100
AcDbEntity
  8
AM_7
  6
AM_ISO08W050x2
100
AcDbLine
 10
765.4441458507371
 20
116.0711757469561
 30
0.0
 11
765.4441458507371
 21
112.4511757469562
 31
0.0
1001
GENIUS_GENOREF_13
1005
65F1
  0
LINE
  5
64B7
102
{ACAD_REACTORS
330
64DE
102
}
330
1F
100
AcDbEntity
  8
AM_7
  6
AM_ISO08W050x2
100
AcDbLine
 10
775.4441458507372
 20
121.0711757469561
 30
0.0
 11
779.064145850737
 21
121.0711757469561
 31
0.0
1001
GENIUS_GENOREF_13
1005
65F0
  0
LINE
  5
64B8
330
1F
100
AcDbEntity
  8
AM_7
  6
AM_ISO08W050x2
100
AcDbLine
 10
775.4441458507372
 20
121.0711757469561
 30
0.0
 11
775.4441458507372
 21
124.691175746956
 31
0.0
1001
GENIUS_GENOREF_13
1005
65F0
  0
LINE
  5
64B9
330
1F
100
AcDbEntity
  8
AM_7
  6
AM_ISO08W050x2
100
AcDbLine
 10
775.4441458507372
 20
121.0711757469561
 30
0.0
 11
771.8241458507373
 21
121.0711757469561
 31
0.0
1001
GENIUS_GENOREF_13
1005
65F0
  0
LINE
  5
64BA
102
{ACAD_REACTORS
330
64EA
102
}
330
1F
100
AcDbEntity
  8
AM_7
  6
AM_ISO08W050x2
100
AcDbLine
 10
775.4441458507372
 20
121.0711757469561
 30
0.0
 11
775.4441458507372
 21
117.4511757469562
 31
0.0
1001
GENIUS_GENOREF_13
1005
65F0
  0
LINE
  5
64BB
330
1F
100
AcDbEntity
  8
AM_7
100
AcDbLine
 10
663.9876290834575
 20
162.7245083678363
 30
0.0
 11
668.2376290834574
 21
162.7245083678363
 31
0.0
1001
GENIUS_GENOREF_13
1005
65EF
  0
LINE
  5
64BC
330
1F
100
AcDbEntity
  8
AM_7
100
AcDbLine
 10
663.9876290834575
 20
162.7245083678363
 30
0.0
 11
663.9876290834575
 21
166.9745083678362
 31
0.0
1001
GENIUS_GENOREF_13
1005
65EF
  0
LINE
  5
64BD
102
{ACAD_REACTORS
330
64ED
102
}
330
1F
100
AcDbEntity
  8
AM_7
100
AcDbLine
 10
663.9876290834575
 20
162.7245083678363
 30
0.0
 11
659.7376290834574
 21
162.7245083678363
 31
0.0
1001
GENIUS_GENOREF_13
1005
65EF
  0
LINE
  5
64BE
102
{ACAD_REACTORS
330
64F9
102
}
330
1F
100
AcDbEntity
  8
AM_7
100
AcDbLine
 10
663.9876290834575
 20
162.7245083678363
 30
0.0
 11
663.9876290834575
 21
158.4745083678362
 31
0.0
1001
GENIUS_GENOREF_13
1005
65EF
  0
LINE
  5
64BF
330
1F
100
AcDbEntity
  8
AM_7
100
AcDbLine
 10
730.9876290834575
 20
162.7245083678363
 30
0.0
 11
735.2376290834574
 21
162.7245083678363
 31
0.0
1001
GENIUS_GENOREF_13
1005
65F9
  0
LINE
  5
64C0
330
1F
100
AcDbEntity
  8
AM_7
100
AcDbLine
 10
730.9876290834575
 20
162.7245083678363
 30
0.0
 11
730.9876290834575
 21
166.9745083678362
 31
0.0
1001
GENIUS_GENOREF_13
1005
65F9
  0
LINE
  5
64C1
330
1F
100
AcDbEntity
  8
AM_7
100
AcDbLine
 10
730.9876290834575
 20
162.7245083678363
 30
0.0
 11
726.7376290834574
 21
162.7245083678363
 31
0.0
1001
GENIUS_GENOREF_13
1005
65F9
  0
LINE
  5
64C2
102
{ACAD_REACTORS
330
64FF
102
}
330
1F
100
AcDbEntity
  8
AM_7
100
AcDbLine
 10
730.9876290834575
 20
162.7245083678363
 30
0.0
 11
730.9876290834575
 21
158.4745083678362
 31
0.0
1001
GENIUS_GENOREF_13
1005
65F9
  0
DIMENSION
  5
64CD
102
{ACAD_XDICTIONARY
360
64CE
102
}
102
{ACAD_REACTORS
330
64CF
102
}
330
1F
100
AcDbEntity
  8
AM_5
100
AcDbDimension
  2
*D6
 10
676.4876290834575
 20
100.1263591581798
 30
0.0
 11
667.9876290834575
 21
101.9113591581798
 31
0.0
 70
    32
 71
     5
 42
17.0
  3
AM_ISO$0
100
AcDbAlignedDimension
 13
659.4876290834575
 23
109.5711757469561
 33
0.0
 14
676.4876290834575
 24
115.9511757469562
 34
0.0
100
AcDbRotatedDimension
1001
ACAD
1000
DSTYLE
1002
{
1070
    40
1040
0.7
1070
   272
1070
     8
1002
}
  0
DIMENSION
  5
64D0
102
{ACAD_XDICTIONARY
360
64D1
102
}
102
{ACAD_REACTORS
330
64D2
102
}
330
1F
100
AcDbEntity
  8
AM_5
100
AcDbDimension
  2
*D7
 10
686.9876290834574
 20
100.1263591581798
 30
0.0
 11
681.7376290834574
 21
101.9113591581798
 31
0.0
 70
    32
 71
     5
 42
10.5
  3
AM_ISO$0
100
AcDbAlignedDimension
 13
676.4876290834575
 23
115.9511757469562
 33
0.0
 14
686.9876290834574
 24
115.9511757469562
 34
0.0
100
AcDbRotatedDimension
1001
ACAD
1000
DSTYLE
1002
{
1070
    40
1040
0.7
1070
   272
1070
     8
1002
}
  0
DIMENSION
  5
64D3
102
{ACAD_XDICTIONARY
360
64D4
102
}
102
{ACAD_REACTORS
330
64D5
102
}
330
1F
100
AcDbEntity
  8
AM_5
100
AcDbDimension
  2
*D8
 10
697.4876290834575
 20
100.1263591581798
 30
0.0
 11
692.2376290834574
 21
101.9113591581798
 31
0.0
 70
    32
 71
     5
 42
10.5
  3
AM_ISO$0
100
AcDbAlignedDimension
 13
686.9876290834574
 23
115.9511757469562
 33
0.0
 14
697.4876290834575
 24
115.9511757469562
 34
0.0
100
AcDbRotatedDimension
1001
ACAD
1000
DSTYLE
1002
{
1070
    40
1040
0.7
1070
   272
1070
     8
1002
}
  0
DIMENSION
  5
64D6
102
{ACAD_XDICTIONARY
360
64D7
102
}
102
{ACAD_REACTORS
330
64D8
102
}
330
1F
100
AcDbEntity
  8
AM_5
100
AcDbDimension
  2
*D9
 10
650.0490385814294
 20
119.5711757469561
 30
0.0
 11
648.2640385814294
 21
122.0711757469562
 31
0.0
 70
    32
 71
     5
 42
4.999999999999985
  3
AM_ISO$0
100
AcDbAlignedDimension
 13
659.4876290834573
 23
124.5711757469561
 33
0.0
 14
672.8676290834576
 24
119.5711757469561
 34
0.0
 50
90.0
100
AcDbRotatedDimension
1001
ACAD
1000
DSTYLE
1002
{
1070
    40
1040
0.7
1070
   272
1070
     8
1002
}
  0
DIMENSION
  5
64DC
102
{ACAD_XDICTIONARY
360
64DD
102
}
102
{ACAD_REACTORS
330
64DE
102
}
330
1F
100
AcDbEntity
  8
AM_5
100
AcDbDimension
  2
*D11
 10
791.4441458507371
 20
121.0711757469561
 30
0.0
 11
791.4441458507371
 21
132.0291656456884
 31
0.0
 70
   160
 71
     5
 42
3.5
  3
AM_ISO$0
100
AcDbAlignedDimension
 13
785.844145850737
 23
124.5711757469561
 33
0.0
 14
779.064145850737
 24
121.0711757469561
 34
0.0
 50
90.0
100
AcDbRotatedDimension
1001
ACAD
1000
DSTYLE
1002
{
1070
    40
1040
0.7
1070
   272
1070
     8
1002
}
  0
DIMENSION
  5
64DF
102
{ACAD_XDICTIONARY
360
64E0
102
}
102
{ACAD_REACTORS
330
64E1
102
}
330
1F
100
AcDbEntity
  8
AM_5
100
AcDbDimension
  2
*D12
 10
797.4441458507372
 20
116.0711757469561
 30
0.0
 11
795.6591458507372
 21
120.3211757469562
 31
0.0
 70
    32
 71
     5
 42
8.5
  3
AM_ISO$0
100
AcDbAlignedDimension
 13
785.844145850737
 23
124.5711757469561
 33
0.0
 14
769.0641458507371
 24
116.0711757469561
 34
0.0
 50
90.0
100
AcDbRotatedDimension
1001
ACAD
1000
DSTYLE
1002
{
1070
    40
1040
0.7
1070
   272
1070
     8
1002
}
  0
DIMENSION
  5
64E2
102
{ACAD_XDICTIONARY
360
64E3
102
}
102
{ACAD_REACTORS
330
64E4
102
}
330
1F
100
AcDbEntity
  8
AM_5
100
AcDbDimension
  2
*D13
 10
644.5651932977315
 20
109.5711757469561
 30
0.0
 11
642.7801932977315
 21
117.0711757469562
 31
0.0
 70
    32
 71
     5
 42
15.0
  3
AM_ISO$0
100
AcDbAlignedDimension
 13
659.4876290834573
 23
124.5711757469561
 33
0.0
 14
659.4876290834575
 24
109.5711757469561
 34
0.0
 50
90.0
100
AcDbRotatedDimension
1001
ACAD
1000
DSTYLE
1002
{
1070
    40
1040
0.7
1070
   272
1070
     8
1002
}
  0
DIMENSION
  5
64E5
102
{ACAD_XDICTIONARY
360
64E6
102
}
102
{ACAD_REACTORS
330
64E7
102
}
330
1F
100
AcDbEntity
  8
AM_5
100
AcDbDimension
  2
*D14
 10
765.4441458507371
 20
100.0363337653266
 30
0.0
 11
759.9441458507372
 21
101.8213337653266
 31
0.0
 70
    32
 71
     5
 42
11.0
  3
AM_ISO$0
100
AcDbAlignedDimension
 13
754.4441458507371
 23
109.5711757469561
 33
0.0
 14
765.4441458507371
 24
112.4511757469562
 34
0.0
100
AcDbRotatedDimension
1001
ACAD
1000
DSTYLE
1002
{
1070
    40
1040
0.7
1070
   272
1070
     8
1002
}
  0
DIMENSION
  5
64E8
102
{ACAD_XDICTIONARY
360
64E9
102
}
102
{ACAD_REACTORS
330
64EA
102
}
330
1F
100
AcDbEntity
  8
AM_5
100
AcDbDimension
  2
*D15
 10
775.4441458507372
 20
95.03633376532656
 30
0.0
 11
764.9441458507372
 21
96.82157490705884
 31
0.0
 70
    32
 71
     5
 42
21.0
  3
AM_ISO$0
100
AcDbAlignedDimension
 13
754.4441458507371
 23
109.5711757469561
 33
0.0
 14
775.4441458507372
 24
117.4511757469562
 34
0.0
100
AcDbRotatedDimension
1001
ACAD
1000
DSTYLE
1002
{
1070
    40
1040
0.7
1070
   272
1070
     8
1002
}
  0
DIMENSION
  5
64EB
102
{ACAD_XDICTIONARY
360
64EC
102
}
102
{ACAD_REACTORS
330
64ED
102
}
330
1F
100
AcDbEntity
  8
AM_5
100
AcDbDimension
  2
*D16
 10
652.7728898839857
 20
162.7245083678363
 30
0.0
 11
650.9878898839858
 21
160.7245083678363
 31
0.0
 70
    32
 71
     5
 42
4.000000000000056
  3
AM_ISO$0
100
AcDbAlignedDimension
 13
659.4876290834575
 23
158.7245083678362
 33
0.0
 14
659.7376290834574
 24
162.7245083678363
 34
0.0
 50
90.0
100
AcDbRotatedDimension
1001
ACAD
1000
DSTYLE
1002
{
1070
    40
1040
0.7
1070
   272
1070
     8
1002
}
  0
DIMENSION
  5
64EE
102
{ACAD_XDICTIONARY
360
64EF
102
}
102
{ACAD_REACTORS
330
64F0
102
}
330
1F
100
AcDbEntity
  8
AM_5
100
AcDbDimension
  2
*D17
 10
647.7728898839857
 20
183.7245083678363
 30
0.0
 11
645.9876487422534
 21
171.2245083678363
 31
0.0
 70
    32
 71
     5
 42
25.00000000000006
  3
AM_ISO$0
100
AcDbAlignedDimension
 13
659.4876290834573
 23
158.7245083678362
 33
0.0
 14
659.4876290834575
 24
183.7245083678363
 34
0.0
 50
90.0
100
AcDbRotatedDimension
1001
ACAD
1000
DSTYLE
1002
{
1070
    40
1040
0.7
1070
   272
1070
     8
1002
}
  0
DIMENSION
  5
64F7
102
{ACAD_XDICTIONARY
360
64F8
102
}
102
{ACAD_REACTORS
330
64F9
102
}
330
1F
100
AcDbEntity
  8
AM_5
100
AcDbDimension
  2
*D18
 10
663.9876290834575
 20
148.7315474773697
 30
0.0
 11
652.8393879220666
 21
148.7315474773697
 31
0.0
 70
   160
 71
     5
 42
4.500000000000113
  3
AM_ISO$0
100
AcDbAlignedDimension
 13
659.4876290834573
 23
158.7245083678362
 33
0.0
 14
663.9876290834575
 24
158.4745083678362
 34
0.0
100
AcDbRotatedDimension
1001
ACAD
1000
DSTYLE
1002
{
1070
    40
1040
0.7
1070
   272
1070
     8
1002
}
  0
DIMENSION
  5
64FD
102
{ACAD_XDICTIONARY
360
64FE
102
}
102
{ACAD_REACTORS
330
64FF
102
}
330
1F
100
AcDbEntity
  8
AM_5
100
AcDbDimension
  2
*D19
 10
735.4876290834575
 20
148.73154747737
 30
0.0
 11
742.1358702448482
 21
148.73154747737
 31
0.0
 70
   160
 71
     5
 42
4.5
  3
AM_ISO$0
100
AcDbAlignedDimension
 13
730.9876290834575
 23
158.4745083678362
 33
0.0
 14
735.4876290834575
 24
158.7245083678363
 34
0.0
100
AcDbRotatedDimension
1001
ACAD
1000
DSTYLE
1002
{
1070
    40
1040
0.7
1070
   272
1070
     8
1002
}
  0
TEXT
  5
650C
330
1F
100
AcDbEntity
  8
AM_5
100
AcDbText
 10
741.6014031766628
 20
172.0111842955516
 30
0.0
 40
2.5
  1
2-%%c3.4 thru
100
AcDbText
  0
INSERT
  5
650D
330
1F
100
AcDbEntity
  8
AM_5
100
AcDbBlockReference
  2
*S20
 10
0.0
 20
0.0
 30
0.0
  0
TEXT
  5
650E
330
1F
100
AcDbEntity
  8
AM_5
100
AcDbText
 10
741.6014031766628
 20
167.4331078836378
 30
0.0
 40
2.5
  1
%%c6.5x5 depth
100
AcDbText
  0
INSERT
  5
6514
330
1F
100
AcDbEntity
  8
AM_5
100
AcDbBlockReference
  2
*S22
 10
0.0
 20
0.0
 30
0.0
  0
LINE
  5
65DF
330
1F
100
AcDbEntity
  8
AM_7
100
AcDbLine
 10
707.9876290834577
 20
161.6245083678362
 30
0.0
 11
707.9876290834577
 21
178.4879980618703
 31
0.0
1001
GENIUS_GENOBJ-N-CEN_13
1002
{
1000
OWNER
1000
GEN
1002
}
1001
GENIUS_GENODEF_13
1002
{
1000
HIER
1070
     0
1002
}
1002
{
1000
MANEDIT
1070
     0
1002
}
1002
{
1000
NOSEL
1070
     0
1002
}
1002
{
1000
BEHIND
1070
     0
1002
}
1002
{
1000
OTHER
1070
     0
1002
}
1002
{
1000
REACTOR
1002
}
1001
GENIUS_GENCEN_19
1002
{
1040
1.0
1002
}
  0
LINE
  5
65E0
330
1F
100
AcDbEntity
  8
AM_7
100
AcDbLine
 10
718.4876290834573
 20
161.6245083678362
 30
0.0
 11
718.4876290834573
 21
178.4879980618703
 31
0.0
1001
GENIUS_GENOBJ-N-CEN_13
1002
{
1000
OWNER
1000
GEN
1002
}
1001
GENIUS_GENODEF_13
1002
{
1000
HIER
1070
     0
1002
}
1002
{
1000
MANEDIT
1070
     0
1002
}
1002
{
1000
NOSEL
1070
     0
1002
}
1002
{
1000
BEHIND
1070
     0
1002
}
1002
{
1000
OTHER
1070
     0
1002
}
1002
{
1000
REACTOR
1002
}
1001
GENIUS_GENCEN_19
1002
{
1040
1.0
1002
}
  0
TEXT
  5
65E8
330
1F
100
AcDbEntity
  8
AM_5
100
AcDbText
 10
785.4316023386069
 20
104.9001465442179
 30
0.0
 40
2.5
  1
2x2-M5x0.8
100
AcDbText
  0
INSERT
  5
65E9
330
1F
100
AcDbEntity
  8
AM_5
100
AcDbBlockReference
  2
*S23
 10
0.0
 20
0.0
 30
0.0
  0
TEXT
  5
65EA
330
1F
100
AcDbEntity
  8
AM_5
100
AcDbText
 10
732.9449695591116
 20
136.943299500877
 30
0.0
 40
2.5
  1
N-M5x0.8
100
AcDbText
  0
INSERT
  5
65EB
330
1F
100
AcDbEntity
  8
AM_5
100
AcDbBlockReference
  2
*S24
 10
0.0
 20
0.0
 30
0.0
  0
POINT
  5
65EF
330
1F
100
AcDbEntity
  8
0
 60
     1
100
AcDbPoint
 10
15.23605663284138
 20
294.851517724502
 30
0.0
1001
GENIUS_GENOLIS_13
1002
{
1000
ENT
1005
64BE
1005
64BD
1005
64BC
1005
64BB
1002
}
1001
GENIUS_GENOENT_13
1002
{
1000
MYREF
1005
65EF
1002
}
1002
{
1000
GRP
1005
0
1002
}
1001
GENIUS_GENODEF_13
1002
{
1000
HIER
1070
    10
1002
}
1002
{
1000
MANEDIT
1070
     0
1002
}
1002
{
1000
NOSEL
1070
     0
1002
}
1002
{
1000
BEHIND
1070
     0
1002
}
1002
{
1000
OTHER
1070
     0
1002
}
1002
{
1000
REACTOR
1002
}
1001
GENIUS_GENOBJ-N-CRS_13
1002
{
1000
OWNER
1000
GEN
1002
}
  0
POINT
  5
65F0
330
1F
100
AcDbEntity
  8
0
 60
     1
100
AcDbPoint
 10
15.23605663284138
 20
294.851517724502
 30
0.0
1001
GENIUS_GENODEF_13
1002
{
1000
HIER
1070
    10
1002
}
1002
{
1000
MANEDIT
1070
     0
1002
}
1002
{
1000
NOSEL
1070
     0
1002
}
1002
{
1000
BEHIND
1070
     0
1002
}
1002
{
1000
OTHER
1070
     0
1002
}
1002
{
1000
REACTOR
1002
}
1001
GENIUS_GENOENT_13
1002
{
1000
MYREF
1005
65F0
1002
}
1002
{
1000
GRP
1005
0
1002
}
1001
GENIUS_GENOBJ-N-CRS_13
1002
{
1000
OWNER
1000
GEN
1002
}
1001
GENIUS_GENOLIS_13
1002
{
1000
ENT
1005
64BA
1005
64B9
1005
64B8
1005
64B7
1002
}
  0
POINT
  5
65F1
330
1F
100
AcDbEntity
  8
0
 60
     1
100
AcDbPoint
 10
15.23605663284138
 20
294.851517724502
 30
0.0
1001
GENIUS_GENODEF_13
1002
{
1000
HIER
1070
    10
1002
}
1002
{
1000
MANEDIT
1070
     0
1002
}
1002
{
1000
NOSEL
1070
     0
1002
}
1002
{
1000
BEHIND
1070
     0
1002
}
1002
{
1000
OTHER
1070
     0
1002
}
1002
{
1000
REACTOR
1002
}
1001
GENIUS_GENOLIS_13
1002
{
1000
ENT
1005
64B6
1005
64B5
1005
64B4
1005
64B3
1002
}
1001
GENIUS_GENOENT_13
1002
{
1000
MYREF
1005
65F1
1002
}
1002
{
1000
GRP
1005
0
1002
}
1001
GENIUS_GENOBJ-N-CRS_13
1002
{
1000
OWNER
1000
GEN
1002
}
  0
POINT
  5
65F3
330
1F
100
AcDbEntity
  8
0
 60
     1
100
AcDbPoint
 10
15.23605663284138
 20
294.851517724502
 30
0.0
1001
GENIUS_GENODEF_13
1002
{
1000
HIER
1070
    10
1002
}
1002
{
1000
MANEDIT
1070
     0
1002
}
1002
{
1000
NOSEL
1070
     0
1002
}
1002
{
1000
BEHIND
1070
     0
1002
}
1002
{
1000
OTHER
1070
     0
1002
}
1002
{
1000
REACTOR
1002
}
1001
GENIUS_GENOBJ-N-CRS_13
1002
{
1000
OWNER
1000
GEN
1002
}
1001
GENIUS_GENOLIS_13
1002
{
1000
ENT
1005
64AE
1005
64AD
1005
64AC
1005
64AB
1002
}
1001
GENIUS_GENOENT_13
1002
{
1000
MYREF
1005
65F3
1002
}
1002
{
1000
GRP
1005
0
1002
}
  0
POINT
  5
65F4
330
1F
100
AcDbEntity
  8
0
 60
     1
100
AcDbPoint
 10
15.23605663284138
 20
294.851517724502
 30
0.0
1001
GENIUS_GENOLIS_13
1002
{
1000
ENT
1005
64AA
1005
64A9
1005
64A8
1005
64A7
1002
}
1001
GENIUS_GENODEF_13
1002
{
1000
HIER
1070
    10
1002
}
1002
{
1000
MANEDIT
1070
     0
1002
}
1002
{
1000
NOSEL
1070
     0
1002
}
1002
{
1000
BEHIND
1070
     0
1002
}
1002
{
1000
OTHER
1070
     0
1002
}
1002
{
1000
REACTOR
1002
}
1001
GENIUS_GENOENT_13
1002
{
1000
MYREF
1005
65F4
1002
}
1002
{
1000
GRP
1005
0
1002
}
1001
GENIUS_GENOBJ-N-CRS_13
1002
{
1000
OWNER
1000
GEN
1002
}
  0
POINT
  5
65F5
330
1F
100
AcDbEntity
  8
0
 60
     1
100
AcDbPoint
 10
15.23605663284138
 20
294.851517724502
 30
0.0
1001
GENIUS_GENOBJ-N-CRS_13
1002
{
1000
OWNER
1000
GEN
1002
}
1001
GENIUS_GENOENT_13
1002
{
1000
MYREF
1005
65F5
1002
}
1002
{
1000
GRP
1005
0
1002
}
1001
GENIUS_GENOLIS_13
1002
{
1000
ENT
1005
64A6
1005
64A5
1005
64A4
1005
64A3
1002
}
1001
GENIUS_GENODEF_13
1002
{
1000
HIER
1070
    10
1002
}
1002
{
1000
MANEDIT
1070
     0
1002
}
1002
{
1000
NOSEL
1070
     0
1002
}
1002
{
1000
BEHIND
1070
     0
1002
}
1002
{
1000
OTHER
1070
     0
1002
}
1002
{
1000
REACTOR
1002
}
  0
POINT
  5
65F6
330
1F
100
AcDbEntity
  8
0
 60
     1
100
AcDbPoint
 10
15.23605663284138
 20
294.851517724502
 30
0.0
1001
GENIUS_GENOENT_13
1002
{
1000
MYREF
1005
65F6
1002
}
1002
{
1000
GRP
1005
0
1002
}
1001
GENIUS_GENOBJ-N-CRS_13
1002
{
1000
OWNER
1000
GEN
1002
}
1001
GENIUS_GENOLIS_13
1002
{
1000
ENT
1005
64A2
1005
64A1
1005
64A0
1005
649F
1002
}
1001
GENIUS_GENODEF_13
1002
{
1000
HIER
1070
    10
1002
}
1002
{
1000
MANEDIT
1070
     0
1002
}
1002
{
1000
NOSEL
1070
     0
1002
}
1002
{
1000
BEHIND
1070
     0
1002
}
1002
{
1000
OTHER
1070
     0
1002
}
1002
{
1000
REACTOR
1002
}
  0
POINT
  5
65F7
330
1F
100
AcDbEntity
  8
0
 60
     1
100
AcDbPoint
 10
15.23605663284138
 20
294.851517724502
 30
0.0
1001
GENIUS_GENOLIS_13
1002
{
1000
ENT
1005
649E
1005
649D
1005
649C
1005
649B
1002
}
1001
GENIUS_GENOENT_13
1002
{
1000
MYREF
1005
65F7
1002
}
1002
{
1000
GRP
1005
0
1002
}
1001
GENIUS_GENOBJ-N-CRS_13
1002
{
1000
OWNER
1000
GEN
1002
}
1001
GENIUS_GENODEF_13
1002
{
1000
HIER
1070
    10
1002
}
1002
{
1000
MANEDIT
1070
     0
1002
}
1002
{
1000
NOSEL
1070
     0
1002
}
1002
{
1000
BEHIND
1070
     0
1002
}
1002
{
1000
OTHER
1070
     0
1002
}
1002
{
1000
REACTOR
1002
}
  0
POINT
  5
65F9
330
1F
100
AcDbEntity
  8
0
 60
     1
100
AcDbPoint
 10
15.23605663284138
 20
294.851517724502
 30
0.0
1001
GENIUS_GENODEF_13
1002
{
1000
HIER
1070
    10
1002
}
1002
{
1000
MANEDIT
1070
     0
1002
}
1002
{
1000
NOSEL
1070
     0
1002
}
1002
{
1000
BEHIND
1070
     0
1002
}
1002
{
1000
OTHER
1070
     0
1002
}
1002
{
1000
REACTOR
1002
}
1001
GENIUS_GENOBJ-N-CRS_13
1002
{
1000
OWNER
1000
GEN
1002
}
1001
GENIUS_GENOENT_13
1002
{
1000
MYREF
1005
65F9
1002
}
1002
{
1000
GRP
1005
0
1002
}
1001
GENIUS_GENOLIS_13
1002
{
1000
ENT
1005
64C2
1005
64C1
1005
64C0
1005
64BF
1002
}
  0
LINE
  5
6B1E
330
1F
100
AcDbEntity
  8
AM_7
  6
AM_ISO08W050x2
100
AcDbLine
 10
704.7376290834572
 20
168.7245083678362
 30
0.0
 11
707.3376290834572
 21
168.7245083678362
 31
0.0
1001
GENIUS_GENOREF_13
1005
6B22
  0
LINE
  5
6B1F
330
1F
100
AcDbEntity
  8
AM_7
  6
AM_ISO08W050x2
100
AcDbLine
 10
704.7376290834572
 20
168.7245083678362
 30
0.0
 11
704.7376290834572
 21
171.3245083678363
 31
0.0
1001
GENIUS_GENOREF_13
1005
6B22
  0
LINE
  5
6B20
330
1F
100
AcDbEntity
  8
AM_7
  6
AM_ISO08W050x2
100
AcDbLine
 10
704.7376290834572
 20
168.7245083678362
 30
0.0
 11
702.1376290834572
 21
168.7245083678362
 31
0.0
1001
GENIUS_GENOREF_13
1005
6B22
  0
LINE
  5
6B21
330
1F
100
AcDbEntity
  8
AM_7
  6
AM_ISO08W050x2
100
AcDbLine
 10
704.7376290834572
 20
168.7245083678362
 30
0.0
 11
704.7376290834572
 21
166.1245083678362
 31
0.0
1001
GENIUS_GENOREF_13
1005
6B22
  0
POINT
  5
6B22
330
1F
100
AcDbEntity
  8
0
 60
     1
100
AcDbPoint
 10
0.0
 20
0.0
 30
0.0
1001
GENIUS_GENOLIS_13
1002
{
1000
ENT
1005
6B21
1005
6B20
1005
6B1F
1005
6B1E
1002
}
1001
GENIUS_GENOBJ-N-CRS_13
1002
{
1000
OWNER
1000
GEN
1002
}
1001
GENIUS_GENOENT_13
1002
{
1000
MYREF
1005
6B22
1002
}
1002
{
1000
GRP
1005
0
1002
}
1001
GENIUS_GENODEF_13
1002
{
1000
HIER
1070
    10
1002
}
1002
{
1000
MANEDIT
1070
     0
1002
}
1002
{
1000
NOSEL
1070
     0
1002
}
1002
{
1000
BEHIND
1070
     0
1002
}
1002
{
1000
OTHER
1070
     0
1002
}
1002
{
1000
REACTOR
1002
}
  0
LINE
  5
6B31
330
1F
100
AcDbEntity
  8
AM_7
  6
AM_ISO08W050x2
100
AcDbLine
 10
711.2376290834572
 20
168.7245083678362
 30
0.0
 11
711.2376290834572
 21
171.3070854367463
 31
0.0
1001
GENIUS_GENOREF_13
1005
6B34
  0
LINE
  5
6B32
330
1F
100
AcDbEntity
  8
AM_7
  6
AM_ISO08W050x2
100
AcDbLine
 10
711.2376290834572
 20
168.7245083678362
 30
0.0
 11
708.6550520145472
 21
168.7245083678362
 31
0.0
1001
GENIUS_GENOREF_13
1005
6B34
  0
LINE
  5
6B33
330
1F
100
AcDbEntity
  8
AM_7
  6
AM_ISO08W050x2
100
AcDbLine
 10
711.2376290834572
 20
168.7245083678362
 30
0.0
 11
711.2376290834572
 21
166.1419312989262
 31
0.0
1001
GENIUS_GENOREF_13
1005
6B34
  0
POINT
  5
6B34
330
1F
100
AcDbEntity
  8
0
 60
     1
100
AcDbPoint
 10
0.0
 20
0.0
 30
0.0
1001
GENIUS_GENOLIS_13
1002
{
1000
ENT
1005
6B33
1005
6B32
1005
6B31
1005
6B30
1002
}
1001
GENIUS_GENOENT_13
1002
{
1000
MYREF
1005
6B34
1002
}
1002
{
1000
GRP
1005
0
1002
}
1001
GENIUS_GENOBJ-N-CRS_13
1002
{
1000
OWNER
1000
GEN
1002
}
1001
GENIUS_GENODEF_13
1002
{
1000
HIER
1070
    10
1002
}
1002
{
1000
MANEDIT
1070
     1
1002
}
1002
{
1000
NOSEL
1070
     0
1002
}
1002
{
1000
BEHIND
1070
     0
1002
}
1002
{
1000
OTHER
1070
     0
1002
}
1002
{
1000
REACTOR
1002
}
  0
LINE
  5
6B35
330
1F
100
AcDbEntity
  8
AM_7
  6
AM_ISO08W050x2
100
AcDbLine
 10
711.2376290834572
 20
168.7245083678362
 30
0.0
 11
713.8376290834572
 21
168.7245083678362
 31
0.0
  0
LINE
  5
6B36
330
1F
100
AcDbEntity
  8
AM_7
  6
AM_ISO08W050x2
100
AcDbLine
 10
715.2376290834572
 20
168.7245083678362
 30
0.0
 11
717.8376290834572
 21
168.7245083678362
 31
0.0
1001
GENIUS_GENOREF_13
1005
6B3F
  0
LINE
  5
6B37
330
1F
100
AcDbEntity
  8
AM_7
  6
AM_ISO08W050x2
100
AcDbLine
 10
715.2376290834572
 20
168.7245083678362
 30
0.0
 11
715.2376290834572
 21
171.3245083678363
 31
0.0
1001
GENIUS_GENOREF_13
1005
6B3F
  0
LINE
  5
6B38
330
1F
100
AcDbEntity
  8
AM_7
  6
AM_ISO08W050x2
100
AcDbLine
 10
715.2376290834572
 20
168.7245083678362
 30
0.0
 11
712.6376290834572
 21
168.7245083678362
 31
0.0
1001
GENIUS_GENOREF_13
1005
6B3F
  0
LINE
  5
6B39
330
1F
100
AcDbEntity
  8
AM_7
  6
AM_ISO08W050x2
100
AcDbLine
 10
715.2376290834572
 20
168.7245083678362
 30
0.0
 11
715.2376290834572
 21
166.1245083678362
 31
0.0
1001
GENIUS_GENOREF_13
1005
6B3F
  0
LINE
  5
6B3A
330
1F
100
AcDbEntity
  8
AM_7
  6
AM_ISO08W050x2
100
AcDbLine
 10
721.7376290834572
 20
168.7245083678362
 30
0.0
 11
721.7376290834572
 21
171.3070854367463
 31
0.0
1001
GENIUS_GENOREF_13
1005
6B3E
  0
LINE
  5
6B3B
330
1F
100
AcDbEntity
  8
AM_7
  6
AM_ISO08W050x2
100
AcDbLine
 10
721.7376290834572
 20
168.7245083678362
 30
0.0
 11
719.1550520145471
 21
168.7245083678362
 31
0.0
1001
GENIUS_GENOREF_13
1005
6B3E
  0
LINE
  5
6B3C
330
1F
100
AcDbEntity
  8
AM_7
  6
AM_ISO08W050x2
100
AcDbLine
 10
721.7376290834572
 20
168.7245083678362
 30
0.0
 11
721.7376290834572
 21
166.1419312989262
 31
0.0
1001
GENIUS_GENOREF_13
1005
6B3E
  0
LINE
  5
6B3D
330
1F
100
AcDbEntity
  8
AM_7
  6
AM_ISO08W050x2
100
AcDbLine
 10
721.7376290834572
 20
168.7245083678362
 30
0.0
 11
724.3376290834572
 21
168.7245083678362
 31
0.0
  0
POINT
  5
6B3E
330
1F
100
AcDbEntity
  8
0
 60
     1
100
AcDbPoint
 10
10.5
 20
0.0
 30
0.0
1001
GENIUS_GENOLIS_13
1002
{
1000
ENT
1005
6B3C
1005
6B3B
1005
6B3A
1005
6B30
1002
}
1001
GENIUS_GENOENT_13
1002
{
1000
MYREF
1005
6B3E
1002
}
1002
{
1000
GRP
1005
0
1002
}
1001
GENIUS_GENOBJ-N-CRS_13
1002
{
1000
OWNER
1000
GEN
1002
}
1001
GENIUS_GENODEF_13
1002
{
1000
HIER
1070
    10
1002
}
1002
{
1000
MANEDIT
1070
     1
1002
}
1002
{
1000
NOSEL
1070
     0
1002
}
1002
{
1000
BEHIND
1070
     0
1002
}
1002
{
1000
OTHER
1070
     0
1002
}
1002
{
1000
REACTOR
1002
}
  0
POINT
  5
6B3F
330
1F
100
AcDbEntity
  8
0
 60
     1
100
AcDbPoint
 10
10.5
 20
0.0
 30
0.0
1001
GENIUS_GENOLIS_13
1002
{
1000
ENT
1005
6B39
1005
6B38
1005
6B37
1005
6B36
1002
}
1001
GENIUS_GENOBJ-N-CRS_13
1002
{
1000
OWNER
1000
GEN
1002
}
1001
GENIUS_GENOENT_13
1002
{
1000
MYREF
1005
6B3F
1002
}
1002
{
1000
GRP
1005
0
1002
}
1001
GENIUS_GENODEF_13
1002
{
1000
HIER
1070
    10
1002
}
1002
{
1000
MANEDIT
1070
     0
1002
}
1002
{
1000
NOSEL
1070
     0
1002
}
1002
{
1000
BEHIND
1070
     0
1002
}
1002
{
1000
OTHER
1070
     0
1002
}
1002
{
1000
REACTOR
1002
}
  0
LINE
  5
6B49
330
1F
100
AcDbEntity
  8
AM_7
  6
AM_ISO08W050x2
100
AcDbLine
 10
694.2376290834572
 20
168.7245083678362
 30
0.0
 11
696.8376290834572
 21
168.7245083678362
 31
0.0
1001
GENIUS_GENOREF_13
1005
6B52
  0
LINE
  5
6B4A
330
1F
100
AcDbEntity
  8
AM_7
  6
AM_ISO08W050x2
100
AcDbLine
 10
694.2376290834572
 20
168.7245083678362
 30
0.0
 11
694.2376290834572
 21
171.3245083678363
 31
0.0
1001
GENIUS_GENOREF_13
1005
6B52
  0
LINE
  5
6B4B
330
1F
100
AcDbEntity
  8
AM_7
  6
AM_ISO08W050x2
100
AcDbLine
 10
694.2376290834572
 20
168.7245083678362
 30
0.0
 11
691.6376290834572
 21
168.7245083678362
 31
0.0
1001
GENIUS_GENOREF_13
1005
6B52
  0
LINE
  5
6B4C
330
1F
100
AcDbEntity
  8
AM_7
  6
AM_ISO08W050x2
100
AcDbLine
 10
694.2376290834572
 20
168.7245083678362
 30
0.0
 11
694.2376290834572
 21
166.1245083678362
 31
0.0
1001
GENIUS_GENOREF_13
1005
6B52
  0
LINE
  5
6B4D
330
1F
100
AcDbEntity
  8
AM_7
  6
AM_ISO08W050x2
100
AcDbLine
 10
700.7376290834572
 20
168.7245083678362
 30
0.0
 11
700.7376290834572
 21
171.3070854367463
 31
0.0
1001
GENIUS_GENOREF_13
1005
6B51
  0
LINE
  5
6B4E
330
1F
100
AcDbEntity
  8
AM_7
  6
AM_ISO08W050x2
100
AcDbLine
 10
700.7376290834572
 20
168.7245083678362
 30
0.0
 11
698.1550520145471
 21
168.7245083678362
 31
0.0
1001
GENIUS_GENOREF_13
1005
6B51
  0
LINE
  5
6B4F
330
1F
100
AcDbEntity
  8
AM_7
  6
AM_ISO08W050x2
100
AcDbLine
 10
700.7376290834572
 20
168.7245083678362
 30
0.0
 11
700.7376290834572
 21
166.1419312989262
 31
0.0
1001
GENIUS_GENOREF_13
1005
6B51
  0
LINE
  5
6B50
330
1F
100
AcDbEntity
  8
AM_7
  6
AM_ISO08W050x2
100
AcDbLine
 10
700.7376290834572
 20
168.7245083678362
 30
0.0
 11
703.3376290834572
 21
168.7245083678362
 31
0.0
  0
POINT
  5
6B51
330
1F
100
AcDbEntity
  8
0
 60
     1
100
AcDbPoint
 10
-10.5
 20
0.0
 30
0.0
1001
GENIUS_GENOLIS_13
1002
{
1000
ENT
1005
6B4F
1005
6B4E
1005
6B4D
1005
6B30
1002
}
1001
GENIUS_GENOENT_13
1002
{
1000
MYREF
1005
6B51
1002
}
1002
{
1000
GRP
1005
0
1002
}
1001
GENIUS_GENOBJ-N-CRS_13
1002
{
1000
OWNER
1000
GEN
1002
}
1001
GENIUS_GENODEF_13
1002
{
1000
HIER
1070
    10
1002
}
1002
{
1000
MANEDIT
1070
     1
1002
}
1002
{
1000
NOSEL
1070
     0
1002
}
1002
{
1000
BEHIND
1070
     0
1002
}
1002
{
1000
OTHER
1070
     0
1002
}
1002
{
1000
REACTOR
1002
}
  0
POINT
  5
6B52
330
1F
100
AcDbEntity
  8
0
 60
     1
100
AcDbPoint
 10
-10.5
 20
0.0
 30
0.0
1001
GENIUS_GENOLIS_13
1002
{
1000
ENT
1005
6B4C
1005
6B4B
1005
6B4A
1005
6B49
1002
}
1001
GENIUS_GENOBJ-N-CRS_13
1002
{
1000
OWNER
1000
GEN
1002
}
1001
GENIUS_GENOENT_13
1002
{
1000
MYREF
1005
6B52
1002
}
1002
{
1000
GRP
1005
0
1002
}
1001
GENIUS_GENODEF_13
1002
{
1000
HIER
1070
    10
1002
}
1002
{
1000
MANEDIT
1070
     0
1002
}
1002
{
1000
NOSEL
1070
     0
1002
}
1002
{
1000
BEHIND
1070
     0
1002
}
1002
{
1000
OTHER
1070
     0
1002
}
1002
{
1000
REACTOR
1002
}
  0
LINE
  5
6B53
330
1F
100
AcDbEntity
  8
AM_7
  6
AM_ISO08W050x2
100
AcDbLine
 10
683.7376290834572
 20
168.7245083678362
 30
0.0
 11
686.3376290834573
 21
168.7245083678362
 31
0.0
1001
GENIUS_GENOREF_13
1005
6B5C
  0
LINE
  5
6B54
330
1F
100
AcDbEntity
  8
AM_7
  6
AM_ISO08W050x2
100
AcDbLine
 10
683.7376290834572
 20
168.7245083678362
 30
0.0
 11
683.7376290834572
 21
171.3245083678363
 31
0.0
1001
GENIUS_GENOREF_13
1005
6B5C
  0
LINE
  5
6B55
330
1F
100
AcDbEntity
  8
AM_7
  6
AM_ISO08W050x2
100
AcDbLine
 10
683.7376290834572
 20
168.7245083678362
 30
0.0
 11
681.1376290834572
 21
168.7245083678362
 31
0.0
1001
GENIUS_GENOREF_13
1005
6B5C
  0
LINE
  5
6B56
330
1F
100
AcDbEntity
  8
AM_7
  6
AM_ISO08W050x2
100
AcDbLine
 10
683.7376290834572
 20
168.7245083678362
 30
0.0
 11
683.7376290834572
 21
166.1245083678362
 31
0.0
1001
GENIUS_GENOREF_13
1005
6B5C
  0
LINE
  5
6B57
330
1F
100
AcDbEntity
  8
AM_7
  6
AM_ISO08W050x2
100
AcDbLine
 10
690.2376290834572
 20
168.7245083678362
 30
0.0
 11
690.2376290834572
 21
171.3070854367463
 31
0.0
1001
GENIUS_GENOREF_13
1005
6B5B
  0
LINE
  5
6B58
330
1F
100
AcDbEntity
  8
AM_7
  6
AM_ISO08W050x2
100
AcDbLine
 10
690.2376290834572
 20
168.7245083678362
 30
0.0
 11
687.6550520145472
 21
168.7245083678362
 31
0.0
1001
GENIUS_GENOREF_13
1005
6B5B
  0
LINE
  5
6B59
330
1F
100
AcDbEntity
  8
AM_7
  6
AM_ISO08W050x2
100
AcDbLine
 10
690.2376290834572
 20
168.7245083678362
 30
0.0
 11
690.2376290834572
 21
166.1419312989262
 31
0.0
1001
GENIUS_GENOREF_13
1005
6B5B
  0
LINE
  5
6B5A
330
1F
100
AcDbEntity
  8
AM_7
  6
AM_ISO08W050x2
100
AcDbLine
 10
690.2376290834572
 20
168.7245083678362
 30
0.0
 11
692.8376290834572
 21
168.7245083678362
 31
0.0
  0
POINT
  5
6B5B
330
1F
100
AcDbEntity
  8
0
 60
     1
100
AcDbPoint
 10
-21.0
 20
0.0
 30
0.0
1001
GENIUS_GENOLIS_13
1002
{
1000
ENT
1005
6B59
1005
6B58
1005
6B57
1005
6B30
1002
}
1001
GENIUS_GENOENT_13
1002
{
1000
MYREF
1005
6B5B
1002
}
1002
{
1000
GRP
1005
0
1002
}
1001
GENIUS_GENOBJ-N-CRS_13
1002
{
1000
OWNER
1000
GEN
1002
}
1001
GENIUS_GENODEF_13
1002
{
1000
HIER
1070
    10
1002
}
1002
{
1000
MANEDIT
1070
     1
1002
}
1002
{
1000
NOSEL
1070
     0
1002
}
1002
{
1000
BEHIND
1070
     0
1002
}
1002
{
1000
OTHER
1070
     0
1002
}
1002
{
1000
REACTOR
1002
}
  0
POINT
  5
6B5C
330
1F
100
AcDbEntity
  8
0
 60
     1
100
AcDbPoint
 10
-21.0
 20
0.0
 30
0.0
1001
GENIUS_GENOLIS_13
1002
{
1000
ENT
1005
6B56
1005
6B55
1005
6B54
1005
6B53
1002
}
1001
GENIUS_GENOBJ-N-CRS_13
1002
{
1000
OWNER
1000
GEN
1002
}
1001
GENIUS_GENOENT_13
1002
{
1000
MYREF
1005
6B5C
1002
}
1002
{
1000
GRP
1005
0
1002
}
1001
GENIUS_GENODEF_13
1002
{
1000
HIER
1070
    10
1002
}
1002
{
1000
MANEDIT
1070
     0
1002
}
1002
{
1000
NOSEL
1070
     0
1002
}
1002
{
1000
BEHIND
1070
     0
1002
}
1002
{
1000
OTHER
1070
     0
1002
}
1002
{
1000
REACTOR
1002
}
  0
LINE
  5
6B5D
330
1F
100
AcDbEntity
  8
AM_7
  6
AM_ISO08W050x2
100
AcDbLine
 10
673.2376290834572
 20
168.7245083678362
 30
0.0
 11
675.8376290834572
 21
168.7245083678362
 31
0.0
1001
GENIUS_GENOREF_13
1005
6B66
  0
LINE
  5
6B5E
330
1F
100
AcDbEntity
  8
AM_7
  6
AM_ISO08W050x2
100
AcDbLine
 10
673.2376290834572
 20
168.7245083678362
 30
0.0
 11
673.2376290834572
 21
171.3245083678363
 31
0.0
1001
GENIUS_GENOREF_13
1005
6B66
  0
LINE
  5
6B5F
330
1F
100
AcDbEntity
  8
AM_7
  6
AM_ISO08W050x2
100
AcDbLine
 10
673.2376290834572
 20
168.7245083678362
 30
0.0
 11
670.6376290834572
 21
168.7245083678362
 31
0.0
1001
GENIUS_GENOREF_13
1005
6B66
  0
LINE
  5
6B60
330
1F
100
AcDbEntity
  8
AM_7
  6
AM_ISO08W050x2
100
AcDbLine
 10
673.2376290834572
 20
168.7245083678362
 30
0.0
 11
673.2376290834572
 21
166.1245083678362
 31
0.0
1001
GENIUS_GENOREF_13
1005
6B66
  0
LINE
  5
6B61
330
1F
100
AcDbEntity
  8
AM_7
  6
AM_ISO08W050x2
100
AcDbLine
 10
679.7376290834572
 20
168.7245083678362
 30
0.0
 11
679.7376290834572
 21
171.3070854367463
 31
0.0
1001
GENIUS_GENOREF_13
1005
6B65
  0
LINE
  5
6B62
330
1F
100
AcDbEntity
  8
AM_7
  6
AM_ISO08W050x2
100
AcDbLine
 10
679.7376290834572
 20
168.7245083678362
 30
0.0
 11
677.1550520145471
 21
168.7245083678362
 31
0.0
1001
GENIUS_GENOREF_13
1005
6B65
  0
LINE
  5
6B63
330
1F
100
AcDbEntity
  8
AM_7
  6
AM_ISO08W050x2
100
AcDbLine
 10
679.7376290834572
 20
168.7245083678362
 30
0.0
 11
679.7376290834572
 21
166.1419312989262
 31
0.0
1001
GENIUS_GENOREF_13
1005
6B65
  0
LINE
  5
6B64
330
1F
100
AcDbEntity
  8
AM_7
  6
AM_ISO08W050x2
100
AcDbLine
 10
679.7376290834572
 20
168.7245083678362
 30
0.0
 11
682.3376290834572
 21
168.7245083678362
 31
0.0
  0
POINT
  5
6B65
330
1F
100
AcDbEntity
  8
0
 60
     1
100
AcDbPoint
 10
-31.5
 20
0.0
 30
0.0
1001
GENIUS_GENOLIS_13
1002
{
1000
ENT
1005
6B63
1005
6B62
1005
6B61
1005
6B30
1002
}
1001
GENIUS_GENOENT_13
1002
{
1000
MYREF
1005
6B65
1002
}
1002
{
1000
GRP
1005
0
1002
}
1001
GENIUS_GENOBJ-N-CRS_13
1002
{
1000
OWNER
1000
GEN
1002
}
1001
GENIUS_GENODEF_13
1002
{
1000
HIER
1070
    10
1002
}
1002
{
1000
MANEDIT
1070
     1
1002
}
1002
{
1000
NOSEL
1070
     0
1002
}
1002
{
1000
BEHIND
1070
     0
1002
}
1002
{
1000
OTHER
1070
     0
1002
}
1002
{
1000
REACTOR
1002
}
  0
POINT
  5
6B66
330
1F
100
AcDbEntity
  8
0
 60
     1
100
AcDbPoint
 10
-31.5
 20
0.0
 30
0.0
1001
GENIUS_GENOLIS_13
1002
{
1000
ENT
1005
6B60
1005
6B5F
1005
6B5E
1005
6B5D
1002
}
1001
GENIUS_GENOBJ-N-CRS_13
1002
{
1000
OWNER
1000
GEN
1002
}
1001
GENIUS_GENOENT_13
1002
{
1000
MYREF
1005
6B66
1002
}
1002
{
1000
GRP
1005
0
1002
}
1001
GENIUS_GENODEF_13
1002
{
1000
HIER
1070
    10
1002
}
1002
{
1000
MANEDIT
1070
     0
1002
}
1002
{
1000
NOSEL
1070
     0
1002
}
1002
{
1000
BEHIND
1070
     0
1002
}
1002
{
1000
OTHER
1070
     0
1002
}
1002
{
1000
REACTOR
1002
}
  0
LINE
  5
6B70
330
1F
100
AcDbEntity
  8
AM_7
100
AcDbLine
 10
697.4876290834576
 20
161.6245083678362
 30
0.0
 11
697.4876290834576
 21
178.4879980618703
 31
0.0
1001
GENIUS_GENOBJ-N-CEN_13
1002
{
1000
OWNER
1000
GEN
1002
}
1001
GENIUS_GENODEF_13
1002
{
1000
HIER
1070
     0
1002
}
1002
{
1000
MANEDIT
1070
     0
1002
}
1002
{
1000
NOSEL
1070
     0
1002
}
1002
{
1000
BEHIND
1070
     0
1002
}
1002
{
1000
OTHER
1070
     0
1002
}
1002
{
1000
REACTOR
1002
}
1001
GENIUS_GENCEN_19
1002
{
1040
1.0
1002
}
  0
LINE
  5
6B71
330
1F
100
AcDbEntity
  8
AM_7
100
AcDbLine
 10
686.9876290834577
 20
161.6245083678362
 30
0.0
 11
686.9876290834577
 21
178.4879980618703
 31
0.0
1001
GENIUS_GENOBJ-N-CEN_13
1002
{
1000
OWNER
1000
GEN
1002
}
1001
GENIUS_GENODEF_13
1002
{
1000
HIER
1070
     0
1002
}
1002
{
1000
MANEDIT
1070
     0
1002
}
1002
{
1000
NOSEL
1070
     0
1002
}
1002
{
1000
BEHIND
1070
     0
1002
}
1002
{
1000
OTHER
1070
     0
1002
}
1002
{
1000
REACTOR
1002
}
1001
GENIUS_GENCEN_19
1002
{
1040
1.0
1002
}
  0
LINE
  5
6B72
330
1F
100
AcDbEntity
  8
AM_7
100
AcDbLine
 10
676.4876290834576
 20
161.6245083678362
 30
0.0
 11
676.4876290834576
 21
178.4879980618703
 31
0.0
1001
GENIUS_GENOBJ-N-CEN_13
1002
{
1000
OWNER
1000
GEN
1002
}
1001
GENIUS_GENODEF_13
1002
{
1000
HIER
1070
     0
1002
}
1002
{
1000
MANEDIT
1070
     0
1002
}
1002
{
1000
NOSEL
1070
     0
1002
}
1002
{
1000
BEHIND
1070
     0
1002
}
1002
{
1000
OTHER
1070
     0
1002
}
1002
{
1000
REACTOR
1002
}
1001
GENIUS_GENCEN_19
1002
{
1040
1.0
1002
}
  0
TEXT
  5
6F3A
330
1F
100
AcDbEntity
  8
LOGO
 62
     7
100
AcDbText
 10
654.2987177180759
 20
70.07338748455964
 30
0.0
 40
1.866396380090497
  1
Order example:
 41
0.8
  7
CHINESET
100
AcDbText
  0
TEXT
  5
6F3B
330
1F
100
AcDbEntity
  8
LOGO
 62
     7
100
AcDbText
 10
654.6335646631344
 20
72.70088714542561
 30
0.0
 40
2.799594570135746
  1
訂購代號：
  7
CHINESET
100
AcDbText
  0
LINE
  5
6F3C
330
1F
100
AcDbEntity
  8
LOGO
 62
     4
100
AcDbLine
 10
653.4877621604741
 20
62.20768834390134
 30
0.0
 11
653.4877621604741
 21
76.20566119458016
 31
0.0
  0
TEXT
  5
6F3D
330
1F
100
AcDbEntity
  8
LOGO
  6
Continuous
100
AcDbText
 10
627.7203566590501
 20
64.95756898563428
 30
0.0
 40
2.09969592760181
  1
金器工業股份有限公司
  7
CHINESET
100
AcDbText
  0
TEXT
  5
6F3E
330
1F
100
AcDbEntity
  8
LOGO
  6
Continuous
100
AcDbText
 10
623.8636306443993
 20
62.85746168225322
 30
0.0
 40
1.399797285067873
  1
MINDMAN INDUSTRIAL CO., LTD.
 41
0.85
  7
CHINESET
100
AcDbText
  0
LINE
  5
6F3F
330
1F
100
AcDbEntity
  8
LOGO
 62
     4
100
AcDbLine
 10
653.4877621604741
 20
73.4060666244444
 30
0.0
 11
632.9574019794785
 21
73.4060666244444
 31
0.0
  0
LINE
  5
6F40
330
1F
100
AcDbEntity
  8
LOGO
 62
     4
100
AcDbLine
 10
653.4877621604741
 20
70.60647205430864
 30
0.0
 11
632.9574019794785
 21
70.60647205430864
 31
0.0
  0
LINE
  5
6F41
330
1F
100
AcDbEntity
  8
LOGO
 62
     4
100
AcDbLine
 10
653.4877621604741
 20
67.80687748417304
 30
0.0
 11
622.6922218889808
 21
67.80687748417304
 31
0.0
  0
LINE
  5
6F42
330
1F
100
AcDbEntity
  8
LOGO
 62
     4
100
AcDbLine
 10
632.9574019794785
 20
67.80687748417304
 30
0.0
 11
632.9574019794785
 21
76.20566119458016
 31
0.0
  0
TEXT
  5
6F43
330
1F
100
AcDbEntity
  8
LOGO
100
AcDbText
 10
646.9889341449484
 20
68.50677612670674
 30
0.0
 40
1.399797285067873
  1
mm
  7
CHINESET
 72
     1
 11
648.7220164978896
 21
69.20667476924068
 31
0.0
100
AcDbText
 73
     2
  0
TEXT
  5
6F44
330
1F
100
AcDbEntity
  8
LOGO
100
AcDbText
 10
646.2557069956272
 20
74.10596526697826
 30
0.0
 40
1.399797285067873
  1
1 : 1
  7
CHINESET
 72
     1
 11
648.7220164978896
 21
74.8058639095122
 31
0.0
100
AcDbText
 73
     2
  0
LINE
  5
6F45
330
1F
100
AcDbEntity
  8
LOGO
 62
     4
100
AcDbLine
 10
644.1557802600216
 20
67.80687748417304
 30
0.0
 11
644.1557802600216
 21
76.20566119458016
 31
0.0
  0
TEXT
  5
6F46
330
1F
100
AcDbEntity
  8
LOGO
100
AcDbText
 10
634.1116098301572
 20
74.10665414359492
 30
91.74040803203487
 40
1.399797285067873
  1
比例 Scale:
 41
0.9
  7
CHINESET
 72
     4
 11
638.55659111975
 21
74.8058639095122
 31
91.74040803203487
100
AcDbText
  0
TEXT
  5
6F47
330
1F
100
AcDbEntity
  8
LOGO
100
AcDbText
 10
634.0309965043653
 20
71.32606108680224
 30
91.74040803203487
 40
1.399797285067873
  1
投影  View:
 41
0.9
  7
CHINESET
 72
     4
 11
638.55659111975
 21
72.00626933937645
 31
91.74040803203487
100
AcDbText
  0
TEXT
  5
6F48
330
1F
100
AcDbEntity
  8
LOGO
100
AcDbText
 10
634.1678516853609
 20
68.50677612670674
 30
91.74040803203487
 40
1.399797285067873
  1
單位  Unit:
 41
0.9
  7
CHINESET
 72
     4
 11
638.55659111975
 21
69.20667476924068
 31
91.74040803203487
100
AcDbText
  0
LWPOLYLINE
  5
6F49
330
1F
100
AcDbEntity
  8
LOGO
 62
     4
100
AcDbPolyline
 90
        4
 70
     1
 43
0.0
 10
622.6922218889808
 20
76.20566119458016
 10
815.1922218889808
 20
76.20566119458016
 10
815.1922218889808
 20
202.2076883439011
 10
622.6922218889808
 20
202.2076883439011
1001
GENIUS_GENREC_14
1002
{
1000
PYDIR
1011
622.6922218889808
1021
202.2076883439011
1031
0.0
1002
}
1002
{
1000
PXDIR
1011
815.1922218889808
1021
76.20566119458016
1031
0.0
1002
}
1002
{
1000
PORI
1011
622.6922218889808
1021
76.20566119458016
1031
0.0
1002
}
1002
{
1000
PINS
1011
622.6922218889808
1021
76.20566119458016
1031
0.0
1002
}
1002
{
1000
PINS2
1011
815.1922218889808
1021
202.2076883439011
1031
0.0
1002
}
1002
{
1000
C
1070
     1
1002
}
1001
GENIUS_GENODEF_13
1002
{
1000
HIER
1070
     0
1002
}
1002
{
1000
MANEDIT
1070
     0
1002
}
1002
{
1000
NOSEL
1070
     0
1002
}
1002
{
1000
BEHIND
1070
     0
1002
}
1002
{
1000
OTHER
1070
     0
1002
}
1002
{
1000
REACTOR
1002
}
1001
GENIUS_GENOBJ-N-REC_13
1002
{
1000
OWNER
1000
GEN
1002
}
  0
SOLID
  5
6F4A
330
1F
100
AcDbEntity
  8
LOGO
 62
     5
100
AcDbTrace
 10
624.1445340372764
 20
70.13384122514441
 30
0.0
 11
624.749769652659
 21
70.13384122514427
 31
0.0
 12
627.2750630823586
 22
75.87314447446219
 32
0.0
 13
627.8802986977415
 23
75.87314447446186
 33
0.0
  0
SOLID
  5
6F4B
330
1F
100
AcDbEntity
  8
LOGO
 62
     5
100
AcDbTrace
 10
625.0002119762662
 20
70.13384122514441
 30
0.0
 11
625.6054475916488
 21
70.13384122514441
 31
0.0
 12
627.8802986977415
 22
75.41400021451654
 32
0.0
 13
627.2750630823586
 23
73.19480295811368
 33
0.0
  0
SOLID
  5
6F4C
330
1F
100
AcDbEntity
  8
LOGO
 62
     2
100
AcDbTrace
 10
624.749769652659
 20
70.13384122514427
 30
0.0
 11
625.0002119762662
 21
70.13384122514441
 31
0.0
 12
627.8802986977415
 22
75.87314447446186
 32
0.0
 13
628.1307410213485
 23
75.87314447446186
 33
0.0
  0
SOLID
  5
6F4D
330
1F
100
AcDbEntity
  8
LOGO
 62
     5
100
AcDbTrace
 10
623.1741929238645
 20
68.04682186175631
 30
0.0
 11
623.3828948602035
 21
68.04682186175631
 31
0.0
 12
623.9706157569941
 22
69.09033154345029
 32
0.0
 13
624.1793176933327
 23
69.09033154345029
 33
0.0
  0
SOLID
  5
6F4E
330
1F
100
AcDbEntity
  8
LOGO
 62
     5
100
AcDbTrace
 10
623.9706157569941
 20
69.09033154345029
 30
0.0
 11
624.1793176933327
 21
69.09033154345029
 31
0.0
 12
623.9706157569941
 22
68.04682186175631
 32
0.0
 13
624.1793176933327
 23
68.04682186175631
 33
0.0
  0
SOLID
  5
6F4F
330
1F
100
AcDbEntity
  8
LOGO
 62
     5
100
AcDbTrace
 10
623.9706157569941
 20
68.04682186175631
 30
0.0
 11
624.1793176933327
 21
68.04682186175631
 31
0.0
 12
624.7670385901242
 22
69.09033154345029
 32
0.0
 13
624.975740526463
 23
69.09033154345029
 33
0.0
  0
SOLID
  5
6F50
330
1F
100
AcDbEntity
  8
LOGO
 62
     5
100
AcDbTrace
 10
624.7670385901242
 20
69.09033154345029
 30
0.0
 11
624.975740526463
 21
69.09033154345029
 31
0.0
 12
624.7670385901242
 22
68.04682186175631
 32
0.0
 13
624.975740526463
 23
68.04682186175631
 33
0.0
  0
POLYLINE
  5
6F51
330
1F
100
AcDbEntity
  8
LOGO
 62
     5
100
AcDb2dPolyline
 66
     1
 10
0.0
 20
0.0
 30
0.0
 40
0.2090363945701357
 41
0.2090363945701357
  0
VERTEX
  5
6F52
330
6F51
100
AcDbEntity
  8
LOGO
 62
     5
100
AcDbVertex
100
AcDb2dVertex
 10
631.7626564009908
 20
68.67292767077268
 30
0.0
 42
1.0
  0
VERTEX
  5
6F53
330
6F51
100
AcDbEntity
  8
LOGO
 62
     5
100
AcDbVertex
100
AcDb2dVertex
 10
631.1355472172804
 20
68.67292767077268
 30
0.0
 42
1.0
  0
SEQEND
  5
6F54
330
6F51
100
AcDbEntity
  8
LOGO
 62
     5
  0
POLYLINE
  5
6F55
330
1F
100
AcDbEntity
  8
LOGO
 62
     5
100
AcDb2dPolyline
 66
     1
 10
0.0
 20
0.0
 30
0.0
 70
     1
  0
VERTEX
  5
6F56
330
6F55
100
AcDbEntity
  8
LOGO
 62
     5
100
AcDbVertex
100
AcDb2dVertex
 10
629.9534185121693
 20
68.56857670260314
 30
0.0
 42
1.000000057330635
  0
VERTEX
  5
6F57
330
6F55
100
AcDbEntity
  8
LOGO
 62
     5
100
AcDbVertex
100
AcDb2dVertex
 10
630.5795243211859
 20
68.56857670260314
 30
0.0
 42
1.000000057330635
  0
SEQEND
  5
6F58
330
6F55
100
AcDbEntity
  8
LOGO
 62
     5
  0
CIRCLE
  5
6F59
330
1F
100
AcDbEntity
  8
LOGO
 62
     5
100
AcDbCircle
 10
630.266471416678
 20
68.56857670260314
 30
0.0
 40
0.3130529045082353
  0
POLYLINE
  5
6F5A
330
1F
100
AcDbEntity
  8
LOGO
 62
     5
100
AcDb2dPolyline
 66
     1
 10
0.0
 20
0.0
 30
0.0
 70
     1
 40
0.2090363945701357
 41
0.2090363945701357
  0
VERTEX
  5
6F5B
330
6F5A
100
AcDbEntity
  8
LOGO
 62
     5
100
AcDbVertex
100
AcDb2dVertex
 10
629.8483986275376
 20
68.56857670260314
 30
0.0
 42
1.0
  0
VERTEX
  5
6F5C
330
6F5A
100
AcDbEntity
  8
LOGO
 62
     5
100
AcDbVertex
100
AcDb2dVertex
 10
630.684544205818
 20
68.56857670260314
 30
0.0
 42
1.0
  0
SEQEND
  5
6F5D
330
6F5A
100
AcDbEntity
  8
LOGO
 62
     5
  0
LINE
  5
6F5E
330
1F
100
AcDbEntity
  8
LOGO
100
AcDbLine
 10
631.8665056818129
 20
68.04682186175631
 30
0.0
 11
631.8665056818129
 21
68.67292767077268
 31
0.0
  0
SOLID
  5
6F5F
330
1F
100
AcDbEntity
  8
LOGO
 62
     5
100
AcDbTrace
 10
630.5795034509932
 20
69.09033154345029
 30
0.0
 11
630.7882053873315
 21
69.09033154345029
 31
0.0
 12
630.5795034509932
 22
68.04682186175631
 32
0.0
 13
630.7882053873315
 23
68.04682186175631
 33
0.0
  0
SOLID
  5
6F60
330
1F
100
AcDbEntity
  8
LOGO
 62
     5
100
AcDbTrace
 10
631.0316979364577
 20
68.04682186175631
 30
0.0
 11
631.2403998727967
 21
68.04682186175631
 31
0.0
 12
631.0316979364577
 22
69.09033154345029
 32
0.0
 13
631.2403998727967
 23
69.09033154345029
 33
0.0
  0
SOLID
  5
6F61
330
1F
100
AcDbEntity
  8
LOGO
 62
     5
100
AcDbTrace
 10
631.6578037454745
 20
68.67292767077268
 30
0.0
 11
631.8665056818129
 21
68.67292767077268
 31
0.0
 12
631.6578037454745
 22
68.04682186175631
 32
0.0
 13
631.8665056818129
 23
68.04682186175631
 33
0.0
  0
SOLID
  5
6F62
330
1F
100
AcDbEntity
  8
LOGO
 62
     5
100
AcDbTrace
 10
631.0108277428237
 20
75.41400021451654
 30
0.0
 11
630.4055921274415
 21
73.19480295811368
 31
0.0
 12
631.0108277428237
 22
70.13384122514427
 32
0.0
 13
630.4055921274415
 23
70.13384122514427
 33
0.0
  0
SOLID
  5
6F63
330
1F
100
AcDbEntity
  8
LOGO
 62
     5
100
AcDbTrace
 10
631.2612700664307
 20
70.13384122514427
 30
0.0
 11
631.8665056818129
 21
70.13384122514427
 31
0.0
 12
631.2612700664307
 22
75.87314447446186
 32
0.0
 13
631.8665056818129
 23
75.87314447446219
 33
0.0
  0
SOLID
  5
6F64
330
1F
100
AcDbEntity
  8
LOGO
 62
     2
100
AcDbTrace
 10
631.0108277428237
 20
75.87314447446219
 30
0.0
 11
631.2612700664307
 21
75.87314447446186
 31
0.0
 12
631.0108277428237
 22
70.13384122514427
 32
0.0
 13
631.2612700664307
 23
70.13384122514427
 33
0.0
  0
POLYLINE
  5
6F65
330
1F
100
AcDbEntity
  8
LOGO
 62
     5
100
AcDb2dPolyline
 66
     1
 10
0.0
 20
0.0
 30
0.0
 40
0.2090363945701357
 41
0.2090363945701357
  0
VERTEX
  5
6F66
330
6F65
100
AcDbEntity
  8
LOGO
 62
     5
100
AcDbVertex
100
AcDb2dVertex
 10
628.7712480666721
 20
68.67292767077268
 30
0.0
 42
1.0
  0
VERTEX
  5
6F67
330
6F65
100
AcDbEntity
  8
LOGO
 62
     5
100
AcDbVertex
100
AcDb2dVertex
 10
628.1441388829615
 20
68.67292767077268
 30
0.0
 42
1.0
  0
SEQEND
  5
6F68
330
6F65
100
AcDbEntity
  8
LOGO
 62
     5
  0
POLYLINE
  5
6F69
330
1F
100
AcDbEntity
  8
LOGO
 62
     5
100
AcDb2dPolyline
 66
     1
 10
0.0
 20
0.0
 30
0.0
 40
0.2090363945701357
 41
0.2090363945701357
  0
VERTEX
  5
6F6A
330
6F69
100
AcDbEntity
  8
LOGO
 62
     5
100
AcDbVertex
100
AcDb2dVertex
 10
629.3973538756879
 20
68.67292767077268
 30
0.0
 42
1.0
  0
VERTEX
  5
6F6B
330
6F69
100
AcDbEntity
  8
LOGO
 62
     5
100
AcDbVertex
100
AcDb2dVertex
 10
628.7702446919777
 20
68.67292767077268
 30
0.0
 42
1.0
  0
SEQEND
  5
6F6C
330
6F69
100
AcDbEntity
  8
LOGO
 62
     5
  0
POLYLINE
  5
6F6D
330
1F
100
AcDbEntity
  8
LOGO
 62
     5
100
AcDb2dPolyline
 66
     1
 10
0.0
 20
0.0
 30
0.0
 40
0.2090363945701357
 41
0.2090363945701357
  0
VERTEX
  5
6F6E
330
6F6D
100
AcDbEntity
  8
LOGO
 62
     5
100
AcDbVertex
100
AcDb2dVertex
 10
626.4059455413691
 20
68.67292767077268
 30
0.0
 42
1.0
  0
VERTEX
  5
6F6F
330
6F6D
100
AcDbEntity
  8
LOGO
 62
     5
100
AcDbVertex
100
AcDb2dVertex
 10
625.7788363576588
 20
68.67292767077268
 30
0.0
 42
1.0
  0
SEQEND
  5
6F70
330
6F6D
100
AcDbEntity
  8
LOGO
 62
     5
  0
SOLID
  5
6F71
330
1F
100
AcDbEntity
  8
LOGO
 62
     5
100
AcDbTrace
 10
625.6749870768365
 20
69.09033154345029
 30
0.0
 11
625.8836890131749
 21
69.09033154345029
 31
0.0
 12
625.6749870768365
 22
68.04682186175631
 32
0.0
 13
625.8836890131749
 23
68.04682186175631
 33
0.0
  0
SOLID
  5
6F72
330
1F
100
AcDbEntity
  8
LOGO
 62
     5
100
AcDbTrace
 10
626.301092885853
 20
68.67292767077268
 30
0.0
 11
626.5097948221921
 21
68.67292767077268
 31
0.0
 12
626.301092885853
 22
68.04682186175631
 32
0.0
 13
626.5097948221921
 23
68.04682186175631
 33
0.0
  0
POLYLINE
  5
6F73
330
1F
100
AcDbEntity
  8
LOGO
 62
     5
100
AcDb2dPolyline
 66
     1
 10
0.0
 20
0.0
 30
0.0
 70
     1
 40
0.2090363945701357
 41
0.2090363945701357
  0
VERTEX
  5
6F74
330
6F73
100
AcDbEntity
  8
LOGO
 62
     5
100
AcDbVertex
100
AcDb2dVertex
 10
626.8569902932183
 20
68.56857670260314
 30
0.0
 42
1.0
  0
VERTEX
  5
6F75
330
6F73
100
AcDbEntity
  8
LOGO
 62
     5
100
AcDbVertex
100
AcDb2dVertex
 10
627.6931358714992
 20
68.56857670260314
 30
0.0
 42
1.0
  0
SEQEND
  5
6F76
330
6F73
100
AcDbEntity
  8
LOGO
 62
     5
  0
SOLID
  5
6F77
330
1F
100
AcDbEntity
  8
LOGO
 62
     5
100
AcDbTrace
 10
627.5880951166737
 20
69.4033844479587
 30
0.0
 11
627.7967970530125
 21
69.4033844479587
 31
0.0
 12
627.5880951166737
 22
68.04682186175631
 32
0.0
 13
627.7967970530125
 23
68.04682186175631
 33
0.0
  0
SOLID
  5
6F78
330
1F
100
AcDbEntity
  8
LOGO
 62
     5
100
AcDbTrace
 10
628.0402896021395
 20
69.09033154345029
 30
0.0
 11
628.2489915384778
 21
69.09033154345029
 31
0.0
 12
628.0402896021395
 22
68.04682186175631
 32
0.0
 13
628.2489915384778
 23
68.04682186175631
 33
0.0
  0
SOLID
  5
6F79
330
1F
100
AcDbEntity
  8
LOGO
 62
     5
100
AcDbTrace
 10
628.6663954111553
 20
68.67292767077268
 30
0.0
 11
628.8750973474943
 21
68.67292767077268
 31
0.0
 12
628.6663954111553
 22
68.04682186175631
 32
0.0
 13
628.8750973474943
 23
68.04682186175631
 33
0.0
  0
SOLID
  5
6F7A
330
1F
100
AcDbEntity
  8
LOGO
 62
     5
100
AcDbTrace
 10
629.2925012201719
 20
68.67292767077268
 30
0.0
 11
629.5012031565106
 21
68.67292767077268
 31
0.0
 12
629.2925012201719
 22
68.046821861756
 32
0.0
 13
629.5012031565106
 23
68.046821861756
 33
0.0
  0
SOLID
  5
6F7B
330
1F
100
AcDbEntity
  8
LOGO
 62
     5
100
AcDbTrace
 10
625.2227925913711
 20
69.23642289888753
 30
0.0
 11
625.4314945277104
 21
69.23642289888753
 31
0.0
 12
625.2227925913711
 22
69.4033844479587
 32
0.0
 13
625.4314945277104
 23
69.4033844479587
 33
0.0
  0
SOLID
  5
6F7C
330
1F
100
AcDbEntity
  8
LOGO
 62
     5
100
AcDbTrace
 10
625.2227925913711
 20
69.09033154345029
 30
0.0
 11
625.4314945277104
 21
69.09033154345029
 31
0.0
 12
625.2227925913711
 22
68.046821861756
 32
0.0
 13
625.4314945277104
 23
68.04682186175631
 33
0.0
  0
SOLID
  5
6F7D
330
1F
100
AcDbEntity
  8
LOGO
 62
     5
100
AcDbTrace
 10
627.2750630823586
 20
70.13384122514441
 30
0.0
 11
627.8802986977415
 21
70.13384122514441
 31
0.0
 12
627.2750630823586
 22
73.19480295811368
 32
0.0
 13
627.8802986977415
 23
75.41400021451654
 33
0.0
  0
SOLID
  5
6F7E
330
1F
100
AcDbEntity
  8
LOGO
 62
     5
100
AcDbTrace
 10
628.1307410213485
 20
75.87314447446186
 30
0.0
 11
628.7359766367306
 21
75.87314447446219
 31
0.0
 12
628.1307410213485
 22
70.59298548508974
 32
0.0
 13
628.7359766367306
 23
72.81218274149262
 33
0.0
  0
SOLID
  5
6F7F
330
1F
100
AcDbEntity
  8
LOGO
 62
     2
100
AcDbTrace
 10
627.8802986977415
 20
75.87314447446186
 30
0.0
 11
628.1307410213485
 21
75.87314447446186
 31
0.0
 12
627.8802986977415
 22
70.13384122514441
 32
0.0
 13
628.1307410213485
 23
70.13384122514441
 33
0.0
  0
SOLID
  5
6F80
330
1F
100
AcDbEntity
  8
LOGO
 62
     5
100
AcDbTrace
 10
628.1307410213485
 20
70.59298548508974
 30
0.0
 11
628.7359766367306
 21
72.81218274149262
 31
0.0
 12
631.0108277428237
 22
75.87314447446219
 32
0.0
 13
630.4055921274415
 23
75.87314447446219
 33
0.0
  0
SOLID
  5
6F81
330
1F
100
AcDbEntity
  8
LOGO
 62
     5
100
AcDbTrace
 10
628.1307410213485
 20
70.13384122514441
 30
0.0
 11
628.7359766367306
 21
70.13384122514441
 31
0.0
 12
631.0108277428237
 22
75.41400021451654
 32
0.0
 13
630.4055921274415
 23
73.19480295811368
 33
0.0
  0
SOLID
  5
6F82
330
1F
100
AcDbEntity
  8
LOGO
 62
     2
100
AcDbTrace
 10
627.8802986977415
 20
70.13384122514441
 30
0.0
 11
628.1307410213485
 21
70.13384122514441
 31
0.0
 12
631.0108277428237
 22
75.87314447446219
 32
0.0
 13
631.2612700664307
 23
75.87314447446186
 33
0.0
  0
LWPOLYLINE
  5
6F83
330
1F
100
AcDbEntity
  8
LOGO
 62
     4
100
AcDbPolyline
 90
        4
 70
     1
 43
0.0
 10
622.6922218889808
 20
76.20566119458016
 10
815.1922218889808
 20
76.20566119458016
 10
815.1922218889808
 20
62.2076883439012
 10
622.6922218889808
 20
62.2076883439012
1001
GENIUS_GENREC_14
1002
{
1000
PYDIR
1011
622.6922218889808
1021
62.2076883439012
1031
0.0
1002
}
1002
{
1000
PXDIR
1011
815.1922218889808
1021
76.20566119458016
1031
0.0
1002
}
1002
{
1000
PORI
1011
622.6922218889808
1021
76.20566119458016
1031
0.0
1002
}
1002
{
1000
PINS
1011
622.6922218889808
1021
76.20566119458016
1031
0.0
1002
}
1002
{
1000
PINS2
1011
815.1922218889808
1021
62.2076883439012
1031
0.0
1002
}
1002
{
1000
C
1070
     1
1002
}
1001
GENIUS_GENOBJ-N-REC_13
1002
{
1000
OWNER
1000
GEN
1002
}
1001
GENIUS_GENODEF_13
1002
{
1000
HIER
1070
     0
1002
}
1002
{
1000
MANEDIT
1070
     0
1002
}
1002
{
1000
NOSEL
1070
     0
1002
}
1002
{
1000
BEHIND
1070
     0
1002
}
1002
{
1000
OTHER
1070
     0
1002
}
1002
{
1000
REACTOR
1002
}
  0
LINE
  5
6F84
330
1F
100
AcDbEntity
  8
LOGO
 62
     4
100
AcDbLine
 10
682.0733344554617
 20
68.50677612670702
 30
0.0
 11
682.0733344554617
 21
63.37418608145788
 31
0.0
  0
LINE
  5
6F85
330
1F
100
AcDbEntity
  8
LOGO
 62
     4
100
AcDbLine
 10
672.7413525550091
 20
68.50677612670702
 30
0.0
 11
672.7413525550091
 21
63.37418608145788
 31
0.0
  0
LINE
  5
6F86
330
1F
100
AcDbEntity
  8
LOGO
 62
     4
100
AcDbLine
 10
682.0733344554617
 20
63.37418608145788
 30
0.0
 11
672.7413525550091
 21
63.37418608145788
 31
0.0
  0
LINE
  5
6F87
330
1F
100
AcDbEntity
  8
LOGO
 62
     4
100
AcDbLine
 10
683.7471245849927
 20
74.8058639095122
 30
0.0
 11
672.7413525550091
 21
74.8058639095122
 31
0.0
  0
LINE
  5
6F88
330
1F
100
AcDbEntity
  8
LOGO
 62
     4
100
AcDbLine
 10
683.7471245849927
 20
70.60647205430864
 30
0.0
 11
672.7413525550091
 21
70.60647205430864
 31
0.0
  0
LINE
  5
6F89
330
1F
100
AcDbEntity
  8
LOGO
 62
     4
100
AcDbLine
 10
672.7413525550091
 20
74.8058639095122
 30
0.0
 11
672.7413525550091
 21
70.60647205430864
 31
0.0
  0
LINE
  5
6F8A
330
1F
100
AcDbEntity
  8
LOGO
 62
     4
100
AcDbLine
 10
683.7471245849927
 20
74.8058639095122
 30
0.0
 11
683.7471245849927
 21
70.60647205430864
 31
0.0
  0
LINE
  5
6F8B
330
1F
100
AcDbEntity
  8
LOGO
 62
     4
100
AcDbLine
 10
677.894238570001
 20
70.60647205430864
 30
0.0
 11
677.894238570001
 21
68.50677612670702
 31
0.0
  0
TEXT
  5
6F8C
330
1F
100
AcDbEntity
  8
LOGO
  6
Continuous
100
AcDbText
 10
673.4875187193051
 20
71.48308896457212
 30
0.0
 40
2.449999999999999
  1
MVDY
  7
CHINESET
100
AcDbText
  0
LINE
  5
6F8D
330
1F
100
AcDbEntity
  8
LOGO
 62
     4
100
AcDbLine
 10
682.0733344554617
 20
68.50677612670702
 30
0.0
 11
672.7413525550091
 21
68.50677612670702
 31
0.0
  0
TEXT
  5
6F8E
330
1F
100
AcDbEntity
  8
LOGO
  6
Continuous
100
AcDbText
 10
675.7359560022592
 20
64.09864028243475
 30
91.74040803203487
 40
1.049999999999999
  1
Model
 41
0.8
  7
CHINESET
100
AcDbText
  0
TEXT
  5
6F8F
330
1F
100
AcDbEntity
  8
LOGO
100
AcDbText
 10
675.4564801356599
 20
66.04511399128391
 30
91.74040803203487
 40
1.75
  1
型號
  7
CHINESET
100
AcDbText
  0
LINE
  5
6F90
330
1F
100
AcDbEntity
  8
LOGO
  6
Continuous
100
AcDbLine
 10
684.1935546466967
 20
72.69129307229859
 30
0.0
 11
686.0478528609544
 21
72.69129307229859
 31
0.0
  0
TEXT
  5
6F99
330
1F
100
AcDbEntity
  8
LOGO
  6
Continuous
100
AcDbText
 10
687.3154259911585
 20
71.48308896457212
 30
0.0
 40
2.449999999999999
  1
100
  7
CHINESET
100
AcDbText
  0
LINE
  5
6F9B
330
1F
100
AcDbEntity
  8
LOGO
  6
Continuous
100
AcDbLine
 10
693.7722892206476
 20
72.69129307229859
 30
0.0
 11
695.6265874349053
 21
72.69129307229859
 31
0.0
  0
LINE
  5
6F9C
330
1F
100
AcDbEntity
  8
LOGO
 62
     4
100
AcDbLine
 10
701.604762998038
 20
68.50677612670702
 30
0.0
 11
701.604762998038
 21
63.37418608145788
 31
0.0
  0
LINE
  5
6F9D
330
1F
100
AcDbEntity
  8
LOGO
 62
     4
100
AcDbLine
 10
695.1280943192395
 20
68.50677612670702
 30
0.0
 11
695.1280943192395
 21
63.37418608145788
 31
0.0
  0
LINE
  5
6F9E
330
1F
100
AcDbEntity
  8
LOGO
 62
     4
100
AcDbLine
 10
701.604762998038
 20
63.37418608145788
 30
0.0
 11
695.1280943192395
 21
63.37418608145788
 31
0.0
  0
LINE
  5
6F9F
330
1F
100
AcDbEntity
  8
LOGO
 62
     4
100
AcDbLine
 10
701.4689034423581
 20
74.8058639095122
 30
0.0
 11
696.2115207756114
 21
74.8058639095122
 31
0.0
  0
LINE
  5
6FA0
330
1F
100
AcDbEntity
  8
LOGO
 62
     4
100
AcDbLine
 10
701.4689034423581
 20
70.60647205430864
 30
0.0
 11
696.2115207756114
 21
70.60647205430864
 31
0.0
  0
LINE
  5
6FA1
330
1F
100
AcDbEntity
  8
LOGO
 62
     4
100
AcDbLine
 10
696.2115207756114
 20
74.8058639095122
 30
0.0
 11
696.2115207756114
 21
70.60647205430864
 31
0.0
  0
LINE
  5
6FA2
330
1F
100
AcDbEntity
  8
LOGO
 62
     4
100
AcDbLine
 10
701.4689034423581
 20
74.8058639095122
 30
0.0
 11
701.4689034423581
 21
70.60647205430864
 31
0.0
  0
LINE
  5
6FA3
330
1F
100
AcDbEntity
  8
LOGO
 62
     4
100
AcDbLine
 10
698.8402121089848
 20
70.60647205430864
 30
0.0
 11
698.8402121089848
 21
68.50677612670702
 31
0.0
  0
TEXT
  5
6FA4
330
1F
100
AcDbEntity
  8
LOGO
  6
Continuous
100
AcDbText
 10
696.7704486023727
 20
71.48308896457212
 30
0.0
 40
2.449999999999999
  1
3M
  7
CHINESET
100
AcDbText
  0
LINE
  5
6FA5
330
1F
100
AcDbEntity
  8
LOGO
 62
     4
100
AcDbLine
 10
701.604762998038
 20
68.50677612670702
 30
0.0
 11
695.1280943192395
 21
68.50677612670702
 31
0.0
  0
LINE
  5
6FA6
330
1F
100
AcDbEntity
  8
LOGO
  6
Continuous
100
AcDbLine
 10
702.2052512717573
 20
72.69129307229859
 30
0.0
 11
704.0595494860154
 21
72.69129307229859
 31
0.0
  0
LINE
  5
6FA7
330
1F
100
AcDbEntity
  8
LOGO
 62
     4
100
AcDbLine
 10
709.2074060386316
 20
68.50677612670702
 30
0.0
 11
709.2074060386316
 21
63.37418608145788
 31
0.0
  0
LINE
  5
6FA8
330
1F
100
AcDbEntity
  8
LOGO
 62
     4
100
AcDbLine
 10
702.7761410345282
 20
68.50677612670702
 30
0.0
 11
702.7761410345282
 21
63.37418608145788
 31
0.0
  0
LINE
  5
6FA9
330
1F
100
AcDbEntity
  8
LOGO
 62
     4
100
AcDbLine
 10
709.2074060386316
 20
63.37418608145788
 30
0.0
 11
702.7761410345282
 21
63.37418608145788
 31
0.0
  0
LINE
  5
6FAA
330
1F
100
AcDbEntity
  8
LOGO
 62
     4
100
AcDbLine
 10
709.1125191443778
 20
74.8058639095122
 30
0.0
 11
704.6444828267212
 21
74.8058639095122
 31
0.0
  0
LINE
  5
6FAB
330
1F
100
AcDbEntity
  8
LOGO
 62
     4
100
AcDbLine
 10
709.1125191443778
 20
70.60647205430864
 30
0.0
 11
704.6444828267212
 21
70.60647205430864
 31
0.0
  0
LINE
  5
6FAC
330
1F
100
AcDbEntity
  8
LOGO
 62
     4
100
AcDbLine
 10
704.6444828267212
 20
74.8058639095122
 30
0.0
 11
704.6444828267212
 21
70.60647205430864
 31
0.0
  0
LINE
  5
6FAD
330
1F
100
AcDbEntity
  8
LOGO
 62
     4
100
AcDbLine
 10
709.1125191443778
 20
74.8058639095122
 30
0.0
 11
709.1125191443778
 21
70.60647205430864
 31
0.0
  0
LINE
  5
6FAE
330
1F
100
AcDbEntity
  8
LOGO
 62
     4
100
AcDbLine
 10
706.8785009855495
 20
70.60647205430864
 30
0.0
 11
706.8785009855495
 21
68.50677612670702
 31
0.0
  0
TEXT
  5
6FAF
330
1F
100
AcDbEntity
  8
LOGO
  6
Continuous
100
AcDbText
 10
706.1504243172585
 20
71.48308896457212
 30
0.0
 40
2.449999999999999
  1
5
  7
CHINESET
100
AcDbText
  0
LINE
  5
6FB0
330
1F
100
AcDbEntity
  8
LOGO
 62
     4
100
AcDbLine
 10
709.2074060386316
 20
68.50677612670702
 30
0.0
 11
702.7761410345282
 21
68.50677612670702
 31
0.0
  0
TEXT
  5
6FB3
330
1F
100
AcDbEntity
  8
LOGO
  6
Continuous
100
AcDbText
 10
695.8317236266158
 20
64.09864028243475
 30
91.74040803203487
 40
1.049999999999999
  1
Manifold
 41
0.8
  7
CHINESET
100
AcDbText
  0
TEXT
  5
6FB4
330
1F
100
AcDbEntity
  8
LOGO
100
AcDbText
 10
696.5224452240581
 20
66.04511399128391
 30
91.74040803203487
 40
1.75
  1
連座
  7
CHINESET
100
AcDbText
  0
TEXT
  5
6FB5
330
1F
100
AcDbEntity
  8
LOGO
  6
Continuous
100
AcDbText
 10
703.6086341068681
 20
64.09864028243475
 30
91.74040803203487
 40
1.049999999999999
  1
Number
 41
0.8
  7
CHINESET
100
AcDbText
  0
TEXT
  5
6FB6
330
1F
100
AcDbEntity
  8
LOGO
100
AcDbText
 10
703.5358305585077
 20
66.04511399128391
 30
91.74040803203487
 40
1.75
  1
連座數
  7
CHINESET
100
AcDbText
  0
TEXT
  5
6FC3
330
1F
100
AcDbEntity
  8
LOGO
100
AcDbText
 10
654.0430037410072
 20
62.95237497464629
 30
0.0
 40
1.399999999999999
  1
10708283
 41
0.7
  7
CHINESET
 72
     1
 11
657.5430037410072
 21
62.95237497464629
 31
0.0
100
AcDbText
  0
LINE
  5
6FC4
330
1F
100
AcDbEntity
  8
LOGO
 62
     4
100
AcDbLine
 10
661.8877621604735
 20
65.00728291403743
 30
0.0
 11
661.8877621604741
 21
62.20768834390151
 31
0.0
  0
LINE
  5
6FC5
330
1F
100
AcDbEntity
  8
LOGO
 62
     4
100
AcDbLine
 10
661.8877621604735
 20
65.00728291403743
 30
0.0
 11
653.4877621604741
 21
65.00728291403743
 31
0.0
  0
CIRCLE
  5
6FC6
330
1F
100
AcDbEntity
  8
LOGO
  6
Continuous
100
AcDbCircle
 10
646.7476800172014
 20
72.00926351601279
 30
0.0
 40
0.812755251224442
  0
CIRCLE
  5
6FC7
330
1F
100
AcDbEntity
  8
LOGO
  6
Continuous
100
AcDbCircle
 10
646.7476800172014
 20
72.00926351601279
 30
0.0
 40
0.476202628065918
  0
LINE
  5
6FC8
330
1F
100
AcDbEntity
  8
LOGO
100
AcDbLine
 10
651.8551283240269
 20
71.19650826478817
 30
0.0
 11
651.8551283240269
 21
72.82201876723738
 31
0.0
  0
LINE
  5
6FC9
330
1F
100
AcDbEntity
  8
LOGO
100
AcDbLine
 10
649.3071872658159
 20
71.53306088794696
 30
0.0
 11
649.3071872658159
 21
72.48546614407877
 31
0.0
  0
LINE
  5
6FCA
330
1F
100
AcDbEntity
  8
LOGO
  6
Continuous
100
AcDbLine
 10
649.3071872658159
 20
72.48546614407877
 30
0.0
 11
651.8551283240269
 21
72.82201876723738
 31
0.0
  0
LINE
  5
6FCB
330
1F
100
AcDbEntity
  8
LOGO
  6
Continuous
100
AcDbLine
 10
649.3071872658159
 20
71.53306088794696
 30
0.0
 11
651.8551283240269
 21
71.19650826478817
 31
0.0
  0
LINE
  5
6FCC
330
1F
100
AcDbEntity
  8
LOGO
  6
AM_ISO08W050x2
 48
0.3
100
AcDbLine
 10
645.6272847333369
 20
72.00926351601279
 30
0.0
 11
647.8680753010658
 21
72.00926351601279
 31
0.0
1001
GENIUS_GENOREF_13
1005
6FD1
  0
LINE
  5
6FCD
330
1F
100
AcDbEntity
  8
LOGO
  6
AM_ISO08W050x2
 48
0.3
100
AcDbLine
 10
646.7476800172014
 20
70.88886823214834
 30
0.0
 11
646.7476800172014
 21
73.12965879987723
 31
0.0
1001
GENIUS_GENOREF_13
1005
6FD0
  0
LINE
  5
6FCE
330
1F
100
AcDbEntity
  8
LOGO
  6
CENTER
 48
0.5
100
AcDbLine
 10
649.1034228008494
 20
72.00926351601279
 30
0.0
 11
652.1116977404783
 21
72.00926351601279
 31
0.0
1001
GENIUS_GENOREF_13
1005
6FCF
  0
POINT
  5
6FCF
330
1F
100
AcDbEntity
  8
0
 60
     1
100
AcDbPoint
 10
-1235.711639598324
 20
-873.7817363593515
 30
0.0
1001
GENIUS_GENOBJ-N-CRS_13
1002
{
1000
OWNER
1000
GEN
1002
}
1001
GENIUS_GENOLIS_13
1002
{
1000
ENT
1005
0
1005
0
1005
0
1005
6FCE
1002
}
1001
GENIUS_GENOENT_13
1002
{
1000
MYREF
1005
6FCF
1002
}
1002
{
1000
GRP
1005
0
1002
}
1001
GENIUS_GENODEF_13
1002
{
1000
HIER
1070
    10
1002
}
1002
{
1000
MANEDIT
1070
     1
1002
}
1002
{
1000
NOSEL
1070
     0
1002
}
1002
{
1000
BEHIND
1070
     0
1002
}
1002
{
1000
OTHER
1070
     0
1002
}
1002
{
1000
REACTOR
1002
}
  0
POINT
  5
6FD0
330
1F
100
AcDbEntity
  8
0
 60
     1
100
AcDbPoint
 10
-1247.036224821179
 20
-864.9061498807153
 30
0.0
1001
GENIUS_GENOBJ-N-CRS_13
1002
{
1000
OWNER
1000
GEN
1002
}
1001
GENIUS_GENOLIS_13
1002
{
1000
ENT
1005
0
1005
0
1005
0
1005
6FCD
1002
}
1001
GENIUS_GENOENT_13
1002
{
1000
MYREF
1005
6FD0
1002
}
1002
{
1000
GRP
1005
0
1002
}
1001
GENIUS_GENODEF_13
1002
{
1000
HIER
1070
    10
1002
}
1002
{
1000
MANEDIT
1070
     1
1002
}
1002
{
1000
NOSEL
1070
     0
1002
}
1002
{
1000
BEHIND
1070
     0
1002
}
1002
{
1000
OTHER
1070
     0
1002
}
1002
{
1000
REACTOR
1002
}
  0
POINT
  5
6FD1
330
1F
100
AcDbEntity
  8
0
 60
     1
100
AcDbPoint
 10
-1240.677551123342
 20
-873.7817363593515
 30
0.0
1001
GENIUS_GENOBJ-N-CRS_13
1002
{
1000
OWNER
1000
GEN
1002
}
1001
GENIUS_GENOLIS_13
1002
{
1000
ENT
1005
0
1005
0
1005
0
1005
6FCC
1002
}
1001
GENIUS_GENOENT_13
1002
{
1000
MYREF
1005
6FD1
1002
}
1002
{
1000
GRP
1005
0
1002
}
1001
GENIUS_GENODEF_13
1002
{
1000
HIER
1070
    10
1002
}
1002
{
1000
MANEDIT
1070
     1
1002
}
1002
{
1000
NOSEL
1070
     0
1002
}
1002
{
1000
BEHIND
1070
     0
1002
}
1002
{
1000
OTHER
1070
     0
1002
}
1002
{
1000
REACTOR
1002
}
  0
ENDSEC
  0
SECTION
  2
OBJECTS
  0
DICTIONARY
  5
C
330
0
100
AcDbDictionary
281
     1
  3
ACAD_COLOR
350
672
  3
ACAD_GROUP
350
D
  3
ACAD_LAYOUT
350
1A
  3
ACAD_MATERIAL
350
671
  3
ACAD_MLINESTYLE
350
17
  3
ACAD_PLOTSETTINGS
350
19
  3
ACAD_PLOTSTYLENAME
350
E
  3
ACAD_TABLESTYLE
350
673
  3
ACDBHEADERROUNDTRIPXREC
350
6FF8
  3
AcDbVariableDictionary
350
82
  3
AcmDictionary
350
45
  3
AMG
350
2B
  3
AMGSNAPSETTINGS
350
87
  3
DWGPROPS
350
6FF7
  0
DICTIONARY
  5
A9F
330
2
100
AcDbDictionary
280
     1
281
     1
  3
ACAD_LAYERFILTERS
360
6BAD
  3
ACAD_LAYERSTATES
360
AA0
  3
ACLYDICTIONARY
360
6BAC
  0
DICTIONARY
  5
7D
330
1F
100
AcDbDictionary
280
     1
281
     1
  0
DICTIONARY
  5
5BB5
330
5BB4
100
AcDbDictionary
280
     1
281
     1
  0
DICTIONARY
  5
5BD1
330
5BD0
100
AcDbDictionary
280
     1
281
     1
  0
DICTIONARY
  5
5BF3
330
5BF2
100
AcDbDictionary
280
     1
281
     1
  0
DICTIONARY
  5
64CE
330
64CD
100
AcDbDictionary
280
     1
281
     1
  3
ACAD_DIMASSOC
360
64CF
  0
DICTIONARY
  5
64D1
330
64D0
100
AcDbDictionary
280
     1
281
     1
  3
ACAD_DIMASSOC
360
64D2
  0
DICTIONARY
  5
64D4
330
64D3
100
AcDbDictionary
280
     1
281
     1
  3
ACAD_DIMASSOC
360
64D5
  0
DICTIONARY
  5
64D7
330
64D6
100
AcDbDictionary
280
     1
281
     1
  3
ACAD_DIMASSOC
360
64D8
  0
DICTIONARY
  5
64DD
330
64DC
100
AcDbDictionary
280
     1
281
     1
  3
ACAD_DIMASSOC
360
64DE
  0
DICTIONARY
  5
64E0
330
64DF
100
AcDbDictionary
280
     1
281
     1
  3
ACAD_DIMASSOC
360
64E1
  0
DICTIONARY
  5
64E3
330
64E2
100
AcDbDictionary
280
     1
281
     1
  3
ACAD_DIMASSOC
360
64E4
  0
DICTIONARY
  5
64E6
330
64E5
100
AcDbDictionary
280
     1
281
     1
  3
ACAD_DIMASSOC
360
64E7
  0
DICTIONARY
  5
64E9
330
64E8
100
AcDbDictionary
280
     1
281
     1
  3
ACAD_DIMASSOC
360
64EA
  0
DICTIONARY
  5
64EC
330
64EB
100
AcDbDictionary
280
     1
281
     1
  3
ACAD_DIMASSOC
360
64ED
  0
DICTIONARY
  5
64EF
330
64EE
100
AcDbDictionary
280
     1
281
     1
  3
ACAD_DIMASSOC
360
64F0
  0
DICTIONARY
  5
64F8
330
64F7
100
AcDbDictionary
280
     1
281
     1
  3
ACAD_DIMASSOC
360
64F9
  0
DICTIONARY
  5
64FE
330
64FD
100
AcDbDictionary
280
     1
281
     1
  3
ACAD_DIMASSOC
360
64FF
  0
DICTIONARY
  5
672
102
{ACAD_REACTORS
330
C
102
}
330
C
100
AcDbDictionary
281
     1
  0
DICTIONARY
  5
D
102
{ACAD_REACTORS
330
C
102
}
330
C
100
AcDbDictionary
281
     1
  0
DICTIONARY
  5
1A
102
{ACAD_REACTORS
330
C
102
}
330
C
100
AcDbDictionary
281
     1
  3
Layout1
350
1E
  3
Layout2
350
26
  3
Model
350
22
  0
DICTIONARY
  5
671
102
{ACAD_REACTORS
330
C
102
}
330
C
100
AcDbDictionary
281
     1
  0
DICTIONARY
  5
17
102
{ACAD_REACTORS
330
C
102
}
330
C
100
AcDbDictionary
281
     1
  3
Standard
350
18
  0
DICTIONARY
  5
19
102
{ACAD_REACTORS
330
C
102
}
330
C
100
AcDbDictionary
281
     1
  0
ACDBDICTIONARYWDFLT
  5
E
102
{ACAD_REACTORS
330
C
102
}
330
C
100
AcDbDictionary
281
     1
  3
Normal
350
F
100
AcDbDictionaryWithDefault
340
F
  0
DICTIONARY
  5
673
102
{ACAD_REACTORS
330
C
102
}
330
C
100
AcDbDictionary
281
     1
  3
Standard
350
674
  0
DICTIONARY
  5
6FF8
102
{ACAD_REACTORS
330
C
102
}
330
C
100
AcDbDictionary
281
     1
  0
DICTIONARY
  5
82
102
{ACAD_REACTORS
330
C
102
}
330
C
100
AcDbDictionary
281
     1
  3
CTABLESTYLE
350
6E6
  3
DIMASSOC
350
85
  3
HIDETEXT
350
84
  3
INDEXCTL
350
83
  3
PROJECTNAME
350
6E7
  0
DICTIONARY
  5
45
102
{ACAD_REACTORS
330
C
102
}
330
C
100
AcDbDictionary
281
     1
  3
AcmStdDictionary
350
4A
  3
AMDTSECTSYM_ARROWCOLOR
350
67F
  0
DICTIONARY
  5
2B
102
{ACAD_REACTORS
330
C
102
}
330
C
100
AcDbDictionary
281
     1
  0
DICTIONARY
  5
87
102
{ACAD_REACTORS
330
C
102
}
330
C
100
AcDbDictionary
281
     1
  0
XRECORD
  5
6FF7
102
{ACAD_REACTORS
330
C
102
}
330
C
100
AcDbXrecord
280
     1
  1
DWGPROPS COOKIE
  2

  3

  4

  6

  7

  8

  9

300
AmdtFileType=84
301
=
302
=
303
=
304
=
305
=
306
=
307
=
308
=
309
=
 40
0.7889765277777779
 41
2453021.369367211
 42
2454341.492432176
  1

 90
        1
  0
DICTIONARY
  5
6BAD
102
{ACAD_REACTORS
330
A9F
102
}
330
A9F
100
AcDbDictionary
281
     1
  0
DICTIONARY
  5
AA0
102
{ACAD_REACTORS
330
A9F
102
}
330
A9F
100
AcDbDictionary
281
     1
  0
DICTIONARY
  5
6BAC
102
{ACAD_REACTORS
330
A9F
102
}
330
A9F
100
AcDbDictionary
281
     1
1001
ACAD
1000
<All
  0
DIMASSOC
  5
64CF
102
{ACAD_REACTORS
330
64CE
102
}
330
64CE
100
AcDbDimAssoc
330
64CD
 90
        3
 70
     0
 71
     0
  1
AcDbOsnapPointRef
 72
    13
331
63EA
 73
     0
 91
        0
 40
0.0
 10
0.0
 20
0.0
 30
2.000000000000000E+50
 75
     0
  1
AcDbOsnapPointRef
 72
     1
331
649E
 73
     0
 91
        0
 40
0.0
 10
0.0
 20
0.0
 30
2.000000000000000E+50
 75
     0
  0
DIMASSOC
  5
64D2
102
{ACAD_REACTORS
330
64D1
102
}
330
64D1
100
AcDbDimAssoc
330
64D0
 90
        3
 70
     0
 71
     0
  1
AcDbOsnapPointRef
 72
     1
331
649E
 73
     0
 91
        0
 40
0.0
 10
0.0
 20
0.0
 30
2.000000000000000E+50
 75
     0
  1
AcDbOsnapPointRef
 72
     1
331
64A2
 73
     0
 91
        0
 40
0.0
 10
0.0
 20
0.0
 30
2.000000000000000E+50
 75
     0
  0
DIMASSOC
  5
64D5
102
{ACAD_REACTORS
330
64D4
102
}
330
64D4
100
AcDbDimAssoc
330
64D3
 90
        3
 70
     0
 71
     0
  1
AcDbOsnapPointRef
 72
     1
331
64A2
 73
     0
 91
        0
 40
0.0
 10
0.0
 20
0.0
 30
2.000000000000000E+50
 75
     0
  1
AcDbOsnapPointRef
 72
     1
331
64A6
 73
     0
 91
        0
 40
0.0
 10
0.0
 20
0.0
 30
2.000000000000000E+50
 75
     0
  0
DIMASSOC
  5
64D8
102
{ACAD_REACTORS
330
64D7
102
}
330
64D7
100
AcDbDimAssoc
330
64D6
 90
        3
 70
     0
 71
     0
  1
AcDbOsnapPointRef
 72
     1
331
63EB
 73
     0
 91
        0
 40
0.0
 10
0.0
 20
0.0
 30
2.000000000000000E+50
 75
     0
  1
AcDbOsnapPointRef
 72
     1
331
649D
 73
     0
 91
        0
 40
0.0
 10
0.0
 20
0.0
 30
2.000000000000000E+50
 75
     0
  0
DIMASSOC
  5
64DE
102
{ACAD_REACTORS
330
64DD
102
}
330
64DD
100
AcDbDimAssoc
330
64DC
 90
        2
 70
     0
 71
     0
  1
AcDbOsnapPointRef
 72
     1
331
64B7
 73
     0
 91
        0
 40
0.0
 10
0.0
 20
0.0
 30
2.000000000000000E+50
 75
     0
  0
DIMASSOC
  5
64E1
102
{ACAD_REACTORS
330
64E0
102
}
330
64E0
100
AcDbDimAssoc
330
64DF
 90
        2
 70
     0
 71
     0
  1
AcDbOsnapPointRef
 72
     1
331
64B3
 73
     0
 91
        0
 40
0.0
 10
0.0
 20
0.0
 30
2.000000000000000E+50
 75
     0
  0
DIMASSOC
  5
64E4
102
{ACAD_REACTORS
330
64E3
102
}
330
64E3
100
AcDbDimAssoc
330
64E2
 90
        3
 70
     0
 71
     0
  1
AcDbOsnapPointRef
 72
     1
331
63EB
 73
     0
 91
        0
 40
0.0
 10
0.0
 20
0.0
 30
2.000000000000000E+50
 75
     0
  1
AcDbOsnapPointRef
 72
    13
331
63EA
 73
     0
 91
        0
 40
0.0
 10
0.0
 20
0.0
 30
2.000000000000000E+50
 75
     0
  0
DIMASSOC
  5
64E7
102
{ACAD_REACTORS
330
64E6
102
}
330
64E6
100
AcDbDimAssoc
330
64E5
 90
        3
 70
     0
 71
     0
  1
AcDbOsnapPointRef
 72
    13
331
6494
 73
     0
 91
        0
 40
0.0
 10
0.0
 20
0.0
 30
2.000000000000000E+50
 75
     0
  1
AcDbOsnapPointRef
 72
     1
331
64B6
 73
     0
 91
        0
 40
0.0
 10
0.0
 20
0.0
 30
2.000000000000000E+50
 75
     0
  0
DIMASSOC
  5
64EA
102
{ACAD_REACTORS
330
64E9
102
}
330
64E9
100
AcDbDimAssoc
330
64E8
 90
        3
 70
     0
 71
     0
  1
AcDbOsnapPointRef
 72
    13
331
6494
 73
     0
 91
        0
 40
0.0
 10
0.0
 20
0.0
 30
2.000000000000000E+50
 75
     0
  1
AcDbOsnapPointRef
 72
     1
331
64BA
 73
     0
 91
        0
 40
0.0
 10
0.0
 20
0.0
 30
2.000000000000000E+50
 75
     0
  0
DIMASSOC
  5
64ED
102
{ACAD_REACTORS
330
64EC
102
}
330
64EC
100
AcDbDimAssoc
330
64EB
 90
        3
 70
     0
 71
     0
  1
AcDbOsnapPointRef
 72
     6
331
636D
 73
     0
 91
        0
 40
0.9999999999999985
 10
0.0
 20
0.0
 30
0.0
332
6367
 74
     0
 92
        0
 75
     0
  1
AcDbOsnapPointRef
 72
     1
331
64BD
 73
     0
 91
        0
 40
0.0
 10
0.0
 20
0.0
 30
2.000000000000000E+50
 75
     0
  0
DIMASSOC
  5
64F0
102
{ACAD_REACTORS
330
64EF
102
}
330
64EF
100
AcDbDimAssoc
330
64EE
 90
        1
 70
     0
 71
     0
  1
AcDbOsnapPointRef
 72
     1
331
636D
 73
     0
 91
        0
 40
0.0
 10
0.0
 20
0.0
 30
2.000000000000000E+50
 75
     0
  0
DIMASSOC
  5
64F9
102
{ACAD_REACTORS
330
64F8
102
}
330
64F8
100
AcDbDimAssoc
330
64F7
 90
        3
 70
     0
 71
     0
  1
AcDbOsnapPointRef
 72
     1
331
636D
 73
     0
 91
        0
 40
0.0
 10
0.0
 20
0.0
 30
2.000000000000000E+50
 75
     0
  1
AcDbOsnapPointRef
 72
     1
331
64BE
 73
     0
 91
        0
 40
0.0
 10
0.0
 20
0.0
 30
2.000000000000000E+50
 75
     0
  0
DIMASSOC
  5
64FF
102
{ACAD_REACTORS
330
64FE
102
}
330
64FE
100
AcDbDimAssoc
330
64FD
 90
        3
 70
     0
 71
     0
  1
AcDbOsnapPointRef
 72
     1
331
64C2
 73
     0
 91
        0
 40
0.0
 10
0.0
 20
0.0
 30
2.000000000000000E+50
 75
     0
  1
AcDbOsnapPointRef
 72
    13
331
636D
 73
     0
 91
        0
 40
0.0
 10
0.0
 20
0.0
 30
2.000000000000000E+50
 75
     0
  0
LAYOUT
  5
1E
102
{ACAD_XDICTIONARY
360
6FF9
102
}
102
{ACAD_REACTORS
330
1A
102
}
330
1A
100
AcDbPlotSettings
  1

  2
自動 RD 上的 Epson Stylus Photo 750 單色
  4

  6

 40
0.0
 41
0.0
 42
0.0
 43
0.0
 44
0.0
 45
0.0
 46
0.0
 47
0.0
 48
0.0
 49
0.0
140
0.0
141
0.0
142
1.0
143
1.0
 70
   688
 72
     0
 73
     0
 74
     5
  7
彩色出圖.ctb
 75
    16
147
1.0
148
0.0
149
0.0
100
AcDbLayout
  1
Layout1
 70
     1
 71
     1
 10
0.0
 20
0.0
 11
420.0
 21
297.0
 12
0.0
 22
0.0
 32
0.0
 14
1.000000000000000E+20
 24
1.000000000000000E+20
 34
1.000000000000000E+20
 15
-1.000000000000000E+20
 25
-1.000000000000000E+20
 35
-1.000000000000000E+20
146
0.0
 13
0.0
 23
0.0
 33
0.0
 16
1.0
 26
0.0
 36
0.0
 17
0.0
 27
1.0
 37
0.0
 76
     0
330
1B
  0
LAYOUT
  5
26
102
{ACAD_XDICTIONARY
360
6FFD
102
}
102
{ACAD_REACTORS
330
1A
102
}
330
1A
100
AcDbPlotSettings
  1

  2
自動 RD 上的 Epson Stylus Photo 750 單色
  4

  6

 40
0.0
 41
0.0
 42
0.0
 43
0.0
 44
0.0
 45
0.0
 46
0.0
 47
0.0
 48
0.0
 49
0.0
140
0.0
141
0.0
142
1.0
143
1.0
 70
   688
 72
     0
 73
     0
 74
     5
  7
彩色出圖.ctb
 75
    16
147
1.0
148
0.0
149
0.0
100
AcDbLayout
  1
Layout2
 70
     1
 71
     2
 10
0.0
 20
0.0
 11
12.0
 21
9.0
 12
0.0
 22
0.0
 32
0.0
 14
0.0
 24
0.0
 34
0.0
 15
0.0
 25
0.0
 35
0.0
146
0.0
 13
0.0
 23
0.0
 33
0.0
 16
1.0
 26
0.0
 36
0.0
 17
0.0
 27
1.0
 37
0.0
 76
     0
330
23
  0
LAYOUT
  5
22
102
{ACAD_XDICTIONARY
360
6FFB
102
}
102
{ACAD_REACTORS
330
1A
102
}
330
1A
100
AcDbPlotSettings
  1

  2
自動 RD 上的 Epson Stylus Photo 750 單色
  4
A4
  6

 40
3.757083177566528
 41
14.7637300491333
 42
3.757080078125
 43
3.757080078125
 44
209.9733276367187
 45
296.9683227539062
 46
7.54
 47
0.0
 48
0.0
 49
0.0
140
0.0
141
0.0
142
1.0
143
1.817317462545654
 70
 11956
 72
     1
 73
     0
 74
     1
  7
彩色出圖.ctb
 75
     0
147
0.5502615919395967
148
-125.5654918467224
149
222.8859553785132
100
AcDbLayout
  1
Model
 70
     1
 71
     0
 10
0.0
 20
0.0
 11
12.0
 21
9.0
 12
0.0
 22
0.0
 32
0.0
 14
0.0
 24
0.0
 34
0.0
 15
0.0
 25
0.0
 35
0.0
146
0.0
 13
0.0
 23
0.0
 33
0.0
 16
1.0
 26
0.0
 36
0.0
 17
0.0
 27
1.0
 37
0.0
 76
     0
330
1F
  0
MLINESTYLE
  5
18
102
{ACAD_REACTORS
330
17
102
}
330
17
100
AcDbMlineStyle
  2
STANDARD
 70
     0
  3

 62
   256
 51
90.0
 52
90.0
 71
     2
 49
0.5
 62
   256
  6
BYLAYER
 49
-0.5
 62
   256
  6
BYLAYER
  0
ACDBPLACEHOLDER
  5
F
102
{ACAD_REACTORS
330
E
102
}
330
E
  0
TABLESTYLE
  5
674
102
{ACAD_REACTORS
330
673
102
}
330
673
100
AcDbTableStyle
  3
Standard
 70
     0
 71
     0
 40
1.5
 41
1.5
280
     0
281
     0
  7
STANDARD
140
4.5
170
     2
 62
     0
 63
     7
283
     0
274
    -2
284
     1
 64
     0
275
    -2
285
     1
 65
     0
276
    -2
286
     1
 66
     0
277
    -2
287
     1
 67
     0
278
    -2
288
     1
 68
     0
279
    -2
289
     1
 69
     0
  7
STANDARD
140
6.0
170
     5
 62
     0
 63
     7
283
     0
274
    -2
284
     1
 64
     0
275
    -2
285
     1
 65
     0
276
    -2
286
     1
 66
     0
277
    -2
287
     1
 67
     0
278
    -2
288
     1
 68
     0
279
    -2
289
     1
 69
     0
  7
STANDARD
140
4.5
170
     5
 62
     0
 63
     7
283
     0
274
    -2
284
     1
 64
     0
275
    -2
285
     1
 65
     0
276
    -2
286
     1
 66
     0
277
    -2
287
     1
 67
     0
278
    -2
288
     1
 68
     0
279
    -2
289
     1
 69
     0
  0
DICTIONARYVAR
  5
6E6
102
{ACAD_REACTORS
330
82
102
}
330
82
100
DictionaryVariables
280
     0
  1
STANDARD
  0
DICTIONARYVAR
  5
85
102
{ACAD_REACTORS
330
82
102
}
330
82
100
DictionaryVariables
280
     0
  1
2
  0
DICTIONARYVAR
  5
84
102
{ACAD_REACTORS
330
82
102
}
330
82
100
DictionaryVariables
280
     0
  1
1
  0
DICTIONARYVAR
  5
83
102
{ACAD_REACTORS
330
82
102
}
330
82
100
DictionaryVariables
280
     0
  1
0
  0
DICTIONARYVAR
  5
6E7
102
{ACAD_REACTORS
330
82
102
}
330
82
100
DictionaryVariables
280
     0
  1

  0
DICTIONARY
  5
4A
102
{ACAD_REACTORS
330
45
102
}
330
45
100
AcDbDictionary
281
     1
  0
XRECORD
  5
67F
102
{ACAD_REACTORS
330
45
102
}
330
45
100
AcDbXrecord
280
     1
 90
-1023410169
  0
DICTIONARY
  5
6FF9
330
1E
100
AcDbDictionary
280
     1
281
     1
  3
ACAD_XREC_ROUNDTRIP
360
6FFA
  0
DICTIONARY
  5
6FFD
330
26
100
AcDbDictionary
280
     1
281
     1
  3
ACAD_XREC_ROUNDTRIP
360
6FFE
  0
DICTIONARY
  5
6FFB
330
22
100
AcDbDictionary
280
     1
281
     1
  3
ACAD_XREC_ROUNDTRIP
360
6FFC
  0
XRECORD
  5
6FFA
102
{ACAD_REACTORS
330
6FF9
102
}
330
6FF9
100
AcDbXrecord
280
     1
102
SHADEPLOT
 70
     0
102
SHADEPLOTRESLEVEL
 70
     2
102
SHADEPLOTCUSTOMDPI
 70
   300
  0
XRECORD
  5
6FFE
102
{ACAD_REACTORS
330
6FFD
102
}
330
6FFD
100
AcDbXrecord
280
     1
102
SHADEPLOT
 70
     0
102
SHADEPLOTRESLEVEL
 70
     2
102
SHADEPLOTCUSTOMDPI
 70
   300
  0
XRECORD
  5
6FFC
102
{ACAD_REACTORS
330
6FFB
102
}
330
6FFB
100
AcDbXrecord
280
     1
102
SHADEPLOT
 70
     0
102
SHADEPLOTRESLEVEL
 70
     2
102
SHADEPLOTCUSTOMDPI
 70
   300
  0
ENDSEC
  0
EOF
