  0
SECTION
  2
HEADER
  9
$ACADVER
  1
AC1009
  9
$INSBASE
 10
0.0
 20
0.0
 30
0.0
  9
$EXTMIN
 10
539.65074697860484
 20
-12.72818452132344
 30
-0.0000000000000097
  9
$EXTMAX
 10
635.8454344359991
 20
116.13234682808761
 30
0.0000000000000055
  9
$LIMMIN
 10
0.0
 20
0.0
  9
$LIMMAX
 10
396.0
 20
273.0
  9
$ORTHOMODE
 70
     1
  9
$REGENMODE
 70
     1
  9
$FILLMODE
 70
     1
  9
$QTEXTMODE
 70
     0
  9
$MIRRTEXT
 70
     1
  9
$DRAGMODE
 70
     2
  9
$LTSCALE
 40
6.0
  9
$OSMODE
 70
    39
  9
$ATTMODE
 70
     1
  9
$TEXTSIZE
 40
6.0
  9
$TRACEWID
 40
0.05
  9
$TEXTSTYLE
  7
CHINESET
  9
$CLAYER
  8
0
  9
$CELTYPE
  6
BYLAYER
  9
$CECOLOR
 62
   256
  9
$DIMSCALE
 40
1.0
  9
$DIMASZ
 40
3.0
  9
$DIMEXO
 40
2.0
  9
$DIMDLI
 40
8.0
  9
$DIMRND
 40
0.0
  9
$DIMDLE
 40
0.0
  9
$DIMEXE
 40
2.0
  9
$DIMTP
 40
0.0
  9
$DIMTM
 40
0.0
  9
$DIMTXT
 40
3.0
  9
$DIMCEN
 40
-3.0
  9
$DIMTSZ
 40
0.0
  9
$DIMTOL
 70
     0
  9
$DIMLIM
 70
     0
  9
$DIMTIH
 70
     0
  9
$DIMTOH
 70
     0
  9
$DIMSE1
 70
     0
  9
$DIMSE2
 70
     0
  9
$DIMTAD
 70
     1
  9
$DIMZIN
 70
     8
  9
$DIMBLK
  1

  9
$DIMASO
 70
     1
  9
$DIMSHO
 70
     1
  9
$DIMPOST
  1

  9
$DIMAPOST
  1

  9
$DIMALT
 70
     0
  9
$DIMALTD
 70
     2
  9
$DIMALTF
 40
25.399999999999999
  9
$DIMLFAC
 40
1.0
  9
$DIMTOFL
 70
     0
  9
$DIMTVP
 40
0.0
  9
$DIMTIX
 70
     0
  9
$DIMSOXD
 70
     0
  9
$DIMSAH
 70
     0
  9
$DIMBLK1
  1

  9
$DIMBLK2
  1

  9
$DIMSTYLE
  2
STANDARD
  9
$DIMCLRD
 70
   256
  9
$DIMCLRE
 70
   256
  9
$DIMCLRT
 70
   256
  9
$DIMTFAC
 40
0.5
  9
$DIMGAP
 40
1.0
  9
$LUNITS
 70
     2
  9
$LUPREC
 70
     2
  9
$SKETCHINC
 40
0.1
  9
$FILLETRAD
 40
8.0
  9
$AUNITS
 70
     0
  9
$AUPREC
 70
     0
  9
$MENU
  1
ACAD
  9
$ELEVATION
 40
0.0
  9
$PELEVATION
 40
0.0
  9
$THICKNESS
 40
0.0
  9
$LIMCHECK
 70
     0
  9
$BLIPMODE
 70
     0
  9
$CHAMFERA
 40
2.0
  9
$CHAMFERB
 40
2.0
  9
$SKPOLY
 70
     0
  9
$TDCREATE
 40
2450436.7992719901
  9
$TDUPDATE
 40
2451946.703121203
  9
$TDINDWG
 40
9.2980279050999997
  9
$TDUSRTIMER
 40
9.2980279050999997
  9
$USRTIMER
 70
     1
  9
$ANGBASE
 50
0.0
  9
$ANGDIR
 70
     0
  9
$PDMODE
 70
    65
  9
$PDSIZE
 40
8.3000000000000007
  9
$PLINEWID
 40
0.0
  9
$COORDS
 70
     2
  9
$SPLFRAME
 70
     0
  9
$SPLINETYPE
 70
     6
  9
$SPLINESEGS
 70
     8
  9
$ATTDIA
 70
     0
  9
$ATTREQ
 70
     1
  9
$HANDLING
 70
 12289
  9
$HANDSEED
  5
FAD
  9
$SURFTAB1
 70
     6
  9
$SURFTAB2
 70
     6
  9
$SURFTYPE
 70
     6
  9
$SURFU
 70
     6
  9
$SURFV
 70
     6
  9
$UCSNAME
  2

  9
$UCSORG
 10
0.0
 20
0.0
 30
0.0
  9
$UCSXDIR
 10
1.0
 20
0.0
 30
0.0
  9
$UCSYDIR
 10
0.0
 20
1.0
 30
0.0
  9
$PUCSNAME
  2

  9
$PUCSORG
 10
0.0
 20
0.0
 30
0.0
  9
$PUCSXDIR
 10
1.0
 20
0.0
 30
0.0
  9
$PUCSYDIR
 10
0.0
 20
1.0
 30
0.0
  9
$USERI1
 70
     0
  9
$USERI2
 70
     0
  9
$USERI3
 70
     0
  9
$USERI4
 70
     0
  9
$USERI5
 70
     0
  9
$USERR1
 40
0.0
  9
$USERR2
 40
0.0
  9
$USERR3
 40
0.0
  9
$USERR4
 40
0.0
  9
$USERR5
 40
0.0
  9
$WORLDVIEW
 70
     1
  9
$SHADEDGE
 70
     3
  9
$SHADEDIF
 70
    70
  9
$TILEMODE
 70
     1
  9
$MAXACTVP
 70
    16
  9
$PLIMCHECK
 70
     0
  9
$PEXTMIN
 10
1.0000000000000000E+020
 20
1.0000000000000000E+020
 30
1.0000000000000000E+020
  9
$PEXTMAX
 10
-1.0000000000000000E+020
 20
-1.0000000000000000E+020
 30
-1.0000000000000000E+020
  9
$PLIMMIN
 10
0.0
 20
0.0
  9
$PLIMMAX
 10
12.0
 20
9.0
  9
$UNITMODE
 70
     0
  9
$VISRETAIN
 70
     0
  9
$PLINEGEN
 70
     0
  9
$PSLTSCALE
 70
     0
  0
ENDSEC
  0
SECTION
  2
TABLES
  0
TABLE
  2
VPORT
 70
     5
  0
VPORT
  2
*ACTIVE
 70
     0
 10
0.0
 20
0.0
 11
1.0
 21
1.0
 12
587.74809070730203
 22
51.702081153382082
 13
0.0
 23
0.0
 14
1.0
 24
1.0
 15
0.0
 25
0.0
 16
0.0
 26
0.0
 36
1.0
 17
0.0
 27
0.0
 37
0.0
 40
130.28178720988251
 41
1.7274401473296499
 42
50.0
 43
0.0
 44
0.0
 50
0.0
 51
0.0
 71
     0
 72
   100
 73
     1
 74
     1
 75
     0
 76
     0
 77
     0
 78
     0
  0
ENDTAB
  0
TABLE
  2
LTYPE
 70
     3
  0
LTYPE
  2
CONTINUOUS
 70
     0
  3
Solid line
 72
    65
 73
     0
 40
0.0
  0
LTYPE
  2
HIDDEN
 70
     0
  3
__ __ __ __ __ __ __ __ __ __ __ __ __ __ __ __
 72
    65
 73
     2
 40
0.375
 49
0.25
 49
-0.125
  0
LTYPE
  2
CENTER
 70
     0
  3
____ _ ____ _ ____ _ ____ _ ____ _ ____ _ ____ 
 72
    65
 73
     4
 40
2.0
 49
1.25
 49
-0.25
 49
0.25
 49
-0.25
  0
ENDTAB
  0
TABLE
  2
LAYER
 70
     8
  0
LAYER
  2
0
 70
     0
 62
     7
  6
CONTINUOUS
  0
LAYER
  2
LOGO
 70
     0
 62
     7
  6
CONTINUOUS
  0
LAYER
  2
CENTER
 70
     0
 62
     1
  6
CENTER
  0
LAYER
  2
HIDDEN
 70
     0
 62
     6
  6
HIDDEN
  0
LAYER
  2
DIM
 70
     0
 62
     5
  6
CONTINUOUS
  0
LAYER
  2
DEFPOINTS
 70
     0
 62
     7
  6
CONTINUOUS
  0
ENDTAB
  0
TABLE
  2
STYLE
 70
     5
  0
STYLE
  2
STANDARD
 70
     0
 40
0.0
 41
1.0
 50
0.0
 71
     0
 42
0.2
  3
txt
  4

  0
STYLE
  2
CHINESET
 70
     0
 40
0.0
 41
1.0
 50
0.0
 71
     0
 42
6.0
  3
C:\r13\com\fonts\simplex.shx
  4
C:\r13\com\fonts\chineset.shx
  0
STYLE
  2
LOGO
 70
     0
 40
0.0
 41
1.0
 50
0.0
 71
     0
 42
5.0
  3
txt
  4

  0
STYLE
  2
ITALICT
 70
     0
 40
0.0
 41
1.0
 50
0.0
 71
     0
 42
3.0
  3
italict.shx
  4
chineset.shx
  0
ENDTAB
  0
TABLE
  2
VIEW
 70
     0
  0
ENDTAB
  0
TABLE
  2
UCS
 70
     0
  0
ENDTAB
  0
TABLE
  2
APPID
 70
     2
  0
APPID
  2
ACAD
 70
     0
  0
APPID
  2
TCAD
 70
     0
  0
ENDTAB
  0
TABLE
  2
DIMSTYLE
 70
     2
  0
DIMSTYLE
  2
STANDARD
 70
     0
  3

  4

  5

  6

  7

 40
1.0
 41
3.0
 42
2.0
 43
8.0
 44
2.0
 45
0.0
 46
0.0
 47
0.0
 48
0.0
140
3.0
141
-3.0
142
0.0
143
25.399999999999999
144
1.0
145
0.0
146
0.5
147
1.0
 71
     0
 72
     0
 73
     0
 74
     0
 75
     0
 76
     0
 77
     1
 78
     8
170
     0
171
     2
172
     0
173
     0
174
     0
175
     0
176
   256
177
   256
178
   256
  0
ENDTAB
  0
ENDSEC
  0
SECTION
  2
BLOCKS
  0
BLOCK
  8
0
  2
$MODEL_SPACE
 70
     0
 10
0.0
 20
0.0
 30
0.0
  3
$MODEL_SPACE
  1

  0
ENDBLK
  5
6
  8
0
  0
BLOCK
 67
     1
  8
0
  2
$PAPER_SPACE
 70
     0
 10
0.0
 20
0.0
 30
0.0
  3
$PAPER_SPACE
  1

  0
ENDBLK
  5
9
 67
     1
  8
0
  0
BLOCK
  8
0
  2
*D20
 70
     1
 10
0.0
 20
0.0
 30
0.0
  3
*D20
  1

  0
LINE
  5
F3C
  8
DIM
 10
582.57519888896854
 20
53.175632347674082
 30
0.0
 11
621.45048186038889
 21
53.175632347674068
 31
0.0
  0
LINE
  5
F3D
  8
DIM
 10
586.51571151641508
 20
16.275632347674101
 30
0.0
 11
621.45048186038889
 21
16.27563234767409
 31
0.0
  0
LINE
  5
F3E
  8
DIM
 10
619.45048186038878
 20
50.175632347674082
 30
0.0
 11
619.45048186038878
 21
19.27563234767409
 31
0.0
  0
SOLID
  5
F3F
  8
DIM
 10
618.95048186038889
 20
50.175632347674082
 30
0.0
 11
619.95048186038878
 21
50.175632347674082
 31
0.0
 12
619.45048186038878
 22
53.175632347674068
 32
0.0
 13
619.45048186038878
 23
53.175632347674068
 33
0.0
  0
SOLID
  5
F40
  8
DIM
 10
618.95048186038889
 20
19.27563234767409
 30
0.0
 11
619.95048186038878
 21
19.27563234767409
 31
0.0
 12
619.45048186038878
 22
16.27563234767409
 32
0.0
 13
619.45048186038878
 23
16.27563234767409
 33
0.0
  0
TEXT
  5
F41
  8
0
 10
618.45048186038889
 20
30.225632347674178
 30
0.0
 40
3.0
  1
36.9
 50
90.0
  7
CHINESET
  0
POINT
  5
F42
  8
DEFPOINTS
 62
     0
 10
580.57519888896854
 20
53.175632347674082
 30
0.0
  0
POINT
  5
F43
  8
DEFPOINTS
 62
     0
 10
584.51571151641497
 20
16.275632347674101
 30
0.0
  0
POINT
  5
F44
  8
DEFPOINTS
 62
     0
 10
619.45048186038878
 20
16.27563234767409
 30
0.0
  0
ENDBLK
  5
DCF
  8
0
  0
BLOCK
  8
0
  2
*D21
 70
     1
 10
0.0
 20
0.0
 30
0.0
  3
*D21
  1

  0
LINE
  5
F45
  8
DIM
 10
582.57519888896854
 20
53.175632347674082
 30
0.0
 11
611.74718361152395
 21
53.175632347674068
 31
0.0
  0
LINE
  5
F46
  8
DIM
 10
589.57519888896854
 20
41.275632347674041
 30
0.0
 11
611.74718361152395
 21
41.275632347674041
 31
0.0
  0
LINE
  5
F47
  8
DIM
 10
609.74718361152395
 20
50.175632347674082
 30
0.0
 11
609.74718361152395
 21
44.275632347674033
 31
0.0
  0
TEXT
  5
F48
  8
0
 10
608.06250863159357
 20
43.472867787280798
 30
0.0
 40
3.0
  1
11.9
 50
90.0
  7
CHINESET
  0
SOLID
  5
F49
  8
DIM
 10
609.24718361152395
 20
50.175632347674082
 30
0.0
 11
610.24718361152395
 21
50.175632347674082
 31
0.0
 12
609.74718361152395
 22
53.175632347674068
 32
0.0
 13
609.74718361152395
 23
53.175632347674068
 33
0.0
  0
SOLID
  5
F4A
  8
DIM
 10
609.24718361152395
 20
44.275632347674033
 30
0.0
 11
610.24718361152395
 21
44.275632347674033
 31
0.0
 12
609.74718361152395
 22
41.275632347674041
 32
0.0
 13
609.74718361152395
 23
41.275632347674041
 33
0.0
  0
POINT
  5
F4B
  8
DEFPOINTS
 62
     0
 10
580.57519888896854
 20
53.175632347674082
 30
0.0
  0
POINT
  5
F4C
  8
DEFPOINTS
 62
     0
 10
587.57519888896854
 20
41.275632347674041
 30
0.0
  0
POINT
  5
F4D
  8
DEFPOINTS
 62
     0
 10
609.74718361152395
 20
41.275632347674041
 30
0.0
  0
ENDBLK
  5
DDB
  8
0
  0
BLOCK
  8
0
  2
*D22
 70
     1
 10
0.0
 20
0.0
 30
0.0
  3
*D22
  1

  0
LINE
  5
F4E
  8
DIM
 10
586.51571151641508
 20
16.275632347674101
 30
0.0
 11
611.74718361152395
 21
16.275632347674101
 31
0.0
  0
LINE
  5
F4F
  8
DIM
 10
589.57519888896854
 20
31.775632347674041
 30
0.0
 11
611.74718361152395
 21
31.775632347674041
 31
0.0
  0
LINE
  5
F50
  8
DIM
 10
609.74718361152395
 20
19.275632347674101
 30
0.0
 11
609.74718361152395
 21
28.775632347674041
 31
0.0
  0
TEXT
  5
F51
  8
0
 10
608.06250863159357
 20
19.739918061959791
 30
0.0
 40
3.0
  1
15.5
 50
90.0
  7
CHINESET
  0
SOLID
  5
F52
  8
DIM
 10
609.24718361152395
 20
19.275632347674101
 30
0.0
 11
610.24718361152395
 21
19.275632347674101
 31
0.0
 12
609.74718361152395
 22
16.275632347674101
 32
0.0
 13
609.74718361152395
 23
16.275632347674101
 33
0.0
  0
SOLID
  5
F53
  8
DIM
 10
609.24718361152395
 20
28.775632347674041
 30
0.0
 11
610.24718361152395
 21
28.775632347674041
 31
0.0
 12
609.74718361152395
 22
31.775632347674041
 32
0.0
 13
609.74718361152395
 23
31.775632347674041
 33
0.0
  0
POINT
  5
F54
  8
DEFPOINTS
 62
     0
 10
584.51571151641497
 20
16.275632347674101
 30
0.0
  0
POINT
  5
F55
  8
DEFPOINTS
 62
     0
 10
587.57519888896854
 20
31.775632347674041
 30
0.0
  0
POINT
  5
F56
  8
DEFPOINTS
 62
     0
 10
609.74718361152395
 20
31.775632347674041
 30
0.0
  0
ENDBLK
  5
DE7
  8
0
  0
BLOCK
  8
0
  2
*D23
 70
     1
 10
0.0
 20
0.0
 30
0.0
  3
*D23
  1

  0
LINE
  5
EEF
  8
DIM
 10
582.19461093907989
 20
75.677941021751309
 30
0.0
 11
596.5746021982111
 21
75.677941021751309
 31
0.0
  0
LINE
  5
EF0
  8
DIM
 10
582.19461093907989
 20
91.843748559060828
 30
0.0
 11
596.5746021982111
 21
91.843748559060828
 31
0.0
  0
LINE
  5
EF1
  8
DIM
 10
594.57460219821098
 20
72.677941021751295
 30
0.0
 11
594.57460219821098
 21
69.677941021751309
 31
0.0
  0
LINE
  5
EF2
  8
DIM
 10
594.57460219821098
 20
94.843748559060813
 30
0.0
 11
594.57460219821098
 21
97.843748559060828
 31
0.0
  0
INSERT
  5
EF3
  8
0
  2
*U27
 10
0.0
 20
0.0
 30
0.0
  0
SOLID
  5
EF4
  8
DIM
 10
594.0746021982111
 20
72.677941021751295
 30
0.0
 11
595.07460219821098
 21
72.677941021751295
 31
0.0
 12
594.57460219821098
 22
75.677941021751309
 32
0.0
 13
594.57460219821098
 23
75.677941021751309
 33
0.0
  0
SOLID
  5
EF5
  8
DIM
 10
594.0746021982111
 20
94.843748559060813
 30
0.0
 11
595.07460219821098
 21
94.843748559060813
 31
0.0
 12
594.57460219821098
 22
91.843748559060828
 32
0.0
 13
594.57460219821098
 23
91.843748559060828
 33
0.0
  0
POINT
  5
EF6
  8
DEFPOINTS
 62
     0
 10
580.19461093907978
 20
75.677941021751309
 30
0.0
  0
POINT
  5
EF7
  8
DEFPOINTS
 62
     0
 10
580.19461093907978
 20
91.843748559060828
 30
0.0
  0
POINT
  5
EF8
  8
DEFPOINTS
 62
     0
 10
594.57460219821098
 20
91.843748559060828
 30
0.0
  0
ENDBLK
  5
DF4
  8
0
  0
BLOCK
  8
0
  2
*D24
 70
     1
 10
0.0
 20
0.0
 30
0.0
  3
*D24
  1

  0
LINE
  5
EF9
  8
DIM
 10
587.19461093907978
 20
77.719392906078667
 30
0.0
 11
587.19461093907978
 21
66.449274966427936
 31
0.0
  0
LINE
  5
EFA
  8
DIM
 10
573.19461093907989
 20
77.719392906078696
 30
0.0
 11
573.19461093907989
 21
66.449274966427936
 31
0.0
  0
LINE
  5
EFB
  8
DIM
 10
584.19461093907978
 20
68.449274966427936
 30
0.0
 11
576.19461093907978
 21
68.449274966427936
 31
0.0
  0
SOLID
  5
EFC
  8
DIM
 10
584.19461093907978
 20
68.949274966427936
 30
0.0
 11
584.19461093907978
 21
67.949274966427936
 31
0.0
 12
587.19461093907978
 22
68.449274966427936
 32
0.0
 13
587.19461093907978
 23
68.449274966427936
 33
0.0
  0
SOLID
  5
EFD
  8
DIM
 10
576.19461093907978
 20
68.949274966427936
 30
0.0
 11
576.19461093907978
 21
67.949274966427936
 31
0.0
 12
573.19461093907989
 22
68.449274966427936
 32
0.0
 13
573.19461093907989
 23
68.449274966427936
 33
0.0
  0
TEXT
  5
EFE
  8
0
 10
577.98032522479423
 20
69.449274966427936
 30
0.0
 40
3.0
  1
14
  7
CHINESET
  0
POINT
  5
EFF
  8
DEFPOINTS
 62
     0
 10
587.19461093907978
 20
79.719392906078667
 30
0.0
  0
POINT
  5
F00
  8
DEFPOINTS
 62
     0
 10
573.19461093907989
 20
79.719392906078696
 30
0.0
  0
POINT
  5
F01
  8
DEFPOINTS
 62
     0
 10
573.19461093907989
 20
68.449274966427936
 30
0.0
  0
ENDBLK
  5
E00
  8
0
  0
BLOCK
  8
0
  2
*D25
 70
     1
 10
0.0
 20
0.0
 30
0.0
  3
*D25
  1

  0
LINE
  5
F1F
  8
DIM
 10
585.87519888896861
 20
53.425632347674139
 30
0.0
 11
585.87519888896861
 21
59.589646017079929
 31
0.0
  0
LINE
  5
F20
  8
DIM
 10
575.27519888896848
 20
53.425632347674139
 30
0.0
 11
575.27519888896848
 21
59.589646017079929
 31
0.0
  0
LINE
  5
F21
  8
DIM
 10
582.87519888896861
 20
57.589646017079929
 30
0.0
 11
578.27519888896848
 21
57.589646017079929
 31
0.0
  0
INSERT
  5
F22
  8
0
  2
*U28
 10
0.0
 20
0.0
 30
0.0
  0
SOLID
  5
F23
  8
DIM
 10
582.87519888896861
 20
58.089646017079929
 30
0.0
 11
582.87519888896861
 21
57.089646017079929
 31
0.0
 12
585.87519888896861
 22
57.589646017079929
 32
0.0
 13
585.87519888896861
 23
57.589646017079929
 33
0.0
  0
SOLID
  5
F24
  8
DIM
 10
578.27519888896848
 20
58.089646017079929
 30
0.0
 11
578.27519888896848
 21
57.089646017079929
 31
0.0
 12
575.27519888896848
 22
57.589646017079929
 32
0.0
 13
575.27519888896848
 23
57.589646017079929
 33
0.0
  0
POINT
  5
F25
  8
DEFPOINTS
 62
     0
 10
585.87519888896861
 20
51.425632347674139
 30
0.0
  0
POINT
  5
F26
  8
DEFPOINTS
 62
     0
 10
575.27519888896848
 20
51.425632347674139
 30
0.0
  0
POINT
  5
F27
  8
DEFPOINTS
 62
     0
 10
575.27519888896848
 20
57.589646017079929
 30
0.0
  0
ENDBLK
  5
E0C
  8
0
  0
BLOCK
  8
0
  2
*U26
 70
     1
 10
0.0
 20
0.0
 30
0.0
  3
*U26
  1

  0
TEXT
  5
F80
  8
0
 10
598.10916903505915
 20
87.968159977312084
 30
0.0
 40
3.0
  1
(
 50
90.0
  7
CHINESET
  0
TEXT
  5
F81
  8
0
 10
598.10916903505915
 20
89.968159977312084
 30
0.0
 40
3.0
  1
\U+2205
 50
90.0
  7
CHINESET
  0
TEXT
  5
F82
  8
0
 10
598.10916903505915
 20
92.682445691597792
 30
0.0
 40
3.0
  1
16)
 50
90.0
  7
CHINESET
  0
ENDBLK
  5
F84
  8
0
  0
BLOCK
  8
0
  2
*U27
 70
     1
 10
0.0
 20
0.0
 30
0.0
  3
*U27
  1

  0
TEXT
  5
F94
  8
0
 10
595.57460219821098
 20
78.332273361834623
 30
0.0
 40
3.0
  1
(
 50
90.0
  7
CHINESET
  0
TEXT
  5
F95
  8
0
 10
595.57460219821098
 20
80.332273361834623
 30
0.0
 40
3.0
  1
\U+2205
 50
90.0
  7
CHINESET
  0
TEXT
  5
F96
  8
0
 10
595.57460219821098
 20
83.046559076120332
 30
0.0
 40
3.0
  1
16)
 50
90.0
  7
CHINESET
  0
ENDBLK
  5
F98
  8
0
  0
BLOCK
  8
0
  2
*U28
 70
     1
 10
0.0
 20
0.0
 30
0.0
  3
*U28
  1

  0
TEXT
  5
F9A
  8
0
 10
575.00377031753999
 20
60.88424199103013
 30
0.0
 40
3.0
  1
\U+2205
  7
CHINESET
  0
TEXT
  5
F9B
  8
0
 10
577.71805603182565
 20
60.88424199103013
 30
0.0
 40
3.0
  1
10.6
  7
CHINESET
  0
ENDBLK
  5
F9D
  8
0
  0
ENDSEC
  0
SECTION
  2
ENTITIES
  0
TEXT
  5
287
  8
LOGO
 62
     6
 10
564.95817118670016
 20
-5.9506821028118591
 30
0.0
 40
1.5019344855688279
  1
m/m
  7
CHINESET
 72
     1
 11
567.60443670889288
 21
-5.1997148600274441
 31
0.0
 73
     2
  0
TEXT
  5
288
  8
LOGO
 62
     6
 10
564.95817118670016
 20
0.0570558394634535
 30
0.0
 40
1.5019344855688279
  1
1 : 1
  7
CHINESET
 72
     1
 11
567.60443670889288
 21
0.8080230822478675
 31
0.0
 73
     2
  0
TEXT
  5
289
  8
LOGO
 62
     6
 10
552.59981884855517
 20
-5.9506821028118591
 30
0.0
 40
1.5019344855688279
  1
單位 Unit:
 41
0.9
  7
CHINESET
 72
     4
 11
556.69728386699774
 21
-5.1997148600274441
 31
0.0
  0
TEXT
  5
28A
  8
LOGO
 62
     6
 10
551.92797136884985
 20
0.0577949804504459
 30
0.0
 40
1.5019344855688279
  1
比例 Scale:
 41
0.9
  7
CHINESET
 72
     4
 11
556.69728386699774
 21
0.8080230822478675
 31
0.0
  0
LINE
  5
28B
  8
LOGO
 62
     1
 10
635.79916677362269
 20
-12.70938728787158
 30
0.0
 11
635.79916677362269
 21
2.3099575678166948
 31
0.0
  0
LINE
  5
28C
  8
LOGO
 62
     1
 10
562.70502180927303
 20
-6.7016493455962731
 30
0.0
 11
562.70502180927303
 21
2.3099575678166948
 31
0.0
  0
LINE
  5
28D
  8
LOGO
 62
     1
 10
572.71791837973194
 20
-0.6939114033209606
 30
0.0
 11
550.68954592472244
 21
-0.6939114033209606
 31
0.0
  0
LINE
  5
28E
  8
LOGO
 62
     1
 10
572.71791837973194
 20
-3.697780374458616
 30
0.0
 11
550.68954592472244
 21
-3.697780374458616
 31
0.0
  0
LINE
  5
28F
  8
LOGO
 62
     1
 10
539.67535969721757
 20
-12.70938728787158
 30
0.0
 11
539.67535969721757
 21
2.3099575678166948
 31
0.0
  0
LINE
  5
290
  8
LOGO
 62
     1
 10
572.71791837973194
 20
-6.7016493455962554
 30
0.0
 11
539.67535969721757
 21
-6.7016493455962554
 31
0.0
  0
TEXT
  5
291
  8
LOGO
 62
     6
 10
552.45297793233215
 20
-2.9256860184626658
 30
0.0
 40
1.5019344855688279
  1
投影 View:
 41
0.9
  7
CHINESET
 72
     4
 11
556.69728386699774
 21
-2.1958458888897878
 31
0.0
  0
CIRCLE
  5
292
  8
LOGO
  6
CONTINUOUS
 62
     6
 10
565.48604136829954
 20
-2.1926332400342821
 30
0.0
 40
0.8720585138739975
  0
CIRCLE
  5
293
  8
LOGO
  6
CONTINUOUS
 62
     6
 10
565.48604136829954
 20
-2.1926332400342821
 30
0.0
 40
0.5109490901577429
  0
LINE
  5
294
  8
LOGO
  6
CONTINUOUS
 62
     6
 10
568.23230487642695
 20
-1.681684149876536
 30
0.0
 11
570.96615825887454
 21
-1.320574726160282
 31
0.0
  0
LINE
  5
295
  8
LOGO
  6
CONTINUOUS
 62
     6
 10
568.23230487642695
 20
-2.7035823301920199
 30
0.0
 11
570.96615825887454
 21
-3.064691753908277
 31
0.0
  0
LINE
  5
296
  8
LOGO
 62
     6
 10
568.23230487642695
 20
-2.703582330192023
 30
0.0
 11
568.23230487642695
 21
-1.681684149876532
 31
0.0
  0
LINE
  5
297
  8
LOGO
 62
     6
 10
570.96615825887454
 20
-3.064691753908277
 30
0.0
 11
570.96615825887454
 21
-1.320574726160282
 31
0.0
  0
TEXT
  5
29C
  8
LOGO
 62
     6
 10
597.38151926455043
 20
-8.6529815512565627
 30
0.0
 40
2.0025793140917711
  1
型式
  7
CHINESET
 72
     4
 11
599.38409857864224
 21
-7.7029390026421591
 31
0.0
  0
TEXT
  5
29D
  8
LOGO
 62
     7
 10
573.58804588406326
 20
-4.269761837468641
 30
0.0
 40
2.0025793140917711
  1
Order example:
 41
0.8
  7
CHINESET
  0
LINE
  5
29F
  8
LOGO
 62
     6
 10
633.0129518915262
 20
-5.9506821028118457
 30
0.0
 11
633.0129518915262
 21
-11.457775216564199
 31
0.0
  0
LINE
  5
2A0
  8
LOGO
 62
     6
 10
619.96071067299874
 20
-5.9506821028118457
 30
0.0
 11
619.96071067299874
 21
-11.45777521656421
 31
0.0
  0
LINE
  5
2A1
  8
LOGO
 62
     6
 10
633.0129518915262
 20
-11.45777521656421
 30
0.0
 11
619.96071067299874
 21
-11.457775216564221
 31
0.0
  0
LINE
  5
2A3
  8
LOGO
 62
     6
 10
633.0129518915262
 20
-5.9506821028118457
 30
0.0
 11
619.96071067299874
 21
-5.9506821028118457
 31
0.0
  0
LINE
  5
2A4
  8
LOGO
 62
     6
 10
625.50070014959033
 20
-3.6977803744586022
 30
0.0
 11
618.45877618742998
 21
-3.6977803744586022
 31
0.0
  0
LINE
  5
2A5
  8
LOGO
 62
     6
 10
621.97973816851015
 20
-3.6977803744586022
 30
0.0
 11
621.97973816851015
 21
-5.9506821028118457
 31
0.0
  0
TEXT
  5
2A6
  8
LOGO
 62
     6
 10
622.52468271350165
 20
-8.6362276888847163
 30
0.0
 40
2.0025793140917711
  1
按鈕型
  7
CHINESET
 72
     4
 11
625.48683128226253
 21
-7.702939002642144
 31
0.0
  0
LINE
  5
2A7
  8
LOGO
 62
     6
 10
599.38409857864224
 20
-3.697780374458616
 30
0.0
 11
599.38409857864224
 21
-5.9506821028118599
 31
0.0
  0
LINE
  5
2A8
  8
LOGO
 62
     6
 10
594.37765029341267
 20
-5.9506821028118599
 30
0.0
 11
594.37765029341267
 21
-11.45777521656424
 31
0.0
  0
TEXT
  5
2A9
  8
LOGO
 62
     7
 10
573.94732517366845
 20
-1.4505448025651879
 30
0.0
 40
3.0038689711376558
  1
訂購代號:
  7
CHINESET
  0
LINE
  5
2AB
  8
LOGO
 62
     6
 10
625.50070014959033
 20
0.8080230822479094
 30
0.0
 11
618.45877618742998
 21
0.8080230822478816
 31
0.0
  0
LINE
  5
2AC
  8
LOGO
 62
     6
 10
593.37636063636694
 20
0.8080230822478675
 30
0.0
 11
593.37636063636694
 21
-3.697780374458616
 31
0.0
  0
LINE
  5
2AD
  8
LOGO
 62
     6
 10
618.45877618742998
 20
0.8080230822478816
 30
0.0
 11
618.45877618742998
 21
-3.6977803744586022
 31
0.0
  0
LINE
  5
2AE
  8
LOGO
 62
     6
 10
625.50070014959033
 20
0.8080230822479094
 30
0.0
 11
625.50070014959033
 21
-3.6977803744586022
 31
0.0
  0
TEXT
  5
2B1
  8
LOGO
  6
CONTINUOUS
 62
     6
 10
620.52677379984652
 20
-10.83196918091053
 30
0.0
 40
1.251612071307356
  1
PUSH button
  7
CHINESET
 72
     4
 11
626.48683128226253
 21
-10.20616314525685
 31
0.0
  0
TEXT
  5
2B2
  8
LOGO
  6
CONTINUOUS
 62
     6
 10
597.00007558567575
 20
-10.83196918091055
 30
0.0
 40
1.251612071307356
  1
Model
  7
CHINESET
 72
     4
 11
599.38409857864224
 21
-10.20616314525687
 31
0.0
  0
TEXT
  5
2B4
  8
LOGO
  6
CONTINUOUS
 62
     7
 10
621.14533012097183
 20
-2.7248774369250768
 30
0.0
 40
2.5032241426147128
  1
P
  7
CHINESET
 72
     1
 11
621.97973816851004
 21
-1.4732653656177199
 31
0.0
 73
     2
  0
TEXT
  5
2B5
  8
LOGO
  6
CONTINUOUS
 62
     7
 10
594.49685144306113
 20
-2.6964907174127308
 30
0.0
 40
2.5032241426147128
  1
MVHA
  7
CHINESET
 72
     1
 11
599.38409857864224
 21
-1.444878646105374
 31
0.0
 73
     2
  0
LINE
  5
2B6
  8
LOGO
 62
     1
 10
572.71791837973194
 20
-12.70938728787158
 30
0.0
 11
572.71791837973194
 21
2.3099575678166948
 31
0.0
  0
LINE
  5
2B7
  8
LOGO
 62
     1
 10
635.79916677362269
 20
2.3099575678166948
 30
0.0
 11
539.67535969721757
 21
2.3099575678166948
 31
0.0
  0
LINE
  5
2B8
  8
LOGO
 62
     1
 10
635.79916677362269
 20
-12.70938728787158
 30
0.0
 11
539.67535969721757
 21
-12.70938728787158
 31
0.0
  0
LINE
  5
2B9
  8
LOGO
 62
     6
 10
605.39183652091754
 20
0.8080230822478675
 30
0.0
 11
605.39183652091754
 21
-3.697780374458616
 31
0.0
  0
LINE
  5
2BA
  8
LOGO
 62
     6
 10
604.39054686387158
 20
-5.9506821028118599
 30
0.0
 11
604.39054686387158
 21
-11.457775216564221
 31
0.0
  0
LINE
  5
2BB
  8
LOGO
 62
     6
 10
605.39183652091754
 20
0.8080230822478675
 30
0.0
 11
593.37636063636694
 21
0.8080230822478675
 31
0.0
  0
LINE
  5
2BC
  8
LOGO
 62
     6
 10
605.39183652091754
 20
-3.697780374458616
 30
0.0
 11
593.37636063636694
 21
-3.697780374458616
 31
0.0
  0
LINE
  5
2BD
  8
LOGO
 62
     6
 10
604.39054686387158
 20
-5.9506821028118599
 30
0.0
 11
594.37765029341267
 21
-5.9506821028118599
 31
0.0
  0
LINE
  5
2BE
  8
LOGO
 62
     6
 10
604.39054686387158
 20
-11.457775216564229
 30
0.0
 11
594.37765029341267
 21
-11.45777521656424
 31
0.0
  0
TEXT
  5
2BF
  8
LOGO
  6
CONTINUOUS
 62
     7
 10
610.11638707588429
 20
-2.6964907174127242
 30
0.0
 40
2.5032241426147128
  1
2/3
  7
CHINESET
 72
     1
 11
613.45401926603722
 21
-1.4448786461053671
 31
0.0
 73
     2
  0
LINE
  5
2C0
  8
LOGO
 62
     6
 10
617.97111227597975
 20
0.8080230822478957
 30
0.0
 11
608.93692625609458
 21
0.8080230822478675
 31
0.0
  0
LINE
  5
2C1
  8
LOGO
 62
     6
 10
619.47304676154863
 20
-5.9506821028118599
 30
0.0
 11
607.43499177052593
 21
-5.9506821028118599
 31
0.0
  0
LINE
  5
2C2
  8
LOGO
 62
     6
 10
617.97111227597975
 20
-3.697780374458616
 30
0.0
 11
608.93692625609458
 21
-3.697780374458616
 31
0.0
  0
TEXT
  5
2C3
  8
LOGO
 62
     6
 10
608.26966326495779
 20
-8.5611872801100741
 30
0.0
 40
2.0025793140917711
  1
2/3 方向
 41
0.9
  7
CHINESET
 72
     4
 11
613.45401926603734
 21
-7.7029390026421733
 31
0.0
  0
LINE
  5
2C4
  8
LOGO
 62
     6
 10
619.47304676154863
 20
-11.457775216564221
 30
0.0
 11
607.43499177052593
 21
-11.45777521656424
 31
0.0
  0
TEXT
  5
2C5
  8
LOGO
  6
CONTINUOUS
 62
     6
 10
610.18790776567334
 20
-10.742568318674319
 30
0.0
 40
1.251612071307356
  1
2/3 Way
 41
0.8
  7
CHINESET
 72
     4
 11
613.45401926603734
 21
-10.20616314525688
 31
0.0
  0
LINE
  5
2C6
  8
LOGO
 62
     6
 10
608.93692625609458
 20
0.8080230822478675
 30
0.0
 11
608.93692625609458
 21
-3.697780374458616
 31
0.0
  0
LINE
  5
2C7
  8
LOGO
 62
     6
 10
607.43499177052593
 20
-5.9506821028118599
 30
0.0
 11
607.43499177052593
 21
-11.457775216564221
 31
0.0
  0
LINE
  5
2C8
  8
LOGO
 62
     6
 10
617.97111227597975
 20
0.8080230822478957
 30
0.0
 11
617.97111227597975
 21
-3.697780374458616
 31
0.0
  0
LINE
  5
2C9
  8
LOGO
 62
     6
 10
619.47304676154863
 20
-5.9506821028118599
 30
0.0
 11
619.47304676154863
 21
-11.45777521656421
 31
0.0
  0
LINE
  5
2CA
  8
LOGO
  6
CONTINUOUS
 62
     7
 10
606.16811874106622
 20
-1.4608389140342939
 30
0.0
 11
608.1577171380851
 21
-1.4608389140342939
 31
0.0
  0
LINE
  5
2CC
  8
LOGO
 62
     1
 10
550.68954592472244
 20
-6.7016493455962731
 30
0.0
 11
550.68954592472244
 21
2.3099575678166948
 31
0.0
  0
POLYLINE
  5
2CD
  8
LOGO
 62
     5
 66
     1
 10
0.0
 20
0.0
 30
0.0
 70
     1
  0
VERTEX
  5
F5A
  8
LOGO
 62
     5
 10
547.46637467574328
 20
-5.8843722041165067
 30
0.0
 42
1.0000000573306349
  0
VERTEX
  5
F5B
  8
LOGO
 62
     5
 10
548.13816473863892
 20
-5.8843722041165067
 30
0.0
 42
1.0000000573306349
  0
SEQEND
  5
F5C
  8
LOGO
 62
     5
  0
CIRCLE
  5
2CE
  8
LOGO
 62
     5
 10
547.80226970719104
 20
-5.8843722041165067
 30
0.0
 40
0.3358950314477898
  0
SOLID
  5
2CF
  8
LOGO
 62
     5
 10
541.23364083021045
 20
-4.2048970468776004
 30
0.0
 11
541.88303789100962
 21
-4.2048970468778153
 31
0.0
 12
544.59259114468864
 22
1.9531785296653339
 32
0.0
 13
545.24198820548759
 23
1.9531785296649069
 33
0.0
  0
SOLID
  5
2D0
  8
LOGO
 62
     5
 10
542.15175391616822
 20
-4.2048970468776004
 30
0.0
 11
542.80115097696728
 21
-4.2048970468776004
 31
0.0
 12
545.24198820548759
 22
1.4605324835416751
 32
0.0
 13
544.59259114468864
 23
-0.9205900727216675
 33
0.0
  0
SOLID
  5
2D1
  8
LOGO
 62
     5
 10
544.59259114468864
 20
-4.2048970468776004
 30
0.0
 11
545.24198820548759
 21
-4.2048970468776004
 31
0.0
 12
544.59259114468864
 22
-0.9205900727216675
 32
0.0
 13
545.24198820548759
 23
1.4605324835416751
 33
0.0
  0
SOLID
  5
2D2
  8
LOGO
 62
     5
 10
545.51070423064596
 20
1.9531785296649069
 30
0.0
 11
546.1601012914449
 21
1.9531785296653339
 31
0.0
 12
545.51070423064596
 22
-3.7122510007543701
 32
0.0
 13
546.1601012914449
 23
-1.331128444491023
 33
0.0
  0
SOLID
  5
2D3
  8
LOGO
 62
     5
 10
545.51070423064596
 20
-3.7122510007543701
 30
0.0
 11
546.1601012914449
 21
-1.331128444491023
 31
0.0
 12
548.60093851996544
 22
1.9531785296653339
 32
0.0
 13
547.95154145916649
 23
1.9531785296653339
 33
0.0
  0
SOLID
  5
2D4
  8
LOGO
 62
     5
 10
545.51070423064596
 20
-4.2048970468776004
 30
0.0
 11
546.1601012914449
 21
-4.2048970468776004
 31
0.0
 12
548.60093851996544
 22
1.4605324835416751
 32
0.0
 13
547.95154145916649
 23
-0.9205900727216675
 33
0.0
  0
SOLID
  5
2D5
  8
LOGO
 62
     5
 10
548.60093851996544
 20
1.4605324835416751
 30
0.0
 11
547.95154145916649
 21
-0.9205900727216675
 31
0.0
 12
548.60093851996544
 22
-4.2048970468778153
 32
0.0
 13
547.95154145916649
 23
-4.2048970468778153
 33
0.0
  0
SOLID
  5
2D6
  8
LOGO
 62
     5
 10
548.86965454512369
 20
-4.2048970468778153
 30
0.0
 11
549.51905160592287
 21
-4.2048970468778153
 31
0.0
 12
548.86965454512369
 22
1.9531785296649069
 32
0.0
 13
549.51905160592287
 23
1.9531785296653339
 33
0.0
  0
SOLID
  5
2D7
  8
LOGO
 62
     5
 10
540.19249809008318
 20
-6.4441972565294039
 30
0.0
 11
540.41642811104862
 21
-6.4441972565294039
 31
0.0
 12
541.04703247940643
 22
-5.3245471517036069
 32
0.0
 13
541.27096250037141
 23
-5.3245471517036069
 33
0.0
  0
SOLID
  5
2D8
  8
LOGO
 62
     5
 10
541.04703247940643
 20
-5.3245471517036069
 30
0.0
 11
541.27096250037141
 21
-5.3245471517036069
 31
0.0
 12
541.04703247940643
 22
-6.4441972565294039
 32
0.0
 13
541.27096250037141
 23
-6.4441972565294039
 33
0.0
  0
SOLID
  5
2D9
  8
LOGO
 62
     5
 10
541.04703247940643
 20
-6.4441972565294039
 30
0.0
 11
541.27096250037141
 21
-6.4441972565294039
 31
0.0
 12
541.90156686872979
 22
-5.3245471517036069
 32
0.0
 13
542.12549688969477
 23
-5.3245471517036069
 33
0.0
  0
SOLID
  5
2DA
  8
LOGO
 62
     5
 10
541.90156686872979
 20
-5.3245471517036069
 30
0.0
 11
542.12549688969477
 21
-5.3245471517036069
 31
0.0
 12
541.90156686872979
 22
-6.4441972565294039
 32
0.0
 13
542.12549688969477
 23
-6.4441972565294039
 33
0.0
  0
SOLID
  5
2DB
  8
LOGO
 62
     5
 10
542.39057528352726
 20
-5.1677961370280734
 30
0.0
 11
542.61450530449304
 21
-5.1677961370280734
 31
0.0
 12
542.39057528352726
 22
-4.9886521202556988
 32
0.0
 13
542.61450530449304
 23
-4.9886521202556988
 33
0.0
  0
SOLID
  5
2DC
  8
LOGO
 62
     5
 10
542.39057528352726
 20
-5.3245471517036069
 30
0.0
 11
542.61450530449304
 21
-5.3245471517036069
 31
0.0
 12
542.39057528352726
 22
-6.4441972565298293
 32
0.0
 13
542.61450530449304
 23
-6.4441972565294039
 33
0.0
  0
POLYLINE
  5
2DD
  8
LOGO
 62
     5
 66
     1
 10
0.0
 20
0.0
 30
0.0
 40
0.2242888831782783
 41
0.2242888831782783
  0
VERTEX
  5
F5D
  8
LOGO
 62
     5
 10
543.66005782665047
 20
-5.7724071936340131
 30
0.0
 42
1.0
  0
VERTEX
  5
F5E
  8
LOGO
 62
     5
 10
542.98719117711573
 20
-5.7724071936340131
 30
0.0
 42
1.0
  0
SEQEND
  5
F5F
  8
LOGO
 62
     5
  0
SOLID
  5
2DE
  8
LOGO
 62
     5
 10
542.87576445995285
 20
-5.3245471517036069
 30
0.0
 11
543.09969448091783
 21
-5.3245471517036069
 31
0.0
 12
542.87576445995285
 22
-6.4441972565294039
 32
0.0
 13
543.09969448091783
 23
-6.4441972565294039
 33
0.0
  0
SOLID
  5
2DF
  8
LOGO
 62
     5
 10
543.54755452284826
 20
-5.772407193634014
 30
0.0
 11
543.77148454381359
 21
-5.772407193634014
 31
0.0
 12
543.54755452284826
 22
-6.4441972565294039
 32
0.0
 13
543.77148454381359
 23
-6.4441972565294039
 33
0.0
  0
POLYLINE
  5
2E0
  8
LOGO
 62
     5
 66
     1
 10
0.0
 20
0.0
 30
0.0
 70
     1
 40
0.2242888831782783
 41
0.2242888831782783
  0
VERTEX
  5
F60
  8
LOGO
 62
     5
 10
544.14401337833192
 20
-5.8843722041166151
 30
0.0
 42
1.0
  0
VERTEX
  5
F61
  8
LOGO
 62
     5
 10
545.04116891104513
 20
-5.8843722041166151
 30
0.0
 42
1.0
  0
SEQEND
  5
F62
  8
LOGO
 62
     5
  0
SOLID
  5
2E1
  8
LOGO
 62
     5
 10
544.92846378313436
 20
-4.9886521202556988
 30
0.0
 11
545.15239380409935
 21
-4.9886521202556988
 31
0.0
 12
544.92846378313436
 22
-6.4441972565294039
 32
0.0
 13
545.15239380409935
 23
-6.4441972565294039
 33
0.0
  0
SOLID
  5
2E2
  8
LOGO
 62
     5
 10
545.41365295955995
 20
-5.3245471517036069
 30
0.0
 11
545.63758298052494
 21
-5.3245471517036069
 31
0.0
 12
545.41365295955995
 22
-6.4441972565294039
 32
0.0
 13
545.63758298052494
 23
-6.4441972565294039
 33
0.0
  0
POLYLINE
  5
2E3
  8
LOGO
 62
     5
 66
     1
 10
0.0
 20
0.0
 30
0.0
 40
0.2242888831782783
 41
0.2242888831782783
  0
VERTEX
  5
F63
  8
LOGO
 62
     5
 10
546.19794632625758
 20
-5.7724071936340131
 30
0.0
 42
1.0
  0
VERTEX
  5
F64
  8
LOGO
 62
     5
 10
545.52507967672273
 20
-5.7724071936340131
 30
0.0
 42
1.0
  0
SEQEND
  5
F65
  8
LOGO
 62
     5
  0
POLYLINE
  5
2E4
  8
LOGO
 62
     5
 66
     1
 10
0.0
 20
0.0
 30
0.0
 40
0.2242888831782783
 41
0.2242888831782783
  0
VERTEX
  5
F66
  8
LOGO
 62
     5
 10
546.86973638915288
 20
-5.7724071936340131
 30
0.0
 42
1.0
  0
VERTEX
  5
F67
  8
LOGO
 62
     5
 10
546.19686973961814
 20
-5.7724071936340131
 30
0.0
 42
1.0
  0
SEQEND
  5
F68
  8
LOGO
 62
     5
  0
SOLID
  5
2E5
  8
LOGO
 62
     5
 10
546.08544302245537
 20
-5.772407193634014
 30
0.0
 11
546.30937304342035
 21
-5.772407193634014
 31
0.0
 12
546.08544302245537
 22
-6.4441972565294039
 32
0.0
 13
546.30937304342035
 23
-6.4441972565294039
 33
0.0
  0
SOLID
  5
2E6
  8
LOGO
 62
     5
 10
546.75723308535066
 20
-5.772407193634014
 30
0.0
 11
546.98116310631576
 21
-5.772407193634014
 31
0.0
 12
546.75723308535066
 22
-6.4441972565298293
 32
0.0
 13
546.98116310631576
 23
-6.4441972565298293
 33
0.0
  0
POLYLINE
  5
2E7
  8
LOGO
 62
     5
 66
     1
 10
0.0
 20
0.0
 30
0.0
 70
     1
 40
0.2242888831782783
 41
0.2242888831782783
  0
VERTEX
  5
F69
  8
LOGO
 62
     5
 10
547.35369194083455
 20
-5.8843722041166151
 30
0.0
 42
1.0
  0
VERTEX
  5
F6A
  8
LOGO
 62
     5
 10
548.25084747354754
 20
-5.8843722041166151
 30
0.0
 42
1.0
  0
SEQEND
  5
F6B
  8
LOGO
 62
     5
  0
LINE
  5
2E8
  8
LOGO
 62
     5
 10
549.51905160592287
 20
-6.4441972565294039
 30
0.0
 11
549.51905160592287
 21
-5.772407193634014
 31
0.0
  0
POLYLINE
  5
2E9
  8
LOGO
 62
     5
 66
     1
 10
0.0
 20
0.0
 30
0.0
 40
0.2242888831782783
 41
0.2242888831782783
  0
VERTEX
  5
F6C
  8
LOGO
 62
     5
 10
549.40762488875998
 20
-5.7724071936340131
 30
0.0
 42
1.0
  0
VERTEX
  5
F6D
  8
LOGO
 62
     5
 10
548.73475823922524
 20
-5.7724071936340131
 30
0.0
 42
1.0
  0
SEQEND
  5
F6E
  8
LOGO
 62
     5
  0
SOLID
  5
2EA
  8
LOGO
 62
     5
 10
548.13814234563722
 20
-5.3245471517036069
 30
0.0
 11
548.36207236660221
 21
-5.3245471517036069
 31
0.0
 12
548.13814234563722
 22
-6.4441972565294039
 32
0.0
 13
548.36207236660221
 23
-6.4441972565294039
 33
0.0
  0
SOLID
  5
2EB
  8
LOGO
 62
     5
 10
548.62333152206202
 20
-6.4441972565294039
 30
0.0
 11
548.84726154302734
 21
-6.4441972565294039
 31
0.0
 12
548.62333152206202
 22
-5.3245471517036069
 32
0.0
 13
548.84726154302734
 23
-5.3245471517036069
 33
0.0
  0
SOLID
  5
2EC
  8
LOGO
 62
     5
 10
549.29512158495777
 20
-5.772407193634014
 30
0.0
 11
549.51905160592287
 21
-5.772407193634046
 31
0.0
 12
549.29512158495777
 22
-6.4441972565294039
 32
0.0
 13
549.51905160592287
 23
-6.4441972565294039
 33
0.0
  0
SOLID
  5
2ED
  8
LOGO
 62
     2
 10
541.88303789100962
 20
-4.2048970468778153
 30
0.0
 11
542.15175391616822
 21
-4.2048970468776004
 31
0.0
 12
545.24198820548759
 22
1.9531785296649069
 32
0.0
 13
545.51070423064596
 23
1.9531785296649069
 33
0.0
  0
SOLID
  5
2EE
  8
LOGO
 62
     2
 10
545.24198820548759
 20
1.9531785296649069
 30
0.0
 11
545.51070423064596
 21
1.9531785296649069
 31
0.0
 12
545.24198820548759
 22
-4.2048970468776004
 32
0.0
 13
545.51070423064596
 23
-4.2048970468776004
 33
0.0
  0
SOLID
  5
2EF
  8
LOGO
 62
     2
 10
545.24198820548759
 20
-4.2048970468776004
 30
0.0
 11
545.51070423064596
 21
-4.2048970468776004
 31
0.0
 12
548.60093851996544
 22
1.9531785296653339
 32
0.0
 13
548.86965454512369
 23
1.9531785296649069
 33
0.0
  0
SOLID
  5
2F0
  8
LOGO
 62
     2
 10
548.60093851996544
 20
1.9531785296653339
 30
0.0
 11
548.86965454512369
 21
1.9531785296649069
 31
0.0
 12
548.60093851996544
 22
-4.2048970468778153
 32
0.0
 13
548.86965454512369
 23
-4.2048970468778153
 33
0.0
  0
TEXT
  5
2F1
  8
LOGO
  6
CONTINUOUS
 62
     5
 10
540.16696821316555
 20
-9.7588596571393147
 30
0.0
 40
2.2529017283532422
  1
金器工業股份有限公司
 41
0.8
  7
LOGO
  0
TEXT
  5
2F2
  8
LOGO
  6
CONTINUOUS
 62
     5
 10
540.81206338608979
 20
-12.01220277759699
 30
0.0
 40
1.5019344855688279
  1
MINDMAN INDUSTRIAL CO.,LTD
 41
0.85
  7
CHINESET
  0
LINE
  5
2F4
  8
LOGO
 62
     6
 10
613.45401926603734
 20
-5.9506821028118599
 30
0.0
 11
613.45401926603722
 21
-3.697780374458616
 31
0.0
  0
POLYLINE
  5
42D
  8
0
 62
     4
 66
     1
 10
0.0
 20
0.0
 30
0.0
 70
     1
  0
VERTEX
  5
F6F
  8
0
 62
     4
 10
539.67535969721757
 20
116.1246269998161
 30
0.0
  0
VERTEX
  5
F70
  8
0
 62
     4
 10
635.79916677362269
 20
116.1246269998161
 30
0.0
  0
VERTEX
  5
F71
  8
0
 62
     4
 10
635.79916677362269
 20
2.3099575678166948
 30
0.0
  0
VERTEX
  5
F72
  8
0
 62
     4
 10
539.67535969721757
 20
2.3099575678166948
 30
0.0
  0
SEQEND
  5
F73
  8
0
 62
     4
  0
TEXT
  5
D46
  8
0
 10
557.33244283613135
 20
104.31507383272979
 30
0.0
 40
4.0
  1
MVHA-2P/3P
  7
ITALICT
  0
POLYLINE
  8
0
  5
F9E
  66
     1
 10
0.000000
 20
0.000000
 30
0.000000
  70
     8
  0
VERTEX
  8
0
  5
F9F
 10
575.526
 20
20.4126
 30
0.000000
  70
    32
  0
VERTEX
  8
0
  5
FA0
 10
570.813
 20
15.7200
 30
0.000000
  70
    32
  0
VERTEX
  8
0
  5
FA1
 10
567.813
 20
15.7200
 30
0.000000
  70
    32
  0
SEQEND
  8
0
  5
FA2
  0
TEXT
  5
D48
  8
0
 10
552.09860389847483
 20
18.617687177556942
 30
0.0
 40
3.0
  1
PT 1/8
  7
CHINESET
  0
LINE
  5
D49
  8
CENTER
  6
CENTER
 10
580.57519888896854
 20
13.742414635329339
 30
0.0
 11
580.57519888896854
 21
54.568560665641542
 31
0.0
1001
ACAD
1000
ASC_BOUNDS
1002
{
1070
    19
1002
}
  0
LINE
  5
D4A
  8
0
 10
574.57519888896854
 20
42.275632347674041
 30
0.0
 11
574.57519888896854
 21
47.775632347674048
 31
0.0
  0
LINE
  5
D4B
  8
0
 10
586.57519888896854
 20
42.275632347674041
 30
0.0
 11
586.57519888896854
 21
47.775632347674048
 31
0.0
  0
LINE
  5
D4C
  8
0
 10
574.97519888896863
 20
42.275632347674041
 30
0.0
 11
574.97519888896863
 21
48.175632347674082
 31
0.0
  0
LINE
  5
D4D
  8
0
 10
586.17519888896857
 20
42.275632347674041
 30
0.0
 11
586.17519888896845
 21
48.175632347674018
 31
0.0
  0
DIMENSION
  5
D4E
  8
DIM
  2
*D20
 10
619.45048186038878
 20
16.27563234767409
 30
0.0
 11
616.95048186038889
 21
34.725632347674178
 31
0.0
 70
     0
 13
580.57519888896854
 23
53.175632347674082
 33
0.0
 14
584.51571151641497
 24
16.275632347674101
 34
0.0
 50
90.0
1001
ACAD
1000
DSTYLE
1002
{
1070
   176
1070
   256
1002
}
  0
DIMENSION
  5
D4F
  8
DIM
  2
*D21
 10
609.74718361152395
 20
41.275632347674041
 30
0.0
 11
606.56250863159346
 21
47.401439215852228
 31
0.0
 70
   128
 13
580.57519888896854
 23
53.175632347674082
 33
0.0
 14
587.57519888896854
 24
41.275632347674041
 34
0.0
 50
90.0
1001
ACAD
1000
DSTYLE
1002
{
1070
   176
1070
   256
1002
}
  0
DIMENSION
  5
D50
  8
DIM
  2
*D22
 10
609.74718361152395
 20
31.775632347674041
 30
0.0
 11
606.56250863159346
 21
24.025632347674069
 31
0.0
 70
   128
 13
584.51571151641497
 23
16.275632347674101
 33
0.0
 14
587.57519888896854
 24
31.775632347674041
 34
0.0
 50
90.0
1001
ACAD
1000
DSTYLE
1002
{
1070
   176
1070
   256
1002
}
  0
POLYLINE
  8
0
  5
FA3
  66
     1
 10
0.000000
 20
0.000000
 30
0.000000
  70
     8
  0
VERTEX
  8
0
  5
FA4
 10
586.575
 20
31.7756
 30
0.000000
  70
    32
  0
VERTEX
  8
0
  5
FA5
 10
591.236
 20
36.2493
 30
0.000000
  70
    32
  0
VERTEX
  8
0
  5
FA6
 10
594.236
 20
36.2493
 30
0.000000
  70
    32
  0
SEQEND
  8
0
  5
FA7
  0
TEXT
  5
D52
  8
0
 10
592.97292368083163
 20
37.231762036660818
 30
0.0
 40
3.0
  1
M5*0.8
  7
CHINESET
  0
POLYLINE
  8
0
  5
FA8
  66
     1
 10
0.000000
 20
0.000000
 30
0.000000
  70
     8
  0
VERTEX
  8
0
  5
FA9
 10
580.575
 20
16.2756
 30
0.000000
  70
    32
  0
VERTEX
  8
0
  5
FAA
 10
590.200
 20
8.47439
 30
0.000000
  70
    32
  0
VERTEX
  8
0
  5
FAB
 10
593.200
 20
8.47439
 30
0.000000
  70
    32
  0
SEQEND
  8
0
  5
FAC
  0
LINE
  5
D54
  8
0
 10
575.60850931321431
 20
17.275289672649588
 30
0.0
 11
575.42519888896857
 21
24.275632347674041
 31
0.0
  0
LINE
  5
D55
  8
0
 10
585.541888464723
 20
17.275289672649642
 30
0.0
 11
585.72519888896863
 21
24.275632347674041
 31
0.0
  0
LINE
  5
D56
  8
0
 10
575.42519888896857
 20
24.275632347674041
 30
0.0
 11
576.45172760302864
 21
23.275632347674041
 31
0.0
  0
LINE
  5
D57
  8
0
 10
584.69867017490844
 20
23.275632347674041
 30
0.0
 11
585.72519888896863
 21
24.275632347674041
 31
0.0
  0
LINE
  5
D58
  8
0
 10
576.63468626152212
 20
16.275632347674041
 30
0.0
 11
584.51571151641497
 21
16.275632347674101
 31
0.0
  0
LINE
  5
D59
  8
0
 10
575.45138481053777
 20
23.275632347674019
 30
0.0
 11
585.69901296739943
 21
23.275632347674041
 31
0.0
  0
LINE
  5
D5A
  8
0
 10
575.60850931321431
 20
17.275289672649588
 30
0.0
 11
585.541888464723
 21
17.275289672649642
 31
0.0
  0
LINE
  5
D5B
  8
0
 10
576.63502905401288
 20
16.275632347674041
 30
0.0
 11
576.45172760302876
 21
23.275632347674041
 31
0.0
  0
LINE
  5
D5C
  8
0
 10
576.63468626152212
 20
16.275632347674041
 30
0.0
 11
575.60850931321431
 21
17.275289672649588
 31
0.0
  0
TEXT
  5
D5D
  8
0
 10
578.61640796069605
 20
9.7777772319607266
 30
0.0
 40
3.0
  1
IN
  7
CHINESET
  0
LINE
  5
D5E
  8
0
 10
584.51536872392421
 20
16.275632347674041
 30
0.0
 11
584.69867017490844
 21
23.275632347674041
 31
0.0
  0
LINE
  5
D5F
  8
0
 10
584.51571151641497
 20
16.275632347674101
 30
0.0
 11
585.541888464723
 21
17.275289672649642
 31
0.0
  0
LINE
  5
D60
  8
0
 10
575.07519888896854
 20
41.275632347674019
 30
0.0
 11
586.07519888896854
 21
41.275632347674019
 31
0.0
  0
LINE
  5
D61
  8
0
 10
574.57519888896854
 20
42.275632347674097
 30
0.0
 11
586.57519888896854
 21
42.275632347674097
 31
0.0
  0
LINE
  5
D62
  8
0
 10
573.57519888896854
 20
36.275632347674843
 30
0.0
 11
586.57519888896854
 21
36.275632347674097
 31
0.0
  0
ARC
  5
D63
  8
0
 10
577.07519888896945
 20
56.842299014334863
 30
0.0
 40
20.56666666666024
 50
260.20181509241831
 51
279.79818490757492
  0
ARC
  5
D64
  8
0
 10
577.07519888896877
 20
20.70896568101108
 30
0.0
 40
20.566666666663021
 50
80.201815092424923
 51
99.798184907575063
  0
LINE
  5
D65
  8
0
 10
573.57519888896854
 20
26.87563234767407
 30
0.0
 11
573.57519888896854
 21
40.975632347674029
 31
0.0
  0
LINE
  5
D66
  8
0
 10
574.17519888896845
 20
26.275632347674069
 30
0.0
 11
575.42519888896857
 21
26.275632347674041
 31
0.0
  0
LINE
  5
D67
  8
0
 10
575.42519888896857
 20
24.275632347674041
 30
0.0
 11
575.42519888896857
 21
26.275632347673991
 31
0.0
  0
ARC
  5
D68
  8
0
 10
574.17519888896845
 20
26.87563234767407
 30
0.0
 40
0.6
 50
179.9999999999998
 51
270.0
  0
LINE
  5
D69
  8
0
 10
575.07519888896854
 20
41.275632347674041
 30
0.0
 11
575.07519888896854
 21
42.275632347674097
 31
0.0
  0
LINE
  5
D6A
  8
0
 10
586.57519888896854
 20
26.275632347674041
 30
0.0
 11
586.57519888896854
 21
36.275632347674097
 31
0.0
  0
LINE
  5
D6B
  8
0
 10
585.72519888896863
 20
26.275632347674101
 30
0.0
 11
586.57519888896854
 21
26.275632347674101
 31
0.0
  0
LINE
  5
D6C
  8
CENTER
  6
CENTER
 10
582.04613311593835
 20
31.775632347674041
 30
0.0
 11
587.57519888896854
 21
31.775632347674041
 31
0.0
  0
LINE
  5
D6D
  8
HIDDEN
  6
HIDDEN
 10
582.82519888896854
 20
34.275632347674097
 30
0.0
 11
586.57519888896854
 21
34.275632347674041
 31
0.0
  0
LINE
  5
D6E
  8
HIDDEN
  6
HIDDEN
 10
582.82519888896854
 20
29.275632347674041
 30
0.0
 11
586.57519888896854
 21
29.275632347674041
 31
0.0
  0
LINE
  5
D6F
  8
HIDDEN
  6
HIDDEN
 10
582.82519888896854
 20
33.775632347674097
 30
0.0
 11
586.57519888896854
 21
33.775632347674097
 31
0.0
  0
LINE
  5
D70
  8
HIDDEN
  6
HIDDEN
 10
582.82519888896854
 20
29.775632347674051
 30
0.0
 11
586.57519888896854
 21
29.775632347674051
 31
0.0
  0
LINE
  5
D71
  8
0
 10
585.72519888896863
 20
24.275632347674041
 30
0.0
 11
585.72519888896863
 21
26.275632347674041
 31
0.0
  0
ARC
  5
D72
  8
0
 10
584.07519888897014
 20
56.842299014339062
 30
0.0
 40
20.566666666664808
 50
260.20181509241831
 51
279.79818490756838
  0
ARC
  5
D73
  8
0
 10
584.07519888896854
 20
20.70896568101054
 30
0.0
 40
20.566666666663458
 50
80.201815092424923
 51
99.798184907574978
  0
LINE
  5
D74
  8
0
 10
580.575198888969
 20
40.975632347674008
 30
0.0
 11
580.57519888896854
 21
36.575632347674542
 31
0.0
  0
LINE
  5
D75
  8
0
 10
587.57519888896854
 20
36.575632347674002
 30
0.0
 11
587.57519888896854
 21
40.975632347673937
 31
0.0
  0
LINE
  5
D76
  8
0
 10
586.07519888896854
 20
41.275632347674041
 30
0.0
 11
586.07519888896854
 21
42.275632347674041
 31
0.0
  0
TEXT
  5
D77
  8
0
 10
594.69993356166106
 20
9.9743927477467196
 30
0.0
 40
3.0
  1
M5*0.8
  7
CHINESET
  0
LINE
  5
D78
  8
0
 10
627.78968034671539
 20
85.861654846492371
 30
0.0
 11
628.78968034671539
 21
84.129604038923503
 31
0.0
  0
LINE
  5
D79
  8
0
 10
627.56115021580524
 20
69.145968022586942
 30
0.0
 11
628.56115021580524
 21
67.413917215018046
 31
0.0
  0
LINE
  5
D7A
  8
CENTER
  6
CENTER
 10
580.19461093907978
 20
74.861410794533455
 30
0.0
 11
580.19461093907978
 21
92.660278786278639
 31
0.0
  0
POLYLINE
  5
D7B
  8
0
 66
     1
 10
0.0
 20
0.0
 30
0.0
 70
     1
  0
VERTEX
  5
F8C
  8
0
 10
573.19461093907989
 20
79.719392906078696
 30
0.0
  0
VERTEX
  5
F8D
  8
0
 10
580.19461093907978
 20
75.677941021751309
 30
0.0
  0
VERTEX
  5
F8E
  8
0
 10
587.19461093907978
 20
79.719392906078667
 30
0.0
  0
VERTEX
  5
F8F
  8
0
 10
587.19461093907978
 20
87.802296674733441
 30
0.0
  0
VERTEX
  5
F90
  8
0
 10
580.19461093907978
 20
91.843748559060828
 30
0.0
  0
VERTEX
  5
F91
  8
0
 10
573.19461093907989
 20
87.802296674733441
 30
0.0
  0
SEQEND
  5
F92
  8
0
  0
CIRCLE
  5
D7C
  8
0
 10
580.19461093907978
 20
83.760844790406054
 30
0.0
 40
7.0
  0
CIRCLE
  5
D7D
  8
0
 10
580.19461093907978
 20
83.760844790406054
 30
0.0
 40
5.5
  0
CIRCLE
  5
D7E
  8
0
 10
580.19461093907978
 20
83.760844790406054
 30
0.0
 40
6.0
  0
DIMENSION
  5
D7F
  8
DIM
  2
*D23
 10
594.57460219821098
 20
91.843748559060828
 30
0.0
 11
594.57460219821098
 21
83.760844790406054
 31
0.0
 70
   128
  1
{(%%C16)}
 13
580.19461093907978
 23
75.677941021751309
 33
0.0
 14
580.19461093907978
 24
91.843748559060828
 34
0.0
 50
90.0
1001
ACAD
1000
DSTYLE
1002
{
1070
   176
1070
   256
1002
}
  0
DIMENSION
  5
D80
  8
DIM
  2
*D24
 10
573.19461093907989
 20
68.449274966427936
 30
0.0
 11
580.19461093907978
 21
70.949274966427936
 31
0.0
 70
     0
 13
587.19461093907978
 23
79.719392906078667
 33
0.0
 14
573.19461093907989
 24
79.719392906078696
 34
0.0
1001
ACAD
1000
DSTYLE
1002
{
1070
   176
1070
   256
1002
}
  0
LINE
  5
D81
  8
0
 10
575.07519888896854
 20
48.275632347674048
 30
0.0
 11
586.07519888896854
 21
48.275632347674048
 31
0.0
  0
LINE
  5
D82
  8
0
 10
576.62519888896861
 20
48.275632347674097
 30
0.0
 11
578.07519888896854
 21
48.275632347674097
 31
0.0
  0
LINE
  5
D83
  8
0
 10
576.02519888896848
 20
50.675632347674139
 30
0.0
 11
585.12519888896861
 21
50.675632347674139
 31
0.0
  0
ARC
  5
D84
  8
0
 10
580.57519888896854
 20
40.675632347674068
 30
0.0
 40
12.5
 50
65.465948770055874
 51
114.5340512299441
  0
LINE
  5
D85
  8
0
 10
574.57519888896854
 20
47.775632347674048
 30
0.0
 11
586.57519888896854
 21
47.775632347674048
 31
0.0
  0
DIMENSION
  5
D86
  8
DIM
  2
*D25
 10
575.27519888896848
 20
57.589646017079929
 30
0.0
 11
580.57519888896854
 21
62.384241991030137
 31
0.0
 70
   128
  1
{%%C<>}
 13
585.87519888896861
 23
51.425632347674139
 33
0.0
 14
575.27519888896848
 24
51.425632347674139
 34
0.0
1001
ACAD
1000
DSTYLE
1002
{
1070
   176
1070
   256
1002
}
  0
ARC
  5
D87
  8
0
 10
576.02519888896848
 20
51.425632347674139
 30
0.0
 40
0.75
 50
180.0
 51
270.0
  0
LINE
  5
D88
  8
0
 10
575.07519888896854
 20
48.275632347674048
 30
0.0
 11
574.57519888896854
 21
47.775632347674048
 31
0.0
  0
LINE
  5
D89
  8
0
 10
575.27519888896848
 20
51.425632347674082
 30
0.0
 11
575.38477432768582
 21
52.04706554114761
 31
0.0
  0
ARC
  5
D8A
  8
0
 10
585.12519888896861
 20
51.425632347674139
 30
0.0
 40
0.75
 50
270.0
 51
0.0
  0
LINE
  5
D8B
  8
0
 10
585.87519888896861
 20
51.425632347674139
 30
0.0
 11
585.76562345025127
 21
52.04706554114761
 31
0.0
  0
LINE
  5
D8C
  8
0
 10
578.07519888896854
 20
49.675632347674139
 30
0.0
 11
583.07519888896854
 21
49.675632347674139
 31
0.0
  0
LINE
  5
D8D
  8
0
 10
578.07519888896854
 20
48.675632347674139
 30
0.0
 11
583.07519888896854
 21
48.67563234767411
 31
0.0
  0
LINE
  5
D8E
  8
0
 10
578.07519888896854
 20
48.275632347674097
 30
0.0
 11
578.07519888896854
 21
48.675632347674082
 31
0.0
  0
LINE
  5
D8F
  8
0
 10
578.27519888896848
 20
48.675632347674082
 30
0.0
 11
578.27519888896848
 21
49.675632347674139
 31
0.0
  0
LINE
  5
D90
  8
0
 10
578.07519888896854
 20
49.675632347674082
 30
0.0
 11
578.07519888896854
 21
50.675632347674139
 31
0.0
  0
LINE
  5
D91
  8
0
 10
583.07519888896854
 20
48.275632347674097
 30
0.0
 11
583.07519888896854
 21
48.675632347674139
 31
0.0
  0
LINE
  5
D92
  8
0
 10
582.87519888896861
 20
48.675632347674139
 30
0.0
 11
582.87519888896861
 21
49.675632347674139
 31
0.0
  0
LINE
  5
D93
  8
0
 10
583.07519888896854
 20
49.675632347674139
 30
0.0
 11
583.07519888896854
 21
50.675632347674139
 31
0.0
  0
LINE
  5
D94
  8
0
 10
586.07519888896854
 20
48.275632347674048
 30
0.0
 11
586.57519888896854
 21
47.775632347674048
 31
0.0
  0
LINE
  5
D95
  8
CENTER
  6
CENTER
 10
570.5511128033811
 20
83.760844790406054
 30
0.0
 11
589.8381090747788
 21
83.760844790406054
 31
0.0
  0
LINE
  5
D96
  8
0
 10
616.06115021580524
 20
65.279942618802522
 30
0.0
 11
616.06115021580524
 21
67.279942618802522
 31
0.0
  0
LINE
  5
D97
  8
0
 10
618.06115021580524
 20
71.279942618802522
 30
0.0
 11
618.06115021580524
 21
65.279942618802522
 31
0.0
  0
LINE
  5
D98
  8
0
 10
614.06115021580524
 20
65.279942618802522
 30
0.0
 11
614.06115021580524
 21
71.279942618802522
 31
0.0
  0
LINE
  5
D99
  8
0
 10
620.06115021580524
 20
65.279942618802522
 30
0.0
 11
620.06115021580524
 21
71.279942618802522
 31
0.0
  0
LINE
  5
D9A
  8
0
 10
622.06115021580524
 20
65.279942618802522
 30
0.0
 11
624.04525383059206
 21
71.279942618802522
 31
0.0
  0
LINE
  5
D9B
  8
0
 10
624.06115021580524
 20
65.279942618802522
 30
0.0
 11
624.06115021580524
 21
67.279942618802522
 31
0.0
  0
LINE
  5
D9C
  8
0
 10
626.06115021580524
 20
71.279942618802522
 30
0.0
 11
626.06115021580524
 21
65.279942618802522
 31
0.0
  0
LINE
  5
D9D
  8
0
 10
626.06115021580524
 20
65.279942618802522
 30
0.0
 11
614.06115021580524
 21
65.279942618802522
 31
0.0
  0
TEXT
  5
D9E
  8
0
 10
623.37125989974425
 20
62.389646190938102
 30
0.0
 40
2.0
  1
P
  7
CHINESET
  0
LINE
  5
D9F
  8
0
 10
622.80160441560599
 20
66.404321370824022
 30
0.0
 11
622.06115021580524
 21
65.279942618802522
 31
0.0
  0
LINE
  5
DA0
  8
0
 10
622.06115021580524
 20
65.279942618802522
 30
0.0
 11
622.13699975723875
 21
66.624095455002447
 31
0.0
  0
SOLID
  5
DA1
  8
0
 10
622.80160441560599
 20
66.404321370824022
 30
0.0
 11
622.13699975723875
 21
66.624095455002475
 31
0.0
 12
622.06115021580524
 22
65.279942618802522
 32
0.0
 13
622.06115021580524
 23
65.279942618802522
 33
0.0
  0
LINE
  5
DA2
  8
0
 10
609.13497980833608
 20
83.995629442707695
 30
0.0
 11
614.28968034671527
 21
83.995629442707965
 31
0.0
  0
LINE
  5
DA3
  8
0
 10
609.13497980833608
 20
85.995629442707994
 30
0.0
 11
614.28968034671527
 21
85.995629442707951
 31
0.0
  0
LINE
  5
DA4
  8
0
 10
608.90644967742583
 20
69.279942618802551
 30
0.0
 11
614.06115021580524
 21
69.279942618802522
 31
0.0
  0
LINE
  5
DA5
  8
0
 10
608.90644967742583
 20
67.279942618802266
 30
0.0
 11
614.06115021580524
 21
67.279942618802522
 31
0.0
  0
ARC
  5
DA6
  8
0
 10
608.90644967742583
 20
68.279942618802409
 30
0.0
 40
1.5000000000001421
 50
90.0
 51
270.0
  0
LINE
  5
DA7
  8
0
 10
608.90644967742583
 20
66.779942618802266
 30
0.0
 11
608.90644967742583
 21
69.779942618802551
 31
0.0
  0
LINE
  5
DA8
  8
0
 10
609.13497980833608
 20
83.495629442707695
 30
0.0
 11
609.13497980833608
 21
86.495629442707965
 31
0.0
  0
ARC
  5
DA9
  8
0
 10
609.13497980833608
 20
84.995629442707823
 30
0.0
 40
1.5000000000001421
 50
90.0
 51
270.0
  0
LINE
  5
DAA
  8
0
 10
614.06115021580524
 20
71.279942618802522
 30
0.0
 11
626.06115021580524
 21
71.279942618802522
 31
0.0
  0
LINE
  5
DAB
  8
0
 10
616.76115021580506
 20
67.279942618802522
 30
0.0
 11
615.36115021580531
 21
67.279942618802522
 31
0.0
  0
LINE
  5
DAC
  8
0
 10
617.71115021580522
 20
69.979942618802511
 30
0.0
 11
618.06115021580524
 21
71.279942618802522
 31
0.0
  0
LINE
  5
DAD
  8
0
 10
618.06115021580524
 20
71.279942618802522
 30
0.0
 11
618.41115021580515
 21
69.979942618802511
 31
0.0
  0
SOLID
  5
DAE
  8
0
 10
617.71115021580522
 20
69.979942618802511
 30
0.0
 11
618.41115021580515
 21
69.979942618802511
 31
0.0
 12
618.06115021580524
 22
71.279942618802522
 32
0.0
 13
618.06115021580524
 23
71.279942618802522
 33
0.0
  0
LINE
  5
DAF
  8
0
 10
624.76115021580517
 20
67.279942618802522
 30
0.0
 11
623.36115021580531
 21
67.279942618802522
 31
0.0
  0
LINE
  5
DB0
  8
0
 10
626.56115021580524
 20
67.413917215018046
 30
0.0
 11
627.56115021580524
 21
69.145968022586942
 31
0.0
  0
LINE
  5
DB1
  8
0
 10
626.06115021580524
 20
68.279942618802522
 30
0.0
 11
626.56115021580524
 21
67.413917215018046
 31
0.0
  0
LINE
  5
DB2
  8
0
 10
614.28968034671527
 20
87.995629442707937
 30
0.0
 11
626.28968034671527
 21
87.995629442707937
 31
0.0
  0
LINE
  5
DB3
  8
0
 10
626.28968034671527
 20
81.995629442707951
 30
0.0
 11
614.28968034671527
 21
81.995629442707951
 31
0.0
  0
LINE
  5
DB4
  8
0
 10
617.30491574569714
 20
87.995629442707937
 30
0.0
 11
617.30491574569714
 21
81.995629442707951
 31
0.0
  0
LINE
  5
DB5
  8
0
 10
614.28968034671527
 20
81.995629442707951
 30
0.0
 11
614.28968034671527
 21
87.995629442707937
 31
0.0
  0
LINE
  5
DB6
  8
0
 10
617.30491574569714
 20
87.995629442707937
 30
0.0
 11
617.65491574569705
 21
86.695629442707926
 31
0.0
  0
SOLID
  5
DB7
  8
0
 10
616.95491574569724
 20
86.695629442707926
 30
0.0
 11
617.65491574569705
 21
86.695629442707926
 31
0.0
 12
617.30491574569714
 22
87.995629442707937
 32
0.0
 13
617.30491574569714
 23
87.995629442707937
 33
0.0
  0
LINE
  5
DB8
  8
0
 10
616.95491574569724
 20
86.695629442707926
 30
0.0
 11
617.30491574569714
 21
87.995629442707937
 31
0.0
  0
LINE
  5
DB9
  8
0
 10
620.28968034671539
 20
81.995629442707951
 30
0.0
 11
620.28968034671539
 21
87.995629442707937
 31
0.0
  0
LINE
  5
DBA
  8
0
 10
626.28968034671527
 20
87.995629442707937
 30
0.0
 11
626.28968034671527
 21
81.995629442707951
 31
0.0
  0
LINE
  5
DBB
  8
0
 10
622.96657338924115
 20
81.995629442707951
 30
0.0
 11
622.96657338924115
 21
83.995629442707965
 31
0.0
  0
TEXT
  5
DBC
  8
0
 10
622.27668307318004
 20
79.105333014843524
 30
0.0
 40
2.0
  1
P
  7
CHINESET
  0
LINE
  5
DBD
  8
0
 10
622.96657338924115
 20
85.995629442707951
 30
0.0
 11
622.96657338924115
 21
87.995629442707937
 31
0.0
  0
LINE
  5
DBE
  8
0
 10
622.26657338924099
 20
85.995629442707951
 30
0.0
 11
623.66657338924119
 21
85.995629442707951
 31
0.0
  0
LINE
  5
DBF
  8
0
 10
623.66657338924119
 20
83.995629442707965
 30
0.0
 11
622.26657338924099
 21
83.995629442707965
 31
0.0
  0
LINE
  5
DC0
  8
0
 10
626.28968034671527
 20
84.995629442707951
 30
0.0
 11
626.78968034671527
 21
84.129604038923503
 31
0.0
  0
LINE
  5
DC1
  8
0
 10
626.78968034671527
 20
84.129604038923503
 30
0.0
 11
627.78968034671539
 21
85.861654846492371
 31
0.0
  0
LINE
  5
DC2
  8
0
 10
628.56115021580524
 20
67.413917215018046
 30
0.0
 11
629.56115021580524
 21
69.145968022586942
 31
0.0
  0
LINE
  5
DC3
  8
0
 10
628.78968034671539
 20
84.129604038923503
 30
0.0
 11
629.78968034671527
 21
85.861654846492371
 31
0.0
  0
ENDSEC
  0
EOF
