  0
SECTION
  2
HEADER
  9
$ACADVER
  1
AC1009
  9
$INSBASE
 10
0.0
 20
0.0
 30
0.0
  9
$EXTMIN
 10
539.65074697860484
 20
-12.72818452132344
 30
-0.0000000000000097
  9
$EXTMAX
 10
635.8454344359991
 20
116.13234682808761
 30
0.0000000000000055
  9
$LIMMIN
 10
0.0
 20
0.0
  9
$LIMMAX
 10
396.0
 20
273.0
  9
$ORTHOMODE
 70
     1
  9
$REGENMODE
 70
     1
  9
$FILLMODE
 70
     1
  9
$QTEXTMODE
 70
     0
  9
$MIRRTEXT
 70
     1
  9
$DRAGMODE
 70
     2
  9
$LTSCALE
 40
6.0
  9
$OSMODE
 70
    39
  9
$ATTMODE
 70
     1
  9
$TEXTSIZE
 40
6.0
  9
$TRACEWID
 40
0.05
  9
$TEXTSTYLE
  7
CHINESET
  9
$CLAYER
  8
0
  9
$CELTYPE
  6
BYLAYER
  9
$CECOLOR
 62
   256
  9
$DIMSCALE
 40
1.0
  9
$DIMASZ
 40
3.0
  9
$DIMEXO
 40
2.0
  9
$DIMDLI
 40
8.0
  9
$DIMRND
 40
0.0
  9
$DIMDLE
 40
0.0
  9
$DIMEXE
 40
2.0
  9
$DIMTP
 40
0.0
  9
$DIMTM
 40
0.0
  9
$DIMTXT
 40
3.0
  9
$DIMCEN
 40
-3.0
  9
$DIMTSZ
 40
0.0
  9
$DIMTOL
 70
     0
  9
$DIMLIM
 70
     0
  9
$DIMTIH
 70
     0
  9
$DIMTOH
 70
     0
  9
$DIMSE1
 70
     0
  9
$DIMSE2
 70
     0
  9
$DIMTAD
 70
     1
  9
$DIMZIN
 70
     8
  9
$DIMBLK
  1

  9
$DIMASO
 70
     1
  9
$DIMSHO
 70
     1
  9
$DIMPOST
  1

  9
$DIMAPOST
  1

  9
$DIMALT
 70
     0
  9
$DIMALTD
 70
     2
  9
$DIMALTF
 40
25.399999999999999
  9
$DIMLFAC
 40
1.0
  9
$DIMTOFL
 70
     0
  9
$DIMTVP
 40
0.0
  9
$DIMTIX
 70
     0
  9
$DIMSOXD
 70
     0
  9
$DIMSAH
 70
     0
  9
$DIMBLK1
  1

  9
$DIMBLK2
  1

  9
$DIMSTYLE
  2
STANDARD
  9
$DIMCLRD
 70
   256
  9
$DIMCLRE
 70
   256
  9
$DIMCLRT
 70
   256
  9
$DIMTFAC
 40
0.5
  9
$DIMGAP
 40
1.0
  9
$LUNITS
 70
     2
  9
$LUPREC
 70
     2
  9
$SKETCHINC
 40
0.1
  9
$FILLETRAD
 40
8.0
  9
$AUNITS
 70
     0
  9
$AUPREC
 70
     0
  9
$MENU
  1
ACAD
  9
$ELEVATION
 40
0.0
  9
$PELEVATION
 40
0.0
  9
$THICKNESS
 40
0.0
  9
$LIMCHECK
 70
     0
  9
$BLIPMODE
 70
     0
  9
$CHAMFERA
 40
2.0
  9
$CHAMFERB
 40
2.0
  9
$SKPOLY
 70
     0
  9
$TDCREATE
 40
2450436.7992719901
  9
$TDUPDATE
 40
2451946.6998907519
  9
$TDINDWG
 40
9.2947945486000005
  9
$TDUSRTIMER
 40
9.2947945486000005
  9
$USRTIMER
 70
     1
  9
$ANGBASE
 50
0.0
  9
$ANGDIR
 70
     0
  9
$PDMODE
 70
    65
  9
$PDSIZE
 40
8.3000000000000007
  9
$PLINEWID
 40
0.0
  9
$COORDS
 70
     2
  9
$SPLFRAME
 70
     0
  9
$SPLINETYPE
 70
     6
  9
$SPLINESEGS
 70
     8
  9
$ATTDIA
 70
     0
  9
$ATTREQ
 70
     1
  9
$HANDLING
 70
 12289
  9
$HANDSEED
  5
C1C
  9
$SURFTAB1
 70
     6
  9
$SURFTAB2
 70
     6
  9
$SURFTYPE
 70
     6
  9
$SURFU
 70
     6
  9
$SURFV
 70
     6
  9
$UCSNAME
  2

  9
$UCSORG
 10
0.0
 20
0.0
 30
0.0
  9
$UCSXDIR
 10
1.0
 20
0.0
 30
0.0
  9
$UCSYDIR
 10
0.0
 20
1.0
 30
0.0
  9
$PUCSNAME
  2

  9
$PUCSORG
 10
0.0
 20
0.0
 30
0.0
  9
$PUCSXDIR
 10
1.0
 20
0.0
 30
0.0
  9
$PUCSYDIR
 10
0.0
 20
1.0
 30
0.0
  9
$USERI1
 70
     0
  9
$USERI2
 70
     0
  9
$USERI3
 70
     0
  9
$USERI4
 70
     0
  9
$USERI5
 70
     0
  9
$USERR1
 40
0.0
  9
$USERR2
 40
0.0
  9
$USERR3
 40
0.0
  9
$USERR4
 40
0.0
  9
$USERR5
 40
0.0
  9
$WORLDVIEW
 70
     1
  9
$SHADEDGE
 70
     3
  9
$SHADEDIF
 70
    70
  9
$TILEMODE
 70
     1
  9
$MAXACTVP
 70
    16
  9
$PLIMCHECK
 70
     0
  9
$PEXTMIN
 10
1.0000000000000000E+020
 20
1.0000000000000000E+020
 30
1.0000000000000000E+020
  9
$PEXTMAX
 10
-1.0000000000000000E+020
 20
-1.0000000000000000E+020
 30
-1.0000000000000000E+020
  9
$PLIMMIN
 10
0.0
 20
0.0
  9
$PLIMMAX
 10
12.0
 20
9.0
  9
$UNITMODE
 70
     0
  9
$VISRETAIN
 70
     0
  9
$PLINEGEN
 70
     0
  9
$PSLTSCALE
 70
     0
  0
ENDSEC
  0
SECTION
  2
TABLES
  0
TABLE
  2
VPORT
 70
     3
  0
VPORT
  2
*ACTIVE
 70
     0
 10
0.0
 20
0.0
 11
1.0
 21
1.0
 12
587.74809070730203
 22
51.702081153382082
 13
0.0
 23
0.0
 14
1.0
 24
1.0
 15
0.0
 25
0.0
 16
0.0
 26
0.0
 36
1.0
 17
0.0
 27
0.0
 37
0.0
 40
130.28178720988251
 41
1.7274401473296499
 42
50.0
 43
0.0
 44
0.0
 50
0.0
 51
0.0
 71
     0
 72
   100
 73
     1
 74
     1
 75
     0
 76
     0
 77
     0
 78
     0
  0
ENDTAB
  0
TABLE
  2
LTYPE
 70
     3
  0
LTYPE
  2
CONTINUOUS
 70
     0
  3
Solid line
 72
    65
 73
     0
 40
0.0
  0
LTYPE
  2
HIDDEN
 70
     0
  3
__ __ __ __ __ __ __ __ __ __ __ __ __ __ __ __
 72
    65
 73
     2
 40
0.375
 49
0.25
 49
-0.125
  0
LTYPE
  2
CENTER
 70
     0
  3
____ _ ____ _ ____ _ ____ _ ____ _ ____ _ ____ 
 72
    65
 73
     4
 40
2.0
 49
1.25
 49
-0.25
 49
0.25
 49
-0.25
  0
ENDTAB
  0
TABLE
  2
LAYER
 70
     7
  0
LAYER
  2
0
 70
     0
 62
     7
  6
CONTINUOUS
  0
LAYER
  2
LOGO
 70
     0
 62
     7
  6
CONTINUOUS
  0
LAYER
  2
CENTER
 70
     0
 62
     1
  6
CENTER
  0
LAYER
  2
HIDDEN
 70
     0
 62
     6
  6
HIDDEN
  0
LAYER
  2
DIM
 70
     0
 62
     5
  6
CONTINUOUS
  0
LAYER
  2
DEFPOINTS
 70
     0
 62
     7
  6
CONTINUOUS
  0
ENDTAB
  0
TABLE
  2
STYLE
 70
     5
  0
STYLE
  2
STANDARD
 70
     0
 40
0.0
 41
1.0
 50
0.0
 71
     0
 42
0.2
  3
txt
  4

  0
STYLE
  2
CHINESET
 70
     0
 40
0.0
 41
1.0
 50
0.0
 71
     0
 42
6.0
  3
C:\r13\com\fonts\simplex.shx
  4
C:\r13\com\fonts\chineset.shx
  0
STYLE
  2
LOGO
 70
     0
 40
0.0
 41
1.0
 50
0.0
 71
     0
 42
5.0
  3
txt
  4

  0
STYLE
  2
ITALICT
 70
     0
 40
0.0
 41
1.0
 50
0.0
 71
     0
 42
3.0
  3
italict.shx
  4
chineset.shx
  0
ENDTAB
  0
TABLE
  2
VIEW
 70
     0
  0
ENDTAB
  0
TABLE
  2
UCS
 70
     0
  0
ENDTAB
  0
TABLE
  2
APPID
 70
     2
  0
APPID
  2
ACAD
 70
     0
  0
APPID
  2
TCAD
 70
     0
  0
ENDTAB
  0
TABLE
  2
DIMSTYLE
 70
     2
  0
DIMSTYLE
  2
STANDARD
 70
     0
  3

  4

  5

  6

  7

 40
1.0
 41
3.0
 42
2.0
 43
8.0
 44
2.0
 45
0.0
 46
0.0
 47
0.0
 48
0.0
140
3.0
141
-3.0
142
0.0
143
25.399999999999999
144
1.0
145
0.0
146
0.5
147
1.0
 71
     0
 72
     0
 73
     0
 74
     0
 75
     0
 76
     0
 77
     1
 78
     8
170
     0
171
     2
172
     0
173
     0
174
     0
175
     0
176
   256
177
   256
178
   256
  0
ENDTAB
  0
ENDSEC
  0
SECTION
  2
BLOCKS
  0
BLOCK
  8
0
  2
$MODEL_SPACE
 70
     0
 10
0.0
 20
0.0
 30
0.0
  3
$MODEL_SPACE
  1

  0
ENDBLK
  5
6
  8
0
  0
BLOCK
 67
     1
  8
0
  2
$PAPER_SPACE
 70
     0
 10
0.0
 20
0.0
 30
0.0
  3
$PAPER_SPACE
  1

  0
ENDBLK
  5
9
 67
     1
  8
0
  0
BLOCK
  8
0
  2
*D7
 70
     1
 10
0.0
 20
0.0
 30
0.0
  3
*D7
  1

  0
LINE
  5
B50
  8
DIM
 10
595.35124302599786
 20
62.84157595330808
 30
0.0
 11
623.60446074734853
 21
62.84157595330808
 31
0.0
  0
LINE
  5
B51
  8
DIM
 10
588.66969040337472
 20
18.30769153076718
 30
0.0
 11
623.60446074734853
 21
18.307691530767169
 31
0.0
  0
LINE
  5
B52
  8
DIM
 10
621.60446074734841
 20
59.84157595330808
 30
0.0
 11
621.60446074734841
 21
21.307691530767169
 31
0.0
  0
SOLID
  5
B53
  8
DIM
 10
621.10446074734853
 20
59.84157595330808
 30
0.0
 11
622.10446074734853
 21
59.84157595330808
 31
0.0
 12
621.60446074734841
 22
62.84157595330808
 32
0.0
 13
621.60446074734841
 23
62.84157595330808
 33
0.0
  0
SOLID
  5
B54
  8
DIM
 10
621.10446074734853
 20
21.307691530767169
 30
0.0
 11
622.10446074734853
 21
21.307691530767169
 31
0.0
 12
621.60446074734841
 22
18.307691530767169
 32
0.0
 13
621.60446074734841
 23
18.307691530767169
 33
0.0
  0
TEXT
  5
B55
  8
0
 10
620.60446074734853
 20
38.146062313466288
 30
0.0
 40
3.0
  1
45
 50
90.0
  7
CHINESET
  0
POINT
  5
B56
  8
DEFPOINTS
 62
     0
 10
593.35124302599786
 20
62.84157595330808
 30
0.0
  0
POINT
  5
B57
  8
DEFPOINTS
 62
     0
 10
586.66969040337472
 20
18.30769153076718
 30
0.0
  0
POINT
  5
B58
  8
DEFPOINTS
 62
     0
 10
621.60446074734841
 20
18.307691530767169
 30
0.0
  0
ENDBLK
  5
93C
  8
0
  0
BLOCK
  8
0
  2
*D8
 70
     1
 10
0.0
 20
0.0
 30
0.0
  3
*D8
  1

  0
LINE
  5
B47
  8
DIM
 10
595.35124302599786
 20
62.84157595330808
 30
0.0
 11
613.36242486503056
 21
62.84157595330808
 31
0.0
  0
LINE
  5
B48
  8
DIM
 10
591.72917777592829
 20
43.30769153076713
 30
0.0
 11
613.36242486503056
 21
43.307691530767123
 31
0.0
  0
LINE
  5
B49
  8
DIM
 10
611.36242486503068
 20
59.84157595330808
 30
0.0
 11
611.36242486503068
 21
46.307691530767123
 31
0.0
  0
SOLID
  5
B4A
  8
DIM
 10
610.86242486503068
 20
59.84157595330808
 30
0.0
 11
611.86242486503068
 21
59.84157595330808
 31
0.0
 12
611.36242486503068
 22
62.84157595330808
 32
0.0
 13
611.36242486503068
 23
62.84157595330808
 33
0.0
  0
SOLID
  5
B4B
  8
DIM
 10
610.86242486503068
 20
46.307691530767123
 30
0.0
 11
611.86242486503068
 21
46.307691530767123
 31
0.0
 12
611.36242486503068
 22
43.307691530767123
 32
0.0
 13
611.36242486503068
 23
43.307691530767123
 33
0.0
  0
TEXT
  5
B4C
  8
0
 10
610.36242486503056
 20
48.788919456323413
 30
0.0
 40
3.0
  1
19.5
 50
90.0
  7
CHINESET
  0
POINT
  5
B4D
  8
DEFPOINTS
 62
     0
 10
593.35124302599786
 20
62.84157595330808
 30
0.0
  0
POINT
  5
B4E
  8
DEFPOINTS
 62
     0
 10
589.72917777592818
 20
43.30769153076713
 30
0.0
  0
POINT
  5
B4F
  8
DEFPOINTS
 62
     0
 10
611.36242486503068
 20
43.307691530767123
 30
0.0
  0
ENDBLK
  5
948
  8
0
  0
BLOCK
  8
0
  2
*D9
 70
     1
 10
0.0
 20
0.0
 30
0.0
  3
*D9
  1

  0
LINE
  5
BF0
  8
DIM
 10
596.16343881837656
 20
63.818020391953652
 30
0.0
 11
597.53170680420965
 21
65.448658679702092
 31
0.0
  0
LINE
  5
BF1
  8
DIM
 10
569.17921496373583
 20
63.955908391714999
 30
0.0
 11
567.92664874764625
 21
65.44865867970168
 31
0.0
  0
ARC
  5
BF2
  8
DIM
 10
582.72917777592829
 20
47.80769153076713
 30
0.0
 40
21.02864710709073
 50
58.180908508877671
 51
121.8190914911238
  0
SOLID
  5
BF3
  8
DIM
 10
594.1095534270446
 20
66.081063677873559
 30
0.0
 11
593.52304612171145
 21
65.271119741054008
 31
0.0
 12
596.24613158483669
 22
63.916569793464113
 32
0.0
 13
596.24613158483669
 23
63.916569793464113
 33
0.0
  0
SOLID
  5
BF4
  8
DIM
 10
571.93530943014457
 20
65.271119741053724
 30
0.0
 11
571.34880212481141
 21
66.08106367787326
 31
0.0
 12
569.21222396701944
 22
63.916569793463751
 32
0.0
 13
569.21222396701944
 23
63.916569793463751
 33
0.0
  0
TEXT
  8
0
  40
3
  5
C0C
  72
0
  71
0
 10
576.729
 20
66.0263
 30
0.000000
  1
80°
  7
CHINESET
  0
POINT
  5
BF6
  8
DEFPOINTS
 62
     0
 10
587.57871753906522
 20
68.269508733555085
 30
0.0
  0
POINT
  5
BF7
  8
DEFPOINTS
 62
     0
 10
594.87786359900338
 20
62.285931505715659
 30
0.0
  0
POINT
  5
BF8
  8
DEFPOINTS
 62
     0
 10
570.4647901831089
 20
62.42381950547707
 30
0.0
  0
POINT
  5
BF9
  8
DEFPOINTS
 62
     0
 10
582.72917777592829
 20
47.80769153076713
 30
0.0
  0
POINT
  5
BFA
  8
DEFPOINTS
 62
     0
 10
582.72917777592829
 20
47.80769153076713
 30
0.0
  0
ENDBLK
  5
956
  8
0
  0
BLOCK
  8
0
  2
*D10
 70
     1
 10
0.0
 20
0.0
 30
0.0
  3
*D10
  1

  0
LINE
  5
B33
  8
DIM
 10
588.66969040337472
 20
18.30769153076718
 30
0.0
 11
613.36242486503056
 21
18.30769153076718
 31
0.0
  0
LINE
  5
B34
  8
DIM
 10
591.72917777592829
 20
33.807691530767123
 30
0.0
 11
613.36242486503056
 21
33.807691530767123
 31
0.0
  0
LINE
  5
B35
  8
DIM
 10
611.36242486503068
 20
21.30769153076718
 30
0.0
 11
611.36242486503068
 21
30.807691530767119
 31
0.0
  0
SOLID
  5
B36
  8
DIM
 10
610.86242486503068
 20
21.30769153076718
 30
0.0
 11
611.86242486503068
 21
21.30769153076718
 31
0.0
 12
611.36242486503068
 22
18.30769153076718
 32
0.0
 13
611.36242486503068
 23
18.30769153076718
 33
0.0
  0
SOLID
  5
B37
  8
DIM
 10
610.86242486503068
 20
30.807691530767119
 30
0.0
 11
611.86242486503068
 21
30.807691530767119
 31
0.0
 12
611.36242486503068
 22
33.807691530767123
 32
0.0
 13
611.36242486503068
 23
33.807691530767123
 33
0.0
  0
TEXT
  5
B38
  8
0
 10
610.36242486503056
 20
21.771977245052959
 30
0.0
 40
3.0
  1
15.5
 50
90.0
  7
CHINESET
  0
POINT
  5
B39
  8
DEFPOINTS
 62
     0
 10
586.66969040337472
 20
18.30769153076718
 30
0.0
  0
POINT
  5
B3A
  8
DEFPOINTS
 62
     0
 10
589.72917777592818
 20
33.807691530767123
 30
0.0
  0
POINT
  5
B3B
  8
DEFPOINTS
 62
     0
 10
611.36242486503068
 20
33.807691530767123
 30
0.0
  0
ENDBLK
  5
962
  8
0
  0
BLOCK
  8
0
  2
*D11
 70
     1
 10
0.0
 20
0.0
 30
0.0
  3
*D11
  1

  0
LINE
  5
B2A
  8
DIM
 10
589.72917777592818
 20
87.355279521556113
 30
0.0
 11
589.72917777592818
 21
76.085162742359927
 31
0.0
  0
LINE
  5
B2B
  8
DIM
 10
575.72917777592829
 20
87.355279521556156
 30
0.0
 11
575.72917777592829
 21
76.085162742359927
 31
0.0
  0
LINE
  5
B2C
  8
DIM
 10
586.72917777592829
 20
78.085162742359927
 30
0.0
 11
578.72917777592829
 21
78.085162742359927
 31
0.0
  0
SOLID
  5
B2D
  8
DIM
 10
586.72917777592829
 20
78.585162742359927
 30
0.0
 11
586.72917777592829
 21
77.585162742359927
 31
0.0
 12
589.72917777592818
 22
78.085162742359927
 32
0.0
 13
589.72917777592818
 23
78.085162742359927
 33
0.0
  0
SOLID
  5
B2E
  8
DIM
 10
578.72917777592829
 20
78.585162742359927
 30
0.0
 11
578.72917777592829
 21
77.585162742359927
 31
0.0
 12
575.72917777592829
 22
78.085162742359927
 32
0.0
 13
575.72917777592829
 23
78.085162742359927
 33
0.0
  0
TEXT
  5
B2F
  8
0
 10
580.51489206164263
 20
79.085162742359927
 30
0.0
 40
3.0
  1
14
  7
CHINESET
  0
POINT
  5
B30
  8
DEFPOINTS
 62
     0
 10
589.72917777592818
 20
89.355279521556128
 30
0.0
  0
POINT
  5
B31
  8
DEFPOINTS
 62
     0
 10
575.72917777592829
 20
89.355279521556156
 30
0.0
  0
POINT
  5
B32
  8
DEFPOINTS
 62
     0
 10
575.72917777592829
 20
78.085162742359927
 30
0.0
  0
ENDBLK
  5
96E
  8
0
  0
BLOCK
  8
0
  2
*D12
 70
     1
 10
0.0
 20
0.0
 30
0.0
  3
*D12
  1

  0
LINE
  5
B21
  8
DIM
 10
584.72917777592818
 20
85.313827637228769
 30
0.0
 11
603.10916903505915
 21
85.313827637228769
 31
0.0
  0
LINE
  5
B22
  8
DIM
 10
584.72917777592818
 20
101.4796351745382
 30
0.0
 11
603.10916903505915
 21
101.4796351745382
 31
0.0
  0
LINE
  5
B23
  8
DIM
 10
601.10916903505927
 20
88.313827637228755
 30
0.0
 11
601.10916903505927
 21
98.479635174538288
 31
0.0
  0
INSERT
  5
B24
  8
0
  2
*U13
 10
0.0
 20
0.0
 30
0.0
  0
SOLID
  5
B25
  8
DIM
 10
600.60916903505927
 20
88.313827637228755
 30
0.0
 11
601.60916903505915
 21
88.313827637228755
 31
0.0
 12
601.10916903505927
 22
85.313827637228769
 32
0.0
 13
601.10916903505927
 23
85.313827637228769
 33
0.0
  0
SOLID
  5
B26
  8
DIM
 10
600.60916903505927
 20
98.479635174538288
 30
0.0
 11
601.60916903505915
 21
98.479635174538288
 31
0.0
 12
601.10916903505927
 22
101.4796351745382
 32
0.0
 13
601.10916903505927
 23
101.4796351745382
 33
0.0
  0
POINT
  5
B27
  8
DEFPOINTS
 62
     0
 10
582.72917777592829
 20
85.313827637228769
 30
0.0
  0
POINT
  5
B28
  8
DEFPOINTS
 62
     0
 10
582.72917777592829
 20
101.4796351745382
 30
0.0
  0
POINT
  5
B29
  8
DEFPOINTS
 62
     0
 10
601.10916903505927
 20
101.4796351745382
 30
0.0
  0
ENDBLK
  5
97B
  8
0
  0
BLOCK
  8
0
  2
*U13
 70
     1
 10
0.0
 20
0.0
 30
0.0
  3
*U13
  1

  0
TEXT
  5
C07
  8
0
 10
598.10916903505915
 20
87.968159977312084
 30
0.0
 40
3.0
  1
(
 50
90.0
  7
CHINESET
  0
TEXT
  5
C08
  8
0
 10
598.10916903505915
 20
89.968159977312084
 30
0.0
 40
3.0
  1
\U+2205
 50
90.0
  7
CHINESET
  0
TEXT
  5
C09
  8
0
 10
598.10916903505915
 20
92.682445691597792
 30
0.0
 40
3.0
  1
16)
 50
90.0
  7
CHINESET
  0
ENDBLK
  5
C0B
  8
0
  0
ENDSEC
  0
SECTION
  2
ENTITIES
  0
TEXT
  5
287
  8
LOGO
 62
     6
 10
564.95817118670016
 20
-5.9506821028118591
 30
0.0
 40
1.5019344855688279
  1
m/m
  7
CHINESET
 72
     1
 11
567.60443670889288
 21
-5.1997148600274441
 31
0.0
 73
     2
  0
TEXT
  5
288
  8
LOGO
 62
     6
 10
564.95817118670016
 20
0.0570558394634535
 30
0.0
 40
1.5019344855688279
  1
1 : 1
  7
CHINESET
 72
     1
 11
567.60443670889288
 21
0.8080230822478675
 31
0.0
 73
     2
  0
TEXT
  5
289
  8
LOGO
 62
     6
 10
552.59981884855517
 20
-5.9506821028118591
 30
0.0
 40
1.5019344855688279
  1
單位 Unit:
 41
0.9
  7
CHINESET
 72
     4
 11
556.69728386699774
 21
-5.1997148600274441
 31
0.0
  0
TEXT
  5
28A
  8
LOGO
 62
     6
 10
551.92797136884985
 20
0.0577949804504459
 30
0.0
 40
1.5019344855688279
  1
比例 Scale:
 41
0.9
  7
CHINESET
 72
     4
 11
556.69728386699774
 21
0.8080230822478675
 31
0.0
  0
LINE
  5
28B
  8
LOGO
 62
     1
 10
635.79916677362269
 20
-12.70938728787158
 30
0.0
 11
635.79916677362269
 21
2.3099575678166948
 31
0.0
  0
LINE
  5
28C
  8
LOGO
 62
     1
 10
562.70502180927303
 20
-6.7016493455962731
 30
0.0
 11
562.70502180927303
 21
2.3099575678166948
 31
0.0
  0
LINE
  5
28D
  8
LOGO
 62
     1
 10
572.71791837973194
 20
-0.6939114033209606
 30
0.0
 11
550.68954592472244
 21
-0.6939114033209606
 31
0.0
  0
LINE
  5
28E
  8
LOGO
 62
     1
 10
572.71791837973194
 20
-3.697780374458616
 30
0.0
 11
550.68954592472244
 21
-3.697780374458616
 31
0.0
  0
LINE
  5
28F
  8
LOGO
 62
     1
 10
539.67535969721757
 20
-12.70938728787158
 30
0.0
 11
539.67535969721757
 21
2.3099575678166948
 31
0.0
  0
LINE
  5
290
  8
LOGO
 62
     1
 10
572.71791837973194
 20
-6.7016493455962554
 30
0.0
 11
539.67535969721757
 21
-6.7016493455962554
 31
0.0
  0
TEXT
  5
291
  8
LOGO
 62
     6
 10
552.45297793233215
 20
-2.9256860184626658
 30
0.0
 40
1.5019344855688279
  1
投影 View:
 41
0.9
  7
CHINESET
 72
     4
 11
556.69728386699774
 21
-2.1958458888897878
 31
0.0
  0
CIRCLE
  5
292
  8
LOGO
  6
CONTINUOUS
 62
     6
 10
565.48604136829954
 20
-2.1926332400342821
 30
0.0
 40
0.8720585138739975
  0
CIRCLE
  5
293
  8
LOGO
  6
CONTINUOUS
 62
     6
 10
565.48604136829954
 20
-2.1926332400342821
 30
0.0
 40
0.5109490901577429
  0
LINE
  5
294
  8
LOGO
  6
CONTINUOUS
 62
     6
 10
568.23230487642695
 20
-1.681684149876536
 30
0.0
 11
570.96615825887454
 21
-1.320574726160282
 31
0.0
  0
LINE
  5
295
  8
LOGO
  6
CONTINUOUS
 62
     6
 10
568.23230487642695
 20
-2.7035823301920199
 30
0.0
 11
570.96615825887454
 21
-3.064691753908277
 31
0.0
  0
LINE
  5
296
  8
LOGO
 62
     6
 10
568.23230487642695
 20
-2.703582330192023
 30
0.0
 11
568.23230487642695
 21
-1.681684149876532
 31
0.0
  0
LINE
  5
297
  8
LOGO
 62
     6
 10
570.96615825887454
 20
-3.064691753908277
 30
0.0
 11
570.96615825887454
 21
-1.320574726160282
 31
0.0
  0
TEXT
  5
29C
  8
LOGO
 62
     6
 10
597.38151926455043
 20
-8.6529815512565627
 30
0.0
 40
2.0025793140917711
  1
型式
  7
CHINESET
 72
     4
 11
599.38409857864224
 21
-7.7029390026421591
 31
0.0
  0
TEXT
  5
29D
  8
LOGO
 62
     7
 10
573.58804588406326
 20
-4.269761837468641
 30
0.0
 40
2.0025793140917711
  1
Order example:
 41
0.8
  7
CHINESET
  0
LINE
  5
29F
  8
LOGO
 62
     6
 10
633.0129518915262
 20
-5.9506821028118457
 30
0.0
 11
633.0129518915262
 21
-11.457775216564199
 31
0.0
  0
LINE
  5
2A0
  8
LOGO
 62
     6
 10
619.96071067299874
 20
-5.9506821028118457
 30
0.0
 11
619.96071067299874
 21
-11.45777521656421
 31
0.0
  0
LINE
  5
2A1
  8
LOGO
 62
     6
 10
633.0129518915262
 20
-11.45777521656421
 30
0.0
 11
619.96071067299874
 21
-11.457775216564221
 31
0.0
  0
LINE
  5
2A3
  8
LOGO
 62
     6
 10
633.0129518915262
 20
-5.9506821028118457
 30
0.0
 11
619.96071067299874
 21
-5.9506821028118457
 31
0.0
  0
LINE
  5
2A4
  8
LOGO
 62
     6
 10
625.50070014959033
 20
-3.6977803744586022
 30
0.0
 11
618.45877618742998
 21
-3.6977803744586022
 31
0.0
  0
LINE
  5
2A5
  8
LOGO
 62
     6
 10
621.97973816851015
 20
-3.6977803744586022
 30
0.0
 11
621.97973816851015
 21
-5.9506821028118457
 31
0.0
  0
TEXT
  5
2A6
  8
LOGO
 62
     6
 10
622.50382251231326
 20
-8.7042286596880292
 30
0.0
 40
2.0025793140917711
  1
搖桿型
  7
CHINESET
 72
     4
 11
625.48683128226253
 21
-7.702939002642144
 31
0.0
  0
LINE
  5
2A7
  8
LOGO
 62
     6
 10
599.38409857864224
 20
-3.697780374458616
 30
0.0
 11
599.38409857864224
 21
-5.9506821028118599
 31
0.0
  0
LINE
  5
2A8
  8
LOGO
 62
     6
 10
594.37765029341267
 20
-5.9506821028118599
 30
0.0
 11
594.37765029341267
 21
-11.45777521656424
 31
0.0
  0
TEXT
  5
2A9
  8
LOGO
 62
     7
 10
573.94732517366845
 20
-1.4505448025651879
 30
0.0
 40
3.0038689711376558
  1
訂購代號:
  7
CHINESET
  0
LINE
  5
2AB
  8
LOGO
 62
     6
 10
625.50070014959033
 20
0.8080230822479094
 30
0.0
 11
618.45877618742998
 21
0.8080230822478816
 31
0.0
  0
LINE
  5
2AC
  8
LOGO
 62
     6
 10
593.37636063636694
 20
0.8080230822478675
 30
0.0
 11
593.37636063636694
 21
-3.697780374458616
 31
0.0
  0
LINE
  5
2AD
  8
LOGO
 62
     6
 10
618.45877618742998
 20
0.8080230822478816
 30
0.0
 11
618.45877618742998
 21
-3.6977803744586022
 31
0.0
  0
LINE
  5
2AE
  8
LOGO
 62
     6
 10
625.50070014959033
 20
0.8080230822479094
 30
0.0
 11
625.50070014959033
 21
-3.6977803744586022
 31
0.0
  0
TEXT
  5
2B1
  8
LOGO
  6
CONTINUOUS
 62
     6
 10
621.61279391869209
 20
-10.62336716902597
 30
0.0
 40
1.251612071307356
  1
V toggle
  7
CHINESET
 72
     4
 11
625.48683128226253
 21
-10.20616314525685
 31
0.0
  0
TEXT
  5
2B2
  8
LOGO
  6
CONTINUOUS
 62
     6
 10
597.00007558567575
 20
-10.83196918091055
 30
0.0
 40
1.251612071307356
  1
Model
  7
CHINESET
 72
     4
 11
599.38409857864224
 21
-10.20616314525687
 31
0.0
  0
TEXT
  5
2B4
  8
LOGO
  6
CONTINUOUS
 62
     7
 10
621.02612897132337
 20
-2.7248774369250768
 30
0.0
 40
2.5032241426147128
  1
V
  7
CHINESET
 72
     1
 11
621.97973816851004
 21
-1.4732653656177199
 31
0.0
 73
     2
  0
TEXT
  5
2B5
  8
LOGO
  6
CONTINUOUS
 62
     7
 10
594.49685144306113
 20
-2.6964907174127308
 30
0.0
 40
2.5032241426147128
  1
MVHA
  7
CHINESET
 72
     1
 11
599.38409857864224
 21
-1.444878646105374
 31
0.0
 73
     2
  0
LINE
  5
2B6
  8
LOGO
 62
     1
 10
572.71791837973194
 20
-12.70938728787158
 30
0.0
 11
572.71791837973194
 21
2.3099575678166948
 31
0.0
  0
LINE
  5
2B7
  8
LOGO
 62
     1
 10
635.79916677362269
 20
2.3099575678166948
 30
0.0
 11
539.67535969721757
 21
2.3099575678166948
 31
0.0
  0
LINE
  5
2B8
  8
LOGO
 62
     1
 10
635.79916677362269
 20
-12.70938728787158
 30
0.0
 11
539.67535969721757
 21
-12.70938728787158
 31
0.0
  0
LINE
  5
2B9
  8
LOGO
 62
     6
 10
605.39183652091754
 20
0.8080230822478675
 30
0.0
 11
605.39183652091754
 21
-3.697780374458616
 31
0.0
  0
LINE
  5
2BA
  8
LOGO
 62
     6
 10
604.39054686387158
 20
-5.9506821028118599
 30
0.0
 11
604.39054686387158
 21
-11.457775216564221
 31
0.0
  0
LINE
  5
2BB
  8
LOGO
 62
     6
 10
605.39183652091754
 20
0.8080230822478675
 30
0.0
 11
593.37636063636694
 21
0.8080230822478675
 31
0.0
  0
LINE
  5
2BC
  8
LOGO
 62
     6
 10
605.39183652091754
 20
-3.697780374458616
 30
0.0
 11
593.37636063636694
 21
-3.697780374458616
 31
0.0
  0
LINE
  5
2BD
  8
LOGO
 62
     6
 10
604.39054686387158
 20
-5.9506821028118599
 30
0.0
 11
594.37765029341267
 21
-5.9506821028118599
 31
0.0
  0
LINE
  5
2BE
  8
LOGO
 62
     6
 10
604.39054686387158
 20
-11.457775216564229
 30
0.0
 11
594.37765029341267
 21
-11.45777521656424
 31
0.0
  0
TEXT
  5
2BF
  8
LOGO
  6
CONTINUOUS
 62
     7
 10
610.11638707588429
 20
-2.6964907174127242
 30
0.0
 40
2.5032241426147128
  1
2/3
  7
CHINESET
 72
     1
 11
613.45401926603722
 21
-1.4448786461053671
 31
0.0
 73
     2
  0
LINE
  5
2C0
  8
LOGO
 62
     6
 10
617.97111227597975
 20
0.8080230822478957
 30
0.0
 11
608.93692625609458
 21
0.8080230822478675
 31
0.0
  0
LINE
  5
2C1
  8
LOGO
 62
     6
 10
619.47304676154863
 20
-5.9506821028118599
 30
0.0
 11
607.43499177052593
 21
-5.9506821028118599
 31
0.0
  0
LINE
  5
2C2
  8
LOGO
 62
     6
 10
617.97111227597975
 20
-3.697780374458616
 30
0.0
 11
608.93692625609458
 21
-3.697780374458616
 31
0.0
  0
TEXT
  5
2C3
  8
LOGO
 62
     6
 10
608.26966326495779
 20
-8.5611872801100741
 30
0.0
 40
2.0025793140917711
  1
2/3 方向
 41
0.9
  7
CHINESET
 72
     4
 11
613.45401926603734
 21
-7.7029390026421733
 31
0.0
  0
LINE
  5
2C4
  8
LOGO
 62
     6
 10
619.47304676154863
 20
-11.457775216564221
 30
0.0
 11
607.43499177052593
 21
-11.45777521656424
 31
0.0
  0
TEXT
  5
2C5
  8
LOGO
  6
CONTINUOUS
 62
     6
 10
610.18790776567334
 20
-10.742568318674319
 30
0.0
 40
1.251612071307356
  1
2/3 Way
 41
0.8
  7
CHINESET
 72
     4
 11
613.45401926603734
 21
-10.20616314525688
 31
0.0
  0
LINE
  5
2C6
  8
LOGO
 62
     6
 10
608.93692625609458
 20
0.8080230822478675
 30
0.0
 11
608.93692625609458
 21
-3.697780374458616
 31
0.0
  0
LINE
  5
2C7
  8
LOGO
 62
     6
 10
607.43499177052593
 20
-5.9506821028118599
 30
0.0
 11
607.43499177052593
 21
-11.457775216564221
 31
0.0
  0
LINE
  5
2C8
  8
LOGO
 62
     6
 10
617.97111227597975
 20
0.8080230822478957
 30
0.0
 11
617.97111227597975
 21
-3.697780374458616
 31
0.0
  0
LINE
  5
2C9
  8
LOGO
 62
     6
 10
619.47304676154863
 20
-5.9506821028118599
 30
0.0
 11
619.47304676154863
 21
-11.45777521656421
 31
0.0
  0
LINE
  5
2CA
  8
LOGO
  6
CONTINUOUS
 62
     7
 10
606.16811874106622
 20
-1.4608389140342939
 30
0.0
 11
608.1577171380851
 21
-1.4608389140342939
 31
0.0
  0
LINE
  5
2CC
  8
LOGO
 62
     1
 10
550.68954592472244
 20
-6.7016493455962731
 30
0.0
 11
550.68954592472244
 21
2.3099575678166948
 31
0.0
  0
POLYLINE
  5
2CD
  8
LOGO
 62
     5
 66
     1
 10
0.0
 20
0.0
 30
0.0
 70
     1
  0
VERTEX
  5
BCB
  8
LOGO
 62
     5
 10
547.46637467574328
 20
-5.8843722041165067
 30
0.0
 42
1.0000000573306349
  0
VERTEX
  5
BCC
  8
LOGO
 62
     5
 10
548.13816473863892
 20
-5.8843722041165067
 30
0.0
 42
1.0000000573306349
  0
SEQEND
  5
BCD
  8
LOGO
 62
     5
  0
CIRCLE
  5
2CE
  8
LOGO
 62
     5
 10
547.80226970719104
 20
-5.8843722041165067
 30
0.0
 40
0.3358950314477898
  0
SOLID
  5
2CF
  8
LOGO
 62
     5
 10
541.23364083021045
 20
-4.2048970468776004
 30
0.0
 11
541.88303789100962
 21
-4.2048970468778153
 31
0.0
 12
544.59259114468864
 22
1.9531785296653339
 32
0.0
 13
545.24198820548759
 23
1.9531785296649069
 33
0.0
  0
SOLID
  5
2D0
  8
LOGO
 62
     5
 10
542.15175391616822
 20
-4.2048970468776004
 30
0.0
 11
542.80115097696728
 21
-4.2048970468776004
 31
0.0
 12
545.24198820548759
 22
1.4605324835416751
 32
0.0
 13
544.59259114468864
 23
-0.9205900727216675
 33
0.0
  0
SOLID
  5
2D1
  8
LOGO
 62
     5
 10
544.59259114468864
 20
-4.2048970468776004
 30
0.0
 11
545.24198820548759
 21
-4.2048970468776004
 31
0.0
 12
544.59259114468864
 22
-0.9205900727216675
 32
0.0
 13
545.24198820548759
 23
1.4605324835416751
 33
0.0
  0
SOLID
  5
2D2
  8
LOGO
 62
     5
 10
545.51070423064596
 20
1.9531785296649069
 30
0.0
 11
546.1601012914449
 21
1.9531785296653339
 31
0.0
 12
545.51070423064596
 22
-3.7122510007543701
 32
0.0
 13
546.1601012914449
 23
-1.331128444491023
 33
0.0
  0
SOLID
  5
2D3
  8
LOGO
 62
     5
 10
545.51070423064596
 20
-3.7122510007543701
 30
0.0
 11
546.1601012914449
 21
-1.331128444491023
 31
0.0
 12
548.60093851996544
 22
1.9531785296653339
 32
0.0
 13
547.95154145916649
 23
1.9531785296653339
 33
0.0
  0
SOLID
  5
2D4
  8
LOGO
 62
     5
 10
545.51070423064596
 20
-4.2048970468776004
 30
0.0
 11
546.1601012914449
 21
-4.2048970468776004
 31
0.0
 12
548.60093851996544
 22
1.4605324835416751
 32
0.0
 13
547.95154145916649
 23
-0.9205900727216675
 33
0.0
  0
SOLID
  5
2D5
  8
LOGO
 62
     5
 10
548.60093851996544
 20
1.4605324835416751
 30
0.0
 11
547.95154145916649
 21
-0.9205900727216675
 31
0.0
 12
548.60093851996544
 22
-4.2048970468778153
 32
0.0
 13
547.95154145916649
 23
-4.2048970468778153
 33
0.0
  0
SOLID
  5
2D6
  8
LOGO
 62
     5
 10
548.86965454512369
 20
-4.2048970468778153
 30
0.0
 11
549.51905160592287
 21
-4.2048970468778153
 31
0.0
 12
548.86965454512369
 22
1.9531785296649069
 32
0.0
 13
549.51905160592287
 23
1.9531785296653339
 33
0.0
  0
SOLID
  5
2D7
  8
LOGO
 62
     5
 10
540.19249809008318
 20
-6.4441972565294039
 30
0.0
 11
540.41642811104862
 21
-6.4441972565294039
 31
0.0
 12
541.04703247940643
 22
-5.3245471517036069
 32
0.0
 13
541.27096250037141
 23
-5.3245471517036069
 33
0.0
  0
SOLID
  5
2D8
  8
LOGO
 62
     5
 10
541.04703247940643
 20
-5.3245471517036069
 30
0.0
 11
541.27096250037141
 21
-5.3245471517036069
 31
0.0
 12
541.04703247940643
 22
-6.4441972565294039
 32
0.0
 13
541.27096250037141
 23
-6.4441972565294039
 33
0.0
  0
SOLID
  5
2D9
  8
LOGO
 62
     5
 10
541.04703247940643
 20
-6.4441972565294039
 30
0.0
 11
541.27096250037141
 21
-6.4441972565294039
 31
0.0
 12
541.90156686872979
 22
-5.3245471517036069
 32
0.0
 13
542.12549688969477
 23
-5.3245471517036069
 33
0.0
  0
SOLID
  5
2DA
  8
LOGO
 62
     5
 10
541.90156686872979
 20
-5.3245471517036069
 30
0.0
 11
542.12549688969477
 21
-5.3245471517036069
 31
0.0
 12
541.90156686872979
 22
-6.4441972565294039
 32
0.0
 13
542.12549688969477
 23
-6.4441972565294039
 33
0.0
  0
SOLID
  5
2DB
  8
LOGO
 62
     5
 10
542.39057528352726
 20
-5.1677961370280734
 30
0.0
 11
542.61450530449304
 21
-5.1677961370280734
 31
0.0
 12
542.39057528352726
 22
-4.9886521202556988
 32
0.0
 13
542.61450530449304
 23
-4.9886521202556988
 33
0.0
  0
SOLID
  5
2DC
  8
LOGO
 62
     5
 10
542.39057528352726
 20
-5.3245471517036069
 30
0.0
 11
542.61450530449304
 21
-5.3245471517036069
 31
0.0
 12
542.39057528352726
 22
-6.4441972565298293
 32
0.0
 13
542.61450530449304
 23
-6.4441972565294039
 33
0.0
  0
POLYLINE
  5
2DD
  8
LOGO
 62
     5
 66
     1
 10
0.0
 20
0.0
 30
0.0
 40
0.2242888831782783
 41
0.2242888831782783
  0
VERTEX
  5
BCE
  8
LOGO
 62
     5
 10
543.66005782665047
 20
-5.7724071936340131
 30
0.0
 42
1.0
  0
VERTEX
  5
BCF
  8
LOGO
 62
     5
 10
542.98719117711573
 20
-5.7724071936340131
 30
0.0
 42
1.0
  0
SEQEND
  5
BD0
  8
LOGO
 62
     5
  0
SOLID
  5
2DE
  8
LOGO
 62
     5
 10
542.87576445995285
 20
-5.3245471517036069
 30
0.0
 11
543.09969448091783
 21
-5.3245471517036069
 31
0.0
 12
542.87576445995285
 22
-6.4441972565294039
 32
0.0
 13
543.09969448091783
 23
-6.4441972565294039
 33
0.0
  0
SOLID
  5
2DF
  8
LOGO
 62
     5
 10
543.54755452284826
 20
-5.772407193634014
 30
0.0
 11
543.77148454381359
 21
-5.772407193634014
 31
0.0
 12
543.54755452284826
 22
-6.4441972565294039
 32
0.0
 13
543.77148454381359
 23
-6.4441972565294039
 33
0.0
  0
POLYLINE
  5
2E0
  8
LOGO
 62
     5
 66
     1
 10
0.0
 20
0.0
 30
0.0
 70
     1
 40
0.2242888831782783
 41
0.2242888831782783
  0
VERTEX
  5
BD1
  8
LOGO
 62
     5
 10
544.14401337833192
 20
-5.8843722041166151
 30
0.0
 42
1.0
  0
VERTEX
  5
BD2
  8
LOGO
 62
     5
 10
545.04116891104513
 20
-5.8843722041166151
 30
0.0
 42
1.0
  0
SEQEND
  5
BD3
  8
LOGO
 62
     5
  0
SOLID
  5
2E1
  8
LOGO
 62
     5
 10
544.92846378313436
 20
-4.9886521202556988
 30
0.0
 11
545.15239380409935
 21
-4.9886521202556988
 31
0.0
 12
544.92846378313436
 22
-6.4441972565294039
 32
0.0
 13
545.15239380409935
 23
-6.4441972565294039
 33
0.0
  0
SOLID
  5
2E2
  8
LOGO
 62
     5
 10
545.41365295955995
 20
-5.3245471517036069
 30
0.0
 11
545.63758298052494
 21
-5.3245471517036069
 31
0.0
 12
545.41365295955995
 22
-6.4441972565294039
 32
0.0
 13
545.63758298052494
 23
-6.4441972565294039
 33
0.0
  0
POLYLINE
  5
2E3
  8
LOGO
 62
     5
 66
     1
 10
0.0
 20
0.0
 30
0.0
 40
0.2242888831782783
 41
0.2242888831782783
  0
VERTEX
  5
BD4
  8
LOGO
 62
     5
 10
546.19794632625758
 20
-5.7724071936340131
 30
0.0
 42
1.0
  0
VERTEX
  5
BD5
  8
LOGO
 62
     5
 10
545.52507967672273
 20
-5.7724071936340131
 30
0.0
 42
1.0
  0
SEQEND
  5
BD6
  8
LOGO
 62
     5
  0
POLYLINE
  5
2E4
  8
LOGO
 62
     5
 66
     1
 10
0.0
 20
0.0
 30
0.0
 40
0.2242888831782783
 41
0.2242888831782783
  0
VERTEX
  5
BD7
  8
LOGO
 62
     5
 10
546.86973638915288
 20
-5.7724071936340131
 30
0.0
 42
1.0
  0
VERTEX
  5
BD8
  8
LOGO
 62
     5
 10
546.19686973961814
 20
-5.7724071936340131
 30
0.0
 42
1.0
  0
SEQEND
  5
BD9
  8
LOGO
 62
     5
  0
SOLID
  5
2E5
  8
LOGO
 62
     5
 10
546.08544302245537
 20
-5.772407193634014
 30
0.0
 11
546.30937304342035
 21
-5.772407193634014
 31
0.0
 12
546.08544302245537
 22
-6.4441972565294039
 32
0.0
 13
546.30937304342035
 23
-6.4441972565294039
 33
0.0
  0
SOLID
  5
2E6
  8
LOGO
 62
     5
 10
546.75723308535066
 20
-5.772407193634014
 30
0.0
 11
546.98116310631576
 21
-5.772407193634014
 31
0.0
 12
546.75723308535066
 22
-6.4441972565298293
 32
0.0
 13
546.98116310631576
 23
-6.4441972565298293
 33
0.0
  0
POLYLINE
  5
2E7
  8
LOGO
 62
     5
 66
     1
 10
0.0
 20
0.0
 30
0.0
 70
     1
 40
0.2242888831782783
 41
0.2242888831782783
  0
VERTEX
  5
BDA
  8
LOGO
 62
     5
 10
547.35369194083455
 20
-5.8843722041166151
 30
0.0
 42
1.0
  0
VERTEX
  5
BDB
  8
LOGO
 62
     5
 10
548.25084747354754
 20
-5.8843722041166151
 30
0.0
 42
1.0
  0
SEQEND
  5
BDC
  8
LOGO
 62
     5
  0
LINE
  5
2E8
  8
LOGO
 62
     5
 10
549.51905160592287
 20
-6.4441972565294039
 30
0.0
 11
549.51905160592287
 21
-5.772407193634014
 31
0.0
  0
POLYLINE
  5
2E9
  8
LOGO
 62
     5
 66
     1
 10
0.0
 20
0.0
 30
0.0
 40
0.2242888831782783
 41
0.2242888831782783
  0
VERTEX
  5
BDD
  8
LOGO
 62
     5
 10
549.40762488875998
 20
-5.7724071936340131
 30
0.0
 42
1.0
  0
VERTEX
  5
BDE
  8
LOGO
 62
     5
 10
548.73475823922524
 20
-5.7724071936340131
 30
0.0
 42
1.0
  0
SEQEND
  5
BDF
  8
LOGO
 62
     5
  0
SOLID
  5
2EA
  8
LOGO
 62
     5
 10
548.13814234563722
 20
-5.3245471517036069
 30
0.0
 11
548.36207236660221
 21
-5.3245471517036069
 31
0.0
 12
548.13814234563722
 22
-6.4441972565294039
 32
0.0
 13
548.36207236660221
 23
-6.4441972565294039
 33
0.0
  0
SOLID
  5
2EB
  8
LOGO
 62
     5
 10
548.62333152206202
 20
-6.4441972565294039
 30
0.0
 11
548.84726154302734
 21
-6.4441972565294039
 31
0.0
 12
548.62333152206202
 22
-5.3245471517036069
 32
0.0
 13
548.84726154302734
 23
-5.3245471517036069
 33
0.0
  0
SOLID
  5
2EC
  8
LOGO
 62
     5
 10
549.29512158495777
 20
-5.772407193634014
 30
0.0
 11
549.51905160592287
 21
-5.772407193634046
 31
0.0
 12
549.29512158495777
 22
-6.4441972565294039
 32
0.0
 13
549.51905160592287
 23
-6.4441972565294039
 33
0.0
  0
SOLID
  5
2ED
  8
LOGO
 62
     2
 10
541.88303789100962
 20
-4.2048970468778153
 30
0.0
 11
542.15175391616822
 21
-4.2048970468776004
 31
0.0
 12
545.24198820548759
 22
1.9531785296649069
 32
0.0
 13
545.51070423064596
 23
1.9531785296649069
 33
0.0
  0
SOLID
  5
2EE
  8
LOGO
 62
     2
 10
545.24198820548759
 20
1.9531785296649069
 30
0.0
 11
545.51070423064596
 21
1.9531785296649069
 31
0.0
 12
545.24198820548759
 22
-4.2048970468776004
 32
0.0
 13
545.51070423064596
 23
-4.2048970468776004
 33
0.0
  0
SOLID
  5
2EF
  8
LOGO
 62
     2
 10
545.24198820548759
 20
-4.2048970468776004
 30
0.0
 11
545.51070423064596
 21
-4.2048970468776004
 31
0.0
 12
548.60093851996544
 22
1.9531785296653339
 32
0.0
 13
548.86965454512369
 23
1.9531785296649069
 33
0.0
  0
SOLID
  5
2F0
  8
LOGO
 62
     2
 10
548.60093851996544
 20
1.9531785296653339
 30
0.0
 11
548.86965454512369
 21
1.9531785296649069
 31
0.0
 12
548.60093851996544
 22
-4.2048970468778153
 32
0.0
 13
548.86965454512369
 23
-4.2048970468778153
 33
0.0
  0
TEXT
  5
2F1
  8
LOGO
  6
CONTINUOUS
 62
     5
 10
540.16696821316555
 20
-9.7588596571393147
 30
0.0
 40
2.2529017283532422
  1
金器工業股份有限公司
 41
0.8
  7
LOGO
  0
TEXT
  5
2F2
  8
LOGO
  6
CONTINUOUS
 62
     5
 10
540.81206338608979
 20
-12.01220277759699
 30
0.0
 40
1.5019344855688279
  1
MINDMAN INDUSTRIAL CO.,LTD
 41
0.85
  7
CHINESET
  0
LINE
  5
2F4
  8
LOGO
 62
     6
 10
613.45401926603734
 20
-5.9506821028118599
 30
0.0
 11
613.45401926603722
 21
-3.697780374458616
 31
0.0
  0
POLYLINE
  5
42D
  8
0
 62
     4
 66
     1
 10
0.0
 20
0.0
 30
0.0
 70
     1
  0
VERTEX
  5
BE0
  8
0
 62
     4
 10
539.67535969721757
 20
116.1246269998161
 30
0.0
  0
VERTEX
  5
BE1
  8
0
 62
     4
 10
635.79916677362269
 20
116.1246269998161
 30
0.0
  0
VERTEX
  5
BE2
  8
0
 62
     4
 10
635.79916677362269
 20
2.3099575678166948
 30
0.0
  0
VERTEX
  5
BE3
  8
0
 62
     4
 10
539.67535969721757
 20
2.3099575678166948
 30
0.0
  0
SEQEND
  5
BE4
  8
0
 62
     4
  0
DIMENSION
  5
89D
  8
DIM
  2
*D7
 10
621.60446074734841
 20
18.307691530767169
 30
0.0
 11
619.10446074734853
 21
40.574633742037733
 31
0.0
 70
     0
 13
593.35124302599786
 23
62.84157595330808
 33
0.0
 14
586.66969040337472
 24
18.30769153076718
 34
0.0
 50
90.0
1001
ACAD
1000
DSTYLE
1002
{
1070
   271
1070
     0
1070
   176
1070
   256
1002
}
  0
LINE
  5
89E
  8
CENTER
  6
CENTER
 10
582.72917777592829
 20
15.77447381842242
 30
0.0
 11
582.72917777592829
 21
56.600619848734617
 31
0.0
1001
ACAD
1000
ASC_BOUNDS
1002
{
1070
    19
1002
}
  0
DIMENSION
  5
89F
  8
DIM
  2
*D8
 10
611.36242486503068
 20
43.307691530767123
 30
0.0
 11
608.86242486503056
 21
53.074633742037697
 31
0.0
 70
     0
 13
593.35124302599786
 23
62.84157595330808
 33
0.0
 14
589.72917777592818
 24
43.30769153076713
 34
0.0
 50
90.0
1001
ACAD
1000
DSTYLE
1002
{
1070
   271
1070
     1
1070
   176
1070
   256
1002
}
  0
LINE
  5
8A0
  8
0
 10
588.32917777592809
 20
44.307691530767123
 30
0.0
 11
588.32917777592809
 21
50.2076915307671
 31
0.0
  0
LINE
  5
8A1
  8
0
 10
588.72917777592818
 20
44.307691530767123
 30
0.0
 11
588.72917777592829
 21
49.80769153076713
 31
0.0
  0
LINE
  5
8A2
  8
0
 10
577.12917777592816
 20
44.307691530767123
 30
0.0
 11
577.12917777592816
 21
50.207691530767171
 31
0.0
  0
LINE
  5
8A3
  8
0
 10
576.72917777592818
 20
44.307691530767123
 30
0.0
 11
576.72917777592818
 21
49.80769153076713
 31
0.0
  0
LINE
  5
8A4
  8
CENTER
  6
CENTER
 10
570.4647901831089
 20
62.42381950547707
 30
0.0
 11
582.72917777592829
 21
47.80769153076713
 31
0.0
  0
LINE
  5
8A5
  8
CENTER
  6
CENTER
 10
594.87786359900338
 20
62.285931505715659
 30
0.0
 11
582.72917777592829
 21
47.80769153076713
 31
0.0
  0
DIMENSION
  5
8A6
  8
DIM
  2
*D9
 10
582.72917777592829
 20
47.80769153076713
 30
0.0
 11
582.72917777592795
 21
71.336338637857864
 31
0.0
 70
     2
 13
570.4647901831089
 23
62.42381950547707
 33
0.0
 14
582.72917777592829
 24
47.80769153076713
 34
0.0
 15
594.87786359900338
 25
62.285931505715659
 35
0.0
 16
587.57871753906522
 26
68.269508733555085
 36
0.0
1001
ACAD
1000
DSTYLE
1002
{
1070
   271
1070
     0
1070
   176
1070
   256
1002
}
  0
POLYLINE
  8
0
  5
C0D
  66
     1
 10
0.000000
 20
0.000000
 30
0.000000
  70
     8
  0
VERTEX
  8
0
  5
C0E
 10
582.729
 20
18.3077
 30
0.000000
  70
    32
  0
VERTEX
  8
0
  5
C0F
 10
592.354
 20
10.5065
 30
0.000000
  70
    32
  0
VERTEX
  8
0
  5
C10
 10
595.354
 20
10.5065
 30
0.000000
  70
    32
  0
SEQEND
  8
0
  5
C11
  0
ARC
  5
8A8
  8
0
 10
586.22917777592966
 20
58.874358197432137
 30
0.0
 40
20.566666666664808
 50
260.20181509241831
 51
279.79818490756838
  0
LINE
  5
8A9
  8
0
 10
578.78866514848175
 20
18.30769153076713
 30
0.0
 11
586.66969040337472
 21
18.30769153076718
 31
0.0
  0
LINE
  5
8AA
  8
0
 10
577.76248820017395
 20
19.307348855742671
 30
0.0
 11
587.69586735168264
 21
19.307348855742731
 31
0.0
  0
LINE
  5
8AB
  8
0
 10
577.60536369749741
 20
25.307691530767102
 30
0.0
 11
587.85299185435895
 21
25.30769153076713
 31
0.0
  0
LINE
  5
8AC
  8
0
 10
575.72917777592829
 20
38.307691530767919
 30
0.0
 11
588.72917777592829
 21
38.307691530767187
 31
0.0
  0
ARC
  5
8AD
  8
0
 10
586.22917777592818
 20
22.741024864103618
 30
0.0
 40
20.566666666663458
 50
80.201815092424965
 51
99.79818490757502
  0
LINE
  5
8AE
  8
0
 10
576.72917777592818
 20
44.307691530767187
 30
0.0
 11
588.72917777592818
 21
44.307691530767187
 31
0.0
  0
LINE
  5
8AF
  8
0
 10
577.22917777592818
 20
43.307691530767102
 30
0.0
 11
588.22917777592829
 21
43.307691530767102
 31
0.0
  0
LINE
  5
8B0
  8
0
 10
577.57917777592809
 20
26.307691530767119
 30
0.0
 11
577.57917777592809
 21
28.30769153076707
 31
0.0
  0
POLYLINE
  8
0
  5
C12
  66
     1
 10
0.000000
 20
0.000000
 30
0.000000
  70
     8
  0
VERTEX
  8
0
  5
C13
 10
577.680
 20
22.4446
 30
0.000000
  70
    32
  0
VERTEX
  8
0
  5
C14
 10
572.967
 20
17.7521
 30
0.000000
  70
    32
  0
VERTEX
  8
0
  5
C15
 10
569.967
 20
17.7521
 30
0.000000
  70
    32
  0
SEQEND
  8
0
  5
C16
  0
TEXT
  5
8B2
  8
0
 10
554.25258278543436
 20
20.64974636065002
 30
0.0
 40
3.0
  1
PT 1/8
  7
CHINESET
  0
TEXT
  5
8B3
  8
0
 10
580.77038684765569
 20
11.8098364150538
 30
0.0
 40
3.0
  1
IN
  7
CHINESET
  0
LINE
  5
8B4
  8
0
 10
577.76248820017395
 20
19.307348855742671
 30
0.0
 11
577.57917777592809
 21
26.307691530767119
 31
0.0
  0
LINE
  5
8B5
  8
0
 10
578.78900794097262
 20
18.30769153076713
 30
0.0
 11
578.60570648998828
 21
25.30769153076713
 31
0.0
  0
LINE
  5
8B6
  8
0
 10
578.78866514848175
 20
18.30769153076713
 30
0.0
 11
577.76248820017395
 21
19.307348855742671
 31
0.0
  0
LINE
  5
8B7
  8
0
 10
577.57917777592809
 20
26.307691530767119
 30
0.0
 11
578.60570648998828
 21
25.30769153076713
 31
0.0
  0
LINE
  5
8B8
  8
0
 10
575.72917777592818
 20
28.907691530767149
 30
0.0
 11
575.72917777592829
 21
43.007691530767119
 31
0.0
  0
ARC
  5
8B9
  8
0
 10
579.22917777592909
 20
58.874358197427938
 30
0.0
 40
20.56666666666024
 50
260.20181509241831
 51
279.79818490757498
  0
ARC
  5
8BA
  8
0
 10
576.3291777759282
 20
28.907691530767149
 30
0.0
 40
0.6
 50
179.9999999999998
 51
270.0
  0
LINE
  5
8BB
  8
0
 10
576.3291777759282
 20
28.307691530767151
 30
0.0
 11
577.57917777592809
 21
28.30769153076713
 31
0.0
  0
LINE
  5
8BC
  8
0
 10
577.22917777592818
 20
43.30769153076713
 30
0.0
 11
577.22917777592818
 21
44.307691530767187
 31
0.0
  0
ARC
  5
8BD
  8
0
 10
579.22917777592841
 20
22.741024864104158
 30
0.0
 40
20.566666666663021
 50
80.201815092424965
 51
99.798184907575063
  0
LINE
  5
8BE
  8
0
 10
582.72917777592863
 20
43.00769153076709
 30
0.0
 11
582.72917777592806
 21
38.607691530767617
 31
0.0
  0
CIRCLE
  5
8BF
  8
0
 10
582.72917777592829
 20
47.80769153076713
 30
0.0
 40
0.75
  0
LINE
  5
8C0
  8
0
 10
583.08076088100438
 20
48.088563957724631
 30
0.0
 11
583.29368337720052
 21
48.30148645392071
 31
0.0
  0
CIRCLE
  5
8C1
  8
0
 10
582.72917777592829
 20
47.80769153076713
 30
0.0
 40
0.45
  0
LINE
  5
8C2
  8
0
 10
583.01005020288574
 20
48.159274635843268
 30
0.0
 11
583.22297269908165
 21
48.372197132039361
 31
0.0
  0
CIRCLE
  5
8C3
  8
0
 10
582.72917777592829
 20
47.80769153076713
 30
0.0
 40
0.85
  0
DIMENSION
  5
8C4
  8
DIM
  2
*D10
 10
611.36242486503068
 20
33.807691530767123
 30
0.0
 11
608.86242486503056
 21
26.057691530767251
 31
0.0
 70
     0
 13
586.66969040337472
 23
18.30769153076718
 33
0.0
 14
589.72917777592818
 24
33.807691530767123
 34
0.0
 50
90.0
1001
ACAD
1000
DSTYLE
1002
{
1070
   271
1070
     1
1070
   176
1070
   256
1002
}
  0
LINE
  5
8C5
  8
0
 10
587.87917777592816
 20
26.307691530767119
 30
0.0
 11
587.87917777592816
 21
28.30769153076713
 31
0.0
  0
TEXT
  5
8C6
  8
0
 10
596.85391244862058
 20
12.0064519308398
 30
0.0
 40
3.0
  1
M5*0.8
  7
CHINESET
  0
LINE
  5
8C7
  8
0
 10
587.69586735168264
 20
19.307348855742731
 30
0.0
 11
587.87917777592816
 21
26.307691530767119
 31
0.0
  0
LINE
  5
8C8
  8
0
 10
586.66934761088385
 20
18.30769153076713
 30
0.0
 11
586.85264906186808
 21
25.30769153076713
 31
0.0
  0
LINE
  5
8C9
  8
0
 10
586.66969040337472
 20
18.30769153076718
 30
0.0
 11
587.69586735168264
 21
19.307348855742731
 31
0.0
  0
LINE
  5
8CA
  8
0
 10
586.85264906186808
 20
25.30769153076713
 30
0.0
 11
587.87917777592816
 21
26.307691530767119
 31
0.0
  0
TEXT
  5
8CB
  8
0
 10
595.12690256779126
 20
39.2638212197539
 30
0.0
 40
3.0
  1
M5*0.8
  7
CHINESET
  0
POLYLINE
  8
0
  5
C17
  66
     1
 10
0.000000
 20
0.000000
 30
0.000000
  70
     8
  0
VERTEX
  8
0
  5
C18
 10
588.729
 20
33.8077
 30
0.000000
  70
    32
  0
VERTEX
  8
0
  5
C19
 10
593.390
 20
38.2814
 30
0.000000
  70
    32
  0
VERTEX
  8
0
  5
C1A
 10
596.390
 20
38.2814
 30
0.000000
  70
    32
  0
SEQEND
  8
0
  5
C1B
  0
LINE
  5
8CD
  8
0
 10
588.72917777592829
 20
28.30769153076713
 30
0.0
 11
588.72917777592829
 21
38.307691530767187
 31
0.0
  0
LINE
  5
8CE
  8
0
 10
587.87917777592816
 20
28.30769153076719
 30
0.0
 11
588.72917777592829
 21
28.30769153076719
 31
0.0
  0
LINE
  5
8CF
  8
HIDDEN
  6
HIDDEN
 10
584.97917777592829
 20
31.307691530767119
 30
0.0
 11
588.72917777592829
 21
31.307691530767119
 31
0.0
  0
LINE
  5
8D0
  8
HIDDEN
  6
HIDDEN
 10
584.97917777592829
 20
31.80769153076713
 30
0.0
 11
588.72917777592829
 21
31.80769153076713
 31
0.0
  0
LINE
  5
8D1
  8
CENTER
  6
CENTER
 10
584.20011200289809
 20
33.807691530767123
 30
0.0
 11
589.72917777592818
 21
33.807691530767123
 31
0.0
  0
LINE
  5
8D2
  8
HIDDEN
  6
HIDDEN
 10
584.97917777592829
 20
35.80769153076718
 30
0.0
 11
588.72917777592829
 21
35.80769153076718
 31
0.0
  0
LINE
  5
8D3
  8
HIDDEN
  6
HIDDEN
 10
584.97917777592829
 20
36.30769153076718
 30
0.0
 11
588.72917777592829
 21
36.307691530767123
 31
0.0
  0
LINE
  5
8D4
  8
0
 10
588.22917777592829
 20
43.30769153076713
 30
0.0
 11
588.22917777592829
 21
44.307691530767123
 31
0.0
  0
LINE
  5
8D5
  8
0
 10
589.72917777592818
 20
38.607691530767077
 30
0.0
 11
589.72917777592818
 21
43.007691530767033
 31
0.0
  0
TEXT
  5
8D6
  8
0
 10
556.5502211660073
 20
107.8731233939389
 30
0.0
 40
4.0
  1
MVHA-2V/3V
  7
ITALICT
  0
DIMENSION
  5
8D7
  8
DIM
  2
*D11
 10
575.72917777592829
 20
78.085162742359927
 30
0.0
 11
582.72917777592829
 21
80.585162742359927
 31
0.0
 70
     0
 13
589.72917777592818
 23
89.355279521556128
 33
0.0
 14
575.72917777592829
 24
89.355279521556156
 34
0.0
1001
ACAD
1000
DSTYLE
1002
{
1070
   176
1070
   256
1002
}
  0
LINE
  5
8D8
  8
0
 10
577.22917777592818
 20
50.30769153076713
 30
0.0
 11
588.22917777592829
 21
50.30769153076713
 31
0.0
  0
LINE
  5
8D9
  8
0
 10
576.72917777592818
 20
49.80769153076713
 30
0.0
 11
588.72917777592829
 21
49.80769153076713
 31
0.0
  0
ARC
  5
8DA
  8
0
 10
582.72917777592829
 20
93.396731405883514
 30
0.0
 40
7.0
 50
196.72499361149889
 51
163.27500638850171
  0
DIMENSION
  5
8DB
  8
DIM
  2
*D12
 10
601.10916903505927
 20
101.4796351745382
 30
0.0
 11
597.10916903505927
 21
93.396731405883514
 31
0.0
 70
   128
  1
{(%%C16)}
 13
582.72917777592829
 23
85.313827637228769
 33
0.0
 14
582.72917777592829
 24
101.4796351745382
 34
0.0
 50
90.0
1001
ACAD
1000
DSTYLE
1002
{
1070
   176
1070
   256
1002
}
  0
LINE
  5
8DC
  8
CENTER
  6
CENTER
 10
567.37222098877135
 20
93.396731405883514
 30
0.0
 11
592.37267591162697
 21
93.396731405883514
 31
0.0
  0
ARC
  5
8DD
  8
0
 10
582.72917777592829
 20
93.396731405883514
 30
0.0
 40
6.0
 50
198.63687878967249
 51
161.36312121032941
  0
ARC
  5
8DE
  8
0
 10
582.72917777592829
 20
93.396731405883514
 30
0.0
 40
5.5
 50
199.8612259466594
 51
160.1387740533423
  0
ARC
  5
8DF
  8
0
 10
582.72917777592829
 20
93.396731405883443
 30
0.0
 40
4.000000000000056
 50
205.46483003912471
 51
154.53516996087609
  0
ARC
  5
8E0
  8
0
 10
582.72917777592829
 20
93.396731405883443
 30
0.0
 40
4.4999999999999432
 50
203.16112180842549
 51
156.83887819157769
  0
ARC
  5
8E1
  8
0
 10
582.72917777592795
 20
47.807691530767009
 30
0.0
 40
3.8999999999999999
 50
39.868341550012929
 51
97.451323562730224
  0
POLYLINE
  5
8E2
  8
0
 66
     1
 10
0.0
 20
0.0
 30
0.0
  0
VERTEX
  5
BFB
  8
0
 10
575.72917777592829
 20
89.355279521556156
 30
0.0
  0
VERTEX
  5
BFC
  8
0
 10
582.72917777592829
 20
85.313827637228769
 30
0.0
  0
VERTEX
  5
BFD
  8
0
 10
589.72917777592818
 20
89.355279521556128
 30
0.0
  0
VERTEX
  5
BFE
  8
0
 10
589.72917777592818
 20
97.438183290210901
 30
0.0
  0
VERTEX
  5
BFF
  8
0
 10
582.72917777592829
 20
101.4796351745382
 30
0.0
  0
VERTEX
  5
C00
  8
0
 10
575.72917777592829
 20
97.438183290210901
 30
0.0
  0
VERTEX
  5
C01
  8
0
 10
575.72917777592829
 20
95.439390977132092
 30
0.0
  0
SEQEND
  5
C02
  8
0
  0
LINE
  5
8E3
  8
CENTER
  6
CENTER
 10
582.72917777592829
 20
84.497297410010916
 30
0.0
 11
582.72917777592829
 21
102.2961654017561
 31
0.0
  0
ARC
  5
8E4
  8
0
 10
572.14319411245424
 20
93.396731405883443
 30
0.0
 40
2.375
 50
86.561152074270694
 51
273.43884792572931
  0
ARC
  5
8E5
  8
0
 10
580.03223793097698
 20
93.396731405883585
 30
0.0
 40
1.6364186443891851
 50
282.11047155449688
 51
77.889528445496254
  0
ARC
  5
8E6
  8
0
 10
571.99141075611442
 20
60.604463953069512
 30
0.0
 40
2.375
 50
36.561152074272428
 51
223.43884792572641
  0
LINE
  5
8E7
  8
0
 10
581.29050536904106
 20
52.070632552774669
 30
0.0
 11
573.89906192673993
 21
62.019204922721258
 31
0.0
  0
LINE
  5
8E8
  8
0
 10
570.26690273129429
 20
58.971461481445537
 30
0.0
 11
578.45665371068571
 21
50.30769153076713
 31
0.0
  0
LINE
  5
8E9
  8
0
 10
578.77917777592825
 20
50.30769153076718
 30
0.0
 11
580.22917777592829
 21
50.30769153076718
 31
0.0
  0
LINE
  5
8EA
  8
0
 10
577.22917777592818
 20
50.30769153076713
 30
0.0
 11
576.72917777592818
 21
49.80769153076713
 31
0.0
  0
ARC
  5
8EB
  8
0
 10
582.09372691456736
 20
52.666312961049073
 30
0.0
 40
1.0
 50
216.5611520742724
 51
277.45132356273012
  0
LINE
  5
8EC
  8
0
 10
572.28565419028178
 20
91.026007861008495
 30
0.0
 11
580.37555408222147
 21
91.796731405883378
 31
0.0
  0
POLYLINE
  5
8ED
  8
0
 66
     1
 10
0.0
 20
0.0
 30
0.0
  0
VERTEX
  5
C03
  8
0
 10
575.72917777592829
 20
91.35407183463488
 30
0.0
  0
VERTEX
  5
C04
  8
0
 10
575.72917777592829
 20
89.355279521556156
 30
0.0
  0
SEQEND
  5
C05
  8
0
  0
LINE
  5
8EE
  8
0
 10
580.37555408222147
 20
94.996731405883367
 30
0.0
 11
572.28565419028178
 21
95.767454950758676
 31
0.0
  0
TEXT
  5
8EF
  8
0
 10
621.21618442151453
 20
91.406629614366807
 30
0.0
 40
2.0
  1
P
  7
CHINESET
  0
LINE
  5
8F0
  8
0
 10
625.71401710840257
 20
76.31147311775004
 30
0.0
 11
613.71401710840269
 21
76.31147311775004
 31
0.0
  0
LINE
  5
8F1
  8
0
 10
613.71401710840269
 20
82.31147311775004
 30
0.0
 11
625.71401710840257
 21
82.31147311775004
 31
0.0
  0
LINE
  5
8F2
  8
HIDDEN
  6
HIDDEN
 10
591.44359185537246
 20
61.881316922959712
 30
0.0
 11
584.6344327964149
 21
52.699777313632161
 31
0.0
  0
ARC
  5
8F3
  8
HIDDEN
  6
HIDDEN
 10
593.35124302599786
 20
60.46657595330808
 30
0.0
 40
2.375
 50
316.56115207427342
 51
143.4388479257274
  0
LINE
  5
8F4
  8
HIDDEN
  6
HIDDEN
 10
587.21609772099623
 20
50.533503227592767
 30
0.0
 11
595.07575105081833
 21
58.833573481683999
 31
0.0
  0
LINE
  5
8F5
  8
0
 10
588.22917777592829
 20
50.30769153076713
 30
0.0
 11
588.72917777592829
 21
49.80769153076713
 31
0.0
  0
LINE
  5
8F6
  8
0
 10
607.71401710840257
 20
76.847371502612305
 30
0.0
 11
610.31401710840271
 21
81.350703602291389
 31
0.0
  0
LINE
  5
8F7
  8
0
 10
617.71401710840257
 20
82.31147311775004
 30
0.0
 11
617.71401710840257
 21
76.31147311775004
 31
0.0
  0
LINE
  5
8F8
  8
0
 10
613.71401710840269
 20
76.31147311775004
 30
0.0
 11
613.71401710840269
 21
82.31147311775004
 31
0.0
  0
CIRCLE
  5
8F9
  8
0
 10
610.71401710840269
 20
82.043523925318937
 30
0.0
 40
0.8
  0
LINE
  5
8FA
  8
0
 10
617.71401710840257
 20
82.31147311775004
 30
0.0
 11
618.0640171084026
 21
81.011473117750029
 31
0.0
  0
SOLID
  5
8FB
  8
0
 10
617.36401710840266
 20
81.011473117750029
 30
0.0
 11
618.0640171084026
 21
81.011473117750029
 31
0.0
 12
617.71401710840257
 22
82.31147311775004
 32
0.0
 13
617.71401710840257
 23
82.31147311775004
 33
0.0
  0
LINE
  5
8FC
  8
0
 10
617.36401710840266
 20
81.011473117750029
 30
0.0
 11
617.71401710840257
 21
82.31147311775004
 31
0.0
  0
LINE
  5
8FD
  8
0
 10
608.55931657002338
 20
78.31147311775004
 30
0.0
 11
610.4253419738078
 21
78.31147311775004
 31
0.0
  0
LINE
  5
8FE
  8
0
 10
609.71401710840269
 20
80.31147311775004
 30
0.0
 11
613.71401710840269
 21
80.31147311775004
 31
0.0
  0
LINE
  5
8FF
  8
0
 10
612.71401710840257
 20
79.111473117750052
 30
0.0
 11
613.00269224299745
 21
78.31147311775004
 31
0.0
  0
TEXT
  5
900
  8
0
 10
612.72921779645048
 20
76.260884094050141
 30
0.0
 40
1.8
  1
I
  7
CHINESET
  0
LINE
  5
901
  8
0
 10
611.00269224299745
 20
78.311473117749983
 30
0.0
 11
612.42534197380792
 21
78.311473117749983
 31
0.0
  0
LINE
  5
902
  8
0
 10
610.71401710840269
 20
79.111473117750052
 30
0.0
 11
611.00269224299745
 21
78.31147311775004
 31
0.0
  0
LINE
  5
903
  8
0
 10
610.71401710840269
 20
79.111473117750052
 30
0.0
 11
610.4253419738078
 21
78.31147311775004
 31
0.0
  0
LINE
  5
904
  8
0
 10
612.71401710840257
 20
79.111473117750052
 30
0.0
 11
612.42534197380792
 21
78.31147311775004
 31
0.0
  0
LINE
  5
905
  8
0
 10
613.00269224299745
 20
78.311473117749983
 30
0.0
 11
613.71401710840269
 21
78.31147311775004
 31
0.0
  0
LINE
  5
906
  8
0
 10
615.71401710840269
 20
76.31147311775004
 30
0.0
 11
615.71401710840269
 21
78.31147311775004
 31
0.0
  0
LINE
  5
907
  8
0
 10
616.41401710840273
 20
78.31147311775004
 30
0.0
 11
615.01401710840264
 21
78.31147311775004
 31
0.0
  0
LINE
  5
908
  8
0
 10
619.71401710840269
 20
76.31147311775004
 30
0.0
 11
619.71401710840269
 21
82.31147311775004
 31
0.0
  0
LINE
  5
909
  8
0
 10
625.71401710840257
 20
82.31147311775004
 30
0.0
 11
625.71401710840257
 21
76.31147311775004
 31
0.0
  0
LINE
  5
90A
  8
0
 10
621.71401710840257
 20
76.31147311775004
 30
0.0
 11
623.69812072318939
 21
82.31147311775004
 31
0.0
  0
LINE
  5
90B
  8
0
 10
626.21401710840269
 20
78.445447713965564
 30
0.0
 11
627.21401710840269
 21
80.17749852153446
 31
0.0
  0
TEXT
  5
90C
  8
0
 10
623.02412679234158
 20
73.421176689885613
 30
0.0
 40
2.0
  1
P
  7
CHINESET
  0
LINE
  5
90D
  8
0
 10
622.45447130820344
 20
77.43585186977154
 30
0.0
 11
621.71401710840257
 21
76.31147311775004
 31
0.0
  0
SOLID
  5
90E
  8
0
 10
622.45447130820344
 20
77.43585186977154
 30
0.0
 11
621.7898666498362
 21
77.655625953949993
 31
0.0
 12
621.71401710840257
 22
76.31147311775004
 32
0.0
 13
621.71401710840257
 23
76.31147311775004
 33
0.0
  0
LINE
  5
90F
  8
0
 10
621.71401710840257
 20
76.31147311775004
 30
0.0
 11
621.7898666498362
 21
77.655625953949965
 31
0.0
  0
LINE
  5
910
  8
0
 10
623.71401710840269
 20
76.31147311775004
 30
0.0
 11
623.71401710840269
 21
78.31147311775004
 31
0.0
  0
LINE
  5
911
  8
0
 10
624.41401710840273
 20
78.31147311775004
 30
0.0
 11
623.01401710840264
 21
78.31147311775004
 31
0.0
  0
LINE
  5
912
  8
0
 10
625.71401710840257
 20
79.31147311775004
 30
0.0
 11
626.21401710840269
 21
78.445447713965564
 31
0.0
  0
LINE
  5
913
  8
0
 10
628.21401710840269
 20
78.445447713965564
 30
0.0
 11
629.21401710840257
 21
80.17749852153446
 31
0.0
  0
LINE
  5
914
  8
0
 10
627.21401710840269
 20
80.17749852153446
 30
0.0
 11
628.21401710840269
 21
78.445447713965564
 31
0.0
  0
LINE
  5
915
  8
0
 10
625.22918169504976
 20
94.296926042231235
 30
0.0
 11
613.22918169504976
 21
94.296926042231235
 31
0.0
  0
LINE
  5
916
  8
0
 10
613.22918169504976
 20
100.29692604223121
 30
0.0
 11
625.22918169504976
 21
100.29692604223121
 31
0.0
  0
LINE
  5
917
  8
0
 10
607.22918169504987
 20
94.832824427093499
 30
0.0
 11
609.8291816950499
 21
99.336156526772584
 31
0.0
  0
LINE
  5
918
  8
0
 10
608.07448115667069
 20
96.296926042231235
 30
0.0
 11
609.94050656045511
 21
96.296926042231235
 31
0.0
  0
LINE
  5
919
  8
0
 10
609.22918169504976
 20
98.296926042231235
 30
0.0
 11
613.22918169504976
 21
98.296926042231235
 31
0.0
  0
CIRCLE
  5
91A
  8
0
 10
610.22918169504976
 20
100.0289768498001
 30
0.0
 40
0.8
  0
LINE
  5
91B
  8
0
 10
616.24441709403163
 20
100.29692604223121
 30
0.0
 11
616.24441709403163
 21
94.296926042231235
 31
0.0
  0
LINE
  5
91C
  8
0
 10
613.22918169504976
 20
94.296926042231235
 30
0.0
 11
613.22918169504976
 21
100.29692604223121
 31
0.0
  0
LINE
  5
91D
  8
0
 10
612.22918169504976
 20
97.096926042231246
 30
0.0
 11
611.94050656045511
 21
96.296926042231235
 31
0.0
  0
LINE
  5
91E
  8
0
 10
612.22918169504976
 20
97.096926042231246
 30
0.0
 11
612.51785682964476
 21
96.296926042231235
 31
0.0
  0
LINE
  5
91F
  8
0
 10
610.22918169504976
 20
97.096926042231246
 30
0.0
 11
610.51785682964476
 21
96.296926042231235
 31
0.0
  0
LINE
  5
920
  8
0
 10
610.22918169504976
 20
97.096926042231246
 30
0.0
 11
609.94050656045511
 21
96.296926042231235
 31
0.0
  0
LINE
  5
921
  8
0
 10
612.51785682964476
 20
96.296926042231178
 30
0.0
 11
613.22918169504976
 21
96.296926042231235
 31
0.0
  0
LINE
  5
922
  8
0
 10
610.51785682964476
 20
96.296926042231178
 30
0.0
 11
611.94050656045511
 21
96.296926042231178
 31
0.0
  0
TEXT
  5
923
  8
0
 10
612.24438238309767
 20
94.246337018531335
 30
0.0
 40
1.8
  1
I
  7
CHINESET
  0
LINE
  5
924
  8
0
 10
616.24441709403163
 20
100.29692604223121
 30
0.0
 11
616.59441709403154
 21
98.996926042231223
 31
0.0
  0
SOLID
  5
925
  8
0
 10
615.89441709403161
 20
98.996926042231223
 30
0.0
 11
616.59441709403154
 21
98.996926042231223
 31
0.0
 12
616.24441709403163
 22
100.29692604223121
 32
0.0
 13
616.24441709403163
 23
100.29692604223121
 33
0.0
  0
LINE
  5
926
  8
0
 10
615.89441709403161
 20
98.996926042231223
 30
0.0
 11
616.24441709403163
 21
100.29692604223121
 31
0.0
  0
LINE
  5
927
  8
0
 10
625.72918169504976
 20
96.430900638446758
 30
0.0
 11
626.72918169504976
 21
98.162951446015654
 31
0.0
  0
LINE
  5
928
  8
0
 10
619.22918169504987
 20
94.296926042231235
 30
0.0
 11
619.22918169504987
 21
100.29692604223121
 31
0.0
  0
LINE
  5
929
  8
0
 10
625.22918169504976
 20
100.29692604223121
 30
0.0
 11
625.22918169504976
 21
94.296926042231235
 31
0.0
  0
LINE
  5
92A
  8
0
 10
622.60607473757568
 20
96.296926042231235
 30
0.0
 11
621.20607473757559
 21
96.296926042231235
 31
0.0
  0
LINE
  5
92B
  8
0
 10
621.90607473757564
 20
94.296926042231235
 30
0.0
 11
621.90607473757564
 21
96.296926042231235
 31
0.0
  0
LINE
  5
92C
  8
0
 10
625.22918169504976
 20
97.296926042231235
 30
0.0
 11
625.72918169504976
 21
96.430900638446758
 31
0.0
  0
LINE
  5
92D
  8
0
 10
621.20607473757559
 20
98.296926042231235
 30
0.0
 11
622.60607473757568
 21
98.296926042231235
 31
0.0
  0
LINE
  5
92E
  8
0
 10
621.90607473757564
 20
98.296926042231235
 30
0.0
 11
621.90607473757564
 21
100.29692604223121
 31
0.0
  0
LINE
  5
92F
  8
0
 10
626.72918169504976
 20
98.162951446015654
 30
0.0
 11
627.72918169504987
 21
96.430900638446758
 31
0.0
  0
LINE
  5
930
  8
0
 10
627.72918169504987
 20
96.430900638446758
 30
0.0
 11
628.72918169504976
 21
98.162951446015654
 31
0.0
  0
ENDSEC
  0
EOF
