  0
SECTION
  2
HEADER
  9
$ACADVER
  1
AC1009
  9
$INSBASE
 10
0.0
 20
0.0
 30
0.0
  9
$EXTMIN
 10
491.60769403134799
 20
111.80362973470029
 30
-0.0000000000000021
  9
$EXTMAX
 10
628.91279565936043
 20
265.4969384045969
 30
0.0000000000000742
  9
$LIMMIN
 10
0.0
 20
0.0
  9
$LIMMAX
 10
396.0
 20
273.0
  9
$ORTHOMODE
 70
     1
  9
$REGENMODE
 70
     1
  9
$FILLMODE
 70
     1
  9
$QTEXTMODE
 70
     0
  9
$MIRRTEXT
 70
     1
  9
$DRAGMODE
 70
     2
  9
$LTSCALE
 40
6.0
  9
$OSMODE
 70
    39
  9
$ATTMODE
 70
     1
  9
$TEXTSIZE
 40
6.0
  9
$TRACEWID
 40
0.05
  9
$TEXTSTYLE
  7
CHINESET
  9
$CLAYER
  8
0
  9
$CELTYPE
  6
BYLAYER
  9
$CECOLOR
 62
   256
  9
$DIMSCALE
 40
1.0
  9
$DIMASZ
 40
3.0
  9
$DIMEXO
 40
2.0
  9
$DIMDLI
 40
8.0
  9
$DIMRND
 40
0.0
  9
$DIMDLE
 40
0.0
  9
$DIMEXE
 40
2.0
  9
$DIMTP
 40
0.0
  9
$DIMTM
 40
0.0
  9
$DIMTXT
 40
3.0
  9
$DIMCEN
 40
-3.0
  9
$DIMTSZ
 40
0.0
  9
$DIMTOL
 70
     0
  9
$DIMLIM
 70
     0
  9
$DIMTIH
 70
     0
  9
$DIMTOH
 70
     0
  9
$DIMSE1
 70
     0
  9
$DIMSE2
 70
     0
  9
$DIMTAD
 70
     1
  9
$DIMZIN
 70
     8
  9
$DIMBLK
  1

  9
$DIMASO
 70
     1
  9
$DIMSHO
 70
     1
  9
$DIMPOST
  1

  9
$DIMAPOST
  1

  9
$DIMALT
 70
     0
  9
$DIMALTD
 70
     2
  9
$DIMALTF
 40
25.399999999999999
  9
$DIMLFAC
 40
1.0
  9
$DIMTOFL
 70
     0
  9
$DIMTVP
 40
0.0
  9
$DIMTIX
 70
     0
  9
$DIMSOXD
 70
     0
  9
$DIMSAH
 70
     0
  9
$DIMBLK1
  1

  9
$DIMBLK2
  1

  9
$DIMSTYLE
  2
STANDARD
  9
$DIMCLRD
 70
   256
  9
$DIMCLRE
 70
   256
  9
$DIMCLRT
 70
   256
  9
$DIMTFAC
 40
0.5
  9
$DIMGAP
 40
1.0
  9
$LUNITS
 70
     2
  9
$LUPREC
 70
     2
  9
$SKETCHINC
 40
0.1
  9
$FILLETRAD
 40
8.0
  9
$AUNITS
 70
     0
  9
$AUPREC
 70
     0
  9
$MENU
  1
ACAD
  9
$ELEVATION
 40
0.0
  9
$PELEVATION
 40
0.0
  9
$THICKNESS
 40
0.0
  9
$LIMCHECK
 70
     0
  9
$BLIPMODE
 70
     0
  9
$CHAMFERA
 40
2.0
  9
$CHAMFERB
 40
2.0
  9
$SKPOLY
 70
     0
  9
$TDCREATE
 40
2450436.7992719901
  9
$TDUPDATE
 40
2451946.6478359262
  9
$TDINDWG
 40
9.2850249420999997
  9
$TDUSRTIMER
 40
9.2850249420999997
  9
$USRTIMER
 70
     1
  9
$ANGBASE
 50
0.0
  9
$ANGDIR
 70
     0
  9
$PDMODE
 70
    65
  9
$PDSIZE
 40
8.3000000000000007
  9
$PLINEWID
 40
0.0
  9
$COORDS
 70
     2
  9
$SPLFRAME
 70
     0
  9
$SPLINETYPE
 70
     6
  9
$SPLINESEGS
 70
     8
  9
$ATTDIA
 70
     0
  9
$ATTREQ
 70
     1
  9
$HANDLING
 70
 12289
  9
$HANDSEED
  5
45A
  9
$SURFTAB1
 70
     6
  9
$SURFTAB2
 70
     6
  9
$SURFTYPE
 70
     6
  9
$SURFU
 70
     6
  9
$SURFV
 70
     6
  9
$UCSNAME
  2

  9
$UCSORG
 10
0.0
 20
0.0
 30
0.0
  9
$UCSXDIR
 10
1.0
 20
0.0
 30
0.0
  9
$UCSYDIR
 10
0.0
 20
1.0
 30
0.0
  9
$PUCSNAME
  2

  9
$PUCSORG
 10
0.0
 20
0.0
 30
0.0
  9
$PUCSXDIR
 10
1.0
 20
0.0
 30
0.0
  9
$PUCSYDIR
 10
0.0
 20
1.0
 30
0.0
  9
$USERI1
 70
     0
  9
$USERI2
 70
     0
  9
$USERI3
 70
     0
  9
$USERI4
 70
     0
  9
$USERI5
 70
     0
  9
$USERR1
 40
0.0
  9
$USERR2
 40
0.0
  9
$USERR3
 40
0.0
  9
$USERR4
 40
0.0
  9
$USERR5
 40
0.0
  9
$WORLDVIEW
 70
     1
  9
$SHADEDGE
 70
     3
  9
$SHADEDIF
 70
    70
  9
$TILEMODE
 70
     1
  9
$MAXACTVP
 70
    16
  9
$PLIMCHECK
 70
     0
  9
$PEXTMIN
 10
1.0000000000000000E+020
 20
1.0000000000000000E+020
 30
1.0000000000000000E+020
  9
$PEXTMAX
 10
-1.0000000000000000E+020
 20
-1.0000000000000000E+020
 30
-1.0000000000000000E+020
  9
$PLIMMIN
 10
0.0
 20
0.0
  9
$PLIMMAX
 10
12.0
 20
9.0
  9
$UNITMODE
 70
     0
  9
$VISRETAIN
 70
     0
  9
$PLINEGEN
 70
     0
  9
$PSLTSCALE
 70
     0
  0
ENDSEC
  0
SECTION
  2
TABLES
  0
TABLE
  2
VPORT
 70
     7
  0
VPORT
  2
*ACTIVE
 70
     0
 10
0.0
 20
0.0
 11
1.0
 21
1.0
 12
560.26024484535424
 22
188.65028406964859
 13
0.0
 23
0.0
 14
1.0
 24
1.0
 15
0.0
 25
0.0
 16
0.0
 26
0.0
 36
1.0
 17
0.0
 27
0.0
 37
0.0
 40
155.38845545669679
 41
1.7274401473296499
 42
50.0
 43
0.0
 44
0.0
 50
0.0
 51
0.0
 71
     0
 72
   100
 73
     1
 74
     1
 75
     0
 76
     0
 77
     0
 78
     0
  0
ENDTAB
  0
TABLE
  2
LTYPE
 70
     3
  0
LTYPE
  2
CONTINUOUS
 70
     0
  3
Solid line
 72
    65
 73
     0
 40
0.0
  0
LTYPE
  2
HIDDEN
 70
     0
  3
__ __ __ __ __ __ __ __ __ __ __ __ __ __ __ __
 72
    65
 73
     2
 40
0.375
 49
0.25
 49
-0.125
  0
LTYPE
  2
CENTER
 70
     0
  3
____ _ ____ _ ____ _ ____ _ ____ _ ____ _ ____ 
 72
    65
 73
     4
 40
2.0
 49
1.25
 49
-0.25
 49
0.25
 49
-0.25
  0
ENDTAB
  0
TABLE
  2
LAYER
 70
     8
  0
LAYER
  2
0
 70
     0
 62
     7
  6
CONTINUOUS
  0
LAYER
  2
DEFPOINTS
 70
     0
 62
     7
  6
CONTINUOUS
  0
LAYER
  2
LOGO
 70
     0
 62
     7
  6
CONTINUOUS
  0
LAYER
  2
CENTER
 70
     0
 62
     1
  6
CENTER
  0
LAYER
  2
HIDDEN
 70
     0
 62
     6
  6
HIDDEN
  0
LAYER
  2
DIM
 70
     0
 62
     5
  6
CONTINUOUS
  0
ENDTAB
  0
TABLE
  2
STYLE
 70
     5
  0
STYLE
  2
STANDARD
 70
     0
 40
0.0
 41
1.0
 50
0.0
 71
     0
 42
0.2
  3
txt
  4

  0
STYLE
  2
CHINESET
 70
     0
 40
0.0
 41
1.0
 50
0.0
 71
     0
 42
6.0
  3
C:\r13\com\fonts\simplex.shx
  4
C:\r13\com\fonts\chineset.shx
  0
STYLE
  2
ITALIC
 70
     0
 40
0.0
 41
1.0
 50
0.0
 71
     0
 42
3.0
  3
italic.shx
  4
chineset.shx
  0
STYLE
  2
LOGO
 70
     0
 40
0.0
 41
1.0
 50
0.0
 71
     0
 42
5.0
  3
txt
  4

  0
ENDTAB
  0
TABLE
  2
VIEW
 70
     0
  0
ENDTAB
  0
TABLE
  2
UCS
 70
     0
  0
ENDTAB
  0
TABLE
  2
APPID
 70
     2
  0
APPID
  2
ACAD
 70
     0
  0
APPID
  2
TCAD
 70
     0
  0
ENDTAB
  0
TABLE
  2
DIMSTYLE
 70
     2
  0
DIMSTYLE
  2
STANDARD
 70
     0
  3

  4

  5

  6

  7

 40
1.0
 41
3.0
 42
2.0
 43
8.0
 44
2.0
 45
0.0
 46
0.0
 47
0.0
 48
0.0
140
3.0
141
-3.0
142
0.0
143
25.399999999999999
144
1.0
145
0.0
146
0.5
147
1.0
 71
     0
 72
     0
 73
     0
 74
     0
 75
     0
 76
     0
 77
     1
 78
     8
170
     0
171
     2
172
     0
173
     0
174
     0
175
     0
176
   256
177
   256
178
   256
  0
DIMSTYLE
  2
DIM2
 70
     0
  3

  4

  5

  6

  7

 40
1.0
 41
3.0
 42
2.0
 43
8.0
 44
2.0
 45
0.0
 46
0.0
 47
0.0
 48
0.0
140
3.0
141
-1.0
142
0.0
143
25.399999999999999
144
1.0
145
0.0
146
0.6
147
1.5
 71
     0
 72
     0
 73
     0
 74
     0
 75
     0
 76
     0
 77
     1
 78
     8
170
     0
171
     2
172
     0
173
     0
174
     0
175
     0
176
   256
177
   256
178
   256
  0
ENDTAB
  0
ENDSEC
  0
SECTION
  2
BLOCKS
  0
BLOCK
  8
0
  2
$MODEL_SPACE
 70
     0
 10
0.0
 20
0.0
 30
0.0
  3
$MODEL_SPACE
  1

  0
ENDBLK
  5
6
  8
0
  0
BLOCK
 67
     1
  8
0
  2
$PAPER_SPACE
 70
     0
 10
0.0
 20
0.0
 30
0.0
  3
$PAPER_SPACE
  1

  0
ENDBLK
  5
9
 67
     1
  8
0
  0
BLOCK
  8
0
  2
*D0
 70
     1
 10
0.0
 20
0.0
 30
0.0
  3
*D0
  1

  0
LINE
  5
2FC
  8
DIM
 10
570.07124363514015
 20
205.75754174847901
 30
0.0
 11
530.26761081739107
 21
205.75754174847901
 31
0.0
  0
LINE
  5
2FD
  8
DIM
 10
554.07124363514015
 20
193.85754174847901
 30
0.0
 11
530.26761081739107
 21
193.85754174847901
 31
0.0
  0
LINE
  5
2FE
  8
DIM
 10
532.26761081739119
 20
202.75754174847901
 30
0.0
 11
532.26761081739119
 21
196.85754174847901
 31
0.0
  0
SOLID
  5
2FF
  8
DIM
 10
531.76761081739119
 20
202.75754174847901
 30
0.0
 11
532.76761081739107
 21
202.75754174847901
 31
0.0
 12
532.26761081739119
 22
205.75754174847901
 32
0.0
 13
532.26761081739119
 23
205.75754174847901
 33
0.0
  0
SOLID
  5
300
  8
DIM
 10
531.76761081739119
 20
196.85754174847901
 30
0.0
 11
532.76761081739107
 21
196.85754174847901
 31
0.0
 12
532.26761081739119
 22
193.85754174847901
 32
0.0
 13
532.26761081739119
 23
193.85754174847901
 33
0.0
  0
TEXT
  5
301
  8
0
 10
531.26761081739119
 20
195.87897031990769
 30
0.0
 40
3.0
  1
11.9
 50
90.0
  7
CHINESET
  0
POINT
  5
302
  8
DEFPOINTS
 62
     0
 10
572.07124363514015
 20
205.75754174847901
 30
0.0
  0
POINT
  5
303
  8
DEFPOINTS
 62
     0
 10
556.07124363514015
 20
193.85754174847901
 30
0.0
  0
POINT
  5
304
  8
DEFPOINTS
 62
     0
 10
532.26761081739119
 20
193.85754174847901
 30
0.0
  0
ENDBLK
  5
306
  8
0
  0
BLOCK
  8
0
  2
*D1
 70
     1
 10
0.0
 20
0.0
 30
0.0
  3
*D1
  1

  0
LINE
  5
309
  8
DIM
 10
570.07124363514015
 20
205.75754174847901
 30
0.0
 11
522.26761081739119
 21
205.75754174847901
 31
0.0
  0
LINE
  5
30A
  8
DIM
 10
554.07124363514015
 20
151.85754174847901
 30
0.0
 11
522.26761081739119
 21
151.85754174847901
 31
0.0
  0
LINE
  5
30B
  8
DIM
 10
524.26761081739107
 20
202.75754174847901
 30
0.0
 11
524.26761081739107
 21
154.85754174847909
 31
0.0
  0
SOLID
  5
30C
  8
DIM
 10
523.76761081739119
 20
202.75754174847901
 30
0.0
 11
524.76761081739107
 21
202.75754174847901
 31
0.0
 12
524.26761081739107
 22
205.75754174847901
 32
0.0
 13
524.26761081739107
 23
205.75754174847901
 33
0.0
  0
SOLID
  5
30D
  8
DIM
 10
523.76761081739119
 20
154.85754174847909
 30
0.0
 11
524.76761081739107
 21
154.85754174847909
 31
0.0
 12
524.26761081739107
 22
151.85754174847901
 32
0.0
 13
524.26761081739107
 23
151.85754174847901
 33
0.0
  0
TEXT
  5
30E
  8
0
 10
523.26761081739119
 20
174.30754174847911
 30
0.0
 40
3.0
  1
53.9
 50
90.0
  7
CHINESET
  0
POINT
  5
30F
  8
DEFPOINTS
 62
     0
 10
572.07124363514015
 20
205.75754174847901
 30
0.0
  0
POINT
  5
310
  8
DEFPOINTS
 62
     0
 10
556.07124363514015
 20
151.85754174847901
 30
0.0
  0
POINT
  5
311
  8
DEFPOINTS
 62
     0
 10
524.26761081739107
 20
151.85754174847901
 30
0.0
  0
ENDBLK
  5
313
  8
0
  0
BLOCK
  8
0
  2
*D2
 70
     1
 10
0.0
 20
0.0
 30
0.0
  3
*D2
  1

  0
LINE
  5
316
  8
DIM
 10
554.07124363514015
 20
193.85754174847901
 30
0.0
 11
530.26761081739107
 21
193.85754174847901
 31
0.0
  0
LINE
  5
317
  8
DIM
 10
554.07124363514015
 20
151.85754174847901
 30
0.0
 11
530.26761081739107
 21
151.85754174847901
 31
0.0
  0
LINE
  5
318
  8
DIM
 10
532.26761081739119
 20
190.85754174847901
 30
0.0
 11
532.26761081739119
 21
154.85754174847909
 31
0.0
  0
SOLID
  5
319
  8
DIM
 10
531.76761081739119
 20
190.85754174847901
 30
0.0
 11
532.76761081739107
 21
190.85754174847901
 31
0.0
 12
532.26761081739119
 22
193.85754174847901
 32
0.0
 13
532.26761081739119
 23
193.85754174847901
 33
0.0
  0
SOLID
  5
31A
  8
DIM
 10
531.76761081739119
 20
154.85754174847909
 30
0.0
 11
532.76761081739107
 21
154.85754174847909
 31
0.0
 12
532.26761081739119
 22
151.85754174847901
 32
0.0
 13
532.26761081739119
 23
151.85754174847901
 33
0.0
  0
TEXT
  5
31B
  8
0
 10
531.26761081739119
 20
170.42897031990771
 30
0.0
 40
3.0
  1
42
 50
90.0
  7
CHINESET
  0
POINT
  5
31C
  8
DEFPOINTS
 62
     0
 10
556.07124363514015
 20
193.85754174847901
 30
0.0
  0
POINT
  5
31D
  8
DEFPOINTS
 62
     0
 10
556.07124363514015
 20
151.85754174847901
 30
0.0
  0
POINT
  5
31E
  8
DEFPOINTS
 62
     0
 10
532.26761081739119
 20
151.85754174847901
 30
0.0
  0
ENDBLK
  5
320
  8
0
  0
BLOCK
  8
0
  2
*D3
 70
     1
 10
0.0
 20
0.0
 30
0.0
  3
*D3
  1

  0
LINE
  5
323
  8
DIM
 10
552.27422724053861
 20
181.35754174847901
 30
0.0
 11
544.6726131103901
 21
181.35754174847901
 31
0.0
  0
LINE
  5
324
  8
DIM
 10
552.27422724053861
 20
164.35754174847901
 30
0.0
 11
544.6726131103901
 21
164.35754174847901
 31
0.0
  0
LINE
  5
325
  8
DIM
 10
546.6726131103901
 20
178.35754174847901
 30
0.0
 11
546.6726131103901
 21
167.35754174847909
 31
0.0
  0
SOLID
  5
326
  8
DIM
 10
546.17261311038999
 20
178.35754174847901
 30
0.0
 11
547.1726131103901
 21
178.35754174847901
 31
0.0
 12
546.6726131103901
 22
181.35754174847901
 32
0.0
 13
546.6726131103901
 23
181.35754174847901
 33
0.0
  0
SOLID
  5
327
  8
DIM
 10
546.17261311038999
 20
167.35754174847909
 30
0.0
 11
547.1726131103901
 21
167.35754174847909
 31
0.0
 12
546.6726131103901
 22
164.35754174847901
 32
0.0
 13
546.6726131103901
 23
164.35754174847901
 33
0.0
  0
TEXT
  5
328
  8
0
 10
545.67261311038999
 20
170.71468460562201
 30
0.0
 40
3.0
  1
17
 50
90.0
  7
CHINESET
  0
POINT
  5
329
  8
DEFPOINTS
 62
     0
 10
554.27422724053849
 20
181.35754174847901
 30
0.0
  0
POINT
  5
32A
  8
DEFPOINTS
 62
     0
 10
554.27422724053849
 20
164.35754174847901
 30
0.0
  0
POINT
  5
32B
  8
DEFPOINTS
 62
     0
 10
546.6726131103901
 20
164.35754174847901
 30
0.0
  0
ENDBLK
  5
32D
  8
0
  0
BLOCK
  8
0
  2
*D4
 70
     1
 10
0.0
 20
0.0
 30
0.0
  3
*D4
  1

  0
LINE
  5
330
  8
DIM
 10
585.32124363514015
 20
180.85754174847901
 30
0.0
 11
598.362967898227
 21
180.85754174847901
 31
0.0
  0
LINE
  5
331
  8
DIM
 10
585.32124363514015
 20
164.85754174847901
 30
0.0
 11
598.362967898227
 21
164.85754174847901
 31
0.0
  0
LINE
  5
332
  8
DIM
 10
596.362967898227
 20
177.85754174847901
 30
0.0
 11
596.362967898227
 21
167.85754174847901
 31
0.0
  0
SOLID
  5
333
  8
DIM
 10
595.86296789822688
 20
177.85754174847901
 30
0.0
 11
596.862967898227
 21
177.85754174847901
 31
0.0
 12
596.362967898227
 22
180.85754174847901
 32
0.0
 13
596.362967898227
 23
180.85754174847901
 33
0.0
  0
SOLID
  5
334
  8
DIM
 10
595.86296789822688
 20
167.85754174847901
 30
0.0
 11
596.862967898227
 21
167.85754174847901
 31
0.0
 12
596.362967898227
 22
164.85754174847901
 32
0.0
 13
596.362967898227
 23
164.85754174847901
 33
0.0
  0
TEXT
  5
335
  8
0
 10
595.36296789822688
 20
170.78611317705051
 30
0.0
 40
3.0
  1
16
 50
90.0
  7
CHINESET
  0
POINT
  5
336
  8
DEFPOINTS
 62
     0
 10
583.32124363514015
 20
180.85754174847901
 30
0.0
  0
POINT
  5
337
  8
DEFPOINTS
 62
     0
 10
583.32124363514015
 20
164.85754174847901
 30
0.0
  0
POINT
  5
338
  8
DEFPOINTS
 62
     0
 10
596.362967898227
 20
164.85754174847901
 30
0.0
  0
ENDBLK
  5
33A
  8
0
  0
BLOCK
  8
0
  2
*D5
 70
     1
 10
0.0
 20
0.0
 30
0.0
  3
*D5
  1

  0
LINE
  5
33D
  8
DIM
 10
591.1767901426698
 20
185.85754174847909
 30
0.0
 11
604.66557275152604
 21
185.85754174847909
 31
0.0
  0
LINE
  5
33E
  8
DIM
 10
591.1767901426698
 20
159.85754174847901
 30
0.0
 11
604.66557275152604
 21
159.85754174847901
 31
0.0
  0
LINE
  5
33F
  8
DIM
 10
602.66557275152604
 20
182.85754174847901
 30
0.0
 11
602.66557275152604
 21
162.85754174847901
 31
0.0
  0
SOLID
  5
340
  8
DIM
 10
602.16557275152604
 20
182.85754174847901
 30
0.0
 11
603.16557275152604
 21
182.85754174847901
 31
0.0
 12
602.66557275152604
 22
185.85754174847909
 32
0.0
 13
602.66557275152604
 23
185.85754174847909
 33
0.0
  0
SOLID
  5
341
  8
DIM
 10
602.16557275152604
 20
162.85754174847901
 30
0.0
 11
603.16557275152604
 21
162.85754174847901
 31
0.0
 12
602.66557275152604
 22
159.85754174847901
 32
0.0
 13
602.66557275152604
 23
159.85754174847901
 33
0.0
  0
TEXT
  5
342
  8
0
 10
601.66557275152604
 20
170.50039889133629
 30
0.0
 40
3.0
  1
26
 50
90.0
  7
CHINESET
  0
POINT
  5
343
  8
DEFPOINTS
 62
     0
 10
589.17679014266992
 20
185.85754174847909
 30
0.0
  0
POINT
  5
344
  8
DEFPOINTS
 62
     0
 10
589.17679014266992
 20
159.85754174847901
 30
0.0
  0
POINT
  5
345
  8
DEFPOINTS
 62
     0
 10
602.66557275152604
 20
159.85754174847901
 30
0.0
  0
ENDBLK
  5
347
  8
0
  0
BLOCK
  8
0
  2
*D6
 70
     1
 10
0.0
 20
0.0
 30
0.0
  3
*D6
  1

  0
LINE
  5
34A
  8
DIM
 10
579.57124363514015
 20
200.85754174847909
 30
0.0
 11
600.80811830068308
 21
200.85754174847909
 31
0.0
  0
LINE
  5
34B
  8
DIM
 10
590.07124363514015
 20
193.85754174847901
 30
0.0
 11
600.80811830068308
 21
193.85754174847901
 31
0.0
  0
LINE
  5
34C
  8
DIM
 10
598.80811830068319
 20
203.85754174847901
 30
0.0
 11
598.80811830068319
 21
206.85754174847901
 31
0.0
  0
LINE
  5
34D
  8
DIM
 10
598.80811830068319
 20
190.85754174847901
 30
0.0
 11
598.80811830068319
 21
187.85754174847909
 31
0.0
  0
SOLID
  5
34E
  8
DIM
 10
598.30811830068319
 20
203.85754174847901
 30
0.0
 11
599.30811830068319
 21
203.85754174847901
 31
0.0
 12
598.80811830068319
 22
200.85754174847909
 32
0.0
 13
598.80811830068319
 23
200.85754174847909
 33
0.0
  0
SOLID
  5
34F
  8
DIM
 10
598.30811830068319
 20
190.85754174847901
 30
0.0
 11
599.30811830068319
 21
190.85754174847901
 31
0.0
 12
598.80811830068319
 22
193.85754174847901
 32
0.0
 13
598.80811830068319
 23
193.85754174847901
 33
0.0
  0
TEXT
  5
350
  8
0
 10
597.80811830068319
 20
196.35754174847921
 30
0.0
 40
3.0
  1
7
 50
90.0
  7
CHINESET
  0
POINT
  5
351
  8
DEFPOINTS
 62
     0
 10
577.57124363514015
 20
200.85754174847909
 30
0.0
  0
POINT
  5
352
  8
DEFPOINTS
 62
     0
 10
588.07124363514015
 20
193.85754174847901
 30
0.0
  0
POINT
  5
353
  8
DEFPOINTS
 62
     0
 10
598.80811830068319
 20
193.85754174847901
 30
0.0
  0
ENDBLK
  5
355
  8
0
  0
BLOCK
  8
0
  2
*D7
 70
     1
 10
0.0
 20
0.0
 30
0.0
  3
*D7
  1

  0
LINE
  5
358
  8
DIM
 10
588.07124363514015
 20
214.272809453479
 30
0.0
 11
588.07124363514015
 21
208.30308586570729
 31
0.0
  0
LINE
  5
359
  8
DIM
 10
556.07124363514015
 20
214.272809453479
 30
0.0
 11
556.07124363514015
 21
208.30308586570729
 31
0.0
  0
LINE
  5
35A
  8
DIM
 10
585.07124363514015
 20
210.30308586570729
 30
0.0
 11
559.07124363514015
 21
210.30308586570729
 31
0.0
  0
SOLID
  5
35B
  8
DIM
 10
585.07124363514015
 20
210.80308586570729
 30
0.0
 11
585.07124363514015
 21
209.80308586570729
 31
0.0
 12
588.07124363514015
 22
210.30308586570729
 32
0.0
 13
588.07124363514015
 23
210.30308586570729
 33
0.0
  0
SOLID
  5
35C
  8
DIM
 10
559.07124363514015
 20
210.80308586570729
 30
0.0
 11
559.07124363514015
 21
209.80308586570729
 31
0.0
 12
556.07124363514015
 22
210.30308586570729
 32
0.0
 13
556.07124363514015
 23
210.30308586570729
 33
0.0
  0
TEXT
  5
35D
  8
0
 10
569.6426722065687
 20
211.30308586570729
 30
0.0
 40
3.0
  1
32
  7
CHINESET
  0
POINT
  5
35E
  8
DEFPOINTS
 62
     0
 10
588.07124363514015
 20
216.272809453479
 30
0.0
  0
POINT
  5
35F
  8
DEFPOINTS
 62
     0
 10
556.07124363514015
 20
216.272809453479
 30
0.0
  0
POINT
  5
360
  8
DEFPOINTS
 62
     0
 10
556.07124363514015
 20
210.30308586570729
 30
0.0
  0
ENDBLK
  5
362
  8
0
  0
BLOCK
  8
0
  2
*D8
 70
     1
 10
0.0
 20
0.0
 30
0.0
  3
*D8
  1

  0
LINE
  5
365
  8
DIM
 10
590.07124363514015
 20
216.272809453479
 30
0.0
 11
602.28238366838366
 21
216.272809453479
 31
0.0
  0
LINE
  5
366
  8
DIM
 10
590.07124363514015
 20
232.27280945347891
 30
0.0
 11
602.28238366838366
 21
232.27280945347891
 31
0.0
  0
LINE
  5
367
  8
DIM
 10
600.28238366838377
 20
219.272809453479
 30
0.0
 11
600.28238366838377
 21
229.27280945347891
 31
0.0
  0
SOLID
  5
368
  8
DIM
 10
599.78238366838377
 20
219.272809453479
 30
0.0
 11
600.78238366838366
 21
219.272809453479
 31
0.0
 12
600.28238366838377
 22
216.272809453479
 32
0.0
 13
600.28238366838377
 23
216.272809453479
 33
0.0
  0
SOLID
  5
369
  8
DIM
 10
599.78238366838377
 20
229.27280945347891
 30
0.0
 11
600.78238366838366
 21
229.27280945347891
 31
0.0
 12
600.28238366838377
 22
232.27280945347891
 32
0.0
 13
600.28238366838377
 23
232.27280945347891
 33
0.0
  0
TEXT
  5
36A
  8
0
 10
599.28238366838377
 20
222.2013808820505
 30
0.0
 40
3.0
  1
16
 50
90.0
  7
CHINESET
  0
POINT
  5
36B
  8
DEFPOINTS
 62
     0
 10
588.07124363514015
 20
216.272809453479
 30
0.0
  0
POINT
  5
36C
  8
DEFPOINTS
 62
     0
 10
588.07124363514015
 20
232.27280945347891
 30
0.0
  0
POINT
  5
36D
  8
DEFPOINTS
 62
     0
 10
600.28238366838377
 20
232.27280945347891
 30
0.0
  0
ENDBLK
  5
36F
  8
0
  0
BLOCK
  8
0
  2
*D9
 70
     1
 10
0.0
 20
0.0
 30
0.0
  3
*D9
  1

  0
LINE
  5
372
  8
DIM
 10
563.07124363514015
 20
168.60754174847901
 30
0.0
 11
563.07124363514015
 21
140.03609702037869
 31
0.0
  0
LINE
  5
373
  8
DIM
 10
581.07124363514015
 20
160.60754174847901
 30
0.0
 11
581.07124363514015
 21
140.03609702037869
 31
0.0
  0
LINE
  5
374
  8
DIM
 10
566.07124363514015
 20
142.03609702037869
 30
0.0
 11
578.07124363514015
 21
142.03609702037869
 31
0.0
  0
SOLID
  5
375
  8
DIM
 10
566.07124363514015
 20
142.53609702037869
 30
0.0
 11
566.07124363514015
 21
141.53609702037869
 31
0.0
 12
563.07124363514015
 22
142.03609702037869
 32
0.0
 13
563.07124363514015
 23
142.03609702037869
 33
0.0
  0
SOLID
  5
376
  8
DIM
 10
578.07124363514015
 20
142.53609702037869
 30
0.0
 11
578.07124363514015
 21
141.53609702037869
 31
0.0
 12
581.07124363514015
 22
142.03609702037869
 32
0.0
 13
581.07124363514015
 23
142.03609702037869
 33
0.0
  0
TEXT
  5
377
  8
0
 10
569.92838649228304
 20
143.03609702037869
 30
0.0
 40
3.0
  1
18
  7
CHINESET
  0
POINT
  5
378
  8
DEFPOINTS
 62
     0
 10
563.07124363514015
 20
170.60754174847901
 30
0.0
  0
POINT
  5
379
  8
DEFPOINTS
 62
     0
 10
581.07124363514015
 20
162.60754174847901
 30
0.0
  0
POINT
  5
37A
  8
DEFPOINTS
 62
     0
 10
581.07124363514015
 20
142.03609702037869
 30
0.0
  0
ENDBLK
  5
37C
  8
0
  0
ENDSEC
  0
SECTION
  2
ENTITIES
  0
TEXT
  5
139
  8
DIM
 10
534.74136609134052
 20
188.5231265396537
 30
0.0
 40
1.999999999999998
  1
3-%%C3.5
  7
CHINESET
  0
TEXT
  5
13A
  8
DIM
 10
534.91598068654696
 20
155.8064098855825
 30
0.0
 40
1.999999999999998
  1
3-PT1/8
  7
CHINESET
  0
POLYLINE
  8
0
  5
446
  66
     1
 10
0.000000
 20
0.000000
 30
0.000000
  70
     8
  0
VERTEX
  8
0
  5
447
 10
556.071
 20
164.358
 30
0.000000
  70
    32
  0
VERTEX
  8
0
  5
448
 10
550.095
 20
155.226
 30
0.000000
  70
    32
  0
VERTEX
  8
0
  5
449
 10
534.250
 20
155.226
 30
0.000000
  70
    32
  0
SEQEND
  8
0
  5
44A
  0
POLYLINE
  8
0
  5
44B
  66
     1
 10
0.000000
 20
0.000000
 30
0.000000
  70
     8
  0
VERTEX
  8
0
  5
44C
 10
562.143
 20
174.281
 30
0.000000
  70
    32
  0
VERTEX
  8
0
  5
44D
 10
551.589
 20
188.039
 30
0.000000
  70
    32
  0
VERTEX
  8
0
  5
44E
 10
533.721
 20
188.039
 30
0.000000
  70
    32
  0
SEQEND
  8
0
  5
44F
  0
TEXT
  5
154
  8
0
 10
541.07386566802359
 20
251.85628105959699
 30
0.0
 40
4.5833333333333304
  1
MVHA-41P
  7
ITALIC
  0
LINE
  5
157
  8
0
 10
615.08951019785991
 20
188.36608454267119
 30
0.0
 11
615.08951019785991
 21
183.36608454267119
 31
0.0
  0
LINE
  5
158
  8
0
 10
614.78951019785984
 20
188.06608454267121
 30
0.0
 11
614.78951019785984
 21
183.6660845426712
 31
0.0
  0
LINE
  5
159
  8
HIDDEN
  6
HIDDEN
 10
617.58951019785968
 20
188.36608454267119
 30
0.0
 11
617.58951019785968
 21
183.36608454267119
 31
0.0
  0
LINE
  5
15A
  8
0
 10
619.08951019785991
 20
188.36608454267119
 30
0.0
 11
619.08951019785991
 21
183.36608454267119
 31
0.0
  0
LINE
  5
15B
  8
0
 10
609.08951019785991
 20
188.06608454267121
 30
0.0
 11
609.08951019785991
 21
183.6660845426712
 31
0.0
  0
LINE
  5
15C
  8
0
 10
609.38951019785975
 20
188.36608454267119
 30
0.0
 11
609.38951019785975
 21
183.36608454267119
 31
0.0
  0
LINE
  5
15D
  8
HIDDEN
  6
HIDDEN
 10
587.57124363514015
 20
187.85754174847909
 30
0.0
 11
587.57124363514015
 21
183.85754174847909
 31
0.0
  0
LINE
  5
15E
  8
0
 10
556.07124363514015
 20
193.85754174847901
 30
0.0
 11
556.07124363514015
 21
151.85754174847901
 31
0.0
  0
LINE
  5
15F
  8
0
 10
588.07124363514015
 20
193.85754174847901
 30
0.0
 11
588.07124363514015
 21
151.85754174847901
 31
0.0
  0
LINE
  5
160
  8
CENTER
  6
CENTER
 10
572.07124363514015
 20
206.85358205279789
 30
0.0
 11
572.07124363514015
 21
149.83612307660999
 31
0.0
  0
POLYLINE
  8
0
  5
450
  66
     1
 10
0.000000
 20
0.000000
 30
0.000000
  70
     8
  0
VERTEX
  8
0
  5
451
 10
588.071
 20
159.858
 30
0.000000
  70
    32
  0
VERTEX
  8
0
  5
452
 10
596.720
 20
149.805
 30
0.000000
  70
    32
  0
VERTEX
  8
0
  5
453
 10
613.890
 20
149.805
 30
0.000000
  70
    32
  0
SEQEND
  8
0
  5
454
  0
CIRCLE
  5
166
  8
0
 10
581.07124363514015
 20
164.85754174847901
 30
0.0
 40
1.699999999999998
  0
LINE
  5
167
  8
CENTER
  6
CENTER
 10
581.07124363514015
 20
167.10754174847901
 30
0.0
 11
581.07124363514015
 21
162.60754174847901
 31
0.0
  0
LINE
  5
168
  8
HIDDEN
  6
HIDDEN
 10
557.07124363514004
 20
160.35754174847909
 30
0.0
 11
557.07124363514004
 21
168.35754174847909
 31
0.0
  0
LINE
  5
16C
  8
CENTER
  6
CENTER
 10
554.27422724053849
 20
164.35754174847901
 30
0.0
 11
568.23384794005585
 21
164.35754174847901
 31
0.0
  0
LINE
  5
16D
  8
0
 10
556.07124363514015
 20
151.85754174847901
 30
0.0
 11
588.07124363514015
 21
151.85754174847909
 31
0.0
  0
LINE
  5
16F
  8
HIDDEN
  6
HIDDEN
 10
557.07124363514004
 20
160.35754174847901
 30
0.0
 11
563.09741825766707
 21
160.5679804033893
 31
0.0
  0
LINE
  5
170
  8
HIDDEN
  6
HIDDEN
 10
556.2936316686812
 20
159.5799297820202
 30
0.0
 11
563.09741825766707
 21
159.81752324516521
 31
0.0
  0
LINE
  5
171
  8
HIDDEN
  6
HIDDEN
 10
556.07124363514015
 20
159.35754174847901
 30
0.0
 11
557.07124363514004
 21
160.35754174847901
 31
0.0
  0
LINE
  5
175
  8
0
 10
567.8712436351401
 20
151.85754174847901
 30
0.0
 11
576.27124363514008
 21
151.85754174847909
 31
0.0
  0
LINE
  5
176
  8
0
 10
565.42124363514006
 20
151.85754174847901
 30
0.0
 11
566.57124363514015
 21
151.85754174847901
 31
0.0
  0
LINE
  5
178
  8
0
 10
577.57124363514015
 20
151.85754174847901
 30
0.0
 11
578.72124363514013
 21
151.85754174847901
 31
0.0
  0
LINE
  5
179
  8
CENTER
  6
CENTER
 10
576.44093749979208
 20
159.85754174847901
 30
0.0
 11
589.17679014266992
 21
159.85754174847901
 31
0.0
  0
LINE
  5
17A
  8
HIDDEN
  6
HIDDEN
 10
587.57124363514015
 20
157.85754174847901
 30
0.0
 11
587.57124363514015
 21
161.85754174847901
 31
0.0
  0
LINE
  5
17B
  8
HIDDEN
  6
HIDDEN
 10
578.94903483372104
 20
157.85754174847901
 30
0.0
 11
587.57124363514015
 21
157.85754174847909
 31
0.0
  0
LINE
  5
17C
  8
HIDDEN
  6
HIDDEN
 10
578.94903483372104
 20
157.35754174847909
 30
0.0
 11
588.07124363514015
 21
157.35754174847901
 31
0.0
  0
LINE
  5
17D
  8
HIDDEN
  6
HIDDEN
 10
587.57124363514015
 20
157.85754174847901
 30
0.0
 11
588.07124363514015
 21
157.35754174847901
 31
0.0
  0
LINE
  5
17E
  8
HIDDEN
  6
HIDDEN
 10
578.94903483372104
 20
161.85754174847901
 30
0.0
 11
587.57124363514015
 21
161.85754174847901
 31
0.0
  0
LINE
  5
17F
  8
HIDDEN
  6
HIDDEN
 10
578.94903483372104
 20
162.35754174847901
 30
0.0
 11
588.07124363514015
 21
162.35754174847901
 31
0.0
  0
LINE
  5
180
  8
HIDDEN
  6
HIDDEN
 10
587.57124363514015
 20
161.85754174847901
 30
0.0
 11
588.07124363514015
 21
162.35754174847901
 31
0.0
  0
LINE
  5
181
  8
CENTER
  6
CENTER
 10
554.27422724053849
 20
181.35754174847901
 30
0.0
 11
567.39560230140194
 21
181.35754174847901
 31
0.0
1001
ACAD
1000
ASC_BOUNDS
1002
{
1070
    19
1002
}
  0
CIRCLE
  5
182
  8
0
 10
563.07124363514015
 20
172.85754174847901
 30
0.0
 40
1.699999999999998
  0
LINE
  5
183
  8
CENTER
  6
CENTER
 10
589.86826002974169
 20
172.85754174847901
 30
0.0
 11
554.47581504291975
 21
172.85754174847901
 31
0.0
  0
LINE
  5
186
  8
HIDDEN
  6
HIDDEN
 10
557.07124363514004
 20
168.35754174847909
 30
0.0
 11
563.09741825766707
 21
168.14710309356869
 31
0.0
  0
LINE
  5
187
  8
HIDDEN
  6
HIDDEN
 10
556.29363166868131
 20
169.1351537149379
 30
0.0
 11
563.09741825766707
 21
168.8975602517929
 31
0.0
  0
LINE
  5
188
  8
HIDDEN
  6
HIDDEN
 10
556.07124363514015
 20
169.35754174847909
 30
0.0
 11
557.07124363514004
 21
168.35754174847909
 31
0.0
  0
LINE
  5
189
  8
CENTER
  6
CENTER
 10
563.07124363514015
 20
175.10754174847901
 30
0.0
 11
563.07124363514015
 21
170.60754174847901
 31
0.0
  0
LINE
  5
18B
  8
HIDDEN
  6
HIDDEN
 10
557.07124363514004
 20
185.35754174847901
 30
0.0
 11
557.07124363514004
 21
177.35754174847901
 31
0.0
  0
LINE
  5
18C
  8
HIDDEN
  6
HIDDEN
 10
556.29363166868131
 20
176.57992978202009
 30
0.0
 11
563.09741825766707
 21
176.81752324516509
 31
0.0
  0
LINE
  5
18D
  8
HIDDEN
  6
HIDDEN
 10
557.07124363514004
 20
177.35754174847901
 30
0.0
 11
563.09741825766707
 21
177.5679804033893
 31
0.0
  0
LINE
  5
18F
  8
HIDDEN
  6
HIDDEN
 10
556.07124363514015
 20
176.35754174847901
 30
0.0
 11
557.07124363514004
 21
177.35754174847901
 31
0.0
  0
LINE
  5
190
  8
HIDDEN
  6
HIDDEN
 10
556.2936316686812
 20
186.1351537149379
 30
0.0
 11
563.09741825766707
 21
185.8975602517929
 31
0.0
  0
LINE
  5
191
  8
HIDDEN
  6
HIDDEN
 10
557.07124363514004
 20
185.35754174847909
 30
0.0
 11
563.09741825766707
 21
185.1471030935688
 31
0.0
  0
LINE
  5
192
  8
HIDDEN
  6
HIDDEN
 10
556.07124363514015
 20
186.35754174847901
 30
0.0
 11
557.07124363514004
 21
185.35754174847901
 31
0.0
  0
LINE
  5
193
  8
HIDDEN
  6
HIDDEN
 10
587.07124363514026
 20
176.85754174847901
 30
0.0
 11
587.07124363514026
 21
168.85754174847901
 31
0.0
  0
LINE
  5
194
  8
HIDDEN
  6
HIDDEN
 10
587.8488556015991
 20
168.0799297820202
 30
0.0
 11
581.04506901261323
 21
168.31752324516521
 31
0.0
  0
LINE
  5
195
  8
HIDDEN
  6
HIDDEN
 10
587.07124363514026
 20
168.85754174847901
 30
0.0
 11
581.04506901261323
 21
169.0679804033893
 31
0.0
  0
LINE
  5
196
  8
CENTER
  6
CENTER
 10
583.32124363514015
 20
164.85754174847901
 30
0.0
 11
578.82124363514015
 21
164.85754174847901
 31
0.0
  0
LINE
  5
197
  8
HIDDEN
  6
HIDDEN
 10
588.07124363514015
 20
167.85754174847901
 30
0.0
 11
587.07124363514026
 21
168.85754174847901
 31
0.0
  0
LINE
  5
198
  8
CENTER
  6
CENTER
 10
576.44093749979208
 20
185.85754174847909
 30
0.0
 11
589.17679014266992
 21
185.85754174847909
 31
0.0
  0
LINE
  5
199
  8
CENTER
  6
CENTER
 10
581.07124363514015
 20
183.10754174847901
 30
0.0
 11
581.07124363514015
 21
178.60754174847901
 31
0.0
  0
CIRCLE
  5
19A
  8
0
 10
581.07124363514015
 20
180.85754174847901
 30
0.0
 40
1.699999999999998
  0
LINE
  5
19B
  8
HIDDEN
  6
HIDDEN
 10
587.07124363514015
 20
176.85754174847901
 30
0.0
 11
581.04506901261323
 21
176.6471030935688
 31
0.0
  0
LINE
  5
19C
  8
HIDDEN
  6
HIDDEN
 10
587.8488556015991
 20
177.6351537149379
 30
0.0
 11
581.04506901261323
 21
177.3975602517929
 31
0.0
  0
LINE
  5
19D
  8
CENTER
  6
CENTER
 10
583.32124363514015
 20
180.85754174847901
 30
0.0
 11
578.82124363514015
 21
180.85754174847901
 31
0.0
  0
LINE
  5
19E
  8
HIDDEN
  6
HIDDEN
 10
588.07124363514015
 20
177.85754174847901
 30
0.0
 11
587.07124363514026
 21
176.85754174847901
 31
0.0
  0
LINE
  5
19F
  8
HIDDEN
  6
HIDDEN
 10
578.94903483372104
 20
183.35754174847909
 30
0.0
 11
588.07124363514015
 21
183.35754174847909
 31
0.0
  0
LINE
  5
1A0
  8
HIDDEN
  6
HIDDEN
 10
578.94903483372104
 20
183.85754174847909
 30
0.0
 11
587.57124363514015
 21
183.85754174847909
 31
0.0
  0
LINE
  5
1A1
  8
HIDDEN
  6
HIDDEN
 10
587.57124363514015
 20
183.85754174847909
 30
0.0
 11
588.07124363514015
 21
183.35754174847909
 31
0.0
  0
TEXT
  5
1A3
  8
DIM
 10
598.35981943451486
 20
150.4877036326107
 30
0.0
 40
1.999999999999998
  1
2-M5*0.8
  7
CHINESET
  0
LINE
  5
1A4
  8
CENTER
  6
CENTER
 10
619.74560866809702
 20
159.86608454267119
 30
0.0
 11
608.61484989863072
 21
159.86608454267119
 31
0.0
  0
LINE
  5
1A5
  8
0
 10
614.78951019785984
 20
162.06608454267121
 30
0.0
 11
609.08951019785991
 21
162.06608454267121
 31
0.0
  0
LINE
  5
1A6
  8
0
 10
619.08951019785991
 20
162.36608454267119
 30
0.0
 11
609.38951019785975
 21
162.36608454267119
 31
0.0
  0
LINE
  5
1A7
  8
0
 10
619.08951019785991
 20
157.36608454267119
 30
0.0
 11
609.38951019785975
 21
157.36608454267119
 31
0.0
  0
LINE
  5
1A8
  8
0
 10
614.78951019785984
 20
157.6660845426712
 30
0.0
 11
609.08951019785991
 21
157.6660845426712
 31
0.0
  0
ARC
  5
1A9
  8
HIDDEN
  6
HIDDEN
 10
606.64670659442857
 20
150.16903805649491
 30
0.0
 40
9.9999999999999911
 50
46.030101062924679
 51
75.860690738922031
  0
LINE
  5
1AA
  8
0
 10
609.38951019785975
 20
162.36608454267119
 30
0.0
 11
609.38951019785975
 21
157.36608454267119
 31
0.0
  0
LINE
  5
1AB
  8
0
 10
609.08951019785991
 20
162.06608454267121
 30
0.0
 11
609.08951019785991
 21
157.6660845426712
 31
0.0
  0
LINE
  5
1AC
  8
0
 10
609.08951019785991
 20
157.6660845426712
 30
0.0
 11
609.38951019785975
 21
157.36608454267119
 31
0.0
  0
LINE
  5
1AD
  8
0
 10
609.08951019785991
 20
162.06608454267121
 30
0.0
 11
609.38951019785975
 21
162.36608454267119
 31
0.0
  0
LINE
  5
1AF
  8
HIDDEN
  6
HIDDEN
 10
617.58951019785968
 20
162.36608454267119
 30
0.0
 11
617.58951019785968
 21
157.36608454267119
 31
0.0
  0
LINE
  5
1B0
  8
0
 10
619.08951019785991
 20
162.36608454267119
 30
0.0
 11
619.08951019785991
 21
157.36608454267119
 31
0.0
  0
LINE
  5
1B1
  8
0
 10
615.08951019785991
 20
162.36608454267119
 30
0.0
 11
615.08951019785991
 21
157.36608454267119
 31
0.0
  0
LINE
  5
1B2
  8
0
 10
614.78951019785984
 20
162.06608454267121
 30
0.0
 11
614.78951019785984
 21
157.6660845426712
 31
0.0
  0
LINE
  5
1B3
  8
0
 10
614.78951019785984
 20
157.6660845426712
 30
0.0
 11
615.08951019785991
 21
157.36608454267119
 31
0.0
  0
LINE
  5
1B4
  8
0
 10
614.78951019785984
 20
162.06608454267121
 30
0.0
 11
615.08951019785991
 21
162.36608454267119
 31
0.0
  0
LINE
  5
1B9
  8
CENTER
  6
CENTER
 10
619.74560866809702
 20
185.86608454267119
 30
0.0
 11
608.61484989863072
 21
185.86608454267119
 31
0.0
  0
LINE
  5
1BA
  8
0
 10
619.08951019785991
 20
183.36608454267119
 30
0.0
 11
609.38951019785975
 21
183.36608454267119
 31
0.0
  0
LINE
  5
1BB
  8
0
 10
614.78951019785984
 20
183.6660845426712
 30
0.0
 11
609.08951019785991
 21
183.6660845426712
 31
0.0
  0
ARC
  5
1BC
  8
HIDDEN
  6
HIDDEN
 10
606.64670659442857
 20
176.16903805649491
 30
0.0
 40
9.9999999999999911
 50
46.030101062924679
 51
75.860690738922031
  0
LINE
  5
1BE
  8
0
 10
609.08951019785991
 20
183.6660845426712
 30
0.0
 11
609.38951019785975
 21
183.36608454267119
 31
0.0
  0
LINE
  5
1C0
  8
0
 10
614.78951019785984
 20
183.6660845426712
 30
0.0
 11
615.08951019785991
 21
183.36608454267119
 31
0.0
  0
POLYLINE
  8
0
  5
455
  66
     1
 10
0.000000
 20
0.000000
 30
0.000000
  70
     8
  0
VERTEX
  8
0
  5
456
 10
566.071
 20
196.704
 30
0.000000
  70
    32
  0
VERTEX
  8
0
  5
457
 10
559.613
 20
202.292
 30
0.000000
  70
    32
  0
VERTEX
  8
0
  5
458
 10
546.928
 20
202.292
 30
0.000000
  70
    32
  0
SEQEND
  8
0
  5
459
  0
LINE
  5
1CA
  8
0
 10
556.07124363514015
 20
193.85754174847901
 30
0.0
 11
572.07124363514015
 21
193.85754174847901
 31
0.0
  0
TEXT
  5
1CB
  8
DIM
 10
545.42758162981033
 20
188.3431822137764
 30
0.0
 40
2.3333333333333308
  1
貫通
  7
CHINESET
  0
TEXT
  5
1CD
  8
DIM
 10
547.6868659945103
 20
202.75498186166141
 30
0.0
 40
1.999999999999998
  1
M12*0.8
  7
CHINESET
  0
LINE
  5
1CF
  8
0
 10
578.07124363514015
 20
200.35754174847901
 30
0.0
 11
578.07124363514015
 21
194.85754174847901
 31
0.0
  0
LINE
  5
1D0
  8
0
 10
577.67124363514006
 20
200.75754174847901
 30
0.0
 11
577.67124363514006
 21
194.85754174847901
 31
0.0
  0
LINE
  5
1D1
  8
0
 10
566.47124363514001
 20
200.7575417484791
 30
0.0
 11
566.47124363514001
 21
194.85754174847901
 31
0.0
  0
LINE
  5
1D2
  8
0
 10
566.07124363514015
 20
200.35754174847909
 30
0.0
 11
566.07124363514015
 21
194.85754174847901
 31
0.0
  0
LINE
  5
1D3
  8
0
 10
566.07124363514015
 20
194.85754174847901
 30
0.0
 11
578.07124363514015
 21
194.85754174847901
 31
0.0
  0
LINE
  5
1D4
  8
0
 10
572.07124363514015
 20
193.85754174847901
 30
0.0
 11
588.07124363514015
 21
193.85754174847901
 31
0.0
  0
LINE
  5
1D5
  8
0
 10
566.57124363514015
 20
194.85754174847901
 30
0.0
 11
566.57124363514015
 21
193.85754174847909
 31
0.0
  0
LINE
  5
1D6
  8
HIDDEN
  6
HIDDEN
 10
578.94903483372104
 20
188.35754174847909
 30
0.0
 11
588.07124363514015
 21
188.35754174847909
 31
0.0
  0
LINE
  5
1D7
  8
HIDDEN
  6
HIDDEN
 10
578.94903483372104
 20
187.85754174847909
 30
0.0
 11
587.57124363514015
 21
187.85754174847901
 31
0.0
  0
LINE
  5
1D8
  8
HIDDEN
  6
HIDDEN
 10
587.57124363514015
 20
187.85754174847909
 30
0.0
 11
588.07124363514015
 21
188.35754174847909
 31
0.0
  0
LINE
  5
1D9
  8
0
 10
577.57124363514015
 20
194.85754174847901
 30
0.0
 11
577.57124363514015
 21
193.85754174847909
 31
0.0
  0
LINE
  5
1DA
  8
0
 10
577.3712436351401
 20
204.0075417484791
 30
0.0
 11
577.26166819642287
 21
204.62897494195261
 31
0.0
  0
LINE
  5
1DB
  8
0
 10
566.07124363514015
 20
200.35754174847909
 30
0.0
 11
578.07124363514015
 21
200.35754174847901
 31
0.0
  0
ARC
  5
1DC
  8
0
 10
576.6212436351401
 20
204.0075417484791
 30
0.0
 40
0.7499999999999996
 50
270.0
 51
0.0
  0
LINE
  5
1DD
  8
0
  6
CONTINUOUS
 10
566.57124363514004
 20
200.85754174847909
 30
0.0
 11
577.57124363514015
 21
200.85754174847909
 31
0.0
  0
ARC
  5
1DE
  8
0
 10
572.07124363514015
 20
193.25754174847901
 30
0.0
 40
12.499999999999989
 50
65.465948770057295
 51
114.53405122994261
  0
LINE
  5
1DF
  8
0
 10
567.52124363513997
 20
203.25754174847901
 30
0.0
 11
570.57124363514004
 21
203.2575417484791
 31
0.0
  0
LINE
  5
1E0
  8
0
 10
566.77124363514008
 20
204.00754174847901
 30
0.0
 11
566.8808190738572
 21
204.62897494195261
 31
0.0
  0
LINE
  5
1E1
  8
0
 10
569.77124363514008
 20
201.2575417484791
 30
0.0
 11
569.77124363514008
 21
202.25754174847901
 31
0.0
  0
LINE
  5
1E2
  8
0
 10
569.57124363514004
 20
201.2575417484791
 30
0.0
 11
569.77124363514008
 21
201.2575417484791
 31
0.0
  0
LINE
  5
1E3
  8
0
 10
569.57124363514015
 20
202.25754174847901
 30
0.0
 11
569.77124363514008
 21
202.25754174847901
 31
0.0
  0
LINE
  5
1E4
  8
0
 10
569.57124363514004
 20
200.85754174847909
 30
0.0
 11
569.57124363514004
 21
201.2575417484791
 31
0.0
  0
LINE
  5
1E5
  8
0
 10
566.07124363514015
 20
200.35754174847909
 30
0.0
 11
566.57124363514015
 21
200.85754174847909
 31
0.0
  0
LINE
  5
1E6
  8
0
 10
569.57124363514004
 20
202.25754174847901
 30
0.0
 11
569.57124363514004
 21
203.25754174847901
 31
0.0
  0
ARC
  5
1E7
  8
0
 10
567.52124363513997
 20
204.0075417484791
 30
0.0
 40
0.7499999999999996
 50
180.0
 51
270.00000000000011
  0
LINE
  5
1E8
  8
0
 10
573.57124363514015
 20
203.2575417484791
 30
0.0
 11
576.6212436351401
 21
203.25754174847921
 31
0.0
  0
LINE
  5
1E9
  8
0
 10
570.57124363514004
 20
203.35754174847909
 30
0.0
 11
573.57124363514015
 21
203.35754174847909
 31
0.0
  0
LINE
  5
1EA
  8
0
 10
574.37124363513999
 20
201.2575417484791
 30
0.0
 11
574.37124363513999
 21
202.2575417484791
 31
0.0
  0
LINE
  5
1EB
  8
0
 10
574.37124363513999
 20
201.2575417484791
 30
0.0
 11
574.57124363514015
 21
201.2575417484791
 31
0.0
  0
LINE
  5
1EC
  8
0
 10
574.37124363513999
 20
202.2575417484791
 30
0.0
 11
574.57124363514015
 21
202.2575417484791
 31
0.0
  0
LINE
  5
1ED
  8
0
 10
574.57124363514015
 20
200.85754174847909
 30
0.0
 11
574.57124363514015
 21
201.2575417484791
 31
0.0
  0
LINE
  5
1EE
  8
0
 10
574.57124363514015
 20
202.2575417484791
 30
0.0
 11
574.57124363514015
 21
203.25754174847901
 31
0.0
  0
LINE
  5
1EF
  8
0
 10
577.57124363514015
 20
200.85754174847909
 30
0.0
 11
578.07124363514015
 21
200.35754174847901
 31
0.0
  0
LINE
  5
1F2
  8
0
 10
556.07124363514015
 20
232.27280945347891
 30
0.0
 11
588.07124363514015
 21
232.27280945347891
 31
0.0
  0
LINE
  5
1F3
  8
CENTER
  6
CENTER
 10
554.28170133559581
 20
224.272809453479
 30
0.0
 11
589.35153877247899
 21
224.272809453479
 31
0.0
  0
LINE
  5
1F4
  8
0
 10
556.07124363514015
 20
216.272809453479
 30
0.0
 11
588.07124363514015
 21
216.272809453479
 31
0.0
  0
LINE
  5
1F5
  8
0
 10
556.07124363514015
 20
216.272809453479
 30
0.0
 11
556.07124363514015
 21
232.27280945347891
 31
0.0
  0
LINE
  5
1F6
  8
0
 10
588.07124363514015
 20
216.272809453479
 30
0.0
 11
588.07124363514015
 21
232.27280945347891
 31
0.0
  0
CIRCLE
  5
1F7
  8
0
 10
572.07124363514015
 20
224.27280945347891
 30
0.0
 40
5.9999999999999956
  0
CIRCLE
  5
1F8
  8
0
 10
572.07124363514015
 20
224.27280945347891
 30
0.0
 40
5.4999999999999956
  0
CIRCLE
  5
1F9
  8
0
 10
572.07124363514015
 20
224.27280945347891
 30
0.0
 40
4.4999999999999396
  0
CIRCLE
  5
1FA
  8
0
 10
572.07124363514015
 20
224.27280945347891
 30
0.0
 40
4.0000000000000542
  0
LINE
  5
1FB
  8
CENTER
  6
CENTER
 10
572.07124363514015
 20
214.70388907676099
 30
0.0
 11
572.07124363514015
 21
233.37871725198141
 31
0.0
  0
LINE
  5
1FE
  8
0
 10
619.08951019785991
 20
188.36608454267119
 30
0.0
 11
609.38951019785975
 21
188.36608454267119
 31
0.0
  0
LINE
  5
1FF
  8
0
 10
614.78951019785984
 20
188.06608454267121
 30
0.0
 11
609.08951019785991
 21
188.06608454267121
 31
0.0
  0
LINE
  5
200
  8
0
 10
609.08951019785991
 20
188.06608454267121
 30
0.0
 11
609.38951019785975
 21
188.36608454267119
 31
0.0
  0
LINE
  5
203
  8
0
 10
614.78951019785984
 20
188.06608454267121
 30
0.0
 11
615.08951019785991
 21
188.36608454267119
 31
0.0
  0
LINE
  5
232
  8
0
 10
509.56630644755199
 20
222.24825588725631
 30
0.0000000000000592
 11
510.87911894755189
 21
220.30669338725639
 31
0.0000000000000592
  0
LINE
  5
233
  8
0
 10
506.97302519755198
 20
229.6816933872563
 30
0.0000000000000592
 11
510.87927519755198
 21
220.30669338725639
 31
0.0000000000000592
  0
LINE
  5
234
  8
0
 10
501.50427519755198
 20
220.30669338725639
 30
0.0000000000000592
 11
524.94177519755203
 21
220.30669338725639
 31
0.0000000000000592
  0
LINE
  5
235
  8
0
 10
501.50427519755198
 20
229.6816933872563
 30
0.0000000000000592
 11
524.94177519755203
 21
229.6816933872563
 31
0.0000000000000592
  0
LINE
  5
236
  8
0
 10
503.84802519755198
 20
220.30669338725639
 30
0.0000000000000592
 11
503.84802519755198
 21
229.6816933872563
 31
0.0000000000000592
  0
LINE
  5
237
  8
0
 10
501.50427519755198
 20
220.30669338725639
 30
0.0000000000000592
 11
501.50427519755198
 21
229.6816933872563
 31
0.0000000000000592
  0
ARC
  5
238
  8
0
 10
497.43375436421871
 20
224.9941933872563
 30
0.0000000000000592
 40
2.190239583333331
 50
106.3604999999999
 51
253.63943
  0
LINE
  5
239
  8
0
 10
504.15380644755197
 20
227.35794338725631
 30
0.0000000000000592
 11
503.84802519755198
 21
229.68153713725641
 31
0.0000000000000592
  0
LINE
  5
23A
  8
0
 10
503.84802519755198
 20
229.6816933872563
 30
0.0000000000000592
 11
503.54208769755201
 21
227.35794338725631
 31
0.0000000000000592
  0
LINE
  5
23B
  8
0
 10
496.81677519755198
 20
226.2962767205897
 30
0.0000000000000592
 11
501.50427519755198
 21
226.2962767205897
 31
0.0000000000000592
  0
LINE
  5
23C
  8
0
 10
496.81677519755198
 20
223.69211005392299
 30
0.0000000000000592
 11
501.50427519755198
 21
223.69211005392299
 31
0.0000000000000592
  0
LINE
  5
23D
  8
0
 10
496.81677519755198
 20
222.89263088725639
 30
0.0000000000000592
 11
496.81677519755198
 21
227.0957558872563
 31
0.0000000000000592
  0
LINE
  5
23E
  8
0
 10
524.94177519755203
 20
220.30669338725639
 30
0.0000000000000592
 11
524.94177519755203
 21
229.6816933872563
 31
0.0000000000000592
  0
LINE
  5
23F
  8
0
 10
510.11365019755209
 20
222.52184963725639
 30
0.0000000000000592
 11
510.87911894755189
 21
220.30669338725639
 31
0.0000000000000592
  0
LINE
  5
240
  8
0
 10
513.22302519755203
 20
220.30669338725639
 30
0.0000000000000592
 11
513.22302519755203
 21
229.6816933872563
 31
0.0000000000000592
  0
LINE
  5
241
  8
0
 10
522.59802519755203
 20
220.30669338725639
 30
0.0000000000000592
 11
522.59802519755203
 21
229.6816933872563
 31
0.0000000000000592
  0
LINE
  5
242
  8
0
 10
516.33240019755203
 20
222.52184963725639
 30
0.0000000000000592
 11
515.56693144755195
 21
220.30669338725639
 31
0.0000000000000592
  0
LINE
  5
243
  8
0
 10
519.47302519755203
 20
229.6816933872563
 30
0.0000000000000592
 11
515.56677519755203
 21
220.30669338725639
 31
0.0000000000000592
  0
LINE
  5
244
  8
0
 10
516.87974394755202
 20
222.24825588725631
 30
0.0000000000000592
 11
515.56693144755195
 21
220.30669338725639
 31
0.0000000000000592
  0
TEXT
  5
245
  8
0
 10
514.32008090703823
 20
216.76463320965041
 30
0.0000000000000592
 40
2.6041666666666639
  1
A
  0
TEXT
  5
246
  8
0
 10
521.79020993832182
 20
216.76463320965041
 30
0.0000000000000592
 40
2.6041666666666639
  1
B
  0
TEXT
  5
247
  8
0
 10
522.06062196869368
 20
230.1796185577237
 30
0.0000000000000592
 40
2.6041666666666639
  1
R
  0
LINE
  5
248
  8
0
 10
510.87927519755198
 20
227.3379433872563
 30
0.0000000000000592
 11
510.87927519755198
 21
229.6816933872563
 31
0.0000000000000592
  0
LINE
  5
249
  8
0
 10
522.59802519755203
 20
229.6816933872563
 30
0.0000000000000592
 11
522.90396269755195
 21
227.35794338725631
 31
0.0000000000000592
  0
LINE
  5
24A
  8
0
 10
522.29224394755215
 20
227.35794338725631
 30
0.0000000000000592
 11
522.59802519755203
 21
229.68153713725641
 31
0.0000000000000592
  0
LINE
  5
24B
  8
0
 10
515.56677519755203
 20
227.3379433872563
 30
0.0000000000000592
 11
515.56677519755203
 21
229.6816933872563
 31
0.0000000000000592
  0
LINE
  5
24C
  8
0
 10
511.66052519755198
 20
227.3379433872563
 30
0.0000000000000592
 11
510.09802519755198
 21
227.3379433872563
 31
0.0000000000000592
  0
LINE
  5
24D
  8
0
 10
514.78552519755203
 20
227.3379433872563
 30
0.0000000000000592
 11
516.34802519755203
 21
227.3379433872563
 31
0.0000000000000592
  0
TEXT
  5
24E
  8
0
 10
515.23203299988495
 20
230.01167100387971
 30
0.0000000000000592
 40
1.041666666666665
  1
2
  7
CHINESET
  0
TEXT
  5
24F
  8
0
 10
513.04689107451873
 20
230.1796185577237
 30
0.0000000000000592
 40
2.6041666666666639
  1
R
  0
TEXT
  5
250
  8
0
 10
518.1734514769488
 20
230.1796185577237
 30
0.0000000000000592
 40
2.6041666666666639
  1
P
  0
LINE
  5
251
  8
0
 10
526.4380401795313
 20
222.6771908663554
 30
0.0000000000000592
 11
527.5212174880362
 21
225.7202972046278
 31
0.0000000000000592
  0
LINE
  5
252
  8
0
 10
524.94177519755203
 20
225.8555461123062
 30
0.0000000000000592
 11
526.4380401795313
 21
222.6771908663554
 31
0.0000000000000592
  0
LINE
  5
253
  8
0
 10
528.60439286002747
 20
222.74481478242129
 30
0.0000000000000592
 11
530.0260630774402
 21
225.7879211206938
 31
0.0000000000000592
  0
LINE
  5
254
  8
0
 10
527.5212174880362
 20
225.7202972046278
 30
0.0000000000000592
 11
528.60439286002747
 21
222.74481478242129
 31
0.0000000000000592
  0
TEXT
  5
255
  8
0
 10
524.24576389406013
 20
229.98907675059451
 30
0.0000000000000592
 40
1.041666666666665
  1
1
  7
CHINESET
  0
TEXT
  5
287
  8
LOGO
 62
     6
 10
525.25938889877295
 20
120.80929488446969
 30
0.0
 40
1.999042947080214
  1
m/m
  7
CHINESET
 72
     1
 11
528.78151218648566
 21
121.80881635800981
 31
0.0
 73
     2
  0
TEXT
  5
288
  8
LOGO
 62
     6
 10
525.25938889877295
 20
128.80546667279049
 30
0.0
 40
1.999042947080214
  1
1 : 1
  7
CHINESET
 72
     1
 11
528.78151218648566
 21
129.8049881463306
 31
0.0
 73
     2
  0
TEXT
  5
289
  8
LOGO
 62
     6
 10
508.81068403416327
 20
120.80929488446969
 30
0.0
 40
1.999042947080214
  1
單位 Unit:
 41
0.9
  7
CHINESET
 72
     4
 11
514.26432307416655
 21
121.80881635800981
 31
0.0
  0
TEXT
  5
28A
  8
LOGO
 62
     6
 10
507.91646928729972
 20
128.80645045376841
 30
0.0
 40
1.999042947080214
  1
比例 Scale:
 41
0.9
  7
CHINESET
 72
     4
 11
514.26432307416655
 21
129.8049881463306
 31
0.0
  0
LINE
  5
28B
  8
LOGO
 62
     1
 10
628.87611870676551
 20
111.8136016226087
 30
0.0
 11
628.87611870676551
 21
131.80403109341091
 31
0.0
  0
LINE
  5
28C
  8
LOGO
 62
     1
 10
522.26049486248746
 20
119.80977341092959
 30
0.0
 11
522.26049486248746
 21
131.80403109341091
 31
0.0
  0
LINE
  5
28D
  8
LOGO
 62
     1
 10
535.58744784302212
 20
127.8059451992504
 30
0.0
 11
506.2681512858457
 21
127.8059451992504
 31
0.0
  0
LINE
  5
28E
  8
LOGO
 62
     1
 10
535.58744784302212
 20
123.80785930509001
 30
0.0
 11
506.2681512858457
 21
123.80785930509001
 31
0.0
  0
LINE
  5
28F
  8
LOGO
 62
     1
 10
491.60850300725741
 20
111.8136016226087
 30
0.0
 11
491.60850300725741
 21
131.80403109341091
 31
0.0
  0
LINE
  5
290
  8
LOGO
 62
     1
 10
535.58744784302212
 20
119.80977341092959
 30
0.0
 11
491.60850300725741
 21
119.80977341092959
 31
0.0
  0
TEXT
  5
291
  8
LOGO
 62
     6
 10
508.61524188889069
 20
124.8355005182482
 30
0.0
 40
1.999042947080214
  1
投影 View:
 41
0.9
  7
CHINESET
 72
     4
 11
514.26432307416655
 21
125.8069022521702
 31
0.0
  0
CIRCLE
  5
292
  8
LOGO
  6
CONTINUOUS
 62
     6
 10
525.96197291534565
 20
125.81117821966269
 30
0.0
 40
1.160691387241723
  0
CIRCLE
  5
293
  8
LOGO
  6
CONTINUOUS
 62
     6
 10
525.96197291534565
 20
125.81117821966269
 30
0.0
 40
0.680062402728605
  0
LINE
  5
294
  8
LOGO
  6
CONTINUOUS
 62
     6
 10
529.61719140156788
 20
126.4912406223912
 30
0.0
 11
533.25589227370597
 21
126.97186960690441
 31
0.0
  0
LINE
  5
295
  8
LOGO
  6
CONTINUOUS
 62
     6
 10
529.61719140156788
 20
125.1311158169341
 30
0.0
 11
533.25589227370597
 21
124.6504868324209
 31
0.0
  0
LINE
  5
296
  8
LOGO
 62
     6
 10
529.61719140156799
 20
125.1311158169341
 30
0.0
 11
529.61719140156788
 21
126.4912406223913
 31
0.0
  0
LINE
  5
297
  8
LOGO
 62
     6
 10
533.25589227370597
 20
124.6504868324209
 30
0.0
 11
533.25589227370597
 21
126.97186960690441
 31
0.0
  0
TEXT
  5
29C
  8
LOGO
 62
     6
 10
568.41417755202485
 20
117.2125916292899
 30
0.0
 40
2.6653905961069522
  1
型式
  7
CHINESET
 72
     4
 11
571.07956814813167
 21
118.4770781128761
 31
0.0
  0
TEXT
  5
29D
  8
LOGO
 62
     7
 10
536.74556909751595
 20
123.0465641084771
 30
0.0
 40
2.6653905961069522
  1
Order example:
 41
0.8
  7
CHINESET
  0
LINE
  5
29F
  8
LOGO
 62
     6
 10
617.33351158451649
 20
120.80929488446969
 30
0.0
 11
617.33351158451649
 21
113.4794707451756
 31
0.0
  0
LINE
  5
2A0
  8
LOGO
 62
     6
 10
593.30807788299262
 20
120.80929488446969
 30
0.0
 11
593.30807788299262
 21
113.4794707451756
 31
0.0
  0
LINE
  5
2A1
  8
LOGO
 62
     6
 10
617.33351158451649
 20
113.4794707451756
 30
0.0
 11
593.30807788299262
 21
113.4794707451756
 31
0.0
  0
LINE
  5
2A3
  8
LOGO
 62
     6
 10
617.33351158451649
 20
120.80929488446969
 30
0.0
 11
593.30807788299262
 21
120.80929488446969
 31
0.0
  0
LINE
  5
2A4
  8
LOGO
 62
     6
 10
606.00464449814217
 20
123.80785930509001
 30
0.0
 11
591.30807788299262
 21
123.80785930509001
 31
0.0
  0
LINE
  5
2A5
  8
LOGO
 62
     6
 10
600.65636119056717
 20
123.80785930509001
 30
0.0
 11
600.65636119056717
 21
120.80929488446969
 31
0.0
  0
TEXT
  5
2A6
  8
LOGO
 62
     6
 10
598.65731824348711
 20
117.23489066478891
 30
0.0
 40
2.6653905961069522
  1
單側按鈕型
  7
CHINESET
 72
     4
 11
605.32079473375438
 21
118.4770781128761
 31
0.0
  0
LINE
  5
2A7
  8
LOGO
 62
     6
 10
571.07956814813167
 20
123.80785930509001
 30
0.0
 11
571.07956814813167
 21
120.80929488446969
 31
0.0
  0
LINE
  5
2A8
  8
LOGO
 62
     6
 10
564.4160916578644
 20
120.80929488446969
 30
0.0
 11
564.4160916578644
 21
113.4794707451756
 31
0.0
  0
TEXT
  5
2A9
  8
LOGO
 62
     7
 10
537.22376221234083
 20
126.7988821916309
 30
0.0
 40
3.998085894160428
  1
訂購代號:
  7
CHINESET
  0
LINE
  5
2AB
  8
LOGO
 62
     6
 10
606.00464449814217
 20
129.80498814633069
 30
0.0
 11
591.30807788299262
 21
129.80498814633069
 31
0.0
  0
LINE
  5
2AC
  8
LOGO
 62
     6
 10
563.08339635981076
 20
129.8049881463306
 30
0.0
 11
563.08339635981076
 21
123.80785930509001
 31
0.0
  0
LINE
  5
2AD
  8
LOGO
 62
     6
 10
591.30807788299262
 20
129.80498814633069
 30
0.0
 11
591.30807788299262
 21
123.80785930509001
 31
0.0
  0
LINE
  5
2AE
  8
LOGO
 62
     6
 10
606.00464449814217
 20
129.80498814633069
 30
0.0
 11
606.00464449814217
 21
123.80785930509001
 31
0.0
  0
TEXT
  5
2B1
  8
LOGO
  6
CONTINUOUS
 62
     6
 10
593.42172957256275
 20
114.5900501602202
 30
0.0
 40
1.6658691225668449
  1
Single push button
  7
CHINESET
 72
     4
 11
605.32079473375438
 21
115.14533986774239
 31
0.0
  0
TEXT
  5
2B2
  8
LOGO
  6
CONTINUOUS
 62
     6
 10
567.90648410514734
 20
114.312405306459
 30
0.0
 40
1.6658691225668449
  1
Model
  7
CHINESET
 72
     4
 11
571.07956814813167
 21
115.14533986774239
 31
0.0
  0
TEXT
  5
2B4
  8
LOGO
  6
CONTINUOUS
 62
     7
 10
597.54578177552276
 20
125.1027724815016
 30
0.0
 40
3.3317382451336899
  1
P
  7
CHINESET
 72
     1
 11
598.65636119056728
 21
126.76864160406841
 31
0.0
 73
     2
  0
TEXT
  5
2B5
  8
LOGO
  6
CONTINUOUS
 62
     7
 10
564.57474586001365
 20
125.1405546031435
 30
0.0
 40
3.3317382451336899
  1
MVHA
  7
CHINESET
 72
     1
 11
571.07956814813167
 21
126.8064237257103
 31
0.0
 73
     2
  0
LINE
  5
2B6
  8
LOGO
 62
     1
 10
535.58744784302212
 20
111.8136016226087
 30
0.0
 11
535.58744784302212
 21
131.80403109341091
 31
0.0
  0
LINE
  5
2B7
  8
LOGO
 62
     1
 10
628.87611870676551
 20
131.80403109341091
 30
0.0
 11
491.60850300725741
 21
131.80403109341091
 31
0.0
  0
LINE
  5
2B8
  8
LOGO
 62
     1
 10
628.87611870676551
 20
111.8136016226087
 30
0.0
 11
491.60850300725741
 21
111.8136016226087
 31
0.0
  0
LINE
  5
2B9
  8
LOGO
 62
     6
 10
579.07573993645269
 20
129.8049881463306
 30
0.0
 11
579.07573993645269
 21
123.80785930509001
 31
0.0
  0
LINE
  5
2BA
  8
LOGO
 62
     6
 10
577.74304463839906
 20
120.80929488446969
 30
0.0
 11
577.74304463839906
 21
113.4794707451756
 31
0.0
  0
LINE
  5
2BB
  8
LOGO
 62
     6
 10
579.07573993645269
 20
129.8049881463306
 30
0.0
 11
563.08339635981076
 21
129.8049881463306
 31
0.0
  0
LINE
  5
2BC
  8
LOGO
 62
     6
 10
579.07573993645269
 20
123.80785930509001
 30
0.0
 11
563.08339635981076
 21
123.80785930509001
 31
0.0
  0
LINE
  5
2BD
  8
LOGO
 62
     6
 10
577.74304463839906
 20
120.80929488446969
 30
0.0
 11
564.4160916578644
 21
120.80929488446969
 31
0.0
  0
LINE
  5
2BE
  8
LOGO
 62
     6
 10
577.74304463839906
 20
113.4794707451756
 30
0.0
 11
564.4160916578644
 21
113.4794707451756
 31
0.0
  0
TEXT
  5
2BF
  8
LOGO
  6
CONTINUOUS
 62
     7
 10
585.16119907582186
 20
125.1405546031435
 30
0.0
 40
3.3317382451336899
  1
41
  7
CHINESET
 72
     1
 11
587.1443766026872
 21
126.8064237257103
 31
0.0
 73
     2
  0
LINE
  5
2C0
  8
LOGO
 62
     6
 10
590.49457401610164
 20
129.80498814633069
 30
0.0
 11
583.79417918927277
 21
129.8049881463306
 31
0.0
  0
LINE
  5
2C1
  8
LOGO
 62
     6
 10
592.49361696318181
 20
120.80929488446969
 30
0.0
 11
581.79513624219271
 21
120.80929488446969
 31
0.0
  0
LINE
  5
2C2
  8
LOGO
 62
     6
 10
590.49457401610164
 20
123.80785930509001
 30
0.0
 11
583.79417918927277
 21
123.80785930509001
 31
0.0
  0
TEXT
  5
2C3
  8
LOGO
 62
     6
 10
582.64296025220835
 20
117.1535647706163
 30
0.0
 40
2.6653905961069522
  1
4 方向
 41
0.9
  7
CHINESET
 72
     4
 11
587.14437660268732
 21
118.4770781128761
 31
0.0
  0
LINE
  5
2C4
  8
LOGO
 62
     6
 10
592.49361696318181
 20
113.4794707451756
 30
0.0
 11
581.79513624219271
 21
113.4794707451756
 31
0.0
  0
TEXT
  5
2C5
  8
LOGO
  6
CONTINUOUS
 62
     6
 10
584.12994676185212
 20
114.5900501602201
 30
0.0
 40
1.6658691225668449
  1
4 Way
 41
0.8
  7
CHINESET
 72
     4
 11
587.14437660268732
 21
115.14533986774239
 31
0.0
  0
LINE
  5
2C6
  8
LOGO
 62
     6
 10
583.79417918927277
 20
129.8049881463306
 30
0.0
 11
583.79417918927277
 21
123.80785930509001
 31
0.0
  0
LINE
  5
2C7
  8
LOGO
 62
     6
 10
581.79513624219271
 20
120.80929488446969
 30
0.0
 11
581.79513624219271
 21
113.4794707451756
 31
0.0
  0
LINE
  5
2C8
  8
LOGO
 62
     6
 10
590.49457401610164
 20
129.80498814633069
 30
0.0
 11
590.49457401610164
 21
123.80785930509001
 31
0.0
  0
LINE
  5
2C9
  8
LOGO
 62
     6
 10
592.49361696318181
 20
120.80929488446969
 30
0.0
 11
592.49361696318181
 21
113.4794707451756
 31
0.0
  0
LINE
  5
2CA
  8
LOGO
  6
CONTINUOUS
 62
     7
 10
580.10895510798139
 20
126.78518094758429
 30
0.0
 11
582.75706837876544
 21
126.78518094758429
 31
0.0
  0
LINE
  5
2CC
  8
LOGO
 62
     1
 10
506.2681512858457
 20
119.80977341092959
 30
0.0
 11
506.2681512858457
 21
131.80403109341091
 31
0.0
  0
POLYLINE
  5
2CD
  8
LOGO
 62
     5
 66
     1
 10
0.0
 20
0.0
 30
0.0
 70
     1
  0
VERTEX
  5
42C
  8
LOGO
 62
     5
 10
501.97817871086801
 20
120.89755195332469
 30
0.0
 42
1.0000000573306349
  0
VERTEX
  5
42D
  8
LOGO
 62
     5
 10
502.87231703717561
 20
120.89755195332469
 30
0.0
 42
1.0000000573306349
  0
SEQEND
  5
42E
  8
LOGO
 62
     5
  0
CIRCLE
  5
2CE
  8
LOGO
 62
     5
 10
502.42524787402181
 20
120.89755195332469
 30
0.0
 40
0.4470691631537346
  0
SOLID
  5
2CF
  8
LOGO
 62
     5
 10
493.6825421470524
 20
123.1328977690933
 30
0.0
 11
494.54687586248292
 21
123.13289776909301
 31
0.0
 12
498.15323377858999
 22
131.3291657602453
 32
0.0
 13
499.0175674940204
 23
131.32916576024471
 33
0.0
  0
SOLID
  5
2D0
  8
LOGO
 62
     5
 10
494.90453119300639
 20
123.1328977690933
 30
0.0
 11
495.76886490843691
 21
123.1328977690933
 31
0.0
 12
499.0175674940204
 22
130.6734643209528
 32
0.0
 13
498.15323377858999
 23
127.5042406977073
 33
0.0
  0
SOLID
  5
2D1
  8
LOGO
 62
     5
 10
498.15323377858999
 20
123.1328977690933
 30
0.0
 11
499.0175674940204
 21
123.1328977690933
 31
0.0
 12
498.15323377858999
 22
127.5042406977073
 32
0.0
 13
499.0175674940204
 23
130.6734643209528
 33
0.0
  0
SOLID
  5
2D2
  8
LOGO
 62
     5
 10
499.3752228245437
 20
131.32916576024471
 30
0.0
 11
500.2395565399741
 21
131.3291657602453
 31
0.0
 12
499.3752228245437
 22
123.78859920838519
 32
0.0
 13
500.2395565399741
 23
126.95782283163069
 33
0.0
  0
SOLID
  5
2D3
  8
LOGO
 62
     5
 10
499.3752228245437
 20
123.78859920838519
 30
0.0
 11
500.2395565399741
 21
126.95782283163069
 31
0.0
 12
503.4882591255577
 22
131.3291657602453
 32
0.0
 13
502.62392541012707
 23
131.3291657602453
 33
0.0
  0
SOLID
  5
2D4
  8
LOGO
 62
     5
 10
499.3752228245437
 20
123.1328977690933
 30
0.0
 11
500.2395565399741
 21
123.1328977690933
 31
0.0
 12
503.4882591255577
 22
130.6734643209528
 32
0.0
 13
502.62392541012707
 23
127.5042406977073
 33
0.0
  0
SOLID
  5
2D5
  8
LOGO
 62
     5
 10
503.4882591255577
 20
130.6734643209528
 30
0.0
 11
502.62392541012707
 21
127.5042406977073
 31
0.0
 12
503.4882591255577
 22
123.13289776909301
 32
0.0
 13
502.62392541012707
 23
123.13289776909301
 33
0.0
  0
SOLID
  5
2D6
  8
LOGO
 62
     5
 10
503.845914456081
 20
123.13289776909301
 30
0.0
 11
504.7102481715113
 21
123.13289776909301
 31
0.0
 12
503.845914456081
 22
131.32916576024471
 32
0.0
 13
504.7102481715113
 23
131.3291657602453
 33
0.0
  0
SOLID
  5
2D7
  8
LOGO
 62
     5
 10
492.29680324062667
 20
120.15243668140189
 30
0.0
 11
492.5948493493961
 21
120.15243668140189
 31
0.0
 12
493.43417038974502
 22
121.64266722524749
 32
0.0
 13
493.73221649851399
 23
121.64266722524749
 33
0.0
  0
SOLID
  5
2D8
  8
LOGO
 62
     5
 10
493.43417038974502
 20
121.64266722524749
 30
0.0
 11
493.73221649851399
 21
121.64266722524749
 31
0.0
 12
493.43417038974502
 22
120.15243668140189
 32
0.0
 13
493.73221649851399
 23
120.15243668140189
 33
0.0
  0
SOLID
  5
2D9
  8
LOGO
 62
     5
 10
493.43417038974502
 20
120.15243668140189
 30
0.0
 11
493.73221649851399
 21
120.15243668140189
 31
0.0
 12
494.57153753886382
 22
121.64266722524749
 32
0.0
 13
494.86958364763268
 23
121.64266722524749
 33
0.0
  0
SOLID
  5
2DA
  8
LOGO
 62
     5
 10
494.57153753886382
 20
121.64266722524749
 30
0.0
 11
494.86958364763268
 21
121.64266722524749
 31
0.0
 12
494.57153753886382
 22
120.15243668140189
 32
0.0
 13
494.86958364763268
 23
120.15243668140189
 33
0.0
  0
SOLID
  5
2DB
  8
LOGO
 62
     5
 10
495.22239736800839
 20
121.8512995013857
 30
0.0
 11
495.5204434767781
 21
121.8512995013857
 31
0.0
 12
495.22239736800839
 22
122.08973638840141
 32
0.0
 13
495.5204434767781
 23
122.08973638840141
 33
0.0
  0
SOLID
  5
2DC
  8
LOGO
 62
     5
 10
495.22239736800839
 20
121.64266722524749
 30
0.0
 11
495.5204434767781
 21
121.64266722524749
 31
0.0
 12
495.22239736800839
 22
120.1524366814014
 32
0.0
 13
495.5204434767781
 23
120.15243668140189
 33
0.0
  0
POLYLINE
  5
2DD
  8
LOGO
 62
     5
 66
     1
 10
0.0
 20
0.0
 30
0.0
 40
0.2985237467639786
 41
0.2985237467639786
  0
VERTEX
  5
42F
  8
LOGO
 62
     5
 10
496.91205170956289
 20
121.04657500770909
 30
0.0
 42
1.0
  0
VERTEX
  5
430
  8
LOGO
 62
     5
 10
496.0164804692709
 20
121.04657500770909
 30
0.0
 42
1.0
  0
SEQEND
  5
431
  8
LOGO
 62
     5
  0
SOLID
  5
2DE
  8
LOGO
 62
     5
 10
495.86817387187881
 20
121.64266722524749
 30
0.0
 11
496.16621998064772
 21
121.64266722524749
 31
0.0
 12
495.86817387187881
 22
120.15243668140189
 32
0.0
 13
496.16621998064772
 23
120.15243668140189
 33
0.0
  0
SOLID
  5
2DF
  8
LOGO
 62
     5
 10
496.76231219818601
 20
121.04657500770909
 30
0.0
 11
497.06035830695538
 21
121.04657500770909
 31
0.0
 12
496.76231219818601
 22
120.15243668140189
 32
0.0
 13
497.06035830695538
 23
120.15243668140189
 33
0.0
  0
POLYLINE
  5
2E0
  8
LOGO
 62
     5
 66
     1
 10
0.0
 20
0.0
 30
0.0
 70
     1
 40
0.2985237467639786
 41
0.2985237467639786
  0
VERTEX
  5
432
  8
LOGO
 62
     5
 10
497.55618628506181
 20
120.89755195332449
 30
0.0
 42
1.0
  0
VERTEX
  5
433
  8
LOGO
 62
     5
 10
498.75028127211777
 20
120.89755195332449
 30
0.0
 42
1.0
  0
SEQEND
  5
434
  8
LOGO
 62
     5
  0
SOLID
  5
2E1
  8
LOGO
 62
     5
 10
498.60027313713312
 20
122.08973638840141
 30
0.0
 11
498.89831924590192
 21
122.08973638840141
 31
0.0
 12
498.60027313713312
 22
120.15243668140189
 32
0.0
 13
498.89831924590192
 23
120.15243668140189
 33
0.0
  0
SOLID
  5
2E2
  8
LOGO
 62
     5
 10
499.24604964100348
 20
121.64266722524749
 30
0.0
 11
499.54409574977228
 21
121.64266722524749
 31
0.0
 12
499.24604964100348
 22
120.15243668140189
 32
0.0
 13
499.54409574977228
 23
120.15243668140189
 33
0.0
  0
POLYLINE
  5
2E3
  8
LOGO
 62
     5
 66
     1
 10
0.0
 20
0.0
 30
0.0
 40
0.2985237467639786
 41
0.2985237467639786
  0
VERTEX
  5
435
  8
LOGO
 62
     5
 10
500.2899274786875
 20
121.04657500770909
 30
0.0
 42
1.0
  0
VERTEX
  5
436
  8
LOGO
 62
     5
 10
499.39435623839552
 20
121.04657500770909
 30
0.0
 42
1.0
  0
SEQEND
  5
437
  8
LOGO
 62
     5
  0
POLYLINE
  5
2E4
  8
LOGO
 62
     5
 66
     1
 10
0.0
 20
0.0
 30
0.0
 40
0.2985237467639786
 41
0.2985237467639786
  0
VERTEX
  5
438
  8
LOGO
 62
     5
 10
501.1840658049947
 20
121.04657500770909
 30
0.0
 42
1.0
  0
VERTEX
  5
439
  8
LOGO
 62
     5
 10
500.28849456470277
 20
121.04657500770909
 30
0.0
 42
1.0
  0
SEQEND
  5
43A
  8
LOGO
 62
     5
  0
SOLID
  5
2E5
  8
LOGO
 62
     5
 10
500.14018796731068
 20
121.04657500770909
 30
0.0
 11
500.4382340760796
 21
121.04657500770909
 31
0.0
 12
500.14018796731068
 22
120.15243668140189
 32
0.0
 13
500.4382340760796
 23
120.15243668140189
 33
0.0
  0
SOLID
  5
2E6
  8
LOGO
 62
     5
 10
501.03432629361788
 20
121.04657500770909
 30
0.0
 11
501.33237240238691
 21
121.04657500770909
 31
0.0
 12
501.03432629361788
 22
120.1524366814014
 32
0.0
 13
501.33237240238691
 23
120.1524366814014
 33
0.0
  0
POLYLINE
  5
2E7
  8
LOGO
 62
     5
 66
     1
 10
0.0
 20
0.0
 30
0.0
 70
     1
 40
0.2985237467639786
 41
0.2985237467639786
  0
VERTEX
  5
43B
  8
LOGO
 62
     5
 10
501.82820038049368
 20
120.89755195332449
 30
0.0
 42
1.0
  0
VERTEX
  5
43C
  8
LOGO
 62
     5
 10
503.02229536754959
 20
120.89755195332449
 30
0.0
 42
1.0
  0
SEQEND
  5
43D
  8
LOGO
 62
     5
  0
LINE
  5
2E8
  8
LOGO
 62
     5
 10
504.7102481715113
 20
120.15243668140189
 30
0.0
 11
504.7102481715113
 21
121.04657500770909
 31
0.0
  0
POLYLINE
  5
2E9
  8
LOGO
 62
     5
 66
     1
 10
0.0
 20
0.0
 30
0.0
 40
0.2985237467639786
 41
0.2985237467639786
  0
VERTEX
  5
43E
  8
LOGO
 62
     5
 10
504.5619415741192
 20
121.04657500770909
 30
0.0
 42
1.0
  0
VERTEX
  5
43F
  8
LOGO
 62
     5
 10
503.66637033382727
 20
121.04657500770909
 30
0.0
 42
1.0
  0
SEQEND
  5
440
  8
LOGO
 62
     5
  0
SOLID
  5
2EA
  8
LOGO
 62
     5
 10
502.8722872325651
 20
121.64266722524749
 30
0.0
 11
503.17033334133413
 21
121.64266722524749
 31
0.0
 12
502.8722872325651
 22
120.15243668140189
 32
0.0
 13
503.17033334133413
 23
120.15243668140189
 33
0.0
  0
SOLID
  5
2EB
  8
LOGO
 62
     5
 10
503.51806373643473
 20
120.15243668140189
 30
0.0
 11
503.8161098452041
 21
120.15243668140189
 31
0.0
 12
503.51806373643473
 22
121.64266722524749
 32
0.0
 13
503.8161098452041
 23
121.64266722524749
 33
0.0
  0
SOLID
  5
2EC
  8
LOGO
 62
     5
 10
504.41220206274249
 20
121.04657500770909
 30
0.0
 11
504.7102481715113
 21
121.04657500770909
 31
0.0
 12
504.41220206274249
 22
120.15243668140189
 32
0.0
 13
504.7102481715113
 23
120.15243668140189
 33
0.0
  0
SOLID
  5
2ED
  8
LOGO
 62
     2
 10
494.54687586248292
 20
123.13289776909301
 30
0.0
 11
494.90453119300639
 21
123.1328977690933
 31
0.0
 12
499.0175674940204
 22
131.32916576024471
 32
0.0
 13
499.3752228245437
 23
131.32916576024471
 33
0.0
  0
SOLID
  5
2EE
  8
LOGO
 62
     2
 10
499.0175674940204
 20
131.32916576024471
 30
0.0
 11
499.3752228245437
 21
131.32916576024471
 31
0.0
 12
499.0175674940204
 22
123.1328977690933
 32
0.0
 13
499.3752228245437
 23
123.1328977690933
 33
0.0
  0
SOLID
  5
2EF
  8
LOGO
 62
     2
 10
499.0175674940204
 20
123.1328977690933
 30
0.0
 11
499.3752228245437
 21
123.1328977690933
 31
0.0
 12
503.4882591255577
 22
131.3291657602453
 32
0.0
 13
503.845914456081
 23
131.32916576024471
 33
0.0
  0
SOLID
  5
2F0
  8
LOGO
 62
     2
 10
503.4882591255577
 20
131.3291657602453
 30
0.0
 11
503.845914456081
 21
131.32916576024471
 31
0.0
 12
503.4882591255577
 22
123.13289776909301
 32
0.0
 13
503.845914456081
 23
123.13289776909301
 33
0.0
  0
TEXT
  5
2F1
  8
LOGO
  6
CONTINUOUS
 62
     5
 10
492.2628235158902
 20
115.7406913239593
 30
0.0
 40
2.9985644206203208
  1
金器工業股份有限公司
 41
0.8
  7
LOGO
  0
TEXT
  5
2F2
  8
LOGO
  6
CONTINUOUS
 62
     5
 10
493.12143150979409
 20
112.7415394198091
 30
0.0
 40
1.999042947080214
  1
MINDMAN INDUSTRIAL CO.,LTD
 41
0.85
  7
CHINESET
  0
LINE
  5
2F4
  8
LOGO
 62
     6
 10
587.14437660268732
 20
120.80929488446969
 30
0.0
 11
587.1443766026872
 21
123.80785930509001
 31
0.0
  0
DIMENSION
  5
2FA
  8
DIM
  2
*D0
 10
532.26761081739119
 20
193.85754174847901
 30
0.0
 11
529.76761081739107
 21
199.80754174847911
 31
0.0
 70
     0
 13
572.07124363514015
 23
205.75754174847901
 33
0.0
 14
556.07124363514015
 24
193.85754174847901
 34
0.0
 50
90.0
  0
DIMENSION
  5
307
  8
DIM
  2
*D1
 10
524.26761081739107
 20
151.85754174847901
 30
0.0
 11
521.76761081739107
 21
178.80754174847911
 31
0.0
 70
     0
 13
572.07124363514015
 23
205.75754174847901
 33
0.0
 14
556.07124363514015
 24
151.85754174847901
 34
0.0
 50
90.0
  0
DIMENSION
  5
314
  8
DIM
  2
*D2
 10
532.26761081739119
 20
151.85754174847901
 30
0.0
 11
529.76761081739107
 21
172.85754174847909
 31
0.0
 70
     0
 13
556.07124363514015
 23
193.85754174847901
 33
0.0
 14
556.07124363514015
 24
151.85754174847901
 34
0.0
 50
90.0
  0
DIMENSION
  5
321
  8
DIM
  2
*D3
 10
546.6726131103901
 20
164.35754174847901
 30
0.0
 11
544.1726131103901
 21
172.85754174847909
 31
0.0
 70
     0
 13
554.27422724053849
 23
181.35754174847901
 33
0.0
 14
554.27422724053849
 24
164.35754174847901
 34
0.0
 50
90.0
  0
DIMENSION
  5
32E
  8
DIM
  2
*D4
 10
596.362967898227
 20
164.85754174847901
 30
0.0
 11
593.862967898227
 21
172.85754174847909
 31
0.0
 70
     0
 13
583.32124363514015
 23
180.85754174847901
 33
0.0
 14
583.32124363514015
 24
164.85754174847901
 34
0.0
 50
90.0
  0
DIMENSION
  5
33B
  8
DIM
  2
*D5
 10
602.66557275152604
 20
159.85754174847901
 30
0.0
 11
600.16557275152604
 21
172.85754174847909
 31
0.0
 70
     0
 13
589.17679014266992
 23
185.85754174847909
 33
0.0
 14
589.17679014266992
 24
159.85754174847901
 34
0.0
 50
90.0
  0
DIMENSION
  5
348
  8
DIM
  2
*D6
 10
598.80811830068319
 20
193.85754174847901
 30
0.0
 11
596.30811830068308
 21
197.35754174847921
 31
0.0
 70
     0
 13
577.57124363514015
 23
200.85754174847909
 33
0.0
 14
588.07124363514015
 24
193.85754174847901
 34
0.0
 50
90.0
  0
DIMENSION
  5
356
  8
DIM
  2
*D7
 10
556.07124363514015
 20
210.30308586570729
 30
0.0
 11
572.07124363514015
 21
212.80308586570729
 31
0.0
 70
     0
 13
588.07124363514015
 23
216.272809453479
 33
0.0
 14
556.07124363514015
 24
216.272809453479
 34
0.0
  0
DIMENSION
  5
363
  8
DIM
  2
*D8
 10
600.28238366838377
 20
232.27280945347891
 30
0.0
 11
597.78238366838366
 21
224.27280945347911
 31
0.0
 70
     0
 13
588.07124363514015
 23
216.272809453479
 33
0.0
 14
588.07124363514015
 24
232.27280945347891
 34
0.0
 50
90.0
  0
DIMENSION
  5
370
  8
DIM
  2
*D9
 10
581.07124363514015
 20
142.03609702037869
 30
0.0
 11
572.07124363514015
 21
144.53609702037869
 31
0.0
 70
     0
 13
563.07124363514015
 23
170.60754174847901
 33
0.0
 14
581.07124363514015
 24
162.60754174847901
 34
0.0
  0
POLYLINE
  5
425
  8
0
 62
     4
 66
     1
 10
0.0
 20
0.0
 30
0.0
 70
     1
  0
VERTEX
  5
441
  8
0
 62
     4
 10
491.60850300725741
 20
265.49294891226828
 30
0.0
  0
VERTEX
  5
442
  8
0
 62
     4
 10
628.87611870676551
 20
265.49294891226828
 30
0.0
  0
VERTEX
  5
443
  8
0
 62
     4
 10
628.87611870676551
 20
131.80403109341091
 30
0.0
  0
VERTEX
  5
444
  8
0
 62
     4
 10
491.60850300725741
 20
131.80403109341091
 30
0.0
  0
SEQEND
  5
445
  8
0
 62
     4
  0
ENDSEC
  0
EOF
