  0
SECTION
  2
HEADER
  9
$ACADVER
  1
AC1015
  9
$ACADMAINTVER
 70
    20
  9
$DWGCODEPAGE
  3
ANSI_950
  9
$INSBASE
 10
0.0
 20
0.0
 30
0.0
  9
$EXTMIN
 10
94.6435557755683
 20
83.25856950196623
 30
-0.0074015688356894
  9
$EXTMAX
 10
281.2966927109481
 20
339.9115481533426
 30
140.9476405447648
  9
$LIMMIN
 10
0.0
 20
0.0
  9
$LIMMAX
 10
420.0
 20
297.0
  9
$ORTHOMODE
 70
     1
  9
$REGENMODE
 70
     1
  9
$FILLMODE
 70
     1
  9
$QTEXTMODE
 70
     0
  9
$MIRRTEXT
 70
     1
  9
$LTSCALE
 40
1.0
  9
$ATTMODE
 70
     1
  9
$TEXTSIZE
 40
3.5
  9
$TRACEWID
 40
1.0
  9
$TEXTSTYLE
  7
STANDARD
  9
$CLAYER
  8
0
  9
$CELTYPE
  6
ByLayer
  9
$CECOLOR
 62
   256
  9
$CELTSCALE
 40
1.0
  9
$DISPSILH
 70
     0
  9
$DIMSCALE
 40
1.0
  9
$DIMASZ
 40
3.0
  9
$DIMEXO
 40
1.0
  9
$DIMDLI
 40
8.0
  9
$DIMRND
 40
0.0
  9
$DIMDLE
 40
0.0
  9
$DIMEXE
 40
1.5
  9
$DIMTP
 40
0.1
  9
$DIMTM
 40
0.1
  9
$DIMTXT
 40
3.5
  9
$DIMCEN
 40
3.0
  9
$DIMTSZ
 40
0.0
  9
$DIMTOL
 70
     0
  9
$DIMLIM
 70
     0
  9
$DIMTIH
 70
     0
  9
$DIMTOH
 70
     0
  9
$DIMSE1
 70
     0
  9
$DIMSE2
 70
     0
  9
$DIMTAD
 70
     1
  9
$DIMZIN
 70
     8
  9
$DIMBLK
  1

  9
$DIMASO
 70
     1
  9
$DIMSHO
 70
     1
  9
$DIMPOST
  1

  9
$DIMAPOST
  1
"
  9
$DIMALT
 70
     0
  9
$DIMALTD
 70
     2
  9
$DIMALTF
 40
0.0393701
  9
$DIMLFAC
 40
1.0
  9
$DIMTOFL
 70
     1
  9
$DIMTVP
 40
0.0
  9
$DIMTIX
 70
     0
  9
$DIMSOXD
 70
     0
  9
$DIMSAH
 70
     0
  9
$DIMBLK1
  1

  9
$DIMBLK2
  1

  9
$DIMSTYLE
  2
AM_ISO
  9
$DIMCLRD
 70
   256
  9
$DIMCLRE
 70
   256
  9
$DIMCLRT
 70
   256
  9
$DIMTFAC
 40
0.71
  9
$DIMGAP
 40
0.8
  9
$DIMJUST
 70
     0
  9
$DIMSD1
 70
     0
  9
$DIMSD2
 70
     0
  9
$DIMTOLJ
 70
     0
  9
$DIMTZIN
 70
     8
  9
$DIMALTZ
 70
     0
  9
$DIMALTTZ
 70
     0
  9
$DIMUPT
 70
     0
  9
$DIMDEC
 70
     2
  9
$DIMTDEC
 70
     8
  9
$DIMALTU
 70
     2
  9
$DIMALTTD
 70
     2
  9
$DIMTXSTY
  7
STANDARD
  9
$DIMAUNIT
 70
     0
  9
$DIMADEC
 70
     0
  9
$DIMALTRND
 40
0.0
  9
$DIMAZIN
 70
     2
  9
$DIMDSEP
 70
    46
  9
$DIMATFIT
 70
     3
  9
$DIMFRAC
 70
     0
  9
$DIMLDRBLK
  1

  9
$DIMLUNIT
 70
     2
  9
$DIMLWD
 70
    -1
  9
$DIMLWE
 70
    -1
  9
$DIMTMOVE
 70
     0
  9
$LUNITS
 70
     2
  9
$LUPREC
 70
     2
  9
$SKETCHINC
 40
1.0
  9
$FILLETRAD
 40
2.5
  9
$AUNITS
 70
     0
  9
$AUPREC
 70
     0
  9
$MENU
  1
.
  9
$ELEVATION
 40
0.0
  9
$PELEVATION
 40
0.0
  9
$THICKNESS
 40
0.0
  9
$LIMCHECK
 70
     0
  9
$CHAMFERA
 40
2.5
  9
$CHAMFERB
 40
2.5
  9
$CHAMFERC
 40
20.0
  9
$CHAMFERD
 40
0.0
  9
$SKPOLY
 70
     0
  9
$TDCREATE
 40
2453021.369367211
  9
$TDUCREATE
 40
2453021.036033877
  9
$TDUPDATE
 40
2453514.618492476
  9
$TDUUPDATE
 40
2453514.285159144
  9
$TDINDWG
 40
0.6156762269
  9
$TDUSRTIMER
 40
0.6156758796
  9
$USRTIMER
 70
     1
  9
$ANGBASE
 50
0.0
  9
$ANGDIR
 70
     0
  9
$PDMODE
 70
     0
  9
$PDSIZE
 40
0.0
  9
$PLINEWID
 40
0.0
  9
$SPLFRAME
 70
     0
  9
$SPLINETYPE
 70
     6
  9
$SPLINESEGS
 70
     8
  9
$HANDSEED
  5
43FE
  9
$SURFTAB1
 70
     6
  9
$SURFTAB2
 70
     6
  9
$SURFTYPE
 70
     6
  9
$SURFU
 70
     6
  9
$SURFV
 70
     6
  9
$UCSBASE
  2

  9
$UCSNAME
  2

  9
$UCSORG
 10
0.0
 20
0.0
 30
0.0
  9
$UCSXDIR
 10
1.0
 20
0.0
 30
0.0
  9
$UCSYDIR
 10
0.0
 20
1.0
 30
0.0
  9
$UCSORTHOREF
  2

  9
$UCSORTHOVIEW
 70
     0
  9
$UCSORGTOP
 10
0.0
 20
0.0
 30
0.0
  9
$UCSORGBOTTOM
 10
0.0
 20
0.0
 30
0.0
  9
$UCSORGLEFT
 10
0.0
 20
0.0
 30
0.0
  9
$UCSORGRIGHT
 10
0.0
 20
0.0
 30
0.0
  9
$UCSORGFRONT
 10
0.0
 20
0.0
 30
0.0
  9
$UCSORGBACK
 10
0.0
 20
0.0
 30
0.0
  9
$PUCSBASE
  2

  9
$PUCSNAME
  2

  9
$PUCSORG
 10
0.0
 20
0.0
 30
0.0
  9
$PUCSXDIR
 10
1.0
 20
0.0
 30
0.0
  9
$PUCSYDIR
 10
0.0
 20
1.0
 30
0.0
  9
$PUCSORTHOREF
  2

  9
$PUCSORTHOVIEW
 70
     0
  9
$PUCSORGTOP
 10
0.0
 20
0.0
 30
0.0
  9
$PUCSORGBOTTOM
 10
0.0
 20
0.0
 30
0.0
  9
$PUCSORGLEFT
 10
0.0
 20
0.0
 30
0.0
  9
$PUCSORGRIGHT
 10
0.0
 20
0.0
 30
0.0
  9
$PUCSORGFRONT
 10
0.0
 20
0.0
 30
0.0
  9
$PUCSORGBACK
 10
0.0
 20
0.0
 30
0.0
  9
$USERI1
 70
     0
  9
$USERI2
 70
     0
  9
$USERI3
 70
     0
  9
$USERI4
 70
     0
  9
$USERI5
 70
     0
  9
$USERR1
 40
0.0
  9
$USERR2
 40
0.0
  9
$USERR3
 40
0.0
  9
$USERR4
 40
0.0
  9
$USERR5
 40
0.0
  9
$WORLDVIEW
 70
     1
  9
$SHADEDGE
 70
     3
  9
$SHADEDIF
 70
    70
  9
$TILEMODE
 70
     1
  9
$MAXACTVP
 70
    64
  9
$PINSBASE
 10
0.0
 20
0.0
 30
0.0
  9
$PLIMCHECK
 70
     0
  9
$PEXTMIN
 10
1.000000000000000E+20
 20
1.000000000000000E+20
 30
1.000000000000000E+20
  9
$PEXTMAX
 10
-1.000000000000000E+20
 20
-1.000000000000000E+20
 30
-1.000000000000000E+20
  9
$PLIMMIN
 10
0.0
 20
0.0
  9
$PLIMMAX
 10
420.0
 20
297.0
  9
$UNITMODE
 70
     0
  9
$VISRETAIN
 70
     1
  9
$PLINEGEN
 70
     0
  9
$PSLTSCALE
 70
     1
  9
$TREEDEPTH
 70
  3020
  9
$CMLSTYLE
  2
Standard
  9
$CMLJUST
 70
     0
  9
$CMLSCALE
 40
20.0
  9
$PROXYGRAPHICS
 70
     1
  9
$MEASUREMENT
 70
     1
  9
$CELWEIGHT
370
    -1
  9
$ENDCAPS
280
     0
  9
$JOINSTYLE
280
     0
  9
$LWDISPLAY
290
     0
  9
$INSUNITS
 70
     4
  9
$HYPERLINKBASE
  1

  9
$STYLESHEET
  1
彩色出圖.ctb
  9
$XEDIT
290
     1
  9
$CEPSNTYPE
380
     0
  9
$PSTYLEMODE
290
     1
  9
$FINGERPRINTGUID
  2
{6C02722A-18D3-491A-897A-B8025DE410A9}
  9
$VERSIONGUID
  2
{EF98EEDD-D15A-4B8D-8628-DB02752F7F40}
  9
$EXTNAMES
290
     1
  9
$PSVPSCALE
 40
0.0
  9
$OLESTARTUP
290
     0
  0
ENDSEC
  0
SECTION
  2
CLASSES
  0
CLASS
  1
ACDBDICTIONARYWDFLT
  2
AcDbDictionaryWithDefault
  3
ObjectDBX Classes
 90
        0
280
     0
281
     0
  0
CLASS
  1
ACDBPLACEHOLDER
  2
AcDbPlaceHolder
  3
ObjectDBX Classes
 90
        0
280
     0
281
     0
  0
CLASS
  1
LAYOUT
  2
AcDbLayout
  3
ObjectDBX Classes
 90
        0
280
     0
281
     0
  0
CLASS
  1
AMGSETTINGSOBJ
  2
AmgSettingsObj
  3
"AcadM|Product Description: AutoCAD Mechanical 2000|Company: Autodesk"
 90
        0
280
     0
281
     0
  0
CLASS
  1
ACME_DOCUMENT
  2
AcMeDbDoc
  3
AcMeServices
 90
        0
280
     0
281
     0
  0
CLASS
  1
ACMESCOPE
  2
AcMeScope
  3
AcMeServices
 90
        0
280
     0
281
     0
  0
CLASS
  1
ACMECOMMANDHISTORY
  2
AcMeCommandHistory
  3
AcMeServices
 90
        0
280
     0
281
     0
  0
CLASS
  1
ACIMSYSVARMAN
  2
AcImSysVarManager
  3
AcMeServices
 90
        0
280
     0
281
     0
  0
CLASS
  1
ACIMREALSYSVAR
  2
AcImRealSysVar
  3
AcMeServices
 90
        0
280
     0
281
     0
  0
CLASS
  1
ACIMINTSYSVAR
  2
AcImIntSysVar
  3
AcMeServices
 90
        0
280
     0
281
     0
  0
CLASS
  1
ACMEDRAWINGMAN
  2
AcMeDrawingMan
  3
AcMeServices
 90
        0
280
     0
281
     0
  0
CLASS
  1
ACMEVIEW
  2
AcMeView
  3
AcMeServices
 90
        0
280
     0
281
     0
  0
CLASS
  1
ACDBENTITYCACHE
  2
AcMeEntityCache
  3
AcMeServices
 90
        0
280
     0
281
     0
  0
CLASS
  1
GSMANAGER
  2
AcMeGSManager
  3
AcMeServices
 90
        0
280
     0
281
     0
  0
CLASS
  1
AMDTINTERNALREACTOR
  2
AmdtInternalReactor
  3
AcMeServices
 90
        0
280
     0
281
     0
  0
CLASS
  1
ACMESTATEMGR
  2
AcMeStateMgr
  3
AcMeServices
 90
        0
280
     0
281
     0
  0
CLASS
  1
ACGREFMASTER
  2
AcGrefMaster
  3
AcAttribServices
 90
        0
280
     0
281
     0
  0
CLASS
  1
ACME_DATABASE
  2
AcMeDbDatabase
  3
AcMeServices
 90
        0
280
     0
281
     0
  0
CLASS
  1
ACRFINSADJUSTERMGR
  2
AcRfInsAdjusterMgr
  3
AcMeServices
 90
        0
280
     0
281
     0
  0
CLASS
  1
ACGREFACADMASTER
  2
AcGrefacadMaster
  3
AcGrefServices
 90
        0
280
     0
281
     0
  0
CLASS
  1
AMIMASTER
  2
AmiMaster
  3
AmiServices
 90
        0
280
     0
281
     0
  0
CLASS
  1
ACMDATADICTIONARY
  2
AcmDataDictionary
  3
"AcmSymBB|Product Description: AutoCAD Mechanical 2004 DX|Company: Autodesk"
 90
        0
280
     0
281
     0
  0
CLASS
  1
ACMDATAENTRYBLOCK
  2
AcmDataEntryBlock
  3
"AcmSymBB|Product Description: AutoCAD Mechanical 2004 DX|Company: Autodesk"
 90
    32768
280
     0
281
     0
  0
CLASS
  1
ACIMSTRSYSVAR
  2
AcImStrSysVar
  3
AcMeServices
 90
        0
280
     0
281
     0
  0
CLASS
  1
ACMSTANDARDISO
  2
AcmStandardISO
  3
"Amdt_StdImp|Product Description: AutoCAD Mechanical 2004 DX|Company: Autodesk"
 90
        0
280
     0
281
     0
  0
CLASS
  1
AMGOBJPROPCFG
  2
AmgObjPropCfg
  3
"AmgLay|Product Description: AutoCAD Mechanical 2000|Company: Autodesk"
 90
        1
280
     0
281
     0
  0
CLASS
  1
AMDTEDGESTANDARDISO
  2
AmdtEdgeStdISO
  3
"Amdt_StdImp|Product Description: AutoCAD Mechanical 2004 DX|Company: Autodesk"
 90
    32768
280
     0
281
     0
  0
CLASS
  1
ACMSURFSTANDARDISO
  2
AcmSurfTextStdISO
  3
"Amdt_StdImp|Product Description: AutoCAD Mechanical 2004 DX|Company: Autodesk"
 90
        0
280
     0
281
     0
  0
CLASS
  1
ACMFCFSTANDARDISO
  2
AcmFCFStdISO
  3
"Amdt_StdImp|Product Description: AutoCAD Mechanical 2004 DX|Company: Autodesk"
 90
        0
280
     0
281
     0
  0
CLASS
  1
ACMWELDSTANDARDISO
  2
AcmWeldingStdISO
  3
"Amdt_StdImp|Product Description: AutoCAD Mechanical 2004 DX|Company: Autodesk"
 90
        0
280
     0
281
     0
  0
CLASS
  1
ACMIDSTANDARDISO
  2
AcmIdStdISO
  3
"Amdt_StdImp|Product Description: AutoCAD Mechanical 2004 DX|Company: Autodesk"
 90
        0
280
     0
281
     0
  0
CLASS
  1
ACMDATUMSTANDARDISO
  2
AcmDatumStdISO
  3
"Amdt_StdImp|Product Description: AutoCAD Mechanical 2004 DX|Company: Autodesk"
 90
        0
280
     0
281
     0
  0
CLASS
  1
ACMBOMSTANDARDISO
  2
AcmBOMStdISO
  3
"Amdt_StdImp|Product Description: AutoCAD Mechanical 2004 DX|Company: Autodesk"
 90
        0
280
     0
281
     0
  0
CLASS
  1
ACMDETAILSTANDARDISO
  2
AmdtDetailSymStdISO
  3
"Amdt_StdImp|Product Description: AutoCAD Mechanical 2004 DX|Company: Autodesk"
 90
        0
280
     0
281
     0
  0
CLASS
  1
ACMSECTIONSTANDARDISO
  2
AmdtSectionSymStdISO
  3
"Amdt_StdImp|Product Description: AutoCAD Mechanical 2004 DX|Company: Autodesk"
 90
        0
280
     0
281
     0
  0
CLASS
  1
ACMCENTERLINESTANDARDISO
  2
AmdtCenterLineStdISO
  3
"Amdt_StdImp|Product Description: AutoCAD Mechanical 2004 DX|Company: Autodesk"
 90
        0
280
     0
281
     0
  0
CLASS
  1
ACMNOTESTANDARDISO
  2
AmdtNoteStdISO
  3
"Amdt_StdImp|Product Description: AutoCAD Mechanical 2004 DX|Company: Autodesk"
 90
        0
280
     0
281
     0
  0
CLASS
  1
ACAMGLAYSTD
  2
AcAmgLayStd
  3
"AcAmgLayStd|Product Description: AutoCAD Mechanical 2000|Company: Autodesk"
 90
        0
280
     0
281
     0
  0
CLASS
  1
ACAMGDIMSTD
  2
AcAmgDimStd
  3
"AcAmgDimStd|Product Description: AutoCAD Mechanical 2000|Company: Autodesk"
 90
        0
280
     0
281
     0
  0
CLASS
  1
ACAMGHOLECHARTSTDISO
  2
AcAmgHoleChartStdISO
  3
ACMSYMBB_MODULE_NAME
 90
        0
280
     0
281
     0
  0
CLASS
  1
ACAMGTITLESTD
  2
AcAmgTitleStd
  3
"TITLEAPP"
 90
        0
280
     0
281
     0
  0
CLASS
  1
LAYER_INDEX
  2
AcDbLayerIndex
  3
ObjectDBX Classes
 90
    32768
280
     0
281
     0
  0
CLASS
  1
IDBUFFER
  2
AcDbIdBuffer
  3
ObjectDBX Classes
 90
    32768
280
     0
281
     0
  0
CLASS
  1
DICTIONARYVAR
  2
AcDbDictionaryVar
  3
ObjectDBX Classes
 90
        0
280
     0
281
     0
  0
CLASS
  1
ACAMGFILTERDAT
  2
AcAmgFilterDat
  3
"AcadM|Product Description: AutoCAD Mechanical 2000|Company: Autodesk"
 90
    32768
280
     0
281
     0
  0
CLASS
  1
AMDTFORMULAUPDATEDISPATCHER
  2
AmdtFormulaUpdateDispatcher
  3
AcMeServices
 90
    32768
280
     0
281
     0
  0
CLASS
  1
DIMASSOC
  2
AcDbDimAssoc
  3
"AcDbDimAssoc|Product Desc:     AcDim ARX App For Dimension|Company:          Autodesk, Inc.|WEB Address:      www.autodesk.com"
 90
        0
280
     0
281
     0
  0
CLASS
  1
AMDTNOTE
  2
AmdtNote
  3
"AcmSymBB|Product Description: AutoCAD Mechanical 2004 DX|Company: Autodesk"
 90
     1023
280
     0
281
     1
  0
CLASS
  1
TABLESTYLE
  2
AcDbTableStyle
  3
ObjectDBX Classes
 90
     2047
280
     0
281
     0
  0
CLASS
  1
AM_DRAWING_MGR
  2
AcDmDwgMgr
  3
AcMechDwgViewMgmt
 90
        0
280
     0
281
     0
  0
CLASS
  1
AM_DWG_DOCUMENT
  2
AcDmDwgDocument
  3
AcMechDwgViewMgmt
 90
        0
280
     0
281
     0
  0
CLASS
  1
AM_DWG_SHEET
  2
AcDmSheet
  3
AcMechDwgViewMgmt
 90
        0
280
     0
281
     0
  0
CLASS
  1
AM_VIEWDIMPARMAP
  2
AcDmViewDimParMap
  3
AcMechDwgViewMgmt
 90
        0
280
     0
281
     0
  0
CLASS
  1
AM_DWGMGR_NAME
  2
AcDmDwgMgrName
  3
AcMechDwgViewMgmt
 90
        0
280
     0
281
     0
  0
CLASS
  1
AMDTMENUSTATEMGR
  2
AmdtMenuStateMgr
  3
McadcomServices
 90
        0
280
     0
281
     0
  0
CLASS
  1
AMDTMCOMMENUSTATE
  2
AmdtMcomMenuState
  3
McadcomServices
 90
        0
280
     0
281
     0
  0
CLASS
  1
MAPIAMMOUDLE
  2
MApiAmModule
  3
MApiAmServices
 90
        0
280
     0
281
     0
  0
CLASS
  1
AMDTADMENUSTATE
  2
AmdtAdMenuState
  3
DesignerServices
 90
        0
280
     0
281
     0
  0
CLASS
  1
ADAPPL
  2
AcAdAppl
  3
DesignerServices
 90
        0
280
     0
281
     0
  0
CLASS
  1
DEPMGR
  2
AcAdDepMgr
  3
DesignerServices
 90
        0
280
     0
281
     0
  0
CLASS
  1
PARAMMGR
  2
AcAdParamMgr
  3
DesignerServices
 90
        0
280
     0
281
     0
  0
CLASS
  1
PARAMSCOPE
  2
AcAdParamScope
  3
DesignerServices
 90
        0
280
     0
281
     0
  0
CLASS
  1
NAMEDAPPL
  2
AcAdNamedAppl
  3
DesignerServices
 90
        0
280
     0
281
     0
  0
CLASS
  1
AMDTDMMENUSTATE
  2
AmdtDmMenuState
  3
AcMechDwgViewMgmt
 90
        0
280
     0
281
     0
  0
CLASS
  1
AMDTAMMENUSTATE
  2
AmdtAmMenuState
  3
DesignerAssemblies
 90
        0
280
     0
281
     0
  0
CLASS
  1
ACAMPROJECT
  2
AcAmProject
  3
DesignerAssemblies
 90
        0
280
     0
281
     0
  0
CLASS
  1
ACAMGRCOMPDEF
  2
AcAmGrCompDef
  3
DesignerAssemblies
 90
        0
280
     0
281
     0
  0
CLASS
  1
ACCMCONTEXT
  2
AcCmContext
  3
DesignerAssemblies
 90
        0
280
     0
281
     0
  0
CLASS
  1
ACAMCOMPDEF
  2
AcAmCompDef
  3
DesignerAssemblies
 90
        0
280
     0
281
     0
  0
CLASS
  1
ACAMCOMPDEFMGR
  2
AcAmCompDefMgr
  3
DesignerAssemblies
 90
        0
280
     0
281
     0
  0
CLASS
  1
AMCONTEXTMGR
  2
AcAmContextMgr
  3
DesignerAssemblies
 90
        0
280
     0
281
     0
  0
CLASS
  1
ACAMCONTEXTMODELER
  2
AcAmContextModeler
  3
DesignerAssemblies
 90
        0
280
     0
281
     0
  0
CLASS
  1
ACMTHREADLINESTANDARDISO
  2
AmdtThreadLineStdISO
  3
"Amdt_StdImp|Product Description: AutoCAD Mechanical 2004 DX|Company: Autodesk"
 90
        0
280
     0
281
     0
  0
CLASS
  1
CATALOGSTATE
  2
AcAmCatalogState
  3
DesignerAssemblies
 90
        0
280
     0
281
     0
  0
CLASS
  1
ACAMGRCOMPDEFSET
  2
AcAmGrCompDefSet
  3
DesignerAssemblies
 90
        0
280
     0
281
     0
  0
CLASS
  1
AMDTBROWSERDBTAB
  2
AmdtBrowserDbTab
  3
McadcomServices
 90
        0
280
     0
281
     0
  0
CLASS
  1
CBROWSERAPPOBJECT
  2
CBrowserAppObject
  3
McadcomServices
 90
        0
280
     0
281
     0
  0
CLASS
  1
DM_PLACEHOLDER
  2
AcDmSelsetPlaceholder
  3
AcMechDwgViewMgmt
 90
        0
280
     0
281
     0
  0
CLASS
  1
VAACXREFPANELOBJECT
  2
VaAcXREFPanelObject
  3
VAAC_ADDIN
 90
        0
280
     0
281
     0
  0
CLASS
  1
VAACIMAGEINVENTORY
  2
VaAcImageInventory
  3
VAAC_ADDIN
 90
        0
280
     0
281
     0
  0
CLASS
  1
AMDTEDGESTANDARDISO13715
  2
AmdtEdgeStdISO13715
  3
"Amdt_StdImp|Product Description: AutoCAD Mechanical 2004 DX|Company: Autodesk"
 90
        0
280
     0
281
     0
  0
CLASS
  1
AMDTNOTETEMPLATEDB
  2
AmdtNoteTemplateDB
  3
AMDT_STDIMP_MODULE_NAME
 90
        0
280
     0
281
     0
  0
CLASS
  1
ACRFATTGENMGR
  2
AcRfAttGeneralMgr
  3
AcAttribServices
 90
        0
280
     0
281
     0
  0
CLASS
  1
SORTENTSTABLE
  2
AcDbSortentsTable
  3
ObjectDBX Classes
 90
        0
280
     0
281
     0
  0
CLASS
  1
STDPART2D
  2
AmgStdPart
  3
"AmgStdPart|Product Description: AutoCAD Mechanical 2000|Company: Autodesk"
 90
    33791
280
     0
281
     1
  0
CLASS
  1
ACAMSTDPCOMPDEF
  2
AcAmStdpCompDef
  3
DesignerAssemblies
 90
    32768
280
     0
281
     0
  0
CLASS
  1
ACRFOBJATTMGR
  2
AcRfObjAttGroupMgr
  3
AcAttribServices
 90
    32768
280
     0
281
     0
  0
CLASS
  1
ACRFMCADAPIATTHOLDER
  2
AcRfMCADAPIAttHolder
  3
AcAttribServices
 90
    32768
280
     0
281
     0
  0
CLASS
  1
AMDTSYSATTR
  2
AmdtSystemAttribute
  3
AcAttribServices
 90
    32768
280
     0
281
     0
  0
CLASS
  1
ACAMCOMP
  2
AcAmComp
  3
DesignerAssemblies
 90
    32768
280
     0
281
     0
  0
CLASS
  1
AC_AM_STDP_VIEW_DEF
  2
AcAmStdpViewDef
  3
DesignerAssemblies
 90
    32768
280
     0
281
     0
  0
CLASS
  1
AC_AM_MVD_DEP_MGR
  2
AcAmMVDdepMgr
  3
DesignerAssemblies
 90
        0
280
     0
281
     0
  0
CLASS
  1
AC_AM_MASTER_VIEW_DEF
  2
AcAmMasterViewDef
  3
DesignerAssemblies
 90
        0
280
     0
281
     0
  0
CLASS
  1
AC_AM_DIRTY_NODES
  2
AcAmDirtyNodes
  3
DesignerAssemblies
 90
        0
280
     0
281
     0
  0
CLASS
  1
AC_AM_MAPPER_CACHE
  2
AcAmMapperCache
  3
DesignerAssemblies
 90
        0
280
     0
281
     0
  0
CLASS
  1
ACAMMVDBACKUPOBJECT
  2
AcAmMVDBackupObject
  3
DesignerAssemblies
 90
        0
280
     0
281
     0
  0
CLASS
  1
AC_AM_COMP_VIEW_INST
  2
AcAmCompView
  3
DesignerAssemblies
 90
    32768
280
     0
281
     0
  0
CLASS
  1
AC_AM_2D_XREF_MGR
  2
AcAmXrefMgr2d
  3
DesignerAssemblies
 90
        0
280
     0
281
     0
  0
CLASS
  1
ACMSTANDARDANSI
  2
AcmStandardANSI
  3
"Amdt_StdImp|Product Description: AutoCAD Mechanical 2004 DX|Company: Autodesk"
 90
    32768
280
     0
281
     0
  0
CLASS
  1
ACMSURFSTANDARDANSI
  2
AcmSurfTextStdANSI
  3
"Amdt_StdImp|Product Description: AutoCAD Mechanical 2004 DX|Company: Autodesk"
 90
    32768
280
     0
281
     0
  0
CLASS
  1
ACMFCFSTANDARDANSI
  2
AcmFCFStdANSI
  3
"Amdt_StdImp|Product Description: AutoCAD Mechanical 2004 DX|Company: Autodesk"
 90
    32768
280
     0
281
     0
  0
CLASS
  1
ACMWELDSTANDARDANSI
  2
AcmWeldingStdANSI
  3
"Amdt_StdImp|Product Description: AutoCAD Mechanical 2004 DX|Company: Autodesk"
 90
    32768
280
     0
281
     0
  0
CLASS
  1
ACMIDSTANDARDANSI
  2
AcmIdStdANSI
  3
"Amdt_StdImp|Product Description: AutoCAD Mechanical 2004 DX|Company: Autodesk"
 90
    32768
280
     0
281
     0
  0
CLASS
  1
ACMDATUMSTANDARDANSI
  2
AcmDatumStdANSI
  3
"Amdt_StdImp|Product Description: AutoCAD Mechanical 2004 DX|Company: Autodesk"
 90
    32768
280
     0
281
     0
  0
CLASS
  1
ACMBOMSTANDARDANSI
  2
AcmBOMStdANSI
  3
"Amdt_StdImp|Product Description: AutoCAD Mechanical 2004 DX|Company: Autodesk"
 90
    32768
280
     0
281
     0
  0
CLASS
  1
ACMDETAILSTANDARDANSI
  2
AmdtDetailSymStdANSI
  3
"Amdt_StdImp|Product Description: AutoCAD Mechanical 2004 DX|Company: Autodesk"
 90
    32768
280
     0
281
     0
  0
CLASS
  1
ACMSECTIONSTANDARDANSI
  2
AmdtSectionSymStdANSI
  3
"Amdt_StdImp|Product Description: AutoCAD Mechanical 2004 DX|Company: Autodesk"
 90
    32768
280
     0
281
     0
  0
CLASS
  1
ACMCENTERLINESTANDARDANSI
  2
AmdtCenterLineStdANSI
  3
"Amdt_StdImp|Product Description: AutoCAD Mechanical 2004 DX|Company: Autodesk"
 90
    32768
280
     0
281
     0
  0
CLASS
  1
ACMTHREADLINESTANDARDANSI
  2
AmdtThreadLineStdANSI
  3
"Amdt_StdImp|Product Description: AutoCAD Mechanical 2004 DX|Company: Autodesk"
 90
    32768
280
     0
281
     0
  0
CLASS
  1
ACMNOTESTANDARDANSI
  2
AmdtNoteStdANSI
  3
"Amdt_StdImp|Product Description: AutoCAD Mechanical 2004 DX|Company: Autodesk"
 90
    32768
280
     0
281
     0
  0
CLASS
  1
ACAMGHOLECHARTSTDANSI
  2
AcAmgHoleChartStdANSI
  3
ACMSYMBB_MODULE_NAME
 90
    32768
280
     0
281
     0
  0
ENDSEC
  0
SECTION
  2
TABLES
  0
TABLE
  2
VPORT
  5
8
330
0
100
AcDbSymbolTable
 70
     3
  0
VPORT
  5
43F5
330
8
100
AcDbSymbolTableRecord
100
AcDbViewportTableRecord
  2
*Active
 70
     0
 10
0.0
 20
0.0
 11
1.0
 21
1.0
 12
187.9701242432581
 22
211.5786014685274
 13
0.0
 23
0.0
 14
2.5
 24
2.5
 15
10.0
 25
10.0
 16
0.0
 26
0.0
 36
1.0
 17
0.0
 27
0.0
 37
0.0
 40
259.7543410778872
 41
1.81766917293233
 42
50.0
 43
0.0
 44
0.0
 50
0.0
 51
0.0
 71
     0
 72
   100
 73
     1
 74
     3
 75
     0
 76
     0
 77
     0
 78
     0
281
     0
 65
     1
110
0.0
120
0.0
130
0.0
111
1.0
121
0.0
131
0.0
112
0.0
122
1.0
132
0.0
 79
     0
146
0.0
  0
ENDTAB
  0
TABLE
  2
LTYPE
  5
5
330
0
100
AcDbSymbolTable
 70
    14
  0
LTYPE
  5
14
330
5
100
AcDbSymbolTableRecord
100
AcDbLinetypeTableRecord
  2
ByBlock
 70
     0
  3

 72
    65
 73
     0
 40
0.0
  0
LTYPE
  5
15
330
5
100
AcDbSymbolTableRecord
100
AcDbLinetypeTableRecord
  2
ByLayer
 70
     0
  3

 72
    65
 73
     0
 40
0.0
  0
LTYPE
  5
16
330
5
100
AcDbSymbolTableRecord
100
AcDbLinetypeTableRecord
  2
Continuous
 70
     0
  3
Solid line
 72
    65
 73
     0
 40
0.0
  0
LTYPE
  5
4D
330
5
100
AcDbSymbolTableRecord
100
AcDbLinetypeTableRecord
  2
AM_ISO02W050
 70
     0
  3
__ __ __ __ __ __ __ __ __ __ __ __ __ __ __
 72
    65
 73
     2
 40
7.5
 49
6.0
 74
     0
 49
-1.5
 74
     0
  0
LTYPE
  5
4E
330
5
100
AcDbSymbolTableRecord
100
AcDbLinetypeTableRecord
  2
AM_ISO08W050
 70
     0
  3
____ . ____ . ____ . ____ . ____ . ____ . ____
 72
    65
 73
     4
 40
18.0
 49
12.0
 74
     0
 49
-1.5
 74
     0
 49
3.0
 74
     0
 49
-1.5
 74
     0
  0
LTYPE
  5
4F
330
5
100
AcDbSymbolTableRecord
100
AcDbLinetypeTableRecord
  2
AM_ISO09W050
 70
     0
  3
_____ . . _____ . . _____ . . ____ .. ____
 72
    65
 73
     6
 40
22.5
 49
12.0
 74
     0
 49
-1.5
 74
     0
 49
3.0
 74
     0
 49
-1.5
 74
     0
 49
3.0
 74
     0
 49
-1.5
 74
     0
  0
LTYPE
  5
50
330
5
100
AcDbSymbolTableRecord
100
AcDbLinetypeTableRecord
  2
Amconstr
 70
     0
  3
_______________________
 72
    65
 73
     2
 40
9999.0
 49
9999.0
 74
     0
 49
0.0
 74
     0
  0
LTYPE
  5
51
330
5
100
AcDbSymbolTableRecord
100
AcDbLinetypeTableRecord
  2
AM_ISO08W050x2
 70
     0
  3
__ . __ . __ . __ . __ . __
 72
    65
 73
     4
 40
9.0
 49
6.0
 74
     0
 49
-0.75
 74
     0
 49
1.5
 74
     0
 49
-0.75
 74
     0
  0
LTYPE
  5
52
330
5
100
AcDbSymbolTableRecord
100
AcDbLinetypeTableRecord
  2
AM_ISO02W050x2
 70
     0
  3
 _ _ _ _ _ _ _ _ _ _ _ _
 72
    65
 73
     2
 40
3.75
 49
3.0
 74
     0
 49
-0.75
 74
     0
  0
LTYPE
  5
55
330
5
100
AcDbSymbolTableRecord
100
AcDbLinetypeTableRecord
  2
Amzigzag
 70
     0
  3
/\/-/\/-/\/-/\/-/\/-/\/
 72
    65
 73
     2
 40
11.0001
 49
0.0001
 74
     4
 75
   135
340
54
 46
0.04
 50
0.0
 44
0.0
 45
0.0
 49
-11.0
 74
     0
  0
LTYPE
  5
63
330
5
100
AcDbSymbolTableRecord
100
AcDbLinetypeTableRecord
  2
ACISOWELD
 70
     0
  3
_ _ _ _ _
 72
    65
 73
     2
 40
2.0
 49
2.0
 74
     0
 49
-1.0
 74
     0
  0
LTYPE
  5
64
330
5
100
AcDbSymbolTableRecord
100
AcDbLinetypeTableRecord
  2
ACISOTGB
 70
     0
  3
__ . . __ . .
 72
    65
 73
     6
 40
9.0
 49
4.0
 74
     0
 49
-1.0
 74
     0
 49
1.0
 74
     0
 49
-1.0
 74
     0
 49
1.0
 74
     0
 49
-1.0
 74
     0
  0
LTYPE
  5
65
330
5
100
AcDbSymbolTableRecord
100
AcDbLinetypeTableRecord
  2
ACISOTGL
 70
     0
  3
_ _ _ _ _
 72
    65
 73
     2
 40
3.0
 49
2.0
 74
     0
 49
-1.0
 74
     0
  0
LTYPE
  5
68
330
5
100
AcDbSymbolTableRecord
100
AcDbLinetypeTableRecord
  2
CENTER
 70
     0
  3
__ . __
 72
    65
 73
     4
 40
7.0
 49
4.0
 74
     0
 49
-1.0
 74
     0
 49
1.0
 74
     0
 49
-1.0
 74
     0
  0
LTYPE
  5
806
330
5
100
AcDbSymbolTableRecord
100
AcDbLinetypeTableRecord
  2
HIDDEN
 70
     0
  3
Hidden __ __ __ __ __ __ __ __ __ __ __ __ __ _
 72
    65
 73
     2
 40
9.524999999999998
 49
6.349999999999999
 74
     0
 49
-3.174999999999999
 74
     0
  0
LTYPE
  5
807
330
5
100
AcDbSymbolTableRecord
100
AcDbLinetypeTableRecord
  2
PHANTOM2
 70
     0
  3
Phantom (.5x) ___ _ _ ___ _ _ ___ _ _ ___ _ _
 72
    65
 73
     6
 40
31.75
 49
15.875
 74
     0
 49
-3.174999999999999
 74
     0
 49
3.174999999999999
 74
     0
 49
-3.174999999999999
 74
     0
 49
3.174999999999999
 74
     0
 49
-3.174999999999999
 74
     0
  0
ENDTAB
  0
TABLE
  2
LAYER
  5
2
102
{ACAD_XDICTIONARY
360
AAB
102
}
330
0
100
AcDbSymbolTable
 70
     8
  0
LAYER
  5
10
330
2
100
AcDbSymbolTableRecord
100
AcDbLayerTableRecord
  2
0
 70
     0
 62
     7
  6
Continuous
370
    -3
390
F
  0
LAYER
  5
42A
330
2
100
AcDbSymbolTableRecord
100
AcDbLayerTableRecord
  2
AM_5
 70
     0
 62
     5
  6
Continuous
370
    50
390
F
  0
LAYER
  5
43E
330
2
100
AcDbSymbolTableRecord
100
AcDbLayerTableRecord
  2
Defpoints
 70
     0
 62
     7
  6
Continuous
290
     0
370
    -3
390
F
  0
LAYER
  5
CD5
330
2
100
AcDbSymbolTableRecord
100
AcDbLayerTableRecord
  2
AM_7
 70
     0
 62
     1
  6
AM_ISO08W050
370
    25
390
F
  0
LAYER
  5
CD6
330
2
100
AcDbSymbolTableRecord
100
AcDbLayerTableRecord
  2
AM_VIS
 70
     0
 62
     7
  6
Continuous
370
    50
390
F
  0
LAYER
  5
CD7
330
2
100
AcDbSymbolTableRecord
100
AcDbLayerTableRecord
  2
AM_4
 70
     0
 62
     3
  6
Continuous
370
    25
390
F
  0
LAYER
  5
CD9
330
2
100
AcDbSymbolTableRecord
100
AcDbLayerTableRecord
  2
AM_0
 70
     0
 62
     7
  6
Continuous
370
    50
390
F
  0
LAYER
  5
135E
330
2
100
AcDbSymbolTableRecord
100
AcDbLayerTableRecord
  2
LOGO
 70
     0
 62
     7
  6
Continuous
370
    -3
390
F
  0
ENDTAB
  0
TABLE
  2
STYLE
  5
3
330
0
100
AcDbSymbolTable
 70
     6
  0
STYLE
  5
11
330
3
100
AcDbSymbolTableRecord
100
AcDbTextStyleTableRecord
  2
STANDARD
 70
     0
 40
0.0
 41
1.0
 50
0.0
 71
     0
 42
3.5
  3
ISOCP.SHX
  4
CHINESET.SHX
  0
STYLE
  5
54
330
3
100
AcDbSymbolTableRecord
100
AcDbTextStyleTableRecord
  2

 70
     1
 40
0.0
 41
1.0
 50
0.0
 71
     0
 42
2.5
  3
ltypeshp.shx
  4

  0
STYLE
  5
56
330
3
100
AcDbSymbolTableRecord
100
AcDbTextStyleTableRecord
  2
ACISOTS
 70
     0
 40
1.0
 41
1.0
 50
0.0
 71
     0
 42
2.5
  3
isocp.shx
  4
chineset.shx
  0
STYLE
  5
62
330
3
100
AcDbSymbolTableRecord
100
AcDbTextStyleTableRecord
  2
ACISOGDT
 70
     0
 40
0.0
 41
1.0
 50
0.0
 71
     0
 42
3.5
  3
amgdt.shx
  4

  0
STYLE
  5
1360
330
3
100
AcDbSymbolTableRecord
100
AcDbTextStyleTableRecord
  2
CHINESET
 70
     0
 40
0.0
 41
1.0
 50
0.0
 71
     0
 42
4.0
  3
simplex.shx
  4
chineset.shx
  0
ENDTAB
  0
TABLE
  2
VIEW
  5
6
330
0
100
AcDbSymbolTable
 70
     0
  0
ENDTAB
  0
TABLE
  2
UCS
  5
7
330
0
100
AcDbSymbolTable
 70
     0
  0
ENDTAB
  0
TABLE
  2
APPID
  5
9
330
0
100
AcDbSymbolTable
 70
    32
  0
APPID
  5
12
330
9
100
AcDbSymbolTableRecord
100
AcDbRegAppTableRecord
  2
ACAD
 70
     0
  0
APPID
  5
30
330
9
100
AcDbSymbolTableRecord
100
AcDbRegAppTableRecord
  2
MCAD_NO_VIS
 70
     0
  0
APPID
  5
31
330
9
100
AcDbSymbolTableRecord
100
AcDbRegAppTableRecord
  2
ACAD_TEMP_GRAPHIC
 70
     0
  0
APPID
  5
42
330
9
100
AcDbSymbolTableRecord
100
AcDbRegAppTableRecord
  2
ACATTRIBSERVICES
 70
     0
  0
APPID
  5
20A
330
9
100
AcDbSymbolTableRecord
100
AcDbRegAppTableRecord
  2
GENIUS_GENODEF_13
 70
     0
  0
APPID
  5
20B
330
9
100
AcDbSymbolTableRecord
100
AcDbRegAppTableRecord
  2
GENIUS_GENOBJ-N-HTC_13
 70
     0
  0
APPID
  5
20C
330
9
100
AcDbSymbolTableRecord
100
AcDbRegAppTableRecord
  2
GENIUS_GENHATCH_13
 70
     0
  0
APPID
  5
809
330
9
100
AcDbSymbolTableRecord
100
AcDbRegAppTableRecord
  2
AD_DRAW
 70
     0
  0
APPID
  5
827
330
9
100
AcDbSymbolTableRecord
100
AcDbRegAppTableRecord
  2
DESIGNERASSEMBLIES
 70
     0
  0
APPID
  5
82C
330
9
100
AcDbSymbolTableRecord
100
AcDbRegAppTableRecord
  2
ACADM_DIM_EDIT
 70
     0
  0
APPID
  5
82D
330
9
100
AcDbSymbolTableRecord
100
AcDbRegAppTableRecord
  2
AMDT_DM_ADJ
 70
     0
  0
APPID
  5
FE4
330
9
100
AcDbSymbolTableRecord
100
AcDbRegAppTableRecord
  2
GENIUS_GENDTOL_13
 70
     0
  0
APPID
  5
108C
330
9
100
AcDbSymbolTableRecord
100
AcDbRegAppTableRecord
  2
ACAD_DSTYLE_DIMTEXT_FILL
 70
     0
  0
APPID
  5
1201
330
9
100
AcDbSymbolTableRecord
100
AcDbRegAppTableRecord
  2
GEVID1116400677
 70
     0
  0
APPID
  5
1202
330
9
100
AcDbSymbolTableRecord
100
AcDbRegAppTableRecord
  2
GEVDC
 70
     0
  0
APPID
  5
1203
330
9
100
AcDbSymbolTableRecord
100
AcDbRegAppTableRecord
  2
GEVRADREF
 70
     0
  0
APPID
  5
120C
330
9
100
AcDbSymbolTableRecord
100
AcDbRegAppTableRecord
  2
AMG_2DHIDE
 70
     0
  0
APPID
  5
120D
330
9
100
AcDbSymbolTableRecord
100
AcDbRegAppTableRecord
  2
AMG_2DSTRUCT_BTR
 70
     0
  0
APPID
  5
121E
330
9
100
AcDbSymbolTableRecord
100
AcDbRegAppTableRecord
  2
ACADM_2DVIEW_IGN_NOTIFY
 70
     0
  0
APPID
  5
1361
330
9
100
AcDbSymbolTableRecord
100
AcDbRegAppTableRecord
  2
GENIUS_GENREC_14
 70
     0
  0
APPID
  5
1362
330
9
100
AcDbSymbolTableRecord
100
AcDbRegAppTableRecord
  2
GENIUS_GENOBJ-N-REC_13
 70
     0
  0
APPID
  5
1E31
330
9
100
AcDbSymbolTableRecord
100
AcDbRegAppTableRecord
  2
ACAD_PSEXT
 70
     0
  0
APPID
  5
1F6E
330
9
100
AcDbSymbolTableRecord
100
AcDbRegAppTableRecord
  2
GEVID1116471484
 70
     0
  0
APPID
  5
2915
330
9
100
AcDbSymbolTableRecord
100
AcDbRegAppTableRecord
  2
GENIUS_GENOBJ-N-CEN_13
 70
     0
  0
APPID
  5
2916
330
9
100
AcDbSymbolTableRecord
100
AcDbRegAppTableRecord
  2
GENIUS_GENCEN_19
 70
     0
  0
APPID
  5
31F5
330
9
100
AcDbSymbolTableRecord
100
AcDbRegAppTableRecord
  2
GEVID1116471486
 70
     0
  0
APPID
  5
36ED
330
9
100
AcDbSymbolTableRecord
100
AcDbRegAppTableRecord
  2
GEVID1116471487
 70
     0
  0
APPID
  5
3B9C
330
9
100
AcDbSymbolTableRecord
100
AcDbRegAppTableRecord
  2
GENIUS_GENOLIS_13
 70
     0
  0
APPID
  5
3B9D
330
9
100
AcDbSymbolTableRecord
100
AcDbRegAppTableRecord
  2
GENIUS_GENOENT_13
 70
     0
  0
APPID
  5
3B9E
330
9
100
AcDbSymbolTableRecord
100
AcDbRegAppTableRecord
  2
GENIUS_GENOBJ-N-CRS_13
 70
     0
  0
APPID
  5
3B9F
330
9
100
AcDbSymbolTableRecord
100
AcDbRegAppTableRecord
  2
GENIUS_GENOREF_13
 70
     0
  0
APPID
  5
4172
330
9
100
AcDbSymbolTableRecord
100
AcDbRegAppTableRecord
  2
GEVID1116554186
 70
     0
  0
ENDTAB
  0
TABLE
  2
DIMSTYLE
  5
A
330
0
100
AcDbSymbolTable
 70
    10
100
AcDbDimStyleTable
 71
     2
340
6B
340
75
  0
DIMSTYLE
105
6B
330
A
100
AcDbSymbolTableRecord
100
AcDbDimStyleTableRecord
  2
AM_ISO
 70
     0
  4
"
 41
3.0
 42
1.0
 43
8.0
 44
1.5
 47
0.1
 48
0.1
 73
     0
 74
     0
 77
     1
 78
     8
 79
     2
140
3.5
141
3.0
143
0.0393701
146
0.71
147
0.8
172
     1
176
   256
177
   256
178
   256
271
     2
272
     2
283
     0
284
     8
340
11
371
    -1
372
    -1
  0
DIMSTYLE
105
6C
330
A
100
AcDbSymbolTableRecord
100
AcDbDimStyleTableRecord
  2
AM_ISO$3
 70
     0
  4
"
 41
3.0
 42
1.0
 43
8.0
 44
1.5
 47
0.1
 48
0.1
 73
     0
 77
     1
 78
     8
 79
     2
140
3.5
141
3.0
143
0.0393701
146
0.71
147
0.8
176
   256
177
   256
178
   256
271
     2
272
     2
283
     0
284
     8
288
     1
289
     0
340
11
371
    -1
372
    -1
  0
DIMSTYLE
105
6D
330
A
100
AcDbSymbolTableRecord
100
AcDbDimStyleTableRecord
  2
AM_ISO$4
 70
     0
  4
"
 41
3.0
 42
1.0
 43
8.0
 44
1.5
 47
0.1
 48
0.1
 73
     0
 77
     1
 78
     8
 79
     2
140
3.5
141
3.0
143
0.0393701
146
0.71
147
0.8
176
   256
177
   256
178
   256
271
     2
272
     2
283
     0
284
     8
288
     1
289
     0
340
11
371
    -1
372
    -1
  0
DIMSTYLE
105
6E
330
A
100
AcDbSymbolTableRecord
100
AcDbDimStyleTableRecord
  2
AM_ISO$6
 70
     0
  4
"
 41
3.0
 42
1.0
 43
8.0
 44
1.5
 47
0.1
 48
0.1
 73
     0
 74
     0
 78
     8
 79
     2
140
3.5
141
3.0
143
0.0393701
146
0.71
147
0.8
172
     1
176
   256
177
   256
178
   256
271
     2
272
     2
283
     0
284
     8
340
11
371
    -1
372
    -1
  0
DIMSTYLE
105
6F
330
A
100
AcDbSymbolTableRecord
100
AcDbDimStyleTableRecord
  2
AM_ISO$7
 70
     0
  4
"
 41
3.0
 42
1.0
 43
8.0
 44
1.5
 47
0.1
 48
0.1
 73
     0
 74
     0
 77
     1
 78
     8
 79
     2
140
5.0
141
3.0
143
0.0393701
146
0.71
147
0.8
172
     1
176
   256
177
   256
178
   256
271
     2
272
     2
283
     0
284
     8
340
11
371
    -1
372
    -1
  0
DIMSTYLE
105
70
330
A
100
AcDbSymbolTableRecord
100
AcDbDimStyleTableRecord
  2
AM_ISO$SF
 70
     0
  4
"
 41
2.5
 42
1.0
 43
10.0
 44
1.0
 47
0.1
 48
0.1
 73
     0
 74
     0
 75
     1
 76
     1
 77
     1
 78
     8
 79
     2
140
3.5
141
0.0
143
0.0393701
146
0.71
147
1.5
172
     1
176
   256
177
   256
178
     2
271
     2
272
     3
274
     4
283
     0
284
     8
340
11
371
    -1
372
    -1
  0
DIMSTYLE
105
75
330
A
100
AcDbSymbolTableRecord
100
AcDbDimStyleTableRecord
  2
AM_ISO$SH
 70
     0
  4
"
 41
2.5
 42
1.0
 43
10.0
 44
1.0
 47
0.1
 48
0.1
 73
     0
 74
     0
 75
     1
 76
     1
 77
     1
 78
     8
 79
     2
140
3.5
141
0.0
143
0.0393701
144
2.0
146
0.71
147
1.5
172
     1
173
     1
176
   256
177
   256
178
     2
271
     2
272
     3
274
     4
283
     0
284
     8
340
11
343
71
371
    -1
372
    -1
  0
DIMSTYLE
105
AAA
102
{ACAD_REACTORS
330
3722
330
3748
330
376E
330
3794
330
37E0
330
3806
330
382C
330
3852
330
422B
102
}
330
A
100
AcDbSymbolTableRecord
100
AcDbDimStyleTableRecord
  2
AM_ISO$0
 70
     0
  4
"
 41
3.0
 42
1.0
 43
8.0
 44
1.5
 47
0.1
 48
0.1000000001
 73
     0
 74
     0
 77
     1
 78
     8
 79
     2
140
3.0
141
0.0
143
0.0393701
146
0.71
147
1.0
172
     1
176
   256
177
   256
178
   256
271
     2
272
     2
283
     2
284
     8
340
11
371
    -1
372
    -1
  0
DIMSTYLE
105
157A
330
A
100
AcDbSymbolTableRecord
100
AcDbDimStyleTableRecord
  2
STANDARD
 70
     0
 41
3.0
 42
2.0
 43
8.0
 44
2.0
 73
     0
 74
     0
 77
     1
 78
     8
 79
     2
140
3.0
141
5.0
147
1.0
176
   256
177
   256
178
   256
271
     2
272
     2
279
     2
284
     8
285
     8
286
     8
340
1360
  0
ENDTAB
  0
TABLE
  2
BLOCK_RECORD
  5
1
330
0
100
AcDbSymbolTable
 70
    17
  0
BLOCK_RECORD
  5
1F
102
{ACAD_XDICTIONARY
360
7D
102
}
330
1
100
AcDbSymbolTableRecord
100
AcDbBlockTableRecord
  2
*Model_Space
340
22
  0
BLOCK_RECORD
  5
1B
330
1
100
AcDbSymbolTableRecord
100
AcDbBlockTableRecord
  2
*Paper_Space
340
1E
  0
BLOCK_RECORD
  5
23
330
1
100
AcDbSymbolTableRecord
100
AcDbBlockTableRecord
  2
*Paper_Space0
340
26
  0
BLOCK_RECORD
  5
71
330
1
100
AcDbSymbolTableRecord
100
AcDbBlockTableRecord
  2
GENAXEH
340
0
  0
BLOCK_RECORD
  5
3211
330
1
100
AcDbSymbolTableRecord
100
AcDbBlockTableRecord
  2
*U4
340
0
  0
BLOCK_RECORD
  5
3723
330
1
100
AcDbSymbolTableRecord
100
AcDbBlockTableRecord
  2
*D5
340
0
  0
BLOCK_RECORD
  5
3749
330
1
100
AcDbSymbolTableRecord
100
AcDbBlockTableRecord
  2
*D6
340
0
  0
BLOCK_RECORD
  5
376F
330
1
100
AcDbSymbolTableRecord
100
AcDbBlockTableRecord
  2
*D7
340
0
  0
BLOCK_RECORD
  5
3795
330
1
100
AcDbSymbolTableRecord
100
AcDbBlockTableRecord
  2
*D8
340
0
  0
BLOCK_RECORD
  5
37E1
330
1
100
AcDbSymbolTableRecord
100
AcDbBlockTableRecord
  2
*D9
340
0
  0
BLOCK_RECORD
  5
3807
330
1
100
AcDbSymbolTableRecord
100
AcDbBlockTableRecord
  2
*D10
340
0
  0
BLOCK_RECORD
  5
382D
330
1
100
AcDbSymbolTableRecord
100
AcDbBlockTableRecord
  2
*D11
340
0
  0
BLOCK_RECORD
  5
3853
330
1
100
AcDbSymbolTableRecord
100
AcDbBlockTableRecord
  2
*D12
340
0
  0
BLOCK_RECORD
  5
422C
330
1
100
AcDbSymbolTableRecord
100
AcDbBlockTableRecord
  2
*D13
340
0
  0
BLOCK_RECORD
  5
43E4
330
1
100
AcDbSymbolTableRecord
100
AcDbBlockTableRecord
  2
*S15
340
0
  0
BLOCK_RECORD
  5
43EC
330
1
100
AcDbSymbolTableRecord
100
AcDbBlockTableRecord
  2
*S16
340
0
  0
ENDTAB
  0
ENDSEC
  0
SECTION
  2
BLOCKS
  0
BLOCK
  5
20
330
1F
100
AcDbEntity
  8
0
100
AcDbBlockBegin
  2
*Model_Space
 70
     0
 10
0.0
 20
0.0
 30
0.0
  3
*Model_Space
  1

  0
ENDBLK
  5
21
330
1F
100
AcDbEntity
  8
0
100
AcDbBlockEnd
  0
BLOCK
  5
1C
330
1B
100
AcDbEntity
 67
     1
  8
0
100
AcDbBlockBegin
  2
*Paper_Space
 70
     0
 10
0.0
 20
0.0
 30
0.0
  3
*Paper_Space
  1

  0
ENDBLK
  5
1D
330
1B
100
AcDbEntity
 67
     1
  8
0
100
AcDbBlockEnd
  0
BLOCK
  5
24
330
23
100
AcDbEntity
  8
0
100
AcDbBlockBegin
  2
*Paper_Space0
 70
     0
 10
0.0
 20
0.0
 30
0.0
  3
*Paper_Space0
  1

  0
ENDBLK
  5
25
330
23
100
AcDbEntity
  8
0
100
AcDbBlockEnd
  0
BLOCK
  5
73
330
71
100
AcDbEntity
  8
0
100
AcDbBlockBegin
  2
GENAXEH
 70
     0
 10
0.0
 20
0.0
 30
0.0
  3
GENAXEH
  1

  0
LINE
  5
72
330
71
100
AcDbEntity
  8
0
100
AcDbLine
 10
-1.0
 20
0.0
 30
0.0
 11
1.0
 21
0.0
 31
0.0
  0
ENDBLK
  5
74
330
71
100
AcDbEntity
  8
0
100
AcDbBlockEnd
  0
BLOCK
  5
3212
330
3211
100
AcDbEntity
  8
0
100
AcDbBlockBegin
  2
*U4
 70
     1
 10
0.0
 20
0.0
 30
0.0
  3
*U4
  1

  0
ENDBLK
  5
3213
330
3211
100
AcDbEntity
  8
0
100
AcDbBlockEnd
  0
BLOCK
  5
372D
330
3723
100
AcDbEntity
  8
0
100
AcDbBlockBegin
  2
*D5
 70
     1
 10
0.0
 20
0.0
 30
0.0
  3
*D5
  1

  0
LINE
  5
4309
330
3723
100
AcDbEntity
  8
AM_5
100
AcDbLine
 10
122.2578161785139
 20
147.3575304174649
 30
0.0
 11
122.2578161785139
 21
134.580030417465
 31
0.0
  0
LINE
  5
430A
330
3723
100
AcDbEntity
  8
AM_5
100
AcDbLine
 10
152.7578161785139
 20
148.3575304174649
 30
0.0
 11
152.7578161785139
 21
134.580030417465
 31
0.0
  0
LINE
  5
430B
330
3723
100
AcDbEntity
  8
AM_5
100
AcDbLine
 10
125.2578161785139
 20
136.0800304174649
 30
0.0
 11
149.7578161785139
 21
136.0800304174649
 31
0.0
  0
SOLID
  5
430C
330
3723
100
AcDbEntity
  8
AM_5
100
AcDbTrace
 10
125.2578161785139
 20
136.580030417465
 30
0.0
 11
125.2578161785139
 21
135.580030417465
 31
0.0
 12
122.2578161785139
 22
136.0800304174649
 32
0.0
 13
122.2578161785139
 23
136.0800304174649
 33
0.0
  0
SOLID
  5
430D
330
3723
100
AcDbEntity
  8
AM_5
100
AcDbTrace
 10
149.7578161785139
 20
136.580030417465
 30
0.0
 11
149.7578161785139
 21
135.580030417465
 31
0.0
 12
152.7578161785139
 22
136.0800304174649
 32
0.0
 13
152.7578161785139
 23
136.0800304174649
 33
0.0
  0
MTEXT
  5
430E
330
3723
100
AcDbEntity
  8
AM_5
100
AcDbMText
 10
137.5078161785139
 20
138.5800304174649
 30
0.0
 40
3.0
 41
0.0
 71
     5
 72
     1
  1
\A2;30.5
 73
     1
 44
1.0
1001
ACAD
1000
MTEXTBEGIN
1070
    73
1070
     1
1070
    44
1040
1.0
1070
    74
1070
     0
1000
MTEXTEND
  0
POINT
  5
430F
330
3723
100
AcDbEntity
  8
Defpoints
 62
     0
100
AcDbPoint
 10
122.2578161785139
 20
148.3575304174649
 30
0.0
  0
POINT
  5
4310
330
3723
100
AcDbEntity
  8
Defpoints
 62
     0
100
AcDbPoint
 10
152.7578161785139
 20
149.3575304174649
 30
0.0
  0
POINT
  5
4311
330
3723
100
AcDbEntity
  8
Defpoints
 62
     0
100
AcDbPoint
 10
152.7578161785139
 20
136.0800304174649
 30
0.0
  0
ENDBLK
  5
372E
330
3723
100
AcDbEntity
  8
0
100
AcDbBlockEnd
  0
BLOCK
  5
3753
330
3749
100
AcDbEntity
  8
0
100
AcDbBlockBegin
  2
*D6
 70
     1
 10
0.0
 20
0.0
 30
0.0
  3
*D6
  1

  0
LINE
  5
4312
330
3749
100
AcDbEntity
  8
AM_5
100
AcDbLine
 10
152.7578161785139
 20
148.3575304174649
 30
0.0
 11
152.7578161785139
 21
134.580030417465
 31
0.0
  0
LINE
  5
4313
330
3749
100
AcDbEntity
  8
AM_5
100
AcDbLine
 10
183.2578161785139
 20
147.3575304174649
 30
0.0
 11
183.2578161785139
 21
134.580030417465
 31
0.0
  0
LINE
  5
4314
330
3749
100
AcDbEntity
  8
AM_5
100
AcDbLine
 10
155.7578161785139
 20
136.080030417465
 30
0.0
 11
180.257816178514
 21
136.080030417465
 31
0.0
  0
SOLID
  5
4315
330
3749
100
AcDbEntity
  8
AM_5
100
AcDbTrace
 10
155.7578161785139
 20
136.580030417465
 30
0.0
 11
155.7578161785139
 21
135.580030417465
 31
0.0
 12
152.7578161785139
 22
136.080030417465
 32
0.0
 13
152.7578161785139
 23
136.080030417465
 33
0.0
  0
SOLID
  5
4316
330
3749
100
AcDbEntity
  8
AM_5
100
AcDbTrace
 10
180.257816178514
 20
136.580030417465
 30
0.0
 11
180.257816178514
 21
135.580030417465
 31
0.0
 12
183.2578161785139
 22
136.080030417465
 32
0.0
 13
183.2578161785139
 23
136.080030417465
 33
0.0
  0
MTEXT
  5
4317
330
3749
100
AcDbEntity
  8
AM_5
100
AcDbMText
 10
168.0078161785139
 20
138.580030417465
 30
0.0
 40
3.0
 41
0.0
 71
     5
 72
     1
  1
\A2;30.5
 73
     1
 44
1.0
1001
ACAD
1000
MTEXTBEGIN
1070
    73
1070
     1
1070
    44
1040
1.0
1070
    74
1070
     0
1000
MTEXTEND
  0
POINT
  5
4318
330
3749
100
AcDbEntity
  8
Defpoints
 62
     0
100
AcDbPoint
 10
152.7578161785139
 20
149.3575304174649
 30
0.0
  0
POINT
  5
4319
330
3749
100
AcDbEntity
  8
Defpoints
 62
     0
100
AcDbPoint
 10
183.2578161785139
 20
148.3575304174649
 30
0.0
  0
POINT
  5
431A
330
3749
100
AcDbEntity
  8
Defpoints
 62
     0
100
AcDbPoint
 10
183.2578161785139
 20
136.080030417465
 30
0.0
  0
ENDBLK
  5
3754
330
3749
100
AcDbEntity
  8
0
100
AcDbBlockEnd
  0
BLOCK
  5
3779
330
376F
100
AcDbEntity
  8
0
100
AcDbBlockBegin
  2
*D7
 70
     1
 10
0.0
 20
0.0
 30
0.0
  3
*D7
  1

  0
LINE
  5
431B
330
376F
100
AcDbEntity
  8
AM_5
100
AcDbLine
 10
110.7578161785139
 20
149.5075304174649
 30
0.0
 11
110.7578161785139
 21
126.580030417465
 31
0.0
  0
LINE
  5
431C
330
376F
100
AcDbEntity
  8
AM_5
100
AcDbLine
 10
194.7578161785139
 20
149.5075304174649
 30
0.0
 11
194.7578161785139
 21
126.580030417465
 31
0.0
  0
LINE
  5
431D
330
376F
100
AcDbEntity
  8
AM_5
100
AcDbLine
 10
113.7578161785139
 20
128.080030417465
 30
0.0
 11
191.7578161785139
 21
128.080030417465
 31
0.0
  0
SOLID
  5
431E
330
376F
100
AcDbEntity
  8
AM_5
100
AcDbTrace
 10
113.7578161785139
 20
128.580030417465
 30
0.0
 11
113.7578161785139
 21
127.580030417465
 31
0.0
 12
110.7578161785139
 22
128.080030417465
 32
0.0
 13
110.7578161785139
 23
128.080030417465
 33
0.0
  0
SOLID
  5
431F
330
376F
100
AcDbEntity
  8
AM_5
100
AcDbTrace
 10
191.7578161785139
 20
128.580030417465
 30
0.0
 11
191.7578161785139
 21
127.580030417465
 31
0.0
 12
194.7578161785139
 22
128.080030417465
 32
0.0
 13
194.7578161785139
 23
128.080030417465
 33
0.0
  0
MTEXT
  5
4320
330
376F
100
AcDbEntity
  8
AM_5
100
AcDbMText
 10
152.7578161785139
 20
130.580030417465
 30
0.0
 40
3.0
 41
0.0
 71
     5
 72
     1
  1
\A2;84
 73
     1
 44
1.0
1001
ACAD
1000
MTEXTBEGIN
1070
    73
1070
     1
1070
    44
1040
1.0
1070
    74
1070
     0
1000
MTEXTEND
  0
POINT
  5
4321
330
376F
100
AcDbEntity
  8
Defpoints
 62
     0
100
AcDbPoint
 10
110.7578161785139
 20
150.5075304174649
 30
0.0
  0
POINT
  5
4322
330
376F
100
AcDbEntity
  8
Defpoints
 62
     0
100
AcDbPoint
 10
194.7578161785139
 20
150.5075304174649
 30
0.0
  0
POINT
  5
4323
330
376F
100
AcDbEntity
  8
Defpoints
 62
     0
100
AcDbPoint
 10
194.7578161785139
 20
128.080030417465
 30
0.0
  0
ENDBLK
  5
377A
330
376F
100
AcDbEntity
  8
0
100
AcDbBlockEnd
  0
BLOCK
  5
379F
330
3795
100
AcDbEntity
  8
0
100
AcDbBlockBegin
  2
*D8
 70
     1
 10
0.0
 20
0.0
 30
0.0
  3
*D8
  1

  0
LINE
  5
4324
330
3795
100
AcDbEntity
  8
AM_5
100
AcDbLine
 10
193.757816178514
 20
148.5075304174649
 30
0.0
 11
213.0708577396168
 21
148.5075304174649
 31
0.0
  0
LINE
  5
4325
330
3795
100
AcDbEntity
  8
AM_5
100
AcDbLine
 10
195.7578161785139
 20
160.0075304174649
 30
0.0
 11
213.0708577396168
 21
160.0075304174649
 31
0.0
  0
LINE
  5
4326
330
3795
100
AcDbEntity
  8
AM_5
100
AcDbLine
 10
211.5708577396168
 20
151.5075304174649
 30
0.0
 11
211.5708577396168
 21
157.0075304174649
 31
0.0
  0
SOLID
  5
4327
330
3795
100
AcDbEntity
  8
AM_5
100
AcDbTrace
 10
211.0708577396168
 20
151.5075304174649
 30
0.0
 11
212.0708577396168
 21
151.5075304174649
 31
0.0
 12
211.5708577396168
 22
148.5075304174649
 32
0.0
 13
211.5708577396168
 23
148.5075304174649
 33
0.0
  0
SOLID
  5
4328
330
3795
100
AcDbEntity
  8
AM_5
100
AcDbTrace
 10
211.0708577396168
 20
157.0075304174649
 30
0.0
 11
212.0708577396168
 21
157.0075304174649
 31
0.0
 12
211.5708577396168
 22
160.0075304174649
 32
0.0
 13
211.5708577396168
 23
160.0075304174649
 33
0.0
  0
MTEXT
  5
4329
330
3795
100
AcDbEntity
  8
AM_5
100
AcDbMText
 10
209.0708577396168
 20
154.2575304174649
 30
0.0
 40
3.0
 41
0.0
 71
     5
 72
     1
  1
\A2;11.5
 11
0.0000000000000001
 21
1.0
 31
0.0
 73
     1
 44
1.0
1001
ACAD
1000
MTEXTBEGIN
1070
    73
1070
     1
1070
    44
1040
1.0
1070
    74
1070
     0
1000
MTEXTEND
  0
POINT
  5
432A
330
3795
100
AcDbEntity
  8
Defpoints
 62
     0
100
AcDbPoint
 10
192.757816178514
 20
148.5075304174649
 30
0.0
  0
POINT
  5
432B
330
3795
100
AcDbEntity
  8
Defpoints
 62
     0
100
AcDbPoint
 10
194.7578161785139
 20
160.0075304174649
 30
0.0
  0
POINT
  5
432C
330
3795
100
AcDbEntity
  8
Defpoints
 62
     0
100
AcDbPoint
 10
211.5708577396168
 20
160.0075304174649
 30
0.0
  0
ENDBLK
  5
37A0
330
3795
100
AcDbEntity
  8
0
100
AcDbBlockEnd
  0
BLOCK
  5
37EB
330
37E1
100
AcDbEntity
  8
0
100
AcDbBlockBegin
  2
*D9
 70
     1
 10
0.0
 20
0.0
 30
0.0
  3
*D9
  1

  0
LINE
  5
432D
330
37E1
100
AcDbEntity
  8
AM_5
100
AcDbLine
 10
193.757816178514
 20
148.5075304174649
 30
0.0
 11
231.8093720491055
 21
148.5075304174649
 31
0.0
  0
LINE
  5
432E
330
37E1
100
AcDbEntity
  8
AM_5
100
AcDbLine
 10
189.7578161785139
 20
175.5075304174649
 30
0.0
 11
231.8093720491055
 21
175.5075304174649
 31
0.0
  0
LINE
  5
432F
330
37E1
100
AcDbEntity
  8
AM_5
100
AcDbLine
 10
230.3093720491055
 20
151.5075304174649
 30
0.0
 11
230.3093720491055
 21
172.5075304174649
 31
0.0
  0
SOLID
  5
4330
330
37E1
100
AcDbEntity
  8
AM_5
100
AcDbTrace
 10
229.8093720491055
 20
151.5075304174649
 30
0.0
 11
230.8093720491055
 21
151.5075304174649
 31
0.0
 12
230.3093720491055
 22
148.5075304174649
 32
0.0
 13
230.3093720491055
 23
148.5075304174649
 33
0.0
  0
SOLID
  5
4331
330
37E1
100
AcDbEntity
  8
AM_5
100
AcDbTrace
 10
229.8093720491055
 20
172.5075304174649
 30
0.0
 11
230.8093720491055
 21
172.5075304174649
 31
0.0
 12
230.3093720491055
 22
175.5075304174649
 32
0.0
 13
230.3093720491055
 23
175.5075304174649
 33
0.0
  0
MTEXT
  5
4332
330
37E1
100
AcDbEntity
  8
AM_5
100
AcDbMText
 10
227.8090767735149
 20
162.007530417465
 30
0.0
 40
3.0
 41
0.0
 71
     5
 72
     1
  1
\A2;27
 11
0.0000000000000001
 21
1.0
 31
0.0
 73
     1
 44
1.0
1001
ACAD
1000
MTEXTBEGIN
1070
    73
1070
     1
1070
    44
1040
1.0
1070
    74
1070
     0
1000
MTEXTEND
  0
POINT
  5
4333
330
37E1
100
AcDbEntity
  8
Defpoints
 62
     0
100
AcDbPoint
 10
192.757816178514
 20
148.5075304174649
 30
0.0
  0
POINT
  5
4334
330
37E1
100
AcDbEntity
  8
Defpoints
 62
     0
100
AcDbPoint
 10
188.7578161785139
 20
175.5075304174649
 30
0.0
  0
POINT
  5
4335
330
37E1
100
AcDbEntity
  8
Defpoints
 62
     0
100
AcDbPoint
 10
230.3093720491055
 20
175.5075304174649
 30
0.0
  0
ENDBLK
  5
37EC
330
37E1
100
AcDbEntity
  8
0
100
AcDbBlockEnd
  0
BLOCK
  5
3811
330
3807
100
AcDbEntity
  8
0
100
AcDbBlockBegin
  2
*D10
 70
     1
 10
0.0
 20
0.0
 30
0.0
  3
*D10
  1

  0
LINE
  5
4336
330
3807
100
AcDbEntity
  8
AM_5
100
AcDbLine
 10
137.7578161785139
 20
203.2434107497112
 30
0.0
 11
137.7578161785139
 21
189.5934107497112
 31
0.0
  0
LINE
  5
4337
330
3807
100
AcDbEntity
  8
AM_5
100
AcDbLine
 10
167.7578161785139
 20
203.2434107497112
 30
0.0
 11
167.7578161785139
 21
189.5934107497112
 31
0.0
  0
LINE
  5
4338
330
3807
100
AcDbEntity
  8
AM_5
100
AcDbLine
 10
140.7578161785139
 20
191.0934107497112
 30
0.0
 11
164.7578161785139
 21
191.0934107497112
 31
0.0
  0
SOLID
  5
4339
330
3807
100
AcDbEntity
  8
AM_5
100
AcDbTrace
 10
140.7578161785139
 20
191.5934107497112
 30
0.0
 11
140.7578161785139
 21
190.5934107497112
 31
0.0
 12
137.7578161785139
 22
191.0934107497112
 32
0.0
 13
137.7578161785139
 23
191.0934107497112
 33
0.0
  0
SOLID
  5
433A
330
3807
100
AcDbEntity
  8
AM_5
100
AcDbTrace
 10
164.7578161785139
 20
191.5934107497112
 30
0.0
 11
164.7578161785139
 21
190.5934107497112
 31
0.0
 12
167.7578161785139
 22
191.0934107497112
 32
0.0
 13
167.7578161785139
 23
191.0934107497112
 33
0.0
  0
MTEXT
  5
433B
330
3807
100
AcDbEntity
  8
AM_5
100
AcDbMText
 10
152.7578161785139
 20
193.5934107497112
 30
0.0
 40
3.0
 41
0.0
 71
     5
 72
     1
  1
\A2;30
 73
     1
 44
1.0
1001
ACAD
1000
MTEXTBEGIN
1070
    73
1070
     1
1070
    44
1040
1.0
1070
    74
1070
     0
1000
MTEXTEND
  0
POINT
  5
433C
330
3807
100
AcDbEntity
  8
Defpoints
 62
     0
100
AcDbPoint
 10
137.7578161785139
 20
204.2434107497112
 30
0.0
  0
POINT
  5
433D
330
3807
100
AcDbEntity
  8
Defpoints
 62
     0
100
AcDbPoint
 10
167.7578161785139
 20
204.2434107497112
 30
0.0
  0
POINT
  5
433E
330
3807
100
AcDbEntity
  8
Defpoints
 62
     0
100
AcDbPoint
 10
167.7578161785139
 20
191.0934107497112
 30
0.0
  0
ENDBLK
  5
3812
330
3807
100
AcDbEntity
  8
0
100
AcDbBlockEnd
  0
BLOCK
  5
3837
330
382D
100
AcDbEntity
  8
0
100
AcDbBlockBegin
  2
*D11
 70
     1
 10
0.0
 20
0.0
 30
0.0
  3
*D11
  1

  0
LINE
  5
433F
330
382D
100
AcDbEntity
  8
AM_5
100
AcDbLine
 10
195.7578161785139
 20
203.0934107497112
 30
0.0
 11
208.257816178514
 21
203.0934107497112
 31
0.0
  0
LINE
  5
4340
330
382D
100
AcDbEntity
  8
AM_5
100
AcDbLine
 10
172.607816178514
 20
208.0934107497112
 30
0.0
 11
208.257816178514
 21
208.0934107497112
 31
0.0
  0
LINE
  5
4341
330
382D
100
AcDbEntity
  8
AM_5
100
AcDbLine
 10
206.757816178514
 20
200.0934107497112
 30
0.0
 11
206.757816178514
 21
197.0934107497112
 31
0.0
  0
LINE
  5
4342
330
382D
100
AcDbEntity
  8
AM_5
100
AcDbLine
 10
206.757816178514
 20
211.0934107497112
 30
0.0
 11
206.757816178514
 21
214.0934107497112
 31
0.0
  0
LINE
  5
4343
330
382D
100
AcDbEntity
  8
AM_5
100
AcDbLine
 10
206.757816178514
 20
203.0934107497112
 30
0.0
 11
206.757816178514
 21
208.0934107497112
 31
0.0
  0
SOLID
  5
4344
330
382D
100
AcDbEntity
  8
AM_5
100
AcDbTrace
 10
206.257816178514
 20
200.0934107497112
 30
0.0
 11
207.2578161785139
 21
200.0934107497112
 31
0.0
 12
206.757816178514
 22
203.0934107497112
 32
0.0
 13
206.757816178514
 23
203.0934107497112
 33
0.0
  0
SOLID
  5
4345
330
382D
100
AcDbEntity
  8
AM_5
100
AcDbTrace
 10
206.257816178514
 20
211.0934107497112
 30
0.0
 11
207.2578161785139
 21
211.0934107497112
 31
0.0
 12
206.757816178514
 22
208.0934107497112
 32
0.0
 13
206.757816178514
 23
208.0934107497112
 33
0.0
  0
MTEXT
  5
4346
330
382D
100
AcDbEntity
  8
AM_5
100
AcDbMText
 10
204.2578161785139
 20
205.5934107497113
 30
0.0
 40
3.0
 41
0.0
 71
     5
 72
     1
  1
\A2;5
 11
0.0000000000000001
 21
1.0
 31
0.0
 73
     1
 44
1.0
1001
ACAD
1000
MTEXTBEGIN
1070
    73
1070
     1
1070
    44
1040
1.0
1070
    74
1070
     0
1000
MTEXTEND
  0
POINT
  5
4347
330
382D
100
AcDbEntity
  8
Defpoints
 62
     0
100
AcDbPoint
 10
194.7578161785139
 20
203.0934107497112
 30
0.0
  0
POINT
  5
4348
330
382D
100
AcDbEntity
  8
Defpoints
 62
     0
100
AcDbPoint
 10
171.607816178514
 20
208.0934107497112
 30
0.0
  0
POINT
  5
4349
330
382D
100
AcDbEntity
  8
Defpoints
 62
     0
100
AcDbPoint
 10
206.757816178514
 20
208.0934107497112
 30
0.0
  0
ENDBLK
  5
3838
330
382D
100
AcDbEntity
  8
0
100
AcDbBlockEnd
  0
BLOCK
  5
385D
330
3853
100
AcDbEntity
  8
0
100
AcDbBlockBegin
  2
*D12
 70
     1
 10
0.0
 20
0.0
 30
0.0
  3
*D12
  1

  0
LINE
  5
434A
330
3853
100
AcDbEntity
  8
AM_5
100
AcDbLine
 10
172.607816178514
 20
279.0934107497112
 30
0.0
 11
208.257817178514
 21
279.0934107497112
 31
0.0
  0
LINE
  5
434B
330
3853
100
AcDbEntity
  8
AM_5
100
AcDbLine
 10
195.7578161785139
 20
284.0934107497112
 30
0.0
 11
208.257817178514
 21
284.0934107497112
 31
0.0
  0
LINE
  5
434C
330
3853
100
AcDbEntity
  8
AM_5
100
AcDbLine
 10
206.757817178514
 20
276.0934107497112
 30
0.0
 11
206.757817178514
 21
273.0934107497112
 31
0.0
  0
LINE
  5
434D
330
3853
100
AcDbEntity
  8
AM_5
100
AcDbLine
 10
206.757817178514
 20
287.0934107497112
 30
0.0
 11
206.757817178514
 21
290.0934107497112
 31
0.0
  0
LINE
  5
434E
330
3853
100
AcDbEntity
  8
AM_5
100
AcDbLine
 10
206.757817178514
 20
279.0934107497112
 30
0.0
 11
206.757817178514
 21
284.0934107497112
 31
0.0
  0
SOLID
  5
434F
330
3853
100
AcDbEntity
  8
AM_5
100
AcDbTrace
 10
206.257817178514
 20
276.0934107497112
 30
0.0
 11
207.2578171785139
 21
276.0934107497112
 31
0.0
 12
206.757817178514
 22
279.0934107497112
 32
0.0
 13
206.757817178514
 23
279.0934107497112
 33
0.0
  0
SOLID
  5
4350
330
3853
100
AcDbEntity
  8
AM_5
100
AcDbTrace
 10
206.257817178514
 20
287.0934107497112
 30
0.0
 11
207.2578171785139
 21
287.0934107497112
 31
0.0
 12
206.757817178514
 22
284.0934107497112
 32
0.0
 13
206.757817178514
 23
284.0934107497112
 33
0.0
  0
MTEXT
  5
4351
330
3853
100
AcDbEntity
  8
AM_5
100
AcDbMText
 10
204.2578171785139
 20
281.5934107497113
 30
0.0
 40
3.0
 41
0.0
 71
     5
 72
     1
  1
\A2;5
 11
0.0000000000000001
 21
1.0
 31
0.0
 73
     1
 44
1.0
1001
ACAD
1000
MTEXTBEGIN
1070
    73
1070
     1
1070
    44
1040
1.0
1070
    74
1070
     0
1000
MTEXTEND
  0
POINT
  5
4352
330
3853
100
AcDbEntity
  8
Defpoints
 62
     0
100
AcDbPoint
 10
171.607816178514
 20
279.0934107497112
 30
0.0
  0
POINT
  5
4353
330
3853
100
AcDbEntity
  8
Defpoints
 62
     0
100
AcDbPoint
 10
194.7578161785139
 20
284.0934107497112
 30
0.0
  0
POINT
  5
4354
330
3853
100
AcDbEntity
  8
Defpoints
 62
     0
100
AcDbPoint
 10
206.757817178514
 20
284.0934107497112
 30
0.0
  0
ENDBLK
  5
385E
330
3853
100
AcDbEntity
  8
0
100
AcDbBlockEnd
  0
BLOCK
  5
4236
330
422C
100
AcDbEntity
  8
0
100
AcDbBlockBegin
  2
*D13
 70
     1
 10
0.0
 20
0.0
 30
0.0
  3
*D13
  1

  0
LINE
  5
4355
330
422C
100
AcDbEntity
  8
AM_5
100
AcDbLine
 10
193.757816178514
 20
148.5075304174649
 30
0.0
 11
221.0708577396169
 21
148.5075304174649
 31
0.0
  0
LINE
  5
4356
330
422C
100
AcDbEntity
  8
AM_5
100
AcDbLine
 10
165.4078161785139
 20
161.0075304174649
 30
0.0
 11
221.0708577396169
 21
161.0075304174649
 31
0.0
  0
LINE
  5
4357
330
422C
100
AcDbEntity
  8
AM_5
100
AcDbLine
 10
219.5708577396169
 20
151.5075304174649
 30
0.0
 11
219.5708577396169
 21
158.0075304174649
 31
0.0
  0
SOLID
  5
4358
330
422C
100
AcDbEntity
  8
AM_5
100
AcDbTrace
 10
219.0708577396169
 20
151.5075304174649
 30
0.0
 11
220.0708577396169
 21
151.5075304174649
 31
0.0
 12
219.5708577396169
 22
148.5075304174649
 32
0.0
 13
219.5708577396169
 23
148.5075304174649
 33
0.0
  0
SOLID
  5
4359
330
422C
100
AcDbEntity
  8
AM_5
100
AcDbTrace
 10
219.0708577396169
 20
158.0075304174649
 30
0.0
 11
220.0708577396169
 21
158.0075304174649
 31
0.0
 12
219.5708577396169
 22
161.0075304174649
 32
0.0
 13
219.5708577396169
 23
161.0075304174649
 33
0.0
  0
MTEXT
  5
435A
330
422C
100
AcDbEntity
  8
AM_5
100
AcDbMText
 10
217.0705624640263
 20
154.757530417465
 30
0.0
 40
3.0
 41
0.0
 71
     5
 72
     1
  1
\A2;12.5
 11
0.0000000000000001
 21
1.0
 31
0.0
 73
     1
 44
1.0
1001
ACAD
1000
MTEXTBEGIN
1070
    73
1070
     1
1070
    44
1040
1.0
1070
    74
1070
     0
1000
MTEXTEND
  0
POINT
  5
435B
330
422C
100
AcDbEntity
  8
Defpoints
 62
     0
100
AcDbPoint
 10
192.757816178514
 20
148.5075304174649
 30
0.0
  0
POINT
  5
435C
330
422C
100
AcDbEntity
  8
Defpoints
 62
     0
100
AcDbPoint
 10
164.4078161785139
 20
161.0075304174649
 30
0.0
  0
POINT
  5
435D
330
422C
100
AcDbEntity
  8
Defpoints
 62
     0
100
AcDbPoint
 10
219.5708577396169
 20
161.0075304174649
 30
0.0
  0
ENDBLK
  5
4237
330
422C
100
AcDbEntity
  8
0
100
AcDbBlockEnd
  0
BLOCK
  5
43E9
330
43E4
100
AcDbEntity
  8
0
100
AcDbBlockBegin
  2
*S15
 70
     1
 10
0.0
 20
0.0
 30
0.0
  3
*S15
  1

  0
LINE
  5
43E5
330
43E4
100
AcDbEntity
  8
AM_5
 62
     5
100
AcDbLine
 10
192.7377994688864
 20
194.8848345477097
 30
0.0
 11
178.9949196478137
 21
194.8848345477097
 31
0.0
  0
LINE
  5
43E6
330
43E4
100
AcDbEntity
  8
AM_5
 62
     5
100
AcDbLine
 10
178.9949196478137
 20
194.8848345477097
 30
0.0
 11
171.4283578145449
 21
204.1198927003428
 31
0.0
  0
TRACE
  5
43E7
330
43E4
100
AcDbEntity
  8
AM_5
 62
     5
370
    35
100
AcDbTrace
 10
171.7847840686707
 20
204.4119234863183
 30
0.0
 11
171.0719315604192
 21
203.8278619143673
 31
0.0
 12
169.2101637610321
 22
206.8272188980812
 32
0.0
 13
169.2101637610321
 23
206.8272188980812
 33
0.0
  0
MTEXT
  5
43E8
330
43E4
100
AcDbEntity
  8
AM_5
 62
     2
100
AcDbMText
 10
192.7377994688864
 20
192.9515392456534
 30
0.0
 40
3.5
 41
0.0
 71
     9
 72
     5
  1

  7
ACISOTS
210
0.0
220
0.0
230
-1.0
 11
-1.0
 21
0.0
 31
0.0
 73
     1
 44
1.0
1001
ACAD
1000
MTEXTBEGIN
1070
    73
1070
     1
1070
    44
1040
1.0
1070
    74
1070
     0
1000
MTEXTEND
  0
ENDBLK
  5
43EA
330
43E4
100
AcDbEntity
  8
0
100
AcDbBlockEnd
  0
BLOCK
  5
43F1
330
43EC
100
AcDbEntity
  8
0
100
AcDbBlockBegin
  2
*S16
 70
     1
 10
0.0
 20
0.0
 30
0.0
  3
*S16
  1

  0
LINE
  5
43ED
330
43EC
100
AcDbEntity
  8
AM_5
 62
     5
100
AcDbLine
 10
219.99517176563
 20
139.450937348144
 30
0.0
 11
203.6583333326687
 21
139.450937348144
 31
0.0
  0
LINE
  5
43EE
330
43EC
100
AcDbEntity
  8
AM_5
 62
     5
100
AcDbLine
 10
203.6583333326687
 20
139.450937348144
 30
0.0
 11
192.4032076668283
 21
152.0262087152929
 31
0.0
  0
TRACE
  5
43EF
330
43EC
100
AcDbEntity
  8
AM_5
 62
     5
370
    35
100
AcDbTrace
 10
192.7465543450282
 20
152.3335110308662
 30
0.0
 11
192.0598609886285
 21
151.7189063997195
 31
0.0
 12
190.0690148290476
 22
154.6341856699559
 32
0.0
 13
190.0690148290476
 23
154.6341856699559
 33
0.0
  0
MTEXT
  5
43F0
330
43EC
100
AcDbEntity
  8
AM_5
 62
     2
100
AcDbMText
 10
219.99517176563
 20
137.0127832733477
 30
0.0
 40
3.5
 41
0.0
 71
     9
 72
     5
  1

  7
ACISOTS
210
0.0
220
0.0
230
-1.0
 11
-1.0
 21
0.0
 31
0.0
 73
     1
 44
1.0
1001
ACAD
1000
MTEXTBEGIN
1070
    73
1070
     1
1070
    44
1040
1.0
1070
    74
1070
     0
1000
MTEXTEND
  0
ENDBLK
  5
43F2
330
43EC
100
AcDbEntity
  8
0
100
AcDbBlockEnd
  0
ENDSEC
  0
SECTION
  2
ENTITIES
  0
TEXT
  5
13F1
330
1F
100
AcDbEntity
  8
LOGO
 62
     7
100
AcDbText
 10
143.2283349906303
 20
95.36237077147701
 30
0.0
 40
2.867293939852487
  1
Order example:
 41
0.8
  7
CHINESET
100
AcDbText
  0
TEXT
  5
13F2
330
1F
100
AcDbEntity
  8
LOGO
 62
     7
100
AcDbText
 10
143.7427512349958
 20
99.39892695800377
 30
0.0
 40
4.300940909778729
  1
訂購代號:
  7
CHINESET
100
AcDbText
  0
LINE
  5
13F3
330
1F
100
AcDbEntity
  8
LOGO
 62
     1
100
AcDbLine
 10
281.2961360408962
 20
104.7832159005303
 30
0.0
 11
94.67213604089613
 21
104.7832159005303
 31
0.0
  0
LINE
  5
13F4
330
1F
100
AcDbEntity
  8
LOGO
 62
     1
100
AcDbLine
 10
281.2961360408962
 20
83.27851135163665
 30
0.0
 11
94.67213604089613
 21
83.27851135163665
 31
0.0
  0
LINE
  5
13F5
330
1F
100
AcDbEntity
  8
LOGO
 62
     1
100
AcDbLine
 10
141.9824860484623
 20
83.27851135163665
 30
0.0
 11
141.9824860484623
 21
104.7832159005303
 31
0.0
  0
LINE
  5
13F6
330
1F
100
AcDbEntity
  8
LOGO
 62
     1
100
AcDbLine
 10
94.67213604089613
 20
83.27851135163665
 30
0.0
 11
94.67213604089613
 21
104.7832159005303
 31
0.0
  0
TEXT
  5
13F7
330
1F
100
AcDbEntity
  8
LOGO
  6
Continuous
 62
     5
100
AcDbText
 10
102.3967225803763
 20
87.50307810683798
 30
0.0
 40
3.225705682334048
  1
金器工業股份有限公司
  7
CHINESET
100
AcDbText
  0
TEXT
  5
13F8
330
1F
100
AcDbEntity
  8
LOGO
  6
Continuous
 62
     5
100
AcDbText
 10
96.47173941632628
 20
84.27674043909538
 30
0.0
 40
2.150470454889364
  1
MINDMAN INDUSTRIAL CO., LTD.
 41
0.85
  7
CHINESET
100
AcDbText
  0
LINE
  5
13F9
330
1F
100
AcDbEntity
  8
LOGO
 62
     1
100
AcDbLine
 10
141.9824860484623
 20
100.4822749907516
 30
0.0
 11
110.442252710085
 21
100.4822749907516
 31
0.0
  0
LINE
  5
13FA
330
1F
100
AcDbEntity
  8
LOGO
 62
     1
100
AcDbLine
 10
141.9824860484623
 20
96.18133408097286
 30
0.0
 11
110.442252710085
 21
96.18133408097286
 31
0.0
  0
LINE
  5
13FB
330
1F
100
AcDbEntity
  8
LOGO
 62
     1
100
AcDbLine
 10
141.9824860484623
 20
91.88039317119418
 30
0.0
 11
94.67213604089613
 21
91.88039317119418
 31
0.0
  0
LINE
  5
13FC
330
1F
100
AcDbEntity
  8
LOGO
 62
     1
100
AcDbLine
 10
110.442252710085
 20
91.88039317119418
 30
0.0
 11
110.442252710085
 21
104.7832159005303
 31
0.0
  0
TEXT
  5
13FD
330
1F
100
AcDbEntity
  8
LOGO
 62
     6
100
AcDbText
 10
130.8720766155862
 20
92.95562839863883
 30
0.0
 40
2.150470454889364
  1
m/m
  7
CHINESET
 72
     1
 11
134.6610007503913
 21
94.03086362608352
 31
0.0
100
AcDbText
 73
     2
  0
TEXT
  5
13FE
330
1F
100
AcDbEntity
  8
LOGO
 62
     6
100
AcDbText
 10
130.8720766155862
 20
101.5575102181963
 30
0.0
 40
2.150470454889364
  1
1 : 1
  7
CHINESET
 72
     1
 11
134.6610007503913
 21
102.632745445641
 31
0.0
100
AcDbText
 73
     2
  0
LINE
  5
13FF
330
1F
100
AcDbEntity
  8
LOGO
 62
     1
100
AcDbLine
 10
127.6460163491997
 20
91.88039317119418
 30
0.0
 11
127.6460163491997
 21
104.7832159005303
 31
0.0
  0
CIRCLE
  5
1400
330
1F
100
AcDbEntity
  8
LOGO
  6
Continuous
 62
     6
100
AcDbCircle
 10
131.62788137302
 20
98.33640440790203
 30
0.0
 40
1.24861376247747
  0
CIRCLE
  5
1401
330
1F
100
AcDbEntity
  8
LOGO
  6
Continuous
 62
     6
100
AcDbCircle
 10
131.62788137302
 20
98.33640440790203
 30
0.0
 40
0.7315771312892432
  0
LINE
  5
1402
330
1F
100
AcDbEntity
  8
LOGO
 62
     6
100
AcDbLine
 10
139.4743151394429
 20
97.08779064542447
 30
0.0
 11
139.4743151394429
 21
99.5850181703795
 31
0.0
  0
LINE
  5
1403
330
1F
100
AcDbEntity
  8
LOGO
 62
     6
100
AcDbLine
 10
135.5599826679256
 20
97.60482727661278
 30
0.0
 11
135.5599826679256
 21
99.06798153919138
 31
0.0
  0
LINE
  5
1404
330
1F
100
AcDbEntity
  8
LOGO
  6
Continuous
 62
     6
100
AcDbLine
 10
135.5599826679256
 20
99.06798153919138
 30
0.0
 11
139.4743151394429
 21
99.5850181703795
 31
0.0
  0
LINE
  5
1405
330
1F
100
AcDbEntity
  8
LOGO
  6
Continuous
 62
     6
100
AcDbLine
 10
135.5599826679256
 20
97.60482727661278
 30
0.0
 11
139.4743151394429
 21
97.08779064542447
 31
0.0
  0
TEXT
  5
1432
330
1F
100
AcDbEntity
  8
LOGO
 62
     6
100
AcDbText
 10
112.2154308039156
 20
101.5585685205856
 30
140.9382909203313
 40
2.150470454889364
  1
比例 Scale:
 41
0.9
  7
CHINESET
 72
     4
 11
119.0441345296424
 21
102.632745445641
 31
140.9382909203313
100
AcDbText
  0
TEXT
  5
1433
330
1F
100
AcDbEntity
  8
LOGO
 62
     6
100
AcDbText
 10
112.9671354316738
 20
97.28681911837595
 30
140.9382909203313
 40
2.150470454889364
  1
投影 View:
 41
0.9
  7
CHINESET
 72
     4
 11
119.0441345296424
 21
98.33180453586217
 31
140.9382909203313
100
AcDbText
  0
TEXT
  5
1434
330
1F
100
AcDbEntity
  8
LOGO
 62
     6
100
AcDbText
 10
113.1773823198974
 20
92.95562839863883
 30
140.9382909203313
 40
2.150470454889364
  1
單位 Unit:
 41
0.9
  7
CHINESET
 72
     4
 11
119.0441345296424
 21
94.03086362608352
 31
140.9382909203313
100
AcDbText
  0
LWPOLYLINE
  5
143D
330
1F
100
AcDbEntity
  8
0
 62
     4
100
AcDbPolyline
 90
        4
 70
     1
 43
0.0
 10
94.6721360408963
 20
104.7832159005303
 10
281.2961360408961
 20
104.7832159005303
 10
281.296136040896
 20
339.8865113516367
 10
94.67213604089613
 20
339.8865113516367
1001
GENIUS_GENREC_14
1002
{
1000
PYDIR
1011
94.67213604089613
1021
339.8865113516367
1031
0.0
1002
}
1002
{
1000
PXDIR
1011
281.2961360408961
1021
104.7832159005303
1031
0.0
1002
}
1002
{
1000
PORI
1011
94.6721360408963
1021
104.7832159005303
1031
0.0
1002
}
1002
{
1000
PINS
1011
94.6721360408963
1021
104.7832159005303
1031
0.0
1002
}
1002
{
1000
PINS2
1011
281.296136040896
1021
339.8865113516367
1031
0.0
1002
}
1002
{
1000
C
1070
     1
1002
}
1001
GENIUS_GENODEF_13
1002
{
1000
HIER
1070
     0
1002
}
1002
{
1000
MANEDIT
1070
     0
1002
}
1002
{
1000
NOSEL
1070
     0
1002
}
1002
{
1000
BEHIND
1070
     0
1002
}
1002
{
1000
OTHER
1070
     0
1002
}
1002
{
1000
REACTOR
1002
}
1001
GENIUS_GENOBJ-N-REC_13
1002
{
1000
OWNER
1000
GEN
1002
}
  0
SOLID
  5
143E
330
1F
100
AcDbEntity
  8
LOGO
 62
     5
100
AcDbTrace
 10
96.9032836502698
 20
95.45524420708217
 30
0.0
 11
97.83309064661921
 21
95.45524420708181
 31
0.0
 12
101.7126301831119
 22
104.2723795172925
 32
0.0
 13
102.6424371794613
 23
104.2723795172918
 33
0.0
  0
SOLID
  5
143F
330
1F
100
AcDbEntity
  8
LOGO
 62
     5
100
AcDbTrace
 10
98.21783836924716
 20
95.45524420708217
 30
0.0
 11
99.14764536559635
 21
95.45524420708217
 31
0.0
 12
102.6424371794613
 22
103.5670086924752
 32
0.0
 13
101.7126301831119
 23
100.1577163725271
 33
0.0
  0
SOLID
  5
1440
330
1F
100
AcDbEntity
  8
LOGO
 62
     2
100
AcDbTrace
 10
97.83309064661921
 20
95.45524420708181
 30
0.0
 11
98.21783836924716
 21
95.45524420708217
 31
0.0
 12
102.6424371794613
 22
104.2723795172918
 32
0.0
 13
103.0271849020889
 23
104.2723795172918
 33
0.0
  0
SOLID
  5
1441
330
1F
100
AcDbEntity
  8
LOGO
 62
     5
100
AcDbTrace
 10
95.41257501851578
 20
92.24901318518787
 30
0.0
 11
95.73319812070568
 21
92.24901318518787
 31
0.0
 12
96.63609773177881
 22
93.85212869613473
 32
0.0
 13
96.95672083396807
 23
93.85212869613473
 33
0.0
  0
SOLID
  5
1442
330
1F
100
AcDbEntity
  8
LOGO
 62
     5
100
AcDbTrace
 10
96.63609773177881
 20
93.85212869613473
 30
0.0
 11
96.95672083396807
 21
93.85212869613473
 31
0.0
 12
96.63609773177881
 22
92.24901318518787
 32
0.0
 13
96.95672083396807
 23
92.24901318518787
 33
0.0
  0
SOLID
  5
1443
330
1F
100
AcDbEntity
  8
LOGO
 62
     5
100
AcDbTrace
 10
96.63609773177881
 20
92.24901318518787
 30
0.0
 11
96.95672083396807
 21
92.24901318518787
 31
0.0
 12
97.85962044504239
 22
93.85212869613473
 32
0.0
 13
98.1802435472314
 23
93.85212869613473
 33
0.0
  0
SOLID
  5
1444
330
1F
100
AcDbEntity
  8
LOGO
 62
     5
100
AcDbTrace
 10
97.85962044504239
 20
93.85212869613473
 30
0.0
 11
98.1802435472314
 21
93.85212869613473
 31
0.0
 12
97.85962044504239
 22
92.24901318518787
 32
0.0
 13
98.1802435472314
 23
92.24901318518787
 33
0.0
  0
POLYLINE
  5
1445
330
1F
100
AcDbEntity
  8
LOGO
 62
     5
100
AcDb2dPolyline
 66
     1
 10
0.0
 20
0.0
 30
0.0
 40
0.3211369212634784
 41
0.3211369212634784
  0
VERTEX
  5
1446
330
1445
100
AcDbEntity
  8
LOGO
 62
     5
100
AcDbVertex
100
AcDb2dVertex
 10
108.6067976087966
 20
93.21088249175581
 30
0.0
 42
1.0
  0
VERTEX
  5
1447
330
1445
100
AcDbEntity
  8
LOGO
 62
     5
100
AcDbVertex
100
AcDb2dVertex
 10
107.6433868450059
 20
93.21088249175581
 30
0.0
 42
1.0
  0
SEQEND
  5
1448
330
1445
100
AcDbEntity
  8
LOGO
 62
     5
  0
POLYLINE
  5
1449
330
1F
100
AcDbEntity
  8
LOGO
 62
     5
100
AcDb2dPolyline
 66
     1
 10
0.0
 20
0.0
 30
0.0
 70
     1
  0
VERTEX
  5
144A
330
1449
100
AcDbEntity
  8
LOGO
 62
     5
100
AcDbVertex
100
AcDb2dVertex
 10
105.8273147027498
 20
93.05057094066123
 30
0.0
 42
1.000000057330635
  0
VERTEX
  5
144B
330
1449
100
AcDbEntity
  8
LOGO
 62
     5
100
AcDbVertex
100
AcDb2dVertex
 10
106.7891840093184
 20
93.05057094066123
 30
0.0
 42
1.000000057330635
  0
SEQEND
  5
144C
330
1449
100
AcDbEntity
  8
LOGO
 62
     5
  0
CIRCLE
  5
144D
330
1F
100
AcDbEntity
  8
LOGO
 62
     5
100
AcDbCircle
 10
106.3082493560343
 20
93.05057094066123
 30
0.0
 40
0.4809346532841854
  0
POLYLINE
  5
144E
330
1F
100
AcDbEntity
  8
LOGO
 62
     5
100
AcDb2dPolyline
 66
     1
 10
0.0
 20
0.0
 30
0.0
 70
     1
 40
0.3211369212634784
 41
0.3211369212634784
  0
VERTEX
  5
144F
330
144E
100
AcDbEntity
  8
LOGO
 62
     5
100
AcDbVertex
100
AcDb2dVertex
 10
105.6659755135071
 20
93.05057094066123
 30
0.0
 42
1.0
  0
VERTEX
  5
1450
330
144E
100
AcDbEntity
  8
LOGO
 62
     5
100
AcDbVertex
100
AcDb2dVertex
 10
106.9505231985611
 20
93.05057094066123
 30
0.0
 42
1.0
  0
SEQEND
  5
1451
330
144E
100
AcDbEntity
  8
LOGO
 62
     5
  0
LINE
  5
1452
330
1F
100
AcDbEntity
  8
LOGO
 62
     5
100
AcDbLine
 10
108.76633843128
 20
92.24901318518787
 30
0.0
 11
108.76633843128
 21
93.21088249175581
 31
0.0
  0
SOLID
  5
1453
330
1F
100
AcDbEntity
  8
LOGO
 62
     5
100
AcDbTrace
 10
106.7891519470088
 20
93.85212869613473
 30
0.0
 11
107.1097750491979
 21
93.85212869613473
 31
0.0
 12
106.7891519470088
 22
92.24901318518787
 32
0.0
 13
107.1097750491979
 23
92.24901318518787
 33
0.0
  0
SOLID
  5
1454
330
1F
100
AcDbEntity
  8
LOGO
 62
     5
100
AcDbTrace
 10
107.4838460225219
 20
92.24901318518787
 30
0.0
 11
107.8044691247118
 21
92.24901318518787
 31
0.0
 12
107.4838460225219
 22
93.85212869613473
 32
0.0
 13
107.8044691247118
 23
93.85212869613473
 33
0.0
  0
SOLID
  5
1455
330
1F
100
AcDbEntity
  8
LOGO
 62
     5
100
AcDbTrace
 10
108.4457153290908
 20
93.21088249175581
 30
0.0
 11
108.76633843128
 21
93.21088249175581
 31
0.0
 12
108.4457153290908
 22
92.24901318518787
 32
0.0
 13
108.76633843128
 23
92.24901318518787
 33
0.0
  0
SOLID
  5
1456
330
1F
100
AcDbEntity
  8
LOGO
 62
     5
100
AcDbTrace
 10
107.4517837123031
 20
103.5670086924752
 30
0.0
 11
106.5219767159536
 21
100.1577163725271
 31
0.0
 12
107.4517837123031
 22
95.45524420708181
 32
0.0
 13
106.5219767159536
 23
95.45524420708181
 33
0.0
  0
SOLID
  5
1457
330
1F
100
AcDbEntity
  8
LOGO
 62
     5
100
AcDbTrace
 10
107.8365314349307
 20
95.45524420708181
 30
0.0
 11
108.76633843128
 21
95.45524420708181
 31
0.0
 12
107.8365314349307
 22
104.2723795172918
 32
0.0
 13
108.76633843128
 23
104.2723795172925
 33
0.0
  0
SOLID
  5
1458
330
1F
100
AcDbEntity
  8
LOGO
 62
     2
100
AcDbTrace
 10
107.4517837123031
 20
104.2723795172925
 30
0.0
 11
107.8365314349307
 21
104.2723795172918
 31
0.0
 12
107.4517837123031
 22
95.45524420708181
 32
0.0
 13
107.8365314349307
 23
95.45524420708181
 33
0.0
  0
POLYLINE
  5
1459
330
1F
100
AcDbEntity
  8
LOGO
 62
     5
100
AcDb2dPolyline
 66
     1
 10
0.0
 20
0.0
 30
0.0
 40
0.3211369212634784
 41
0.3211369212634784
  0
VERTEX
  5
145A
330
1459
100
AcDbEntity
  8
LOGO
 62
     5
100
AcDbVertex
100
AcDb2dVertex
 10
104.0111784358741
 20
93.21088249175581
 30
0.0
 42
1.0
  0
VERTEX
  5
145B
330
1459
100
AcDbEntity
  8
LOGO
 62
     5
100
AcDbVertex
100
AcDb2dVertex
 10
103.0477676720835
 20
93.21088249175581
 30
0.0
 42
1.0
  0
SEQEND
  5
145C
330
1459
100
AcDbEntity
  8
LOGO
 62
     5
  0
POLYLINE
  5
145D
330
1F
100
AcDbEntity
  8
LOGO
 62
     5
100
AcDb2dPolyline
 66
     1
 10
0.0
 20
0.0
 30
0.0
 40
0.3211369212634784
 41
0.3211369212634784
  0
VERTEX
  5
145E
330
145D
100
AcDbEntity
  8
LOGO
 62
     5
100
AcDbVertex
100
AcDb2dVertex
 10
104.9730477424422
 20
93.21088249175581
 30
0.0
 42
1.0
  0
VERTEX
  5
145F
330
145D
100
AcDbEntity
  8
LOGO
 62
     5
100
AcDbVertex
100
AcDb2dVertex
 10
104.0096369786515
 20
93.21088249175581
 30
0.0
 42
1.0
  0
SEQEND
  5
1460
330
145D
100
AcDbEntity
  8
LOGO
 62
     5
  0
POLYLINE
  5
1461
330
1F
100
AcDbEntity
  8
LOGO
 62
     5
100
AcDb2dPolyline
 66
     1
 10
0.0
 20
0.0
 30
0.0
 40
0.3211369212634784
 41
0.3211369212634784
  0
VERTEX
  5
1462
330
1461
100
AcDbEntity
  8
LOGO
 62
     5
100
AcDbVertex
100
AcDb2dVertex
 10
100.3774285695198
 20
93.21088249175581
 30
0.0
 42
1.0
  0
VERTEX
  5
1463
330
1461
100
AcDbEntity
  8
LOGO
 62
     5
100
AcDbVertex
100
AcDb2dVertex
 10
99.41401780572945
 20
93.21088249175581
 30
0.0
 42
1.0
  0
SEQEND
  5
1464
330
1461
100
AcDbEntity
  8
LOGO
 62
     5
  0
SOLID
  5
1465
330
1F
100
AcDbEntity
  8
LOGO
 62
     5
100
AcDbTrace
 10
99.25447698324607
 20
93.85212869613473
 30
0.0
 11
99.57510008543511
 21
93.85212869613473
 31
0.0
 12
99.25447698324607
 22
92.24901318518787
 32
0.0
 13
99.57510008543511
 23
92.24901318518787
 33
0.0
  0
SOLID
  5
1466
330
1F
100
AcDbEntity
  8
LOGO
 62
     5
100
AcDbTrace
 10
100.2163462898141
 20
93.21088249175581
 30
0.0
 11
100.5369693920038
 21
93.21088249175581
 31
0.0
 12
100.2163462898141
 22
92.24901318518787
 32
0.0
 13
100.5369693920038
 23
92.24901318518787
 33
0.0
  0
POLYLINE
  5
1467
330
1F
100
AcDbEntity
  8
LOGO
 62
     5
100
AcDb2dPolyline
 66
     1
 10
0.0
 20
0.0
 30
0.0
 70
     1
 40
0.3211369212634784
 41
0.3211369212634784
  0
VERTEX
  5
1468
330
1467
100
AcDbEntity
  8
LOGO
 62
     5
100
AcDbVertex
100
AcDb2dVertex
 10
101.0703563405846
 20
93.05057094066123
 30
0.0
 42
1.0
  0
VERTEX
  5
1469
330
1467
100
AcDbEntity
  8
LOGO
 62
     5
100
AcDbVertex
100
AcDb2dVertex
 10
102.3549040256385
 20
93.05057094066123
 30
0.0
 42
1.0
  0
SEQEND
  5
146A
330
1467
100
AcDbEntity
  8
LOGO
 62
     5
  0
SOLID
  5
146B
330
1F
100
AcDbEntity
  8
LOGO
 62
     5
100
AcDbTrace
 10
102.1935327740862
 20
94.33306334941921
 30
0.0
 11
102.5141558762752
 21
94.33306334941921
 31
0.0
 12
102.1935327740862
 22
92.24901318518787
 32
0.0
 13
102.5141558762752
 23
92.24901318518787
 33
0.0
  0
SOLID
  5
146C
330
1F
100
AcDbEntity
  8
LOGO
 62
     5
100
AcDbTrace
 10
102.8882268496001
 20
93.85212869613473
 30
0.0
 11
103.2088499517895
 21
93.85212869613473
 31
0.0
 12
102.8882268496001
 22
92.24901318518787
 32
0.0
 13
103.2088499517895
 23
92.24901318518787
 33
0.0
  0
SOLID
  5
146D
330
1F
100
AcDbEntity
  8
LOGO
 62
     5
100
AcDbTrace
 10
103.8500961561684
 20
93.21088249175581
 30
0.0
 11
104.1707192583576
 21
93.21088249175581
 31
0.0
 12
103.8500961561684
 22
92.24901318518787
 32
0.0
 13
104.1707192583576
 23
92.24901318518787
 33
0.0
  0
SOLID
  5
146E
330
1F
100
AcDbEntity
  8
LOGO
 62
     5
100
AcDbTrace
 10
104.8119654627366
 20
93.21088249175581
 30
0.0
 11
105.1325885649256
 21
93.21088249175581
 31
0.0
 12
104.8119654627366
 22
92.24901318518712
 32
0.0
 13
105.1325885649256
 23
92.24901318518712
 33
0.0
  0
SOLID
  5
146F
330
1F
100
AcDbEntity
  8
LOGO
 62
     5
100
AcDbTrace
 10
98.5597829077318
 20
94.07656486766724
 30
0.0
 11
98.88040600992191
 21
94.07656486766724
 31
0.0
 12
98.5597829077318
 22
94.33306334941921
 32
0.0
 13
98.88040600992191
 23
94.33306334941921
 33
0.0
  0
SOLID
  5
1470
330
1F
100
AcDbEntity
  8
LOGO
 62
     5
100
AcDbTrace
 10
98.5597829077318
 20
93.85212869613473
 30
0.0
 11
98.88040600992191
 21
93.85212869613473
 31
0.0
 12
98.5597829077318
 22
92.24901318518712
 32
0.0
 13
98.88040600992191
 23
92.24901318518787
 33
0.0
  0
SOLID
  5
1471
330
1F
100
AcDbEntity
  8
LOGO
 62
     5
100
AcDbTrace
 10
101.7126301831119
 20
95.45524420708217
 30
0.0
 11
102.6424371794613
 21
95.45524420708217
 31
0.0
 12
101.7126301831119
 22
100.1577163725271
 32
0.0
 13
102.6424371794613
 23
103.5670086924752
 33
0.0
  0
SOLID
  5
1472
330
1F
100
AcDbEntity
  8
LOGO
 62
     5
100
AcDbTrace
 10
103.0271849020889
 20
104.2723795172918
 30
0.0
 11
103.9569918984383
 21
104.2723795172925
 31
0.0
 12
103.0271849020889
 22
96.16061503189875
 32
0.0
 13
103.9569918984383
 23
99.56990735184682
 33
0.0
  0
SOLID
  5
1473
330
1F
100
AcDbEntity
  8
LOGO
 62
     2
100
AcDbTrace
 10
102.6424371794613
 20
104.2723795172918
 30
0.0
 11
103.0271849020889
 21
104.2723795172918
 31
0.0
 12
102.6424371794613
 22
95.45524420708217
 32
0.0
 13
103.0271849020889
 23
95.45524420708217
 33
0.0
  0
SOLID
  5
1474
330
1F
100
AcDbEntity
  8
LOGO
 62
     5
100
AcDbTrace
 10
103.0271849020889
 20
96.16061503189875
 30
0.0
 11
103.9569918984383
 21
99.56990735184682
 31
0.0
 12
107.4517837123031
 22
104.2723795172925
 32
0.0
 13
106.5219767159536
 23
104.2723795172925
 33
0.0
  0
SOLID
  5
1475
330
1F
100
AcDbEntity
  8
LOGO
 62
     5
100
AcDbTrace
 10
103.0271849020889
 20
95.45524420708217
 30
0.0
 11
103.9569918984383
 21
95.45524420708217
 31
0.0
 12
107.4517837123031
 22
103.5670086924752
 32
0.0
 13
106.5219767159536
 23
100.1577163725271
 33
0.0
  0
SOLID
  5
1476
330
1F
100
AcDbEntity
  8
LOGO
 62
     2
100
AcDbTrace
 10
102.6424371794613
 20
95.45524420708217
 30
0.0
 11
103.0271849020889
 21
95.45524420708217
 31
0.0
 12
107.4517837123031
 22
104.2723795172925
 32
0.0
 13
107.8365314349307
 23
104.2723795172918
 33
0.0
  0
TEXT
  5
1477
330
1F
100
AcDbEntity
  8
0
100
AcDbText
 10
142.9012366506636
 20
84.4225531458669
 30
0.0
 40
1.793203638807397
  1
1050520
 41
0.8
  7
CHINESET
 72
     1
 11
147.3415504229485
 21
84.4225531458669
 31
0.0
100
AcDbText
  0
LINE
  5
1478
330
1F
100
AcDbEntity
  8
LOGO
 62
     1
100
AcDbLine
 10
152.8743237516187
 20
87.57945226141549
 30
0.0
 11
152.874323751619
 21
83.27851135163665
 31
0.0
  0
LINE
  5
1479
330
1F
100
AcDbEntity
  8
LOGO
 62
     1
100
AcDbLine
 10
152.8743237516187
 20
87.57945226141549
 30
0.0
 11
141.9824860484623
 21
87.57945226141549
 31
0.0
  0
LINE
  5
1602
330
1F
100
AcDbEntity
  8
LOGO
 62
     6
100
AcDbLine
 10
229.2851165956422
 20
92.95908001101867
 30
0.0
 11
218.9831965635805
 21
92.95908001101867
 31
0.0
  0
LINE
  5
1603
330
1F
100
AcDbEntity
  8
LOGO
 62
     6
100
AcDbLine
 10
219.0513738642314
 20
96.18593623081267
 30
0.0
 11
214.8894707545693
 21
96.18593623081267
 31
0.0
  0
LINE
  5
1604
330
1F
100
AcDbEntity
  8
LOGO
 62
     6
100
AcDbLine
 10
229.2851165956422
 20
85.07120925152227
 30
0.0
 11
218.9831965635805
 21
85.07120925152225
 31
0.0
  0
LINE
  5
1605
330
1F
100
AcDbEntity
  8
LOGO
 62
     6
100
AcDbLine
 10
229.2851165956422
 20
92.95908001101867
 30
0.0
 11
229.2851165956422
 21
85.04146674848513
 31
0.0
  0
TEXT
  5
160A
330
1F
100
AcDbEntity
  8
LOGO
 62
     6
100
AcDbText
 10
177.3084360959446
 20
89.08854643504524
 30
0.0
 40
2.86831663981688
  1
型式
  7
CHINESET
 72
     4
 11
180.1767527357615
 21
90.44930295117884
 31
0.0
100
AcDbText
  0
LINE
  5
160B
330
1F
100
AcDbEntity
  8
LOGO
 62
     6
100
AcDbLine
 10
218.9831965635805
 20
92.95908001101867
 30
0.0
 11
218.9831965635805
 21
85.07120925152225
 31
0.0
  0
LINE
  5
160F
330
1F
100
AcDbEntity
  8
LOGO
 62
     6
100
AcDbLine
 10
216.9704223094004
 20
96.18593623081267
 30
0.0
 11
216.9704223094004
 21
94.57250812091569
 31
0.0
  0
TEXT
  5
1610
330
1F
100
AcDbEntity
  8
LOGO
 62
     6
100
AcDbText
 10
220.1680005625624
 20
89.08713486189579
 30
0.0
 40
2.86831663981688
  1
連座數
 41
0.9
  7
CHINESET
 72
     4
 11
224.0918916035875
 21
90.44930295117891
 31
0.0
100
AcDbText
  0
LINE
  5
1615
330
1F
100
AcDbEntity
  8
LOGO
 62
     6
100
AcDbLine
 10
180.1767527357615
 20
96.18593623081261
 30
0.0
 11
180.1767527357615
 21
92.95908001101858
 31
0.0
  0
LINE
  5
1616
330
1F
100
AcDbEntity
  8
LOGO
 62
     6
100
AcDbLine
 10
173.0059611362194
 20
92.95908001101858
 30
0.0
 11
173.0059611362194
 21
85.07120925152218
 31
0.0
  0
LINE
  5
161A
330
1F
100
AcDbEntity
  8
LOGO
 62
     6
100
AcDbLine
 10
219.0513738642315
 20
102.6396486704006
 30
0.0
 11
214.8894707545693
 21
102.6396486704006
 31
0.0
  0
LINE
  5
161D
330
1F
100
AcDbEntity
  8
LOGO
 62
     6
100
AcDbLine
 10
171.571802816311
 20
102.6396486704006
 30
0.0
 11
171.571802816311
 21
96.18593623081261
 31
0.0
  0
LINE
  5
1620
330
1F
100
AcDbEntity
  8
LOGO
 62
     6
100
AcDbLine
 10
219.0513738642315
 20
102.6396486704006
 30
0.0
 11
219.0513738642314
 21
96.18593623081267
 31
0.0
  0
TEXT
  5
1623
330
1F
100
AcDbEntity
  8
LOGO
  6
Continuous
 62
     6
100
AcDbText
 10
220.1308829105071
 20
85.96755820146503
 30
0.0
 40
1.792697899885549
  1
Number
 41
0.8
  7
CHINESET
 72
     4
 11
224.0918916035875
 21
86.86390715140779
 31
0.0
100
AcDbText
  0
TEXT
  5
1626
330
1F
100
AcDbEntity
  8
LOGO
  6
Continuous
 62
     6
100
AcDbText
 10
176.7620900693128
 20
85.96755820146498
 30
0.0
 40
1.792697899885549
  1
Model
  7
CHINESET
 72
     4
 11
180.1767527357615
 21
86.86390715140776
 31
0.0
100
AcDbText
  0
TEXT
  5
1627
330
1F
100
AcDbEntity
  8
LOGO
  6
Continuous
 62
     7
100
AcDbText
 10
215.5012836408913
 20
97.57943593642597
 30
0.0
 40
3.585395799771099
  1
2
  7
CHINESET
 72
     1
 11
216.6964155741484
 21
99.37213383631153
 31
0.0
100
AcDbText
 73
     2
  0
TEXT
  5
1628
330
1F
100
AcDbEntity
  8
LOGO
  6
Continuous
 62
     7
100
AcDbText
 10
193.2574461934976
 20
97.57943593642588
 30
0.0
 40
3.585395799771099
  1
300
  7
CHINESET
 72
     1
 11
197.8672407932033
 21
99.37213383631144
 31
0.0
100
AcDbText
 73
     2
  0
TEXT
  5
1629
330
1F
100
AcDbEntity
  8
LOGO
  6
Continuous
 62
     7
100
AcDbText
 10
173.3474274028642
 20
97.62009455072103
 30
0.0
 40
3.585395799771099
  1
MVSA
  7
CHINESET
 72
     1
 11
180.1767527357615
 21
99.41279245060659
 31
0.0
100
AcDbText
 73
     2
  0
LINE
  5
162D
330
1F
100
AcDbEntity
  8
LOGO
 62
     6
100
AcDbLine
 10
188.7817026552122
 20
102.6396486704006
 30
0.0
 11
188.7817026552122
 21
96.18593623081261
 31
0.0
  0
LINE
  5
162E
330
1F
100
AcDbEntity
  8
LOGO
 62
     6
100
AcDbLine
 10
187.3475443353039
 20
92.95908001101858
 30
0.0
 11
187.3475443353039
 21
85.0712092515222
 31
0.0
  0
LINE
  5
162F
330
1F
100
AcDbEntity
  8
LOGO
 62
     6
100
AcDbLine
 10
188.7817026552122
 20
102.6396486704006
 30
0.0
 11
171.571802816311
 21
102.6396486704006
 31
0.0
  0
LINE
  5
1630
330
1F
100
AcDbEntity
  8
LOGO
 62
     6
100
AcDbLine
 10
188.7817026552122
 20
96.18593623081261
 30
0.0
 11
171.571802816311
 21
96.18593623081261
 31
0.0
  0
LINE
  5
1631
330
1F
100
AcDbEntity
  8
LOGO
 62
     6
100
AcDbLine
 10
187.3475443353038
 20
92.95908001101858
 30
0.0
 11
173.0059611362194
 21
92.95908001101858
 31
0.0
  0
LINE
  5
1632
330
1F
100
AcDbEntity
  8
LOGO
 62
     6
100
AcDbLine
 10
187.3475443353038
 20
85.0712092515222
 30
0.0
 11
173.0059611362194
 21
85.07120925152218
 31
0.0
  0
TEXT
  5
1634
330
1F
100
AcDbEntity
  8
LOGO
  6
Continuous
 62
     7
100
AcDbText
 10
207.7217147566974
 20
97.62009455072108
 30
0.0
 40
3.585395799771099
  1
5B
  7
CHINESET
 72
     1
 11
210.6241780231788
 21
99.41279245060663
 31
0.0
100
AcDbText
 73
     2
  0
LINE
  5
1635
330
1F
100
AcDbEntity
  8
LOGO
 62
     6
100
AcDbLine
 10
214.1570138208405
 20
102.6396486704006
 30
0.0
 11
207.0170974607395
 21
102.6396486704006
 31
0.0
  0
LINE
  5
1636
330
1F
100
AcDbEntity
  8
LOGO
 62
     6
100
AcDbLine
 10
216.9382618792257
 20
92.95908001101865
 30
0.0
 11
205.4252662538963
 21
92.95908001101865
 31
0.0
  0
LINE
  5
1637
330
1F
100
AcDbEntity
  8
LOGO
 62
     6
100
AcDbLine
 10
214.1570138208405
 20
96.18593623081265
 30
0.0
 11
207.0170974607395
 21
96.18593623081265
 31
0.0
  0
TEXT
  5
1638
330
1F
100
AcDbEntity
  8
LOGO
 62
     6
100
AcDbText
 10
208.6055724900365
 20
89.10148585558252
 30
0.0
 40
2.86831663981688
  1
連座
 41
0.9
  7
CHINESET
 72
     4
 11
211.181764066561
 21
90.44930295117888
 31
0.0
100
AcDbText
  0
LINE
  5
1639
330
1F
100
AcDbEntity
  8
LOGO
 62
     6
100
AcDbLine
 10
216.9382618792257
 20
85.07120925152225
 30
0.0
 11
205.4252662538963
 21
85.0712092515222
 31
0.0
  0
TEXT
  5
163A
330
1F
100
AcDbEntity
  8
LOGO
  6
Continuous
 62
     6
100
AcDbText
 10
207.0500222401581
 20
85.96755820146498
 30
0.0
 40
1.792697899885549
  1
Manifold
 41
0.8
  7
CHINESET
 72
     4
 11
211.181764066561
 21
86.86390715140776
 31
0.0
100
AcDbText
  0
LINE
  5
163B
330
1F
100
AcDbEntity
  8
LOGO
 62
     6
100
AcDbLine
 10
207.0170974607395
 20
102.6396486704006
 30
0.0
 11
207.0170974607395
 21
96.18593623081265
 31
0.0
  0
LINE
  5
163C
330
1F
100
AcDbEntity
  8
LOGO
 62
     6
100
AcDbLine
 10
205.4252662538963
 20
92.95908001101865
 30
0.0
 11
205.4252662538963
 21
85.07120925152225
 31
0.0
  0
LINE
  5
163D
330
1F
100
AcDbEntity
  8
LOGO
 62
     6
100
AcDbLine
 10
214.1570138208405
 20
102.6396486704006
 30
0.0
 11
214.1570138208405
 21
96.18593623081265
 31
0.0
  0
LINE
  5
163E
330
1F
100
AcDbEntity
  8
LOGO
 62
     6
100
AcDbLine
 10
216.9382618792257
 20
92.95908001101865
 30
0.0
 11
216.9382618792257
 21
85.07120925152225
 31
0.0
  0
LINE
  5
1640
330
1F
100
AcDbEntity
  8
LOGO
  6
Continuous
 62
     7
100
AcDbLine
 10
189.8935803189724
 20
99.38993238121792
 30
0.0
 11
192.7433042467912
 21
99.38993238121792
 31
0.0
  0
LINE
  5
1641
330
1F
100
AcDbEntity
  8
LOGO
  6
Continuous
 62
     7
100
AcDbLine
 10
203.7613346304746
 20
99.38993238121799
 30
0.0
 11
206.6110585582935
 21
99.38993238121799
 31
0.0
  0
LINE
  5
1642
330
1F
100
AcDbEntity
  8
LOGO
 62
     6
100
AcDbLine
 10
214.8894707545693
 20
102.6396486704006
 30
0.0
 11
214.8894707545693
 21
96.18593623081265
 31
0.0
  0
LINE
  5
1644
330
1F
100
AcDbEntity
  8
LOGO
 62
     6
100
AcDbLine
 10
212.152363257518
 20
92.95908001101865
 30
0.0
 11
212.152363257518
 21
96.18593623081261
 31
0.0
  0
LINE
  5
1647
330
1F
100
AcDbEntity
  8
LOGO
 62
     6
100
AcDbLine
 10
216.9704223094004
 20
94.57250812091569
 30
0.0
 11
224.0918916035875
 21
94.57250812091569
 31
0.0
  0
LINE
  5
1648
330
1F
100
AcDbEntity
  8
LOGO
 62
     6
100
AcDbLine
 10
224.0918916035875
 20
92.95908001101867
 30
0.0
 11
224.0918916035875
 21
94.57250812091569
 31
0.0
  0
TEXT
  5
1664
330
1F
100
AcDbEntity
  8
0
100
AcDbText
 10
110.1140813669663
 20
312.064914208902
 30
0.0
 40
5.759999999999999
  1
MVSA-300-5B2
100
AcDbText
  0
LINE
  5
2D18
330
1F
100
AcDbEntity
  8
LOGO
 62
     1
100
AcDbLine
 10
281.2961360408962
 20
83.27851135163665
 30
0.0
 11
281.2961360408962
 21
104.7832159005303
 31
0.0
  0
TEXT
  5
3380
330
1F
100
AcDbEntity
  8
AM_5
100
AcDbText
 10
179.4929374218903
 20
195.9171521112282
 30
0.0
 40
3.0
  1
4-%%C4.5
100
AcDbText
  0
INSERT
  5
3381
330
1F
100
AcDbEntity
  8
AM_5
100
AcDbBlockReference
  2
*S15
 10
0.0
 20
0.0
 30
0.0
  0
DIMENSION
  5
3722
330
1F
100
AcDbEntity
  8
AM_5
100
AcDbDimension
  2
*D5
 10
152.7578161785139
 20
136.0800304174649
 30
0.0
 11
137.5078161785139
 21
138.5800304174649
 31
0.0
 70
    32
 71
     5
 42
30.5
  3
AM_ISO$0
100
AcDbAlignedDimension
 13
122.2578161785139
 23
148.3575304174649
 33
0.0
 14
152.7578161785139
 24
149.3575304174649
 34
0.0
100
AcDbRotatedDimension
1001
ACAD
1000
DSTYLE
1002
{
1070
    40
1040
1.0
1070
   144
1040
1.0
1070
   272
1070
     8
1002
}
  0
DIMENSION
  5
3748
330
1F
100
AcDbEntity
  8
AM_5
100
AcDbDimension
  2
*D6
 10
183.2578161785139
 20
136.080030417465
 30
0.0
 11
168.0078161785139
 21
138.580030417465
 31
0.0
 70
    32
 71
     5
 42
30.5
  3
AM_ISO$0
100
AcDbAlignedDimension
 13
152.7578161785139
 23
149.3575304174649
 33
0.0
 14
183.2578161785139
 24
148.3575304174649
 34
0.0
100
AcDbRotatedDimension
1001
ACAD
1000
DSTYLE
1002
{
1070
    40
1040
1.0
1070
   144
1040
1.0
1070
   272
1070
     8
1002
}
  0
DIMENSION
  5
376E
330
1F
100
AcDbEntity
  8
AM_5
100
AcDbDimension
  2
*D7
 10
194.7578161785139
 20
128.080030417465
 30
0.0
 11
152.7578161785139
 21
130.580030417465
 31
0.0
 70
    32
 71
     5
 42
84.0
  3
AM_ISO$0
100
AcDbAlignedDimension
 13
110.7578161785139
 23
150.5075304174649
 33
0.0
 14
194.7578161785139
 24
150.5075304174649
 34
0.0
100
AcDbRotatedDimension
1001
ACAD
1000
DSTYLE
1002
{
1070
    40
1040
1.0
1070
   144
1040
1.0
1070
   272
1070
     8
1002
}
  0
DIMENSION
  5
3794
330
1F
100
AcDbEntity
  8
AM_5
100
AcDbDimension
  2
*D8
 10
211.5708577396168
 20
160.0075304174649
 30
0.0
 11
209.0708577396168
 21
154.2575304174649
 31
0.0
 70
    32
 71
     5
 42
11.5
  3
AM_ISO$0
100
AcDbAlignedDimension
 13
192.757816178514
 23
148.5075304174649
 33
0.0
 14
194.7578161785139
 24
160.0075304174649
 34
0.0
 50
90.0
100
AcDbRotatedDimension
1001
ACAD
1000
DSTYLE
1002
{
1070
    40
1040
1.0
1070
   144
1040
1.0
1070
   272
1070
     8
1002
}
  0
DIMENSION
  5
37E0
330
1F
100
AcDbEntity
  8
AM_5
100
AcDbDimension
  2
*D9
 10
230.3093720491055
 20
175.5075304174649
 30
0.0
 11
227.8090767735149
 21
162.007530417465
 31
0.0
 70
    32
 71
     5
 42
26.99999999999997
  3
AM_ISO$0
100
AcDbAlignedDimension
 13
192.757816178514
 23
148.5075304174649
 33
0.0
 14
188.7578161785139
 24
175.5075304174649
 34
0.0
 50
90.0
100
AcDbRotatedDimension
1001
ACAD
1000
DSTYLE
1002
{
1070
    40
1040
1.0
1070
   144
1040
1.0
1070
   272
1070
     8
1002
}
  0
DIMENSION
  5
3806
330
1F
100
AcDbEntity
  8
AM_5
100
AcDbDimension
  2
*D10
 10
167.7578161785139
 20
191.0934107497112
 30
0.0
 11
152.7578161785139
 21
193.5934107497112
 31
0.0
 70
    32
 71
     5
 42
30.0
  3
AM_ISO$0
100
AcDbAlignedDimension
 13
137.7578161785139
 23
204.2434107497112
 33
0.0
 14
167.7578161785139
 24
204.2434107497112
 34
0.0
100
AcDbRotatedDimension
1001
ACAD
1000
DSTYLE
1002
{
1070
    40
1040
1.0
1070
   144
1040
1.0
1070
   272
1070
     8
1002
}
  0
DIMENSION
  5
382C
330
1F
100
AcDbEntity
  8
AM_5
100
AcDbDimension
  2
*D11
 10
206.757816178514
 20
208.0934107497112
 30
0.0
 11
204.2578161785139
 21
205.5934107497113
 31
0.0
 70
    32
 71
     5
 42
4.999999999999971
  3
AM_ISO$0
100
AcDbAlignedDimension
 13
194.7578161785139
 23
203.0934107497112
 33
0.0
 14
171.607816178514
 24
208.0934107497112
 34
0.0
 50
90.0
100
AcDbRotatedDimension
1001
ACAD
1000
DSTYLE
1002
{
1070
    40
1040
1.0
1070
   144
1040
1.0
1070
   272
1070
     8
1002
}
  0
DIMENSION
  5
3852
330
1F
100
AcDbEntity
  8
AM_5
100
AcDbDimension
  2
*D12
 10
206.757817178514
 20
284.0934107497112
 30
0.0
 11
204.2578171785139
 21
281.5934107497113
 31
0.0
 70
    32
 71
     5
 42
5.0
  3
AM_ISO$0
100
AcDbAlignedDimension
 13
171.607816178514
 23
279.0934107497112
 33
0.0
 14
194.7578161785139
 24
284.0934107497112
 34
0.0
 50
90.0
100
AcDbRotatedDimension
1001
ACAD
1000
DSTYLE
1002
{
1070
    40
1040
1.0
1070
   144
1040
1.0
1070
   272
1070
     8
1002
}
  0
TEXT
  5
39BB
330
1F
100
AcDbEntity
  8
AM_5
100
AcDbText
 10
204.1563511067453
 20
140.4832549116625
 30
0.0
 40
3.0
  1
3-PT3/8
100
AcDbText
  0
INSERT
  5
39BC
330
1F
100
AcDbEntity
  8
AM_5
100
AcDbBlockReference
  2
*S16
 10
0.0
 20
0.0
 30
0.0
  0
LINE
  5
40A1
330
1F
100
AcDbEntity
  8
AM_VIS
100
AcDbLine
 10
231.6867951397276
 20
284.0934107497112
 30
0.0
 11
230.979688358541
 21
284.0934107497112
 31
0.0
  0
LINE
  5
40A2
330
1F
100
AcDbEntity
  8
AM_VIS
100
AcDbLine
 10
225.3939019209141
 20
284.0934107497112
 30
0.0
 11
226.3939019209141
 21
284.0934107497112
 31
0.0
  0
LINE
  5
40A3
330
1F
100
AcDbEntity
  8
AM_VIS
100
AcDbLine
 10
250.3939019209141
 20
284.0934107497112
 30
0.0
 11
252.3939019209141
 21
284.0934107497112
 31
0.0
  0
LINE
  5
40A4
330
1F
100
AcDbEntity
  8
AM_VIS
100
AcDbLine
 10
237.0152222644738
 20
203.0934107497112
 30
0.0
 11
235.9545620926939
 21
203.0934107497112
 31
0.0
  0
LINE
  5
40A5
330
1F
100
AcDbEntity
  8
AM_VIS
100
AcDbLine
 10
235.9545620926939
 20
284.0934107497112
 30
0.0
 11
237.0152222644738
 21
284.0934107497112
 31
0.0
  0
LINE
  5
40A6
330
1F
100
AcDbEntity
  8
AM_VIS
100
AcDbLine
 10
194.7578161785139
 20
150.5075304174649
 30
0.0
 11
194.7578161785139
 21
163.8862100739052
 31
0.0
  0
LINE
  5
40A7
330
1F
100
AcDbEntity
  8
AM_VIS
100
AcDbLine
 10
179.7578161785139
 20
148.5075304174649
 30
0.0
 11
192.757816178514
 21
148.5075304174649
 31
0.0
  0
LINE
  5
40A8
330
1F
100
AcDbEntity
  8
AM_VIS
100
AcDbLine
 10
178.7578161785139
 20
149.5075304174649
 30
0.0
 11
179.7578161785139
 21
148.5075304174649
 31
0.0
  0
LINE
  5
40A9
330
1F
100
AcDbEntity
  8
AM_VIS
100
AcDbLine
 10
126.7578161785139
 20
149.5075304174649
 30
0.0
 11
178.7578161785139
 21
149.5075304174649
 31
0.0
  0
LINE
  5
40AA
330
1F
100
AcDbEntity
  8
AM_VIS
100
AcDbLine
 10
125.7578161785139
 20
148.5075304174649
 30
0.0
 11
126.7578161785139
 21
149.5075304174649
 31
0.0
  0
LINE
  5
40AB
330
1F
100
AcDbEntity
  8
AM_VIS
100
AcDbLine
 10
112.7578161785139
 20
148.5075304174649
 30
0.0
 11
125.7578161785139
 21
148.5075304174649
 31
0.0
  0
LINE
  5
40AC
330
1F
100
AcDbEntity
  8
AM_VIS
100
AcDbLine
 10
110.7578161785139
 20
163.8862100739052
 30
0.0
 11
110.7578161785139
 21
150.5075304174649
 31
0.0
  0
LINE
  5
40AD
330
1F
100
AcDbEntity
  8
AM_VIS
100
AcDbLine
 10
115.7578161785139
 20
174.5075304174649
 30
0.0
 11
115.7578161785139
 21
169.921743979838
 31
0.0
  0
LINE
  5
40AE
330
1F
100
AcDbEntity
  8
AM_VIS
100
AcDbLine
 10
188.7578161785139
 20
175.5075304174649
 30
0.0
 11
116.7578161785139
 21
175.5075304174649
 31
0.0
  0
LINE
  5
40AF
330
1F
100
AcDbEntity
  8
AM_VIS
100
AcDbLine
 10
189.7578161785139
 20
169.921743979838
 30
0.0
 11
189.7578161785139
 21
174.5075304174649
 31
0.0
  0
LINE
  5
40B0
330
1F
100
AcDbEntity
  8
AM_VIS
100
AcDbLine
 10
115.4649229597005
 20
169.2146371986514
 30
0.0
 11
111.1971560067342
 21
164.9468702456851
 31
0.0
  0
LINE
  5
40B1
330
1F
100
AcDbEntity
  8
AM_VIS
100
AcDbLine
 10
194.3184763502938
 20
164.9468702456851
 30
0.0
 11
190.0507093973274
 21
169.2146371986515
 31
0.0
  0
ARC
  5
40B8
102
{ACAD_REACTORS
330
4239
102
}
330
1F
100
AcDbEntity
  8
AM_VIS
100
AcDbCircle
 10
192.757816178514
 20
150.5075304174649
 30
0.0
 40
1.999999999999999
100
AcDbArc
 50
270.0
 51
0.0
  0
ARC
  5
40B9
330
1F
100
AcDbEntity
  8
AM_VIS
100
AcDbCircle
 10
112.7578161785139
 20
150.5075304174649
 30
0.0
 40
1.999999999999999
100
AcDbArc
 50
180.0
 51
270.0
  0
ARC
  5
40BA
330
1F
100
AcDbEntity
  8
AM_VIS
100
AcDbCircle
 10
114.7578161785139
 20
169.921743979838
 30
0.0
 40
1.0
100
AcDbArc
 50
315.0
 51
0.0
  0
ARC
  5
40BB
330
1F
100
AcDbEntity
  8
AM_VIS
100
AcDbCircle
 10
116.7578161785139
 20
174.5075304174649
 30
0.0
 40
1.0
100
AcDbArc
 50
90.0
 51
180.0
  0
ARC
  5
40BC
330
1F
100
AcDbEntity
  8
AM_VIS
100
AcDbCircle
 10
188.7578161785139
 20
174.5075304174649
 30
0.0
 40
0.9999999999999998
100
AcDbArc
 50
0.0
 51
90.0
  0
ARC
  5
40BD
330
1F
100
AcDbEntity
  8
AM_VIS
100
AcDbCircle
 10
190.7578161785139
 20
169.921743979838
 30
0.0
 40
0.9999999999999998
100
AcDbArc
 50
180.0
 51
225.0
  0
ARC
  5
40BE
330
1F
100
AcDbEntity
  8
AM_VIS
100
AcDbCircle
 10
112.2578161785139
 20
163.8862100739052
 30
0.0
 40
1.5
100
AcDbArc
 50
135.0
 51
180.0
  0
ARC
  5
40BF
330
1F
100
AcDbEntity
  8
AM_VIS
100
AcDbCircle
 10
193.2578161785139
 20
163.8862100739052
 30
0.0
 40
1.499999999999999
100
AcDbArc
 50
0.0
 51
45.0
  0
LINE
  5
40C8
330
1F
100
AcDbEntity
  8
AM_7
100
AcDbLine
 10
152.7578161785139
 20
227.0934107497112
 30
0.0
 11
152.7578161785139
 21
229.0934107497112
 31
0.0
  0
LINE
  5
40CB
330
1F
100
AcDbEntity
  8
AM_7
100
AcDbLine
 10
152.7578161785139
 20
218.9934107497112
 30
0.0
 11
152.7578161785139
 21
226.2934107497112
 31
0.0
  0
LINE
  5
40CC
330
1F
100
AcDbEntity
  8
AM_7
100
AcDbLine
 10
152.7578161785139
 20
229.8934107497112
 30
0.0
 11
152.7578161785139
 21
237.1934107497112
 31
0.0
  0
LINE
  5
40CE
330
1F
100
AcDbEntity
  8
AM_7
100
AcDbLine
 10
152.7578161785139
 20
258.0934107497112
 30
0.0
 11
152.7578161785139
 21
260.0934107497112
 31
0.0
  0
LINE
  5
40D1
330
1F
100
AcDbEntity
  8
AM_7
100
AcDbLine
 10
152.7578161785139
 20
249.9934107497112
 30
0.0
 11
152.7578161785139
 21
257.2934107497112
 31
0.0
  0
LINE
  5
40D2
330
1F
100
AcDbEntity
  8
AM_7
100
AcDbLine
 10
152.7578161785139
 20
260.8934107497112
 30
0.0
 11
152.7578161785139
 21
268.1934107497113
 31
0.0
  0
LINE
  5
40DF
330
1F
100
AcDbEntity
  8
AM_7
100
AcDbLine
 10
152.7578161785139
 20
286.985330178111
 30
0.0
 11
152.7578161785139
 21
200.0915207610926
 31
0.0
  0
LINE
  5
40E7
330
1F
100
AcDbEntity
  8
AM_7
100
AcDbLine
 10
136.7578161785139
 20
208.0934107497112
 30
0.0
 11
138.7578161785139
 21
208.0934107497112
 31
0.0
  0
LINE
  5
40E8
330
1F
100
AcDbEntity
  8
AM_7
100
AcDbLine
 10
137.7578161785139
 20
207.0934107497112
 30
0.0
 11
137.7578161785139
 21
209.0934107497112
 31
0.0
  0
LINE
  5
40E9
330
1F
100
AcDbEntity
  8
AM_7
100
AcDbLine
 10
133.9078161785139
 20
208.0934107497112
 30
0.0
 11
135.9578161785139
 21
208.0934107497112
 31
0.0
  0
LINE
  5
40EA
330
1F
100
AcDbEntity
  8
AM_7
100
AcDbLine
 10
139.5578161785139
 20
208.0934107497112
 30
0.0
 11
141.607816178514
 21
208.0934107497112
 31
0.0
  0
LINE
  5
40EB
330
1F
100
AcDbEntity
  8
AM_7
100
AcDbLine
 10
137.7578161785139
 20
204.2434107497112
 30
0.0
 11
137.7578161785139
 21
206.2934107497112
 31
0.0
  0
LINE
  5
40EC
330
1F
100
AcDbEntity
  8
AM_7
100
AcDbLine
 10
137.7578161785139
 20
209.8934107497112
 30
0.0
 11
137.7578161785139
 21
211.9434107497112
 31
0.0
  0
LINE
  5
40ED
330
1F
100
AcDbEntity
  8
AM_7
100
AcDbLine
 10
136.7578161785139
 20
279.0934107497112
 30
0.0
 11
138.7578161785139
 21
279.0934107497112
 31
0.0
  0
LINE
  5
40EE
330
1F
100
AcDbEntity
  8
AM_7
100
AcDbLine
 10
137.7578161785139
 20
278.0934107497112
 30
0.0
 11
137.7578161785139
 21
280.0934107497112
 31
0.0
  0
LINE
  5
40EF
330
1F
100
AcDbEntity
  8
AM_7
100
AcDbLine
 10
133.9078161785139
 20
279.0934107497112
 30
0.0
 11
135.9578161785139
 21
279.0934107497112
 31
0.0
  0
LINE
  5
40F0
330
1F
100
AcDbEntity
  8
AM_7
100
AcDbLine
 10
139.5578161785139
 20
279.0934107497112
 30
0.0
 11
141.607816178514
 21
279.0934107497112
 31
0.0
  0
LINE
  5
40F1
330
1F
100
AcDbEntity
  8
AM_7
100
AcDbLine
 10
137.7578161785139
 20
275.2434107497112
 30
0.0
 11
137.7578161785139
 21
277.2934107497112
 31
0.0
  0
LINE
  5
40F2
330
1F
100
AcDbEntity
  8
AM_7
100
AcDbLine
 10
137.7578161785139
 20
280.8934107497112
 30
0.0
 11
137.7578161785139
 21
282.9434107497112
 31
0.0
  0
LINE
  5
40F3
330
1F
100
AcDbEntity
  8
AM_7
100
AcDbLine
 10
166.7578161785139
 20
208.0934107497112
 30
0.0
 11
168.757816178514
 21
208.0934107497112
 31
0.0
  0
LINE
  5
40F4
330
1F
100
AcDbEntity
  8
AM_7
100
AcDbLine
 10
167.7578161785139
 20
207.0934107497112
 30
0.0
 11
167.7578161785139
 21
209.0934107497112
 31
0.0
  0
LINE
  5
40F5
330
1F
100
AcDbEntity
  8
AM_7
100
AcDbLine
 10
163.9078161785139
 20
208.0934107497112
 30
0.0
 11
165.9578161785139
 21
208.0934107497112
 31
0.0
  0
LINE
  5
40F6
330
1F
100
AcDbEntity
  8
AM_7
100
AcDbLine
 10
169.557816178514
 20
208.0934107497112
 30
0.0
 11
171.607816178514
 21
208.0934107497112
 31
0.0
  0
LINE
  5
40F7
330
1F
100
AcDbEntity
  8
AM_7
100
AcDbLine
 10
167.7578161785139
 20
204.2434107497112
 30
0.0
 11
167.7578161785139
 21
206.2934107497112
 31
0.0
  0
LINE
  5
40F8
330
1F
100
AcDbEntity
  8
AM_7
100
AcDbLine
 10
167.7578161785139
 20
209.8934107497112
 30
0.0
 11
167.7578161785139
 21
211.9434107497112
 31
0.0
  0
LINE
  5
40F9
330
1F
100
AcDbEntity
  8
AM_7
100
AcDbLine
 10
166.7578161785139
 20
279.0934107497112
 30
0.0
 11
168.757816178514
 21
279.0934107497112
 31
0.0
  0
LINE
  5
40FA
330
1F
100
AcDbEntity
  8
AM_7
100
AcDbLine
 10
167.7578161785139
 20
278.0934107497112
 30
0.0
 11
167.7578161785139
 21
280.0934107497112
 31
0.0
  0
LINE
  5
40FB
330
1F
100
AcDbEntity
  8
AM_7
100
AcDbLine
 10
163.9078161785139
 20
279.0934107497112
 30
0.0
 11
165.9578161785139
 21
279.0934107497112
 31
0.0
  0
LINE
  5
40FC
330
1F
100
AcDbEntity
  8
AM_7
100
AcDbLine
 10
169.557816178514
 20
279.0934107497112
 30
0.0
 11
171.607816178514
 21
279.0934107497112
 31
0.0
  0
LINE
  5
40FD
330
1F
100
AcDbEntity
  8
AM_7
100
AcDbLine
 10
167.7578161785139
 20
275.2434107497112
 30
0.0
 11
167.7578161785139
 21
277.2934107497112
 31
0.0
  0
LINE
  5
40FE
330
1F
100
AcDbEntity
  8
AM_7
100
AcDbLine
 10
167.7578161785139
 20
280.8934107497112
 30
0.0
 11
167.7578161785139
 21
282.9434107497112
 31
0.0
  0
LINE
  5
40FF
330
1F
100
AcDbEntity
  8
AM_7
100
AcDbLine
 10
145.2578161785139
 20
239.5934107497112
 30
0.0
 11
147.2578161785139
 21
239.5934107497112
 31
0.0
  0
LINE
  5
4100
330
1F
100
AcDbEntity
  8
AM_7
100
AcDbLine
 10
146.2578161785139
 20
238.5934107497112
 30
0.0
 11
146.2578161785139
 21
240.5934107497112
 31
0.0
  0
LINE
  5
4101
330
1F
100
AcDbEntity
  8
AM_7
100
AcDbLine
 10
143.0078161785139
 20
239.5934107497112
 30
0.0
 11
144.4578161785139
 21
239.5934107497112
 31
0.0
  0
LINE
  5
4102
330
1F
100
AcDbEntity
  8
AM_7
100
AcDbLine
 10
148.0578161785139
 20
239.5934107497112
 30
0.0
 11
149.5078161785139
 21
239.5934107497112
 31
0.0
  0
LINE
  5
4103
330
1F
100
AcDbEntity
  8
AM_7
100
AcDbLine
 10
146.2578161785139
 20
236.3434107497112
 30
0.0
 11
146.2578161785139
 21
237.7934107497112
 31
0.0
  0
LINE
  5
4104
330
1F
100
AcDbEntity
  8
AM_7
100
AcDbLine
 10
146.2578161785139
 20
241.3934107497112
 30
0.0
 11
146.2578161785139
 21
242.8434107497112
 31
0.0
  0
LINE
  5
4105
330
1F
100
AcDbEntity
  8
AM_7
100
AcDbLine
 10
158.2578161785139
 20
216.5934107497112
 30
0.0
 11
160.2578161785139
 21
216.5934107497112
 31
0.0
  0
LINE
  5
4106
330
1F
100
AcDbEntity
  8
AM_7
100
AcDbLine
 10
159.2578161785139
 20
215.5934107497112
 30
0.0
 11
159.2578161785139
 21
217.5934107497112
 31
0.0
  0
LINE
  5
4107
330
1F
100
AcDbEntity
  8
AM_7
100
AcDbLine
 10
156.0078161785139
 20
216.5934107497112
 30
0.0
 11
157.4578161785139
 21
216.5934107497112
 31
0.0
  0
LINE
  5
4108
330
1F
100
AcDbEntity
  8
AM_7
100
AcDbLine
 10
161.057816178514
 20
216.5934107497112
 30
0.0
 11
162.507816178514
 21
216.5934107497112
 31
0.0
  0
LINE
  5
4109
330
1F
100
AcDbEntity
  8
AM_7
100
AcDbLine
 10
159.2578161785139
 20
213.3434107497112
 30
0.0
 11
159.2578161785139
 21
214.7934107497112
 31
0.0
  0
LINE
  5
410A
330
1F
100
AcDbEntity
  8
AM_7
100
AcDbLine
 10
159.2578161785139
 20
218.3934107497112
 30
0.0
 11
159.2578161785139
 21
219.8434107497112
 31
0.0
  0
LINE
  5
410B
330
1F
100
AcDbEntity
  8
AM_7
100
AcDbLine
 10
145.2578161785139
 20
270.5934107497112
 30
0.0
 11
147.2578161785139
 21
270.5934107497112
 31
0.0
  0
LINE
  5
410C
330
1F
100
AcDbEntity
  8
AM_7
100
AcDbLine
 10
146.2578161785139
 20
269.5934107497112
 30
0.0
 11
146.2578161785139
 21
271.5934107497112
 31
0.0
  0
LINE
  5
410D
330
1F
100
AcDbEntity
  8
AM_7
100
AcDbLine
 10
143.0078161785139
 20
270.5934107497112
 30
0.0
 11
144.4578161785139
 21
270.5934107497112
 31
0.0
  0
LINE
  5
410E
330
1F
100
AcDbEntity
  8
AM_7
100
AcDbLine
 10
148.0578161785139
 20
270.5934107497112
 30
0.0
 11
149.5078161785139
 21
270.5934107497112
 31
0.0
  0
LINE
  5
410F
330
1F
100
AcDbEntity
  8
AM_7
100
AcDbLine
 10
146.2578161785139
 20
267.3434107497112
 30
0.0
 11
146.2578161785139
 21
268.7934107497112
 31
0.0
  0
LINE
  5
4110
330
1F
100
AcDbEntity
  8
AM_7
100
AcDbLine
 10
146.2578161785139
 20
272.3934107497112
 30
0.0
 11
146.2578161785139
 21
273.8434107497112
 31
0.0
  0
LINE
  5
4111
330
1F
100
AcDbEntity
  8
AM_7
100
AcDbLine
 10
158.2578161785139
 20
247.5934107497112
 30
0.0
 11
160.2578161785139
 21
247.5934107497112
 31
0.0
  0
LINE
  5
4112
330
1F
100
AcDbEntity
  8
AM_7
100
AcDbLine
 10
159.2578161785139
 20
246.5934107497112
 30
0.0
 11
159.2578161785139
 21
248.5934107497112
 31
0.0
  0
LINE
  5
4113
330
1F
100
AcDbEntity
  8
AM_7
100
AcDbLine
 10
156.0078161785139
 20
247.5934107497112
 30
0.0
 11
157.4578161785139
 21
247.5934107497112
 31
0.0
  0
LINE
  5
4114
330
1F
100
AcDbEntity
  8
AM_7
100
AcDbLine
 10
161.057816178514
 20
247.5934107497112
 30
0.0
 11
162.507816178514
 21
247.5934107497112
 31
0.0
  0
LINE
  5
4115
330
1F
100
AcDbEntity
  8
AM_7
100
AcDbLine
 10
159.2578161785139
 20
244.3434107497112
 30
0.0
 11
159.2578161785139
 21
245.7934107497112
 31
0.0
  0
LINE
  5
4116
330
1F
100
AcDbEntity
  8
AM_7
100
AcDbLine
 10
159.2578161785139
 20
249.3934107497112
 30
0.0
 11
159.2578161785139
 21
250.8434107497112
 31
0.0
  0
LINE
  5
4135
330
1F
100
AcDbEntity
  8
AM_VIS
100
AcDbLine
 10
189.7578161785139
 20
203.0934107497112
 30
0.0
 11
189.7578161785139
 21
284.0934107497112
 31
0.0
  0
LINE
  5
4136
330
1F
100
AcDbEntity
  8
AM_VIS
100
AcDbLine
 10
115.7578161785139
 20
284.0934107497112
 30
0.0
 11
115.7578161785139
 21
203.0934107497112
 31
0.0
  0
LINE
  5
4137
330
1F
100
AcDbEntity
  8
AM_VIS
100
AcDbLine
 10
188.7578161785139
 20
203.0934107497112
 30
0.0
 11
116.7578161785139
 21
203.0934107497112
 31
0.0
  0
LINE
  5
4138
330
1F
100
AcDbEntity
  8
AM_VIS
100
AcDbLine
 10
115.4649229597005
 20
203.0934107497112
 30
0.0
 11
111.1971560067342
 21
203.0934107497112
 31
0.0
  0
LINE
  5
4139
330
1F
100
AcDbEntity
  8
AM_VIS
100
AcDbLine
 10
110.7578161785139
 20
284.0934107497112
 30
0.0
 11
110.7578161785139
 21
203.0934107497112
 31
0.0
  0
LINE
  5
413A
330
1F
100
AcDbEntity
  8
AM_VIS
100
AcDbLine
 10
188.7578161785139
 20
284.0934107497112
 30
0.0
 11
116.7578161785139
 21
284.0934107497112
 31
0.0
  0
LINE
  5
413B
330
1F
100
AcDbEntity
  8
AM_VIS
100
AcDbLine
 10
115.4649229597005
 20
284.0934107497112
 30
0.0
 11
111.1971560067342
 21
284.0934107497112
 31
0.0
  0
LINE
  5
413C
330
1F
100
AcDbEntity
  8
AM_VIS
100
AcDbLine
 10
194.3184763502938
 20
203.0934107497112
 30
0.0
 11
190.0507093973274
 21
203.0934107497112
 31
0.0
  0
LINE
  5
413D
330
1F
100
AcDbEntity
  8
AM_VIS
100
AcDbLine
 10
194.3184763502938
 20
284.0934107497112
 30
0.0
 11
190.0507093973274
 21
284.0934107497112
 31
0.0
  0
LINE
  5
413E
330
1F
100
AcDbEntity
  8
AM_VIS
100
AcDbLine
 10
194.7578161785139
 20
203.0934107497112
 30
0.0
 11
194.7578161785139
 21
284.0934107497112
 31
0.0
  0
CIRCLE
  5
413F
330
1F
100
AcDbEntity
  8
AM_VIS
100
AcDbCircle
 10
137.7578161785139
 20
208.0934107497112
 30
0.0
 40
2.25
  0
CIRCLE
  5
4140
330
1F
100
AcDbEntity
  8
AM_VIS
100
AcDbCircle
 10
137.7578161785139
 20
279.0934107497112
 30
0.0
 40
2.25
  0
CIRCLE
  5
4141
330
1F
100
AcDbEntity
  8
AM_VIS
100
AcDbCircle
 10
167.7578161785139
 20
208.0934107497112
 30
0.0
 40
2.25
  0
CIRCLE
  5
4142
330
1F
100
AcDbEntity
  8
AM_VIS
100
AcDbCircle
 10
167.7578161785139
 20
279.0934107497112
 30
0.0
 40
2.25
  0
LINE
  5
414D
330
1F
100
AcDbEntity
  8
AM_VIS
100
AcDbLine
 10
115.4649229597005
 20
203.0934107497112
 30
0.0
 11
115.7578161785139
 21
203.0934107497112
 31
0.0
  0
LINE
  5
414E
330
1F
100
AcDbEntity
  8
AM_VIS
100
AcDbLine
 10
116.7578161785139
 20
203.0934107497112
 30
0.0
 11
115.7578161785139
 21
203.0934107497112
 31
0.0
  0
LINE
  5
414F
330
1F
100
AcDbEntity
  8
AM_VIS
100
AcDbLine
 10
189.7578161785139
 20
203.0934107497112
 30
0.0
 11
188.7578161785139
 21
203.0934107497112
 31
0.0
  0
LINE
  5
4150
330
1F
100
AcDbEntity
  8
AM_VIS
100
AcDbLine
 10
189.7578161785139
 20
203.0934107497112
 30
0.0
 11
190.0507093973274
 21
203.0934107497112
 31
0.0
  0
LINE
  5
4151
330
1F
100
AcDbEntity
  8
AM_VIS
100
AcDbLine
 10
111.1971560067341
 20
203.0934107497112
 30
0.0
 11
110.7578161785139
 21
203.0934107497112
 31
0.0
  0
LINE
  5
4152
330
1F
100
AcDbEntity
  8
AM_VIS
100
AcDbLine
 10
190.0507093973274
 20
284.0934107497112
 30
0.0
 11
189.7578161785139
 21
284.0934107497112
 31
0.0
  0
LINE
  5
4153
330
1F
100
AcDbEntity
  8
AM_VIS
100
AcDbLine
 10
188.7578161785139
 20
284.0934107497112
 30
0.0
 11
189.7578161785139
 21
284.0934107497112
 31
0.0
  0
LINE
  5
4154
330
1F
100
AcDbEntity
  8
AM_VIS
100
AcDbLine
 10
115.7578161785139
 20
284.0934107497112
 30
0.0
 11
116.7578161785139
 21
284.0934107497112
 31
0.0
  0
LINE
  5
4155
330
1F
100
AcDbEntity
  8
AM_VIS
100
AcDbLine
 10
115.7578161785139
 20
284.0934107497112
 30
0.0
 11
115.4649229597005
 21
284.0934107497112
 31
0.0
  0
LINE
  5
4156
330
1F
100
AcDbEntity
  8
AM_VIS
100
AcDbLine
 10
110.7578161785139
 20
284.0934107497112
 30
0.0
 11
111.1971560067341
 21
284.0934107497112
 31
0.0
  0
LINE
  5
4157
330
1F
100
AcDbEntity
  8
AM_VIS
100
AcDbLine
 10
194.7578161785139
 20
203.0934107497112
 30
0.0
 11
194.3184763502938
 21
203.0934107497112
 31
0.0
  0
LINE
  5
4158
330
1F
100
AcDbEntity
  8
AM_VIS
100
AcDbLine
 10
194.3184763502938
 20
284.0934107497112
 30
0.0
 11
194.7578161785139
 21
284.0934107497112
 31
0.0
  0
LINE
  5
4159
330
1F
100
AcDbEntity
  8
AM_VIS
100
AcDbLine
 10
252.3939019209141
 20
203.0934107497112
 30
0.0
 11
252.3939019209141
 21
284.0934107497112
 31
0.0
  0
LINE
  5
415A
330
1F
100
AcDbEntity
  8
AM_VIS
100
AcDbLine
 10
225.3939019209141
 20
284.0934107497112
 30
0.0
 11
225.3939019209141
 21
203.0934107497112
 31
0.0
  0
LINE
  5
415B
330
1F
100
AcDbEntity
  8
AM_VIS
100
AcDbLine
 10
250.3939019209141
 20
203.0934107497112
 30
0.0
 11
237.0152222644738
 21
203.0934107497112
 31
0.0
  0
LINE
  5
415C
330
1F
100
AcDbEntity
  8
AM_VIS
100
AcDbLine
 10
230.979688358541
 20
203.0934107497112
 30
0.0
 11
226.3939019209141
 21
203.0934107497112
 31
0.0
  0
LINE
  5
415D
330
1F
100
AcDbEntity
  8
AM_VIS
100
AcDbLine
 10
230.979688358541
 20
284.0934107497112
 30
0.0
 11
226.3939019209141
 21
284.0934107497112
 31
0.0
  0
LINE
  5
415E
330
1F
100
AcDbEntity
  8
AM_VIS
100
AcDbLine
 10
250.3939019209141
 20
284.0934107497112
 30
0.0
 11
237.0152222644738
 21
284.0934107497112
 31
0.0
  0
LINE
  5
415F
330
1F
100
AcDbEntity
  8
AM_VIS
100
AcDbLine
 10
235.9545620926939
 20
203.0934107497112
 30
0.0
 11
231.6867951397276
 21
203.0934107497112
 31
0.0
  0
LINE
  5
4160
330
1F
100
AcDbEntity
  8
AM_VIS
100
AcDbLine
 10
235.9545620926939
 20
284.0934107497112
 30
0.0
 11
231.6867951397276
 21
284.0934107497112
 31
0.0
  0
LINE
  5
4161
330
1F
100
AcDbEntity
  8
AM_VIS
100
AcDbLine
 10
252.3939019209141
 20
203.0934107497112
 30
0.0
 11
250.3939019209141
 21
203.0934107497112
 31
0.0
  0
LINE
  5
4162
330
1F
100
AcDbEntity
  8
AM_VIS
100
AcDbLine
 10
226.3939019209141
 20
203.0934107497112
 30
0.0
 11
225.3939019209141
 21
203.0934107497112
 31
0.0
  0
LINE
  5
4163
330
1F
100
AcDbEntity
  8
AM_VIS
100
AcDbLine
 10
230.979688358541
 20
203.0934107497112
 30
0.0
 11
231.6867951397276
 21
203.0934107497112
 31
0.0
  0
ARC
  5
41A4
330
1F
100
AcDbEntity
  8
AM_4
100
AcDbCircle
 10
122.2578161785139
 20
160.0075304174649
 30
0.0
 40
8.649999999999998
100
AcDbArc
 50
260.0
 51
170.0
  0
LINE
  5
41A5
330
1F
100
AcDbEntity
  8
AM_7
  6
AM_ISO08W050x2
100
AcDbLine
 10
122.2578161785139
 20
171.6575304174649
 30
0.0
 11
122.2578161785139
 21
148.3575304174649
 31
0.0
  0
CIRCLE
  5
41A6
330
1F
100
AcDbEntity
  8
AM_0
100
AcDbCircle
 10
122.2578161785139
 20
160.0075304174649
 30
0.0
 40
7.474999999999998
  0
LINE
  5
41A7
330
1F
100
AcDbEntity
  8
AM_7
  6
AM_ISO08W050x2
100
AcDbLine
 10
110.607816178514
 20
160.0075304174649
 30
0.0
 11
133.9078161785139
 21
160.0075304174649
 31
0.0
  0
ARC
  5
41A8
330
1F
100
AcDbEntity
  8
AM_4
100
AcDbCircle
 10
152.7578161785139
 20
161.0075304174649
 30
0.0
 40
8.649999999999998
100
AcDbArc
 50
260.0
 51
170.0
  0
LINE
  5
41A9
330
1F
100
AcDbEntity
  8
AM_7
  6
AM_ISO08W050x2
100
AcDbLine
 10
152.7578161785139
 20
172.6575304174649
 30
0.0
 11
152.7578161785139
 21
149.3575304174649
 31
0.0
  0
CIRCLE
  5
41AA
330
1F
100
AcDbEntity
  8
AM_0
100
AcDbCircle
 10
152.7578161785139
 20
161.0075304174649
 30
0.0
 40
7.474999999999998
  0
LINE
  5
41AB
102
{ACAD_REACTORS
330
4239
102
}
330
1F
100
AcDbEntity
  8
AM_7
  6
AM_ISO08W050x2
100
AcDbLine
 10
141.1078161785139
 20
161.0075304174649
 30
0.0
 11
164.4078161785139
 21
161.0075304174649
 31
0.0
  0
ARC
  5
41AC
330
1F
100
AcDbEntity
  8
AM_4
100
AcDbCircle
 10
183.2578161785139
 20
160.0075304174649
 30
0.0
 40
8.649999999999998
100
AcDbArc
 50
260.0
 51
170.0
  0
LINE
  5
41AD
330
1F
100
AcDbEntity
  8
AM_7
  6
AM_ISO08W050x2
100
AcDbLine
 10
183.2578161785139
 20
171.6575304174649
 30
0.0
 11
183.2578161785139
 21
148.3575304174649
 31
0.0
  0
CIRCLE
  5
41AE
330
1F
100
AcDbEntity
  8
AM_0
100
AcDbCircle
 10
183.2578161785139
 20
160.0075304174649
 30
0.0
 40
7.474999999999998
  0
LINE
  5
41AF
330
1F
100
AcDbEntity
  8
AM_7
  6
AM_ISO08W050x2
100
AcDbLine
 10
171.607816178514
 20
160.0075304174649
 30
0.0
 11
194.9078161785139
 21
160.0075304174649
 31
0.0
  0
DIMENSION
  5
422B
102
{ACAD_XDICTIONARY
360
4238
102
}
102
{ACAD_REACTORS
330
4239
102
}
330
1F
100
AcDbEntity
  8
AM_5
100
AcDbDimension
  2
*D13
 10
219.5708577396169
 20
161.0075304174649
 30
0.0
 11
217.0705624640263
 21
154.757530417465
 31
0.0
 70
    32
 71
     5
 42
12.49999999999997
  3
AM_ISO$0
100
AcDbAlignedDimension
 13
192.757816178514
 23
148.5075304174649
 33
0.0
 14
164.4078161785139
 24
161.0075304174649
 34
0.0
 50
90.0
100
AcDbRotatedDimension
1001
ACAD
1000
DSTYLE
1002
{
1070
    40
1040
1.0
1070
   144
1040
1.0
1070
   272
1070
     8
1002
}
  0
ENDSEC
  0
SECTION
  2
OBJECTS
  0
DICTIONARY
  5
C
330
0
100
AcDbDictionary
281
     1
  3
ACAD_COLOR
350
7D1
  3
ACAD_GROUP
350
D
  3
ACAD_LAYOUT
350
1A
  3
ACAD_MATERIAL
350
7D0
  3
ACAD_MLINESTYLE
350
17
  3
ACAD_PLOTSETTINGS
350
19
  3
ACAD_PLOTSTYLENAME
350
E
  3
ACAD_TABLESTYLE
350
7D2
  3
ACDBHEADERROUNDTRIPXREC
350
43F7
  3
AcDbVariableDictionary
350
82
  3
AcmDictionary
350
45
  3
AMG
350
2B
  3
AMGSNAPSETTINGS
350
87
  3
DWGPROPS
350
43F6
  0
DICTIONARY
  5
AAB
330
2
100
AcDbDictionary
280
     1
281
     1
  3
ACAD_LAYERSTATES
360
AAC
  3
AMLAYER_GROUPCOLORS
360
3426
  0
DICTIONARY
  5
7D
330
1F
100
AcDbDictionary
280
     1
281
     1
  3
ACAD_SORTENTS
360
EEA
  0
DICTIONARY
  5
4238
330
422B
100
AcDbDictionary
280
     1
281
     1
  3
ACAD_DIMASSOC
360
4239
  0
DICTIONARY
  5
7D1
102
{ACAD_REACTORS
330
C
102
}
330
C
100
AcDbDictionary
281
     1
  0
DICTIONARY
  5
D
102
{ACAD_REACTORS
330
C
102
}
330
C
100
AcDbDictionary
281
     1
  0
DICTIONARY
  5
1A
102
{ACAD_REACTORS
330
C
102
}
330
C
100
AcDbDictionary
281
     1
  3
Layout1
350
1E
  3
Layout2
350
26
  3
Model
350
22
  0
DICTIONARY
  5
7D0
102
{ACAD_REACTORS
330
C
102
}
330
C
100
AcDbDictionary
281
     1
  0
DICTIONARY
  5
17
102
{ACAD_REACTORS
330
C
102
}
330
C
100
AcDbDictionary
281
     1
  3
Standard
350
18
  0
DICTIONARY
  5
19
102
{ACAD_REACTORS
330
C
102
}
330
C
100
AcDbDictionary
281
     1
  0
ACDBDICTIONARYWDFLT
  5
E
102
{ACAD_REACTORS
330
C
102
}
330
C
100
AcDbDictionary
281
     1
  3
Normal
350
F
100
AcDbDictionaryWithDefault
340
F
  0
DICTIONARY
  5
7D2
102
{ACAD_REACTORS
330
C
102
}
330
C
100
AcDbDictionary
281
     1
  3
Standard
350
7D3
  0
DICTIONARY
  5
43F7
102
{ACAD_REACTORS
330
C
102
}
330
C
100
AcDbDictionary
281
     1
  0
DICTIONARY
  5
82
102
{ACAD_REACTORS
330
C
102
}
330
C
100
AcDbDictionary
281
     1
  3
CTABLESTYLE
350
847
  3
DIMASSOC
350
85
  3
HIDETEXT
350
84
  3
INDEXCTL
350
83
  3
PROJECTNAME
350
848
  0
DICTIONARY
  5
45
102
{ACAD_REACTORS
330
C
102
}
330
C
100
AcDbDictionary
281
     1
  3
AcmStdDictionary
350
4A
  3
AMDTSECTSYM_ARROWCOLOR
350
7DF
  0
DICTIONARY
  5
2B
102
{ACAD_REACTORS
330
C
102
}
330
C
100
AcDbDictionary
281
     1
  0
DICTIONARY
  5
87
102
{ACAD_REACTORS
330
C
102
}
330
C
100
AcDbDictionary
281
     1
  0
XRECORD
  5
43F6
102
{ACAD_REACTORS
330
C
102
}
330
C
100
AcDbXrecord
280
     1
  1
DWGPROPS COOKIE
  2

  3

  4

  6

  7

  8

  9

300
AmdtFileType=84
301
=
302
=
303
=
304
=
305
=
306
=
307
=
308
=
309
=
 40
0.6156760532407408
 41
2453021.369367211
 42
2453514.618492476
  1

 90
        1
  0
DICTIONARY
  5
AAC
102
{ACAD_REACTORS
330
AAB
102
}
330
AAB
100
AcDbDictionary
281
     1
  0
DICTIONARY
  5
3426
102
{ACAD_REACTORS
330
AAB
102
}
330
AAB
100
AcDbDictionary
280
     1
281
     1
  0
SORTENTSTABLE
  5
EEA
102
{ACAD_REACTORS
330
7D
102
}
330
7D
100
AcDbSortentsTable
330
1F
331
40B0
  5
40B0
331
40F7
  5
40F7
331
414E
  5
414E
331
40FF
  5
40FF
331
40B8
  5
40B8
331
4107
  5
4107
331
40C8
  5
40C8
331
4156
  5
4156
331
415E
  5
415E
331
1610
  5
1610
331
13FA
  5
13FA
331
1459
  5
1459
331
1461
  5
1461
331
1402
  5
1402
331
1432
  5
1432
331
1620
  5
1620
331
1628
  5
1628
331
1471
  5
1471
331
410F
  5
410F
331
41A6
  5
41A6
331
40E8
  5
40E8
331
40A1
  5
40A1
331
4137
  5
4137
331
413F
  5
413F
331
1479
  5
1479
331
1442
  5
1442
331
1630
  5
1630
331
1638
  5
1638
331
1452
  5
1452
331
1640
  5
1640
331
13F3
  5
13F3
331
40F0
  5
40F0
331
40A9
  5
40A9
331
40F8
  5
40F8
331
40B1
  5
40B1
331
4100
  5
4100
331
414F
  5
414F
331
3852
  5
3852
331
40B9
  5
40B9
331
4157
  5
4157
331
415F
  5
415F
331
1648
  5
1648
331
13FB
  5
13FB
331
1403
  5
1403
331
1433
  5
1433
331
1472
  5
1472
331
1629
  5
1629
331
4108
  5
4108
331
40D1
  5
40D1
331
4110
  5
4110
331
4138
  5
4138
331
40E9
  5
40E9
331
40A2
  5
40A2
331
41A7
  5
41A7
331
1443
  5
1443
331
1631
  5
1631
331
2D18
  5
2D18
331
1639
  5
1639
331
1453
  5
1453
331
1602
  5
1602
331
1641
  5
1641
331
160A
  5
160A
331
13F4
  5
13F4
331
4140
  5
4140
331
40F1
  5
40F1
331
40AA
  5
40AA
331
3794
  5
3794
331
40F9
  5
40F9
331
4101
  5
4101
331
4150
  5
4150
331
40BA
  5
40BA
331
4158
  5
4158
331
13FC
  5
13FC
331
1404
  5
1404
331
161A
  5
161A
331
146B
  5
146B
331
1434
  5
1434
331
1473
  5
1473
331
4160
  5
4160
331
4109
  5
4109
331
40D2
  5
40D2
331
4111
  5
4111
331
39BB
  5
39BB
331
4139
  5
4139
331
40EA
  5
40EA
331
40A3
  5
40A3
331
382C
  5
382C
331
1444
  5
1444
331
1632
  5
1632
331
163A
  5
163A
331
1642
  5
1642
331
1454
  5
1454
331
1603
  5
1603
331
13F5
  5
13F5
331
160B
  5
160B
331
4141
  5
4141
331
40F2
  5
40F2
331
40AB
  5
40AB
331
40FA
  5
40FA
331
4102
  5
4102
331
40BB
  5
40BB
331
4151
  5
4151
331
40CB
  5
40CB
331
4159
  5
4159
331
13FD
  5
13FD
331
1405
  5
1405
331
1623
  5
1623
331
146C
  5
146C
331
1474
  5
1474
331
143D
  5
143D
331
410A
  5
410A
331
4161
  5
4161
331
39BC
  5
39BC
331
4112
  5
4112
331
376E
  5
376E
331
40EB
  5
40EB
331
40A4
  5
40A4
331
413A
  5
413A
331
1445
  5
1445
331
144D
  5
144D
331
163B
  5
163B
331
1604
  5
1604
331
1455
  5
1455
331
13F6
  5
13F6
331
4142
  5
4142
331
40AC
  5
40AC
331
40F3
  5
40F3
331
40FB
  5
40FB
331
4152
  5
4152
331
40BC
  5
40BC
331
4103
  5
4103
331
415A
  5
415A
331
40CC
  5
40CC
331
145D
  5
145D
331
13FE
  5
13FE
331
1465
  5
1465
331
146D
  5
146D
331
1475
  5
1475
331
143E
  5
143E
331
4162
  5
4162
331
410B
  5
410B
331
3806
  5
3806
331
3380
  5
3380
331
4113
  5
4113
331
40EC
  5
40EC
331
40A5
  5
40A5
331
413B
  5
413B
331
1634
  5
1634
331
144E
  5
144E
331
163C
  5
163C
331
1644
  5
1644
331
1456
  5
1456
331
1605
  5
1605
331
13F7
  5
13F7
331
40AD
  5
40AD
331
40F4
  5
40F4
331
40FC
  5
40FC
331
4104
  5
4104
331
40BD
  5
40BD
331
4153
  5
4153
331
415B
  5
415B
331
1615
  5
1615
331
13FF
  5
13FF
331
1664
  5
1664
331
1466
  5
1466
331
161D
  5
161D
331
146E
  5
146E
331
162D
  5
162D
331
143F
  5
143F
331
1476
  5
1476
331
3748
  5
3748
331
4163
  5
4163
331
410C
  5
410C
331
4114
  5
4114
331
3381
  5
3381
331
40ED
  5
40ED
331
40A6
  5
40A6
331
413C
  5
413C
331
1635
  5
1635
331
163D
  5
163D
331
1457
  5
1457
331
40AE
  5
40AE
331
40F5
  5
40F5
331
40FD
  5
40FD
331
4105
  5
4105
331
37E0
  5
37E0
331
40BE
  5
40BE
331
4154
  5
4154
331
415C
  5
415C
331
40CE
  5
40CE
331
13F8
  5
13F8
331
1616
  5
1616
331
1400
  5
1400
331
1467
  5
1467
331
1626
  5
1626
331
146F
  5
146F
331
162E
  5
162E
331
1477
  5
1477
331
410D
  5
410D
331
4115
  5
4115
331
41A4
  5
41A4
331
4135
  5
4135
331
40EE
  5
40EE
331
40A7
  5
40A7
331
413D
  5
413D
331
1440
  5
1440
331
1636
  5
1636
331
163E
  5
163E
331
13F1
  5
13F1
331
160F
  5
160F
331
40AF
  5
40AF
331
3722
  5
3722
331
40F6
  5
40F6
331
414D
  5
414D
331
40FE
  5
40FE
331
4106
  5
4106
331
40BF
  5
40BF
331
4155
  5
4155
331
415D
  5
415D
331
13F9
  5
13F9
331
1458
  5
1458
331
1401
  5
1401
331
1627
  5
1627
331
1470
  5
1470
331
162F
  5
162F
331
410E
  5
410E
331
40DF
  5
40DF
331
4116
  5
4116
331
41A5
  5
41A5
331
40E7
  5
40E7
331
4136
  5
4136
331
40EF
  5
40EF
331
413E
  5
413E
331
1441
  5
1441
331
1478
  5
1478
331
1449
  5
1449
331
1637
  5
1637
331
1647
  5
1647
331
13F2
  5
13F2
331
40A8
  5
40A8
  0
DIMASSOC
  5
4239
102
{ACAD_REACTORS
330
4238
102
}
330
4238
100
AcDbDimAssoc
330
422B
 90
        3
 70
     0
 71
     0
  1
AcDbOsnapPointRef
 72
    13
331
40B8
 73
     0
 91
        0
 40
0.0
 10
0.0
 20
0.0
 30
2.000000000000000E+50
 75
     0
  1
AcDbOsnapPointRef
 72
     1
331
41AB
 73
     0
 91
        0
 40
0.0
 10
0.0
 20
0.0
 30
2.000000000000000E+50
 75
     0
  0
LAYOUT
  5
1E
102
{ACAD_XDICTIONARY
360
43F8
102
}
102
{ACAD_REACTORS
330
1A
102
}
330
1A
100
AcDbPlotSettings
  1

  2
自動 RD 上的 Epson Stylus Photo 750 單色
  4

  6

 40
0.0
 41
0.0
 42
0.0
 43
0.0
 44
0.0
 45
0.0
 46
0.0
 47
0.0
 48
0.0
 49
0.0
140
0.0
141
0.0
142
1.0
143
1.0
 70
   688
 72
     0
 73
     0
 74
     5
  7
彩色出圖.ctb
 75
    16
147
1.0
148
0.0
149
0.0
100
AcDbLayout
  1
Layout1
 70
     1
 71
     1
 10
0.0
 20
0.0
 11
420.0
 21
297.0
 12
0.0
 22
0.0
 32
0.0
 14
1.000000000000000E+20
 24
1.000000000000000E+20
 34
1.000000000000000E+20
 15
-1.000000000000000E+20
 25
-1.000000000000000E+20
 35
-1.000000000000000E+20
146
0.0
 13
0.0
 23
0.0
 33
0.0
 16
1.0
 26
0.0
 36
0.0
 17
0.0
 27
1.0
 37
0.0
 76
     0
330
1B
  0
LAYOUT
  5
26
102
{ACAD_XDICTIONARY
360
43FC
102
}
102
{ACAD_REACTORS
330
1A
102
}
330
1A
100
AcDbPlotSettings
  1

  2
自動 RD 上的 Epson Stylus Photo 750 單色
  4

  6

 40
0.0
 41
0.0
 42
0.0
 43
0.0
 44
0.0
 45
0.0
 46
0.0
 47
0.0
 48
0.0
 49
0.0
140
0.0
141
0.0
142
1.0
143
1.0
 70
   688
 72
     0
 73
     0
 74
     5
  7
彩色出圖.ctb
 75
    16
147
1.0
148
0.0
149
0.0
100
AcDbLayout
  1
Layout2
 70
     1
 71
     2
 10
0.0
 20
0.0
 11
12.0
 21
9.0
 12
0.0
 22
0.0
 32
0.0
 14
0.0
 24
0.0
 34
0.0
 15
0.0
 25
0.0
 35
0.0
146
0.0
 13
0.0
 23
0.0
 33
0.0
 16
1.0
 26
0.0
 36
0.0
 17
0.0
 27
1.0
 37
0.0
 76
     0
330
23
  0
LAYOUT
  5
22
102
{ACAD_XDICTIONARY
360
43FA
102
}
102
{ACAD_REACTORS
330
1A
102
}
330
1A
100
AcDbPlotSettings
  1

  2
自動 RD 上的 Epson Stylus Photo 750 單色
  4
A4
  6

 40
3.757083177566528
 41
14.7637300491333
 42
3.757080078125
 43
3.757080078125
 44
209.9733276367187
 45
296.9683227539062
 46
7.54
 47
0.0
 48
0.0
 49
0.0
140
0.0
141
0.0
142
1.0
143
1.817317462545654
 70
 11956
 72
     1
 73
     0
 74
     1
  7
彩色出圖.ctb
 75
     0
147
0.5502615919395967
148
-125.5654918467224
149
222.8859553785132
100
AcDbLayout
  1
Model
 70
     1
 71
     0
 10
0.0
 20
0.0
 11
12.0
 21
9.0
 12
0.0
 22
0.0
 32
0.0
 14
0.0
 24
0.0
 34
0.0
 15
0.0
 25
0.0
 35
0.0
146
0.0
 13
0.0
 23
0.0
 33
0.0
 16
1.0
 26
0.0
 36
0.0
 17
0.0
 27
1.0
 37
0.0
 76
     0
330
1F
  0
MLINESTYLE
  5
18
102
{ACAD_REACTORS
330
17
102
}
330
17
100
AcDbMlineStyle
  2
STANDARD
 70
     0
  3

 62
   256
 51
90.0
 52
90.0
 71
     2
 49
0.5
 62
   256
  6
BYLAYER
 49
-0.5
 62
   256
  6
BYLAYER
  0
ACDBPLACEHOLDER
  5
F
102
{ACAD_REACTORS
330
E
102
}
330
E
  0
TABLESTYLE
  5
7D3
102
{ACAD_REACTORS
330
7D2
102
}
330
7D2
100
AcDbTableStyle
  3
Standard
 70
     0
 71
     0
 40
1.5
 41
1.5
280
     0
281
     0
  7
STANDARD
140
4.5
170
     2
 62
     0
 63
     7
283
     0
274
    -2
284
     1
 64
     0
275
    -2
285
     1
 65
     0
276
    -2
286
     1
 66
     0
277
    -2
287
     1
 67
     0
278
    -2
288
     1
 68
     0
279
    -2
289
     1
 69
     0
  7
STANDARD
140
6.0
170
     5
 62
     0
 63
     7
283
     0
274
    -2
284
     1
 64
     0
275
    -2
285
     1
 65
     0
276
    -2
286
     1
 66
     0
277
    -2
287
     1
 67
     0
278
    -2
288
     1
 68
     0
279
    -2
289
     1
 69
     0
  7
STANDARD
140
4.5
170
     5
 62
     0
 63
     7
283
     0
274
    -2
284
     1
 64
     0
275
    -2
285
     1
 65
     0
276
    -2
286
     1
 66
     0
277
    -2
287
     1
 67
     0
278
    -2
288
     1
 68
     0
279
    -2
289
     1
 69
     0
  0
DICTIONARYVAR
  5
847
102
{ACAD_REACTORS
330
82
102
}
330
82
100
DictionaryVariables
280
     0
  1
STANDARD
  0
DICTIONARYVAR
  5
85
102
{ACAD_REACTORS
330
82
102
}
330
82
100
DictionaryVariables
280
     0
  1
2
  0
DICTIONARYVAR
  5
84
102
{ACAD_REACTORS
330
82
102
}
330
82
100
DictionaryVariables
280
     0
  1
1
  0
DICTIONARYVAR
  5
83
102
{ACAD_REACTORS
330
82
102
}
330
82
100
DictionaryVariables
280
     0
  1
0
  0
DICTIONARYVAR
  5
848
102
{ACAD_REACTORS
330
82
102
}
330
82
100
DictionaryVariables
280
     0
  1

  0
DICTIONARY
  5
4A
102
{ACAD_REACTORS
330
45
102
}
330
45
100
AcDbDictionary
281
     1
  0
XRECORD
  5
7DF
102
{ACAD_REACTORS
330
45
102
}
330
45
100
AcDbXrecord
280
     1
 90
-1023410169
  0
DICTIONARY
  5
43F8
330
1E
100
AcDbDictionary
280
     1
281
     1
  3
ACAD_XREC_ROUNDTRIP
360
43F9
  0
DICTIONARY
  5
43FC
330
26
100
AcDbDictionary
280
     1
281
     1
  3
ACAD_XREC_ROUNDTRIP
360
43FD
  0
DICTIONARY
  5
43FA
330
22
100
AcDbDictionary
280
     1
281
     1
  3
ACAD_XREC_ROUNDTRIP
360
43FB
  0
XRECORD
  5
43F9
102
{ACAD_REACTORS
330
43F8
102
}
330
43F8
100
AcDbXrecord
280
     1
102
SHADEPLOT
 70
     0
102
SHADEPLOTRESLEVEL
 70
     2
102
SHADEPLOTCUSTOMDPI
 70
   300
  0
XRECORD
  5
43FD
102
{ACAD_REACTORS
330
43FC
102
}
330
43FC
100
AcDbXrecord
280
     1
102
SHADEPLOT
 70
     0
102
SHADEPLOTRESLEVEL
 70
     2
102
SHADEPLOTCUSTOMDPI
 70
   300
  0
XRECORD
  5
43FB
102
{ACAD_REACTORS
330
43FA
102
}
330
43FA
100
AcDbXrecord
280
     1
102
SHADEPLOT
 70
     0
102
SHADEPLOTRESLEVEL
 70
     2
102
SHADEPLOTCUSTOMDPI
 70
   300
  0
ENDSEC
  0
EOF
