  0
SECTION
  2
HEADER
  9
$ACADVER
  1
AC1015
  9
$ACADMAINTVER
 70
    20
  9
$DWGCODEPAGE
  3
ANSI_950
  9
$INSBASE
 10
0.0
 20
0.0
 30
0.0
  9
$EXTMIN
 10
492.7420407845516
 20
119.6208298038767
 30
-0.007197311670609
  9
$EXTMAX
 10
834.8151176321346
 20
385.477290636808
 30
207.6005256474408
  9
$LIMMIN
 10
0.0
 20
0.0
  9
$LIMMAX
 10
420.0
 20
297.0
  9
$ORTHOMODE
 70
     1
  9
$REGENMODE
 70
     1
  9
$FILLMODE
 70
     1
  9
$QTEXTMODE
 70
     0
  9
$MIRRTEXT
 70
     1
  9
$LTSCALE
 40
1.0
  9
$ATTMODE
 70
     1
  9
$TEXTSIZE
 40
3.0
  9
$TRACEWID
 40
1.0
  9
$TEXTSTYLE
  7
STANDARD
  9
$CLAYER
  8
0
  9
$CELTYPE
  6
ByLayer
  9
$CECOLOR
 62
   256
  9
$CELTSCALE
 40
1.0
  9
$DISPSILH
 70
     0
  9
$DIMSCALE
 40
1.0
  9
$DIMASZ
 40
3.0
  9
$DIMEXO
 40
1.0
  9
$DIMDLI
 40
8.0
  9
$DIMRND
 40
0.0
  9
$DIMDLE
 40
0.0
  9
$DIMEXE
 40
1.5
  9
$DIMTP
 40
0.1
  9
$DIMTM
 40
0.1
  9
$DIMTXT
 40
3.5
  9
$DIMCEN
 40
0.0
  9
$DIMTSZ
 40
0.0
  9
$DIMTOL
 70
     0
  9
$DIMLIM
 70
     0
  9
$DIMTIH
 70
     0
  9
$DIMTOH
 70
     0
  9
$DIMSE1
 70
     0
  9
$DIMSE2
 70
     0
  9
$DIMTAD
 70
     1
  9
$DIMZIN
 70
     8
  9
$DIMBLK
  1

  9
$DIMASO
 70
     1
  9
$DIMSHO
 70
     1
  9
$DIMPOST
  1

  9
$DIMAPOST
  1
"
  9
$DIMALT
 70
     0
  9
$DIMALTD
 70
     2
  9
$DIMALTF
 40
0.0393701
  9
$DIMLFAC
 40
1.0
  9
$DIMTOFL
 70
     1
  9
$DIMTVP
 40
0.0
  9
$DIMTIX
 70
     0
  9
$DIMSOXD
 70
     0
  9
$DIMSAH
 70
     0
  9
$DIMBLK1
  1

  9
$DIMBLK2
  1

  9
$DIMSTYLE
  2
AM_ISO
  9
$DIMCLRD
 70
   256
  9
$DIMCLRE
 70
   256
  9
$DIMCLRT
 70
   256
  9
$DIMTFAC
 40
0.6
  9
$DIMGAP
 40
0.7
  9
$DIMJUST
 70
     0
  9
$DIMSD1
 70
     0
  9
$DIMSD2
 70
     0
  9
$DIMTOLJ
 70
     0
  9
$DIMTZIN
 70
     8
  9
$DIMALTZ
 70
     0
  9
$DIMALTTZ
 70
     0
  9
$DIMUPT
 70
     0
  9
$DIMDEC
 70
     2
  9
$DIMTDEC
 70
     8
  9
$DIMALTU
 70
     2
  9
$DIMALTTD
 70
     2
  9
$DIMTXSTY
  7
STANDARD
  9
$DIMAUNIT
 70
     0
  9
$DIMADEC
 70
     0
  9
$DIMALTRND
 40
0.0
  9
$DIMAZIN
 70
     2
  9
$DIMDSEP
 70
    46
  9
$DIMATFIT
 70
     3
  9
$DIMFRAC
 70
     0
  9
$DIMLDRBLK
  1

  9
$DIMLUNIT
 70
     2
  9
$DIMLWD
 70
    -1
  9
$DIMLWE
 70
    -1
  9
$DIMTMOVE
 70
     0
  9
$LUNITS
 70
     2
  9
$LUPREC
 70
     2
  9
$SKETCHINC
 40
1.0
  9
$FILLETRAD
 40
2.5
  9
$AUNITS
 70
     0
  9
$AUPREC
 70
     0
  9
$MENU
  1
.
  9
$ELEVATION
 40
0.0
  9
$PELEVATION
 40
0.0
  9
$THICKNESS
 40
0.0
  9
$LIMCHECK
 70
     0
  9
$CHAMFERA
 40
2.5
  9
$CHAMFERB
 40
2.5
  9
$CHAMFERC
 40
20.0
  9
$CHAMFERD
 40
0.0
  9
$SKPOLY
 70
     0
  9
$TDCREATE
 40
2454013.630324248
  9
$TDUCREATE
 40
2454013.296990914
  9
$TDUPDATE
 40
2454013.685791910
  9
$TDUUPDATE
 40
2454013.352458576
  9
$TDINDWG
 40
0.0159313542
  9
$TDUSRTIMER
 40
0.0159313542
  9
$USRTIMER
 70
     1
  9
$ANGBASE
 50
0.0
  9
$ANGDIR
 70
     0
  9
$PDMODE
 70
     0
  9
$PDSIZE
 40
0.0
  9
$PLINEWID
 40
0.0
  9
$SPLFRAME
 70
     0
  9
$SPLINETYPE
 70
     6
  9
$SPLINESEGS
 70
     8
  9
$HANDSEED
  5
1662
  9
$SURFTAB1
 70
     6
  9
$SURFTAB2
 70
     6
  9
$SURFTYPE
 70
     6
  9
$SURFU
 70
     6
  9
$SURFV
 70
     6
  9
$UCSBASE
  2

  9
$UCSNAME
  2

  9
$UCSORG
 10
0.0
 20
0.0
 30
0.0
  9
$UCSXDIR
 10
1.0
 20
0.0
 30
0.0
  9
$UCSYDIR
 10
0.0
 20
1.0
 30
0.0
  9
$UCSORTHOREF
  2

  9
$UCSORTHOVIEW
 70
     0
  9
$UCSORGTOP
 10
0.0
 20
0.0
 30
0.0
  9
$UCSORGBOTTOM
 10
0.0
 20
0.0
 30
0.0
  9
$UCSORGLEFT
 10
0.0
 20
0.0
 30
0.0
  9
$UCSORGRIGHT
 10
0.0
 20
0.0
 30
0.0
  9
$UCSORGFRONT
 10
0.0
 20
0.0
 30
0.0
  9
$UCSORGBACK
 10
0.0
 20
0.0
 30
0.0
  9
$PUCSBASE
  2

  9
$PUCSNAME
  2

  9
$PUCSORG
 10
0.0
 20
0.0
 30
0.0
  9
$PUCSXDIR
 10
1.0
 20
0.0
 30
0.0
  9
$PUCSYDIR
 10
0.0
 20
1.0
 30
0.0
  9
$PUCSORTHOREF
  2

  9
$PUCSORTHOVIEW
 70
     0
  9
$PUCSORGTOP
 10
0.0
 20
0.0
 30
0.0
  9
$PUCSORGBOTTOM
 10
0.0
 20
0.0
 30
0.0
  9
$PUCSORGLEFT
 10
0.0
 20
0.0
 30
0.0
  9
$PUCSORGRIGHT
 10
0.0
 20
0.0
 30
0.0
  9
$PUCSORGFRONT
 10
0.0
 20
0.0
 30
0.0
  9
$PUCSORGBACK
 10
0.0
 20
0.0
 30
0.0
  9
$USERI1
 70
     0
  9
$USERI2
 70
     0
  9
$USERI3
 70
     0
  9
$USERI4
 70
     0
  9
$USERI5
 70
     0
  9
$USERR1
 40
0.0
  9
$USERR2
 40
0.0
  9
$USERR3
 40
0.0
  9
$USERR4
 40
0.0
  9
$USERR5
 40
0.0
  9
$WORLDVIEW
 70
     1
  9
$SHADEDGE
 70
     3
  9
$SHADEDIF
 70
    70
  9
$TILEMODE
 70
     1
  9
$MAXACTVP
 70
    64
  9
$PINSBASE
 10
0.0
 20
0.0
 30
0.0
  9
$PLIMCHECK
 70
     0
  9
$PEXTMIN
 10
1.000000000000000E+20
 20
1.000000000000000E+20
 30
1.000000000000000E+20
  9
$PEXTMAX
 10
-1.000000000000000E+20
 20
-1.000000000000000E+20
 30
-1.000000000000000E+20
  9
$PLIMMIN
 10
0.0
 20
0.0
  9
$PLIMMAX
 10
420.0
 20
297.0
  9
$UNITMODE
 70
     0
  9
$VISRETAIN
 70
     1
  9
$PLINEGEN
 70
     0
  9
$PSLTSCALE
 70
     1
  9
$TREEDEPTH
 70
  3020
  9
$CMLSTYLE
  2
Standard
  9
$CMLJUST
 70
     0
  9
$CMLSCALE
 40
20.0
  9
$PROXYGRAPHICS
 70
     1
  9
$MEASUREMENT
 70
     1
  9
$CELWEIGHT
370
    -1
  9
$ENDCAPS
280
     0
  9
$JOINSTYLE
280
     0
  9
$LWDISPLAY
290
     0
  9
$INSUNITS
 70
     4
  9
$HYPERLINKBASE
  1

  9
$STYLESHEET
  1
彩色出圖.ctb
  9
$XEDIT
290
     1
  9
$CEPSNTYPE
380
     0
  9
$PSTYLEMODE
290
     1
  9
$FINGERPRINTGUID
  2
{9BAAC476-3B99-49AB-9146-C7ABF099D292}
  9
$VERSIONGUID
  2
{D192E270-3AD9-4026-9864-DB8417C1B914}
  9
$EXTNAMES
290
     1
  9
$PSVPSCALE
 40
0.0
  9
$OLESTARTUP
290
     0
  0
ENDSEC
  0
SECTION
  2
CLASSES
  0
CLASS
  1
ACDBDICTIONARYWDFLT
  2
AcDbDictionaryWithDefault
  3
ObjectDBX Classes
 90
        0
280
     0
281
     0
  0
CLASS
  1
ACDBPLACEHOLDER
  2
AcDbPlaceHolder
  3
ObjectDBX Classes
 90
        0
280
     0
281
     0
  0
CLASS
  1
LAYOUT
  2
AcDbLayout
  3
ObjectDBX Classes
 90
        0
280
     0
281
     0
  0
CLASS
  1
ACME_DOCUMENT
  2
AcMeDbDoc
  3
AcMeServices
 90
        0
280
     0
281
     0
  0
CLASS
  1
AMGSETTINGSOBJ
  2
AmgSettingsObj
  3
"AcadM|Product Description: AutoCAD Mechanical 2000|Company: Autodesk"
 90
        0
280
     0
281
     0
  0
CLASS
  1
ACMESCOPE
  2
AcMeScope
  3
AcMeServices
 90
        0
280
     0
281
     0
  0
CLASS
  1
ACMECOMMANDHISTORY
  2
AcMeCommandHistory
  3
AcMeServices
 90
        0
280
     0
281
     0
  0
CLASS
  1
ACIMSYSVARMAN
  2
AcImSysVarManager
  3
AcMeServices
 90
        0
280
     0
281
     0
  0
CLASS
  1
ACIMREALSYSVAR
  2
AcImRealSysVar
  3
AcMeServices
 90
        0
280
     0
281
     0
  0
CLASS
  1
ACIMINTSYSVAR
  2
AcImIntSysVar
  3
AcMeServices
 90
        0
280
     0
281
     0
  0
CLASS
  1
ACMEDRAWINGMAN
  2
AcMeDrawingMan
  3
AcMeServices
 90
        0
280
     0
281
     0
  0
CLASS
  1
ACMEVIEW
  2
AcMeView
  3
AcMeServices
 90
        0
280
     0
281
     0
  0
CLASS
  1
ACDBENTITYCACHE
  2
AcMeEntityCache
  3
AcMeServices
 90
        0
280
     0
281
     0
  0
CLASS
  1
GSMANAGER
  2
AcMeGSManager
  3
AcMeServices
 90
        0
280
     0
281
     0
  0
CLASS
  1
AMDTINTERNALREACTOR
  2
AmdtInternalReactor
  3
AcMeServices
 90
        0
280
     0
281
     0
  0
CLASS
  1
ACMESTATEMGR
  2
AcMeStateMgr
  3
AcMeServices
 90
        0
280
     0
281
     0
  0
CLASS
  1
ACGREFMASTER
  2
AcGrefMaster
  3
AcAttribServices
 90
        0
280
     0
281
     0
  0
CLASS
  1
ACME_DATABASE
  2
AcMeDbDatabase
  3
AcMeServices
 90
        0
280
     0
281
     0
  0
CLASS
  1
ACRFINSADJUSTERMGR
  2
AcRfInsAdjusterMgr
  3
AcMeServices
 90
        0
280
     0
281
     0
  0
CLASS
  1
ACGREFACADMASTER
  2
AcGrefacadMaster
  3
AcGrefServices
 90
        0
280
     0
281
     0
  0
CLASS
  1
AMIMASTER
  2
AmiMaster
  3
AmiServices
 90
        0
280
     0
281
     0
  0
CLASS
  1
ACMDATADICTIONARY
  2
AcmDataDictionary
  3
"AcmSymBB|Product Description: AutoCAD Mechanical 2004 DX|Company: Autodesk"
 90
        0
280
     0
281
     0
  0
CLASS
  1
ACMDATAENTRYBLOCK
  2
AcmDataEntryBlock
  3
"AcmSymBB|Product Description: AutoCAD Mechanical 2004 DX|Company: Autodesk"
 90
        0
280
     0
281
     0
  0
CLASS
  1
ACIMSTRSYSVAR
  2
AcImStrSysVar
  3
AcMeServices
 90
        0
280
     0
281
     0
  0
CLASS
  1
ACMSTANDARDISO
  2
AcmStandardISO
  3
"Amdt_StdImp|Product Description: AutoCAD Mechanical 2004 DX|Company: Autodesk"
 90
        0
280
     0
281
     0
  0
CLASS
  1
AMGOBJPROPCFG
  2
AmgObjPropCfg
  3
"AmgLay|Product Description: AutoCAD Mechanical 2000|Company: Autodesk"
 90
        1
280
     0
281
     0
  0
CLASS
  1
AMDTEDGESTANDARDISO
  2
AmdtEdgeStdISO
  3
"Amdt_StdImp|Product Description: AutoCAD Mechanical 2004 DX|Company: Autodesk"
 90
        0
280
     0
281
     0
  0
CLASS
  1
ACMSURFSTANDARDISO
  2
AcmSurfTextStdISO
  3
"Amdt_StdImp|Product Description: AutoCAD Mechanical 2004 DX|Company: Autodesk"
 90
        0
280
     0
281
     0
  0
CLASS
  1
ACMFCFSTANDARDISO
  2
AcmFCFStdISO
  3
"Amdt_StdImp|Product Description: AutoCAD Mechanical 2004 DX|Company: Autodesk"
 90
        0
280
     0
281
     0
  0
CLASS
  1
ACMWELDSTANDARDISO
  2
AcmWeldingStdISO
  3
"Amdt_StdImp|Product Description: AutoCAD Mechanical 2004 DX|Company: Autodesk"
 90
        0
280
     0
281
     0
  0
CLASS
  1
ACMIDSTANDARDISO
  2
AcmIdStdISO
  3
"Amdt_StdImp|Product Description: AutoCAD Mechanical 2004 DX|Company: Autodesk"
 90
        0
280
     0
281
     0
  0
CLASS
  1
ACMDATUMSTANDARDISO
  2
AcmDatumStdISO
  3
"Amdt_StdImp|Product Description: AutoCAD Mechanical 2004 DX|Company: Autodesk"
 90
        0
280
     0
281
     0
  0
CLASS
  1
ACMBOMSTANDARDISO
  2
AcmBOMStdISO
  3
"Amdt_StdImp|Product Description: AutoCAD Mechanical 2004 DX|Company: Autodesk"
 90
        0
280
     0
281
     0
  0
CLASS
  1
ACMDETAILSTANDARDISO
  2
AmdtDetailSymStdISO
  3
"Amdt_StdImp|Product Description: AutoCAD Mechanical 2004 DX|Company: Autodesk"
 90
        0
280
     0
281
     0
  0
CLASS
  1
ACMSECTIONSTANDARDISO
  2
AmdtSectionSymStdISO
  3
"Amdt_StdImp|Product Description: AutoCAD Mechanical 2004 DX|Company: Autodesk"
 90
        0
280
     0
281
     0
  0
CLASS
  1
ACMCENTERLINESTANDARDISO
  2
AmdtCenterLineStdISO
  3
"Amdt_StdImp|Product Description: AutoCAD Mechanical 2004 DX|Company: Autodesk"
 90
        0
280
     0
281
     0
  0
CLASS
  1
ACMNOTESTANDARDISO
  2
AmdtNoteStdISO
  3
"Amdt_StdImp|Product Description: AutoCAD Mechanical 2004 DX|Company: Autodesk"
 90
        0
280
     0
281
     0
  0
CLASS
  1
ACAMGLAYSTD
  2
AcAmgLayStd
  3
"AcAmgLayStd|Product Description: AutoCAD Mechanical 2000|Company: Autodesk"
 90
        0
280
     0
281
     0
  0
CLASS
  1
ACAMGDIMSTD
  2
AcAmgDimStd
  3
"AcAmgDimStd|Product Description: AutoCAD Mechanical 2000|Company: Autodesk"
 90
        0
280
     0
281
     0
  0
CLASS
  1
ACAMGHOLECHARTSTDISO
  2
AcAmgHoleChartStdISO
  3
ACMSYMBB_MODULE_NAME
 90
        0
280
     0
281
     0
  0
CLASS
  1
ACAMGTITLESTD
  2
AcAmgTitleStd
  3
"TITLEAPP"
 90
        0
280
     0
281
     0
  0
CLASS
  1
LAYER_INDEX
  2
AcDbLayerIndex
  3
ObjectDBX Classes
 90
    32768
280
     0
281
     0
  0
CLASS
  1
IDBUFFER
  2
AcDbIdBuffer
  3
ObjectDBX Classes
 90
    32768
280
     0
281
     0
  0
CLASS
  1
DICTIONARYVAR
  2
AcDbDictionaryVar
  3
ObjectDBX Classes
 90
        0
280
     0
281
     0
  0
CLASS
  1
AM_DRAWING_MGR
  2
AcDmDwgMgr
  3
AcMechDwgViewMgmt
 90
        0
280
     0
281
     0
  0
CLASS
  1
AM_DWG_DOCUMENT
  2
AcDmDwgDocument
  3
AcMechDwgViewMgmt
 90
        0
280
     0
281
     0
  0
CLASS
  1
AM_DWG_SHEET
  2
AcDmSheet
  3
AcMechDwgViewMgmt
 90
        0
280
     0
281
     0
  0
CLASS
  1
AM_VIEWDIMPARMAP
  2
AcDmViewDimParMap
  3
AcMechDwgViewMgmt
 90
        0
280
     0
281
     0
  0
CLASS
  1
AM_DWGMGR_NAME
  2
AcDmDwgMgrName
  3
AcMechDwgViewMgmt
 90
        0
280
     0
281
     0
  0
CLASS
  1
AMDTMENUSTATEMGR
  2
AmdtMenuStateMgr
  3
McadcomServices
 90
        0
280
     0
281
     0
  0
CLASS
  1
AMDTMCOMMENUSTATE
  2
AmdtMcomMenuState
  3
McadcomServices
 90
        0
280
     0
281
     0
  0
CLASS
  1
MAPIAMMOUDLE
  2
MApiAmModule
  3
MApiAmServices
 90
        0
280
     0
281
     0
  0
CLASS
  1
AMDTADMENUSTATE
  2
AmdtAdMenuState
  3
DesignerServices
 90
        0
280
     0
281
     0
  0
CLASS
  1
ADAPPL
  2
AcAdAppl
  3
DesignerServices
 90
        0
280
     0
281
     0
  0
CLASS
  1
DEPMGR
  2
AcAdDepMgr
  3
DesignerServices
 90
        0
280
     0
281
     0
  0
CLASS
  1
PARAMMGR
  2
AcAdParamMgr
  3
DesignerServices
 90
        0
280
     0
281
     0
  0
CLASS
  1
PARAMSCOPE
  2
AcAdParamScope
  3
DesignerServices
 90
        0
280
     0
281
     0
  0
CLASS
  1
NAMEDAPPL
  2
AcAdNamedAppl
  3
DesignerServices
 90
        0
280
     0
281
     0
  0
CLASS
  1
AMDTDMMENUSTATE
  2
AmdtDmMenuState
  3
AcMechDwgViewMgmt
 90
        0
280
     0
281
     0
  0
CLASS
  1
AMDTAMMENUSTATE
  2
AmdtAmMenuState
  3
DesignerAssemblies
 90
        0
280
     0
281
     0
  0
CLASS
  1
ACAMPROJECT
  2
AcAmProject
  3
DesignerAssemblies
 90
        0
280
     0
281
     0
  0
CLASS
  1
ACAMGRCOMPDEF
  2
AcAmGrCompDef
  3
DesignerAssemblies
 90
        0
280
     0
281
     0
  0
CLASS
  1
ACCMCONTEXT
  2
AcCmContext
  3
DesignerAssemblies
 90
        0
280
     0
281
     0
  0
CLASS
  1
ACAMCOMPDEF
  2
AcAmCompDef
  3
DesignerAssemblies
 90
        0
280
     0
281
     0
  0
CLASS
  1
ACAMCOMPDEFMGR
  2
AcAmCompDefMgr
  3
DesignerAssemblies
 90
        0
280
     0
281
     0
  0
CLASS
  1
AMCONTEXTMGR
  2
AcAmContextMgr
  3
DesignerAssemblies
 90
        0
280
     0
281
     0
  0
CLASS
  1
ACAMCONTEXTMODELER
  2
AcAmContextModeler
  3
DesignerAssemblies
 90
        0
280
     0
281
     0
  0
CLASS
  1
ACMTHREADLINESTANDARDISO
  2
AmdtThreadLineStdISO
  3
"Amdt_StdImp|Product Description: AutoCAD Mechanical 2004 DX|Company: Autodesk"
 90
        0
280
     0
281
     0
  0
CLASS
  1
CATALOGSTATE
  2
AcAmCatalogState
  3
DesignerAssemblies
 90
        0
280
     0
281
     0
  0
CLASS
  1
ACAMGRCOMPDEFSET
  2
AcAmGrCompDefSet
  3
DesignerAssemblies
 90
        0
280
     0
281
     0
  0
CLASS
  1
AMDTBROWSERDBTAB
  2
AmdtBrowserDbTab
  3
McadcomServices
 90
        0
280
     0
281
     0
  0
CLASS
  1
CBROWSERAPPOBJECT
  2
CBrowserAppObject
  3
McadcomServices
 90
        0
280
     0
281
     0
  0
CLASS
  1
DM_PLACEHOLDER
  2
AcDmSelsetPlaceholder
  3
AcMechDwgViewMgmt
 90
        0
280
     0
281
     0
  0
CLASS
  1
TABLESTYLE
  2
AcDbTableStyle
  3
ObjectDBX Classes
 90
     2047
280
     0
281
     0
  0
CLASS
  1
VAACXREFPANELOBJECT
  2
VaAcXREFPanelObject
  3
VAAC_ADDIN
 90
    32768
280
     0
281
     0
  0
CLASS
  1
VAACIMAGEINVENTORY
  2
VaAcImageInventory
  3
VAAC_ADDIN
 90
    32768
280
     0
281
     0
  0
CLASS
  1
AMDTNOTETEMPLATEDB
  2
AmdtNoteTemplateDB
  3
AMDT_STDIMP_MODULE_NAME
 90
        0
280
     0
281
     0
  0
CLASS
  1
ACMBOM
  2
AcmBom
  3
"AcmSymBB|Product Description: AutoCAD Mechanical 2004 DX|Company: Autodesk"
 90
    32768
280
     0
281
     0
  0
CLASS
  1
AMDTFORMULAUPDATEDISPATCHER
  2
AmdtFormulaUpdateDispatcher
  3
AcMeServices
 90
        0
280
     0
281
     0
  0
CLASS
  1
ACMPARTLIST
  2
AcmPartList
  3
"AcmSymBB|Product Description: AutoCAD Mechanical 2004 DX|Company: Autodesk"
 90
    33791
280
     0
281
     1
  0
CLASS
  1
ACAMGFILTERDAT
  2
AcAmgFilterDat
  3
"AcadM|Product Description: AutoCAD Mechanical 2000|Company: Autodesk"
 90
        0
280
     0
281
     0
  0
CLASS
  1
DIMASSOC
  2
AcDbDimAssoc
  3
"AcDbDimAssoc|Product Desc:     AcDim ARX App For Dimension|Company:          Autodesk, Inc.|WEB Address:      www.autodesk.com"
 90
        0
280
     0
281
     0
  0
CLASS
  1
SORTENTSTABLE
  2
AcDbSortentsTable
  3
ObjectDBX Classes
 90
        0
280
     0
281
     0
  0
CLASS
  1
AMDTNOTE
  2
AmdtNote
  3
"AcmSymBB|Product Description: AutoCAD Mechanical 2004 DX|Company: Autodesk"
 90
     1023
280
     0
281
     1
  0
CLASS
  1
STDPART2D
  2
AmgStdPart
  3
"AmgStdPart|Product Description: AutoCAD Mechanical 2000|Company: Autodesk"
 90
    33791
280
     0
281
     1
  0
CLASS
  1
ACAMSTDPCOMPDEF
  2
AcAmStdpCompDef
  3
DesignerAssemblies
 90
    32768
280
     0
281
     0
  0
CLASS
  1
ACRFATTGENMGR
  2
AcRfAttGeneralMgr
  3
AcAttribServices
 90
        0
280
     0
281
     0
  0
CLASS
  1
ACRFOBJATTMGR
  2
AcRfObjAttGroupMgr
  3
AcAttribServices
 90
    32768
280
     0
281
     0
  0
CLASS
  1
ACRFMCADAPIATTHOLDER
  2
AcRfMCADAPIAttHolder
  3
AcAttribServices
 90
    32768
280
     0
281
     0
  0
CLASS
  1
AMDTSYSATTR
  2
AmdtSystemAttribute
  3
AcAttribServices
 90
    32768
280
     0
281
     0
  0
CLASS
  1
ACAMCOMP
  2
AcAmComp
  3
DesignerAssemblies
 90
    32768
280
     0
281
     0
  0
CLASS
  1
AC_AM_STDP_VIEW_DEF
  2
AcAmStdpViewDef
  3
DesignerAssemblies
 90
    32768
280
     0
281
     0
  0
CLASS
  1
AC_AM_MVD_DEP_MGR
  2
AcAmMVDdepMgr
  3
DesignerAssemblies
 90
        0
280
     0
281
     0
  0
CLASS
  1
AC_AM_MASTER_VIEW_DEF
  2
AcAmMasterViewDef
  3
DesignerAssemblies
 90
        0
280
     0
281
     0
  0
CLASS
  1
AC_AM_DIRTY_NODES
  2
AcAmDirtyNodes
  3
DesignerAssemblies
 90
        0
280
     0
281
     0
  0
CLASS
  1
AC_AM_MAPPER_CACHE
  2
AcAmMapperCache
  3
DesignerAssemblies
 90
        0
280
     0
281
     0
  0
CLASS
  1
ACAMMVDBACKUPOBJECT
  2
AcAmMVDBackupObject
  3
DesignerAssemblies
 90
        0
280
     0
281
     0
  0
CLASS
  1
AC_AM_COMP_VIEW_INST
  2
AcAmCompView
  3
DesignerAssemblies
 90
    32768
280
     0
281
     0
  0
CLASS
  1
AC_AM_2D_XREF_MGR
  2
AcAmXrefMgr2d
  3
DesignerAssemblies
 90
        0
280
     0
281
     0
  0
ENDSEC
  0
SECTION
  2
TABLES
  0
TABLE
  2
VPORT
  5
8
330
0
100
AcDbSymbolTable
 70
    93
  0
VPORT
  5
1659
330
8
100
AcDbSymbolTableRecord
100
AcDbViewportTableRecord
  2
*Active
 70
     0
 10
0.0
 20
0.0
 11
1.0
 21
1.0
 12
663.7785792083432
 22
252.5490602203424
 13
0.0
 23
0.0
 14
2.5
 24
2.5
 15
10.0
 25
10.0
 16
0.0
 26
0.0
 36
1.0
 17
0.0
 27
0.0
 37
0.0
 40
267.9525695911409
 41
1.609210526315789
 42
50.0
 43
0.0
 44
0.0
 50
0.0
 51
0.0
 71
     0
 72
   100
 73
     1
 74
     3
 75
     0
 76
     0
 77
     0
 78
     0
281
     0
 65
     1
110
0.0
120
0.0
130
0.0
111
1.0
121
0.0
131
0.0
112
0.0
122
1.0
132
0.0
 79
     0
146
0.0
  0
ENDTAB
  0
TABLE
  2
LTYPE
  5
5
330
0
100
AcDbSymbolTable
 70
    14
  0
LTYPE
  5
14
330
5
100
AcDbSymbolTableRecord
100
AcDbLinetypeTableRecord
  2
ByBlock
 70
     0
  3

 72
    65
 73
     0
 40
0.0
  0
LTYPE
  5
15
330
5
100
AcDbSymbolTableRecord
100
AcDbLinetypeTableRecord
  2
ByLayer
 70
     0
  3

 72
    65
 73
     0
 40
0.0
  0
LTYPE
  5
16
330
5
100
AcDbSymbolTableRecord
100
AcDbLinetypeTableRecord
  2
Continuous
 70
     0
  3
Solid line
 72
    65
 73
     0
 40
0.0
  0
LTYPE
  5
64
330
5
100
AcDbSymbolTableRecord
100
AcDbLinetypeTableRecord
  2
AM_ISO02W050
 70
     0
  3
__ __ __ __ __ __ __ __ __ __ __ __ __ __ __
 72
    65
 73
     2
 40
7.5
 49
6.0
 74
     0
 49
-1.5
 74
     0
  0
LTYPE
  5
65
330
5
100
AcDbSymbolTableRecord
100
AcDbLinetypeTableRecord
  2
AM_ISO08W050
 70
     0
  3
____ . ____ . ____ . ____ . ____ . ____ . ____
 72
    65
 73
     4
 40
18.0
 49
12.0
 74
     0
 49
-1.5
 74
     0
 49
3.0
 74
     0
 49
-1.5
 74
     0
  0
LTYPE
  5
66
330
5
100
AcDbSymbolTableRecord
100
AcDbLinetypeTableRecord
  2
AM_ISO09W050
 70
     0
  3
_____ . . _____ . . _____ . . ____ .. ____
 72
    65
 73
     6
 40
22.5
 49
12.0
 74
     0
 49
-1.5
 74
     0
 49
3.0
 74
     0
 49
-1.5
 74
     0
 49
3.0
 74
     0
 49
-1.5
 74
     0
  0
LTYPE
  5
67
330
5
100
AcDbSymbolTableRecord
100
AcDbLinetypeTableRecord
  2
Amconstr
 70
     0
  3
_______________________
 72
    65
 73
     2
 40
9999.0
 49
9999.0
 74
     0
 49
0.0
 74
     0
  0
LTYPE
  5
68
330
5
100
AcDbSymbolTableRecord
100
AcDbLinetypeTableRecord
  2
AM_ISO08W050x2
 70
     0
  3
__ . __ . __ . __ . __ . __
 72
    65
 73
     4
 40
9.0
 49
6.0
 74
     0
 49
-0.75
 74
     0
 49
1.5
 74
     0
 49
-0.75
 74
     0
  0
LTYPE
  5
69
330
5
100
AcDbSymbolTableRecord
100
AcDbLinetypeTableRecord
  2
AM_ISO02W050x2
 70
     0
  3
 _ _ _ _ _ _ _ _ _ _ _ _
 72
    65
 73
     2
 40
3.75
 49
3.0
 74
     0
 49
-0.75
 74
     0
  0
LTYPE
  5
6C
330
5
100
AcDbSymbolTableRecord
100
AcDbLinetypeTableRecord
  2
Amzigzag
 70
     0
  3
/\/-/\/-/\/-/\/-/\/-/\/
 72
    65
 73
     2
 40
11.0001
 49
0.0001
 74
     4
 75
   135
340
6B
 46
0.04
 50
0.0
 44
0.0
 45
0.0
 49
-11.0
 74
     0
  0
LTYPE
  5
7A
330
5
100
AcDbSymbolTableRecord
100
AcDbLinetypeTableRecord
  2
ACISOWELD
 70
     0
  3
_ _ _ _ _
 72
    65
 73
     2
 40
2.0
 49
2.0
 74
     0
 49
-1.0
 74
     0
  0
LTYPE
  5
7B
330
5
100
AcDbSymbolTableRecord
100
AcDbLinetypeTableRecord
  2
ACISOTGB
 70
     0
  3
__ . . __ . .
 72
    65
 73
     6
 40
9.0
 49
4.0
 74
     0
 49
-1.0
 74
     0
 49
1.0
 74
     0
 49
-1.0
 74
     0
 49
1.0
 74
     0
 49
-1.0
 74
     0
  0
LTYPE
  5
7C
330
5
100
AcDbSymbolTableRecord
100
AcDbLinetypeTableRecord
  2
ACISOTGL
 70
     0
  3
_ _ _ _ _
 72
    65
 73
     2
 40
3.0
 49
2.0
 74
     0
 49
-1.0
 74
     0
  0
LTYPE
  5
7E
330
5
100
AcDbSymbolTableRecord
100
AcDbLinetypeTableRecord
  2
CENTER
 70
     0
  3
__ . __
 72
    65
 73
     4
 40
7.0
 49
4.0
 74
     0
 49
-1.0
 74
     0
 49
1.0
 74
     0
 49
-1.0
 74
     0
  0
LTYPE
  5
D8
330
5
100
AcDbSymbolTableRecord
100
AcDbLinetypeTableRecord
  2
HIDDEN
 70
     0
  3
Hidden __ __ __ __ __ __ __ __ __ __ __ __ __ _
 72
    65
 73
     2
 40
9.524999999999998
 49
6.349999999999999
 74
     0
 49
-3.174999999999999
 74
     0
  0
LTYPE
  5
D9
330
5
100
AcDbSymbolTableRecord
100
AcDbLinetypeTableRecord
  2
PHANTOM2
 70
     0
  3
Phantom (.5x) ___ _ _ ___ _ _ ___ _ _ ___ _ _
 72
    65
 73
     6
 40
31.75
 49
15.875
 74
     0
 49
-3.174999999999999
 74
     0
 49
3.174999999999999
 74
     0
 49
-3.174999999999999
 74
     0
 49
3.174999999999999
 74
     0
 49
-3.174999999999999
 74
     0
  0
ENDTAB
  0
TABLE
  2
LAYER
  5
2
102
{ACAD_XDICTIONARY
360
3F9
102
}
330
0
100
AcDbSymbolTable
 70
    12
  0
LAYER
  5
10
330
2
100
AcDbSymbolTableRecord
100
AcDbLayerTableRecord
  2
0
 70
     0
 62
     7
  6
Continuous
370
    -3
390
F
  0
LAYER
  5
AC8
330
2
100
AcDbSymbolTableRecord
100
AcDbLayerTableRecord
  2
Defpoints
 70
     0
 62
     7
  6
Continuous
290
     0
370
    -3
390
F
  0
LAYER
  5
AC9
330
2
100
AcDbSymbolTableRecord
100
AcDbLayerTableRecord
  2
AM_7
 70
     0
 62
     1
  6
CENTER
370
    25
390
F
  0
LAYER
  5
ACA
330
2
100
AcDbSymbolTableRecord
100
AcDbLayerTableRecord
  2
AM_VIS
 70
     0
 62
     7
  6
Continuous
370
    50
390
F
  0
LAYER
  5
ACB
330
2
100
AcDbSymbolTableRecord
100
AcDbLayerTableRecord
  2
AM_5
 70
     0
 62
     5
  6
Continuous
370
    50
390
F
  0
LAYER
  5
ACC
330
2
100
AcDbSymbolTableRecord
100
AcDbLayerTableRecord
  2
LOGO
 70
     0
 62
     7
  6
Continuous
370
    -3
390
F
  0
LAYER
  5
ACD
330
2
100
AcDbSymbolTableRecord
100
AcDbLayerTableRecord
  2
SL
 70
     0
 62
     4
  6
Continuous
370
    -3
390
F
1001
AcAecLayerStandard
1000

1000

  0
LAYER
  5
10FD
330
2
100
AcDbSymbolTableRecord
100
AcDbLayerTableRecord
  2
AM_0
 70
     0
 62
     7
  6
Continuous
370
    50
390
F
  0
LAYER
  5
1122
330
2
100
AcDbSymbolTableRecord
100
AcDbLayerTableRecord
  2
AM_4
 70
     0
 62
     3
  6
Continuous
370
    25
390
F
  0
ENDTAB
  0
TABLE
  2
STYLE
  5
3
330
0
100
AcDbSymbolTable
 70
     7
  0
STYLE
  5
11
330
3
100
AcDbSymbolTableRecord
100
AcDbTextStyleTableRecord
  2
STANDARD
 70
     0
 40
0.0
 41
1.0
 50
0.0
 71
     0
 42
3.0
  3
ISOCP.SHX
  4
CHINESET.SHX
  0
STYLE
  5
6B
330
3
100
AcDbSymbolTableRecord
100
AcDbTextStyleTableRecord
  2

 70
     1
 40
0.0
 41
1.0
 50
0.0
 71
     0
 42
2.5
  3
ltypeshp.shx
  4

  0
STYLE
  5
6D
330
3
100
AcDbSymbolTableRecord
100
AcDbTextStyleTableRecord
  2
ACISOTS
 70
     0
 40
1.0
 41
1.0
 50
0.0
 71
     0
 42
1.0
  3
isocp.shx
  4
chineset.shx
  0
STYLE
  5
79
330
3
100
AcDbSymbolTableRecord
100
AcDbTextStyleTableRecord
  2
ACISOGDT
 70
     0
 40
0.0
 41
1.0
 50
0.0
 71
     0
 42
2.5
  3
amgdt.shx
  4
chineset.shx
  0
STYLE
  5
ACE
330
3
100
AcDbSymbolTableRecord
100
AcDbTextStyleTableRecord
  2
CHINESET
 70
     0
 40
0.0
 41
1.0
 50
0.0
 71
     0
 42
3.0
  3
simplex.shx
  4
CHINESET.SHX
  0
ENDTAB
  0
TABLE
  2
VIEW
  5
6
330
0
100
AcDbSymbolTable
 70
     0
  0
ENDTAB
  0
TABLE
  2
UCS
  5
7
330
0
100
AcDbSymbolTable
 70
     0
  0
ENDTAB
  0
TABLE
  2
APPID
  5
9
330
0
100
AcDbSymbolTable
 70
    26
  0
APPID
  5
12
330
9
100
AcDbSymbolTableRecord
100
AcDbRegAppTableRecord
  2
ACAD
 70
     0
  0
APPID
  5
46
330
9
100
AcDbSymbolTableRecord
100
AcDbRegAppTableRecord
  2
MCAD_NO_VIS
 70
     0
  0
APPID
  5
47
330
9
100
AcDbSymbolTableRecord
100
AcDbRegAppTableRecord
  2
ACAD_TEMP_GRAPHIC
 70
     0
  0
APPID
  5
58
330
9
100
AcDbSymbolTableRecord
100
AcDbRegAppTableRecord
  2
ACATTRIBSERVICES
 70
     0
  0
APPID
  5
EE
330
9
100
AcDbSymbolTableRecord
100
AcDbRegAppTableRecord
  2
AD_DRAW
 70
     0
  0
APPID
  5
10C
330
9
100
AcDbSymbolTableRecord
100
AcDbRegAppTableRecord
  2
DESIGNERASSEMBLIES
 70
     0
  0
APPID
  5
111
330
9
100
AcDbSymbolTableRecord
100
AcDbRegAppTableRecord
  2
ACADM_DIM_EDIT
 70
     0
  0
APPID
  5
112
330
9
100
AcDbSymbolTableRecord
100
AcDbRegAppTableRecord
  2
AMDT_DM_ADJ
 70
     0
  0
APPID
  5
22C
330
9
100
AcDbSymbolTableRecord
100
AcDbRegAppTableRecord
  2
ACAD_DSTYLE_DIMTEXT_FILL
 70
     0
  0
APPID
  5
452
330
9
100
AcDbSymbolTableRecord
100
AcDbRegAppTableRecord
  2
GENIUS_GENOENT_13
 70
     0
  0
APPID
  5
453
330
9
100
AcDbSymbolTableRecord
100
AcDbRegAppTableRecord
  2
GENIUS_GENOBJ-N-CRS_13
 70
     0
  0
APPID
  5
454
330
9
100
AcDbSymbolTableRecord
100
AcDbRegAppTableRecord
  2
GENIUS_GENOLIS_13
 70
     0
  0
APPID
  5
455
330
9
100
AcDbSymbolTableRecord
100
AcDbRegAppTableRecord
  2
GENIUS_GENODEF_13
 70
     0
  0
APPID
  5
456
330
9
100
AcDbSymbolTableRecord
100
AcDbRegAppTableRecord
  2
GENIUS_GENOREF_13
 70
     0
  0
APPID
  5
6F3
330
9
100
AcDbSymbolTableRecord
100
AcDbRegAppTableRecord
  2
ACAD_PSEXT
 70
     0
  0
APPID
  5
808
330
9
100
AcDbSymbolTableRecord
100
AcDbRegAppTableRecord
  2
GENIUS_GENDTOL_13
 70
     0
  0
APPID
  5
ACF
330
9
100
AcDbSymbolTableRecord
100
AcDbRegAppTableRecord
  2
GENIUS_GENREC_14
 70
     0
  0
APPID
  5
AD0
330
9
100
AcDbSymbolTableRecord
100
AcDbRegAppTableRecord
  2
GENIUS_GENOBJ-N-REC_13
 70
     0
  0
APPID
  5
AD1
330
9
100
AcDbSymbolTableRecord
100
AcDbRegAppTableRecord
  2
AcAecLayerStandard
 70
     0
  0
APPID
  5
10D3
330
9
100
AcDbSymbolTableRecord
100
AcDbRegAppTableRecord
  2
GENIUS_GENOBJ-N-CEN_13
 70
     0
  0
APPID
  5
10D4
330
9
100
AcDbSymbolTableRecord
100
AcDbRegAppTableRecord
  2
GENIUS_GENCEN_19
 70
     0
  0
APPID
  5
1104
330
9
100
AcDbSymbolTableRecord
100
AcDbRegAppTableRecord
  2
GEVID1159932960
 70
     0
  0
APPID
  5
1105
330
9
100
AcDbSymbolTableRecord
100
AcDbRegAppTableRecord
  2
GEVDC
 70
     0
  0
APPID
  5
110E
330
9
100
AcDbSymbolTableRecord
100
AcDbRegAppTableRecord
  2
AMG_2DHIDE
 70
     0
  0
APPID
  5
110F
330
9
100
AcDbSymbolTableRecord
100
AcDbRegAppTableRecord
  2
AMG_2DSTRUCT_BTR
 70
     0
  0
APPID
  5
1120
330
9
100
AcDbSymbolTableRecord
100
AcDbRegAppTableRecord
  2
ACADM_2DVIEW_IGN_NOTIFY
 70
     0
  0
ENDTAB
  0
TABLE
  2
DIMSTYLE
  5
A
330
0
100
AcDbSymbolTable
 70
    10
100
AcDbDimStyleTable
 71
     3
340
81
340
8B
340
86
  0
DIMSTYLE
105
81
330
A
100
AcDbSymbolTableRecord
100
AcDbDimStyleTableRecord
  2
AM_ISO
 70
     0
  4
"
 41
3.0
 42
1.0
 43
8.0
 44
1.5
 47
0.1
 48
0.1
 73
     0
 74
     0
 77
     1
 78
     8
 79
     2
140
3.5
141
0.0
143
0.0393701
146
0.6
147
0.7
172
     1
176
   256
177
   256
178
   256
271
     2
272
     2
283
     0
284
     8
340
11
371
    -1
372
    -1
  0
DIMSTYLE
105
82
330
A
100
AcDbSymbolTableRecord
100
AcDbDimStyleTableRecord
  2
AM_ISO$3
 70
     0
  4
"
 41
3.0
 42
1.0
 43
8.0
 44
1.5
 47
0.1
 48
0.1
 73
     0
 77
     1
 78
     8
 79
     2
140
3.5
141
0.0
143
0.0393701
146
0.6
147
0.7
176
   256
177
   256
178
   256
271
     2
272
     2
283
     0
284
     8
288
     1
289
     0
340
11
371
    -1
372
    -1
  0
DIMSTYLE
105
83
330
A
100
AcDbSymbolTableRecord
100
AcDbDimStyleTableRecord
  2
AM_ISO$4
 70
     0
  4
"
 41
3.0
 42
1.0
 43
8.0
 44
1.5
 47
0.1
 48
0.1
 73
     0
 77
     1
 78
     8
 79
     2
140
3.5
141
0.0
143
0.0393701
146
0.6
147
0.7
176
   256
177
   256
178
   256
271
     2
272
     2
283
     0
284
     8
288
     1
289
     0
340
11
371
    -1
372
    -1
  0
DIMSTYLE
105
84
330
A
100
AcDbSymbolTableRecord
100
AcDbDimStyleTableRecord
  2
AM_ISO$6
 70
     0
  4
"
 41
3.0
 42
1.0
 43
8.0
 44
1.5
 47
0.1
 48
0.1
 73
     0
 74
     0
 78
     8
 79
     2
140
3.5
141
0.0
143
0.0393701
146
0.6
147
0.7
172
     1
176
   256
177
   256
178
   256
271
     2
272
     2
283
     0
284
     8
340
11
371
    -1
372
    -1
  0
DIMSTYLE
105
85
330
A
100
AcDbSymbolTableRecord
100
AcDbDimStyleTableRecord
  2
AM_ISO$7
 70
     0
  4
"
 41
3.0
 42
1.0
 43
8.0
 44
1.5
 47
0.1
 48
0.1
 73
     0
 74
     0
 77
     1
 78
     8
 79
     2
140
5.0
141
0.0
143
0.0393701
146
0.6
147
0.7
172
     1
176
   256
177
   256
178
   256
271
     2
272
     2
283
     0
284
     8
340
11
371
    -1
372
    -1
  0
DIMSTYLE
105
86
330
A
100
AcDbSymbolTableRecord
100
AcDbDimStyleTableRecord
  2
AM_ISO$SF
 70
     0
  4
"
 41
2.5
 42
1.0
 43
10.0
 44
1.0
 47
0.1
 48
0.1
 73
     0
 74
     0
 75
     1
 76
     1
 77
     1
 78
     8
 79
     2
140
3.5
141
0.0
143
0.0393701
146
0.71
147
1.5
172
     1
176
   256
177
   256
178
     2
271
     2
272
     3
274
     4
283
     0
284
     8
340
11
371
    -1
372
    -1
  0
DIMSTYLE
105
8B
330
A
100
AcDbSymbolTableRecord
100
AcDbDimStyleTableRecord
  2
AM_ISO$SH
 70
     0
  4
"
 41
2.5
 42
1.0
 43
10.0
 44
1.0
 47
0.1
 48
0.1
 73
     0
 74
     0
 75
     1
 76
     1
 77
     1
 78
     8
 79
     2
140
3.5
141
0.0
143
0.0393701
144
2.0
146
0.71
147
1.5
172
     1
173
     1
176
   256
177
   256
178
     2
271
     2
272
     3
274
     4
283
     0
284
     8
340
11
343
87
371
    -1
372
    -1
  0
DIMSTYLE
105
40B
102
{ACAD_REACTORS
330
126C
330
126D
330
126E
330
126F
330
1270
330
1271
330
13DC
330
1402
102
}
330
A
100
AcDbSymbolTableRecord
100
AcDbDimStyleTableRecord
  2
AM_ISO$0
 70
     0
  4
"
 41
3.0
 42
1.0
 43
8.0
 44
1.5
 47
0.1
 48
0.1
 73
     0
 74
     0
 77
     1
 78
     8
 79
     2
140
3.5
141
0.0
143
0.0393701
146
0.6
147
0.7
172
     1
176
   256
177
   256
178
   256
271
     2
272
     2
283
     0
284
     8
340
11
371
    -1
372
    -1
  0
ENDTAB
  0
TABLE
  2
BLOCK_RECORD
  5
1
330
0
100
AcDbSymbolTable
 70
    42
  0
BLOCK_RECORD
  5
1F
102
{ACAD_XDICTIONARY
360
8F
102
}
330
1
100
AcDbSymbolTableRecord
100
AcDbBlockTableRecord
  2
*Model_Space
340
22
  0
BLOCK_RECORD
  5
1B
330
1
100
AcDbSymbolTableRecord
100
AcDbBlockTableRecord
  2
*Paper_Space
340
1E
  0
BLOCK_RECORD
  5
23
330
1
100
AcDbSymbolTableRecord
100
AcDbBlockTableRecord
  2
*Paper_Space0
340
26
  0
BLOCK_RECORD
  5
87
330
1
100
AcDbSymbolTableRecord
100
AcDbBlockTableRecord
  2
GENAXEH
340
0
  0
BLOCK_RECORD
  5
AB9
102
{ACAD_XDICTIONARY
360
ABA
102
}
330
1
100
AcDbSymbolTableRecord
100
AcDbBlockTableRecord
  2
A$C6EA13D03
340
0
102
{BLKREFS
331
F4E
102
}
  0
BLOCK_RECORD
  5
ABF
102
{ACAD_XDICTIONARY
360
AC0
102
}
330
1
100
AcDbSymbolTableRecord
100
AcDbBlockTableRecord
  2
A$C7A070E72
340
0
102
{BLKREFS
331
1519
102
}
  0
BLOCK_RECORD
  5
1125
330
1
100
AcDbSymbolTableRecord
100
AcDbBlockTableRecord
  2
*U15
340
0
  0
BLOCK_RECORD
  5
12DC
330
1
100
AcDbSymbolTableRecord
100
AcDbBlockTableRecord
  2
*D27
340
0
  0
BLOCK_RECORD
  5
12E8
330
1
100
AcDbSymbolTableRecord
100
AcDbBlockTableRecord
  2
*D28
340
0
  0
BLOCK_RECORD
  5
12F4
330
1
100
AcDbSymbolTableRecord
100
AcDbBlockTableRecord
  2
*D29
340
0
  0
BLOCK_RECORD
  5
1300
330
1
100
AcDbSymbolTableRecord
100
AcDbBlockTableRecord
  2
*D30
340
0
  0
BLOCK_RECORD
  5
130C
330
1
100
AcDbSymbolTableRecord
100
AcDbBlockTableRecord
  2
*D31
340
0
  0
BLOCK_RECORD
  5
1318
330
1
100
AcDbSymbolTableRecord
100
AcDbBlockTableRecord
  2
*D32
340
0
  0
BLOCK_RECORD
  5
13DD
330
1
100
AcDbSymbolTableRecord
100
AcDbBlockTableRecord
  2
*D35
340
0
  0
BLOCK_RECORD
  5
1403
330
1
100
AcDbSymbolTableRecord
100
AcDbBlockTableRecord
  2
*D36
340
0
  0
BLOCK_RECORD
  5
15B1
102
{ACAD_XDICTIONARY
360
15C4
102
}
330
1
100
AcDbSymbolTableRecord
100
AcDbBlockTableRecord
  2
A$C181F13BF
340
0
102
{BLKREFS
331
15C8
102
}
  0
BLOCK_RECORD
  5
1647
330
1
100
AcDbSymbolTableRecord
100
AcDbBlockTableRecord
  2
*S40
340
0
  0
BLOCK_RECORD
  5
164F
330
1
100
AcDbSymbolTableRecord
100
AcDbBlockTableRecord
  2
*S41
340
0
  0
ENDTAB
  0
ENDSEC
  0
SECTION
  2
BLOCKS
  0
BLOCK
  5
20
330
1F
100
AcDbEntity
  8
0
100
AcDbBlockBegin
  2
*Model_Space
 70
     0
 10
0.0
 20
0.0
 30
0.0
  3
*Model_Space
  1

  0
ENDBLK
  5
21
330
1F
100
AcDbEntity
  8
0
100
AcDbBlockEnd
  0
BLOCK
  5
1C
330
1B
100
AcDbEntity
 67
     1
  8
0
100
AcDbBlockBegin
  2
*Paper_Space
 70
     0
 10
0.0
 20
0.0
 30
0.0
  3
*Paper_Space
  1

  0
ENDBLK
  5
1D
330
1B
100
AcDbEntity
 67
     1
  8
0
100
AcDbBlockEnd
  0
BLOCK
  5
24
330
23
100
AcDbEntity
  8
0
100
AcDbBlockBegin
  2
*Paper_Space0
 70
     0
 10
0.0
 20
0.0
 30
0.0
  3
*Paper_Space0
  1

  0
ENDBLK
  5
25
330
23
100
AcDbEntity
  8
0
100
AcDbBlockEnd
  0
BLOCK
  5
89
330
87
100
AcDbEntity
  8
0
100
AcDbBlockBegin
  2
GENAXEH
 70
     0
 10
0.0
 20
0.0
 30
0.0
  3
GENAXEH
  1

  0
LINE
  5
88
330
87
100
AcDbEntity
  8
0
100
AcDbLine
 10
-1.0
 20
0.0
 30
0.0
 11
1.0
 21
0.0
 31
0.0
  0
ENDBLK
  5
8A
330
87
100
AcDbEntity
  8
0
100
AcDbBlockEnd
  0
BLOCK
  5
ABB
330
AB9
100
AcDbEntity
  8
0
100
AcDbBlockBegin
  2
A$C6EA13D03
 70
     0
 10
0.0
 20
0.0
 30
0.0
  3
A$C6EA13D03
  1

  0
CIRCLE
  5
ABC
330
AB9
100
AcDbEntity
  8
0
100
AcDbCircle
 10
-1.67871680252756
 20
1.553735836091391
 30
0.0
 40
0.5114189482687835
  0
CIRCLE
  5
ABD
330
AB9
100
AcDbEntity
  8
0
100
AcDbCircle
 10
-1.67871680252756
 20
1.553735836091391
 30
0.0
 40
0.8573095028873467
  0
ENDBLK
  5
ABE
330
AB9
100
AcDbEntity
  8
0
100
AcDbBlockEnd
  0
BLOCK
  5
AC2
330
ABF
100
AcDbEntity
  8
0
100
AcDbBlockBegin
  2
A$C7A070E72
 70
     0
 10
0.0
 20
0.0
 30
0.0
  3
A$C7A070E72
  1

  0
LINE
  5
AC3
330
ABF
100
AcDbEntity
  8
SL
100
AcDbLine
 10
0.0
 20
0.0
 30
0.0
 11
-8.230564998653335
 21
0.0
 31
0.0
  0
LINE
  5
AC4
330
ABF
100
AcDbEntity
  8
SL
100
AcDbLine
 10
-8.230564998653335
 20
0.0
 30
0.0
 11
-13.61770029913123
 21
0.0
 31
0.0
  0
TRACE
  5
AC5
330
ABF
100
AcDbEntity
  8
SL
370
    35
100
AcDbTrace
 10
-13.61770029913123
 20
0.6911756092499673
 30
0.0
 11
-13.61770029913123
 21
-0.6911756092499673
 31
0.0
 12
-18.86770029913123
 22
0.0
 32
0.0
 13
-18.86770029913123
 23
0.0
 33
0.0
  0
MTEXT
  5
AC6
330
ABF
100
AcDbEntity
  8
SL
100
AcDbMText
 10
-8.962027744090391
 20
1.440451871730829
 30
0.0
 40
3.674999999999999
 41
0.0
 71
     7
 72
     5
  1
SL
  7
ACISOTS
 73
     1
 44
1.0
1001
ACAD
1000
MTEXTBEGIN
1070
    73
1070
     1
1070
    44
1040
1.0
1070
    74
1070
     0
1000
MTEXTEND
  0
ENDBLK
  5
AC7
330
ABF
100
AcDbEntity
  8
0
100
AcDbBlockEnd
  0
BLOCK
  5
1126
330
1125
100
AcDbEntity
  8
0
100
AcDbBlockBegin
  2
*U15
 70
     1
 10
0.0
 20
0.0
 30
0.0
  3
*U15
  1

  0
ENDBLK
  5
1127
330
1125
100
AcDbEntity
  8
0
100
AcDbBlockEnd
  0
BLOCK
  5
12E6
330
12DC
100
AcDbEntity
  8
0
100
AcDbBlockBegin
  2
*D27
 70
     1
 10
0.0
 20
0.0
 30
0.0
  3
*D27
  1

  0
LINE
  5
14D0
330
12DC
100
AcDbEntity
  8
AM_5
100
AcDbLine
 10
543.8353202460011
 20
301.4237131408461
 30
0.0
 11
530.3353202460011
 21
301.4237131408461
 31
0.0
  0
LINE
  5
14D1
330
12DC
100
AcDbEntity
  8
AM_5
100
AcDbLine
 10
543.8353202460011
 20
279.9237131408461
 30
0.0
 11
530.3353202460011
 21
279.9237131408461
 31
0.0
  0
LINE
  5
14D2
330
12DC
100
AcDbEntity
  8
AM_5
100
AcDbLine
 10
531.8353202460011
 20
298.4237131408461
 30
0.0
 11
531.8353202460011
 21
282.9237131408461
 31
0.0
  0
SOLID
  5
14D3
330
12DC
100
AcDbEntity
  8
AM_5
100
AcDbTrace
 10
531.3353202460011
 20
298.4237131408461
 30
0.0
 11
532.3353202460011
 21
298.4237131408461
 31
0.0
 12
531.8353202460011
 22
301.4237131408461
 32
0.0
 13
531.8353202460011
 23
301.4237131408461
 33
0.0
  0
SOLID
  5
14D4
330
12DC
100
AcDbEntity
  8
AM_5
100
AcDbTrace
 10
531.3353202460011
 20
282.9237131408461
 30
0.0
 11
532.3353202460011
 21
282.9237131408461
 31
0.0
 12
531.8353202460011
 22
279.9237131408461
 32
0.0
 13
531.8353202460011
 23
279.9237131408461
 33
0.0
  0
MTEXT
  5
14D5
330
12DC
100
AcDbEntity
  8
AM_5
100
AcDbMText
 10
529.384975757812
 20
290.6737131408462
 30
0.0
 40
3.5
 41
0.0
 71
     5
 72
     1
  1
21.5
 11
0.0000000000000001
 21
1.0
 31
0.0
 73
     1
 44
1.0
1001
ACAD
1000
MTEXTBEGIN
1070
    73
1070
     1
1070
    44
1040
1.0
1070
    74
1070
     0
1000
MTEXTEND
  0
POINT
  5
14D6
330
12DC
100
AcDbEntity
  8
Defpoints
 62
     0
100
AcDbPoint
 10
544.8353202460011
 20
301.4237131408461
 30
0.0
  0
POINT
  5
14D7
330
12DC
100
AcDbEntity
  8
Defpoints
 62
     0
100
AcDbPoint
 10
544.8353202460011
 20
279.9237131408461
 30
0.0
  0
POINT
  5
14D8
330
12DC
100
AcDbEntity
  8
Defpoints
 62
     0
100
AcDbPoint
 10
531.8353202460011
 20
279.9237131408461
 30
0.0
  0
ENDBLK
  5
12E7
330
12DC
100
AcDbEntity
  8
0
100
AcDbBlockEnd
  0
BLOCK
  5
12F2
330
12E8
100
AcDbEntity
  8
0
100
AcDbBlockBegin
  2
*D28
 70
     1
 10
0.0
 20
0.0
 30
0.0
  3
*D28
  1

  0
LINE
  5
14D9
330
12E8
100
AcDbEntity
  8
AM_5
100
AcDbLine
 10
543.8353202460011
 20
279.9237131408461
 30
0.0
 11
530.3353202460011
 21
279.9237131408461
 31
0.0
  0
LINE
  5
14DA
330
12E8
100
AcDbEntity
  8
AM_5
100
AcDbLine
 10
543.8353202460011
 20
258.4237131408461
 30
0.0
 11
530.3353202460011
 21
258.4237131408461
 31
0.0
  0
LINE
  5
14DB
330
12E8
100
AcDbEntity
  8
AM_5
100
AcDbLine
 10
531.8353202460011
 20
276.9237131408461
 30
0.0
 11
531.8353202460011
 21
261.4237131408461
 31
0.0
  0
SOLID
  5
14DC
330
12E8
100
AcDbEntity
  8
AM_5
100
AcDbTrace
 10
531.3353202460011
 20
276.9237131408461
 30
0.0
 11
532.3353202460011
 21
276.9237131408461
 31
0.0
 12
531.8353202460011
 22
279.9237131408461
 32
0.0
 13
531.8353202460011
 23
279.9237131408461
 33
0.0
  0
SOLID
  5
14DD
330
12E8
100
AcDbEntity
  8
AM_5
100
AcDbTrace
 10
531.3353202460011
 20
261.4237131408461
 30
0.0
 11
532.3353202460011
 21
261.4237131408461
 31
0.0
 12
531.8353202460011
 22
258.4237131408461
 32
0.0
 13
531.8353202460011
 23
258.4237131408461
 33
0.0
  0
MTEXT
  5
14DE
330
12E8
100
AcDbEntity
  8
AM_5
100
AcDbMText
 10
529.384975757812
 20
269.1737131408461
 30
0.0
 40
3.5
 41
0.0
 71
     5
 72
     1
  1
21.5
 11
0.0000000000000001
 21
1.0
 31
0.0
 73
     1
 44
1.0
1001
ACAD
1000
MTEXTBEGIN
1070
    73
1070
     1
1070
    44
1040
1.0
1070
    74
1070
     0
1000
MTEXTEND
  0
POINT
  5
14DF
330
12E8
100
AcDbEntity
  8
Defpoints
 62
     0
100
AcDbPoint
 10
544.8353202460011
 20
279.9237131408461
 30
0.0
  0
POINT
  5
14E0
330
12E8
100
AcDbEntity
  8
Defpoints
 62
     0
100
AcDbPoint
 10
544.8353202460011
 20
258.4237131408461
 30
0.0
  0
POINT
  5
14E1
330
12E8
100
AcDbEntity
  8
Defpoints
 62
     0
100
AcDbPoint
 10
531.8353202460011
 20
258.4237131408461
 30
0.0
  0
ENDBLK
  5
12F3
330
12E8
100
AcDbEntity
  8
0
100
AcDbBlockEnd
  0
BLOCK
  5
12FE
330
12F4
100
AcDbEntity
  8
0
100
AcDbBlockBegin
  2
*D29
 70
     1
 10
0.0
 20
0.0
 30
0.0
  3
*D29
  1

  0
LINE
  5
14E2
330
12F4
100
AcDbEntity
  8
AM_5
100
AcDbLine
 10
543.4853202460011
 20
309.9237131408461
 30
0.0
 11
522.3353202460012
 21
309.9237131408461
 31
0.0
  0
LINE
  5
14E3
330
12F4
100
AcDbEntity
  8
AM_5
100
AcDbLine
 10
543.485320246001
 20
249.9237131408461
 30
0.0
 11
522.3353202460011
 21
249.9237131408461
 31
0.0
  0
LINE
  5
14E4
330
12F4
100
AcDbEntity
  8
AM_5
100
AcDbLine
 10
523.8353202460013
 20
306.9237131408461
 30
0.0
 11
523.8353202460011
 21
252.9237131408461
 31
0.0
  0
SOLID
  5
14E5
330
12F4
100
AcDbEntity
  8
AM_5
100
AcDbTrace
 10
523.3353202460013
 20
306.9237131408461
 30
0.0
 11
524.3353202460013
 21
306.9237131408461
 31
0.0
 12
523.8353202460013
 22
309.9237131408461
 32
0.0
 13
523.8353202460013
 23
309.9237131408461
 33
0.0
  0
SOLID
  5
14E6
330
12F4
100
AcDbEntity
  8
AM_5
100
AcDbTrace
 10
523.3353202460011
 20
252.9237131408461
 30
0.0
 11
524.3353202460012
 21
252.9237131408461
 31
0.0
 12
523.8353202460011
 22
249.9237131408461
 32
0.0
 13
523.8353202460011
 23
249.9237131408461
 33
0.0
  0
MTEXT
  5
14E7
330
12F4
100
AcDbEntity
  8
AM_5
100
AcDbMText
 10
521.3853202460011
 20
279.9237131408461
 30
0.0
 40
3.5
 41
0.0
 71
     5
 72
     1
  1
60
 11
0.0000000000000001
 21
1.0
 31
0.0
 73
     1
 44
1.0
1001
ACAD
1000
MTEXTBEGIN
1070
    73
1070
     1
1070
    44
1040
1.0
1070
    74
1070
     0
1000
MTEXTEND
  0
POINT
  5
14E8
330
12F4
100
AcDbEntity
  8
Defpoints
 62
     0
100
AcDbPoint
 10
544.4853202460011
 20
309.9237131408461
 30
0.0
  0
POINT
  5
14E9
330
12F4
100
AcDbEntity
  8
Defpoints
 62
     0
100
AcDbPoint
 10
544.485320246001
 20
249.9237131408461
 30
0.0
  0
POINT
  5
14EA
330
12F4
100
AcDbEntity
  8
Defpoints
 62
     0
100
AcDbPoint
 10
523.8353202460011
 20
249.9237131408461
 30
0.0
  0
ENDBLK
  5
12FF
330
12F4
100
AcDbEntity
  8
0
100
AcDbBlockEnd
  0
BLOCK
  5
130A
330
1300
100
AcDbEntity
  8
0
100
AcDbBlockBegin
  2
*D30
 70
     1
 10
0.0
 20
0.0
 30
0.0
  3
*D30
  1

  0
LINE
  5
14EB
330
1300
100
AcDbEntity
  8
AM_5
100
AcDbLine
 10
543.485320246001
 20
249.9237131408461
 30
0.0
 11
543.485320246001
 21
236.4237131408461
 31
0.0
  0
LINE
  5
14EC
330
1300
100
AcDbEntity
  8
AM_5
100
AcDbLine
 10
553.485320246001
 20
248.7737131408461
 30
0.0
 11
553.485320246001
 21
236.4237131408461
 31
0.0
  0
LINE
  5
14ED
330
1300
100
AcDbEntity
  8
AM_5
100
AcDbLine
 10
546.485320246001
 20
237.9237131408461
 30
0.0
 11
550.485320246001
 21
237.9237131408461
 31
0.0
  0
SOLID
  5
14EE
330
1300
100
AcDbEntity
  8
AM_5
100
AcDbTrace
 10
546.485320246001
 20
238.4237131408461
 30
0.0
 11
546.485320246001
 21
237.4237131408461
 31
0.0
 12
543.485320246001
 22
237.9237131408461
 32
0.0
 13
543.485320246001
 23
237.9237131408461
 33
0.0
  0
SOLID
  5
14EF
330
1300
100
AcDbEntity
  8
AM_5
100
AcDbTrace
 10
550.485320246001
 20
238.4237131408461
 30
0.0
 11
550.485320246001
 21
237.4237131408461
 31
0.0
 12
553.485320246001
 22
237.9237131408461
 32
0.0
 13
553.485320246001
 23
237.9237131408461
 33
0.0
  0
MTEXT
  5
14F0
330
1300
100
AcDbEntity
  8
AM_5
100
AcDbMText
 10
548.485320246001
 20
240.3737131408461
 30
0.0
 40
3.5
 41
0.0
 71
     5
 72
     1
  1
10
 73
     1
 44
1.0
1001
ACAD
1000
MTEXTBEGIN
1070
    73
1070
     1
1070
    44
1040
1.0
1070
    74
1070
     0
1000
MTEXTEND
  0
POINT
  5
14F1
330
1300
100
AcDbEntity
  8
Defpoints
 62
     0
100
AcDbPoint
 10
543.485320246001
 20
250.9237131408461
 30
0.0
  0
POINT
  5
14F2
330
1300
100
AcDbEntity
  8
Defpoints
 62
     0
100
AcDbPoint
 10
553.485320246001
 20
249.7737131408461
 30
0.0
  0
POINT
  5
14F3
330
1300
100
AcDbEntity
  8
Defpoints
 62
     0
100
AcDbPoint
 10
553.485320246001
 20
237.9237131408461
 30
0.0
  0
ENDBLK
  5
130B
330
1300
100
AcDbEntity
  8
0
100
AcDbBlockEnd
  0
BLOCK
  5
1316
330
130C
100
AcDbEntity
  8
0
100
AcDbBlockBegin
  2
*D31
 70
     1
 10
0.0
 20
0.0
 30
0.0
  3
*D31
  1

  0
LINE
  5
14F4
330
130C
100
AcDbEntity
  8
AM_5
100
AcDbLine
 10
543.485320246001
 20
249.9237131408461
 30
0.0
 11
543.485320246001
 21
228.4237131408461
 31
0.0
  0
LINE
  5
14F5
330
130C
100
AcDbEntity
  8
AM_5
100
AcDbLine
 10
568.485320246001
 20
253.9237131408461
 30
0.0
 11
568.485320246001
 21
228.4237131408461
 31
0.0
  0
LINE
  5
14F6
330
130C
100
AcDbEntity
  8
AM_5
100
AcDbLine
 10
546.485320246001
 20
229.9237131408461
 30
0.0
 11
565.485320246001
 21
229.9237131408461
 31
0.0
  0
SOLID
  5
14F7
330
130C
100
AcDbEntity
  8
AM_5
100
AcDbTrace
 10
546.485320246001
 20
230.4237131408461
 30
0.0
 11
546.485320246001
 21
229.4237131408461
 31
0.0
 12
543.485320246001
 22
229.9237131408461
 32
0.0
 13
543.485320246001
 23
229.9237131408461
 33
0.0
  0
SOLID
  5
14F8
330
130C
100
AcDbEntity
  8
AM_5
100
AcDbTrace
 10
565.485320246001
 20
230.4237131408461
 30
0.0
 11
565.485320246001
 21
229.4237131408461
 31
0.0
 12
568.485320246001
 22
229.9237131408461
 32
0.0
 13
568.485320246001
 23
229.9237131408461
 33
0.0
  0
MTEXT
  5
14F9
330
130C
100
AcDbEntity
  8
AM_5
100
AcDbMText
 10
555.985320246001
 20
232.3740576290351
 30
0.0
 40
3.5
 41
0.0
 71
     5
 72
     1
  1
25
 73
     1
 44
1.0
1001
ACAD
1000
MTEXTBEGIN
1070
    73
1070
     1
1070
    44
1040
1.0
1070
    74
1070
     0
1000
MTEXTEND
  0
POINT
  5
14FA
330
130C
100
AcDbEntity
  8
Defpoints
 62
     0
100
AcDbPoint
 10
543.485320246001
 20
250.9237131408461
 30
0.0
  0
POINT
  5
14FB
330
130C
100
AcDbEntity
  8
Defpoints
 62
     0
100
AcDbPoint
 10
568.485320246001
 20
254.9237131408461
 30
0.0
  0
POINT
  5
14FC
330
130C
100
AcDbEntity
  8
Defpoints
 62
     0
100
AcDbPoint
 10
568.485320246001
 20
229.9237131408461
 30
0.0
  0
ENDBLK
  5
1317
330
130C
100
AcDbEntity
  8
0
100
AcDbBlockEnd
  0
BLOCK
  5
1322
330
1318
100
AcDbEntity
  8
0
100
AcDbBlockBegin
  2
*D32
 70
     1
 10
0.0
 20
0.0
 30
0.0
  3
*D32
  1

  0
LINE
  5
152D
330
1318
100
AcDbEntity
  8
AM_5
100
AcDbLine
 10
663.5637024730129
 20
290.423713140846
 30
0.0
 11
685.3756012821417
 21
290.423713140846
 31
0.0
  0
LINE
  5
152E
330
1318
100
AcDbEntity
  8
AM_5
100
AcDbLine
 10
663.5637024730129
 20
269.423713140846
 30
0.0
 11
685.3756012821417
 21
269.423713140846
 31
0.0
  0
LINE
  5
152F
330
1318
100
AcDbEntity
  8
AM_5
100
AcDbLine
 10
683.8756012821416
 20
287.423713140846
 30
0.0
 11
683.8756012821416
 21
272.423713140846
 31
0.0
  0
SOLID
  5
1530
330
1318
100
AcDbEntity
  8
AM_5
100
AcDbTrace
 10
683.3756012821416
 20
287.423713140846
 30
0.0
 11
684.3756012821416
 21
287.423713140846
 31
0.0
 12
683.8756012821416
 22
290.423713140846
 32
0.0
 13
683.8756012821416
 23
290.423713140846
 33
0.0
  0
SOLID
  5
1531
330
1318
100
AcDbEntity
  8
AM_5
100
AcDbTrace
 10
683.3756012821416
 20
272.423713140846
 30
0.0
 11
684.3756012821416
 21
272.423713140846
 31
0.0
 12
683.8756012821416
 22
269.423713140846
 32
0.0
 13
683.8756012821416
 23
269.423713140846
 33
0.0
  0
MTEXT
  5
1532
330
1318
100
AcDbEntity
  8
AM_5
100
AcDbMText
 10
681.4252567939526
 20
279.9237131408461
 30
0.0
 40
3.5
 41
0.0
 71
     5
 72
     1
  1
21
 11
0.0000000000000001
 21
1.0
 31
0.0
 73
     1
 44
1.0
1001
ACAD
1000
MTEXTBEGIN
1070
    73
1070
     1
1070
    44
1040
1.0
1070
    74
1070
     0
1000
MTEXTEND
  0
POINT
  5
1533
330
1318
100
AcDbEntity
  8
Defpoints
 62
     0
100
AcDbPoint
 10
662.5637024730129
 20
290.423713140846
 30
0.0
  0
POINT
  5
1534
330
1318
100
AcDbEntity
  8
Defpoints
 62
     0
100
AcDbPoint
 10
662.5637024730129
 20
269.423713140846
 30
0.0
  0
POINT
  5
1535
330
1318
100
AcDbEntity
  8
Defpoints
 62
     0
100
AcDbPoint
 10
683.8756012821416
 20
269.423713140846
 30
0.0
  0
ENDBLK
  5
1323
330
1318
100
AcDbEntity
  8
0
100
AcDbBlockEnd
  0
BLOCK
  5
13E7
330
13DD
100
AcDbEntity
  8
0
100
AcDbBlockBegin
  2
*D35
 70
     1
 10
0.0
 20
0.0
 30
0.0
  3
*D35
  1

  0
LINE
  5
15E9
330
13DD
100
AcDbEntity
  8
AM_5
100
AcDbLine
 10
612.7428755517869
 20
264.6028862196201
 30
0.0
 11
612.7428755517869
 21
236.4237131408461
 31
0.0
  0
LINE
  5
15EA
330
13DD
100
AcDbEntity
  8
AM_5
100
AcDbLine
 10
658.7428755517869
 20
264.60288621962
 30
0.0
 11
658.7428755517869
 21
236.4237131408461
 31
0.0
  0
LINE
  5
15EB
330
13DD
100
AcDbEntity
  8
AM_5
100
AcDbLine
 10
615.7428755517869
 20
237.9237131408461
 30
0.0
 11
655.7428755517869
 21
237.9237131408461
 31
0.0
  0
SOLID
  5
15EC
330
13DD
100
AcDbEntity
  8
AM_5
100
AcDbTrace
 10
615.7428755517869
 20
238.4237131408461
 30
0.0
 11
615.7428755517869
 21
237.4237131408461
 31
0.0
 12
612.7428755517869
 22
237.9237131408461
 32
0.0
 13
612.7428755517869
 23
237.9237131408461
 33
0.0
  0
SOLID
  5
15ED
330
13DD
100
AcDbEntity
  8
AM_5
100
AcDbTrace
 10
655.7428755517869
 20
238.4237131408461
 30
0.0
 11
655.7428755517869
 21
237.4237131408461
 31
0.0
 12
658.7428755517869
 22
237.9237131408461
 32
0.0
 13
658.7428755517869
 23
237.9237131408461
 33
0.0
  0
MTEXT
  5
15EE
330
13DD
100
AcDbEntity
  8
AM_5
100
AcDbMText
 10
635.7428755517869
 20
240.3737131408461
 30
0.0
 40
3.5
 41
0.0
 71
     5
 72
     1
  1
P
 73
     1
 44
1.0
1001
ACAD
1000
MTEXTBEGIN
1070
    73
1070
     1
1070
    44
1040
1.0
1070
    74
1070
     0
1000
MTEXTEND
  0
POINT
  5
15EF
330
13DD
100
AcDbEntity
  8
Defpoints
 62
     0
100
AcDbPoint
 10
612.7428755517869
 20
265.6028862196201
 30
0.0
  0
POINT
  5
15F0
330
13DD
100
AcDbEntity
  8
Defpoints
 62
     0
100
AcDbPoint
 10
658.7428755517869
 20
265.60288621962
 30
0.0
  0
POINT
  5
15F1
330
13DD
100
AcDbEntity
  8
Defpoints
 62
     0
100
AcDbPoint
 10
658.7428755517869
 20
237.9237131408461
 30
0.0
  0
ENDBLK
  5
13E8
330
13DD
100
AcDbEntity
  8
0
100
AcDbBlockEnd
  0
BLOCK
  5
140D
330
1403
100
AcDbEntity
  8
0
100
AcDbBlockBegin
  2
*D36
 70
     1
 10
0.0
 20
0.0
 30
0.0
  3
*D36
  1

  0
LINE
  5
15F3
330
1403
100
AcDbEntity
  8
AM_5
100
AcDbLine
 10
602.7428755517869
 20
248.9237131408461
 30
0.0
 11
602.7428755517869
 21
228.4237131408461
 31
0.0
  0
LINE
  5
15F4
330
1403
100
AcDbEntity
  8
AM_5
100
AcDbLine
 10
668.7428755517869
 20
248.923713140846
 30
0.0
 11
668.7428755517869
 21
228.4237131408461
 31
0.0
  0
LINE
  5
15F5
330
1403
100
AcDbEntity
  8
AM_5
100
AcDbLine
 10
605.7428755517869
 20
229.9237131408461
 30
0.0
 11
665.7428755517869
 21
229.9237131408461
 31
0.0
  0
SOLID
  5
15F6
330
1403
100
AcDbEntity
  8
AM_5
100
AcDbTrace
 10
605.7428755517869
 20
230.4237131408461
 30
0.0
 11
605.7428755517869
 21
229.4237131408461
 31
0.0
 12
602.7428755517869
 22
229.9237131408461
 32
0.0
 13
602.7428755517869
 23
229.9237131408461
 33
0.0
  0
SOLID
  5
15F7
330
1403
100
AcDbEntity
  8
AM_5
100
AcDbTrace
 10
665.7428755517869
 20
230.4237131408461
 30
0.0
 11
665.7428755517869
 21
229.4237131408461
 31
0.0
 12
668.7428755517869
 22
229.9237131408461
 32
0.0
 13
668.7428755517869
 23
229.9237131408461
 33
0.0
  0
MTEXT
  5
15F8
330
1403
100
AcDbEntity
  8
AM_5
100
AcDbMText
 10
635.7428755517869
 20
232.373713140846
 30
0.0
 40
3.5
 41
0.0
 71
     5
 72
     1
  1
L
 73
     1
 44
1.0
1001
ACAD
1000
MTEXTBEGIN
1070
    73
1070
     1
1070
    44
1040
1.0
1070
    74
1070
     0
1000
MTEXTEND
  0
POINT
  5
15F9
330
1403
100
AcDbEntity
  8
Defpoints
 62
     0
100
AcDbPoint
 10
602.7428755517869
 20
249.9237131408461
 30
0.0
  0
POINT
  5
15FA
330
1403
100
AcDbEntity
  8
Defpoints
 62
     0
100
AcDbPoint
 10
668.7428755517869
 20
249.923713140846
 30
0.0
  0
POINT
  5
15FB
330
1403
100
AcDbEntity
  8
Defpoints
 62
     0
100
AcDbPoint
 10
668.7428755517869
 20
229.9237131408461
 30
0.0
  0
ENDBLK
  5
140E
330
1403
100
AcDbEntity
  8
0
100
AcDbBlockEnd
  0
BLOCK
  5
15C6
330
15B1
100
AcDbEntity
  8
0
100
AcDbBlockBegin
  2
A$C181F13BF
 70
     0
 10
0.0
 20
0.0
 30
0.0
  3
A$C181F13BF
  1

  0
LINE
  5
15B2
330
15B1
100
AcDbEntity
  8
0
 62
     4
100
AcDbLine
 10
33.00000000000046
 20
20.71551751760484
 30
0.0
 11
33.00000000000046
 21
33.2221076116179
 31
0.0
  0
TEXT
  5
15B3
330
15B1
100
AcDbEntity
  8
0
 62
     4
100
AcDbText
 10
32.36967310213868
 20
36.39059053971681
 30
0.0
 40
3.0
  1
2
 41
0.75
  7
CHINESET
100
AcDbText
  0
LINE
  5
15B4
330
15B1
100
AcDbEntity
  8
0
 62
     4
100
AcDbLine
 10
52.00000000000045
 20
20.71551751760484
 30
0.0
 11
52.00000000000045
 21
33.2221076116179
 31
0.0
  0
TEXT
  5
15B5
330
15B1
100
AcDbEntity
  8
0
 62
     4
100
AcDbText
 10
51.36967310213868
 20
36.39059053971681
 30
0.0
 40
3.0
  1
3
 41
0.75
  7
CHINESET
100
AcDbText
  0
LINE
  5
15B6
330
15B1
100
AcDbEntity
  8
0
 62
     4
100
AcDbLine
 10
71.00000000000045
 20
20.71551751760484
 30
0.0
 11
71.00000000000045
 21
33.2221076116179
 31
0.0
  0
TEXT
  5
15B7
330
15B1
100
AcDbEntity
  8
0
 62
     4
100
AcDbText
 10
70.36967310213867
 20
36.39059053971681
 30
0.0
 40
3.0
  1
4
 41
0.75
  7
CHINESET
100
AcDbText
  0
LINE
  5
15B8
330
15B1
100
AcDbEntity
  8
0
 62
     4
100
AcDbLine
 10
90.00000000000046
 20
20.71551751760484
 30
0.0
 11
90.00000000000046
 21
33.2221076116179
 31
0.0
  0
TEXT
  5
15B9
330
15B1
100
AcDbEntity
  8
0
 62
     4
100
AcDbText
 10
89.36967310213868
 20
36.39059053971681
 30
0.0
 40
3.0
  1
5
 41
0.75
  7
CHINESET
100
AcDbText
  0
LINE
  5
15BA
330
15B1
100
AcDbEntity
  8
0
 62
     4
100
AcDbLine
 10
109.0000000000004
 20
20.71551751760484
 30
0.0
 11
109.0000000000004
 21
33.2221076116179
 31
0.0
  0
TEXT
  5
15BB
330
15B1
100
AcDbEntity
  8
0
 62
     4
100
AcDbText
 10
108.3696731021386
 20
36.39059053971681
 30
0.0
 40
3.0
  1
6
 41
0.75
  7
CHINESET
100
AcDbText
  0
LINE
  5
15BC
330
15B1
100
AcDbEntity
  8
0
 62
     4
100
AcDbLine
 10
128.0000000000004
 20
20.71551751760484
 30
0.0
 11
128.0000000000004
 21
33.2221076116179
 31
0.0
  0
TEXT
  5
15BD
330
15B1
100
AcDbEntity
  8
0
 62
     4
100
AcDbText
 10
127.3696731021386
 20
36.39059053971681
 30
0.0
 40
3.0
  1
7
 41
0.75
  7
CHINESET
100
AcDbText
  0
LINE
  5
15BE
330
15B1
100
AcDbEntity
  8
0
 62
     4
100
AcDbLine
 10
147.0000000000004
 20
20.71551751760484
 30
0.0
 11
147.0000000000004
 21
33.2221076116179
 31
0.0
  0
TEXT
  5
15BF
330
15B1
100
AcDbEntity
  8
0
 62
     4
100
AcDbText
 10
146.3696731021387
 20
36.39059053971681
 30
0.0
 40
3.0
  1
8
 41
0.75
  7
CHINESET
100
AcDbText
  0
LINE
  5
15C0
330
15B1
100
AcDbEntity
  8
0
 62
     4
100
AcDbLine
 10
166.0000000000004
 20
20.71551751760484
 30
0.0
 11
166.0000000000004
 21
33.2221076116179
 31
0.0
  0
TEXT
  5
15C1
330
15B1
100
AcDbEntity
  8
0
 62
     4
100
AcDbText
 10
165.3696731021387
 20
36.39059053971681
 30
0.0
 40
3.0
  1
9
 41
0.75
  7
CHINESET
100
AcDbText
  0
LINE
  5
15C2
330
15B1
100
AcDbEntity
  8
0
 62
     4
100
AcDbLine
 10
185.0000000000004
 20
20.71551751760484
 30
0.0
 11
185.0000000000004
 21
33.2221076116179
 31
0.0
  0
TEXT
  5
15C3
330
15B1
100
AcDbEntity
  8
0
 62
     4
100
AcDbText
 10
184.3696731021386
 20
36.39059053971681
 30
0.0
 40
3.0
  1
10
 41
0.75
  7
CHINESET
100
AcDbText
  0
ENDBLK
  5
15C7
330
15B1
100
AcDbEntity
  8
0
100
AcDbBlockEnd
  0
BLOCK
  5
164C
330
1647
100
AcDbEntity
  8
0
100
AcDbBlockBegin
  2
*S40
 70
     1
 10
0.0
 20
0.0
 30
0.0
  3
*S40
  1

  0
LINE
  5
1648
330
1647
100
AcDbEntity
  8
AM_5
 62
     5
100
AcDbLine
 10
690.9861125031519
 20
256.0292445480953
 30
0.0
 11
676.1519481845876
 21
256.0292445480953
 31
0.0
  0
LINE
  5
1649
330
1647
100
AcDbEntity
  8
AM_5
 62
     5
100
AcDbLine
 10
676.1519481845876
 20
256.0292445480953
 30
0.0
 11
663.1471639803248
 21
265.7807818222062
 31
0.0
  0
TRACE
  5
164A
330
1647
100
AcDbEntity
  8
AM_5
 62
     5
370
    35
100
AcDbTrace
 10
663.4235970145685
 20
266.1494367179644
 30
0.0
 11
662.870730946081
 21
265.4121269264481
 31
0.0
 12
660.3469520272
 22
267.8804991883242
 32
0.0
 13
660.3469520272
 23
267.8804991883242
 33
0.0
  0
MTEXT
  5
164B
330
1647
100
AcDbEntity
  8
AM_5
 62
     5
100
AcDbMText
 10
690.9861125031519
 20
263.9004134451026
 30
0.0
 40
3.5
 41
0.0
 71
     7
 72
     5
  1

  7
ACISOTS
 73
     1
 44
1.0
1001
ACAD
1000
MTEXTBEGIN
1070
    73
1070
     1
1070
    44
1040
1.0
1070
    74
1070
     0
1000
MTEXTEND
  0
ENDBLK
  5
164D
330
1647
100
AcDbEntity
  8
0
100
AcDbBlockEnd
  0
BLOCK
  5
1654
330
164F
100
AcDbEntity
  8
0
100
AcDbBlockBegin
  2
*S41
 70
     1
 10
0.0
 20
0.0
 30
0.0
  3
*S41
  1

  0
LINE
  5
1650
330
164F
100
AcDbEntity
  8
AM_5
 62
     5
100
AcDbLine
 10
581.7992742805262
 20
315.7020320695351
 30
0.0
 11
566.965109961962
 21
315.7020320695351
 31
0.0
  0
LINE
  5
1651
330
164F
100
AcDbEntity
  8
AM_5
 62
     5
100
AcDbLine
 10
566.965109961962
 20
315.7020320695351
 30
0.0
 11
561.4511086934839
 21
307.7835578721217
 31
0.0
  0
TRACE
  5
1652
330
164F
100
AcDbEntity
  8
AM_5
 62
     5
370
    35
100
AcDbTrace
 10
561.072972035298
 20
308.0468719855371
 30
0.0
 11
561.8292453516696
 21
307.5202437587063
 31
0.0
 12
559.4510394246468
 22
304.9113247827201
 32
0.0
 13
559.4510394246468
 23
304.9113247827201
 33
0.0
  0
MTEXT
  5
1653
330
164F
100
AcDbEntity
  8
AM_5
 62
     5
100
AcDbMText
 10
581.7992742805262
 20
323.5732009665424
 30
0.0
 40
3.5
 41
0.0
 71
     7
 72
     5
  1

  7
ACISOTS
 73
     1
 44
1.0
1001
ACAD
1000
MTEXTBEGIN
1070
    73
1070
     1
1070
    44
1040
1.0
1070
    74
1070
     0
1000
MTEXTEND
  0
ENDBLK
  5
1655
330
164F
100
AcDbEntity
  8
0
100
AcDbBlockEnd
  0
ENDSEC
  0
SECTION
  2
ENTITIES
  0
LINE
  5
D66
330
1F
100
AcDbEntity
  8
0
100
AcDbLine
 10
721.0258422113408
 20
223.8921827499759
 30
0.0
 11
721.0258422113408
 21
181.6521827499761
 31
0.0
  0
LINE
  5
D67
330
1F
100
AcDbEntity
  8
0
100
AcDbLine
 10
760.806930257808
 20
223.8921827499762
 30
0.0
 11
760.806930257808
 21
215.4441827499759
 31
0.0
  0
LINE
  5
D68
330
1F
100
AcDbEntity
  8
0
100
AcDbLine
 10
776.6469302578084
 20
223.8921827499762
 30
0.0
 11
776.6469302578084
 21
215.4441827499762
 31
0.0
  0
LINE
  5
D69
330
1F
100
AcDbEntity
  8
0
100
AcDbLine
 10
744.9669302578078
 20
223.8921827499759
 30
0.0
 11
744.9669302578099
 21
181.6521827499761
 31
0.0
  0
LINE
  5
D6A
330
1F
100
AcDbEntity
  8
0
100
AcDbLine
 10
721.0258422113408
 20
215.4441827499759
 30
0.0
 11
776.6469302578084
 21
215.4441827499759
 31
0.0
  0
LINE
  5
D6B
330
1F
100
AcDbEntity
  8
0
100
AcDbLine
 10
721.0258422113408
 20
219.6681827499762
 30
0.0
 11
776.6469302578084
 21
219.6681827499762
 31
0.0
  0
TEXT
  5
D6C
330
1F
100
AcDbEntity
  8
0
100
AcDbText
 10
732.360326806058
 20
216.162201550231
 30
0.0
 40
2.651983391490049
  1
2
 41
0.8
  7
CHINESET
 72
     4
 11
733.067522377122
 21
217.4881932459761
 31
0.0
100
AcDbText
  0
TEXT
  5
D6D
330
1F
100
AcDbEntity
  8
0
100
AcDbText
 10
722.5695263604303
 20
220.9620129733215
 30
0.0
 40
2.112
  1
No. of stations
 41
0.8
  7
CHINESET
100
AcDbText
  0
TEXT
  5
D6E
330
1F
100
AcDbEntity
  8
0
100
AcDbText
 10
748.9138254303399
 20
216.1840839688546
 30
0.0
 40
2.64
  1
46
 41
0.8
  7
CHINESET
100
AcDbText
  0
TEXT
  5
D6F
330
1F
100
AcDbEntity
  8
0
100
AcDbText
 10
751.4803850842946
 20
220.4272361422185
 30
0.0
 40
2.64
  1
P
 41
0.8
  7
CHINESET
100
AcDbText
  0
LINE
  5
D70
330
1F
100
AcDbEntity
  8
0
100
AcDbLine
 10
721.0258422113408
 20
223.8921827499762
 30
0.0
 11
776.6469302578084
 21
223.8921827499762
 31
0.0
  0
LINE
  5
D71
330
1F
100
AcDbEntity
  8
0
100
AcDbLine
 10
760.8069302578075
 20
223.8921827499759
 30
0.0
 11
760.8069302578103
 21
181.6521827499761
 31
0.0
  0
LINE
  5
D72
330
1F
100
AcDbEntity
  8
0
100
AcDbLine
 10
776.6469302578078
 20
223.8921827499759
 30
0.0
 11
776.64693025781
 21
181.6521827499761
 31
0.0
  0
LINE
  5
D73
330
1F
100
AcDbEntity
  8
0
100
AcDbLine
 10
721.0258422113408
 20
211.2201827499762
 30
0.0
 11
776.6469302578084
 21
211.2201827499762
 31
0.0
  0
LINE
  5
D74
330
1F
100
AcDbEntity
  8
0
100
AcDbLine
 10
721.0258422113408
 20
206.9961827499763
 30
0.0
 11
776.6469302578084
 21
206.9961827499763
 31
0.0
  0
LINE
  5
D75
330
1F
100
AcDbEntity
  8
0
100
AcDbLine
 10
721.0258422113408
 20
202.7721827499763
 30
0.0
 11
776.6469302578084
 21
202.7721827499763
 31
0.0
  0
LINE
  5
D76
330
1F
100
AcDbEntity
  8
0
100
AcDbLine
 10
721.0258422113408
 20
198.548182749976
 30
0.0
 11
776.6469302578084
 21
198.548182749976
 31
0.0
  0
LINE
  5
D77
330
1F
100
AcDbEntity
  8
0
100
AcDbLine
 10
721.0258422113408
 20
194.324182749976
 30
0.0
 11
776.6469302578084
 21
194.324182749976
 31
0.0
  0
LINE
  5
D78
330
1F
100
AcDbEntity
  8
0
100
AcDbLine
 10
721.0258422113408
 20
190.1001827499763
 30
0.0
 11
776.6469302578084
 21
190.1001827499763
 31
0.0
  0
LINE
  5
D79
330
1F
100
AcDbEntity
  8
0
100
AcDbLine
 10
721.0258422113408
 20
185.8761827499761
 30
0.0
 11
776.6469302578084
 21
185.8761827499761
 31
0.0
  0
LINE
  5
D7A
330
1F
100
AcDbEntity
  8
0
100
AcDbLine
 10
721.0258422113408
 20
181.6521827499761
 30
0.0
 11
776.6469302578084
 21
181.6521827499761
 31
0.0
  0
TEXT
  5
D7B
330
1F
100
AcDbEntity
  8
0
100
AcDbText
 10
732.360326806058
 20
211.938201550231
 30
0.0
 40
2.651983391490049
  1
3
 41
0.8
  7
CHINESET
 72
     4
 11
733.067522377122
 21
213.264193245976
 31
0.0
100
AcDbText
  0
TEXT
  5
D7C
330
1F
100
AcDbEntity
  8
0
100
AcDbText
 10
732.3098128366967
 20
207.7142015502311
 30
0.0
 40
2.651983391490049
  1
4
 41
0.8
  7
CHINESET
 72
     4
 11
733.0675223771224
 21
209.0401932459761
 31
0.0
100
AcDbText
  0
TEXT
  5
D7D
330
1F
100
AcDbEntity
  8
0
100
AcDbText
 10
732.360326806059
 20
203.4902015502314
 30
0.0
 40
2.651983391490049
  1
5
 41
0.8
  7
CHINESET
 72
     4
 11
733.067522377123
 21
204.8161932459764
 31
0.0
100
AcDbText
  0
TEXT
  5
D7E
330
1F
100
AcDbEntity
  8
0
100
AcDbText
 10
732.4108407754208
 20
199.2662015502311
 30
0.0
 40
2.651983391490049
  1
6
 41
0.8
  7
CHINESET
 72
     4
 11
733.067522377123
 21
200.5921932459762
 31
0.0
100
AcDbText
  0
TEXT
  5
D7F
330
1F
100
AcDbEntity
  8
0
100
AcDbText
 10
732.360326806059
 20
195.0422015502311
 30
0.0
 40
2.651983391490049
  1
7
 41
0.8
  7
CHINESET
 72
     4
 11
733.067522377123
 21
196.3681932459761
 31
0.0
100
AcDbText
  0
TEXT
  5
D80
330
1F
100
AcDbEntity
  8
0
100
AcDbText
 10
732.3603268060595
 20
190.8182015502311
 30
0.0
 40
2.651983391490049
  1
8
 41
0.8
  7
CHINESET
 72
     4
 11
733.0675223771236
 21
192.1441932459762
 31
0.0
100
AcDbText
  0
TEXT
  5
D81
330
1F
100
AcDbEntity
  8
0
100
AcDbText
 10
732.4108407754213
 20
186.5942015502309
 30
0.0
 40
2.651983391490049
  1
9
 41
0.8
  7
CHINESET
 72
     4
 11
733.0675223771236
 21
187.9201932459759
 31
0.0
100
AcDbText
  0
TEXT
  5
D82
330
1F
100
AcDbEntity
  8
0
100
AcDbText
 10
731.5521032962721
 20
182.3702015502312
 30
0.0
 40
2.651983391490049
  1
10
 41
0.8
  7
CHINESET
 72
     4
 11
733.0675223771236
 21
183.6961932459762
 31
0.0
100
AcDbText
  0
TEXT
  5
D83
330
1F
100
AcDbEntity
  8
0
100
AcDbText
 10
764.7538254303401
 20
216.1840839688546
 30
0.0
 40
2.64
  1
66
 41
0.8
  7
CHINESET
100
AcDbText
  0
TEXT
  5
D84
330
1F
100
AcDbEntity
  8
0
100
AcDbText
 10
748.9138254303399
 20
211.9600839688546
 30
0.0
 40
2.64
  1
65
 41
0.8
  7
CHINESET
100
AcDbText
  0
TEXT
  5
D85
330
1F
100
AcDbEntity
  8
0
100
AcDbText
 10
764.7538254303401
 20
211.9600839688546
 30
0.0
 40
2.64
  1
85
 41
0.8
  7
CHINESET
100
AcDbText
  0
TEXT
  5
D86
330
1F
100
AcDbEntity
  8
0
100
AcDbText
 10
748.9138254303399
 20
207.7360839688544
 30
0.0
 40
2.64
  1
84
 41
0.8
  7
CHINESET
100
AcDbText
  0
TEXT
  5
D87
330
1F
100
AcDbEntity
  8
0
100
AcDbText
 10
764.7538254303401
 20
207.7360839688544
 30
0.0
 40
2.64
  1
104
 41
0.8
  7
CHINESET
100
AcDbText
  0
TEXT
  5
D88
330
1F
100
AcDbEntity
  8
0
100
AcDbText
 10
748.9138254303404
 20
203.5120839688544
 30
0.0
 40
2.64
  1
103
 41
0.8
  7
CHINESET
100
AcDbText
  0
TEXT
  5
D89
330
1F
100
AcDbEntity
  8
0
100
AcDbText
 10
764.7538254303407
 20
203.5120839688544
 30
0.0
 40
2.64
  1
123
 41
0.8
  7
CHINESET
100
AcDbText
  0
TEXT
  5
D8A
330
1F
100
AcDbEntity
  8
0
100
AcDbText
 10
748.9138254303404
 20
199.2880839688546
 30
0.0
 40
2.64
  1
122
 41
0.8
  7
CHINESET
100
AcDbText
  0
TEXT
  5
D8B
330
1F
100
AcDbEntity
  8
0
100
AcDbText
 10
764.7538254303407
 20
199.2880839688546
 30
0.0
 40
2.64
  1
142
 41
0.8
  7
CHINESET
100
AcDbText
  0
TEXT
  5
D8C
330
1F
100
AcDbEntity
  8
0
100
AcDbText
 10
748.9138254303404
 20
195.0640839688544
 30
0.0
 40
2.64
  1
141
 41
0.8
  7
CHINESET
100
AcDbText
  0
TEXT
  5
D8D
330
1F
100
AcDbEntity
  8
0
100
AcDbText
 10
764.7538254303407
 20
195.0640839688544
 30
0.0
 40
2.64
  1
161
 41
0.8
  7
CHINESET
100
AcDbText
  0
TEXT
  5
D8E
330
1F
100
AcDbEntity
  8
0
100
AcDbText
 10
748.9138254303409
 20
190.8400839688544
 30
0.0
 40
2.64
  1
160
 41
0.8
  7
CHINESET
100
AcDbText
  0
TEXT
  5
D8F
330
1F
100
AcDbEntity
  8
0
100
AcDbText
 10
764.7538254303412
 20
190.8400839688544
 30
0.0
 40
2.64
  1
180
 41
0.8
  7
CHINESET
100
AcDbText
  0
TEXT
  5
D90
330
1F
100
AcDbEntity
  8
0
100
AcDbText
 10
748.913825430342
 20
186.6160839688545
 30
0.0
 40
2.64
  1
179
 41
0.8
  7
CHINESET
100
AcDbText
  0
TEXT
  5
D91
330
1F
100
AcDbEntity
  8
0
100
AcDbText
 10
764.7538254303419
 20
186.6160839688545
 30
0.0
 40
2.64
  1
199
 41
0.8
  7
CHINESET
100
AcDbText
  0
TEXT
  5
D92
330
1F
100
AcDbEntity
  8
0
100
AcDbText
 10
748.913825430342
 20
182.3920839688542
 30
0.0
 40
2.64
  1
198
 41
0.8
  7
CHINESET
100
AcDbText
  0
TEXT
  5
D93
330
1F
100
AcDbEntity
  8
0
100
AcDbText
 10
764.7538254303419
 20
182.3920839688542
 30
0.0
 40
2.64
  1
218
 41
0.8
  7
CHINESET
100
AcDbText
  0
TEXT
  5
D94
330
1F
100
AcDbEntity
  8
0
100
AcDbText
 10
767.3203850842944
 20
220.4272361422185
 30
0.0
 40
2.64
  1
L
 41
0.8
  7
CHINESET
100
AcDbText
  0
INSERT
  5
F4E
330
1F
100
AcDbEntity
  8
0
100
AcDbBlockReference
  2
A$C6EA13D03
 10
721.0258422113408
 20
215.4441827499759
 30
0.0
 41
1.199999999999999
 42
1.199999999999999
 43
1.199999999999999
  0
TEXT
  5
F4F
330
1F
100
AcDbEntity
  8
0
100
AcDbText
 10
504.2296224193181
 20
370.4342640304783
 30
0.0
 40
5.76
  1
MVSB-188-5B2
 41
0.75
  7
CHINESET
100
AcDbText
  0
LINE
  5
F51
330
1F
100
AcDbEntity
  8
LOGO
 62
     4
100
AcDbLine
 10
562.4584846509152
 20
119.6251355799524
 30
0.0
 11
562.4584846509152
 21
151.3005484306313
 31
0.0
  0
TEXT
  5
F52
330
1F
100
AcDbEntity
  8
LOGO
  6
Continuous
100
AcDbText
 10
504.1505270591214
 20
125.8477226321023
 30
0.0
 40
4.751311927601809
  1
金器工業股份有限公司
  7
CHINESET
100
AcDbText
  0
TEXT
  5
F53
330
1F
100
AcDbEntity
  8
LOGO
  6
Continuous
100
AcDbText
 10
495.4233070488258
 20
121.0954798198801
 30
0.0
 40
3.167541285067873
  1
MINDMAN INDUSTRIAL CO., LTD.
 41
0.85
  7
CHINESET
100
AcDbText
  0
LINE
  5
F54
330
1F
100
AcDbEntity
  8
LOGO
 62
     4
100
AcDbLine
 10
562.4584846509152
 20
144.9654658604955
 30
0.0
 11
516.0012124699197
 21
144.9654658604955
 31
0.0
  0
LINE
  5
F55
330
1F
100
AcDbEntity
  8
LOGO
 62
     4
100
AcDbLine
 10
562.4584846509152
 20
138.6303832903597
 30
0.0
 11
516.0012124699197
 21
138.6303832903597
 31
0.0
  0
LINE
  5
F56
330
1F
100
AcDbEntity
  8
LOGO
 62
     4
100
AcDbLine
 10
562.4584846509152
 20
132.2953007202244
 30
0.0
 11
492.7725763794218
 21
132.2953007202244
 31
0.0
  0
LINE
  5
F57
330
1F
100
AcDbEntity
  8
LOGO
 62
     4
100
AcDbLine
 10
516.0012124699197
 20
132.2953007202244
 30
0.0
 11
516.0012124699197
 21
151.3005484306313
 31
0.0
  0
TEXT
  5
F58
330
1F
100
AcDbEntity
  8
LOGO
100
AcDbText
 10
547.752565255783
 20
133.8790713627576
 30
0.0
 40
3.167541285067873
  1
mm
  7
CHINESET
 72
     1
 11
551.6742830372956
 21
135.4628420052915
 31
0.0
100
AcDbText
 73
     2
  0
TEXT
  5
F59
330
1F
100
AcDbEntity
  8
LOGO
100
AcDbText
 10
546.0933769636047
 20
146.5492365030293
 30
0.0
 40
3.167541285067873
  1
1 : 1
  7
CHINESET
 72
     1
 11
551.6742830372956
 21
148.1330071455632
 31
0.0
100
AcDbText
 73
     2
  0
LINE
  5
F5A
330
1F
100
AcDbEntity
  8
LOGO
 62
     4
100
AcDbLine
 10
541.3415427504626
 20
132.2953007202244
 30
0.0
 11
541.3415427504626
 21
151.3005484306313
 31
0.0
  0
TEXT
  5
F5B
330
1F
100
AcDbEntity
  8
LOGO
100
AcDbText
 10
518.6130199491696
 20
146.5507953324019
 30
207.5954376039189
 40
3.167541285067873
  1
比例 Scale:
 41
0.9
  7
CHINESET
 72
     4
 11
528.6713776101909
 21
148.1330071455632
 31
207.5954376039189
100
AcDbText
  0
TEXT
  5
F5C
330
1F
100
AcDbEntity
  8
LOGO
100
AcDbText
 10
518.430603509092
 20
140.2587104724595
 30
207.5954376039189
 40
3.167541285067873
  1
投影  View:
 41
0.9
  7
CHINESET
 72
     4
 11
528.6713776101909
 21
141.7979245754274
 31
207.5954376039189
100
AcDbText
  0
TEXT
  5
F5D
330
1F
100
AcDbEntity
  8
LOGO
100
AcDbText
 10
518.7402872329446
 20
133.8790713627576
 30
207.5954376039189
 40
3.167541285067873
  1
單位  Unit:
 41
0.9
  7
CHINESET
 72
     4
 11
528.6713776101909
 21
135.4628420052915
 31
207.5954376039189
100
AcDbText
  0
LWPOLYLINE
  5
F5E
330
1F
100
AcDbEntity
  8
LOGO
 62
     4
100
AcDbPolyline
 90
        4
 70
     1
 43
0.0
 10
492.7725763794217
 20
151.3005484306313
 10
834.8073826205885
 20
151.3005484306313
 10
834.8073826205885
 20
385.4528006947257
 10
492.7725763794217
 20
385.4528006947257
1001
GENIUS_GENREC_14
1002
{
1000
PYDIR
1011
492.7725763794217
1021
385.4528006947257
1031
0.0
1002
}
1002
{
1000
PXDIR
1011
834.8073826205885
1021
151.3005484306313
1031
0.0
1002
}
1002
{
1000
PORI
1011
492.7725763794217
1021
151.3005484306313
1031
0.0
1002
}
1002
{
1000
PINS
1011
492.7725763794217
1021
151.3005484306313
1031
0.0
1002
}
1002
{
1000
PINS2
1011
834.8073826205885
1021
385.4528006947257
1031
0.0
1002
}
1002
{
1000
C
1070
     1
1002
}
1001
GENIUS_GENODEF_13
1002
{
1000
HIER
1070
     0
1002
}
1002
{
1000
MANEDIT
1070
     0
1002
}
1002
{
1000
NOSEL
1070
     0
1002
}
1002
{
1000
BEHIND
1070
     0
1002
}
1002
{
1000
OTHER
1070
     0
1002
}
1002
{
1000
REACTOR
1002
}
1001
GENIUS_GENOBJ-N-REC_13
1002
{
1000
OWNER
1000
GEN
1002
}
  0
SOLID
  5
F5F
330
1F
100
AcDbEntity
  8
LOGO
 62
     5
100
AcDbTrace
 10
496.0589512978508
 20
137.560887242651
 30
0.0
 11
497.4285130332311
 21
137.5608872426507
 31
0.0
 12
503.1428913084369
 22
150.5481105953928
 32
0.0
 13
504.5124530438179
 23
150.5481105953922
 33
0.0
  0
SOLID
  5
F60
330
1F
100
AcDbEntity
  8
LOGO
 62
     5
100
AcDbTrace
 10
497.9952282340789
 20
137.560887242651
 30
0.0
 11
499.3647899694592
 21
137.560887242651
 31
0.0
 12
504.5124530438179
 22
149.509132727173
 32
0.0
 13
503.1428913084369
 23
144.4874063641129
 33
0.0
  0
SOLID
  5
F61
330
1F
100
AcDbEntity
  8
LOGO
 62
     2
100
AcDbTrace
 10
497.4285130332311
 20
137.5608872426507
 30
0.0
 11
497.9952282340789
 21
137.560887242651
 31
0.0
 12
504.5124530438179
 22
150.5481105953922
 32
0.0
 13
505.079168244665
 23
150.5481105953922
 33
0.0
  0
SOLID
  5
F62
330
1F
100
AcDbEntity
  8
LOGO
 62
     5
100
AcDbTrace
 10
493.8632079783591
 20
132.8382605689271
 30
0.0
 11
494.3354706457316
 21
132.8382605689271
 31
0.0
 12
495.6653990750406
 22
135.1995739057887
 32
0.0
 13
496.1376617424125
 23
135.1995739057887
 33
0.0
  0
SOLID
  5
F63
330
1F
100
AcDbEntity
  8
LOGO
 62
     5
100
AcDbTrace
 10
495.6653990750406
 20
135.1995739057887
 30
0.0
 11
496.1376617424125
 21
135.1995739057887
 31
0.0
 12
495.6653990750406
 22
132.8382605689271
 32
0.0
 13
496.1376617424125
 23
132.8382605689271
 33
0.0
  0
SOLID
  5
F64
330
1F
100
AcDbEntity
  8
LOGO
 62
     5
100
AcDbTrace
 10
495.6653990750406
 20
132.8382605689271
 30
0.0
 11
496.1376617424125
 21
132.8382605689271
 31
0.0
 12
497.4675901717234
 22
135.1995739057887
 32
0.0
 13
497.9398528390958
 23
135.1995739057887
 33
0.0
  0
SOLID
  5
F65
330
1F
100
AcDbEntity
  8
LOGO
 62
     5
100
AcDbTrace
 10
497.4675901717234
 20
135.1995739057887
 30
0.0
 11
497.9398528390958
 21
135.1995739057887
 31
0.0
 12
497.4675901717234
 22
132.8382605689271
 32
0.0
 13
497.9398528390958
 23
132.8382605689271
 33
0.0
  0
POLYLINE
  5
F66
330
1F
100
AcDbEntity
  8
LOGO
 62
     5
100
AcDb2dPolyline
 66
     1
 10
0.0
 20
0.0
 30
0.0
 40
0.4730194985701357
 41
0.4730194985701357
  0
VERTEX
  5
F67
330
F66
100
AcDbEntity
  8
LOGO
 62
     5
100
AcDbVertex
100
AcDb2dVertex
 10
513.2976739037416
 20
134.2550485710441
 30
0.0
 42
1.0
  0
VERTEX
  5
F68
330
F66
100
AcDbEntity
  8
LOGO
 62
     5
100
AcDbVertex
100
AcDb2dVertex
 10
511.878615408031
 20
134.2550485710441
 30
0.0
 42
1.0
  0
SEQEND
  5
F69
330
F66
100
AcDbEntity
  8
LOGO
 62
     5
  0
POLYLINE
  5
F6A
330
1F
100
AcDbEntity
  8
LOGO
 62
     5
100
AcDb2dPolyline
 66
     1
 10
0.0
 20
0.0
 30
0.0
 70
     1
  0
VERTEX
  5
F6B
330
F6A
100
AcDbEntity
  8
LOGO
 62
     5
100
AcDbVertex
100
AcDb2dVertex
 10
509.2036270238946
 20
134.0189172373576
 30
0.0
 42
1.000000057330635
  0
VERTEX
  5
F6C
330
F6A
100
AcDbEntity
  8
LOGO
 62
     5
100
AcDbVertex
100
AcDb2dVertex
 10
510.6204150260119
 20
134.0189172373576
 30
0.0
 42
1.000000057330635
  0
SEQEND
  5
F6D
330
F6A
100
AcDbEntity
  8
LOGO
 62
     5
  0
CIRCLE
  5
F6E
330
1F
100
AcDbEntity
  8
LOGO
 62
     5
100
AcDbCircle
 10
509.9120210249538
 20
134.0189172373576
 30
0.0
 40
0.7083940010586354
  0
POLYLINE
  5
F6F
330
1F
100
AcDbEntity
  8
LOGO
 62
     5
100
AcDb2dPolyline
 66
     1
 10
0.0
 20
0.0
 30
0.0
 70
     1
 40
0.4730194985701357
 41
0.4730194985701357
  0
VERTEX
  5
F70
330
F6F
100
AcDbEntity
  8
LOGO
 62
     5
100
AcDbVertex
100
AcDb2dVertex
 10
508.9659820278131
 20
134.0189172373576
 30
0.0
 42
1.0
  0
VERTEX
  5
F71
330
F6F
100
AcDbEntity
  8
LOGO
 62
     5
100
AcDbVertex
100
AcDb2dVertex
 10
510.8580600220939
 20
134.0189172373576
 30
0.0
 42
1.0
  0
SEQEND
  5
F72
330
F6F
100
AcDbEntity
  8
LOGO
 62
     5
  0
LINE
  5
F73
330
1F
100
AcDbEntity
  8
LOGO
100
AcDbLine
 10
513.5326699906303
 20
132.8382605689271
 30
0.0
 11
513.5326699906303
 21
134.2550485710441
 31
0.0
  0
SOLID
  5
F74
330
1F
100
AcDbEntity
  8
LOGO
 62
     5
100
AcDbTrace
 10
510.6203677997471
 20
135.1995739057887
 30
0.0
 11
511.0926304671184
 21
135.1995739057887
 31
0.0
 12
510.6203677997471
 22
132.8382605689271
 32
0.0
 13
511.0926304671184
 23
132.8382605689271
 33
0.0
  0
SOLID
  5
F75
330
1F
100
AcDbEntity
  8
LOGO
 62
     5
100
AcDbTrace
 10
511.6436193211411
 20
132.8382605689271
 30
0.0
 11
512.1158819885141
 21
132.8382605689271
 31
0.0
 12
511.6436193211411
 22
135.1995739057887
 32
0.0
 13
512.1158819885141
 23
135.1995739057887
 33
0.0
  0
SOLID
  5
F76
330
1F
100
AcDbEntity
  8
LOGO
 62
     5
100
AcDbTrace
 10
513.0604073232591
 20
134.2550485710441
 30
0.0
 11
513.5326699906303
 21
134.2550485710441
 31
0.0
 12
513.0604073232591
 22
132.8382605689271
 32
0.0
 13
513.5326699906303
 23
132.8382605689271
 33
0.0
  0
SOLID
  5
F77
330
1F
100
AcDbEntity
  8
LOGO
 62
     5
100
AcDbTrace
 10
511.5963930544033
 20
149.509132727173
 30
0.0
 11
510.2268313190243
 21
144.4874063641129
 31
0.0
 12
511.5963930544033
 22
137.5608872426507
 32
0.0
 13
510.2268313190243
 23
137.5608872426507
 33
0.0
  0
SOLID
  5
F78
330
1F
100
AcDbEntity
  8
LOGO
 62
     5
100
AcDbTrace
 10
512.1631082552513
 20
137.5608872426507
 30
0.0
 11
513.5326699906303
 21
137.5608872426507
 31
0.0
 12
512.1631082552513
 22
150.5481105953922
 32
0.0
 13
513.5326699906303
 23
150.5481105953928
 33
0.0
  0
SOLID
  5
F79
330
1F
100
AcDbEntity
  8
LOGO
 62
     2
100
AcDbTrace
 10
511.5963930544033
 20
150.5481105953928
 30
0.0
 11
512.1631082552513
 21
150.5481105953922
 31
0.0
 12
511.5963930544033
 22
137.5608872426507
 32
0.0
 13
512.1631082552513
 23
137.5608872426507
 33
0.0
  0
POLYLINE
  5
F7A
330
1F
100
AcDbEntity
  8
LOGO
 62
     5
100
AcDb2dPolyline
 66
     1
 10
0.0
 20
0.0
 30
0.0
 40
0.4730194985701357
 41
0.4730194985701357
  0
VERTEX
  5
F7B
330
F7A
100
AcDbEntity
  8
LOGO
 62
     5
100
AcDbVertex
100
AcDb2dVertex
 10
506.528544187226
 20
134.2550485710441
 30
0.0
 42
1.0
  0
VERTEX
  5
F7C
330
F7A
100
AcDbEntity
  8
LOGO
 62
     5
100
AcDbVertex
100
AcDb2dVertex
 10
505.1094856915154
 20
134.2550485710441
 30
0.0
 42
1.0
  0
SEQEND
  5
F7D
330
F7A
100
AcDbEntity
  8
LOGO
 62
     5
  0
POLYLINE
  5
F7E
330
1F
100
AcDbEntity
  8
LOGO
 62
     5
100
AcDb2dPolyline
 66
     1
 10
0.0
 20
0.0
 30
0.0
 40
0.4730194985701357
 41
0.4730194985701357
  0
VERTEX
  5
F7F
330
F7E
100
AcDbEntity
  8
LOGO
 62
     5
100
AcDbVertex
100
AcDb2dVertex
 10
507.9453321893421
 20
134.2550485710441
 30
0.0
 42
1.0
  0
VERTEX
  5
F80
330
F7E
100
AcDbEntity
  8
LOGO
 62
     5
100
AcDbVertex
100
AcDb2dVertex
 10
506.5262736936322
 20
134.2550485710441
 30
0.0
 42
1.0
  0
SEQEND
  5
F81
330
F7E
100
AcDbEntity
  8
LOGO
 62
     5
  0
POLYLINE
  5
F82
330
1F
100
AcDbEntity
  8
LOGO
 62
     5
100
AcDb2dPolyline
 66
     1
 10
0.0
 20
0.0
 30
0.0
 40
0.4730194985701357
 41
0.4730194985701357
  0
VERTEX
  5
F83
330
F82
100
AcDbEntity
  8
LOGO
 62
     5
100
AcDbVertex
100
AcDb2dVertex
 10
501.1762024728264
 20
134.2550485710441
 30
0.0
 42
1.0
  0
VERTEX
  5
F84
330
F82
100
AcDbEntity
  8
LOGO
 62
     5
100
AcDbVertex
100
AcDb2dVertex
 10
499.7571439771165
 20
134.2550485710441
 30
0.0
 42
1.0
  0
SEQEND
  5
F85
330
F82
100
AcDbEntity
  8
LOGO
 62
     5
  0
SOLID
  5
F86
330
1F
100
AcDbEntity
  8
LOGO
 62
     5
100
AcDbTrace
 10
499.5221478902266
 20
135.1995739057887
 30
0.0
 11
499.9944105575984
 21
135.1995739057887
 31
0.0
 12
499.5221478902266
 22
132.8382605689271
 32
0.0
 13
499.9944105575984
 23
132.8382605689271
 33
0.0
  0
SOLID
  5
F87
330
1F
100
AcDbEntity
  8
LOGO
 62
     5
100
AcDbTrace
 10
500.9389358923439
 20
134.2550485710441
 30
0.0
 11
501.411198559717
 21
134.2550485710441
 31
0.0
 12
500.9389358923439
 22
132.8382605689271
 32
0.0
 13
501.411198559717
 23
132.8382605689271
 33
0.0
  0
POLYLINE
  5
F88
330
1F
100
AcDbEntity
  8
LOGO
 62
     5
100
AcDb2dPolyline
 66
     1
 10
0.0
 20
0.0
 30
0.0
 70
     1
 40
0.4730194985701357
 41
0.4730194985701357
  0
VERTEX
  5
F89
330
F88
100
AcDbEntity
  8
LOGO
 62
     5
100
AcDbVertex
100
AcDb2dVertex
 10
502.1968523112964
 20
134.0189172373576
 30
0.0
 42
1.0
  0
VERTEX
  5
F8A
330
F88
100
AcDbEntity
  8
LOGO
 62
     5
100
AcDbVertex
100
AcDb2dVertex
 10
504.0889303055775
 20
134.0189172373576
 30
0.0
 42
1.0
  0
SEQEND
  5
F8B
330
F88
100
AcDbEntity
  8
LOGO
 62
     5
  0
SOLID
  5
F8C
330
1F
100
AcDbEntity
  8
LOGO
 62
     5
100
AcDbTrace
 10
503.8512380832296
 20
135.907967906848
 30
0.0
 11
504.323500750602
 21
135.907967906848
 31
0.0
 12
503.8512380832296
 22
132.8382605689271
 32
0.0
 13
504.323500750602
 23
132.8382605689271
 33
0.0
  0
SOLID
  5
F8D
330
1F
100
AcDbEntity
  8
LOGO
 62
     5
100
AcDbTrace
 10
504.8744896046267
 20
135.1995739057887
 30
0.0
 11
505.3467522719979
 21
135.1995739057887
 31
0.0
 12
504.8744896046267
 22
132.8382605689271
 32
0.0
 13
505.3467522719979
 23
132.8382605689271
 33
0.0
  0
SOLID
  5
F8E
330
1F
100
AcDbEntity
  8
LOGO
 62
     5
100
AcDbTrace
 10
506.2912776067429
 20
134.2550485710441
 30
0.0
 11
506.7635402741152
 21
134.2550485710441
 31
0.0
 12
506.2912776067429
 22
132.8382605689271
 32
0.0
 13
506.7635402741152
 23
132.8382605689271
 33
0.0
  0
SOLID
  5
F8F
330
1F
100
AcDbEntity
  8
LOGO
 62
     5
100
AcDbTrace
 10
507.7080656088602
 20
134.2550485710441
 30
0.0
 11
508.180328276232
 21
134.2550485710441
 31
0.0
 12
507.7080656088602
 22
132.8382605689265
 32
0.0
 13
508.180328276232
 23
132.8382605689265
 33
0.0
  0
SOLID
  5
F90
330
1F
100
AcDbEntity
  8
LOGO
 62
     5
100
AcDbTrace
 10
498.4988963688307
 20
135.5301577729498
 30
0.0
 11
498.9711590362044
 21
135.5301577729498
 31
0.0
 12
498.4988963688307
 22
135.907967906848
 32
0.0
 13
498.9711590362044
 23
135.907967906848
 33
0.0
  0
SOLID
  5
F91
330
1F
100
AcDbEntity
  8
LOGO
 62
     5
100
AcDbTrace
 10
498.4988963688307
 20
135.1995739057887
 30
0.0
 11
498.9711590362044
 21
135.1995739057887
 31
0.0
 12
498.4988963688307
 22
132.8382605689265
 32
0.0
 13
498.9711590362044
 23
132.8382605689271
 33
0.0
  0
SOLID
  5
F92
330
1F
100
AcDbEntity
  8
LOGO
 62
     5
100
AcDbTrace
 10
503.1428913084369
 20
137.560887242651
 30
0.0
 11
504.5124530438179
 21
137.560887242651
 31
0.0
 12
503.1428913084369
 22
144.4874063641129
 32
0.0
 13
504.5124530438179
 23
149.509132727173
 33
0.0
  0
SOLID
  5
F93
330
1F
100
AcDbEntity
  8
LOGO
 62
     5
100
AcDbTrace
 10
505.079168244665
 20
150.5481105953922
 30
0.0
 11
506.4487299800448
 21
150.5481105953928
 31
0.0
 12
505.079168244665
 22
138.5998651108702
 32
0.0
 13
506.4487299800448
 23
143.6215914739303
 33
0.0
  0
SOLID
  5
F94
330
1F
100
AcDbEntity
  8
LOGO
 62
     2
100
AcDbTrace
 10
504.5124530438179
 20
150.5481105953922
 30
0.0
 11
505.079168244665
 21
150.5481105953922
 31
0.0
 12
504.5124530438179
 22
137.560887242651
 32
0.0
 13
505.079168244665
 23
137.560887242651
 33
0.0
  0
SOLID
  5
F95
330
1F
100
AcDbEntity
  8
LOGO
 62
     5
100
AcDbTrace
 10
505.079168244665
 20
138.5998651108702
 30
0.0
 11
506.4487299800448
 21
143.6215914739303
 31
0.0
 12
511.5963930544033
 22
150.5481105953928
 32
0.0
 13
510.2268313190243
 23
150.5481105953928
 33
0.0
  0
SOLID
  5
F96
330
1F
100
AcDbEntity
  8
LOGO
 62
     5
100
AcDbTrace
 10
505.079168244665
 20
137.560887242651
 30
0.0
 11
506.4487299800448
 21
137.560887242651
 31
0.0
 12
511.5963930544033
 22
149.509132727173
 32
0.0
 13
510.2268313190243
 23
144.4874063641129
 33
0.0
  0
SOLID
  5
F97
330
1F
100
AcDbEntity
  8
LOGO
 62
     2
100
AcDbTrace
 10
504.5124530438179
 20
137.560887242651
 30
0.0
 11
505.079168244665
 21
137.560887242651
 31
0.0
 12
511.5963930544033
 22
150.5481105953928
 32
0.0
 13
512.1631082552513
 23
150.5481105953922
 33
0.0
  0
LWPOLYLINE
  5
F98
330
1F
100
AcDbEntity
  8
LOGO
 62
     4
100
AcDbPolyline
 90
        4
 70
     1
 43
0.0
 10
492.7725763794217
 20
151.3005484306313
 10
834.8073826205885
 20
151.3005484306313
 10
834.8073826205885
 20
119.6251355799521
 10
492.7725763794217
 20
119.6251355799521
1001
GENIUS_GENREC_14
1002
{
1000
PYDIR
1011
492.7725763794217
1021
119.6251355799521
1031
0.0
1002
}
1002
{
1000
PXDIR
1011
834.8073826205885
1021
151.3005484306313
1031
0.0
1002
}
1002
{
1000
PORI
1011
492.7725763794217
1021
151.3005484306313
1031
0.0
1002
}
1002
{
1000
PINS
1011
492.7725763794217
1021
151.3005484306313
1031
0.0
1002
}
1002
{
1000
PINS2
1011
834.8073826205885
1021
119.6251355799521
1031
0.0
1002
}
1002
{
1000
C
1070
     1
1002
}
1001
GENIUS_GENOBJ-N-REC_13
1002
{
1000
OWNER
1000
GEN
1002
}
1001
GENIUS_GENODEF_13
1002
{
1000
HIER
1070
     0
1002
}
1002
{
1000
MANEDIT
1070
     0
1002
}
1002
{
1000
NOSEL
1070
     0
1002
}
1002
{
1000
BEHIND
1070
     0
1002
}
1002
{
1000
OTHER
1070
     0
1002
}
1002
{
1000
REACTOR
1002
}
  0
CIRCLE
  5
F99
330
1F
100
AcDbEntity
  8
LOGO
  6
Continuous
100
AcDbCircle
 10
547.2066416295667
 20
141.804699969416
 30
0.0
 40
1.83914902562788
  0
CIRCLE
  5
F9A
330
1F
100
AcDbEntity
  8
LOGO
  6
Continuous
100
AcDbCircle
 10
547.2066416295667
 20
141.804699969416
 30
0.0
 40
1.077578518366306
  0
LINE
  5
F9B
330
1F
100
AcDbEntity
  8
LOGO
100
AcDbLine
 10
558.7640675124407
 20
139.9655509437877
 30
0.0
 11
558.7640675124407
 21
143.6438489950444
 31
0.0
  0
LINE
  5
F9C
330
1F
100
AcDbEntity
  8
LOGO
100
AcDbLine
 10
552.998440889289
 20
140.7271214510499
 30
0.0
 11
552.998440889289
 21
142.8822784877825
 31
0.0
  0
LINE
  5
F9D
330
1F
100
AcDbEntity
  8
LOGO
  6
Continuous
100
AcDbLine
 10
552.998440889289
 20
142.8822784877825
 30
0.0
 11
558.7640675124407
 21
143.6438489950444
 31
0.0
  0
LINE
  5
F9E
330
1F
100
AcDbEntity
  8
LOGO
  6
Continuous
100
AcDbLine
 10
552.998440889289
 20
140.7271214510499
 30
0.0
 11
558.7640675124407
 21
139.9655509437877
 31
0.0
  0
LINE
  5
F9F
330
1F
100
AcDbEntity
  8
LOGO
  6
AM_ISO08W050x2
 48
0.3
100
AcDbLine
 10
544.6713471586506
 20
141.804699969416
 30
0.0
 11
549.7419361004825
 21
141.804699969416
 31
0.0
1001
GENIUS_GENOREF_13
1005
FE7
  0
LINE
  5
FA0
330
1F
100
AcDbEntity
  8
LOGO
  6
AM_ISO08W050x2
 48
0.3
100
AcDbLine
 10
547.2066416295667
 20
139.2694054984998
 30
0.0
 11
547.2066416295667
 21
144.3399944403321
 31
0.0
1001
GENIUS_GENOREF_13
1005
FE6
  0
LINE
  5
FA1
330
1F
100
AcDbEntity
  8
LOGO
  6
CENTER
 48
0.5
100
AcDbLine
 10
552.5373510142792
 20
141.804699969416
 30
0.0
 11
559.3446474490964
 21
141.804699969416
 31
0.0
1001
GENIUS_GENOREF_13
1005
FE5
  0
TEXT
  5
FA2
330
1F
100
AcDbEntity
  8
LOGO
 62
     7
100
AcDbText
 10
564.2935612269742
 20
137.4240890639563
 30
0.0
 40
4.223388380090497
  1
Order example:
 41
0.8
  7
CHINESET
100
AcDbText
  0
TEXT
  5
FA3
330
1F
100
AcDbEntity
  8
LOGO
 62
     7
100
AcDbText
 10
565.0512720283635
 20
143.3697454394016
 30
0.0
 40
6.335082570135746
  1
訂購代號：
  7
CHINESET
100
AcDbText
  0
TEXT
  5
FA4
330
1F
100
AcDbEntity
  8
LOGO
100
AcDbText
 10
563.926117027436
 20
121.3102550415239
 30
0.0
 40
3.168
  1
10610065
 41
0.7
  7
CHINESET
 72
     1
 11
571.634917027436
 21
121.3102550415239
 31
0.0
100
AcDbText
  0
LINE
  5
FA5
330
1F
100
AcDbEntity
  8
LOGO
 62
     4
100
AcDbLine
 10
581.4664846509141
 20
125.9602181500888
 30
0.0
 11
581.4664846509153
 21
119.6251355799527
 31
0.0
  0
LINE
  5
FA6
330
1F
100
AcDbEntity
  8
LOGO
 62
     4
100
AcDbLine
 10
581.4664846509141
 20
125.9602181500888
 30
0.0
 11
562.4584846509152
 21
125.9602181500888
 31
0.0
  0
LINE
  5
FA7
330
1F
100
AcDbEntity
  8
LOGO
 62
     4
100
AcDbLine
 10
627.1435511012871
 20
133.8790713627584
 30
0.0
 11
627.1435511012871
 21
122.2647533175091
 31
0.0
  0
LINE
  5
FA8
330
1F
100
AcDbEntity
  8
LOGO
 62
     4
100
AcDbLine
 10
606.0266092008345
 20
133.8790713627584
 30
0.0
 11
606.0266092008345
 21
122.2647533175091
 31
0.0
  0
LINE
  5
FA9
330
1F
100
AcDbEntity
  8
LOGO
 62
     4
100
AcDbLine
 10
627.1435511012871
 20
122.2647533175091
 30
0.0
 11
606.0266092008345
 21
122.2647533175091
 31
0.0
  0
LINE
  5
FAA
330
1F
100
AcDbEntity
  8
LOGO
 62
     4
100
AcDbLine
 10
631.0579878563152
 20
148.1330071455632
 30
0.0
 11
606.0266092008345
 21
148.1330071455632
 31
0.0
  0
LINE
  5
FAB
330
1F
100
AcDbEntity
  8
LOGO
 62
     4
100
AcDbLine
 10
631.0579878563152
 20
138.6303832903597
 30
0.0
 11
606.0266092008345
 21
138.6303832903597
 31
0.0
  0
LINE
  5
FAC
330
1F
100
AcDbEntity
  8
LOGO
 62
     4
100
AcDbLine
 10
606.0266092008345
 20
148.1330071455632
 30
0.0
 11
606.0266092008345
 21
138.6303832903597
 31
0.0
  0
LINE
  5
FAD
330
1F
100
AcDbEntity
  8
LOGO
 62
     4
100
AcDbLine
 10
631.0579878563152
 20
148.1330071455632
 30
0.0
 11
631.0579878563152
 21
138.6303832903597
 31
0.0
  0
LINE
  5
FAE
330
1F
100
AcDbEntity
  8
LOGO
 62
     4
100
AcDbLine
 10
617.6868541261875
 20
138.6303832903597
 30
0.0
 11
617.6868541261875
 21
133.8790713627584
 31
0.0
  0
TEXT
  5
FAF
330
1F
100
AcDbEntity
  8
LOGO
  6
Continuous
 62
     7
100
AcDbText
 10
607.7150766354702
 20
140.6140421272992
 30
0.0
 40
5.544
  1
MVSB
  7
CHINESET
100
AcDbText
  0
LINE
  5
FB0
330
1F
100
AcDbEntity
  8
LOGO
 62
     4
100
AcDbLine
 10
627.1435511012871
 20
133.8790713627584
 30
0.0
 11
606.0266092008345
 21
133.8790713627584
 31
0.0
  0
TEXT
  5
FB1
330
1F
100
AcDbEntity
  8
LOGO
  6
Continuous
100
AcDbText
 10
612.8029690014694
 20
123.9040896808625
 30
207.5954376039189
 40
2.376
  1
Model
 41
0.8
  7
CHINESET
100
AcDbText
  0
TEXT
  5
FB2
330
1F
100
AcDbEntity
  8
LOGO
100
AcDbText
 10
612.1705550404786
 20
128.3086816163151
 30
207.5954376039189
 40
3.959999999999999
  1
型號
  7
CHINESET
100
AcDbText
  0
LINE
  5
FB3
330
1F
100
AcDbEntity
  8
LOGO
  6
Continuous
 62
     7
100
AcDbLine
 10
632.0681953102284
 20
143.3480354224969
 30
0.0
 11
636.2642072693486
 21
143.3480354224969
 31
0.0
  0
TEXT
  5
FB4
330
1F
100
AcDbEntity
  8
LOGO
  6
Continuous
 62
     7
100
AcDbText
 10
638.0589248923883
 20
140.6140421272992
 30
0.0
 40
5.544
  1
188
  7
CHINESET
100
AcDbText
  0
LINE
  5
FB5
330
1F
100
AcDbEntity
  8
LOGO
  6
Continuous
 62
     7
100
AcDbLine
 10
653.0005974587729
 20
143.3480354224969
 30
0.0
 11
657.1966094178938
 21
143.3480354224969
 31
0.0
  0
LINE
  5
FB6
330
1F
100
AcDbEntity
  8
LOGO
 62
     4
100
AcDbLine
 10
655.9259682856027
 20
133.8790713627584
 30
0.0
 11
655.9259682856027
 21
122.2647533175091
 31
0.0
  0
LINE
  5
FB7
330
1F
100
AcDbEntity
  8
LOGO
 62
     4
100
AcDbLine
 10
636.6380511115838
 20
133.8790713627584
 30
0.0
 11
636.6380511115838
 21
122.2647533175091
 31
0.0
  0
LINE
  5
FB8
330
1F
100
AcDbEntity
  8
LOGO
 62
     4
100
AcDbLine
 10
655.9259682856027
 20
122.2647533175091
 30
0.0
 11
636.6380511115838
 21
122.2647533175091
 31
0.0
  0
LINE
  5
FB9
330
1F
100
AcDbEntity
  8
LOGO
 62
     4
100
AcDbLine
 10
670.5375877046618
 20
148.1330071455632
 30
0.0
 11
658.5202300060057
 21
148.1330071455632
 31
0.0
  0
LINE
  5
FBA
330
1F
100
AcDbEntity
  8
LOGO
 62
     4
100
AcDbLine
 10
670.5375877046618
 20
138.6303832903597
 30
0.0
 11
658.5202300060057
 21
138.6303832903597
 31
0.0
  0
LINE
  5
FBB
330
1F
100
AcDbEntity
  8
LOGO
 62
     4
100
AcDbLine
 10
658.5202300060057
 20
148.1330071455632
 30
0.0
 11
658.5202300060057
 21
138.6303832903597
 31
0.0
  0
LINE
  5
FBC
330
1F
100
AcDbEntity
  8
LOGO
 62
     4
100
AcDbLine
 10
670.5375877046618
 20
148.1330071455632
 30
0.0
 11
670.5375877046618
 21
138.6303832903597
 31
0.0
  0
LINE
  5
FBD
330
1F
100
AcDbEntity
  8
LOGO
 62
     4
100
AcDbLine
 10
665.8212718073123
 20
138.6303832903597
 30
0.0
 11
665.8212718073123
 21
136.2547273265592
 31
0.0
  0
TEXT
  5
FBE
330
1F
100
AcDbEntity
  8
LOGO
  6
Continuous
 62
     7
100
AcDbText
 10
659.785003831134
 20
140.6140421272992
 30
0.0
 40
5.544
  1
5B
  7
CHINESET
100
AcDbText
  0
LINE
  5
FBF
330
1F
100
AcDbEntity
  8
LOGO
 62
     4
100
AcDbLine
 10
655.9259682856027
 20
133.8790713627584
 30
0.0
 11
636.6380511115838
 21
133.8790713627584
 31
0.0
  0
LINE
  5
FC0
330
1F
100
AcDbEntity
  8
LOGO
 62
     4
100
AcDbLine
 10
679.887976610759
 20
133.8790713627584
 30
0.0
 11
679.887976610759
 21
122.2647533175091
 31
0.0
  0
LINE
  5
FC1
330
1F
100
AcDbEntity
  8
LOGO
 62
     4
100
AcDbLine
 10
662.6848609463796
 20
133.8790713627584
 30
0.0
 11
662.6848609463796
 21
122.2647533175091
 31
0.0
  0
LINE
  5
FC2
330
1F
100
AcDbEntity
  8
LOGO
 62
     4
100
AcDbLine
 10
679.887976610759
 20
122.2647533175091
 30
0.0
 11
662.6848609463796
 21
122.2647533175091
 31
0.0
  0
LINE
  5
FC3
330
1F
100
AcDbEntity
  8
LOGO
 62
     4
100
AcDbLine
 10
679.8783107183451
 20
148.1330071455632
 30
0.0
 11
671.821588222899
 21
148.1330071455632
 31
0.0
  0
LINE
  5
FC4
330
1F
100
AcDbEntity
  8
LOGO
 62
     4
100
AcDbLine
 10
679.8783107183451
 20
138.6303832903597
 30
0.0
 11
671.821588222899
 21
138.6303832903597
 31
0.0
  0
LINE
  5
FC5
330
1F
100
AcDbEntity
  8
LOGO
 62
     4
100
AcDbLine
 10
671.821588222899
 20
148.1330071455632
 30
0.0
 11
671.821588222899
 21
138.6303832903597
 31
0.0
  0
LINE
  5
FC6
330
1F
100
AcDbEntity
  8
LOGO
 62
     4
100
AcDbLine
 10
679.8783107183451
 20
148.1330071455632
 30
0.0
 11
679.8783107183451
 21
138.6303832903597
 31
0.0
  0
LINE
  5
FC7
330
1F
100
AcDbEntity
  8
LOGO
 62
     4
100
AcDbLine
 10
676.8768521708762
 20
138.6303832903597
 30
0.0
 11
676.8768521708756
 21
136.2547273265592
 31
0.0
  0
TEXT
  5
FC8
330
1F
100
AcDbEntity
  8
LOGO
  6
Continuous
 62
     7
100
AcDbText
 10
673.9456872413113
 20
140.6140421272992
 30
0.0
 40
5.544
  1
*
  7
CHINESET
100
AcDbText
  0
LINE
  5
FC9
330
1F
100
AcDbEntity
  8
LOGO
 62
     4
100
AcDbLine
 10
679.887976610759
 20
133.8790713627584
 30
0.0
 11
662.6848609463796
 21
133.8790713627584
 31
0.0
  0
TEXT
  5
FCA
330
1F
100
AcDbEntity
  8
LOGO
  6
Continuous
100
AcDbText
 10
641.0611873673603
 20
123.9040896808625
 30
207.5954376039189
 40
2.376
  1
Manifold
 41
0.8
  7
CHINESET
100
AcDbText
  0
TEXT
  5
FCB
330
1F
100
AcDbEntity
  8
LOGO
100
AcDbText
 10
642.0192161663456
 20
128.3086816163151
 30
207.5954376039189
 40
3.959999999999999
  1
連座
  7
CHINESET
100
AcDbText
  0
TEXT
  5
FCC
330
1F
100
AcDbEntity
  8
LOGO
  6
Continuous
100
AcDbText
 10
665.5822569498679
 20
123.9040896808625
 30
207.5954376039189
 40
2.376
  1
Number
 41
0.8
  7
CHINESET
100
AcDbText
  0
TEXT
  5
FCD
330
1F
100
AcDbEntity
  8
LOGO
100
AcDbText
 10
665.4175129204354
 20
128.3086816163151
 30
207.5954376039189
 40
3.959999999999999
  1
連座數
  7
CHINESET
100
AcDbText
  0
LINE
  5
FCE
330
1F
100
AcDbEntity
  8
LOGO
 62
     4
100
AcDbLine
 10
665.8212718073123
 20
136.2547273265592
 30
0.0
 11
647.1965220618101
 21
136.2547273265592
 31
0.0
  0
LINE
  5
FCF
330
1F
100
AcDbEntity
  8
LOGO
 62
     4
100
AcDbLine
 10
647.1965220618101
 20
133.8790713627584
 30
0.0
 11
647.1965220618101
 21
136.2547273265592
 31
0.0
  0
LINE
  5
FD0
330
1F
100
AcDbEntity
  8
LOGO
 62
     4
100
AcDbLine
 10
671.2864187785689
 20
133.8790713627584
 30
0.0
 11
671.2864187785689
 21
136.2547273265592
 31
0.0
  0
LINE
  5
FD1
330
1F
100
AcDbEntity
  8
LOGO
 62
     4
100
AcDbLine
 10
676.8768521708762
 20
136.2547273265592
 30
0.0
 11
671.2864187785689
 21
136.2547273265592
 31
0.0
  0
POINT
  5
FE5
330
1F
100
AcDbEntity
  8
0
 60
     1
100
AcDbPoint
 10
-1885.918616060968
 20
-475.755636894764
 30
0.0
1001
GENIUS_GENOBJ-N-CRS_13
1002
{
1000
OWNER
1000
GEN
1002
}
1001
GENIUS_GENOLIS_13
1002
{
1000
ENT
1005
0
1005
0
1005
0
1005
FA1
1002
}
1001
GENIUS_GENOENT_13
1002
{
1000
MYREF
1005
FE5
1002
}
1002
{
1000
GRP
1005
0
1002
}
1001
GENIUS_GENODEF_13
1002
{
1000
HIER
1070
    10
1002
}
1002
{
1000
MANEDIT
1070
     1
1002
}
1002
{
1000
NOSEL
1070
     0
1002
}
1002
{
1000
BEHIND
1070
     0
1002
}
1002
{
1000
OTHER
1070
     0
1002
}
1002
{
1000
REACTOR
1002
}
  0
POINT
  5
FE6
330
1F
100
AcDbEntity
  8
0
 60
     1
100
AcDbPoint
 10
-1897.243201283823
 20
-466.8800504161278
 30
0.0
1001
GENIUS_GENOBJ-N-CRS_13
1002
{
1000
OWNER
1000
GEN
1002
}
1001
GENIUS_GENOLIS_13
1002
{
1000
ENT
1005
0
1005
0
1005
0
1005
FA0
1002
}
1001
GENIUS_GENOENT_13
1002
{
1000
MYREF
1005
FE6
1002
}
1002
{
1000
GRP
1005
0
1002
}
1001
GENIUS_GENODEF_13
1002
{
1000
HIER
1070
    10
1002
}
1002
{
1000
MANEDIT
1070
     1
1002
}
1002
{
1000
NOSEL
1070
     0
1002
}
1002
{
1000
BEHIND
1070
     0
1002
}
1002
{
1000
OTHER
1070
     0
1002
}
1002
{
1000
REACTOR
1002
}
  0
POINT
  5
FE7
330
1F
100
AcDbEntity
  8
0
 60
     1
100
AcDbPoint
 10
-1890.884527585986
 20
-475.755636894764
 30
0.0
1001
GENIUS_GENOBJ-N-CRS_13
1002
{
1000
OWNER
1000
GEN
1002
}
1001
GENIUS_GENOLIS_13
1002
{
1000
ENT
1005
0
1005
0
1005
0
1005
F9F
1002
}
1001
GENIUS_GENOENT_13
1002
{
1000
MYREF
1005
FE7
1002
}
1002
{
1000
GRP
1005
0
1002
}
1001
GENIUS_GENODEF_13
1002
{
1000
HIER
1070
    10
1002
}
1002
{
1000
MANEDIT
1070
     1
1002
}
1002
{
1000
NOSEL
1070
     0
1002
}
1002
{
1000
BEHIND
1070
     0
1002
}
1002
{
1000
OTHER
1070
     0
1002
}
1002
{
1000
REACTOR
1002
}
  0
TEXT
  5
126A
330
1F
100
AcDbEntity
  8
AM_5
100
AcDbText
 10
677.27018515234
 20
257.2416126934158
 30
0.0
 40
3.0
  1
4-%%C4.5
100
AcDbText
  0
DIMENSION
  5
126C
330
1F
100
AcDbEntity
  8
AM_5
100
AcDbDimension
  2
*D27
 10
531.8353202460011
 20
279.9237131408461
 30
0.0
 11
529.384975757812
 21
290.6737131408462
 31
0.0
 70
    32
 71
     5
 42
21.5
  3
AM_ISO$0
100
AcDbAlignedDimension
 13
544.8353202460011
 23
301.4237131408461
 33
0.0
 14
544.8353202460011
 24
279.9237131408461
 34
0.0
 50
270.0
100
AcDbRotatedDimension
1001
ACAD
1000
DSTYLE
1002
{
1070
    40
1040
1.0
1070
   144
1040
1.0
1070
   272
1070
     8
1002
}
  0
DIMENSION
  5
126D
330
1F
100
AcDbEntity
  8
AM_5
100
AcDbDimension
  2
*D28
 10
531.8353202460011
 20
258.4237131408461
 30
0.0
 11
529.384975757812
 21
269.1737131408461
 31
0.0
 70
    32
 71
     5
 42
21.5
  3
AM_ISO$0
100
AcDbAlignedDimension
 13
544.8353202460011
 23
279.9237131408461
 33
0.0
 14
544.8353202460011
 24
258.4237131408461
 34
0.0
 50
270.0
100
AcDbRotatedDimension
1001
ACAD
1000
DSTYLE
1002
{
1070
    40
1040
1.0
1070
   144
1040
1.0
1070
   272
1070
     8
1002
}
  0
DIMENSION
  5
126E
330
1F
100
AcDbEntity
  8
AM_5
100
AcDbDimension
  2
*D29
 10
523.8353202460011
 20
249.9237131408461
 30
0.0
 11
521.3853202460011
 21
279.9237131408461
 31
0.0
 70
    32
 71
     5
 42
60.0
  3
AM_ISO$0
100
AcDbAlignedDimension
 13
544.4853202460011
 23
309.9237131408461
 33
0.0
 14
544.485320246001
 24
249.9237131408461
 34
0.0
 50
270.0
100
AcDbRotatedDimension
1001
ACAD
1000
DSTYLE
1002
{
1070
    40
1040
1.0
1070
   144
1040
1.0
1070
   272
1070
     8
1002
}
  0
DIMENSION
  5
126F
330
1F
100
AcDbEntity
  8
AM_5
100
AcDbDimension
  2
*D30
 10
553.485320246001
 20
237.9237131408461
 30
0.0
 11
548.485320246001
 21
240.3737131408461
 31
0.0
 70
    32
 71
     5
 42
10.0
  3
AM_ISO$0
100
AcDbAlignedDimension
 13
543.485320246001
 23
250.9237131408461
 33
0.0
 14
553.485320246001
 24
249.7737131408461
 34
0.0
100
AcDbRotatedDimension
1001
ACAD
1000
DSTYLE
1002
{
1070
    40
1040
1.0
1070
   144
1040
1.0
1070
   272
1070
     8
1002
}
  0
DIMENSION
  5
1270
330
1F
100
AcDbEntity
  8
AM_5
100
AcDbDimension
  2
*D31
 10
568.485320246001
 20
229.9237131408461
 30
0.0
 11
555.985320246001
 21
232.3740576290351
 31
0.0
 70
    32
 71
     5
 42
25.0
  3
AM_ISO$0
100
AcDbAlignedDimension
 13
543.485320246001
 23
250.9237131408461
 33
0.0
 14
568.485320246001
 24
254.9237131408461
 34
0.0
100
AcDbRotatedDimension
1001
ACAD
1000
DSTYLE
1002
{
1070
    40
1040
1.0
1070
   144
1040
1.0
1070
   272
1070
     8
1002
}
  0
DIMENSION
  5
1271
330
1F
100
AcDbEntity
  8
AM_5
100
AcDbDimension
  2
*D32
 10
683.8756012821416
 20
269.423713140846
 30
0.0
 11
681.4252567939526
 21
279.9237131408461
 31
0.0
 70
    32
 71
     5
 42
21.0
  3
AM_ISO$0
100
AcDbAlignedDimension
 13
662.5637024730129
 23
290.423713140846
 33
0.0
 14
662.5637024730129
 24
269.423713140846
 34
0.0
 50
270.0
100
AcDbRotatedDimension
1001
ACAD
1000
DSTYLE
1002
{
1070
    40
1040
1.0
1070
   144
1040
1.0
1070
   272
1070
     8
1002
}
  0
TEXT
  5
1274
330
1F
100
AcDbEntity
  8
AM_5
100
AcDbText
 10
567.7579305401105
 20
317.3407736624778
 30
0.0
 40
3.0
  1
3-PT1/4
100
AcDbText
  0
ARC
  5
1276
330
1F
100
AcDbEntity
  8
AM_4
100
AcDbCircle
 10
553.4853202460011
 20
301.4237131408462
 30
0.0
 40
6.899999999999999
100
AcDbArc
 50
260.0000000000014
 51
169.9999999999997
  0
CIRCLE
  5
1277
330
1F
100
AcDbEntity
  8
AM_0
100
AcDbCircle
 10
553.4853202460011
 20
301.423713140846
 30
0.0
 40
5.7225
  0
LINE
  5
1278
330
1F
100
AcDbEntity
  8
AM_VIS
100
AcDbLine
 10
602.7428755517869
 20
249.9237131408461
 30
0.0
 11
668.7428755517869
 21
249.923713140846
 31
0.0
  0
LINE
  5
1279
330
1F
100
AcDbEntity
  8
AM_VIS
100
AcDbLine
 10
602.7428755517869
 20
309.9237131408461
 30
0.0
 11
668.7428755517869
 21
309.923713140846
 31
0.0
  0
LINE
  5
127A
330
1F
100
AcDbEntity
  8
AM_VIS
100
AcDbLine
 10
602.7428755517869
 20
304.9237131408461
 30
0.0
 11
602.7428755517869
 21
309.9237131408461
 31
0.0
  0
LINE
  5
127B
102
{ACAD_REACTORS
330
1410
102
}
330
1F
100
AcDbEntity
  8
AM_VIS
100
AcDbLine
 10
602.7428755517869
 20
249.9237131408461
 30
0.0
 11
602.7428755517869
 21
254.9237131408461
 31
0.0
  0
LINE
  5
127C
102
{ACAD_REACTORS
330
1410
102
}
330
1F
100
AcDbEntity
  8
AM_VIS
100
AcDbLine
 10
668.7428755517869
 20
249.923713140846
 30
0.0
 11
668.7428755517869
 21
254.923713140846
 31
0.0
  0
LINE
  5
127D
330
1F
100
AcDbEntity
  8
AM_VIS
100
AcDbLine
 10
668.7428755517869
 20
304.923713140846
 30
0.0
 11
668.7428755517869
 21
309.923713140846
 31
0.0
  0
LINE
  5
127E
330
1F
100
AcDbEntity
  8
AM_VIS
100
AcDbLine
 10
602.7428755517869
 20
254.9237131408461
 30
0.0
 11
668.7428755517869
 21
254.923713140846
 31
0.0
  0
LINE
  5
127F
330
1F
100
AcDbEntity
  8
AM_VIS
100
AcDbLine
 10
602.7428755517869
 20
254.9237131408461
 30
0.0
 11
602.7428755517869
 21
304.9237131408461
 31
0.0
  0
LINE
  5
1280
330
1F
100
AcDbEntity
  8
AM_VIS
100
AcDbLine
 10
602.7428755517869
 20
304.9237131408461
 30
0.0
 11
668.7428755517869
 21
304.923713140846
 31
0.0
  0
LINE
  5
1281
330
1F
100
AcDbEntity
  8
AM_VIS
100
AcDbLine
 10
668.7428755517869
 20
254.923713140846
 30
0.0
 11
668.7428755517869
 21
304.923713140846
 31
0.0
  0
CIRCLE
  5
1282
330
1F
100
AcDbEntity
  8
AM_VIS
100
AcDbCircle
 10
612.742875551787
 20
290.423713140846
 30
0.0
 40
2.25
  0
CIRCLE
  5
1283
330
1F
100
AcDbEntity
  8
AM_VIS
100
AcDbCircle
 10
658.742875551787
 20
290.423713140846
 30
0.0
 40
2.25
  0
CIRCLE
  5
1284
330
1F
100
AcDbEntity
  8
AM_VIS
100
AcDbCircle
 10
612.742875551787
 20
269.423713140846
 30
0.0
 40
2.25
  0
CIRCLE
  5
1285
330
1F
100
AcDbEntity
  8
AM_VIS
100
AcDbCircle
 10
658.742875551787
 20
269.423713140846
 30
0.0
 40
2.25
  0
LINE
  5
1286
330
1F
100
AcDbEntity
  8
AM_VIS
100
AcDbLine
 10
602.7428755517869
 20
199.6969280405658
 30
0.0
 11
668.7428755517869
 21
199.6969280405657
 31
0.0
  0
LINE
  5
1287
330
1F
100
AcDbEntity
  8
AM_VIS
100
AcDbLine
 10
602.7428755517869
 20
204.6969280405658
 30
0.0
 11
668.7428755517869
 21
204.6969280405658
 31
0.0
  0
LINE
  5
1288
330
1F
100
AcDbEntity
  8
AM_VIS
100
AcDbLine
 10
602.7428755517869
 20
184.6969280405659
 30
0.0
 11
668.7428755517869
 21
184.6969280405657
 31
0.0
  0
LINE
  5
1289
330
1F
100
AcDbEntity
  8
AM_VIS
100
AcDbLine
 10
602.7428755517869
 20
204.6969280405658
 30
0.0
 11
602.7428755517869
 21
209.6969280405659
 31
0.0
  0
LINE
  5
128A
330
1F
100
AcDbEntity
  8
AM_VIS
100
AcDbLine
 10
602.7428755517869
 20
199.6969280405658
 30
0.0
 11
602.7428755517869
 21
204.6969280405658
 31
0.0
  0
LINE
  5
128B
330
1F
100
AcDbEntity
  8
AM_VIS
100
AcDbLine
 10
602.7428755517869
 20
185.6969280405659
 30
0.0
 11
602.7428755517869
 21
199.6969280405658
 31
0.0
  0
LINE
  5
128C
330
1F
100
AcDbEntity
  8
AM_VIS
100
AcDbLine
 10
602.7428755517869
 20
184.6969280405659
 30
0.0
 11
602.7428755517869
 21
185.6969280405659
 31
0.0
  0
LINE
  5
128D
330
1F
100
AcDbEntity
  8
AM_VIS
100
AcDbLine
 10
668.7428755517869
 20
185.6969280405657
 30
0.0
 11
668.7428755517869
 21
184.6969280405657
 31
0.0
  0
LINE
  5
128E
330
1F
100
AcDbEntity
  8
AM_VIS
100
AcDbLine
 10
668.7428755517869
 20
185.6969280405657
 30
0.0
 11
668.7428755517869
 21
199.6969280405657
 31
0.0
  0
LINE
  5
128F
330
1F
100
AcDbEntity
  8
AM_VIS
100
AcDbLine
 10
668.7428755517869
 20
199.6969280405657
 30
0.0
 11
668.7428755517869
 21
204.6969280405658
 31
0.0
  0
LINE
  5
1290
330
1F
100
AcDbEntity
  8
AM_VIS
100
AcDbLine
 10
668.7428755517869
 20
204.6969280405658
 30
0.0
 11
668.7428755517869
 21
209.6969280405657
 31
0.0
  0
LINE
  5
1291
330
1F
100
AcDbEntity
  8
AM_VIS
100
AcDbLine
 10
602.7428755517869
 20
209.6969280405659
 30
0.0
 11
668.7428755517869
 21
209.6969280405657
 31
0.0
  0
LINE
  5
1292
330
1F
100
AcDbEntity
  8
AM_VIS
100
AcDbLine
 10
558.485320246001
 20
309.9237131408461
 30
0.0
 11
544.4853202460011
 21
309.9237131408461
 31
0.0
  0
LINE
  5
1293
330
1F
100
AcDbEntity
  8
AM_VIS
100
AcDbLine
 10
563.485320246001
 20
304.9237131408461
 30
0.0
 11
558.485320246001
 21
309.9237131408461
 31
0.0
  0
LINE
  5
1294
330
1F
100
AcDbEntity
  8
AM_VIS
100
AcDbLine
 10
568.485320246001
 20
304.9237131408461
 30
0.0
 11
563.485320246001
 21
304.9237131408461
 31
0.0
  0
LINE
  5
1295
330
1F
100
AcDbEntity
  8
AM_VIS
100
AcDbLine
 10
563.485320246001
 20
254.9237131408461
 30
0.0
 11
568.485320246001
 21
254.9237131408461
 31
0.0
  0
LINE
  5
1296
330
1F
100
AcDbEntity
  8
AM_VIS
100
AcDbLine
 10
558.485320246001
 20
249.9237131408461
 30
0.0
 11
563.485320246001
 21
254.9237131408461
 31
0.0
  0
LINE
  5
1297
330
1F
100
AcDbEntity
  8
AM_VIS
100
AcDbLine
 10
544.485320246001
 20
249.9237131408461
 30
0.0
 11
558.485320246001
 21
249.9237131408461
 31
0.0
  0
ARC
  5
1298
330
1F
100
AcDbEntity
  8
AM_VIS
100
AcDbCircle
 10
544.4853202460011
 20
250.923713140846
 30
0.0
 40
0.9999999999999998
100
AcDbArc
 50
180.0
 51
270.0
  0
LINE
  5
1299
330
1F
100
AcDbEntity
  8
AM_VIS
100
AcDbLine
 10
543.485320246001
 20
259.9237131408461
 30
0.0
 11
543.485320246001
 21
250.9237131408461
 31
0.0
  0
LINE
  5
129A
330
1F
100
AcDbEntity
  8
AM_VIS
100
AcDbLine
 10
544.485320246001
 20
260.9237131408461
 30
0.0
 11
543.485320246001
 21
259.9237131408461
 31
0.0
  0
LINE
  5
129B
330
1F
100
AcDbEntity
  8
AM_VIS
100
AcDbLine
 10
544.485320246001
 20
298.9237131408461
 30
0.0
 11
544.485320246001
 21
260.9237131408461
 31
0.0
  0
LINE
  5
129C
330
1F
100
AcDbEntity
  8
AM_VIS
100
AcDbLine
 10
543.485320246001
 20
299.9237131408461
 30
0.0
 11
544.485320246001
 21
298.9237131408461
 31
0.0
  0
LINE
  5
129D
330
1F
100
AcDbEntity
  8
AM_VIS
100
AcDbLine
 10
543.4853202460011
 20
308.9237131408461
 30
0.0
 11
543.485320246001
 21
299.9237131408461
 31
0.0
  0
ARC
  5
129E
330
1F
100
AcDbEntity
  8
AM_VIS
100
AcDbCircle
 10
544.4853202460011
 20
308.923713140846
 30
0.0
 40
1.0
100
AcDbArc
 50
89.99999999999998
 51
180.0
  0
LINE
  5
129F
330
1F
100
AcDbEntity
  8
AM_VIS
100
AcDbLine
 10
568.485320246001
 20
254.9237131408461
 30
0.0
 11
568.485320246001
 21
304.9237131408461
 31
0.0
  0
LINE
  5
12A0
330
1F
100
AcDbEntity
  8
AM_7
  6
AM_ISO08W050x2
100
AcDbLine
 10
553.485320246001
 20
301.4237131408461
 30
0.0
 11
553.485320246001
 21
292.7737131408461
 31
0.0
1001
GENIUS_GENOREF_13
1005
12DB
  0
LINE
  5
12A1
330
1F
100
AcDbEntity
  8
AM_7
  6
AM_ISO08W050x2
100
AcDbLine
 10
553.485320246001
 20
301.4237131408461
 30
0.0
 11
562.1353202460011
 21
301.4237131408461
 31
0.0
1001
GENIUS_GENOREF_13
1005
12DB
  0
LINE
  5
12A2
330
1F
100
AcDbEntity
  8
AM_7
  6
AM_ISO08W050x2
100
AcDbLine
 10
553.485320246001
 20
301.4237131408461
 30
0.0
 11
553.485320246001
 21
310.0737131408461
 31
0.0
1001
GENIUS_GENOREF_13
1005
12DB
  0
LINE
  5
12A3
330
1F
100
AcDbEntity
  8
AM_7
  6
AM_ISO08W050x2
100
AcDbLine
 10
553.485320246001
 20
301.4237131408461
 30
0.0
 11
544.8353202460011
 21
301.4237131408461
 31
0.0
1001
GENIUS_GENOREF_13
1005
12DB
  0
LINE
  5
12A4
330
1F
100
AcDbEntity
  8
AM_7
  6
AM_ISO08W050x2
100
AcDbLine
 10
553.485320246001
 20
279.9237131408461
 30
0.0
 11
553.485320246001
 21
271.2737131408461
 31
0.0
1001
GENIUS_GENOREF_13
1005
12DA
  0
LINE
  5
12A5
330
1F
100
AcDbEntity
  8
AM_7
  6
AM_ISO08W050x2
100
AcDbLine
 10
553.485320246001
 20
279.9237131408461
 30
0.0
 11
562.1353202460011
 21
279.9237131408461
 31
0.0
1001
GENIUS_GENOREF_13
1005
12DA
  0
LINE
  5
12A6
330
1F
100
AcDbEntity
  8
AM_7
  6
AM_ISO08W050x2
100
AcDbLine
 10
553.485320246001
 20
279.9237131408461
 30
0.0
 11
553.485320246001
 21
288.5737131408461
 31
0.0
1001
GENIUS_GENOREF_13
1005
12DA
  0
LINE
  5
12A7
330
1F
100
AcDbEntity
  8
AM_7
  6
AM_ISO08W050x2
100
AcDbLine
 10
553.485320246001
 20
279.9237131408461
 30
0.0
 11
544.8353202460011
 21
279.9237131408461
 31
0.0
1001
GENIUS_GENOREF_13
1005
12DA
  0
LINE
  5
12A8
330
1F
100
AcDbEntity
  8
AM_7
  6
AM_ISO08W050x2
100
AcDbLine
 10
553.485320246001
 20
258.4237131408461
 30
0.0
 11
553.485320246001
 21
249.7737131408461
 31
0.0
1001
GENIUS_GENOREF_13
1005
12D9
  0
LINE
  5
12A9
330
1F
100
AcDbEntity
  8
AM_7
  6
AM_ISO08W050x2
100
AcDbLine
 10
553.485320246001
 20
258.4237131408461
 30
0.0
 11
562.1353202460011
 21
258.4237131408461
 31
0.0
1001
GENIUS_GENOREF_13
1005
12D9
  0
LINE
  5
12AA
330
1F
100
AcDbEntity
  8
AM_7
  6
AM_ISO08W050x2
100
AcDbLine
 10
553.485320246001
 20
258.4237131408461
 30
0.0
 11
553.485320246001
 21
267.073713140846
 31
0.0
1001
GENIUS_GENOREF_13
1005
12D9
  0
LINE
  5
12AB
330
1F
100
AcDbEntity
  8
AM_7
  6
AM_ISO08W050x2
100
AcDbLine
 10
553.485320246001
 20
258.4237131408461
 30
0.0
 11
544.8353202460011
 21
258.4237131408461
 31
0.0
1001
GENIUS_GENOREF_13
1005
12D9
  0
LINE
  5
12AC
330
1F
100
AcDbEntity
  8
AM_7
  6
AM_ISO08W050x2
100
AcDbLine
 10
612.7428755517869
 20
290.4237131408461
 30
0.0
 11
612.7428755517869
 21
286.6028862196202
 31
0.0
1001
GENIUS_GENOREF_13
1005
12D8
  0
LINE
  5
12AD
330
1F
100
AcDbEntity
  8
AM_7
  6
AM_ISO08W050x2
100
AcDbLine
 10
612.7428755517869
 20
290.4237131408461
 30
0.0
 11
616.5637024730129
 21
290.423713140846
 31
0.0
1001
GENIUS_GENOREF_13
1005
12D8
  0
LINE
  5
12AE
330
1F
100
AcDbEntity
  8
AM_7
  6
AM_ISO08W050x2
100
AcDbLine
 10
612.7428755517869
 20
290.4237131408461
 30
0.0
 11
612.7428755517869
 21
294.244540062072
 31
0.0
1001
GENIUS_GENOREF_13
1005
12D8
  0
LINE
  5
12AF
330
1F
100
AcDbEntity
  8
AM_7
  6
AM_ISO08W050x2
100
AcDbLine
 10
612.7428755517869
 20
290.4237131408461
 30
0.0
 11
608.922048630561
 21
290.4237131408461
 31
0.0
1001
GENIUS_GENOREF_13
1005
12D8
  0
LINE
  5
12B0
330
1F
100
AcDbEntity
  8
AM_7
  6
AM_ISO08W050x2
100
AcDbLine
 10
633.0428755517869
 20
300.923713140846
 30
0.0
 11
633.0428755517869
 21
297.0954413757594
 31
0.0
1001
GENIUS_GENOREF_13
1005
12D7
  0
LINE
  5
12B1
330
1F
100
AcDbEntity
  8
AM_7
  6
AM_ISO08W050x2
100
AcDbLine
 10
633.0428755517869
 20
300.923713140846
 30
0.0
 11
636.8711473168734
 21
300.923713140846
 31
0.0
1001
GENIUS_GENOREF_13
1005
12D7
  0
LINE
  5
12B2
330
1F
100
AcDbEntity
  8
AM_7
  6
AM_ISO08W050x2
100
AcDbLine
 10
633.0428755517869
 20
300.923713140846
 30
0.0
 11
633.0428755517869
 21
304.7519849059325
 31
0.0
1001
GENIUS_GENOREF_13
1005
12D7
  0
LINE
  5
12B3
330
1F
100
AcDbEntity
  8
AM_7
  6
AM_ISO08W050x2
100
AcDbLine
 10
633.0428755517869
 20
300.923713140846
 30
0.0
 11
629.2146037867003
 21
300.923713140846
 31
0.0
1001
GENIUS_GENOREF_13
1005
12D7
  0
LINE
  5
12B4
330
1F
100
AcDbEntity
  8
AM_7
  6
AM_ISO08W050x2
100
AcDbLine
 10
619.4428755517869
 20
258.9237131408459
 30
0.0
 11
619.4428755517869
 21
255.0954413757594
 31
0.0
1001
GENIUS_GENOREF_13
1005
12D6
  0
LINE
  5
12B5
330
1F
100
AcDbEntity
  8
AM_7
  6
AM_ISO08W050x2
100
AcDbLine
 10
619.4428755517869
 20
258.9237131408459
 30
0.0
 11
623.2711473168734
 21
258.9237131408459
 31
0.0
1001
GENIUS_GENOREF_13
1005
12D6
  0
LINE
  5
12B6
330
1F
100
AcDbEntity
  8
AM_7
  6
AM_ISO08W050x2
100
AcDbLine
 10
619.4428755517869
 20
258.9237131408459
 30
0.0
 11
619.4428755517869
 21
262.7519849059325
 31
0.0
1001
GENIUS_GENOREF_13
1005
12D6
  0
LINE
  5
12B7
330
1F
100
AcDbEntity
  8
AM_7
  6
AM_ISO08W050x2
100
AcDbLine
 10
619.4428755517869
 20
258.9237131408459
 30
0.0
 11
615.6146037867004
 21
258.9237131408459
 31
0.0
1001
GENIUS_GENOREF_13
1005
12D6
  0
LINE
  5
12B8
330
1F
100
AcDbEntity
  8
AM_7
  6
AM_ISO08W050x2
100
AcDbLine
 10
612.7428755517869
 20
269.4237131408461
 30
0.0
 11
612.7428755517869
 21
273.244540062072
 31
0.0
1001
GENIUS_GENOREF_13
1005
12D5
  0
LINE
  5
12B9
330
1F
100
AcDbEntity
  8
AM_7
  6
AM_ISO08W050x2
100
AcDbLine
 10
612.7428755517869
 20
269.4237131408461
 30
0.0
 11
616.5637024730129
 21
269.423713140846
 31
0.0
1001
GENIUS_GENOREF_13
1005
12D5
  0
LINE
  5
12BA
102
{ACAD_REACTORS
330
13EA
102
}
330
1F
100
AcDbEntity
  8
AM_7
  6
AM_ISO08W050x2
100
AcDbLine
 10
612.7428755517869
 20
269.4237131408461
 30
0.0
 11
612.7428755517869
 21
265.6028862196201
 31
0.0
1001
GENIUS_GENOREF_13
1005
12D5
  0
LINE
  5
12BB
330
1F
100
AcDbEntity
  8
AM_7
  6
AM_ISO08W050x2
100
AcDbLine
 10
612.7428755517869
 20
269.4237131408461
 30
0.0
 11
608.922048630561
 21
269.4237131408461
 31
0.0
1001
GENIUS_GENOREF_13
1005
12D5
  0
LINE
  5
12BC
330
1F
100
AcDbEntity
  8
AM_7
  6
AM_ISO08W050x2
100
AcDbLine
 10
658.7428755517869
 20
290.423713140846
 30
0.0
 11
658.7428755517869
 21
286.60288621962
 31
0.0
1001
GENIUS_GENOREF_13
1005
12D4
  0
LINE
  5
12BD
330
1F
100
AcDbEntity
  8
AM_7
  6
AM_ISO08W050x2
100
AcDbLine
 10
658.7428755517869
 20
290.423713140846
 30
0.0
 11
654.922048630561
 21
290.423713140846
 31
0.0
1001
GENIUS_GENOREF_13
1005
12D4
  0
LINE
  5
12BE
330
1F
100
AcDbEntity
  8
AM_7
  6
AM_ISO08W050x2
100
AcDbLine
 10
658.7428755517869
 20
290.423713140846
 30
0.0
 11
658.7428755517869
 21
294.2445400620719
 31
0.0
1001
GENIUS_GENOREF_13
1005
12D4
  0
LINE
  5
12BF
330
1F
100
AcDbEntity
  8
AM_7
  6
AM_ISO08W050x2
100
AcDbLine
 10
658.7428755517869
 20
290.423713140846
 30
0.0
 11
662.5637024730129
 21
290.423713140846
 31
0.0
1001
GENIUS_GENOREF_13
1005
12D4
  0
LINE
  5
12C0
330
1F
100
AcDbEntity
  8
AM_7
  6
AM_ISO08W050x2
100
AcDbLine
 10
658.7428755517869
 20
269.423713140846
 30
0.0
 11
658.7428755517869
 21
273.2445400620719
 31
0.0
1001
GENIUS_GENOREF_13
1005
12D3
  0
LINE
  5
12C1
330
1F
100
AcDbEntity
  8
AM_7
  6
AM_ISO08W050x2
100
AcDbLine
 10
658.7428755517869
 20
269.423713140846
 30
0.0
 11
654.922048630561
 21
269.423713140846
 31
0.0
1001
GENIUS_GENOREF_13
1005
12D3
  0
LINE
  5
12C2
102
{ACAD_REACTORS
330
13EA
102
}
330
1F
100
AcDbEntity
  8
AM_7
  6
AM_ISO08W050x2
100
AcDbLine
 10
658.7428755517869
 20
269.423713140846
 30
0.0
 11
658.7428755517869
 21
265.60288621962
 31
0.0
1001
GENIUS_GENOREF_13
1005
12D3
  0
LINE
  5
12C3
330
1F
100
AcDbEntity
  8
AM_7
  6
AM_ISO08W050x2
100
AcDbLine
 10
658.7428755517869
 20
269.423713140846
 30
0.0
 11
662.5637024730129
 21
269.423713140846
 31
0.0
1001
GENIUS_GENOREF_13
1005
12D3
  0
LINE
  5
12C4
330
1F
100
AcDbEntity
  8
AM_7
  6
AM_ISO08W050x2
100
AcDbLine
 10
652.0428755517869
 20
300.923713140846
 30
0.0
 11
652.0428755517869
 21
297.0954413757594
 31
0.0
1001
GENIUS_GENOREF_13
1005
12D2
  0
LINE
  5
12C5
330
1F
100
AcDbEntity
  8
AM_7
  6
AM_ISO08W050x2
100
AcDbLine
 10
652.0428755517869
 20
300.923713140846
 30
0.0
 11
655.8711473168735
 21
300.923713140846
 31
0.0
1001
GENIUS_GENOREF_13
1005
12D2
  0
LINE
  5
12C6
330
1F
100
AcDbEntity
  8
AM_7
  6
AM_ISO08W050x2
100
AcDbLine
 10
652.0428755517869
 20
300.923713140846
 30
0.0
 11
652.0428755517869
 21
304.7519849059325
 31
0.0
1001
GENIUS_GENOREF_13
1005
12D2
  0
LINE
  5
12C7
330
1F
100
AcDbEntity
  8
AM_7
  6
AM_ISO08W050x2
100
AcDbLine
 10
652.0428755517869
 20
300.923713140846
 30
0.0
 11
648.2146037867003
 21
300.923713140846
 31
0.0
1001
GENIUS_GENOREF_13
1005
12D2
  0
LINE
  5
12C8
330
1F
100
AcDbEntity
  8
AM_7
  6
AM_ISO08W050x2
100
AcDbLine
 10
638.442875551787
 20
258.9237131408459
 30
0.0
 11
638.442875551787
 21
255.0954413757594
 31
0.0
1001
GENIUS_GENOREF_13
1005
12D1
  0
LINE
  5
12C9
330
1F
100
AcDbEntity
  8
AM_7
  6
AM_ISO08W050x2
100
AcDbLine
 10
638.442875551787
 20
258.9237131408459
 30
0.0
 11
642.2711473168734
 21
258.9237131408459
 31
0.0
1001
GENIUS_GENOREF_13
1005
12D1
  0
LINE
  5
12CA
330
1F
100
AcDbEntity
  8
AM_7
  6
AM_ISO08W050x2
100
AcDbLine
 10
638.442875551787
 20
258.9237131408459
 30
0.0
 11
638.442875551787
 21
262.7519849059325
 31
0.0
1001
GENIUS_GENOREF_13
1005
12D1
  0
LINE
  5
12CB
330
1F
100
AcDbEntity
  8
AM_7
  6
AM_ISO08W050x2
100
AcDbLine
 10
638.442875551787
 20
258.9237131408459
 30
0.0
 11
634.6146037867003
 21
258.9237131408459
 31
0.0
1001
GENIUS_GENOREF_13
1005
12D1
  0
CIRCLE
  5
12CD
330
1F
100
AcDbEntity
  8
AM_0
100
AcDbCircle
 10
553.4853202460011
 20
279.923713140846
 30
0.0
 40
5.7225
  0
CIRCLE
  5
12CF
330
1F
100
AcDbEntity
  8
AM_0
100
AcDbCircle
 10
553.4853202460011
 20
258.423713140846
 30
0.0
 40
5.7225
  0
LINE
  5
12D0
330
1F
100
AcDbEntity
  8
AM_7
100
AcDbLine
 10
599.7428755517869
 20
279.9237131408461
 30
0.0
 11
671.7428755517869
 21
279.923713140846
 31
0.0
1001
GENIUS_GENODEF_13
1002
{
1000
HIER
1070
     0
1002
}
1002
{
1000
MANEDIT
1070
     0
1002
}
1002
{
1000
NOSEL
1070
     0
1002
}
1002
{
1000
BEHIND
1070
     0
1002
}
1002
{
1000
OTHER
1070
     0
1002
}
1002
{
1000
REACTOR
1002
}
1001
GENIUS_GENOBJ-N-CEN_13
1002
{
1000
OWNER
1000
GEN
1002
}
1001
GENIUS_GENCEN_19
1002
{
1040
3.0
1002
}
  0
POINT
  5
12D1
330
1F
100
AcDbEntity
  8
0
 60
     1
100
AcDbPoint
 10
465.5983704288964
 20
116.0817401034653
 30
0.0
1001
GENIUS_GENOBJ-N-CRS_13
1002
{
1000
OWNER
1000
GEN
1002
}
1001
GENIUS_GENOENT_13
1002
{
1000
MYREF
1005
12D1
1002
}
1002
{
1000
GRP
1005
0
1002
}
1001
GENIUS_GENOLIS_13
1002
{
1000
ENT
1005
12CB
1005
12CA
1005
12C9
1005
12C8
1002
}
1001
GENIUS_GENODEF_13
1002
{
1000
HIER
1070
    10
1002
}
1002
{
1000
MANEDIT
1070
     0
1002
}
1002
{
1000
NOSEL
1070
     0
1002
}
1002
{
1000
BEHIND
1070
     0
1002
}
1002
{
1000
OTHER
1070
     0
1002
}
1002
{
1000
REACTOR
1002
}
  0
POINT
  5
12D2
330
1F
100
AcDbEntity
  8
0
 60
     1
100
AcDbPoint
 10
423.5983704288964
 20
129.6817401034653
 30
0.0
1001
GENIUS_GENOBJ-N-CRS_13
1002
{
1000
OWNER
1000
GEN
1002
}
1001
GENIUS_GENOENT_13
1002
{
1000
MYREF
1005
12D2
1002
}
1002
{
1000
GRP
1005
0
1002
}
1001
GENIUS_GENOLIS_13
1002
{
1000
ENT
1005
12C7
1005
12C6
1005
12C5
1005
12C4
1002
}
1001
GENIUS_GENODEF_13
1002
{
1000
HIER
1070
    10
1002
}
1002
{
1000
MANEDIT
1070
     0
1002
}
1002
{
1000
NOSEL
1070
     0
1002
}
1002
{
1000
BEHIND
1070
     0
1002
}
1002
{
1000
OTHER
1070
     0
1002
}
1002
{
1000
REACTOR
1002
}
  0
POINT
  5
12D3
330
1F
100
AcDbEntity
  8
0
 60
     1
100
AcDbPoint
 10
1125.417299633262
 20
576.9431859620349
 30
0.0
1001
GENIUS_GENOENT_13
1002
{
1000
MYREF
1005
12D3
1002
}
1002
{
1000
GRP
1005
0
1002
}
1001
GENIUS_GENOLIS_13
1002
{
1000
ENT
1005
12C3
1005
12C2
1005
12C1
1005
12C0
1002
}
1001
GENIUS_GENOBJ-N-CRS_13
1002
{
1000
OWNER
1000
GEN
1002
}
1001
GENIUS_GENODEF_13
1002
{
1000
HIER
1070
    10
1002
}
1002
{
1000
MANEDIT
1070
     0
1002
}
1002
{
1000
NOSEL
1070
     0
1002
}
1002
{
1000
BEHIND
1070
     0
1002
}
1002
{
1000
OTHER
1070
     0
1002
}
1002
{
1000
REACTOR
1002
}
  0
POINT
  5
12D4
330
1F
100
AcDbEntity
  8
0
 60
     1
100
AcDbPoint
 10
423.5983704288964
 20
576.9431859620349
 30
0.0
1001
GENIUS_GENOENT_13
1002
{
1000
MYREF
1005
12D4
1002
}
1002
{
1000
GRP
1005
0
1002
}
1001
GENIUS_GENOLIS_13
1002
{
1000
ENT
1005
12BF
1005
12BE
1005
12BD
1005
12BC
1002
}
1001
GENIUS_GENOBJ-N-CRS_13
1002
{
1000
OWNER
1000
GEN
1002
}
1001
GENIUS_GENODEF_13
1002
{
1000
HIER
1070
    10
1002
}
1002
{
1000
MANEDIT
1070
     0
1002
}
1002
{
1000
NOSEL
1070
     0
1002
}
1002
{
1000
BEHIND
1070
     0
1002
}
1002
{
1000
OTHER
1070
     0
1002
}
1002
{
1000
REACTOR
1002
}
  0
POINT
  5
12D5
330
1F
100
AcDbEntity
  8
0
 60
     1
100
AcDbPoint
 10
1125.417299633262
 20
110.6817401034653
 30
0.0
1001
GENIUS_GENOENT_13
1002
{
1000
MYREF
1005
12D5
1002
}
1002
{
1000
GRP
1005
0
1002
}
1001
GENIUS_GENOLIS_13
1002
{
1000
ENT
1005
12BB
1005
12BA
1005
12B9
1005
12B8
1002
}
1001
GENIUS_GENOBJ-N-CRS_13
1002
{
1000
OWNER
1000
GEN
1002
}
1001
GENIUS_GENODEF_13
1002
{
1000
HIER
1070
    10
1002
}
1002
{
1000
MANEDIT
1070
     0
1002
}
1002
{
1000
NOSEL
1070
     0
1002
}
1002
{
1000
BEHIND
1070
     0
1002
}
1002
{
1000
OTHER
1070
     0
1002
}
1002
{
1000
REACTOR
1002
}
  0
POINT
  5
12D6
330
1F
100
AcDbEntity
  8
0
 60
     1
100
AcDbPoint
 10
465.5983704288964
 20
97.08174010346532
 30
0.0
1001
GENIUS_GENOBJ-N-CRS_13
1002
{
1000
OWNER
1000
GEN
1002
}
1001
GENIUS_GENOENT_13
1002
{
1000
MYREF
1005
12D6
1002
}
1002
{
1000
GRP
1005
0
1002
}
1001
GENIUS_GENOLIS_13
1002
{
1000
ENT
1005
12B7
1005
12B6
1005
12B5
1005
12B4
1002
}
1001
GENIUS_GENODEF_13
1002
{
1000
HIER
1070
    10
1002
}
1002
{
1000
MANEDIT
1070
     0
1002
}
1002
{
1000
NOSEL
1070
     0
1002
}
1002
{
1000
BEHIND
1070
     0
1002
}
1002
{
1000
OTHER
1070
     0
1002
}
1002
{
1000
REACTOR
1002
}
  0
POINT
  5
12D7
330
1F
100
AcDbEntity
  8
0
 60
     1
100
AcDbPoint
 10
423.5983704288964
 20
110.6817401034653
 30
0.0
1001
GENIUS_GENOBJ-N-CRS_13
1002
{
1000
OWNER
1000
GEN
1002
}
1001
GENIUS_GENOENT_13
1002
{
1000
MYREF
1005
12D7
1002
}
1002
{
1000
GRP
1005
0
1002
}
1001
GENIUS_GENOLIS_13
1002
{
1000
ENT
1005
12B3
1005
12B2
1005
12B1
1005
12B0
1002
}
1001
GENIUS_GENODEF_13
1002
{
1000
HIER
1070
    10
1002
}
1002
{
1000
MANEDIT
1070
     0
1002
}
1002
{
1000
NOSEL
1070
     0
1002
}
1002
{
1000
BEHIND
1070
     0
1002
}
1002
{
1000
OTHER
1070
     0
1002
}
1002
{
1000
REACTOR
1002
}
  0
POINT
  5
12D8
330
1F
100
AcDbEntity
  8
0
 60
     1
100
AcDbPoint
 10
423.5983704288964
 20
110.6817401034653
 30
0.0
1001
GENIUS_GENOENT_13
1002
{
1000
MYREF
1005
12D8
1002
}
1002
{
1000
GRP
1005
0
1002
}
1001
GENIUS_GENOLIS_13
1002
{
1000
ENT
1005
12AF
1005
12AE
1005
12AD
1005
12AC
1002
}
1001
GENIUS_GENOBJ-N-CRS_13
1002
{
1000
OWNER
1000
GEN
1002
}
1001
GENIUS_GENODEF_13
1002
{
1000
HIER
1070
    10
1002
}
1002
{
1000
MANEDIT
1070
     0
1002
}
1002
{
1000
NOSEL
1070
     0
1002
}
1002
{
1000
BEHIND
1070
     0
1002
}
1002
{
1000
OTHER
1070
     0
1002
}
1002
{
1000
REACTOR
1002
}
  0
POINT
  5
12D9
330
1F
100
AcDbEntity
  8
0
 60
     1
100
AcDbPoint
 10
423.5983704288964
 20
110.6817401034653
 30
0.0
1001
GENIUS_GENOBJ-N-CRS_13
1002
{
1000
OWNER
1000
GEN
1002
}
1001
GENIUS_GENODEF_13
1002
{
1000
HIER
1070
    10
1002
}
1002
{
1000
MANEDIT
1070
     0
1002
}
1002
{
1000
NOSEL
1070
     0
1002
}
1002
{
1000
BEHIND
1070
     0
1002
}
1002
{
1000
OTHER
1070
     0
1002
}
1002
{
1000
REACTOR
1002
}
1001
GENIUS_GENOLIS_13
1002
{
1000
ENT
1005
12AB
1005
12AA
1005
12A9
1005
12A8
1002
}
1001
GENIUS_GENOENT_13
1002
{
1000
MYREF
1005
12D9
1002
}
1002
{
1000
GRP
1005
0
1002
}
  0
POINT
  5
12DA
330
1F
100
AcDbEntity
  8
0
 60
     1
100
AcDbPoint
 10
423.5983704288964
 20
110.6817401034653
 30
0.0
1001
GENIUS_GENODEF_13
1002
{
1000
HIER
1070
    10
1002
}
1002
{
1000
MANEDIT
1070
     0
1002
}
1002
{
1000
NOSEL
1070
     0
1002
}
1002
{
1000
BEHIND
1070
     0
1002
}
1002
{
1000
OTHER
1070
     0
1002
}
1002
{
1000
REACTOR
1002
}
1001
GENIUS_GENOENT_13
1002
{
1000
MYREF
1005
12DA
1002
}
1002
{
1000
GRP
1005
0
1002
}
1001
GENIUS_GENOBJ-N-CRS_13
1002
{
1000
OWNER
1000
GEN
1002
}
1001
GENIUS_GENOLIS_13
1002
{
1000
ENT
1005
12A7
1005
12A6
1005
12A5
1005
12A4
1002
}
  0
POINT
  5
12DB
330
1F
100
AcDbEntity
  8
0
 60
     1
100
AcDbPoint
 10
423.5983704288964
 20
110.6817401034653
 30
0.0
1001
GENIUS_GENOLIS_13
1002
{
1000
ENT
1005
12A3
1005
12A2
1005
12A1
1005
12A0
1002
}
1001
GENIUS_GENODEF_13
1002
{
1000
HIER
1070
    10
1002
}
1002
{
1000
MANEDIT
1070
     0
1002
}
1002
{
1000
NOSEL
1070
     0
1002
}
1002
{
1000
BEHIND
1070
     0
1002
}
1002
{
1000
OTHER
1070
     0
1002
}
1002
{
1000
REACTOR
1002
}
1001
GENIUS_GENOENT_13
1002
{
1000
MYREF
1005
12DB
1002
}
1002
{
1000
GRP
1005
0
1002
}
1001
GENIUS_GENOBJ-N-CRS_13
1002
{
1000
OWNER
1000
GEN
1002
}
  0
DIMENSION
  5
13DC
102
{ACAD_XDICTIONARY
360
13E9
102
}
102
{ACAD_REACTORS
330
13EA
102
}
330
1F
100
AcDbEntity
  8
AM_5
100
AcDbDimension
  2
*D35
 10
658.7428755517869
 20
237.9237131408461
 30
0.0
 11
635.7428755517869
 21
240.3737131408461
 31
0.0
 70
    32
  1
P
 71
     5
 42
46.0
  3
AM_ISO$0
100
AcDbAlignedDimension
 13
612.7428755517869
 23
265.6028862196201
 33
0.0
 14
658.7428755517869
 24
265.60288621962
 34
0.0
100
AcDbRotatedDimension
1001
ACAD
1000
DSTYLE
1002
{
1070
   272
1070
     8
1002
}
  0
DIMENSION
  5
1402
102
{ACAD_XDICTIONARY
360
140F
102
}
102
{ACAD_REACTORS
330
1410
102
}
330
1F
100
AcDbEntity
  8
AM_5
100
AcDbDimension
  2
*D36
 10
668.7428755517869
 20
229.9237131408461
 30
0.0
 11
635.7428755517869
 21
232.373713140846
 31
0.0
 70
    32
  1
L
 71
     5
 42
66.0
  3
AM_ISO$0
100
AcDbAlignedDimension
 13
602.7428755517869
 23
249.9237131408461
 33
0.0
 14
668.7428755517869
 24
249.923713140846
 34
0.0
100
AcDbRotatedDimension
1001
ACAD
1000
DSTYLE
1002
{
1070
   272
1070
     8
1002
}
  0
LINE
  5
1518
330
1F
100
AcDbEntity
  8
SL
  6
ACISOTGB
100
AcDbLine
 10
635.7428755517869
 20
175.4928875943928
 30
0.0
 11
635.7428755517869
 21
323.1218759785999
 31
0.0
  0
INSERT
  5
1519
330
1F
100
AcDbEntity
  8
0
100
AcDbBlockReference
  2
A$C7A070E72
 10
648.9785605244613
 20
218.5480417188272
 30
0.0
 41
0.6999999999998181
 42
0.7000000000000455
 43
0.7
  0
INSERT
  5
151A
330
1F
100
AcDbEntity
  8
AM_5
100
AcDbBlockReference
  2
*S40
 10
0.0
 20
0.0
 30
0.0
  0
INSERT
  5
1536
330
1F
100
AcDbEntity
  8
AM_5
100
AcDbBlockReference
  2
*S41
 10
0.0
 20
0.0
 30
0.0
  0
ARC
  5
1537
330
1F
100
AcDbEntity
  8
AM_4
100
AcDbCircle
 10
553.4853202460011
 20
279.9237131408462
 30
0.0
 40
6.899999999999999
100
AcDbArc
 50
260.0000000000014
 51
169.9999999999997
  0
ARC
  5
1538
330
1F
100
AcDbEntity
  8
AM_4
100
AcDbCircle
 10
553.4853202460011
 20
258.4237131408462
 30
0.0
 40
6.899999999999999
100
AcDbArc
 50
260.0000000000014
 51
169.9999999999997
  0
INSERT
  5
15C8
330
1F
100
AcDbEntity
  8
0
100
AcDbBlockReference
  2
A$C181F13BF
 10
602.7428755517869
 20
309.9237131408461
 30
0.0
  0
LINE
  5
15E5
330
1F
100
AcDbEntity
  8
AM_7
100
AcDbLine
 10
626.2428755517869
 20
311.923713140846
 30
0.0
 11
626.2428755517869
 21
247.923713140846
 31
0.0
1001
GENIUS_GENODEF_13
1002
{
1000
HIER
1070
     0
1002
}
1002
{
1000
MANEDIT
1070
     0
1002
}
1002
{
1000
NOSEL
1070
     0
1002
}
1002
{
1000
BEHIND
1070
     0
1002
}
1002
{
1000
OTHER
1070
     0
1002
}
1002
{
1000
REACTOR
1002
}
1001
GENIUS_GENOBJ-N-CEN_13
1002
{
1000
OWNER
1000
GEN
1002
}
1001
GENIUS_GENCEN_19
1002
{
1040
2.0
1002
}
  0
LINE
  5
15E7
330
1F
100
AcDbEntity
  8
AM_7
100
AcDbLine
 10
645.2428755517869
 20
311.923713140846
 30
0.0
 11
645.2428755517869
 21
247.923713140846
 31
0.0
1001
GENIUS_GENODEF_13
1002
{
1000
HIER
1070
     0
1002
}
1002
{
1000
MANEDIT
1070
     0
1002
}
1002
{
1000
NOSEL
1070
     0
1002
}
1002
{
1000
BEHIND
1070
     0
1002
}
1002
{
1000
OTHER
1070
     0
1002
}
1002
{
1000
REACTOR
1002
}
1001
GENIUS_GENOBJ-N-CEN_13
1002
{
1000
OWNER
1000
GEN
1002
}
1001
GENIUS_GENCEN_19
1002
{
1040
2.0
1002
}
  0
ENDSEC
  0
SECTION
  2
OBJECTS
  0
DICTIONARY
  5
C
330
0
100
AcDbDictionary
281
     1
  3
ACAD_COLOR
350
BE
  3
ACAD_GROUP
350
D
  3
ACAD_LAYOUT
350
1A
  3
ACAD_MATERIAL
350
BD
  3
ACAD_MLINESTYLE
350
17
  3
ACAD_PLOTSETTINGS
350
19
  3
ACAD_PLOTSTYLENAME
350
E
  3
ACAD_TABLESTYLE
350
11A
  3
ACDBHEADERROUNDTRIPXREC
350
165B
  3
AcDbVariableDictionary
350
94
  3
AcmDictionary
350
5B
  3
AMG
350
41
  3
AMGSNAPSETTINGS
350
1B8
  3
DWGPROPS
350
165A
  0
DICTIONARY
  5
3F9
330
2
100
AcDbDictionary
280
     1
281
     1
  3
ACAD_LAYERFILTERS
360
5B7
  3
ACAD_LAYERSTATES
360
AD2
  3
ACLYDICTIONARY
360
5B6
  3
AMLAYER_GROUPCOLORS
360
10FE
  0
DICTIONARY
  5
8F
330
1F
100
AcDbDictionary
280
     1
281
     1
  3
ACAD_SORTENTS
360
1130
  0
DICTIONARY
  5
ABA
330
AB9
100
AcDbDictionary
280
     1
281
     1
  0
DICTIONARY
  5
AC0
330
ABF
100
AcDbDictionary
280
     1
281
     1
  3
ACAD_SORTENTS
360
AC1
  0
DICTIONARY
  5
15C4
330
15B1
100
AcDbDictionary
280
     1
281
     1
  3
ACAD_SORTENTS
360
15C5
  0
DICTIONARY
  5
13E9
330
13DC
100
AcDbDictionary
280
     1
281
     1
  3
ACAD_DIMASSOC
360
13EA
  0
DICTIONARY
  5
140F
330
1402
100
AcDbDictionary
280
     1
281
     1
  3
ACAD_DIMASSOC
360
1410
  0
DICTIONARY
  5
BE
102
{ACAD_REACTORS
330
C
102
}
330
C
100
AcDbDictionary
281
     1
  0
DICTIONARY
  5
D
102
{ACAD_REACTORS
330
C
102
}
330
C
100
AcDbDictionary
281
     1
  0
DICTIONARY
  5
1A
102
{ACAD_REACTORS
330
C
102
}
330
C
100
AcDbDictionary
281
     1
  3
Model
350
22
  3
配置1
350
1E
  3
配置2
350
26
  0
DICTIONARY
  5
BD
102
{ACAD_REACTORS
330
C
102
}
330
C
100
AcDbDictionary
281
     1
  0
DICTIONARY
  5
17
102
{ACAD_REACTORS
330
C
102
}
330
C
100
AcDbDictionary
281
     1
  3
Standard
350
18
  0
DICTIONARY
  5
19
102
{ACAD_REACTORS
330
C
102
}
330
C
100
AcDbDictionary
281
     1
  0
ACDBDICTIONARYWDFLT
  5
E
102
{ACAD_REACTORS
330
C
102
}
330
C
100
AcDbDictionary
281
     1
  3
Normal
350
F
100
AcDbDictionaryWithDefault
340
F
  0
DICTIONARY
  5
11A
102
{ACAD_REACTORS
330
C
102
}
330
C
100
AcDbDictionary
281
     1
  3
Standard
350
11B
  0
DICTIONARY
  5
165B
102
{ACAD_REACTORS
330
C
102
}
330
C
100
AcDbDictionary
281
     1
  0
DICTIONARY
  5
94
102
{ACAD_REACTORS
330
C
102
}
330
C
100
AcDbDictionary
281
     1
  3
CTABLESTYLE
350
138
  3
DIMASSOC
350
96
  3
INDEXCTL
350
95
  3
PROJECTNAME
350
1658
  0
DICTIONARY
  5
5B
102
{ACAD_REACTORS
330
C
102
}
330
C
100
AcDbDictionary
281
     1
  3
AcmBOM
350
1B5
  3
AcmStdDictionary
350
61
  3
AMDTSECTSYM_ARROWCOLOR
350
123
  0
DICTIONARY
  5
41
102
{ACAD_REACTORS
330
C
102
}
330
C
100
AcDbDictionary
281
     1
  0
DICTIONARY
  5
1B8
102
{ACAD_REACTORS
330
C
102
}
330
C
100
AcDbDictionary
281
     1
  0
XRECORD
  5
165A
102
{ACAD_REACTORS
330
C
102
}
330
C
100
AcDbXrecord
280
     1
  1
DWGPROPS COOKIE
  2

  3

  4

  6

  7

  8

  9

300
AmdtFileType=84
301
=
302
=
303
=
304
=
305
=
306
=
307
=
308
=
309
=
 40
0.0159309953703704
 41
2454013.630324248
 42
2454013.68579191
  1

 90
        1
  0
DICTIONARY
  5
5B7
102
{ACAD_REACTORS
330
3F9
102
}
330
3F9
100
AcDbDictionary
281
     1
  0
DICTIONARY
  5
AD2
102
{ACAD_REACTORS
330
3F9
102
}
330
3F9
100
AcDbDictionary
281
     1
  0
DICTIONARY
  5
5B6
102
{ACAD_REACTORS
330
3F9
102
}
330
3F9
100
AcDbDictionary
281
     1
1001
ACAD
1000
<All
  0
DICTIONARY
  5
10FE
102
{ACAD_REACTORS
330
3F9
102
}
330
3F9
100
AcDbDictionary
280
     1
281
     1
  0
SORTENTSTABLE
  5
1130
102
{ACAD_REACTORS
330
8F
102
}
330
8F
100
AcDbSortentsTable
330
1F
331
D74
  5
D74
331
D7C
  5
D7C
331
D84
  5
D84
331
D8C
  5
D8C
331
FB3
  5
FB3
331
FBB
  5
FBB
331
F8C
  5
F8C
331
FC3
  5
FC3
331
F55
  5
F55
331
F94
  5
F94
331
FCB
  5
FCB
331
D94
  5
D94
331
D6D
  5
D6D
331
F5D
  5
F5D
331
F9C
  5
F9C
331
FA4
  5
FA4
331
F65
  5
F65
331
FAC
  5
FAC
331
F75
  5
F75
331
D75
  5
D75
331
D7D
  5
D7D
331
D85
  5
D85
331
D8D
  5
D8D
331
FB4
  5
FB4
331
FBC
  5
FBC
331
FC4
  5
FC4
331
F4E
  5
F4E
331
F8D
  5
F8D
331
F95
  5
F95
331
FCC
  5
FCC
331
F56
  5
F56
331
D66
  5
D66
331
D6E
  5
D6E
331
F9D
  5
F9D
331
F5E
  5
F5E
331
F66
  5
F66
331
FA5
  5
FA5
331
FAD
  5
FAD
331
F6E
  5
F6E
331
F76
  5
F76
331
D76
  5
D76
331
D7E
  5
D7E
331
D86
  5
D86
331
D8E
  5
D8E
331
FB5
  5
FB5
331
F7E
  5
F7E
331
F86
  5
F86
331
FBD
  5
FBD
331
F4F
  5
F4F
331
F8E
  5
F8E
331
FC5
  5
FC5
331
F57
  5
F57
331
F96
  5
F96
331
FCD
  5
FCD
331
D67
  5
D67
331
D6F
  5
D6F
331
F5F
  5
F5F
331
F9E
  5
F9E
331
FA6
  5
FA6
331
FAE
  5
FAE
331
F6F
  5
F6F
331
F77
  5
F77
331
D77
  5
D77
331
D7F
  5
D7F
331
D87
  5
D87
331
D8F
  5
D8F
331
FB6
  5
FB6
331
FBE
  5
FBE
331
F87
  5
F87
331
FC6
  5
FC6
331
F8F
  5
F8F
331
F97
  5
F97
331
FCE
  5
FCE
331
D68
  5
D68
331
F58
  5
F58
331
F60
  5
F60
331
F9F
  5
F9F
331
FA7
  5
FA7
331
FAF
  5
FAF
331
D70
  5
D70
331
D78
  5
D78
331
D80
  5
D80
331
D88
  5
D88
331
F78
  5
F78
331
FB7
  5
FB7
331
F88
  5
F88
331
FBF
  5
FBF
331
F51
  5
F51
331
F90
  5
F90
331
FC7
  5
FC7
331
FCF
  5
FCF
331
D90
  5
D90
331
D69
  5
D69
331
F59
  5
F59
331
F98
  5
F98
331
F61
  5
F61
331
FA0
  5
FA0
331
FA8
  5
FA8
331
D71
  5
D71
331
D79
  5
D79
331
D81
  5
D81
331
D89
  5
D89
331
F79
  5
F79
331
FB0
  5
FB0
331
FB8
  5
FB8
331
FC0
  5
FC0
331
FC8
  5
FC8
331
F52
  5
F52
331
F91
  5
F91
331
D91
  5
D91
331
D6A
  5
D6A
331
F99
  5
F99
331
FD0
  5
FD0
331
F5A
  5
F5A
331
F62
  5
F62
331
FA1
  5
FA1
331
F6A
  5
F6A
331
FA9
  5
FA9
331
D72
  5
D72
331
D7A
  5
D7A
331
D82
  5
D82
331
D8A
  5
D8A
331
FB1
  5
FB1
331
F7A
  5
F7A
331
F82
  5
F82
331
FB9
  5
FB9
331
FC1
  5
FC1
331
F53
  5
F53
331
F92
  5
F92
331
FC9
  5
FC9
331
D92
  5
D92
331
D6B
  5
D6B
331
FD1
  5
FD1
331
F5B
  5
F5B
331
F9A
  5
F9A
331
F63
  5
F63
331
FA2
  5
FA2
331
FAA
  5
FAA
331
F73
  5
F73
331
D73
  5
D73
331
D7B
  5
D7B
331
D83
  5
D83
331
D8B
  5
D8B
331
FB2
  5
FB2
331
FBA
  5
FBA
331
FC2
  5
FC2
331
F93
  5
F93
331
FCA
  5
FCA
331
F54
  5
F54
331
D93
  5
D93
331
D6C
  5
D6C
331
F9B
  5
F9B
331
F5C
  5
F5C
331
F64
  5
F64
331
FA3
  5
FA3
331
FAB
  5
FAB
331
F74
  5
F74
  0
SORTENTSTABLE
  5
AC1
102
{ACAD_REACTORS
330
AC0
102
}
330
AC0
100
AcDbSortentsTable
330
ABF
  0
SORTENTSTABLE
  5
15C5
102
{ACAD_REACTORS
330
15C4
102
}
330
15C4
100
AcDbSortentsTable
330
15B1
  0
DIMASSOC
  5
13EA
102
{ACAD_REACTORS
330
13E9
102
}
330
13E9
100
AcDbDimAssoc
330
13DC
 90
        3
 70
     0
 71
     0
  1
AcDbOsnapPointRef
 72
     1
331
12BA
 73
     0
 91
        0
 40
0.0
 10
0.0
 20
0.0
 30
2.000000000000000E+50
 75
     0
  1
AcDbOsnapPointRef
 72
     1
331
12C2
 73
     0
 91
        0
 40
0.0
 10
0.0
 20
0.0
 30
2.000000000000000E+50
 75
     0
  0
DIMASSOC
  5
1410
102
{ACAD_REACTORS
330
140F
102
}
330
140F
100
AcDbDimAssoc
330
1402
 90
        3
 70
     0
 71
     0
  1
AcDbOsnapPointRef
 72
    13
331
127B
 73
     0
 91
        0
 40
0.0
 10
0.0
 20
0.0
 30
2.000000000000000E+50
 75
     0
  1
AcDbOsnapPointRef
 72
    13
331
127C
 73
     0
 91
        0
 40
0.0
 10
0.0
 20
0.0
 30
2.000000000000000E+50
 75
     0
  0
LAYOUT
  5
22
102
{ACAD_XDICTIONARY
360
165E
102
}
102
{ACAD_REACTORS
330
1A
102
}
330
1A
100
AcDbPlotSettings
  1

  2
\\RD\EPSON Stylus C63 Series單色
  4
A4
  6

 40
3.757083177566528
 41
3.757076978683471
 42
3.757080078125
 43
3.757080078125
 44
209.9733276367187
 45
296.9683227539062
 46
0.0
 47
0.0
 48
0.0
 49
0.0
140
0.0
141
0.0
142
1.0
143
0.3405120737814363
 70
 11952
 72
     1
 73
     0
 74
     0
  7
單色出圖.ctb
 75
     0
147
2.936753428137963
148
-2047.07469463503
149
-1261.649717473083
100
AcDbLayout
  1
Model
 70
     1
 71
     0
 10
0.0
 20
0.0
 11
12.0
 21
9.0
 12
0.0
 22
0.0
 32
0.0
 14
0.0
 24
0.0
 34
0.0
 15
0.0
 25
0.0
 35
0.0
146
0.0
 13
0.0
 23
0.0
 33
0.0
 16
1.0
 26
0.0
 36
0.0
 17
0.0
 27
1.0
 37
0.0
 76
     0
330
1F
1001
ACAD_PSEXT
1000
\\RD\EPSON Stylus C63 Series單色
1000
EPSON Stylus C63 Series
1000
\\RD
1000

1070
     0
  0
LAYOUT
  5
1E
102
{ACAD_XDICTIONARY
360
165C
102
}
102
{ACAD_REACTORS
330
1A
102
}
330
1A
100
AcDbPlotSettings
  1

  2

  4

  6

 40
0.0
 41
0.0
 42
0.0
 43
0.0
 44
0.0
 45
0.0
 46
0.0
 47
0.0
 48
0.0
 49
0.0
140
0.0
141
0.0
142
1.0
143
1.0
 70
   688
 72
     0
 73
     0
 74
     5
  7
單色出圖.ctb
 75
    16
147
1.0
148
0.0
149
0.0
100
AcDbLayout
  1
配置1
 70
     1
 71
     1
 10
0.0
 20
0.0
 11
420.0
 21
297.0
 12
0.0
 22
0.0
 32
0.0
 14
1.000000000000000E+20
 24
1.000000000000000E+20
 34
1.000000000000000E+20
 15
-1.000000000000000E+20
 25
-1.000000000000000E+20
 35
-1.000000000000000E+20
146
0.0
 13
0.0
 23
0.0
 33
0.0
 16
1.0
 26
0.0
 36
0.0
 17
0.0
 27
1.0
 37
0.0
 76
     0
330
1B
  0
LAYOUT
  5
26
102
{ACAD_XDICTIONARY
360
1660
102
}
102
{ACAD_REACTORS
330
1A
102
}
330
1A
100
AcDbPlotSettings
  1

  2

  4

  6

 40
0.0
 41
0.0
 42
0.0
 43
0.0
 44
0.0
 45
0.0
 46
0.0
 47
0.0
 48
0.0
 49
0.0
140
0.0
141
0.0
142
1.0
143
1.0
 70
   688
 72
     0
 73
     0
 74
     5
  7
單色出圖.ctb
 75
    16
147
1.0
148
0.0
149
0.0
100
AcDbLayout
  1
配置2
 70
     1
 71
     2
 10
0.0
 20
0.0
 11
12.0
 21
9.0
 12
0.0
 22
0.0
 32
0.0
 14
0.0
 24
0.0
 34
0.0
 15
0.0
 25
0.0
 35
0.0
146
0.0
 13
0.0
 23
0.0
 33
0.0
 16
1.0
 26
0.0
 36
0.0
 17
0.0
 27
1.0
 37
0.0
 76
     0
330
23
  0
MLINESTYLE
  5
18
102
{ACAD_REACTORS
330
17
102
}
330
17
100
AcDbMlineStyle
  2
STANDARD
 70
     0
  3

 62
   256
 51
90.0
 52
90.0
 71
     2
 49
0.5
 62
   256
  6
BYLAYER
 49
-0.5
 62
   256
  6
BYLAYER
  0
ACDBPLACEHOLDER
  5
F
102
{ACAD_REACTORS
330
E
102
}
330
E
  0
TABLESTYLE
  5
11B
102
{ACAD_REACTORS
330
11A
102
}
330
11A
100
AcDbTableStyle
  3
Standard
 70
     0
 71
     0
 40
1.5
 41
1.5
280
     0
281
     0
  7
STANDARD
140
4.5
170
     2
 62
     0
 63
     7
283
     0
274
    -2
284
     1
 64
     0
275
    -2
285
     1
 65
     0
276
    -2
286
     1
 66
     0
277
    -2
287
     1
 67
     0
278
    -2
288
     1
 68
     0
279
    -2
289
     1
 69
     0
  7
STANDARD
140
6.0
170
     5
 62
     0
 63
     7
283
     0
274
    -2
284
     1
 64
     0
275
    -2
285
     1
 65
     0
276
    -2
286
     1
 66
     0
277
    -2
287
     1
 67
     0
278
    -2
288
     1
 68
     0
279
    -2
289
     1
 69
     0
  7
STANDARD
140
4.5
170
     5
 62
     0
 63
     7
283
     0
274
    -2
284
     1
 64
     0
275
    -2
285
     1
 65
     0
276
    -2
286
     1
 66
     0
277
    -2
287
     1
 67
     0
278
    -2
288
     1
 68
     0
279
    -2
289
     1
 69
     0
  0
DICTIONARYVAR
  5
138
102
{ACAD_REACTORS
330
94
102
}
330
94
100
DictionaryVariables
280
     0
  1
STANDARD
  0
DICTIONARYVAR
  5
96
102
{ACAD_REACTORS
330
94
102
}
330
94
100
DictionaryVariables
280
     0
  1
2
  0
DICTIONARYVAR
  5
95
102
{ACAD_REACTORS
330
94
102
}
330
94
100
DictionaryVariables
280
     0
  1
0
  0
DICTIONARYVAR
  5
1658
102
{ACAD_REACTORS
330
94
102
}
330
94
100
DictionaryVariables
280
     0
  1

  0
DICTIONARY
  5
1B5
102
{ACAD_REACTORS
330
5B
102
}
330
5B
100
AcDbDictionary
281
     1
  0
DICTIONARY
  5
61
102
{ACAD_REACTORS
330
5B
102
}
330
5B
100
AcDbDictionary
281
     1
  0
XRECORD
  5
123
102
{ACAD_REACTORS
330
5B
102
}
330
5B
100
AcDbXrecord
280
     1
 90
-1023410169
  0
DICTIONARY
  5
165E
330
22
100
AcDbDictionary
280
     1
281
     1
  3
ACAD_XREC_ROUNDTRIP
360
165F
  0
DICTIONARY
  5
165C
330
1E
100
AcDbDictionary
280
     1
281
     1
  3
ACAD_XREC_ROUNDTRIP
360
165D
  0
DICTIONARY
  5
1660
330
26
100
AcDbDictionary
280
     1
281
     1
  3
ACAD_XREC_ROUNDTRIP
360
1661
  0
XRECORD
  5
165F
102
{ACAD_REACTORS
330
165E
102
}
330
165E
100
AcDbXrecord
280
     1
102
SHADEPLOT
 70
     0
102
SHADEPLOTRESLEVEL
 70
     2
102
SHADEPLOTCUSTOMDPI
 70
   300
  0
XRECORD
  5
165D
102
{ACAD_REACTORS
330
165C
102
}
330
165C
100
AcDbXrecord
280
     1
102
SHADEPLOT
 70
     0
102
SHADEPLOTRESLEVEL
 70
     2
102
SHADEPLOTCUSTOMDPI
 70
   300
  0
XRECORD
  5
1661
102
{ACAD_REACTORS
330
1660
102
}
330
1660
100
AcDbXrecord
280
     1
102
SHADEPLOT
 70
     0
102
SHADEPLOTRESLEVEL
 70
     2
102
SHADEPLOTCUSTOMDPI
 70
   300
  0
ENDSEC
  0
EOF
