  0
SECTION
  2
HEADER
  9
$ACADVER
  1
AC1015
  9
$ACADMAINTVER
 70
    20
  9
$DWGCODEPAGE
  3
ANSI_950
  9
$INSBASE
 10
0.0
 20
0.0
 30
0.0
  9
$EXTMIN
 10
94.6435557755683
 20
89.29124530229159
 30
-0.0037028432158763
  9
$EXTMAX
 10
229.0658576892058
 20
274.077851006619
 30
101.4824889607175
  9
$LIMMIN
 10
0.0
 20
0.0
  9
$LIMMAX
 10
420.0
 20
297.0
  9
$ORTHOMODE
 70
     1
  9
$REGENMODE
 70
     1
  9
$FILLMODE
 70
     1
  9
$QTEXTMODE
 70
     0
  9
$MIRRTEXT
 70
     1
  9
$LTSCALE
 40
1.0
  9
$ATTMODE
 70
     1
  9
$TEXTSIZE
 40
3.5
  9
$TRACEWID
 40
1.0
  9
$TEXTSTYLE
  7
STANDARD
  9
$CLAYER
  8
0
  9
$CELTYPE
  6
ByLayer
  9
$CECOLOR
 62
   256
  9
$CELTSCALE
 40
1.0
  9
$DISPSILH
 70
     0
  9
$DIMSCALE
 40
1.0
  9
$DIMASZ
 40
3.0
  9
$DIMEXO
 40
1.0
  9
$DIMDLI
 40
8.0
  9
$DIMRND
 40
0.0
  9
$DIMDLE
 40
0.0
  9
$DIMEXE
 40
1.5
  9
$DIMTP
 40
0.1
  9
$DIMTM
 40
0.1
  9
$DIMTXT
 40
3.5
  9
$DIMCEN
 40
3.0
  9
$DIMTSZ
 40
0.0
  9
$DIMTOL
 70
     0
  9
$DIMLIM
 70
     0
  9
$DIMTIH
 70
     0
  9
$DIMTOH
 70
     0
  9
$DIMSE1
 70
     0
  9
$DIMSE2
 70
     0
  9
$DIMTAD
 70
     1
  9
$DIMZIN
 70
     8
  9
$DIMBLK
  1

  9
$DIMASO
 70
     1
  9
$DIMSHO
 70
     1
  9
$DIMPOST
  1

  9
$DIMAPOST
  1
"
  9
$DIMALT
 70
     0
  9
$DIMALTD
 70
     2
  9
$DIMALTF
 40
0.0393701
  9
$DIMLFAC
 40
1.0
  9
$DIMTOFL
 70
     1
  9
$DIMTVP
 40
0.0
  9
$DIMTIX
 70
     0
  9
$DIMSOXD
 70
     0
  9
$DIMSAH
 70
     0
  9
$DIMBLK1
  1

  9
$DIMBLK2
  1

  9
$DIMSTYLE
  2
AM_ISO
  9
$DIMCLRD
 70
   256
  9
$DIMCLRE
 70
   256
  9
$DIMCLRT
 70
   256
  9
$DIMTFAC
 40
0.71
  9
$DIMGAP
 40
0.8
  9
$DIMJUST
 70
     0
  9
$DIMSD1
 70
     0
  9
$DIMSD2
 70
     0
  9
$DIMTOLJ
 70
     0
  9
$DIMTZIN
 70
     8
  9
$DIMALTZ
 70
     0
  9
$DIMALTTZ
 70
     0
  9
$DIMUPT
 70
     0
  9
$DIMDEC
 70
     2
  9
$DIMTDEC
 70
     8
  9
$DIMALTU
 70
     2
  9
$DIMALTTD
 70
     2
  9
$DIMTXSTY
  7
STANDARD
  9
$DIMAUNIT
 70
     0
  9
$DIMADEC
 70
     0
  9
$DIMALTRND
 40
0.0
  9
$DIMAZIN
 70
     2
  9
$DIMDSEP
 70
    46
  9
$DIMATFIT
 70
     3
  9
$DIMFRAC
 70
     0
  9
$DIMLDRBLK
  1

  9
$DIMLUNIT
 70
     2
  9
$DIMLWD
 70
    -1
  9
$DIMLWE
 70
    -1
  9
$DIMTMOVE
 70
     0
  9
$LUNITS
 70
     2
  9
$LUPREC
 70
     2
  9
$SKETCHINC
 40
1.0
  9
$FILLETRAD
 40
2.5
  9
$AUNITS
 70
     0
  9
$AUPREC
 70
     0
  9
$MENU
  1
.
  9
$ELEVATION
 40
0.0
  9
$PELEVATION
 40
0.0
  9
$THICKNESS
 40
0.0
  9
$LIMCHECK
 70
     0
  9
$CHAMFERA
 40
2.5
  9
$CHAMFERB
 40
2.5
  9
$CHAMFERC
 40
20.0
  9
$CHAMFERD
 40
0.0
  9
$SKPOLY
 70
     0
  9
$TDCREATE
 40
2453021.369367211
  9
$TDUCREATE
 40
2453021.036033877
  9
$TDUPDATE
 40
2453514.629820232
  9
$TDUUPDATE
 40
2453514.296486898
  9
$TDINDWG
 40
0.6638368634
  9
$TDUSRTIMER
 40
0.6638365162
  9
$USRTIMER
 70
     1
  9
$ANGBASE
 50
0.0
  9
$ANGDIR
 70
     0
  9
$PDMODE
 70
     0
  9
$PDSIZE
 40
0.0
  9
$PLINEWID
 40
0.0
  9
$SPLFRAME
 70
     0
  9
$SPLINETYPE
 70
     6
  9
$SPLINESEGS
 70
     8
  9
$HANDSEED
  5
4DB5
  9
$SURFTAB1
 70
     6
  9
$SURFTAB2
 70
     6
  9
$SURFTYPE
 70
     6
  9
$SURFU
 70
     6
  9
$SURFV
 70
     6
  9
$UCSBASE
  2

  9
$UCSNAME
  2

  9
$UCSORG
 10
0.0
 20
0.0
 30
0.0
  9
$UCSXDIR
 10
1.0
 20
0.0
 30
0.0
  9
$UCSYDIR
 10
0.0
 20
1.0
 30
0.0
  9
$UCSORTHOREF
  2

  9
$UCSORTHOVIEW
 70
     0
  9
$UCSORGTOP
 10
0.0
 20
0.0
 30
0.0
  9
$UCSORGBOTTOM
 10
0.0
 20
0.0
 30
0.0
  9
$UCSORGLEFT
 10
0.0
 20
0.0
 30
0.0
  9
$UCSORGRIGHT
 10
0.0
 20
0.0
 30
0.0
  9
$UCSORGFRONT
 10
0.0
 20
0.0
 30
0.0
  9
$UCSORGBACK
 10
0.0
 20
0.0
 30
0.0
  9
$PUCSBASE
  2

  9
$PUCSNAME
  2

  9
$PUCSORG
 10
0.0
 20
0.0
 30
0.0
  9
$PUCSXDIR
 10
1.0
 20
0.0
 30
0.0
  9
$PUCSYDIR
 10
0.0
 20
1.0
 30
0.0
  9
$PUCSORTHOREF
  2

  9
$PUCSORTHOVIEW
 70
     0
  9
$PUCSORGTOP
 10
0.0
 20
0.0
 30
0.0
  9
$PUCSORGBOTTOM
 10
0.0
 20
0.0
 30
0.0
  9
$PUCSORGLEFT
 10
0.0
 20
0.0
 30
0.0
  9
$PUCSORGRIGHT
 10
0.0
 20
0.0
 30
0.0
  9
$PUCSORGFRONT
 10
0.0
 20
0.0
 30
0.0
  9
$PUCSORGBACK
 10
0.0
 20
0.0
 30
0.0
  9
$USERI1
 70
     0
  9
$USERI2
 70
     0
  9
$USERI3
 70
     0
  9
$USERI4
 70
     0
  9
$USERI5
 70
     0
  9
$USERR1
 40
0.0
  9
$USERR2
 40
0.0
  9
$USERR3
 40
0.0
  9
$USERR4
 40
0.0
  9
$USERR5
 40
0.0
  9
$WORLDVIEW
 70
     1
  9
$SHADEDGE
 70
     3
  9
$SHADEDIF
 70
    70
  9
$TILEMODE
 70
     1
  9
$MAXACTVP
 70
    64
  9
$PINSBASE
 10
0.0
 20
0.0
 30
0.0
  9
$PLIMCHECK
 70
     0
  9
$PEXTMIN
 10
1.000000000000000E+20
 20
1.000000000000000E+20
 30
1.000000000000000E+20
  9
$PEXTMAX
 10
-1.000000000000000E+20
 20
-1.000000000000000E+20
 30
-1.000000000000000E+20
  9
$PLIMMIN
 10
0.0
 20
0.0
  9
$PLIMMAX
 10
420.0
 20
297.0
  9
$UNITMODE
 70
     0
  9
$VISRETAIN
 70
     1
  9
$PLINEGEN
 70
     0
  9
$PSLTSCALE
 70
     1
  9
$TREEDEPTH
 70
  3020
  9
$CMLSTYLE
  2
Standard
  9
$CMLJUST
 70
     0
  9
$CMLSCALE
 40
20.0
  9
$PROXYGRAPHICS
 70
     1
  9
$MEASUREMENT
 70
     1
  9
$CELWEIGHT
370
    -1
  9
$ENDCAPS
280
     0
  9
$JOINSTYLE
280
     0
  9
$LWDISPLAY
290
     0
  9
$INSUNITS
 70
     4
  9
$HYPERLINKBASE
  1

  9
$STYLESHEET
  1
彩色出圖.ctb
  9
$XEDIT
290
     1
  9
$CEPSNTYPE
380
     0
  9
$PSTYLEMODE
290
     1
  9
$FINGERPRINTGUID
  2
{6C02722A-18D3-491A-897A-B8025DE410A9}
  9
$VERSIONGUID
  2
{E82A5D9D-BF81-44DB-BE03-8AB54F5C7DA0}
  9
$EXTNAMES
290
     1
  9
$PSVPSCALE
 40
0.0
  9
$OLESTARTUP
290
     0
  0
ENDSEC
  0
SECTION
  2
CLASSES
  0
CLASS
  1
ACDBDICTIONARYWDFLT
  2
AcDbDictionaryWithDefault
  3
ObjectDBX Classes
 90
        0
280
     0
281
     0
  0
CLASS
  1
ACDBPLACEHOLDER
  2
AcDbPlaceHolder
  3
ObjectDBX Classes
 90
        0
280
     0
281
     0
  0
CLASS
  1
LAYOUT
  2
AcDbLayout
  3
ObjectDBX Classes
 90
        0
280
     0
281
     0
  0
CLASS
  1
AMGSETTINGSOBJ
  2
AmgSettingsObj
  3
"AcadM|Product Description: AutoCAD Mechanical 2000|Company: Autodesk"
 90
        0
280
     0
281
     0
  0
CLASS
  1
ACME_DOCUMENT
  2
AcMeDbDoc
  3
AcMeServices
 90
        0
280
     0
281
     0
  0
CLASS
  1
ACMESCOPE
  2
AcMeScope
  3
AcMeServices
 90
        0
280
     0
281
     0
  0
CLASS
  1
ACMECOMMANDHISTORY
  2
AcMeCommandHistory
  3
AcMeServices
 90
        0
280
     0
281
     0
  0
CLASS
  1
ACIMSYSVARMAN
  2
AcImSysVarManager
  3
AcMeServices
 90
        0
280
     0
281
     0
  0
CLASS
  1
ACIMREALSYSVAR
  2
AcImRealSysVar
  3
AcMeServices
 90
        0
280
     0
281
     0
  0
CLASS
  1
ACIMINTSYSVAR
  2
AcImIntSysVar
  3
AcMeServices
 90
        0
280
     0
281
     0
  0
CLASS
  1
ACMEDRAWINGMAN
  2
AcMeDrawingMan
  3
AcMeServices
 90
        0
280
     0
281
     0
  0
CLASS
  1
ACMEVIEW
  2
AcMeView
  3
AcMeServices
 90
        0
280
     0
281
     0
  0
CLASS
  1
ACDBENTITYCACHE
  2
AcMeEntityCache
  3
AcMeServices
 90
        0
280
     0
281
     0
  0
CLASS
  1
GSMANAGER
  2
AcMeGSManager
  3
AcMeServices
 90
        0
280
     0
281
     0
  0
CLASS
  1
AMDTINTERNALREACTOR
  2
AmdtInternalReactor
  3
AcMeServices
 90
        0
280
     0
281
     0
  0
CLASS
  1
ACMESTATEMGR
  2
AcMeStateMgr
  3
AcMeServices
 90
        0
280
     0
281
     0
  0
CLASS
  1
ACGREFMASTER
  2
AcGrefMaster
  3
AcAttribServices
 90
        0
280
     0
281
     0
  0
CLASS
  1
ACME_DATABASE
  2
AcMeDbDatabase
  3
AcMeServices
 90
        0
280
     0
281
     0
  0
CLASS
  1
ACRFINSADJUSTERMGR
  2
AcRfInsAdjusterMgr
  3
AcMeServices
 90
        0
280
     0
281
     0
  0
CLASS
  1
ACGREFACADMASTER
  2
AcGrefacadMaster
  3
AcGrefServices
 90
        0
280
     0
281
     0
  0
CLASS
  1
AMIMASTER
  2
AmiMaster
  3
AmiServices
 90
        0
280
     0
281
     0
  0
CLASS
  1
ACMDATADICTIONARY
  2
AcmDataDictionary
  3
"AcmSymBB|Product Description: AutoCAD Mechanical 2004 DX|Company: Autodesk"
 90
        0
280
     0
281
     0
  0
CLASS
  1
ACMDATAENTRYBLOCK
  2
AcmDataEntryBlock
  3
"AcmSymBB|Product Description: AutoCAD Mechanical 2004 DX|Company: Autodesk"
 90
    32768
280
     0
281
     0
  0
CLASS
  1
ACIMSTRSYSVAR
  2
AcImStrSysVar
  3
AcMeServices
 90
        0
280
     0
281
     0
  0
CLASS
  1
ACMSTANDARDISO
  2
AcmStandardISO
  3
"Amdt_StdImp|Product Description: AutoCAD Mechanical 2004 DX|Company: Autodesk"
 90
        0
280
     0
281
     0
  0
CLASS
  1
AMGOBJPROPCFG
  2
AmgObjPropCfg
  3
"AmgLay|Product Description: AutoCAD Mechanical 2000|Company: Autodesk"
 90
        1
280
     0
281
     0
  0
CLASS
  1
AMDTEDGESTANDARDISO
  2
AmdtEdgeStdISO
  3
"Amdt_StdImp|Product Description: AutoCAD Mechanical 2004 DX|Company: Autodesk"
 90
    32768
280
     0
281
     0
  0
CLASS
  1
ACMSURFSTANDARDISO
  2
AcmSurfTextStdISO
  3
"Amdt_StdImp|Product Description: AutoCAD Mechanical 2004 DX|Company: Autodesk"
 90
        0
280
     0
281
     0
  0
CLASS
  1
ACMFCFSTANDARDISO
  2
AcmFCFStdISO
  3
"Amdt_StdImp|Product Description: AutoCAD Mechanical 2004 DX|Company: Autodesk"
 90
        0
280
     0
281
     0
  0
CLASS
  1
ACMWELDSTANDARDISO
  2
AcmWeldingStdISO
  3
"Amdt_StdImp|Product Description: AutoCAD Mechanical 2004 DX|Company: Autodesk"
 90
        0
280
     0
281
     0
  0
CLASS
  1
ACMIDSTANDARDISO
  2
AcmIdStdISO
  3
"Amdt_StdImp|Product Description: AutoCAD Mechanical 2004 DX|Company: Autodesk"
 90
        0
280
     0
281
     0
  0
CLASS
  1
ACMDATUMSTANDARDISO
  2
AcmDatumStdISO
  3
"Amdt_StdImp|Product Description: AutoCAD Mechanical 2004 DX|Company: Autodesk"
 90
        0
280
     0
281
     0
  0
CLASS
  1
ACMBOMSTANDARDISO
  2
AcmBOMStdISO
  3
"Amdt_StdImp|Product Description: AutoCAD Mechanical 2004 DX|Company: Autodesk"
 90
        0
280
     0
281
     0
  0
CLASS
  1
ACMDETAILSTANDARDISO
  2
AmdtDetailSymStdISO
  3
"Amdt_StdImp|Product Description: AutoCAD Mechanical 2004 DX|Company: Autodesk"
 90
        0
280
     0
281
     0
  0
CLASS
  1
ACMSECTIONSTANDARDISO
  2
AmdtSectionSymStdISO
  3
"Amdt_StdImp|Product Description: AutoCAD Mechanical 2004 DX|Company: Autodesk"
 90
        0
280
     0
281
     0
  0
CLASS
  1
ACMCENTERLINESTANDARDISO
  2
AmdtCenterLineStdISO
  3
"Amdt_StdImp|Product Description: AutoCAD Mechanical 2004 DX|Company: Autodesk"
 90
        0
280
     0
281
     0
  0
CLASS
  1
ACMNOTESTANDARDISO
  2
AmdtNoteStdISO
  3
"Amdt_StdImp|Product Description: AutoCAD Mechanical 2004 DX|Company: Autodesk"
 90
        0
280
     0
281
     0
  0
CLASS
  1
ACAMGLAYSTD
  2
AcAmgLayStd
  3
"AcAmgLayStd|Product Description: AutoCAD Mechanical 2000|Company: Autodesk"
 90
        0
280
     0
281
     0
  0
CLASS
  1
ACAMGDIMSTD
  2
AcAmgDimStd
  3
"AcAmgDimStd|Product Description: AutoCAD Mechanical 2000|Company: Autodesk"
 90
        0
280
     0
281
     0
  0
CLASS
  1
ACAMGHOLECHARTSTDISO
  2
AcAmgHoleChartStdISO
  3
ACMSYMBB_MODULE_NAME
 90
        0
280
     0
281
     0
  0
CLASS
  1
ACAMGTITLESTD
  2
AcAmgTitleStd
  3
"TITLEAPP"
 90
        0
280
     0
281
     0
  0
CLASS
  1
LAYER_INDEX
  2
AcDbLayerIndex
  3
ObjectDBX Classes
 90
    32768
280
     0
281
     0
  0
CLASS
  1
IDBUFFER
  2
AcDbIdBuffer
  3
ObjectDBX Classes
 90
    32768
280
     0
281
     0
  0
CLASS
  1
DICTIONARYVAR
  2
AcDbDictionaryVar
  3
ObjectDBX Classes
 90
        0
280
     0
281
     0
  0
CLASS
  1
ACAMGFILTERDAT
  2
AcAmgFilterDat
  3
"AcadM|Product Description: AutoCAD Mechanical 2000|Company: Autodesk"
 90
    32768
280
     0
281
     0
  0
CLASS
  1
AMDTFORMULAUPDATEDISPATCHER
  2
AmdtFormulaUpdateDispatcher
  3
AcMeServices
 90
    32768
280
     0
281
     0
  0
CLASS
  1
DIMASSOC
  2
AcDbDimAssoc
  3
"AcDbDimAssoc|Product Desc:     AcDim ARX App For Dimension|Company:          Autodesk, Inc.|WEB Address:      www.autodesk.com"
 90
        0
280
     0
281
     0
  0
CLASS
  1
AMDTNOTE
  2
AmdtNote
  3
"AcmSymBB|Product Description: AutoCAD Mechanical 2004 DX|Company: Autodesk"
 90
     1023
280
     0
281
     1
  0
CLASS
  1
TABLESTYLE
  2
AcDbTableStyle
  3
ObjectDBX Classes
 90
     2047
280
     0
281
     0
  0
CLASS
  1
AM_DRAWING_MGR
  2
AcDmDwgMgr
  3
AcMechDwgViewMgmt
 90
        0
280
     0
281
     0
  0
CLASS
  1
AM_DWG_DOCUMENT
  2
AcDmDwgDocument
  3
AcMechDwgViewMgmt
 90
        0
280
     0
281
     0
  0
CLASS
  1
AM_DWG_SHEET
  2
AcDmSheet
  3
AcMechDwgViewMgmt
 90
        0
280
     0
281
     0
  0
CLASS
  1
AM_VIEWDIMPARMAP
  2
AcDmViewDimParMap
  3
AcMechDwgViewMgmt
 90
        0
280
     0
281
     0
  0
CLASS
  1
AM_DWGMGR_NAME
  2
AcDmDwgMgrName
  3
AcMechDwgViewMgmt
 90
        0
280
     0
281
     0
  0
CLASS
  1
AMDTMENUSTATEMGR
  2
AmdtMenuStateMgr
  3
McadcomServices
 90
        0
280
     0
281
     0
  0
CLASS
  1
AMDTMCOMMENUSTATE
  2
AmdtMcomMenuState
  3
McadcomServices
 90
        0
280
     0
281
     0
  0
CLASS
  1
MAPIAMMOUDLE
  2
MApiAmModule
  3
MApiAmServices
 90
        0
280
     0
281
     0
  0
CLASS
  1
AMDTADMENUSTATE
  2
AmdtAdMenuState
  3
DesignerServices
 90
        0
280
     0
281
     0
  0
CLASS
  1
ADAPPL
  2
AcAdAppl
  3
DesignerServices
 90
        0
280
     0
281
     0
  0
CLASS
  1
DEPMGR
  2
AcAdDepMgr
  3
DesignerServices
 90
        0
280
     0
281
     0
  0
CLASS
  1
PARAMMGR
  2
AcAdParamMgr
  3
DesignerServices
 90
        0
280
     0
281
     0
  0
CLASS
  1
PARAMSCOPE
  2
AcAdParamScope
  3
DesignerServices
 90
        0
280
     0
281
     0
  0
CLASS
  1
NAMEDAPPL
  2
AcAdNamedAppl
  3
DesignerServices
 90
        0
280
     0
281
     0
  0
CLASS
  1
AMDTDMMENUSTATE
  2
AmdtDmMenuState
  3
AcMechDwgViewMgmt
 90
        0
280
     0
281
     0
  0
CLASS
  1
AMDTAMMENUSTATE
  2
AmdtAmMenuState
  3
DesignerAssemblies
 90
        0
280
     0
281
     0
  0
CLASS
  1
ACAMPROJECT
  2
AcAmProject
  3
DesignerAssemblies
 90
        0
280
     0
281
     0
  0
CLASS
  1
ACAMGRCOMPDEF
  2
AcAmGrCompDef
  3
DesignerAssemblies
 90
        0
280
     0
281
     0
  0
CLASS
  1
ACCMCONTEXT
  2
AcCmContext
  3
DesignerAssemblies
 90
        0
280
     0
281
     0
  0
CLASS
  1
ACAMCOMPDEF
  2
AcAmCompDef
  3
DesignerAssemblies
 90
        0
280
     0
281
     0
  0
CLASS
  1
ACAMCOMPDEFMGR
  2
AcAmCompDefMgr
  3
DesignerAssemblies
 90
        0
280
     0
281
     0
  0
CLASS
  1
AMCONTEXTMGR
  2
AcAmContextMgr
  3
DesignerAssemblies
 90
        0
280
     0
281
     0
  0
CLASS
  1
ACAMCONTEXTMODELER
  2
AcAmContextModeler
  3
DesignerAssemblies
 90
        0
280
     0
281
     0
  0
CLASS
  1
ACMTHREADLINESTANDARDISO
  2
AmdtThreadLineStdISO
  3
"Amdt_StdImp|Product Description: AutoCAD Mechanical 2004 DX|Company: Autodesk"
 90
        0
280
     0
281
     0
  0
CLASS
  1
CATALOGSTATE
  2
AcAmCatalogState
  3
DesignerAssemblies
 90
        0
280
     0
281
     0
  0
CLASS
  1
ACAMGRCOMPDEFSET
  2
AcAmGrCompDefSet
  3
DesignerAssemblies
 90
        0
280
     0
281
     0
  0
CLASS
  1
AMDTBROWSERDBTAB
  2
AmdtBrowserDbTab
  3
McadcomServices
 90
        0
280
     0
281
     0
  0
CLASS
  1
CBROWSERAPPOBJECT
  2
CBrowserAppObject
  3
McadcomServices
 90
        0
280
     0
281
     0
  0
CLASS
  1
DM_PLACEHOLDER
  2
AcDmSelsetPlaceholder
  3
AcMechDwgViewMgmt
 90
        0
280
     0
281
     0
  0
CLASS
  1
VAACXREFPANELOBJECT
  2
VaAcXREFPanelObject
  3
VAAC_ADDIN
 90
        0
280
     0
281
     0
  0
CLASS
  1
VAACIMAGEINVENTORY
  2
VaAcImageInventory
  3
VAAC_ADDIN
 90
        0
280
     0
281
     0
  0
CLASS
  1
AMDTEDGESTANDARDISO13715
  2
AmdtEdgeStdISO13715
  3
"Amdt_StdImp|Product Description: AutoCAD Mechanical 2004 DX|Company: Autodesk"
 90
        0
280
     0
281
     0
  0
CLASS
  1
AMDTNOTETEMPLATEDB
  2
AmdtNoteTemplateDB
  3
AMDT_STDIMP_MODULE_NAME
 90
        0
280
     0
281
     0
  0
CLASS
  1
ACRFATTGENMGR
  2
AcRfAttGeneralMgr
  3
AcAttribServices
 90
        0
280
     0
281
     0
  0
CLASS
  1
SORTENTSTABLE
  2
AcDbSortentsTable
  3
ObjectDBX Classes
 90
        0
280
     0
281
     0
  0
CLASS
  1
STDPART2D
  2
AmgStdPart
  3
"AmgStdPart|Product Description: AutoCAD Mechanical 2000|Company: Autodesk"
 90
    33791
280
     0
281
     1
  0
CLASS
  1
ACAMSTDPCOMPDEF
  2
AcAmStdpCompDef
  3
DesignerAssemblies
 90
    32768
280
     0
281
     0
  0
CLASS
  1
ACRFOBJATTMGR
  2
AcRfObjAttGroupMgr
  3
AcAttribServices
 90
    32768
280
     0
281
     0
  0
CLASS
  1
ACRFMCADAPIATTHOLDER
  2
AcRfMCADAPIAttHolder
  3
AcAttribServices
 90
    32768
280
     0
281
     0
  0
CLASS
  1
AMDTSYSATTR
  2
AmdtSystemAttribute
  3
AcAttribServices
 90
    32768
280
     0
281
     0
  0
CLASS
  1
ACAMCOMP
  2
AcAmComp
  3
DesignerAssemblies
 90
    32768
280
     0
281
     0
  0
CLASS
  1
AC_AM_STDP_VIEW_DEF
  2
AcAmStdpViewDef
  3
DesignerAssemblies
 90
    32768
280
     0
281
     0
  0
CLASS
  1
AC_AM_MVD_DEP_MGR
  2
AcAmMVDdepMgr
  3
DesignerAssemblies
 90
        0
280
     0
281
     0
  0
CLASS
  1
AC_AM_MASTER_VIEW_DEF
  2
AcAmMasterViewDef
  3
DesignerAssemblies
 90
        0
280
     0
281
     0
  0
CLASS
  1
AC_AM_DIRTY_NODES
  2
AcAmDirtyNodes
  3
DesignerAssemblies
 90
        0
280
     0
281
     0
  0
CLASS
  1
AC_AM_MAPPER_CACHE
  2
AcAmMapperCache
  3
DesignerAssemblies
 90
        0
280
     0
281
     0
  0
CLASS
  1
ACAMMVDBACKUPOBJECT
  2
AcAmMVDBackupObject
  3
DesignerAssemblies
 90
        0
280
     0
281
     0
  0
CLASS
  1
AC_AM_COMP_VIEW_INST
  2
AcAmCompView
  3
DesignerAssemblies
 90
    32768
280
     0
281
     0
  0
CLASS
  1
AC_AM_2D_XREF_MGR
  2
AcAmXrefMgr2d
  3
DesignerAssemblies
 90
        0
280
     0
281
     0
  0
CLASS
  1
ACMSTANDARDANSI
  2
AcmStandardANSI
  3
"Amdt_StdImp|Product Description: AutoCAD Mechanical 2004 DX|Company: Autodesk"
 90
    32768
280
     0
281
     0
  0
CLASS
  1
ACMSURFSTANDARDANSI
  2
AcmSurfTextStdANSI
  3
"Amdt_StdImp|Product Description: AutoCAD Mechanical 2004 DX|Company: Autodesk"
 90
    32768
280
     0
281
     0
  0
CLASS
  1
ACMFCFSTANDARDANSI
  2
AcmFCFStdANSI
  3
"Amdt_StdImp|Product Description: AutoCAD Mechanical 2004 DX|Company: Autodesk"
 90
    32768
280
     0
281
     0
  0
CLASS
  1
ACMWELDSTANDARDANSI
  2
AcmWeldingStdANSI
  3
"Amdt_StdImp|Product Description: AutoCAD Mechanical 2004 DX|Company: Autodesk"
 90
    32768
280
     0
281
     0
  0
CLASS
  1
ACMIDSTANDARDANSI
  2
AcmIdStdANSI
  3
"Amdt_StdImp|Product Description: AutoCAD Mechanical 2004 DX|Company: Autodesk"
 90
    32768
280
     0
281
     0
  0
CLASS
  1
ACMDATUMSTANDARDANSI
  2
AcmDatumStdANSI
  3
"Amdt_StdImp|Product Description: AutoCAD Mechanical 2004 DX|Company: Autodesk"
 90
    32768
280
     0
281
     0
  0
CLASS
  1
ACMBOMSTANDARDANSI
  2
AcmBOMStdANSI
  3
"Amdt_StdImp|Product Description: AutoCAD Mechanical 2004 DX|Company: Autodesk"
 90
    32768
280
     0
281
     0
  0
CLASS
  1
ACMDETAILSTANDARDANSI
  2
AmdtDetailSymStdANSI
  3
"Amdt_StdImp|Product Description: AutoCAD Mechanical 2004 DX|Company: Autodesk"
 90
    32768
280
     0
281
     0
  0
CLASS
  1
ACMSECTIONSTANDARDANSI
  2
AmdtSectionSymStdANSI
  3
"Amdt_StdImp|Product Description: AutoCAD Mechanical 2004 DX|Company: Autodesk"
 90
    32768
280
     0
281
     0
  0
CLASS
  1
ACMCENTERLINESTANDARDANSI
  2
AmdtCenterLineStdANSI
  3
"Amdt_StdImp|Product Description: AutoCAD Mechanical 2004 DX|Company: Autodesk"
 90
    32768
280
     0
281
     0
  0
CLASS
  1
ACMTHREADLINESTANDARDANSI
  2
AmdtThreadLineStdANSI
  3
"Amdt_StdImp|Product Description: AutoCAD Mechanical 2004 DX|Company: Autodesk"
 90
    32768
280
     0
281
     0
  0
CLASS
  1
ACMNOTESTANDARDANSI
  2
AmdtNoteStdANSI
  3
"Amdt_StdImp|Product Description: AutoCAD Mechanical 2004 DX|Company: Autodesk"
 90
    32768
280
     0
281
     0
  0
CLASS
  1
ACAMGHOLECHARTSTDANSI
  2
AcAmgHoleChartStdANSI
  3
ACMSYMBB_MODULE_NAME
 90
    32768
280
     0
281
     0
  0
ENDSEC
  0
SECTION
  2
TABLES
  0
TABLE
  2
VPORT
  5
8
330
0
100
AcDbSymbolTable
 70
     3
  0
VPORT
  5
4DAC
330
8
100
AcDbSymbolTableRecord
100
AcDbViewportTableRecord
  2
*Active
 70
     0
 10
0.0
 20
0.0
 11
1.0
 21
1.0
 12
161.8547067323871
 22
181.6845481544553
 13
0.0
 23
0.0
 14
2.5
 24
2.5
 15
10.0
 25
10.0
 16
0.0
 26
0.0
 36
1.0
 17
0.0
 27
0.0
 37
0.0
 40
186.9894359093843
 41
1.81766917293233
 42
50.0
 43
0.0
 44
0.0
 50
0.0
 51
0.0
 71
     0
 72
   100
 73
     1
 74
     3
 75
     0
 76
     0
 77
     0
 78
     0
281
     0
 65
     1
110
0.0
120
0.0
130
0.0
111
1.0
121
0.0
131
0.0
112
0.0
122
1.0
132
0.0
 79
     0
146
0.0
  0
ENDTAB
  0
TABLE
  2
LTYPE
  5
5
330
0
100
AcDbSymbolTable
 70
    14
  0
LTYPE
  5
14
330
5
100
AcDbSymbolTableRecord
100
AcDbLinetypeTableRecord
  2
ByBlock
 70
     0
  3

 72
    65
 73
     0
 40
0.0
  0
LTYPE
  5
15
330
5
100
AcDbSymbolTableRecord
100
AcDbLinetypeTableRecord
  2
ByLayer
 70
     0
  3

 72
    65
 73
     0
 40
0.0
  0
LTYPE
  5
16
330
5
100
AcDbSymbolTableRecord
100
AcDbLinetypeTableRecord
  2
Continuous
 70
     0
  3
Solid line
 72
    65
 73
     0
 40
0.0
  0
LTYPE
  5
4D
330
5
100
AcDbSymbolTableRecord
100
AcDbLinetypeTableRecord
  2
AM_ISO02W050
 70
     0
  3
__ __ __ __ __ __ __ __ __ __ __ __ __ __ __
 72
    65
 73
     2
 40
7.5
 49
6.0
 74
     0
 49
-1.5
 74
     0
  0
LTYPE
  5
4E
330
5
100
AcDbSymbolTableRecord
100
AcDbLinetypeTableRecord
  2
AM_ISO08W050
 70
     0
  3
____ . ____ . ____ . ____ . ____ . ____ . ____
 72
    65
 73
     4
 40
18.0
 49
12.0
 74
     0
 49
-1.5
 74
     0
 49
3.0
 74
     0
 49
-1.5
 74
     0
  0
LTYPE
  5
4F
330
5
100
AcDbSymbolTableRecord
100
AcDbLinetypeTableRecord
  2
AM_ISO09W050
 70
     0
  3
_____ . . _____ . . _____ . . ____ .. ____
 72
    65
 73
     6
 40
22.5
 49
12.0
 74
     0
 49
-1.5
 74
     0
 49
3.0
 74
     0
 49
-1.5
 74
     0
 49
3.0
 74
     0
 49
-1.5
 74
     0
  0
LTYPE
  5
50
330
5
100
AcDbSymbolTableRecord
100
AcDbLinetypeTableRecord
  2
Amconstr
 70
     0
  3
_______________________
 72
    65
 73
     2
 40
9999.0
 49
9999.0
 74
     0
 49
0.0
 74
     0
  0
LTYPE
  5
51
330
5
100
AcDbSymbolTableRecord
100
AcDbLinetypeTableRecord
  2
AM_ISO08W050x2
 70
     0
  3
__ . __ . __ . __ . __ . __
 72
    65
 73
     4
 40
9.0
 49
6.0
 74
     0
 49
-0.75
 74
     0
 49
1.5
 74
     0
 49
-0.75
 74
     0
  0
LTYPE
  5
52
330
5
100
AcDbSymbolTableRecord
100
AcDbLinetypeTableRecord
  2
AM_ISO02W050x2
 70
     0
  3
 _ _ _ _ _ _ _ _ _ _ _ _
 72
    65
 73
     2
 40
3.75
 49
3.0
 74
     0
 49
-0.75
 74
     0
  0
LTYPE
  5
55
330
5
100
AcDbSymbolTableRecord
100
AcDbLinetypeTableRecord
  2
Amzigzag
 70
     0
  3
/\/-/\/-/\/-/\/-/\/-/\/
 72
    65
 73
     2
 40
11.0001
 49
0.0001
 74
     4
 75
   135
340
54
 46
0.04
 50
0.0
 44
0.0
 45
0.0
 49
-11.0
 74
     0
  0
LTYPE
  5
63
330
5
100
AcDbSymbolTableRecord
100
AcDbLinetypeTableRecord
  2
ACISOWELD
 70
     0
  3
_ _ _ _ _
 72
    65
 73
     2
 40
2.0
 49
2.0
 74
     0
 49
-1.0
 74
     0
  0
LTYPE
  5
64
330
5
100
AcDbSymbolTableRecord
100
AcDbLinetypeTableRecord
  2
ACISOTGB
 70
     0
  3
__ . . __ . .
 72
    65
 73
     6
 40
9.0
 49
4.0
 74
     0
 49
-1.0
 74
     0
 49
1.0
 74
     0
 49
-1.0
 74
     0
 49
1.0
 74
     0
 49
-1.0
 74
     0
  0
LTYPE
  5
65
330
5
100
AcDbSymbolTableRecord
100
AcDbLinetypeTableRecord
  2
ACISOTGL
 70
     0
  3
_ _ _ _ _
 72
    65
 73
     2
 40
3.0
 49
2.0
 74
     0
 49
-1.0
 74
     0
  0
LTYPE
  5
68
330
5
100
AcDbSymbolTableRecord
100
AcDbLinetypeTableRecord
  2
CENTER
 70
     0
  3
__ . __
 72
    65
 73
     4
 40
7.0
 49
4.0
 74
     0
 49
-1.0
 74
     0
 49
1.0
 74
     0
 49
-1.0
 74
     0
  0
LTYPE
  5
806
330
5
100
AcDbSymbolTableRecord
100
AcDbLinetypeTableRecord
  2
HIDDEN
 70
     0
  3
Hidden __ __ __ __ __ __ __ __ __ __ __ __ __ _
 72
    65
 73
     2
 40
9.524999999999998
 49
6.349999999999999
 74
     0
 49
-3.174999999999999
 74
     0
  0
LTYPE
  5
807
330
5
100
AcDbSymbolTableRecord
100
AcDbLinetypeTableRecord
  2
PHANTOM2
 70
     0
  3
Phantom (.5x) ___ _ _ ___ _ _ ___ _ _ ___ _ _
 72
    65
 73
     6
 40
31.75
 49
15.875
 74
     0
 49
-3.174999999999999
 74
     0
 49
3.174999999999999
 74
     0
 49
-3.174999999999999
 74
     0
 49
3.174999999999999
 74
     0
 49
-3.174999999999999
 74
     0
  0
ENDTAB
  0
TABLE
  2
LAYER
  5
2
102
{ACAD_XDICTIONARY
360
AAB
102
}
330
0
100
AcDbSymbolTable
 70
     8
  0
LAYER
  5
10
330
2
100
AcDbSymbolTableRecord
100
AcDbLayerTableRecord
  2
0
 70
     0
 62
     7
  6
Continuous
370
    -3
390
F
  0
LAYER
  5
42A
330
2
100
AcDbSymbolTableRecord
100
AcDbLayerTableRecord
  2
AM_5
 70
     0
 62
     5
  6
Continuous
370
    50
390
F
  0
LAYER
  5
43E
330
2
100
AcDbSymbolTableRecord
100
AcDbLayerTableRecord
  2
Defpoints
 70
     0
 62
     7
  6
Continuous
290
     0
370
    -3
390
F
  0
LAYER
  5
CD5
330
2
100
AcDbSymbolTableRecord
100
AcDbLayerTableRecord
  2
AM_7
 70
     0
 62
     1
  6
AM_ISO08W050
370
    25
390
F
  0
LAYER
  5
CD6
330
2
100
AcDbSymbolTableRecord
100
AcDbLayerTableRecord
  2
AM_VIS
 70
     0
 62
     7
  6
Continuous
370
    50
390
F
  0
LAYER
  5
CD7
330
2
100
AcDbSymbolTableRecord
100
AcDbLayerTableRecord
  2
AM_4
 70
     0
 62
     3
  6
Continuous
370
    25
390
F
  0
LAYER
  5
CD9
330
2
100
AcDbSymbolTableRecord
100
AcDbLayerTableRecord
  2
AM_0
 70
     0
 62
     7
  6
Continuous
370
    50
390
F
  0
LAYER
  5
135E
330
2
100
AcDbSymbolTableRecord
100
AcDbLayerTableRecord
  2
LOGO
 70
     0
 62
     7
  6
Continuous
370
    -3
390
F
  0
ENDTAB
  0
TABLE
  2
STYLE
  5
3
330
0
100
AcDbSymbolTable
 70
     6
  0
STYLE
  5
11
330
3
100
AcDbSymbolTableRecord
100
AcDbTextStyleTableRecord
  2
STANDARD
 70
     0
 40
0.0
 41
1.0
 50
0.0
 71
     0
 42
3.5
  3
ISOCP.SHX
  4
CHINESET.SHX
  0
STYLE
  5
54
330
3
100
AcDbSymbolTableRecord
100
AcDbTextStyleTableRecord
  2

 70
     1
 40
0.0
 41
1.0
 50
0.0
 71
     0
 42
2.5
  3
ltypeshp.shx
  4

  0
STYLE
  5
56
330
3
100
AcDbSymbolTableRecord
100
AcDbTextStyleTableRecord
  2
ACISOTS
 70
     0
 40
1.0
 41
1.0
 50
0.0
 71
     0
 42
2.5
  3
isocp.shx
  4
chineset.shx
  0
STYLE
  5
62
330
3
100
AcDbSymbolTableRecord
100
AcDbTextStyleTableRecord
  2
ACISOGDT
 70
     0
 40
0.0
 41
1.0
 50
0.0
 71
     0
 42
3.5
  3
amgdt.shx
  4

  0
STYLE
  5
1360
330
3
100
AcDbSymbolTableRecord
100
AcDbTextStyleTableRecord
  2
CHINESET
 70
     0
 40
0.0
 41
1.0
 50
0.0
 71
     0
 42
4.0
  3
simplex.shx
  4
chineset.shx
  0
ENDTAB
  0
TABLE
  2
VIEW
  5
6
330
0
100
AcDbSymbolTable
 70
     0
  0
ENDTAB
  0
TABLE
  2
UCS
  5
7
330
0
100
AcDbSymbolTable
 70
     0
  0
ENDTAB
  0
TABLE
  2
APPID
  5
9
330
0
100
AcDbSymbolTable
 70
    33
  0
APPID
  5
12
330
9
100
AcDbSymbolTableRecord
100
AcDbRegAppTableRecord
  2
ACAD
 70
     0
  0
APPID
  5
30
330
9
100
AcDbSymbolTableRecord
100
AcDbRegAppTableRecord
  2
MCAD_NO_VIS
 70
     0
  0
APPID
  5
31
330
9
100
AcDbSymbolTableRecord
100
AcDbRegAppTableRecord
  2
ACAD_TEMP_GRAPHIC
 70
     0
  0
APPID
  5
42
330
9
100
AcDbSymbolTableRecord
100
AcDbRegAppTableRecord
  2
ACATTRIBSERVICES
 70
     0
  0
APPID
  5
20A
330
9
100
AcDbSymbolTableRecord
100
AcDbRegAppTableRecord
  2
GENIUS_GENODEF_13
 70
     0
  0
APPID
  5
20B
330
9
100
AcDbSymbolTableRecord
100
AcDbRegAppTableRecord
  2
GENIUS_GENOBJ-N-HTC_13
 70
     0
  0
APPID
  5
20C
330
9
100
AcDbSymbolTableRecord
100
AcDbRegAppTableRecord
  2
GENIUS_GENHATCH_13
 70
     0
  0
APPID
  5
809
330
9
100
AcDbSymbolTableRecord
100
AcDbRegAppTableRecord
  2
AD_DRAW
 70
     0
  0
APPID
  5
827
330
9
100
AcDbSymbolTableRecord
100
AcDbRegAppTableRecord
  2
DESIGNERASSEMBLIES
 70
     0
  0
APPID
  5
82C
330
9
100
AcDbSymbolTableRecord
100
AcDbRegAppTableRecord
  2
ACADM_DIM_EDIT
 70
     0
  0
APPID
  5
82D
330
9
100
AcDbSymbolTableRecord
100
AcDbRegAppTableRecord
  2
AMDT_DM_ADJ
 70
     0
  0
APPID
  5
FE4
330
9
100
AcDbSymbolTableRecord
100
AcDbRegAppTableRecord
  2
GENIUS_GENDTOL_13
 70
     0
  0
APPID
  5
108C
330
9
100
AcDbSymbolTableRecord
100
AcDbRegAppTableRecord
  2
ACAD_DSTYLE_DIMTEXT_FILL
 70
     0
  0
APPID
  5
1201
330
9
100
AcDbSymbolTableRecord
100
AcDbRegAppTableRecord
  2
GEVID1116400677
 70
     0
  0
APPID
  5
1202
330
9
100
AcDbSymbolTableRecord
100
AcDbRegAppTableRecord
  2
GEVDC
 70
     0
  0
APPID
  5
1203
330
9
100
AcDbSymbolTableRecord
100
AcDbRegAppTableRecord
  2
GEVRADREF
 70
     0
  0
APPID
  5
120C
330
9
100
AcDbSymbolTableRecord
100
AcDbRegAppTableRecord
  2
AMG_2DHIDE
 70
     0
  0
APPID
  5
120D
330
9
100
AcDbSymbolTableRecord
100
AcDbRegAppTableRecord
  2
AMG_2DSTRUCT_BTR
 70
     0
  0
APPID
  5
121E
330
9
100
AcDbSymbolTableRecord
100
AcDbRegAppTableRecord
  2
ACADM_2DVIEW_IGN_NOTIFY
 70
     0
  0
APPID
  5
1361
330
9
100
AcDbSymbolTableRecord
100
AcDbRegAppTableRecord
  2
GENIUS_GENREC_14
 70
     0
  0
APPID
  5
1362
330
9
100
AcDbSymbolTableRecord
100
AcDbRegAppTableRecord
  2
GENIUS_GENOBJ-N-REC_13
 70
     0
  0
APPID
  5
1E31
330
9
100
AcDbSymbolTableRecord
100
AcDbRegAppTableRecord
  2
ACAD_PSEXT
 70
     0
  0
APPID
  5
1F6E
330
9
100
AcDbSymbolTableRecord
100
AcDbRegAppTableRecord
  2
GEVID1116471484
 70
     0
  0
APPID
  5
2915
330
9
100
AcDbSymbolTableRecord
100
AcDbRegAppTableRecord
  2
GENIUS_GENOBJ-N-CEN_13
 70
     0
  0
APPID
  5
2916
330
9
100
AcDbSymbolTableRecord
100
AcDbRegAppTableRecord
  2
GENIUS_GENCEN_19
 70
     0
  0
APPID
  5
31F5
330
9
100
AcDbSymbolTableRecord
100
AcDbRegAppTableRecord
  2
GEVID1116471486
 70
     0
  0
APPID
  5
36ED
330
9
100
AcDbSymbolTableRecord
100
AcDbRegAppTableRecord
  2
GEVID1116471487
 70
     0
  0
APPID
  5
3B9C
330
9
100
AcDbSymbolTableRecord
100
AcDbRegAppTableRecord
  2
GENIUS_GENOLIS_13
 70
     0
  0
APPID
  5
3B9D
330
9
100
AcDbSymbolTableRecord
100
AcDbRegAppTableRecord
  2
GENIUS_GENOENT_13
 70
     0
  0
APPID
  5
3B9E
330
9
100
AcDbSymbolTableRecord
100
AcDbRegAppTableRecord
  2
GENIUS_GENOBJ-N-CRS_13
 70
     0
  0
APPID
  5
3B9F
330
9
100
AcDbSymbolTableRecord
100
AcDbRegAppTableRecord
  2
GENIUS_GENOREF_13
 70
     0
  0
APPID
  5
4172
330
9
100
AcDbSymbolTableRecord
100
AcDbRegAppTableRecord
  2
GEVID1116554186
 70
     0
  0
APPID
  5
462D
330
9
100
AcDbSymbolTableRecord
100
AcDbRegAppTableRecord
  2
GENIUS_GENDIMSH_14
 70
     0
  0
ENDTAB
  0
TABLE
  2
DIMSTYLE
  5
A
330
0
100
AcDbSymbolTable
 70
    10
100
AcDbDimStyleTable
 71
     2
340
6B
340
75
  0
DIMSTYLE
105
6B
330
A
100
AcDbSymbolTableRecord
100
AcDbDimStyleTableRecord
  2
AM_ISO
 70
     0
  4
"
 41
3.0
 42
1.0
 43
8.0
 44
1.5
 47
0.1
 48
0.1
 73
     0
 74
     0
 77
     1
 78
     8
 79
     2
140
3.5
141
3.0
143
0.0393701
146
0.71
147
0.8
172
     1
176
   256
177
   256
178
   256
271
     2
272
     2
283
     0
284
     8
340
11
371
    -1
372
    -1
  0
DIMSTYLE
105
6C
330
A
100
AcDbSymbolTableRecord
100
AcDbDimStyleTableRecord
  2
AM_ISO$3
 70
     0
  4
"
 41
3.0
 42
1.0
 43
8.0
 44
1.5
 47
0.1
 48
0.1
 73
     0
 77
     1
 78
     8
 79
     2
140
3.5
141
3.0
143
0.0393701
146
0.71
147
0.8
176
   256
177
   256
178
   256
271
     2
272
     2
283
     0
284
     8
288
     1
289
     0
340
11
371
    -1
372
    -1
  0
DIMSTYLE
105
6D
330
A
100
AcDbSymbolTableRecord
100
AcDbDimStyleTableRecord
  2
AM_ISO$4
 70
     0
  4
"
 41
3.0
 42
1.0
 43
8.0
 44
1.5
 47
0.1
 48
0.1
 73
     0
 77
     1
 78
     8
 79
     2
140
3.5
141
3.0
143
0.0393701
146
0.71
147
0.8
176
   256
177
   256
178
   256
271
     2
272
     2
283
     0
284
     8
288
     1
289
     0
340
11
371
    -1
372
    -1
  0
DIMSTYLE
105
6E
330
A
100
AcDbSymbolTableRecord
100
AcDbDimStyleTableRecord
  2
AM_ISO$6
 70
     0
  4
"
 41
3.0
 42
1.0
 43
8.0
 44
1.5
 47
0.1
 48
0.1
 73
     0
 74
     0
 78
     8
 79
     2
140
3.5
141
3.0
143
0.0393701
146
0.71
147
0.8
172
     1
176
   256
177
   256
178
   256
271
     2
272
     2
283
     0
284
     8
340
11
371
    -1
372
    -1
  0
DIMSTYLE
105
6F
330
A
100
AcDbSymbolTableRecord
100
AcDbDimStyleTableRecord
  2
AM_ISO$7
 70
     0
  4
"
 41
3.0
 42
1.0
 43
8.0
 44
1.5
 47
0.1
 48
0.1
 73
     0
 74
     0
 77
     1
 78
     8
 79
     2
140
5.0
141
3.0
143
0.0393701
146
0.71
147
0.8
172
     1
176
   256
177
   256
178
   256
271
     2
272
     2
283
     0
284
     8
340
11
371
    -1
372
    -1
  0
DIMSTYLE
105
70
330
A
100
AcDbSymbolTableRecord
100
AcDbDimStyleTableRecord
  2
AM_ISO$SF
 70
     0
  4
"
 41
2.5
 42
1.0
 43
10.0
 44
1.0
 47
0.1
 48
0.1
 73
     0
 74
     0
 75
     1
 76
     1
 77
     1
 78
     8
 79
     2
140
3.5
141
0.0
143
0.0393701
146
0.71
147
1.5
172
     1
176
   256
177
   256
178
     2
271
     2
272
     3
274
     4
283
     0
284
     8
340
11
371
    -1
372
    -1
  0
DIMSTYLE
105
75
330
A
100
AcDbSymbolTableRecord
100
AcDbDimStyleTableRecord
  2
AM_ISO$SH
 70
     0
  4
"
 41
2.5
 42
1.0
 43
10.0
 44
1.0
 47
0.1
 48
0.1
 73
     0
 74
     0
 75
     1
 76
     1
 77
     1
 78
     8
 79
     2
140
3.5
141
0.0
143
0.0393701
144
2.0
146
0.71
147
1.5
172
     1
173
     1
176
   256
177
   256
178
     2
271
     2
272
     3
274
     4
283
     0
284
     8
340
11
343
71
371
    -1
372
    -1
  0
DIMSTYLE
105
AAA
102
{ACAD_REACTORS
330
4B47
330
4B6D
330
4B93
330
4BB9
330
4BDF
330
4C05
330
4C2F
102
}
330
A
100
AcDbSymbolTableRecord
100
AcDbDimStyleTableRecord
  2
AM_ISO$0
 70
     0
  4
"
 41
3.0
 42
1.0
 43
8.0
 44
1.5
 47
0.1
 48
0.1000000001
 73
     0
 74
     0
 77
     1
 78
     8
 79
     2
140
3.0
141
0.0
143
0.0393701
146
0.71
147
1.0
172
     1
176
   256
177
   256
178
   256
271
     2
272
     2
283
     2
284
     8
340
11
371
    -1
372
    -1
  0
DIMSTYLE
105
157A
330
A
100
AcDbSymbolTableRecord
100
AcDbDimStyleTableRecord
  2
STANDARD
 70
     0
 41
3.0
 42
2.0
 43
8.0
 44
2.0
 73
     0
 74
     0
 77
     1
 78
     8
 79
     2
140
3.0
141
5.0
147
1.0
176
   256
177
   256
178
   256
271
     2
272
     2
279
     2
284
     8
285
     8
286
     8
340
1360
  0
ENDTAB
  0
TABLE
  2
BLOCK_RECORD
  5
1
330
0
100
AcDbSymbolTable
 70
    15
  0
BLOCK_RECORD
  5
1F
102
{ACAD_XDICTIONARY
360
7D
102
}
330
1
100
AcDbSymbolTableRecord
100
AcDbBlockTableRecord
  2
*Model_Space
340
22
  0
BLOCK_RECORD
  5
1B
330
1
100
AcDbSymbolTableRecord
100
AcDbBlockTableRecord
  2
*Paper_Space
340
1E
  0
BLOCK_RECORD
  5
23
330
1
100
AcDbSymbolTableRecord
100
AcDbBlockTableRecord
  2
*Paper_Space0
340
26
  0
BLOCK_RECORD
  5
71
330
1
100
AcDbSymbolTableRecord
100
AcDbBlockTableRecord
  2
GENAXEH
340
0
  0
BLOCK_RECORD
  5
3211
330
1
100
AcDbSymbolTableRecord
100
AcDbBlockTableRecord
  2
*U4
340
0
  0
BLOCK_RECORD
  5
4B48
330
1
100
AcDbSymbolTableRecord
100
AcDbBlockTableRecord
  2
*D5
340
0
  0
BLOCK_RECORD
  5
4B6E
330
1
100
AcDbSymbolTableRecord
100
AcDbBlockTableRecord
  2
*D6
340
0
  0
BLOCK_RECORD
  5
4B94
330
1
100
AcDbSymbolTableRecord
100
AcDbBlockTableRecord
  2
*D7
340
0
  0
BLOCK_RECORD
  5
4BBA
330
1
100
AcDbSymbolTableRecord
100
AcDbBlockTableRecord
  2
*D8
340
0
  0
BLOCK_RECORD
  5
4BE0
330
1
100
AcDbSymbolTableRecord
100
AcDbBlockTableRecord
  2
*D9
340
0
  0
BLOCK_RECORD
  5
4C06
330
1
100
AcDbSymbolTableRecord
100
AcDbBlockTableRecord
  2
*D10
340
0
  0
BLOCK_RECORD
  5
4C30
330
1
100
AcDbSymbolTableRecord
100
AcDbBlockTableRecord
  2
*D11
340
0
  0
BLOCK_RECORD
  5
4D9B
330
1
100
AcDbSymbolTableRecord
100
AcDbBlockTableRecord
  2
*S13
340
0
  0
BLOCK_RECORD
  5
4DA3
330
1
100
AcDbSymbolTableRecord
100
AcDbBlockTableRecord
  2
*S14
340
0
  0
ENDTAB
  0
ENDSEC
  0
SECTION
  2
BLOCKS
  0
BLOCK
  5
20
330
1F
100
AcDbEntity
  8
0
100
AcDbBlockBegin
  2
*Model_Space
 70
     0
 10
0.0
 20
0.0
 30
0.0
  3
*Model_Space
  1

  0
ENDBLK
  5
21
330
1F
100
AcDbEntity
  8
0
100
AcDbBlockEnd
  0
BLOCK
  5
1C
330
1B
100
AcDbEntity
 67
     1
  8
0
100
AcDbBlockBegin
  2
*Paper_Space
 70
     0
 10
0.0
 20
0.0
 30
0.0
  3
*Paper_Space
  1

  0
ENDBLK
  5
1D
330
1B
100
AcDbEntity
 67
     1
  8
0
100
AcDbBlockEnd
  0
BLOCK
  5
24
330
23
100
AcDbEntity
  8
0
100
AcDbBlockBegin
  2
*Paper_Space0
 70
     0
 10
0.0
 20
0.0
 30
0.0
  3
*Paper_Space0
  1

  0
ENDBLK
  5
25
330
23
100
AcDbEntity
  8
0
100
AcDbBlockEnd
  0
BLOCK
  5
73
330
71
100
AcDbEntity
  8
0
100
AcDbBlockBegin
  2
GENAXEH
 70
     0
 10
0.0
 20
0.0
 30
0.0
  3
GENAXEH
  1

  0
LINE
  5
72
330
71
100
AcDbEntity
  8
0
100
AcDbLine
 10
-1.0
 20
0.0
 30
0.0
 11
1.0
 21
0.0
 31
0.0
  0
ENDBLK
  5
74
330
71
100
AcDbEntity
  8
0
100
AcDbBlockEnd
  0
BLOCK
  5
3212
330
3211
100
AcDbEntity
  8
0
100
AcDbBlockBegin
  2
*U4
 70
     1
 10
0.0
 20
0.0
 30
0.0
  3
*U4
  1

  0
ENDBLK
  5
3213
330
3211
100
AcDbEntity
  8
0
100
AcDbBlockEnd
  0
BLOCK
  5
4B52
330
4B48
100
AcDbEntity
  8
0
100
AcDbBlockBegin
  2
*D5
 70
     1
 10
0.0
 20
0.0
 30
0.0
  3
*D5
  1

  0
LINE
  5
4CF3
330
4B48
100
AcDbEntity
  8
AM_5
100
AcDbLine
 10
124.2933067927855
 20
138.5253688726356
 30
0.0
 11
124.2933067927855
 21
123.3753688726356
 31
0.0
  0
LINE
  5
4CF4
330
4B48
100
AcDbEntity
  8
AM_5
100
AcDbLine
 10
146.2933067927855
 20
138.5253688726356
 30
0.0
 11
146.2933067927855
 21
123.3753688726356
 31
0.0
  0
LINE
  5
4CF5
330
4B48
100
AcDbEntity
  8
AM_5
100
AcDbLine
 10
127.2933067927855
 20
124.8753688726356
 30
0.0
 11
143.2933067927855
 21
124.8753688726356
 31
0.0
  0
SOLID
  5
4CF6
330
4B48
100
AcDbEntity
  8
AM_5
100
AcDbTrace
 10
127.2933067927855
 20
125.3753688726356
 30
0.0
 11
127.2933067927855
 21
124.3753688726356
 31
0.0
 12
124.2933067927855
 22
124.8753688726356
 32
0.0
 13
124.2933067927855
 23
124.8753688726356
 33
0.0
  0
SOLID
  5
4CF7
330
4B48
100
AcDbEntity
  8
AM_5
100
AcDbTrace
 10
143.2933067927855
 20
125.3753688726356
 30
0.0
 11
143.2933067927855
 21
124.3753688726356
 31
0.0
 12
146.2933067927855
 22
124.8753688726356
 32
0.0
 13
146.2933067927855
 23
124.8753688726356
 33
0.0
  0
MTEXT
  5
4CF8
330
4B48
100
AcDbEntity
  8
AM_5
100
AcDbMText
 10
135.2933067927855
 20
127.3756641482261
 30
0.0
 40
3.0
 41
0.0
 71
     5
 72
     1
  1
\A2;22
 73
     1
 44
1.0
1001
ACAD
1000
MTEXTBEGIN
1070
    73
1070
     1
1070
    44
1040
1.0
1070
    74
1070
     0
1000
MTEXTEND
  0
POINT
  5
4CF9
330
4B48
100
AcDbEntity
  8
Defpoints
 62
     0
100
AcDbPoint
 10
124.2933067927855
 20
139.5253688726356
 30
0.0
  0
POINT
  5
4CFA
330
4B48
100
AcDbEntity
  8
Defpoints
 62
     0
100
AcDbPoint
 10
146.2933067927855
 20
139.5253688726356
 30
0.0
  0
POINT
  5
4CFB
330
4B48
100
AcDbEntity
  8
Defpoints
 62
     0
100
AcDbPoint
 10
146.2933067927855
 20
124.8753688726356
 30
0.0
  0
ENDBLK
  5
4B53
330
4B48
100
AcDbEntity
  8
0
100
AcDbBlockEnd
  0
BLOCK
  5
4B78
330
4B6E
100
AcDbEntity
  8
0
100
AcDbBlockBegin
  2
*D6
 70
     1
 10
0.0
 20
0.0
 30
0.0
  3
*D6
  1

  0
LINE
  5
4CFC
330
4B6E
100
AcDbEntity
  8
AM_5
100
AcDbLine
 10
114.2933067927855
 20
135.8753688726356
 30
0.0
 11
114.2933067927855
 21
115.3753688726356
 31
0.0
  0
LINE
  5
4CFD
330
4B6E
100
AcDbEntity
  8
AM_5
100
AcDbLine
 10
156.2933067927855
 20
135.8753688726356
 30
0.0
 11
156.2933067927855
 21
115.3753688726356
 31
0.0
  0
LINE
  5
4CFE
330
4B6E
100
AcDbEntity
  8
AM_5
100
AcDbLine
 10
117.2933067927855
 20
116.8753688726356
 30
0.0
 11
153.2933067927855
 21
116.8753688726356
 31
0.0
  0
SOLID
  5
4CFF
330
4B6E
100
AcDbEntity
  8
AM_5
100
AcDbTrace
 10
117.2933067927855
 20
117.3753688726356
 30
0.0
 11
117.2933067927855
 21
116.3753688726356
 31
0.0
 12
114.2933067927855
 22
116.8753688726356
 32
0.0
 13
114.2933067927855
 23
116.8753688726356
 33
0.0
  0
SOLID
  5
4D00
330
4B6E
100
AcDbEntity
  8
AM_5
100
AcDbTrace
 10
153.2933067927855
 20
117.3753688726356
 30
0.0
 11
153.2933067927855
 21
116.3753688726356
 31
0.0
 12
156.2933067927855
 22
116.8753688726356
 32
0.0
 13
156.2933067927855
 23
116.8753688726356
 33
0.0
  0
MTEXT
  5
4D01
330
4B6E
100
AcDbEntity
  8
AM_5
100
AcDbMText
 10
135.2933067927855
 20
119.3756641482262
 30
0.0
 40
3.0
 41
0.0
 71
     5
 72
     1
  1
\A2;42
 73
     1
 44
1.0
1001
ACAD
1000
MTEXTBEGIN
1070
    73
1070
     1
1070
    44
1040
1.0
1070
    74
1070
     0
1000
MTEXTEND
  0
POINT
  5
4D02
330
4B6E
100
AcDbEntity
  8
Defpoints
 62
     0
100
AcDbPoint
 10
114.2933067927855
 20
136.8753688726356
 30
0.0
  0
POINT
  5
4D03
330
4B6E
100
AcDbEntity
  8
Defpoints
 62
     0
100
AcDbPoint
 10
156.2933067927855
 20
136.8753688726356
 30
0.0
  0
POINT
  5
4D04
330
4B6E
100
AcDbEntity
  8
Defpoints
 62
     0
100
AcDbPoint
 10
156.2933067927855
 20
116.8753688726356
 30
0.0
  0
ENDBLK
  5
4B79
330
4B6E
100
AcDbEntity
  8
0
100
AcDbBlockEnd
  0
BLOCK
  5
4B9E
330
4B94
100
AcDbEntity
  8
0
100
AcDbBlockBegin
  2
*D7
 70
     1
 10
0.0
 20
0.0
 30
0.0
  3
*D7
  1

  0
LINE
  5
4D05
330
4B94
100
AcDbEntity
  8
AM_5
100
AcDbLine
 10
157.2933067927855
 20
136.8753688726356
 30
0.0
 11
169.7933067927855
 21
136.8753688726356
 31
0.0
  0
LINE
  5
4D06
330
4B94
100
AcDbEntity
  8
AM_5
100
AcDbLine
 10
154.6433067927855
 20
146.8753688726356
 30
0.0
 11
169.7933067927855
 21
146.8753688726356
 31
0.0
  0
LINE
  5
4D07
330
4B94
100
AcDbEntity
  8
AM_5
100
AcDbLine
 10
168.2933067927855
 20
139.8753688726356
 30
0.0
 11
168.2933067927855
 21
143.8753688726356
 31
0.0
  0
SOLID
  5
4D08
330
4B94
100
AcDbEntity
  8
AM_5
100
AcDbTrace
 10
167.7933067927855
 20
139.8753688726356
 30
0.0
 11
168.7933067927855
 21
139.8753688726356
 31
0.0
 12
168.2933067927855
 22
136.8753688726356
 32
0.0
 13
168.2933067927855
 23
136.8753688726356
 33
0.0
  0
SOLID
  5
4D09
330
4B94
100
AcDbEntity
  8
AM_5
100
AcDbTrace
 10
167.7933067927855
 20
143.8753688726356
 30
0.0
 11
168.7933067927855
 21
143.8753688726356
 31
0.0
 12
168.2933067927855
 22
146.8753688726356
 32
0.0
 13
168.2933067927855
 23
146.8753688726356
 33
0.0
  0
MTEXT
  5
4D0A
330
4B94
100
AcDbEntity
  8
AM_5
100
AcDbMText
 10
165.7933067927855
 20
141.8753688726356
 30
0.0
 40
3.0
 41
0.0
 71
     5
 72
     1
  1
\A2;10
 11
0.0000000000000001
 21
1.0
 31
0.0
 73
     1
 44
1.0
1001
ACAD
1000
MTEXTBEGIN
1070
    73
1070
     1
1070
    44
1040
1.0
1070
    74
1070
     0
1000
MTEXTEND
  0
POINT
  5
4D0B
330
4B94
100
AcDbEntity
  8
Defpoints
 62
     0
100
AcDbPoint
 10
156.2933067927855
 20
136.8753688726356
 30
0.0
  0
POINT
  5
4D0C
330
4B94
100
AcDbEntity
  8
Defpoints
 62
     0
100
AcDbPoint
 10
153.6433067927855
 20
146.8753688726356
 30
0.0
  0
POINT
  5
4D0D
330
4B94
100
AcDbEntity
  8
Defpoints
 62
     0
100
AcDbPoint
 10
168.2933067927855
 20
146.8753688726356
 30
0.0
  0
ENDBLK
  5
4B9F
330
4B94
100
AcDbEntity
  8
0
100
AcDbBlockEnd
  0
BLOCK
  5
4BC4
330
4BBA
100
AcDbEntity
  8
0
100
AcDbBlockBegin
  2
*D8
 70
     1
 10
0.0
 20
0.0
 30
0.0
  3
*D8
  1

  0
LINE
  5
4D0E
330
4BBA
100
AcDbEntity
  8
AM_5
100
AcDbLine
 10
157.2933067927855
 20
136.8753688726356
 30
0.0
 11
177.7933067927855
 21
136.8753688726356
 31
0.0
  0
LINE
  5
4D0F
330
4BBA
100
AcDbEntity
  8
AM_5
100
AcDbLine
 10
157.2933067927855
 20
164.8753688726356
 30
0.0
 11
177.7933067927855
 21
164.8753688726356
 31
0.0
  0
LINE
  5
4D10
330
4BBA
100
AcDbEntity
  8
AM_5
100
AcDbLine
 10
176.2933067927855
 20
139.8753688726356
 30
0.0
 11
176.2933067927855
 21
161.8753688726356
 31
0.0
  0
SOLID
  5
4D11
330
4BBA
100
AcDbEntity
  8
AM_5
100
AcDbTrace
 10
175.7933067927855
 20
139.8753688726356
 30
0.0
 11
176.7933067927855
 21
139.8753688726356
 31
0.0
 12
176.2933067927855
 22
136.8753688726356
 32
0.0
 13
176.2933067927855
 23
136.8753688726356
 33
0.0
  0
SOLID
  5
4D12
330
4BBA
100
AcDbEntity
  8
AM_5
100
AcDbTrace
 10
175.7933067927855
 20
161.8753688726356
 30
0.0
 11
176.7933067927855
 21
161.8753688726356
 31
0.0
 12
176.2933067927855
 22
164.8753688726356
 32
0.0
 13
176.2933067927855
 23
164.8753688726356
 33
0.0
  0
MTEXT
  5
4D13
330
4BBA
100
AcDbEntity
  8
AM_5
100
AcDbMText
 10
173.7930115171949
 20
150.8753688726356
 30
0.0
 40
3.0
 41
0.0
 71
     5
 72
     1
  1
\A2;28
 11
0.0000000000000001
 21
1.0
 31
0.0
 73
     1
 44
1.0
1001
ACAD
1000
MTEXTBEGIN
1070
    73
1070
     1
1070
    44
1040
1.0
1070
    74
1070
     0
1000
MTEXTEND
  0
POINT
  5
4D14
330
4BBA
100
AcDbEntity
  8
Defpoints
 62
     0
100
AcDbPoint
 10
156.2933067927855
 20
136.8753688726356
 30
0.0
  0
POINT
  5
4D15
330
4BBA
100
AcDbEntity
  8
Defpoints
 62
     0
100
AcDbPoint
 10
156.2933067927855
 20
164.8753688726356
 30
0.0
  0
POINT
  5
4D16
330
4BBA
100
AcDbEntity
  8
Defpoints
 62
     0
100
AcDbPoint
 10
176.2933067927855
 20
164.8753688726356
 30
0.0
  0
ENDBLK
  5
4BC5
330
4BBA
100
AcDbEntity
  8
0
100
AcDbBlockEnd
  0
BLOCK
  5
4BEA
330
4BE0
100
AcDbEntity
  8
0
100
AcDbBlockBegin
  2
*D9
 70
     1
 10
0.0
 20
0.0
 30
0.0
  3
*D9
  1

  0
LINE
  5
4D17
330
4BE0
100
AcDbEntity
  8
AM_5
100
AcDbLine
 10
114.2933067927855
 20
189.475944412359
 30
0.0
 11
114.2933067927855
 21
176.975944412359
 31
0.0
  0
LINE
  5
4D18
330
4BE0
100
AcDbEntity
  8
AM_5
100
AcDbLine
 10
135.2933067927855
 20
190.625944412359
 30
0.0
 11
135.2933067927855
 21
176.975944412359
 31
0.0
  0
LINE
  5
4D19
330
4BE0
100
AcDbEntity
  8
AM_5
100
AcDbLine
 10
117.2933067927855
 20
178.475944412359
 30
0.0
 11
132.2933067927855
 21
178.475944412359
 31
0.0
  0
SOLID
  5
4D1A
330
4BE0
100
AcDbEntity
  8
AM_5
100
AcDbTrace
 10
117.2933067927855
 20
178.975944412359
 30
0.0
 11
117.2933067927855
 21
177.975944412359
 31
0.0
 12
114.2933067927855
 22
178.475944412359
 32
0.0
 13
114.2933067927855
 23
178.475944412359
 33
0.0
  0
SOLID
  5
4D1B
330
4BE0
100
AcDbEntity
  8
AM_5
100
AcDbTrace
 10
132.2933067927855
 20
178.975944412359
 30
0.0
 11
132.2933067927855
 21
177.975944412359
 31
0.0
 12
135.2933067927855
 22
178.475944412359
 32
0.0
 13
135.2933067927855
 23
178.475944412359
 33
0.0
  0
MTEXT
  5
4D1C
330
4BE0
100
AcDbEntity
  8
AM_5
100
AcDbMText
 10
124.7933067927855
 20
180.9762396879496
 30
0.0
 40
3.0
 41
0.0
 71
     5
 72
     1
  1
\A2;21
 73
     1
 44
1.0
1001
ACAD
1000
MTEXTBEGIN
1070
    73
1070
     1
1070
    44
1040
1.0
1070
    74
1070
     0
1000
MTEXTEND
  0
POINT
  5
4D1D
330
4BE0
100
AcDbEntity
  8
Defpoints
 62
     0
100
AcDbPoint
 10
114.2933067927855
 20
190.475944412359
 30
0.0
  0
POINT
  5
4D1E
330
4BE0
100
AcDbEntity
  8
Defpoints
 62
     0
100
AcDbPoint
 10
135.2933067927855
 20
191.6259444123591
 30
0.0
  0
POINT
  5
4D1F
330
4BE0
100
AcDbEntity
  8
Defpoints
 62
     0
100
AcDbPoint
 10
135.2933067927855
 20
178.475944412359
 30
0.0
  0
ENDBLK
  5
4BEB
330
4BE0
100
AcDbEntity
  8
0
100
AcDbBlockEnd
  0
BLOCK
  5
4C12
330
4C06
100
AcDbEntity
  8
0
100
AcDbBlockBegin
  2
*D10
 70
     1
 10
0.0
 20
0.0
 30
0.0
  3
*D10
  1

  0
LINE
  5
4D20
330
4C06
100
AcDbEntity
  8
AM_5
100
AcDbLine
 10
157.2933067927855
 20
190.475944412359
 30
0.0
 11
169.7933067927855
 21
190.475944412359
 31
0.0
  0
LINE
  5
4D21
330
4C06
100
AcDbEntity
  8
AM_5
100
AcDbLine
 10
140.1433067927855
 20
195.475944412359
 30
0.0
 11
169.7933067927855
 21
195.475944412359
 31
0.0
  0
LINE
  5
4D22
330
4C06
100
AcDbEntity
  8
AM_5
100
AcDbLine
 10
168.2933067927855
 20
187.475944412359
 30
0.0
 11
168.2933067927855
 21
184.4759444123591
 31
0.0
  0
LINE
  5
4D23
330
4C06
100
AcDbEntity
  8
AM_5
100
AcDbLine
 10
168.2933067927855
 20
198.475944412359
 30
0.0
 11
168.2933067927855
 21
201.475944412359
 31
0.0
  0
LINE
  5
4D24
330
4C06
100
AcDbEntity
  8
AM_5
100
AcDbLine
 10
168.2933067927855
 20
190.475944412359
 30
0.0
 11
168.2933067927855
 21
195.475944412359
 31
0.0
  0
SOLID
  5
4D25
330
4C06
100
AcDbEntity
  8
AM_5
100
AcDbTrace
 10
167.7933067927855
 20
187.475944412359
 30
0.0
 11
168.7933067927855
 21
187.475944412359
 31
0.0
 12
168.2933067927855
 22
190.475944412359
 32
0.0
 13
168.2933067927855
 23
190.475944412359
 33
0.0
  0
SOLID
  5
4D26
330
4C06
100
AcDbEntity
  8
AM_5
100
AcDbTrace
 10
167.7933067927855
 20
198.475944412359
 30
0.0
 11
168.7933067927855
 21
198.475944412359
 31
0.0
 12
168.2933067927855
 22
195.475944412359
 32
0.0
 13
168.2933067927855
 23
195.475944412359
 33
0.0
  0
MTEXT
  5
4D27
330
4C06
100
AcDbEntity
  8
AM_5
100
AcDbMText
 10
165.7933067927855
 20
192.9759444123591
 30
0.0
 40
3.0
 41
0.0
 71
     5
 72
     1
  1
\A2;5
 11
0.0000000000000001
 21
1.0
 31
0.0
 73
     1
 44
1.0
1001
ACAD
1000
MTEXTBEGIN
1070
    73
1070
     1
1070
    44
1040
1.0
1070
    74
1070
     0
1000
MTEXTEND
  0
POINT
  5
4D28
330
4C06
100
AcDbEntity
  8
Defpoints
 62
     0
100
AcDbPoint
 10
156.2933067927855
 20
190.475944412359
 30
0.0
  0
POINT
  5
4D29
330
4C06
100
AcDbEntity
  8
Defpoints
 62
     0
100
AcDbPoint
 10
139.1433067927855
 20
195.475944412359
 30
0.0
  0
POINT
  5
4D2A
330
4C06
100
AcDbEntity
  8
Defpoints
 62
     0
100
AcDbPoint
 10
168.2933067927855
 20
195.475944412359
 30
0.0
  0
ENDBLK
  5
4C13
330
4C06
100
AcDbEntity
  8
0
100
AcDbBlockEnd
  0
BLOCK
  5
4C3C
330
4C30
100
AcDbEntity
  8
0
100
AcDbBlockBegin
  2
*D11
 70
     1
 10
0.0
 20
0.0
 30
0.0
  3
*D11
  1

  0
LINE
  5
4D2B
330
4C30
100
AcDbEntity
  8
AM_5
100
AcDbLine
 10
140.1433067927855
 20
242.4759444123591
 30
0.0
 11
169.7933067927855
 21
242.4759444123591
 31
0.0
  0
LINE
  5
4D2C
330
4C30
100
AcDbEntity
  8
AM_5
100
AcDbLine
 10
157.2933067927855
 20
247.4759444123591
 30
0.0
 11
169.7933067927855
 21
247.4759444123591
 31
0.0
  0
LINE
  5
4D2D
330
4C30
100
AcDbEntity
  8
AM_5
100
AcDbLine
 10
168.2933067927855
 20
239.4759444123591
 30
0.0
 11
168.2933067927855
 21
236.4759444123591
 31
0.0
  0
LINE
  5
4D2E
330
4C30
100
AcDbEntity
  8
AM_5
100
AcDbLine
 10
168.2933067927855
 20
250.4759444123591
 30
0.0
 11
168.2933067927855
 21
253.475944412359
 31
0.0
  0
LINE
  5
4D2F
330
4C30
100
AcDbEntity
  8
AM_5
100
AcDbLine
 10
168.2933067927855
 20
242.4759444123591
 30
0.0
 11
168.2933067927855
 21
247.4759444123591
 31
0.0
  0
SOLID
  5
4D30
330
4C30
100
AcDbEntity
  8
AM_5
100
AcDbTrace
 10
167.7933067927855
 20
239.4759444123591
 30
0.0
 11
168.7933067927855
 21
239.4759444123591
 31
0.0
 12
168.2933067927855
 22
242.4759444123591
 32
0.0
 13
168.2933067927855
 23
242.4759444123591
 33
0.0
  0
SOLID
  5
4D31
330
4C30
100
AcDbEntity
  8
AM_5
100
AcDbTrace
 10
167.7933067927855
 20
250.4759444123591
 30
0.0
 11
168.7933067927855
 21
250.4759444123591
 31
0.0
 12
168.2933067927855
 22
247.4759444123591
 32
0.0
 13
168.2933067927855
 23
247.4759444123591
 33
0.0
  0
MTEXT
  5
4D32
330
4C30
100
AcDbEntity
  8
AM_5
100
AcDbMText
 10
165.7933067927855
 20
244.9759444123591
 30
0.0
 40
3.0
 41
0.0
 71
     5
 72
     1
  1
\A2;5
 11
0.0000000000000001
 21
1.0
 31
0.0
 73
     1
 44
1.0
1001
ACAD
1000
MTEXTBEGIN
1070
    73
1070
     1
1070
    44
1040
1.0
1070
    74
1070
     0
1000
MTEXTEND
  0
POINT
  5
4D33
330
4C30
100
AcDbEntity
  8
Defpoints
 62
     0
100
AcDbPoint
 10
139.1433067927855
 20
242.4759444123591
 30
0.0
  0
POINT
  5
4D34
330
4C30
100
AcDbEntity
  8
Defpoints
 62
     0
100
AcDbPoint
 10
156.2933067927855
 20
247.4759444123591
 30
0.0
  0
POINT
  5
4D35
330
4C30
100
AcDbEntity
  8
Defpoints
 62
     0
100
AcDbPoint
 10
168.2933067927855
 20
247.4759444123591
 30
0.0
  0
ENDBLK
  5
4C3D
330
4C30
100
AcDbEntity
  8
0
100
AcDbBlockEnd
  0
BLOCK
  5
4DA0
330
4D9B
100
AcDbEntity
  8
0
100
AcDbBlockBegin
  2
*S13
 70
     1
 10
0.0
 20
0.0
 30
0.0
  3
*S13
  1

  0
LINE
  5
4D9C
330
4D9B
100
AcDbEntity
  8
AM_5
 62
     5
100
AcDbLine
 10
156.8700799281305
 20
182.4245976355263
 30
0.0
 11
143.1272001070578
 21
182.4245976355263
 31
0.0
  0
LINE
  5
4D9D
330
4D9B
100
AcDbEntity
  8
AM_5
 62
     5
100
AcDbLine
 10
143.1272001070578
 20
182.4245976355263
 30
0.0
 11
138.5172490308512
 21
190.7406481385358
 31
0.0
  0
TRACE
  5
4D9E
330
4D9B
100
AcDbEntity
  8
AM_5
 62
     5
370
    35
100
AcDbTrace
 10
138.9202536312375
 20
190.9640512420396
 30
0.0
 11
138.114244430465
 21
190.517245035032
 31
0.0
 12
136.8203339810454
 22
193.8017720030245
 32
0.0
 13
136.8203339810454
 23
193.8017720030245
 33
0.0
  0
MTEXT
  5
4D9F
330
4D9B
100
AcDbEntity
  8
AM_5
 62
     2
100
AcDbMText
 10
156.8700799281305
 20
180.49130233347
 30
0.0
 40
3.5
 41
0.0
 71
     9
 72
     5
  1

  7
ACISOTS
210
0.0
220
0.0
230
-1.0
 11
-1.0
 21
0.0
 31
0.0
 73
     1
 44
1.0
1001
ACAD
1000
MTEXTBEGIN
1070
    73
1070
     1
1070
    44
1040
1.0
1070
    74
1070
     0
1000
MTEXTEND
  0
ENDBLK
  5
4DA1
330
4D9B
100
AcDbEntity
  8
0
100
AcDbBlockEnd
  0
BLOCK
  5
4DA8
330
4DA3
100
AcDbEntity
  8
0
100
AcDbBlockBegin
  2
*S14
 70
     1
 10
0.0
 20
0.0
 30
0.0
  3
*S14
  1

  0
LINE
  5
4DA4
330
4DA3
100
AcDbEntity
  8
AM_5
 62
     5
100
AcDbLine
 10
179.7289007665445
 20
128.1676119200158
 30
0.0
 11
163.3920623335832
 21
128.1676119200158
 31
0.0
  0
LINE
  5
4DA5
330
4DA3
100
AcDbEntity
  8
AM_5
 62
     5
100
AcDbLine
 10
163.3920623335832
 20
128.1676119200158
 30
0.0
 11
153.6913039296275
 21
139.4844883607057
 31
0.0
  0
TRACE
  5
4DA6
330
4DA3
100
AcDbEntity
  8
AM_5
 62
     5
370
    35
100
AcDbTrace
 10
154.0411481879289
 20
139.7843727542996
 30
0.0
 11
153.3414596713261
 21
139.1846039671118
 31
0.0
 12
151.4134558034818
 22
142.141819336368
 32
0.0
 13
151.4134558034818
 23
142.141819336368
 33
0.0
  0
MTEXT
  5
4DA7
330
4DA3
100
AcDbEntity
  8
AM_5
 62
     2
100
AcDbMText
 10
179.7289007665445
 20
125.7294578452194
 30
0.0
 40
3.5
 41
0.0
 71
     9
 72
     5
  1

  7
ACISOTS
210
0.0
220
0.0
230
-1.0
 11
-1.0
 21
0.0
 31
0.0
 73
     1
 44
1.0
1001
ACAD
1000
MTEXTBEGIN
1070
    73
1070
     1
1070
    44
1040
1.0
1070
    74
1070
     0
1000
MTEXTEND
  0
ENDBLK
  5
4DA9
330
4DA3
100
AcDbEntity
  8
0
100
AcDbBlockEnd
  0
ENDSEC
  0
SECTION
  2
ENTITIES
  0
TEXT
  5
13F1
330
1F
100
AcDbEntity
  8
LOGO
 62
     7
100
AcDbText
 10
129.6325992847048
 20
98.00020740761196
 30
0.0
 40
2.064451636693791
  1
Order example:
 41
0.8
  7
CHINESET
100
AcDbText
  0
TEXT
  5
13F2
330
1F
100
AcDbEntity
  8
LOGO
 62
     7
100
AcDbText
 10
130.0029789806479
 20
100.9065278619112
 30
0.0
 40
3.096677455040685
  1
訂購代號:
  7
CHINESET
100
AcDbText
  0
LINE
  5
13F3
330
1F
100
AcDbEntity
  8
LOGO
 62
     1
100
AcDbLine
 10
229.0414160408962
 20
104.7832159005303
 30
0.0
 11
94.67213604089618
 21
104.7832159005303
 31
0.0
  0
LINE
  5
13F4
330
1F
100
AcDbEntity
  8
LOGO
 62
     1
100
AcDbLine
 10
229.0414160408962
 20
89.29982862532689
 30
0.0
 11
94.67213604089618
 21
89.29982862532689
 31
0.0
  0
LINE
  5
13F5
330
1F
100
AcDbEntity
  8
LOGO
 62
     1
100
AcDbLine
 10
128.7355880463438
 20
89.29982862532689
 30
0.0
 11
128.7355880463438
 21
104.7832159005303
 31
0.0
  0
LINE
  5
13F6
330
1F
100
AcDbEntity
  8
LOGO
 62
     1
100
AcDbLine
 10
94.67213604089618
 20
89.29982862532689
 30
0.0
 11
94.67213604089618
 21
104.7832159005303
 31
0.0
  0
TEXT
  5
13F7
330
1F
100
AcDbEntity
  8
LOGO
  6
Continuous
 62
     5
100
AcDbText
 10
100.2338383493219
 20
92.34151668907186
 30
0.0
 40
2.322508091280515
  1
金器工業股份有限公司
  7
CHINESET
100
AcDbText
  0
TEXT
  5
13F8
330
1F
100
AcDbEntity
  8
LOGO
  6
Continuous
 62
     5
100
AcDbText
 10
95.96785047120588
 20
90.01855356829718
 30
0.0
 40
1.548338727520342
  1
MINDMAN INDUSTRIAL CO., LTD.
 41
0.85
  7
CHINESET
100
AcDbText
  0
LINE
  5
13F9
330
1F
100
AcDbEntity
  8
LOGO
 62
     1
100
AcDbLine
 10
128.7355880463438
 20
101.6865384454897
 30
0.0
 11
106.0266200427121
 21
101.6865384454897
 31
0.0
  0
LINE
  5
13FA
330
1F
100
AcDbEntity
  8
LOGO
 62
     1
100
AcDbLine
 10
128.7355880463438
 20
98.58986099044896
 30
0.0
 11
106.0266200427121
 21
98.58986099044896
 31
0.0
  0
LINE
  5
13FB
330
1F
100
AcDbEntity
  8
LOGO
 62
     1
100
AcDbLine
 10
128.7355880463438
 20
95.49318353540831
 30
0.0
 11
94.67213604089618
 21
95.49318353540831
 31
0.0
  0
LINE
  5
13FC
330
1F
100
AcDbEntity
  8
LOGO
 62
     1
100
AcDbLine
 10
106.0266200427121
 20
95.49318353540831
 30
0.0
 11
106.0266200427121
 21
104.7832159005303
 31
0.0
  0
TEXT
  5
13FD
330
1F
100
AcDbEntity
  8
LOGO
 62
     6
100
AcDbText
 10
120.736093254673
 20
96.26735289916847
 30
0.0
 40
1.548338727520342
  1
m/m
  7
CHINESET
 72
     1
 11
123.4641186317327
 21
97.04152226292864
 31
0.0
100
AcDbText
 73
     2
  0
TEXT
  5
13FE
330
1F
100
AcDbEntity
  8
LOGO
 62
     6
100
AcDbText
 10
120.736093254673
 20
102.4607078092498
 30
0.0
 40
1.548338727520342
  1
1 : 1
  7
CHINESET
 72
     1
 11
123.4641186317327
 21
103.23487717301
 31
0.0
100
AcDbText
 73
     2
  0
LINE
  5
13FF
330
1F
100
AcDbEntity
  8
LOGO
 62
     1
100
AcDbLine
 10
118.4133298628748
 20
95.49318353540831
 30
0.0
 11
118.4133298628748
 21
104.7832159005303
 31
0.0
  0
CIRCLE
  5
1400
330
1F
100
AcDbEntity
  8
LOGO
  6
Continuous
 62
     6
100
AcDbCircle
 10
121.2802726800254
 20
100.1415116258379
 30
0.0
 40
0.899001908983779
  0
CIRCLE
  5
1401
330
1F
100
AcDbEntity
  8
LOGO
  6
Continuous
 62
     6
100
AcDbCircle
 10
121.2802726800254
 20
100.1415116258379
 30
0.0
 40
0.5267355345282551
  0
LINE
  5
1402
330
1F
100
AcDbEntity
  8
LOGO
 62
     6
100
AcDbLine
 10
126.9297049918499
 20
99.24250971685411
 30
0.0
 11
126.9297049918499
 21
101.0405135348217
 31
0.0
  0
LINE
  5
1403
330
1F
100
AcDbEntity
  8
LOGO
 62
     6
100
AcDbLine
 10
124.1113856123574
 20
99.61477609130971
 30
0.0
 11
124.1113856123574
 21
100.6682471603663
 31
0.0
  0
LINE
  5
1404
330
1F
100
AcDbEntity
  8
LOGO
  6
Continuous
 62
     6
100
AcDbLine
 10
124.1113856123574
 20
100.6682471603663
 30
0.0
 11
126.9297049918499
 21
101.0405135348217
 31
0.0
  0
LINE
  5
1405
330
1F
100
AcDbEntity
  8
LOGO
  6
Continuous
 62
     6
100
AcDbLine
 10
124.1113856123574
 20
99.61477609130971
 30
0.0
 11
126.9297049918499
 21
99.24250971685411
 31
0.0
  0
TEXT
  5
1432
330
1F
100
AcDbEntity
  8
LOGO
 62
     6
100
AcDbText
 10
107.3033082702702
 20
102.4614697869701
 30
101.4755694626386
 40
1.548338727520342
  1
比例 Scale:
 41
0.9
  7
CHINESET
 72
     4
 11
112.2199749527935
 21
103.23487717301
 31
101.4755694626386
100
AcDbText
  0
TEXT
  5
1433
330
1F
100
AcDbEntity
  8
LOGO
 62
     6
100
AcDbText
 10
107.8445356022561
 20
99.38581021737919
 30
101.4755694626386
 40
1.548338727520342
  1
投影 View:
 41
0.9
  7
CHINESET
 72
     4
 11
112.2199749527935
 21
100.1381997179692
 31
101.4755694626386
100
AcDbText
  0
TEXT
  5
1434
330
1F
100
AcDbEntity
  8
LOGO
 62
     6
100
AcDbText
 10
107.9959133617771
 20
96.26735289916847
 30
101.4755694626386
 40
1.548338727520342
  1
單位 Unit:
 41
0.9
  7
CHINESET
 72
     4
 11
112.2199749527935
 21
97.04152226292864
 31
101.4755694626386
100
AcDbText
  0
LWPOLYLINE
  5
143D
330
1F
100
AcDbEntity
  8
0
 62
     4
100
AcDbPolyline
 90
        4
 70
     1
 43
0.0
 10
94.6721360408963
 20
104.7832159005303
 10
229.0414160408962
 20
104.7832159005303
 10
229.0414160408961
 20
274.057588625327
 10
94.6721360408962
 20
274.057588625327
1001
GENIUS_GENREC_14
1002
{
1000
PYDIR
1011
94.6721360408962
1021
274.057588625327
1031
0.0
1002
}
1002
{
1000
PXDIR
1011
229.0414160408962
1021
104.7832159005303
1031
0.0
1002
}
1002
{
1000
PORI
1011
94.6721360408963
1021
104.7832159005303
1031
0.0
1002
}
1002
{
1000
PINS
1011
94.6721360408963
1021
104.7832159005303
1031
0.0
1002
}
1002
{
1000
PINS2
1011
229.0414160408961
1021
274.057588625327
1031
0.0
1002
}
1002
{
1000
C
1070
     1
1002
}
1001
GENIUS_GENODEF_13
1002
{
1000
HIER
1070
     0
1002
}
1002
{
1000
MANEDIT
1070
     0
1002
}
1002
{
1000
NOSEL
1070
     0
1002
}
1002
{
1000
BEHIND
1070
     0
1002
}
1002
{
1000
OTHER
1070
     0
1002
}
1002
{
1000
REACTOR
1002
}
1001
GENIUS_GENOBJ-N-REC_13
1002
{
1000
OWNER
1000
GEN
1002
}
  0
SOLID
  5
143E
330
1F
100
AcDbEntity
  8
LOGO
 62
     5
100
AcDbTrace
 10
96.27856231964521
 20
98.06707628124767
 30
0.0
 11
96.9480233570168
 21
98.0670762812474
 31
0.0
 12
99.74129182329155
 22
104.4154137045991
 32
0.0
 13
100.4107528606631
 23
104.4154137045985
 33
0.0
  0
SOLID
  5
143F
330
1F
100
AcDbEntity
  8
LOGO
 62
     5
100
AcDbTrace
 10
97.22504171730891
 20
98.06707628124767
 30
0.0
 11
97.89450275468034
 21
98.06707628124767
 31
0.0
 12
100.4107528606631
 22
103.9075467107306
 32
0.0
 13
99.74129182329155
 23
101.452856240368
 33
0.0
  0
SOLID
  5
1440
330
1F
100
AcDbEntity
  8
LOGO
 62
     2
100
AcDbTrace
 10
96.9480233570168
 20
98.0670762812474
 30
0.0
 11
97.22504171730891
 21
98.06707628124767
 31
0.0
 12
100.4107528606631
 22
104.4154137045985
 32
0.0
 13
100.687771220955
 23
104.4154137045985
 33
0.0
  0
SOLID
  5
1441
330
1F
100
AcDbEntity
  8
LOGO
 62
     5
100
AcDbTrace
 10
95.20525210478233
 20
95.75858994548376
 30
0.0
 11
95.43610073835905
 21
95.75858994548376
 31
0.0
 12
96.0861884583317
 22
96.91283311336551
 32
0.0
 13
96.31703709190796
 23
96.91283311336551
 33
0.0
  0
SOLID
  5
1442
330
1F
100
AcDbEntity
  8
LOGO
 62
     5
100
AcDbTrace
 10
96.0861884583317
 20
96.91283311336551
 30
0.0
 11
96.31703709190796
 21
96.91283311336551
 31
0.0
 12
96.0861884583317
 22
95.75858994548376
 32
0.0
 13
96.31703709190796
 23
95.75858994548376
 33
0.0
  0
SOLID
  5
1443
330
1F
100
AcDbEntity
  8
LOGO
 62
     5
100
AcDbTrace
 10
96.0861884583317
 20
95.75858994548376
 30
0.0
 11
96.31703709190796
 21
95.75858994548376
 31
0.0
 12
96.9671248118815
 22
96.91283311336551
 32
0.0
 13
97.19797344545758
 23
96.91283311336551
 33
0.0
  0
SOLID
  5
1444
330
1F
100
AcDbEntity
  8
LOGO
 62
     5
100
AcDbTrace
 10
96.9671248118815
 20
96.91283311336551
 30
0.0
 11
97.19797344545758
 21
96.91283311336551
 31
0.0
 12
96.9671248118815
 22
95.75858994548376
 32
0.0
 13
97.19797344545758
 23
95.75858994548376
 33
0.0
  0
POLYLINE
  5
1445
330
1F
100
AcDbEntity
  8
LOGO
 62
     5
100
AcDb2dPolyline
 66
     1
 10
0.0
 20
0.0
 30
0.0
 40
0.2312185833097045
 41
0.2312185833097045
  0
VERTEX
  5
1446
330
1445
100
AcDbEntity
  8
LOGO
 62
     5
100
AcDbVertex
100
AcDb2dVertex
 10
104.7050923697845
 20
96.45113584621268
 30
0.0
 42
1.0
  0
VERTEX
  5
1447
330
1445
100
AcDbEntity
  8
LOGO
 62
     5
100
AcDbVertex
100
AcDb2dVertex
 10
104.0114366198552
 20
96.45113584621268
 30
0.0
 42
1.0
  0
SEQEND
  5
1448
330
1445
100
AcDbEntity
  8
LOGO
 62
     5
  0
POLYLINE
  5
1449
330
1F
100
AcDbEntity
  8
LOGO
 62
     5
100
AcDb2dPolyline
 66
     1
 10
0.0
 20
0.0
 30
0.0
 70
     1
  0
VERTEX
  5
144A
330
1449
100
AcDbEntity
  8
LOGO
 62
     5
100
AcDbVertex
100
AcDb2dVertex
 10
102.7038646774308
 20
96.33571152942458
 30
0.0
 42
1.000000057330635
  0
VERTEX
  5
144B
330
1449
100
AcDbEntity
  8
LOGO
 62
     5
100
AcDbVertex
100
AcDb2dVertex
 10
103.3964105781602
 20
96.33571152942458
 30
0.0
 42
1.000000057330635
  0
SEQEND
  5
144C
330
1449
100
AcDbEntity
  8
LOGO
 62
     5
  0
CIRCLE
  5
144D
330
1F
100
AcDbEntity
  8
LOGO
 62
     5
100
AcDbCircle
 10
103.0501376277957
 20
96.33571152942458
 30
0.0
 40
0.3462729503646135
  0
POLYLINE
  5
144E
330
1F
100
AcDbEntity
  8
LOGO
 62
     5
100
AcDb2dPolyline
 66
     1
 10
0.0
 20
0.0
 30
0.0
 70
     1
 40
0.2312185833097045
 41
0.2312185833097045
  0
VERTEX
  5
144F
330
144E
100
AcDbEntity
  8
LOGO
 62
     5
100
AcDbVertex
100
AcDb2dVertex
 10
102.5877004611761
 20
96.33571152942458
 30
0.0
 42
1.0
  0
VERTEX
  5
1450
330
144E
100
AcDbEntity
  8
LOGO
 62
     5
100
AcDbVertex
100
AcDb2dVertex
 10
103.512574794415
 20
96.33571152942458
 30
0.0
 42
1.0
  0
SEQEND
  5
1451
330
144E
100
AcDbEntity
  8
LOGO
 62
     5
  0
LINE
  5
1452
330
1F
100
AcDbEntity
  8
LOGO
 62
     5
100
AcDbLine
 10
104.8199617619725
 20
95.75858994548376
 30
0.0
 11
104.8199617619725
 21
96.45113584621268
 31
0.0
  0
SOLID
  5
1453
330
1F
100
AcDbEntity
  8
LOGO
 62
     5
100
AcDbTrace
 10
103.3963874932973
 20
96.91283311336551
 30
0.0
 11
103.6272361268735
 21
96.91283311336551
 31
0.0
 12
103.3963874932973
 22
95.75858994548376
 32
0.0
 13
103.6272361268735
 23
95.75858994548376
 33
0.0
  0
SOLID
  5
1454
330
1F
100
AcDbEntity
  8
LOGO
 62
     5
100
AcDbTrace
 10
103.8965672276667
 20
95.75858994548376
 30
0.0
 11
104.1274158612434
 21
95.75858994548376
 31
0.0
 12
103.8965672276667
 22
96.91283311336551
 32
0.0
 13
104.1274158612434
 23
96.91283311336551
 33
0.0
  0
SOLID
  5
1455
330
1F
100
AcDbEntity
  8
LOGO
 62
     5
100
AcDbTrace
 10
104.5891131283963
 20
96.45113584621268
 30
0.0
 11
104.8199617619725
 21
96.45113584621268
 31
0.0
 12
104.5891131283963
 22
95.75858994548376
 32
0.0
 13
104.8199617619725
 23
95.75858994548376
 33
0.0
  0
SOLID
  5
1456
330
1F
100
AcDbEntity
  8
LOGO
 62
     5
100
AcDbTrace
 10
103.8734823643092
 20
103.9075467107306
 30
0.0
 11
103.2040213269376
 21
101.452856240368
 31
0.0
 12
103.8734823643092
 22
98.0670762812474
 32
0.0
 13
103.2040213269376
 23
98.0670762812474
 33
0.0
  0
SOLID
  5
1457
330
1F
100
AcDbEntity
  8
LOGO
 62
     5
100
AcDbTrace
 10
104.1505007246011
 20
98.0670762812474
 30
0.0
 11
104.8199617619725
 21
98.0670762812474
 31
0.0
 12
104.1505007246011
 22
104.4154137045985
 32
0.0
 13
104.8199617619725
 23
104.4154137045991
 33
0.0
  0
SOLID
  5
1458
330
1F
100
AcDbEntity
  8
LOGO
 62
     2
100
AcDbTrace
 10
103.8734823643092
 20
104.4154137045991
 30
0.0
 11
104.1505007246011
 21
104.4154137045985
 31
0.0
 12
103.8734823643092
 22
98.0670762812474
 32
0.0
 13
104.1505007246011
 23
98.0670762812474
 33
0.0
  0
POLYLINE
  5
1459
330
1F
100
AcDbEntity
  8
LOGO
 62
     5
100
AcDb2dPolyline
 66
     1
 10
0.0
 20
0.0
 30
0.0
 40
0.2312185833097045
 41
0.2312185833097045
  0
VERTEX
  5
145A
330
1459
100
AcDbEntity
  8
LOGO
 62
     5
100
AcDbVertex
100
AcDb2dVertex
 10
101.3962465652803
 20
96.45113584621268
 30
0.0
 42
1.0
  0
VERTEX
  5
145B
330
1459
100
AcDbEntity
  8
LOGO
 62
     5
100
AcDbVertex
100
AcDb2dVertex
 10
100.7025908153511
 20
96.45113584621268
 30
0.0
 42
1.0
  0
SEQEND
  5
145C
330
1459
100
AcDbEntity
  8
LOGO
 62
     5
  0
POLYLINE
  5
145D
330
1F
100
AcDbEntity
  8
LOGO
 62
     5
100
AcDb2dPolyline
 66
     1
 10
0.0
 20
0.0
 30
0.0
 40
0.2312185833097045
 41
0.2312185833097045
  0
VERTEX
  5
145E
330
145D
100
AcDbEntity
  8
LOGO
 62
     5
100
AcDbVertex
100
AcDb2dVertex
 10
102.0887924660093
 20
96.45113584621268
 30
0.0
 42
1.0
  0
VERTEX
  5
145F
330
145D
100
AcDbEntity
  8
LOGO
 62
     5
100
AcDbVertex
100
AcDb2dVertex
 10
101.3951367160801
 20
96.45113584621268
 30
0.0
 42
1.0
  0
SEQEND
  5
1460
330
145D
100
AcDbEntity
  8
LOGO
 62
     5
  0
POLYLINE
  5
1461
330
1F
100
AcDbEntity
  8
LOGO
 62
     5
100
AcDb2dPolyline
 66
     1
 10
0.0
 20
0.0
 30
0.0
 40
0.2312185833097045
 41
0.2312185833097045
  0
VERTEX
  5
1462
330
1461
100
AcDbEntity
  8
LOGO
 62
     5
100
AcDbVertex
100
AcDb2dVertex
 10
98.77994666150526
 20
96.45113584621268
 30
0.0
 42
1.0
  0
VERTEX
  5
1463
330
1461
100
AcDbEntity
  8
LOGO
 62
     5
100
AcDbVertex
100
AcDb2dVertex
 10
98.08629091157616
 20
96.45113584621268
 30
0.0
 42
1.0
  0
SEQEND
  5
1464
330
1461
100
AcDbEntity
  8
LOGO
 62
     5
  0
SOLID
  5
1465
330
1F
100
AcDbEntity
  8
LOGO
 62
     5
100
AcDbTrace
 10
97.97142151938814
 20
96.91283311336551
 30
0.0
 11
98.20227015296424
 21
96.91283311336551
 31
0.0
 12
97.97142151938814
 22
95.75858994548376
 32
0.0
 13
98.20227015296424
 23
95.75858994548376
 33
0.0
  0
SOLID
  5
1466
330
1F
100
AcDbEntity
  8
LOGO
 62
     5
100
AcDbTrace
 10
98.66396742011714
 20
96.45113584621268
 30
0.0
 11
98.89481605369374
 21
96.45113584621268
 31
0.0
 12
98.66396742011714
 22
95.75858994548376
 32
0.0
 13
98.89481605369374
 23
95.75858994548376
 33
0.0
  0
POLYLINE
  5
1467
330
1F
100
AcDbEntity
  8
LOGO
 62
     5
100
AcDb2dPolyline
 66
     1
 10
0.0
 20
0.0
 30
0.0
 70
     1
 40
0.2312185833097045
 41
0.2312185833097045
  0
VERTEX
  5
1468
330
1467
100
AcDbEntity
  8
LOGO
 62
     5
100
AcDbVertex
100
AcDb2dVertex
 10
99.27885465667189
 20
96.33571152942458
 30
0.0
 42
1.0
  0
VERTEX
  5
1469
330
1467
100
AcDbEntity
  8
LOGO
 62
     5
100
AcDbVertex
100
AcDb2dVertex
 10
100.2037289899107
 20
96.33571152942458
 30
0.0
 42
1.0
  0
SEQEND
  5
146A
330
1467
100
AcDbEntity
  8
LOGO
 62
     5
  0
SOLID
  5
146B
330
1F
100
AcDbEntity
  8
LOGO
 62
     5
100
AcDbTrace
 10
100.087541688793
 20
97.25910606373034
 30
0.0
 11
100.3183903223691
 21
97.25910606373034
 31
0.0
 12
100.087541688793
 22
95.75858994548376
 32
0.0
 13
100.3183903223691
 23
95.75858994548376
 33
0.0
  0
SOLID
  5
146C
330
1F
100
AcDbEntity
  8
LOGO
 62
     5
100
AcDbTrace
 10
100.5877214231631
 20
96.91283311336551
 30
0.0
 11
100.8185700567394
 21
96.91283311336551
 31
0.0
 12
100.5877214231631
 22
95.75858994548376
 32
0.0
 13
100.8185700567394
 23
95.75858994548376
 33
0.0
  0
SOLID
  5
146D
330
1F
100
AcDbEntity
  8
LOGO
 62
     5
100
AcDbTrace
 10
101.2802673238922
 20
96.45113584621268
 30
0.0
 11
101.5111159574684
 21
96.45113584621268
 31
0.0
 12
101.2802673238922
 22
95.75858994548376
 32
0.0
 13
101.5111159574684
 23
95.75858994548376
 33
0.0
  0
SOLID
  5
146E
330
1F
100
AcDbEntity
  8
LOGO
 62
     5
100
AcDbTrace
 10
101.9728132246213
 20
96.45113584621268
 30
0.0
 11
102.2036618581974
 21
96.45113584621268
 31
0.0
 12
101.9728132246213
 22
95.75858994548324
 32
0.0
 13
102.2036618581974
 23
95.75858994548324
 33
0.0
  0
SOLID
  5
146F
330
1F
100
AcDbEntity
  8
LOGO
 62
     5
100
AcDbTrace
 10
97.47124178501785
 20
97.07442715686891
 30
0.0
 11
97.70209041859473
 21
97.07442715686891
 31
0.0
 12
97.47124178501785
 22
97.25910606373034
 32
0.0
 13
97.70209041859473
 23
97.25910606373034
 33
0.0
  0
SOLID
  5
1470
330
1F
100
AcDbEntity
  8
LOGO
 62
     5
100
AcDbTrace
 10
97.47124178501785
 20
96.91283311336551
 30
0.0
 11
97.70209041859473
 21
96.91283311336551
 31
0.0
 12
97.47124178501785
 22
95.75858994548324
 32
0.0
 13
97.70209041859473
 23
95.75858994548376
 33
0.0
  0
SOLID
  5
1471
330
1F
100
AcDbEntity
  8
LOGO
 62
     5
100
AcDbTrace
 10
99.74129182329155
 20
98.06707628124767
 30
0.0
 11
100.4107528606631
 21
98.06707628124767
 31
0.0
 12
99.74129182329155
 22
101.452856240368
 32
0.0
 13
100.4107528606631
 23
103.9075467107306
 33
0.0
  0
SOLID
  5
1472
330
1F
100
AcDbEntity
  8
LOGO
 62
     5
100
AcDbTrace
 10
100.687771220955
 20
104.4154137045985
 30
0.0
 11
101.3572322583266
 21
104.4154137045991
 31
0.0
 12
100.687771220955
 22
98.5749432751156
 32
0.0
 13
101.3572322583266
 23
101.0296337454782
 33
0.0
  0
SOLID
  5
1473
330
1F
100
AcDbEntity
  8
LOGO
 62
     2
100
AcDbTrace
 10
100.4107528606631
 20
104.4154137045985
 30
0.0
 11
100.687771220955
 21
104.4154137045985
 31
0.0
 12
100.4107528606631
 22
98.06707628124767
 32
0.0
 13
100.687771220955
 23
98.06707628124767
 33
0.0
  0
SOLID
  5
1474
330
1F
100
AcDbEntity
  8
LOGO
 62
     5
100
AcDbTrace
 10
100.687771220955
 20
98.5749432751156
 30
0.0
 11
101.3572322583266
 21
101.0296337454782
 31
0.0
 12
103.8734823643092
 22
104.4154137045991
 32
0.0
 13
103.2040213269376
 23
104.4154137045991
 33
0.0
  0
SOLID
  5
1475
330
1F
100
AcDbEntity
  8
LOGO
 62
     5
100
AcDbTrace
 10
100.687771220955
 20
98.06707628124767
 30
0.0
 11
101.3572322583266
 21
98.06707628124767
 31
0.0
 12
103.8734823643092
 22
103.9075467107306
 32
0.0
 13
103.2040213269376
 23
101.452856240368
 33
0.0
  0
SOLID
  5
1476
330
1F
100
AcDbEntity
  8
LOGO
 62
     2
100
AcDbTrace
 10
100.4107528606631
 20
98.06707628124767
 30
0.0
 11
100.687771220955
 21
98.06707628124767
 31
0.0
 12
103.8734823643092
 22
104.4154137045991
 32
0.0
 13
104.1505007246011
 23
104.4154137045985
 33
0.0
  0
TEXT
  5
1477
330
1F
100
AcDbEntity
  8
0
100
AcDbText
 10
129.3970884799287
 20
90.12353871717266
 30
0.0
 40
1.291106619941326
  1
1050520
 41
0.8
  7
CHINESET
 72
     1
 11
132.5941143959739
 21
90.12353871717266
 31
0.0
100
AcDbText
  0
LINE
  5
1478
330
1F
100
AcDbEntity
  8
LOGO
 62
     1
100
AcDbLine
 10
136.5777111926165
 20
92.39650608036766
 30
0.0
 11
136.5777111926167
 21
89.29982862532689
 31
0.0
  0
LINE
  5
1479
330
1F
100
AcDbEntity
  8
LOGO
 62
     1
100
AcDbLine
 10
136.5777111926165
 20
92.39650608036766
 30
0.0
 11
128.7355880463438
 21
92.39650608036766
 31
0.0
  0
LINE
  5
1602
330
1F
100
AcDbEntity
  8
LOGO
 62
     6
100
AcDbLine
 10
191.0267556960214
 20
96.26983806008196
 30
0.0
 11
183.609373272937
 21
96.26983806008196
 31
0.0
  0
LINE
  5
1603
330
1F
100
AcDbEntity
  8
LOGO
 62
     6
100
AcDbLine
 10
183.6584609294056
 20
98.59317453833362
 30
0.0
 11
180.6618906904489
 21
98.59317453833362
 31
0.0
  0
LINE
  5
1604
330
1F
100
AcDbEntity
  8
LOGO
 62
     6
100
AcDbLine
 10
191.0267556960214
 20
90.59057111324454
 30
0.0
 11
183.609373272937
 21
90.59057111324452
 31
0.0
  0
LINE
  5
1605
330
1F
100
AcDbEntity
  8
LOGO
 62
     6
100
AcDbLine
 10
191.0267556960214
 20
96.26983806008196
 30
0.0
 11
191.0267556960214
 21
90.5691565110578
 31
0.0
  0
TEXT
  5
160A
330
1F
100
AcDbEntity
  8
LOGO
 62
     6
100
AcDbText
 10
154.1702720805311
 20
93.48305388538108
 30
0.0
 40
2.065187980668153
  1
型式
  7
CHINESET
 72
     4
 11
156.2354600611992
 21
94.46279857699726
 31
0.0
100
AcDbText
  0
LINE
  5
160B
330
1F
100
AcDbEntity
  8
LOGO
 62
     6
100
AcDbLine
 10
183.609373272937
 20
96.26983806008196
 30
0.0
 11
183.609373272937
 21
90.59057111324452
 31
0.0
  0
LINE
  5
160F
330
1F
100
AcDbEntity
  8
LOGO
 62
     6
100
AcDbLine
 10
182.1601758099273
 20
98.59317453833362
 30
0.0
 11
182.1601758099273
 21
97.4315062992078
 31
0.0
  0
TEXT
  5
1610
330
1F
100
AcDbEntity
  8
LOGO
 62
     6
100
AcDbText
 10
184.4624321522039
 20
93.48203755271347
 30
0.0
 40
2.065187980668153
  1
連座數
 41
0.9
  7
CHINESET
 72
     4
 11
187.287633701742
 21
94.46279857699732
 31
0.0
100
AcDbText
  0
LINE
  5
1615
330
1F
100
AcDbEntity
  8
LOGO
 62
     6
100
AcDbLine
 10
156.2354600611992
 20
98.59317453833359
 30
0.0
 11
156.2354600611992
 21
96.26983806008189
 31
0.0
  0
LINE
  5
1616
330
1F
100
AcDbEntity
  8
LOGO
 62
     6
100
AcDbLine
 10
151.0724901095289
 20
96.26983806008189
 30
0.0
 11
151.0724901095289
 21
90.59057111324447
 31
0.0
  0
LINE
  5
161A
330
1F
100
AcDbEntity
  8
LOGO
 62
     6
100
AcDbLine
 10
183.6584609294057
 20
103.239847494837
 30
0.0
 11
180.6618906904489
 21
103.239847494837
 31
0.0
  0
LINE
  5
161D
330
1F
100
AcDbEntity
  8
LOGO
 62
     6
100
AcDbLine
 10
150.0398961191949
 20
103.2398474948369
 30
0.0
 11
150.0398961191949
 21
98.59317453833359
 31
0.0
  0
LINE
  5
1620
330
1F
100
AcDbEntity
  8
LOGO
 62
     6
100
AcDbLine
 10
183.6584609294057
 20
103.239847494837
 30
0.0
 11
183.6584609294056
 21
98.59317453833362
 31
0.0
  0
TEXT
  5
1623
330
1F
100
AcDbEntity
  8
LOGO
  6
Continuous
 62
     6
100
AcDbText
 10
184.4357074427241
 20
91.23594235720332
 30
0.0
 40
1.290742487917595
  1
Number
 41
0.8
  7
CHINESET
 72
     4
 11
187.287633701742
 21
91.88131360116212
 31
0.0
100
AcDbText
  0
TEXT
  5
1626
330
1F
100
AcDbEntity
  8
LOGO
  6
Continuous
 62
     6
100
AcDbText
 10
153.7769029413562
 20
91.23594235720331
 30
0.0
 40
1.290742487917595
  1
Model
  7
CHINESET
 72
     4
 11
156.2354600611992
 21
91.88131360116209
 31
0.0
100
AcDbText
  0
TEXT
  5
1627
330
1F
100
AcDbEntity
  8
LOGO
  6
Continuous
 62
     7
100
AcDbText
 10
181.1023959686007
 20
99.59649432637519
 30
0.0
 40
2.581484975835191
  1
2
  7
CHINESET
 72
     1
 11
181.9628909605458
 21
100.8872368142928
 31
0.0
100
AcDbText
 73
     2
  0
TEXT
  5
1628
330
1F
100
AcDbEntity
  8
LOGO
  6
Continuous
 62
     7
100
AcDbText
 10
165.7738670535503
 20
99.59649432637514
 30
0.0
 40
2.581484975835191
  1
180
  7
CHINESET
 72
     1
 11
168.8470634533541
 21
100.8872368142927
 31
0.0
100
AcDbText
 73
     2
  0
TEXT
  5
1629
330
1F
100
AcDbEntity
  8
LOGO
  6
Continuous
 62
     7
100
AcDbText
 10
151.3798097495092
 20
99.62576852866765
 30
0.0
 40
2.581484975835191
  1
MVSC
  7
CHINESET
 72
     1
 11
156.2354600611992
 21
100.9165110165852
 31
0.0
100
AcDbText
 73
     2
  0
LINE
  5
162D
330
1F
100
AcDbEntity
  8
LOGO
 62
     6
100
AcDbLine
 10
162.4310240032037
 20
103.2398474948369
 30
0.0
 11
162.4310240032037
 21
98.59317453833359
 31
0.0
  0
LINE
  5
162E
330
1F
100
AcDbEntity
  8
LOGO
 62
     6
100
AcDbLine
 10
161.3984300128698
 20
96.26983806008189
 30
0.0
 11
161.3984300128698
 21
90.59057111324447
 31
0.0
  0
LINE
  5
162F
330
1F
100
AcDbEntity
  8
LOGO
 62
     6
100
AcDbLine
 10
162.4310240032037
 20
103.2398474948369
 30
0.0
 11
150.0398961191949
 21
103.2398474948369
 31
0.0
  0
LINE
  5
1630
330
1F
100
AcDbEntity
  8
LOGO
 62
     6
100
AcDbLine
 10
162.4310240032037
 20
98.59317453833359
 30
0.0
 11
150.0398961191949
 21
98.59317453833359
 31
0.0
  0
LINE
  5
1631
330
1F
100
AcDbEntity
  8
LOGO
 62
     6
100
AcDbLine
 10
161.3984300128697
 20
96.26983806008189
 30
0.0
 11
151.0724901095289
 21
96.26983806008189
 31
0.0
  0
LINE
  5
1632
330
1F
100
AcDbEntity
  8
LOGO
 62
     6
100
AcDbLine
 10
161.3984300128697
 20
90.59057111324447
 30
0.0
 11
151.0724901095289
 21
90.59057111324447
 31
0.0
  0
TEXT
  5
1634
330
1F
100
AcDbEntity
  8
LOGO
  6
Continuous
 62
     7
100
AcDbText
 10
175.6258738448441
 20
99.62576852866767
 30
0.0
 40
2.581484975835191
  1
3B
  7
CHINESET
 72
     1
 11
177.7156473967107
 21
100.9165110165852
 31
0.0
100
AcDbText
 73
     2
  0
LINE
  5
1635
330
1F
100
AcDbEntity
  8
LOGO
 62
     6
100
AcDbLine
 10
180.2592891710272
 20
103.239847494837
 30
0.0
 11
175.1185493917544
 21
103.2398474948369
 31
0.0
  0
LINE
  5
1636
330
1F
100
AcDbEntity
  8
LOGO
 62
     6
100
AcDbLine
 10
182.2617877730645
 20
96.26983806008194
 30
0.0
 11
173.9724309228273
 21
96.26983806008194
 31
0.0
  0
LINE
  5
1637
330
1F
100
AcDbEntity
  8
LOGO
 62
     6
100
AcDbLine
 10
180.2592891710272
 20
98.59317453833362
 30
0.0
 11
175.1185493917544
 21
98.59317453833362
 31
0.0
  0
TEXT
  5
1638
330
1F
100
AcDbEntity
  8
LOGO
 62
     6
100
AcDbText
 10
176.2622514128482
 20
93.49237026816792
 30
0.0
 40
2.065187980668153
  1
連座
 41
0.9
  7
CHINESET
 72
     4
 11
178.1171093479459
 21
94.4627985769973
 31
0.0
100
AcDbText
  0
LINE
  5
1639
330
1F
100
AcDbEntity
  8
LOGO
 62
     6
100
AcDbLine
 10
182.2617877730645
 20
90.59057111324452
 30
0.0
 11
173.9724309228273
 21
90.59057111324447
 31
0.0
  0
TEXT
  5
163A
330
1F
100
AcDbEntity
  8
LOGO
  6
Continuous
 62
     6
100
AcDbText
 10
175.1422552329358
 20
91.23594235720331
 30
0.0
 40
1.290742487917595
  1
Manifold
 41
0.8
  7
CHINESET
 72
     4
 11
178.1171093479459
 21
91.88131360116209
 31
0.0
100
AcDbText
  0
LINE
  5
163B
330
1F
100
AcDbEntity
  8
LOGO
 62
     6
100
AcDbLine
 10
175.1185493917544
 20
103.2398474948369
 30
0.0
 11
175.1185493917544
 21
98.59317453833362
 31
0.0
  0
LINE
  5
163C
330
1F
100
AcDbEntity
  8
LOGO
 62
     6
100
AcDbLine
 10
173.9724309228273
 20
96.26983806008194
 30
0.0
 11
173.9724309228273
 21
90.59057111324452
 31
0.0
  0
LINE
  5
163D
330
1F
100
AcDbEntity
  8
LOGO
 62
     6
100
AcDbLine
 10
180.2592891710272
 20
103.239847494837
 30
0.0
 11
180.2592891710272
 21
98.59317453833362
 31
0.0
  0
LINE
  5
163E
330
1F
100
AcDbEntity
  8
LOGO
 62
     6
100
AcDbLine
 10
182.2617877730645
 20
96.26983806008194
 30
0.0
 11
182.2617877730645
 21
90.59057111324452
 31
0.0
  0
LINE
  5
1640
330
1F
100
AcDbEntity
  8
LOGO
  6
Continuous
 62
     7
100
AcDbLine
 10
163.2315759211111
 20
100.9000517666254
 30
0.0
 11
165.2833771491407
 21
100.9000517666254
 31
0.0
  0
LINE
  5
1641
330
1F
100
AcDbEntity
  8
LOGO
  6
Continuous
 62
     7
100
AcDbLine
 10
172.7744001539637
 20
100.9000517666254
 30
0.0
 11
174.8262013819933
 21
100.9000517666254
 31
0.0
  0
LINE
  5
1642
330
1F
100
AcDbEntity
  8
LOGO
 62
     6
100
AcDbLine
 10
180.6618906904489
 20
103.239847494837
 30
0.0
 11
180.6618906904489
 21
98.59317453833362
 31
0.0
  0
LINE
  5
1644
330
1F
100
AcDbEntity
  8
LOGO
 62
     6
100
AcDbLine
 10
178.815940765435
 20
96.26983806008194
 30
0.0
 11
178.815940765435
 21
98.59317453833359
 31
0.0
  0
LINE
  5
1647
330
1F
100
AcDbEntity
  8
LOGO
 62
     6
100
AcDbLine
 10
182.1601758099273
 20
97.4315062992078
 30
0.0
 11
187.287633701742
 21
97.4315062992078
 31
0.0
  0
LINE
  5
1648
330
1F
100
AcDbEntity
  8
LOGO
 62
     6
100
AcDbLine
 10
187.287633701742
 20
96.26983806008196
 30
0.0
 11
187.287633701742
 21
97.4315062992078
 31
0.0
  0
TEXT
  5
1664
330
1F
100
AcDbEntity
  8
0
100
AcDbText
 10
102.3131357774971
 20
263.6767798267481
 30
0.0
 40
4.147199999999999
  1
MVSC-180-3B2
100
AcDbText
  0
LINE
  5
2D18
330
1F
100
AcDbEntity
  8
LOGO
 62
     1
100
AcDbLine
 10
229.0414160408962
 20
89.29982862532689
 30
0.0
 11
229.0414160408962
 21
104.7832159005303
 31
0.0
  0
TEXT
  5
3380
330
1F
100
AcDbEntity
  8
AM_5
100
AcDbText
 10
143.6252178811344
 20
183.4569151990448
 30
0.0
 40
3.0
  1
2-%%C4.5
100
AcDbText
  0
INSERT
  5
3381
330
1F
100
AcDbEntity
  8
AM_5
100
AcDbBlockReference
  2
*S13
 10
0.0
 20
0.0
 30
0.0
  0
TEXT
  5
39BB
330
1F
100
AcDbEntity
  8
AM_5
100
AcDbText
 10
163.8900801076598
 20
129.1999294835343
 30
0.0
 40
3.0
  1
2-PT1/4
100
AcDbText
  0
INSERT
  5
39BC
330
1F
100
AcDbEntity
  8
AM_5
100
AcDbBlockReference
  2
*S14
 10
0.0
 20
0.0
 30
0.0
  0
LINE
  5
4AD6
330
1F
100
AcDbEntity
  8
AM_7
100
AcDbLine
 10
145.7933067927855
 20
215.975944412359
 30
0.0
 11
147.7933067927855
 21
215.975944412359
 31
0.0
  0
LINE
  5
4AD7
330
1F
100
AcDbEntity
  8
AM_7
100
AcDbLine
 10
146.7933067927855
 20
214.9759444123591
 30
0.0
 11
146.7933067927855
 21
216.9759444123591
 31
0.0
  0
LINE
  5
4AD8
330
1F
100
AcDbEntity
  8
AM_7
100
AcDbLine
 10
143.8938067927855
 20
215.975944412359
 30
0.0
 11
144.9933067927855
 21
215.975944412359
 31
0.0
  0
LINE
  5
4AD9
330
1F
100
AcDbEntity
  8
AM_7
100
AcDbLine
 10
148.5933067927855
 20
215.975944412359
 30
0.0
 11
149.6928067927855
 21
215.975944412359
 31
0.0
  0
LINE
  5
4ADA
330
1F
100
AcDbEntity
  8
AM_7
100
AcDbLine
 10
146.7933067927855
 20
213.0764444123591
 30
0.0
 11
146.7933067927855
 21
214.1759444123591
 31
0.0
  0
LINE
  5
4ADB
330
1F
100
AcDbEntity
  8
AM_7
100
AcDbLine
 10
146.7933067927855
 20
217.7759444123591
 30
0.0
 11
146.7933067927855
 21
218.8754444123591
 31
0.0
  0
LINE
  5
4ADC
330
1F
100
AcDbEntity
  8
AM_7
100
AcDbLine
 10
145.7933067927855
 20
234.9759444123591
 30
0.0
 11
147.7933067927855
 21
234.9759444123591
 31
0.0
  0
LINE
  5
4ADD
330
1F
100
AcDbEntity
  8
AM_7
100
AcDbLine
 10
146.7933067927855
 20
233.9759444123591
 30
0.0
 11
146.7933067927855
 21
235.9759444123591
 31
0.0
  0
LINE
  5
4ADE
330
1F
100
AcDbEntity
  8
AM_7
100
AcDbLine
 10
143.8938067927855
 20
234.9759444123591
 30
0.0
 11
144.9933067927855
 21
234.9759444123591
 31
0.0
  0
LINE
  5
4ADF
330
1F
100
AcDbEntity
  8
AM_7
100
AcDbLine
 10
148.5933067927855
 20
234.9759444123591
 30
0.0
 11
149.6928067927855
 21
234.9759444123591
 31
0.0
  0
LINE
  5
4AE0
330
1F
100
AcDbEntity
  8
AM_7
100
AcDbLine
 10
146.7933067927855
 20
232.0764444123591
 30
0.0
 11
146.7933067927855
 21
233.1759444123591
 31
0.0
  0
LINE
  5
4AE1
330
1F
100
AcDbEntity
  8
AM_7
100
AcDbLine
 10
146.7933067927855
 20
236.7759444123591
 30
0.0
 11
146.7933067927855
 21
237.8754444123591
 31
0.0
  0
LINE
  5
4AE2
330
1F
100
AcDbEntity
  8
AM_7
100
AcDbLine
 10
122.7933067927855
 20
202.9759444123591
 30
0.0
 11
124.7933067927855
 21
202.9759444123591
 31
0.0
  0
LINE
  5
4AE3
330
1F
100
AcDbEntity
  8
AM_7
100
AcDbLine
 10
123.7933067927855
 20
201.9759444123591
 30
0.0
 11
123.7933067927855
 21
203.9759444123591
 31
0.0
  0
LINE
  5
4AE4
330
1F
100
AcDbEntity
  8
AM_7
100
AcDbLine
 10
120.8938067927855
 20
202.9759444123591
 30
0.0
 11
121.9933067927855
 21
202.9759444123591
 31
0.0
  0
LINE
  5
4AE5
330
1F
100
AcDbEntity
  8
AM_7
100
AcDbLine
 10
125.5933067927855
 20
202.9759444123591
 30
0.0
 11
126.6928067927855
 21
202.9759444123591
 31
0.0
  0
LINE
  5
4AE6
330
1F
100
AcDbEntity
  8
AM_7
100
AcDbLine
 10
123.7933067927855
 20
200.0764444123591
 30
0.0
 11
123.7933067927855
 21
201.175944412359
 31
0.0
  0
LINE
  5
4AE7
330
1F
100
AcDbEntity
  8
AM_7
100
AcDbLine
 10
123.7933067927855
 20
204.7759444123591
 30
0.0
 11
123.7933067927855
 21
205.8754444123591
 31
0.0
  0
LINE
  5
4AE8
330
1F
100
AcDbEntity
  8
AM_7
100
AcDbLine
 10
122.7933067927855
 20
221.9759444123591
 30
0.0
 11
124.7933067927855
 21
221.9759444123591
 31
0.0
  0
LINE
  5
4AE9
330
1F
100
AcDbEntity
  8
AM_7
100
AcDbLine
 10
123.7933067927855
 20
220.9759444123591
 30
0.0
 11
123.7933067927855
 21
222.9759444123591
 31
0.0
  0
LINE
  5
4AEA
330
1F
100
AcDbEntity
  8
AM_7
100
AcDbLine
 10
120.8938067927855
 20
221.9759444123591
 30
0.0
 11
121.9933067927855
 21
221.9759444123591
 31
0.0
  0
LINE
  5
4AEB
330
1F
100
AcDbEntity
  8
AM_7
100
AcDbLine
 10
125.5933067927855
 20
221.9759444123591
 30
0.0
 11
126.6928067927855
 21
221.9759444123591
 31
0.0
  0
LINE
  5
4AEC
330
1F
100
AcDbEntity
  8
AM_7
100
AcDbLine
 10
123.7933067927855
 20
219.0764444123591
 30
0.0
 11
123.7933067927855
 21
220.1759444123591
 31
0.0
  0
LINE
  5
4AED
330
1F
100
AcDbEntity
  8
AM_7
100
AcDbLine
 10
123.7933067927855
 20
223.7759444123591
 30
0.0
 11
123.7933067927855
 21
224.8754444123591
 31
0.0
  0
LINE
  5
4AEE
330
1F
100
AcDbEntity
  8
AM_7
100
AcDbLine
 10
134.2933067927855
 20
195.475944412359
 30
0.0
 11
136.2933067927855
 21
195.475944412359
 31
0.0
  0
LINE
  5
4AEF
330
1F
100
AcDbEntity
  8
AM_7
100
AcDbLine
 10
135.2933067927855
 20
194.475944412359
 30
0.0
 11
135.2933067927855
 21
196.475944412359
 31
0.0
  0
LINE
  5
4AF0
330
1F
100
AcDbEntity
  8
AM_7
100
AcDbLine
 10
131.4433067927855
 20
195.475944412359
 30
0.0
 11
133.4933067927855
 21
195.475944412359
 31
0.0
  0
LINE
  5
4AF1
102
{ACAD_REACTORS
330
4C15
102
}
330
1F
100
AcDbEntity
  8
AM_7
100
AcDbLine
 10
137.0933067927855
 20
195.475944412359
 30
0.0
 11
139.1433067927855
 21
195.475944412359
 31
0.0
  0
LINE
  5
4AF2
102
{ACAD_REACTORS
330
4BED
102
}
330
1F
100
AcDbEntity
  8
AM_7
100
AcDbLine
 10
135.2933067927855
 20
191.6259444123591
 30
0.0
 11
135.2933067927855
 21
193.675944412359
 31
0.0
  0
LINE
  5
4AF3
330
1F
100
AcDbEntity
  8
AM_7
100
AcDbLine
 10
135.2933067927855
 20
197.2759444123591
 30
0.0
 11
135.2933067927855
 21
199.325944412359
 31
0.0
  0
LINE
  5
4AF4
330
1F
100
AcDbEntity
  8
AM_7
100
AcDbLine
 10
134.2933067927855
 20
242.4759444123591
 30
0.0
 11
136.2933067927855
 21
242.4759444123591
 31
0.0
  0
LINE
  5
4AF5
330
1F
100
AcDbEntity
  8
AM_7
100
AcDbLine
 10
135.2933067927855
 20
241.4759444123591
 30
0.0
 11
135.2933067927855
 21
243.4759444123591
 31
0.0
  0
LINE
  5
4AF6
330
1F
100
AcDbEntity
  8
AM_7
100
AcDbLine
 10
131.4433067927855
 20
242.4759444123591
 30
0.0
 11
133.4933067927855
 21
242.4759444123591
 31
0.0
  0
LINE
  5
4AF7
102
{ACAD_REACTORS
330
4C3F
102
}
330
1F
100
AcDbEntity
  8
AM_7
100
AcDbLine
 10
137.0933067927855
 20
242.4759444123591
 30
0.0
 11
139.1433067927855
 21
242.4759444123591
 31
0.0
  0
LINE
  5
4AF8
330
1F
100
AcDbEntity
  8
AM_7
100
AcDbLine
 10
135.2933067927855
 20
238.6259444123591
 30
0.0
 11
135.2933067927855
 21
240.675944412359
 31
0.0
  0
LINE
  5
4AF9
330
1F
100
AcDbEntity
  8
AM_7
100
AcDbLine
 10
135.2933067927855
 20
244.2759444123591
 30
0.0
 11
135.2933067927855
 21
246.3259444123591
 31
0.0
  0
LINE
  5
4AFE
330
1F
100
AcDbEntity
  8
AM_7
100
AcDbLine
 10
123.2933067927855
 20
146.8753688726356
 30
0.0
 11
125.2933067927855
 21
146.8753688726356
 31
0.0
  0
LINE
  5
4AFF
330
1F
100
AcDbEntity
  8
AM_7
100
AcDbLine
 10
124.2933067927855
 20
145.8753688726356
 30
0.0
 11
124.2933067927855
 21
147.8753688726356
 31
0.0
  0
LINE
  5
4B00
330
1F
100
AcDbEntity
  8
AM_7
100
AcDbLine
 10
116.9433067927855
 20
146.8753688726356
 30
0.0
 11
122.4933067927855
 21
146.8753688726356
 31
0.0
  0
LINE
  5
4B01
330
1F
100
AcDbEntity
  8
AM_7
100
AcDbLine
 10
126.0933067927855
 20
146.8753688726356
 30
0.0
 11
131.6433067927855
 21
146.8753688726356
 31
0.0
  0
LINE
  5
4B02
102
{ACAD_REACTORS
330
4B55
102
}
330
1F
100
AcDbEntity
  8
AM_7
100
AcDbLine
 10
124.2933067927855
 20
139.5253688726356
 30
0.0
 11
124.2933067927855
 21
145.0753688726356
 31
0.0
  0
LINE
  5
4B03
330
1F
100
AcDbEntity
  8
AM_7
100
AcDbLine
 10
124.2933067927855
 20
148.6753688726356
 30
0.0
 11
124.2933067927855
 21
154.2253688726356
 31
0.0
  0
LINE
  5
4B04
330
1F
100
AcDbEntity
  8
AM_7
100
AcDbLine
 10
145.2933067927855
 20
146.8753688726356
 30
0.0
 11
147.2933067927855
 21
146.8753688726356
 31
0.0
  0
LINE
  5
4B05
330
1F
100
AcDbEntity
  8
AM_7
100
AcDbLine
 10
146.2933067927855
 20
145.8753688726356
 30
0.0
 11
146.2933067927855
 21
147.8753688726356
 31
0.0
  0
LINE
  5
4B06
330
1F
100
AcDbEntity
  8
AM_7
100
AcDbLine
 10
138.9433067927855
 20
146.8753688726356
 30
0.0
 11
144.4933067927855
 21
146.8753688726356
 31
0.0
  0
LINE
  5
4B07
102
{ACAD_REACTORS
330
4BA1
102
}
330
1F
100
AcDbEntity
  8
AM_7
100
AcDbLine
 10
148.0933067927855
 20
146.8753688726356
 30
0.0
 11
153.6433067927855
 21
146.8753688726356
 31
0.0
  0
LINE
  5
4B08
102
{ACAD_REACTORS
330
4B55
102
}
330
1F
100
AcDbEntity
  8
AM_7
100
AcDbLine
 10
146.2933067927855
 20
139.5253688726356
 30
0.0
 11
146.2933067927855
 21
145.0753688726356
 31
0.0
  0
LINE
  5
4B09
330
1F
100
AcDbEntity
  8
AM_7
100
AcDbLine
 10
146.2933067927855
 20
148.6753688726356
 30
0.0
 11
146.2933067927855
 21
154.2253688726356
 31
0.0
  0
LINE
  5
4B10
330
1F
100
AcDbEntity
  8
AM_VIS
100
AcDbLine
 10
114.2933067927855
 20
247.4759444123591
 30
0.0
 11
114.2933067927855
 21
190.475944412359
 31
0.0
  0
LINE
  5
4B11
330
1F
100
AcDbEntity
  8
AM_VIS
100
AcDbLine
 10
156.2933067927855
 20
247.4759444123591
 30
0.0
 11
114.2933067927855
 21
247.4759444123591
 31
0.0
  0
LINE
  5
4B12
102
{ACAD_REACTORS
330
4C3F
102
}
330
1F
100
AcDbEntity
  8
AM_VIS
100
AcDbLine
 10
156.2933067927855
 20
247.4759444123591
 30
0.0
 11
156.2933067927855
 21
190.475944412359
 31
0.0
  0
LINE
  5
4B13
102
{ACAD_REACTORS
330
4BED
330
4C15
102
}
330
1F
100
AcDbEntity
  8
AM_VIS
100
AcDbLine
 10
114.2933067927855
 20
190.475944412359
 30
0.0
 11
156.2933067927855
 21
190.475944412359
 31
0.0
  0
CIRCLE
  5
4B18
330
1F
100
AcDbEntity
  8
AM_VIS
100
AcDbCircle
 10
135.2933067927855
 20
195.475944412359
 30
0.0
 40
2.25
  0
CIRCLE
  5
4B19
330
1F
100
AcDbEntity
  8
AM_VIS
100
AcDbCircle
 10
135.2933067927855
 20
242.4759444123591
 30
0.0
 40
2.25
  0
LINE
  5
4B22
330
1F
100
AcDbEntity
  8
AM_VIS
100
AcDbLine
 10
214.1619505158279
 20
247.4759444123591
 30
0.0
 11
214.1619505158279
 21
190.475944412359
 31
0.0
  0
LINE
  5
4B23
330
1F
100
AcDbEntity
  8
AM_VIS
100
AcDbLine
 10
186.1619505158279
 20
190.475944412359
 30
0.0
 11
214.1619505158279
 21
190.475944412359
 31
0.0
  0
LINE
  5
4B24
330
1F
100
AcDbEntity
  8
AM_VIS
100
AcDbLine
 10
214.1619505158279
 20
247.4759444123591
 30
0.0
 11
186.1619505158279
 21
247.4759444123591
 31
0.0
  0
LINE
  5
4B25
330
1F
100
AcDbEntity
  8
AM_VIS
100
AcDbLine
 10
186.1619505158279
 20
247.4759444123591
 30
0.0
 11
186.1619505158279
 21
190.475944412359
 31
0.0
  0
LINE
  5
4B26
330
1F
100
AcDbEntity
  8
AM_VIS
100
AcDbLine
 10
156.2933067927855
 20
164.8753688726356
 30
0.0
 11
156.2933067927855
 21
136.8753688726356
 31
0.0
  0
LINE
  5
4B27
102
{ACAD_REACTORS
330
4B7B
102
}
330
1F
100
AcDbEntity
  8
AM_VIS
100
AcDbLine
 10
156.2933067927855
 20
136.8753688726356
 30
0.0
 11
114.2933067927855
 21
136.8753688726356
 31
0.0
  0
LINE
  5
4B28
102
{ACAD_REACTORS
330
4B7B
102
}
330
1F
100
AcDbEntity
  8
AM_VIS
100
AcDbLine
 10
114.2933067927855
 20
136.8753688726356
 30
0.0
 11
114.2933067927855
 21
164.8753688726356
 31
0.0
  0
LINE
  5
4B29
102
{ACAD_REACTORS
330
4BC7
102
}
330
1F
100
AcDbEntity
  8
AM_VIS
100
AcDbLine
 10
114.2933067927855
 20
164.8753688726356
 30
0.0
 11
156.2933067927855
 21
164.8753688726356
 31
0.0
  0
ARC
  5
4B34
330
1F
100
AcDbEntity
  8
AM_4
100
AcDbCircle
 10
124.2933067927855
 20
146.8753688726356
 30
0.0
 40
6.899999999999999
100
AcDbArc
 50
259.9999999999982
 51
169.9999999999997
  0
CIRCLE
  5
4B35
330
1F
100
AcDbEntity
  8
AM_0
100
AcDbCircle
 10
124.2933067927855
 20
146.8753688726356
 30
0.0
 40
5.7225
  0
ARC
  5
4B36
330
1F
100
AcDbEntity
  8
AM_4
100
AcDbCircle
 10
146.2933067927855
 20
146.8753688726356
 30
0.0
 40
6.899999999999999
100
AcDbArc
 50
259.9999999999982
 51
169.9999999999997
  0
CIRCLE
  5
4B37
330
1F
100
AcDbEntity
  8
AM_0
100
AcDbCircle
 10
146.2933067927855
 20
146.8753688726356
 30
0.0
 40
5.7225
  0
DIMENSION
  5
4B47
102
{ACAD_XDICTIONARY
360
4B54
102
}
102
{ACAD_REACTORS
330
4B55
102
}
330
1F
100
AcDbEntity
  8
AM_5
100
AcDbDimension
  2
*D5
 10
146.2933067927855
 20
124.8753688726356
 30
0.0
 11
135.2933067927855
 21
127.3756641482261
 31
0.0
 70
    32
 71
     5
 42
22.0
  3
AM_ISO$0
100
AcDbAlignedDimension
 13
124.2933067927855
 23
139.5253688726356
 33
0.0
 14
146.2933067927855
 24
139.5253688726356
 34
0.0
 50
0.0000000000001018
100
AcDbRotatedDimension
1001
ACAD
1000
DSTYLE
1002
{
1070
    40
1040
1.0
1070
   144
1040
1.0
1070
   272
1070
     8
1002
}
  0
DIMENSION
  5
4B6D
102
{ACAD_XDICTIONARY
360
4B7A
102
}
102
{ACAD_REACTORS
330
4B7B
102
}
330
1F
100
AcDbEntity
  8
AM_5
100
AcDbDimension
  2
*D6
 10
156.2933067927855
 20
116.8753688726356
 30
0.0
 11
135.2933067927855
 21
119.3756641482262
 31
0.0
 70
    32
 71
     5
 42
42.0
  3
AM_ISO$0
100
AcDbAlignedDimension
 13
114.2933067927855
 23
136.8753688726356
 33
0.0
 14
156.2933067927855
 24
136.8753688726356
 34
0.0
 50
0.0000000000001018
100
AcDbRotatedDimension
1001
ACAD
1000
DSTYLE
1002
{
1070
    40
1040
1.0
1070
   144
1040
1.0
1070
   272
1070
     8
1002
}
  0
DIMENSION
  5
4B93
102
{ACAD_XDICTIONARY
360
4BA0
102
}
102
{ACAD_REACTORS
330
4BA1
102
}
330
1F
100
AcDbEntity
  8
AM_5
100
AcDbDimension
  2
*D7
 10
168.2933067927855
 20
146.8753688726356
 30
0.0
 11
165.7933067927855
 21
141.8753688726356
 31
0.0
 70
    32
 71
     5
 42
10.0
  3
AM_ISO$0
100
AcDbAlignedDimension
 13
156.2933067927855
 23
136.8753688726356
 33
0.0
 14
153.6433067927855
 24
146.8753688726356
 34
0.0
 50
90.0
100
AcDbRotatedDimension
1001
ACAD
1000
DSTYLE
1002
{
1070
    40
1040
1.0
1070
   144
1040
1.0
1070
   272
1070
     8
1002
}
  0
DIMENSION
  5
4BB9
102
{ACAD_XDICTIONARY
360
4BC6
102
}
102
{ACAD_REACTORS
330
4BC7
102
}
330
1F
100
AcDbEntity
  8
AM_5
100
AcDbDimension
  2
*D8
 10
176.2933067927855
 20
164.8753688726356
 30
0.0
 11
173.7930115171949
 21
150.8753688726356
 31
0.0
 70
    32
 71
     5
 42
28.0
  3
AM_ISO$0
100
AcDbAlignedDimension
 13
156.2933067927855
 23
136.8753688726356
 33
0.0
 14
156.2933067927855
 24
164.8753688726356
 34
0.0
 50
90.0
100
AcDbRotatedDimension
1001
ACAD
1000
DSTYLE
1002
{
1070
    40
1040
1.0
1070
   144
1040
1.0
1070
   272
1070
     8
1002
}
  0
DIMENSION
  5
4BDF
102
{ACAD_XDICTIONARY
360
4BEC
102
}
102
{ACAD_REACTORS
330
4BED
102
}
330
1F
100
AcDbEntity
  8
AM_5
100
AcDbDimension
  2
*D9
 10
135.2933067927855
 20
178.475944412359
 30
0.0
 11
124.7933067927855
 21
180.9762396879496
 31
0.0
 70
    32
 71
     5
 42
21.0
  3
AM_ISO$0
100
AcDbAlignedDimension
 13
114.2933067927855
 23
190.475944412359
 33
0.0
 14
135.2933067927855
 24
191.6259444123591
 34
0.0
 50
0.0000000000001018
100
AcDbRotatedDimension
1001
ACAD
1000
DSTYLE
1002
{
1070
    40
1040
1.0
1070
   144
1040
1.0
1070
   272
1070
     8
1002
}
  0
DIMENSION
  5
4C05
102
{ACAD_XDICTIONARY
360
4C14
102
}
102
{ACAD_REACTORS
330
4C15
102
}
330
1F
100
AcDbEntity
  8
AM_5
100
AcDbDimension
  2
*D10
 10
168.2933067927855
 20
195.475944412359
 30
0.0
 11
165.7933067927855
 21
192.9759444123591
 31
0.0
 70
    32
 71
     5
 42
5.0
  3
AM_ISO$0
100
AcDbAlignedDimension
 13
156.2933067927855
 23
190.475944412359
 33
0.0
 14
139.1433067927855
 24
195.475944412359
 34
0.0
 50
90.0
100
AcDbRotatedDimension
1001
ACAD
1000
DSTYLE
1002
{
1070
    40
1040
1.0
1070
   144
1040
1.0
1070
   272
1070
     8
1002
}
  0
DIMENSION
  5
4C2F
102
{ACAD_XDICTIONARY
360
4C3E
102
}
102
{ACAD_REACTORS
330
4C3F
102
}
330
1F
100
AcDbEntity
  8
AM_5
100
AcDbDimension
  2
*D11
 10
168.2933067927855
 20
247.4759444123591
 30
0.0
 11
165.7933067927855
 21
244.9759444123591
 31
0.0
 70
    32
 71
     5
 42
5.0
  3
AM_ISO$0
100
AcDbAlignedDimension
 13
139.1433067927855
 23
242.4759444123591
 33
0.0
 14
156.2933067927855
 24
247.4759444123591
 34
0.0
 50
90.0
100
AcDbRotatedDimension
1001
ACAD
1000
DSTYLE
1002
{
1070
    40
1040
1.0
1070
   144
1040
1.0
1070
   272
1070
     8
1002
}
  0
ENDSEC
  0
SECTION
  2
OBJECTS
  0
DICTIONARY
  5
C
330
0
100
AcDbDictionary
281
     1
  3
ACAD_COLOR
350
7D1
  3
ACAD_GROUP
350
D
  3
ACAD_LAYOUT
350
1A
  3
ACAD_MATERIAL
350
7D0
  3
ACAD_MLINESTYLE
350
17
  3
ACAD_PLOTSETTINGS
350
19
  3
ACAD_PLOTSTYLENAME
350
E
  3
ACAD_TABLESTYLE
350
7D2
  3
ACDBHEADERROUNDTRIPXREC
350
4DAE
  3
AcDbVariableDictionary
350
82
  3
AcmDictionary
350
45
  3
AMG
350
2B
  3
AMGSNAPSETTINGS
350
87
  3
DWGPROPS
350
4DAD
  0
DICTIONARY
  5
AAB
330
2
100
AcDbDictionary
280
     1
281
     1
  3
ACAD_LAYERSTATES
360
AAC
  3
AMLAYER_GROUPCOLORS
360
3426
  0
DICTIONARY
  5
7D
330
1F
100
AcDbDictionary
280
     1
281
     1
  3
ACAD_SORTENTS
360
EEA
  0
DICTIONARY
  5
4B54
330
4B47
100
AcDbDictionary
280
     1
281
     1
  3
ACAD_DIMASSOC
360
4B55
  0
DICTIONARY
  5
4B7A
330
4B6D
100
AcDbDictionary
280
     1
281
     1
  3
ACAD_DIMASSOC
360
4B7B
  0
DICTIONARY
  5
4BA0
330
4B93
100
AcDbDictionary
280
     1
281
     1
  3
ACAD_DIMASSOC
360
4BA1
  0
DICTIONARY
  5
4BC6
330
4BB9
100
AcDbDictionary
280
     1
281
     1
  3
ACAD_DIMASSOC
360
4BC7
  0
DICTIONARY
  5
4BEC
330
4BDF
100
AcDbDictionary
280
     1
281
     1
  3
ACAD_DIMASSOC
360
4BED
  0
DICTIONARY
  5
4C14
330
4C05
100
AcDbDictionary
280
     1
281
     1
  3
ACAD_DIMASSOC
360
4C15
  0
DICTIONARY
  5
4C3E
330
4C2F
100
AcDbDictionary
280
     1
281
     1
  3
ACAD_DIMASSOC
360
4C3F
  0
DICTIONARY
  5
7D1
102
{ACAD_REACTORS
330
C
102
}
330
C
100
AcDbDictionary
281
     1
  0
DICTIONARY
  5
D
102
{ACAD_REACTORS
330
C
102
}
330
C
100
AcDbDictionary
281
     1
  0
DICTIONARY
  5
1A
102
{ACAD_REACTORS
330
C
102
}
330
C
100
AcDbDictionary
281
     1
  3
Layout1
350
1E
  3
Layout2
350
26
  3
Model
350
22
  0
DICTIONARY
  5
7D0
102
{ACAD_REACTORS
330
C
102
}
330
C
100
AcDbDictionary
281
     1
  0
DICTIONARY
  5
17
102
{ACAD_REACTORS
330
C
102
}
330
C
100
AcDbDictionary
281
     1
  3
Standard
350
18
  0
DICTIONARY
  5
19
102
{ACAD_REACTORS
330
C
102
}
330
C
100
AcDbDictionary
281
     1
  0
ACDBDICTIONARYWDFLT
  5
E
102
{ACAD_REACTORS
330
C
102
}
330
C
100
AcDbDictionary
281
     1
  3
Normal
350
F
100
AcDbDictionaryWithDefault
340
F
  0
DICTIONARY
  5
7D2
102
{ACAD_REACTORS
330
C
102
}
330
C
100
AcDbDictionary
281
     1
  3
Standard
350
7D3
  0
DICTIONARY
  5
4DAE
102
{ACAD_REACTORS
330
C
102
}
330
C
100
AcDbDictionary
281
     1
  0
DICTIONARY
  5
82
102
{ACAD_REACTORS
330
C
102
}
330
C
100
AcDbDictionary
281
     1
  3
CTABLESTYLE
350
847
  3
DIMASSOC
350
85
  3
HIDETEXT
350
84
  3
INDEXCTL
350
83
  3
PROJECTNAME
350
848
  0
DICTIONARY
  5
45
102
{ACAD_REACTORS
330
C
102
}
330
C
100
AcDbDictionary
281
     1
  3
AcmStdDictionary
350
4A
  3
AMDTSECTSYM_ARROWCOLOR
350
7DF
  0
DICTIONARY
  5
2B
102
{ACAD_REACTORS
330
C
102
}
330
C
100
AcDbDictionary
281
     1
  0
DICTIONARY
  5
87
102
{ACAD_REACTORS
330
C
102
}
330
C
100
AcDbDictionary
281
     1
  0
XRECORD
  5
4DAD
102
{ACAD_REACTORS
330
C
102
}
330
C
100
AcDbXrecord
280
     1
  1
DWGPROPS COOKIE
  2

  3

  4

  6

  7

  8

  9

300
AmdtFileType=84
301
=
302
=
303
=
304
=
305
=
306
=
307
=
308
=
309
=
 40
0.6638366898148149
 41
2453021.369367211
 42
2453514.629820232
  1

 90
        1
  0
DICTIONARY
  5
AAC
102
{ACAD_REACTORS
330
AAB
102
}
330
AAB
100
AcDbDictionary
281
     1
  0
DICTIONARY
  5
3426
102
{ACAD_REACTORS
330
AAB
102
}
330
AAB
100
AcDbDictionary
280
     1
281
     1
  0
SORTENTSTABLE
  5
EEA
102
{ACAD_REACTORS
330
7D
102
}
330
7D
100
AcDbSortentsTable
330
1F
331
1604
  5
1604
331
1610
  5
1610
331
143F
  5
143F
331
1629
  5
1629
331
1635
  5
1635
331
13FF
  5
13FF
331
13F3
  5
13F3
331
1605
  5
1605
331
1636
  5
1636
331
13F4
  5
13F4
331
1400
  5
1400
331
144D
  5
144D
331
1637
  5
1637
331
1664
  5
1664
331
13F5
  5
13F5
331
1401
  5
1401
331
144E
  5
144E
331
1638
  5
1638
331
146B
  5
146B
331
13F6
  5
13F6
331
1402
  5
1402
331
162D
  5
162D
331
1639
  5
1639
331
146C
  5
146C
331
1478
  5
1478
331
13F7
  5
13F7
331
1403
  5
1403
331
1615
  5
1615
331
39BB
  5
39BB
331
163A
  5
163A
331
162E
  5
162E
331
146D
  5
146D
331
1479
  5
1479
331
1404
  5
1404
331
160A
  5
160A
331
1616
  5
1616
331
39BC
  5
39BC
331
163B
  5
163B
331
162F
  5
162F
331
146E
  5
146E
331
1405
  5
1405
331
160B
  5
160B
331
1452
  5
1452
331
163C
  5
163C
331
146F
  5
146F
331
1453
  5
1453
331
163D
  5
163D
331
1470
  5
1470
331
1454
  5
1454
331
1458
  5
1458
331
163E
  5
163E
331
1471
  5
1471
331
161A
  5
161A
331
1455
  5
1455
331
1459
  5
1459
331
1472
  5
1472
331
160F
  5
160F
331
1456
  5
1456
331
1640
  5
1640
331
1473
  5
1473
331
1432
  5
1432
331
1457
  5
1457
331
1641
  5
1641
331
1474
  5
1474
331
1433
  5
1433
331
161D
  5
161D
331
1642
  5
1642
331
1475
  5
1475
331
1434
  5
1434
331
1440
  5
1440
331
145D
  5
145D
331
1476
  5
1476
331
3380
  5
3380
331
1441
  5
1441
331
1644
  5
1644
331
1648
  5
1648
331
1477
  5
1477
331
3381
  5
3381
331
1442
  5
1442
331
1620
  5
1620
331
1443
  5
1443
331
1444
  5
1444
331
1461
  5
1461
331
1647
  5
1647
331
13F8
  5
13F8
331
1445
  5
1445
331
2D18
  5
2D18
331
1623
  5
1623
331
13F9
  5
13F9
331
1630
  5
1630
331
13FA
  5
13FA
331
1631
  5
1631
331
13FB
  5
13FB
331
1632
  5
1632
331
1626
  5
1626
331
1465
  5
1465
331
13FC
  5
13FC
331
1602
  5
1602
331
143D
  5
143D
331
1449
  5
1449
331
1627
  5
1627
331
1466
  5
1466
331
13FD
  5
13FD
331
13F1
  5
13F1
331
1603
  5
1603
331
143E
  5
143E
331
1634
  5
1634
331
1628
  5
1628
331
1467
  5
1467
331
13FE
  5
13FE
331
13F2
  5
13F2
  0
DIMASSOC
  5
4B55
102
{ACAD_REACTORS
330
4B54
102
}
330
4B54
100
AcDbDimAssoc
330
4B47
 90
        3
 70
     0
 71
     0
  1
AcDbOsnapPointRef
 72
    13
331
4B02
 73
     0
 91
        0
 40
0.0
 10
0.0
 20
0.0
 30
2.000000000000000E+50
 75
     0
  1
AcDbOsnapPointRef
 72
    13
331
4B08
 73
     0
 91
        0
 40
0.0
 10
0.0
 20
0.0
 30
2.000000000000000E+50
 75
     0
  0
DIMASSOC
  5
4B7B
102
{ACAD_REACTORS
330
4B7A
102
}
330
4B7A
100
AcDbDimAssoc
330
4B6D
 90
        3
 70
     0
 71
     0
  1
AcDbOsnapPointRef
 72
    13
331
4B28
 73
     0
 91
        0
 40
0.0
 10
0.0
 20
0.0
 30
2.000000000000000E+50
 75
     0
  1
AcDbOsnapPointRef
 72
    13
331
4B27
 73
     0
 91
        0
 40
0.0
 10
0.0
 20
0.0
 30
2.000000000000000E+50
 75
     0
  0
DIMASSOC
  5
4BA1
102
{ACAD_REACTORS
330
4BA0
102
}
330
4BA0
100
AcDbDimAssoc
330
4B93
 90
        2
 70
     0
 71
     0
  1
AcDbOsnapPointRef
 72
     1
331
4B07
 73
     0
 91
        0
 40
0.0
 10
0.0
 20
0.0
 30
2.000000000000000E+50
 75
     0
  0
DIMASSOC
  5
4BC7
102
{ACAD_REACTORS
330
4BC6
102
}
330
4BC6
100
AcDbDimAssoc
330
4BB9
 90
        2
 70
     0
 71
     0
  1
AcDbOsnapPointRef
 72
     1
331
4B29
 73
     0
 91
        0
 40
0.0
 10
0.0
 20
0.0
 30
2.000000000000000E+50
 75
     0
  0
DIMASSOC
  5
4BED
102
{ACAD_REACTORS
330
4BEC
102
}
330
4BEC
100
AcDbDimAssoc
330
4BDF
 90
        3
 70
     0
 71
     0
  1
AcDbOsnapPointRef
 72
    13
331
4B13
 73
     0
 91
        0
 40
0.0
 10
0.0
 20
0.0
 30
2.000000000000000E+50
 75
     0
  1
AcDbOsnapPointRef
 72
    13
331
4AF2
 73
     0
 91
        0
 40
0.0
 10
0.0
 20
0.0
 30
2.000000000000000E+50
 75
     0
  0
DIMASSOC
  5
4C15
102
{ACAD_REACTORS
330
4C14
102
}
330
4C14
100
AcDbDimAssoc
330
4C05
 90
        3
 70
     0
 71
     0
  1
AcDbOsnapPointRef
 72
     1
331
4B13
 73
     0
 91
        0
 40
0.0
 10
0.0
 20
0.0
 30
2.000000000000000E+50
 75
     0
  1
AcDbOsnapPointRef
 72
     1
331
4AF1
 73
     0
 91
        0
 40
0.0
 10
0.0
 20
0.0
 30
2.000000000000000E+50
 75
     0
  0
DIMASSOC
  5
4C3F
102
{ACAD_REACTORS
330
4C3E
102
}
330
4C3E
100
AcDbDimAssoc
330
4C2F
 90
        3
 70
     0
 71
     0
  1
AcDbOsnapPointRef
 72
     1
331
4AF7
 73
     0
 91
        0
 40
0.0
 10
0.0
 20
0.0
 30
2.000000000000000E+50
 75
     0
  1
AcDbOsnapPointRef
 72
    13
331
4B12
 73
     0
 91
        0
 40
0.0
 10
0.0
 20
0.0
 30
2.000000000000000E+50
 75
     0
  0
LAYOUT
  5
1E
102
{ACAD_XDICTIONARY
360
4DAF
102
}
102
{ACAD_REACTORS
330
1A
102
}
330
1A
100
AcDbPlotSettings
  1

  2
自動 RD 上的 Epson Stylus Photo 750 單色
  4

  6

 40
0.0
 41
0.0
 42
0.0
 43
0.0
 44
0.0
 45
0.0
 46
0.0
 47
0.0
 48
0.0
 49
0.0
140
0.0
141
0.0
142
1.0
143
1.0
 70
   688
 72
     0
 73
     0
 74
     5
  7
彩色出圖.ctb
 75
    16
147
1.0
148
0.0
149
0.0
100
AcDbLayout
  1
Layout1
 70
     1
 71
     1
 10
0.0
 20
0.0
 11
420.0
 21
297.0
 12
0.0
 22
0.0
 32
0.0
 14
1.000000000000000E+20
 24
1.000000000000000E+20
 34
1.000000000000000E+20
 15
-1.000000000000000E+20
 25
-1.000000000000000E+20
 35
-1.000000000000000E+20
146
0.0
 13
0.0
 23
0.0
 33
0.0
 16
1.0
 26
0.0
 36
0.0
 17
0.0
 27
1.0
 37
0.0
 76
     0
330
1B
  0
LAYOUT
  5
26
102
{ACAD_XDICTIONARY
360
4DB3
102
}
102
{ACAD_REACTORS
330
1A
102
}
330
1A
100
AcDbPlotSettings
  1

  2
自動 RD 上的 Epson Stylus Photo 750 單色
  4

  6

 40
0.0
 41
0.0
 42
0.0
 43
0.0
 44
0.0
 45
0.0
 46
0.0
 47
0.0
 48
0.0
 49
0.0
140
0.0
141
0.0
142
1.0
143
1.0
 70
   688
 72
     0
 73
     0
 74
     5
  7
彩色出圖.ctb
 75
    16
147
1.0
148
0.0
149
0.0
100
AcDbLayout
  1
Layout2
 70
     1
 71
     2
 10
0.0
 20
0.0
 11
12.0
 21
9.0
 12
0.0
 22
0.0
 32
0.0
 14
0.0
 24
0.0
 34
0.0
 15
0.0
 25
0.0
 35
0.0
146
0.0
 13
0.0
 23
0.0
 33
0.0
 16
1.0
 26
0.0
 36
0.0
 17
0.0
 27
1.0
 37
0.0
 76
     0
330
23
  0
LAYOUT
  5
22
102
{ACAD_XDICTIONARY
360
4DB1
102
}
102
{ACAD_REACTORS
330
1A
102
}
330
1A
100
AcDbPlotSettings
  1

  2
自動 RD 上的 Epson Stylus Photo 750 單色
  4
A4
  6

 40
3.757083177566528
 41
14.7637300491333
 42
3.757080078125
 43
3.757080078125
 44
209.9733276367187
 45
296.9683227539062
 46
7.54
 47
0.0
 48
0.0
 49
0.0
140
0.0
141
0.0
142
1.0
143
1.817317462545654
 70
 11956
 72
     1
 73
     0
 74
     1
  7
彩色出圖.ctb
 75
     0
147
0.5502615919395967
148
-125.5654918467224
149
222.8859553785132
100
AcDbLayout
  1
Model
 70
     1
 71
     0
 10
0.0
 20
0.0
 11
12.0
 21
9.0
 12
0.0
 22
0.0
 32
0.0
 14
0.0
 24
0.0
 34
0.0
 15
0.0
 25
0.0
 35
0.0
146
0.0
 13
0.0
 23
0.0
 33
0.0
 16
1.0
 26
0.0
 36
0.0
 17
0.0
 27
1.0
 37
0.0
 76
     0
330
1F
  0
MLINESTYLE
  5
18
102
{ACAD_REACTORS
330
17
102
}
330
17
100
AcDbMlineStyle
  2
STANDARD
 70
     0
  3

 62
   256
 51
90.0
 52
90.0
 71
     2
 49
0.5
 62
   256
  6
BYLAYER
 49
-0.5
 62
   256
  6
BYLAYER
  0
ACDBPLACEHOLDER
  5
F
102
{ACAD_REACTORS
330
E
102
}
330
E
  0
TABLESTYLE
  5
7D3
102
{ACAD_REACTORS
330
7D2
102
}
330
7D2
100
AcDbTableStyle
  3
Standard
 70
     0
 71
     0
 40
1.5
 41
1.5
280
     0
281
     0
  7
STANDARD
140
4.5
170
     2
 62
     0
 63
     7
283
     0
274
    -2
284
     1
 64
     0
275
    -2
285
     1
 65
     0
276
    -2
286
     1
 66
     0
277
    -2
287
     1
 67
     0
278
    -2
288
     1
 68
     0
279
    -2
289
     1
 69
     0
  7
STANDARD
140
6.0
170
     5
 62
     0
 63
     7
283
     0
274
    -2
284
     1
 64
     0
275
    -2
285
     1
 65
     0
276
    -2
286
     1
 66
     0
277
    -2
287
     1
 67
     0
278
    -2
288
     1
 68
     0
279
    -2
289
     1
 69
     0
  7
STANDARD
140
4.5
170
     5
 62
     0
 63
     7
283
     0
274
    -2
284
     1
 64
     0
275
    -2
285
     1
 65
     0
276
    -2
286
     1
 66
     0
277
    -2
287
     1
 67
     0
278
    -2
288
     1
 68
     0
279
    -2
289
     1
 69
     0
  0
DICTIONARYVAR
  5
847
102
{ACAD_REACTORS
330
82
102
}
330
82
100
DictionaryVariables
280
     0
  1
STANDARD
  0
DICTIONARYVAR
  5
85
102
{ACAD_REACTORS
330
82
102
}
330
82
100
DictionaryVariables
280
     0
  1
2
  0
DICTIONARYVAR
  5
84
102
{ACAD_REACTORS
330
82
102
}
330
82
100
DictionaryVariables
280
     0
  1
1
  0
DICTIONARYVAR
  5
83
102
{ACAD_REACTORS
330
82
102
}
330
82
100
DictionaryVariables
280
     0
  1
0
  0
DICTIONARYVAR
  5
848
102
{ACAD_REACTORS
330
82
102
}
330
82
100
DictionaryVariables
280
     0
  1

  0
DICTIONARY
  5
4A
102
{ACAD_REACTORS
330
45
102
}
330
45
100
AcDbDictionary
281
     1
  0
XRECORD
  5
7DF
102
{ACAD_REACTORS
330
45
102
}
330
45
100
AcDbXrecord
280
     1
 90
-1023410169
  0
DICTIONARY
  5
4DAF
330
1E
100
AcDbDictionary
280
     1
281
     1
  3
ACAD_XREC_ROUNDTRIP
360
4DB0
  0
DICTIONARY
  5
4DB3
330
26
100
AcDbDictionary
280
     1
281
     1
  3
ACAD_XREC_ROUNDTRIP
360
4DB4
  0
DICTIONARY
  5
4DB1
330
22
100
AcDbDictionary
280
     1
281
     1
  3
ACAD_XREC_ROUNDTRIP
360
4DB2
  0
XRECORD
  5
4DB0
102
{ACAD_REACTORS
330
4DAF
102
}
330
4DAF
100
AcDbXrecord
280
     1
102
SHADEPLOT
 70
     0
102
SHADEPLOTRESLEVEL
 70
     2
102
SHADEPLOTCUSTOMDPI
 70
   300
  0
XRECORD
  5
4DB4
102
{ACAD_REACTORS
330
4DB3
102
}
330
4DB3
100
AcDbXrecord
280
     1
102
SHADEPLOT
 70
     0
102
SHADEPLOTRESLEVEL
 70
     2
102
SHADEPLOTCUSTOMDPI
 70
   300
  0
XRECORD
  5
4DB2
102
{ACAD_REACTORS
330
4DB1
102
}
330
4DB1
100
AcDbXrecord
280
     1
102
SHADEPLOT
 70
     0
102
SHADEPLOTRESLEVEL
 70
     2
102
SHADEPLOTCUSTOMDPI
 70
   300
  0
ENDSEC
  0
EOF
