  0
SECTION
  2
HEADER
  9
$ACADVER
  1
AC1015
  9
$ACADMAINTVER
 70
    20
  9
$DWGCODEPAGE
  3
ANSI_950
  9
$INSBASE
 10
0.0
 20
0.0
 30
0.0
  9
$EXTMIN
 10
123.6725621485623
 20
79.31169940046266
 30
-0.0075727472424205
  9
$EXTMAX
 10
436.2372191851973
 20
392.6602526437831
 30
178.3450152868922
  9
$LIMMIN
 10
0.0
 20
0.0
  9
$LIMMAX
 10
420.0
 20
297.0
  9
$ORTHOMODE
 70
     1
  9
$REGENMODE
 70
     1
  9
$FILLMODE
 70
     1
  9
$QTEXTMODE
 70
     0
  9
$MIRRTEXT
 70
     1
  9
$LTSCALE
 40
1.0
  9
$ATTMODE
 70
     1
  9
$TEXTSIZE
 40
3.0
  9
$TRACEWID
 40
1.0
  9
$TEXTSTYLE
  7
STANDARD
  9
$CLAYER
  8
0
  9
$CELTYPE
  6
ByLayer
  9
$CECOLOR
 62
   256
  9
$CELTSCALE
 40
1.0
  9
$DISPSILH
 70
     0
  9
$DIMSCALE
 40
1.0
  9
$DIMASZ
 40
3.0
  9
$DIMEXO
 40
1.5
  9
$DIMDLI
 40
8.0
  9
$DIMRND
 40
0.0
  9
$DIMDLE
 40
0.0
  9
$DIMEXE
 40
1.5
  9
$DIMTP
 40
0.1
  9
$DIMTM
 40
0.1
  9
$DIMTXT
 40
3.5
  9
$DIMCEN
 40
0.0
  9
$DIMTSZ
 40
0.0
  9
$DIMTOL
 70
     0
  9
$DIMLIM
 70
     0
  9
$DIMTIH
 70
     0
  9
$DIMTOH
 70
     0
  9
$DIMSE1
 70
     0
  9
$DIMSE2
 70
     0
  9
$DIMTAD
 70
     1
  9
$DIMZIN
 70
     8
  9
$DIMBLK
  1

  9
$DIMASO
 70
     1
  9
$DIMSHO
 70
     1
  9
$DIMPOST
  1

  9
$DIMAPOST
  1
"
  9
$DIMALT
 70
     0
  9
$DIMALTD
 70
     2
  9
$DIMALTF
 40
0.0393701
  9
$DIMLFAC
 40
1.0
  9
$DIMTOFL
 70
     1
  9
$DIMTVP
 40
0.0
  9
$DIMTIX
 70
     0
  9
$DIMSOXD
 70
     0
  9
$DIMSAH
 70
     0
  9
$DIMBLK1
  1

  9
$DIMBLK2
  1

  9
$DIMSTYLE
  2
AM_ISO
  9
$DIMCLRD
 70
   256
  9
$DIMCLRE
 70
   256
  9
$DIMCLRT
 70
   256
  9
$DIMTFAC
 40
0.6
  9
$DIMGAP
 40
1.0
  9
$DIMJUST
 70
     0
  9
$DIMSD1
 70
     0
  9
$DIMSD2
 70
     0
  9
$DIMTOLJ
 70
     0
  9
$DIMTZIN
 70
     8
  9
$DIMALTZ
 70
     0
  9
$DIMALTTZ
 70
     0
  9
$DIMUPT
 70
     0
  9
$DIMDEC
 70
     2
  9
$DIMTDEC
 70
     8
  9
$DIMALTU
 70
     2
  9
$DIMALTTD
 70
     2
  9
$DIMTXSTY
  7
STANDARD
  9
$DIMAUNIT
 70
     0
  9
$DIMADEC
 70
     0
  9
$DIMALTRND
 40
0.0
  9
$DIMAZIN
 70
     2
  9
$DIMDSEP
 70
    46
  9
$DIMATFIT
 70
     3
  9
$DIMFRAC
 70
     0
  9
$DIMLDRBLK
  1

  9
$DIMLUNIT
 70
     2
  9
$DIMLWD
 70
    -1
  9
$DIMLWE
 70
    -1
  9
$DIMTMOVE
 70
     0
  9
$LUNITS
 70
     2
  9
$LUPREC
 70
     2
  9
$SKETCHINC
 40
1.0
  9
$FILLETRAD
 40
2.5
  9
$AUNITS
 70
     0
  9
$AUPREC
 70
     0
  9
$MENU
  1
.
  9
$ELEVATION
 40
0.0
  9
$PELEVATION
 40
0.0
  9
$THICKNESS
 40
0.0
  9
$LIMCHECK
 70
     0
  9
$CHAMFERA
 40
2.5
  9
$CHAMFERB
 40
2.5
  9
$CHAMFERC
 40
20.0
  9
$CHAMFERD
 40
0.0
  9
$SKPOLY
 70
     0
  9
$TDCREATE
 40
2454377.572832026
  9
$TDUCREATE
 40
2454377.239498692
  9
$TDUPDATE
 40
2454377.582009178
  9
$TDUUPDATE
 40
2454377.248675845
  9
$TDINDWG
 40
0.0091782407
  9
$TDUSRTIMER
 40
0.0091782407
  9
$USRTIMER
 70
     1
  9
$ANGBASE
 50
0.0
  9
$ANGDIR
 70
     0
  9
$PDMODE
 70
     0
  9
$PDSIZE
 40
0.0
  9
$PLINEWID
 40
0.0
  9
$SPLFRAME
 70
     0
  9
$SPLINETYPE
 70
     6
  9
$SPLINESEGS
 70
     8
  9
$HANDSEED
  5
207A
  9
$SURFTAB1
 70
     6
  9
$SURFTAB2
 70
     6
  9
$SURFTYPE
 70
     6
  9
$SURFU
 70
     6
  9
$SURFV
 70
     6
  9
$UCSBASE
  2

  9
$UCSNAME
  2

  9
$UCSORG
 10
0.0
 20
0.0
 30
0.0
  9
$UCSXDIR
 10
1.0
 20
0.0
 30
0.0
  9
$UCSYDIR
 10
0.0
 20
1.0
 30
0.0
  9
$UCSORTHOREF
  2

  9
$UCSORTHOVIEW
 70
     0
  9
$UCSORGTOP
 10
0.0
 20
0.0
 30
0.0
  9
$UCSORGBOTTOM
 10
0.0
 20
0.0
 30
0.0
  9
$UCSORGLEFT
 10
0.0
 20
0.0
 30
0.0
  9
$UCSORGRIGHT
 10
0.0
 20
0.0
 30
0.0
  9
$UCSORGFRONT
 10
0.0
 20
0.0
 30
0.0
  9
$UCSORGBACK
 10
0.0
 20
0.0
 30
0.0
  9
$PUCSBASE
  2

  9
$PUCSNAME
  2

  9
$PUCSORG
 10
0.0
 20
0.0
 30
0.0
  9
$PUCSXDIR
 10
1.0
 20
0.0
 30
0.0
  9
$PUCSYDIR
 10
0.0
 20
1.0
 30
0.0
  9
$PUCSORTHOREF
  2

  9
$PUCSORTHOVIEW
 70
     0
  9
$PUCSORGTOP
 10
0.0
 20
0.0
 30
0.0
  9
$PUCSORGBOTTOM
 10
0.0
 20
0.0
 30
0.0
  9
$PUCSORGLEFT
 10
0.0
 20
0.0
 30
0.0
  9
$PUCSORGRIGHT
 10
0.0
 20
0.0
 30
0.0
  9
$PUCSORGFRONT
 10
0.0
 20
0.0
 30
0.0
  9
$PUCSORGBACK
 10
0.0
 20
0.0
 30
0.0
  9
$USERI1
 70
     0
  9
$USERI2
 70
     0
  9
$USERI3
 70
     0
  9
$USERI4
 70
     0
  9
$USERI5
 70
     0
  9
$USERR1
 40
0.0
  9
$USERR2
 40
0.0
  9
$USERR3
 40
0.0
  9
$USERR4
 40
0.0
  9
$USERR5
 40
0.0
  9
$WORLDVIEW
 70
     1
  9
$SHADEDGE
 70
     3
  9
$SHADEDIF
 70
    70
  9
$TILEMODE
 70
     1
  9
$MAXACTVP
 70
    64
  9
$PINSBASE
 10
0.0
 20
0.0
 30
0.0
  9
$PLIMCHECK
 70
     0
  9
$PEXTMIN
 10
1.000000000000000E+20
 20
1.000000000000000E+20
 30
1.000000000000000E+20
  9
$PEXTMAX
 10
-1.000000000000000E+20
 20
-1.000000000000000E+20
 30
-1.000000000000000E+20
  9
$PLIMMIN
 10
0.0
 20
0.0
  9
$PLIMMAX
 10
420.0
 20
297.0
  9
$UNITMODE
 70
     0
  9
$VISRETAIN
 70
     1
  9
$PLINEGEN
 70
     0
  9
$PSLTSCALE
 70
     1
  9
$TREEDEPTH
 70
  3020
  9
$CMLSTYLE
  2
Standard
  9
$CMLJUST
 70
     0
  9
$CMLSCALE
 40
20.0
  9
$PROXYGRAPHICS
 70
     1
  9
$MEASUREMENT
 70
     1
  9
$CELWEIGHT
370
    -1
  9
$ENDCAPS
280
     0
  9
$JOINSTYLE
280
     0
  9
$LWDISPLAY
290
     0
  9
$INSUNITS
 70
     4
  9
$HYPERLINKBASE
  1

  9
$STYLESHEET
  1
彩色出圖.ctb
  9
$XEDIT
290
     1
  9
$CEPSNTYPE
380
     0
  9
$PSTYLEMODE
290
     1
  9
$FINGERPRINTGUID
  2
{DC820801-3FC8-405C-BA0E-33C83C26ADFE}
  9
$VERSIONGUID
  2
{5E0B96D7-357A-4320-B74A-6866DBA78989}
  9
$EXTNAMES
290
     1
  9
$PSVPSCALE
 40
0.0
  9
$OLESTARTUP
290
     0
  0
ENDSEC
  0
SECTION
  2
CLASSES
  0
CLASS
  1
ACDBDICTIONARYWDFLT
  2
AcDbDictionaryWithDefault
  3
ObjectDBX Classes
 90
        0
280
     0
281
     0
  0
CLASS
  1
ACDBPLACEHOLDER
  2
AcDbPlaceHolder
  3
ObjectDBX Classes
 90
        0
280
     0
281
     0
  0
CLASS
  1
LAYOUT
  2
AcDbLayout
  3
ObjectDBX Classes
 90
        0
280
     0
281
     0
  0
CLASS
  1
ACME_DOCUMENT
  2
AcMeDbDoc
  3
AcMeServices
 90
        0
280
     0
281
     0
  0
CLASS
  1
AMGSETTINGSOBJ
  2
AmgSettingsObj
  3
"AcadM|Product Description: AutoCAD Mechanical 2000|Company: Autodesk"
 90
        0
280
     0
281
     0
  0
CLASS
  1
ACMESCOPE
  2
AcMeScope
  3
AcMeServices
 90
        0
280
     0
281
     0
  0
CLASS
  1
ACMECOMMANDHISTORY
  2
AcMeCommandHistory
  3
AcMeServices
 90
        0
280
     0
281
     0
  0
CLASS
  1
ACIMSYSVARMAN
  2
AcImSysVarManager
  3
AcMeServices
 90
        0
280
     0
281
     0
  0
CLASS
  1
ACIMREALSYSVAR
  2
AcImRealSysVar
  3
AcMeServices
 90
        0
280
     0
281
     0
  0
CLASS
  1
ACIMINTSYSVAR
  2
AcImIntSysVar
  3
AcMeServices
 90
        0
280
     0
281
     0
  0
CLASS
  1
ACMEDRAWINGMAN
  2
AcMeDrawingMan
  3
AcMeServices
 90
        0
280
     0
281
     0
  0
CLASS
  1
ACMEVIEW
  2
AcMeView
  3
AcMeServices
 90
        0
280
     0
281
     0
  0
CLASS
  1
ACDBENTITYCACHE
  2
AcMeEntityCache
  3
AcMeServices
 90
        0
280
     0
281
     0
  0
CLASS
  1
GSMANAGER
  2
AcMeGSManager
  3
AcMeServices
 90
        0
280
     0
281
     0
  0
CLASS
  1
AMDTINTERNALREACTOR
  2
AmdtInternalReactor
  3
AcMeServices
 90
        0
280
     0
281
     0
  0
CLASS
  1
ACMESTATEMGR
  2
AcMeStateMgr
  3
AcMeServices
 90
        0
280
     0
281
     0
  0
CLASS
  1
ACGREFMASTER
  2
AcGrefMaster
  3
AcAttribServices
 90
        0
280
     0
281
     0
  0
CLASS
  1
ACME_DATABASE
  2
AcMeDbDatabase
  3
AcMeServices
 90
        0
280
     0
281
     0
  0
CLASS
  1
ACRFINSADJUSTERMGR
  2
AcRfInsAdjusterMgr
  3
AcMeServices
 90
        0
280
     0
281
     0
  0
CLASS
  1
ACGREFACADMASTER
  2
AcGrefacadMaster
  3
AcGrefServices
 90
        0
280
     0
281
     0
  0
CLASS
  1
AMIMASTER
  2
AmiMaster
  3
AmiServices
 90
        0
280
     0
281
     0
  0
CLASS
  1
ACMDATADICTIONARY
  2
AcmDataDictionary
  3
"AcmSymBB|Product Description: AutoCAD Mechanical 2004 DX|Company: Autodesk"
 90
        0
280
     0
281
     0
  0
CLASS
  1
ACMDATAENTRYBLOCK
  2
AcmDataEntryBlock
  3
"AcmSymBB|Product Description: AutoCAD Mechanical 2004 DX|Company: Autodesk"
 90
        0
280
     0
281
     0
  0
CLASS
  1
ACIMSTRSYSVAR
  2
AcImStrSysVar
  3
AcMeServices
 90
        0
280
     0
281
     0
  0
CLASS
  1
ACMSTANDARDISO
  2
AcmStandardISO
  3
"Amdt_StdImp|Product Description: AutoCAD Mechanical 2004 DX|Company: Autodesk"
 90
        0
280
     0
281
     0
  0
CLASS
  1
AMGOBJPROPCFG
  2
AmgObjPropCfg
  3
"AmgLay|Product Description: AutoCAD Mechanical 2000|Company: Autodesk"
 90
        1
280
     0
281
     0
  0
CLASS
  1
AMDTEDGESTANDARDISO
  2
AmdtEdgeStdISO
  3
"Amdt_StdImp|Product Description: AutoCAD Mechanical 2004 DX|Company: Autodesk"
 90
        0
280
     0
281
     0
  0
CLASS
  1
ACMSURFSTANDARDISO
  2
AcmSurfTextStdISO
  3
"Amdt_StdImp|Product Description: AutoCAD Mechanical 2004 DX|Company: Autodesk"
 90
        0
280
     0
281
     0
  0
CLASS
  1
ACMFCFSTANDARDISO
  2
AcmFCFStdISO
  3
"Amdt_StdImp|Product Description: AutoCAD Mechanical 2004 DX|Company: Autodesk"
 90
        0
280
     0
281
     0
  0
CLASS
  1
ACMWELDSTANDARDISO
  2
AcmWeldingStdISO
  3
"Amdt_StdImp|Product Description: AutoCAD Mechanical 2004 DX|Company: Autodesk"
 90
        0
280
     0
281
     0
  0
CLASS
  1
ACMIDSTANDARDISO
  2
AcmIdStdISO
  3
"Amdt_StdImp|Product Description: AutoCAD Mechanical 2004 DX|Company: Autodesk"
 90
        0
280
     0
281
     0
  0
CLASS
  1
ACMDATUMSTANDARDISO
  2
AcmDatumStdISO
  3
"Amdt_StdImp|Product Description: AutoCAD Mechanical 2004 DX|Company: Autodesk"
 90
        0
280
     0
281
     0
  0
CLASS
  1
ACMBOMSTANDARDISO
  2
AcmBOMStdISO
  3
"Amdt_StdImp|Product Description: AutoCAD Mechanical 2004 DX|Company: Autodesk"
 90
        0
280
     0
281
     0
  0
CLASS
  1
ACMDETAILSTANDARDISO
  2
AmdtDetailSymStdISO
  3
"Amdt_StdImp|Product Description: AutoCAD Mechanical 2004 DX|Company: Autodesk"
 90
        0
280
     0
281
     0
  0
CLASS
  1
ACMSECTIONSTANDARDISO
  2
AmdtSectionSymStdISO
  3
"Amdt_StdImp|Product Description: AutoCAD Mechanical 2004 DX|Company: Autodesk"
 90
        0
280
     0
281
     0
  0
CLASS
  1
ACMCENTERLINESTANDARDISO
  2
AmdtCenterLineStdISO
  3
"Amdt_StdImp|Product Description: AutoCAD Mechanical 2004 DX|Company: Autodesk"
 90
        0
280
     0
281
     0
  0
CLASS
  1
ACMNOTESTANDARDISO
  2
AmdtNoteStdISO
  3
"Amdt_StdImp|Product Description: AutoCAD Mechanical 2004 DX|Company: Autodesk"
 90
        0
280
     0
281
     0
  0
CLASS
  1
ACAMGLAYSTD
  2
AcAmgLayStd
  3
"AcAmgLayStd|Product Description: AutoCAD Mechanical 2000|Company: Autodesk"
 90
        0
280
     0
281
     0
  0
CLASS
  1
ACAMGDIMSTD
  2
AcAmgDimStd
  3
"AcAmgDimStd|Product Description: AutoCAD Mechanical 2000|Company: Autodesk"
 90
        0
280
     0
281
     0
  0
CLASS
  1
ACAMGHOLECHARTSTDISO
  2
AcAmgHoleChartStdISO
  3
ACMSYMBB_MODULE_NAME
 90
        0
280
     0
281
     0
  0
CLASS
  1
ACAMGTITLESTD
  2
AcAmgTitleStd
  3
"TITLEAPP"
 90
        0
280
     0
281
     0
  0
CLASS
  1
LAYER_INDEX
  2
AcDbLayerIndex
  3
ObjectDBX Classes
 90
    32768
280
     0
281
     0
  0
CLASS
  1
IDBUFFER
  2
AcDbIdBuffer
  3
ObjectDBX Classes
 90
    32768
280
     0
281
     0
  0
CLASS
  1
DICTIONARYVAR
  2
AcDbDictionaryVar
  3
ObjectDBX Classes
 90
        0
280
     0
281
     0
  0
CLASS
  1
AM_DRAWING_MGR
  2
AcDmDwgMgr
  3
AcMechDwgViewMgmt
 90
        0
280
     0
281
     0
  0
CLASS
  1
AM_DWG_DOCUMENT
  2
AcDmDwgDocument
  3
AcMechDwgViewMgmt
 90
        0
280
     0
281
     0
  0
CLASS
  1
AM_DWG_SHEET
  2
AcDmSheet
  3
AcMechDwgViewMgmt
 90
        0
280
     0
281
     0
  0
CLASS
  1
AM_VIEWDIMPARMAP
  2
AcDmViewDimParMap
  3
AcMechDwgViewMgmt
 90
        0
280
     0
281
     0
  0
CLASS
  1
AM_DWGMGR_NAME
  2
AcDmDwgMgrName
  3
AcMechDwgViewMgmt
 90
        0
280
     0
281
     0
  0
CLASS
  1
AMDTMENUSTATEMGR
  2
AmdtMenuStateMgr
  3
McadcomServices
 90
        0
280
     0
281
     0
  0
CLASS
  1
AMDTMCOMMENUSTATE
  2
AmdtMcomMenuState
  3
McadcomServices
 90
        0
280
     0
281
     0
  0
CLASS
  1
MAPIAMMOUDLE
  2
MApiAmModule
  3
MApiAmServices
 90
        0
280
     0
281
     0
  0
CLASS
  1
AMDTADMENUSTATE
  2
AmdtAdMenuState
  3
DesignerServices
 90
        0
280
     0
281
     0
  0
CLASS
  1
ADAPPL
  2
AcAdAppl
  3
DesignerServices
 90
        0
280
     0
281
     0
  0
CLASS
  1
DEPMGR
  2
AcAdDepMgr
  3
DesignerServices
 90
        0
280
     0
281
     0
  0
CLASS
  1
PARAMMGR
  2
AcAdParamMgr
  3
DesignerServices
 90
        0
280
     0
281
     0
  0
CLASS
  1
PARAMSCOPE
  2
AcAdParamScope
  3
DesignerServices
 90
        0
280
     0
281
     0
  0
CLASS
  1
NAMEDAPPL
  2
AcAdNamedAppl
  3
DesignerServices
 90
        0
280
     0
281
     0
  0
CLASS
  1
AMDTDMMENUSTATE
  2
AmdtDmMenuState
  3
AcMechDwgViewMgmt
 90
        0
280
     0
281
     0
  0
CLASS
  1
AMDTAMMENUSTATE
  2
AmdtAmMenuState
  3
DesignerAssemblies
 90
        0
280
     0
281
     0
  0
CLASS
  1
ACAMPROJECT
  2
AcAmProject
  3
DesignerAssemblies
 90
        0
280
     0
281
     0
  0
CLASS
  1
ACAMGRCOMPDEF
  2
AcAmGrCompDef
  3
DesignerAssemblies
 90
        0
280
     0
281
     0
  0
CLASS
  1
ACCMCONTEXT
  2
AcCmContext
  3
DesignerAssemblies
 90
        0
280
     0
281
     0
  0
CLASS
  1
ACAMCOMPDEF
  2
AcAmCompDef
  3
DesignerAssemblies
 90
        0
280
     0
281
     0
  0
CLASS
  1
ACAMCOMPDEFMGR
  2
AcAmCompDefMgr
  3
DesignerAssemblies
 90
        0
280
     0
281
     0
  0
CLASS
  1
AMCONTEXTMGR
  2
AcAmContextMgr
  3
DesignerAssemblies
 90
        0
280
     0
281
     0
  0
CLASS
  1
ACAMCONTEXTMODELER
  2
AcAmContextModeler
  3
DesignerAssemblies
 90
        0
280
     0
281
     0
  0
CLASS
  1
ACMTHREADLINESTANDARDISO
  2
AmdtThreadLineStdISO
  3
"Amdt_StdImp|Product Description: AutoCAD Mechanical 2004 DX|Company: Autodesk"
 90
        0
280
     0
281
     0
  0
CLASS
  1
CATALOGSTATE
  2
AcAmCatalogState
  3
DesignerAssemblies
 90
        0
280
     0
281
     0
  0
CLASS
  1
ACAMGRCOMPDEFSET
  2
AcAmGrCompDefSet
  3
DesignerAssemblies
 90
        0
280
     0
281
     0
  0
CLASS
  1
AMDTBROWSERDBTAB
  2
AmdtBrowserDbTab
  3
McadcomServices
 90
        0
280
     0
281
     0
  0
CLASS
  1
CBROWSERAPPOBJECT
  2
CBrowserAppObject
  3
McadcomServices
 90
        0
280
     0
281
     0
  0
CLASS
  1
DM_PLACEHOLDER
  2
AcDmSelsetPlaceholder
  3
AcMechDwgViewMgmt
 90
        0
280
     0
281
     0
  0
CLASS
  1
TABLESTYLE
  2
AcDbTableStyle
  3
ObjectDBX Classes
 90
     2047
280
     0
281
     0
  0
CLASS
  1
VAACXREFPANELOBJECT
  2
VaAcXREFPanelObject
  3
VAAC_ADDIN
 90
    32768
280
     0
281
     0
  0
CLASS
  1
VAACIMAGEINVENTORY
  2
VaAcImageInventory
  3
VAAC_ADDIN
 90
    32768
280
     0
281
     0
  0
CLASS
  1
AMDTNOTETEMPLATEDB
  2
AmdtNoteTemplateDB
  3
AMDT_STDIMP_MODULE_NAME
 90
        0
280
     0
281
     0
  0
CLASS
  1
ACMBOM
  2
AcmBom
  3
"AcmSymBB|Product Description: AutoCAD Mechanical 2004 DX|Company: Autodesk"
 90
    32768
280
     0
281
     0
  0
CLASS
  1
AMDTFORMULAUPDATEDISPATCHER
  2
AmdtFormulaUpdateDispatcher
  3
AcMeServices
 90
    32768
280
     0
281
     0
  0
CLASS
  1
ACMPARTLIST
  2
AcmPartList
  3
"AcmSymBB|Product Description: AutoCAD Mechanical 2004 DX|Company: Autodesk"
 90
    33791
280
     0
281
     1
  0
CLASS
  1
ACAMGFILTERDAT
  2
AcAmgFilterDat
  3
"AcadM|Product Description: AutoCAD Mechanical 2000|Company: Autodesk"
 90
        0
280
     0
281
     0
  0
CLASS
  1
DIMASSOC
  2
AcDbDimAssoc
  3
"AcDbDimAssoc|Product Desc:     AcDim ARX App For Dimension|Company:          Autodesk, Inc.|WEB Address:      www.autodesk.com"
 90
        0
280
     0
281
     0
  0
CLASS
  1
AMDTNOTE
  2
AmdtNote
  3
"AcmSymBB|Product Description: AutoCAD Mechanical 2004 DX|Company: Autodesk"
 90
     1023
280
     0
281
     1
  0
CLASS
  1
ACRFATTGENMGR
  2
AcRfAttGeneralMgr
  3
AcAttribServices
 90
        0
280
     0
281
     0
  0
ENDSEC
  0
SECTION
  2
TABLES
  0
TABLE
  2
VPORT
  5
8
330
0
100
AcDbSymbolTable
 70
     7
  0
VPORT
  5
2071
330
8
100
AcDbSymbolTableRecord
100
AcDbViewportTableRecord
  2
*Active
 70
     0
 10
0.0
 20
0.0
 11
1.0
 21
1.0
 12
279.9548906668798
 22
235.9859760221229
 13
0.0
 23
0.0
 14
2.5
 24
2.5
 15
10.0
 25
10.0
 16
0.0
 26
0.0
 36
1.0
 17
0.0
 27
0.0
 37
0.0
 40
315.8995591041887
 41
1.421195652173913
 42
50.0
 43
0.0
 44
0.0
 50
0.0
 51
0.0
 71
     0
 72
   100
 73
     1
 74
     3
 75
     0
 76
     0
 77
     0
 78
     0
281
     0
 65
     1
110
0.0
120
0.0
130
0.0
111
1.0
121
0.0
131
0.0
112
0.0
122
1.0
132
0.0
 79
     0
146
0.0
  0
ENDTAB
  0
TABLE
  2
LTYPE
  5
5
330
0
100
AcDbSymbolTable
 70
    15
  0
LTYPE
  5
14
330
5
100
AcDbSymbolTableRecord
100
AcDbLinetypeTableRecord
  2
ByBlock
 70
     0
  3

 72
    65
 73
     0
 40
0.0
  0
LTYPE
  5
15
330
5
100
AcDbSymbolTableRecord
100
AcDbLinetypeTableRecord
  2
ByLayer
 70
     0
  3

 72
    65
 73
     0
 40
0.0
  0
LTYPE
  5
16
330
5
100
AcDbSymbolTableRecord
100
AcDbLinetypeTableRecord
  2
Continuous
 70
     0
  3
Solid line
 72
    65
 73
     0
 40
0.0
  0
LTYPE
  5
64
330
5
100
AcDbSymbolTableRecord
100
AcDbLinetypeTableRecord
  2
AM_ISO02W050
 70
     0
  3
__ __ __ __ __ __ __ __ __ __ __ __ __ __ __
 72
    65
 73
     2
 40
7.5
 49
6.0
 74
     0
 49
-1.5
 74
     0
  0
LTYPE
  5
65
330
5
100
AcDbSymbolTableRecord
100
AcDbLinetypeTableRecord
  2
AM_ISO08W050
 70
     0
  3
____ . ____ . ____ . ____ . ____ . ____ . ____
 72
    65
 73
     4
 40
18.0
 49
12.0
 74
     0
 49
-1.5
 74
     0
 49
3.0
 74
     0
 49
-1.5
 74
     0
  0
LTYPE
  5
66
330
5
100
AcDbSymbolTableRecord
100
AcDbLinetypeTableRecord
  2
AM_ISO09W050
 70
     0
  3
_____ . . _____ . . _____ . . ____ .. ____
 72
    65
 73
     6
 40
22.5
 49
12.0
 74
     0
 49
-1.5
 74
     0
 49
3.0
 74
     0
 49
-1.5
 74
     0
 49
3.0
 74
     0
 49
-1.5
 74
     0
  0
LTYPE
  5
67
330
5
100
AcDbSymbolTableRecord
100
AcDbLinetypeTableRecord
  2
Amconstr
 70
     0
  3
_______________________
 72
    65
 73
     2
 40
9999.0
 49
9999.0
 74
     0
 49
0.0
 74
     0
  0
LTYPE
  5
68
330
5
100
AcDbSymbolTableRecord
100
AcDbLinetypeTableRecord
  2
AM_ISO08W050x2
 70
     0
  3
__ . __ . __ . __ . __ . __
 72
    65
 73
     4
 40
9.0
 49
6.0
 74
     0
 49
-0.75
 74
     0
 49
1.5
 74
     0
 49
-0.75
 74
     0
  0
LTYPE
  5
69
330
5
100
AcDbSymbolTableRecord
100
AcDbLinetypeTableRecord
  2
AM_ISO02W050x2
 70
     0
  3
 _ _ _ _ _ _ _ _ _ _ _ _
 72
    65
 73
     2
 40
3.75
 49
3.0
 74
     0
 49
-0.75
 74
     0
  0
LTYPE
  5
6C
330
5
100
AcDbSymbolTableRecord
100
AcDbLinetypeTableRecord
  2
Amzigzag
 70
     0
  3
/\/-/\/-/\/-/\/-/\/-/\/
 72
    65
 73
     2
 40
11.0001
 49
0.0001
 74
     4
 75
   135
340
6B
 46
0.04
 50
0.0
 44
0.0
 45
0.0
 49
-11.0
 74
     0
  0
LTYPE
  5
7A
330
5
100
AcDbSymbolTableRecord
100
AcDbLinetypeTableRecord
  2
ACISOWELD
 70
     0
  3
_ _ _ _ _
 72
    65
 73
     2
 40
2.0
 49
2.0
 74
     0
 49
-1.0
 74
     0
  0
LTYPE
  5
7B
330
5
100
AcDbSymbolTableRecord
100
AcDbLinetypeTableRecord
  2
ACISOTGB
 70
     0
  3
__ . . __ . .
 72
    65
 73
     6
 40
9.0
 49
4.0
 74
     0
 49
-1.0
 74
     0
 49
1.0
 74
     0
 49
-1.0
 74
     0
 49
1.0
 74
     0
 49
-1.0
 74
     0
  0
LTYPE
  5
7C
330
5
100
AcDbSymbolTableRecord
100
AcDbLinetypeTableRecord
  2
ACISOTGL
 70
     0
  3
_ _ _ _ _
 72
    65
 73
     2
 40
3.0
 49
2.0
 74
     0
 49
-1.0
 74
     0
  0
LTYPE
  5
7E
330
5
100
AcDbSymbolTableRecord
100
AcDbLinetypeTableRecord
  2
CENTER
 70
     0
  3
__ . __
 72
    65
 73
     4
 40
7.0
 49
4.0
 74
     0
 49
-1.0
 74
     0
 49
1.0
 74
     0
 49
-1.0
 74
     0
  0
LTYPE
  5
D8
330
5
100
AcDbSymbolTableRecord
100
AcDbLinetypeTableRecord
  2
HIDDEN
 70
     0
  3
Hidden __ __ __ __ __ __ __ __ __ __ __ __ __ _
 72
    65
 73
     2
 40
9.524999999999998
 49
6.349999999999999
 74
     0
 49
-3.174999999999999
 74
     0
  0
LTYPE
  5
D9
330
5
100
AcDbSymbolTableRecord
100
AcDbLinetypeTableRecord
  2
PHANTOM2
 70
     0
  3
Phantom (.5x) ___ _ _ ___ _ _ ___ _ _ ___ _ _
 72
    65
 73
     6
 40
31.75
 49
15.875
 74
     0
 49
-3.174999999999999
 74
     0
 49
3.174999999999999
 74
     0
 49
-3.174999999999999
 74
     0
 49
3.174999999999999
 74
     0
 49
-3.174999999999999
 74
     0
  0
ENDTAB
  0
TABLE
  2
LAYER
  5
2
102
{ACAD_XDICTIONARY
360
3F9
102
}
330
0
100
AcDbSymbolTable
 70
    11
  0
LAYER
  5
10
330
2
100
AcDbSymbolTableRecord
100
AcDbLayerTableRecord
  2
0
 70
     0
 62
     7
  6
Continuous
370
    -3
390
F
  0
LAYER
  5
B7D
330
2
100
AcDbSymbolTableRecord
100
AcDbLayerTableRecord
  2
Defpoints
 70
     0
 62
    -7
  6
Continuous
290
     0
370
    -3
390
F
  0
LAYER
  5
B7E
330
2
100
AcDbSymbolTableRecord
100
AcDbLayerTableRecord
  2
AM_5
 70
     0
 62
     5
  6
Continuous
370
    50
390
F
  0
LAYER
  5
B7F
330
2
100
AcDbSymbolTableRecord
100
AcDbLayerTableRecord
  2
AM_7
 70
     0
 62
     1
  6
CENTER
370
    25
390
F
  0
LAYER
  5
B80
330
2
100
AcDbSymbolTableRecord
100
AcDbLayerTableRecord
  2
圖層4
 70
     0
 62
     7
  6
Continuous
370
    -3
390
F
  0
LAYER
  5
B81
330
2
100
AcDbSymbolTableRecord
100
AcDbLayerTableRecord
  2
AM_VIS
 70
     0
 62
     7
  6
Continuous
370
    50
390
F
  0
LAYER
  5
1ECA
330
2
100
AcDbSymbolTableRecord
100
AcDbLayerTableRecord
  2
LOGO
 70
     0
 62
     7
  6
Continuous
370
    -3
390
F
  0
ENDTAB
  0
TABLE
  2
STYLE
  5
3
330
0
100
AcDbSymbolTable
 70
     7
  0
STYLE
  5
11
330
3
100
AcDbSymbolTableRecord
100
AcDbTextStyleTableRecord
  2
STANDARD
 70
     0
 40
0.0
 41
1.0
 50
0.0
 71
     0
 42
3.0
  3
ISOCP.SHX
  4
CHINESET.SHX
  0
STYLE
  5
6B
330
3
100
AcDbSymbolTableRecord
100
AcDbTextStyleTableRecord
  2

 70
     1
 40
0.0
 41
1.0
 50
0.0
 71
     0
 42
2.5
  3
ltypeshp.shx
  4

  0
STYLE
  5
6D
330
3
100
AcDbSymbolTableRecord
100
AcDbTextStyleTableRecord
  2
ACISOTS
 70
     0
 40
1.0
 41
1.0
 50
0.0
 71
     0
 42
1.0
  3
isocp.shx
  4
chineset.shx
  0
STYLE
  5
79
330
3
100
AcDbSymbolTableRecord
100
AcDbTextStyleTableRecord
  2
ACISOGDT
 70
     0
 40
0.0
 41
1.0
 50
0.0
 71
     0
 42
2.5
  3
amgdt.shx
  4
chineset.shx
  0
STYLE
  5
1ECB
330
3
100
AcDbSymbolTableRecord
100
AcDbTextStyleTableRecord
  2
CHINESET
 70
     0
 40
0.0
 41
1.0
 50
0.0
 71
     0
 42
3.0
  3
simplex.shx
  4
CHINESET.SHX
  0
ENDTAB
  0
TABLE
  2
VIEW
  5
6
330
0
100
AcDbSymbolTable
 70
     0
  0
ENDTAB
  0
TABLE
  2
UCS
  5
7
330
0
100
AcDbSymbolTable
 70
     0
  0
ENDTAB
  0
TABLE
  2
APPID
  5
9
330
0
100
AcDbSymbolTable
 70
    20
  0
APPID
  5
12
330
9
100
AcDbSymbolTableRecord
100
AcDbRegAppTableRecord
  2
ACAD
 70
     0
  0
APPID
  5
46
330
9
100
AcDbSymbolTableRecord
100
AcDbRegAppTableRecord
  2
MCAD_NO_VIS
 70
     0
  0
APPID
  5
47
330
9
100
AcDbSymbolTableRecord
100
AcDbRegAppTableRecord
  2
ACAD_TEMP_GRAPHIC
 70
     0
  0
APPID
  5
58
330
9
100
AcDbSymbolTableRecord
100
AcDbRegAppTableRecord
  2
ACATTRIBSERVICES
 70
     0
  0
APPID
  5
EE
330
9
100
AcDbSymbolTableRecord
100
AcDbRegAppTableRecord
  2
AD_DRAW
 70
     0
  0
APPID
  5
10C
330
9
100
AcDbSymbolTableRecord
100
AcDbRegAppTableRecord
  2
DESIGNERASSEMBLIES
 70
     0
  0
APPID
  5
111
330
9
100
AcDbSymbolTableRecord
100
AcDbRegAppTableRecord
  2
ACADM_DIM_EDIT
 70
     0
  0
APPID
  5
112
330
9
100
AcDbSymbolTableRecord
100
AcDbRegAppTableRecord
  2
AMDT_DM_ADJ
 70
     0
  0
APPID
  5
22C
330
9
100
AcDbSymbolTableRecord
100
AcDbRegAppTableRecord
  2
ACAD_DSTYLE_DIMTEXT_FILL
 70
     0
  0
APPID
  5
452
330
9
100
AcDbSymbolTableRecord
100
AcDbRegAppTableRecord
  2
GENIUS_GENOENT_13
 70
     0
  0
APPID
  5
453
330
9
100
AcDbSymbolTableRecord
100
AcDbRegAppTableRecord
  2
GENIUS_GENOBJ-N-CRS_13
 70
     0
  0
APPID
  5
454
330
9
100
AcDbSymbolTableRecord
100
AcDbRegAppTableRecord
  2
GENIUS_GENOLIS_13
 70
     0
  0
APPID
  5
455
330
9
100
AcDbSymbolTableRecord
100
AcDbRegAppTableRecord
  2
GENIUS_GENODEF_13
 70
     0
  0
APPID
  5
456
330
9
100
AcDbSymbolTableRecord
100
AcDbRegAppTableRecord
  2
GENIUS_GENOREF_13
 70
     0
  0
APPID
  5
6F3
330
9
100
AcDbSymbolTableRecord
100
AcDbRegAppTableRecord
  2
ACAD_PSEXT
 70
     0
  0
APPID
  5
808
330
9
100
AcDbSymbolTableRecord
100
AcDbRegAppTableRecord
  2
GENIUS_GENDTOL_13
 70
     0
  0
APPID
  5
B89
330
9
100
AcDbSymbolTableRecord
100
AcDbRegAppTableRecord
  2
GENIUS_GENOBJ-N-CEN_13
 70
     0
  0
APPID
  5
1340
330
9
100
AcDbSymbolTableRecord
100
AcDbRegAppTableRecord
  2
GENIUS_GENCEN_19
 70
     0
  0
APPID
  5
1ECC
330
9
100
AcDbSymbolTableRecord
100
AcDbRegAppTableRecord
  2
GENIUS_GENREC_14
 70
     0
  0
APPID
  5
1ECD
330
9
100
AcDbSymbolTableRecord
100
AcDbRegAppTableRecord
  2
GENIUS_GENOBJ-N-REC_13
 70
     0
  0
ENDTAB
  0
TABLE
  2
DIMSTYLE
  5
A
330
0
100
AcDbSymbolTable
 70
    11
100
AcDbDimStyleTable
 71
     3
340
81
340
8B
340
86
  0
DIMSTYLE
105
81
330
A
100
AcDbSymbolTableRecord
100
AcDbDimStyleTableRecord
  2
AM_ISO
 70
     0
  4
"
 41
3.0
 42
1.5
 43
8.0
 44
1.5
 47
0.1
 48
0.1
 73
     0
 74
     0
 77
     1
 78
     8
 79
     2
140
3.5
141
0.0
143
0.0393701
146
0.6
147
1.0
172
     1
176
   256
177
   256
178
   256
271
     2
272
     2
283
     0
284
     8
340
11
371
    -1
372
    -1
  0
DIMSTYLE
105
82
330
A
100
AcDbSymbolTableRecord
100
AcDbDimStyleTableRecord
  2
AM_ISO$3
 70
     0
  4
"
 41
3.0
 42
1.5
 43
8.0
 44
1.5
 47
0.1
 48
0.1
 73
     0
 77
     1
 78
     8
 79
     2
140
3.5
141
0.0
143
0.0393701
146
0.6
147
1.0
176
   256
177
   256
178
   256
271
     2
272
     2
283
     0
284
     8
288
     1
289
     0
340
11
371
    -1
372
    -1
  0
DIMSTYLE
105
83
330
A
100
AcDbSymbolTableRecord
100
AcDbDimStyleTableRecord
  2
AM_ISO$4
 70
     0
  4
"
 41
3.0
 42
1.5
 43
8.0
 44
1.5
 47
0.1
 48
0.1
 73
     0
 77
     1
 78
     8
 79
     2
140
3.5
141
0.0
143
0.0393701
146
0.6
147
1.0
176
   256
177
   256
178
   256
271
     2
272
     2
283
     0
284
     8
288
     1
289
     0
340
11
371
    -1
372
    -1
  0
DIMSTYLE
105
84
330
A
100
AcDbSymbolTableRecord
100
AcDbDimStyleTableRecord
  2
AM_ISO$6
 70
     0
  4
"
 41
3.0
 42
1.5
 43
8.0
 44
1.5
 47
0.1
 48
0.1
 73
     0
 74
     0
 78
     8
 79
     2
140
3.5
141
0.0
143
0.0393701
146
0.6
147
1.0
172
     1
176
   256
177
   256
178
   256
271
     2
272
     2
283
     0
284
     8
340
11
371
    -1
372
    -1
  0
DIMSTYLE
105
85
330
A
100
AcDbSymbolTableRecord
100
AcDbDimStyleTableRecord
  2
AM_ISO$7
 70
     0
  4
"
 41
3.0
 42
1.5
 43
8.0
 44
1.5
 47
0.1
 48
0.1
 73
     0
 74
     0
 77
     1
 78
     8
 79
     2
140
5.0
141
0.0
143
0.0393701
146
0.6
147
1.0
172
     1
176
   256
177
   256
178
   256
271
     2
272
     2
283
     0
284
     8
340
11
371
    -1
372
    -1
  0
DIMSTYLE
105
86
330
A
100
AcDbSymbolTableRecord
100
AcDbDimStyleTableRecord
  2
AM_ISO$SF
 70
     0
  4
"
 41
2.5
 42
1.0
 43
10.0
 44
1.0
 47
0.1
 48
0.1
 73
     0
 74
     0
 75
     1
 76
     1
 77
     1
 78
     8
 79
     2
140
3.5
141
0.0
143
0.0393701
146
0.71
147
1.5
172
     1
176
   256
177
   256
178
     2
271
     2
272
     3
274
     4
283
     0
284
     8
340
11
371
    -1
372
    -1
  0
DIMSTYLE
105
8B
330
A
100
AcDbSymbolTableRecord
100
AcDbDimStyleTableRecord
  2
AM_ISO$SH
 70
     0
  4
"
 41
2.5
 42
1.0
 43
10.0
 44
1.0
 47
0.1
 48
0.1
 73
     0
 74
     0
 75
     1
 76
     1
 77
     1
 78
     8
 79
     2
140
3.5
141
0.0
143
0.0393701
144
2.0
146
0.71
147
1.5
172
     1
173
     1
176
   256
177
   256
178
     2
271
     2
272
     3
274
     4
283
     0
284
     8
340
11
343
87
371
    -1
372
    -1
  0
DIMSTYLE
105
40B
102
{ACAD_REACTORS
330
1D8E
102
}
330
A
100
AcDbSymbolTableRecord
100
AcDbDimStyleTableRecord
  2
AM_ISO$0
 70
     0
  4
"
 41
3.0
 42
1.5
 43
8.0
 44
1.5
 47
0.1
 48
0.1
 73
     0
 74
     0
 77
     1
 78
     8
 79
     2
140
3.5
141
0.0
143
0.0393701
146
0.6
147
1.0
172
     1
176
   256
177
   256
178
   256
271
     2
272
     2
283
     0
284
     8
340
11
371
    -1
372
    -1
  0
DIMSTYLE
105
B88
102
{ACAD_REACTORS
330
E4D
330
E4F
330
E4C
330
E4B
330
E52
330
E4E
330
E4A
330
E47
330
E49
330
E48
330
E51
330
E50
330
E54
330
112C
330
112D
330
112E
330
112F
330
1130
330
1131
330
1132
330
1133
330
1134
330
1135
330
1136
330
1137
102
}
330
A
100
AcDbSymbolTableRecord
100
AcDbDimStyleTableRecord
  2
STANDARD
 70
     0
 41
3.0
 42
1.5
 43
12.0
 44
2.0
 47
0.01
 48
0.01
 73
     0
 74
     0
 77
     1
 78
     8
 79
     2
140
3.5
141
3.0
146
0.6
147
0.8
172
     1
176
   256
177
   256
178
   256
271
     2
272
     2
283
     0
284
     8
340
11
371
    -1
372
    -1
  0
ENDTAB
  0
TABLE
  2
BLOCK_RECORD
  5
1
330
0
100
AcDbSymbolTable
 70
    72
  0
BLOCK_RECORD
  5
1F
102
{ACAD_XDICTIONARY
360
8F
102
}
330
1
100
AcDbSymbolTableRecord
100
AcDbBlockTableRecord
  2
*Model_Space
340
22
  0
BLOCK_RECORD
  5
1B
330
1
100
AcDbSymbolTableRecord
100
AcDbBlockTableRecord
  2
*Paper_Space
340
1E
  0
BLOCK_RECORD
  5
23
330
1
100
AcDbSymbolTableRecord
100
AcDbBlockTableRecord
  2
*Paper_Space0
340
26
  0
BLOCK_RECORD
  5
87
330
1
100
AcDbSymbolTableRecord
100
AcDbBlockTableRecord
  2
GENAXEH
340
0
  0
BLOCK_RECORD
  5
1150
330
1
100
AcDbSymbolTableRecord
100
AcDbBlockTableRecord
  2
*D18
340
0
  0
BLOCK_RECORD
  5
115C
330
1
100
AcDbSymbolTableRecord
100
AcDbBlockTableRecord
  2
*D19
340
0
  0
BLOCK_RECORD
  5
116A
330
1
100
AcDbSymbolTableRecord
100
AcDbBlockTableRecord
  2
*D20
340
0
  0
BLOCK_RECORD
  5
1178
330
1
100
AcDbSymbolTableRecord
100
AcDbBlockTableRecord
  2
*D21
340
0
  0
BLOCK_RECORD
  5
1184
330
1
100
AcDbSymbolTableRecord
100
AcDbBlockTableRecord
  2
*D22
340
0
  0
BLOCK_RECORD
  5
1190
330
1
100
AcDbSymbolTableRecord
100
AcDbBlockTableRecord
  2
*D23
340
0
  0
BLOCK_RECORD
  5
119C
330
1
100
AcDbSymbolTableRecord
100
AcDbBlockTableRecord
  2
*D24
340
0
  0
BLOCK_RECORD
  5
11A8
330
1
100
AcDbSymbolTableRecord
100
AcDbBlockTableRecord
  2
*D25
340
0
  0
BLOCK_RECORD
  5
11B4
330
1
100
AcDbSymbolTableRecord
100
AcDbBlockTableRecord
  2
*D26
340
0
  0
BLOCK_RECORD
  5
11C2
330
1
100
AcDbSymbolTableRecord
100
AcDbBlockTableRecord
  2
*D27
340
0
  0
BLOCK_RECORD
  5
11CE
330
1
100
AcDbSymbolTableRecord
100
AcDbBlockTableRecord
  2
*D28
340
0
  0
BLOCK_RECORD
  5
11DA
330
1
100
AcDbSymbolTableRecord
100
AcDbBlockTableRecord
  2
*D29
340
0
  0
BLOCK_RECORD
  5
1E27
330
1
100
AcDbSymbolTableRecord
100
AcDbBlockTableRecord
  2
*D66
340
0
  0
BLOCK_RECORD
  5
2057
330
1
100
AcDbSymbolTableRecord
100
AcDbBlockTableRecord
  2
*S69
340
0
  0
BLOCK_RECORD
  5
205F
330
1
100
AcDbSymbolTableRecord
100
AcDbBlockTableRecord
  2
*S70
340
0
  0
BLOCK_RECORD
  5
2067
330
1
100
AcDbSymbolTableRecord
100
AcDbBlockTableRecord
  2
*S71
340
0
  0
ENDTAB
  0
ENDSEC
  0
SECTION
  2
BLOCKS
  0
BLOCK
  5
20
330
1F
100
AcDbEntity
  8
0
100
AcDbBlockBegin
  2
*Model_Space
 70
     0
 10
0.0
 20
0.0
 30
0.0
  3
*Model_Space
  1

  0
ENDBLK
  5
21
330
1F
100
AcDbEntity
  8
0
100
AcDbBlockEnd
  0
BLOCK
  5
1C
330
1B
100
AcDbEntity
 67
     1
  8
0
100
AcDbBlockBegin
  2
*Paper_Space
 70
     0
 10
0.0
 20
0.0
 30
0.0
  3
*Paper_Space
  1

  0
ENDBLK
  5
1D
330
1B
100
AcDbEntity
 67
     1
  8
0
100
AcDbBlockEnd
  0
BLOCK
  5
24
330
23
100
AcDbEntity
  8
0
100
AcDbBlockBegin
  2
*Paper_Space0
 70
     0
 10
0.0
 20
0.0
 30
0.0
  3
*Paper_Space0
  1

  0
ENDBLK
  5
25
330
23
100
AcDbEntity
  8
0
100
AcDbBlockEnd
  0
BLOCK
  5
89
330
87
100
AcDbEntity
  8
0
100
AcDbBlockBegin
  2
GENAXEH
 70
     0
 10
0.0
 20
0.0
 30
0.0
  3
GENAXEH
  1

  0
LINE
  5
88
330
87
100
AcDbEntity
  8
0
100
AcDbLine
 10
-1.0
 20
0.0
 30
0.0
 11
1.0
 21
0.0
 31
0.0
  0
ENDBLK
  5
8A
330
87
100
AcDbEntity
  8
0
100
AcDbBlockEnd
  0
BLOCK
  5
115A
330
1150
100
AcDbEntity
  8
0
100
AcDbBlockBegin
  2
*D18
 70
     1
 10
0.0
 20
0.0
 30
0.0
  3
*D18
  1

  0
LINE
  5
11F2
330
1150
100
AcDbEntity
  8
AM_5
100
AcDbLine
 10
210.2254251603238
 20
198.4568623900394
 30
0.0
 11
172.4754251603237
 21
198.4568623900394
 31
0.0
  0
LINE
  5
11F3
330
1150
100
AcDbEntity
  8
AM_5
100
AcDbLine
 10
210.2254251603238
 20
233.4568623900394
 30
0.0
 11
172.4754251603237
 21
233.4568623900394
 31
0.0
  0
LINE
  5
11F4
330
1150
100
AcDbEntity
  8
AM_5
100
AcDbLine
 10
175.4754251603237
 20
202.9568623900395
 30
0.0
 11
175.4754251603237
 21
228.9568623900394
 31
0.0
  0
SOLID
  5
11F5
330
1150
100
AcDbEntity
  8
AM_5
100
AcDbTrace
 10
174.7254251603237
 20
202.9568623900395
 30
0.0
 11
176.2254251603238
 21
202.9568623900395
 31
0.0
 12
175.4754251603237
 22
198.4568623900394
 32
0.0
 13
175.4754251603237
 23
198.4568623900394
 33
0.0
  0
SOLID
  5
11F6
330
1150
100
AcDbEntity
  8
AM_5
100
AcDbTrace
 10
174.7254251603237
 20
228.9568623900394
 30
0.0
 11
176.2254251603238
 21
228.9568623900394
 31
0.0
 12
175.4754251603237
 22
233.4568623900394
 32
0.0
 13
175.4754251603237
 23
233.4568623900394
 33
0.0
  0
MTEXT
  5
11F7
330
1150
100
AcDbEntity
  8
AM_5
100
AcDbMText
 10
171.6504251603237
 20
215.9568623900395
 30
0.0
 40
5.25
 41
0.0
 71
     5
 72
     1
  1
35
 11
0.0000000000000001
 21
1.0
 31
0.0
 73
     1
 44
1.0
1001
ACAD
1000
MTEXTBEGIN
1070
    73
1070
     1
1070
    44
1040
1.0
1070
    74
1070
     0
1000
MTEXTEND
  0
POINT
  5
11F8
330
1150
100
AcDbEntity
  8
Defpoints
 62
     0
100
AcDbPoint
 10
212.4754251603238
 20
198.4568623900394
 30
0.0
  0
POINT
  5
11F9
330
1150
100
AcDbEntity
  8
Defpoints
 62
     0
100
AcDbPoint
 10
212.4754251603238
 20
233.4568623900394
 30
0.0
  0
POINT
  5
11FA
330
1150
100
AcDbEntity
  8
Defpoints
 62
     0
100
AcDbPoint
 10
175.4754251603237
 20
233.4568623900394
 30
0.0
  0
ENDBLK
  5
115B
330
1150
100
AcDbEntity
  8
0
100
AcDbBlockEnd
  0
BLOCK
  5
1168
330
115C
100
AcDbEntity
  8
0
100
AcDbBlockBegin
  2
*D19
 70
     1
 10
0.0
 20
0.0
 30
0.0
  3
*D19
  1

  0
LINE
  5
11FB
330
115C
100
AcDbEntity
  8
AM_5
100
AcDbLine
 10
210.2254251603238
 20
233.4568623900394
 30
0.0
 11
184.4754251603237
 21
233.4568623900394
 31
0.0
  0
LINE
  5
11FC
330
115C
100
AcDbEntity
  8
AM_5
100
AcDbLine
 10
219.6254251603239
 20
224.9568623900394
 30
0.0
 11
184.4754251603237
 21
224.9568623900394
 31
0.0
  0
LINE
  5
11FD
330
115C
100
AcDbEntity
  8
AM_5
100
AcDbLine
 10
187.4754251603237
 20
237.9568623900394
 30
0.0
 11
187.4754251603237
 21
242.4568623900395
 31
0.0
  0
LINE
  5
11FE
330
115C
100
AcDbEntity
  8
AM_5
100
AcDbLine
 10
187.4754251603237
 20
220.4568623900394
 30
0.0
 11
187.4754251603237
 21
205.9894002697936
 31
0.0
  0
LINE
  5
11FF
330
115C
100
AcDbEntity
  8
AM_5
100
AcDbLine
 10
187.4754251603237
 20
233.4568623900394
 30
0.0
 11
187.4754251603237
 21
224.9568623900394
 31
0.0
  0
SOLID
  5
1200
330
115C
100
AcDbEntity
  8
AM_5
100
AcDbTrace
 10
186.7254251603237
 20
237.9568623900394
 30
0.0
 11
188.2254251603237
 21
237.9568623900394
 31
0.0
 12
187.4754251603237
 22
233.4568623900394
 32
0.0
 13
187.4754251603237
 23
233.4568623900394
 33
0.0
  0
SOLID
  5
1201
330
115C
100
AcDbEntity
  8
AM_5
100
AcDbTrace
 10
186.7254251603237
 20
220.4568623900394
 30
0.0
 11
188.2254251603237
 21
220.4568623900394
 31
0.0
 12
187.4754251603237
 22
224.9568623900394
 32
0.0
 13
187.4754251603237
 23
224.9568623900394
 33
0.0
  0
MTEXT
  5
1202
330
115C
100
AcDbEntity
  8
AM_5
100
AcDbMText
 10
183.6504251603237
 20
210.9731313299165
 30
0.0
 40
5.25
 41
0.0
 71
     5
 72
     1
  1
8.5
 11
0.0000000000000001
 21
1.0
 31
0.0
 73
     1
 44
1.0
1001
ACAD
1000
MTEXTBEGIN
1070
    73
1070
     1
1070
    44
1040
1.0
1070
    74
1070
     0
1000
MTEXTEND
  0
POINT
  5
1203
330
115C
100
AcDbEntity
  8
Defpoints
 62
     0
100
AcDbPoint
 10
212.4754251603238
 20
233.4568623900394
 30
0.0
  0
POINT
  5
1204
330
115C
100
AcDbEntity
  8
Defpoints
 62
     0
100
AcDbPoint
 10
221.8754251603239
 20
224.9568623900394
 30
0.0
  0
POINT
  5
1205
330
115C
100
AcDbEntity
  8
Defpoints
 62
     0
100
AcDbPoint
 10
187.4754251603237
 20
224.9568623900394
 30
0.0
  0
ENDBLK
  5
1169
330
115C
100
AcDbEntity
  8
0
100
AcDbBlockEnd
  0
BLOCK
  5
1176
330
116A
100
AcDbEntity
  8
0
100
AcDbBlockBegin
  2
*D20
 70
     1
 10
0.0
 20
0.0
 30
0.0
  3
*D20
  1

  0
LINE
  5
1206
330
116A
100
AcDbEntity
  8
AM_5
100
AcDbLine
 10
210.2254251603238
 20
233.4568623900394
 30
0.0
 11
196.4754251603237
 21
233.4568623900394
 31
0.0
  0
LINE
  5
1207
330
116A
100
AcDbEntity
  8
AM_5
100
AcDbLine
 10
244.7254251603238
 20
230.4568623900394
 30
0.0
 11
196.4754251603237
 21
230.4568623900394
 31
0.0
  0
LINE
  5
1208
330
116A
100
AcDbEntity
  8
AM_5
100
AcDbLine
 10
199.4754251603237
 20
237.9568623900394
 30
0.0
 11
199.4754251603237
 21
242.4568623900394
 31
0.0
  0
LINE
  5
1209
330
116A
100
AcDbEntity
  8
AM_5
100
AcDbLine
 10
199.4754251603237
 20
225.9568623900394
 30
0.0
 11
199.4754251603237
 21
216.7394002697935
 31
0.0
  0
LINE
  5
120A
330
116A
100
AcDbEntity
  8
AM_5
100
AcDbLine
 10
199.4754251603237
 20
233.4568623900394
 30
0.0
 11
199.4754251603237
 21
230.4568623900394
 31
0.0
  0
SOLID
  5
120B
330
116A
100
AcDbEntity
  8
AM_5
100
AcDbTrace
 10
198.7254251603237
 20
237.9568623900394
 30
0.0
 11
200.2254251603238
 21
237.9568623900394
 31
0.0
 12
199.4754251603237
 22
233.4568623900394
 32
0.0
 13
199.4754251603237
 23
233.4568623900394
 33
0.0
  0
SOLID
  5
120C
330
116A
100
AcDbEntity
  8
AM_5
100
AcDbTrace
 10
198.7254251603237
 20
225.9568623900394
 30
0.0
 11
200.2254251603238
 21
225.9568623900394
 31
0.0
 12
199.4754251603237
 22
230.4568623900394
 32
0.0
 13
199.4754251603237
 23
230.4568623900394
 33
0.0
  0
MTEXT
  5
120D
330
116A
100
AcDbEntity
  8
AM_5
100
AcDbMText
 10
195.6504251603237
 20
219.0981313299165
 30
0.0
 40
5.25
 41
0.0
 71
     5
 72
     1
  1
3
 11
0.0000000000000001
 21
1.0
 31
0.0
 73
     1
 44
1.0
1001
ACAD
1000
MTEXTBEGIN
1070
    73
1070
     1
1070
    44
1040
1.0
1070
    74
1070
     0
1000
MTEXTEND
  0
POINT
  5
120E
330
116A
100
AcDbEntity
  8
Defpoints
 62
     0
100
AcDbPoint
 10
212.4754251603238
 20
233.4568623900394
 30
0.0
  0
POINT
  5
120F
330
116A
100
AcDbEntity
  8
Defpoints
 62
     0
100
AcDbPoint
 10
246.9754251603238
 20
230.4568623900394
 30
0.0
  0
POINT
  5
1210
330
116A
100
AcDbEntity
  8
Defpoints
 62
     0
100
AcDbPoint
 10
199.4754251603237
 20
230.4568623900394
 30
0.0
  0
ENDBLK
  5
1177
330
116A
100
AcDbEntity
  8
0
100
AcDbBlockEnd
  0
BLOCK
  5
1182
330
1178
100
AcDbEntity
  8
0
100
AcDbBlockBegin
  2
*D21
 70
     1
 10
0.0
 20
0.0
 30
0.0
  3
*D21
  1

  0
LINE
  5
1211
330
1178
100
AcDbEntity
  8
AM_5
100
AcDbLine
 10
224.9754251603238
 20
230.3068623900395
 30
0.0
 11
224.9754251603238
 21
248.4568623900394
 31
0.0
  0
LINE
  5
1212
330
1178
100
AcDbEntity
  8
AM_5
100
AcDbLine
 10
249.9754251603238
 20
230.3068623900395
 30
0.0
 11
249.9754251603238
 21
248.4568623900394
 31
0.0
  0
LINE
  5
1213
330
1178
100
AcDbEntity
  8
AM_5
100
AcDbLine
 10
229.4754251603237
 20
245.4568623900394
 30
0.0
 11
245.4754251603238
 21
245.4568623900394
 31
0.0
  0
SOLID
  5
1214
330
1178
100
AcDbEntity
  8
AM_5
100
AcDbTrace
 10
229.4754251603237
 20
246.2068623900394
 30
0.0
 11
229.4754251603237
 21
244.7068623900394
 31
0.0
 12
224.9754251603238
 22
245.4568623900394
 32
0.0
 13
224.9754251603238
 23
245.4568623900394
 33
0.0
  0
SOLID
  5
1215
330
1178
100
AcDbEntity
  8
AM_5
100
AcDbTrace
 10
245.4754251603238
 20
246.2068623900394
 30
0.0
 11
245.4754251603238
 21
244.7068623900394
 31
0.0
 12
249.9754251603238
 22
245.4568623900394
 32
0.0
 13
249.9754251603238
 23
245.4568623900394
 33
0.0
  0
MTEXT
  5
1216
330
1178
100
AcDbEntity
  8
AM_5
100
AcDbMText
 10
237.4754251603238
 20
249.2823791223229
 30
0.0
 40
5.25
 41
0.0
 71
     5
 72
     1
  1
25
 73
     1
 44
1.0
1001
ACAD
1000
MTEXTBEGIN
1070
    73
1070
     1
1070
    44
1040
1.0
1070
    74
1070
     0
1000
MTEXTEND
  0
POINT
  5
1217
330
1178
100
AcDbEntity
  8
Defpoints
 62
     0
100
AcDbPoint
 10
224.9754251603238
 20
228.0568623900395
 30
0.0
  0
POINT
  5
1218
330
1178
100
AcDbEntity
  8
Defpoints
 62
     0
100
AcDbPoint
 10
249.9754251603238
 20
228.0568623900395
 30
0.0
  0
POINT
  5
1219
330
1178
100
AcDbEntity
  8
Defpoints
 62
     0
100
AcDbPoint
 10
249.9754251603238
 20
245.4568623900394
 30
0.0
  0
ENDBLK
  5
1183
330
1178
100
AcDbEntity
  8
0
100
AcDbBlockEnd
  0
BLOCK
  5
118E
330
1184
100
AcDbEntity
  8
0
100
AcDbBlockBegin
  2
*D22
 70
     1
 10
0.0
 20
0.0
 30
0.0
  3
*D22
  1

  0
LINE
  5
121A
330
1184
100
AcDbEntity
  8
AM_5
100
AcDbLine
 10
210.2254251603238
 20
330.623290573404
 30
0.0
 11
172.4754251603238
 21
330.623290573404
 31
0.0
  0
LINE
  5
121B
330
1184
100
AcDbEntity
  8
AM_5
100
AcDbLine
 10
210.2254251603238
 20
308.3232905734039
 30
0.0
 11
172.4754251603237
 21
308.3232905734039
 31
0.0
  0
LINE
  5
121C
330
1184
100
AcDbEntity
  8
AM_5
100
AcDbLine
 10
175.4754251603238
 20
326.123290573404
 30
0.0
 11
175.4754251603237
 21
312.8232905734039
 31
0.0
  0
SOLID
  5
121D
330
1184
100
AcDbEntity
  8
AM_5
100
AcDbTrace
 10
174.7254251603238
 20
326.123290573404
 30
0.0
 11
176.2254251603238
 21
326.123290573404
 31
0.0
 12
175.4754251603238
 22
330.623290573404
 32
0.0
 13
175.4754251603238
 23
330.623290573404
 33
0.0
  0
SOLID
  5
121E
330
1184
100
AcDbEntity
  8
AM_5
100
AcDbTrace
 10
174.7254251603237
 20
312.8232905734039
 30
0.0
 11
176.2254251603238
 21
312.8232905734039
 31
0.0
 12
175.4754251603237
 22
308.3232905734039
 32
0.0
 13
175.4754251603237
 23
308.3232905734039
 33
0.0
  0
MTEXT
  5
121F
330
1184
100
AcDbEntity
  8
AM_5
100
AcDbMText
 10
171.6499084280403
 20
319.473290573404
 30
0.0
 40
5.25
 41
0.0
 71
     5
 72
     1
  1
22.3
 11
0.0000000000000001
 21
1.0
 31
0.0
 73
     1
 44
1.0
1001
ACAD
1000
MTEXTBEGIN
1070
    73
1070
     1
1070
    44
1040
1.0
1070
    74
1070
     0
1000
MTEXTEND
  0
POINT
  5
1220
330
1184
100
AcDbEntity
  8
Defpoints
 62
     0
100
AcDbPoint
 10
212.4754251603238
 20
330.623290573404
 30
0.0
  0
POINT
  5
1221
330
1184
100
AcDbEntity
  8
Defpoints
 62
     0
100
AcDbPoint
 10
212.4754251603238
 20
308.3232905734039
 30
0.0
  0
POINT
  5
1222
330
1184
100
AcDbEntity
  8
Defpoints
 62
     0
100
AcDbPoint
 10
175.4754251603237
 20
308.3232905734039
 30
0.0
  0
ENDBLK
  5
118F
330
1184
100
AcDbEntity
  8
0
100
AcDbBlockEnd
  0
BLOCK
  5
119A
330
1190
100
AcDbEntity
  8
0
100
AcDbBlockBegin
  2
*D23
 70
     1
 10
0.0
 20
0.0
 30
0.0
  3
*D23
  1

  0
LINE
  5
1223
330
1190
100
AcDbEntity
  8
AM_5
100
AcDbLine
 10
218.7254251603238
 20
327.9732905734039
 30
0.0
 11
184.4754251603238
 21
327.9732905734039
 31
0.0
  0
LINE
  5
1224
330
1190
100
AcDbEntity
  8
AM_5
100
AcDbLine
 10
243.7254251603238
 20
310.9732905734039
 30
0.0
 11
184.4754251603237
 21
310.9732905734039
 31
0.0
  0
LINE
  5
1225
330
1190
100
AcDbEntity
  8
AM_5
100
AcDbLine
 10
187.4754251603238
 20
323.4732905734039
 30
0.0
 11
187.4754251603237
 21
315.4732905734039
 31
0.0
  0
SOLID
  5
1226
330
1190
100
AcDbEntity
  8
AM_5
100
AcDbTrace
 10
186.7254251603238
 20
323.4732905734039
 30
0.0
 11
188.2254251603238
 21
323.4732905734039
 31
0.0
 12
187.4754251603238
 22
327.9732905734039
 32
0.0
 13
187.4754251603238
 23
327.9732905734039
 33
0.0
  0
SOLID
  5
1227
330
1190
100
AcDbEntity
  8
AM_5
100
AcDbTrace
 10
186.7254251603237
 20
315.4732905734039
 30
0.0
 11
188.2254251603237
 21
315.4732905734039
 31
0.0
 12
187.4754251603237
 22
310.9732905734039
 32
0.0
 13
187.4754251603237
 23
310.9732905734039
 33
0.0
  0
MTEXT
  5
1228
330
1190
100
AcDbEntity
  8
AM_5
100
AcDbMText
 10
183.6504251603237
 20
319.473290573404
 30
0.0
 40
5.25
 41
0.0
 71
     5
 72
     1
  1
17
 11
0.0000000000000001
 21
1.0
 31
0.0
 73
     1
 44
1.0
1001
ACAD
1000
MTEXTBEGIN
1070
    73
1070
     1
1070
    44
1040
1.0
1070
    74
1070
     0
1000
MTEXTEND
  0
POINT
  5
1229
330
1190
100
AcDbEntity
  8
Defpoints
 62
     0
100
AcDbPoint
 10
220.9754251603238
 20
327.9732905734039
 30
0.0
  0
POINT
  5
122A
330
1190
100
AcDbEntity
  8
Defpoints
 62
     0
100
AcDbPoint
 10
245.9754251603238
 20
310.9732905734039
 30
0.0
  0
POINT
  5
122B
330
1190
100
AcDbEntity
  8
Defpoints
 62
     0
100
AcDbPoint
 10
187.4754251603237
 20
310.9732905734039
 30
0.0
  0
ENDBLK
  5
119B
330
1190
100
AcDbEntity
  8
0
100
AcDbBlockEnd
  0
BLOCK
  5
11A6
330
119C
100
AcDbEntity
  8
0
100
AcDbBlockBegin
  2
*D24
 70
     1
 10
0.0
 20
0.0
 30
0.0
  3
*D24
  1

  0
LINE
  5
122C
330
119C
100
AcDbEntity
  8
AM_5
100
AcDbLine
 10
224.9754251603238
 20
334.2232905734039
 30
0.0
 11
224.9754251603238
 21
345.6232905734039
 31
0.0
  0
LINE
  5
122D
330
119C
100
AcDbEntity
  8
AM_5
100
AcDbLine
 10
249.9754251603238
 20
317.2232905734039
 30
0.0
 11
249.9754251603238
 21
345.6232905734039
 31
0.0
  0
LINE
  5
122E
330
119C
100
AcDbEntity
  8
AM_5
100
AcDbLine
 10
229.4754251603237
 20
342.6232905734039
 30
0.0
 11
245.4754251603238
 21
342.6232905734039
 31
0.0
  0
SOLID
  5
122F
330
119C
100
AcDbEntity
  8
AM_5
100
AcDbTrace
 10
229.4754251603237
 20
343.3732905734039
 30
0.0
 11
229.4754251603237
 21
341.8732905734039
 31
0.0
 12
224.9754251603238
 22
342.6232905734039
 32
0.0
 13
224.9754251603238
 23
342.6232905734039
 33
0.0
  0
SOLID
  5
1230
330
119C
100
AcDbEntity
  8
AM_5
100
AcDbTrace
 10
245.4754251603238
 20
343.3732905734039
 30
0.0
 11
245.4754251603238
 21
341.8732905734039
 31
0.0
 12
249.9754251603238
 22
342.6232905734039
 32
0.0
 13
249.9754251603238
 23
342.6232905734039
 33
0.0
  0
MTEXT
  5
1231
330
119C
100
AcDbEntity
  8
AM_5
100
AcDbMText
 10
237.4754251603238
 20
346.4488073056874
 30
0.0
 40
5.25
 41
0.0
 71
     5
 72
     1
  1
25
 73
     1
 44
1.0
1001
ACAD
1000
MTEXTBEGIN
1070
    73
1070
     1
1070
    44
1040
1.0
1070
    74
1070
     0
1000
MTEXTEND
  0
POINT
  5
1232
330
119C
100
AcDbEntity
  8
Defpoints
 62
     0
100
AcDbPoint
 10
224.9754251603238
 20
331.9732905734039
 30
0.0
  0
POINT
  5
1233
330
119C
100
AcDbEntity
  8
Defpoints
 62
     0
100
AcDbPoint
 10
249.9754251603238
 20
314.9732905734039
 30
0.0
  0
POINT
  5
1234
330
119C
100
AcDbEntity
  8
Defpoints
 62
     0
100
AcDbPoint
 10
249.9754251603238
 20
342.6232905734039
 30
0.0
  0
ENDBLK
  5
11A7
330
119C
100
AcDbEntity
  8
0
100
AcDbBlockEnd
  0
BLOCK
  5
11B2
330
11A8
100
AcDbEntity
  8
0
100
AcDbBlockBegin
  2
*D25
 70
     1
 10
0.0
 20
0.0
 30
0.0
  3
*D25
  1

  0
LINE
  5
1235
330
11A8
100
AcDbEntity
  8
AM_5
100
AcDbLine
 10
211.4754251603238
 20
307.0732905734039
 30
0.0
 11
211.4754251603238
 21
293.323290573404
 31
0.0
  0
LINE
  5
1236
330
11A8
100
AcDbEntity
  8
AM_5
100
AcDbLine
 10
237.4754251603238
 20
307.5232905734039
 30
0.0
 11
237.4754251603238
 21
293.323290573404
 31
0.0
  0
LINE
  5
1237
330
11A8
100
AcDbEntity
  8
AM_5
100
AcDbLine
 10
215.9754251603238
 20
296.3232905734039
 30
0.0
 11
232.9754251603238
 21
296.3232905734039
 31
0.0
  0
SOLID
  5
1238
330
11A8
100
AcDbEntity
  8
AM_5
100
AcDbTrace
 10
215.9754251603238
 20
297.0732905734039
 30
0.0
 11
215.9754251603238
 21
295.573290573404
 31
0.0
 12
211.4754251603238
 22
296.3232905734039
 32
0.0
 13
211.4754251603238
 23
296.3232905734039
 33
0.0
  0
SOLID
  5
1239
330
11A8
100
AcDbEntity
  8
AM_5
100
AcDbTrace
 10
232.9754251603238
 20
297.0732905734039
 30
0.0
 11
232.9754251603238
 21
295.573290573404
 31
0.0
 12
237.4754251603238
 22
296.3232905734039
 32
0.0
 13
237.4754251603238
 23
296.3232905734039
 33
0.0
  0
MTEXT
  5
123A
330
11A8
100
AcDbEntity
  8
AM_5
100
AcDbMText
 10
224.4754251603238
 20
300.1488073056874
 30
0.0
 40
5.25
 41
0.0
 71
     5
 72
     1
  1
26
 73
     1
 44
1.0
1001
ACAD
1000
MTEXTBEGIN
1070
    73
1070
     1
1070
    44
1040
1.0
1070
    74
1070
     0
1000
MTEXTEND
  0
POINT
  5
123B
330
11A8
100
AcDbEntity
  8
Defpoints
 62
     0
100
AcDbPoint
 10
211.4754251603238
 20
309.3232905734039
 30
0.0
  0
POINT
  5
123C
330
11A8
100
AcDbEntity
  8
Defpoints
 62
     0
100
AcDbPoint
 10
237.4754251603238
 20
309.7732905734039
 30
0.0
  0
POINT
  5
123D
330
11A8
100
AcDbEntity
  8
Defpoints
 62
     0
100
AcDbPoint
 10
237.4754251603238
 20
296.3232905734039
 30
0.0
  0
ENDBLK
  5
11B3
330
11A8
100
AcDbEntity
  8
0
100
AcDbBlockEnd
  0
BLOCK
  5
11C0
330
11B4
100
AcDbEntity
  8
0
100
AcDbBlockBegin
  2
*D26
 70
     1
 10
0.0
 20
0.0
 30
0.0
  3
*D26
  1

  0
LINE
  5
123E
330
11B4
100
AcDbEntity
  8
AM_5
100
AcDbLine
 10
207.473096224099
 20
319.4732905734039
 30
0.0
 11
196.4754251603237
 21
319.4732905734039
 31
0.0
  0
LINE
  5
123F
330
11B4
100
AcDbEntity
  8
AM_5
100
AcDbLine
 10
227.5254251603235
 20
317.4732905734039
 30
0.0
 11
196.4754251603237
 21
317.4732905734039
 31
0.0
  0
LINE
  5
1240
330
11B4
100
AcDbEntity
  8
AM_5
100
AcDbLine
 10
199.4754251603238
 20
323.9732905734039
 30
0.0
 11
199.4754251603238
 21
328.4732905734039
 31
0.0
  0
LINE
  5
1241
330
11B4
100
AcDbEntity
  8
AM_5
100
AcDbLine
 10
199.4754251603237
 20
312.9732905734039
 30
0.0
 11
199.4754251603237
 21
303.5246636049
 31
0.0
  0
LINE
  5
1242
330
11B4
100
AcDbEntity
  8
AM_5
100
AcDbLine
 10
199.4754251603237
 20
319.4732905734039
 30
0.0
 11
199.4754251603237
 21
317.4732905734039
 31
0.0
  0
SOLID
  5
1243
330
11B4
100
AcDbEntity
  8
AM_5
100
AcDbTrace
 10
198.7254251603238
 20
323.9732905734039
 30
0.0
 11
200.2254251603238
 21
323.9732905734039
 31
0.0
 12
199.4754251603237
 22
319.4732905734039
 32
0.0
 13
199.4754251603237
 23
319.4732905734039
 33
0.0
  0
SOLID
  5
1244
330
11B4
100
AcDbEntity
  8
AM_5
100
AcDbTrace
 10
198.7254251603237
 20
312.9732905734039
 30
0.0
 11
200.2254251603238
 21
312.9732905734039
 31
0.0
 12
199.4754251603237
 22
317.4732905734039
 32
0.0
 13
199.4754251603237
 23
317.4732905734039
 33
0.0
  0
MTEXT
  5
1245
330
11B4
100
AcDbEntity
  8
AM_5
100
AcDbMText
 10
195.6499084280403
 20
305.998977089152
 30
0.0
 40
5.25
 41
0.0
 71
     5
 72
     1
  1
2
 11
0.0000000000000001
 21
1.0
 31
0.0
 73
     1
 44
1.0
1001
ACAD
1000
MTEXTBEGIN
1070
    73
1070
     1
1070
    44
1040
1.0
1070
    74
1070
     0
1000
MTEXTEND
  0
POINT
  5
1246
330
11B4
100
AcDbEntity
  8
Defpoints
 62
     0
100
AcDbPoint
 10
209.723096224099
 20
319.4732905734039
 30
0.0
  0
POINT
  5
1247
330
11B4
100
AcDbEntity
  8
Defpoints
 62
     0
100
AcDbPoint
 10
229.7754251603235
 20
317.4732905734039
 30
0.0
  0
POINT
  5
1248
330
11B4
100
AcDbEntity
  8
Defpoints
 62
     0
100
AcDbPoint
 10
199.4754251603237
 20
317.4732905734039
 30
0.0
  0
ENDBLK
  5
11C1
330
11B4
100
AcDbEntity
  8
0
100
AcDbBlockEnd
  0
BLOCK
  5
11CC
330
11C2
100
AcDbEntity
  8
0
100
AcDbBlockBegin
  2
*D27
 70
     1
 10
0.0
 20
0.0
 30
0.0
  3
*D27
  1

  0
LINE
  5
1249
330
11C2
100
AcDbEntity
  8
AM_5
100
AcDbLine
 10
228.4754251603238
 20
166.838964495001
 30
0.0
 11
228.4754251603238
 21
183.038964495001
 31
0.0
  0
LINE
  5
124A
330
11C2
100
AcDbEntity
  8
AM_5
100
AcDbLine
 10
246.4754251603238
 20
166.838964495001
 30
0.0
 11
246.4754251603238
 21
183.038964495001
 31
0.0
  0
LINE
  5
124B
330
11C2
100
AcDbEntity
  8
AM_5
100
AcDbLine
 10
232.9754251603238
 20
180.038964495001
 30
0.0
 11
241.9754251603237
 21
180.038964495001
 31
0.0
  0
SOLID
  5
124C
330
11C2
100
AcDbEntity
  8
AM_5
100
AcDbTrace
 10
232.9754251603238
 20
180.788964495001
 30
0.0
 11
232.9754251603238
 21
179.288964495001
 31
0.0
 12
228.4754251603238
 22
180.038964495001
 32
0.0
 13
228.4754251603238
 23
180.038964495001
 33
0.0
  0
SOLID
  5
124D
330
11C2
100
AcDbEntity
  8
AM_5
100
AcDbTrace
 10
241.9754251603237
 20
180.788964495001
 30
0.0
 11
241.9754251603237
 21
179.288964495001
 31
0.0
 12
246.4754251603238
 22
180.038964495001
 32
0.0
 13
246.4754251603238
 23
180.038964495001
 33
0.0
  0
MTEXT
  5
124E
330
11C2
100
AcDbEntity
  8
AM_5
100
AcDbMText
 10
237.4754251603238
 20
183.863964495001
 30
0.0
 40
5.25
 41
0.0
 71
     5
 72
     1
  1
18
 73
     1
 44
1.0
1001
ACAD
1000
MTEXTBEGIN
1070
    73
1070
     1
1070
    44
1040
1.0
1070
    74
1070
     0
1000
MTEXTEND
  0
POINT
  5
124F
330
11C2
100
AcDbEntity
  8
Defpoints
 62
     0
100
AcDbPoint
 10
228.4754251603238
 20
164.588964495001
 30
0.0
  0
POINT
  5
1250
330
11C2
100
AcDbEntity
  8
Defpoints
 62
     0
100
AcDbPoint
 10
246.4754251603238
 20
164.588964495001
 30
0.0
  0
POINT
  5
1251
330
11C2
100
AcDbEntity
  8
Defpoints
 62
     0
100
AcDbPoint
 10
246.4754251603238
 20
180.038964495001
 30
0.0
  0
ENDBLK
  5
11CD
330
11C2
100
AcDbEntity
  8
0
100
AcDbBlockEnd
  0
BLOCK
  5
11D8
330
11CE
100
AcDbEntity
  8
0
100
AcDbBlockBegin
  2
*D28
 70
     1
 10
0.0
 20
0.0
 30
0.0
  3
*D28
  1

  0
LINE
  5
1252
330
11CE
100
AcDbEntity
  8
AM_5
100
AcDbLine
 10
211.4754251603238
 20
169.2889644950009
 30
0.0
 11
211.4754251603238
 21
183.038964495001
 31
0.0
  0
LINE
  5
1253
330
11CE
100
AcDbEntity
  8
AM_5
100
AcDbLine
 10
228.4754251603238
 20
166.838964495001
 30
0.0
 11
228.4754251603238
 21
183.038964495001
 31
0.0
  0
LINE
  5
1254
330
11CE
100
AcDbEntity
  8
AM_5
100
AcDbLine
 10
215.9754251603238
 20
180.038964495001
 30
0.0
 11
223.9754251603238
 21
180.038964495001
 31
0.0
  0
SOLID
  5
1255
330
11CE
100
AcDbEntity
  8
AM_5
100
AcDbTrace
 10
215.9754251603238
 20
180.788964495001
 30
0.0
 11
215.9754251603238
 21
179.288964495001
 31
0.0
 12
211.4754251603238
 22
180.038964495001
 32
0.0
 13
211.4754251603238
 23
180.038964495001
 33
0.0
  0
SOLID
  5
1256
330
11CE
100
AcDbEntity
  8
AM_5
100
AcDbTrace
 10
223.9754251603238
 20
180.788964495001
 30
0.0
 11
223.9754251603238
 21
179.288964495001
 31
0.0
 12
228.4754251603238
 22
180.038964495001
 32
0.0
 13
228.4754251603238
 23
180.038964495001
 33
0.0
  0
MTEXT
  5
1257
330
11CE
100
AcDbEntity
  8
AM_5
100
AcDbMText
 10
219.9754251603238
 20
183.863964495001
 30
0.0
 40
5.25
 41
0.0
 71
     5
 72
     1
  1
17
 73
     1
 44
1.0
1001
ACAD
1000
MTEXTBEGIN
1070
    73
1070
     1
1070
    44
1040
1.0
1070
    74
1070
     0
1000
MTEXTEND
  0
POINT
  5
1258
330
11CE
100
AcDbEntity
  8
Defpoints
 62
     0
100
AcDbPoint
 10
211.4754251603238
 20
167.0389644950009
 30
0.0
  0
POINT
  5
1259
330
11CE
100
AcDbEntity
  8
Defpoints
 62
     0
100
AcDbPoint
 10
228.4754251603238
 20
164.588964495001
 30
0.0
  0
POINT
  5
125A
330
11CE
100
AcDbEntity
  8
Defpoints
 62
     0
100
AcDbPoint
 10
228.4754251603238
 20
180.038964495001
 30
0.0
  0
ENDBLK
  5
11D9
330
11CE
100
AcDbEntity
  8
0
100
AcDbBlockEnd
  0
BLOCK
  5
11E4
330
11DA
100
AcDbEntity
  8
0
100
AcDbBlockBegin
  2
*D29
 70
     1
 10
0.0
 20
0.0
 30
0.0
  3
*D29
  1

  0
LINE
  5
1EB7
330
11DA
100
AcDbEntity
  8
AM_5
100
AcDbLine
 10
211.4754251603238
 20
307.0732905734039
 30
0.0
 11
211.4754251603238
 21
281.3232905734041
 31
0.0
  0
LINE
  5
1EB8
330
11DA
100
AcDbEntity
  8
AM_5
100
AcDbLine
 10
331.4754251603238
 20
307.9856862663695
 30
0.0
 11
331.4754251603238
 21
281.3232905734041
 31
0.0
  0
LINE
  5
1EB9
330
11DA
100
AcDbEntity
  8
AM_5
100
AcDbLine
 10
215.9754251603238
 20
284.3232905734041
 30
0.0
 11
326.9754251603238
 21
284.3232905734041
 31
0.0
  0
SOLID
  5
1EBA
330
11DA
100
AcDbEntity
  8
AM_5
100
AcDbTrace
 10
215.9754251603238
 20
285.0732905734041
 30
0.0
 11
215.9754251603238
 21
283.5732905734041
 31
0.0
 12
211.4754251603238
 22
284.3232905734041
 32
0.0
 13
211.4754251603238
 23
284.3232905734041
 33
0.0
  0
SOLID
  5
1EBB
330
11DA
100
AcDbEntity
  8
AM_5
100
AcDbTrace
 10
326.9754251603238
 20
285.0732905734041
 30
0.0
 11
326.9754251603238
 21
283.5732905734041
 31
0.0
 12
331.4754251603238
 22
284.3232905734041
 32
0.0
 13
331.4754251603238
 23
284.3232905734041
 33
0.0
  0
MTEXT
  5
1EBC
330
11DA
100
AcDbEntity
  8
AM_5
100
AcDbMText
 10
271.4754251603238
 20
288.1488073056876
 30
0.0
 40
5.25
 41
0.0
 71
     5
 72
     1
  1
120
 73
     1
 44
1.0
1001
ACAD
1000
MTEXTBEGIN
1070
    73
1070
     1
1070
    44
1040
1.0
1070
    74
1070
     0
1000
MTEXTEND
  0
POINT
  5
1EBD
330
11DA
100
AcDbEntity
  8
Defpoints
 62
     0
100
AcDbPoint
 10
211.4754251603238
 20
309.3232905734039
 30
0.0
  0
POINT
  5
1EBE
330
11DA
100
AcDbEntity
  8
Defpoints
 62
     0
100
AcDbPoint
 10
331.4754251603238
 20
310.2356862663695
 30
0.0
  0
POINT
  5
1EBF
330
11DA
100
AcDbEntity
  8
Defpoints
 62
     0
100
AcDbPoint
 10
331.4754251603238
 20
284.3232905734041
 30
0.0
  0
ENDBLK
  5
11E5
330
11DA
100
AcDbEntity
  8
0
100
AcDbBlockEnd
  0
BLOCK
  5
1E31
330
1E27
100
AcDbEntity
  8
0
100
AcDbBlockBegin
  2
*D66
 70
     1
 10
0.0
 20
0.0
 30
0.0
  3
*D66
  1

  0
LINE
  5
1EC0
330
1E27
100
AcDbEntity
  8
AM_5
100
AcDbLine
 10
258.5754251603238
 20
198.4568623900394
 30
0.0
 11
345.5754251603281
 21
198.4568623900394
 31
0.0
  0
LINE
  5
1EC1
330
1E27
100
AcDbEntity
  8
AM_5
100
AcDbLine
 10
325.575425160328
 20
265.4568623900394
 30
0.0
 11
345.5754251603281
 21
265.4568623900394
 31
0.0
  0
LINE
  5
1EC2
330
1E27
100
AcDbEntity
  8
AM_5
100
AcDbLine
 10
343.4754251603281
 20
202.6568623900394
 30
0.0
 11
343.4754251603281
 21
261.2568623900394
 31
0.0
  0
SOLID
  5
1EC3
330
1E27
100
AcDbEntity
  8
AM_5
100
AcDbTrace
 10
342.7754251603281
 20
202.6568623900394
 30
0.0
 11
344.1754251603281
 21
202.6568623900394
 31
0.0
 12
343.4754251603281
 22
198.4568623900394
 32
0.0
 13
343.4754251603281
 23
198.4568623900394
 33
0.0
  0
SOLID
  5
1EC4
330
1E27
100
AcDbEntity
  8
AM_5
100
AcDbTrace
 10
342.7754251603281
 20
261.2568623900394
 30
0.0
 11
344.1754251603281
 21
261.2568623900394
 31
0.0
 12
343.4754251603281
 22
265.4568623900394
 32
0.0
 13
343.4754251603281
 23
265.4568623900394
 33
0.0
  0
MTEXT
  5
1EC5
330
1E27
100
AcDbEntity
  8
AM_5
100
AcDbMText
 10
339.625425160328
 20
231.9568623900394
 30
0.0
 40
4.899999999999999
 41
0.0
 71
     5
 72
     1
  1
67
 11
0.0000000000000001
 21
1.0
 31
0.0
 73
     1
 44
1.0
1001
ACAD
1000
MTEXTBEGIN
1070
    73
1070
     1
1070
    44
1040
1.0
1070
    74
1070
     0
1000
MTEXTEND
  0
POINT
  5
1EC6
330
1E27
100
AcDbEntity
  8
Defpoints
 62
     0
100
AcDbPoint
 10
256.4754251603238
 20
198.4568623900394
 30
0.0
  0
POINT
  5
1EC7
330
1E27
100
AcDbEntity
  8
Defpoints
 62
     0
100
AcDbPoint
 10
323.475425160328
 20
265.4568623900394
 30
0.0
  0
POINT
  5
1EC8
330
1E27
100
AcDbEntity
  8
Defpoints
 62
     0
100
AcDbPoint
 10
343.4754251603281
 20
265.4568623900394
 30
0.0
  0
ENDBLK
  5
1E32
330
1E27
100
AcDbEntity
  8
0
100
AcDbBlockEnd
  0
BLOCK
  5
205C
330
2057
100
AcDbEntity
  8
0
100
AcDbBlockBegin
  2
*S69
 70
     1
 10
0.0
 20
0.0
 30
0.0
  3
*S69
  1

  0
LINE
  5
2058
330
2057
100
AcDbEntity
  8
AM_5
 62
     5
100
AcDbLine
 10
300.3661095588498
 20
295.13408911944
 30
0.0
 11
263.347066334811
 21
295.13408911944
 31
0.0
  0
LINE
  5
2059
330
2057
100
AcDbEntity
  8
AM_5
 62
     5
100
AcDbLine
 10
263.347066334811
 20
295.13408911944
 30
0.0
 11
256.7790426299449
 21
303.1658474316233
 31
0.0
  0
TRACE
  5
205A
330
2057
100
AcDbEntity
  8
AM_5
 62
     5
100
AcDbTrace
 10
257.6707957695846
 20
303.8950844843814
 30
0.0
 11
255.8872894903053
 21
302.4366103788652
 31
0.0
 12
251.2399372625921
 22
309.9393850397984
 32
0.0
 13
251.2399372625921
 23
309.9393850397984
 33
0.0
  0
MTEXT
  5
205B
330
2057
100
AcDbEntity
  8
AM_5
 62
     2
100
AcDbMText
 10
300.3661095588498
 20
291.0505788056056
 30
0.0
 40
8.75
 41
0.0
 71
     9
 72
     5
  1

  7
ACISOTS
210
0.0
220
0.0
230
-1.0
 11
-1.0
 21
0.0
 31
0.0
 73
     1
 44
1.0
1001
ACAD
1000
MTEXTBEGIN
1070
    73
1070
     1
1070
    44
1040
1.0
1070
    74
1070
     0
1000
MTEXTEND
  0
ENDBLK
  5
205D
330
2057
100
AcDbEntity
  8
0
100
AcDbBlockEnd
  0
BLOCK
  5
2064
330
205F
100
AcDbEntity
  8
0
100
AcDbBlockBegin
  2
*S70
 70
     1
 10
0.0
 20
0.0
 30
0.0
  3
*S70
  1

  0
LINE
  5
2060
330
205F
100
AcDbEntity
  8
AM_5
 62
     5
100
AcDbLine
 10
174.7012654947255
 20
247.6202340017114
 30
0.0
 11
210.0214671001088
 21
247.6202340017114
 31
0.0
  0
LINE
  5
2061
330
205F
100
AcDbEntity
  8
AM_5
 62
     5
100
AcDbLine
 10
210.0214671001088
 20
247.6202340017114
 30
0.0
 11
218.6539336973656
 21
233.9891964839281
 31
0.0
  0
TRACE
  5
2062
330
205F
100
AcDbEntity
  8
AM_5
 62
     5
100
AcDbTrace
 10
217.6807195600602
 20
233.3728649301996
 30
0.0
 11
219.627147834671
 21
234.6055280376566
 31
0.0
 12
223.3354366522888
 22
226.596901164946
 32
0.0
 13
223.3354366522888
 23
226.596901164946
 33
0.0
  0
MTEXT
  5
2063
330
205F
100
AcDbEntity
  8
AM_5
 62
     2
100
AcDbMText
 10
174.7012654947255
 20
243.5367236878771
 30
0.0
 40
8.75
 41
0.0
 71
     9
 72
     5
  1

  7
ACISOTS
 73
     1
 44
1.0
1001
ACAD
1000
MTEXTBEGIN
1070
    73
1070
     1
1070
    44
1040
1.0
1070
    74
1070
     0
1000
MTEXTEND
  0
ENDBLK
  5
2065
330
205F
100
AcDbEntity
  8
0
100
AcDbBlockEnd
  0
BLOCK
  5
206C
330
2067
100
AcDbEntity
  8
0
100
AcDbBlockBegin
  2
*S71
 70
     1
 10
0.0
 20
0.0
 30
0.0
  3
*S71
  1

  0
LINE
  5
2068
330
2067
100
AcDbEntity
  8
AM_5
 62
     5
100
AcDbLine
 10
204.3101947014459
 20
132.6500597091834
 30
0.0
 11
231.0590088261822
 21
132.6500597091834
 31
0.0
  0
LINE
  5
2069
330
2067
100
AcDbEntity
  8
AM_5
 62
     5
100
AcDbLine
 10
231.0590088261822
 20
132.6500597091834
 30
0.0
 11
237.5610669299117
 21
144.2286115758951
 31
0.0
  0
TRACE
  5
206A
330
2067
100
AcDbEntity
  8
AM_5
 62
     5
100
AcDbTrace
 10
238.5654894586708
 20
143.6645674952651
 30
0.0
 11
236.5566444011526
 21
144.7926556565251
 31
0.0
 12
241.8454070942309
 22
151.8579581636705
 32
0.0
 13
241.8454070942309
 23
151.8579581636705
 33
0.0
  0
MTEXT
  5
206B
330
2067
100
AcDbEntity
  8
AM_5
 62
     2
100
AcDbMText
 10
204.3101947014459
 20
128.566549395349
 30
0.0
 40
8.75
 41
0.0
 71
     9
 72
     5
  1

  7
ACISOTS
 73
     1
 44
1.0
1001
ACAD
1000
MTEXTBEGIN
1070
    73
1070
     1
1070
    44
1040
1.0
1070
    74
1070
     0
1000
MTEXTEND
  0
ENDBLK
  5
206D
330
2067
100
AcDbEntity
  8
0
100
AcDbBlockEnd
  0
ENDSEC
  0
SECTION
  2
ENTITIES
  0
TEXT
  5
E70
330
1F
100
AcDbEntity
  8
圖層4
 62
     5
100
AcDbText
 10
264.7441881648394
 20
296.3654237713471
 30
0.0
 40
5.299999999999999
  1
2-%%c3.2 Thru
 41
0.9
100
AcDbText
  0
LINE
  5
E75
330
1F
100
AcDbEntity
  8
AM_VIS
100
AcDbLine
 10
278.4754251603238
 20
146.938964495001
 30
0.0
 11
278.4754251603238
 21
166.838964495001
 31
0.0
  0
LINE
  5
E76
330
1F
100
AcDbEntity
  8
AM_VIS
100
AcDbLine
 10
278.4754251603238
 20
167.838964495001
 30
0.0
 11
278.4754251603238
 21
145.9389644950009
 31
0.0
  0
LINE
  5
E77
330
1F
100
AcDbEntity
  8
AM_VIS
100
AcDbLine
 10
256.4754251603238
 20
145.7389644950009
 30
0.0
 11
256.4754251603238
 21
154.388964495001
 31
0.0
  0
LINE
  5
E82
330
1F
100
AcDbEntity
  8
AM_7
100
AcDbLine
 10
246.4754251603238
 20
156.888964495001
 30
0.0
 11
246.4754251603238
 21
149.1889644950009
 31
0.0
1001
GENIUS_GENOREF_13
1005
114F
  0
LINE
  5
E83
330
1F
100
AcDbEntity
  8
AM_VIS
100
AcDbLine
 10
256.4754251603238
 20
146.7389644950009
 30
0.0
 11
256.4754251603238
 21
167.038964495001
 31
0.0
  0
LINE
  5
E84
330
1F
100
AcDbEntity
  8
AM_7
  6
AM_ISO08W050x2
100
AcDbLine
 10
224.9754251603238
 20
148.388964495001
 30
0.0
 11
224.9754251603238
 21
150.988964495001
 31
0.0
1001
GENIUS_GENOREF_13
1005
114E
  0
LINE
  5
E85
330
1F
100
AcDbEntity
  8
AM_VIS
100
AcDbLine
 10
211.4460817720012
 20
150.237964494999
 30
0.0
 11
211.4460817720012
 21
150.6503926006026
 31
0.0
  0
LINE
  5
E86
330
1F
100
AcDbEntity
  8
AM_VIS
100
AcDbLine
 10
218.4754251603238
 20
167.038964495001
 30
0.0
 11
218.4754251603238
 21
146.7389644950009
 31
0.0
  0
LINE
  5
E87
330
1F
100
AcDbEntity
  8
AM_VIS
100
AcDbLine
 10
218.4754251603238
 20
146.7389644950009
 30
0.0
 11
218.4754251603238
 21
167.0389644950009
 31
0.0
  0
LINE
  5
E88
330
1F
100
AcDbEntity
  8
AM_VIS
100
AcDbLine
 10
211.4754251603238
 20
159.8889644950009
 30
0.0
 11
211.4754251603238
 21
146.7389644950009
 31
0.0
  0
CIRCLE
  5
E89
330
1F
100
AcDbEntity
  8
AM_VIS
100
AcDbCircle
 10
228.4754251603238
 20
156.888964495001
 30
0.0
 40
6.699999999999999
  0
LINE
  5
E8A
330
1F
100
AcDbEntity
  8
AM_7
100
AcDbLine
 10
228.4754251603238
 20
156.888964495001
 30
0.0
 11
228.4754251603238
 21
149.1889644950009
 31
0.0
1001
GENIUS_GENOREF_13
1005
114D
  0
CIRCLE
  5
E8B
330
1F
100
AcDbEntity
  8
AM_VIS
100
AcDbCircle
 10
246.4754251603238
 20
156.888964495001
 30
0.0
 40
6.699999999999999
  0
LINE
  5
E8D
330
1F
100
AcDbEntity
  8
AM_VIS
100
AcDbLine
 10
218.4754251603238
 20
145.7389644950009
 30
0.0
 11
256.4754251603238
 21
145.7389644950009
 31
0.0
  0
LINE
  5
E8E
330
1F
100
AcDbEntity
  8
AM_VIS
100
AcDbLine
 10
211.4754251603238
 20
150.237964494999
 30
0.0
 11
211.4460817720007
 21
150.237964494999
 31
0.0
  0
LINE
  5
E8F
330
1F
100
AcDbEntity
  8
AM_VIS
100
AcDbLine
 10
211.4460817720007
 20
149.539964494999
 30
0.0
 11
211.4754251603238
 21
149.539964494999
 31
0.0
  0
ARC
  5
E90
330
1F
100
AcDbEntity
  8
AM_VIS
100
AcDbCircle
 10
216.3754251603239
 20
149.888964495001
 30
0.0
 40
4.987805028266441
100
AcDbArc
 50
188.7809903800221
 51
190.7666789610931
  0
LINE
  5
E91
330
1F
100
AcDbEntity
  8
AM_VIS
100
AcDbLine
 10
211.4460817720012
 20
149.1275363893994
 30
0.0
 11
211.4460817720012
 21
149.539964494999
 31
0.0
  0
LINE
  5
E92
330
1F
100
AcDbEntity
  8
AM_VIS
100
AcDbLine
 10
212.4754251603238
 20
145.7389644950009
 30
0.0
 11
218.4754251603238
 21
145.7389644950009
 31
0.0
  0
ARC
  5
E93
330
1F
100
AcDbEntity
  8
AM_VIS
100
AcDbCircle
 10
212.4754251603238
 20
146.7389644950009
 30
0.0
 40
1.0
100
AcDbArc
 50
180.0
 51
270.0
  0
LINE
  5
E94
330
1F
100
AcDbEntity
  8
AM_VIS
100
AcDbLine
 10
218.4754251603238
 20
145.7389644950009
 30
0.0
 11
218.4754251603238
 21
146.7389644950009
 31
0.0
  0
LINE
  5
E95
330
1F
100
AcDbEntity
  8
AM_VIS
100
AcDbLine
 10
218.4754251603238
 20
146.7389644950009
 30
0.0
 11
218.4754251603238
 21
145.7389644950009
 31
0.0
  0
CIRCLE
  5
E96
330
1F
100
AcDbEntity
  8
AM_VIS
100
AcDbCircle
 10
224.9754251603238
 20
148.388964495001
 30
0.0
 40
1.6
  0
CIRCLE
  5
E97
330
1F
100
AcDbEntity
  8
AM_VIS
100
AcDbCircle
 10
224.9754251603238
 20
148.388964495001
 30
0.0
 40
1.600000000000042
  0
LINE
  5
E98
330
1F
100
AcDbEntity
  8
AM_7
  6
AM_ISO08W050x2
100
AcDbLine
 10
224.9754251603238
 20
148.388964495001
 30
0.0
 11
227.5754251603237
 21
148.388964495001
 31
0.0
1001
GENIUS_GENOREF_13
1005
114E
  0
LINE
  5
E99
330
1F
100
AcDbEntity
  8
AM_7
  6
AM_ISO08W050x2
100
AcDbLine
 10
224.9754251603238
 20
148.388964495001
 30
0.0
 11
222.3754251603239
 21
148.388964495001
 31
0.0
1001
GENIUS_GENOREF_13
1005
114E
  0
LINE
  5
E9A
330
1F
100
AcDbEntity
  8
AM_7
  6
AM_ISO08W050x2
100
AcDbLine
 10
224.9754251603238
 20
148.388964495001
 30
0.0
 11
224.9754251603238
 21
145.788964495001
 31
0.0
1001
GENIUS_GENOREF_13
1005
114E
  0
LINE
  5
E9C
330
1F
100
AcDbEntity
  8
AM_VIS
100
AcDbLine
 10
278.4754251603238
 20
145.9389644950009
 30
0.0
 11
256.4754251603238
 21
145.7389644950009
 31
0.0
  0
LINE
  5
EC7
330
1F
100
AcDbEntity
  8
AM_7
100
AcDbLine
 10
210.223096224099
 20
156.888964495001
 30
0.0
 11
334.6894984580619
 21
156.888964495001
 31
0.0
1001
GENIUS_GENODEF_13
1002
{
1000
HIER
1070
     0
1002
}
1002
{
1000
MANEDIT
1070
     0
1002
}
1002
{
1000
NOSEL
1070
     0
1002
}
1002
{
1000
BEHIND
1070
     0
1002
}
1002
{
1000
OTHER
1070
     0
1002
}
1002
{
1000
REACTOR
1002
}
1001
GENIUS_GENOBJ-N-CEN_13
1002
{
1000
OWNER
1000
GEN
1002
}
  0
CIRCLE
  5
ECE
330
1F
100
AcDbEntity
  8
AM_VIS
100
AcDbCircle
 10
246.4754251603238
 20
156.888964495001
 30
0.0
 40
5.449999999999999
  0
LINE
  5
ECF
330
1F
100
AcDbEntity
  8
AM_7
100
AcDbLine
 10
246.4754251603238
 20
156.888964495001
 30
0.0
 11
238.7754251603235
 21
156.888964495001
 31
0.0
1001
GENIUS_GENOREF_13
1005
114F
  0
LINE
  5
ED0
330
1F
100
AcDbEntity
  8
AM_VIS
100
AcDbLine
 10
256.4754251603238
 20
168.0389644950009
 30
0.0
 11
218.4754251603238
 21
168.0389644950009
 31
0.0
  0
LINE
  5
ED1
330
1F
100
AcDbEntity
  8
AM_VIS
100
AcDbLine
 10
211.7917665942293
 20
165.8864814910408
 30
0.0
 11
211.7917665942293
 21
161.8914474989611
 31
0.0
  0
ARC
  5
ED2
330
1F
100
AcDbEntity
  8
AM_VIS
100
AcDbCircle
 10
216.3754251603239
 20
163.888964495001
 30
0.0
 40
5.0
100
AcDbArc
 50
156.4528627629215
 51
163.1420439775014
  0
LINE
  5
ED3
330
1F
100
AcDbEntity
  8
AM_VIS
100
AcDbLine
 10
211.4754251603238
 20
164.8207364628129
 30
0.0
 11
211.4754251603238
 21
167.0389644950009
 31
0.0
  0
LINE
  5
ED4
330
1F
100
AcDbEntity
  8
AM_VIS
100
AcDbLine
 10
213.7754251603235
 20
166.838964495001
 30
0.0
 11
213.7754251603235
 21
160.938964495001
 31
0.0
  0
LINE
  5
ED5
330
1F
100
AcDbEntity
  8
AM_VIS
100
AcDbLine
 10
212.7872577587948
 20
166.6025110497013
 30
0.0
 11
212.7872577587948
 21
161.1754179403006
 31
0.0
  0
LINE
  5
ED6
330
1F
100
AcDbEntity
  8
AM_VIS
100
AcDbLine
 10
214.4754251603238
 20
167.0389644950009
 30
0.0
 11
214.4754251603238
 21
160.3889644950009
 31
0.0
  0
LINE
  5
ED7
330
1F
100
AcDbEntity
  8
AM_7
100
AcDbLine
 10
228.4754251603238
 20
156.888964495001
 30
0.0
 11
220.7754251603235
 21
156.888964495001
 31
0.0
1001
GENIUS_GENOREF_13
1005
114D
  0
ARC
  5
ED8
330
1F
100
AcDbEntity
  8
AM_VIS
100
AcDbCircle
 10
216.3754251603239
 20
149.888964495001
 30
0.0
 40
4.987805028266441
100
AcDbArc
 50
169.2333210389068
 51
171.219009619976
  0
ARC
  5
ED9
330
1F
100
AcDbEntity
  8
AM_VIS
100
AcDbCircle
 10
216.3754251603239
 20
163.888964495001
 30
0.0
 40
4.987805028266441
100
AcDbArc
 50
163.1891285876332
 51
171.219009619976
  0
ARC
  5
EDA
330
1F
100
AcDbEntity
  8
AM_VIS
100
AcDbCircle
 10
216.3754251603239
 20
163.888964495001
 30
0.0
 40
5.0
100
AcDbArc
 50
196.8579560224986
 51
203.5471372370784
  0
LINE
  5
EDB
330
1F
100
AcDbEntity
  8
AM_VIS
100
AcDbLine
 10
211.5902919333382
 20
162.4389644950009
 30
0.0
 11
211.600775781307
 21
162.4464242676744
 31
0.0
  0
ELLIPSE
  5
EDC
330
1F
100
AcDbEntity
  8
AM_VIS
100
AcDbEllipse
 10
215.4519869443768
 20
163.888964495001
 30
0.0
 11
-0.0000000000000012
 21
-4.739516250631768
 31
0.0
210
0.0
220
0.0
230
1.0
 40
0.8147867433778033
 41
4.638686064266499
 42
4.78609189650372
  0
LINE
  5
EDD
330
1F
100
AcDbEntity
  8
AM_VIS
100
AcDbLine
 10
211.600775781307
 20
164.237964494999
 30
0.0
 11
211.4460817720007
 21
164.237964494999
 31
0.0
  0
LINE
  5
EDE
330
1F
100
AcDbEntity
  8
AM_VIS
100
AcDbLine
 10
211.4460817720007
 20
163.5399644949989
 30
0.0
 11
211.600775781307
 21
163.5399644949989
 31
0.0
  0
ARC
  5
EDF
330
1F
100
AcDbEntity
  8
AM_VIS
100
AcDbCircle
 10
216.3754251603239
 20
163.888964495001
 30
0.0
 40
4.987805028266441
100
AcDbArc
 50
188.780990380024
 51
196.8108714123668
  0
LINE
  5
EE0
330
1F
100
AcDbEntity
  8
AM_VIS
100
AcDbLine
 10
211.4460817720012
 20
163.1275363893994
 30
0.0
 11
211.4460817720012
 21
163.5399644949989
 31
0.0
  0
LINE
  5
EE1
330
1F
100
AcDbEntity
  8
AM_VIS
100
AcDbLine
 10
211.4754251603238
 20
163.8889644950009
 30
0.0
 11
211.4754251603238
 21
163.5399644949989
 31
0.0
  0
LINE
  5
EE2
330
1F
100
AcDbEntity
  8
AM_VIS
100
AcDbLine
 10
211.4754251603238
 20
163.8889644950009
 30
0.0
 11
211.4754251603238
 21
164.237964494999
 31
0.0
  0
LINE
  5
EE3
330
1F
100
AcDbEntity
  8
AM_VIS
100
AcDbLine
 10
211.5902919333382
 20
163.8889644950009
 30
0.0
 11
211.4754251603238
 21
163.8889644950009
 31
0.0
  0
LINE
  5
EE4
330
1F
100
AcDbEntity
  8
AM_VIS
100
AcDbLine
 10
211.4460817720012
 20
164.237964494999
 30
0.0
 11
211.4460817720012
 21
164.6503926006025
 31
0.0
  0
LINE
  5
EE5
330
1F
100
AcDbEntity
  8
AM_VIS
100
AcDbLine
 10
211.600775781307
 20
165.3315047223276
 30
0.0
 11
211.5902919333382
 21
165.338964495001
 31
0.0
  0
ARC
  5
EE6
330
1F
100
AcDbEntity
  8
AM_VIS
100
AcDbCircle
 10
213.9754251603238
 20
160.3889644950009
 30
0.0
 40
0.5
100
AcDbArc
 50
270.0
 51
0.0
  0
LINE
  5
EE7
330
1F
100
AcDbEntity
  8
AM_VIS
100
AcDbLine
 10
213.9754251603238
 20
160.938964495001
 30
0.0
 11
213.9754251603238
 21
159.8889644950009
 31
0.0
  0
LINE
  5
EE8
330
1F
100
AcDbEntity
  8
AM_VIS
100
AcDbLine
 10
213.9754251603238
 20
159.8889644950009
 30
0.0
 11
212.4754251603238
 21
159.8889644950009
 31
0.0
  0
LINE
  5
EE9
330
1F
100
AcDbEntity
  8
AM_VIS
100
AcDbLine
 10
211.4754251603238
 20
159.8889644950009
 30
0.0
 11
212.4754251603238
 21
159.8889644950009
 31
0.0
  0
LINE
  5
EEA
330
1F
100
AcDbEntity
  8
AM_VIS
100
AcDbLine
 10
212.7872577587948
 20
161.1754179403006
 30
0.0
 11
213.7754251603235
 21
161.0889644950009
 31
0.0
  0
LINE
  5
EEB
330
1F
100
AcDbEntity
  8
AM_VIS
100
AcDbLine
 10
214.4754251603238
 20
160.938964495001
 30
0.0
 11
213.7754251603235
 21
160.938964495001
 31
0.0
  0
LINE
  5
EEC
330
1F
100
AcDbEntity
  8
AM_VIS
100
AcDbLine
 10
211.4754251603238
 20
162.957192527189
 30
0.0
 11
211.4754251603238
 21
159.8889644950009
 31
0.0
  0
ARC
  5
EED
330
1F
100
AcDbEntity
  8
AM_VIS
100
AcDbCircle
 10
212.8918446500918
 20
162.3708515780107
 30
0.0
 40
1.199999999999999
100
AcDbArc
 50
203.5471372370784
 51
265.0000000000003
  0
LINE
  5
EEE
330
1F
100
AcDbEntity
  8
AM_7
100
AcDbLine
 10
228.4754251603238
 20
156.888964495001
 30
0.0
 11
228.4754251603238
 21
164.588964495001
 31
0.0
1001
GENIUS_GENOREF_13
1005
114D
  0
LINE
  5
EEF
330
1F
100
AcDbEntity
  8
AM_VIS
100
AcDbLine
 10
226.4254251603236
 20
153.888964495001
 30
0.0
 11
226.4254251603236
 21
159.888964495001
 31
0.0
  0
LINE
  5
EF0
330
1F
100
AcDbEntity
  8
AM_VIS
100
AcDbLine
 10
230.9254251603236
 20
159.888964495001
 30
0.0
 11
230.9254251603236
 21
153.888964495001
 31
0.0
  0
CIRCLE
  5
EF2
330
1F
100
AcDbEntity
  8
AM_VIS
100
AcDbCircle
 10
228.4754251603238
 20
156.888964495001
 30
0.0
 40
5.449999999999999
  0
LINE
  5
EF3
330
1F
100
AcDbEntity
  8
AM_7
100
AcDbLine
 10
228.4754251603238
 20
156.888964495001
 30
0.0
 11
236.1754251603236
 21
156.888964495001
 31
0.0
1001
GENIUS_GENOREF_13
1005
114D
  0
ARC
  5
EF4
330
1F
100
AcDbEntity
  8
AM_VIS
100
AcDbCircle
 10
228.6754251603236
 20
153.888964495001
 30
0.0
 40
2.25
100
AcDbArc
 50
180.0
 51
0.0
  0
ARC
  5
EF5
330
1F
100
AcDbEntity
  8
AM_VIS
100
AcDbCircle
 10
228.6754251603236
 20
159.888964495001
 30
0.0
 40
2.25
100
AcDbArc
 50
0.0
 51
180.0
  0
LINE
  5
EF6
330
1F
100
AcDbEntity
  8
AM_VIS
100
AcDbLine
 10
212.7872577587948
 20
166.6025110497013
 30
0.0
 11
213.7754251603235
 21
166.688964495001
 31
0.0
  0
LINE
  5
EF7
330
1F
100
AcDbEntity
  8
AM_VIS
100
AcDbLine
 10
212.4754251603238
 20
168.0389644950009
 30
0.0
 11
213.9754251603238
 21
168.0389644950009
 31
0.0
  0
ARC
  5
EF8
330
1F
100
AcDbEntity
  8
AM_VIS
100
AcDbCircle
 10
212.8918446500918
 20
165.4070774119912
 30
0.0
 40
1.199999999999999
100
AcDbArc
 50
94.99999999999975
 51
156.4528627629215
  0
ARC
  5
EF9
330
1F
100
AcDbEntity
  8
AM_VIS
100
AcDbCircle
 10
212.4754251603238
 20
167.0389644950009
 30
0.0
 40
0.9999999999999998
100
AcDbArc
 50
90.0
 51
180.0
  0
LINE
  5
EFA
330
1F
100
AcDbEntity
  8
AM_VIS
100
AcDbLine
 10
218.4754251603238
 20
168.0389644950009
 30
0.0
 11
214.4754251603238
 21
168.0389644950009
 31
0.0
  0
LINE
  5
EFB
330
1F
100
AcDbEntity
  8
AM_VIS
100
AcDbLine
 10
214.4754251603238
 20
166.838964495001
 30
0.0
 11
213.7754251603235
 21
166.838964495001
 31
0.0
  0
LINE
  5
EFC
330
1F
100
AcDbEntity
  8
AM_VIS
100
AcDbLine
 10
214.4754251603238
 20
167.0389644950009
 30
0.0
 11
214.4754251603238
 21
168.0389644950009
 31
0.0
  0
LINE
  5
EFD
330
1F
100
AcDbEntity
  8
AM_VIS
100
AcDbLine
 10
214.4754251603238
 20
168.0389644950009
 30
0.0
 11
213.9754251603238
 21
168.0389644950009
 31
0.0
  0
LINE
  5
EFE
330
1F
100
AcDbEntity
  8
AM_VIS
100
AcDbLine
 10
213.9754251603238
 20
168.0389644950009
 30
0.0
 11
213.9754251603238
 21
166.838964495001
 31
0.0
  0
LINE
  5
EFF
330
1F
100
AcDbEntity
  8
AM_VIS
100
AcDbLine
 10
218.4754251603238
 20
167.038964495001
 30
0.0
 11
218.4754251603238
 21
168.0389644950009
 31
0.0
  0
LINE
  5
F00
330
1F
100
AcDbEntity
  8
AM_VIS
100
AcDbLine
 10
218.4754251603238
 20
168.0389644950009
 30
0.0
 11
218.4754251603238
 21
167.0389644950009
 31
0.0
  0
CIRCLE
  5
F02
330
1F
100
AcDbEntity
  8
AM_VIS
100
AcDbCircle
 10
249.9754251603238
 20
165.388964495001
 30
0.0
 40
1.6
  0
CIRCLE
  5
F03
330
1F
100
AcDbEntity
  8
AM_VIS
100
AcDbCircle
 10
249.9754251603238
 20
165.388964495001
 30
0.0
 40
1.60000000000004
  0
LINE
  5
F04
330
1F
100
AcDbEntity
  8
AM_7
  6
AM_ISO08W050x2
100
AcDbLine
 10
249.9754251603238
 20
165.388964495001
 30
0.0
 11
249.9754251603238
 21
167.988964495001
 31
0.0
1001
GENIUS_GENOREF_13
1005
1149
  0
LINE
  5
F05
330
1F
100
AcDbEntity
  8
AM_VIS
100
AcDbLine
 10
256.4754251603238
 20
159.388964495001
 30
0.0
 11
256.4754251603238
 21
168.0389644950009
 31
0.0
  0
CIRCLE
  5
F06
330
1F
100
AcDbEntity
  8
AM_VIS
100
AcDbCircle
 10
267.4754251603238
 20
163.888964495001
 30
0.0
 40
1.1
  0
LINE
  5
F07
330
1F
100
AcDbEntity
  8
AM_VIS
100
AcDbLine
 10
256.9754251603238
 20
159.388964495001
 30
0.0
 11
256.9754251603238
 21
154.388964495001
 31
0.0
  0
LINE
  5
F08
330
1F
100
AcDbEntity
  8
AM_7
100
AcDbLine
 10
246.4754251603238
 20
156.888964495001
 30
0.0
 11
246.4754251603238
 21
164.588964495001
 31
0.0
1001
GENIUS_GENOREF_13
1005
114F
  0
LINE
  5
F09
330
1F
100
AcDbEntity
  8
AM_VIS
100
AcDbLine
 10
244.0254251603235
 20
159.888964495001
 30
0.0
 11
244.0254251603235
 21
153.888964495001
 31
0.0
  0
LINE
  5
F0A
330
1F
100
AcDbEntity
  8
AM_VIS
100
AcDbLine
 10
248.5254251603235
 20
153.888964495001
 30
0.0
 11
248.5254251603235
 21
159.888964495001
 31
0.0
  0
LINE
  5
F0B
330
1F
100
AcDbEntity
  8
AM_7
100
AcDbLine
 10
246.4754251603238
 20
156.888964495001
 30
0.0
 11
254.1754251603236
 21
156.888964495001
 31
0.0
1001
GENIUS_GENOREF_13
1005
114F
  0
ARC
  5
F0C
330
1F
100
AcDbEntity
  8
AM_VIS
100
AcDbCircle
 10
246.2754251603235
 20
153.888964495001
 30
0.0
 40
2.25
100
AcDbArc
 50
180.0
 51
0.0
  0
LINE
  5
F0D
330
1F
100
AcDbEntity
  8
AM_VIS
100
AcDbLine
 10
256.9754251603238
 20
154.388964495001
 30
0.0
 11
256.4754251603238
 21
154.388964495001
 31
0.0
  0
LINE
  5
F0E
330
1F
100
AcDbEntity
  8
AM_7
  6
AM_ISO08W050x2
100
AcDbLine
 10
249.9754251603238
 20
165.388964495001
 30
0.0
 11
252.5754251603237
 21
165.388964495001
 31
0.0
1001
GENIUS_GENOREF_13
1005
1149
  0
LINE
  5
F0F
330
1F
100
AcDbEntity
  8
AM_7
  6
AM_ISO08W050x2
100
AcDbLine
 10
249.9754251603238
 20
165.388964495001
 30
0.0
 11
247.3754251603239
 21
165.388964495001
 31
0.0
1001
GENIUS_GENOREF_13
1005
1149
  0
LINE
  5
F10
330
1F
100
AcDbEntity
  8
AM_7
  6
AM_ISO08W050x2
100
AcDbLine
 10
249.9754251603238
 20
165.388964495001
 30
0.0
 11
249.9754251603238
 21
162.7889644950009
 31
0.0
1001
GENIUS_GENOREF_13
1005
1149
  0
ARC
  5
F11
330
1F
100
AcDbEntity
  8
AM_VIS
100
AcDbCircle
 10
246.2754251603235
 20
159.888964495001
 30
0.0
 40
2.250000000000001
100
AcDbArc
 50
0.0
 51
180.0
  0
LINE
  5
F12
330
1F
100
AcDbEntity
  8
AM_VIS
100
AcDbLine
 10
256.4754251603238
 20
159.388964495001
 30
0.0
 11
256.9754251603238
 21
159.388964495001
 31
0.0
  0
LINE
  5
F13
330
1F
100
AcDbEntity
  8
AM_VIS
100
AcDbLine
 10
256.4754251603238
 20
168.0389644950009
 30
0.0
 11
278.4754251603238
 21
167.838964495001
 31
0.0
  0
LINE
  5
F50
330
1F
100
AcDbEntity
  8
AM_VIS
100
AcDbLine
 10
246.9754251603238
 20
233.4568623900394
 30
0.0
 11
218.4754251603238
 21
233.4568623900394
 31
0.0
  0
LINE
  5
F51
330
1F
100
AcDbEntity
  8
AM_VIS
100
AcDbLine
 10
218.4754251603238
 20
198.4568623900394
 30
0.0
 11
256.4754251603238
 21
198.4568623900394
 31
0.0
  0
LINE
  5
F52
330
1F
100
AcDbEntity
  8
AM_7
  6
AM_ISO08W050x2
100
AcDbLine
 10
224.9754251603238
 20
224.9568623900394
 30
0.0
 11
224.9754251603238
 21
221.8568623900394
 31
0.0
1001
GENIUS_GENOREF_13
1005
1148
  0
LINE
  5
F54
330
1F
100
AcDbEntity
  8
AM_VIS
100
AcDbLine
 10
211.4754251603238
 20
232.4568623900394
 30
0.0
 11
211.4754251603238
 21
205.9568623900394
 31
0.0
  0
CIRCLE
  5
F55
330
1F
100
AcDbEntity
  8
AM_VIS
100
AcDbCircle
 10
224.9754251603238
 20
224.9568623900394
 30
0.0
 40
2.1
  0
LINE
  5
F56
330
1F
100
AcDbEntity
  8
AM_VIS
100
AcDbLine
 10
218.4754251603238
 20
199.4568623900394
 30
0.0
 11
218.4754251603238
 21
232.4568623900394
 31
0.0
  0
LINE
  5
F57
330
1F
100
AcDbEntity
  8
AM_VIS
100
AcDbLine
 10
218.4754251603238
 20
232.4568623900394
 30
0.0
 11
218.4754251603238
 21
199.4568623900394
 31
0.0
  0
LINE
  5
F58
330
1F
100
AcDbEntity
  8
AM_VIS
100
AcDbLine
 10
211.7917665942293
 20
203.9543793860793
 30
0.0
 11
211.7917665942293
 21
201.9568623900394
 31
0.0
  0
LINE
  5
F59
330
1F
100
AcDbEntity
  8
AM_VIS
100
AcDbLine
 10
211.4754251603238
 20
202.3058623900395
 30
0.0
 11
211.4754251603238
 21
201.9568623900395
 31
0.0
  0
ELLIPSE
  5
F5A
330
1F
100
AcDbEntity
  8
AM_VIS
100
AcDbEllipse
 10
215.4519869443768
 20
201.9568623900394
 30
0.0
 11
0.0
 21
-4.73951625063177
 31
0.0
210
0.0
220
0.0
230
1.0
 40
0.8147867433778051
 41
4.638686064266076
 42
4.786091896503298
  0
LINE
  5
F5B
330
1F
100
AcDbEntity
  8
AM_VIS
100
AcDbLine
 10
214.4754251603238
 20
205.4568623900394
 30
0.0
 11
214.4754251603238
 21
199.4568623900394
 31
0.0
  0
LINE
  5
F5C
330
1F
100
AcDbEntity
  8
AM_VIS
100
AcDbLine
 10
212.7872577587948
 20
204.6704089447398
 30
0.0
 11
212.7872577587948
 21
201.9568623900394
 31
0.0
  0
LINE
  5
F5D
330
1F
100
AcDbEntity
  8
AM_VIS
100
AcDbLine
 10
213.7754251603235
 20
204.9035384835387
 30
0.0
 11
213.7754251603235
 21
199.0068623900395
 31
0.0
  0
LINE
  5
F5E
330
1F
100
AcDbEntity
  8
AM_VIS
100
AcDbLine
 10
211.4754251603238
 20
201.9568623900394
 30
0.0
 11
211.5902919333382
 21
201.9568623900394
 31
0.0
  0
LINE
  5
F5F
330
1F
100
AcDbEntity
  8
AM_VIS
100
AcDbLine
 10
211.4754251603238
 20
201.6078623900395
 30
0.0
 11
211.4754251603238
 21
201.9568623900394
 31
0.0
  0
LINE
  5
F60
330
1F
100
AcDbEntity
  8
AM_VIS
100
AcDbLine
 10
211.4460817720012
 20
201.195434284437
 30
0.0
 11
211.4460817720012
 21
201.6078623900395
 31
0.0
  0
ARC
  5
F61
330
1F
100
AcDbEntity
  8
AM_VIS
100
AcDbCircle
 10
216.3754251603239
 20
201.9568623900394
 30
0.0
 40
4.987805028266581
100
AcDbArc
 50
188.7809903800336
 51
196.8108714123668
  0
LINE
  5
F62
330
1F
100
AcDbEntity
  8
AM_VIS
100
AcDbLine
 10
211.5902919333382
 20
200.5068623900394
 30
0.0
 11
211.600775781307
 21
200.5143221627128
 31
0.0
  0
LINE
  5
F63
330
1F
100
AcDbEntity
  8
AM_VIS
100
AcDbLine
 10
211.4460817720012
 20
201.6078623900395
 30
0.0
 11
211.600775781307
 21
201.6078623900395
 31
0.0
  0
LINE
  5
F64
330
1F
100
AcDbEntity
  8
AM_VIS
100
AcDbLine
 10
211.7917665942293
 20
201.9568623900394
 30
0.0
 11
211.7917665942293
 21
199.9593453939995
 31
0.0
  0
ARC
  5
F65
330
1F
100
AcDbEntity
  8
AM_VIS
100
AcDbCircle
 10
216.3754251603239
 20
201.9568623900394
 30
0.0
 40
5.0
100
AcDbArc
 50
196.8579560224986
 51
203.5471372370784
  0
LINE
  5
F66
330
1F
100
AcDbEntity
  8
AM_VIS
100
AcDbLine
 10
218.4754251603238
 20
199.4568623900394
 30
0.0
 11
218.4754251603238
 21
198.4568623900394
 31
0.0
  0
LINE
  5
F67
330
1F
100
AcDbEntity
  8
AM_VIS
100
AcDbLine
 10
218.4754251603238
 20
198.4568623900394
 30
0.0
 11
218.4754251603238
 21
199.4568623900394
 31
0.0
  0
LINE
  5
F68
330
1F
100
AcDbEntity
  8
AM_VIS
100
AcDbLine
 10
213.9754251603238
 20
199.0068623900395
 30
0.0
 11
213.9754251603238
 21
198.4568623900394
 31
0.0
  0
LINE
  5
F69
330
1F
100
AcDbEntity
  8
AM_VIS
100
AcDbLine
 10
214.4754251603238
 20
198.4568623900394
 30
0.0
 11
214.4754251603238
 21
199.4568623900394
 31
0.0
  0
LINE
  5
F6A
330
1F
100
AcDbEntity
  8
AM_VIS
100
AcDbLine
 10
213.9754251603238
 20
198.4568623900394
 30
0.0
 11
214.4754251603238
 21
198.4568623900394
 31
0.0
  0
LINE
  5
F6B
330
1F
100
AcDbEntity
  8
AM_VIS
100
AcDbLine
 10
214.4754251603238
 20
199.0068623900395
 30
0.0
 11
213.7754251603235
 21
199.0068623900395
 31
0.0
  0
LINE
  5
F6C
330
1F
100
AcDbEntity
  8
AM_VIS
100
AcDbLine
 10
214.4754251603238
 20
198.4568623900394
 30
0.0
 11
218.4754251603238
 21
198.4568623900394
 31
0.0
  0
ARC
  5
F6D
330
1F
100
AcDbEntity
  8
AM_VIS
100
AcDbCircle
 10
212.4754251603238
 20
199.4568623900394
 30
0.0
 40
0.9999999999999998
100
AcDbArc
 50
180.0
 51
270.0
  0
LINE
  5
F6E
330
1F
100
AcDbEntity
  8
AM_VIS
100
AcDbLine
 10
213.9754251603238
 20
198.4568623900394
 30
0.0
 11
212.4754251603238
 21
198.4568623900394
 31
0.0
  0
LINE
  5
F6F
330
1F
100
AcDbEntity
  8
AM_VIS
100
AcDbLine
 10
212.7872577587948
 20
199.2433158353391
 30
0.0
 11
213.7754251603235
 21
199.1568623900394
 31
0.0
  0
LINE
  5
F70
330
1F
100
AcDbEntity
  8
AM_VIS
100
AcDbLine
 10
211.4754251603238
 20
199.4568623900394
 30
0.0
 11
211.4754251603238
 21
201.0250904222275
 31
0.0
  0
LINE
  5
F71
330
1F
100
AcDbEntity
  8
AM_VIS
100
AcDbLine
 10
212.7872577587948
 20
201.9568623900394
 30
0.0
 11
212.7872577587948
 21
199.2433158353391
 31
0.0
  0
ARC
  5
F72
330
1F
100
AcDbEntity
  8
AM_VIS
100
AcDbCircle
 10
212.8918446500918
 20
200.4387494730492
 30
0.0
 40
1.199999999999999
100
AcDbArc
 50
203.5471372370784
 51
265.0000000000003
  0
LINE
  5
F73
330
1F
100
AcDbEntity
  8
AM_VIS
100
AcDbLine
 10
213.9754251603238
 20
205.9568623900394
 30
0.0
 11
213.9754251603238
 21
204.906096758458
 31
0.0
  0
ARC
  5
F74
330
1F
100
AcDbEntity
  8
AM_VIS
100
AcDbCircle
 10
213.9754251603238
 20
205.4568623900394
 30
0.0
 40
0.5
100
AcDbArc
 50
0.0
 51
90.0
  0
ELLIPSE
  5
F75
330
1F
100
AcDbEntity
  8
AM_VIS
100
AcDbEllipse
 10
214.1600719990472
 20
201.9568623900394
 30
0.0
 11
-8.105058387392032
 21
0.0000000000000095
 31
0.0000000000000002
210
0.0
220
0.0
230
1.0
 40
0.3639702342661606
 41
4.71238898038469
 42
4.759864439802206
  0
LINE
  5
F76
330
1F
100
AcDbEntity
  8
AM_VIS
100
AcDbLine
 10
214.4754251603238
 20
204.9068623900395
 30
0.0
 11
214.1600719990472
 21
204.9068623900395
 31
0.0
  0
LINE
  5
F77
330
1F
100
AcDbEntity
  8
AM_VIS
100
AcDbLine
 10
212.4754251603238
 20
205.9568623900394
 30
0.0
 11
211.4754251603238
 21
205.9568623900394
 31
0.0
  0
LINE
  5
F78
330
1F
100
AcDbEntity
  8
AM_VIS
100
AcDbLine
 10
212.4754251603238
 20
205.9568623900394
 30
0.0
 11
213.9754251603238
 21
205.9568623900394
 31
0.0
  0
LINE
  5
F79
330
1F
100
AcDbEntity
  8
AM_VIS
100
AcDbLine
 10
212.7872577587948
 20
204.6704089447398
 30
0.0
 11
213.7754251603235
 21
204.7568623900395
 31
0.0
  0
ARC
  5
F7A
330
1F
100
AcDbEntity
  8
AM_VIS
100
AcDbCircle
 10
216.3754251603239
 20
201.9568623900394
 30
0.0
 40
4.987805028266581
100
AcDbArc
 50
163.1891285876332
 51
171.2190096199663
  0
LINE
  5
F7B
330
1F
100
AcDbEntity
  8
AM_VIS
100
AcDbLine
 10
211.4460817720012
 20
202.3058623900395
 30
0.0
 11
211.4460817720012
 21
202.718290495642
 31
0.0
  0
LINE
  5
F7C
330
1F
100
AcDbEntity
  8
AM_VIS
100
AcDbLine
 10
211.600775781307
 20
202.3058623900395
 30
0.0
 11
211.4460817720007
 21
202.3058623900395
 31
0.0
  0
LINE
  5
F7D
330
1F
100
AcDbEntity
  8
AM_VIS
100
AcDbLine
 10
211.600775781307
 20
203.3994026173661
 30
0.0
 11
211.5902919333382
 21
203.4068623900395
 31
0.0
  0
ARC
  5
F7E
330
1F
100
AcDbEntity
  8
AM_VIS
100
AcDbCircle
 10
216.3754251603239
 20
201.9568623900394
 30
0.0
 40
5.0
100
AcDbArc
 50
156.4528627629215
 51
163.1420439775014
  0
LINE
  5
F7F
330
1F
100
AcDbEntity
  8
AM_VIS
100
AcDbLine
 10
211.4754251603238
 20
205.9568623900394
 30
0.0
 11
211.4754251603238
 21
202.8886343578514
 31
0.0
  0
ARC
  5
F80
330
1F
100
AcDbEntity
  8
AM_VIS
100
AcDbCircle
 10
212.8918446500918
 20
203.4749753070297
 30
0.0
 40
1.2
100
AcDbArc
 50
94.99999999999975
 51
156.4528627629215
  0
LINE
  5
F91
330
1F
100
AcDbEntity
  8
AM_VIS
100
AcDbLine
 10
218.4754251603238
 20
233.4568623900394
 30
0.0
 11
212.4754251603238
 21
233.4568623900394
 31
0.0
  0
ARC
  5
F92
330
1F
100
AcDbEntity
  8
AM_VIS
100
AcDbCircle
 10
212.4754251603238
 20
232.4568623900394
 30
0.0
 40
1.0
100
AcDbArc
 50
90.0
 51
180.0
  0
LINE
  5
F93
330
1F
100
AcDbEntity
  8
AM_VIS
100
AcDbLine
 10
218.4754251603238
 20
233.4568623900394
 30
0.0
 11
218.4754251603238
 21
232.4568623900394
 31
0.0
  0
LINE
  5
F94
330
1F
100
AcDbEntity
  8
AM_VIS
100
AcDbLine
 10
218.4754251603238
 20
232.4568623900394
 30
0.0
 11
218.4754251603238
 21
233.4568623900394
 31
0.0
  0
LINE
  5
F9A
330
1F
100
AcDbEntity
  8
AM_7
  6
AM_ISO08W050x2
100
AcDbLine
 10
224.9754251603238
 20
224.9568623900394
 30
0.0
 11
221.8754251603239
 21
224.9568623900394
 31
0.0
1001
GENIUS_GENOREF_13
1005
1148
  0
LINE
  5
F9B
330
1F
100
AcDbEntity
  8
AM_7
  6
AM_ISO08W050x2
100
AcDbLine
 10
224.9754251603238
 20
224.9568623900394
 30
0.0
 11
224.9754251603238
 21
228.0568623900395
 31
0.0
1001
GENIUS_GENOREF_13
1005
1148
  0
LINE
  5
F9C
330
1F
100
AcDbEntity
  8
AM_7
  6
AM_ISO08W050x2
100
AcDbLine
 10
224.9754251603238
 20
224.9568623900394
 30
0.0
 11
228.0754251603237
 21
224.9568623900394
 31
0.0
1001
GENIUS_GENOREF_13
1005
1148
  0
CIRCLE
  5
F9D
330
1F
100
AcDbEntity
  8
AM_VIS
100
AcDbCircle
 10
228.9754251603238
 20
228.9568623900394
 30
0.0
 40
1.050000000000015
  0
CIRCLE
  5
F9E
330
1F
100
AcDbEntity
  8
AM_VIS
100
AcDbCircle
 10
228.9754251603238
 20
228.9568623900394
 30
0.0
 40
1.05
  0
LINE
  5
FA3
330
1F
100
AcDbEntity
  8
AM_7
  6
AM_ISO08W050x2
100
AcDbLine
 10
249.9754251603238
 20
224.9568623900394
 30
0.0
 11
249.9754251603238
 21
221.8568623900394
 31
0.0
1001
GENIUS_GENOREF_13
1005
1147
  0
LINE
  5
FAD
330
1F
100
AcDbEntity
  8
AM_VIS
100
AcDbLine
 10
256.4754251603238
 20
218.4568623900394
 30
0.0
 11
256.4754251603238
 21
233.4568623900394
 31
0.0
  0
CIRCLE
  5
FAE
330
1F
100
AcDbEntity
  8
AM_VIS
100
AcDbCircle
 10
249.9754251603238
 20
224.9568623900394
 30
0.0
 40
2.1
  0
LINE
  5
FAF
330
1F
100
AcDbEntity
  8
AM_VIS
100
AcDbLine
 10
278.4754251603238
 20
233.1568623900394
 30
0.0
 11
278.4754251603238
 21
198.7568623900394
 31
0.0
  0
LINE
  5
FB0
330
1F
100
AcDbEntity
  8
AM_VIS
100
AcDbLine
 10
278.4754251603238
 20
199.7568623900394
 30
0.0
 11
278.4754251603238
 21
232.1568623900394
 31
0.0
  0
LINE
  5
FB1
330
1F
100
AcDbEntity
  8
AM_VIS
100
AcDbLine
 10
256.4754251603238
 20
199.4568623900394
 30
0.0
 11
256.4754251603238
 21
232.4568623900394
 31
0.0
  0
LINE
  5
FB3
330
1F
100
AcDbEntity
  8
AM_VIS
100
AcDbLine
 10
256.4754251603238
 20
198.4568623900394
 30
0.0
 11
256.4754251603238
 21
213.4568623900394
 31
0.0
  0
LINE
  5
FB4
330
1F
100
AcDbEntity
  8
AM_VIS
100
AcDbLine
 10
256.4754251603238
 20
198.4568623900394
 30
0.0
 11
278.4754251603238
 21
198.7568623900394
 31
0.0
  0
LINE
  5
FBE
330
1F
100
AcDbEntity
  8
AM_VIS
100
AcDbLine
 10
256.9754251603238
 20
218.4568623900394
 30
0.0
 11
256.9754251603238
 21
213.4568623900394
 31
0.0
  0
LINE
  5
FBF
330
1F
100
AcDbEntity
  8
AM_VIS
100
AcDbLine
 10
256.9754251603238
 20
213.4568623900394
 30
0.0
 11
256.4754251603238
 21
213.4568623900394
 31
0.0
  0
LINE
  5
FC0
330
1F
100
AcDbEntity
  8
AM_VIS
100
AcDbLine
 10
256.4754251603238
 20
218.4568623900394
 30
0.0
 11
256.9754251603238
 21
218.4568623900394
 31
0.0
  0
LINE
  5
FFF
330
1F
100
AcDbEntity
  8
AM_VIS
100
AcDbLine
 10
266.2754251603235
 20
235.6568623900394
 30
0.0
 11
273.1754251603236
 21
235.6568623900394
 31
0.0
  0
LINE
  5
1000
330
1F
100
AcDbEntity
  8
AM_VIS
100
AcDbLine
 10
278.4754251603238
 20
233.1568623900394
 30
0.0
 11
256.4754251603238
 21
233.4568623900394
 31
0.0
  0
LINE
  5
1001
330
1F
100
AcDbEntity
  8
AM_VIS
100
AcDbLine
 10
252.9754251603238
 20
232.4568623900394
 30
0.0
 11
252.9754251603238
 21
230.4568623900394
 31
0.0
  0
LINE
  5
1002
330
1F
100
AcDbEntity
  8
AM_VIS
100
AcDbLine
 10
246.9754251603238
 20
230.4568623900394
 30
0.0
 11
246.9754251603238
 21
232.4568623900394
 31
0.0
  0
LINE
  5
1003
330
1F
100
AcDbEntity
  8
AM_7
  6
AM_ISO08W050x2
100
AcDbLine
 10
249.9754251603238
 20
224.9568623900394
 30
0.0
 11
246.8754251603239
 21
224.9568623900394
 31
0.0
1001
GENIUS_GENOREF_13
1005
1147
  0
LINE
  5
1004
330
1F
100
AcDbEntity
  8
AM_7
  6
AM_ISO08W050x2
100
AcDbLine
 10
249.9754251603238
 20
224.9568623900394
 30
0.0
 11
249.9754251603238
 21
228.0568623900395
 31
0.0
1001
GENIUS_GENOREF_13
1005
1147
  0
LINE
  5
1005
330
1F
100
AcDbEntity
  8
AM_7
  6
AM_ISO08W050x2
100
AcDbLine
 10
249.9754251603238
 20
224.9568623900394
 30
0.0
 11
253.0754251603237
 21
224.9568623900394
 31
0.0
1001
GENIUS_GENOREF_13
1005
1147
  0
LINE
  5
1006
330
1F
100
AcDbEntity
  8
AM_VIS
100
AcDbLine
 10
252.9754251603238
 20
230.4568623900394
 30
0.0
 11
246.9754251603238
 21
230.4568623900394
 31
0.0
  0
LINE
  5
1007
330
1F
100
AcDbEntity
  8
AM_VIS
100
AcDbLine
 10
256.4754251603238
 20
233.4568623900394
 30
0.0
 11
252.9754251603238
 21
233.4568623900394
 31
0.0
  0
LINE
  5
1008
330
1F
100
AcDbEntity
  8
AM_VIS
100
AcDbLine
 10
252.9754251603238
 20
232.4568623900394
 30
0.0
 11
252.9754251603238
 21
233.4568623900394
 31
0.0
  0
LINE
  5
1009
330
1F
100
AcDbEntity
  8
AM_VIS
100
AcDbLine
 10
246.9754251603238
 20
233.4568623900394
 30
0.0
 11
246.9754251603238
 21
232.4568623900394
 31
0.0
  0
LINE
  5
100A
330
1F
100
AcDbEntity
  8
AM_VIS
100
AcDbLine
 10
246.9754251603238
 20
233.4568623900394
 30
0.0
 11
252.9754251603238
 21
233.4568623900394
 31
0.0
  0
LINE
  5
100B
330
1F
100
AcDbEntity
  8
AM_VIS
100
AcDbLine
 10
266.2754251603235
 20
233.323226026403
 30
0.0
 11
266.2754251603235
 21
235.6568623900394
 31
0.0
  0
LINE
  5
100C
330
1F
100
AcDbEntity
  8
AM_VIS
100
AcDbLine
 10
273.1754251603236
 20
233.2291351173121
 30
0.0
 11
273.1754251603236
 21
235.6568623900395
 31
0.0
  0
LINE
  5
1041
330
1F
100
AcDbEntity
  8
AM_7
100
AcDbLine
 10
209.723096224099
 20
319.4732905734039
 30
0.0
 11
333.584174935673
 21
319.4732905734039
 31
0.0
1001
GENIUS_GENODEF_13
1002
{
1000
HIER
1070
     0
1002
}
1002
{
1000
MANEDIT
1070
     0
1002
}
1002
{
1000
NOSEL
1070
     0
1002
}
1002
{
1000
BEHIND
1070
     0
1002
}
1002
{
1000
OTHER
1070
     0
1002
}
1002
{
1000
REACTOR
1002
}
1001
GENIUS_GENOBJ-N-CEN_13
1002
{
1000
OWNER
1000
GEN
1002
}
  0
LINE
  5
1053
330
1F
100
AcDbEntity
  8
AM_VIS
100
AcDbLine
 10
278.4754251603238
 20
309.5232905734039
 30
0.0
 11
278.4754251603238
 21
329.4232905734039
 31
0.0
  0
LINE
  5
1054
330
1F
100
AcDbEntity
  8
AM_VIS
100
AcDbLine
 10
256.4754251603238
 20
309.3232905734039
 30
0.0
 11
256.4754251603238
 21
329.6232905734039
 31
0.0
  0
LINE
  5
1057
330
1F
100
AcDbEntity
  8
AM_VIS
100
AcDbLine
 10
256.4754251603238
 20
308.3232905734039
 30
0.0
 11
256.4754251603238
 21
330.6232905734039
 31
0.0
  0
LINE
  5
1058
330
1F
100
AcDbEntity
  8
AM_VIS
100
AcDbLine
 10
278.4754251603238
 20
330.4232905734039
 30
0.0
 11
278.4754251603238
 21
308.5232905734039
 31
0.0
  0
LINE
  5
1059
330
1F
100
AcDbEntity
  8
AM_7
  6
AM_ISO08W050x2
100
AcDbLine
 10
224.9754251603238
 20
327.9732905734039
 30
0.0
 11
224.9754251603238
 21
323.9732905734039
 31
0.0
1001
GENIUS_GENOREF_13
1005
114C
  0
LINE
  5
105A
330
1F
100
AcDbEntity
  8
AM_VIS
100
AcDbLine
 10
213.7754251603235
 20
326.3332905734039
 30
0.0
 11
213.7754251603235
 21
323.5232905734039
 31
0.0
  0
LINE
  5
105B
330
1F
100
AcDbEntity
  8
AM_VIS
100
AcDbLine
 10
211.4754251603238
 20
325.541518605592
 30
0.0
 11
211.4754251603238
 21
322.473290573404
 31
0.0
  0
ARC
  5
105C
330
1F
100
AcDbEntity
  8
AM_VIS
100
AcDbCircle
 10
212.8918446500918
 20
324.9551776564136
 30
0.0
 40
1.199999999999999
100
AcDbArc
 50
203.5471372370784
 51
265.0000000000003
  0
LINE
  5
105D
330
1F
100
AcDbEntity
  8
AM_VIS
100
AcDbLine
 10
212.7872577587948
 20
329.1868371281042
 30
0.0
 11
212.7872577587948
 21
323.7597440187035
 31
0.0
  0
LINE
  5
105E
330
1F
100
AcDbEntity
  8
AM_VIS
100
AcDbLine
 10
214.4754251603238
 20
329.623290573404
 30
0.0
 11
214.4754251603238
 21
322.973290573404
 31
0.0
  0
LINE
  5
105F
330
1F
100
AcDbEntity
  8
AM_VIS
100
AcDbLine
 10
218.4754251603238
 20
329.6232905734039
 30
0.0
 11
218.4754251603238
 21
309.3232905734039
 31
0.0
  0
LINE
  5
1060
330
1F
100
AcDbEntity
  8
AM_VIS
100
AcDbLine
 10
218.4754251603238
 20
309.3232905734039
 30
0.0
 11
218.4754251603238
 21
329.623290573404
 31
0.0
  0
LINE
  5
1061
330
1F
100
AcDbEntity
  8
AM_7
100
AcDbLine
 10
237.4754251603238
 20
317.4732905734039
 30
0.0
 11
237.4754251603238
 21
325.173290573404
 31
0.0
1001
GENIUS_GENOREF_13
1005
114B
  0
LINE
  5
1062
330
1F
100
AcDbEntity
  8
AM_7
100
AcDbLine
 10
237.4754251603238
 20
317.4732905734039
 30
0.0
 11
245.1754251603236
 21
317.4732905734039
 31
0.0
1001
GENIUS_GENOREF_13
1005
114B
  0
LINE
  5
1063
330
1F
100
AcDbEntity
  8
AM_VIS
100
AcDbLine
 10
218.4754251603238
 20
308.3232905734039
 30
0.0
 11
246.9754251603238
 21
308.3232905734039
 31
0.0
  0
CIRCLE
  5
1064
330
1F
100
AcDbEntity
  8
AM_VIS
100
AcDbCircle
 10
237.4754251603238
 20
317.4732905734039
 30
0.0
 40
6.699999999999999
  0
LINE
  5
1065
330
1F
100
AcDbEntity
  8
AM_VIS
100
AcDbLine
 10
218.4754251603238
 20
308.3232905734039
 30
0.0
 11
218.4754251603238
 21
309.3232905734039
 31
0.0
  0
LINE
  5
1066
330
1F
100
AcDbEntity
  8
AM_VIS
100
AcDbLine
 10
218.4754251603238
 20
309.3232905734039
 30
0.0
 11
218.4754251603238
 21
308.3232905734039
 31
0.0
  0
ARC
  5
1067
330
1F
100
AcDbEntity
  8
AM_VIS
100
AcDbCircle
 10
212.4754251603238
 20
309.3232905734039
 30
0.0
 40
1.0
100
AcDbArc
 50
180.0
 51
270.0
  0
LINE
  5
1068
330
1F
100
AcDbEntity
  8
AM_VIS
100
AcDbLine
 10
212.4754251603238
 20
308.3232905734039
 30
0.0
 11
218.4754251603238
 21
308.3232905734039
 31
0.0
  0
CIRCLE
  5
1069
330
1F
100
AcDbEntity
  8
AM_VIS
100
AcDbCircle
 10
215.2254251603238
 20
317.5732905734039
 30
0.0
 40
1.699999999999999
  0
CIRCLE
  5
106A
330
1F
100
AcDbEntity
  8
AM_VIS
100
AcDbCircle
 10
215.2254251603238
 20
317.5732905734039
 30
0.0
 40
1.394764278068814
  0
SPLINE
  5
106B
330
1F
100
AcDbEntity
  8
AM_VIS
100
AcDbSpline
210
0.0
220
0.0
230
1.0
 70
    11
 71
     3
 72
    46
 73
    42
 74
     0
 42
0.0000000001
 43
0.0000000001
 40
0.0
 40
0.0
 40
0.0
 40
0.0
 40
0.1991704762764222
 40
0.1991704762764222
 40
0.3983409525528445
 40
0.3983409525528445
 40
0.796681905105689
 40
0.796681905105689
 40
1.187859126346038
 40
1.187859126346038
 40
1.579036347586388
 40
1.579036347586388
 40
1.970213568826736
 40
1.970213568826736
 40
2.361390790067085
 40
2.361390790067085
 40
2.759731742619929
 40
2.759731742619929
 40
2.958902218896351
 40
2.958902218896351
 40
3.158072695172774
 40
3.158072695172774
 40
3.362430494524818
 40
3.362430494524818
 40
3.566788293876862
 40
3.566788293876862
 40
3.97550389258095
 40
3.97550389258095
 40
4.374509468903093
 40
4.374509468903093
 40
4.773515045225236
 40
4.773515045225236
 40
5.17252062154738
 40
5.17252062154738
 40
5.571526197869523
 40
5.571526197869523
 40
5.980241796573612
 40
5.980241796573612
 40
6.184599595925657
 40
6.184599595925657
 40
6.388957395277701
 40
6.388957395277701
 40
6.388957395277701
 40
6.388957395277701
 10
216.0890229312056
 20
318.5732033307307
 30
0.0
 10
216.088265584294
 20
318.5723264400483
 30
0.0
 10
216.0954005417377
 20
318.5647671514848
 30
0.0
 10
216.122992625498
 20
318.5367685587676
 30
0.0
 10
216.1433191548169
 20
318.5163446146976
 30
0.0
 10
216.214986107251
 20
318.4382497360831
 30
0.0
 10
216.2763121438309
 20
318.3628787479551
 30
0.0
 10
216.3819473523751
 20
318.191478705099
 30
0.0
 10
216.4348226082132
 20
318.0830896890175
 30
0.0
 10
216.5088153500758
 20
317.8393200487123
 30
0.0
 10
216.5294223032185
 20
317.7036829804841
 30
0.0
 10
216.5294223032185
 20
317.4428981663238
 30
0.0
 10
216.5088153500758
 20
317.3072610980956
 30
0.0
 10
216.4348226082132
 20
317.0634914577905
 30
0.0
 10
216.3819473523751
 20
316.9551024417089
 30
0.0
 10
216.2763121438309
 20
316.7837023988528
 30
0.0
 10
216.214986107251
 20
316.7083314107248
 30
0.0
 10
216.1433191548169
 20
316.6302365321104
 30
0.0
 10
216.122992625498
 20
316.6098125880404
 30
0.0
 10
216.0954005417377
 20
316.5818139953231
 30
0.0
 10
216.088265584294
 20
316.5742547067596
 30
0.0
 10
216.0898000029435
 20
316.5724780870939
 30
0.0
 10
216.0988774947962
 20
316.5785973659412
 30
0.0
 10
216.1306031412784
 20
316.6042062679367
 30
0.0
 10
216.1531136987644
 20
316.6236810500479
 30
0.0
 10
216.2311967211751
 20
316.6996367113084
 30
0.0
 10
216.2966122706664
 20
316.7745217415295
 30
0.0
 10
216.4087147864691
 20
316.9464692421735
 30
0.0
 10
216.4644473995406
 20
317.0556148470676
 30
0.0
 10
216.5425132794055
 20
317.3023904229484
 30
0.0
 10
216.5643324330747
 20
317.4402887146299
 30
0.0
 10
216.5643324330747
 20
317.706292432178
 30
0.0
 10
216.5425132794055
 20
317.8441907238595
 30
0.0
 10
216.4644473995406
 20
318.0909662997403
 30
0.0
 10
216.4087147864691
 20
318.2001119046345
 30
0.0
 10
216.2966122706664
 20
318.3720594052785
 30
0.0
 10
216.2311967211751
 20
318.4469444354995
 30
0.0
 10
216.1531136987644
 20
318.52290009676
 30
0.0
 10
216.1306031412784
 20
318.5423748788712
 30
0.0
 10
216.0988774947962
 20
318.5679837808668
 30
0.0
 10
216.0898000029435
 20
318.5741030597139
 30
0.0
 10
216.0890229312056
 20
318.5732033307307
 30
0.0
  0
CIRCLE
  5
106C
330
1F
100
AcDbEntity
  8
AM_VIS
100
AcDbCircle
 10
215.2254251603238
 20
317.5813560613823
 30
0.0
 40
1.183132801864888
  0
LINE
  5
106D
330
1F
100
AcDbEntity
  8
AM_VIS
100
AcDbLine
 10
211.4754251603238
 20
322.473290573404
 30
0.0
 11
211.4754251603238
 21
309.3232905734039
 31
0.0
  0
LINE
  5
106E
330
1F
100
AcDbEntity
  8
AM_VIS
100
AcDbLine
 10
214.4754251603238
 20
323.5232905734039
 30
0.0
 11
213.7754251603235
 21
323.5232905734039
 31
0.0
  0
ARC
  5
106F
330
1F
100
AcDbEntity
  8
AM_VIS
100
AcDbCircle
 10
213.9754251603238
 20
322.973290573404
 30
0.0
 40
0.5
100
AcDbArc
 50
270.0
 51
0.0
  0
LINE
  5
1070
330
1F
100
AcDbEntity
  8
AM_VIS
100
AcDbLine
 10
213.9754251603238
 20
323.5232905734039
 30
0.0
 11
213.9754251603238
 21
322.473290573404
 31
0.0
  0
LINE
  5
1071
330
1F
100
AcDbEntity
  8
AM_VIS
100
AcDbLine
 10
211.4754251603238
 20
322.473290573404
 30
0.0
 11
212.4754251603238
 21
322.473290573404
 31
0.0
  0
LINE
  5
1072
330
1F
100
AcDbEntity
  8
AM_VIS
100
AcDbLine
 10
212.7872577587948
 20
323.7597440187035
 30
0.0
 11
213.7754251603235
 21
323.6732905734038
 31
0.0
  0
LINE
  5
1073
330
1F
100
AcDbEntity
  8
AM_VIS
100
AcDbLine
 10
213.9754251603238
 20
322.473290573404
 30
0.0
 11
212.4754251603238
 21
322.473290573404
 31
0.0
  0
LINE
  5
1074
330
1F
100
AcDbEntity
  8
AM_VIS
100
AcDbLine
 10
216.1236484607459
 20
318.35160818775
 30
0.0
 11
214.1465721181228
 21
318.0691687102324
 31
0.0
  0
LINE
  5
1075
330
1F
100
AcDbEntity
  8
AM_VIS
100
AcDbLine
 10
235.2254251603238
 20
314.4732905734039
 30
0.0
 11
235.2254251603238
 21
320.4732905734039
 31
0.0
  0
LINE
  5
1076
330
1F
100
AcDbEntity
  8
AM_VIS
100
AcDbLine
 10
239.7254251603238
 20
320.4732905734039
 30
0.0
 11
239.7254251603238
 21
314.4732905734039
 31
0.0
  0
LINE
  5
1077
330
1F
100
AcDbEntity
  8
AM_7
100
AcDbLine
 10
237.4754251603238
 20
317.4732905734039
 30
0.0
 11
237.4754251603238
 21
309.7732905734039
 31
0.0
1001
GENIUS_GENOREF_13
1005
114B
  0
CIRCLE
  5
1078
330
1F
100
AcDbEntity
  8
AM_VIS
100
AcDbCircle
 10
237.4754251603238
 20
317.4732905734039
 30
0.0
 40
5.449999999999999
  0
ARC
  5
107A
330
1F
100
AcDbEntity
  8
AM_VIS
100
AcDbCircle
 10
237.4754251603238
 20
314.4732905734039
 30
0.0
 40
2.249999999999996
100
AcDbArc
 50
180.0
 51
0.0
  0
LINE
  5
107B
330
1F
100
AcDbEntity
  8
AM_7
100
AcDbLine
 10
237.4754251603238
 20
317.4732905734039
 30
0.0
 11
229.7754251603235
 21
317.4732905734039
 31
0.0
1001
GENIUS_GENOREF_13
1005
114B
  0
ARC
  5
107C
330
1F
100
AcDbEntity
  8
AM_VIS
100
AcDbCircle
 10
237.4754251603238
 20
320.4732905734039
 30
0.0
 40
2.25
100
AcDbArc
 50
0.0
 51
180.0
  0
LINE
  5
1092
330
1F
100
AcDbEntity
  8
AM_7
  6
AM_ISO08W050x2
100
AcDbLine
 10
249.9754251603238
 20
310.9732905734039
 30
0.0
 11
249.9754251603238
 21
306.9732905734039
 31
0.0
1001
GENIUS_GENOREF_13
1005
114A
  0
LINE
  5
1093
330
1F
100
AcDbEntity
  8
AM_VIS
100
AcDbLine
 10
252.9754251603238
 20
308.3232905734039
 30
0.0
 11
252.9754251603238
 21
309.3232905734039
 31
0.0
  0
LINE
  5
1094
330
1F
100
AcDbEntity
  8
AM_VIS
100
AcDbLine
 10
246.9754251603238
 20
309.3232905734039
 30
0.0
 11
246.9754251603238
 21
308.3232905734039
 31
0.0
  0
LINE
  5
1095
330
1F
100
AcDbEntity
  8
AM_VIS
100
AcDbLine
 10
278.4754251603238
 20
308.5232905734039
 30
0.0
 11
256.4754251603238
 21
308.3232905734039
 31
0.0
  0
LINE
  5
1096
330
1F
100
AcDbEntity
  8
AM_VIS
100
AcDbLine
 10
252.9754251603238
 20
308.3232905734039
 30
0.0
 11
256.4754251603238
 21
308.3232905734039
 31
0.0
  0
LINE
  5
1097
330
1F
100
AcDbEntity
  8
AM_VIS
100
AcDbLine
 10
252.9754251603238
 20
308.3232905734039
 30
0.0
 11
246.9754251603238
 21
308.3232905734039
 31
0.0
  0
CIRCLE
  5
1099
330
1F
100
AcDbEntity
  8
AM_VIS
100
AcDbCircle
 10
269.7254251603238
 20
319.4732905734039
 30
0.0
 40
3.45
  0
CIRCLE
  5
109A
330
1F
100
AcDbEntity
  8
AM_VIS
100
AcDbCircle
 10
269.6754251603236
 20
319.4732905734039
 30
0.0
 40
3.5
  0
LINE
  5
109B
330
1F
100
AcDbEntity
  8
AM_VIS
100
AcDbLine
 10
252.9754251603238
 20
310.9732905734039
 30
0.0
 11
252.9754251603238
 21
309.3232905734039
 31
0.0
  0
CIRCLE
  5
109C
330
1F
100
AcDbEntity
  8
AM_VIS
100
AcDbCircle
 10
249.9754251603238
 20
310.9732905734039
 30
0.0
 40
1.6
  0
CIRCLE
  5
109D
330
1F
100
AcDbEntity
  8
AM_VIS
100
AcDbCircle
 10
249.9754251603238
 20
310.9732905734039
 30
0.0
 40
1.600000000000041
  0
LINE
  5
109E
330
1F
100
AcDbEntity
  8
AM_VIS
100
AcDbLine
 10
246.9754251603238
 20
309.3232905734039
 30
0.0
 11
246.9754251603238
 21
310.9732905734039
 31
0.0
  0
LINE
  5
109F
330
1F
100
AcDbEntity
  8
AM_7
  6
AM_ISO08W050x2
100
AcDbLine
 10
249.9754251603238
 20
310.9732905734039
 30
0.0
 11
245.9754251603238
 21
310.9732905734039
 31
0.0
1001
GENIUS_GENOREF_13
1005
114A
  0
LINE
  5
10A0
330
1F
100
AcDbEntity
  8
AM_7
  6
AM_ISO08W050x2
100
AcDbLine
 10
249.9754251603238
 20
310.9732905734039
 30
0.0
 11
253.9754251603238
 21
310.9732905734039
 31
0.0
1001
GENIUS_GENOREF_13
1005
114A
  0
LINE
  5
10A1
330
1F
100
AcDbEntity
  8
AM_7
  6
AM_ISO08W050x2
100
AcDbLine
 10
249.9754251603238
 20
310.9732905734039
 30
0.0
 11
249.9754251603238
 21
314.9732905734039
 31
0.0
1001
GENIUS_GENOREF_13
1005
114A
  0
ARC
  5
10A2
330
1F
100
AcDbEntity
  8
AM_VIS
100
AcDbCircle
 10
249.9754251603238
 20
310.9732905734039
 30
0.0
 40
3.0
100
AcDbArc
 50
0.0
 51
180.0
  0
LINE
  5
10A4
330
1F
100
AcDbEntity
  8
AM_VIS
100
AcDbLine
 10
272.1249149031071
 20
321.9732905734039
 30
0.0
 11
272.1029238459175
 21
321.9732905734039
 31
0.0
  0
LINE
  5
10A5
330
1F
100
AcDbEntity
  8
AM_VIS
100
AcDbLine
 10
269.2254251603237
 20
317.6732905734038
 30
0.0
 11
269.2254251603237
 21
321.2732905734039
 31
0.0
  0
LINE
  5
10A6
330
1F
100
AcDbEntity
  8
AM_VIS
100
AcDbLine
 10
270.2254251603238
 20
321.2732905734039
 30
0.0
 11
270.2254251603238
 21
317.6732905734039
 31
0.0
  0
LINE
  5
10A7
330
1F
100
AcDbEntity
  8
AM_VIS
100
AcDbLine
 10
272.1249149031071
 20
316.9732905734039
 30
0.0
 11
272.1029238459175
 21
316.9732905734039
 31
0.0
  0
LINE
  5
10A8
330
1F
100
AcDbEntity
  8
AM_VIS
100
AcDbLine
 10
270.2254251603238
 20
317.6732905734038
 30
0.0
 11
269.2254251603237
 21
317.6732905734038
 31
0.0
  0
LINE
  5
10A9
330
1F
100
AcDbEntity
  8
AM_VIS
100
AcDbLine
 10
269.2254251603237
 20
321.2732905734039
 30
0.0
 11
270.2254251603238
 21
321.2732905734039
 31
0.0
  0
LINE
  5
10CB
330
1F
100
AcDbEntity
  8
AM_VIS
100
AcDbLine
 10
256.4754251603238
 20
330.6232905734039
 30
0.0
 11
227.9754251603238
 21
330.6232905734039
 31
0.0
  0
LINE
  5
10CC
330
1F
100
AcDbEntity
  8
AM_7
  6
AM_ISO08W050x2
100
AcDbLine
 10
224.9754251603238
 20
327.9732905734039
 30
0.0
 11
220.9754251603238
 21
327.9732905734039
 31
0.0
1001
GENIUS_GENOREF_13
1005
114C
  0
LINE
  5
10CD
330
1F
100
AcDbEntity
  8
AM_VIS
100
AcDbLine
 10
221.9754251603238
 20
330.6232905734039
 30
0.0
 11
218.4754251603238
 21
330.6232905734039
 31
0.0
  0
LINE
  5
10CE
330
1F
100
AcDbEntity
  8
AM_VIS
100
AcDbLine
 10
214.4754251603238
 20
330.623290573404
 30
0.0
 11
213.9754251603238
 21
330.623290573404
 31
0.0
  0
LINE
  5
10CF
330
1F
100
AcDbEntity
  8
AM_VIS
100
AcDbLine
 10
218.4754251603238
 20
330.623290573404
 30
0.0
 11
214.4754251603238
 21
330.623290573404
 31
0.0
  0
LINE
  5
10D0
330
1F
100
AcDbEntity
  8
AM_VIS
100
AcDbLine
 10
212.4754251603238
 20
330.623290573404
 30
0.0
 11
213.9754251603238
 21
330.623290573404
 31
0.0
  0
LINE
  5
10D1
330
1F
100
AcDbEntity
  8
AM_VIS
100
AcDbLine
 10
214.4754251603238
 20
329.4232905734038
 30
0.0
 11
213.7754251603235
 21
329.4232905734038
 31
0.0
  0
LINE
  5
10D2
330
1F
100
AcDbEntity
  8
AM_VIS
100
AcDbLine
 10
212.7872577587948
 20
329.1868371281042
 30
0.0
 11
213.7754251603235
 21
329.2732905734039
 31
0.0
  0
LINE
  5
10D3
330
1F
100
AcDbEntity
  8
AM_VIS
100
AcDbLine
 10
214.4754251603238
 20
329.623290573404
 30
0.0
 11
214.4754251603238
 21
330.623290573404
 31
0.0
  0
ARC
  5
10D4
330
1F
100
AcDbEntity
  8
AM_VIS
100
AcDbCircle
 10
212.4754251603238
 20
329.623290573404
 30
0.0
 40
0.9999999999999998
100
AcDbArc
 50
90.0
 51
180.0
  0
LINE
  5
10D5
330
1F
100
AcDbEntity
  8
AM_VIS
100
AcDbLine
 10
213.9754251603238
 20
330.623290573404
 30
0.0
 11
213.9754251603238
 21
329.4232905734038
 31
0.0
  0
LINE
  5
10D6
330
1F
100
AcDbEntity
  8
AM_VIS
100
AcDbLine
 10
218.4754251603238
 20
329.6232905734039
 30
0.0
 11
218.4754251603238
 21
330.6232905734039
 31
0.0
  0
LINE
  5
10D7
330
1F
100
AcDbEntity
  8
AM_VIS
100
AcDbLine
 10
218.4754251603238
 20
330.623290573404
 30
0.0
 11
218.4754251603238
 21
329.623290573404
 31
0.0
  0
ARC
  5
10D8
330
1F
100
AcDbEntity
  8
AM_VIS
100
AcDbCircle
 10
216.3754251603239
 20
326.4732905734039
 30
0.0
 40
4.987805028266441
100
AcDbArc
 50
188.780990380024
 51
196.8108714123668
  0
LINE
  5
10D9
330
1F
100
AcDbEntity
  8
AM_VIS
100
AcDbLine
 10
211.7917665942293
 20
328.4708075694438
 30
0.0
 11
211.7917665942293
 21
324.475773577364
 31
0.0
  0
ARC
  5
10DA
330
1F
100
AcDbEntity
  8
AM_VIS
100
AcDbCircle
 10
216.3754251603239
 20
326.4732905734039
 30
0.0
 40
5.0
100
AcDbArc
 50
196.8579560224986
 51
203.5471372370784
  0
LINE
  5
10DB
330
1F
100
AcDbEntity
  8
AM_VIS
100
AcDbLine
 10
211.5902919333382
 20
325.0232905734039
 30
0.0
 11
211.600775781307
 21
325.0307503460773
 31
0.0
  0
LINE
  5
10DC
330
1F
100
AcDbEntity
  8
AM_VIS
100
AcDbLine
 10
213.7754251603235
 20
326.3332905734039
 30
0.0
 11
214.4754251603238
 21
326.5880697373902
 31
0.0
  0
LINE
  5
10DD
330
1F
100
AcDbEntity
  8
AM_VIS
100
AcDbLine
 10
214.4754251603238
 20
326.8680697373902
 30
0.0
 11
213.7754251603235
 21
326.6132905734039
 31
0.0
  0
LINE
  5
10DE
330
1F
100
AcDbEntity
  8
AM_VIS
100
AcDbLine
 10
213.7754251603235
 20
326.6132905734039
 30
0.0
 11
213.7754251603235
 21
326.3332905734039
 31
0.0
  0
LINE
  5
10DF
330
1F
100
AcDbEntity
  8
AM_VIS
100
AcDbLine
 10
214.4687001603236
 20
326.8656220375647
 30
0.0
 11
214.4687001603236
 21
326.5856220375648
 31
0.0
  0
ARC
  5
10E0
330
1F
100
AcDbEntity
  8
AM_VIS
100
AcDbCircle
 10
216.3754251603239
 20
326.4732905734039
 30
0.0
 40
4.999999999999999
100
AcDbArc
 50
156.4528627629215
 51
163.1420439775014
  0
LINE
  5
10E1
330
1F
100
AcDbEntity
  8
AM_VIS
100
AcDbLine
 10
211.600775781307
 20
327.9158308007305
 30
0.0
 11
211.5902919333382
 21
327.9232905734038
 31
0.0
  0
LINE
  5
10E2
330
1F
100
AcDbEntity
  8
AM_VIS
100
AcDbLine
 10
211.600775781307
 20
326.8222905734059
 30
0.0
 11
211.4460817720007
 21
326.8222905734059
 31
0.0
  0
LINE
  5
10E3
330
1F
100
AcDbEntity
  8
AM_VIS
100
AcDbLine
 10
211.4460817720007
 20
326.1242905734059
 30
0.0
 11
211.600775781307
 21
326.1242905734059
 31
0.0
  0
ELLIPSE
  5
10E4
330
1F
100
AcDbEntity
  8
AM_VIS
100
AcDbEllipse
 10
215.4519869443768
 20
326.4732905734039
 30
0.0
 11
0.0000000000000012
 21
-4.739516250631768
 31
0.0
210
0.0
220
0.0
230
1.0
 40
0.8147867433778019
 41
4.638686064265661
 42
4.786091896502883
  0
LINE
  5
10E5
330
1F
100
AcDbEntity
  8
AM_VIS
100
AcDbLine
 10
211.4460817720012
 20
325.7118624678023
 30
0.0
 11
211.4460817720012
 21
326.1242905734059
 31
0.0
  0
LINE
  5
10E6
330
1F
100
AcDbEntity
  8
AM_VIS
100
AcDbLine
 10
211.4460817720012
 20
326.8222905734059
 30
0.0
 11
211.4460817720012
 21
327.2347186790055
 31
0.0
  0
LINE
  5
10E7
330
1F
100
AcDbEntity
  8
AM_VIS
100
AcDbLine
 10
211.4754251603238
 20
326.473290573404
 30
0.0
 11
211.4754251603238
 21
326.1242905734059
 31
0.0
  0
LINE
  5
10E8
330
1F
100
AcDbEntity
  8
AM_VIS
100
AcDbLine
 10
211.4754251603238
 20
326.473290573404
 30
0.0
 11
211.4754251603238
 21
326.8222905734059
 31
0.0
  0
LINE
  5
10E9
330
1F
100
AcDbEntity
  8
AM_VIS
100
AcDbLine
 10
211.5902919333382
 20
326.473290573404
 30
0.0
 11
211.4754251603238
 21
326.473290573404
 31
0.0
  0
ARC
  5
10EA
330
1F
100
AcDbEntity
  8
AM_VIS
100
AcDbCircle
 10
216.3754251603239
 20
326.4732905734039
 30
0.0
 40
4.987805028266441
100
AcDbArc
 50
163.1891285876332
 51
171.2190096199778
  0
LINE
  5
10EB
330
1F
100
AcDbEntity
  8
AM_VIS
100
AcDbLine
 10
213.7754251603235
 20
329.4232905734038
 30
0.0
 11
213.7754251603235
 21
326.6132905734039
 31
0.0
  0
ARC
  5
10EC
330
1F
100
AcDbEntity
  8
AM_VIS
100
AcDbCircle
 10
212.8918446500918
 20
327.9914034903942
 30
0.0
 40
1.199999999999999
100
AcDbArc
 50
94.99999999999975
 51
156.4528627629215
  0
LINE
  5
10ED
330
1F
100
AcDbEntity
  8
AM_VIS
100
AcDbLine
 10
211.4754251603238
 20
327.4050625412158
 30
0.0
 11
211.4754251603238
 21
329.623290573404
 31
0.0
  0
LINE
  5
10EE
330
1F
100
AcDbEntity
  8
AM_7
  6
AM_ISO08W050x2
100
AcDbLine
 10
224.9754251603238
 20
327.9732905734039
 30
0.0
 11
224.9754251603238
 21
331.9732905734039
 31
0.0
1001
GENIUS_GENOREF_13
1005
114C
  0
LINE
  5
10EF
330
1F
100
AcDbEntity
  8
AM_VIS
100
AcDbLine
 10
221.9754251603238
 20
330.6232905734039
 30
0.0
 11
227.9754251603238
 21
330.6232905734039
 31
0.0
  0
LINE
  5
10F0
330
1F
100
AcDbEntity
  8
AM_VIS
100
AcDbLine
 10
221.9754251603238
 20
330.6232905734039
 30
0.0
 11
221.9754251603238
 21
329.6232905734039
 31
0.0
  0
LINE
  5
10F1
330
1F
100
AcDbEntity
  8
AM_VIS
100
AcDbLine
 10
227.9754251603238
 20
329.6232905734039
 30
0.0
 11
227.9754251603238
 21
330.6232905734039
 31
0.0
  0
ARC
  5
10F2
330
1F
100
AcDbEntity
  8
AM_VIS
100
AcDbCircle
 10
224.9754251603238
 20
327.9732905734039
 30
0.0
 40
3.0
100
AcDbArc
 50
180.0
 51
0.0
  0
LINE
  5
10F3
330
1F
100
AcDbEntity
  8
AM_7
  6
AM_ISO08W050x2
100
AcDbLine
 10
224.9754251603238
 20
327.9732905734039
 30
0.0
 11
228.9754251603238
 21
327.9732905734039
 31
0.0
1001
GENIUS_GENOREF_13
1005
114C
  0
LINE
  5
10F4
330
1F
100
AcDbEntity
  8
AM_VIS
100
AcDbLine
 10
227.9754251603238
 20
329.6232905734039
 30
0.0
 11
227.9754251603238
 21
327.9732905734039
 31
0.0
  0
CIRCLE
  5
10F5
330
1F
100
AcDbEntity
  8
AM_VIS
100
AcDbCircle
 10
224.9754251603238
 20
327.9732905734039
 30
0.0
 40
1.6
  0
CIRCLE
  5
10F6
330
1F
100
AcDbEntity
  8
AM_VIS
100
AcDbCircle
 10
224.9754251603238
 20
327.9732905734039
 30
0.0
 40
1.600000000000041
  0
LINE
  5
10F7
330
1F
100
AcDbEntity
  8
AM_VIS
100
AcDbLine
 10
221.9754251603238
 20
327.9732905734039
 30
0.0
 11
221.9754251603238
 21
329.6232905734039
 31
0.0
  0
LINE
  5
10FB
330
1F
100
AcDbEntity
  8
AM_VIS
100
AcDbLine
 10
256.4754251603238
 20
330.6232905734039
 30
0.0
 11
278.4754251603238
 21
330.4232905734039
 31
0.0
  0
LINE
  5
10FC
330
1F
100
AcDbEntity
  8
AM_VIS
100
AcDbLine
 10
267.4754251603238
 20
327.4732905734039
 30
0.0
 11
267.4754251603238
 21
325.4732905734039
 31
0.0
  0
CIRCLE
  5
10FD
330
1F
100
AcDbEntity
  8
AM_VIS
100
AcDbCircle
 10
267.4754251603238
 20
326.4732905734039
 30
0.0
 40
1.0
  0
DIMENSION
  5
112C
330
1F
100
AcDbEntity
  8
AM_5
100
AcDbDimension
  2
*D18
 10
175.4754251603237
 20
233.4568623900394
 30
0.0
 11
171.6504251603237
 21
215.9568623900395
 31
0.0
 70
    32
 71
     5
 42
35.0
  3
STANDARD
100
AcDbAlignedDimension
 13
212.4754251603238
 23
198.4568623900394
 33
0.0
 14
212.4754251603238
 24
233.4568623900394
 34
0.0
 50
90.0
100
AcDbRotatedDimension
1001
ACAD
1000
DSTYLE
1002
{
1070
    40
1040
1.5
1002
}
  0
DIMENSION
  5
112D
330
1F
100
AcDbEntity
  8
AM_5
100
AcDbDimension
  2
*D19
 10
187.4754251603237
 20
224.9568623900394
 30
0.0
 11
183.6504251603237
 21
210.9731313299165
 31
0.0
 70
    32
 71
     5
 42
8.5
  3
STANDARD
100
AcDbAlignedDimension
 13
212.4754251603238
 23
233.4568623900394
 33
0.0
 14
221.8754251603239
 24
224.9568623900394
 34
0.0
 50
90.0
100
AcDbRotatedDimension
1001
ACAD
1000
DSTYLE
1002
{
1070
    40
1040
1.5
1002
}
  0
DIMENSION
  5
112E
330
1F
100
AcDbEntity
  8
AM_5
100
AcDbDimension
  2
*D20
 10
199.4754251603237
 20
230.4568623900394
 30
0.0
 11
195.6504251603237
 21
219.0981313299165
 31
0.0
 70
    32
 71
     5
 42
3.0
  3
STANDARD
100
AcDbAlignedDimension
 13
212.4754251603238
 23
233.4568623900394
 33
0.0
 14
246.9754251603238
 24
230.4568623900394
 34
0.0
 50
90.0
100
AcDbRotatedDimension
1001
ACAD
1000
DSTYLE
1002
{
1070
    40
1040
1.5
1002
}
  0
DIMENSION
  5
112F
330
1F
100
AcDbEntity
  8
AM_5
100
AcDbDimension
  2
*D21
 10
249.9754251603238
 20
245.4568623900394
 30
0.0
 11
237.4754251603238
 21
249.2823791223229
 31
0.0
 70
    32
 71
     5
 42
25.0
  3
STANDARD
100
AcDbAlignedDimension
 13
224.9754251603238
 23
228.0568623900395
 33
0.0
 14
249.9754251603238
 24
228.0568623900395
 34
0.0
100
AcDbRotatedDimension
1001
ACAD
1000
DSTYLE
1002
{
1070
    40
1040
1.5
1002
}
  0
DIMENSION
  5
1130
330
1F
100
AcDbEntity
  8
AM_5
100
AcDbDimension
  2
*D22
 10
175.4754251603237
 20
308.3232905734039
 30
0.0
 11
171.6499084280403
 21
319.473290573404
 31
0.0
 70
    32
 71
     5
 42
22.30000000000007
  3
STANDARD
100
AcDbAlignedDimension
 13
212.4754251603238
 23
330.623290573404
 33
0.0
 14
212.4754251603238
 24
308.3232905734039
 34
0.0
 50
90.0
100
AcDbRotatedDimension
1001
ACAD
1000
DSTYLE
1002
{
1070
    40
1040
1.5
1002
}
  0
DIMENSION
  5
1131
330
1F
100
AcDbEntity
  8
AM_5
100
AcDbDimension
  2
*D23
 10
187.4754251603237
 20
310.9732905734039
 30
0.0
 11
183.6504251603237
 21
319.473290573404
 31
0.0
 70
    32
 71
     5
 42
17.0
  3
STANDARD
100
AcDbAlignedDimension
 13
220.9754251603238
 23
327.9732905734039
 33
0.0
 14
245.9754251603238
 24
310.9732905734039
 34
0.0
 50
90.0
100
AcDbRotatedDimension
1001
ACAD
1000
DSTYLE
1002
{
1070
    40
1040
1.5
1002
}
  0
DIMENSION
  5
1132
330
1F
100
AcDbEntity
  8
AM_5
100
AcDbDimension
  2
*D24
 10
249.9754251603238
 20
342.6232905734039
 30
0.0
 11
237.4754251603238
 21
346.4488073056874
 31
0.0
 70
    32
 71
     5
 42
25.0
  3
STANDARD
100
AcDbAlignedDimension
 13
224.9754251603238
 23
331.9732905734039
 33
0.0
 14
249.9754251603238
 24
314.9732905734039
 34
0.0
100
AcDbRotatedDimension
1001
ACAD
1000
DSTYLE
1002
{
1070
    40
1040
1.5
1002
}
  0
DIMENSION
  5
1133
330
1F
100
AcDbEntity
  8
AM_5
100
AcDbDimension
  2
*D25
 10
237.4754251603238
 20
296.3232905734039
 30
0.0
 11
224.4754251603238
 21
300.1488073056874
 31
0.0
 70
    32
 71
     5
 42
26.0
  3
STANDARD
100
AcDbAlignedDimension
 13
211.4754251603238
 23
309.3232905734039
 33
0.0
 14
237.4754251603238
 24
309.7732905734039
 34
0.0
100
AcDbRotatedDimension
1001
ACAD
1000
DSTYLE
1002
{
1070
    40
1040
1.5
1002
}
  0
DIMENSION
  5
1134
330
1F
100
AcDbEntity
  8
AM_5
100
AcDbDimension
  2
*D26
 10
199.4754251603237
 20
317.4732905734039
 30
0.0
 11
195.6499084280403
 21
305.998977089152
 31
0.0
 70
    32
 71
     5
 42
2.0
  3
STANDARD
100
AcDbAlignedDimension
 13
209.723096224099
 23
319.4732905734039
 33
0.0
 14
229.7754251603235
 24
317.4732905734039
 34
0.0
 50
90.0
100
AcDbRotatedDimension
1001
ACAD
1000
DSTYLE
1002
{
1070
    40
1040
1.5
1002
}
  0
DIMENSION
  5
1135
330
1F
100
AcDbEntity
  8
AM_5
100
AcDbDimension
  2
*D27
 10
246.4754251603238
 20
180.038964495001
 30
0.0
 11
237.4754251603238
 21
183.863964495001
 31
0.0
 70
    32
 71
     5
 42
18.0
  3
STANDARD
100
AcDbAlignedDimension
 13
228.4754251603238
 23
164.588964495001
 33
0.0
 14
246.4754251603238
 24
164.588964495001
 34
0.0
100
AcDbRotatedDimension
1001
ACAD
1000
DSTYLE
1002
{
1070
    40
1040
1.5
1002
}
  0
DIMENSION
  5
1136
330
1F
100
AcDbEntity
  8
AM_5
100
AcDbDimension
  2
*D28
 10
228.4754251603238
 20
180.038964495001
 30
0.0
 11
219.9754251603238
 21
183.863964495001
 31
0.0
 70
    32
 71
     5
 42
17.0
  3
STANDARD
100
AcDbAlignedDimension
 13
211.4754251603238
 23
167.0389644950009
 33
0.0
 14
228.4754251603238
 24
164.588964495001
 34
0.0
100
AcDbRotatedDimension
1001
ACAD
1000
DSTYLE
1002
{
1070
    40
1040
1.5
1002
}
  0
DIMENSION
  5
1137
330
1F
100
AcDbEntity
  8
AM_5
100
AcDbDimension
  2
*D29
 10
331.4754251603238
 20
284.3232905734041
 30
0.0
 11
271.4754251603238
 21
288.1488073056876
 31
0.0
 70
    32
 71
     5
 42
120.0
  3
STANDARD
100
AcDbAlignedDimension
 13
211.4754251603238
 23
309.3232905734039
 33
0.0
 14
331.4754251603238
 24
310.2356862663695
 34
0.0
100
AcDbRotatedDimension
1001
ACAD
1000
DSTYLE
1002
{
1070
    40
1040
1.5
1002
}
  0
INSERT
  5
1138
330
1F
100
AcDbEntity
  8
AM_5
100
AcDbBlockReference
  2
*S69
 10
0.0
 20
0.0
 30
0.0
  0
TEXT
  5
113A
330
1F
100
AcDbEntity
  8
圖層4
 62
     5
100
AcDbText
 10
174.9843183506188
 20
248.8515686536185
 30
0.0
 40
5.299999999999999
  1
2-%%c4.2 Thru
 41
0.9
100
AcDbText
  0
INSERT
  5
113B
330
1F
100
AcDbEntity
  8
AM_5
100
AcDbBlockReference
  2
*S70
 10
0.0
 20
0.0
 30
0.0
  0
INSERT
  5
113C
330
1F
100
AcDbEntity
  8
AM_5
100
AcDbBlockReference
  2
*S71
 10
0.0
 20
0.0
 30
0.0
  0
TEXT
  5
113D
330
1F
100
AcDbEntity
  8
圖層4
 62
     5
100
AcDbText
 10
203.5975120611226
 20
133.8813943610905
 30
0.0
 40
5.299999999999999
  1
3-PT 1/4
 41
0.9
100
AcDbText
  0
POINT
  5
1147
330
1F
100
AcDbEntity
  8
0
 60
     1
100
AcDbPoint
 10
1780.781378315278
 20
97.31784744432673
 30
0.0
1001
GENIUS_GENOLIS_13
1002
{
1000
ENT
1005
FA3
1005
1003
1005
1004
1005
1005
1002
}
1001
GENIUS_GENOENT_13
1002
{
1000
MYREF
1005
1147
1002
}
1002
{
1000
GRP
1005
0
1002
}
1001
GENIUS_GENOBJ-N-CRS_13
1002
{
1000
OWNER
1000
GEN
1002
}
1001
GENIUS_GENODEF_13
1002
{
1000
HIER
1070
    10
1002
}
1002
{
1000
MANEDIT
1070
     0
1002
}
1002
{
1000
NOSEL
1070
     0
1002
}
1002
{
1000
BEHIND
1070
     0
1002
}
1002
{
1000
OTHER
1070
     0
1002
}
1002
{
1000
REACTOR
1002
}
  0
POINT
  5
1148
330
1F
100
AcDbEntity
  8
0
 60
     1
100
AcDbPoint
 10
1780.781378315278
 20
97.31784744432673
 30
0.0
1001
GENIUS_GENOLIS_13
1002
{
1000
ENT
1005
F52
1005
F9A
1005
F9B
1005
F9C
1002
}
1001
GENIUS_GENODEF_13
1002
{
1000
HIER
1070
    10
1002
}
1002
{
1000
MANEDIT
1070
     0
1002
}
1002
{
1000
NOSEL
1070
     0
1002
}
1002
{
1000
BEHIND
1070
     0
1002
}
1002
{
1000
OTHER
1070
     0
1002
}
1002
{
1000
REACTOR
1002
}
1001
GENIUS_GENOENT_13
1002
{
1000
MYREF
1005
1148
1002
}
1002
{
1000
GRP
1005
0
1002
}
1001
GENIUS_GENOBJ-N-CRS_13
1002
{
1000
OWNER
1000
GEN
1002
}
  0
POINT
  5
1149
330
1F
100
AcDbEntity
  8
0
 60
     1
100
AcDbPoint
 10
1780.781378315278
 20
97.31784744432673
 30
0.0
1001
GENIUS_GENOLIS_13
1002
{
1000
ENT
1005
F10
1005
F0F
1005
F04
1005
F0E
1002
}
1001
GENIUS_GENOENT_13
1002
{
1000
MYREF
1005
1149
1002
}
1002
{
1000
GRP
1005
0
1002
}
1001
GENIUS_GENOBJ-N-CRS_13
1002
{
1000
OWNER
1000
GEN
1002
}
1001
GENIUS_GENODEF_13
1002
{
1000
HIER
1070
    10
1002
}
1002
{
1000
MANEDIT
1070
     0
1002
}
1002
{
1000
NOSEL
1070
     0
1002
}
1002
{
1000
BEHIND
1070
     0
1002
}
1002
{
1000
OTHER
1070
     0
1002
}
1002
{
1000
REACTOR
1002
}
  0
POINT
  5
114A
330
1F
100
AcDbEntity
  8
0
 60
     1
100
AcDbPoint
 10
1780.781378315278
 20
97.31784744432673
 30
0.0
1001
GENIUS_GENOBJ-N-CRS_13
1002
{
1000
OWNER
1000
GEN
1002
}
1001
GENIUS_GENOENT_13
1002
{
1000
MYREF
1005
114A
1002
}
1002
{
1000
GRP
1005
0
1002
}
1001
GENIUS_GENOLIS_13
1002
{
1000
ENT
1005
1092
1005
109F
1005
10A1
1005
10A0
1002
}
1001
GENIUS_GENODEF_13
1002
{
1000
HIER
1070
    10
1002
}
1002
{
1000
MANEDIT
1070
     0
1002
}
1002
{
1000
NOSEL
1070
     0
1002
}
1002
{
1000
BEHIND
1070
     0
1002
}
1002
{
1000
OTHER
1070
     0
1002
}
1002
{
1000
REACTOR
1002
}
  0
POINT
  5
114B
330
1F
100
AcDbEntity
  8
0
 60
     1
100
AcDbPoint
 10
1780.781378315278
 20
97.31784744432673
 30
0.0
1001
GENIUS_GENOLIS_13
1002
{
1000
ENT
1005
1077
1005
107B
1005
1061
1005
1062
1002
}
1001
GENIUS_GENOENT_13
1002
{
1000
MYREF
1005
114B
1002
}
1002
{
1000
GRP
1005
0
1002
}
1001
GENIUS_GENODEF_13
1002
{
1000
HIER
1070
    10
1002
}
1002
{
1000
MANEDIT
1070
     0
1002
}
1002
{
1000
NOSEL
1070
     0
1002
}
1002
{
1000
BEHIND
1070
     0
1002
}
1002
{
1000
OTHER
1070
     0
1002
}
1002
{
1000
REACTOR
1002
}
1001
GENIUS_GENOBJ-N-CRS_13
1002
{
1000
OWNER
1000
GEN
1002
}
  0
POINT
  5
114C
330
1F
100
AcDbEntity
  8
0
 60
     1
100
AcDbPoint
 10
1780.781378315278
 20
97.31784744432673
 30
0.0
1001
GENIUS_GENOENT_13
1002
{
1000
MYREF
1005
114C
1002
}
1002
{
1000
GRP
1005
0
1002
}
1001
GENIUS_GENOLIS_13
1002
{
1000
ENT
1005
1059
1005
10CC
1005
10EE
1005
10F3
1002
}
1001
GENIUS_GENOBJ-N-CRS_13
1002
{
1000
OWNER
1000
GEN
1002
}
1001
GENIUS_GENODEF_13
1002
{
1000
HIER
1070
    10
1002
}
1002
{
1000
MANEDIT
1070
     0
1002
}
1002
{
1000
NOSEL
1070
     0
1002
}
1002
{
1000
BEHIND
1070
     0
1002
}
1002
{
1000
OTHER
1070
     0
1002
}
1002
{
1000
REACTOR
1002
}
  0
POINT
  5
114D
330
1F
100
AcDbEntity
  8
0
 60
     1
100
AcDbPoint
 10
1780.781378315278
 20
97.31784744432673
 30
0.0
1001
GENIUS_GENOLIS_13
1002
{
1000
ENT
1005
E8A
1005
ED7
1005
EEE
1005
EF3
1002
}
1001
GENIUS_GENODEF_13
1002
{
1000
HIER
1070
    10
1002
}
1002
{
1000
MANEDIT
1070
     0
1002
}
1002
{
1000
NOSEL
1070
     0
1002
}
1002
{
1000
BEHIND
1070
     0
1002
}
1002
{
1000
OTHER
1070
     0
1002
}
1002
{
1000
REACTOR
1002
}
1001
GENIUS_GENOENT_13
1002
{
1000
MYREF
1005
114D
1002
}
1002
{
1000
GRP
1005
0
1002
}
1001
GENIUS_GENOBJ-N-CRS_13
1002
{
1000
OWNER
1000
GEN
1002
}
  0
POINT
  5
114E
330
1F
100
AcDbEntity
  8
0
 60
     1
100
AcDbPoint
 10
1780.781378315278
 20
97.31784744432673
 30
0.0
1001
GENIUS_GENOBJ-N-CRS_13
1002
{
1000
OWNER
1000
GEN
1002
}
1001
GENIUS_GENOLIS_13
1002
{
1000
ENT
1005
E9A
1005
E99
1005
E84
1005
E98
1002
}
1001
GENIUS_GENOENT_13
1002
{
1000
MYREF
1005
114E
1002
}
1002
{
1000
GRP
1005
0
1002
}
1001
GENIUS_GENODEF_13
1002
{
1000
HIER
1070
    10
1002
}
1002
{
1000
MANEDIT
1070
     0
1002
}
1002
{
1000
NOSEL
1070
     0
1002
}
1002
{
1000
BEHIND
1070
     0
1002
}
1002
{
1000
OTHER
1070
     0
1002
}
1002
{
1000
REACTOR
1002
}
  0
POINT
  5
114F
330
1F
100
AcDbEntity
  8
0
 60
     1
100
AcDbPoint
 10
1780.781378315278
 20
97.31784744432673
 30
0.0
1001
GENIUS_GENOBJ-N-CRS_13
1002
{
1000
OWNER
1000
GEN
1002
}
1001
GENIUS_GENODEF_13
1002
{
1000
HIER
1070
    10
1002
}
1002
{
1000
MANEDIT
1070
     0
1002
}
1002
{
1000
NOSEL
1070
     0
1002
}
1002
{
1000
BEHIND
1070
     0
1002
}
1002
{
1000
OTHER
1070
     0
1002
}
1002
{
1000
REACTOR
1002
}
1001
GENIUS_GENOLIS_13
1002
{
1000
ENT
1005
E82
1005
ECF
1005
F08
1005
F0B
1002
}
1001
GENIUS_GENOENT_13
1002
{
1000
MYREF
1005
114F
1002
}
1002
{
1000
GRP
1005
0
1002
}
  0
LINE
  5
1C84
330
1F
100
AcDbEntity
  8
AM_VIS
100
AcDbLine
 10
278.4754251603238
 20
330.4232905734039
 30
0.0
 11
278.4754251603238
 21
308.5232905734039
 31
0.0
  0
LINE
  5
1C85
330
1F
100
AcDbEntity
  8
AM_VIS
100
AcDbLine
 10
280.4754251603238
 20
330.4232905734039
 30
0.0
 11
278.4754251603238
 21
330.4232905734039
 31
0.0
  0
LINE
  5
1C86
330
1F
100
AcDbEntity
  8
AM_VIS
100
AcDbLine
 10
278.4754251603238
 20
308.5232905734039
 30
0.0
 11
280.4754251603238
 21
308.5232905734039
 31
0.0
  0
LINE
  5
1C87
330
1F
100
AcDbEntity
  8
AM_VIS
100
AcDbLine
 10
278.4754251603238
 20
309.5232905734039
 30
0.0
 11
278.4754251603238
 21
329.4232905734039
 31
0.0
  0
LINE
  5
1C88
330
1F
100
AcDbEntity
  8
AM_7
100
AcDbLine
 10
295.4754251603238
 20
319.4732905734038
 30
0.0
 11
295.4754251603238
 21
319.4732905734038
 31
0.0
  0
LINE
  5
1C89
330
1F
100
AcDbEntity
  8
AM_7
100
AcDbLine
 10
295.4754251603238
 20
319.4732905734038
 30
0.0
 11
295.4754251603238
 21
319.4732905734038
 31
0.0
  0
LINE
  5
1C8A
330
1F
100
AcDbEntity
  8
AM_7
100
AcDbLine
 10
295.4754251603238
 20
319.4732905734038
 30
0.0
 11
301.9754251603238
 21
319.4732905734038
 31
0.0
  0
LINE
  5
1C8B
330
1F
100
AcDbEntity
  8
AM_VIS
100
AcDbLine
 10
280.4754251603238
 20
330.4732905734038
 30
0.0
 11
280.4754251603238
 21
308.4732905734039
 31
0.0
  0
LINE
  5
1C8C
330
1F
100
AcDbEntity
  8
AM_VIS
100
AcDbLine
 10
280.4754251603238
 20
330.4732905734038
 30
0.0
 11
310.4754251603238
 21
330.4732905734038
 31
0.0
  0
LINE
  5
1C8D
330
1F
100
AcDbEntity
  8
AM_VIS
100
AcDbLine
 10
280.4754251603238
 20
308.4732905734039
 30
0.0
 11
310.4754251603238
 21
308.4732905734039
 31
0.0
  0
LINE
  5
1C8E
330
1F
100
AcDbEntity
  8
AM_VIS
100
AcDbLine
 10
310.4754251603238
 20
308.473290573404
 30
0.0
 11
310.4754251603238
 21
310.4732905734037
 31
0.0
  0
LINE
  5
1C8F
330
1F
100
AcDbEntity
  8
AM_VIS
100
AcDbLine
 10
310.4754251603238
 20
328.4732905734037
 30
0.0
 11
310.4754251603238
 21
330.473290573404
 31
0.0
  0
LINE
  5
1C90
330
1F
100
AcDbEntity
  8
AM_VIS
100
AcDbLine
 10
317.4749836513218
 20
328.8888557395521
 30
0.0
 11
317.9749299872262
 21
328.622361622407
 31
0.0
  0
LINE
  5
1C91
330
1F
100
AcDbEntity
  8
AM_VIS
100
AcDbLine
 10
317.4754251603238
 20
328.8896840160268
 30
0.0
 11
316.3254251603239
 21
328.8896840160268
 31
0.0
  0
LINE
  5
1C92
330
1F
100
AcDbEntity
  8
AM_VIS
100
AcDbLine
 10
316.3254251603239
 20
310.0568971307809
 30
0.0
 11
317.4754251603238
 21
310.0568971307809
 31
0.0
  0
LINE
  5
1C93
330
1F
100
AcDbEntity
  8
AM_VIS
100
AcDbLine
 10
317.4749836515066
 20
310.0577254069037
 30
0.0
 11
317.9749299867371
 21
310.3242195253127
 31
0.0
  0
LINE
  5
1C94
330
1F
100
AcDbEntity
  8
AM_VIS
100
AcDbLine
 10
311.9754251603238
 20
310.0568971307809
 30
0.0
 11
314.8254251603239
 21
310.0568971307809
 31
0.0
  0
LINE
  5
1C95
330
1F
100
AcDbEntity
  8
AM_VIS
100
AcDbLine
 10
314.8254251603239
 20
328.8896840160268
 30
0.0
 11
311.9754251603238
 21
328.8896840160268
 31
0.0
  0
LINE
  5
1C96
330
1F
100
AcDbEntity
  8
AM_VIS
100
AcDbLine
 10
311.9123389218407
 20
328.4732308978261
 30
0.0
 11
311.9756972961645
 21
328.8896426096879
 31
0.0
  0
LINE
  5
1C97
330
1F
100
AcDbEntity
  8
AM_VIS
100
AcDbLine
 10
311.912338921841
 20
310.4733502489814
 30
0.0
 11
311.9756972961645
 21
310.0569385371197
 31
0.0
  0
LINE
  5
1C98
330
1F
100
AcDbEntity
  8
AM_VIS
100
AcDbLine
 10
310.6754251603238
 20
328.4732905734037
 30
0.0
 11
310.4754251603238
 21
329.4732905734039
 31
0.0
  0
LINE
  5
1C99
330
1F
100
AcDbEntity
  8
AM_VIS
100
AcDbLine
 10
310.6754251603238
 20
310.4732905734037
 30
0.0
 11
310.4754251603238
 21
309.4732905734038
 31
0.0
  0
LINE
  5
1C9A
330
1F
100
AcDbEntity
  8
AM_VIS
100
AcDbLine
 10
317.4754251603238
 20
310.0568971307809
 30
0.0
 11
317.4754251603238
 21
310.4732905734037
 31
0.0
  0
LINE
  5
1C9B
330
1F
100
AcDbEntity
  8
AM_VIS
100
AcDbLine
 10
317.4754251603238
 20
328.4732905734037
 30
0.0
 11
317.4754251603238
 21
328.8896840160268
 31
0.0
  0
LINE
  5
1C9C
330
1F
100
AcDbEntity
  8
AM_VIS
100
AcDbLine
 10
316.3254251603239
 20
328.4732905734037
 30
0.0
 11
316.3254251603239
 21
328.8896840160268
 31
0.0
  0
LINE
  5
1C9D
330
1F
100
AcDbEntity
  8
AM_VIS
100
AcDbLine
 10
316.3254251603239
 20
310.0568971307809
 30
0.0
 11
316.3254251603239
 21
310.4732905734037
 31
0.0
  0
LINE
  5
1C9E
330
1F
100
AcDbEntity
  8
AM_VIS
100
AcDbLine
 10
314.8254251603239
 20
310.4732905734037
 30
0.0
 11
314.8254251603239
 21
310.0568971307809
 31
0.0
  0
LINE
  5
1C9F
330
1F
100
AcDbEntity
  8
AM_VIS
100
AcDbLine
 10
314.8254251603239
 20
328.8896840160268
 30
0.0
 11
314.8254251603239
 21
328.4732905734037
 31
0.0
  0
LINE
  5
1CA0
330
1F
100
AcDbEntity
  8
AM_VIS
100
AcDbLine
 10
311.9754251603238
 20
328.4732905734037
 30
0.0
 11
311.9754251603238
 21
328.8896840160268
 31
0.0
  0
LINE
  5
1CA1
330
1F
100
AcDbEntity
  8
AM_VIS
100
AcDbLine
 10
311.9754251603238
 20
310.0568971307809
 30
0.0
 11
311.9754251603238
 21
310.4732905734037
 31
0.0
  0
LINE
  5
1CA2
330
1F
100
AcDbEntity
  8
AM_VIS
100
AcDbLine
 10
317.9754251603238
 20
310.4732905734037
 30
0.0
 11
317.9754251603238
 21
310.3232905734038
 31
0.0
  0
LINE
  5
1CA3
330
1F
100
AcDbEntity
  8
AM_VIS
100
AcDbLine
 10
317.9754251603238
 20
328.6232905734038
 30
0.0
 11
317.9754251603238
 21
328.4732905734037
 31
0.0
  0
LINE
  5
1CA4
330
1F
100
AcDbEntity
  8
AM_VIS
100
AcDbLine
 10
295.6904251603237
 20
319.4732905734046
 30
0.0
 11
295.4754251603238
 21
319.4732905734046
 31
0.0
  0
LINE
  5
1CA5
330
1F
100
AcDbEntity
  8
AM_VIS
100
AcDbLine
 10
295.4754251603238
 20
319.4732905734046
 30
0.0
 11
295.2604251603239
 21
319.4732905734046
 31
0.0
  0
LINE
  5
1CA6
330
1F
100
AcDbEntity
  8
AM_VIS
100
AcDbLine
 10
295.4754251603238
 20
319.4732905734046
 30
0.0
 11
295.6904251603246
 21
319.2582905734037
 31
0.0
  0
LINE
  5
1CA7
330
1F
100
AcDbEntity
  8
AM_VIS
100
AcDbLine
 10
295.690425160323
 20
319.6882905734038
 30
0.0
 11
295.4754251603238
 21
319.4732905734046
 31
0.0
  0
LINE
  5
1CA8
330
1F
100
AcDbEntity
  8
AM_VIS
100
AcDbLine
 10
295.6904251603237
 20
319.2582905734018
 30
0.0
 11
295.6904251603237
 21
319.6882905734018
 31
0.0
  0
LINE
  5
1CA9
330
1F
100
AcDbEntity
  8
AM_VIS
100
AcDbLine
 10
295.2604251603239
 20
319.6882905734018
 30
0.0
 11
295.6904251603237
 21
319.6882905734018
 31
0.0
  0
LINE
  5
1CAA
330
1F
100
AcDbEntity
  8
AM_VIS
100
AcDbLine
 10
295.4754251603238
 20
319.2582905734018
 30
0.0
 11
295.4754251603238
 21
319.4732905734046
 31
0.0
  0
LINE
  5
1CAB
330
1F
100
AcDbEntity
  8
AM_VIS
100
AcDbLine
 10
295.2604251603229
 20
319.2582905734037
 30
0.0
 11
295.4754251603238
 21
319.4732905734046
 31
0.0
  0
LINE
  5
1CAC
330
1F
100
AcDbEntity
  8
AM_VIS
100
AcDbLine
 10
295.2604251603239
 20
319.6882905734018
 30
0.0
 11
295.2604251603239
 21
319.2582905734018
 31
0.0
  0
LINE
  5
1CAD
330
1F
100
AcDbEntity
  8
AM_VIS
100
AcDbLine
 10
295.4754251603238
 20
319.4732905734046
 30
0.0
 11
295.4754251603238
 21
319.6882905734018
 31
0.0
  0
LINE
  5
1CAE
330
1F
100
AcDbEntity
  8
AM_VIS
100
AcDbLine
 10
295.4754251603238
 20
319.4732905734046
 30
0.0
 11
295.2604251603245
 21
319.6882905734038
 31
0.0
  0
LINE
  5
1CAF
330
1F
100
AcDbEntity
  8
AM_VIS
100
AcDbLine
 10
295.6904251603237
 20
319.2582905734018
 30
0.0
 11
295.2604251603239
 21
319.2582905734018
 31
0.0
  0
CIRCLE
  5
1CB0
330
1F
100
AcDbEntity
  8
AM_VIS
100
AcDbCircle
 10
295.4754251603238
 20
319.4732905734038
 30
0.0
 40
2.800000000000039
  0
LINE
  5
1CB1
330
1F
100
AcDbEntity
  8
AM_VIS
100
AcDbLine
 10
295.2604251603239
 20
319.2582905734018
 30
0.0
 11
295.2604251603239
 21
317.9764395586543
 31
0.0
  0
ELLIPSE
  5
1CB2
330
1F
100
AcDbEntity
  8
AM_VIS
100
AcDbEllipse
 10
295.4754251603238
 20
320.9095598873013
 30
0.0
 11
4.643576049350662
 21
0.0000000000000006
 31
0.0
210
0.0
220
0.0
230
1.0
 40
0.6323293260820707
 41
4.666071898634077
 42
4.758706062135303
  0
LINE
  5
1CB3
330
1F
100
AcDbEntity
  8
AM_VIS
100
AcDbLine
 10
295.6904251603237
 20
317.9764395586543
 30
0.0
 11
295.6904251603237
 21
319.2582905734018
 31
0.0
  0
LINE
  5
1CB4
330
1F
100
AcDbEntity
  8
AM_VIS
100
AcDbLine
 10
295.6904251603237
 20
319.6882905734018
 30
0.0
 11
295.6904251603237
 21
320.9701415881548
 31
0.0
  0
ELLIPSE
  5
1CB5
330
1F
100
AcDbEntity
  8
AM_VIS
100
AcDbEllipse
 10
295.4754251603238
 20
318.0370212595071
 30
0.0
 11
-4.643576049350961
 21
-0.0000000000000006
 31
0.0
210
0.0
220
0.0
230
0.9999999999999998
 40
0.6323293260822031
 41
4.666071898634079
 42
4.758706062135297
  0
LINE
  5
1CB6
330
1F
100
AcDbEntity
  8
AM_VIS
100
AcDbLine
 10
295.2604251603239
 20
320.9701415881548
 30
0.0
 11
295.2604251603239
 21
319.6882905734018
 31
0.0
  0
LINE
  5
1CB7
330
1F
100
AcDbEntity
  8
AM_VIS
100
AcDbLine
 10
293.9785741455735
 20
319.2582905734018
 30
0.0
 11
295.2604251603239
 21
319.2582905734018
 31
0.0
  0
ELLIPSE
  5
1CB8
330
1F
100
AcDbEntity
  8
AM_VIS
100
AcDbEllipse
 10
294.0391558464266
 20
319.4732905734038
 30
0.0
 11
-0.0000000000000056
 21
4.64357604935079
 31
0.0
210
0.0
220
0.0
230
1.0
 40
0.632329326082143
 41
4.66607189863364
 42
4.758706062134863
  0
LINE
  5
1CB9
330
1F
100
AcDbEntity
  8
AM_VIS
100
AcDbLine
 10
295.2604251603239
 20
319.6882905734018
 30
0.0
 11
293.9785741455735
 21
319.6882905734018
 31
0.0
  0
LINE
  5
1CBA
330
1F
100
AcDbEntity
  8
AM_VIS
100
AcDbLine
 10
296.9722761750741
 20
319.6882905734018
 30
0.0
 11
295.6904251603237
 21
319.6882905734018
 31
0.0
  0
ELLIPSE
  5
1CBB
330
1F
100
AcDbEntity
  8
AM_VIS
100
AcDbEllipse
 10
296.9116944742209
 20
319.4732905734038
 30
0.0
 11
-0.0000000000000044
 21
-4.643576049350792
 31
0.0
210
0.0
220
0.0
230
1.0
 40
0.6323293260821425
 41
4.666071898634515
 42
4.758706062135738
  0
LINE
  5
1CBC
330
1F
100
AcDbEntity
  8
AM_VIS
100
AcDbLine
 10
295.6904251603237
 20
319.2582905734018
 30
0.0
 11
296.9722761750738
 21
319.2582905734018
 31
0.0
  0
LINE
  5
1CBD
330
1F
100
AcDbEntity
  8
AM_VIS
100
AcDbLine
 10
280.9754251603238
 20
326.4732905734037
 30
0.0
 11
280.9754251603238
 21
312.4732905734037
 31
0.0
  0
LINE
  5
1CBE
330
1F
100
AcDbEntity
  8
AM_VIS
100
AcDbLine
 10
306.4754251603238
 20
329.9732905734038
 30
0.0
 11
284.4754251603238
 21
329.9732905734038
 31
0.0
  0
LINE
  5
1CBF
330
1F
100
AcDbEntity
  8
AM_VIS
100
AcDbLine
 10
284.4754251603238
 20
308.9732905734038
 30
0.0
 11
306.4754251603238
 21
308.9732905734038
 31
0.0
  0
SPLINE
  5
1CC0
330
1F
100
AcDbEntity
  8
AM_VIS
100
AcDbSpline
210
0.0
220
0.0
230
1.0
 70
     8
 71
     3
 72
    18
 73
    14
 74
     0
 42
0.0000000001
 43
0.0000000001
 40
6.072258403086967
 40
6.072258403086967
 40
6.072258403086967
 40
6.072258403086967
 40
6.091519998581971
 40
6.091519998581971
 40
6.594079983681545
 40
6.594079983681545
 40
7.096639968781119
 40
7.096639968781119
 40
7.599199953880694
 40
7.599199953880694
 40
8.101759938980269
 40
8.101759938980269
 40
8.212872863102408
 40
8.212872863102408
 40
8.212872863102408
 40
8.212872863102408
 10
309.7634781021229
 20
311.2738290892677
 30
0.0
 10
309.7643279723238
 20
311.2761588166092
 30
0.0
 10
309.7651613469159
 20
311.2785010271293
 30
0.0
 10
309.7872924054627
 20
311.3422886814064
 30
0.0
 10
309.7972488163409
 20
311.412274941848
 30
0.0
 10
309.7972488163409
 20
311.5621093804419
 30
0.0
 10
309.7872924054627
 20
311.6478301951799
 30
0.0
 10
309.744664101586
 20
311.8375087702665
 30
0.0
 10
309.7119943601447
 20
311.9414632675252
 30
0.0
 10
309.6246290273957
 20
312.1612626488018
 30
0.0
 10
309.5698764666615
 20
312.2772237880495
 30
0.0
 10
309.4919025846739
 20
312.4210161497805
 30
0.0
 10
309.4773457905774
 20
312.4471364777989
 30
0.0
 10
309.4623828445929
 20
312.4732905734037
 30
0.0
  0
ARC
  5
1CC1
330
1F
100
AcDbEntity
  8
AM_VIS
100
AcDbCircle
 10
287.4360425641862
 20
299.3135530915694
 30
0.0
 40
25.65810508862755
100
AcDbArc
 50
30.85639869765909
 51
42.09437567749189
  0
SPLINE
  5
1CC2
330
1F
100
AcDbEntity
  8
AM_VIS
100
AcDbSpline
210
0.0
220
0.0
230
1.0
 70
    12
 71
     2
 72
     6
 73
     3
 74
     0
 42
0.0000000001
 43
0.0000000001
 40
0.0
 40
0.0
 40
0.0
 40
3.381727793507051
 40
3.381727793507051
 40
3.381727793507051
 10
306.4754251603238
 20
316.5135608560139
 30
0.0
 41
1.0
 10
304.9754251603233
 20
318.0542420787647
 30
0.0000000000000018
 41
1.021203771466364
 10
304.9754251603238
 20
319.4732905734038
 30
0.0
 41
1.0
  0
SPLINE
  5
1CC3
330
1F
100
AcDbEntity
  8
AM_VIS
100
AcDbSpline
210
0.0
220
0.0
230
1.0
 70
    12
 71
     2
 72
     6
 73
     3
 74
     0
 42
0.0000000001
 43
0.0000000001
 40
3.381727793507051
 40
3.381727793507051
 40
3.381727793507051
 40
6.763455587014103
 40
6.763455587014103
 40
6.763455587014103
 10
304.9754251603238
 20
319.4732905734038
 30
0.0
 41
1.0
 10
304.9754251603238
 20
320.8923390680427
 30
0.0
 41
1.021203771466368
 10
306.4754251603238
 20
322.4330202907935
 30
0.0
 41
1.0
  0
ARC
  5
1CC4
330
1F
100
AcDbEntity
  8
AM_VIS
100
AcDbCircle
 10
287.4360425641858
 20
339.6330280552382
 30
0.0
 40
25.65810508862801
100
AcDbArc
 50
317.9056243225081
 51
329.1436013023402
  0
SPLINE
  5
1CC5
330
1F
100
AcDbEntity
  8
AM_VIS
100
AcDbSpline
210
0.0
220
0.0
230
1.0
 70
     8
 71
     3
 72
    18
 73
    14
 74
     0
 42
0.0000000001
 43
0.0000000001
 40
4.975287104260688
 40
4.975287104260688
 40
4.975287104260688
 40
4.975287104260688
 40
5.086400028383073
 40
5.086400028383073
 40
5.588960013482687
 40
5.588960013482687
 40
6.091519998582301
 40
6.091519998582301
 40
6.594079983681915
 40
6.594079983681915
 40
7.096639968781521
 40
7.096639968781521
 40
7.115901564276136
 40
7.115901564276136
 40
7.115901564276136
 40
7.115901564276136
 10
309.4623828445929
 20
326.4732905734037
 30
0.0
 10
309.4773457905776
 20
326.4994446690086
 30
0.0
 10
309.4919025846741
 20
326.5255649970272
 30
0.0
 10
309.5698764666615
 20
326.6693573587582
 30
0.0
 10
309.6246290273957
 20
326.785318498006
 30
0.0
 10
309.7119943601447
 20
327.0051178792825
 30
0.0
 10
309.744664101586
 20
327.1090723765412
 30
0.0
 10
309.7872924054627
 20
327.2987509516278
 30
0.0
 10
309.7972488163409
 20
327.3844717663658
 30
0.0
 10
309.7972488163409
 20
327.5343062049596
 30
0.0
 10
309.7872924054627
 20
327.6042924654013
 30
0.0
 10
309.7651613469159
 20
327.6680801196783
 30
0.0
 10
309.7643279723238
 20
327.6704223301983
 30
0.0
 10
309.7634781021229
 20
327.6727520575399
 30
0.0
  0
LINE
  5
1CC6
330
1F
100
AcDbEntity
  8
AM_VIS
100
AcDbLine
 10
309.9754251603238
 20
310.4732905734037
 30
0.0
 11
323.4754251603238
 21
310.4732905734037
 31
0.0
  0
LINE
  5
1CC7
330
1F
100
AcDbEntity
  8
AM_VIS
100
AcDbLine
 10
309.9754251603238
 20
328.4732905734037
 30
0.0
 11
323.4754251603238
 21
328.4732905734037
 31
0.0
  0
LINE
  5
1CC8
330
1F
100
AcDbEntity
  8
AM_VIS
100
AcDbLine
 10
309.476768964794
 20
310.6727530516157
 30
0.0
 11
309.9754251603238
 21
310.4732905734037
 31
0.0
  0
LINE
  5
1CC9
330
1F
100
AcDbEntity
  8
AM_VIS
100
AcDbLine
 10
309.476768964794
 20
328.273828095192
 30
0.0
 11
309.9754251603238
 21
328.4732905734037
 31
0.0
  0
CIRCLE
  5
1CCA
330
1F
100
AcDbEntity
  8
AM_VIS
100
AcDbCircle
 10
295.4754251603238
 20
319.4732905734038
 30
0.0
 40
3.5
  0
ARC
  5
1CCB
330
1F
100
AcDbEntity
  8
AM_VIS
100
AcDbCircle
 10
284.4754251603238
 20
312.4732905734037
 30
0.0
 40
3.5
100
AcDbArc
 50
180.0
 51
270.0
  0
ARC
  5
1CCC
330
1F
100
AcDbEntity
  8
AM_VIS
100
AcDbCircle
 10
284.4754251603238
 20
326.4732905734037
 30
0.0
 40
3.5
100
AcDbArc
 50
90.0
 51
180.0
  0
LINE
  5
1CCD
330
1F
100
AcDbEntity
  8
AM_VIS
100
AcDbLine
 10
323.4754251603238
 20
328.4732905734037
 30
0.0
 11
323.4754251603238
 21
310.4732905734037
 31
0.0
  0
ARC
  5
1CCE
330
1F
100
AcDbEntity
  8
AM_VIS
100
AcDbCircle
 10
306.4754251603238
 20
312.4732905734037
 30
0.0
 40
3.5
100
AcDbArc
 50
270.0
 51
339.9583415914317
  0
ARC
  5
1CCF
330
1F
100
AcDbEntity
  8
AM_VIS
100
AcDbCircle
 10
306.4754251603238
 20
326.4732905734037
 30
0.0
 40
3.5
100
AcDbArc
 50
20.04165840856825
 51
90.0
  0
LINE
  5
1CD0
330
1F
100
AcDbEntity
  8
AM_VIS
100
AcDbLine
 10
309.9754251603238
 20
310.4732905734037
 30
0.0
 11
309.9754251603238
 21
328.4732905734037
 31
0.0
  0
LINE
  5
1CD1
330
1F
100
AcDbEntity
  8
AM_VIS
100
AcDbLine
 10
331.4754251603238
 20
328.7108948804376
 30
0.0
 11
325.9754251603238
 21
328.7108948804376
 31
0.0
  0
LINE
  5
1CD2
330
1F
100
AcDbEntity
  8
AM_VIS
100
AcDbLine
 10
331.4754251603238
 20
324.0920927269206
 30
0.0
 11
325.9754251603238
 21
324.0920927269206
 31
0.0
  0
LINE
  5
1CD3
330
1F
100
AcDbEntity
  8
AM_VIS
100
AcDbLine
 10
331.4754251603238
 20
325.5264938036791
 30
0.0
 11
325.9754251603238
 21
325.5264938036791
 31
0.0
  0
LINE
  5
1CD4
330
1F
100
AcDbEntity
  8
AM_VIS
100
AcDbLine
 10
325.9754251603238
 20
327.2764938036791
 30
0.0
 11
331.4754251603238
 21
327.2764938036791
 31
0.0
  0
LINE
  5
1CD5
330
1F
100
AcDbEntity
  8
AM_VIS
100
AcDbLine
 10
331.4754251603238
 20
326.5934811017868
 30
0.0
 11
325.9754251603238
 21
326.5934811017868
 31
0.0
  0
LINE
  5
1CD6
330
1F
100
AcDbEntity
  8
AM_VIS
100
AcDbLine
 10
331.4754251603238
 20
314.8544884198865
 30
0.0
 11
325.9754251603238
 21
314.8544884198865
 31
0.0
  0
LINE
  5
1CD7
330
1F
100
AcDbEntity
  8
AM_VIS
100
AcDbLine
 10
331.4754251603238
 20
317.7232905734035
 30
0.0
 11
325.9754251603238
 21
317.7232905734035
 31
0.0
  0
LINE
  5
1CD8
330
1F
100
AcDbEntity
  8
AM_VIS
100
AcDbLine
 10
325.9754251603238
 20
321.2232905734036
 30
0.0
 11
331.4754251603238
 21
321.2232905734036
 31
0.0
  0
LINE
  5
1CD9
330
1F
100
AcDbEntity
  8
AM_VIS
100
AcDbLine
 10
331.4754251603238
 20
320.7232905734036
 30
0.0
 11
325.9754251603238
 21
320.7232905734035
 31
0.0
  0
LINE
  5
1CDA
330
1F
100
AcDbEntity
  8
AM_VIS
100
AcDbLine
 10
331.4754251603238
 20
318.2232905734036
 30
0.0
 11
325.9754251603238
 21
318.2232905734035
 31
0.0
  0
LINE
  5
1CDB
330
1F
100
AcDbEntity
  8
AM_VIS
100
AcDbLine
 10
325.9754251603238
 20
328.7108948804376
 30
0.0
 11
325.9754251603238
 21
327.2764938036791
 31
0.0
  0
LINE
  5
1CDC
330
1F
100
AcDbEntity
  8
AM_VIS
100
AcDbLine
 10
325.9754251603238
 20
326.5934811017868
 30
0.0
 11
325.9754251603238
 21
327.2764938036791
 31
0.0
  0
LINE
  5
1CDD
330
1F
100
AcDbEntity
  8
AM_VIS
100
AcDbLine
 10
325.9754251603238
 20
325.5264938036791
 30
0.0
 11
325.9754251603238
 21
326.5934811017868
 31
0.0
  0
LINE
  5
1CDE
330
1F
100
AcDbEntity
  8
AM_VIS
100
AcDbLine
 10
325.9754251603238
 20
325.5264938036791
 30
0.0
 11
325.9754251603238
 21
324.0920927269206
 31
0.0
  0
LINE
  5
1CDF
330
1F
100
AcDbEntity
  8
AM_VIS
100
AcDbLine
 10
325.9754251603238
 20
324.0920927269206
 30
0.0
 11
325.9754251603238
 21
321.2232905734035
 31
0.0
  0
LINE
  5
1CE0
330
1F
100
AcDbEntity
  8
AM_VIS
100
AcDbLine
 10
325.9754251603238
 20
320.7232905734035
 30
0.0
 11
325.9754251603238
 21
321.2232905734035
 31
0.0
  0
LINE
  5
1CE1
330
1F
100
AcDbEntity
  8
AM_VIS
100
AcDbLine
 10
325.9754251603238
 20
318.2232905734035
 30
0.0
 11
325.9754251603238
 21
320.7232905734035
 31
0.0
  0
LINE
  5
1CE2
330
1F
100
AcDbEntity
  8
AM_VIS
100
AcDbLine
 10
325.9754251603238
 20
317.7232905734035
 30
0.0
 11
325.9754251603238
 21
318.2232905734035
 31
0.0
  0
LINE
  5
1CE3
330
1F
100
AcDbEntity
  8
AM_VIS
100
AcDbLine
 10
325.9754251603238
 20
317.7232905734035
 30
0.0
 11
325.9754251603238
 21
314.8544884198865
 31
0.0
  0
LINE
  5
1CE4
330
1F
100
AcDbEntity
  8
AM_VIS
100
AcDbLine
 10
325.9754251603238
 20
314.8544884198865
 30
0.0
 11
325.9754251603238
 21
313.420087343128
 31
0.0
  0
LINE
  5
1CE5
330
1F
100
AcDbEntity
  8
AM_VIS
100
AcDbLine
 10
331.4754251603238
 20
310.2356862663695
 30
0.0
 11
325.9754251603238
 21
310.2356862663695
 31
0.0
  0
LINE
  5
1CE6
330
1F
100
AcDbEntity
  8
AM_VIS
100
AcDbLine
 10
325.9754251603238
 20
311.670087343128
 30
0.0
 11
325.9754251603238
 21
310.2356862663695
 31
0.0
  0
LINE
  5
1CE7
330
1F
100
AcDbEntity
  8
AM_VIS
100
AcDbLine
 10
331.4754251603238
 20
314.8544884198865
 30
0.0
 11
331.4754251603238
 21
313.420087343128
 31
0.0
  0
LINE
  5
1CE8
330
1F
100
AcDbEntity
  8
AM_VIS
100
AcDbLine
 10
331.4754251603238
 20
317.7232905734036
 30
0.0
 11
331.4754251603238
 21
314.8544884198865
 31
0.0
  0
LINE
  5
1CE9
330
1F
100
AcDbEntity
  8
AM_VIS
100
AcDbLine
 10
331.4754251603238
 20
318.2232905734036
 30
0.0
 11
331.4754251603238
 21
317.7232905734036
 31
0.0
  0
LINE
  5
1CEA
330
1F
100
AcDbEntity
  8
AM_VIS
100
AcDbLine
 10
331.4754251603238
 20
320.7232905734036
 30
0.0
 11
331.4754251603238
 21
318.2232905734036
 31
0.0
  0
LINE
  5
1CEB
330
1F
100
AcDbEntity
  8
AM_VIS
100
AcDbLine
 10
331.4754251603238
 20
321.2232905734036
 30
0.0
 11
331.4754251603238
 21
320.7232905734036
 31
0.0
  0
LINE
  5
1CEC
330
1F
100
AcDbEntity
  8
AM_VIS
100
AcDbLine
 10
331.4754251603238
 20
324.0920927269206
 30
0.0
 11
331.4754251603238
 21
321.2232905734036
 31
0.0
  0
LINE
  5
1CED
330
1F
100
AcDbEntity
  8
AM_VIS
100
AcDbLine
 10
331.4754251603238
 20
325.5264938036791
 30
0.0
 11
331.4754251603238
 21
324.0920927269206
 31
0.0
  0
LINE
  5
1CEE
330
1F
100
AcDbEntity
  8
AM_VIS
100
AcDbLine
 10
331.4754251603238
 20
326.5934811017868
 30
0.0
 11
331.4754251603238
 21
325.5264938036791
 31
0.0
  0
LINE
  5
1CEF
330
1F
100
AcDbEntity
  8
AM_VIS
100
AcDbLine
 10
331.4754251603238
 20
327.2764938036791
 30
0.0
 11
331.4754251603238
 21
326.5934811017868
 31
0.0
  0
LINE
  5
1CF0
330
1F
100
AcDbEntity
  8
AM_VIS
100
AcDbLine
 10
331.4754251603238
 20
328.7108948804376
 30
0.0
 11
331.4754251603238
 21
327.2764938036791
 31
0.0
  0
LINE
  5
1CF1
330
1F
100
AcDbEntity
  8
AM_VIS
100
AcDbLine
 10
331.4754251603238
 20
311.670087343128
 30
0.0
 11
331.4754251603238
 21
310.2356862663695
 31
0.0
  0
LINE
  5
1CF2
330
1F
100
AcDbEntity
  8
AM_VIS
100
AcDbLine
 10
331.4754251603238
 20
312.3531000450203
 30
0.0
 11
331.4754251603238
 21
311.670087343128
 31
0.0
  0
LINE
  5
1CF3
330
1F
100
AcDbEntity
  8
AM_VIS
100
AcDbLine
 10
331.4754251603238
 20
311.670087343128
 30
0.0
 11
325.9754251603238
 21
311.670087343128
 31
0.0
  0
LINE
  5
1CF4
330
1F
100
AcDbEntity
  8
AM_VIS
100
AcDbLine
 10
325.9754251603238
 20
311.670087343128
 30
0.0
 11
325.9754251603238
 21
312.3531000450203
 31
0.0
  0
LINE
  5
1CF5
330
1F
100
AcDbEntity
  8
AM_VIS
100
AcDbLine
 10
325.9754251603238
 20
313.420087343128
 30
0.0
 11
331.4754251603238
 21
313.420087343128
 31
0.0
  0
LINE
  5
1CF6
330
1F
100
AcDbEntity
  8
AM_VIS
100
AcDbLine
 10
331.4754251603238
 20
313.420087343128
 30
0.0
 11
331.4754251603238
 21
312.3531000450203
 31
0.0
  0
LINE
  5
1CF7
330
1F
100
AcDbEntity
  8
AM_VIS
100
AcDbLine
 10
331.4754251603238
 20
312.3531000450203
 30
0.0
 11
325.9754251603238
 21
312.3531000450202
 31
0.0
  0
LINE
  5
1CF8
330
1F
100
AcDbEntity
  8
AM_VIS
100
AcDbLine
 10
325.9754251603238
 20
312.3531000450203
 30
0.0
 11
325.9754251603238
 21
313.420087343128
 31
0.0
  0
LINE
  5
1CF9
330
1F
100
AcDbEntity
  8
AM_VIS
100
AcDbLine
 10
325.9754251603238
 20
326.2232905734036
 30
0.0
 11
324.3754251603239
 21
326.2232905734036
 31
0.0
  0
LINE
  5
1CFA
330
1F
100
AcDbEntity
  8
AM_VIS
100
AcDbLine
 10
325.9754251603238
 20
312.7232905734036
 30
0.0
 11
324.3754251603239
 21
312.7232905734036
 31
0.0
  0
LINE
  5
1CFB
330
1F
100
AcDbEntity
  8
AM_VIS
100
AcDbLine
 10
324.3754251603239
 20
326.4732905734035
 30
0.0
 11
323.4754251603238
 21
326.4732905734035
 31
0.0
  0
LINE
  5
1CFC
330
1F
100
AcDbEntity
  8
AM_VIS
100
AcDbLine
 10
324.3754251603239
 20
312.4732905734035
 30
0.0
 11
323.4754251603238
 21
312.4732905734035
 31
0.0
  0
LINE
  5
1CFD
330
1F
100
AcDbEntity
  8
AM_VIS
100
AcDbLine
 10
324.3754251603239
 20
326.4732905734035
 30
0.0
 11
324.3754251603239
 21
312.4732905734035
 31
0.0
  0
LINE
  5
1CFE
330
1F
100
AcDbEntity
  8
AM_VIS
100
AcDbLine
 10
280.475425160328
 20
199.7568623900395
 30
0.0
 11
280.475425160328
 21
208.3263863793931
 31
0.0
  0
LINE
  5
1CFF
330
1F
100
AcDbEntity
  8
AM_VIS
100
AcDbLine
 10
280.475425160328
 20
233.1568623900395
 30
0.0
 11
278.475425160328
 21
233.1568623900395
 31
0.0
  0
LINE
  5
1D00
330
1F
100
AcDbEntity
  8
AM_VIS
100
AcDbLine
 10
278.475425160328
 20
198.7568623900395
 30
0.0
 11
280.475425160328
 21
198.7568623900395
 31
0.0
  0
LINE
  5
1D01
330
1F
100
AcDbEntity
  8
AM_VIS
100
AcDbLine
 10
280.475425160328
 20
199.7568623900395
 30
0.0
 11
280.475425160328
 21
198.7568623900395
 31
0.0
  0
LINE
  5
1D02
330
1F
100
AcDbEntity
  8
AM_VIS
100
AcDbLine
 10
280.475425160328
 20
233.4568623900394
 30
0.0
 11
280.475425160328
 21
208.9568623900394
 31
0.0
  0
LINE
  5
1D03
330
1F
100
AcDbEntity
  8
AM_VIS
100
AcDbLine
 10
280.475425160328
 20
208.3263863793931
 30
0.0
 11
280.475425160328
 21
208.9568623900394
 31
0.0
  0
LINE
  5
1D04
330
1F
100
AcDbEntity
  8
AM_7
100
AcDbLine
 10
309.5048228573586
 20
215.9568623900395
 30
0.0
 11
319.2738530151615
 21
215.9568623900395
 31
0.0
  0
LINE
  5
1D05
330
1F
100
AcDbEntity
  8
AM_7
100
AcDbLine
 10
333.5058559347595
 20
256.4568623900394
 30
0.0
 11
307.7728122689067
 21
256.4568623900394
 31
0.0
  0
LINE
  5
1D06
330
1F
100
AcDbEntity
  8
AM_VIS
100
AcDbLine
 10
280.475425160328
 20
233.4568623900394
 30
0.0
 11
280.475425160328
 21
208.9568623900394
 31
0.0
  0
LINE
  5
1D07
330
1F
100
AcDbEntity
  8
AM_VIS
100
AcDbLine
 10
280.475425160328
 20
233.4568623900394
 30
0.0
 11
310.475425160328
 21
233.4568623900394
 31
0.0
  0
LINE
  5
1D08
330
1F
100
AcDbEntity
  8
AM_VIS
100
AcDbLine
 10
310.475425160328
 20
208.9568623900394
 30
0.0
 11
310.475425160328
 21
233.4568623900394
 31
0.0
  0
LINE
  5
1D09
330
1F
100
AcDbEntity
  8
AM_VIS
100
AcDbLine
 10
280.475425160328
 20
204.9568623900394
 30
0.0
 11
310.475425160328
 21
204.9568623900394
 31
0.0
  0
LINE
  5
1D0A
330
1F
100
AcDbEntity
  8
AM_VIS
100
AcDbLine
 10
280.475425160328
 20
204.9568623900394
 30
0.0
 11
280.475425160328
 21
208.9568623900394
 31
0.0
  0
LINE
  5
1D0B
330
1F
100
AcDbEntity
  8
AM_VIS
100
AcDbLine
 10
310.475425160328
 20
208.9568623900394
 30
0.0
 11
310.475425160328
 21
204.9568623900394
 31
0.0
  0
LINE
  5
1D0C
330
1F
100
AcDbEntity
  8
AM_VIS
100
AcDbLine
 10
316.3254251603281
 20
225.7948155603639
 30
0.0
 11
317.475425160328
 21
225.7948155603639
 31
0.0
  0
LINE
  5
1D0D
330
1F
100
AcDbEntity
  8
AM_VIS
100
AcDbLine
 10
317.4787533621392
 20
225.7974361354144
 30
0.0
 11
317.9794136359043
 21
225.1615839282556
 31
0.0
  0
SPLINE
  5
1D0E
330
1F
100
AcDbEntity
  8
AM_VIS
100
AcDbSpline
210
0.0
220
0.0
230
1.0
 70
     8
 71
     3
 72
     8
 73
     4
 74
     0
 42
0.0000000001
 43
0.0000000001
 40
7.860869802063005
 40
7.860869802063005
 40
7.860869802063005
 40
7.860869802063005
 40
8.796716660561699
 40
8.796716660561699
 40
8.796716660561699
 40
8.796716660561699
 10
317.975425160328
 20
222.6035462055629
 30
0.0
 10
317.8243861242937
 20
222.5310457685521
 30
0.0
 10
317.6552865085495
 20
222.4731524481263
 30
0.0
 10
317.475425160328
 20
222.4285810863963
 30
0.0
  0
LINE
  5
1D0F
330
1F
100
AcDbEntity
  8
AM_VIS
100
AcDbLine
 10
317.475425160328
 20
222.4285810863963
 30
0.0
 11
316.3254251603281
 21
222.4285810863963
 31
0.0
  0
LINE
  5
1D10
330
1F
100
AcDbEntity
  8
AM_VIS
100
AcDbLine
 10
316.3254251603281
 20
209.4851436936825
 30
0.0
 11
317.475425160328
 21
209.4851436936825
 31
0.0
  0
SPLINE
  5
1D11
330
1F
100
AcDbEntity
  8
AM_VIS
100
AcDbSpline
210
0.0
220
0.0
230
1.0
 70
     8
 71
     3
 72
     8
 73
     4
 74
     0
 42
0.0000000001
 43
0.0000000001
 40
1.630155803927018
 40
1.630155803927018
 40
1.630155803927018
 40
1.630155803927018
 40
2.566002662426996
 40
2.566002662426996
 40
2.566002662426996
 40
2.566002662426996
 10
317.475425160328
 20
209.4851436936825
 30
0.0
 10
317.6552863935232
 20
209.4405723604572
 30
0.0
 10
317.8243860148967
 20
209.3826790640386
 30
0.0
 10
317.975425160328
 20
209.3101785745159
 30
0.0
  0
LINE
  5
1D12
330
1F
100
AcDbEntity
  8
AM_VIS
100
AcDbLine
 10
317.4787533602815
 20
206.1162886461028
 30
0.0
 11
317.9794136369111
 21
206.7521408510015
 31
0.0
  0
LINE
  5
1D13
330
1F
100
AcDbEntity
  8
AM_VIS
100
AcDbLine
 10
317.475425160328
 20
206.118909219715
 30
0.0
 11
316.3254251603281
 21
206.118909219715
 31
0.0
  0
LINE
  5
1D14
330
1F
100
AcDbEntity
  8
AM_VIS
100
AcDbLine
 10
316.3254251603281
 20
219.323096864007
 30
0.0
 11
317.475425160328
 21
219.323096864007
 31
0.0
  0
SPLINE
  5
1D15
330
1F
100
AcDbEntity
  8
AM_VIS
100
AcDbSpline
210
0.0
220
0.0
230
1.0
 70
     8
 71
     3
 72
     8
 73
     4
 74
     0
 42
0.0000000001
 43
0.0000000001
 40
1.63015580392704
 40
1.63015580392704
 40
1.63015580392704
 40
1.63015580392704
 40
2.566002662427006
 40
2.566002662427006
 40
2.566002662427006
 40
2.566002662427006
 10
317.475425160328
 20
219.323096864007
 30
0.0
 10
317.6552863935232
 20
219.0637198837825
 30
0.0
 10
317.8243860148967
 20
218.7925677858328
 30
0.0
 10
317.975425160328
 20
218.5117596482477
 30
0.0
  0
SPLINE
  5
1D16
330
1F
100
AcDbEntity
  8
AM_VIS
100
AcDbSpline
210
0.0
220
0.0
230
1.0
 70
     8
 71
     3
 72
     8
 73
     4
 74
     0
 42
0.0000000001
 43
0.0000000001
 40
7.860869802062977
 40
7.860869802062977
 40
7.860869802062977
 40
7.860869802062977
 40
8.796716660561656
 40
8.796716660561656
 40
8.796716660561656
 40
8.796716660561656
 10
317.975425160328
 20
213.4019651318312
 30
0.0
 10
317.8243861242937
 20
213.1211571976342
 30
0.0
 10
317.6552865085495
 20
212.8500050621751
 30
0.0
 10
317.475425160328
 20
212.5906279160719
 30
0.0
  0
LINE
  5
1D17
330
1F
100
AcDbEntity
  8
AM_VIS
100
AcDbLine
 10
317.475425160328
 20
212.5906279160719
 30
0.0
 11
316.3254251603281
 21
212.5906279160719
 31
0.0
  0
LINE
  5
1D18
330
1F
100
AcDbEntity
  8
AM_VIS
100
AcDbLine
 10
314.8254251603281
 20
212.5906279160719
 30
0.0
 11
311.975425160328
 21
212.5906279160719
 31
0.0
  0
LINE
  5
1D19
330
1F
100
AcDbEntity
  8
AM_VIS
100
AcDbLine
 10
314.8254251603281
 20
222.4285810863963
 30
0.0
 11
311.975425160328
 21
222.4285810863963
 31
0.0
  0
LINE
  5
1D1A
330
1F
100
AcDbEntity
  8
AM_VIS
100
AcDbLine
 10
311.975425160328
 20
219.323096864007
 30
0.0
 11
314.8254251603281
 21
219.323096864007
 31
0.0
  0
LINE
  5
1D1B
330
1F
100
AcDbEntity
  8
AM_VIS
100
AcDbLine
 10
311.975425160328
 20
225.7948155603639
 30
0.0
 11
314.8254251603281
 21
225.7948155603639
 31
0.0
  0
LINE
  5
1D1C
330
1F
100
AcDbEntity
  8
AM_VIS
100
AcDbLine
 10
311.975425160328
 20
209.4851436936825
 30
0.0
 11
314.8254251603281
 21
209.4851436936825
 31
0.0
  0
LINE
  5
1D1D
330
1F
100
AcDbEntity
  8
AM_VIS
100
AcDbLine
 10
314.8254251603281
 20
206.118909219715
 30
0.0
 11
311.975425160328
 21
206.118909219715
 31
0.0
  0
ARC
  5
1D1E
330
1F
100
AcDbEntity
  8
AM_VIS
100
AcDbCircle
 10
325.1978833704826
 20
207.8020264566987
 30
0.0
 40
13.32915168916285
100
AcDbArc
 50
172.7457013204759
 51
187.254298679524
  0
ARC
  5
1D1F
330
1F
100
AcDbEntity
  8
AM_VIS
100
AcDbCircle
 10
325.1978833704856
 20
224.11169832338
 30
0.0
 40
13.32915168916579
100
AcDbArc
 50
172.7457013204759
 51
187.254298679524
  0
SPLINE
  5
1D20
330
1F
100
AcDbEntity
  8
AM_VIS
100
AcDbSpline
210
0.0
220
0.0
230
1.0
 70
     8
 71
     3
 72
    14
 73
    10
 74
     0
 42
0.0000000001
 43
0.0000000001
 40
13.28006742556183
 40
13.28006742556183
 40
13.28006742556183
 40
13.28006742556183
 40
14.27448381305591
 40
14.27448381305591
 40
16.65382904986477
 40
16.65382904986477
 40
19.03317428667361
 40
19.03317428667361
 40
20.02759067416768
 40
20.02759067416768
 40
20.02759067416768
 40
20.02759067416768
 10
311.975425160328
 20
212.5906279160719
 30
0.0
 10
311.957679185209
 20
212.9105201849417
 30
0.0
 10
311.9419035915056
 20
213.2364886388426
 30
0.0
 10
311.8966947795951
 20
214.3544819704703
 30
0.0
 10
311.879425160328
 20
215.1637473111032
 30
0.0
 10
311.879425160328
 20
216.7499774689757
 30
0.0
 10
311.8966947795951
 20
217.5592428096086
 30
0.0
 10
311.9419035915056
 20
218.6772361412363
 30
0.0
 10
311.957679185209
 20
219.0032045951372
 30
0.0
 10
311.975425160328
 20
219.323096864007
 30
0.0
  0
SPLINE
  5
1D21
330
1F
100
AcDbEntity
  8
AM_VIS
100
AcDbSpline
210
0.0
220
0.0
230
1.0
 70
    11
 71
     3
 72
    58
 73
    54
 74
     0
 42
0.0000000001
 43
0.0000000001
 40
-3.363896419255587
 40
-3.363896419255587
 40
-3.363896419255587
 40
-3.363896419255587
 40
-3.330080057210193
 40
-3.330080057210193
 40
-3.276087946180991
 40
-3.276087946180991
 40
-3.130129325405927
 40
-3.130129325405927
 40
-2.864475625747458
 40
-2.864475625747458
 40
-2.670984402726474
 40
-2.670984402726474
 40
-2.529876972632633
 40
-2.529876972632633
 40
-2.39414607930529
 40
-2.39414607930529
 40
-2.234845146690002
 40
-2.234845146690002
 40
-1.995446372975766
 40
-1.995446372975766
 40
-1.792732498499779
 40
-1.792732498499779
 40
-1.655061186031255
 40
-1.655061186031255
 40
-1.604023047347052
 40
-1.604023047347052
 40
-1.569394244758093
 40
-1.569394244758093
 40
-1.535224675064294
 40
-1.535224675064294
 40
-1.486406949001721
 40
-1.486406949001721
 40
-1.367760828147406
 40
-1.367760828147406
 40
-1.211422564713941
 40
-1.211422564713941
 40
-1.00947781381898
 40
-1.00947781381898
 40
-0.8308451467036132
 40
-0.8308451467036132
 40
-0.6546659190622926
 40
-0.6546659190622926
 40
-0.4706948992192896
 40
-0.4706948992192896
 40
-0.3083260207238461
 40
-0.3083260207238461
 40
-0.1833529844742129
 40
-0.1833529844742129
 40
-0.0782943285735388
 40
-0.0782943285735388
 40
-0.0333492537450304
 40
-0.0333492537450304
 40
0.0
 40
0.0
 40
0.0
 40
0.0
 10
316.0754251603281
 20
222.0794649476738
 30
0.0
 10
316.0754251603281
 20
222.0759648233382
 30
0.0
 10
316.0750810065946
 20
222.0721476406018
 30
0.0
 10
316.0733483040575
 20
222.061477295821
 30
0.0
 10
316.0714654997599
 20
222.054206052263
 30
0.0
 10
316.0618281811684
 20
222.0251837215045
 30
0.0
 10
316.0494991029242
 20
221.9997311166354
 30
0.0
 10
316.0040467506175
 20
221.924474818239
 30
0.0
 10
315.9605067034096
 20
221.8691618645198
 30
0.0
 10
315.8656787593581
 20
221.7852017731938
 30
0.0
 10
315.8182788786106
 20
221.7520462480889
 30
0.0
 10
315.7246367651795
 20
221.709288281206
 30
0.0
 10
315.6819020783438
 20
221.6959249680639
 30
0.0
 10
315.5930898950913
 20
221.6832229761869
 30
0.0
 10
315.5493398873058
 20
221.6836861623006
 30
0.0
 10
315.4555427920771
 20
221.6988771883002
 30
0.0
 10
315.408550584997
 20
221.7155790605592
 30
0.0
 10
315.3021262755718
 20
221.7700327553321
 30
0.0
 10
315.2472323792164
 20
221.8147242166924
 30
0.0
 10
315.1656127462585
 20
221.9009288660604
 30
0.0
 10
315.1351978969159
 20
221.9425865165026
 30
0.0
 10
315.0986072051509
 20
222.0052106482714
 30
0.0
 10
315.0874430420093
 20
222.029089581975
 30
0.0
 10
315.0788296330796
 20
222.0562721483903
 30
0.0
 10
315.0771736031194
 20
222.0630626162799
 30
0.0
 10
315.0756362375506
 20
222.0733389036461
 30
0.0
 10
315.0753574112697
 20
222.0771736753678
 30
0.0
 10
315.0755195934674
 20
222.0841155171036
 30
0.0
 10
315.0759508243278
 20
222.0872214073803
 30
0.0
 10
315.0778845892854
 20
222.0939116261726
 30
0.0
 10
315.0797600400143
 20
222.0971076378087
 30
0.0
 10
315.0888309511135
 20
222.1055811766886
 30
0.0
 10
315.0996142799116
 20
222.1071072198285
 30
0.0
 10
315.1345447753751
 20
222.103101019491
 30
0.0
 10
315.161352403932
 20
222.0953388078865
 30
0.0
 10
315.2356199912932
 20
222.0738322944257
 30
0.0
 10
315.2881190666607
 20
222.0586323878837
 30
0.0
 10
315.4039987802788
 20
222.0358398556595
 30
0.0
 10
315.4631145900545
 20
222.0280845952988
 30
0.0
 10
315.5848894951015
 20
222.0226255008978
 30
0.0
 10
315.6454679377042
 20
222.0248638793531
 30
0.0
 10
315.7644570178826
 20
222.0382648510548
 30
0.0
 10
315.8209322170307
 20
222.0496401414421
 30
0.0
 10
315.9145151273209
 20
222.0731567131078
 30
0.0
 10
315.9527969964828
 20
222.0849478471539
 30
0.0
 10
316.0081487147328
 20
222.1003872442468
 30
0.0
 10
316.0279655291391
 20
222.105198256847
 30
0.0
 10
316.0554739071928
 20
222.1065770825037
 30
0.0
 10
316.0643453401605
 20
222.1042944440914
 30
0.0
 10
316.0718911726923
 20
222.095829233989
 30
0.0
 10
316.0734661277148
 20
222.0926609594175
 30
0.0
 10
316.0750905313229
 20
222.0860580969476
 30
0.0
 10
316.0754251603281
 20
222.0829167244928
 30
0.0
 10
316.0754251603281
 20
222.0794649476738
 30
0.0
  0
CIRCLE
  5
1D22
330
1F
100
AcDbEntity
  8
AM_VIS
100
AcDbCircle
 10
315.5754251603281
 20
217.2068623900395
 30
0.0
 40
0.5000000000000002
  0
SPLINE
  5
1D23
330
1F
100
AcDbEntity
  8
AM_VIS
100
AcDbSpline
210
0.0
220
0.0
230
1.0
 70
    11
 71
     3
 72
    58
 73
    54
 74
     0
 42
0.0000000001
 43
0.0000000001
 40
-3.310941722020734
 40
-3.310941722020734
 40
-3.310941722020734
 40
-3.310941722020734
 40
-3.295630163505362
 40
-3.295630163505362
 40
-3.25888521683784
 40
-3.25888521683784
 40
-3.197166102513703
 40
-3.197166102513703
 40
-3.038165220175974
 40
-3.038165220175974
 40
-2.856291614867816
 40
-2.856291614867816
 40
-2.666842086896373
 40
-2.666842086896373
 40
-2.492578752008394
 40
-2.492578752008394
 40
-2.312125783734214
 40
-2.312125783734214
 40
-2.13451249378157
 40
-2.13451249378157
 40
-1.991913706757117
 40
-1.991913706757117
 40
-1.842368186774402
 40
-1.842368186774402
 40
-1.791323432477104
 40
-1.791323432477104
 40
-1.757111173270509
 40
-1.757111173270509
 40
-1.723565230364853
 40
-1.723565230364853
 40
-1.676146471114944
 40
-1.676146471114944
 40
-1.5592641658533
 40
-1.5592641658533
 40
-1.304423753588805
 40
-1.304423753588805
 40
-1.102534997063944
 40
-1.102534997063944
 40
-0.9616332280833521
 40
-0.9616332280833521
 40
-0.8335600122414829
 40
-0.8335600122414829
 40
-0.6887403587885041
 40
-0.6887403587885041
 40
-0.4760113448049901
 40
-0.4760113448049901
 40
-0.2570316117964575
 40
-0.2570316117964575
 40
-0.0905362468527244
 40
-0.0905362468527244
 40
-0.0354113089023832
 40
-0.0354113089023832
 40
0.0
 40
0.0
 40
0.0
 40
0.0
 10
316.0754251603281
 20
209.8342598324051
 30
0.0
 10
316.0754251603281
 20
209.8326750268455
 30
0.0
 10
316.0753545604633
 20
209.8311565140082
 30
0.0
 10
316.0748682897055
 20
209.8262248905631
 30
0.0
 10
316.0741098116087
 20
209.8231510824563
 30
0.0
 10
316.0709164536166
 20
209.8160258616303
 30
0.0
 10
316.0677132493412
 20
209.8127732387835
 30
0.0
 10
316.0517730388336
 20
209.8052409073499
 30
0.0
 10
316.0324256463876
 20
209.8076906109731
 30
0.0
 10
315.9758510298469
 20
209.8216865562426
 30
0.0
 10
315.9361375937418
 20
209.8344639946453
 30
0.0
 10
315.8377278703725
 20
209.8603514415241
 30
0.0
 10
315.7799147365637
 20
209.8728860257297
 30
0.0
 10
315.6599182626766
 20
209.8878412995648
 30
0.0
 10
315.5999356878794
 20
209.8908512764642
 30
0.0
 10
315.4777553068637
 20
209.8870372197965
 30
0.0
 10
315.4177148462653
 20
209.8799221524085
 30
0.0
 10
315.3078052794755
 20
209.8594799765785
 30
0.0
 10
315.2586799477334
 20
209.8464019969245
 30
0.0
 10
315.1838702886008
 20
209.8249978783881
 30
0.0
 10
315.1554555686615
 20
209.8162843044452
 30
0.0
 10
315.1094689718051
 20
209.8064411850971
 30
0.0
 10
315.0929496731375
 20
209.8059373874012
 30
0.0
 10
315.0806654748043
 20
209.8153727525541
 30
0.0
 10
315.0784475326162
 20
209.8186049778755
 30
0.0
 10
315.0761669653169
 20
209.8254017262734
 30
0.0
 10
315.0756403185511
 20
209.8284896137506
 30
0.0
 10
315.07532055117
 20
209.8352864295191
 30
0.0
 10
315.0755138844353
 20
209.8389717387629
 30
0.0
 10
315.0767709940723
 20
209.8485766145159
 30
0.0
 10
315.078159576013
 20
209.8547762765538
 30
0.0
 10
315.0849977715005
 20
209.8779169578125
 30
0.0
 10
315.0934172466524
 20
209.8973150046617
 30
0.0
 10
315.1287706353279
 20
209.9631696003031
 30
0.0
 10
315.1673509803264
 20
210.017342452834
 30
0.0
 10
315.257485316741
 20
210.106843724984
 30
0.0
 10
315.3059894947477
 20
210.1451036106799
 30
0.0
 10
315.4018532004876
 20
210.1950838299025
 30
0.0
 10
315.4451084883491
 20
210.2112886630243
 30
0.0
 10
315.5336958696306
 20
210.2287172596067
 30
0.0
 10
315.5766880553009
 20
210.2308033517323
 30
0.0
 10
315.6683934132392
 20
210.2213277582491
 30
0.0
 10
315.7142842551362
 20
210.2082569591032
 30
0.0
 10
315.8187142267149
 20
210.1626278949508
 30
0.0
 10
315.8720031403853
 20
210.1243828648486
 30
0.0
 10
315.9606625041716
 20
210.0425407122966
 30
0.0
 10
315.9973841346524
 20
209.9969276211676
 30
0.0
 10
316.0445976880532
 20
209.9237698063315
 30
0.0
 10
316.0600192628487
 20
209.8933831203222
 30
0.0
 10
316.0711689749788
 20
209.8605899088362
 30
0.0
 10
316.0731709068665
 20
209.8530567561995
 30
0.0
 10
316.0750477686053
 20
209.8419437909364
 30
0.0
 10
316.0754251603281
 20
209.8379250399126
 30
0.0
 10
316.0754251603281
 20
209.8342598324051
 30
0.0
  0
CIRCLE
  5
1D24
330
1F
100
AcDbEntity
  8
AM_VIS
100
AcDbCircle
 10
315.5754251603281
 20
214.7068623900395
 30
0.0
 40
0.5000000000000022
  0
ARC
  5
1D25
330
1F
100
AcDbEntity
  8
AM_VIS
100
AcDbCircle
 10
315.5754251603281
 20
222.8847436337523
 30
0.0
 40
0.6979039290997726
100
AcDbArc
 50
224.239403277131
 51
315.7605967228735
  0
ARC
  5
1D26
330
1F
100
AcDbEntity
  8
AM_VIS
100
AcDbCircle
 10
315.5754251603281
 20
209.0289995243308
 30
0.0
 40
0.6978911076630025
100
AcDbArc
 50
44.23832232198666
 51
135.7616776780133
  0
LINE
  5
1D27
330
1F
100
AcDbEntity
  8
AM_VIS
100
AcDbLine
 10
317.975425160328
 20
225.4568623900395
 30
0.0
 11
317.475425160328
 21
225.9568623900395
 31
0.0
  0
LINE
  5
1D28
330
1F
100
AcDbEntity
  8
AM_VIS
100
AcDbLine
 10
317.975425160328
 20
206.4568623900395
 30
0.0
 11
317.475425160328
 21
205.9568623900395
 31
0.0
  0
LINE
  5
1D29
330
1F
100
AcDbEntity
  8
AM_VIS
100
AcDbLine
 10
316.3254251603281
 20
225.9568623900395
 30
0.0
 11
317.475425160328
 21
225.9568623900395
 31
0.0
  0
LINE
  5
1D2A
330
1F
100
AcDbEntity
  8
AM_VIS
100
AcDbLine
 10
316.3254251603281
 20
205.9568623900395
 30
0.0
 11
317.475425160328
 21
205.9568623900395
 31
0.0
  0
LINE
  5
1D2B
330
1F
100
AcDbEntity
  8
AM_VIS
100
AcDbLine
 10
311.975425160328
 20
225.9568623900395
 30
0.0
 11
314.8254251603281
 21
225.9568623900395
 31
0.0
  0
LINE
  5
1D2C
330
1F
100
AcDbEntity
  8
AM_VIS
100
AcDbLine
 10
311.975425160328
 20
205.9568623900395
 30
0.0
 11
314.8254251603281
 21
205.9568623900395
 31
0.0
  0
LINE
  5
1D2D
330
1F
100
AcDbEntity
  8
AM_VIS
100
AcDbLine
 10
311.7754251603281
 20
208.4568623900395
 30
0.0
 11
311.975425160328
 21
205.9568623900395
 31
0.0
  0
LINE
  5
1D2E
330
1F
100
AcDbEntity
  8
AM_VIS
100
AcDbLine
 10
311.7754251603279
 20
223.4568623900395
 30
0.0
 11
311.975425160328
 21
225.9568623900395
 31
0.0
  0
LINE
  5
1D2F
330
1F
100
AcDbEntity
  8
AM_VIS
100
AcDbLine
 10
310.975425160328
 20
223.4568623900395
 30
0.0
 11
310.475425160328
 21
225.9568623900395
 31
0.0
  0
LINE
  5
1D30
330
1F
100
AcDbEntity
  8
AM_VIS
100
AcDbLine
 10
310.975425160328
 20
208.4568623900395
 30
0.0
 11
310.475425160328
 21
205.9568623900395
 31
0.0
  0
LINE
  5
1D31
330
1F
100
AcDbEntity
  8
AM_VIS
100
AcDbLine
 10
310.975425160328
 20
208.4568623900395
 30
0.0
 11
311.7754251603281
 21
208.4568623900395
 31
0.0
  0
LINE
  5
1D32
330
1F
100
AcDbEntity
  8
AM_VIS
100
AcDbLine
 10
310.975425160328
 20
223.4568623900395
 30
0.0
 11
311.7754251603279
 21
223.4568623900395
 31
0.0
  0
LINE
  5
1D33
330
1F
100
AcDbEntity
  8
AM_VIS
100
AcDbLine
 10
317.475425160328
 20
209.4851436936825
 30
0.0
 11
317.475425160328
 21
212.5906279160719
 31
0.0
  0
LINE
  5
1D34
330
1F
100
AcDbEntity
  8
AM_VIS
100
AcDbLine
 10
317.475425160328
 20
219.323096864007
 30
0.0
 11
317.475425160328
 21
222.4285810863963
 31
0.0
  0
LINE
  5
1D35
330
1F
100
AcDbEntity
  8
AM_VIS
100
AcDbLine
 10
317.475425160328
 20
225.7948155603639
 30
0.0
 11
317.475425160328
 21
225.9568623900395
 31
0.0
  0
LINE
  5
1D36
330
1F
100
AcDbEntity
  8
AM_VIS
100
AcDbLine
 10
317.475425160328
 20
205.9568623900395
 30
0.0
 11
317.475425160328
 21
206.118909219715
 31
0.0
  0
LINE
  5
1D37
330
1F
100
AcDbEntity
  8
AM_VIS
100
AcDbLine
 10
316.3254251603281
 20
209.4851436936825
 30
0.0
 11
316.3254251603281
 21
212.5906279160719
 31
0.0
  0
LINE
  5
1D38
330
1F
100
AcDbEntity
  8
AM_VIS
100
AcDbLine
 10
316.3254251603281
 20
209.4851436936825
 30
0.0
 11
316.3254251603281
 21
206.1189092197149
 31
0.0
  0
LINE
  5
1D39
330
1F
100
AcDbEntity
  8
AM_VIS
100
AcDbLine
 10
316.3254251603281
 20
205.9568623900395
 30
0.0
 11
316.3254251603281
 21
206.118909219715
 31
0.0
  0
LINE
  5
1D3A
330
1F
100
AcDbEntity
  8
AM_VIS
100
AcDbLine
 10
316.3254251603281
 20
225.7948155603639
 30
0.0
 11
316.3254251603281
 21
225.9568623900395
 31
0.0
  0
LINE
  5
1D3B
330
1F
100
AcDbEntity
  8
AM_VIS
100
AcDbLine
 10
316.3254251603281
 20
225.7948155603639
 30
0.0
 11
316.3254251603281
 21
222.4285810863963
 31
0.0
  0
LINE
  5
1D3C
330
1F
100
AcDbEntity
  8
AM_VIS
100
AcDbLine
 10
316.3254251603281
 20
219.3230968640069
 30
0.0
 11
316.3254251603281
 21
222.4285810863963
 31
0.0
  0
LINE
  5
1D3D
330
1F
100
AcDbEntity
  8
AM_VIS
100
AcDbLine
 10
316.3254251603281
 20
219.323096864007
 30
0.0
 11
316.3254251603281
 21
212.5906279160718
 31
0.0
  0
LINE
  5
1D3E
330
1F
100
AcDbEntity
  8
AM_VIS
100
AcDbLine
 10
314.8254251603281
 20
222.4285810863963
 30
0.0
 11
314.8254251603281
 21
225.7948155603639
 31
0.0
  0
LINE
  5
1D3F
330
1F
100
AcDbEntity
  8
AM_VIS
100
AcDbLine
 10
314.8254251603281
 20
212.5906279160719
 30
0.0
 11
314.8254251603281
 21
219.3230968640071
 31
0.0
  0
LINE
  5
1D40
330
1F
100
AcDbEntity
  8
AM_VIS
100
AcDbLine
 10
314.8254251603281
 20
212.5906279160719
 30
0.0
 11
314.8254251603281
 21
209.4851436936825
 31
0.0
  0
LINE
  5
1D41
330
1F
100
AcDbEntity
  8
AM_VIS
100
AcDbLine
 10
314.8254251603281
 20
222.4285810863963
 30
0.0
 11
314.8254251603281
 21
219.3230968640069
 31
0.0
  0
LINE
  5
1D42
330
1F
100
AcDbEntity
  8
AM_VIS
100
AcDbLine
 10
314.8254251603281
 20
225.9568623900395
 30
0.0
 11
314.8254251603281
 21
225.7948155603639
 31
0.0
  0
LINE
  5
1D43
330
1F
100
AcDbEntity
  8
AM_VIS
100
AcDbLine
 10
314.8254251603281
 20
206.118909219715
 30
0.0
 11
314.8254251603281
 21
205.9568623900395
 31
0.0
  0
LINE
  5
1D44
330
1F
100
AcDbEntity
  8
AM_VIS
100
AcDbLine
 10
314.8254251603281
 20
206.118909219715
 30
0.0
 11
314.8254251603281
 21
209.4851436936825
 31
0.0
  0
LINE
  5
1D45
330
1F
100
AcDbEntity
  8
AM_VIS
100
AcDbLine
 10
311.975425160328
 20
209.4851436936825
 30
0.0
 11
311.975425160328
 21
212.5906279160719
 31
0.0
  0
LINE
  5
1D46
330
1F
100
AcDbEntity
  8
AM_VIS
100
AcDbLine
 10
311.975425160328
 20
205.9568623900395
 30
0.0
 11
311.975425160328
 21
206.118909219715
 31
0.0
  0
LINE
  5
1D47
330
1F
100
AcDbEntity
  8
AM_VIS
100
AcDbLine
 10
311.975425160328
 20
225.7948155603639
 30
0.0
 11
311.975425160328
 21
225.9568623900395
 31
0.0
  0
LINE
  5
1D48
330
1F
100
AcDbEntity
  8
AM_VIS
100
AcDbLine
 10
311.975425160328
 20
219.3230968640069
 30
0.0
 11
311.975425160328
 21
222.4285810863963
 31
0.0
  0
LINE
  5
1D49
330
1F
100
AcDbEntity
  8
AM_VIS
100
AcDbLine
 10
311.7754251603279
 20
208.4568623900395
 30
0.0
 11
311.7754251603279
 21
223.4568623900395
 31
0.0
  0
LINE
  5
1D4A
330
1F
100
AcDbEntity
  8
AM_VIS
100
AcDbLine
 10
310.975425160328
 20
208.4568623900395
 30
0.0
 11
310.975425160328
 21
223.4568623900395
 31
0.0
  0
LINE
  5
1D4B
330
1F
100
AcDbEntity
  8
AM_VIS
100
AcDbLine
 10
317.975425160328
 20
206.7552813163077
 30
0.0
 11
317.975425160328
 21
206.4568623900395
 31
0.0
  0
LINE
  5
1D4C
330
1F
100
AcDbEntity
  8
AM_VIS
100
AcDbLine
 10
317.975425160328
 20
209.3101785745159
 30
0.0
 11
317.975425160328
 21
206.7552813163076
 31
0.0
  0
LINE
  5
1D4D
330
1F
100
AcDbEntity
  8
AM_VIS
100
AcDbLine
 10
317.975425160328
 20
213.4019651318312
 30
0.0
 11
317.975425160328
 21
209.3101785745159
 31
0.0
  0
LINE
  5
1D4E
330
1F
100
AcDbEntity
  8
AM_VIS
100
AcDbLine
 10
317.975425160328
 20
218.5117596482476
 30
0.0
 11
317.975425160328
 21
213.4019651318311
 31
0.0
  0
LINE
  5
1D4F
330
1F
100
AcDbEntity
  8
AM_VIS
100
AcDbLine
 10
317.975425160328
 20
222.6035462055629
 30
0.0
 11
317.975425160328
 21
218.5117596482477
 31
0.0
  0
LINE
  5
1D50
330
1F
100
AcDbEntity
  8
AM_VIS
100
AcDbLine
 10
317.975425160328
 20
225.1584434637712
 30
0.0
 11
317.975425160328
 21
222.6035462055629
 31
0.0
  0
LINE
  5
1D51
330
1F
100
AcDbEntity
  8
AM_VIS
100
AcDbLine
 10
317.975425160328
 20
225.4568623900395
 30
0.0
 11
317.975425160328
 21
225.1584434637712
 31
0.0
  0
ARC
  5
1D52
330
1F
100
AcDbEntity
  8
AM_VIS
100
AcDbCircle
 10
315.5754251603281
 20
222.9568623900395
 30
0.0
 40
0.75
100
AcDbArc
 50
180.0
 51
228.1896851042209
  0
ARC
  5
1D53
330
1F
100
AcDbEntity
  8
AM_VIS
100
AcDbCircle
 10
315.5754251603281
 20
222.9568623900395
 30
0.0
 40
0.75
100
AcDbArc
 50
311.8103148957791
 51
0.0
  0
ARC
  5
1D54
330
1F
100
AcDbEntity
  8
AM_VIS
100
AcDbCircle
 10
315.5754251603281
 20
208.9568623900395
 30
0.0
 40
0.75
100
AcDbArc
 50
0.0
 51
48.18968510422442
  0
ARC
  5
1D55
330
1F
100
AcDbEntity
  8
AM_VIS
100
AcDbCircle
 10
315.5754251603281
 20
208.9568623900395
 30
0.0
 40
0.75
100
AcDbArc
 50
131.8103148957791
 51
180.0
  0
LINE
  5
1D56
330
1F
100
AcDbEntity
  8
AM_VIS
100
AcDbLine
 10
306.475425160328
 20
234.9568623900394
 30
0.0
 11
284.475425160328
 21
234.9568623900394
 31
0.0
  0
LINE
  5
1D57
330
1F
100
AcDbEntity
  8
AM_VIS
100
AcDbLine
 10
280.975425160328
 20
234.9568623900394
 30
0.0
 11
280.975425160328
 21
233.4568623900394
 31
0.0
  0
LINE
  5
1D58
330
1F
100
AcDbEntity
  8
AM_VIS
100
AcDbLine
 10
309.975425160328
 20
233.4568623900394
 30
0.0
 11
309.975425160328
 21
234.9568623900394
 31
0.0
  0
LINE
  5
1D59
330
1F
100
AcDbEntity
  8
AM_VIS
100
AcDbLine
 10
280.975425160328
 20
234.9568623900394
 30
0.0
 11
284.475425160328
 21
234.9568623900394
 31
0.0
  0
LINE
  5
1D5A
330
1F
100
AcDbEntity
  8
AM_VIS
100
AcDbLine
 10
306.475425160328
 20
234.9568623900394
 30
0.0
 11
309.975425160328
 21
234.9568623900394
 31
0.0
  0
LINE
  5
1D5B
330
1F
100
AcDbEntity
  8
AM_VIS
100
AcDbLine
 10
284.475425160328
 20
234.9568623900394
 30
0.0
 11
306.475425160328
 21
234.9568623900394
 31
0.0
  0
LINE
  5
1D5C
330
1F
100
AcDbEntity
  8
AM_VIS
100
AcDbLine
 10
280.975425160328
 20
259.9568623900394
 30
0.0
 11
280.975425160328
 21
234.9568623900394
 31
0.0
  0
LINE
  5
1D5D
330
1F
100
AcDbEntity
  8
AM_VIS
100
AcDbLine
 10
306.475425160328
 20
263.4568623900394
 30
0.0
 11
284.475425160328
 21
263.4568623900394
 31
0.0
  0
LINE
  5
1D5E
330
1F
100
AcDbEntity
  8
AM_VIS
100
AcDbLine
 10
309.975425160328
 20
234.9568623900394
 30
0.0
 11
309.975425160328
 21
250.8000081405471
 31
0.0
  0
ARC
  5
1D5F
330
1F
100
AcDbEntity
  8
AM_VIS
100
AcDbCircle
 10
339.1881864107942
 20
256.0570547362806
 30
0.0
 40
29.68201406216336
100
AcDbArc
 50
172.4502959460586
 51
190.2015981703591
  0
ARC
  5
1D60
330
1F
100
AcDbEntity
  8
AM_VIS
100
AcDbCircle
 10
307.0026553786955
 20
260.4381969783473
 30
0.0
 40
2.802467679763098
100
AcDbArc
 50
350.1101932448614
 51
28.63378411755754
  0
LINE
  5
1D61
330
1F
100
AcDbEntity
  8
AM_VIS
100
AcDbLine
 10
309.975425160328
 20
247.4568623900394
 30
0.0
 11
323.475425160328
 21
247.4568623900394
 31
0.0
  0
LINE
  5
1D62
330
1F
100
AcDbEntity
  8
AM_VIS
100
AcDbLine
 10
309.975425160328
 20
265.4568623900394
 30
0.0
 11
323.475425160328
 21
265.4568623900394
 31
0.0
  0
LINE
  5
1D63
330
1F
100
AcDbEntity
  8
AM_VIS
100
AcDbLine
 10
304.975425160328
 20
263.4568623900394
 30
0.0
 11
309.975425160328
 21
265.4568623900394
 31
0.0
  0
LINE
  5
1D64
330
1F
100
AcDbEntity
  8
AM_VIS
100
AcDbLine
 10
284.475425160328
 20
234.9568623900394
 30
0.0
 11
280.975425160328
 21
234.9568623900394
 31
0.0
  0
ARC
  5
1D65
330
1F
100
AcDbEntity
  8
AM_VIS
100
AcDbCircle
 10
284.475425160328
 20
259.9568623900394
 30
0.0
 40
3.5
100
AcDbArc
 50
90.0
 51
180.0
  0
LINE
  5
1D66
102
{ACAD_REACTORS
330
1D90
102
}
330
1F
100
AcDbEntity
  8
AM_VIS
100
AcDbLine
 10
323.475425160328
 20
265.4568623900394
 30
0.0
 11
323.475425160328
 21
247.4568623900394
 31
0.0
  0
LINE
  5
1D67
330
1F
100
AcDbEntity
  8
AM_VIS
100
AcDbLine
 10
309.975425160328
 20
234.9568623900394
 30
0.0
 11
306.475425160328
 21
234.9568623900394
 31
0.0
  0
ARC
  5
1D68
330
1F
100
AcDbEntity
  8
AM_VIS
100
AcDbCircle
 10
306.475425160328
 20
259.9568623900394
 30
0.0
 40
3.5
100
AcDbArc
 50
31.41476770924168
 51
90.0
  0
LINE
  5
1D69
330
1F
100
AcDbEntity
  8
AM_VIS
100
AcDbLine
 10
309.975425160328
 20
250.8000081405471
 30
0.0
 11
309.975425160328
 21
265.4568623900394
 31
0.0
  0
LINE
  5
1D6A
330
1F
100
AcDbEntity
  8
AM_VIS
100
AcDbLine
 10
331.475425160328
 20
250.9413179334166
 30
0.0
 11
325.975425160328
 21
250.9413179334166
 31
0.0
  0
LINE
  5
1D6B
330
1F
100
AcDbEntity
  8
AM_VIS
100
AcDbLine
 10
325.975425160328
 20
253.9724068466621
 30
0.0
 11
331.475425160328
 21
253.9724068466621
 31
0.0
  0
LINE
  5
1D6C
330
1F
100
AcDbEntity
  8
AM_VIS
100
AcDbLine
 10
331.475425160328
 20
253.7893941447698
 30
0.0
 11
325.975425160328
 21
253.7893941447698
 31
0.0
  0
LINE
  5
1D6D
330
1F
100
AcDbEntity
  8
AM_VIS
100
AcDbLine
 10
331.475425160328
 20
251.6243306353088
 30
0.0
 11
325.975425160328
 21
251.6243306353088
 31
0.0
  0
LINE
  5
1D6E
330
1F
100
AcDbEntity
  8
AM_VIS
100
AcDbLine
 10
331.475425160328
 20
248.4568623900393
 30
0.0
 11
325.975425160328
 21
248.4568623900393
 31
0.0
  0
LINE
  5
1D6F
330
1F
100
AcDbEntity
  8
AM_VIS
100
AcDbLine
 10
331.475425160328
 20
264.4568623900394
 30
0.0
 11
325.975425160328
 21
264.4568623900394
 31
0.0
  0
LINE
  5
1D70
330
1F
100
AcDbEntity
  8
AM_VIS
100
AcDbLine
 10
325.975425160328
 20
256.4568623900394
 30
0.0
 11
325.975425160328
 21
253.9724068466621
 31
0.0
  0
LINE
  5
1D71
330
1F
100
AcDbEntity
  8
AM_VIS
100
AcDbLine
 10
325.975425160328
 20
253.7893941447698
 30
0.0
 11
325.975425160328
 21
253.9724068466621
 31
0.0
  0
LINE
  5
1D72
330
1F
100
AcDbEntity
  8
AM_VIS
100
AcDbLine
 10
325.975425160328
 20
251.6243306353088
 30
0.0
 11
325.975425160328
 21
253.7893941447698
 31
0.0
  0
LINE
  5
1D73
330
1F
100
AcDbEntity
  8
AM_VIS
100
AcDbLine
 10
325.975425160328
 20
250.9413179334166
 30
0.0
 11
325.975425160328
 21
251.6243306353088
 31
0.0
  0
LINE
  5
1D74
330
1F
100
AcDbEntity
  8
AM_VIS
100
AcDbLine
 10
325.975425160328
 20
250.9413179334166
 30
0.0
 11
325.975425160328
 21
248.4568623900393
 31
0.0
  0
LINE
  5
1D75
330
1F
100
AcDbEntity
  8
AM_VIS
100
AcDbLine
 10
325.975425160328
 20
264.4568623900393
 30
0.0
 11
325.975425160328
 21
261.9724068466621
 31
0.0
  0
LINE
  5
1D76
330
1F
100
AcDbEntity
  8
AM_VIS
100
AcDbLine
 10
331.475425160328
 20
256.4568623900394
 30
0.0
 11
325.975425160328
 21
256.4568623900394
 31
0.0
  0
LINE
  5
1D77
330
1F
100
AcDbEntity
  8
AM_VIS
100
AcDbLine
 10
325.975425160328
 20
258.9413179334166
 30
0.0
 11
325.975425160328
 21
256.4568623900394
 31
0.0
  0
LINE
  5
1D78
330
1F
100
AcDbEntity
  8
AM_VIS
100
AcDbLine
 10
331.475425160328
 20
264.4568623900393
 30
0.0
 11
331.475425160328
 21
261.9724068466621
 31
0.0
  0
LINE
  5
1D79
330
1F
100
AcDbEntity
  8
AM_VIS
100
AcDbLine
 10
331.475425160328
 20
250.9413179334166
 30
0.0
 11
331.475425160328
 21
248.4568623900393
 31
0.0
  0
LINE
  5
1D7A
330
1F
100
AcDbEntity
  8
AM_VIS
100
AcDbLine
 10
331.475425160328
 20
251.6243306353088
 30
0.0
 11
331.475425160328
 21
250.9413179334166
 31
0.0
  0
LINE
  5
1D7B
330
1F
100
AcDbEntity
  8
AM_VIS
100
AcDbLine
 10
331.475425160328
 20
253.7893941447698
 30
0.0
 11
331.475425160328
 21
251.6243306353088
 31
0.0
  0
LINE
  5
1D7C
330
1F
100
AcDbEntity
  8
AM_VIS
100
AcDbLine
 10
331.475425160328
 20
253.9724068466621
 30
0.0
 11
331.475425160328
 21
253.7893941447698
 31
0.0
  0
LINE
  5
1D7D
330
1F
100
AcDbEntity
  8
AM_VIS
100
AcDbLine
 10
331.475425160328
 20
256.4568623900394
 30
0.0
 11
331.475425160328
 21
253.9724068466621
 31
0.0
  0
LINE
  5
1D7E
330
1F
100
AcDbEntity
  8
AM_VIS
100
AcDbLine
 10
331.475425160328
 20
258.9413179334166
 30
0.0
 11
331.475425160328
 21
256.4568623900394
 31
0.0
  0
LINE
  5
1D7F
330
1F
100
AcDbEntity
  8
AM_VIS
100
AcDbLine
 10
331.475425160328
 20
259.1243306353088
 30
0.0
 11
331.475425160328
 21
258.9413179334166
 31
0.0
  0
LINE
  5
1D80
330
1F
100
AcDbEntity
  8
AM_VIS
100
AcDbLine
 10
331.475425160328
 20
258.9413179334166
 30
0.0
 11
325.975425160328
 21
258.9413179334166
 31
0.0
  0
LINE
  5
1D81
330
1F
100
AcDbEntity
  8
AM_VIS
100
AcDbLine
 10
325.975425160328
 20
258.9413179334166
 30
0.0
 11
325.975425160328
 21
259.1243306353088
 31
0.0
  0
LINE
  5
1D82
330
1F
100
AcDbEntity
  8
AM_VIS
100
AcDbLine
 10
325.975425160328
 20
261.9724068466621
 30
0.0
 11
331.475425160328
 21
261.9724068466621
 31
0.0
  0
LINE
  5
1D83
330
1F
100
AcDbEntity
  8
AM_VIS
100
AcDbLine
 10
331.475425160328
 20
261.9724068466621
 30
0.0
 11
331.475425160328
 21
261.2893941447699
 31
0.0
  0
LINE
  5
1D84
330
1F
100
AcDbEntity
  8
AM_VIS
100
AcDbLine
 10
325.975425160328
 20
261.2893941447699
 30
0.0
 11
325.975425160328
 21
261.9724068466621
 31
0.0
  0
LINE
  5
1D85
330
1F
100
AcDbEntity
  8
AM_VIS
100
AcDbLine
 10
331.475425160328
 20
261.2893941447699
 30
0.0
 11
325.975425160328
 21
261.2893941447699
 31
0.0
  0
LINE
  5
1D86
330
1F
100
AcDbEntity
  8
AM_VIS
100
AcDbLine
 10
331.475425160328
 20
261.2893941447699
 30
0.0
 11
331.475425160328
 21
259.1243306353088
 31
0.0
  0
LINE
  5
1D87
330
1F
100
AcDbEntity
  8
AM_VIS
100
AcDbLine
 10
331.475425160328
 20
259.1243306353088
 30
0.0
 11
325.975425160328
 21
259.1243306353088
 31
0.0
  0
LINE
  5
1D88
330
1F
100
AcDbEntity
  8
AM_VIS
100
AcDbLine
 10
325.975425160328
 20
259.1243306353088
 30
0.0
 11
325.975425160328
 21
261.2893941447699
 31
0.0
  0
LINE
  5
1D89
330
1F
100
AcDbEntity
  8
AM_VIS
100
AcDbLine
 10
325.975425160328
 20
263.2068623900393
 30
0.0
 11
324.3754251603281
 21
263.2068623900393
 31
0.0
  0
LINE
  5
1D8A
330
1F
100
AcDbEntity
  8
AM_VIS
100
AcDbLine
 10
325.975425160328
 20
249.7068623900393
 30
0.0
 11
324.3754251603281
 21
249.7068623900393
 31
0.0
  0
LINE
  5
1D8B
330
1F
100
AcDbEntity
  8
AM_VIS
100
AcDbLine
 10
324.3754251603281
 20
263.4568623900393
 30
0.0
 11
323.475425160328
 21
263.4568623900393
 31
0.0
  0
LINE
  5
1D8C
330
1F
100
AcDbEntity
  8
AM_VIS
100
AcDbLine
 10
324.3754251603281
 20
249.4568623900393
 30
0.0
 11
323.475425160328
 21
249.4568623900393
 31
0.0
  0
LINE
  5
1D8D
330
1F
100
AcDbEntity
  8
AM_VIS
100
AcDbLine
 10
324.3754251603281
 20
263.4568623900393
 30
0.0
 11
324.3754251603281
 21
249.4568623900393
 31
0.0
  0
DIMENSION
  5
1D8E
102
{ACAD_XDICTIONARY
360
1D8F
102
}
102
{ACAD_REACTORS
330
1D90
102
}
330
1F
100
AcDbEntity
  8
AM_5
100
AcDbDimension
  2
*D66
 10
343.4754251603281
 20
265.4568623900394
 30
0.0
 11
339.625425160328
 21
231.9568623900394
 31
0.0
 70
    32
 71
     5
 42
67.0
  3
AM_ISO$0
100
AcDbAlignedDimension
 13
256.4754251603238
 23
198.4568623900394
 33
0.0
 14
323.475425160328
 24
265.4568623900394
 34
0.0
 50
90.0
100
AcDbRotatedDimension
1001
ACAD
1000
DSTYLE
1002
{
1070
    40
1040
1.399999999999999
1070
   272
1070
     8
1002
}
  0
LINE
  5
1D91
330
1F
100
AcDbEntity
  8
AM_VIS
100
AcDbLine
 10
383.4315954213231
 20
198.4568623900394
 30
0.0
 11
374.7815954213231
 21
198.4568623900394
 31
0.0
  0
LINE
  5
1D92
330
1F
100
AcDbEntity
  8
AM_VIS
100
AcDbLine
 10
383.4315954213231
 20
233.4568623900394
 30
0.0
 11
383.4315954213231
 21
198.4568623900394
 31
0.0
  0
LINE
  5
1D93
330
1F
100
AcDbEntity
  8
AM_VIS
100
AcDbLine
 10
374.7815954213231
 20
198.4636805718576
 30
0.0
 11
374.7815954213231
 21
198.4568623900394
 31
0.0
  0
LINE
  5
1D94
330
1F
100
AcDbEntity
  8
AM_VIS
100
AcDbLine
 10
369.7815954213231
 20
198.4636805718576
 30
0.0
 11
374.7815954213231
 21
198.4636805718576
 31
0.0
  0
LINE
  5
1D95
330
1F
100
AcDbEntity
  8
AM_VIS
100
AcDbLine
 10
369.7815954213231
 20
198.4568623900394
 30
0.0
 11
369.7815954213231
 21
198.4636805718576
 31
0.0
  0
LINE
  5
1D96
330
1F
100
AcDbEntity
  8
AM_VIS
100
AcDbLine
 10
361.1315954213231
 20
218.4568623900394
 30
0.0
 11
361.1315954213231
 21
233.4568623900394
 31
0.0
  0
LINE
  5
1D97
330
1F
100
AcDbEntity
  8
AM_VIS
100
AcDbLine
 10
361.1315954213231
 20
198.4568623900394
 30
0.0
 11
361.1315954213231
 21
213.4568623900394
 31
0.0
  0
LINE
  5
1D98
330
1F
100
AcDbEntity
  8
AM_VIS
100
AcDbLine
 10
369.7815954213231
 20
198.4568623900394
 30
0.0
 11
361.1315954213231
 21
198.4568623900394
 31
0.0
  0
LINE
  5
1D99
330
1F
100
AcDbEntity
  8
AM_VIS
100
AcDbLine
 10
383.231595421323
 20
208.326386379394
 30
0.0
 11
383.231595421323
 21
199.7568623900394
 31
0.0
  0
ARC
  5
1D9A
330
1F
100
AcDbEntity
  8
AM_VIS
100
AcDbCircle
 10
379.2815954213231
 20
201.9568623900394
 30
0.0
 40
3.1
100
AcDbArc
 50
104.592550602032
 51
79.05118038444441
  0
ARC
  5
1D9B
330
1F
100
AcDbEntity
  8
AM_VIS
100
AcDbCircle
 10
382.2315954213231
 20
199.7568623900394
 30
0.0
 40
0.9999999999999998
100
AcDbArc
 50
270.0
 51
0.0
  0
LINE
  5
1D9C
330
1F
100
AcDbEntity
  8
AM_VIS
100
AcDbLine
 10
378.9325954213231
 20
203.5568623900394
 30
0.0
 11
379.630595421323
 21
203.5568623900394
 31
0.0
  0
LINE
  5
1D9D
330
1F
100
AcDbEntity
  8
AM_VIS
100
AcDbLine
 10
379.630595421323
 20
203.5568623900394
 30
0.0
 11
379.630595421323
 21
202.5861247365789
 31
0.0
  0
LINE
  5
1D9E
330
1F
100
AcDbEntity
  8
AM_VIS
100
AcDbLine
 10
379.630595421323
 20
200.3568623900394
 30
0.0
 11
378.9325954213231
 21
200.3568623900394
 31
0.0
  0
LINE
  5
1D9F
330
1F
100
AcDbEntity
  8
AM_VIS
100
AcDbLine
 10
378.9325954213231
 20
200.3568623900394
 30
0.0
 11
378.9325954213231
 21
201.3276000434999
 31
0.0
  0
LINE
  5
1DA0
330
1F
100
AcDbEntity
  8
AM_VIS
100
AcDbLine
 10
379.630595421323
 20
201.6078623900396
 30
0.0
 11
379.630595421323
 21
202.3058623900395
 31
0.0
  0
LINE
  5
1DA1
330
1F
100
AcDbEntity
  8
AM_VIS
100
AcDbLine
 10
380.8815954213232
 20
202.3058623900395
 30
0.0
 11
380.881595421323
 21
201.6078623900395
 31
0.0
  0
LINE
  5
1DA2
330
1F
100
AcDbEntity
  8
AM_VIS
100
AcDbLine
 10
378.9325954213231
 20
202.3058623900395
 30
0.0
 11
378.9325954213231
 21
201.6078623900396
 31
0.0
  0
LINE
  5
1DA3
330
1F
100
AcDbEntity
  8
AM_VIS
100
AcDbLine
 10
377.6815954213231
 20
201.6078623900396
 30
0.0
 11
377.6815954213231
 21
202.3058623900396
 31
0.0
  0
LINE
  5
1DA4
330
1F
100
AcDbEntity
  8
AM_VIS
100
AcDbLine
 10
380.8815954213232
 20
201.6078623900395
 30
0.0
 11
379.9108577678625
 21
201.6078623900395
 31
0.0
  0
LINE
  5
1DA5
330
1F
100
AcDbEntity
  8
AM_VIS
100
AcDbLine
 10
379.630595421323
 20
201.6078623900396
 30
0.0
 11
378.9325954213231
 21
201.6078623900396
 31
0.0
  0
LINE
  5
1DA6
330
1F
100
AcDbEntity
  8
AM_VIS
100
AcDbLine
 10
377.6815954213231
 20
202.3058623900396
 30
0.0
 11
378.6523330747836
 21
202.3058623900396
 31
0.0
  0
LINE
  5
1DA7
330
1F
100
AcDbEntity
  8
AM_VIS
100
AcDbLine
 10
378.9325954213231
 20
202.3058623900395
 30
0.0
 11
379.6305954213232
 21
202.3058623900395
 31
0.0
  0
LINE
  5
1DA8
330
1F
100
AcDbEntity
  8
AM_VIS
100
AcDbLine
 10
378.9325954213231
 20
202.586124736579
 30
0.0
 11
378.9325954213231
 21
203.5568623900394
 31
0.0
  0
LINE
  5
1DA9
330
1F
100
AcDbEntity
  8
AM_VIS
100
AcDbLine
 10
379.9108577678627
 20
202.3058623900395
 30
0.0
 11
380.8815954213232
 21
202.3058623900395
 31
0.0
  0
LINE
  5
1DAA
330
1F
100
AcDbEntity
  8
AM_VIS
100
AcDbLine
 10
378.6523330747836
 20
201.6078623900396
 30
0.0
 11
377.6815954213231
 21
201.6078623900396
 31
0.0
  0
LINE
  5
1DAB
330
1F
100
AcDbEntity
  8
AM_VIS
100
AcDbLine
 10
379.630595421323
 20
201.3276000434998
 30
0.0
 11
379.630595421323
 21
200.3568623900394
 31
0.0
  0
LINE
  5
1DAC
330
1F
100
AcDbEntity
  8
AM_VIS
100
AcDbLine
 10
378.9325954213231
 20
202.3058623900395
 30
0.0
 11
378.6523330747836
 21
202.3058623900395
 31
0.0
  0
LINE
  5
1DAD
330
1F
100
AcDbEntity
  8
AM_VIS
100
AcDbLine
 10
379.630595421323
 20
202.3058623900394
 30
0.0
 11
379.630595421323
 21
202.5861247365789
 31
0.0
  0
LINE
  5
1DAE
330
1F
100
AcDbEntity
  8
AM_VIS
100
AcDbLine
 10
378.9325954213231
 20
201.6078623900395
 30
0.0
 11
378.9325954213231
 21
201.3276000434999
 31
0.0
  0
LINE
  5
1DAF
330
1F
100
AcDbEntity
  8
AM_VIS
100
AcDbLine
 10
379.630595421323
 20
201.6078623900395
 30
0.0
 11
379.9108577678625
 21
201.6078623900395
 31
0.0
  0
LINE
  5
1DB0
330
1F
100
AcDbEntity
  8
AM_VIS
100
AcDbLine
 10
378.9325954213231
 20
202.586124736579
 30
0.0
 11
378.9325954213231
 21
202.3058623900395
 31
0.0
  0
LINE
  5
1DB1
330
1F
100
AcDbEntity
  8
AM_VIS
100
AcDbLine
 10
379.9108577678627
 20
202.3058623900395
 30
0.0
 11
379.6305954213233
 21
202.3058623900395
 31
0.0
  0
LINE
  5
1DB2
330
1F
100
AcDbEntity
  8
AM_VIS
100
AcDbLine
 10
378.6523330747836
 20
201.6078623900396
 30
0.0
 11
378.9325954213231
 21
201.6078623900396
 31
0.0
  0
LINE
  5
1DB3
330
1F
100
AcDbEntity
  8
AM_VIS
100
AcDbLine
 10
379.630595421323
 20
201.3276000434998
 30
0.0
 11
379.630595421323
 21
201.6078623900394
 31
0.0
  0
CIRCLE
  5
1DB4
330
1F
100
AcDbEntity
  8
AM_VIS
100
AcDbCircle
 10
379.2815954213231
 20
201.9568623900394
 30
0.0
 40
2.75
  0
LINE
  5
1DB5
330
1F
100
AcDbEntity
  8
AM_VIS
100
AcDbLine
 10
361.281595421323
 20
208.9568623900394
 30
0.0
 11
361.281595421323
 21
233.4568623900394
 31
0.0
  0
LINE
  5
1DB6
330
1F
100
AcDbEntity
  8
AM_VIS
100
AcDbLine
 10
383.281595421323
 20
233.4568623900394
 30
0.0
 11
383.281595421323
 21
208.9568623900394
 31
0.0
  0
LINE
  5
1DB7
330
1F
100
AcDbEntity
  8
AM_VIS
100
AcDbLine
 10
379.281595421323
 20
204.9568623900394
 30
0.0
 11
365.281595421323
 21
204.9568623900394
 31
0.0
  0
ARC
  5
1DB8
330
1F
100
AcDbEntity
  8
AM_VIS
100
AcDbCircle
 10
365.281595421323
 20
208.9568623900394
 30
0.0
 40
3.999999999999999
100
AcDbArc
 50
180.0
 51
270.0
  0
ARC
  5
1DB9
330
1F
100
AcDbEntity
  8
AM_VIS
100
AcDbCircle
 10
379.281595421323
 20
208.9568623900394
 30
0.0
 40
3.999999999999999
100
AcDbArc
 50
270.0
 51
0.0
  0
LINE
  5
1DBA
330
1F
100
AcDbEntity
  8
AM_VIS
100
AcDbLine
 10
383.4315954213231
 20
232.9568623900394
 30
0.0
 11
383.4315954213231
 21
198.9568623900393
 31
0.0
  0
LINE
  5
1DBB
330
1F
100
AcDbEntity
  8
AM_VIS
100
AcDbLine
 10
382.9315954213231
 20
198.4568623900393
 30
0.0
 11
361.631595421323
 21
198.4568623900393
 31
0.0
  0
LINE
  5
1DBC
330
1F
100
AcDbEntity
  8
AM_VIS
100
AcDbLine
 10
361.131595421323
 20
198.9568623900393
 30
0.0
 11
361.131595421323
 21
232.9568623900393
 31
0.0
  0
LINE
  5
1DBD
330
1F
100
AcDbEntity
  8
AM_7
100
AcDbLine
 10
372.2815954213231
 20
215.9568623900394
 30
0.0
 11
372.2815954213231
 21
215.9568623900394
 31
0.0
  0
LINE
  5
1DBE
330
1F
100
AcDbEntity
  8
AM_7
100
AcDbLine
 10
372.2815954213231
 20
215.9568623900394
 30
0.0
 11
372.2815954213231
 21
215.9568623900394
 31
0.0
  0
LINE
  5
1DBF
330
1F
100
AcDbEntity
  8
AM_7
100
AcDbLine
 10
359.2815954213231
 20
215.9568623900394
 30
0.0
 11
372.2815954213231
 21
215.9568623900394
 31
0.0
  0
LINE
  5
1DC0
330
1F
100
AcDbEntity
  8
AM_7
100
AcDbLine
 10
372.2815954213231
 20
215.9568623900394
 30
0.0
 11
385.2815954213231
 21
215.9568623900394
 31
0.0
  0
LINE
  5
1DC1
330
1F
100
AcDbEntity
  8
AM_7
100
AcDbLine
 10
372.2815954213231
 20
202.9568623900394
 30
0.0
 11
372.2815954213231
 21
215.9568623900394
 31
0.0
  0
LINE
  5
1DC2
330
1F
100
AcDbEntity
  8
AM_7
100
AcDbLine
 10
372.2815954213231
 20
215.9568623900394
 30
0.0
 11
372.2815954213231
 21
228.9568623900394
 31
0.0
  0
LINE
  5
1DC3
330
1F
100
AcDbEntity
  8
AM_7
100
AcDbLine
 10
372.2815954213231
 20
256.4568623900393
 30
0.0
 11
372.2815954213231
 21
256.4568623900393
 31
0.0
  0
LINE
  5
1DC4
330
1F
100
AcDbEntity
  8
AM_7
100
AcDbLine
 10
372.2815954213231
 20
256.4568623900393
 30
0.0
 11
372.2815954213231
 21
256.4568623900393
 31
0.0
  0
LINE
  5
1DC5
330
1F
100
AcDbEntity
  8
AM_7
100
AcDbLine
 10
360.2815954213231
 20
256.4568623900393
 30
0.0
 11
372.2815954213231
 21
256.4568623900393
 31
0.0
  0
LINE
  5
1DC6
330
1F
100
AcDbEntity
  8
AM_7
100
AcDbLine
 10
372.2815954213231
 20
256.4568623900393
 30
0.0
 11
384.2815954213231
 21
256.4568623900393
 31
0.0
  0
LINE
  5
1DC7
330
1F
100
AcDbEntity
  8
AM_7
100
AcDbLine
 10
372.2815954213231
 20
244.4568623900394
 30
0.0
 11
372.2815954213231
 21
256.4568623900393
 31
0.0
  0
LINE
  5
1DC8
330
1F
100
AcDbEntity
  8
AM_7
100
AcDbLine
 10
372.2815954213231
 20
256.4568623900393
 30
0.0
 11
372.2815954213231
 21
268.4568623900394
 31
0.0
  0
LINE
  5
1DC9
330
1F
100
AcDbEntity
  8
AM_VIS
100
AcDbLine
 10
361.2815954213232
 20
208.9568623900393
 30
0.0
 11
361.2815954213232
 21
233.4568623900393
 31
0.0
  0
LINE
  5
1DCA
330
1F
100
AcDbEntity
  8
AM_VIS
100
AcDbLine
 10
361.1315954213231
 20
233.4568623900394
 30
0.0
 11
383.4315954213231
 21
233.4568623900394
 31
0.0
  0
LINE
  5
1DCB
330
1F
100
AcDbEntity
  8
AM_VIS
100
AcDbLine
 10
383.2815954213232
 20
233.4568623900393
 30
0.0
 11
383.2815954213232
 21
208.9568623900393
 31
0.0
  0
LINE
  5
1DCC
330
1F
100
AcDbEntity
  8
AM_VIS
100
AcDbLine
 10
379.2815954213232
 20
204.9568623900394
 30
0.0
 11
365.2815954213232
 21
204.9568623900394
 31
0.0
  0
ARC
  5
1DCD
330
1F
100
AcDbEntity
  8
AM_VIS
100
AcDbCircle
 10
365.2815954213232
 20
208.9568623900393
 30
0.0
 40
3.999999999999999
100
AcDbArc
 50
180.0
 51
270.0
  0
ARC
  5
1DCE
330
1F
100
AcDbEntity
  8
AM_VIS
100
AcDbCircle
 10
379.2815954213232
 20
208.9568623900393
 30
0.0
 40
3.999999999999999
100
AcDbArc
 50
270.0
 51
0.0
  0
LINE
  5
1DCF
330
1F
100
AcDbEntity
  8
AM_VIS
100
AcDbLine
 10
381.4256123843053
 20
213.4000021423802
 30
0.0
 11
381.6918254408466
 21
212.5886057433041
 31
0.0
  0
LINE
  5
1DD0
330
1F
100
AcDbEntity
  8
AM_VIS
100
AcDbLine
 10
381.425612382137
 20
218.5137226384509
 30
0.0
 11
381.691825443679
 21
219.3251190358875
 31
0.0
  0
LINE
  5
1DD1
330
1F
100
AcDbEntity
  8
AM_VIS
100
AcDbLine
 10
379.0679098296966
 20
222.5973832410759
 30
0.0
 11
379.9037062548082
 21
222.4222323242005
 31
0.0
  0
LINE
  5
1DD2
330
1F
100
AcDbEntity
  8
AM_VIS
100
AcDbLine
 10
374.0697146146081
 20
225.7904889713837
 30
0.0
 11
374.6392979667629
 21
225.1542434897793
 31
0.0
  0
LINE
  5
1DD3
330
1F
100
AcDbEntity
  8
AM_VIS
100
AcDbLine
 10
374.0697146124282
 20
206.1232358107002
 30
0.0
 11
374.6392979684943
 21
206.7594812888015
 31
0.0
  0
LINE
  5
1DD4
330
1F
100
AcDbEntity
  8
AM_VIS
100
AcDbLine
 10
379.0679098292651
 20
209.3163415412516
 30
0.0
 11
379.9037062554548
 21
209.4914924529881
 31
0.0
  0
LINE
  5
1DD5
330
1F
100
AcDbEntity
  8
AM_VIS
100
AcDbLine
 10
369.9238928741521
 20
225.1542434912773
 30
0.0
 11
370.4934762302181
 21
225.7904889693786
 31
0.0
  0
LINE
  5
1DD6
330
1F
100
AcDbEntity
  8
AM_VIS
100
AcDbLine
 10
364.6594845871915
 20
222.4222323270908
 30
0.0
 11
365.4952810133814
 21
222.5973832388273
 31
0.0
  0
LINE
  5
1DD7
330
1F
100
AcDbEntity
  8
AM_VIS
100
AcDbLine
 10
364.6594845878381
 20
209.4914924558783
 30
0.0
 11
365.4952810129498
 21
209.316341539003
 31
0.0
  0
LINE
  5
1DD8
330
1F
100
AcDbEntity
  8
AM_VIS
100
AcDbLine
 10
369.9238928758835
 20
206.7594812902995
 30
0.0
 11
370.4934762280383
 21
206.1232358086952
 31
0.0
  0
LINE
  5
1DD9
330
1F
100
AcDbEntity
  8
AM_VIS
100
AcDbLine
 10
362.8713653967329
 20
219.3251190352175
 30
0.0
 11
363.1375784657787
 21
218.5137226402409
 31
0.0
  0
LINE
  5
1DDA
330
1F
100
AcDbEntity
  8
AM_VIS
100
AcDbLine
 10
362.8713653939067
 20
212.5886057457465
 30
0.0
 11
363.1375784679417
 21
213.4000021390874
 31
0.0
  0
ARC
  5
1DDB
330
1F
100
AcDbEntity
  8
AM_VIS
100
AcDbCircle
 10
372.2815954213231
 20
215.9568623900394
 30
0.0
 40
10.0
100
AcDbArc
 50
199.671289216708
 51
220.3287107832895
  0
ARC
  5
1DDC
330
1F
100
AcDbEntity
  8
AM_VIS
100
AcDbCircle
 10
372.2815954213231
 20
215.9568623900394
 30
0.0
 40
10.0
100
AcDbArc
 50
139.6712892167105
 51
160.3287107832935
  0
ARC
  5
1DDD
330
1F
100
AcDbEntity
  8
AM_VIS
100
AcDbCircle
 10
372.2815954213231
 20
215.9568623900394
 30
0.0
 40
10.0
100
AcDbArc
 50
79.67128921671049
 51
100.3287107832895
  0
ARC
  5
1DDE
330
1F
100
AcDbEntity
  8
AM_VIS
100
AcDbCircle
 10
372.2815954213231
 20
215.9568623900394
 30
0.0
 40
10.0
100
AcDbArc
 50
259.6712892167105
 51
280.3287107832895
  0
ARC
  5
1DDF
330
1F
100
AcDbEntity
  8
AM_VIS
100
AcDbCircle
 10
372.2815954213231
 20
215.9568623900394
 30
0.0
 40
10.0
100
AcDbArc
 50
19.67128921670797
 51
40.32871078329349
  0
ARC
  5
1DE0
330
1F
100
AcDbEntity
  8
AM_VIS
100
AcDbCircle
 10
372.2815954213231
 20
215.9568623900394
 30
0.0
 40
10.0
100
AcDbArc
 50
319.6712892167105
 51
340.328710783292
  0
ARC
  5
1DE1
330
1F
100
AcDbEntity
  8
AM_VIS
100
AcDbCircle
 10
372.2815954213231
 20
215.9568623900394
 30
0.0
 40
10.0
100
AcDbArc
 50
100.3287107832895
 51
139.6712892167105
  0
ARC
  5
1DE2
330
1F
100
AcDbEntity
  8
AM_VIS
100
AcDbCircle
 10
372.2815954213231
 20
215.9568623900394
 30
0.0
 40
10.0
100
AcDbArc
 50
40.32871078329349
 51
79.67128921671049
  0
ARC
  5
1DE3
330
1F
100
AcDbEntity
  8
AM_VIS
100
AcDbCircle
 10
372.2815954213231
 20
215.9568623900394
 30
0.0
 40
10.0
100
AcDbArc
 50
340.328710783292
 51
19.67128921670797
  0
ARC
  5
1DE4
330
1F
100
AcDbEntity
  8
AM_VIS
100
AcDbCircle
 10
372.2815954213231
 20
215.9568623900394
 30
0.0
 40
10.0
100
AcDbArc
 50
280.3287107832895
 51
319.6712892167105
  0
ARC
  5
1DE5
330
1F
100
AcDbEntity
  8
AM_VIS
100
AcDbCircle
 10
372.2815954213231
 20
215.9568623900394
 30
0.0
 40
10.0
100
AcDbArc
 50
220.3287107832895
 51
259.6712892167105
  0
ARC
  5
1DE6
330
1F
100
AcDbEntity
  8
AM_VIS
100
AcDbCircle
 10
372.2815954213231
 20
215.9568623900394
 30
0.0
 40
10.0
100
AcDbArc
 50
160.3287107832935
 51
199.671289216708
  0
ARC
  5
1DE7
330
1F
100
AcDbEntity
  8
AM_VIS
100
AcDbCircle
 10
372.2815954213231
 20
215.9568623900394
 30
0.0
 40
9.5
100
AcDbArc
 50
255.6009953934884
 51
284.3990046065116
  0
ARC
  5
1DE8
330
1F
100
AcDbEntity
  8
AM_VIS
100
AcDbCircle
 10
363.1315954213233
 20
200.1085975007841
 30
0.0
 40
9.5
100
AcDbArc
 50
44.39900460651006
 51
75.60099539348839
  0
ARC
  5
1DE9
330
1F
100
AcDbEntity
  8
AM_VIS
100
AcDbCircle
 10
372.2815954213231
 20
215.9568623900394
 30
0.0
 40
9.5
100
AcDbArc
 50
195.6009953934903
 51
224.3990046065141
  0
ARC
  5
1DEA
330
1F
100
AcDbEntity
  8
AM_VIS
100
AcDbCircle
 10
353.9815954213232
 20
215.9568623900392
 30
0.0
 40
9.5
100
AcDbArc
 50
344.3990046065096
 51
15.60099539349032
  0
ARC
  5
1DEB
330
1F
100
AcDbEntity
  8
AM_VIS
100
AcDbCircle
 10
372.2815954213231
 20
215.9568623900394
 30
0.0
 40
9.5
100
AcDbArc
 50
135.6009953934859
 51
164.3990046065121
  0
ARC
  5
1DEC
330
1F
100
AcDbEntity
  8
AM_VIS
100
AcDbCircle
 10
363.131595421323
 20
231.8051272792946
 30
0.0
 40
9.500000000000003
100
AcDbArc
 50
284.3990046065116
 51
315.6009953934859
  0
ARC
  5
1DED
330
1F
100
AcDbEntity
  8
AM_VIS
100
AcDbCircle
 10
372.2815954213231
 20
215.9568623900394
 30
0.0
 40
9.5
100
AcDbArc
 50
75.60099539348839
 51
104.3990046065116
  0
ARC
  5
1DEE
330
1F
100
AcDbEntity
  8
AM_VIS
100
AcDbCircle
 10
381.4315954213231
 20
231.8051272792947
 30
0.0
 40
9.5
100
AcDbArc
 50
224.3990046065141
 51
255.6009953934884
  0
ARC
  5
1DEF
330
1F
100
AcDbEntity
  8
AM_VIS
100
AcDbCircle
 10
372.2815954213231
 20
215.9568623900394
 30
0.0
 40
9.5
100
AcDbArc
 50
15.60099539348787
 51
44.39900460651409
  0
ARC
  5
1DF0
330
1F
100
AcDbEntity
  8
AM_VIS
100
AcDbCircle
 10
390.5815954213232
 20
215.9568623900394
 30
0.0
 40
9.5
100
AcDbArc
 50
164.3990046065096
 51
195.6009953934903
  0
ARC
  5
1DF1
330
1F
100
AcDbEntity
  8
AM_VIS
100
AcDbCircle
 10
372.2815954213231
 20
215.9568623900394
 30
0.0
 40
9.5
100
AcDbArc
 50
315.60099539349
 51
344.3990046065096
  0
ARC
  5
1DF2
330
1F
100
AcDbEntity
  8
AM_VIS
100
AcDbCircle
 10
381.4315954213233
 20
200.1085975007843
 30
0.0
 40
9.5
100
AcDbArc
 50
104.3990046065116
 51
135.6009953934899
  0
CIRCLE
  5
1DF3
330
1F
100
AcDbEntity
  8
AM_VIS
100
AcDbCircle
 10
372.2815954213231
 20
215.9568623900394
 30
0.0
 40
1.25
  0
LINE
  5
1DF4
330
1F
100
AcDbEntity
  8
AM_VIS
100
AcDbLine
 10
382.7815954213231
 20
233.4568623900394
 30
0.0
 11
382.7815954213231
 21
234.9568623900394
 31
0.0
  0
LINE
  5
1DF5
330
1F
100
AcDbEntity
  8
AM_VIS
100
AcDbLine
 10
379.2815954213231
 20
234.9568623900394
 30
0.0
 11
365.2815954213231
 21
234.9568623900394
 31
0.0
  0
LINE
  5
1DF6
330
1F
100
AcDbEntity
  8
AM_VIS
100
AcDbLine
 10
361.7815954213231
 20
234.9568623900394
 30
0.0
 11
361.7815954213231
 21
233.4568623900394
 31
0.0
  0
LINE
  5
1DF7
330
1F
100
AcDbEntity
  8
AM_VIS
100
AcDbLine
 10
379.2815954213231
 20
234.9568623900394
 30
0.0
 11
382.7815954213231
 21
234.9568623900394
 31
0.0
  0
LINE
  5
1DF8
330
1F
100
AcDbEntity
  8
AM_VIS
100
AcDbLine
 10
361.7815954213231
 20
234.9568623900394
 30
0.0
 11
365.2815954213231
 21
234.9568623900394
 31
0.0
  0
LINE
  5
1DF9
330
1F
100
AcDbEntity
  8
AM_VIS
100
AcDbLine
 10
365.2815954213231
 20
234.9568623900394
 30
0.0
 11
379.2815954213231
 21
234.9568623900394
 31
0.0
  0
LINE
  5
1DFA
330
1F
100
AcDbEntity
  8
AM_VIS
100
AcDbLine
 10
361.7815954213231
 20
259.9568623900394
 30
0.0
 11
361.7815954213231
 21
234.9568623900394
 31
0.0
  0
LINE
  5
1DFB
330
1F
100
AcDbEntity
  8
AM_VIS
100
AcDbLine
 10
379.2815954213231
 20
263.4568623900394
 30
0.0
 11
377.9384496708154
 21
263.4568623900394
 31
0.0
  0
LINE
  5
1DFC
330
1F
100
AcDbEntity
  8
AM_VIS
100
AcDbLine
 10
366.6247411718307
 20
263.4568623900394
 30
0.0
 11
365.2815954213231
 21
263.4568623900394
 31
0.0
  0
LINE
  5
1DFD
330
1F
100
AcDbEntity
  8
AM_VIS
100
AcDbLine
 10
382.7815954213231
 20
234.9568623900394
 30
0.0
 11
382.7815954213231
 21
259.9568623900394
 31
0.0
  0
ARC
  5
1DFE
330
1F
100
AcDbEntity
  8
AM_VIS
100
AcDbCircle
 10
365.2815954213231
 20
259.9568623900394
 30
0.0
 40
3.5
100
AcDbArc
 50
90.0
 51
180.0
  0
ARC
  5
1DFF
330
1F
100
AcDbEntity
  8
AM_VIS
100
AcDbCircle
 10
372.2815954213231
 20
256.4568623900393
 30
0.0
 40
9.0
100
AcDbArc
 50
302.7339555492633
 51
357.2660444507337
  0
ARC
  5
1E00
330
1F
100
AcDbEntity
  8
AM_VIS
100
AcDbCircle
 10
372.2815954213231
 20
256.4568623900393
 30
0.0
 40
9.0
100
AcDbArc
 50
242.7339555492681
 51
297.2660444507318
  0
ARC
  5
1E01
330
1F
100
AcDbEntity
  8
AM_VIS
100
AcDbCircle
 10
372.2815954213231
 20
256.4568623900393
 30
0.0
 40
9.0
100
AcDbArc
 50
182.7339555492696
 51
237.2660444507285
  0
ARC
  5
1E02
330
1F
100
AcDbEntity
  8
AM_VIS
100
AcDbCircle
 10
372.2815954213231
 20
256.4568623900393
 30
0.0
 40
9.0
100
AcDbArc
 50
122.7339555492714
 51
177.2660444507304
  0
ARC
  5
1E03
330
1F
100
AcDbEntity
  8
AM_VIS
100
AcDbCircle
 10
372.2815954213231
 20
256.4568623900393
 30
0.0
 40
9.0
100
AcDbArc
 50
62.73395554926814
 51
117.2660444507318
  0
ARC
  5
1E04
330
1F
100
AcDbEntity
  8
AM_VIS
100
AcDbCircle
 10
372.2815954213231
 20
256.4568623900393
 30
0.0
 40
9.0
100
AcDbArc
 50
2.733955549264717
 51
57.26604445073669
  0
LINE
  5
1E05
330
1F
100
AcDbEntity
  8
AM_VIS
100
AcDbLine
 10
365.2815954213231
 20
234.9568623900394
 30
0.0
 11
361.7815954213231
 21
234.9568623900394
 31
0.0
  0
LINE
  5
1E06
330
1F
100
AcDbEntity
  8
AM_VIS
100
AcDbLine
 10
382.7815954213231
 20
234.9568623900394
 30
0.0
 11
379.2815954213231
 21
234.9568623900394
 31
0.0
  0
ARC
  5
1E07
330
1F
100
AcDbEntity
  8
AM_VIS
100
AcDbCircle
 10
379.2815954213231
 20
259.9568623900394
 30
0.0
 40
3.5
100
AcDbArc
 50
0.0
 51
90.0
  0
LINE
  5
1E08
330
1F
100
AcDbEntity
  8
AM_VIS
100
AcDbLine
 10
367.6627932678059
 20
264.4568623900393
 30
0.0
 11
366.2283921910473
 21
261.972406846662
 31
0.0
  0
LINE
  5
1E09
330
1F
100
AcDbEntity
  8
AM_VIS
100
AcDbLine
 10
370.5315954213229
 20
264.4568623900394
 30
0.0
 11
367.6627932678059
 21
264.4568623900394
 31
0.0
  0
LINE
  5
1E0A
330
1F
100
AcDbEntity
  8
AM_VIS
100
AcDbLine
 10
371.0315954213229
 20
263.9568623900393
 30
0.0
 11
370.5315954213229
 21
264.4568623900393
 31
0.0
  0
LINE
  5
1E0B
330
1F
100
AcDbEntity
  8
AM_VIS
100
AcDbLine
 10
373.5315954213229
 20
263.9568623900393
 30
0.0
 11
371.0315954213229
 21
263.9568623900393
 31
0.0
  0
LINE
  5
1E0C
330
1F
100
AcDbEntity
  8
AM_VIS
100
AcDbLine
 10
374.0315954213229
 20
264.4568623900393
 30
0.0
 11
373.5315954213229
 21
263.9568623900393
 31
0.0
  0
LINE
  5
1E0D
330
1F
100
AcDbEntity
  8
AM_VIS
100
AcDbLine
 10
376.9003975748399
 20
264.4568623900394
 30
0.0
 11
374.0315954213229
 21
264.4568623900394
 31
0.0
  0
LINE
  5
1E0E
330
1F
100
AcDbEntity
  8
AM_VIS
100
AcDbLine
 10
378.3347986515984
 20
261.972406846662
 30
0.0
 11
376.9003975748399
 21
264.4568623900394
 31
0.0
  0
LINE
  5
1E0F
330
1F
100
AcDbEntity
  8
AM_VIS
100
AcDbLine
 10
378.1517859497062
 20
261.2893941447699
 30
0.0
 11
378.3347986515985
 21
261.972406846662
 31
0.0
  0
LINE
  5
1E10
330
1F
100
AcDbEntity
  8
AM_VIS
100
AcDbLine
 10
379.4017859497062
 20
259.1243306353088
 30
0.0
 11
378.1517859497062
 21
261.2893941447699
 31
0.0
  0
LINE
  5
1E11
330
1F
100
AcDbEntity
  8
AM_VIS
100
AcDbLine
 10
380.0847986515985
 20
258.9413179334165
 30
0.0
 11
379.4017859497062
 21
259.1243306353088
 31
0.0
  0
LINE
  5
1E12
330
1F
100
AcDbEntity
  8
AM_VIS
100
AcDbLine
 10
381.519199728357
 20
256.4568623900393
 30
0.0
 11
380.0847986515984
 21
258.9413179334165
 31
0.0
  0
LINE
  5
1E13
330
1F
100
AcDbEntity
  8
AM_VIS
100
AcDbLine
 10
380.0847986515985
 20
253.9724068466621
 30
0.0
 11
381.519199728357
 21
256.4568623900393
 31
0.0
  0
LINE
  5
1E14
330
1F
100
AcDbEntity
  8
AM_VIS
100
AcDbLine
 10
379.4017859497062
 20
253.7893941447698
 30
0.0
 11
380.0847986515985
 21
253.9724068466621
 31
0.0
  0
LINE
  5
1E15
330
1F
100
AcDbEntity
  8
AM_VIS
100
AcDbLine
 10
378.1517859497062
 20
251.6243306353088
 30
0.0
 11
379.4017859497062
 21
253.7893941447698
 31
0.0
  0
LINE
  5
1E16
330
1F
100
AcDbEntity
  8
AM_VIS
100
AcDbLine
 10
378.3347986515985
 20
250.9413179334165
 30
0.0
 11
378.1517859497062
 21
251.6243306353088
 31
0.0
  0
LINE
  5
1E17
330
1F
100
AcDbEntity
  8
AM_VIS
100
AcDbLine
 10
376.9003975748399
 20
248.4568623900393
 30
0.0
 11
378.3347986515985
 21
250.9413179334165
 31
0.0
  0
LINE
  5
1E18
330
1F
100
AcDbEntity
  8
AM_VIS
100
AcDbLine
 10
374.0315954213229
 20
248.4568623900393
 30
0.0
 11
376.90039757484
 21
248.4568623900393
 31
0.0
  0
LINE
  5
1E19
330
1F
100
AcDbEntity
  8
AM_VIS
100
AcDbLine
 10
373.5315954213229
 20
248.9568623900393
 30
0.0
 11
374.0315954213229
 21
248.4568623900393
 31
0.0
  0
LINE
  5
1E1A
330
1F
100
AcDbEntity
  8
AM_VIS
100
AcDbLine
 10
371.0315954213229
 20
248.9568623900393
 30
0.0
 11
373.5315954213229
 21
248.9568623900393
 31
0.0
  0
LINE
  5
1E1B
330
1F
100
AcDbEntity
  8
AM_VIS
100
AcDbLine
 10
370.5315954213229
 20
248.4568623900393
 30
0.0
 11
371.0315954213229
 21
248.9568623900393
 31
0.0
  0
LINE
  5
1E1C
330
1F
100
AcDbEntity
  8
AM_VIS
100
AcDbLine
 10
367.6627932678059
 20
248.4568623900393
 30
0.0
 11
370.5315954213229
 21
248.4568623900393
 31
0.0
  0
LINE
  5
1E1D
330
1F
100
AcDbEntity
  8
AM_VIS
100
AcDbLine
 10
366.2283921910474
 20
250.9413179334166
 30
0.0
 11
367.6627932678059
 21
248.4568623900393
 31
0.0
  0
LINE
  5
1E1E
330
1F
100
AcDbEntity
  8
AM_VIS
100
AcDbLine
 10
366.4114048929396
 20
251.6243306353088
 30
0.0
 11
366.2283921910474
 21
250.9413179334165
 31
0.0
  0
LINE
  5
1E1F
330
1F
100
AcDbEntity
  8
AM_VIS
100
AcDbLine
 10
365.1614048929396
 20
253.7893941447698
 30
0.0
 11
366.4114048929396
 21
251.6243306353088
 31
0.0
  0
LINE
  5
1E20
330
1F
100
AcDbEntity
  8
AM_VIS
100
AcDbLine
 10
364.4783921910474
 20
253.9724068466621
 30
0.0
 11
365.1614048929396
 21
253.7893941447698
 31
0.0
  0
LINE
  5
1E21
330
1F
100
AcDbEntity
  8
AM_VIS
100
AcDbLine
 10
363.0439911142889
 20
256.4568623900393
 30
0.0
 11
364.4783921910474
 21
253.9724068466621
 31
0.0
  0
LINE
  5
1E22
330
1F
100
AcDbEntity
  8
AM_VIS
100
AcDbLine
 10
364.4783921910473
 20
258.9413179334165
 30
0.0
 11
363.0439911142889
 21
256.4568623900393
 31
0.0
  0
LINE
  5
1E23
330
1F
100
AcDbEntity
  8
AM_VIS
100
AcDbLine
 10
365.1614048929396
 20
259.1243306353088
 30
0.0
 11
364.4783921910474
 21
258.9413179334165
 31
0.0
  0
LINE
  5
1E24
330
1F
100
AcDbEntity
  8
AM_VIS
100
AcDbLine
 10
366.2283921910474
 20
261.972406846662
 30
0.0
 11
366.4114048929396
 21
261.2893941447699
 31
0.0
  0
LINE
  5
1E25
330
1F
100
AcDbEntity
  8
AM_VIS
100
AcDbLine
 10
366.4114048929396
 20
261.2893941447699
 30
0.0
 11
365.1614048929396
 21
259.1243306353088
 31
0.0
  0
CIRCLE
  5
1E26
330
1F
100
AcDbEntity
  8
AM_VIS
100
AcDbCircle
 10
372.2815954213229
 20
256.4568623900393
 30
0.0
 40
5.0
  0
LINE
  5
1E33
330
1F
100
AcDbEntity
  8
AM_VIS
100
AcDbLine
 10
310.4754251603238
 20
167.8889644950009
 30
0.0
 11
280.4754251603238
 21
167.888964495001
 31
0.0
  0
LINE
  5
1E34
330
1F
100
AcDbEntity
  8
AM_VIS
100
AcDbLine
 10
280.4754251603238
 20
145.888964495001
 30
0.0
 11
310.4754251603238
 21
145.8889644950009
 31
0.0
  0
LINE
  5
1E35
330
1F
100
AcDbEntity
  8
AM_VIS
100
AcDbLine
 10
280.4754251603238
 20
167.8389644950009
 30
0.0
 11
280.4754251603238
 21
167.888964495001
 31
0.0
  0
LINE
  5
1E36
330
1F
100
AcDbEntity
  8
AM_VIS
100
AcDbLine
 10
280.4754251603238
 20
145.888964495001
 30
0.0
 11
280.4754251603238
 21
145.9389644950009
 31
0.0
  0
LINE
  5
1E37
330
1F
100
AcDbEntity
  8
AM_VIS
100
AcDbLine
 10
278.4754251603238
 20
145.9389644950009
 30
0.0
 11
280.4754251603238
 21
145.9389644950009
 31
0.0
  0
LINE
  5
1E38
330
1F
100
AcDbEntity
  8
AM_VIS
100
AcDbLine
 10
280.4754251603238
 20
146.9389644950009
 30
0.0
 11
280.4754251603238
 21
166.8389644950009
 31
0.0
  0
LINE
  5
1E39
330
1F
100
AcDbEntity
  8
AM_VIS
100
AcDbLine
 10
280.4754251603238
 20
167.8389644950009
 30
0.0
 11
278.4754251603238
 21
167.8389644950009
 31
0.0
  0
LINE
  5
1E3A
330
1F
100
AcDbEntity
  8
AM_VIS
100
AcDbLine
 10
280.4754251603238
 20
146.9389644950009
 30
0.0
 11
280.4754251603238
 21
145.9389644950009
 31
0.0
  0
LINE
  5
1E3B
330
1F
100
AcDbEntity
  8
AM_VIS
100
AcDbLine
 10
280.4754251603238
 20
167.8389644950009
 30
0.0
 11
280.4754251603238
 21
166.8389644950009
 31
0.0
  0
LINE
  5
1E3C
330
1F
100
AcDbEntity
  8
AM_VIS
100
AcDbLine
 10
310.4754251603238
 20
149.8889644950009
 30
0.0
 11
310.4754251603238
 21
163.8889644950009
 31
0.0
  0
LINE
  5
1E3D
330
1F
100
AcDbEntity
  8
AM_VIS
100
AcDbLine
 10
310.4754251603238
 20
167.8889644950009
 30
0.0
 11
310.4754251603238
 21
163.8889644950009
 31
0.0
  0
LINE
  5
1E3E
330
1F
100
AcDbEntity
  8
AM_VIS
100
AcDbLine
 10
310.4754251603238
 20
149.8889644950009
 30
0.0
 11
310.4754251603238
 21
145.8889644950009
 31
0.0
  0
LINE
  5
1E3F
330
1F
100
AcDbEntity
  8
AM_VIS
100
AcDbLine
 10
316.3254251603237
 20
147.472571052378
 30
0.0
 11
317.4754251603238
 21
147.472571052378
 31
0.0
  0
LINE
  5
1E40
330
1F
100
AcDbEntity
  8
AM_VIS
100
AcDbLine
 10
317.4749836511335
 20
147.4733993292086
 30
0.0
 11
317.9749299874095
 21
147.7398934456571
 31
0.0
  0
LINE
  5
1E41
330
1F
100
AcDbEntity
  8
AM_VIS
100
AcDbLine
 10
316.3254251603237
 20
155.0960123432402
 30
0.0
 11
317.4754251603238
 21
155.0960123432402
 31
0.0
  0
SPLINE
  5
1E42
330
1F
100
AcDbEntity
  8
AM_VIS
100
AcDbSpline
210
0.0
220
0.0
230
1.0
 70
     8
 71
     3
 72
     8
 73
     4
 74
     0
 42
0.0000000001
 43
0.0000000001
 40
1.630155803927002
 40
1.630155803927002
 40
1.630155803927002
 40
1.630155803927002
 40
2.566002662426968
 40
2.566002662426968
 40
2.566002662426968
 40
2.566002662426968
 10
317.4754251603236
 20
155.0960123432402
 30
0.0
 10
317.6552863935189
 20
154.9205277026502
 30
0.0
 10
317.8243860148924
 20
154.7305532556361
 30
0.0
 10
317.9754251603236
 20
154.5265704246685
 30
0.0
  0
LINE
  5
1E43
330
1F
100
AcDbEntity
  8
AM_VIS
100
AcDbLine
 10
317.4813925788214
 20
149.2619479388839
 30
0.0
 11
317.9819627611228
 21
150.0974416862013
 31
0.0
  0
LINE
  5
1E44
330
1F
100
AcDbEntity
  8
AM_VIS
100
AcDbLine
 10
317.4754251603238
 20
149.2655232041385
 30
0.0
 11
316.3254251603237
 21
149.2655232041385
 31
0.0
  0
LINE
  5
1E45
330
1F
100
AcDbEntity
  8
AM_VIS
100
AcDbLine
 10
316.3254251603237
 20
164.5124057858633
 30
0.0
 11
317.4754251603238
 21
164.5124057858633
 31
0.0
  0
LINE
  5
1E46
330
1F
100
AcDbEntity
  8
AM_VIS
100
AcDbLine
 10
317.4813925819198
 20
164.5159810529254
 30
0.0
 11
317.9819627591987
 21
163.6804873025943
 31
0.0
  0
SPLINE
  5
1E47
330
1F
100
AcDbEntity
  8
AM_VIS
100
AcDbSpline
210
0.0
220
0.0
230
1.0
 70
     8
 71
     3
 72
     8
 73
     4
 74
     0
 42
0.0000000001
 43
0.0000000001
 40
7.860869802063004
 40
7.860869802063004
 40
7.860869802063004
 40
7.860869802063004
 40
8.796716660561713
 40
8.796716660561713
 40
8.796716660561713
 40
8.796716660561713
 10
317.9754251603236
 20
159.2513585653333
 30
0.0
 10
317.8243861242894
 20
159.0473758821095
 30
0.0
 10
317.6552865085451
 20
158.8574013995787
 30
0.0
 10
317.4754251603236
 20
158.6819166467615
 30
0.0
  0
LINE
  5
1E48
330
1F
100
AcDbEntity
  8
AM_VIS
100
AcDbLine
 10
317.4754251603238
 20
158.6819166467615
 30
0.0
 11
316.3254251603237
 21
158.6819166467615
 31
0.0
  0
LINE
  5
1E49
330
1F
100
AcDbEntity
  8
AM_VIS
100
AcDbLine
 10
317.4749836516942
 20
166.3045296618562
 30
0.0
 11
317.9749299865541
 21
166.0380355427522
 31
0.0
  0
LINE
  5
1E4A
330
1F
100
AcDbEntity
  8
AM_VIS
100
AcDbLine
 10
317.4754251603238
 20
166.3053579376239
 30
0.0
 11
316.3254251603237
 21
166.3053579376239
 31
0.0
  0
LINE
  5
1E4B
330
1F
100
AcDbEntity
  8
AM_VIS
100
AcDbLine
 10
314.8254251603237
 20
166.3053579376239
 30
0.0
 11
311.9754251603238
 21
166.3053579376239
 31
0.0
  0
LINE
  5
1E4C
330
1F
100
AcDbEntity
  8
AM_VIS
100
AcDbLine
 10
311.9754251603238
 20
147.472571052378
 30
0.0
 11
314.8254251603237
 21
147.472571052378
 31
0.0
  0
LINE
  5
1E4D
330
1F
100
AcDbEntity
  8
AM_VIS
100
AcDbLine
 10
311.9754251603238
 20
155.0960123432402
 30
0.0
 11
314.8254251603237
 21
155.0960123432402
 31
0.0
  0
LINE
  5
1E4E
330
1F
100
AcDbEntity
  8
AM_VIS
100
AcDbLine
 10
314.8254251603237
 20
149.2655232041385
 30
0.0
 11
311.9754251603238
 21
149.2655232041385
 31
0.0
  0
LINE
  5
1E4F
330
1F
100
AcDbEntity
  8
AM_VIS
100
AcDbLine
 10
311.9754251603238
 20
164.5124057858633
 30
0.0
 11
314.8254251603237
 21
164.5124057858633
 31
0.0
  0
LINE
  5
1E50
330
1F
100
AcDbEntity
  8
AM_VIS
100
AcDbLine
 10
314.8254251603237
 20
158.6819166467615
 30
0.0
 11
311.9754251603238
 21
158.6819166467615
 31
0.0
  0
LINE
  5
1E51
330
1F
100
AcDbEntity
  8
AM_VIS
100
AcDbLine
 10
311.9279656097794
 20
158.6819554042546
 30
0.0
 11
311.932727032706
 21
164.5124406549753
 31
0.0
  0
LINE
  5
1E52
330
1F
100
AcDbEntity
  8
AM_VIS
100
AcDbLine
 10
311.9279656097794
 20
155.0959735857472
 30
0.0
 11
311.932727032706
 21
149.2654883350265
 31
0.0
  0
LINE
  5
1E53
330
1F
100
AcDbEntity
  8
AM_VIS
100
AcDbLine
 10
311.8801047875943
 20
148.0890703630506
 30
0.0
 11
311.97612224672
 21
147.4726796401002
 31
0.0
  0
LINE
  5
1E54
330
1F
100
AcDbEntity
  8
AM_VIS
100
AcDbLine
 10
311.8801047875943
 20
165.6888586269513
 30
0.0
 11
311.97612224672
 21
166.3052493499018
 31
0.0
  0
CIRCLE
  5
1E55
330
1F
100
AcDbEntity
  8
AM_VIS
100
AcDbCircle
 10
315.5754251603237
 20
158.888964495001
 30
0.0
 40
0.4999999999999999
  0
CIRCLE
  5
1E56
330
1F
100
AcDbEntity
  8
AM_VIS
100
AcDbCircle
 10
315.5754251603237
 20
154.888964495001
 30
0.0
 40
0.4999999999999995
  0
SPLINE
  5
1E57
330
1F
100
AcDbEntity
  8
AM_VIS
100
AcDbSpline
210
0.0
220
0.0
230
1.0
 70
    11
 71
     3
 72
    60
 73
    56
 74
     0
 42
0.0000000001
 43
0.0000000001
 40
-3.310750712816652
 40
-3.310750712816652
 40
-3.310750712816652
 40
-3.310750712816652
 40
-3.302671059125519
 40
-3.302671059125519
 40
-3.271516879648076
 40
-3.271516879648076
 40
-3.222342999562159
 40
-3.222342999562159
 40
-3.075760487521823
 40
-3.075760487521823
 40
-2.908994890068949
 40
-2.908994890068949
 40
-2.706317539053631
 40
-2.706317539053631
 40
-2.531583211411222
 40
-2.531583211411222
 40
-2.354322289708455
 40
-2.354322289708455
 40
-2.162856293862051
 40
-2.162856293862051
 40
-1.995635058289954
 40
-1.995635058289954
 40
-1.870614094148073
 40
-1.870614094148073
 40
-1.77765316190416
 40
-1.77765316190416
 40
-1.737876373527406
 40
-1.737876373527406
 40
-1.708569587915623
 40
-1.708569587915623
 40
-1.67759753243844
 40
-1.67759753243844
 40
-1.629510029901636
 40
-1.629510029901636
 40
-1.49514387547256
 40
-1.49514387547256
 40
-1.274685715457794
 40
-1.274685715457794
 40
-1.0731360304824
 40
-1.0731360304824
 40
-0.9227343317460663
 40
-0.9227343317460663
 40
-0.7786617880805702
 40
-0.7786617880805702
 40
-0.6125360661046729
 40
-0.6125360661046729
 40
-0.3879513966054244
 40
-0.3879513966054244
 40
-0.2081380036627772
 40
-0.2081380036627772
 40
-0.0765520961402888
 40
-0.0765520961402888
 40
-0.030511565745947
 40
-0.030511565745947
 40
0.0
 40
0.0
 40
0.0
 40
0.0
 10
316.0754251603238
 20
150.5704391861372
 30
0.0
 10
316.0754251603238
 20
150.5699165139973
 30
0.0
 10
316.0754042207385
 20
150.5694139285765
 30
0.0
 10
316.0751999764883
 20
150.5670717541702
 30
0.0
 10
316.0747243431841
 20
150.5655171305673
 30
0.0
 10
316.0726681394379
 20
150.5623040980252
 30
0.0
 10
316.0706171170999
 20
150.5611203787882
 30
0.0
 10
316.0592413370463
 20
150.5593859909638
 30
0.0
 10
316.0438571724018
 20
150.5648329946201
 30
0.0
 10
315.998002956237
 20
150.5844509686721
 30
0.0
 10
315.9660120359557
 20
150.5994448892016
 30
0.0
 10
315.8818373044841
 20
150.6327869757506
 30
0.0
 10
315.8265720331084
 20
150.6511882050023
 30
0.0
 10
315.7117539990012
 20
150.6754613868319
 30
0.0
 10
315.6549236521047
 20
150.6825299302103
 30
0.0
 10
315.5371354972122
 20
150.6852580273347
 30
0.0
 10
315.4784686183287
 20
150.6806916526731
 30
0.0
 10
315.3623701123139
 20
150.6609873926924
 30
0.0
 10
315.307186750075
 20
150.6453127673717
 30
0.0
 10
315.2176304209321
 20
150.6133708380582
 30
0.0
 10
315.1815860744706
 20
150.5974743018285
 30
0.0
 10
315.1310544169977
 20
150.5750506960528
 30
0.0
 10
315.1134123882576
 20
150.567215557959
 30
0.0
 10
315.0908436515164
 20
150.5603356337507
 30
0.0
 10
315.0839459593127
 20
150.559609967182
 30
0.0
 10
315.0780931790463
 20
150.5625459852928
 30
0.0
 10
315.0768675088479
 20
150.5639254435732
 30
0.0
 10
315.0756351879075
 20
150.5672031235882
 30
0.0
 10
315.0753946148221
 20
150.5688641023081
 30
0.0
 10
315.0754637985536
 20
150.572825441772
 30
0.0
 10
315.0758054996994
 20
150.5751509541735
 30
0.0
 10
315.0774286433699
 20
150.5817899451392
 30
0.0
 10
315.0791204879807
 20
150.5864754114641
 30
0.0
 10
315.0880123008145
 20
150.6063798912921
 30
0.0
 10
315.0996009459351
 20
150.6253385635446
 30
0.0
 10
315.1403733492756
 20
150.6801565308951
 30
0.0
 10
315.1768090268134
 20
150.7199287691051
 30
0.0
 10
315.2632867607714
 20
150.7902883033189
 30
0.0
 10
315.3130749050239
 20
150.8224109524384
 30
0.0
 10
315.4130568208444
 20
150.864642989309
 30
0.0
 10
315.4595194024409
 20
150.8780761275068
 30
0.0
 10
315.5560375793831
 20
150.8908100477914
 30
0.0
 10
315.6036840959938
 20
150.8903778421811
 30
0.0
 10
315.7048657319152
 20
150.8752783539255
 30
0.0
 10
315.755351388049
 20
150.8588874517121
 30
0.0
 10
315.8627222308861
 20
150.8085058982884
 30
0.0
 10
315.9151676282332
 20
150.7705772567891
 30
0.0
 10
315.9904094824673
 20
150.7019917354264
 30
0.0
 10
316.0179833176472
 20
150.6704976105688
 30
0.0
 10
316.0528835958779
 20
150.6227788718041
 30
0.0
 10
316.0638765255929
 20
150.6044668570582
 30
0.0
 10
316.0721238338298
 20
150.5854214650039
 30
0.0
 10
316.0736574714293
 20
150.5810096184454
 30
0.0
 10
316.0751267403181
 20
150.5746700468826
 30
0.0
 10
316.0754251603238
 20
150.5724129768433
 30
0.0
 10
316.0754251603238
 20
150.5704391861372
 30
0.0
  0
SPLINE
  5
1E58
330
1F
100
AcDbEntity
  8
AM_VIS
100
AcDbSpline
210
0.0
220
0.0
230
1.0
 70
    11
 71
     3
 72
    60
 73
    56
 74
     0
 42
0.0000000001
 43
0.0000000001
 40
-3.339179833650605
 40
-3.339179833650605
 40
-3.339179833650605
 40
-3.339179833650605
 40
-3.338178510341669
 40
-3.338178510341669
 40
-3.307426441093102
 40
-3.307426441093102
 40
-3.260257442848685
 40
-3.260257442848685
 40
-3.131698032149079
 40
-3.131698032149079
 40
-2.911444231468901
 40
-2.911444231468901
 40
-2.707105941030766
 40
-2.707105941030766
 40
-2.555612058899387
 40
-2.555612058899387
 40
-2.411713356363649
 40
-2.411713356363649
 40
-2.246665153548941
 40
-2.246665153548941
 40
-2.021546194443616
 40
-2.021546194443616
 40
-1.783002476135987
 40
-1.783002476135987
 40
-1.683076290570759
 40
-1.683076290570759
 40
-1.640889765310639
 40
-1.640889765310639
 40
-1.610262995428023
 40
-1.610262995428023
 40
-1.578336361562037
 40
-1.578336361562037
 40
-1.529528057337407
 40
-1.529528057337407
 40
-1.393989385708153
 40
-1.393989385708153
 40
-1.223638687617107
 40
-1.223638687617107
 40
-1.012165485955926
 40
-1.012165485955926
 40
-0.8368093096661988
 40
-0.8368093096661988
 40
-0.6617329501248318
 40
-0.6617329501248318
 40
-0.471355778622239
 40
-0.471355778622239
 40
-0.3001652834568147
 40
-0.3001652834568147
 40
-0.1716500352069761
 40
-0.1716500352069761
 40
-0.0705730179427
 40
-0.0705730179427
 40
-0.0295050875768574
 40
-0.0295050875768574
 40
0.0
 40
0.0
 40
0.0
 40
0.0
 10
316.0754251603238
 20
163.2074898038646
 30
0.0
 10
316.0754251603238
 20
163.2074250283413
 30
0.0
 10
316.0754248386955
 20
163.2073599452644
 30
0.0
 10
316.0754044515339
 20
163.2052863260178
 30
0.0
 10
316.0750819426458
 20
163.202991497077
 30
0.0
 10
316.073528284932
 20
163.1964877271374
 30
0.0
 10
316.0719081211079
 20
163.1919262135648
 30
0.0
 10
316.0635289992234
 20
163.1729109461041
 30
0.0
 10
316.0527705506437
 20
163.1550401389739
 30
0.0
 10
316.0138851091864
 20
163.1017528231337
 30
0.0
 10
315.978164733886
 20
163.0621105310939
 30
0.0
 10
315.8925566934196
 20
162.9910780941574
 30
0.0
 10
315.8426424727855
 20
162.9581893150469
 30
0.0
 10
315.7423901676024
 20
162.9148120543511
 30
0.0
 10
315.695868192428
 20
162.9009034912828
 30
0.0
 10
315.5994349461447
 20
162.887336751522
 30
0.0
 10
315.5519295814632
 20
162.8873141271505
 30
0.0
 10
315.4510968667597
 20
162.9013936608037
 30
0.0
 10
315.4007813664906
 20
162.9171542076128
 30
0.0
 10
315.2928872685103
 20
162.966460110106
 30
0.0
 10
315.2399079423479
 20
163.004102017253
 30
0.0
 10
315.1527106378045
 20
163.0823976900941
 30
0.0
 10
315.1187002266525
 20
163.124078957699
 30
0.0
 10
315.0894271896224
 20
163.1697929943169
 30
0.0
 10
315.0830011015358
 20
163.1818290006152
 30
0.0
 10
315.0776499552081
 20
163.1956165989002
 30
0.0
 10
315.0765418722307
 20
163.1992806296562
 30
0.0
 10
315.0755097015609
 20
163.2047852929449
 30
0.0
 10
315.0753456357642
 20
163.2068444017161
 30
0.0
 10
315.0755810536395
 20
163.2105055426764
 30
0.0
 10
315.0760043592546
 20
163.2120788953292
 30
0.0
 10
315.0778610802032
 20
163.2153024141594
 30
0.0
 10
315.0797025868479
 20
163.2165403385512
 30
0.0
 10
315.0894223102931
 20
163.218635657318
 30
0.0
 10
315.1019919386746
 20
163.2148242628265
 30
0.0
 10
315.1415068383079
 20
163.1986726374859
 30
0.0
 10
315.1710095553325
 20
163.1846638117464
 30
0.0
 10
315.2504194894083
 20
163.1519348699469
 30
0.0
 10
315.3049483530468
 20
163.1322808462761
 30
0.0
 10
315.4208996867029
 20
163.105433046732
 30
0.0
 10
315.477583664676
 20
163.0971727580309
 30
0.0
 10
315.5950223020765
 20
163.092115958191
 30
0.0
 10
315.6535149234686
 20
163.0954014056732
 30
0.0
 10
315.7706949501402
 20
163.1128420589772
 30
0.0
 10
315.8269846866666
 20
163.1276460571981
 30
0.0
 10
315.9205215665953
 20
163.159397397383
 30
0.0
 10
315.9589117733518
 20
163.1758974001408
 30
0.0
 10
316.0132230382663
 20
163.199939224849
 30
0.0
 10
316.0323917811319
 20
163.2086565044585
 30
0.0
 10
316.0578415564659
 20
163.2172293364872
 30
0.0
 10
316.0658499303112
 20
163.2184997551354
 30
0.0
 10
316.0724500305486
 20
163.2156551158007
 30
0.0
 10
316.0737910408542
 20
163.2143000162169
 30
0.0
 10
316.0751461121027
 20
163.2110375904794
 30
0.0
 10
316.0754251603238
 20
163.2093984855797
 30
0.0
 10
316.0754251603238
 20
163.2074898038646
 30
0.0
  0
CIRCLE
  5
1E59
330
1F
100
AcDbEntity
  8
AM_VIS
100
AcDbCircle
 10
315.5754251603237
 20
156.888964495001
 30
0.0
 40
0.5000000000000016
  0
LINE
  5
1E5A
330
1F
100
AcDbEntity
  8
AM_VIS
100
AcDbLine
 10
311.7754251603237
 20
149.388964495001
 30
0.0
 11
311.8794251603238
 21
148.0889644950009
 31
0.0
  0
LINE
  5
1E5B
330
1F
100
AcDbEntity
  8
AM_VIS
100
AcDbLine
 10
311.7754251603237
 20
164.388964495001
 30
0.0
 11
311.8794251603238
 21
165.6889644950009
 31
0.0
  0
LINE
  5
1E5C
330
1F
100
AcDbEntity
  8
AM_VIS
100
AcDbLine
 10
310.9754251603238
 20
164.388964495001
 30
0.0
 11
310.4754251603238
 21
166.888964495001
 31
0.0
  0
LINE
  5
1E5D
330
1F
100
AcDbEntity
  8
AM_VIS
100
AcDbLine
 10
310.9754251603238
 20
149.388964495001
 30
0.0
 11
310.4754251603238
 21
146.888964495001
 31
0.0
  0
LINE
  5
1E5E
330
1F
100
AcDbEntity
  8
AM_VIS
100
AcDbLine
 10
310.9754251603238
 20
149.388964495001
 30
0.0
 11
311.7754251603237
 21
149.388964495001
 31
0.0
  0
LINE
  5
1E5F
330
1F
100
AcDbEntity
  8
AM_VIS
100
AcDbLine
 10
310.9754251603238
 20
164.388964495001
 30
0.0
 11
311.7754251603237
 21
164.388964495001
 31
0.0
  0
LINE
  5
1E60
330
1F
100
AcDbEntity
  8
AM_VIS
100
AcDbLine
 10
317.4754251603238
 20
164.5124057858633
 30
0.0
 11
317.4754251603238
 21
166.3053579376239
 31
0.0
  0
LINE
  5
1E61
330
1F
100
AcDbEntity
  8
AM_VIS
100
AcDbLine
 10
317.4754251603238
 20
155.0960123432402
 30
0.0
 11
317.4754251603238
 21
158.6819166467615
 31
0.0
  0
LINE
  5
1E62
330
1F
100
AcDbEntity
  8
AM_VIS
100
AcDbLine
 10
317.4754251603238
 20
147.472571052378
 30
0.0
 11
317.4754251603238
 21
149.2655232041385
 31
0.0
  0
LINE
  5
1E63
330
1F
100
AcDbEntity
  8
AM_VIS
100
AcDbLine
 10
316.3254251603237
 20
164.5124057858633
 30
0.0
 11
316.3254251603237
 21
166.3053579376239
 31
0.0
  0
LINE
  5
1E64
330
1F
100
AcDbEntity
  8
AM_VIS
100
AcDbLine
 10
316.3254251603237
 20
164.5124057858633
 30
0.0
 11
316.3254251603237
 21
158.6819166467615
 31
0.0
  0
LINE
  5
1E65
330
1F
100
AcDbEntity
  8
AM_VIS
100
AcDbLine
 10
316.3254251603237
 20
155.0960123432402
 30
0.0
 11
316.3254251603237
 21
158.6819166467615
 31
0.0
  0
LINE
  5
1E66
330
1F
100
AcDbEntity
  8
AM_VIS
100
AcDbLine
 10
316.3254251603237
 20
155.0960123432402
 30
0.0
 11
316.3254251603237
 21
149.2655232041384
 31
0.0
  0
LINE
  5
1E67
330
1F
100
AcDbEntity
  8
AM_VIS
100
AcDbLine
 10
316.3254251603237
 20
147.472571052378
 30
0.0
 11
316.3254251603237
 21
149.2655232041385
 31
0.0
  0
LINE
  5
1E68
330
1F
100
AcDbEntity
  8
AM_VIS
100
AcDbLine
 10
314.8254251603237
 20
166.3053579376239
 30
0.0
 11
314.8254251603237
 21
164.5124057858633
 31
0.0
  0
LINE
  5
1E69
330
1F
100
AcDbEntity
  8
AM_VIS
100
AcDbLine
 10
314.8254251603237
 20
149.2655232041385
 30
0.0
 11
314.8254251603237
 21
147.472571052378
 31
0.0
  0
LINE
  5
1E6A
330
1F
100
AcDbEntity
  8
AM_VIS
100
AcDbLine
 10
314.8254251603237
 20
158.6819166467615
 30
0.0
 11
314.8254251603237
 21
155.0960123432402
 31
0.0
  0
LINE
  5
1E6B
330
1F
100
AcDbEntity
  8
AM_VIS
100
AcDbLine
 10
314.8254251603237
 20
149.2655232041385
 30
0.0
 11
314.8254251603237
 21
155.0960123432403
 31
0.0
  0
LINE
  5
1E6C
330
1F
100
AcDbEntity
  8
AM_VIS
100
AcDbLine
 10
314.8254251603237
 20
158.6819166467616
 30
0.0
 11
314.8254251603237
 21
164.5124057858634
 31
0.0
  0
LINE
  5
1E6D
330
1F
100
AcDbEntity
  8
AM_VIS
100
AcDbLine
 10
311.9754251603238
 20
164.5124057858633
 30
0.0
 11
311.9754251603238
 21
166.3053579376239
 31
0.0
  0
LINE
  5
1E6E
330
1F
100
AcDbEntity
  8
AM_VIS
100
AcDbLine
 10
311.9754251603238
 20
155.0960123432402
 30
0.0
 11
311.9754251603238
 21
158.6819166467615
 31
0.0
  0
LINE
  5
1E6F
330
1F
100
AcDbEntity
  8
AM_VIS
100
AcDbLine
 10
311.9754251603238
 20
147.472571052378
 30
0.0
 11
311.9754251603238
 21
149.2655232041385
 31
0.0
  0
LINE
  5
1E70
330
1F
100
AcDbEntity
  8
AM_VIS
100
AcDbLine
 10
311.7754251603237
 20
149.388964495001
 30
0.0
 11
311.7754251603237
 21
164.388964495001
 31
0.0
  0
LINE
  5
1E71
330
1F
100
AcDbEntity
  8
AM_VIS
100
AcDbLine
 10
310.9754251603238
 20
149.388964495001
 30
0.0
 11
310.9754251603238
 21
164.388964495001
 31
0.0
  0
LINE
  5
1E72
330
1F
100
AcDbEntity
  8
AM_VIS
100
AcDbLine
 10
317.9754251603238
 20
159.2513585653333
 30
0.0
 11
317.9754251603238
 21
154.5265704246685
 31
0.0
  0
LINE
  5
1E73
330
1F
100
AcDbEntity
  8
AM_VIS
100
AcDbLine
 10
317.9754251603238
 20
163.6765704246685
 30
0.0
 11
317.9754251603238
 21
159.2513585653332
 31
0.0
  0
LINE
  5
1E74
330
1F
100
AcDbEntity
  8
AM_VIS
100
AcDbLine
 10
317.9754251603238
 20
166.038964495001
 30
0.0
 11
317.9754251603238
 21
163.6765704246685
 31
0.0
  0
LINE
  5
1E75
330
1F
100
AcDbEntity
  8
AM_VIS
100
AcDbLine
 10
317.9754251603238
 20
150.1013585653332
 30
0.0
 11
317.9754251603238
 21
147.7389644950009
 31
0.0
  0
LINE
  5
1E76
330
1F
100
AcDbEntity
  8
AM_VIS
100
AcDbLine
 10
317.9754251603238
 20
154.5265704246685
 30
0.0
 11
317.9754251603238
 21
150.1013585653331
 31
0.0
  0
ARC
  5
1E77
330
1F
100
AcDbEntity
  8
AM_VIS
100
AcDbCircle
 10
315.5754251603237
 20
163.888964495001
 30
0.0
 40
0.75
100
AcDbArc
 50
180.0
 51
0.0
  0
ARC
  5
1E78
330
1F
100
AcDbEntity
  8
AM_VIS
100
AcDbCircle
 10
315.5754251603237
 20
149.888964495001
 30
0.0
 40
0.75
100
AcDbArc
 50
0.0
 51
180.0
  0
LINE
  5
1E79
330
1F
100
AcDbEntity
  8
AM_VIS
100
AcDbLine
 10
310.6754251603238
 20
147.888964495001
 30
0.0
 11
311.9119467146586
 21
147.888964495001
 31
0.0
  0
LINE
  5
1E7A
330
1F
100
AcDbEntity
  8
AM_VIS
100
AcDbLine
 10
314.8254251603237
 20
147.888964495001
 30
0.0
 11
316.3254251603237
 21
147.888964495001
 31
0.0
  0
LINE
  5
1E7B
330
1F
100
AcDbEntity
  8
AM_VIS
100
AcDbLine
 10
317.9754251603238
 20
147.888964495001
 30
0.0
 11
323.4754251603235
 21
147.888964495001
 31
0.0
  0
LINE
  5
1E7C
330
1F
100
AcDbEntity
  8
AM_VIS
100
AcDbLine
 10
310.6754251603236
 20
165.888964495001
 30
0.0
 11
311.9119467146586
 21
165.888964495001
 31
0.0
  0
LINE
  5
1E7D
330
1F
100
AcDbEntity
  8
AM_VIS
100
AcDbLine
 10
314.8254251603237
 20
165.888964495001
 30
0.0
 11
316.3254251603237
 21
165.888964495001
 31
0.0
  0
LINE
  5
1E7E
330
1F
100
AcDbEntity
  8
AM_VIS
100
AcDbLine
 10
317.9754251603238
 20
165.888964495001
 30
0.0
 11
323.4754251603235
 21
165.888964495001
 31
0.0
  0
LINE
  5
1E7F
330
1F
100
AcDbEntity
  8
AM_VIS
100
AcDbLine
 10
323.4754251603235
 20
165.888964495001
 30
0.0
 11
323.4754251603235
 21
147.888964495001
 31
0.0
  0
LINE
  5
1E80
330
1F
100
AcDbEntity
  8
AM_VIS
100
AcDbLine
 10
331.4754251603238
 20
162.9421677252767
 30
0.0
 11
325.9754251603238
 21
162.9421677252767
 31
0.0
  0
LINE
  5
1E81
330
1F
100
AcDbEntity
  8
AM_VIS
100
AcDbLine
 10
325.9754251603238
 20
164.6921677252767
 30
0.0
 11
331.4754251603238
 21
164.6921677252767
 31
0.0
  0
LINE
  5
1E82
330
1F
100
AcDbEntity
  8
AM_VIS
100
AcDbLine
 10
331.4754251603238
 20
164.0091550233845
 30
0.0
 11
325.9754251603238
 21
164.0091550233845
 31
0.0
  0
LINE
  5
1E83
330
1F
100
AcDbEntity
  8
AM_VIS
100
AcDbLine
 10
331.4754251603238
 20
161.5077666485182
 30
0.0
 11
325.9754251603238
 21
161.5077666485182
 31
0.0
  0
LINE
  5
1E84
330
1F
100
AcDbEntity
  8
AM_VIS
100
AcDbLine
 10
331.4754251603238
 20
152.2701623414842
 30
0.0
 11
325.9754251603238
 21
152.2701623414842
 31
0.0
  0
LINE
  5
1E85
330
1F
100
AcDbEntity
  8
AM_VIS
100
AcDbLine
 10
331.4754251603238
 20
155.6389644950012
 30
0.0
 11
325.9754251603238
 21
155.6389644950012
 31
0.0
  0
LINE
  5
1E86
330
1F
100
AcDbEntity
  8
AM_VIS
100
AcDbLine
 10
331.4754251603238
 20
155.1389644950012
 30
0.0
 11
325.9754251603238
 21
155.1389644950012
 31
0.0
  0
LINE
  5
1E87
330
1F
100
AcDbEntity
  8
AM_VIS
100
AcDbLine
 10
325.9754251603238
 20
158.6389644950012
 30
0.0
 11
331.4754251603238
 21
158.6389644950012
 31
0.0
  0
LINE
  5
1E88
330
1F
100
AcDbEntity
  8
AM_VIS
100
AcDbLine
 10
331.4754251603238
 20
158.1389644950012
 30
0.0
 11
325.9754251603238
 21
158.1389644950012
 31
0.0
  0
LINE
  5
1E89
330
1F
100
AcDbEntity
  8
AM_VIS
100
AcDbLine
 10
331.4754251603238
 20
147.6513601879671
 30
0.0
 11
325.9754251603238
 21
147.6513601879672
 31
0.0
  0
LINE
  5
1E8A
330
1F
100
AcDbEntity
  8
AM_VIS
100
AcDbLine
 10
331.4754251603238
 20
149.0857612647256
 30
0.0
 11
325.9754251603238
 21
149.0857612647257
 31
0.0
  0
LINE
  5
1E8B
330
1F
100
AcDbEntity
  8
AM_VIS
100
AcDbLine
 10
325.9754251603238
 20
150.8357612647257
 30
0.0
 11
331.4754251603238
 21
150.8357612647256
 31
0.0
  0
LINE
  5
1E8C
330
1F
100
AcDbEntity
  8
AM_VIS
100
AcDbLine
 10
331.4754251603238
 20
149.7687739666179
 30
0.0
 11
325.9754251603238
 21
149.7687739666179
 31
0.0
  0
LINE
  5
1E8D
330
1F
100
AcDbEntity
  8
AM_VIS
100
AcDbLine
 10
325.9754251603238
 20
166.1265688020352
 30
0.0
 11
325.9754251603238
 21
164.6921677252767
 31
0.0
  0
LINE
  5
1E8E
330
1F
100
AcDbEntity
  8
AM_VIS
100
AcDbLine
 10
325.9754251603238
 20
164.0091550233845
 30
0.0
 11
325.9754251603238
 21
164.6921677252767
 31
0.0
  0
LINE
  5
1E8F
330
1F
100
AcDbEntity
  8
AM_VIS
100
AcDbLine
 10
325.9754251603238
 20
162.9421677252767
 30
0.0
 11
325.9754251603238
 21
164.0091550233845
 31
0.0
  0
LINE
  5
1E90
330
1F
100
AcDbEntity
  8
AM_VIS
100
AcDbLine
 10
325.9754251603238
 20
162.9421677252767
 30
0.0
 11
325.9754251603238
 21
161.5077666485182
 31
0.0
  0
LINE
  5
1E91
330
1F
100
AcDbEntity
  8
AM_VIS
100
AcDbLine
 10
325.9754251603238
 20
161.5077666485182
 30
0.0
 11
325.9754251603238
 21
158.6389644950012
 31
0.0
  0
LINE
  5
1E92
330
1F
100
AcDbEntity
  8
AM_VIS
100
AcDbLine
 10
325.9754251603238
 20
158.1389644950012
 30
0.0
 11
325.9754251603238
 21
158.6389644950012
 31
0.0
  0
LINE
  5
1E93
330
1F
100
AcDbEntity
  8
AM_VIS
100
AcDbLine
 10
325.9754251603238
 20
155.6389644950012
 30
0.0
 11
325.9754251603238
 21
158.1389644950012
 31
0.0
  0
LINE
  5
1E94
330
1F
100
AcDbEntity
  8
AM_VIS
100
AcDbLine
 10
325.9754251603238
 20
155.1389644950012
 30
0.0
 11
325.9754251603238
 21
155.6389644950012
 31
0.0
  0
LINE
  5
1E95
330
1F
100
AcDbEntity
  8
AM_VIS
100
AcDbLine
 10
325.9754251603238
 20
155.1389644950012
 30
0.0
 11
325.9754251603238
 21
152.2701623414842
 31
0.0
  0
LINE
  5
1E96
330
1F
100
AcDbEntity
  8
AM_VIS
100
AcDbLine
 10
325.9754251603238
 20
152.2701623414842
 30
0.0
 11
325.9754251603238
 21
150.8357612647257
 31
0.0
  0
LINE
  5
1E97
330
1F
100
AcDbEntity
  8
AM_VIS
100
AcDbLine
 10
325.9754251603238
 20
149.7687739666179
 30
0.0
 11
325.9754251603238
 21
150.8357612647257
 31
0.0
  0
LINE
  5
1E98
330
1F
100
AcDbEntity
  8
AM_VIS
100
AcDbLine
 10
325.9754251603238
 20
149.0857612647257
 30
0.0
 11
325.9754251603238
 21
149.7687739666179
 31
0.0
  0
LINE
  5
1E99
330
1F
100
AcDbEntity
  8
AM_VIS
100
AcDbLine
 10
325.9754251603238
 20
149.0857612647257
 30
0.0
 11
325.9754251603238
 21
147.6513601879672
 31
0.0
  0
LINE
  5
1E9A
330
1F
100
AcDbEntity
  8
AM_VIS
100
AcDbLine
 10
331.4754251603238
 20
166.1265688020352
 30
0.0
 11
325.9754251603238
 21
166.1265688020353
 31
0.0
  0
LINE
  5
1E9B
330
1F
100
AcDbEntity
  8
AM_VIS
100
AcDbLine
 10
331.4754251603238
 20
149.0857612647256
 30
0.0
 11
331.4754251603238
 21
147.6513601879671
 31
0.0
  0
LINE
  5
1E9C
330
1F
100
AcDbEntity
  8
AM_VIS
100
AcDbLine
 10
331.4754251603238
 20
149.7687739666179
 30
0.0
 11
331.4754251603238
 21
149.0857612647257
 31
0.0
  0
LINE
  5
1E9D
330
1F
100
AcDbEntity
  8
AM_VIS
100
AcDbLine
 10
331.4754251603238
 20
150.8357612647257
 30
0.0
 11
331.4754251603238
 21
149.7687739666179
 31
0.0
  0
LINE
  5
1E9E
330
1F
100
AcDbEntity
  8
AM_VIS
100
AcDbLine
 10
331.4754251603238
 20
152.2701623414842
 30
0.0
 11
331.4754251603238
 21
150.8357612647256
 31
0.0
  0
LINE
  5
1E9F
330
1F
100
AcDbEntity
  8
AM_VIS
100
AcDbLine
 10
331.4754251603238
 20
155.1389644950012
 30
0.0
 11
331.4754251603238
 21
152.2701623414841
 31
0.0
  0
LINE
  5
1EA0
330
1F
100
AcDbEntity
  8
AM_VIS
100
AcDbLine
 10
331.4754251603238
 20
155.6389644950012
 30
0.0
 11
331.4754251603238
 21
155.1389644950012
 31
0.0
  0
LINE
  5
1EA1
330
1F
100
AcDbEntity
  8
AM_VIS
100
AcDbLine
 10
331.4754251603238
 20
158.1389644950012
 30
0.0
 11
331.4754251603238
 21
155.6389644950012
 31
0.0
  0
LINE
  5
1EA2
330
1F
100
AcDbEntity
  8
AM_VIS
100
AcDbLine
 10
331.4754251603238
 20
158.6389644950012
 30
0.0
 11
331.4754251603238
 21
158.1389644950012
 31
0.0
  0
LINE
  5
1EA3
330
1F
100
AcDbEntity
  8
AM_VIS
100
AcDbLine
 10
331.4754251603238
 20
161.5077666485182
 30
0.0
 11
331.4754251603238
 21
158.6389644950012
 31
0.0
  0
LINE
  5
1EA4
330
1F
100
AcDbEntity
  8
AM_VIS
100
AcDbLine
 10
331.4754251603238
 20
162.9421677252767
 30
0.0
 11
331.4754251603238
 21
161.5077666485182
 31
0.0
  0
LINE
  5
1EA5
330
1F
100
AcDbEntity
  8
AM_VIS
100
AcDbLine
 10
331.4754251603238
 20
164.0091550233845
 30
0.0
 11
331.4754251603238
 21
162.9421677252767
 31
0.0
  0
LINE
  5
1EA6
330
1F
100
AcDbEntity
  8
AM_VIS
100
AcDbLine
 10
331.4754251603238
 20
164.6921677252767
 30
0.0
 11
331.4754251603238
 21
164.0091550233845
 31
0.0
  0
LINE
  5
1EA7
330
1F
100
AcDbEntity
  8
AM_VIS
100
AcDbLine
 10
331.4754251603238
 20
166.1265688020352
 30
0.0
 11
331.4754251603238
 21
164.6921677252767
 31
0.0
  0
LINE
  5
1EA8
330
1F
100
AcDbEntity
  8
AM_VIS
100
AcDbLine
 10
325.9754251603238
 20
163.6389644950012
 30
0.0
 11
324.3754251603236
 21
163.6389644950012
 31
0.0
  0
LINE
  5
1EA9
330
1F
100
AcDbEntity
  8
AM_VIS
100
AcDbLine
 10
325.9754251603238
 20
150.1389644950012
 30
0.0
 11
324.3754251603236
 21
150.1389644950012
 31
0.0
  0
LINE
  5
1EAA
330
1F
100
AcDbEntity
  8
AM_VIS
100
AcDbLine
 10
324.3754251603236
 20
163.8889644950012
 30
0.0
 11
323.4754251603235
 21
163.8889644950012
 31
0.0
  0
LINE
  5
1EAB
330
1F
100
AcDbEntity
  8
AM_VIS
100
AcDbLine
 10
324.3754251603236
 20
149.8889644950012
 30
0.0
 11
323.4754251603235
 21
149.8889644950012
 31
0.0
  0
LINE
  5
1EAC
330
1F
100
AcDbEntity
  8
AM_VIS
100
AcDbLine
 10
324.3754251603236
 20
163.8889644950012
 30
0.0
 11
324.3754251603236
 21
149.8889644950012
 31
0.0
  0
LINE
  5
1EAD
330
1F
100
AcDbEntity
  8
AM_7
100
AcDbLine
 10
333.4754251603238
 20
156.8889644950012
 30
0.0
 11
307.3639861842792
 21
156.8889644950012
 31
0.0
1001
GENIUS_GENODEF_13
1002
{
1000
HIER
1070
     0
1002
}
1002
{
1000
MANEDIT
1070
     0
1002
}
1002
{
1000
NOSEL
1070
     0
1002
}
1002
{
1000
BEHIND
1070
     0
1002
}
1002
{
1000
OTHER
1070
     0
1002
}
1002
{
1000
REACTOR
1002
}
1001
GENIUS_GENOBJ-N-CEN_13
1002
{
1000
OWNER
1000
GEN
1002
}
1001
GENIUS_GENCEN_19
1002
{
1040
2.0
1002
}
  0
LINE
  5
1F7D
330
1F
100
AcDbEntity
  8
LOGO
 62
     4
100
AcDbLine
 10
436.2218377731373
 20
106.5477502794639
 30
0.0
 11
123.6953395195078
 21
106.5477502794639
 31
0.0
  0
LWPOLYLINE
  5
1F7E
330
1F
100
AcDbEntity
  8
LOGO
 62
     4
100
AcDbPolyline
 90
        4
 70
     1
 43
0.0
 10
123.6953395195079
 20
106.5477502794638
 10
436.2218377731373
 20
106.5477502794638
 10
436.2218377731373
 20
392.6520732393133
 10
123.6953395195079
 20
392.6520732393133
1001
GENIUS_GENREC_14
1002
{
1000
PYDIR
1011
123.6953395195079
1021
392.6520732393133
1031
0.0
1002
}
1002
{
1000
PXDIR
1011
436.2218377731373
1021
106.5477502794638
1031
0.0
1002
}
1002
{
1000
PORI
1011
123.6953395195079
1021
106.5477502794638
1031
0.0
1002
}
1002
{
1000
PINS
1011
123.6953395195079
1021
106.5477502794638
1031
0.0
1002
}
1002
{
1000
PINS2
1011
436.2218377731373
1021
392.6520732393133
1031
0.0
1002
}
1002
{
1000
C
1070
     1
1002
}
1001
GENIUS_GENODEF_13
1002
{
1000
HIER
1070
     0
1002
}
1002
{
1000
MANEDIT
1070
     0
1002
}
1002
{
1000
NOSEL
1070
     0
1002
}
1002
{
1000
BEHIND
1070
     0
1002
}
1002
{
1000
OTHER
1070
     0
1002
}
1002
{
1000
REACTOR
1002
}
1001
GENIUS_GENOBJ-N-REC_13
1002
{
1000
OWNER
1000
GEN
1002
}
  0
LWPOLYLINE
  5
1F7F
330
1F
100
AcDbEntity
  8
LOGO
 62
     4
100
AcDbPolyline
 90
        4
 70
     1
 43
0.0
 10
123.6953395195079
 20
106.5477502794638
 10
436.2218377731373
 20
106.5477502794638
 10
436.2218377731373
 20
79.33569105774421
 10
123.6953395195079
 20
79.33569105774421
1001
GENIUS_GENREC_14
1002
{
1000
PYDIR
1011
123.6953395195079
1021
79.33569105774421
1031
0.0
1002
}
1002
{
1000
PXDIR
1011
436.2218377731373
1021
106.5477502794638
1031
0.0
1002
}
1002
{
1000
PORI
1011
123.6953395195079
1021
106.5477502794638
1031
0.0
1002
}
1002
{
1000
PINS
1011
123.6953395195079
1021
106.5477502794638
1031
0.0
1002
}
1002
{
1000
PINS2
1011
436.2218377731373
1021
79.33569105774421
1031
0.0
1002
}
1002
{
1000
C
1070
     1
1002
}
1001
GENIUS_GENOBJ-N-REC_13
1002
{
1000
OWNER
1000
GEN
1002
}
1001
GENIUS_GENODEF_13
1002
{
1000
HIER
1070
     0
1002
}
1002
{
1000
MANEDIT
1070
     0
1002
}
1002
{
1000
NOSEL
1070
     0
1002
}
1002
{
1000
BEHIND
1070
     0
1002
}
1002
{
1000
OTHER
1070
     0
1002
}
1002
{
1000
REACTOR
1002
}
  0
TEXT
  5
1F80
330
1F
100
AcDbEntity
  8
LOGO
 62
     7
100
AcDbText
 10
185.1383674112687
 20
94.62661018718408
 30
0.0
 40
3.628274562895926
  1
Order example:
 41
0.8
  7
CHINESET
100
AcDbText
  0
TEXT
  5
1F81
330
1F
100
AcDbEntity
  8
LOGO
 62
     7
100
AcDbText
 10
185.7893098724622
 20
99.73446952790745
 30
0.0
 40
5.44241184434389
  1
訂購代號：
  7
CHINESET
100
AcDbText
  0
LINE
  5
1F82
330
1F
100
AcDbEntity
  8
LOGO
 62
     4
100
AcDbLine
 10
183.5618698072905
 20
79.33569105774433
 30
0.0
 11
183.5618698072905
 21
106.5477502794639
 31
0.0
  0
TEXT
  5
1F83
330
1F
100
AcDbEntity
  8
LOGO
  6
Continuous
100
AcDbText
 10
133.4700335125222
 20
84.68145902527316
 30
0.0
 40
4.081808883257918
  1
金器工業股份有限公司
  7
CHINESET
100
AcDbText
  0
TEXT
  5
1F84
330
1F
100
AcDbEntity
  8
LOGO
  6
Continuous
100
AcDbText
 10
125.9725581400412
 20
80.59885042750028
 30
0.0
 40
2.721205922171945
  1
MINDMAN INDUSTRIAL CO., LTD.
 41
0.85
  7
CHINESET
100
AcDbText
  0
LINE
  5
1F85
330
1F
100
AcDbEntity
  8
LOGO
 62
     4
100
AcDbLine
 10
183.5618698072905
 20
101.10533843512
 30
0.0
 11
143.6508496154353
 21
101.10533843512
 31
0.0
  0
LINE
  5
1F86
330
1F
100
AcDbEntity
  8
LOGO
 62
     4
100
AcDbLine
 10
183.5618698072905
 20
95.66292659077612
 30
0.0
 11
143.6508496154353
 21
95.66292659077612
 31
0.0
  0
LINE
  5
1F87
330
1F
100
AcDbEntity
  8
LOGO
 62
     4
100
AcDbLine
 10
183.5618698072905
 20
90.22051474643239
 30
0.0
 11
123.6953395195078
 21
90.22051474643239
 31
0.0
  0
LINE
  5
1F88
330
1F
100
AcDbEntity
  8
LOGO
 62
     4
100
AcDbLine
 10
143.6508496154353
 20
90.22051474643239
 30
0.0
 11
143.6508496154353
 21
106.5477502794639
 31
0.0
  0
TEXT
  5
1F89
330
1F
100
AcDbEntity
  8
LOGO
100
AcDbText
 10
170.9281481451087
 20
91.581117707518
 30
0.0
 40
2.721205922171945
  1
mm
  7
CHINESET
 72
     1
 11
174.2972602392263
 21
92.94172066860397
 31
0.0
100
AcDbText
 73
     2
  0
TEXT
  5
1F8A
330
1F
100
AcDbEntity
  8
LOGO
100
AcDbText
 10
169.5027545668281
 20
102.4659413962058
 30
0.0
 40
2.721205922171945
  1
1 : 1
  7
CHINESET
 72
     1
 11
174.2972602392263
 21
103.8265443572918
 31
0.0
100
AcDbText
 73
     2
  0
LINE
  5
1F8B
330
1F
100
AcDbEntity
  8
LOGO
 62
     4
100
AcDbLine
 10
165.4204969928108
 20
90.22051474643239
 30
0.0
 11
165.4204969928108
 21
106.5477502794639
 31
0.0
  0
TEXT
  5
1F8C
330
1F
100
AcDbEntity
  8
LOGO
100
AcDbText
 10
145.8946296771547
 20
102.4672805723486
 30
178.3433532142757
 40
2.721205922171945
  1
比例 Scale:
 41
0.9
  7
CHINESET
 72
     4
 11
154.5356733041231
 21
103.8265443572918
 31
178.3433532142757
100
AcDbText
  0
TEXT
  5
1F8D
330
1F
100
AcDbEntity
  8
LOGO
100
AcDbText
 10
145.7379173718154
 20
97.06180766994364
 30
178.3433532142757
 40
2.721205922171945
  1
投影  View:
 41
0.9
  7
CHINESET
 72
     4
 11
154.5356733041231
 21
98.38413251294788
 31
178.3433532142757
100
AcDbText
  0
TEXT
  5
1F8E
330
1F
100
AcDbEntity
  8
LOGO
100
AcDbText
 10
146.0039638436706
 20
91.581117707518
 30
178.3433532142757
 40
2.721205922171945
  1
單位  Unit:
 41
0.9
  7
CHINESET
 72
     4
 11
154.5356733041231
 21
92.94172066860397
 31
178.3433532142757
100
AcDbText
  0
SOLID
  5
1F8F
330
1F
100
AcDbEntity
  8
LOGO
 62
     5
100
AcDbTrace
 10
126.5186343357944
 20
94.74413225888081
 30
0.0
 11
127.6952123720981
 21
94.74413225888053
 31
0.0
 12
132.6043827994339
 22
105.9013377755546
 32
0.0
 13
133.7809608357385
 23
105.9013377755539
 33
0.0
  0
SOLID
  5
1F90
330
1F
100
AcDbEntity
  8
LOGO
 62
     5
100
AcDbTrace
 10
128.1820722491905
 20
94.74413225888081
 30
0.0
 11
129.3586502854944
 21
94.74413225888081
 31
0.0
 12
133.7809608357385
 22
105.0087613342202
 32
0.0
 13
132.6043827994339
 23
100.694641867773
 33
0.0
  0
SOLID
  5
1F91
330
1F
100
AcDbEntity
  8
LOGO
 62
     2
100
AcDbTrace
 10
127.6952123720981
 20
94.74413225888053
 30
0.0
 11
128.1820722491905
 21
94.74413225888081
 31
0.0
 12
133.7809608357385
 22
105.9013377755539
 32
0.0
 13
134.2678207128303
 23
105.9013377755539
 33
0.0
  0
SOLID
  5
1F92
330
1F
100
AcDbEntity
  8
LOGO
 62
     5
100
AcDbTrace
 10
124.6322912113216
 20
90.68696661645439
 30
0.0
 11
125.0380077755648
 21
90.68696661645439
 31
0.0
 12
126.1805371989257
 22
92.71554943766751
 32
0.0
 13
126.5862537631676
 23
92.71554943766751
 33
0.0
  0
SOLID
  5
1F93
330
1F
100
AcDbEntity
  8
LOGO
 62
     5
100
AcDbTrace
 10
126.1805371989257
 20
92.71554943766751
 30
0.0
 11
126.5862537631676
 21
92.71554943766751
 31
0.0
 12
126.1805371989257
 22
90.68696661645439
 32
0.0
 13
126.5862537631676
 23
90.68696661645439
 33
0.0
  0
SOLID
  5
1F94
330
1F
100
AcDbEntity
  8
LOGO
 62
     5
100
AcDbTrace
 10
126.1805371989257
 20
90.68696661645439
 30
0.0
 11
126.5862537631676
 21
90.68696661645439
 31
0.0
 12
127.7287831865306
 22
92.71554943766751
 32
0.0
 13
128.1344997507732
 23
92.71554943766751
 33
0.0
  0
SOLID
  5
1F95
330
1F
100
AcDbEntity
  8
LOGO
 62
     5
100
AcDbTrace
 10
127.7287831865306
 20
92.71554943766751
 30
0.0
 11
128.1344997507732
 21
92.71554943766751
 31
0.0
 12
127.7287831865306
 22
90.68696661645439
 32
0.0
 13
128.1344997507732
 23
90.68696661645439
 33
0.0
  0
POLYLINE
  5
1F96
330
1F
100
AcDbEntity
  8
LOGO
 62
     5
100
AcDb2dPolyline
 66
     1
 10
0.0
 20
0.0
 30
0.0
 40
0.4063667510443438
 41
0.4063667510443438
  0
VERTEX
  5
1F97
330
1F96
100
AcDbEntity
  8
LOGO
 62
     5
100
AcDbVertex
100
AcDb2dVertex
 10
141.3282642108552
 20
91.90411630918214
 30
0.0
 42
1.0
  0
VERTEX
  5
1F98
330
1F96
100
AcDbEntity
  8
LOGO
 62
     5
100
AcDbVertex
100
AcDb2dVertex
 10
140.1091639577219
 20
91.90411630918214
 30
0.0
 42
1.0
  0
SEQEND
  5
1F99
330
1F96
100
AcDbEntity
  8
LOGO
 62
     5
  0
POLYLINE
  5
1F9A
330
1F
100
AcDbEntity
  8
LOGO
 62
     5
100
AcDb2dPolyline
 66
     1
 10
0.0
 20
0.0
 30
0.0
 70
     1
  0
VERTEX
  5
1F9B
330
1F9A
100
AcDbEntity
  8
LOGO
 62
     5
100
AcDbVertex
100
AcDb2dVertex
 10
137.8111057549863
 20
91.70125802706058
 30
0.0
 42
1.000000057330635
  0
VERTEX
  5
1F9C
330
1F9A
100
AcDbEntity
  8
LOGO
 62
     5
100
AcDbVertex
100
AcDb2dVertex
 10
139.0282554477144
 20
91.70125802706058
 30
0.0
 42
1.000000057330635
  0
SEQEND
  5
1F9D
330
1F9A
100
AcDbEntity
  8
LOGO
 62
     5
  0
CIRCLE
  5
1F9E
330
1F
100
AcDbEntity
  8
LOGO
 62
     5
100
AcDbCircle
 10
138.4196806013512
 20
91.70125802706058
 30
0.0
 40
0.6085748463640094
  0
POLYLINE
  5
1F9F
330
1F
100
AcDbEntity
  8
LOGO
 62
     5
100
AcDb2dPolyline
 66
     1
 10
0.0
 20
0.0
 30
0.0
 70
     1
 40
0.4063667510443438
 41
0.4063667510443438
  0
VERTEX
  5
1FA0
330
1F9F
100
AcDbEntity
  8
LOGO
 62
     5
100
AcDbVertex
100
AcDb2dVertex
 10
137.6069470992618
 20
91.70125802706058
 30
0.0
 42
1.0
  0
VERTEX
  5
1FA1
330
1F9F
100
AcDbEntity
  8
LOGO
 62
     5
100
AcDbVertex
100
AcDb2dVertex
 10
139.2324141034393
 20
91.70125802706058
 30
0.0
 42
1.0
  0
SEQEND
  5
1FA2
330
1F9F
100
AcDbEntity
  8
LOGO
 62
     5
  0
LINE
  5
1FA3
330
1F
100
AcDbEntity
  8
LOGO
100
AcDbLine
 10
141.5301472127732
 20
90.68696661645439
 30
0.0
 11
141.5301472127732
 21
91.90411630918214
 31
0.0
  0
SOLID
  5
1FA4
330
1F
100
AcDbEntity
  8
LOGO
 62
     5
100
AcDbTrace
 10
139.0282148760598
 20
92.71554943766751
 30
0.0
 11
139.4339314403016
 21
92.71554943766751
 31
0.0
 12
139.0282148760598
 22
90.68696661645439
 32
0.0
 13
139.4339314403016
 23
90.68696661645439
 33
0.0
  0
SOLID
  5
1FA5
330
1F
100
AcDbEntity
  8
LOGO
 62
     5
100
AcDbTrace
 10
139.9072809558025
 20
90.68696661645439
 30
0.0
 11
140.3129975200459
 21
90.68696661645439
 31
0.0
 12
139.9072809558025
 22
92.71554943766751
 32
0.0
 13
140.3129975200459
 23
92.71554943766751
 33
0.0
  0
SOLID
  5
1FA6
330
1F
100
AcDbEntity
  8
LOGO
 62
     5
100
AcDbTrace
 10
141.1244306485316
 20
91.90411630918214
 30
0.0
 11
141.5301472127732
 21
91.90411630918214
 31
0.0
 12
141.1244306485316
 22
90.68696661645439
 32
0.0
 13
141.5301472127732
 23
90.68696661645439
 33
0.0
  0
SOLID
  5
1FA7
330
1F
100
AcDbEntity
  8
LOGO
 62
     5
100
AcDbTrace
 10
139.8667092993783
 20
105.0087613342202
 30
0.0
 11
138.6901312630753
 21
100.694641867773
 31
0.0
 12
139.8667092993783
 22
94.74413225888053
 32
0.0
 13
138.6901312630753
 23
94.74413225888053
 33
0.0
  0
SOLID
  5
1FA8
330
1F
100
AcDbEntity
  8
LOGO
 62
     5
100
AcDbTrace
 10
140.3535691764703
 20
94.74413225888053
 30
0.0
 11
141.5301472127732
 21
94.74413225888053
 31
0.0
 12
140.3535691764703
 22
105.9013377755539
 32
0.0
 13
141.5301472127732
 23
105.9013377755546
 33
0.0
  0
SOLID
  5
1FA9
330
1F
100
AcDbEntity
  8
LOGO
 62
     2
100
AcDbTrace
 10
139.8667092993783
 20
105.9013377755546
 30
0.0
 11
140.3535691764703
 21
105.9013377755539
 31
0.0
 12
139.8667092993783
 22
94.74413225888053
 32
0.0
 13
140.3535691764703
 23
94.74413225888053
 33
0.0
  0
POLYLINE
  5
1FAA
330
1F
100
AcDbEntity
  8
LOGO
 62
     5
100
AcDb2dPolyline
 66
     1
 10
0.0
 20
0.0
 30
0.0
 40
0.4063667510443438
 41
0.4063667510443438
  0
VERTEX
  5
1FAB
330
1FAA
100
AcDbEntity
  8
LOGO
 62
     5
100
AcDbVertex
100
AcDb2dVertex
 10
135.5129664089394
 20
91.90411630918214
 30
0.0
 42
1.0
  0
VERTEX
  5
1FAC
330
1FAA
100
AcDbEntity
  8
LOGO
 62
     5
100
AcDbVertex
100
AcDb2dVertex
 10
134.2938661558062
 20
91.90411630918214
 30
0.0
 42
1.0
  0
SEQEND
  5
1FAD
330
1FAA
100
AcDbEntity
  8
LOGO
 62
     5
  0
POLYLINE
  5
1FAE
330
1F
100
AcDbEntity
  8
LOGO
 62
     5
100
AcDb2dPolyline
 66
     1
 10
0.0
 20
0.0
 30
0.0
 40
0.4063667510443438
 41
0.4063667510443438
  0
VERTEX
  5
1FAF
330
1FAE
100
AcDbEntity
  8
LOGO
 62
     5
100
AcDbVertex
100
AcDb2dVertex
 10
136.730116101666
 20
91.90411630918214
 30
0.0
 42
1.0
  0
VERTEX
  5
1FB0
330
1FAE
100
AcDbEntity
  8
LOGO
 62
     5
100
AcDbVertex
100
AcDb2dVertex
 10
135.5110158485334
 20
91.90411630918214
 30
0.0
 42
1.0
  0
SEQEND
  5
1FB1
330
1FAE
100
AcDbEntity
  8
LOGO
 62
     5
  0
POLYLINE
  5
1FB2
330
1F
100
AcDbEntity
  8
LOGO
 62
     5
100
AcDb2dPolyline
 66
     1
 10
0.0
 20
0.0
 30
0.0
 40
0.4063667510443438
 41
0.4063667510443438
  0
VERTEX
  5
1FB3
330
1FB2
100
AcDbEntity
  8
LOGO
 62
     5
100
AcDbVertex
100
AcDb2dVertex
 10
130.9148182997505
 20
91.90411630918214
 30
0.0
 42
1.0
  0
VERTEX
  5
1FB4
330
1FB2
100
AcDbEntity
  8
LOGO
 62
     5
100
AcDbVertex
100
AcDb2dVertex
 10
129.6957180466178
 20
91.90411630918214
 30
0.0
 42
1.0
  0
SEQEND
  5
1FB5
330
1FB2
100
AcDbEntity
  8
LOGO
 62
     5
  0
SOLID
  5
1FB6
330
1F
100
AcDbEntity
  8
LOGO
 62
     5
100
AcDbTrace
 10
129.493835044699
 20
92.71554943766751
 30
0.0
 11
129.8995516089409
 21
92.71554943766751
 31
0.0
 12
129.493835044699
 22
90.68696661645439
 32
0.0
 13
129.8995516089409
 23
90.68696661645439
 33
0.0
  0
SOLID
  5
1FB7
330
1F
100
AcDbEntity
  8
LOGO
 62
     5
100
AcDbTrace
 10
130.7109847374272
 20
91.90411630918214
 30
0.0
 11
131.1167013016704
 21
91.90411630918214
 31
0.0
 12
130.7109847374272
 22
90.68696661645439
 32
0.0
 13
131.1167013016704
 23
90.68696661645439
 33
0.0
  0
POLYLINE
  5
1FB8
330
1F
100
AcDbEntity
  8
LOGO
 62
     5
100
AcDb2dPolyline
 66
     1
 10
0.0
 20
0.0
 30
0.0
 70
     1
 40
0.4063667510443438
 41
0.4063667510443438
  0
VERTEX
  5
1FB9
330
1FB8
100
AcDbEntity
  8
LOGO
 62
     5
100
AcDbVertex
100
AcDb2dVertex
 10
131.7916492973455
 20
91.70125802706058
 30
0.0
 42
1.0
  0
VERTEX
  5
1FBA
330
1FB8
100
AcDbEntity
  8
LOGO
 62
     5
100
AcDbVertex
100
AcDb2dVertex
 10
133.4171163015233
 20
91.70125802706058
 30
0.0
 42
1.0
  0
SEQEND
  5
1FBB
330
1FB8
100
AcDbEntity
  8
LOGO
 62
     5
  0
SOLID
  5
1FBC
330
1F
100
AcDbEntity
  8
LOGO
 62
     5
100
AcDbTrace
 10
133.2129170741427
 20
93.32412428403175
 30
0.0
 11
133.6186336383853
 21
93.32412428403175
 31
0.0
 12
133.2129170741427
 22
90.68696661645439
 32
0.0
 13
133.6186336383853
 23
90.68696661645439
 33
0.0
  0
SOLID
  5
1FBD
330
1F
100
AcDbEntity
  8
LOGO
 62
     5
100
AcDbTrace
 10
134.0919831538882
 20
92.71554943766751
 30
0.0
 11
134.4976997181301
 21
92.71554943766751
 31
0.0
 12
134.0919831538882
 22
90.68696661645439
 32
0.0
 13
134.4976997181301
 23
90.68696661645439
 33
0.0
  0
SOLID
  5
1FBE
330
1F
100
AcDbEntity
  8
LOGO
 62
     5
100
AcDbTrace
 10
135.309132846615
 20
91.90411630918214
 30
0.0
 11
135.714849410858
 21
91.90411630918214
 31
0.0
 12
135.309132846615
 22
90.68696661645439
 32
0.0
 13
135.714849410858
 23
90.68696661645439
 33
0.0
  0
SOLID
  5
1FBF
330
1F
100
AcDbEntity
  8
LOGO
 62
     5
100
AcDbTrace
 10
136.5262825393432
 20
91.90411630918214
 30
0.0
 11
136.9319991035856
 21
91.90411630918214
 31
0.0
 12
136.5262825393432
 22
90.68696661645374
 32
0.0
 13
136.9319991035856
 23
90.68696661645374
 33
0.0
  0
SOLID
  5
1FC0
330
1F
100
AcDbEntity
  8
LOGO
 62
     5
100
AcDbTrace
 10
128.6147689649545
 20
92.99955103263739
 30
0.0
 11
129.0204855291982
 21
92.99955103263739
 31
0.0
 12
128.6147689649545
 22
93.32412428403175
 32
0.0
 13
129.0204855291982
 23
93.32412428403175
 33
0.0
  0
SOLID
  5
1FC1
330
1F
100
AcDbEntity
  8
LOGO
 62
     5
100
AcDbTrace
 10
128.6147689649545
 20
92.71554943766751
 30
0.0
 11
129.0204855291982
 21
92.71554943766751
 31
0.0
 12
128.6147689649545
 22
90.68696661645374
 32
0.0
 13
129.0204855291982
 23
90.68696661645439
 33
0.0
  0
SOLID
  5
1FC2
330
1F
100
AcDbEntity
  8
LOGO
 62
     5
100
AcDbTrace
 10
132.6043827994339
 20
94.74413225888081
 30
0.0
 11
133.7809608357385
 21
94.74413225888081
 31
0.0
 12
132.6043827994339
 22
100.694641867773
 32
0.0
 13
133.7809608357385
 23
105.0087613342202
 33
0.0
  0
SOLID
  5
1FC3
330
1F
100
AcDbEntity
  8
LOGO
 62
     5
100
AcDbTrace
 10
134.2678207128303
 20
105.9013377755539
 30
0.0
 11
135.4443987491335
 21
105.9013377755546
 31
0.0
 12
134.2678207128303
 22
95.63670870021455
 32
0.0
 13
135.4443987491335
 23
99.95082816666171
 33
0.0
  0
SOLID
  5
1FC4
330
1F
100
AcDbEntity
  8
LOGO
 62
     2
100
AcDbTrace
 10
133.7809608357385
 20
105.9013377755539
 30
0.0
 11
134.2678207128303
 21
105.9013377755539
 31
0.0
 12
133.7809608357385
 22
94.74413225888081
 32
0.0
 13
134.2678207128303
 23
94.74413225888081
 33
0.0
  0
SOLID
  5
1FC5
330
1F
100
AcDbEntity
  8
LOGO
 62
     5
100
AcDbTrace
 10
134.2678207128303
 20
95.63670870021455
 30
0.0
 11
135.4443987491335
 21
99.95082816666171
 31
0.0
 12
139.8667092993783
 22
105.9013377755546
 32
0.0
 13
138.6901312630753
 23
105.9013377755546
 33
0.0
  0
SOLID
  5
1FC6
330
1F
100
AcDbEntity
  8
LOGO
 62
     5
100
AcDbTrace
 10
134.2678207128303
 20
94.74413225888081
 30
0.0
 11
135.4443987491335
 21
94.74413225888081
 31
0.0
 12
139.8667092993783
 22
105.0087613342202
 32
0.0
 13
138.6901312630753
 23
100.694641867773
 33
0.0
  0
SOLID
  5
1FC7
330
1F
100
AcDbEntity
  8
LOGO
 62
     2
100
AcDbTrace
 10
133.7809608357385
 20
94.74413225888081
 30
0.0
 11
134.2678207128303
 21
94.74413225888081
 31
0.0
 12
139.8667092993783
 22
105.9013377755546
 32
0.0
 13
140.3535691764703
 23
105.9013377755539
 33
0.0
  0
LINE
  5
1FC8
330
1F
100
AcDbEntity
  8
LOGO
 62
     4
100
AcDbLine
 10
233.8956050626173
 20
91.58111770751851
 30
0.0
 11
233.8956050626173
 21
81.60336265955422
 31
0.0
  0
LINE
  5
1FC9
330
1F
100
AcDbEntity
  8
LOGO
 62
     4
100
AcDbLine
 10
220.9908495342669
 20
91.58111770751851
 30
0.0
 11
220.9908495342669
 21
81.60336265955422
 31
0.0
  0
LINE
  5
1FCA
330
1F
100
AcDbEntity
  8
LOGO
 62
     4
100
AcDbLine
 10
233.8956050626173
 20
81.60336265955422
 30
0.0
 11
220.9908495342669
 21
81.60336265955422
 31
0.0
  0
LINE
  5
1FCB
330
1F
100
AcDbEntity
  8
LOGO
 62
     4
100
AcDbLine
 10
242.5807567379207
 20
103.8265443572918
 30
0.0
 11
220.9908495342669
 21
103.8265443572918
 31
0.0
  0
LINE
  5
1FCC
330
1F
100
AcDbEntity
  8
LOGO
 62
     4
100
AcDbLine
 10
242.5807567379207
 20
95.66292659077612
 30
0.0
 11
220.9908495342669
 21
95.66292659077612
 31
0.0
  0
LINE
  5
1FCD
330
1F
100
AcDbEntity
  8
LOGO
 62
     4
100
AcDbLine
 10
220.9908495342669
 20
103.8265443572918
 30
0.0
 11
220.9908495342669
 21
95.66292659077612
 31
0.0
  0
LINE
  5
1FCE
330
1F
100
AcDbEntity
  8
LOGO
 62
     4
100
AcDbLine
 10
242.5807567379207
 20
103.8265443572918
 30
0.0
 11
242.5807567379207
 21
95.66292659077612
 31
0.0
  0
LINE
  5
1FCF
330
1F
100
AcDbEntity
  8
LOGO
 62
     4
100
AcDbLine
 10
231.008059947411
 20
95.66292659077612
 30
0.0
 11
231.008059947411
 21
91.58111770751851
 31
0.0
  0
TEXT
  5
1FD0
330
1F
100
AcDbEntity
  8
LOGO
  6
Continuous
 62
     7
100
AcDbText
 10
222.4413965576581
 20
97.36706986432828
 30
0.0
 40
4.762799999999999
  1
MVSC
  7
CHINESET
100
AcDbText
  0
LINE
  5
1FD1
330
1F
100
AcDbEntity
  8
LOGO
 62
     4
100
AcDbLine
 10
233.8956050626173
 20
91.58111770751851
 30
0.0
 11
220.9908495342669
 21
91.58111770751851
 31
0.0
  0
TEXT
  5
1FD2
330
1F
100
AcDbEntity
  8
LOGO
  6
Continuous
100
AcDbText
 10
224.6660738705358
 20
83.0117016262533
 30
178.3433532142757
 40
2.041199999999999
  1
Model
 41
0.8
  7
CHINESET
100
AcDbText
  0
TEXT
  5
1FD3
330
1F
100
AcDbEntity
  8
LOGO
100
AcDbText
 10
224.1227727858666
 20
86.795646516256
 30
178.3433532142757
 40
3.402
  1
型號
  7
CHINESET
100
AcDbText
  0
LINE
  5
1FD4
330
1F
100
AcDbEntity
  8
LOGO
  6
Continuous
 62
     7
100
AcDbLine
 10
243.4486167778733
 20
99.71581864974861
 30
0.0
 11
247.0533725063899
 21
99.71581864974861
 31
0.0
  0
LINE
  5
1FD5
330
1F
100
AcDbEntity
  8
LOGO
 62
     4
100
AcDbLine
 10
252.5506732422836
 20
91.58111770751851
 30
0.0
 11
252.5506732422836
 21
81.60336265955422
 31
0.0
  0
LINE
  5
1FD6
330
1F
100
AcDbEntity
  8
LOGO
 62
     4
100
AcDbLine
 10
236.0215159208545
 20
91.58111770751851
 30
0.0
 11
236.0215159208545
 21
81.60336265955422
 31
0.0
  0
LINE
  5
1FD7
330
1F
100
AcDbEntity
  8
LOGO
 62
     4
100
AcDbLine
 10
252.5506732422836
 20
81.60336265955422
 30
0.0
 11
236.0215159208545
 21
81.60336265955422
 31
0.0
  0
LINE
  5
1FD8
330
1F
100
AcDbEntity
  8
LOGO
 62
     4
100
AcDbLine
 10
257.9827319704449
 20
103.8265443572918
 30
0.0
 11
248.1904829207229
 21
103.8265443572918
 31
0.0
  0
LINE
  5
1FD9
330
1F
100
AcDbEntity
  8
LOGO
 62
     4
100
AcDbLine
 10
257.9827319704449
 20
95.66292659077612
 30
0.0
 11
248.1904829207229
 21
95.66292659077612
 31
0.0
  0
LINE
  5
1FDA
330
1F
100
AcDbEntity
  8
LOGO
 62
     4
100
AcDbLine
 10
248.1904829207229
 20
103.8265443572918
 30
0.0
 11
248.1904829207229
 21
95.66292659077612
 31
0.0
  0
LINE
  5
1FDB
330
1F
100
AcDbEntity
  8
LOGO
 62
     4
100
AcDbLine
 10
257.9827319704449
 20
103.8265443572918
 30
0.0
 11
257.9827319704449
 21
95.66292659077612
 31
0.0
  0
LINE
  5
1FDC
330
1F
100
AcDbEntity
  8
LOGO
 62
     4
100
AcDbLine
 10
253.0866074455839
 20
95.66292659077612
 30
0.0
 11
253.0866074455839
 21
93.62202214914727
 31
0.0
  0
TEXT
  5
1FDD
330
1F
100
AcDbEntity
  8
LOGO
  6
Continuous
 62
     7
100
AcDbText
 10
249.5175346715068
 20
97.36706986432828
 30
0.0
 40
4.762799999999999
  1
220
  7
CHINESET
100
AcDbText
  0
LINE
  5
1FDE
330
1F
100
AcDbEntity
  8
LOGO
 62
     4
100
AcDbLine
 10
252.5506732422836
 20
91.58111770751851
 30
0.0
 11
236.0215159208545
 21
91.58111770751851
 31
0.0
  0
LINE
  5
1FDF
330
1F
100
AcDbEntity
  8
LOGO
  6
Continuous
 62
     7
100
AcDbLine
 10
263.5028307595535
 20
99.71581864974861
 30
0.0
 11
267.1075864880705
 21
99.71581864974861
 31
0.0
  0
LINE
  5
1FE0
330
1F
100
AcDbEntity
  8
LOGO
 62
     4
100
AcDbLine
 10
268.391554040985
 20
91.58111770751851
 30
0.0
 11
268.391554040985
 21
81.60336265955422
 31
0.0
  0
LINE
  5
1FE1
330
1F
100
AcDbEntity
  8
LOGO
 62
     4
100
AcDbLine
 10
254.7642140148627
 20
91.58111770751851
 30
0.0
 11
254.7642140148627
 21
81.60336265955422
 31
0.0
  0
LINE
  5
1FE2
330
1F
100
AcDbEntity
  8
LOGO
 62
     4
100
AcDbLine
 10
268.391554040985
 20
81.60336265955422
 30
0.0
 11
254.7642140148627
 21
81.60336265955422
 31
0.0
  0
LINE
  5
1FE3
330
1F
100
AcDbEntity
  8
LOGO
 62
     4
100
AcDbLine
 10
274.0399119710704
 20
103.8265443572918
 30
0.0
 11
268.2446969024031
 21
103.8265443572918
 31
0.0
  0
LINE
  5
1FE4
330
1F
100
AcDbEntity
  8
LOGO
 62
     4
100
AcDbLine
 10
274.0399119710704
 20
95.66292659077612
 30
0.0
 11
268.2446969024031
 21
95.66292659077612
 31
0.0
  0
LINE
  5
1FE5
330
1F
100
AcDbEntity
  8
LOGO
 62
     4
100
AcDbLine
 10
268.2446969024031
 20
103.8265443572918
 30
0.0
 11
268.2446969024031
 21
95.66292659077612
 31
0.0
  0
LINE
  5
1FE6
330
1F
100
AcDbEntity
  8
LOGO
 62
     4
100
AcDbLine
 10
274.0399119710704
 20
103.8265443572918
 30
0.0
 11
274.0399119710704
 21
95.66292659077612
 31
0.0
  0
LINE
  5
1FE7
330
1F
100
AcDbEntity
  8
LOGO
 62
     4
100
AcDbLine
 10
271.1423044367368
 20
95.66292659077612
 30
0.0
 11
271.1423044367368
 21
93.62202214914727
 31
0.0
  0
TEXT
  5
1FE8
330
1F
100
AcDbEntity
  8
LOGO
  6
Continuous
 62
     7
100
AcDbText
 10
269.3312525976272
 20
97.36706986432828
 30
0.0
 40
4.762799999999999
  1
3
  7
CHINESET
100
AcDbText
  0
LINE
  5
1FE9
330
1F
100
AcDbEntity
  8
LOGO
 62
     4
100
AcDbLine
 10
268.391554040985
 20
91.58111770751851
 30
0.0
 11
254.7642140148627
 21
91.58111770751851
 31
0.0
  0
LINE
  5
1FEA
330
1F
100
AcDbEntity
  8
LOGO
 62
     4
100
AcDbLine
 10
293.4078051854206
 20
91.58111770751851
 30
0.0
 11
293.4078051854206
 21
81.60336265955422
 31
0.0
  0
LINE
  5
1FEB
330
1F
100
AcDbEntity
  8
LOGO
 62
     4
100
AcDbLine
 10
271.1552312556524
 20
91.58111770751851
 30
0.0
 11
271.1552312556524
 21
81.60336265955422
 31
0.0
  0
LINE
  5
1FEC
330
1F
100
AcDbEntity
  8
LOGO
 62
     4
100
AcDbLine
 10
293.4078051854206
 20
81.60336265955422
 30
0.0
 11
271.1552312556524
 21
81.60336265955422
 31
0.0
  0
LINE
  5
1FED
330
1F
100
AcDbEntity
  8
LOGO
 62
     4
100
AcDbLine
 10
286.408538247075
 20
103.8265443572918
 30
0.0
 11
275.6379253150187
 21
103.8265443572918
 31
0.0
  0
LINE
  5
1FEE
330
1F
100
AcDbEntity
  8
LOGO
 62
     4
100
AcDbLine
 10
286.408538247075
 20
95.66292659077612
 30
0.0
 11
275.6379253150187
 21
95.66292659077612
 31
0.0
  0
LINE
  5
1FEF
330
1F
100
AcDbEntity
  8
LOGO
 62
     4
100
AcDbLine
 10
275.6379253150187
 20
103.8265443572918
 30
0.0
 11
275.6379253150187
 21
95.66292659077612
 31
0.0
  0
LINE
  5
1FF0
330
1F
100
AcDbEntity
  8
LOGO
 62
     4
100
AcDbLine
 10
286.408538247075
 20
103.8265443572918
 30
0.0
 11
286.408538247075
 21
95.66292659077612
 31
0.0
  0
LINE
  5
1FF1
330
1F
100
AcDbEntity
  8
LOGO
 62
     4
100
AcDbLine
 10
281.0232317810466
 20
95.66292659077612
 30
0.0
 11
281.0232317810466
 21
91.58111770751851
 31
0.0
  0
TEXT
  5
1FF2
330
1F
100
AcDbEntity
  8
LOGO
  6
Continuous
 62
     7
100
AcDbText
 10
277.5647948079644
 20
97.36706986432828
 30
0.0
 40
4.762799999999999
  1
E1
  7
CHINESET
100
AcDbText
  0
LINE
  5
1FF3
330
1F
100
AcDbEntity
  8
LOGO
 62
     4
100
AcDbLine
 10
293.4078051854206
 20
91.58111770751851
 30
0.0
 11
271.1552312556524
 21
91.58111770751851
 31
0.0
  0
TEXT
  5
1FF4
330
1F
100
AcDbEntity
  8
LOGO
  6
Continuous
100
AcDbText
 10
237.3184241131449
 20
83.0117016262533
 30
178.3433532142757
 40
2.041199999999999
  1
Body width
 41
0.8
  7
CHINESET
100
AcDbText
  0
TEXT
  5
1FF5
330
1F
100
AcDbEntity
  8
LOGO
100
AcDbText
 10
237.2991953021786
 20
86.795646516256
 30
178.3433532142757
 40
3.402
  1
本體寬度
  7
CHINESET
100
AcDbText
  0
TEXT
  5
1FF6
330
1F
100
AcDbEntity
  8
LOGO
  6
Continuous
100
AcDbText
 10
258.5640901618703
 20
83.0117016262533
 30
178.3433532142757
 40
2.041199999999999
  1
3 Way
 41
0.8
  7
CHINESET
100
AcDbText
  0
TEXT
  5
1FF7
330
1F
100
AcDbEntity
  8
LOGO
100
AcDbText
 10
256.5731809754796
 20
86.795646516256
 30
178.3433532142757
 40
3.402
  1
3方向
  7
CHINESET
100
AcDbText
  0
TEXT
  5
1FF8
330
1F
100
AcDbEntity
  8
LOGO
  6
Continuous
100
AcDbText
 10
273.0461772380877
 20
83.0117016262533
 30
178.3433532142757
 40
2.041199999999999
  1
Single solenoid
 41
0.8
  7
CHINESET
100
AcDbText
  0
TEXT
  5
1FF9
330
1F
100
AcDbEntity
  8
LOGO
100
AcDbText
 10
276.6881402607753
 20
86.795646516256
 30
178.3433532142757
 40
3.402
  1
單線圈
  7
CHINESET
100
AcDbText
  0
LINE
  5
1FFA
330
1F
100
AcDbEntity
  8
LOGO
 62
     4
100
AcDbLine
 10
305.3568261743861
 20
103.8265443572918
 30
0.0
 11
292.4505741119438
 21
103.8265443572918
 31
0.0
  0
LINE
  5
1FFB
330
1F
100
AcDbEntity
  8
LOGO
 62
     4
100
AcDbLine
 10
305.3568261743861
 20
95.66292659077612
 30
0.0
 11
292.4505741119438
 21
95.66292659077612
 31
0.0
  0
LINE
  5
1FFC
330
1F
100
AcDbEntity
  8
LOGO
 62
     4
100
AcDbLine
 10
292.4505741119438
 20
103.8265443572918
 30
0.0
 11
292.4505741119438
 21
95.66292659077612
 31
0.0
  0
LINE
  5
1FFD
330
1F
100
AcDbEntity
  8
LOGO
 62
     4
100
AcDbLine
 10
305.3568261743861
 20
103.8265443572918
 30
0.0
 11
305.3568261743861
 21
95.66292659077612
 31
0.0
  0
TEXT
  5
1FFE
330
1F
100
AcDbEntity
  8
LOGO
  6
Continuous
 62
     7
100
AcDbText
 10
297.6317021032253
 20
97.36706986432828
 30
0.0
 40
4.762799999999999
  1
?
  7
CHINESET
100
AcDbText
  0
LINE
  5
1FFF
330
1F
100
AcDbEntity
  8
LOGO
 62
     4
100
AcDbLine
 10
310.4246085768854
 20
91.58111770751851
 30
0.0
 11
310.4246085768854
 21
81.60336265955422
 31
0.0
  0
LINE
  5
2000
330
1F
100
AcDbEntity
  8
LOGO
 62
     4
100
AcDbLine
 10
295.6455683015779
 20
91.58111770751851
 30
0.0
 11
295.6455683015779
 21
81.60336265955422
 31
0.0
  0
LINE
  5
2001
330
1F
100
AcDbEntity
  8
LOGO
 62
     4
100
AcDbLine
 10
310.4246085768854
 20
81.60336265955422
 30
0.0
 11
295.6455683015779
 21
81.60336265955422
 31
0.0
  0
LINE
  5
2002
330
1F
100
AcDbEntity
  8
LOGO
 62
     4
100
AcDbLine
 10
310.4246085768854
 20
91.58111770751851
 30
0.0
 11
295.6455683015779
 21
91.58111770751851
 31
0.0
  0
TEXT
  5
2003
330
1F
100
AcDbEntity
  8
LOGO
  6
Continuous
100
AcDbText
 10
298.858151307154
 20
83.0117016262533
 30
178.3433532142757
 40
2.041199999999999
  1
Voltage
 41
0.8
  7
CHINESET
100
AcDbText
  0
TEXT
  5
2004
330
1F
100
AcDbEntity
  8
LOGO
100
AcDbText
 10
300.056434118024
 20
86.795646516256
 30
178.3433532142757
 40
3.402
  1
電壓
  7
CHINESET
100
AcDbText
  0
LINE
  5
2005
330
1F
100
AcDbEntity
  8
LOGO
 62
     4
100
AcDbLine
 10
298.9037001431656
 20
95.66292659077612
 30
0.0
 11
298.9037001431656
 21
91.58111770751871
 31
0.0
  0
TEXT
  5
2006
330
1F
100
AcDbEntity
  8
LOGO
100
AcDbText
 10
184.8226994398467
 20
80.78336186791247
 30
0.0
 40
2.7216
  1
10710032
 41
0.7
  7
CHINESET
 72
     1
 11
191.4452594398467
 21
80.78336186791247
 31
0.0
100
AcDbText
  0
LINE
  5
2007
330
1F
100
AcDbEntity
  8
LOGO
 62
     4
100
AcDbLine
 10
199.8914698072895
 20
84.77810290208887
 30
0.0
 11
199.8914698072908
 21
79.33569105774461
 31
0.0
  0
LINE
  5
2008
330
1F
100
AcDbEntity
  8
LOGO
 62
     4
100
AcDbLine
 10
199.8914698072895
 20
84.77810290208887
 30
0.0
 11
183.5618698072905
 21
84.77810290208887
 31
0.0
  0
CIRCLE
  5
2009
330
1F
100
AcDbEntity
  8
LOGO
  6
Continuous
100
AcDbCircle
 10
170.4591501207683
 20
98.38995319232889
 30
0.0
 40
1.579996208380315
  0
CIRCLE
  5
200A
330
1F
100
AcDbEntity
  8
LOGO
  6
Continuous
100
AcDbCircle
 10
170.4591501207683
 20
98.38995319232889
 30
0.0
 40
0.9257379089601444
  0
LINE
  5
200B
330
1F
100
AcDbEntity
  8
LOGO
100
AcDbLine
 10
180.3880296292373
 20
96.80995698394838
 30
0.0
 11
180.3880296292373
 21
99.96994940070951
 31
0.0
  0
LINE
  5
200C
330
1F
100
AcDbEntity
  8
LOGO
100
AcDbLine
 10
175.4348322120752
 20
97.46421528336897
 30
0.0
 11
175.4348322120752
 21
99.31569110128926
 31
0.0
  0
LINE
  5
200D
330
1F
100
AcDbEntity
  8
LOGO
  6
Continuous
100
AcDbLine
 10
175.4348322120752
 20
99.31569110128926
 30
0.0
 11
180.3880296292373
 21
99.96994940070951
 31
0.0
  0
LINE
  5
200E
330
1F
100
AcDbEntity
  8
LOGO
  6
Continuous
100
AcDbLine
 10
175.4348322120752
 20
97.46421528336897
 30
0.0
 11
180.3880296292373
 21
96.80995698394838
 31
0.0
  0
LINE
  5
200F
330
1F
100
AcDbEntity
  8
LOGO
  6
AM_ISO08W050x2
 48
0.3
100
AcDbLine
 10
168.2811016889362
 20
98.38995319232889
 30
0.0
 11
172.6371985526008
 21
98.38995319232889
 31
0.0
1001
GENIUS_GENOREF_13
1005
2026
  0
LINE
  5
2010
330
1F
100
AcDbEntity
  8
LOGO
  6
AM_ISO08W050x2
 48
0.3
100
AcDbLine
 10
170.4591501207683
 20
96.21190476049653
 30
0.0
 11
170.4591501207683
 21
100.5680016241614
 31
0.0
1001
GENIUS_GENOREF_13
1005
2025
  0
LINE
  5
2011
330
1F
100
AcDbEntity
  8
LOGO
  6
CENTER
 48
0.5
100
AcDbLine
 10
175.0387140921803
 20
98.38995319232889
 30
0.0
 11
180.8868005748188
 21
98.38995319232889
 31
0.0
1001
GENIUS_GENOREF_13
1005
2024
  0
LINE
  5
2012
330
1F
100
AcDbEntity
  8
LOGO
  6
Continuous
 62
     7
100
AcDbLine
 10
306.8888065738964
 20
99.71581864974861
 30
0.0
 11
310.4935623024136
 21
99.71581864974861
 31
0.0
  0
LINE
  5
2013
330
1F
100
AcDbEntity
  8
LOGO
 62
     4
100
AcDbLine
 10
318.8170164414937
 20
103.8265443572918
 30
0.0
 11
311.6306727167462
 21
103.8265443572918
 31
0.0
  0
LINE
  5
2014
330
1F
100
AcDbEntity
  8
LOGO
 62
     4
100
AcDbLine
 10
318.8170164414937
 20
95.66292659077612
 30
0.0
 11
311.6306727167462
 21
95.66292659077612
 31
0.0
  0
LINE
  5
2015
330
1F
100
AcDbEntity
  8
LOGO
 62
     4
100
AcDbLine
 10
311.6306727167462
 20
103.8265443572918
 30
0.0
 11
311.6306727167462
 21
95.66292659077612
 31
0.0
  0
LINE
  5
2016
330
1F
100
AcDbEntity
  8
LOGO
 62
     4
100
AcDbLine
 10
318.8170164414937
 20
103.8265443572918
 30
0.0
 11
318.8170164414937
 21
95.66292659077612
 31
0.0
  0
LINE
  5
2017
330
1F
100
AcDbEntity
  8
LOGO
 62
     4
100
AcDbLine
 10
315.22384457912
 20
95.66292659077612
 30
0.0
 11
315.22384457912
 21
91.58111770751842
 31
0.0
  0
LINE
  5
2018
330
1F
100
AcDbEntity
  8
LOGO
 62
     4
100
AcDbLine
 10
253.0866074455839
 20
93.62202214914727
 30
0.0
 11
244.2860945815687
 21
93.62202214914727
 31
0.0
  0
LINE
  5
2019
330
1F
100
AcDbEntity
  8
LOGO
 62
     4
100
AcDbLine
 10
244.2860945815687
 20
91.58111770751851
 30
0.0
 11
244.2860945815687
 21
93.62202214914727
 31
0.0
  0
LINE
  5
201A
330
1F
100
AcDbEntity
  8
LOGO
 62
     4
100
AcDbLine
 10
271.1423044367368
 20
93.62202214914727
 30
0.0
 11
261.577884027924
 21
93.62202214914727
 31
0.0
  0
LINE
  5
201B
330
1F
100
AcDbEntity
  8
LOGO
 62
     4
100
AcDbLine
 10
261.577884027924
 20
91.58111770751851
 30
0.0
 11
261.577884027924
 21
93.62202214914727
 31
0.0
  0
LINE
  5
201C
330
1F
100
AcDbEntity
  8
LOGO
 62
     4
100
AcDbLine
 10
333.2609828582537
 20
91.58111770751851
 30
0.0
 11
333.2609828582537
 21
81.60336265955422
 31
0.0
  0
LINE
  5
201D
330
1F
100
AcDbEntity
  8
LOGO
 62
     4
100
AcDbLine
 10
312.6718905934149
 20
91.58111770751851
 30
0.0
 11
312.6718905934149
 21
81.60336265955422
 31
0.0
  0
LINE
  5
201E
330
1F
100
AcDbEntity
  8
LOGO
 62
     4
100
AcDbLine
 10
333.2609828582537
 20
81.60336265955422
 30
0.0
 11
312.6718905934149
 21
81.60336265955422
 31
0.0
  0
LINE
  5
201F
330
1F
100
AcDbEntity
  8
LOGO
 62
     4
100
AcDbLine
 10
333.2609828582537
 20
91.58111770751851
 30
0.0
 11
312.6718905934149
 21
91.58111770751851
 31
0.0
  0
TEXT
  5
2020
330
1F
100
AcDbEntity
  8
LOGO
  6
Continuous
100
AcDbText
 10
314.7107251936654
 20
83.0117016262533
 30
178.3433532142757
 40
2.041199999999999
  1
DIN connector
 41
0.8
  7
CHINESET
100
AcDbText
  0
TEXT
  5
2021
330
1F
100
AcDbEntity
  8
LOGO
100
AcDbText
 10
320.2178866576268
 20
86.795646516256
 30
178.3433532142757
 40
3.402
  1
端子型
  7
CHINESET
100
AcDbText
  0
TEXT
  5
2022
330
1F
100
AcDbEntity
  8
LOGO
  6
Continuous
100
AcDbText
 10
314.6564286801007
 20
87.18795138141715
 30
178.3433532142757
 40
2.7216
  1
DIN
 41
0.8
  7
CHINESET
100
AcDbText
  0
LINE
  5
2023
330
1F
100
AcDbEntity
  8
LOGO
  6
Continuous
 62
     7
100
AcDbLine
 10
287.7087079690938
 20
99.71581864974861
 30
0.0
 11
291.313463697611
 21
99.71581864974861
 31
0.0
  0
POINT
  5
2024
330
1F
100
AcDbEntity
  8
0
 60
     1
100
AcDbPoint
 10
-2575.798116331794
 20
-835.2926705887913
 30
0.0
1001
GENIUS_GENOBJ-N-CRS_13
1002
{
1000
OWNER
1000
GEN
1002
}
1001
GENIUS_GENOLIS_13
1002
{
1000
ENT
1005
0
1005
0
1005
0
1005
2011
1002
}
1001
GENIUS_GENOENT_13
1002
{
1000
MYREF
1005
2024
1002
}
1002
{
1000
GRP
1005
0
1002
}
1001
GENIUS_GENODEF_13
1002
{
1000
HIER
1070
    10
1002
}
1002
{
1000
MANEDIT
1070
     1
1002
}
1002
{
1000
NOSEL
1070
     0
1002
}
1002
{
1000
BEHIND
1070
     0
1002
}
1002
{
1000
OTHER
1070
     0
1002
}
1002
{
1000
REACTOR
1002
}
  0
POINT
  5
2025
330
1F
100
AcDbEntity
  8
0
 60
     1
100
AcDbPoint
 10
-2587.122701554648
 20
-826.4170841101551
 30
0.0
1001
GENIUS_GENOBJ-N-CRS_13
1002
{
1000
OWNER
1000
GEN
1002
}
1001
GENIUS_GENOLIS_13
1002
{
1000
ENT
1005
0
1005
0
1005
0
1005
2010
1002
}
1001
GENIUS_GENOENT_13
1002
{
1000
MYREF
1005
2025
1002
}
1002
{
1000
GRP
1005
0
1002
}
1001
GENIUS_GENODEF_13
1002
{
1000
HIER
1070
    10
1002
}
1002
{
1000
MANEDIT
1070
     1
1002
}
1002
{
1000
NOSEL
1070
     0
1002
}
1002
{
1000
BEHIND
1070
     0
1002
}
1002
{
1000
OTHER
1070
     0
1002
}
1002
{
1000
REACTOR
1002
}
  0
POINT
  5
2026
330
1F
100
AcDbEntity
  8
0
 60
     1
100
AcDbPoint
 10
-2580.764027856812
 20
-835.2926705887913
 30
0.0
1001
GENIUS_GENOBJ-N-CRS_13
1002
{
1000
OWNER
1000
GEN
1002
}
1001
GENIUS_GENOLIS_13
1002
{
1000
ENT
1005
0
1005
0
1005
0
1005
200F
1002
}
1001
GENIUS_GENOENT_13
1002
{
1000
MYREF
1005
2026
1002
}
1002
{
1000
GRP
1005
0
1002
}
1001
GENIUS_GENODEF_13
1002
{
1000
HIER
1070
    10
1002
}
1002
{
1000
MANEDIT
1070
     1
1002
}
1002
{
1000
NOSEL
1070
     0
1002
}
1002
{
1000
BEHIND
1070
     0
1002
}
1002
{
1000
OTHER
1070
     0
1002
}
1002
{
1000
REACTOR
1002
}
  0
ENDSEC
  0
SECTION
  2
OBJECTS
  0
DICTIONARY
  5
C
330
0
100
AcDbDictionary
281
     1
  3
ACAD_COLOR
350
BE
  3
ACAD_GROUP
350
D
  3
ACAD_LAYOUT
350
1A
  3
ACAD_MATERIAL
350
BD
  3
ACAD_MLINESTYLE
350
17
  3
ACAD_PLOTSETTINGS
350
19
  3
ACAD_PLOTSTYLENAME
350
E
  3
ACAD_TABLESTYLE
350
11A
  3
ACDBHEADERROUNDTRIPXREC
350
2073
  3
AcDbVariableDictionary
350
94
  3
AcmDictionary
350
5B
  3
AMG
350
41
  3
AMGSNAPSETTINGS
350
1B8
  3
DWGPROPS
350
2072
  0
DICTIONARY
  5
3F9
330
2
100
AcDbDictionary
280
     1
281
     1
  3
ACAD_LAYERFILTERS
360
5B7
  3
ACAD_LAYERSTATES
360
1341
  3
ACLYDICTIONARY
360
5B6
  0
DICTIONARY
  5
8F
330
1F
100
AcDbDictionary
280
     1
281
     1
  0
DICTIONARY
  5
1D8F
330
1D8E
100
AcDbDictionary
280
     1
281
     1
  3
ACAD_DIMASSOC
360
1D90
  0
DICTIONARY
  5
BE
102
{ACAD_REACTORS
330
C
102
}
330
C
100
AcDbDictionary
281
     1
  0
DICTIONARY
  5
D
102
{ACAD_REACTORS
330
C
102
}
330
C
100
AcDbDictionary
281
     1
  0
DICTIONARY
  5
1A
102
{ACAD_REACTORS
330
C
102
}
330
C
100
AcDbDictionary
281
     1
  3
Model
350
22
  3
配置1
350
1E
  3
配置2
350
26
  0
DICTIONARY
  5
BD
102
{ACAD_REACTORS
330
C
102
}
330
C
100
AcDbDictionary
281
     1
  0
DICTIONARY
  5
17
102
{ACAD_REACTORS
330
C
102
}
330
C
100
AcDbDictionary
281
     1
  3
Standard
350
18
  0
DICTIONARY
  5
19
102
{ACAD_REACTORS
330
C
102
}
330
C
100
AcDbDictionary
281
     1
  0
ACDBDICTIONARYWDFLT
  5
E
102
{ACAD_REACTORS
330
C
102
}
330
C
100
AcDbDictionary
281
     1
  3
Normal
350
F
100
AcDbDictionaryWithDefault
340
F
  0
DICTIONARY
  5
11A
102
{ACAD_REACTORS
330
C
102
}
330
C
100
AcDbDictionary
281
     1
  3
Standard
350
11B
  0
DICTIONARY
  5
2073
102
{ACAD_REACTORS
330
C
102
}
330
C
100
AcDbDictionary
281
     1
  0
DICTIONARY
  5
94
102
{ACAD_REACTORS
330
C
102
}
330
C
100
AcDbDictionary
281
     1
  3
CTABLESTYLE
350
138
  3
DIMASSOC
350
96
  3
INDEXCTL
350
95
  3
PROJECTNAME
350
2070
  0
DICTIONARY
  5
5B
102
{ACAD_REACTORS
330
C
102
}
330
C
100
AcDbDictionary
281
     1
  3
AcmBOM
350
1B5
  3
AcmStdDictionary
350
61
  3
AMDTSECTSYM_ARROWCOLOR
350
123
  0
DICTIONARY
  5
41
102
{ACAD_REACTORS
330
C
102
}
330
C
100
AcDbDictionary
281
     1
  0
DICTIONARY
  5
1B8
102
{ACAD_REACTORS
330
C
102
}
330
C
100
AcDbDictionary
281
     1
  0
XRECORD
  5
2072
102
{ACAD_REACTORS
330
C
102
}
330
C
100
AcDbXrecord
280
     1
  1
DWGPROPS COOKIE
  2

  3

  4

  6

  7

  8

  9

300
AmdtFileType=84
301
=
302
=
303
=
304
=
305
=
306
=
307
=
308
=
309
=
 40
0.0091775231481481
 41
2454377.572832026
 42
2454377.582009178
  1

 90
        1
  0
DICTIONARY
  5
5B7
102
{ACAD_REACTORS
330
3F9
102
}
330
3F9
100
AcDbDictionary
281
     1
  0
DICTIONARY
  5
1341
102
{ACAD_REACTORS
330
3F9
102
}
330
3F9
100
AcDbDictionary
281
     1
  0
DICTIONARY
  5
5B6
102
{ACAD_REACTORS
330
3F9
102
}
330
3F9
100
AcDbDictionary
281
     1
1001
ACAD
1000
<All
  0
DIMASSOC
  5
1D90
102
{ACAD_REACTORS
330
1D8F
102
}
330
1D8F
100
AcDbDimAssoc
330
1D8E
 90
        2
 70
     0
 71
     0
  1
AcDbOsnapPointRef
 72
    13
331
1D66
 73
     0
 91
        0
 40
0.0
 10
0.0
 20
0.0
 30
2.000000000000000E+50
 75
     0
  0
LAYOUT
  5
22
102
{ACAD_XDICTIONARY
360
2076
102
}
102
{ACAD_REACTORS
330
1A
102
}
330
1A
100
AcDbPlotSettings
  1

  2
\\RD\EPSON Stylus C63 Series單色
  4
A4
  6

 40
3.757083177566528
 41
3.757076978683471
 42
3.757080078125
 43
3.757080078125
 44
209.9733276367187
 45
296.9683227539062
 46
0.0
 47
0.0
 48
0.0
 49
0.0
140
0.0
141
0.0
142
1.0
143
0.3405120737814363
 70
 11952
 72
     1
 73
     0
 74
     0
  7
單色出圖.ctb
 75
     0
147
2.936753428137963
148
-2047.07469463503
149
-1261.649717473083
100
AcDbLayout
  1
Model
 70
     1
 71
     0
 10
0.0
 20
0.0
 11
12.0
 21
9.0
 12
0.0
 22
0.0
 32
0.0
 14
0.0
 24
0.0
 34
0.0
 15
0.0
 25
0.0
 35
0.0
146
0.0
 13
0.0
 23
0.0
 33
0.0
 16
1.0
 26
0.0
 36
0.0
 17
0.0
 27
1.0
 37
0.0
 76
     0
330
1F
1001
ACAD_PSEXT
1000
\\RD\EPSON Stylus C63 Series單色
1000
EPSON Stylus C63 Series
1000
\\RD
1000

1070
     0
  0
LAYOUT
  5
1E
102
{ACAD_XDICTIONARY
360
2074
102
}
102
{ACAD_REACTORS
330
1A
102
}
330
1A
100
AcDbPlotSettings
  1

  2

  4

  6

 40
0.0
 41
0.0
 42
0.0
 43
0.0
 44
0.0
 45
0.0
 46
0.0
 47
0.0
 48
0.0
 49
0.0
140
0.0
141
0.0
142
1.0
143
1.0
 70
   688
 72
     0
 73
     0
 74
     5
  7
單色出圖.ctb
 75
    16
147
1.0
148
0.0
149
0.0
100
AcDbLayout
  1
配置1
 70
     1
 71
     1
 10
0.0
 20
0.0
 11
420.0
 21
297.0
 12
0.0
 22
0.0
 32
0.0
 14
1.000000000000000E+20
 24
1.000000000000000E+20
 34
1.000000000000000E+20
 15
-1.000000000000000E+20
 25
-1.000000000000000E+20
 35
-1.000000000000000E+20
146
0.0
 13
0.0
 23
0.0
 33
0.0
 16
1.0
 26
0.0
 36
0.0
 17
0.0
 27
1.0
 37
0.0
 76
     0
330
1B
  0
LAYOUT
  5
26
102
{ACAD_XDICTIONARY
360
2078
102
}
102
{ACAD_REACTORS
330
1A
102
}
330
1A
100
AcDbPlotSettings
  1

  2

  4

  6

 40
0.0
 41
0.0
 42
0.0
 43
0.0
 44
0.0
 45
0.0
 46
0.0
 47
0.0
 48
0.0
 49
0.0
140
0.0
141
0.0
142
1.0
143
1.0
 70
   688
 72
     0
 73
     0
 74
     5
  7
單色出圖.ctb
 75
    16
147
1.0
148
0.0
149
0.0
100
AcDbLayout
  1
配置2
 70
     1
 71
     2
 10
0.0
 20
0.0
 11
12.0
 21
9.0
 12
0.0
 22
0.0
 32
0.0
 14
0.0
 24
0.0
 34
0.0
 15
0.0
 25
0.0
 35
0.0
146
0.0
 13
0.0
 23
0.0
 33
0.0
 16
1.0
 26
0.0
 36
0.0
 17
0.0
 27
1.0
 37
0.0
 76
     0
330
23
  0
MLINESTYLE
  5
18
102
{ACAD_REACTORS
330
17
102
}
330
17
100
AcDbMlineStyle
  2
STANDARD
 70
     0
  3

 62
   256
 51
90.0
 52
90.0
 71
     2
 49
0.5
 62
   256
  6
BYLAYER
 49
-0.5
 62
   256
  6
BYLAYER
  0
ACDBPLACEHOLDER
  5
F
102
{ACAD_REACTORS
330
E
102
}
330
E
  0
TABLESTYLE
  5
11B
102
{ACAD_REACTORS
330
11A
102
}
330
11A
100
AcDbTableStyle
  3
Standard
 70
     0
 71
     0
 40
1.5
 41
1.5
280
     0
281
     0
  7
STANDARD
140
4.5
170
     2
 62
     0
 63
     7
283
     0
274
    -2
284
     1
 64
     0
275
    -2
285
     1
 65
     0
276
    -2
286
     1
 66
     0
277
    -2
287
     1
 67
     0
278
    -2
288
     1
 68
     0
279
    -2
289
     1
 69
     0
  7
STANDARD
140
6.0
170
     5
 62
     0
 63
     7
283
     0
274
    -2
284
     1
 64
     0
275
    -2
285
     1
 65
     0
276
    -2
286
     1
 66
     0
277
    -2
287
     1
 67
     0
278
    -2
288
     1
 68
     0
279
    -2
289
     1
 69
     0
  7
STANDARD
140
4.5
170
     5
 62
     0
 63
     7
283
     0
274
    -2
284
     1
 64
     0
275
    -2
285
     1
 65
     0
276
    -2
286
     1
 66
     0
277
    -2
287
     1
 67
     0
278
    -2
288
     1
 68
     0
279
    -2
289
     1
 69
     0
  0
DICTIONARYVAR
  5
138
102
{ACAD_REACTORS
330
94
102
}
330
94
100
DictionaryVariables
280
     0
  1
STANDARD
  0
DICTIONARYVAR
  5
96
102
{ACAD_REACTORS
330
94
102
}
330
94
100
DictionaryVariables
280
     0
  1
2
  0
DICTIONARYVAR
  5
95
102
{ACAD_REACTORS
330
94
102
}
330
94
100
DictionaryVariables
280
     0
  1
0
  0
DICTIONARYVAR
  5
2070
102
{ACAD_REACTORS
330
94
102
}
330
94
100
DictionaryVariables
280
     0
  1

  0
DICTIONARY
  5
1B5
102
{ACAD_REACTORS
330
5B
102
}
330
5B
100
AcDbDictionary
281
     1
  0
DICTIONARY
  5
61
102
{ACAD_REACTORS
330
5B
102
}
330
5B
100
AcDbDictionary
281
     1
  0
XRECORD
  5
123
102
{ACAD_REACTORS
330
5B
102
}
330
5B
100
AcDbXrecord
280
     1
 90
-1023410169
  0
DICTIONARY
  5
2076
330
22
100
AcDbDictionary
280
     1
281
     1
  3
ACAD_XREC_ROUNDTRIP
360
2077
  0
DICTIONARY
  5
2074
330
1E
100
AcDbDictionary
280
     1
281
     1
  3
ACAD_XREC_ROUNDTRIP
360
2075
  0
DICTIONARY
  5
2078
330
26
100
AcDbDictionary
280
     1
281
     1
  3
ACAD_XREC_ROUNDTRIP
360
2079
  0
XRECORD
  5
2077
102
{ACAD_REACTORS
330
2076
102
}
330
2076
100
AcDbXrecord
280
     1
102
SHADEPLOT
 70
     0
102
SHADEPLOTRESLEVEL
 70
     2
102
SHADEPLOTCUSTOMDPI
 70
   300
  0
XRECORD
  5
2075
102
{ACAD_REACTORS
330
2074
102
}
330
2074
100
AcDbXrecord
280
     1
102
SHADEPLOT
 70
     0
102
SHADEPLOTRESLEVEL
 70
     2
102
SHADEPLOTCUSTOMDPI
 70
   300
  0
XRECORD
  5
2079
102
{ACAD_REACTORS
330
2078
102
}
330
2078
100
AcDbXrecord
280
     1
102
SHADEPLOT
 70
     0
102
SHADEPLOTRESLEVEL
 70
     2
102
SHADEPLOTCUSTOMDPI
 70
   300
  0
ENDSEC
  0
EOF
