  0
SECTION
  2
HEADER
  9
$ACADVER
  1
AC1015
  9
$ACADMAINTVER
 70
    20
  9
$DWGCODEPAGE
  3
ANSI_950
  9
$INSBASE
 10
0.0
 20
0.0
 30
0.0
  9
$EXTMIN
 10
133.3283193357853
 20
60.90588824230713
 30
-0.0060468799812838
  9
$EXTMAX
 10
435.7488324096563
 20
409.0643621492926
 30
198.1653291519276
  9
$LIMMIN
 10
0.0
 20
0.0
  9
$LIMMAX
 10
420.0
 20
297.0
  9
$ORTHOMODE
 70
     1
  9
$REGENMODE
 70
     1
  9
$FILLMODE
 70
     1
  9
$QTEXTMODE
 70
     0
  9
$MIRRTEXT
 70
     1
  9
$LTSCALE
 40
1.0
  9
$ATTMODE
 70
     1
  9
$TEXTSIZE
 40
3.0
  9
$TRACEWID
 40
1.0
  9
$TEXTSTYLE
  7
STANDARD
  9
$CLAYER
  8
0
  9
$CELTYPE
  6
ByLayer
  9
$CECOLOR
 62
   256
  9
$CELTSCALE
 40
1.0
  9
$DISPSILH
 70
     0
  9
$DIMSCALE
 40
1.0
  9
$DIMASZ
 40
3.0
  9
$DIMEXO
 40
1.5
  9
$DIMDLI
 40
8.0
  9
$DIMRND
 40
0.0
  9
$DIMDLE
 40
0.0
  9
$DIMEXE
 40
1.5
  9
$DIMTP
 40
0.1
  9
$DIMTM
 40
0.1
  9
$DIMTXT
 40
3.5
  9
$DIMCEN
 40
0.0
  9
$DIMTSZ
 40
0.0
  9
$DIMTOL
 70
     0
  9
$DIMLIM
 70
     0
  9
$DIMTIH
 70
     0
  9
$DIMTOH
 70
     0
  9
$DIMSE1
 70
     0
  9
$DIMSE2
 70
     0
  9
$DIMTAD
 70
     1
  9
$DIMZIN
 70
     8
  9
$DIMBLK
  1

  9
$DIMASO
 70
     1
  9
$DIMSHO
 70
     1
  9
$DIMPOST
  1

  9
$DIMAPOST
  1
"
  9
$DIMALT
 70
     0
  9
$DIMALTD
 70
     2
  9
$DIMALTF
 40
0.0393701
  9
$DIMLFAC
 40
1.0
  9
$DIMTOFL
 70
     1
  9
$DIMTVP
 40
0.0
  9
$DIMTIX
 70
     0
  9
$DIMSOXD
 70
     0
  9
$DIMSAH
 70
     0
  9
$DIMBLK1
  1

  9
$DIMBLK2
  1

  9
$DIMSTYLE
  2
AM_ISO
  9
$DIMCLRD
 70
   256
  9
$DIMCLRE
 70
   256
  9
$DIMCLRT
 70
   256
  9
$DIMTFAC
 40
0.6
  9
$DIMGAP
 40
1.0
  9
$DIMJUST
 70
     0
  9
$DIMSD1
 70
     0
  9
$DIMSD2
 70
     0
  9
$DIMTOLJ
 70
     0
  9
$DIMTZIN
 70
     8
  9
$DIMALTZ
 70
     0
  9
$DIMALTTZ
 70
     0
  9
$DIMUPT
 70
     0
  9
$DIMDEC
 70
     2
  9
$DIMTDEC
 70
     8
  9
$DIMALTU
 70
     2
  9
$DIMALTTD
 70
     2
  9
$DIMTXSTY
  7
STANDARD
  9
$DIMAUNIT
 70
     0
  9
$DIMADEC
 70
     0
  9
$DIMALTRND
 40
0.0
  9
$DIMAZIN
 70
     2
  9
$DIMDSEP
 70
    46
  9
$DIMATFIT
 70
     3
  9
$DIMFRAC
 70
     0
  9
$DIMLDRBLK
  1

  9
$DIMLUNIT
 70
     2
  9
$DIMLWD
 70
    -1
  9
$DIMLWE
 70
    -1
  9
$DIMTMOVE
 70
     0
  9
$LUNITS
 70
     2
  9
$LUPREC
 70
     2
  9
$SKETCHINC
 40
1.0
  9
$FILLETRAD
 40
2.5
  9
$AUNITS
 70
     0
  9
$AUPREC
 70
     0
  9
$MENU
  1
.
  9
$ELEVATION
 40
0.0
  9
$PELEVATION
 40
0.0
  9
$THICKNESS
 40
0.0
  9
$LIMCHECK
 70
     0
  9
$CHAMFERA
 40
2.5
  9
$CHAMFERB
 40
2.5
  9
$CHAMFERC
 40
20.0
  9
$CHAMFERD
 40
0.0
  9
$SKPOLY
 70
     0
  9
$TDCREATE
 40
2454377.561548391
  9
$TDUCREATE
 40
2454377.228215058
  9
$TDUPDATE
 40
2454377.580464224
  9
$TDUUPDATE
 40
2454377.247130892
  9
$TDINDWG
 40
0.0185393056
  9
$TDUSRTIMER
 40
0.0185393056
  9
$USRTIMER
 70
     1
  9
$ANGBASE
 50
0.0
  9
$ANGDIR
 70
     0
  9
$PDMODE
 70
     0
  9
$PDSIZE
 40
0.0
  9
$PLINEWID
 40
0.0
  9
$SPLFRAME
 70
     0
  9
$SPLINETYPE
 70
     6
  9
$SPLINESEGS
 70
     8
  9
$HANDSEED
  5
17E4
  9
$SURFTAB1
 70
     6
  9
$SURFTAB2
 70
     6
  9
$SURFTYPE
 70
     6
  9
$SURFU
 70
     6
  9
$SURFV
 70
     6
  9
$UCSBASE
  2

  9
$UCSNAME
  2

  9
$UCSORG
 10
0.0
 20
0.0
 30
0.0
  9
$UCSXDIR
 10
1.0
 20
0.0
 30
0.0
  9
$UCSYDIR
 10
0.0
 20
1.0
 30
0.0
  9
$UCSORTHOREF
  2

  9
$UCSORTHOVIEW
 70
     0
  9
$UCSORGTOP
 10
0.0
 20
0.0
 30
0.0
  9
$UCSORGBOTTOM
 10
0.0
 20
0.0
 30
0.0
  9
$UCSORGLEFT
 10
0.0
 20
0.0
 30
0.0
  9
$UCSORGRIGHT
 10
0.0
 20
0.0
 30
0.0
  9
$UCSORGFRONT
 10
0.0
 20
0.0
 30
0.0
  9
$UCSORGBACK
 10
0.0
 20
0.0
 30
0.0
  9
$PUCSBASE
  2

  9
$PUCSNAME
  2

  9
$PUCSORG
 10
0.0
 20
0.0
 30
0.0
  9
$PUCSXDIR
 10
1.0
 20
0.0
 30
0.0
  9
$PUCSYDIR
 10
0.0
 20
1.0
 30
0.0
  9
$PUCSORTHOREF
  2

  9
$PUCSORTHOVIEW
 70
     0
  9
$PUCSORGTOP
 10
0.0
 20
0.0
 30
0.0
  9
$PUCSORGBOTTOM
 10
0.0
 20
0.0
 30
0.0
  9
$PUCSORGLEFT
 10
0.0
 20
0.0
 30
0.0
  9
$PUCSORGRIGHT
 10
0.0
 20
0.0
 30
0.0
  9
$PUCSORGFRONT
 10
0.0
 20
0.0
 30
0.0
  9
$PUCSORGBACK
 10
0.0
 20
0.0
 30
0.0
  9
$USERI1
 70
     0
  9
$USERI2
 70
     0
  9
$USERI3
 70
     0
  9
$USERI4
 70
     0
  9
$USERI5
 70
     0
  9
$USERR1
 40
0.0
  9
$USERR2
 40
0.0
  9
$USERR3
 40
0.0
  9
$USERR4
 40
0.0
  9
$USERR5
 40
0.0
  9
$WORLDVIEW
 70
     1
  9
$SHADEDGE
 70
     3
  9
$SHADEDIF
 70
    70
  9
$TILEMODE
 70
     1
  9
$MAXACTVP
 70
    64
  9
$PINSBASE
 10
0.0
 20
0.0
 30
0.0
  9
$PLIMCHECK
 70
     0
  9
$PEXTMIN
 10
1.000000000000000E+20
 20
1.000000000000000E+20
 30
1.000000000000000E+20
  9
$PEXTMAX
 10
-1.000000000000000E+20
 20
-1.000000000000000E+20
 30
-1.000000000000000E+20
  9
$PLIMMIN
 10
0.0
 20
0.0
  9
$PLIMMAX
 10
420.0
 20
297.0
  9
$UNITMODE
 70
     0
  9
$VISRETAIN
 70
     1
  9
$PLINEGEN
 70
     0
  9
$PSLTSCALE
 70
     1
  9
$TREEDEPTH
 70
  3020
  9
$CMLSTYLE
  2
Standard
  9
$CMLJUST
 70
     0
  9
$CMLSCALE
 40
20.0
  9
$PROXYGRAPHICS
 70
     1
  9
$MEASUREMENT
 70
     1
  9
$CELWEIGHT
370
    -1
  9
$ENDCAPS
280
     0
  9
$JOINSTYLE
280
     0
  9
$LWDISPLAY
290
     0
  9
$INSUNITS
 70
     4
  9
$HYPERLINKBASE
  1

  9
$STYLESHEET
  1
彩色出圖.ctb
  9
$XEDIT
290
     1
  9
$CEPSNTYPE
380
     0
  9
$PSTYLEMODE
290
     1
  9
$FINGERPRINTGUID
  2
{67AB8593-D66E-49E5-9B36-E8C717CBC53F}
  9
$VERSIONGUID
  2
{809AB66F-E394-4671-A3F3-D141B84AA41B}
  9
$EXTNAMES
290
     1
  9
$PSVPSCALE
 40
0.0
  9
$OLESTARTUP
290
     0
  0
ENDSEC
  0
SECTION
  2
CLASSES
  0
CLASS
  1
ACDBDICTIONARYWDFLT
  2
AcDbDictionaryWithDefault
  3
ObjectDBX Classes
 90
        0
280
     0
281
     0
  0
CLASS
  1
ACDBPLACEHOLDER
  2
AcDbPlaceHolder
  3
ObjectDBX Classes
 90
        0
280
     0
281
     0
  0
CLASS
  1
LAYOUT
  2
AcDbLayout
  3
ObjectDBX Classes
 90
        0
280
     0
281
     0
  0
CLASS
  1
ACME_DOCUMENT
  2
AcMeDbDoc
  3
AcMeServices
 90
        0
280
     0
281
     0
  0
CLASS
  1
AMGSETTINGSOBJ
  2
AmgSettingsObj
  3
"AcadM|Product Description: AutoCAD Mechanical 2000|Company: Autodesk"
 90
        0
280
     0
281
     0
  0
CLASS
  1
ACMESCOPE
  2
AcMeScope
  3
AcMeServices
 90
        0
280
     0
281
     0
  0
CLASS
  1
ACMECOMMANDHISTORY
  2
AcMeCommandHistory
  3
AcMeServices
 90
        0
280
     0
281
     0
  0
CLASS
  1
ACIMSYSVARMAN
  2
AcImSysVarManager
  3
AcMeServices
 90
        0
280
     0
281
     0
  0
CLASS
  1
ACIMREALSYSVAR
  2
AcImRealSysVar
  3
AcMeServices
 90
        0
280
     0
281
     0
  0
CLASS
  1
ACIMINTSYSVAR
  2
AcImIntSysVar
  3
AcMeServices
 90
        0
280
     0
281
     0
  0
CLASS
  1
ACMEDRAWINGMAN
  2
AcMeDrawingMan
  3
AcMeServices
 90
        0
280
     0
281
     0
  0
CLASS
  1
ACMEVIEW
  2
AcMeView
  3
AcMeServices
 90
        0
280
     0
281
     0
  0
CLASS
  1
ACDBENTITYCACHE
  2
AcMeEntityCache
  3
AcMeServices
 90
        0
280
     0
281
     0
  0
CLASS
  1
GSMANAGER
  2
AcMeGSManager
  3
AcMeServices
 90
        0
280
     0
281
     0
  0
CLASS
  1
AMDTINTERNALREACTOR
  2
AmdtInternalReactor
  3
AcMeServices
 90
        0
280
     0
281
     0
  0
CLASS
  1
ACMESTATEMGR
  2
AcMeStateMgr
  3
AcMeServices
 90
        0
280
     0
281
     0
  0
CLASS
  1
ACGREFMASTER
  2
AcGrefMaster
  3
AcAttribServices
 90
        0
280
     0
281
     0
  0
CLASS
  1
ACME_DATABASE
  2
AcMeDbDatabase
  3
AcMeServices
 90
        0
280
     0
281
     0
  0
CLASS
  1
ACRFINSADJUSTERMGR
  2
AcRfInsAdjusterMgr
  3
AcMeServices
 90
        0
280
     0
281
     0
  0
CLASS
  1
ACGREFACADMASTER
  2
AcGrefacadMaster
  3
AcGrefServices
 90
        0
280
     0
281
     0
  0
CLASS
  1
AMIMASTER
  2
AmiMaster
  3
AmiServices
 90
        0
280
     0
281
     0
  0
CLASS
  1
ACMDATADICTIONARY
  2
AcmDataDictionary
  3
"AcmSymBB|Product Description: AutoCAD Mechanical 2004 DX|Company: Autodesk"
 90
        0
280
     0
281
     0
  0
CLASS
  1
ACMDATAENTRYBLOCK
  2
AcmDataEntryBlock
  3
"AcmSymBB|Product Description: AutoCAD Mechanical 2004 DX|Company: Autodesk"
 90
        0
280
     0
281
     0
  0
CLASS
  1
ACIMSTRSYSVAR
  2
AcImStrSysVar
  3
AcMeServices
 90
        0
280
     0
281
     0
  0
CLASS
  1
ACMSTANDARDISO
  2
AcmStandardISO
  3
"Amdt_StdImp|Product Description: AutoCAD Mechanical 2004 DX|Company: Autodesk"
 90
        0
280
     0
281
     0
  0
CLASS
  1
AMGOBJPROPCFG
  2
AmgObjPropCfg
  3
"AmgLay|Product Description: AutoCAD Mechanical 2000|Company: Autodesk"
 90
        1
280
     0
281
     0
  0
CLASS
  1
AMDTEDGESTANDARDISO
  2
AmdtEdgeStdISO
  3
"Amdt_StdImp|Product Description: AutoCAD Mechanical 2004 DX|Company: Autodesk"
 90
        0
280
     0
281
     0
  0
CLASS
  1
ACMSURFSTANDARDISO
  2
AcmSurfTextStdISO
  3
"Amdt_StdImp|Product Description: AutoCAD Mechanical 2004 DX|Company: Autodesk"
 90
        0
280
     0
281
     0
  0
CLASS
  1
ACMFCFSTANDARDISO
  2
AcmFCFStdISO
  3
"Amdt_StdImp|Product Description: AutoCAD Mechanical 2004 DX|Company: Autodesk"
 90
        0
280
     0
281
     0
  0
CLASS
  1
ACMWELDSTANDARDISO
  2
AcmWeldingStdISO
  3
"Amdt_StdImp|Product Description: AutoCAD Mechanical 2004 DX|Company: Autodesk"
 90
        0
280
     0
281
     0
  0
CLASS
  1
ACMIDSTANDARDISO
  2
AcmIdStdISO
  3
"Amdt_StdImp|Product Description: AutoCAD Mechanical 2004 DX|Company: Autodesk"
 90
        0
280
     0
281
     0
  0
CLASS
  1
ACMDATUMSTANDARDISO
  2
AcmDatumStdISO
  3
"Amdt_StdImp|Product Description: AutoCAD Mechanical 2004 DX|Company: Autodesk"
 90
        0
280
     0
281
     0
  0
CLASS
  1
ACMBOMSTANDARDISO
  2
AcmBOMStdISO
  3
"Amdt_StdImp|Product Description: AutoCAD Mechanical 2004 DX|Company: Autodesk"
 90
        0
280
     0
281
     0
  0
CLASS
  1
ACMDETAILSTANDARDISO
  2
AmdtDetailSymStdISO
  3
"Amdt_StdImp|Product Description: AutoCAD Mechanical 2004 DX|Company: Autodesk"
 90
        0
280
     0
281
     0
  0
CLASS
  1
ACMSECTIONSTANDARDISO
  2
AmdtSectionSymStdISO
  3
"Amdt_StdImp|Product Description: AutoCAD Mechanical 2004 DX|Company: Autodesk"
 90
        0
280
     0
281
     0
  0
CLASS
  1
ACMCENTERLINESTANDARDISO
  2
AmdtCenterLineStdISO
  3
"Amdt_StdImp|Product Description: AutoCAD Mechanical 2004 DX|Company: Autodesk"
 90
        0
280
     0
281
     0
  0
CLASS
  1
ACMNOTESTANDARDISO
  2
AmdtNoteStdISO
  3
"Amdt_StdImp|Product Description: AutoCAD Mechanical 2004 DX|Company: Autodesk"
 90
        0
280
     0
281
     0
  0
CLASS
  1
ACAMGLAYSTD
  2
AcAmgLayStd
  3
"AcAmgLayStd|Product Description: AutoCAD Mechanical 2000|Company: Autodesk"
 90
        0
280
     0
281
     0
  0
CLASS
  1
ACAMGDIMSTD
  2
AcAmgDimStd
  3
"AcAmgDimStd|Product Description: AutoCAD Mechanical 2000|Company: Autodesk"
 90
        0
280
     0
281
     0
  0
CLASS
  1
ACAMGHOLECHARTSTDISO
  2
AcAmgHoleChartStdISO
  3
ACMSYMBB_MODULE_NAME
 90
        0
280
     0
281
     0
  0
CLASS
  1
ACAMGTITLESTD
  2
AcAmgTitleStd
  3
"TITLEAPP"
 90
        0
280
     0
281
     0
  0
CLASS
  1
LAYER_INDEX
  2
AcDbLayerIndex
  3
ObjectDBX Classes
 90
    32768
280
     0
281
     0
  0
CLASS
  1
IDBUFFER
  2
AcDbIdBuffer
  3
ObjectDBX Classes
 90
    32768
280
     0
281
     0
  0
CLASS
  1
DICTIONARYVAR
  2
AcDbDictionaryVar
  3
ObjectDBX Classes
 90
        0
280
     0
281
     0
  0
CLASS
  1
AM_DRAWING_MGR
  2
AcDmDwgMgr
  3
AcMechDwgViewMgmt
 90
        0
280
     0
281
     0
  0
CLASS
  1
AM_DWG_DOCUMENT
  2
AcDmDwgDocument
  3
AcMechDwgViewMgmt
 90
        0
280
     0
281
     0
  0
CLASS
  1
AM_DWG_SHEET
  2
AcDmSheet
  3
AcMechDwgViewMgmt
 90
        0
280
     0
281
     0
  0
CLASS
  1
AM_VIEWDIMPARMAP
  2
AcDmViewDimParMap
  3
AcMechDwgViewMgmt
 90
        0
280
     0
281
     0
  0
CLASS
  1
AM_DWGMGR_NAME
  2
AcDmDwgMgrName
  3
AcMechDwgViewMgmt
 90
        0
280
     0
281
     0
  0
CLASS
  1
AMDTMENUSTATEMGR
  2
AmdtMenuStateMgr
  3
McadcomServices
 90
        0
280
     0
281
     0
  0
CLASS
  1
AMDTMCOMMENUSTATE
  2
AmdtMcomMenuState
  3
McadcomServices
 90
        0
280
     0
281
     0
  0
CLASS
  1
MAPIAMMOUDLE
  2
MApiAmModule
  3
MApiAmServices
 90
        0
280
     0
281
     0
  0
CLASS
  1
AMDTADMENUSTATE
  2
AmdtAdMenuState
  3
DesignerServices
 90
        0
280
     0
281
     0
  0
CLASS
  1
ADAPPL
  2
AcAdAppl
  3
DesignerServices
 90
        0
280
     0
281
     0
  0
CLASS
  1
DEPMGR
  2
AcAdDepMgr
  3
DesignerServices
 90
        0
280
     0
281
     0
  0
CLASS
  1
PARAMMGR
  2
AcAdParamMgr
  3
DesignerServices
 90
        0
280
     0
281
     0
  0
CLASS
  1
PARAMSCOPE
  2
AcAdParamScope
  3
DesignerServices
 90
        0
280
     0
281
     0
  0
CLASS
  1
NAMEDAPPL
  2
AcAdNamedAppl
  3
DesignerServices
 90
        0
280
     0
281
     0
  0
CLASS
  1
AMDTDMMENUSTATE
  2
AmdtDmMenuState
  3
AcMechDwgViewMgmt
 90
        0
280
     0
281
     0
  0
CLASS
  1
AMDTAMMENUSTATE
  2
AmdtAmMenuState
  3
DesignerAssemblies
 90
        0
280
     0
281
     0
  0
CLASS
  1
ACAMPROJECT
  2
AcAmProject
  3
DesignerAssemblies
 90
        0
280
     0
281
     0
  0
CLASS
  1
ACAMGRCOMPDEF
  2
AcAmGrCompDef
  3
DesignerAssemblies
 90
        0
280
     0
281
     0
  0
CLASS
  1
ACCMCONTEXT
  2
AcCmContext
  3
DesignerAssemblies
 90
        0
280
     0
281
     0
  0
CLASS
  1
ACAMCOMPDEF
  2
AcAmCompDef
  3
DesignerAssemblies
 90
        0
280
     0
281
     0
  0
CLASS
  1
ACAMCOMPDEFMGR
  2
AcAmCompDefMgr
  3
DesignerAssemblies
 90
        0
280
     0
281
     0
  0
CLASS
  1
AMCONTEXTMGR
  2
AcAmContextMgr
  3
DesignerAssemblies
 90
        0
280
     0
281
     0
  0
CLASS
  1
ACAMCONTEXTMODELER
  2
AcAmContextModeler
  3
DesignerAssemblies
 90
        0
280
     0
281
     0
  0
CLASS
  1
ACMTHREADLINESTANDARDISO
  2
AmdtThreadLineStdISO
  3
"Amdt_StdImp|Product Description: AutoCAD Mechanical 2004 DX|Company: Autodesk"
 90
        0
280
     0
281
     0
  0
CLASS
  1
CATALOGSTATE
  2
AcAmCatalogState
  3
DesignerAssemblies
 90
        0
280
     0
281
     0
  0
CLASS
  1
ACAMGRCOMPDEFSET
  2
AcAmGrCompDefSet
  3
DesignerAssemblies
 90
        0
280
     0
281
     0
  0
CLASS
  1
AMDTBROWSERDBTAB
  2
AmdtBrowserDbTab
  3
McadcomServices
 90
        0
280
     0
281
     0
  0
CLASS
  1
CBROWSERAPPOBJECT
  2
CBrowserAppObject
  3
McadcomServices
 90
        0
280
     0
281
     0
  0
CLASS
  1
DM_PLACEHOLDER
  2
AcDmSelsetPlaceholder
  3
AcMechDwgViewMgmt
 90
        0
280
     0
281
     0
  0
CLASS
  1
TABLESTYLE
  2
AcDbTableStyle
  3
ObjectDBX Classes
 90
     2047
280
     0
281
     0
  0
CLASS
  1
VAACXREFPANELOBJECT
  2
VaAcXREFPanelObject
  3
VAAC_ADDIN
 90
    32768
280
     0
281
     0
  0
CLASS
  1
VAACIMAGEINVENTORY
  2
VaAcImageInventory
  3
VAAC_ADDIN
 90
    32768
280
     0
281
     0
  0
CLASS
  1
AMDTNOTETEMPLATEDB
  2
AmdtNoteTemplateDB
  3
AMDT_STDIMP_MODULE_NAME
 90
        0
280
     0
281
     0
  0
CLASS
  1
ACMBOM
  2
AcmBom
  3
"AcmSymBB|Product Description: AutoCAD Mechanical 2004 DX|Company: Autodesk"
 90
    32768
280
     0
281
     0
  0
CLASS
  1
AMDTFORMULAUPDATEDISPATCHER
  2
AmdtFormulaUpdateDispatcher
  3
AcMeServices
 90
    32768
280
     0
281
     0
  0
CLASS
  1
ACMPARTLIST
  2
AcmPartList
  3
"AcmSymBB|Product Description: AutoCAD Mechanical 2004 DX|Company: Autodesk"
 90
    33791
280
     0
281
     1
  0
CLASS
  1
ACAMGFILTERDAT
  2
AcAmgFilterDat
  3
"AcadM|Product Description: AutoCAD Mechanical 2000|Company: Autodesk"
 90
        0
280
     0
281
     0
  0
CLASS
  1
DIMASSOC
  2
AcDbDimAssoc
  3
"AcDbDimAssoc|Product Desc:     AcDim ARX App For Dimension|Company:          Autodesk, Inc.|WEB Address:      www.autodesk.com"
 90
        0
280
     0
281
     0
  0
CLASS
  1
AMDTNOTE
  2
AmdtNote
  3
"AcmSymBB|Product Description: AutoCAD Mechanical 2004 DX|Company: Autodesk"
 90
     1023
280
     0
281
     1
  0
CLASS
  1
SORTENTSTABLE
  2
AcDbSortentsTable
  3
ObjectDBX Classes
 90
    32768
280
     0
281
     0
  0
CLASS
  1
ACRFATTGENMGR
  2
AcRfAttGeneralMgr
  3
AcAttribServices
 90
        0
280
     0
281
     0
  0
ENDSEC
  0
SECTION
  2
TABLES
  0
TABLE
  2
VPORT
  5
8
330
0
100
AcDbSymbolTable
 70
    10
  0
VPORT
  5
17DB
330
8
100
AcDbSymbolTableRecord
100
AcDbViewportTableRecord
  2
*Active
 70
     0
 10
0.0
 20
0.0
 11
1.0
 21
1.0
 12
284.5355338019205
 22
234.9872211566998
 13
0.0
 23
0.0
 14
2.5
 24
2.5
 15
10.0
 25
10.0
 16
0.0
 26
0.0
 36
1.0
 17
0.0
 27
0.0
 37
0.0
 40
350.9634734824451
 41
1.421195652173913
 42
50.0
 43
0.0
 44
0.0
 50
0.0
 51
0.0
 71
     0
 72
   100
 73
     1
 74
     3
 75
     0
 76
     0
 77
     0
 78
     0
281
     0
 65
     1
110
0.0
120
0.0
130
0.0
111
1.0
121
0.0
131
0.0
112
0.0
122
1.0
132
0.0
 79
     0
146
0.0
  0
ENDTAB
  0
TABLE
  2
LTYPE
  5
5
330
0
100
AcDbSymbolTable
 70
    14
  0
LTYPE
  5
14
330
5
100
AcDbSymbolTableRecord
100
AcDbLinetypeTableRecord
  2
ByBlock
 70
     0
  3

 72
    65
 73
     0
 40
0.0
  0
LTYPE
  5
15
330
5
100
AcDbSymbolTableRecord
100
AcDbLinetypeTableRecord
  2
ByLayer
 70
     0
  3

 72
    65
 73
     0
 40
0.0
  0
LTYPE
  5
16
330
5
100
AcDbSymbolTableRecord
100
AcDbLinetypeTableRecord
  2
Continuous
 70
     0
  3
Solid line
 72
    65
 73
     0
 40
0.0
  0
LTYPE
  5
64
330
5
100
AcDbSymbolTableRecord
100
AcDbLinetypeTableRecord
  2
AM_ISO02W050
 70
     0
  3
__ __ __ __ __ __ __ __ __ __ __ __ __ __ __
 72
    65
 73
     2
 40
7.5
 49
6.0
 74
     0
 49
-1.5
 74
     0
  0
LTYPE
  5
65
330
5
100
AcDbSymbolTableRecord
100
AcDbLinetypeTableRecord
  2
AM_ISO08W050
 70
     0
  3
____ . ____ . ____ . ____ . ____ . ____ . ____
 72
    65
 73
     4
 40
18.0
 49
12.0
 74
     0
 49
-1.5
 74
     0
 49
3.0
 74
     0
 49
-1.5
 74
     0
  0
LTYPE
  5
66
330
5
100
AcDbSymbolTableRecord
100
AcDbLinetypeTableRecord
  2
AM_ISO09W050
 70
     0
  3
_____ . . _____ . . _____ . . ____ .. ____
 72
    65
 73
     6
 40
22.5
 49
12.0
 74
     0
 49
-1.5
 74
     0
 49
3.0
 74
     0
 49
-1.5
 74
     0
 49
3.0
 74
     0
 49
-1.5
 74
     0
  0
LTYPE
  5
67
330
5
100
AcDbSymbolTableRecord
100
AcDbLinetypeTableRecord
  2
Amconstr
 70
     0
  3
_______________________
 72
    65
 73
     2
 40
9999.0
 49
9999.0
 74
     0
 49
0.0
 74
     0
  0
LTYPE
  5
68
330
5
100
AcDbSymbolTableRecord
100
AcDbLinetypeTableRecord
  2
AM_ISO08W050x2
 70
     0
  3
__ . __ . __ . __ . __ . __
 72
    65
 73
     4
 40
9.0
 49
6.0
 74
     0
 49
-0.75
 74
     0
 49
1.5
 74
     0
 49
-0.75
 74
     0
  0
LTYPE
  5
69
330
5
100
AcDbSymbolTableRecord
100
AcDbLinetypeTableRecord
  2
AM_ISO02W050x2
 70
     0
  3
 _ _ _ _ _ _ _ _ _ _ _ _
 72
    65
 73
     2
 40
3.75
 49
3.0
 74
     0
 49
-0.75
 74
     0
  0
LTYPE
  5
6C
330
5
100
AcDbSymbolTableRecord
100
AcDbLinetypeTableRecord
  2
Amzigzag
 70
     0
  3
/\/-/\/-/\/-/\/-/\/-/\/
 72
    65
 73
     2
 40
11.0001
 49
0.0001
 74
     4
 75
   135
340
6B
 46
0.04
 50
0.0
 44
0.0
 45
0.0
 49
-11.0
 74
     0
  0
LTYPE
  5
7A
330
5
100
AcDbSymbolTableRecord
100
AcDbLinetypeTableRecord
  2
ACISOWELD
 70
     0
  3
_ _ _ _ _
 72
    65
 73
     2
 40
2.0
 49
2.0
 74
     0
 49
-1.0
 74
     0
  0
LTYPE
  5
7B
330
5
100
AcDbSymbolTableRecord
100
AcDbLinetypeTableRecord
  2
ACISOTGB
 70
     0
  3
__ . . __ . .
 72
    65
 73
     6
 40
9.0
 49
4.0
 74
     0
 49
-1.0
 74
     0
 49
1.0
 74
     0
 49
-1.0
 74
     0
 49
1.0
 74
     0
 49
-1.0
 74
     0
  0
LTYPE
  5
7C
330
5
100
AcDbSymbolTableRecord
100
AcDbLinetypeTableRecord
  2
ACISOTGL
 70
     0
  3
_ _ _ _ _
 72
    65
 73
     2
 40
3.0
 49
2.0
 74
     0
 49
-1.0
 74
     0
  0
LTYPE
  5
7E
330
5
100
AcDbSymbolTableRecord
100
AcDbLinetypeTableRecord
  2
CENTER
 70
     0
  3
__ . __
 72
    65
 73
     4
 40
7.0
 49
4.0
 74
     0
 49
-1.0
 74
     0
 49
1.0
 74
     0
 49
-1.0
 74
     0
  0
LTYPE
  5
D8
330
5
100
AcDbSymbolTableRecord
100
AcDbLinetypeTableRecord
  2
HIDDEN
 70
     0
  3
Hidden __ __ __ __ __ __ __ __ __ __ __ __ __ _
 72
    65
 73
     2
 40
9.524999999999998
 49
6.349999999999999
 74
     0
 49
-3.174999999999999
 74
     0
  0
LTYPE
  5
D9
330
5
100
AcDbSymbolTableRecord
100
AcDbLinetypeTableRecord
  2
PHANTOM2
 70
     0
  3
Phantom (.5x) ___ _ _ ___ _ _ ___ _ _ ___ _ _
 72
    65
 73
     6
 40
31.75
 49
15.875
 74
     0
 49
-3.174999999999999
 74
     0
 49
3.174999999999999
 74
     0
 49
-3.174999999999999
 74
     0
 49
3.174999999999999
 74
     0
 49
-3.174999999999999
 74
     0
  0
ENDTAB
  0
TABLE
  2
LAYER
  5
2
102
{ACAD_XDICTIONARY
360
3F9
102
}
330
0
100
AcDbSymbolTable
 70
     7
  0
LAYER
  5
10
330
2
100
AcDbSymbolTableRecord
100
AcDbLayerTableRecord
  2
0
 70
     0
 62
     7
  6
Continuous
370
    -3
390
F
  0
LAYER
  5
BA8
330
2
100
AcDbSymbolTableRecord
100
AcDbLayerTableRecord
  2
AM_VIS
 70
     0
 62
     7
  6
Continuous
370
    50
390
F
  0
LAYER
  5
BA9
330
2
100
AcDbSymbolTableRecord
100
AcDbLayerTableRecord
  2
Defpoints
 70
     0
 62
     7
  6
Continuous
290
     0
370
    -3
390
F
  0
LAYER
  5
BAA
330
2
100
AcDbSymbolTableRecord
100
AcDbLayerTableRecord
  2
AM_7
 70
     0
 62
     1
  6
CENTER
370
    25
390
F
  0
LAYER
  5
BAB
330
2
100
AcDbSymbolTableRecord
100
AcDbLayerTableRecord
  2
AM_5
 70
     0
 62
     5
  6
Continuous
370
    50
390
F
  0
LAYER
  5
BAC
330
2
100
AcDbSymbolTableRecord
100
AcDbLayerTableRecord
  2
AM_0N
 70
     0
 62
     7
  6
Continuous
370
    50
390
F
  0
LAYER
  5
14BD
330
2
100
AcDbSymbolTableRecord
100
AcDbLayerTableRecord
  2
LOGO
 70
     0
 62
     7
  6
Continuous
370
    -3
390
F
  0
ENDTAB
  0
TABLE
  2
STYLE
  5
3
330
0
100
AcDbSymbolTable
 70
     6
  0
STYLE
  5
11
330
3
100
AcDbSymbolTableRecord
100
AcDbTextStyleTableRecord
  2
STANDARD
 70
     0
 40
0.0
 41
1.0
 50
0.0
 71
     0
 42
3.0
  3
ISOCP.SHX
  4
CHINESET.SHX
  0
STYLE
  5
6B
330
3
100
AcDbSymbolTableRecord
100
AcDbTextStyleTableRecord
  2

 70
     1
 40
0.0
 41
1.0
 50
0.0
 71
     0
 42
2.5
  3
ltypeshp.shx
  4

  0
STYLE
  5
6D
330
3
100
AcDbSymbolTableRecord
100
AcDbTextStyleTableRecord
  2
ACISOTS
 70
     0
 40
1.0
 41
1.0
 50
0.0
 71
     0
 42
1.0
  3
isocp.shx
  4
chineset.shx
  0
STYLE
  5
79
330
3
100
AcDbSymbolTableRecord
100
AcDbTextStyleTableRecord
  2
ACISOGDT
 70
     0
 40
0.0
 41
1.0
 50
0.0
 71
     0
 42
2.5
  3
amgdt.shx
  4
chineset.shx
  0
STYLE
  5
14BE
330
3
100
AcDbSymbolTableRecord
100
AcDbTextStyleTableRecord
  2
CHINESET
 70
     0
 40
0.0
 41
1.0
 50
0.0
 71
     0
 42
3.0
  3
simplex.shx
  4
CHINESET.SHX
  0
ENDTAB
  0
TABLE
  2
VIEW
  5
6
330
0
100
AcDbSymbolTable
 70
     0
  0
ENDTAB
  0
TABLE
  2
UCS
  5
7
330
0
100
AcDbSymbolTable
 70
     0
  0
ENDTAB
  0
TABLE
  2
APPID
  5
9
330
0
100
AcDbSymbolTable
 70
    21
  0
APPID
  5
12
330
9
100
AcDbSymbolTableRecord
100
AcDbRegAppTableRecord
  2
ACAD
 70
     0
  0
APPID
  5
46
330
9
100
AcDbSymbolTableRecord
100
AcDbRegAppTableRecord
  2
MCAD_NO_VIS
 70
     0
  0
APPID
  5
47
330
9
100
AcDbSymbolTableRecord
100
AcDbRegAppTableRecord
  2
ACAD_TEMP_GRAPHIC
 70
     0
  0
APPID
  5
58
330
9
100
AcDbSymbolTableRecord
100
AcDbRegAppTableRecord
  2
ACATTRIBSERVICES
 70
     0
  0
APPID
  5
EE
330
9
100
AcDbSymbolTableRecord
100
AcDbRegAppTableRecord
  2
AD_DRAW
 70
     0
  0
APPID
  5
10C
330
9
100
AcDbSymbolTableRecord
100
AcDbRegAppTableRecord
  2
DESIGNERASSEMBLIES
 70
     0
  0
APPID
  5
111
330
9
100
AcDbSymbolTableRecord
100
AcDbRegAppTableRecord
  2
ACADM_DIM_EDIT
 70
     0
  0
APPID
  5
112
330
9
100
AcDbSymbolTableRecord
100
AcDbRegAppTableRecord
  2
AMDT_DM_ADJ
 70
     0
  0
APPID
  5
22C
330
9
100
AcDbSymbolTableRecord
100
AcDbRegAppTableRecord
  2
ACAD_DSTYLE_DIMTEXT_FILL
 70
     0
  0
APPID
  5
452
330
9
100
AcDbSymbolTableRecord
100
AcDbRegAppTableRecord
  2
GENIUS_GENOENT_13
 70
     0
  0
APPID
  5
453
330
9
100
AcDbSymbolTableRecord
100
AcDbRegAppTableRecord
  2
GENIUS_GENOBJ-N-CRS_13
 70
     0
  0
APPID
  5
454
330
9
100
AcDbSymbolTableRecord
100
AcDbRegAppTableRecord
  2
GENIUS_GENOLIS_13
 70
     0
  0
APPID
  5
455
330
9
100
AcDbSymbolTableRecord
100
AcDbRegAppTableRecord
  2
GENIUS_GENODEF_13
 70
     0
  0
APPID
  5
456
330
9
100
AcDbSymbolTableRecord
100
AcDbRegAppTableRecord
  2
GENIUS_GENOREF_13
 70
     0
  0
APPID
  5
6F3
330
9
100
AcDbSymbolTableRecord
100
AcDbRegAppTableRecord
  2
ACAD_PSEXT
 70
     0
  0
APPID
  5
808
330
9
100
AcDbSymbolTableRecord
100
AcDbRegAppTableRecord
  2
GENIUS_GENDTOL_13
 70
     0
  0
APPID
  5
BAE
330
9
100
AcDbSymbolTableRecord
100
AcDbRegAppTableRecord
  2
GENIUS_GENOBJ-N-CEN_13
 70
     0
  0
APPID
  5
BAF
330
9
100
AcDbSymbolTableRecord
100
AcDbRegAppTableRecord
  2
GENIUS_GENCEN_19
 70
     0
  0
APPID
  5
BB0
330
9
100
AcDbSymbolTableRecord
100
AcDbRegAppTableRecord
  2
AcAecLayerStandard
 70
     0
  0
APPID
  5
14BF
330
9
100
AcDbSymbolTableRecord
100
AcDbRegAppTableRecord
  2
GENIUS_GENREC_14
 70
     0
  0
APPID
  5
14C0
330
9
100
AcDbSymbolTableRecord
100
AcDbRegAppTableRecord
  2
GENIUS_GENOBJ-N-REC_13
 70
     0
  0
ENDTAB
  0
TABLE
  2
DIMSTYLE
  5
A
330
0
100
AcDbSymbolTable
 70
     9
100
AcDbDimStyleTable
 71
     3
340
81
340
8B
340
86
  0
DIMSTYLE
105
81
330
A
100
AcDbSymbolTableRecord
100
AcDbDimStyleTableRecord
  2
AM_ISO
 70
     0
  4
"
 41
3.0
 42
1.5
 43
8.0
 44
1.5
 47
0.1
 48
0.1
 73
     0
 74
     0
 77
     1
 78
     8
 79
     2
140
3.5
141
0.0
143
0.0393701
146
0.6
147
1.0
172
     1
176
   256
177
   256
178
   256
271
     2
272
     2
283
     0
284
     8
340
11
371
    -1
372
    -1
  0
DIMSTYLE
105
82
330
A
100
AcDbSymbolTableRecord
100
AcDbDimStyleTableRecord
  2
AM_ISO$3
 70
     0
  4
"
 41
3.0
 42
1.5
 43
8.0
 44
1.5
 47
0.1
 48
0.1
 73
     0
 77
     1
 78
     8
 79
     2
140
3.5
141
0.0
143
0.0393701
146
0.6
147
1.0
176
   256
177
   256
178
   256
271
     2
272
     2
283
     0
284
     8
288
     1
289
     0
340
11
371
    -1
372
    -1
  0
DIMSTYLE
105
83
330
A
100
AcDbSymbolTableRecord
100
AcDbDimStyleTableRecord
  2
AM_ISO$4
 70
     0
  4
"
 41
3.0
 42
1.5
 43
8.0
 44
1.5
 47
0.1
 48
0.1
 73
     0
 77
     1
 78
     8
 79
     2
140
3.5
141
0.0
143
0.0393701
146
0.6
147
1.0
176
   256
177
   256
178
   256
271
     2
272
     2
283
     0
284
     8
288
     1
289
     0
340
11
371
    -1
372
    -1
  0
DIMSTYLE
105
84
330
A
100
AcDbSymbolTableRecord
100
AcDbDimStyleTableRecord
  2
AM_ISO$6
 70
     0
  4
"
 41
3.0
 42
1.5
 43
8.0
 44
1.5
 47
0.1
 48
0.1
 73
     0
 74
     0
 78
     8
 79
     2
140
3.5
141
0.0
143
0.0393701
146
0.6
147
1.0
172
     1
176
   256
177
   256
178
   256
271
     2
272
     2
283
     0
284
     8
340
11
371
    -1
372
    -1
  0
DIMSTYLE
105
85
330
A
100
AcDbSymbolTableRecord
100
AcDbDimStyleTableRecord
  2
AM_ISO$7
 70
     0
  4
"
 41
3.0
 42
1.5
 43
8.0
 44
1.5
 47
0.1
 48
0.1
 73
     0
 74
     0
 77
     1
 78
     8
 79
     2
140
5.0
141
0.0
143
0.0393701
146
0.6
147
1.0
172
     1
176
   256
177
   256
178
   256
271
     2
272
     2
283
     0
284
     8
340
11
371
    -1
372
    -1
  0
DIMSTYLE
105
86
330
A
100
AcDbSymbolTableRecord
100
AcDbDimStyleTableRecord
  2
AM_ISO$SF
 70
     0
  4
"
 41
2.5
 42
1.0
 43
10.0
 44
1.0
 47
0.1
 48
0.1
 73
     0
 74
     0
 75
     1
 76
     1
 77
     1
 78
     8
 79
     2
140
3.5
141
0.0
143
0.0393701
146
0.71
147
1.5
172
     1
176
   256
177
   256
178
     2
271
     2
272
     3
274
     4
283
     0
284
     8
340
11
371
    -1
372
    -1
  0
DIMSTYLE
105
8B
330
A
100
AcDbSymbolTableRecord
100
AcDbDimStyleTableRecord
  2
AM_ISO$SH
 70
     0
  4
"
 41
2.5
 42
1.0
 43
10.0
 44
1.0
 47
0.1
 48
0.1
 73
     0
 74
     0
 75
     1
 76
     1
 77
     1
 78
     8
 79
     2
140
3.5
141
0.0
143
0.0393701
144
2.0
146
0.71
147
1.5
172
     1
173
     1
176
   256
177
   256
178
     2
271
     2
272
     3
274
     4
283
     0
284
     8
340
11
343
87
371
    -1
372
    -1
  0
DIMSTYLE
105
40B
102
{ACAD_REACTORS
330
1129
330
118E
330
1191
330
1194
330
1197
330
119A
330
11B9
330
11BC
330
11BF
330
11C2
330
11C5
330
11C8
330
11CB
330
11CE
330
11D1
330
11D4
330
11D7
330
1262
102
}
330
A
100
AcDbSymbolTableRecord
100
AcDbDimStyleTableRecord
  2
AM_ISO$0
 70
     0
  4
"
 41
3.0
 42
1.5
 43
8.0
 44
1.5
 47
0.1
 48
0.1
 73
     0
 74
     0
 77
     1
 78
     8
 79
     2
140
3.5
141
0.0
143
0.0393701
146
0.6
147
1.0
172
     1
176
   256
177
   256
178
   256
271
     2
272
     2
283
     0
284
     8
340
11
371
    -1
372
    -1
  0
ENDTAB
  0
TABLE
  2
BLOCK_RECORD
  5
1
330
0
100
AcDbSymbolTable
 70
    26
  0
BLOCK_RECORD
  5
1F
102
{ACAD_XDICTIONARY
360
8F
102
}
330
1
100
AcDbSymbolTableRecord
100
AcDbBlockTableRecord
  2
*Model_Space
340
22
  0
BLOCK_RECORD
  5
1B
330
1
100
AcDbSymbolTableRecord
100
AcDbBlockTableRecord
  2
*Paper_Space
340
1E
  0
BLOCK_RECORD
  5
23
330
1
100
AcDbSymbolTableRecord
100
AcDbBlockTableRecord
  2
*Paper_Space0
340
26
  0
BLOCK_RECORD
  5
87
330
1
100
AcDbSymbolTableRecord
100
AcDbBlockTableRecord
  2
GENAXEH
340
0
  0
BLOCK_RECORD
  5
1270
330
1
100
AcDbSymbolTableRecord
100
AcDbBlockTableRecord
  2
*D3
340
0
  0
BLOCK_RECORD
  5
127C
330
1
100
AcDbSymbolTableRecord
100
AcDbBlockTableRecord
  2
*D4
340
0
  0
BLOCK_RECORD
  5
1288
330
1
100
AcDbSymbolTableRecord
100
AcDbBlockTableRecord
  2
*D5
340
0
  0
BLOCK_RECORD
  5
1294
330
1
100
AcDbSymbolTableRecord
100
AcDbBlockTableRecord
  2
*D6
340
0
  0
BLOCK_RECORD
  5
12A0
330
1
100
AcDbSymbolTableRecord
100
AcDbBlockTableRecord
  2
*D7
340
0
  0
BLOCK_RECORD
  5
12AC
330
1
100
AcDbSymbolTableRecord
100
AcDbBlockTableRecord
  2
*D8
340
0
  0
BLOCK_RECORD
  5
12BA
330
1
100
AcDbSymbolTableRecord
100
AcDbBlockTableRecord
  2
*D9
340
0
  0
BLOCK_RECORD
  5
12C6
330
1
100
AcDbSymbolTableRecord
100
AcDbBlockTableRecord
  2
*D10
340
0
  0
BLOCK_RECORD
  5
12D2
330
1
100
AcDbSymbolTableRecord
100
AcDbBlockTableRecord
  2
*D11
340
0
  0
BLOCK_RECORD
  5
12E0
330
1
100
AcDbSymbolTableRecord
100
AcDbBlockTableRecord
  2
*D12
340
0
  0
BLOCK_RECORD
  5
12EC
330
1
100
AcDbSymbolTableRecord
100
AcDbBlockTableRecord
  2
*D13
340
0
  0
BLOCK_RECORD
  5
12F8
330
1
100
AcDbSymbolTableRecord
100
AcDbBlockTableRecord
  2
*D14
340
0
  0
BLOCK_RECORD
  5
1304
330
1
100
AcDbSymbolTableRecord
100
AcDbBlockTableRecord
  2
*D15
340
0
  0
BLOCK_RECORD
  5
1310
330
1
100
AcDbSymbolTableRecord
100
AcDbBlockTableRecord
  2
*D16
340
0
  0
BLOCK_RECORD
  5
131C
330
1
100
AcDbSymbolTableRecord
100
AcDbBlockTableRecord
  2
*D17
340
0
  0
BLOCK_RECORD
  5
1328
330
1
100
AcDbSymbolTableRecord
100
AcDbBlockTableRecord
  2
*D18
340
0
  0
BLOCK_RECORD
  5
1334
330
1
100
AcDbSymbolTableRecord
100
AcDbBlockTableRecord
  2
*D19
340
0
  0
BLOCK_RECORD
  5
1340
330
1
100
AcDbSymbolTableRecord
100
AcDbBlockTableRecord
  2
*D20
340
0
  0
BLOCK_RECORD
  5
17B9
330
1
100
AcDbSymbolTableRecord
100
AcDbBlockTableRecord
  2
*S22
340
0
  0
BLOCK_RECORD
  5
17C1
330
1
100
AcDbSymbolTableRecord
100
AcDbBlockTableRecord
  2
*S23
340
0
  0
BLOCK_RECORD
  5
17C9
330
1
100
AcDbSymbolTableRecord
100
AcDbBlockTableRecord
  2
*S24
340
0
  0
BLOCK_RECORD
  5
17D1
330
1
100
AcDbSymbolTableRecord
100
AcDbBlockTableRecord
  2
*S25
340
0
  0
ENDTAB
  0
ENDSEC
  0
SECTION
  2
BLOCKS
  0
BLOCK
  5
20
330
1F
100
AcDbEntity
  8
0
100
AcDbBlockBegin
  2
*Model_Space
 70
     0
 10
0.0
 20
0.0
 30
0.0
  3
*Model_Space
  1

  0
ENDBLK
  5
21
330
1F
100
AcDbEntity
  8
0
100
AcDbBlockEnd
  0
BLOCK
  5
1C
330
1B
100
AcDbEntity
 67
     1
  8
0
100
AcDbBlockBegin
  2
*Paper_Space
 70
     0
 10
0.0
 20
0.0
 30
0.0
  3
*Paper_Space
  1

  0
ENDBLK
  5
1D
330
1B
100
AcDbEntity
 67
     1
  8
0
100
AcDbBlockEnd
  0
BLOCK
  5
24
330
23
100
AcDbEntity
  8
0
100
AcDbBlockBegin
  2
*Paper_Space0
 70
     0
 10
0.0
 20
0.0
 30
0.0
  3
*Paper_Space0
  1

  0
ENDBLK
  5
25
330
23
100
AcDbEntity
  8
0
100
AcDbBlockEnd
  0
BLOCK
  5
89
330
87
100
AcDbEntity
  8
0
100
AcDbBlockBegin
  2
GENAXEH
 70
     0
 10
0.0
 20
0.0
 30
0.0
  3
GENAXEH
  1

  0
LINE
  5
88
330
87
100
AcDbEntity
  8
0
100
AcDbLine
 10
-1.0
 20
0.0
 30
0.0
 11
1.0
 21
0.0
 31
0.0
  0
ENDBLK
  5
8A
330
87
100
AcDbEntity
  8
0
100
AcDbBlockEnd
  0
BLOCK
  5
127A
330
1270
100
AcDbEntity
  8
0
100
AcDbBlockBegin
  2
*D3
 70
     1
 10
0.0
 20
0.0
 30
0.0
  3
*D3
  1

  0
LINE
  5
1271
330
1270
100
AcDbEntity
  8
AM_5
100
AcDbLine
 10
209.1089980329938
 20
330.9466875831167
 30
0.0
 11
209.1089980329938
 21
351.7111910712094
 31
0.0
  0
LINE
  5
1272
330
1270
100
AcDbEntity
  8
AM_5
100
AcDbLine
 10
341.1089980329937
 20
330.0342918901507
 30
0.0
 11
341.1089980329937
 21
351.7111910712094
 31
0.0
  0
LINE
  5
1273
330
1270
100
AcDbEntity
  8
AM_5
100
AcDbLine
 10
213.3089980329938
 20
349.6111910712094
 30
0.0
 11
336.9089980329937
 21
349.6111910712094
 31
0.0
  0
SOLID
  5
1274
330
1270
100
AcDbEntity
  8
AM_5
100
AcDbTrace
 10
213.3089980329938
 20
350.3111910712094
 30
0.0
 11
213.3089980329938
 21
348.9111910712094
 31
0.0
 12
209.1089980329938
 22
349.6111910712094
 32
0.0
 13
209.1089980329938
 23
349.6111910712094
 33
0.0
  0
SOLID
  5
1275
330
1270
100
AcDbEntity
  8
AM_5
100
AcDbTrace
 10
336.9089980329937
 20
350.3111910712094
 30
0.0
 11
336.9089980329937
 21
348.9111910712094
 31
0.0
 12
341.1089980329937
 22
349.6111910712094
 32
0.0
 13
341.1089980329937
 23
349.6111910712094
 33
0.0
  0
MTEXT
  5
1276
330
1270
100
AcDbEntity
  8
AM_5
100
AcDbMText
 10
275.1089980329938
 20
353.4616733546739
 30
0.0
 40
4.899999999999999
 41
0.0
 71
     5
 72
     1
  1
132
 73
     1
 44
1.0
1001
ACAD
1000
MTEXTBEGIN
1070
    73
1070
     1
1070
    44
1040
1.0
1070
    74
1070
     0
1000
MTEXTEND
  0
POINT
  5
1277
330
1270
100
AcDbEntity
  8
Defpoints
 62
     0
100
AcDbPoint
 10
209.1089980329938
 20
328.8466875831167
 30
0.0
  0
POINT
  5
1278
330
1270
100
AcDbEntity
  8
Defpoints
 62
     0
100
AcDbPoint
 10
341.1089980329937
 20
327.9342918901507
 30
0.0
  0
POINT
  5
1279
330
1270
100
AcDbEntity
  8
Defpoints
 62
     0
100
AcDbPoint
 10
341.1089980329937
 20
349.6111910712094
 30
0.0
  0
ENDBLK
  5
127B
330
1270
100
AcDbEntity
  8
0
100
AcDbBlockEnd
  0
BLOCK
  5
1286
330
127C
100
AcDbEntity
  8
0
100
AcDbBlockBegin
  2
*D4
 70
     1
 10
0.0
 20
0.0
 30
0.0
  3
*D4
  1

  0
LINE
  5
127D
330
127C
100
AcDbEntity
  8
AM_5
100
AcDbLine
 10
215.0089980329938
 20
327.1966875831168
 30
0.0
 11
185.0089980329938
 21
327.1966875831168
 31
0.0
  0
LINE
  5
127E
330
127C
100
AcDbEntity
  8
AM_5
100
AcDbLine
 10
253.0089980329938
 20
310.1966875831168
 30
0.0
 11
185.0089980329938
 21
310.1966875831168
 31
0.0
  0
LINE
  5
127F
330
127C
100
AcDbEntity
  8
AM_5
100
AcDbLine
 10
187.1089980329938
 20
322.9966875831169
 30
0.0
 11
187.1089980329938
 21
314.3966875831168
 31
0.0
  0
SOLID
  5
1280
330
127C
100
AcDbEntity
  8
AM_5
100
AcDbTrace
 10
186.4089980329938
 20
322.9966875831169
 30
0.0
 11
187.8089980329938
 21
322.9966875831169
 31
0.0
 12
187.1089980329938
 22
327.1966875831168
 32
0.0
 13
187.1089980329938
 23
327.1966875831168
 33
0.0
  0
SOLID
  5
1281
330
127C
100
AcDbEntity
  8
AM_5
100
AcDbTrace
 10
186.4089980329938
 20
314.3966875831168
 30
0.0
 11
187.8089980329938
 21
314.3966875831168
 31
0.0
 12
187.1089980329938
 22
310.1966875831168
 32
0.0
 13
187.1089980329938
 23
310.1966875831168
 33
0.0
  0
MTEXT
  5
1282
330
127C
100
AcDbEntity
  8
AM_5
100
AcDbMText
 10
183.2589980329937
 20
318.6966875831169
 30
0.0
 40
4.899999999999999
 41
0.0
 71
     5
 72
     1
  1
17
 11
0.0000000000000001
 21
1.0
 31
0.0
 73
     1
 44
1.0
1001
ACAD
1000
MTEXTBEGIN
1070
    73
1070
     1
1070
    44
1040
1.0
1070
    74
1070
     0
1000
MTEXTEND
  0
POINT
  5
1283
330
127C
100
AcDbEntity
  8
Defpoints
 62
     0
100
AcDbPoint
 10
217.1089980329938
 20
327.1966875831168
 30
0.0
  0
POINT
  5
1284
330
127C
100
AcDbEntity
  8
Defpoints
 62
     0
100
AcDbPoint
 10
255.1089980329938
 20
310.1966875831168
 30
0.0
  0
POINT
  5
1285
330
127C
100
AcDbEntity
  8
Defpoints
 62
     0
100
AcDbPoint
 10
187.1089980329938
 20
310.1966875831168
 30
0.0
  0
ENDBLK
  5
1287
330
127C
100
AcDbEntity
  8
0
100
AcDbBlockEnd
  0
BLOCK
  5
1292
330
1288
100
AcDbEntity
  8
0
100
AcDbBlockBegin
  2
*D5
 70
     1
 10
0.0
 20
0.0
 30
0.0
  3
*D5
  1

  0
LINE
  5
1289
330
1288
100
AcDbEntity
  8
AM_5
100
AcDbLine
 10
208.0089980329938
 20
329.8466875831167
 30
0.0
 11
175.0089980329938
 21
329.8466875831167
 31
0.0
  0
LINE
  5
128A
330
1288
100
AcDbEntity
  8
AM_5
100
AcDbLine
 10
208.0089980329938
 20
307.5466875831168
 30
0.0
 11
175.0089980329938
 21
307.5466875831168
 31
0.0
  0
LINE
  5
128B
330
1288
100
AcDbEntity
  8
AM_5
100
AcDbLine
 10
177.1089980329938
 20
325.6466875831167
 30
0.0
 11
177.1089980329938
 21
311.7466875831167
 31
0.0
  0
SOLID
  5
128C
330
1288
100
AcDbEntity
  8
AM_5
100
AcDbTrace
 10
176.4089980329938
 20
325.6466875831167
 30
0.0
 11
177.8089980329938
 21
325.6466875831167
 31
0.0
 12
177.1089980329938
 22
329.8466875831167
 32
0.0
 13
177.1089980329938
 23
329.8466875831167
 33
0.0
  0
SOLID
  5
128D
330
1288
100
AcDbEntity
  8
AM_5
100
AcDbTrace
 10
176.4089980329938
 20
311.7466875831167
 30
0.0
 11
177.8089980329937
 21
311.7466875831167
 31
0.0
 12
177.1089980329938
 22
307.5466875831168
 32
0.0
 13
177.1089980329938
 23
307.5466875831168
 33
0.0
  0
MTEXT
  5
128E
330
1288
100
AcDbEntity
  8
AM_5
100
AcDbMText
 10
173.2585157495291
 20
318.6966875831168
 30
0.0
 40
4.899999999999999
 41
0.0
 71
     5
 72
     1
  1
22.3
 11
0.0000000000000001
 21
1.0
 31
0.0
 73
     1
 44
1.0
1001
ACAD
1000
MTEXTBEGIN
1070
    73
1070
     1
1070
    44
1040
1.0
1070
    74
1070
     0
1000
MTEXTEND
  0
POINT
  5
128F
330
1288
100
AcDbEntity
  8
Defpoints
 62
     0
100
AcDbPoint
 10
210.1089980329938
 20
329.8466875831167
 30
0.0
  0
POINT
  5
1290
330
1288
100
AcDbEntity
  8
Defpoints
 62
     0
100
AcDbPoint
 10
210.1089980329938
 20
307.5466875831168
 30
0.0
  0
POINT
  5
1291
330
1288
100
AcDbEntity
  8
Defpoints
 62
     0
100
AcDbPoint
 10
177.1089980329938
 20
307.5466875831168
 30
0.0
  0
ENDBLK
  5
1293
330
1288
100
AcDbEntity
  8
0
100
AcDbBlockEnd
  0
BLOCK
  5
129E
330
1294
100
AcDbEntity
  8
0
100
AcDbBlockBegin
  2
*D6
 70
     1
 10
0.0
 20
0.0
 30
0.0
  3
*D6
  1

  0
LINE
  5
1295
330
1294
100
AcDbEntity
  8
AM_5
100
AcDbLine
 10
209.1089980329938
 20
330.9466875831167
 30
0.0
 11
209.1089980329938
 21
341.7111910712094
 31
0.0
  0
LINE
  5
1296
330
1294
100
AcDbEntity
  8
AM_5
100
AcDbLine
 10
222.1089980329938
 20
334.2966875831169
 30
0.0
 11
222.1089980329938
 21
341.7111910712094
 31
0.0
  0
LINE
  5
1297
330
1294
100
AcDbEntity
  8
AM_5
100
AcDbLine
 10
213.3089980329938
 20
339.6111910712094
 30
0.0
 11
217.9089980329938
 21
339.6111910712094
 31
0.0
  0
SOLID
  5
1298
330
1294
100
AcDbEntity
  8
AM_5
100
AcDbTrace
 10
213.3089980329938
 20
340.3111910712094
 30
0.0
 11
213.3089980329938
 21
338.9111910712094
 31
0.0
 12
209.1089980329938
 22
339.6111910712094
 32
0.0
 13
209.1089980329938
 23
339.6111910712094
 33
0.0
  0
SOLID
  5
1299
330
1294
100
AcDbEntity
  8
AM_5
100
AcDbTrace
 10
217.9089980329938
 20
340.3111910712094
 30
0.0
 11
217.9089980329938
 21
338.9111910712094
 31
0.0
 12
222.1089980329938
 22
339.6111910712094
 32
0.0
 13
222.1089980329938
 23
339.6111910712094
 33
0.0
  0
MTEXT
  5
129A
330
1294
100
AcDbEntity
  8
AM_5
100
AcDbMText
 10
215.6089980329938
 20
343.4611910712094
 30
0.0
 40
4.899999999999999
 41
0.0
 71
     5
 72
     1
  1
13
 73
     1
 44
1.0
1001
ACAD
1000
MTEXTBEGIN
1070
    73
1070
     1
1070
    44
1040
1.0
1070
    74
1070
     0
1000
MTEXTEND
  0
POINT
  5
129B
330
1294
100
AcDbEntity
  8
Defpoints
 62
     0
100
AcDbPoint
 10
209.1089980329938
 20
328.8466875831167
 30
0.0
  0
POINT
  5
129C
330
1294
100
AcDbEntity
  8
Defpoints
 62
     0
100
AcDbPoint
 10
222.1089980329938
 20
332.1966875831169
 30
0.0
  0
POINT
  5
129D
330
1294
100
AcDbEntity
  8
Defpoints
 62
     0
100
AcDbPoint
 10
222.1089980329938
 20
339.6111910712094
 30
0.0
  0
ENDBLK
  5
129F
330
1294
100
AcDbEntity
  8
0
100
AcDbBlockEnd
  0
BLOCK
  5
12AA
330
12A0
100
AcDbEntity
  8
0
100
AcDbBlockBegin
  2
*D7
 70
     1
 10
0.0
 20
0.0
 30
0.0
  3
*D7
  1

  0
LINE
  5
12A1
330
12A0
100
AcDbEntity
  8
AM_5
100
AcDbLine
 10
222.1089980329938
 20
334.2966875831169
 30
0.0
 11
222.1089980329938
 21
341.7111910712094
 31
0.0
  0
LINE
  5
12A2
330
12A0
100
AcDbEntity
  8
AM_5
100
AcDbLine
 10
260.1089980329938
 20
317.2966875831169
 30
0.0
 11
260.1089980329938
 21
341.7111910712094
 31
0.0
  0
LINE
  5
12A3
330
12A0
100
AcDbEntity
  8
AM_5
100
AcDbLine
 10
226.3089980329938
 20
339.6111910712094
 30
0.0
 11
255.9089980329938
 21
339.6111910712094
 31
0.0
  0
SOLID
  5
12A4
330
12A0
100
AcDbEntity
  8
AM_5
100
AcDbTrace
 10
226.3089980329938
 20
340.3111910712094
 30
0.0
 11
226.3089980329938
 21
338.9111910712094
 31
0.0
 12
222.1089980329938
 22
339.6111910712094
 32
0.0
 13
222.1089980329938
 23
339.6111910712094
 33
0.0
  0
SOLID
  5
12A5
330
12A0
100
AcDbEntity
  8
AM_5
100
AcDbTrace
 10
255.9089980329938
 20
340.3111910712094
 30
0.0
 11
255.9089980329938
 21
338.9111910712094
 31
0.0
 12
260.1089980329938
 22
339.6111910712094
 32
0.0
 13
260.1089980329938
 23
339.6111910712094
 33
0.0
  0
MTEXT
  5
12A6
330
12A0
100
AcDbEntity
  8
AM_5
100
AcDbMText
 10
241.1089980329938
 20
343.4611910712094
 30
0.0
 40
4.899999999999999
 41
0.0
 71
     5
 72
     1
  1
38
 73
     1
 44
1.0
1001
ACAD
1000
MTEXTBEGIN
1070
    73
1070
     1
1070
    44
1040
1.0
1070
    74
1070
     0
1000
MTEXTEND
  0
POINT
  5
12A7
330
12A0
100
AcDbEntity
  8
Defpoints
 62
     0
100
AcDbPoint
 10
222.1089980329938
 20
332.1966875831169
 30
0.0
  0
POINT
  5
12A8
330
12A0
100
AcDbEntity
  8
Defpoints
 62
     0
100
AcDbPoint
 10
260.1089980329938
 20
315.1966875831168
 30
0.0
  0
POINT
  5
12A9
330
12A0
100
AcDbEntity
  8
Defpoints
 62
     0
100
AcDbPoint
 10
260.1089980329938
 20
339.6111910712094
 30
0.0
  0
ENDBLK
  5
12AB
330
12A0
100
AcDbEntity
  8
0
100
AcDbBlockEnd
  0
BLOCK
  5
12B8
330
12AC
100
AcDbEntity
  8
0
100
AcDbBlockBegin
  2
*D8
 70
     1
 10
0.0
 20
0.0
 30
0.0
  3
*D8
  1

  0
LINE
  5
12AD
330
12AC
100
AcDbEntity
  8
AM_5
100
AcDbLine
 10
219.8089980329938
 20
320.1966875831169
 30
0.0
 11
195.0089980329938
 21
320.1966875831169
 31
0.0
  0
LINE
  5
12AE
330
12AC
100
AcDbEntity
  8
AM_5
100
AcDbLine
 10
240.8589980329938
 20
317.1966875831168
 30
0.0
 11
195.0089980329938
 21
317.1966875831168
 31
0.0
  0
LINE
  5
12AF
330
12AC
100
AcDbEntity
  8
AM_5
100
AcDbLine
 10
197.1089980329938
 20
324.3966875831168
 30
0.0
 11
197.1089980329938
 21
328.5966875831168
 31
0.0
  0
LINE
  5
12B0
330
12AC
100
AcDbEntity
  8
AM_5
100
AcDbLine
 10
197.1089980329938
 20
312.9966875831168
 30
0.0
 11
197.1089980329938
 21
303.8337229375541
 31
0.0
  0
LINE
  5
12B1
330
12AC
100
AcDbEntity
  8
AM_5
100
AcDbLine
 10
197.1089980329938
 20
320.1966875831169
 30
0.0
 11
197.1089980329938
 21
317.1966875831168
 31
0.0
  0
SOLID
  5
12B2
330
12AC
100
AcDbEntity
  8
AM_5
100
AcDbTrace
 10
196.4089980329938
 20
324.3966875831168
 30
0.0
 11
197.8089980329938
 21
324.3966875831168
 31
0.0
 12
197.1089980329938
 22
320.1966875831169
 32
0.0
 13
197.1089980329938
 23
320.1966875831169
 33
0.0
  0
SOLID
  5
12B3
330
12AC
100
AcDbEntity
  8
AM_5
100
AcDbTrace
 10
196.4089980329938
 20
312.9966875831168
 30
0.0
 11
197.8089980329937
 21
312.9966875831168
 31
0.0
 12
197.1089980329938
 22
317.1966875831168
 32
0.0
 13
197.1089980329938
 23
317.1966875831168
 33
0.0
  0
MTEXT
  5
12B4
330
12AC
100
AcDbEntity
  8
AM_5
100
AcDbMText
 10
193.2589980329937
 20
306.3152052603355
 30
0.0
 40
4.899999999999999
 41
0.0
 71
     5
 72
     1
  1
3
 11
0.0000000000000001
 21
1.0
 31
0.0
 73
     1
 44
1.0
1001
ACAD
1000
MTEXTBEGIN
1070
    73
1070
     1
1070
    44
1040
1.0
1070
    74
1070
     0
1000
MTEXTEND
  0
POINT
  5
12B5
330
12AC
100
AcDbEntity
  8
Defpoints
 62
     0
100
AcDbPoint
 10
221.9089980329938
 20
320.1966875831169
 30
0.0
  0
POINT
  5
12B6
330
12AC
100
AcDbEntity
  8
Defpoints
 62
     0
100
AcDbPoint
 10
242.9589980329938
 20
317.1966875831168
 30
0.0
  0
POINT
  5
12B7
330
12AC
100
AcDbEntity
  8
Defpoints
 62
     0
100
AcDbPoint
 10
197.1089980329938
 20
317.1966875831168
 30
0.0
  0
ENDBLK
  5
12B9
330
12AC
100
AcDbEntity
  8
0
100
AcDbBlockEnd
  0
BLOCK
  5
12C4
330
12BA
100
AcDbEntity
  8
0
100
AcDbBlockBegin
  2
*D9
 70
     1
 10
0.0
 20
0.0
 30
0.0
  3
*D9
  1

  0
LINE
  5
12BB
330
12BA
100
AcDbEntity
  8
AM_5
100
AcDbLine
 10
209.1089980329938
 20
209.7413594127039
 30
0.0
 11
209.1089980329938
 21
196.7413594127039
 31
0.0
  0
LINE
  5
12BC
330
12BA
100
AcDbEntity
  8
AM_5
100
AcDbLine
 10
231.1089980329938
 20
210.0382895472605
 30
0.0
 11
231.1089980329938
 21
196.7413594127039
 31
0.0
  0
LINE
  5
12BD
330
12BA
100
AcDbEntity
  8
AM_5
100
AcDbLine
 10
213.3089980329938
 20
198.8413594127039
 30
0.0
 11
226.9089980329938
 21
198.8413594127039
 31
0.0
  0
SOLID
  5
12BE
330
12BA
100
AcDbEntity
  8
AM_5
100
AcDbTrace
 10
213.3089980329938
 20
199.5413594127039
 30
0.0
 11
213.3089980329938
 21
198.1413594127039
 31
0.0
 12
209.1089980329938
 22
198.8413594127039
 32
0.0
 13
209.1089980329938
 23
198.8413594127039
 33
0.0
  0
SOLID
  5
12BF
330
12BA
100
AcDbEntity
  8
AM_5
100
AcDbTrace
 10
226.9089980329938
 20
199.5413594127039
 30
0.0
 11
226.9089980329938
 21
198.1413594127039
 31
0.0
 12
231.1089980329938
 22
198.8413594127039
 32
0.0
 13
231.1089980329938
 23
198.8413594127039
 33
0.0
  0
MTEXT
  5
12C0
330
12BA
100
AcDbEntity
  8
AM_5
100
AcDbMText
 10
220.1089980329938
 20
202.6918416961685
 30
0.0
 40
4.899999999999999
 41
0.0
 71
     5
 72
     1
  1
22
 73
     1
 44
1.0
1001
ACAD
1000
MTEXTBEGIN
1070
    73
1070
     1
1070
    44
1040
1.0
1070
    74
1070
     0
1000
MTEXTEND
  0
POINT
  5
12C1
330
12BA
100
AcDbEntity
  8
Defpoints
 62
     0
100
AcDbPoint
 10
209.1089980329938
 20
211.8413594127039
 30
0.0
  0
POINT
  5
12C2
330
12BA
100
AcDbEntity
  8
Defpoints
 62
     0
100
AcDbPoint
 10
231.1089980329938
 20
212.1382895472605
 30
0.0
  0
POINT
  5
12C3
330
12BA
100
AcDbEntity
  8
Defpoints
 62
     0
100
AcDbPoint
 10
231.1089980329938
 20
198.8413594127039
 30
0.0
  0
ENDBLK
  5
12C5
330
12BA
100
AcDbEntity
  8
0
100
AcDbBlockEnd
  0
BLOCK
  5
12D0
330
12C6
100
AcDbEntity
  8
0
100
AcDbBlockBegin
  2
*D10
 70
     1
 10
0.0
 20
0.0
 30
0.0
  3
*D10
  1

  0
LINE
  5
12C7
330
12C6
100
AcDbEntity
  8
AM_5
100
AcDbLine
 10
231.1089980329938
 20
210.0382895472605
 30
0.0
 11
231.1089980329938
 21
196.7413594127039
 31
0.0
  0
LINE
  5
12C8
330
12C6
100
AcDbEntity
  8
AM_5
100
AcDbLine
 10
251.1089980329938
 20
210.0382895472605
 30
0.0
 11
251.1089980329938
 21
196.7413594127039
 31
0.0
  0
LINE
  5
12C9
330
12C6
100
AcDbEntity
  8
AM_5
100
AcDbLine
 10
235.3089980329938
 20
198.841359412704
 30
0.0
 11
246.9089980329938
 21
198.841359412704
 31
0.0
  0
SOLID
  5
12CA
330
12C6
100
AcDbEntity
  8
AM_5
100
AcDbTrace
 10
235.3089980329938
 20
199.5413594127039
 30
0.0
 11
235.3089980329938
 21
198.141359412704
 31
0.0
 12
231.1089980329938
 22
198.841359412704
 32
0.0
 13
231.1089980329938
 23
198.841359412704
 33
0.0
  0
SOLID
  5
12CB
330
12C6
100
AcDbEntity
  8
AM_5
100
AcDbTrace
 10
246.9089980329938
 20
199.5413594127039
 30
0.0
 11
246.9089980329938
 21
198.141359412704
 31
0.0
 12
251.1089980329938
 22
198.841359412704
 32
0.0
 13
251.1089980329938
 23
198.841359412704
 33
0.0
  0
MTEXT
  5
12CC
330
12C6
100
AcDbEntity
  8
AM_5
100
AcDbMText
 10
241.1089980329938
 20
202.6918416961685
 30
0.0
 40
4.899999999999999
 41
0.0
 71
     5
 72
     1
  1
20
 73
     1
 44
1.0
1001
ACAD
1000
MTEXTBEGIN
1070
    73
1070
     1
1070
    44
1040
1.0
1070
    74
1070
     0
1000
MTEXTEND
  0
POINT
  5
12CD
330
12C6
100
AcDbEntity
  8
Defpoints
 62
     0
100
AcDbPoint
 10
231.1089980329938
 20
212.1382895472605
 30
0.0
  0
POINT
  5
12CE
330
12C6
100
AcDbEntity
  8
Defpoints
 62
     0
100
AcDbPoint
 10
251.1089980329938
 20
212.1382895472605
 30
0.0
  0
POINT
  5
12CF
330
12C6
100
AcDbEntity
  8
Defpoints
 62
     0
100
AcDbPoint
 10
251.1089980329938
 20
198.841359412704
 30
0.0
  0
ENDBLK
  5
12D1
330
12C6
100
AcDbEntity
  8
0
100
AcDbBlockEnd
  0
BLOCK
  5
12DE
330
12D2
100
AcDbEntity
  8
0
100
AcDbBlockBegin
  2
*D11
 70
     1
 10
0.0
 20
0.0
 30
0.0
  3
*D11
  1

  0
LINE
  5
12D3
330
12D2
100
AcDbEntity
  8
AM_5
100
AcDbLine
 10
208.0089980329938
 20
210.8413594127039
 30
0.0
 11
195.0089980329938
 21
210.8413594127039
 31
0.0
  0
LINE
  5
12D4
330
12D2
100
AcDbEntity
  8
AM_5
100
AcDbLine
 10
223.3059281675503
 20
217.8413594127039
 30
0.0
 11
195.0089980329938
 21
217.8413594127039
 31
0.0
  0
LINE
  5
12D5
330
12D2
100
AcDbEntity
  8
AM_5
100
AcDbLine
 10
197.1089980329938
 20
206.6413594127039
 30
0.0
 11
197.1089980329938
 21
202.4413594127039
 31
0.0
  0
LINE
  5
12D6
330
12D2
100
AcDbEntity
  8
AM_5
100
AcDbLine
 10
197.1089980329938
 20
222.0413594127039
 30
0.0
 11
197.1089980329938
 21
226.2413594127039
 31
0.0
  0
LINE
  5
12D7
330
12D2
100
AcDbEntity
  8
AM_5
100
AcDbLine
 10
197.1089980329938
 20
210.8413594127039
 30
0.0
 11
197.1089980329938
 21
217.8413594127039
 31
0.0
  0
SOLID
  5
12D8
330
12D2
100
AcDbEntity
  8
AM_5
100
AcDbTrace
 10
196.4089980329938
 20
206.6413594127039
 30
0.0
 11
197.8089980329937
 21
206.6413594127039
 31
0.0
 12
197.1089980329938
 22
210.8413594127039
 32
0.0
 13
197.1089980329938
 23
210.8413594127039
 33
0.0
  0
SOLID
  5
12D9
330
12D2
100
AcDbEntity
  8
AM_5
100
AcDbTrace
 10
196.4089980329938
 20
222.0413594127039
 30
0.0
 11
197.8089980329937
 21
222.0413594127039
 31
0.0
 12
197.1089980329938
 22
217.8413594127039
 32
0.0
 13
197.1089980329938
 23
217.8413594127039
 33
0.0
  0
MTEXT
  5
12DA
330
12D2
100
AcDbEntity
  8
AM_5
100
AcDbMText
 10
193.2589980329937
 20
214.341359412704
 30
0.0
 40
4.899999999999999
 41
0.0
 71
     5
 72
     1
  1
7
 11
0.0000000000000001
 21
1.0
 31
0.0
 73
     1
 44
1.0
1001
ACAD
1000
MTEXTBEGIN
1070
    73
1070
     1
1070
    44
1040
1.0
1070
    74
1070
     0
1000
MTEXTEND
  0
POINT
  5
12DB
330
12D2
100
AcDbEntity
  8
Defpoints
 62
     0
100
AcDbPoint
 10
210.1089980329938
 20
210.8413594127039
 30
0.0
  0
POINT
  5
12DC
330
12D2
100
AcDbEntity
  8
Defpoints
 62
     0
100
AcDbPoint
 10
225.4059281675503
 20
217.8413594127039
 30
0.0
  0
POINT
  5
12DD
330
12D2
100
AcDbEntity
  8
Defpoints
 62
     0
100
AcDbPoint
 10
197.1089980329938
 20
217.8413594127039
 30
0.0
  0
ENDBLK
  5
12DF
330
12D2
100
AcDbEntity
  8
0
100
AcDbBlockEnd
  0
BLOCK
  5
12EA
330
12E0
100
AcDbEntity
  8
0
100
AcDbBlockBegin
  2
*D12
 70
     1
 10
0.0
 20
0.0
 30
0.0
  3
*D12
  1

  0
LINE
  5
12E1
330
12E0
100
AcDbEntity
  8
AM_5
100
AcDbLine
 10
209.1089980329938
 20
145.0616069473702
 30
0.0
 11
209.1089980329938
 21
132.0616069473701
 31
0.0
  0
LINE
  5
12E2
330
12E0
100
AcDbEntity
  8
AM_5
100
AcDbLine
 10
223.1089980329938
 20
147.9616069473702
 30
0.0
 11
223.1089980329938
 21
132.0616069473701
 31
0.0
  0
LINE
  5
12E3
330
12E0
100
AcDbEntity
  8
AM_5
100
AcDbLine
 10
213.3089980329938
 20
134.1616069473701
 30
0.0
 11
218.9089980329938
 21
134.1616069473701
 31
0.0
  0
SOLID
  5
12E4
330
12E0
100
AcDbEntity
  8
AM_5
100
AcDbTrace
 10
213.3089980329938
 20
134.8616069473701
 30
0.0
 11
213.3089980329938
 21
133.4616069473701
 31
0.0
 12
209.1089980329938
 22
134.1616069473701
 32
0.0
 13
209.1089980329938
 23
134.1616069473701
 33
0.0
  0
SOLID
  5
12E5
330
12E0
100
AcDbEntity
  8
AM_5
100
AcDbTrace
 10
218.9089980329938
 20
134.8616069473701
 30
0.0
 11
218.9089980329938
 21
133.4616069473701
 31
0.0
 12
223.1089980329938
 22
134.1616069473701
 32
0.0
 13
223.1089980329938
 23
134.1616069473701
 33
0.0
  0
MTEXT
  5
12E6
330
12E0
100
AcDbEntity
  8
AM_5
100
AcDbMText
 10
216.1089980329938
 20
138.0116069473701
 30
0.0
 40
4.899999999999999
 41
0.0
 71
     5
 72
     1
  1
14
 73
     1
 44
1.0
1001
ACAD
1000
MTEXTBEGIN
1070
    73
1070
     1
1070
    44
1040
1.0
1070
    74
1070
     0
1000
MTEXTEND
  0
POINT
  5
12E7
330
12E0
100
AcDbEntity
  8
Defpoints
 62
     0
100
AcDbPoint
 10
209.1089980329938
 20
147.1616069473702
 30
0.0
  0
POINT
  5
12E8
330
12E0
100
AcDbEntity
  8
Defpoints
 62
     0
100
AcDbPoint
 10
223.1089980329938
 20
150.0616069473702
 30
0.0
  0
POINT
  5
12E9
330
12E0
100
AcDbEntity
  8
Defpoints
 62
     0
100
AcDbPoint
 10
223.1089980329938
 20
134.1616069473701
 30
0.0
  0
ENDBLK
  5
12EB
330
12E0
100
AcDbEntity
  8
0
100
AcDbBlockEnd
  0
BLOCK
  5
12F6
330
12EC
100
AcDbEntity
  8
0
100
AcDbBlockBegin
  2
*D13
 70
     1
 10
0.0
 20
0.0
 30
0.0
  3
*D13
  1

  0
LINE
  5
12ED
330
12EC
100
AcDbEntity
  8
AM_5
100
AcDbLine
 10
223.1089980329938
 20
147.9616069473702
 30
0.0
 11
223.1089980329938
 21
132.0616069473701
 31
0.0
  0
LINE
  5
12EE
330
12EC
100
AcDbEntity
  8
AM_5
100
AcDbLine
 10
241.1089980329938
 20
146.5116069473703
 30
0.0
 11
241.1089980329938
 21
132.0616069473701
 31
0.0
  0
LINE
  5
12EF
330
12EC
100
AcDbEntity
  8
AM_5
100
AcDbLine
 10
227.3089980329938
 20
134.1616069473701
 30
0.0
 11
236.9089980329938
 21
134.1616069473701
 31
0.0
  0
SOLID
  5
12F0
330
12EC
100
AcDbEntity
  8
AM_5
100
AcDbTrace
 10
227.3089980329938
 20
134.8616069473701
 30
0.0
 11
227.3089980329938
 21
133.4616069473701
 31
0.0
 12
223.1089980329938
 22
134.1616069473701
 32
0.0
 13
223.1089980329938
 23
134.1616069473701
 33
0.0
  0
SOLID
  5
12F1
330
12EC
100
AcDbEntity
  8
AM_5
100
AcDbTrace
 10
236.9089980329938
 20
134.8616069473701
 30
0.0
 11
236.9089980329938
 21
133.4616069473701
 31
0.0
 12
241.1089980329938
 22
134.1616069473701
 32
0.0
 13
241.1089980329938
 23
134.1616069473701
 33
0.0
  0
MTEXT
  5
12F2
330
12EC
100
AcDbEntity
  8
AM_5
100
AcDbMText
 10
232.1089980329938
 20
138.0116069473701
 30
0.0
 40
4.899999999999999
 41
0.0
 71
     5
 72
     1
  1
18
 73
     1
 44
1.0
1001
ACAD
1000
MTEXTBEGIN
1070
    73
1070
     1
1070
    44
1040
1.0
1070
    74
1070
     0
1000
MTEXTEND
  0
POINT
  5
12F3
330
12EC
100
AcDbEntity
  8
Defpoints
 62
     0
100
AcDbPoint
 10
223.1089980329938
 20
150.0616069473702
 30
0.0
  0
POINT
  5
12F4
330
12EC
100
AcDbEntity
  8
Defpoints
 62
     0
100
AcDbPoint
 10
241.1089980329938
 20
148.6116069473703
 30
0.0
  0
POINT
  5
12F5
330
12EC
100
AcDbEntity
  8
Defpoints
 62
     0
100
AcDbPoint
 10
241.1089980329938
 20
134.1616069473701
 30
0.0
  0
ENDBLK
  5
12F7
330
12EC
100
AcDbEntity
  8
0
100
AcDbBlockEnd
  0
BLOCK
  5
1302
330
12F8
100
AcDbEntity
  8
0
100
AcDbBlockBegin
  2
*D14
 70
     1
 10
0.0
 20
0.0
 30
0.0
  3
*D14
  1

  0
LINE
  5
12F9
330
12F8
100
AcDbEntity
  8
AM_5
100
AcDbLine
 10
241.1089980329938
 20
146.5116069473703
 30
0.0
 11
241.1089980329938
 21
132.0616069473702
 31
0.0
  0
LINE
  5
12FA
330
12F8
100
AcDbEntity
  8
AM_5
100
AcDbLine
 10
259.1089980329938
 20
148.2116069473702
 30
0.0
 11
259.1089980329938
 21
132.0616069473702
 31
0.0
  0
LINE
  5
12FB
330
12F8
100
AcDbEntity
  8
AM_5
100
AcDbLine
 10
245.3089980329938
 20
134.1616069473702
 30
0.0
 11
254.9089980329938
 21
134.1616069473702
 31
0.0
  0
SOLID
  5
12FC
330
12F8
100
AcDbEntity
  8
AM_5
100
AcDbTrace
 10
245.3089980329938
 20
134.8616069473702
 30
0.0
 11
245.3089980329938
 21
133.4616069473702
 31
0.0
 12
241.1089980329938
 22
134.1616069473702
 32
0.0
 13
241.1089980329938
 23
134.1616069473702
 33
0.0
  0
SOLID
  5
12FD
330
12F8
100
AcDbEntity
  8
AM_5
100
AcDbTrace
 10
254.9089980329938
 20
134.8616069473702
 30
0.0
 11
254.9089980329938
 21
133.4616069473702
 31
0.0
 12
259.1089980329938
 22
134.1616069473702
 32
0.0
 13
259.1089980329938
 23
134.1616069473702
 33
0.0
  0
MTEXT
  5
12FE
330
12F8
100
AcDbEntity
  8
AM_5
100
AcDbMText
 10
250.1089980329938
 20
138.0116069473702
 30
0.0
 40
4.899999999999999
 41
0.0
 71
     5
 72
     1
  1
18
 73
     1
 44
1.0
1001
ACAD
1000
MTEXTBEGIN
1070
    73
1070
     1
1070
    44
1040
1.0
1070
    74
1070
     0
1000
MTEXTEND
  0
POINT
  5
12FF
330
12F8
100
AcDbEntity
  8
Defpoints
 62
     0
100
AcDbPoint
 10
241.1089980329938
 20
148.6116069473703
 30
0.0
  0
POINT
  5
1300
330
12F8
100
AcDbEntity
  8
Defpoints
 62
     0
100
AcDbPoint
 10
259.1089980329938
 20
150.3116069473702
 30
0.0
  0
POINT
  5
1301
330
12F8
100
AcDbEntity
  8
Defpoints
 62
     0
100
AcDbPoint
 10
259.1089980329938
 20
134.1616069473702
 30
0.0
  0
ENDBLK
  5
1303
330
12F8
100
AcDbEntity
  8
0
100
AcDbBlockEnd
  0
BLOCK
  5
130E
330
1304
100
AcDbEntity
  8
0
100
AcDbBlockBegin
  2
*D15
 70
     1
 10
0.0
 20
0.0
 30
0.0
  3
*D15
  1

  0
LINE
  5
1305
330
1304
100
AcDbEntity
  8
AM_5
100
AcDbLine
 10
208.0089980329938
 20
210.8413594127039
 30
0.0
 11
185.0089980329938
 21
210.841359412704
 31
0.0
  0
LINE
  5
1306
330
1304
100
AcDbEntity
  8
AM_5
100
AcDbLine
 10
208.0089980329938
 20
245.8413594127039
 30
0.0
 11
185.0089980329938
 21
245.841359412704
 31
0.0
  0
LINE
  5
1307
330
1304
100
AcDbEntity
  8
AM_5
100
AcDbLine
 10
187.1089980329938
 20
215.0413594127039
 30
0.0
 11
187.1089980329938
 21
241.6413594127039
 31
0.0
  0
SOLID
  5
1308
330
1304
100
AcDbEntity
  8
AM_5
100
AcDbTrace
 10
186.4089980329938
 20
215.0413594127039
 30
0.0
 11
187.8089980329938
 21
215.0413594127039
 31
0.0
 12
187.1089980329938
 22
210.841359412704
 32
0.0
 13
187.1089980329938
 23
210.841359412704
 33
0.0
  0
SOLID
  5
1309
330
1304
100
AcDbEntity
  8
AM_5
100
AcDbTrace
 10
186.4089980329938
 20
241.6413594127039
 30
0.0
 11
187.8089980329938
 21
241.6413594127039
 31
0.0
 12
187.1089980329938
 22
245.841359412704
 32
0.0
 13
187.1089980329938
 23
245.841359412704
 33
0.0
  0
MTEXT
  5
130A
330
1304
100
AcDbEntity
  8
AM_5
100
AcDbMText
 10
183.2589980329937
 20
228.341359412704
 30
0.0
 40
4.899999999999999
 41
0.0
 71
     5
 72
     1
  1
35
 11
0.0000000000000001
 21
1.0
 31
0.0
 73
     1
 44
1.0
1001
ACAD
1000
MTEXTBEGIN
1070
    73
1070
     1
1070
    44
1040
1.0
1070
    74
1070
     0
1000
MTEXTEND
  0
POINT
  5
130B
330
1304
100
AcDbEntity
  8
Defpoints
 62
     0
100
AcDbPoint
 10
210.1089980329938
 20
210.8413594127039
 30
0.0
  0
POINT
  5
130C
330
1304
100
AcDbEntity
  8
Defpoints
 62
     0
100
AcDbPoint
 10
210.1089980329938
 20
245.8413594127039
 30
0.0
  0
POINT
  5
130D
330
1304
100
AcDbEntity
  8
Defpoints
 62
     0
100
AcDbPoint
 10
187.1089980329938
 20
245.841359412704
 30
0.0
  0
ENDBLK
  5
130F
330
1304
100
AcDbEntity
  8
0
100
AcDbBlockEnd
  0
BLOCK
  5
131A
330
1310
100
AcDbEntity
  8
0
100
AcDbBlockBegin
  2
*D16
 70
     1
 10
0.0
 20
0.0
 30
0.0
  3
*D16
  1

  0
LINE
  5
1311
330
1310
100
AcDbEntity
  8
AM_5
100
AcDbLine
 10
292.2867034183799
 20
210.8413594127039
 30
0.0
 11
355.2089980329938
 21
210.8413594127039
 31
0.0
  0
LINE
  5
1312
330
1310
100
AcDbEntity
  8
AM_5
100
AcDbLine
 10
335.2089980329936
 20
277.8413594127039
 30
0.0
 11
355.2089980329938
 21
277.8413594127039
 31
0.0
  0
LINE
  5
1313
330
1310
100
AcDbEntity
  8
AM_5
100
AcDbLine
 10
353.1089980329938
 20
215.0413594127039
 30
0.0
 11
353.1089980329938
 21
273.6413594127039
 31
0.0
  0
SOLID
  5
1314
330
1310
100
AcDbEntity
  8
AM_5
100
AcDbTrace
 10
352.4089980329938
 20
215.0413594127039
 30
0.0
 11
353.8089980329938
 21
215.0413594127039
 31
0.0
 12
353.1089980329938
 22
210.8413594127039
 32
0.0
 13
353.1089980329938
 23
210.8413594127039
 33
0.0
  0
SOLID
  5
1315
330
1310
100
AcDbEntity
  8
AM_5
100
AcDbTrace
 10
352.4089980329938
 20
273.6413594127039
 30
0.0
 11
353.8089980329938
 21
273.6413594127039
 31
0.0
 12
353.1089980329938
 22
277.8413594127039
 32
0.0
 13
353.1089980329938
 23
277.8413594127039
 33
0.0
  0
MTEXT
  5
1316
330
1310
100
AcDbEntity
  8
AM_5
100
AcDbMText
 10
349.2589980329937
 20
244.341359412704
 30
0.0
 40
4.899999999999999
 41
0.0
 71
     5
 72
     1
  1
67
 11
0.0000000000000001
 21
1.0
 31
0.0
 73
     1
 44
1.0
1001
ACAD
1000
MTEXTBEGIN
1070
    73
1070
     1
1070
    44
1040
1.0
1070
    74
1070
     0
1000
MTEXTEND
  0
POINT
  5
1317
330
1310
100
AcDbEntity
  8
Defpoints
 62
     0
100
AcDbPoint
 10
290.1867034183798
 20
210.8413594127039
 30
0.0
  0
POINT
  5
1318
330
1310
100
AcDbEntity
  8
Defpoints
 62
     0
100
AcDbPoint
 10
333.1089980329936
 20
277.8413594127039
 30
0.0
  0
POINT
  5
1319
330
1310
100
AcDbEntity
  8
Defpoints
 62
     0
100
AcDbPoint
 10
353.1089980329938
 20
277.8413594127039
 30
0.0
  0
ENDBLK
  5
131B
330
1310
100
AcDbEntity
  8
0
100
AcDbBlockEnd
  0
BLOCK
  5
1326
330
131C
100
AcDbEntity
  8
0
100
AcDbBlockBegin
  2
*D17
 70
     1
 10
0.0
 20
0.0
 30
0.0
  3
*D17
  1

  0
LINE
  5
131D
330
131C
100
AcDbEntity
  8
AM_5
100
AcDbLine
 10
209.1089980329938
 20
209.7413594127039
 30
0.0
 11
209.1089980329938
 21
186.7413594127041
 31
0.0
  0
LINE
  5
131E
330
131C
100
AcDbEntity
  8
AM_5
100
AcDbLine
 10
327.6089980329937
 20
216.741359412704
 30
0.0
 11
327.6089980329937
 21
186.7413594127041
 31
0.0
  0
LINE
  5
131F
330
131C
100
AcDbEntity
  8
AM_5
100
AcDbLine
 10
213.3089980329938
 20
188.8413594127041
 30
0.0
 11
323.4089980329937
 21
188.8413594127041
 31
0.0
  0
SOLID
  5
1320
330
131C
100
AcDbEntity
  8
AM_5
100
AcDbTrace
 10
213.3089980329938
 20
189.5413594127041
 30
0.0
 11
213.3089980329938
 21
188.1413594127041
 31
0.0
 12
209.1089980329938
 22
188.8413594127041
 32
0.0
 13
209.1089980329938
 23
188.8413594127041
 33
0.0
  0
SOLID
  5
1321
330
131C
100
AcDbEntity
  8
AM_5
100
AcDbTrace
 10
323.4089980329937
 20
189.5413594127041
 30
0.0
 11
323.4089980329937
 21
188.1413594127041
 31
0.0
 12
327.6089980329937
 22
188.8413594127041
 32
0.0
 13
327.6089980329937
 23
188.8413594127041
 33
0.0
  0
MTEXT
  5
1322
330
131C
100
AcDbEntity
  8
AM_5
100
AcDbMText
 10
268.3589980329938
 20
192.6913594127041
 30
0.0
 40
4.899999999999999
 41
0.0
 71
     5
 72
     1
  1
118.5
 73
     1
 44
1.0
1001
ACAD
1000
MTEXTBEGIN
1070
    73
1070
     1
1070
    44
1040
1.0
1070
    74
1070
     0
1000
MTEXTEND
  0
POINT
  5
1323
330
131C
100
AcDbEntity
  8
Defpoints
 62
     0
100
AcDbPoint
 10
209.1089980329938
 20
211.8413594127039
 30
0.0
  0
POINT
  5
1324
330
131C
100
AcDbEntity
  8
Defpoints
 62
     0
100
AcDbPoint
 10
327.6089980329937
 20
218.841359412704
 30
0.0
  0
POINT
  5
1325
330
131C
100
AcDbEntity
  8
Defpoints
 62
     0
100
AcDbPoint
 10
327.6089980329937
 20
188.8413594127041
 30
0.0
  0
ENDBLK
  5
1327
330
131C
100
AcDbEntity
  8
0
100
AcDbBlockEnd
  0
BLOCK
  5
1332
330
1328
100
AcDbEntity
  8
0
100
AcDbBlockBegin
  2
*D18
 70
     1
 10
0.0
 20
0.0
 30
0.0
  3
*D18
  1

  0
LINE
  5
1329
330
1328
100
AcDbEntity
  8
AM_5
100
AcDbLine
 10
209.1089980329938
 20
306.4466875831167
 30
0.0
 11
209.1089980329938
 21
293.4466875831168
 31
0.0
  0
LINE
  5
132A
330
1328
100
AcDbEntity
  8
AM_5
100
AcDbLine
 10
230.6089980329938
 20
309.3966875831168
 30
0.0
 11
230.6089980329938
 21
293.4466875831168
 31
0.0
  0
LINE
  5
132B
330
1328
100
AcDbEntity
  8
AM_5
100
AcDbLine
 10
213.3089980329938
 20
295.5466875831169
 30
0.0
 11
226.4089980329938
 21
295.5466875831169
 31
0.0
  0
SOLID
  5
132C
330
1328
100
AcDbEntity
  8
AM_5
100
AcDbTrace
 10
213.3089980329938
 20
296.2466875831168
 30
0.0
 11
213.3089980329938
 21
294.8466875831169
 31
0.0
 12
209.1089980329938
 22
295.5466875831169
 32
0.0
 13
209.1089980329938
 23
295.5466875831169
 33
0.0
  0
SOLID
  5
132D
330
1328
100
AcDbEntity
  8
AM_5
100
AcDbTrace
 10
226.4089980329938
 20
296.2466875831168
 30
0.0
 11
226.4089980329938
 21
294.8466875831169
 31
0.0
 12
230.6089980329938
 22
295.5466875831169
 32
0.0
 13
230.6089980329938
 23
295.5466875831169
 33
0.0
  0
MTEXT
  5
132E
330
1328
100
AcDbEntity
  8
AM_5
100
AcDbMText
 10
219.8589980329938
 20
299.3971698665814
 30
0.0
 40
4.899999999999999
 41
0.0
 71
     5
 72
     1
  1
21.5
 73
     1
 44
1.0
1001
ACAD
1000
MTEXTBEGIN
1070
    73
1070
     1
1070
    44
1040
1.0
1070
    74
1070
     0
1000
MTEXTEND
  0
POINT
  5
132F
330
1328
100
AcDbEntity
  8
Defpoints
 62
     0
100
AcDbPoint
 10
209.1089980329938
 20
308.5466875831167
 30
0.0
  0
POINT
  5
1330
330
1328
100
AcDbEntity
  8
Defpoints
 62
     0
100
AcDbPoint
 10
230.6089980329938
 20
311.4966875831168
 30
0.0
  0
POINT
  5
1331
330
1328
100
AcDbEntity
  8
Defpoints
 62
     0
100
AcDbPoint
 10
230.6089980329938
 20
295.5466875831169
 30
0.0
  0
ENDBLK
  5
1333
330
1328
100
AcDbEntity
  8
0
100
AcDbBlockEnd
  0
BLOCK
  5
133E
330
1334
100
AcDbEntity
  8
0
100
AcDbBlockBegin
  2
*D19
 70
     1
 10
0.0
 20
0.0
 30
0.0
  3
*D19
  1

  0
LINE
  5
1335
330
1334
100
AcDbEntity
  8
AM_5
100
AcDbLine
 10
230.6089980329938
 20
309.3966875831168
 30
0.0
 11
230.6089980329938
 21
293.4466875831168
 31
0.0
  0
LINE
  5
1336
330
1334
100
AcDbEntity
  8
AM_5
100
AcDbLine
 10
251.6089980329938
 20
306.4466875831168
 30
0.0
 11
251.6089980329938
 21
293.4466875831168
 31
0.0
  0
LINE
  5
1337
330
1334
100
AcDbEntity
  8
AM_5
100
AcDbLine
 10
234.8089980329937
 20
295.5466875831169
 30
0.0
 11
247.4089980329938
 21
295.5466875831169
 31
0.0
  0
SOLID
  5
1338
330
1334
100
AcDbEntity
  8
AM_5
100
AcDbTrace
 10
234.8089980329937
 20
296.2466875831168
 30
0.0
 11
234.8089980329937
 21
294.8466875831169
 31
0.0
 12
230.6089980329938
 22
295.5466875831169
 32
0.0
 13
230.6089980329938
 23
295.5466875831169
 33
0.0
  0
SOLID
  5
1339
330
1334
100
AcDbEntity
  8
AM_5
100
AcDbTrace
 10
247.4089980329938
 20
296.2466875831168
 30
0.0
 11
247.4089980329938
 21
294.8466875831169
 31
0.0
 12
251.6089980329938
 22
295.5466875831169
 32
0.0
 13
251.6089980329938
 23
295.5466875831169
 33
0.0
  0
MTEXT
  5
133A
330
1334
100
AcDbEntity
  8
AM_5
100
AcDbMText
 10
241.1089980329938
 20
299.3971698665814
 30
0.0
 40
4.899999999999999
 41
0.0
 71
     5
 72
     1
  1
21
 73
     1
 44
1.0
1001
ACAD
1000
MTEXTBEGIN
1070
    73
1070
     1
1070
    44
1040
1.0
1070
    74
1070
     0
1000
MTEXTEND
  0
POINT
  5
133B
330
1334
100
AcDbEntity
  8
Defpoints
 62
     0
100
AcDbPoint
 10
230.6089980329938
 20
311.4966875831168
 30
0.0
  0
POINT
  5
133C
330
1334
100
AcDbEntity
  8
Defpoints
 62
     0
100
AcDbPoint
 10
251.6089980329938
 20
308.5466875831169
 30
0.0
  0
POINT
  5
133D
330
1334
100
AcDbEntity
  8
Defpoints
 62
     0
100
AcDbPoint
 10
251.6089980329938
 20
295.5466875831169
 30
0.0
  0
ENDBLK
  5
133F
330
1334
100
AcDbEntity
  8
0
100
AcDbBlockEnd
  0
BLOCK
  5
134C
330
1340
100
AcDbEntity
  8
0
100
AcDbBlockBegin
  2
*D20
 70
     1
 10
0.0
 20
0.0
 30
0.0
  3
*D20
  1

  0
LINE
  5
1341
330
1340
100
AcDbEntity
  8
AM_5
100
AcDbLine
 10
265.2089980329938
 20
245.8413594127041
 30
0.0
 11
271.7092921199263
 21
245.8413594127041
 31
0.0
  0
LINE
  5
1342
330
1340
100
AcDbEntity
  8
AM_5
100
AcDbLine
 10
265.2089980329938
 20
242.8413594127039
 30
0.0
 11
271.7092921199263
 21
242.8413594127039
 31
0.0
  0
LINE
  5
1343
330
1340
100
AcDbEntity
  8
AM_5
100
AcDbLine
 10
269.6092921199263
 20
238.6413594127039
 30
0.0
 11
269.6092921199263
 21
234.4413594127038
 31
0.0
  0
LINE
  5
1344
330
1340
100
AcDbEntity
  8
AM_5
100
AcDbLine
 10
269.6092921199263
 20
250.041359412704
 30
0.0
 11
269.6092921199263
 21
259.2043240582668
 31
0.0
  0
LINE
  5
1345
330
1340
100
AcDbEntity
  8
AM_5
100
AcDbLine
 10
269.6092921199263
 20
242.8413594127039
 30
0.0
 11
269.6092921199263
 21
245.8413594127041
 31
0.0
  0
SOLID
  5
1346
330
1340
100
AcDbEntity
  8
AM_5
100
AcDbTrace
 10
268.9092921199263
 20
238.6413594127039
 30
0.0
 11
270.3092921199263
 21
238.6413594127039
 31
0.0
 12
269.6092921199263
 22
242.8413594127039
 32
0.0
 13
269.6092921199263
 23
242.8413594127039
 33
0.0
  0
SOLID
  5
1347
330
1340
100
AcDbEntity
  8
AM_5
100
AcDbTrace
 10
268.9092921199263
 20
250.041359412704
 30
0.0
 11
270.3092921199263
 21
250.041359412704
 31
0.0
 12
269.6092921199263
 22
245.8413594127041
 32
0.0
 13
269.6092921199263
 23
245.8413594127041
 33
0.0
  0
MTEXT
  5
1348
330
1340
100
AcDbEntity
  8
AM_5
100
AcDbMText
 10
265.7592921199262
 20
256.7228417354855
 30
0.0
 40
4.899999999999999
 41
0.0
 71
     5
 72
     1
  1
3
 11
0.0000000000000001
 21
1.0
 31
0.0
 73
     1
 44
1.0
1001
ACAD
1000
MTEXTBEGIN
1070
    73
1070
     1
1070
    44
1040
1.0
1070
    74
1070
     0
1000
MTEXTEND
  0
POINT
  5
1349
330
1340
100
AcDbEntity
  8
Defpoints
 62
     0
100
AcDbPoint
 10
263.1089980329938
 20
245.8413594127041
 30
0.0
  0
POINT
  5
134A
330
1340
100
AcDbEntity
  8
Defpoints
 62
     0
100
AcDbPoint
 10
263.1089980329938
 20
242.8413594127039
 30
0.0
  0
POINT
  5
134B
330
1340
100
AcDbEntity
  8
Defpoints
 62
     0
100
AcDbPoint
 10
269.6092921199263
 20
242.8413594127039
 30
0.0
  0
ENDBLK
  5
134D
330
1340
100
AcDbEntity
  8
0
100
AcDbBlockEnd
  0
BLOCK
  5
17BE
330
17B9
100
AcDbEntity
  8
0
100
AcDbBlockBegin
  2
*S22
 70
     1
 10
0.0
 20
0.0
 30
0.0
  3
*S22
  1

  0
LINE
  5
17BA
330
17B9
100
AcDbEntity
  8
AM_5
 62
     5
100
AcDbLine
 10
304.9028642557806
 20
295.3690395100908
 30
0.0
 11
271.4041036681
 21
295.3690395100908
 31
0.0
  0
LINE
  5
17BB
330
17B9
100
AcDbEntity
  8
AM_5
 62
     5
100
AcDbLine
 10
271.4041036681
 20
295.3690395100908
 30
0.0
 11
264.0783983483144
 21
305.1415859967316
 31
0.0
  0
TRACE
  5
17BC
330
17B9
100
AcDbEntity
  8
AM_5
 62
     5
370
    35
100
AcDbTrace
 10
264.5945700423321
 20
305.528519098555
 30
0.0
 11
263.5622266542966
 21
304.7546528949084
 31
0.0
 12
261.1393496356774
 22
309.062299281932
 32
0.0
 13
261.1393496356774
 23
309.062299281932
 33
0.0
  0
MTEXT
  5
17BD
330
17B9
100
AcDbEntity
  8
AM_5
 62
     5
100
AcDbMText
 10
304.9028642557806
 20
303.0164205130866
 30
0.0
 40
4.899999999999999
 41
0.0
 71
     7
 72
     5
  1

  7
ACISOTS
 73
     1
 44
1.0
1001
ACAD
1000
MTEXTBEGIN
1070
    73
1070
     1
1070
    44
1040
1.0
1070
    74
1070
     0
1000
MTEXTEND
  0
ENDBLK
  5
17BF
330
17B9
100
AcDbEntity
  8
0
100
AcDbBlockEnd
  0
BLOCK
  5
17C6
330
17C1
100
AcDbEntity
  8
0
100
AcDbBlockBegin
  2
*S23
 70
     1
 10
0.0
 20
0.0
 30
0.0
  3
*S23
  1

  0
LINE
  5
17C2
330
17C1
100
AcDbEntity
  8
AM_5
 62
     5
100
AcDbLine
 10
296.1316224884255
 20
338.823627509607
 30
0.0
 11
270.880903829894
 21
338.823627509607
 31
0.0
  0
LINE
  5
17C3
330
17C1
100
AcDbEntity
  8
AM_5
 62
     5
100
AcDbLine
 10
270.880903829894
 20
338.823627509607
 30
0.0
 11
259.8099131128385
 21
324.9723863843514
 31
0.0
  0
TRACE
  5
17C4
330
17C1
100
AcDbEntity
  8
AM_5
 62
     5
370
    35
100
AcDbTrace
 10
259.3059993474657
 20
325.3751535131734
 30
0.0
 11
260.3138268782114
 21
324.5696192555295
 31
0.0
 12
256.7505930239692
 22
321.144781311484
 32
0.0
 13
256.7505930239692
 23
321.144781311484
 33
0.0
  0
MTEXT
  5
17C5
330
17C1
100
AcDbEntity
  8
AM_5
 62
     5
100
AcDbMText
 10
296.1316224884255
 20
346.23059904029
 30
0.0
 40
4.899999999999999
 41
0.0
 71
     7
 72
     5
  1

  7
ACISOTS
 73
     1
 44
1.0
1001
ACAD
1000
MTEXTBEGIN
1070
    73
1070
     1
1070
    44
1040
1.0
1070
    74
1070
     0
1000
MTEXTEND
  0
ENDBLK
  5
17C7
330
17C1
100
AcDbEntity
  8
0
100
AcDbBlockEnd
  0
BLOCK
  5
17CE
330
17C9
100
AcDbEntity
  8
0
100
AcDbBlockBegin
  2
*S24
 70
     1
 10
0.0
 20
0.0
 30
0.0
  3
*S24
  1

  0
LINE
  5
17CA
330
17C9
100
AcDbEntity
  8
AM_5
 62
     5
100
AcDbLine
 10
298.7022991743458
 20
199.0899569224967
 30
0.0
 11
265.2035385866651
 21
199.0899569224967
 31
0.0
  0
LINE
  5
17CB
330
17C9
100
AcDbEntity
  8
AM_5
 62
     5
100
AcDbLine
 10
265.2035385866651
 20
199.0899569224967
 30
0.0
 11
255.3886290289678
 21
212.675425635843
 31
0.0
  0
TRACE
  5
17CC
330
17C9
100
AcDbEntity
  8
AM_5
 62
     5
370
    35
100
AcDbTrace
 10
255.9115378162315
 20
213.0532044642522
 30
0.0
 11
254.8657202417043
 21
212.2976468074339
 31
0.0
 12
252.5191139265754
 22
216.6473122250021
 32
0.0
 13
252.5191139265754
 23
216.6473122250021
 33
0.0
  0
MTEXT
  5
17CD
330
17C9
100
AcDbEntity
  8
AM_5
 62
     5
100
AcDbMText
 10
298.7022991743458
 20
206.7373379254925
 30
0.0
 40
4.899999999999999
 41
0.0
 71
     7
 72
     5
  1

  7
ACISOTS
 73
     1
 44
1.0
1001
ACAD
1000
MTEXTBEGIN
1070
    73
1070
     1
1070
    44
1040
1.0
1070
    74
1070
     0
1000
MTEXTEND
  0
ENDBLK
  5
17CF
330
17C9
100
AcDbEntity
  8
0
100
AcDbBlockEnd
  0
BLOCK
  5
17D6
330
17D1
100
AcDbEntity
  8
0
100
AcDbBlockBegin
  2
*S25
 70
     1
 10
0.0
 20
0.0
 30
0.0
  3
*S25
  1

  0
LINE
  5
17D2
330
17D1
100
AcDbEntity
  8
AM_5
 62
     5
100
AcDbLine
 10
300.9451899463217
 20
133.1624499744147
 30
0.0
 11
275.013017099221
 21
133.1624499744147
 31
0.0
  0
LINE
  5
17D3
330
17D1
100
AcDbEntity
  8
AM_5
 62
     5
100
AcDbLine
 10
275.013017099221
 20
133.1624499744147
 30
0.0
 11
265.3314243193023
 21
149.7974834789121
 31
0.0
  0
TRACE
  5
17D4
330
17D1
100
AcDbEntity
  8
AM_5
 62
     5
370
    35
100
AcDbTrace
 10
265.8889689255634
 20
150.1219745496996
 30
0.0
 11
264.7738797130411
 21
149.4729924081246
 31
0.0
 12
262.8666699228284
 22
154.032455233843
 32
0.0
 13
262.8666699228284
 23
154.032455233843
 33
0.0
  0
MTEXT
  5
17D5
330
17D1
100
AcDbEntity
  8
AM_5
 62
     5
100
AcDbMText
 10
300.9451899463217
 20
141.4438678980974
 30
0.0
 40
4.899999999999999
 41
0.0
 71
     7
 72
     5
  1

  7
ACISOTS
 73
     1
 44
1.0
1001
ACAD
1000
MTEXTBEGIN
1070
    73
1070
     1
1070
    44
1040
1.0
1070
    74
1070
     0
1000
MTEXTEND
  0
ENDBLK
  5
17D7
330
17D1
100
AcDbEntity
  8
0
100
AcDbBlockEnd
  0
ENDSEC
  0
SECTION
  2
ENTITIES
  0
LINE
  5
F14
330
1F
100
AcDbEntity
  8
AM_VIS
100
AcDbLine
 10
320.1089980329938
 20
168.3116069473701
 30
0.0
 11
290.1089980329938
 21
168.3116069473702
 31
0.0
  0
LINE
  5
F15
330
1F
100
AcDbEntity
  8
AM_VIS
100
AcDbLine
 10
290.1089980329938
 20
146.3116069473702
 30
0.0
 11
320.1089980329938
 21
146.3116069473701
 31
0.0
  0
LINE
  5
F16
330
1F
100
AcDbEntity
  8
AM_VIS
100
AcDbLine
 10
290.1089980329938
 20
168.2616069473701
 30
0.0
 11
290.1089980329938
 21
168.3116069473702
 31
0.0
  0
LINE
  5
F17
330
1F
100
AcDbEntity
  8
AM_VIS
100
AcDbLine
 10
290.1089980329938
 20
146.3116069473702
 30
0.0
 11
290.1089980329938
 21
146.3616069473701
 31
0.0
  0
LINE
  5
F18
330
1F
100
AcDbEntity
  8
AM_VIS
100
AcDbLine
 10
225.5089980329939
 20
160.4967705091769
 30
0.0
 11
225.5089980329939
 21
154.1264433855634
 31
0.0
  0
LINE
  5
F19
330
1F
100
AcDbEntity
  8
AM_VIS
100
AcDbLine
 10
216.1089980329938
 20
168.4616069473703
 30
0.0
 11
216.1089980329938
 21
159.8116069473704
 31
0.0
  0
LINE
  5
F1A
330
1F
100
AcDbEntity
  8
AM_VIS
100
AcDbLine
 10
216.1089980329938
 20
154.8116069473703
 30
0.0
 11
216.1089980329938
 21
146.1616069473704
 31
0.0
  0
LINE
  5
F1B
330
1F
100
AcDbEntity
  8
AM_VIS
100
AcDbLine
 10
255.2589980329937
 20
156.271046081557
 30
0.0
 11
255.2589980329937
 21
158.3521678131833
 31
0.0
  0
LINE
  5
F1C
330
1F
100
AcDbEntity
  8
AM_VIS
100
AcDbLine
 10
247.7292321678262
 20
166.4616069473702
 30
0.0
 11
255.1212630761221
 21
166.4616069473702
 31
0.0
  0
LINE
  5
F1D
330
1F
100
AcDbEntity
  8
AM_VIS
100
AcDbLine
 10
259.6089980329938
 20
148.1616069473701
 30
0.0
 11
247.7292321678261
 21
148.1616069473701
 31
0.0
  0
LINE
  5
F1E
330
1F
100
AcDbEntity
  8
AM_VIS
100
AcDbLine
 10
259.1089980329938
 20
150.3116069473702
 30
0.0
 11
259.6089980329938
 21
150.3116069473702
 31
0.0
  0
LINE
  5
F1F
330
1F
100
AcDbEntity
  8
AM_VIS
100
AcDbLine
 10
234.4887638981614
 20
148.1616069473701
 30
0.0
 11
227.0967329898655
 21
148.1616069473701
 31
0.0
  0
LINE
  5
F20
330
1F
100
AcDbEntity
  8
AM_VIS
100
AcDbLine
 10
222.6089980329938
 20
166.4616069473702
 30
0.0
 11
234.4887638981614
 21
166.4616069473702
 31
0.0
  0
LINE
  5
F21
330
1F
100
AcDbEntity
  8
AM_VIS
100
AcDbLine
 10
223.1089980329938
 20
164.3116069473702
 30
0.0
 11
222.6089980329938
 21
164.3116069473702
 31
0.0
  0
LINE
  5
F22
330
1F
100
AcDbEntity
  8
AM_VIS
100
AcDbLine
 10
251.5096559562085
 20
158.8116069473702
 30
0.0
 11
251.3070370601794
 21
158.8116069473702
 31
0.0
  0
LINE
  5
F23
330
1F
100
AcDbEntity
  8
AM_VIS
100
AcDbLine
 10
251.3070370601794
 20
155.8116069473702
 30
0.0
 11
251.5096559562085
 21
155.8116069473702
 31
0.0
  0
LINE
  5
F24
330
1F
100
AcDbEntity
  8
AM_VIS
100
AcDbLine
 10
230.7083401097791
 20
155.8116069473701
 30
0.0
 11
230.9109590058082
 21
155.8116069473701
 31
0.0
  0
LINE
  5
F25
330
1F
100
AcDbEntity
  8
AM_VIS
100
AcDbLine
 10
230.9109590058082
 20
158.8116069473701
 30
0.0
 11
230.7083401097791
 21
158.8116069473701
 31
0.0
  0
LINE
  5
F26
330
1F
100
AcDbEntity
  8
AM_VIS
100
AcDbLine
 10
243.3589980329938
 20
157.3116069473702
 30
0.0
 11
243.3589980329938
 21
152.3799405283705
 31
0.0
  0
LINE
  5
F27
330
1F
100
AcDbEntity
  8
AM_VIS
100
AcDbLine
 10
266.1089980329938
 20
168.4616069473702
 30
0.0
 11
216.1089980329938
 21
168.4616069473702
 31
0.0
  0
LINE
  5
F28
330
1F
100
AcDbEntity
  8
AM_VIS
100
AcDbLine
 10
216.1089980329938
 20
146.1616069473701
 30
0.0
 11
266.1089980329938
 21
146.1616069473701
 31
0.0
  0
LINE
  5
F29
330
1F
100
AcDbEntity
  8
AM_VIS
100
AcDbLine
 10
222.9589980329938
 20
153.3262880246914
 30
0.0
 11
222.9589980329938
 21
154.8116069473701
 31
0.0
  0
LINE
  5
F2A
330
1F
100
AcDbEntity
  8
AM_VIS
100
AcDbLine
 10
222.9589980329938
 20
159.8116069473702
 30
0.0
 11
222.9589980329938
 21
161.296925870049
 31
0.0
  0
ARC
  5
F2B
330
1F
100
AcDbEntity
  8
AM_VIS
100
AcDbCircle
 10
259.3437743438388
 20
157.3116069473702
 30
0.0
 40
36.47056274847199
100
AcDbArc
 50
176.0693816181813
 51
183.9306183818187
  0
LINE
  5
F2C
330
1F
100
AcDbEntity
  8
AM_VIS
100
AcDbLine
 10
259.2589980329937
 20
161.296925870049
 30
0.0
 11
259.2589980329937
 21
159.8116069473702
 31
0.0
  0
LINE
  5
F2D
330
1F
100
AcDbEntity
  8
AM_VIS
100
AcDbLine
 10
259.2589980329937
 20
154.8116069473701
 30
0.0
 11
259.2589980329937
 21
153.3262880246914
 31
0.0
  0
ARC
  5
F2E
330
1F
100
AcDbEntity
  8
AM_VIS
100
AcDbCircle
 10
222.8742217221487
 20
157.3116069473702
 30
0.0
 40
36.47056274847199
100
AcDbArc
 50
356.0693816181813
 51
3.930618381818695
  0
LINE
  5
F2F
330
1F
100
AcDbEntity
  8
AM_VIS
100
AcDbLine
 10
243.3589980329938
 20
162.2432733663698
 30
0.0
 11
243.3589980329938
 21
157.3116069473702
 31
0.0
  0
ARC
  5
F30
330
1F
100
AcDbEntity
  8
AM_VIS
100
AcDbCircle
 10
240.4379055144287
 20
158.3200083543437
 30
0.0
 40
4.229061029297184
100
AcDbArc
 50
111.9221875425795
 51
127.5754886427645
  0
ARC
  5
F31
330
1F
100
AcDbEntity
  8
AM_VIS
100
AcDbCircle
 10
241.78009055156
 20
158.3200083543459
 30
0.0
 40
4.229061029294741
100
AcDbArc
 50
52.42451135722966
 51
68.07781245742413
  0
LINE
  5
F32
330
1F
100
AcDbEntity
  8
AM_VIS
100
AcDbLine
 10
238.8589980329938
 20
152.3799405283705
 30
0.0
 11
238.8589980329938
 21
157.3116069473702
 31
0.0
  0
LINE
  5
F33
330
1F
100
AcDbEntity
  8
AM_VIS
100
AcDbLine
 10
238.8589980329938
 20
157.3116069473702
 30
0.0
 11
238.8589980329938
 21
162.2432733663698
 31
0.0
  0
LINE
  5
F34
330
1F
100
AcDbEntity
  8
AM_VIS
100
AcDbLine
 10
221.6089980329938
 20
165.3116069473702
 30
0.0
 11
221.6089980329938
 21
165.4616069473702
 31
0.0
  0
LINE
  5
F35
330
1F
100
AcDbEntity
  8
AM_VIS
100
AcDbLine
 10
216.1089980329938
 20
167.9616069473702
 30
0.0
 11
216.1089980329938
 21
146.6616069473701
 31
0.0
  0
LINE
  5
F36
330
1F
100
AcDbEntity
  8
AM_VIS
100
AcDbLine
 10
260.6089980329938
 20
149.3116069473702
 30
0.0
 11
260.6089980329938
 21
149.1616069473701
 31
0.0
  0
LINE
  5
F37
330
1F
100
AcDbEntity
  8
AM_VIS
100
AcDbLine
 10
266.1089980329938
 20
146.6616069473701
 30
0.0
 11
266.1089980329938
 21
167.9616069473702
 31
0.0
  0
ARC
  5
F38
330
1F
100
AcDbEntity
  8
AM_VIS
100
AcDbCircle
 10
223.1089980329938
 20
157.3116069473702
 30
0.0
 40
3.98814078430813
100
AcDbArc
 50
114.4391511387345
 51
245.5608488612655
  0
ARC
  5
F39
330
1F
100
AcDbEntity
  8
AM_VIS
100
AcDbCircle
 10
259.1089980329938
 20
157.3116069473702
 30
0.0
 40
3.98814078430813
100
AcDbArc
 50
294.4391511387345
 51
65.56084886126548
  0
ARC
  5
F3A
330
1F
100
AcDbEntity
  8
AM_VIS
100
AcDbCircle
 10
259.1089980329938
 20
157.3116069473702
 30
0.0
 40
3.98814078430813
100
AcDbArc
 50
164.8757108018935
 51
195.1242891981065
  0
ARC
  5
F3B
330
1F
100
AcDbEntity
  8
AM_VIS
100
AcDbCircle
 10
223.1089980329938
 20
157.3116069473702
 30
0.0
 40
3.98814078430813
100
AcDbArc
 50
344.8757108018935
 51
15.12428919810649
  0
ARC
  5
F3C
330
1F
100
AcDbEntity
  8
AM_VIS
100
AcDbCircle
 10
259.1089980329938
 20
157.3116069473702
 30
0.0
 40
3.98814078430813
100
AcDbArc
 50
65.56084886126548
 51
164.8757108018935
  0
ARC
  5
F3D
330
1F
100
AcDbEntity
  8
AM_VIS
100
AcDbCircle
 10
223.1089980329938
 20
157.3116069473702
 30
0.0
 40
3.98814078430813
100
AcDbArc
 50
245.5608488612655
 51
344.8757108018935
  0
ARC
  5
F3E
330
1F
100
AcDbEntity
  8
AM_VIS
100
AcDbCircle
 10
255.3244147827953
 20
164.3597932120994
 30
0.0
 40
1.0
100
AcDbArc
 50
298.2339511367385
 51
16.87967440363548
  0
ARC
  5
F3F
330
1F
100
AcDbEntity
  8
AM_VIS
100
AcDbCircle
 10
260.1089980329938
 20
165.8116069473702
 30
0.0
 40
4.0
100
AcDbArc
 50
184.0139872180559
 51
196.8796744036355
  0
ARC
  5
F40
330
1F
100
AcDbEntity
  8
AM_VIS
100
AcDbCircle
 10
255.1212630761221
 20
165.4616069473702
 30
0.0
 40
1.0
100
AcDbArc
 50
4.013987218055889
 51
90.0
  0
ARC
  5
F41
330
1F
100
AcDbEntity
  8
AM_VIS
100
AcDbCircle
 10
247.7292321678262
 20
165.4616069473702
 30
0.0
 40
0.9999999999999998
100
AcDbArc
 50
90.0
 51
230.913090264759
  0
ARC
  5
F42
330
1F
100
AcDbEntity
  8
AM_VIS
100
AcDbCircle
 10
241.1089980329938
 20
157.3116069473702
 30
0.0
 40
9.5
100
AcDbArc
 50
13.77414699802693
 51
50.91309026475897
  0
CIRCLE
  5
F43
330
1F
100
AcDbEntity
  8
AM_VIS
100
AcDbCircle
 10
241.1089980329938
 20
157.3116069473702
 30
0.0
 40
6.700000000000001
  0
CIRCLE
  5
F44
330
1F
100
AcDbEntity
  8
AM_VIS
100
AcDbCircle
 10
223.1089980329938
 20
157.3116069473702
 30
0.0
 40
5.25
  0
CIRCLE
  5
F45
330
1F
100
AcDbEntity
  8
AM_VIS
100
AcDbCircle
 10
259.1089980329938
 20
157.3116069473702
 30
0.0
 40
5.250000000000001
  0
ARC
  5
F46
330
1F
100
AcDbEntity
  8
AM_VIS
100
AcDbCircle
 10
247.7292321678261
 20
149.1616069473701
 30
0.0
 40
0.9999999999999998
100
AcDbArc
 50
129.086909735241
 51
270.0
  0
ARC
  5
F47
330
1F
100
AcDbEntity
  8
AM_VIS
100
AcDbCircle
 10
259.6089980329938
 20
149.3116069473702
 30
0.0
 40
0.9999999999999998
100
AcDbArc
 50
0.0
 51
90.0
  0
ARC
  5
F48
330
1F
100
AcDbEntity
  8
AM_VIS
100
AcDbCircle
 10
226.8935812831923
 20
150.2634206826409
 30
0.0
 40
1.0
100
AcDbArc
 50
118.2339511367386
 51
196.8796744036355
  0
ARC
  5
F49
330
1F
100
AcDbEntity
  8
AM_VIS
100
AcDbCircle
 10
222.1089980329938
 20
148.8116069473702
 30
0.0
 40
4.0
100
AcDbArc
 50
4.013987218055889
 51
16.87967440363548
  0
ARC
  5
F4A
330
1F
100
AcDbEntity
  8
AM_VIS
100
AcDbCircle
 10
227.0967329898655
 20
149.1616069473701
 30
0.0
 40
0.9999999999999998
100
AcDbArc
 50
184.0139872180559
 51
270.0
  0
ARC
  5
F4B
330
1F
100
AcDbEntity
  8
AM_VIS
100
AcDbCircle
 10
234.4887638981614
 20
149.1616069473701
 30
0.0
 40
1.0
100
AcDbArc
 50
270.0
 51
50.91309026475897
  0
ARC
  5
F4C
330
1F
100
AcDbEntity
  8
AM_VIS
100
AcDbCircle
 10
234.4887638981614
 20
165.4616069473702
 30
0.0
 40
0.9999999999999998
100
AcDbArc
 50
309.086909735241
 51
90.0
  0
ARC
  5
F4D
330
1F
100
AcDbEntity
  8
AM_VIS
100
AcDbCircle
 10
222.6089980329938
 20
165.3116069473702
 30
0.0
 40
0.9999999999999998
100
AcDbArc
 50
180.0
 51
270.0
  0
ARC
  5
F4E
102
{ACAD_REACTORS
330
11CA
102
}
330
1F
100
AcDbEntity
  8
AM_VIS
100
AcDbCircle
 10
259.1089980329938
 20
157.3116069473702
 30
0.0
 40
7.0
100
AcDbArc
 50
198.2099568642828
 51
270.0
  0
ARC
  5
F4F
330
1F
100
AcDbEntity
  8
AM_VIS
100
AcDbCircle
 10
259.1089980329938
 20
157.3116069473702
 30
0.0
 40
7.0
100
AcDbArc
 50
118.2339511367407
 51
161.7900431357172
  0
ARC
  5
F50
330
1F
100
AcDbEntity
  8
AM_VIS
100
AcDbCircle
 10
251.5096559562085
 20
159.8116069473702
 30
0.0
 40
1.0
100
AcDbArc
 50
270.0
 51
341.7900431357172
  0
ARC
  5
F51
330
1F
100
AcDbEntity
  8
AM_VIS
100
AcDbCircle
 10
251.3070370601794
 20
159.8116069473702
 30
0.0
 40
0.9999999999999998
100
AcDbArc
 50
193.7741469980269
 51
270.0
  0
ARC
  5
F52
330
1F
100
AcDbEntity
  8
AM_VIS
100
AcDbCircle
 10
241.1089980329938
 20
157.3116069473702
 30
0.0
 40
9.5
100
AcDbArc
 50
309.086909735241
 51
346.2258530019731
  0
ARC
  5
F53
330
1F
100
AcDbEntity
  8
AM_VIS
100
AcDbCircle
 10
251.3070370601794
 20
154.8116069473702
 30
0.0
 40
1.0
100
AcDbArc
 50
90.0
 51
166.225853001973
  0
ARC
  5
F54
330
1F
100
AcDbEntity
  8
AM_VIS
100
AcDbCircle
 10
251.5096559562085
 20
154.8116069473702
 30
0.0
 40
1.0
100
AcDbArc
 50
18.20995686428278
 51
90.0
  0
ARC
  5
F55
330
1F
100
AcDbEntity
  8
AM_VIS
100
AcDbCircle
 10
241.1089980329938
 20
157.3116069473702
 30
0.0
 40
9.5
100
AcDbArc
 50
193.7741469980269
 51
230.913090264759
  0
ARC
  5
F56
330
1F
100
AcDbEntity
  8
AM_VIS
100
AcDbCircle
 10
223.1089980329938
 20
157.3116069473702
 30
0.0
 40
7.0
100
AcDbArc
 50
18.20995686428278
 51
90.0
  0
ARC
  5
F57
330
1F
100
AcDbEntity
  8
AM_VIS
100
AcDbCircle
 10
223.1089980329938
 20
157.3116069473702
 30
0.0
 40
7.0
100
AcDbArc
 50
298.2339511367408
 51
341.7900431357172
  0
ARC
  5
F58
330
1F
100
AcDbEntity
  8
AM_VIS
100
AcDbCircle
 10
230.7083401097791
 20
154.8116069473701
 30
0.0
 40
1.0
100
AcDbArc
 50
90.0
 51
161.7900431357172
  0
ARC
  5
F59
330
1F
100
AcDbEntity
  8
AM_VIS
100
AcDbCircle
 10
230.9109590058082
 20
154.8116069473701
 30
0.0
 40
0.9999999999999998
100
AcDbArc
 50
13.77414699802693
 51
90.0
  0
ARC
  5
F5A
330
1F
100
AcDbEntity
  8
AM_VIS
100
AcDbCircle
 10
241.1089980329938
 20
157.3116069473702
 30
0.0
 40
9.5
100
AcDbArc
 50
129.086909735241
 51
166.225853001973
  0
ARC
  5
F5B
330
1F
100
AcDbEntity
  8
AM_VIS
100
AcDbCircle
 10
230.9109590058082
 20
159.8116069473701
 30
0.0
 40
0.9999999999999998
100
AcDbArc
 50
270.0
 51
346.2258530019731
  0
ARC
  5
F5C
330
1F
100
AcDbEntity
  8
AM_VIS
100
AcDbCircle
 10
230.7083401097791
 20
159.8116069473701
 30
0.0
 40
0.9999999999999998
100
AcDbArc
 50
198.2099568642828
 51
270.0
  0
ARC
  5
F5D
330
1F
100
AcDbEntity
  8
AM_VIS
100
AcDbCircle
 10
241.1089980329938
 20
157.3116069473702
 30
0.0
 40
5.438140784308131
100
AcDbArc
 50
126.7003983555951
 51
233.2996016444049
  0
ARC
  5
F5E
330
1F
100
AcDbEntity
  8
AM_VIS
100
AcDbCircle
 10
241.1089980329938
 20
157.3116069473702
 30
0.0
 40
5.438140784308131
100
AcDbArc
 50
306.7003983555951
 51
53.29960164440488
  0
CIRCLE
  5
F5F
330
1F
100
AcDbEntity
  8
AM_VIS
100
AcDbCircle
 10
260.1089980329938
 20
165.8116069473702
 30
0.0
 40
1.6
  0
ARC
  5
F60
330
1F
100
AcDbEntity
  8
AM_VIS
100
AcDbCircle
 10
223.1089980329938
 20
157.3116069473702
 30
0.0
 40
3.98814078430813
100
AcDbArc
 50
15.12428919810649
 51
114.4391511387345
  0
ARC
  5
F61
330
1F
100
AcDbEntity
  8
AM_VIS
100
AcDbCircle
 10
259.1089980329938
 20
157.3116069473702
 30
0.0
 40
3.98814078430813
100
AcDbArc
 50
195.1242891981065
 51
294.4391511387345
  0
ARC
  5
F62
330
1F
100
AcDbEntity
  8
AM_VIS
100
AcDbCircle
 10
241.1089980329938
 20
157.3116069473702
 30
0.0
 40
5.438140784308131
100
AcDbArc
 50
53.29960164440488
 51
126.7003983555951
  0
ARC
  5
F63
330
1F
100
AcDbEntity
  8
AM_VIS
100
AcDbCircle
 10
241.1089980329938
 20
157.3116069473702
 30
0.0
 40
5.438140784308131
100
AcDbArc
 50
233.2996016444049
 51
306.7003983555951
  0
ARC
  5
F64
330
1F
100
AcDbEntity
  8
AM_VIS
100
AcDbCircle
 10
222.6089980329938
 20
165.4616069473702
 30
0.0
 40
0.9999999999999998
100
AcDbArc
 50
90.0
 51
180.0
  0
CIRCLE
  5
F65
330
1F
100
AcDbEntity
  8
AM_VIS
100
AcDbCircle
 10
222.1089980329938
 20
148.8116069473702
 30
0.0
 40
1.6
  0
ARC
  5
F66
330
1F
100
AcDbEntity
  8
AM_VIS
100
AcDbCircle
 10
259.6089980329938
 20
149.1616069473701
 30
0.0
 40
0.9999999999999998
100
AcDbArc
 50
270.0
 51
0.0
  0
ARC
  5
F67
330
1F
100
AcDbEntity
  8
AM_VIS
100
AcDbCircle
 10
251.1089980329938
 20
217.8413594127039
 30
0.0
 40
4.703069865443481
100
AcDbArc
 50
0.0
 51
180.0
  0
ARC
  5
F68
330
1F
100
AcDbEntity
  8
AM_VIS
100
AcDbCircle
 10
241.1089980329938
 20
241.3413594127038
 30
0.0
 40
4.203069865443484
100
AcDbArc
 50
180.0
 51
0.0
  0
ARC
  5
F69
330
1F
100
AcDbEntity
  8
AM_VIS
100
AcDbCircle
 10
231.1089980329938
 20
217.8413594127039
 30
0.0
 40
4.703069865443481
100
AcDbArc
 50
0.0
 51
180.0
  0
LINE
  5
F6A
330
1F
100
AcDbEntity
  8
AM_VIS
100
AcDbLine
 10
263.1089980329938
 20
245.3413594127039
 30
0.0
 11
263.1089980329938
 21
245.8413594127039
 31
0.0
  0
LINE
  5
F6B
330
1F
100
AcDbEntity
  8
AM_VIS
100
AcDbLine
 10
257.1089980329938
 20
245.8413594127039
 30
0.0
 11
257.1089980329938
 21
245.3413594127039
 31
0.0
  0
LINE
  5
F6C
330
1F
100
AcDbEntity
  8
AM_VIS
100
AcDbLine
 10
257.1089980329938
 20
245.8413594127039
 30
0.0
 11
263.1089980329938
 21
245.8413594127039
 31
0.0
  0
CIRCLE
  5
F6D
330
1F
100
AcDbEntity
  8
AM_VIS
100
AcDbCircle
 10
241.1089980329938
 20
241.3413594127039
 30
0.0
 40
1.399999999999999
  0
LINE
  5
F6E
330
1F
100
AcDbEntity
  8
AM_VIS
100
AcDbLine
 10
266.1089980329937
 20
329.8466875831169
 30
0.0
 11
288.1089980329937
 21
329.646687583117
 31
0.0
  0
LINE
  5
F6F
330
1F
100
AcDbEntity
  8
AM_VIS
100
AcDbLine
 10
266.1089980329937
 20
307.546687583117
 30
0.0
 11
266.1089980329937
 21
329.8466875831169
 31
0.0
  0
CIRCLE
  5
F70
330
1F
100
AcDbEntity
  8
AM_VIS
100
AcDbCircle
 10
279.3089980329937
 20
318.696687583117
 30
0.0
 40
3.5
  0
LINE
  5
F71
330
1F
100
AcDbEntity
  8
AM_VIS
100
AcDbLine
 10
281.7584877757769
 20
321.196687583117
 30
0.0
 11
281.6364967185867
 21
321.196687583117
 31
0.0
  0
LINE
  5
F72
330
1F
100
AcDbEntity
  8
AM_VIS
100
AcDbLine
 10
288.1089980329937
 20
307.746687583117
 30
0.0
 11
266.1089980329937
 21
307.546687583117
 31
0.0
  0
CIRCLE
  5
F73
330
1F
100
AcDbEntity
  8
AM_VIS
100
AcDbCircle
 10
277.1089980329937
 20
325.696687583117
 30
0.0
 40
1.0
  0
LINE
  5
F74
330
1F
100
AcDbEntity
  8
AM_VIS
100
AcDbLine
 10
288.1089980329937
 20
329.646687583117
 30
0.0
 11
288.1089980329937
 21
307.746687583117
 31
0.0
  0
LINE
  5
F75
330
1F
100
AcDbEntity
  8
AM_VIS
100
AcDbLine
 10
281.7584877757769
 20
316.1966875831169
 30
0.0
 11
281.6364967185878
 21
316.1966875831169
 31
0.0
  0
LINE
  5
F76
330
1F
100
AcDbEntity
  8
AM_VIS
100
AcDbLine
 10
278.7589980329935
 20
320.4966875831166
 30
0.0
 11
279.7589980329935
 21
320.4966875831166
 31
0.0
  0
LINE
  5
F77
330
1F
100
AcDbEntity
  8
AM_VIS
100
AcDbLine
 10
279.7589980329935
 20
320.4966875831166
 30
0.0
 11
279.7589980329935
 21
316.8966875831164
 31
0.0
  0
LINE
  5
F78
330
1F
100
AcDbEntity
  8
AM_VIS
100
AcDbLine
 10
279.7589980329935
 20
316.8966875831164
 30
0.0
 11
278.7589980329935
 21
316.8966875831164
 31
0.0
  0
LINE
  5
F79
330
1F
100
AcDbEntity
  8
AM_VIS
100
AcDbLine
 10
278.7589980329935
 20
316.8966875831165
 30
0.0
 11
278.7589980329935
 21
320.4966875831166
 31
0.0
  0
CIRCLE
  5
F7A
330
1F
100
AcDbEntity
  8
AM_VIS
100
AcDbCircle
 10
279.2589980329935
 20
318.6966875831165
 30
0.0
 40
3.45
  0
LINE
  5
F7B
330
1F
100
AcDbEntity
  8
AM_VIS
100
AcDbLine
 10
290.1089980329937
 20
329.646687583117
 30
0.0
 11
288.1089980329937
 21
329.646687583117
 31
0.0
  0
LINE
  5
F7C
330
1F
100
AcDbEntity
  8
AM_VIS
100
AcDbLine
 10
288.1089980329937
 20
307.746687583117
 30
0.0
 11
290.1089980329937
 21
307.746687583117
 31
0.0
  0
LINE
  5
F7D
330
1F
100
AcDbEntity
  8
AM_VIS
100
AcDbLine
 10
288.1089980329937
 20
308.746687583117
 30
0.0
 11
288.1089980329937
 21
328.646687583117
 31
0.0
  0
LINE
  5
F7E
330
1F
100
AcDbEntity
  8
AM_VIS
100
AcDbLine
 10
281.6879895932913
 20
321.1466875831169
 30
0.0
 11
281.8084979829838
 21
321.1466875831169
 31
0.0
  0
LINE
  5
F7F
330
1F
100
AcDbEntity
  8
AM_VIS
100
AcDbLine
 10
281.8084979829837
 20
316.246687583117
 30
0.0
 11
281.6879895932922
 21
316.246687583117
 31
0.0
  0
LINE
  5
F80
330
1F
100
AcDbEntity
  8
AM_VIS
100
AcDbLine
 10
216.1089980329938
 20
329.8466875831167
 30
0.0
 11
216.1089980329938
 21
307.5466875831168
 31
0.0
  0
LINE
  5
F81
330
1F
100
AcDbEntity
  8
AM_VIS
100
AcDbLine
 10
230.8589980329938
 20
318.6966875831168
 30
0.0
 11
230.8589980329938
 21
325.6290788788499
 31
0.0
  0
LINE
  5
F82
330
1F
100
AcDbEntity
  8
AM_VIS
100
AcDbLine
 10
251.3589980329938
 20
322.6290788788499
 30
0.0
 11
251.3589980329938
 21
311.7642962873839
 31
0.0
  0
LINE
  5
F83
330
1F
100
AcDbEntity
  8
AM_VIS
100
AcDbLine
 10
263.1089980329938
 20
307.5466875831168
 30
0.0
 11
266.1089980329938
 21
307.5466875831168
 31
0.0
  0
LINE
  5
F84
330
1F
100
AcDbEntity
  8
AM_VIS
100
AcDbLine
 10
216.1089980329938
 20
307.5466875831168
 30
0.0
 11
257.1089980329938
 21
307.5466875831168
 31
0.0
  0
LINE
  5
F85
330
1F
100
AcDbEntity
  8
AM_VIS
100
AcDbLine
 10
250.7919913010755
 20
310.5466875831169
 30
0.0
 11
252.4260047649121
 21
310.5466875831169
 31
0.0
  0
LINE
  5
F86
330
1F
100
AcDbEntity
  8
AM_VIS
100
AcDbLine
 10
248.1089980329938
 20
326.8466875831169
 30
0.0
 11
248.1089980329938
 21
326.683520563622
 31
0.0
  0
LINE
  5
F87
330
1F
100
AcDbEntity
  8
AM_VIS
100
AcDbLine
 10
238.7347287693645
 20
327.8466875831169
 30
0.0
 11
247.1089980329938
 21
327.8466875831169
 31
0.0
  0
LINE
  5
F88
330
1F
100
AcDbEntity
  8
AM_VIS
100
AcDbLine
 10
234.1089980329938
 20
310.5466875831169
 30
0.0
 11
234.1089980329938
 21
310.7098546026117
 31
0.0
  0
LINE
  5
F89
330
1F
100
AcDbEntity
  8
AM_VIS
100
AcDbLine
 10
243.4832672966231
 20
309.5466875831168
 30
0.0
 11
235.1089980329938
 21
309.5466875831168
 31
0.0
  0
LINE
  5
F8A
330
1F
100
AcDbEntity
  8
AM_VIS
100
AcDbLine
 10
264.6089980329938
 20
326.8466875831169
 30
0.0
 11
264.6089980329938
 21
316.2588654096079
 31
0.0
  0
LINE
  5
F8B
330
1F
100
AcDbEntity
  8
AM_VIS
100
AcDbLine
 10
256.1089980329938
 20
327.8466875831169
 30
0.0
 11
263.6089980329938
 21
327.8466875831169
 31
0.0
  0
LINE
  5
F8C
330
1F
100
AcDbEntity
  8
AM_VIS
100
AcDbLine
 10
255.1089980329938
 20
326.683520563622
 30
0.0
 11
255.1089980329938
 21
326.8466875831169
 31
0.0
  0
LINE
  5
F8D
330
1F
100
AcDbEntity
  8
AM_VIS
100
AcDbLine
 10
217.6089980329938
 20
310.5466875831169
 30
0.0
 11
217.6089980329938
 21
321.1345097566258
 31
0.0
  0
LINE
  5
F8E
330
1F
100
AcDbEntity
  8
AM_VIS
100
AcDbLine
 10
226.1089980329938
 20
309.5466875831168
 30
0.0
 11
218.6089980329938
 21
309.5466875831168
 31
0.0
  0
LINE
  5
F8F
330
1F
100
AcDbEntity
  8
AM_VIS
100
AcDbLine
 10
227.1089980329938
 20
310.7098546026117
 30
0.0
 11
227.1089980329938
 21
310.5466875831169
 31
0.0
  0
LINE
  5
F90
330
1F
100
AcDbEntity
  8
AM_VIS
100
AcDbLine
 10
219.1089980329938
 20
327.1966875831168
 30
0.0
 11
219.1089980329938
 21
329.3466875831169
 31
0.0
  0
LINE
  5
F91
330
1F
100
AcDbEntity
  8
AM_VIS
100
AcDbLine
 10
225.1089980329938
 20
329.3466875831169
 30
0.0
 11
225.1089980329938
 21
327.1966875831168
 31
0.0
  0
LINE
  5
F92
330
1F
100
AcDbEntity
  8
AM_VIS
100
AcDbLine
 10
263.1089980329938
 20
310.1966875831168
 30
0.0
 11
263.1089980329938
 21
308.0466875831169
 31
0.0
  0
LINE
  5
F93
330
1F
100
AcDbEntity
  8
AM_VIS
100
AcDbLine
 10
257.1089980329938
 20
308.0466875831169
 30
0.0
 11
257.1089980329938
 21
310.1966875831168
 31
0.0
  0
LINE
  5
F94
330
1F
100
AcDbEntity
  8
AM_VIS
100
AcDbLine
 10
231.4260047649122
 20
326.8466875831169
 30
0.0
 11
229.7919913010753
 21
326.8466875831169
 31
0.0
  0
LINE
  5
F95
330
1F
100
AcDbEntity
  8
AM_VIS
100
AcDbLine
 10
266.1089980329938
 20
329.8466875831169
 30
0.0
 11
225.1089980329938
 21
329.8466875831169
 31
0.0
  0
LINE
  5
F96
330
1F
100
AcDbEntity
  8
AM_VIS
100
AcDbLine
 10
219.1089980329938
 20
329.8466875831169
 30
0.0
 11
225.1089980329938
 21
329.8466875831169
 31
0.0
  0
LINE
  5
F97
330
1F
100
AcDbEntity
  8
AM_VIS
100
AcDbLine
 10
219.1089980329938
 20
329.8466875831169
 30
0.0
 11
216.1089980329938
 21
329.8466875831169
 31
0.0
  0
LINE
  5
F98
330
1F
100
AcDbEntity
  8
AM_VIS
100
AcDbLine
 10
230.8589980329938
 20
314.7642962873839
 30
0.0
 11
230.8589980329938
 21
318.6966875831168
 31
0.0
  0
LINE
  5
F99
330
1F
100
AcDbEntity
  8
AM_VIS
100
AcDbLine
 10
234.3589980329938
 20
324.1350724284508
 30
0.0
 11
234.3589980329938
 21
318.6966875831168
 31
0.0
  0
LINE
  5
F9A
330
1F
100
AcDbEntity
  8
AM_VIS
100
AcDbLine
 10
234.3589980329938
 20
318.6966875831168
 30
0.0
 11
234.3589980329938
 21
316.2583027377831
 31
0.0
  0
LINE
  5
F9B
330
1F
100
AcDbEntity
  8
AM_VIS
100
AcDbLine
 10
247.8589980329938
 20
313.2583027377831
 30
0.0
 11
247.8589980329938
 21
318.696687583117
 31
0.0
  0
LINE
  5
F9C
330
1F
100
AcDbEntity
  8
AM_VIS
100
AcDbLine
 10
247.8589980329938
 20
318.696687583117
 30
0.0
 11
247.8589980329938
 21
321.1350724284508
 31
0.0
  0
ARC
  5
F9D
330
1F
100
AcDbEntity
  8
AM_VIS
100
AcDbCircle
 10
222.1093235944453
 20
327.1986201612423
 30
0.0
 40
1.601937555339153
100
AcDbArc
 50
251.8005826102302
 51
269.0749225435627
  0
ARC
  5
F9E
330
1F
100
AcDbEntity
  8
AM_VIS
100
AcDbCircle
 10
222.109675067057
 20
327.1972825470687
 30
0.0
 40
1.600776805259722
100
AcDbArc
 50
190.8430357585051
 51
251.7736787954818
  0
LINE
  5
F9F
330
1F
100
AcDbEntity
  8
AM_VIS
100
AcDbLine
 10
216.1089980329938
 20
329.3466875831169
 30
0.0
 11
216.1089980329938
 21
308.0466875831169
 31
0.0
  0
LINE
  5
FA0
330
1F
100
AcDbEntity
  8
AM_VIS
100
AcDbLine
 10
263.1089980329938
 20
307.5466875831168
 30
0.0
 11
257.1089980329938
 21
307.5466875831168
 31
0.0
  0
ARC
  5
FA1
330
1F
100
AcDbEntity
  8
AM_VIS
100
AcDbCircle
 10
260.1086724715419
 20
310.1947550049899
 30
0.0
 40
1.601937555340761
100
AcDbArc
 50
71.80058261023844
 51
89.07492254355458
  0
ARC
  5
FA2
330
1F
100
AcDbEntity
  8
AM_VIS
100
AcDbCircle
 10
260.1083209989306
 20
310.1960926191653
 30
0.0
 40
1.600776805259647
100
AcDbArc
 50
10.84303575846554
 51
71.77367879548185
  0
LINE
  5
FA3
330
1F
100
AcDbEntity
  8
AM_VIS
100
AcDbLine
 10
266.1089980329938
 20
308.0466875831169
 30
0.0
 11
266.1089980329938
 21
329.3466875831169
 31
0.0
  0
LINE
  5
FA4
330
1F
100
AcDbEntity
  8
AM_VIS
100
AcDbLine
 10
225.1089980329938
 20
329.3466875831169
 30
0.0
 11
225.1089980329938
 21
329.8466875831169
 31
0.0
  0
ARC
  5
FA5
330
1F
100
AcDbEntity
  8
AM_VIS
100
AcDbCircle
 10
251.6089980329938
 20
317.1966875831168
 30
0.0
 40
5.438140784308131
100
AcDbArc
 50
277.9272015741518
 51
82.07279842584823
  0
ARC
  5
FA6
330
1F
100
AcDbEntity
  8
AM_VIS
100
AcDbCircle
 10
230.6089980329938
 20
320.1966875831169
 30
0.0
 40
5.438140784308131
100
AcDbArc
 50
330.8632713522549
 51
29.13672864774517
  0
ARC
  5
FA7
330
1F
100
AcDbEntity
  8
AM_VIS
100
AcDbCircle
 10
230.6089980329938
 20
320.1966875831169
 30
0.0
 40
5.438140784308131
100
AcDbArc
 50
97.92720157415176
 51
262.0727984258483
  0
ARC
  5
FA8
330
1F
100
AcDbEntity
  8
AM_VIS
100
AcDbCircle
 10
230.6089980329938
 20
320.1966875831169
 30
0.0
 40
5.438140784308131
100
AcDbArc
 50
29.13672864774517
 51
97.92720157415176
  0
ARC
  5
FA9
330
1F
100
AcDbEntity
  8
AM_VIS
100
AcDbCircle
 10
251.6089980329938
 20
317.1966875831168
 30
0.0
 40
5.438140784308131
100
AcDbArc
 50
150.8632713522548
 51
209.1367286477451
  0
ARC
  5
FAA
330
1F
100
AcDbEntity
  8
AM_VIS
100
AcDbCircle
 10
251.6089980329938
 20
317.1966875831168
 30
0.0
 40
5.438140784308131
100
AcDbArc
 50
209.1367286477451
 51
277.9272015741518
  0
LINE
  5
FAB
330
1F
100
AcDbEntity
  8
AM_VIS
100
AcDbLine
 10
263.1089980329938
 20
307.5466875831168
 30
0.0
 11
263.1089980329938
 21
308.0466875831169
 31
0.0
  0
LINE
  5
FAC
330
1F
100
AcDbEntity
  8
AM_VIS
100
AcDbLine
 10
257.1089980329938
 20
308.0466875831169
 30
0.0
 11
257.1089980329938
 21
307.5466875831168
 31
0.0
  0
ARC
  5
FAD
330
1F
100
AcDbEntity
  8
AM_VIS
100
AcDbCircle
 10
251.6089980329938
 20
317.1966875831168
 30
0.0
 40
6.700000000000001
100
AcDbArc
 50
277.0041539781068
 51
262.9958460218916
  0
ARC
  5
FAE
330
1F
100
AcDbEntity
  8
AM_VIS
100
AcDbCircle
 10
247.1089980329938
 20
326.683520563622
 30
0.0
 40
1.0
100
AcDbArc
 50
295.3769335251536
 51
0.0
  0
ARC
  5
FAF
330
1F
100
AcDbEntity
  8
AM_VIS
100
AcDbCircle
 10
247.1089980329938
 20
326.8466875831169
 30
0.0
 40
0.9999999999999998
100
AcDbArc
 50
0.0
 51
90.0
  0
ARC
  5
FB0
330
1F
100
AcDbEntity
  8
AM_VIS
100
AcDbCircle
 10
238.7347287693645
 20
326.8466875831169
 30
0.0
 40
0.9999999999999998
100
AcDbArc
 50
90.0
 51
219.2964802391869
  0
ARC
  5
FB1
330
1F
100
AcDbEntity
  8
AM_VIS
100
AcDbCircle
 10
230.6089980329938
 20
320.1966875831169
 30
0.0
 40
9.5
100
AcDbArc
 50
295.3769335251514
 51
39.29648023918689
  0
ARC
  5
FB2
330
1F
100
AcDbEntity
  8
AM_VIS
100
AcDbCircle
 10
235.1089980329938
 20
310.7098546026117
 30
0.0
 40
1.0
100
AcDbArc
 50
115.3769335251536
 51
180.0
  0
ARC
  5
FB3
330
1F
100
AcDbEntity
  8
AM_VIS
100
AcDbCircle
 10
235.1089980329938
 20
310.5466875831169
 30
0.0
 40
0.9999999999999998
100
AcDbArc
 50
180.0
 51
270.0
  0
ARC
  5
FB4
330
1F
100
AcDbEntity
  8
AM_VIS
100
AcDbCircle
 10
243.4832672966231
 20
310.5466875831169
 30
0.0
 40
1.0
100
AcDbArc
 50
270.0
 51
39.29648023918689
  0
ARC
  5
FB5
330
1F
100
AcDbEntity
  8
AM_VIS
100
AcDbCircle
 10
251.6089980329938
 20
317.1966875831168
 30
0.0
 40
9.5
100
AcDbArc
 50
115.3769335251536
 51
219.2964802391869
  0
ARC
  5
FB6
330
1F
100
AcDbEntity
  8
AM_VIS
100
AcDbCircle
 10
256.1089980329938
 20
326.683520563622
 30
0.0
 40
0.9999999999999998
100
AcDbArc
 50
180.0
 51
244.6230664748464
  0
ARC
  5
FB7
330
1F
100
AcDbEntity
  8
AM_VIS
100
AcDbCircle
 10
251.6089980329938
 20
317.1966875831168
 30
0.0
 40
9.5
100
AcDbArc
 50
358.4140782474201
 51
64.62306647484857
  0
ARC
  5
FB8
330
1F
100
AcDbEntity
  8
AM_VIS
100
AcDbCircle
 10
262.1049759611659
 20
316.9060893530402
 30
0.0
 40
1.0
100
AcDbArc
 50
178.41407824742
 51
253.4328004540148
  0
ARC
  5
FB9
330
1F
100
AcDbEntity
  8
AM_VIS
100
AcDbCircle
 10
260.1089980329938
 20
310.1966875831168
 30
0.0
 40
6.0
100
AcDbArc
 50
59.99999999999946
 51
73.43280045401318
  0
ARC
  5
FBA
330
1F
100
AcDbEntity
  8
AM_VIS
100
AcDbCircle
 10
263.6089980329938
 20
316.258865409608
 30
0.0
 40
1.0
100
AcDbArc
 50
239.9999999999995
 51
0.0
  0
ARC
  5
FBB
330
1F
100
AcDbEntity
  8
AM_VIS
100
AcDbCircle
 10
263.6089980329938
 20
326.8466875831169
 30
0.0
 40
0.9999999999999998
100
AcDbArc
 50
0.0
 51
90.0
  0
ARC
  5
FBC
330
1F
100
AcDbEntity
  8
AM_VIS
100
AcDbCircle
 10
256.1089980329938
 20
326.8466875831169
 30
0.0
 40
0.9999999999999998
100
AcDbArc
 50
90.0
 51
180.0
  0
ARC
  5
FBD
330
1F
100
AcDbEntity
  8
AM_VIS
100
AcDbCircle
 10
226.1089980329938
 20
310.7098546026117
 30
0.0
 40
0.9999999999999998
100
AcDbArc
 50
0.0
 51
64.62306647484641
  0
ARC
  5
FBE
330
1F
100
AcDbEntity
  8
AM_VIS
100
AcDbCircle
 10
230.6089980329938
 20
320.1966875831169
 30
0.0
 40
9.5
100
AcDbArc
 50
178.41407824742
 51
244.6230664748486
  0
ARC
  5
FBF
330
1F
100
AcDbEntity
  8
AM_VIS
100
AcDbCircle
 10
220.1130201048217
 20
320.4872858131936
 30
0.0
 40
1.0
100
AcDbArc
 50
358.4140782474201
 51
73.43280045401474
  0
ARC
  5
FC0
330
1F
100
AcDbEntity
  8
AM_VIS
100
AcDbCircle
 10
222.1089980329938
 20
327.1966875831168
 30
0.0
 40
6.0
100
AcDbArc
 50
239.9999999999995
 51
253.4328004540148
  0
ARC
  5
FC1
330
1F
100
AcDbEntity
  8
AM_VIS
100
AcDbCircle
 10
218.6089980329938
 20
321.1345097566258
 30
0.0
 40
1.0
100
AcDbArc
 50
59.99999999999946
 51
180.0
  0
ARC
  5
FC2
330
1F
100
AcDbEntity
  8
AM_VIS
100
AcDbCircle
 10
218.6089980329938
 20
310.5466875831169
 30
0.0
 40
0.9999999999999998
100
AcDbArc
 50
180.0
 51
270.0
  0
ARC
  5
FC3
330
1F
100
AcDbEntity
  8
AM_VIS
100
AcDbCircle
 10
226.1089980329938
 20
310.5466875831169
 30
0.0
 40
0.9999999999999998
100
AcDbArc
 50
270.0
 51
0.0
  0
ARC
  5
FC4
330
1F
100
AcDbEntity
  8
AM_VIS
100
AcDbCircle
 10
260.1089980329938
 20
310.1966875831168
 30
0.0
 40
3.0
100
AcDbArc
 50
0.0
 51
180.0
  0
ARC
  5
FC5
330
1F
100
AcDbEntity
  8
AM_VIS
100
AcDbCircle
 10
230.6089980329938
 20
320.1966875831169
 30
0.0
 40
6.700000000000001
100
AcDbArc
 50
97.00415397810841
 51
82.9958460218916
  0
LINE
  5
FC6
330
1F
100
AcDbEntity
  8
AM_VIS
100
AcDbLine
 10
219.1089980329938
 20
329.8466875831169
 30
0.0
 11
219.1089980329938
 21
329.3466875831169
 31
0.0
  0
ARC
  5
FC7
330
1F
100
AcDbEntity
  8
AM_VIS
100
AcDbCircle
 10
230.6089980329938
 20
320.1966875831169
 30
0.0
 40
5.438140784308131
100
AcDbArc
 50
262.0727984258483
 51
330.8632713522549
  0
ARC
  5
FC8
330
1F
100
AcDbEntity
  8
AM_VIS
100
AcDbCircle
 10
251.6089980329938
 20
317.1966875831168
 30
0.0
 40
5.438140784308131
100
AcDbArc
 50
82.07279842584823
 51
150.8632713522548
  0
ARC
  5
FC9
330
1F
100
AcDbEntity
  8
AM_VIS
100
AcDbCircle
 10
222.1089980329938
 20
327.1966875831168
 30
0.0
 40
1.6
100
AcDbArc
 50
269.0854620180761
 51
190.826671418271
  0
ARC
  5
FCA
330
1F
100
AcDbEntity
  8
AM_VIS
100
AcDbCircle
 10
222.1089980329938
 20
327.1966875831168
 30
0.0
 40
3.0
100
AcDbArc
 50
180.0
 51
0.0
  0
ARC
  5
FCB
330
1F
100
AcDbEntity
  8
AM_VIS
100
AcDbCircle
 10
260.1089980329938
 20
310.1966875831168
 30
0.0
 40
1.6
100
AcDbArc
 50
89.08546201807613
 51
10.82667141823465
  0
LINE
  5
FCC
330
1F
100
AcDbEntity
  8
AM_VIS
100
AcDbLine
 10
288.1089980329938
 20
146.3616069473701
 30
0.0
 11
266.1089980329938
 21
146.1616069473701
 31
0.0
  0
LINE
  5
FCD
330
1F
100
AcDbEntity
  8
AM_VIS
100
AcDbLine
 10
266.1089980329938
 20
146.1616069473701
 30
0.0
 11
266.1089980329938
 21
154.8116069473701
 31
0.0
  0
LINE
  5
FCE
330
1F
100
AcDbEntity
  8
AM_VIS
100
AcDbLine
 10
266.6089980329938
 20
154.8116069473701
 30
0.0
 11
266.1089980329938
 21
154.8116069473701
 31
0.0
  0
LINE
  5
FCF
330
1F
100
AcDbEntity
  8
AM_VIS
100
AcDbLine
 10
266.6089980329938
 20
159.8116069473701
 30
0.0
 11
266.6089980329938
 21
154.8116069473701
 31
0.0
  0
LINE
  5
FD0
330
1F
100
AcDbEntity
  8
AM_VIS
100
AcDbLine
 10
266.1089980329938
 20
159.8116069473701
 30
0.0
 11
266.6089980329938
 21
159.8116069473701
 31
0.0
  0
LINE
  5
FD1
330
1F
100
AcDbEntity
  8
AM_VIS
100
AcDbLine
 10
266.1089980329938
 20
168.4616069473701
 30
0.0
 11
288.1089980329938
 21
168.2616069473701
 31
0.0
  0
LINE
  5
FD2
330
1F
100
AcDbEntity
  8
AM_VIS
100
AcDbLine
 10
288.1089980329938
 20
168.2616069473701
 30
0.0
 11
288.1089980329938
 21
146.3616069473701
 31
0.0
  0
LINE
  5
FD3
330
1F
100
AcDbEntity
  8
AM_VIS
100
AcDbLine
 10
266.1089980329938
 20
159.8116069473701
 30
0.0
 11
266.1089980329938
 21
168.4616069473701
 31
0.0
  0
LINE
  5
FD4
330
1F
100
AcDbEntity
  8
AM_VIS
100
AcDbLine
 10
266.1089980329938
 20
155.0616069473701
 30
0.0
 11
266.6089980329938
 21
155.0616069473701
 31
0.0
  0
LINE
  5
FD5
330
1F
100
AcDbEntity
  8
AM_VIS
100
AcDbLine
 10
266.6089671716537
 20
154.8116069473701
 30
0.0
 11
266.6089671716537
 21
155.0616069473701
 31
0.0
  0
LINE
  5
FD6
330
1F
100
AcDbEntity
  8
AM_VIS
100
AcDbLine
 10
288.1089980329938
 20
146.3616069473701
 30
0.0
 11
290.1089980329938
 21
146.3616069473701
 31
0.0
  0
LINE
  5
FD7
330
1F
100
AcDbEntity
  8
AM_VIS
100
AcDbLine
 10
290.1089980329938
 20
147.3616069473701
 30
0.0
 11
290.1089980329938
 21
167.2616069473701
 31
0.0
  0
LINE
  5
FD8
330
1F
100
AcDbEntity
  8
AM_VIS
100
AcDbLine
 10
288.1089980329938
 20
147.3616069473701
 30
0.0
 11
288.1089980329938
 21
167.2616069473701
 31
0.0
  0
LINE
  5
FD9
330
1F
100
AcDbEntity
  8
AM_VIS
100
AcDbLine
 10
290.1089980329938
 20
168.2616069473701
 30
0.0
 11
288.1089980329938
 21
168.2616069473701
 31
0.0
  0
LINE
  5
FDA
330
1F
100
AcDbEntity
  8
AM_VIS
100
AcDbLine
 10
290.1089980329938
 20
147.3616069473701
 30
0.0
 11
290.1089980329938
 21
146.3616069473701
 31
0.0
  0
LINE
  5
FDB
330
1F
100
AcDbEntity
  8
AM_VIS
100
AcDbLine
 10
290.1089980329938
 20
168.2616069473701
 30
0.0
 11
290.1089980329938
 21
167.2616069473701
 31
0.0
  0
LINE
  5
FDC
330
1F
100
AcDbEntity
  8
AM_VIS
100
AcDbLine
 10
266.1089980329937
 20
230.841359412704
 30
0.0
 11
266.1089980329937
 21
245.841359412704
 31
0.0
  0
LINE
  5
FDD
330
1F
100
AcDbEntity
  8
AM_VIS
100
AcDbLine
 10
288.1089980329937
 20
245.541359412704
 30
0.0
 11
266.1089980329937
 21
245.8413594127041
 31
0.0
  0
LINE
  5
FDE
330
1F
100
AcDbEntity
  8
AM_VIS
100
AcDbLine
 10
266.1089980329937
 20
210.841359412704
 30
0.0
 11
288.1089980329937
 21
211.141359412704
 31
0.0
  0
LINE
  5
FDF
330
1F
100
AcDbEntity
  8
AM_VIS
100
AcDbLine
 10
266.1089980329937
 20
230.841359412704
 30
0.0
 11
266.6089980329937
 21
230.841359412704
 31
0.0
  0
LINE
  5
FE0
330
1F
100
AcDbEntity
  8
AM_VIS
100
AcDbLine
 10
266.6089980329937
 20
225.841359412704
 30
0.0
 11
266.1089980329937
 21
225.841359412704
 31
0.0
  0
LINE
  5
FE1
330
1F
100
AcDbEntity
  8
AM_VIS
100
AcDbLine
 10
266.6089980329937
 20
230.841359412704
 30
0.0
 11
266.6089980329937
 21
225.841359412704
 31
0.0
  0
LINE
  5
FE2
330
1F
100
AcDbEntity
  8
AM_VIS
100
AcDbLine
 10
288.1089980329937
 20
245.541359412704
 30
0.0
 11
288.1089980329937
 21
211.141359412704
 31
0.0
  0
LINE
  5
FE3
330
1F
100
AcDbEntity
  8
AM_VIS
100
AcDbLine
 10
266.1089980329937
 20
210.841359412704
 30
0.0
 11
266.1089980329937
 21
225.841359412704
 31
0.0
  0
LINE
  5
FE4
330
1F
100
AcDbEntity
  8
AM_VIS
100
AcDbLine
 10
266.6089671716537
 20
225.841359412704
 30
0.0
 11
266.6089671716537
 21
230.841359412704
 31
0.0
  0
LINE
  5
FE5
330
1F
100
AcDbEntity
  8
AM_VIS
100
AcDbLine
 10
282.7089980329935
 20
245.6149957763404
 30
0.0
 11
282.7089980329935
 21
248.0413594127039
 31
0.0
  0
LINE
  5
FE6
330
1F
100
AcDbEntity
  8
AM_VIS
100
AcDbLine
 10
275.8089980329935
 20
245.7090866854313
 30
0.0
 11
275.8089980329935
 21
248.0413594127039
 31
0.0
  0
LINE
  5
FE7
330
1F
100
AcDbEntity
  8
AM_VIS
100
AcDbLine
 10
275.8089980329935
 20
248.0413594127039
 30
0.0
 11
282.7089980329935
 21
248.0413594127039
 31
0.0
  0
LINE
  5
FE8
330
1F
100
AcDbEntity
  8
AM_VIS
100
AcDbLine
 10
290.1089980329937
 20
212.141359412704
 30
0.0
 11
290.1089980329937
 21
220.7108834020576
 31
0.0
  0
LINE
  5
FE9
330
1F
100
AcDbEntity
  8
AM_VIS
100
AcDbLine
 10
290.1089980329937
 20
245.541359412704
 30
0.0
 11
288.1089980329937
 21
245.541359412704
 31
0.0
  0
LINE
  5
FEA
330
1F
100
AcDbEntity
  8
AM_VIS
100
AcDbLine
 10
288.1089980329937
 20
212.141359412704
 30
0.0
 11
288.1089980329937
 21
244.541359412704
 31
0.0
  0
LINE
  5
FEB
330
1F
100
AcDbEntity
  8
AM_VIS
100
AcDbLine
 10
288.1089980329937
 20
211.141359412704
 30
0.0
 11
290.1089980329937
 21
211.141359412704
 31
0.0
  0
LINE
  5
FEC
330
1F
100
AcDbEntity
  8
AM_VIS
100
AcDbLine
 10
290.1089980329937
 20
212.141359412704
 30
0.0
 11
290.1089980329937
 21
211.141359412704
 31
0.0
  0
LINE
  5
FED
330
1F
100
AcDbEntity
  8
AM_VIS
100
AcDbLine
 10
290.1089980329937
 20
245.8413594127039
 30
0.0
 11
290.1089980329937
 21
221.3413594127039
 31
0.0
  0
LINE
  5
FEE
330
1F
100
AcDbEntity
  8
AM_VIS
100
AcDbLine
 10
290.1089980329937
 20
220.7108834020576
 30
0.0
 11
290.1089980329937
 21
221.3413594127039
 31
0.0
  0
LINE
  5
FEF
330
1F
100
AcDbEntity
  8
AM_VIS
100
AcDbLine
 10
216.1089980329938
 20
245.8413594127041
 30
0.0
 11
216.1089980329938
 21
210.841359412704
 31
0.0
  0
LINE
  5
FF0
330
1F
100
AcDbEntity
  8
AM_VIS
100
AcDbLine
 10
216.1089980329938
 20
210.8413594127039
 30
0.0
 11
266.1089980329938
 21
210.8413594127039
 31
0.0
  0
ELLIPSE
  5
FF1
330
1F
100
AcDbEntity
  8
AM_VIS
100
AcDbEllipse
 10
220.5050016501307
 20
241.3413594127039
 30
0.0
 11
-0.0000000000000004
 21
3.0
 31
0.0
210
0.0
220
0.0
230
1.0
 40
0.5773502691896272
 41
1.570796326794894
 42
2.748190021579697
  0
LINE
  5
FF2
330
1F
100
AcDbEntity
  8
AM_VIS
100
AcDbLine
 10
218.7729508425618
 20
241.3413594127039
 30
0.0
 11
218.7729508425618
 21
243.1774066031358
 31
0.0
  0
LINE
  5
FF3
330
1F
100
AcDbEntity
  8
AM_VIS
100
AcDbLine
 10
218.1089980329938
 20
243.8413594127039
 30
0.0
 11
218.7729508425618
 21
243.1774066031358
 31
0.0
  0
LINE
  5
FF4
330
1F
100
AcDbEntity
  8
AM_VIS
100
AcDbLine
 10
248.1409294062219
 20
234.4413594127039
 30
0.0
 11
255.0770666597657
 21
234.4413594127039
 31
0.0
  0
LINE
  5
FF5
330
1F
100
AcDbEntity
  8
AM_VIS
100
AcDbLine
 10
255.0770666597657
 20
238.6093086051351
 30
0.0
 11
255.0770666597657
 21
234.4413594127039
 31
0.0
  0
LINE
  5
FF6
330
1F
100
AcDbEntity
  8
AM_VIS
100
AcDbLine
 10
225.1089980329938
 20
216.0734102202728
 30
0.0
 11
225.1089980329938
 21
238.5413594127038
 31
0.0
  0
LINE
  5
FF7
330
1F
100
AcDbEntity
  8
AM_VIS
100
AcDbLine
 10
225.1089980329938
 20
238.5413594127038
 30
0.0
 11
220.1089980329938
 21
238.5413594127038
 31
0.0
  0
LINE
  5
FF8
330
1F
100
AcDbEntity
  8
AM_VIS
100
AcDbLine
 10
219.8410488405626
 20
238.5705292122044
 30
0.0
 11
219.8410488405626
 21
216.0734102202728
 31
0.0
  0
LINE
  5
FF9
330
1F
100
AcDbEntity
  8
AM_VIS
100
AcDbLine
 10
237.9485714330235
 20
238.5705292122044
 30
0.0
 11
219.8410488405626
 21
238.5705292122044
 31
0.0
  0
LINE
  5
FFA
330
1F
100
AcDbEntity
  8
AM_VIS
100
AcDbLine
 10
248.1409294062219
 20
234.4413594127039
 30
0.0
 11
248.1409294062219
 21
238.5705292122044
 31
0.0
  0
LINE
  5
FFB
330
1F
100
AcDbEntity
  8
AM_VIS
100
AcDbLine
 10
258.5477485333941
 20
238.609308605135
 30
0.0
 11
258.5477485333941
 21
216.0734102202728
 31
0.0
  0
LINE
  5
FFC
330
1F
100
AcDbEntity
  8
AM_VIS
100
AcDbLine
 10
261.6702475325934
 20
216.0734102202728
 30
0.0
 11
261.6702475325934
 21
238.609308605135
 31
0.0
  0
LINE
  5
FFD
330
1F
100
AcDbEntity
  8
AM_VIS
100
AcDbLine
 10
262.3769472254249
 20
216.0734102202728
 30
0.0
 11
262.3769472254249
 21
238.609308605135
 31
0.0
  0
LINE
  5
FFE
330
1F
100
AcDbEntity
  8
AM_VIS
100
AcDbLine
 10
248.1409294062219
 20
238.5705292122044
 30
0.0
 11
244.2694246329641
 21
238.5705292122044
 31
0.0
  0
LINE
  5
FFF
330
1F
100
AcDbEntity
  8
AM_VIS
100
AcDbLine
 10
253.2625935184289
 20
238.9593140829514
 30
0.0
 11
254.9007512387187
 21
238.6121673667399
 31
0.0
  0
ARC
  5
1000
330
1F
100
AcDbEntity
  8
AM_VIS
100
AcDbCircle
 10
251.52816375486
 20
227.6965390420647
 30
0.0
 40
11.38933794181594
100
AcDbArc
 50
81.24716392690809
 51
107.3017462255479
  0
LINE
  5
1001
330
1F
100
AcDbEntity
  8
AM_VIS
100
AcDbLine
 10
254.9001454303211
 20
238.609308605135
 30
0.0
 11
255.2379135764451
 21
238.609308605135
 31
0.0
  0
LINE
  5
1002
330
1F
100
AcDbEntity
  8
AM_VIS
100
AcDbLine
 10
246.4059281675503
 20
217.8413594127039
 30
0.0
 11
246.4059281675503
 21
212.6093086051351
 31
0.0
  0
LINE
  5
1003
330
1F
100
AcDbEntity
  8
AM_VIS
100
AcDbLine
 10
255.8120678984372
 20
216.0734102202728
 30
0.0
 11
255.8120678984372
 21
217.8413594127039
 31
0.0
  0
LINE
  5
1004
330
1F
100
AcDbEntity
  8
AM_VIS
100
AcDbLine
 10
264.1089980329938
 20
216.0734102202728
 30
0.0
 11
255.8120678984372
 21
216.0734102202728
 31
0.0
  0
LINE
  5
1005
330
1F
100
AcDbEntity
  8
AM_VIS
100
AcDbLine
 10
264.1089980329938
 20
238.609308605135
 30
0.0
 11
264.1089980329938
 21
216.0734102202728
 31
0.0
  0
LINE
  5
1006
330
1F
100
AcDbEntity
  8
AM_VIS
100
AcDbLine
 10
256.9183991097523
 20
238.609308605135
 30
0.0
 11
264.1089980329938
 21
238.609308605135
 31
0.0
  0
LINE
  5
1007
330
1F
100
AcDbEntity
  8
AM_VIS
100
AcDbLine
 10
245.3120678984372
 20
243.8413594127039
 30
0.0
 11
254.6089980329938
 21
243.8413594127039
 31
0.0
  0
LINE
  5
1008
330
1F
100
AcDbEntity
  8
AM_VIS
100
AcDbLine
 10
245.3120678984372
 20
241.3413594127038
 30
0.0
 11
245.3120678984372
 21
243.8413594127039
 31
0.0
  0
LINE
  5
1009
330
1F
100
AcDbEntity
  8
AM_VIS
100
AcDbLine
 10
236.9059281675503
 20
243.8413594127039
 30
0.0
 11
236.9059281675503
 21
241.3413594127038
 31
0.0
  0
LINE
  5
100A
330
1F
100
AcDbEntity
  8
AM_VIS
100
AcDbLine
 10
218.1089980329938
 20
243.8413594127039
 30
0.0
 11
236.9059281675503
 21
243.8413594127039
 31
0.0
  0
LINE
  5
100B
330
1F
100
AcDbEntity
  8
AM_VIS
100
AcDbLine
 10
218.1089980329938
 20
212.6093086051351
 30
0.0
 11
218.1089980329938
 21
243.8413594127039
 31
0.0
  0
LINE
  5
100C
330
1F
100
AcDbEntity
  8
AM_VIS
100
AcDbLine
 10
226.4059281675503
 20
217.8413594127039
 30
0.0
 11
226.4059281675503
 21
212.6093086051351
 31
0.0
  0
LINE
  5
100D
330
1F
100
AcDbEntity
  8
AM_VIS
100
AcDbLine
 10
235.8120678984373
 20
212.6093086051351
 30
0.0
 11
235.8120678984373
 21
217.8413594127039
 31
0.0
  0
LINE
  5
100E
330
1F
100
AcDbEntity
  8
AM_VIS
100
AcDbLine
 10
257.1089980329938
 20
242.8413594127039
 30
0.0
 11
257.1089980329938
 21
245.3413594127038
 31
0.0
  0
LINE
  5
100F
102
{ACAD_REACTORS
330
1264
102
}
330
1F
100
AcDbEntity
  8
AM_VIS
100
AcDbLine
 10
263.1089980329938
 20
245.3413594127038
 30
0.0
 11
263.1089980329938
 21
242.8413594127039
 31
0.0
  0
LINE
  5
1010
330
1F
100
AcDbEntity
  8
AM_VIS
100
AcDbLine
 10
254.6089980329938
 20
243.8413594127039
 30
0.0
 11
254.6089980329938
 21
240.609308605135
 31
0.0
  0
ELLIPSE
  5
1011
330
1F
100
AcDbEntity
  8
AM_VIS
100
AcDbEllipse
 10
256.9183991097523
 20
240.609308605135
 30
0.0
 11
-2.309401076758502
 21
-0.0000000000000005
 31
0.0
210
0.0
220
0.0
230
1.0
 40
0.8660254037844387
 41
0.0000000000000002
 42
1.570796326794896
  0
LINE
  5
1012
330
1F
100
AcDbEntity
  8
AM_VIS
100
AcDbLine
 10
255.2379135764452
 20
238.609308605135
 30
0.0
 11
256.9183991097523
 21
238.609308605135
 31
0.0
  0
LINE
  5
1013
330
1F
100
AcDbEntity
  8
AM_VIS
100
AcDbLine
 10
218.9750234367782
 20
215.2073848164883
 30
0.0
 11
219.8410488405626
 21
216.0734102202728
 31
0.0
  0
LINE
  5
1014
330
1F
100
AcDbEntity
  8
AM_VIS
100
AcDbLine
 10
219.8410488405627
 20
216.0734102202728
 30
0.0
 11
220.1089980329938
 21
216.0734102202728
 31
0.0
  0
LINE
  5
1015
330
1F
100
AcDbEntity
  8
AM_VIS
100
AcDbLine
 10
220.1089980329938
 20
216.0734102202728
 30
0.0
 11
220.1089980329938
 21
216.0413594127039
 31
0.0
  0
LINE
  5
1016
330
1F
100
AcDbEntity
  8
AM_VIS
100
AcDbLine
 10
220.1089980329938
 20
216.0413594127039
 30
0.0
 11
225.1089980329938
 21
216.0413594127039
 31
0.0
  0
LINE
  5
1017
330
1F
100
AcDbEntity
  8
AM_VIS
100
AcDbLine
 10
225.1089980329938
 20
216.0413594127039
 30
0.0
 11
225.1089980329938
 21
216.0734102202728
 31
0.0
  0
LINE
  5
1018
330
1F
100
AcDbEntity
  8
AM_VIS
100
AcDbLine
 10
225.1089980329938
 20
216.0734102202728
 30
0.0
 11
225.8769472254249
 21
216.0734102202728
 31
0.0
  0
LINE
  5
1019
330
1F
100
AcDbEntity
  8
AM_VIS
100
AcDbLine
 10
226.1414376964876
 20
215.2073848164883
 30
0.0
 11
225.8769472254249
 21
216.0734102202728
 31
0.0
  0
ELLIPSE
  5
101A
330
1F
100
AcDbEntity
  8
AM_VIS
100
AcDbEllipse
 10
219.8410488405626
 20
212.6093086051351
 30
0.0
 11
-0.0000000000000005
 21
3.0
 31
0.0
210
0.0
220
0.0
230
1.0
 40
0.5773502691896273
 41
0.5235987755982984
 42
1.570796326794896
  0
ELLIPSE
  5
101B
330
1F
100
AcDbEntity
  8
AM_VIS
100
AcDbEllipse
 10
225.8769472254249
 20
212.6093086051351
 30
0.0
 11
-0.0000000000000006
 21
-3.0
 31
0.0
210
0.0
220
0.0
230
1.0
 40
0.1763269807084651
 41
1.570796326794899
 42
2.617993877991497
  0
LINE
  5
101C
330
1F
100
AcDbEntity
  8
AM_VIS
100
AcDbLine
 10
236.3410488405626
 20
216.0734102202728
 30
0.0
 11
236.0765583694999
 21
215.2073848164883
 31
0.0
  0
LINE
  5
101D
330
1F
100
AcDbEntity
  8
AM_VIS
100
AcDbLine
 10
236.3410488405626
 20
216.0734102202728
 30
0.0
 11
245.8769472254249
 21
216.0734102202728
 31
0.0
  0
LINE
  5
101E
330
1F
100
AcDbEntity
  8
AM_VIS
100
AcDbLine
 10
246.1414376964876
 20
215.2073848164883
 30
0.0
 11
245.876947225425
 21
216.0734102202728
 31
0.0
  0
ELLIPSE
  5
101F
330
1F
100
AcDbEntity
  8
AM_VIS
100
AcDbEllipse
 10
236.3410488405626
 20
212.6093086051351
 30
0.0
 11
-0.0000000000000004
 21
3.0
 31
0.0
210
0.0
220
0.0
230
1.0
 40
0.1763269807084645
 41
0.5235987755982992
 42
1.570796326794896
  0
ELLIPSE
  5
1020
330
1F
100
AcDbEntity
  8
AM_VIS
100
AcDbEllipse
 10
245.876947225425
 20
212.6093086051351
 30
0.0
 11
-0.000000000000001
 21
-3.0
 31
0.0
210
0.0
220
0.0
230
1.0
 40
0.1763269807084647
 41
1.5707963267949
 42
2.617993877991498
  0
LINE
  5
1021
330
1F
100
AcDbEntity
  8
AM_VIS
100
AcDbLine
 10
266.1089980329938
 20
245.8413594127039
 30
0.0
 11
263.1089980329938
 21
245.8413594127039
 31
0.0
  0
LINE
  5
1022
330
1F
100
AcDbEntity
  8
AM_VIS
100
AcDbLine
 10
257.1089980329938
 20
245.8413594127039
 30
0.0
 11
216.1089980329938
 21
245.8413594127039
 31
0.0
  0
LINE
  5
1023
330
1F
100
AcDbEntity
  8
AM_VIS
100
AcDbLine
 10
216.1089980329938
 20
245.3413594127039
 30
0.0
 11
216.1089980329938
 21
211.3413594127039
 31
0.0
  0
LINE
  5
1024
330
1F
100
AcDbEntity
  8
AM_VIS
100
AcDbLine
 10
263.1089980329938
 20
242.8413594127039
 30
0.0
 11
257.1089980329938
 21
242.8413594127039
 31
0.0
  0
LINE
  5
1025
330
1F
100
AcDbEntity
  8
AM_VIS
100
AcDbLine
 10
266.1089980329938
 20
211.3413594127039
 30
0.0
 11
266.1089980329938
 21
245.3413594127038
 31
0.0
  0
CIRCLE
  5
1026
330
1F
100
AcDbEntity
  8
AM_VIS
100
AcDbCircle
 10
251.1089980329938
 20
217.8413594127039
 30
0.0
 40
2.1
  0
CIRCLE
  5
1027
330
1F
100
AcDbEntity
  8
AM_VIS
100
AcDbCircle
 10
231.1089980329938
 20
217.8413594127039
 30
0.0
 40
2.1
  0
LINE
  5
1028
330
1F
100
AcDbEntity
  8
AM_7
100
AcDbLine
 10
305.1089980329936
 20
318.6966875831168
 30
0.0
 11
305.1089980329936
 21
318.6966875831168
 31
0.0
  0
LINE
  5
1029
330
1F
100
AcDbEntity
  8
AM_7
100
AcDbLine
 10
305.1089980329936
 20
318.6966875831168
 30
0.0
 11
305.1089980329936
 21
318.6966875831168
 31
0.0
  0
LINE
  5
102A
330
1F
100
AcDbEntity
  8
AM_7
100
AcDbLine
 10
206.1381185531455
 20
318.6966875831168
 30
0.0
 11
343.5112070335955
 21
318.6966875831168
 31
0.0
  0
LINE
  5
102B
330
1F
100
AcDbEntity
  8
AM_7
100
AcDbLine
 10
305.1089980329936
 20
318.6966875831168
 30
0.0
 11
311.6089980329936
 21
318.6966875831168
 31
0.0
  0
LINE
  5
102C
330
1F
100
AcDbEntity
  8
AM_VIS
100
AcDbLine
 10
290.1089980329937
 20
329.696687583117
 30
0.0
 11
290.1089980329937
 21
307.6966875831169
 31
0.0
  0
LINE
  5
102D
330
1F
100
AcDbEntity
  8
AM_VIS
100
AcDbLine
 10
290.1089980329937
 20
329.696687583117
 30
0.0
 11
320.1089980329937
 21
329.696687583117
 31
0.0
  0
LINE
  5
102E
330
1F
100
AcDbEntity
  8
AM_VIS
100
AcDbLine
 10
290.1089980329937
 20
307.6966875831169
 30
0.0
 11
320.1089980329937
 21
307.6966875831169
 31
0.0
  0
LINE
  5
102F
330
1F
100
AcDbEntity
  8
AM_VIS
100
AcDbLine
 10
320.1089980329937
 20
307.6966875831171
 30
0.0
 11
320.1089980329937
 21
309.6966875831169
 31
0.0
  0
LINE
  5
1030
330
1F
100
AcDbEntity
  8
AM_VIS
100
AcDbLine
 10
320.1089980329937
 20
327.6966875831168
 30
0.0
 11
320.1089980329937
 21
329.696687583117
 31
0.0
  0
LINE
  5
1031
330
1F
100
AcDbEntity
  8
AM_VIS
100
AcDbLine
 10
327.1085565239917
 20
328.1122527492652
 30
0.0
 11
327.6085028598962
 21
327.8457586321201
 31
0.0
  0
LINE
  5
1032
330
1F
100
AcDbEntity
  8
AM_VIS
100
AcDbLine
 10
327.1089980329937
 20
328.1130810257399
 30
0.0
 11
325.9589980329938
 21
328.1130810257399
 31
0.0
  0
LINE
  5
1033
330
1F
100
AcDbEntity
  8
AM_VIS
100
AcDbLine
 10
325.9589980329938
 20
309.280294140494
 30
0.0
 11
327.1089980329937
 21
309.280294140494
 31
0.0
  0
LINE
  5
1034
330
1F
100
AcDbEntity
  8
AM_VIS
100
AcDbLine
 10
327.1085565241764
 20
309.2811224166168
 30
0.0
 11
327.608502859407
 21
309.5476165350258
 31
0.0
  0
LINE
  5
1035
330
1F
100
AcDbEntity
  8
AM_VIS
100
AcDbLine
 10
321.6089980329937
 20
309.280294140494
 30
0.0
 11
324.4589980329938
 21
309.280294140494
 31
0.0
  0
LINE
  5
1036
330
1F
100
AcDbEntity
  8
AM_VIS
100
AcDbLine
 10
324.4589980329938
 20
328.1130810257399
 30
0.0
 11
321.6089980329937
 21
328.1130810257399
 31
0.0
  0
LINE
  5
1037
330
1F
100
AcDbEntity
  8
AM_VIS
100
AcDbLine
 10
321.5459117945107
 20
327.6966279075392
 30
0.0
 11
321.6092701688345
 21
328.113039619401
 31
0.0
  0
LINE
  5
1038
330
1F
100
AcDbEntity
  8
AM_VIS
100
AcDbLine
 10
321.5459117945108
 20
309.6967472586945
 30
0.0
 11
321.6092701688345
 21
309.2803355468328
 31
0.0
  0
LINE
  5
1039
330
1F
100
AcDbEntity
  8
AM_VIS
100
AcDbLine
 10
320.3089980329938
 20
327.6966875831168
 30
0.0
 11
320.1089980329937
 21
328.6966875831169
 31
0.0
  0
LINE
  5
103A
330
1F
100
AcDbEntity
  8
AM_VIS
100
AcDbLine
 10
320.3089980329938
 20
309.6966875831169
 30
0.0
 11
320.1089980329937
 21
308.696687583117
 31
0.0
  0
LINE
  5
103B
330
1F
100
AcDbEntity
  8
AM_VIS
100
AcDbLine
 10
327.1089980329937
 20
309.280294140494
 30
0.0
 11
327.1089980329937
 21
309.6966875831169
 31
0.0
  0
LINE
  5
103C
330
1F
100
AcDbEntity
  8
AM_VIS
100
AcDbLine
 10
327.1089980329937
 20
327.6966875831168
 30
0.0
 11
327.1089980329937
 21
328.1130810257399
 31
0.0
  0
LINE
  5
103D
330
1F
100
AcDbEntity
  8
AM_VIS
100
AcDbLine
 10
325.9589980329938
 20
327.6966875831168
 30
0.0
 11
325.9589980329938
 21
328.1130810257399
 31
0.0
  0
LINE
  5
103E
330
1F
100
AcDbEntity
  8
AM_VIS
100
AcDbLine
 10
325.9589980329938
 20
309.280294140494
 30
0.0
 11
325.9589980329938
 21
309.6966875831169
 31
0.0
  0
LINE
  5
103F
330
1F
100
AcDbEntity
  8
AM_VIS
100
AcDbLine
 10
324.4589980329938
 20
309.6966875831169
 30
0.0
 11
324.4589980329938
 21
309.280294140494
 31
0.0
  0
LINE
  5
1040
330
1F
100
AcDbEntity
  8
AM_VIS
100
AcDbLine
 10
324.4589980329938
 20
328.1130810257399
 30
0.0
 11
324.4589980329938
 21
327.6966875831168
 31
0.0
  0
LINE
  5
1041
330
1F
100
AcDbEntity
  8
AM_VIS
100
AcDbLine
 10
321.6089980329937
 20
327.6966875831168
 30
0.0
 11
321.6089980329937
 21
328.1130810257399
 31
0.0
  0
LINE
  5
1042
330
1F
100
AcDbEntity
  8
AM_VIS
100
AcDbLine
 10
321.6089980329937
 20
309.280294140494
 30
0.0
 11
321.6089980329937
 21
309.6966875831169
 31
0.0
  0
LINE
  5
1043
330
1F
100
AcDbEntity
  8
AM_VIS
100
AcDbLine
 10
327.6089980329937
 20
309.6966875831169
 30
0.0
 11
327.6089980329937
 21
309.5466875831168
 31
0.0
  0
LINE
  5
1044
330
1F
100
AcDbEntity
  8
AM_VIS
100
AcDbLine
 10
327.6089980329937
 20
327.8466875831169
 30
0.0
 11
327.6089980329937
 21
327.6966875831168
 31
0.0
  0
LINE
  5
1045
330
1F
100
AcDbEntity
  8
AM_VIS
100
AcDbLine
 10
305.3239980329936
 20
318.6966875831176
 30
0.0
 11
305.1089980329936
 21
318.6966875831176
 31
0.0
  0
LINE
  5
1046
330
1F
100
AcDbEntity
  8
AM_VIS
100
AcDbLine
 10
305.1089980329936
 20
318.6966875831176
 30
0.0
 11
304.8939980329937
 21
318.6966875831176
 31
0.0
  0
LINE
  5
1047
330
1F
100
AcDbEntity
  8
AM_VIS
100
AcDbLine
 10
305.1089980329936
 20
318.6966875831176
 30
0.0
 11
305.3239980329944
 21
318.4816875831168
 31
0.0
  0
LINE
  5
1048
330
1F
100
AcDbEntity
  8
AM_VIS
100
AcDbLine
 10
305.3239980329928
 20
318.9116875831169
 30
0.0
 11
305.1089980329936
 21
318.6966875831176
 31
0.0
  0
LINE
  5
1049
330
1F
100
AcDbEntity
  8
AM_VIS
100
AcDbLine
 10
305.3239980329936
 20
318.4816875831149
 30
0.0
 11
305.3239980329936
 21
318.9116875831148
 31
0.0
  0
LINE
  5
104A
330
1F
100
AcDbEntity
  8
AM_VIS
100
AcDbLine
 10
304.8939980329937
 20
318.911687583115
 30
0.0
 11
305.3239980329936
 21
318.911687583115
 31
0.0
  0
LINE
  5
104B
330
1F
100
AcDbEntity
  8
AM_VIS
100
AcDbLine
 10
305.1089980329936
 20
318.4816875831149
 30
0.0
 11
305.1089980329936
 21
318.6966875831176
 31
0.0
  0
LINE
  5
104C
330
1F
100
AcDbEntity
  8
AM_VIS
100
AcDbLine
 10
304.8939980329929
 20
318.4816875831168
 30
0.0
 11
305.1089980329937
 21
318.6966875831176
 31
0.0
  0
LINE
  5
104D
330
1F
100
AcDbEntity
  8
AM_VIS
100
AcDbLine
 10
304.8939980329937
 20
318.9116875831148
 30
0.0
 11
304.8939980329937
 21
318.4816875831149
 31
0.0
  0
LINE
  5
104E
330
1F
100
AcDbEntity
  8
AM_VIS
100
AcDbLine
 10
305.1089980329936
 20
318.6966875831176
 30
0.0
 11
305.1089980329936
 21
318.911687583115
 31
0.0
  0
LINE
  5
104F
330
1F
100
AcDbEntity
  8
AM_VIS
100
AcDbLine
 10
305.1089980329936
 20
318.6966875831176
 30
0.0
 11
304.8939980329945
 21
318.9116875831169
 31
0.0
  0
LINE
  5
1050
330
1F
100
AcDbEntity
  8
AM_VIS
100
AcDbLine
 10
305.3239980329936
 20
318.4816875831149
 30
0.0
 11
304.8939980329937
 21
318.4816875831149
 31
0.0
  0
CIRCLE
  5
1051
330
1F
100
AcDbEntity
  8
AM_VIS
100
AcDbCircle
 10
305.1089980329936
 20
318.6966875831168
 30
0.0
 40
2.800000000000039
  0
LINE
  5
1052
330
1F
100
AcDbEntity
  8
AM_VIS
100
AcDbLine
 10
304.8939980329937
 20
318.4816875831149
 30
0.0
 11
304.8939980329937
 21
317.1998365683673
 31
0.0
  0
ELLIPSE
  5
1053
330
1F
100
AcDbEntity
  8
AM_VIS
100
AcDbEllipse
 10
305.1089980329936
 20
320.1329568970144
 30
0.0
 11
4.643576049350662
 21
0.0000000000000006
 31
0.0
210
0.0
220
0.0
230
1.0
 40
0.6323293260820707
 41
4.666071898634077
 42
4.758706062135303
  0
LINE
  5
1054
330
1F
100
AcDbEntity
  8
AM_VIS
100
AcDbLine
 10
305.3239980329936
 20
317.1998365683673
 30
0.0
 11
305.3239980329936
 21
318.4816875831149
 31
0.0
  0
LINE
  5
1055
330
1F
100
AcDbEntity
  8
AM_VIS
100
AcDbLine
 10
305.3239980329936
 20
318.9116875831148
 30
0.0
 11
305.3239980329936
 21
320.1935385978679
 31
0.0
  0
ELLIPSE
  5
1056
330
1F
100
AcDbEntity
  8
AM_VIS
100
AcDbEllipse
 10
305.1089980329936
 20
317.2604182692202
 30
0.0
 11
-4.643576049350961
 21
-0.0000000000000006
 31
0.0
210
0.0
220
0.0
230
0.9999999999999998
 40
0.6323293260822031
 41
4.666071898634079
 42
4.758706062135297
  0
LINE
  5
1057
330
1F
100
AcDbEntity
  8
AM_VIS
100
AcDbLine
 10
304.8939980329937
 20
320.1935385978679
 30
0.0
 11
304.8939980329937
 21
318.9116875831148
 31
0.0
  0
LINE
  5
1058
330
1F
100
AcDbEntity
  8
AM_VIS
100
AcDbLine
 10
303.6121470182434
 20
318.4816875831149
 30
0.0
 11
304.8939980329937
 21
318.4816875831149
 31
0.0
  0
ELLIPSE
  5
1059
330
1F
100
AcDbEntity
  8
AM_VIS
100
AcDbEllipse
 10
303.6727287190965
 20
318.6966875831168
 30
0.0
 11
-0.0000000000000056
 21
4.64357604935079
 31
0.0
210
0.0
220
0.0
230
1.0
 40
0.632329326082143
 41
4.66607189863364
 42
4.758706062134863
  0
LINE
  5
105A
330
1F
100
AcDbEntity
  8
AM_VIS
100
AcDbLine
 10
304.8939980329937
 20
318.911687583115
 30
0.0
 11
303.6121470182433
 21
318.911687583115
 31
0.0
  0
LINE
  5
105B
330
1F
100
AcDbEntity
  8
AM_VIS
100
AcDbLine
 10
306.605849047744
 20
318.911687583115
 30
0.0
 11
305.3239980329936
 21
318.911687583115
 31
0.0
  0
ELLIPSE
  5
105C
330
1F
100
AcDbEntity
  8
AM_VIS
100
AcDbEllipse
 10
306.5452673468909
 20
318.6966875831168
 30
0.0
 11
-0.0000000000000044
 21
-4.643576049350792
 31
0.0
210
0.0
220
0.0
230
1.0
 40
0.6323293260821425
 41
4.666071898634515
 42
4.758706062135738
  0
LINE
  5
105D
330
1F
100
AcDbEntity
  8
AM_VIS
100
AcDbLine
 10
305.3239980329936
 20
318.4816875831149
 30
0.0
 11
306.6058490477438
 21
318.4816875831149
 31
0.0
  0
LINE
  5
105E
330
1F
100
AcDbEntity
  8
AM_VIS
100
AcDbLine
 10
290.6089980329936
 20
325.6966875831168
 30
0.0
 11
290.6089980329936
 21
311.6966875831169
 31
0.0
  0
LINE
  5
105F
330
1F
100
AcDbEntity
  8
AM_VIS
100
AcDbLine
 10
316.1089980329936
 20
329.1966875831168
 30
0.0
 11
294.1089980329936
 21
329.1966875831168
 31
0.0
  0
LINE
  5
1060
330
1F
100
AcDbEntity
  8
AM_VIS
100
AcDbLine
 10
294.1089980329936
 20
308.1966875831168
 30
0.0
 11
316.1089980329936
 21
308.1966875831168
 31
0.0
  0
SPLINE
  5
1061
330
1F
100
AcDbEntity
  8
AM_VIS
100
AcDbSpline
210
0.0
220
0.0
230
1.0
 70
     8
 71
     3
 72
    18
 73
    14
 74
     0
 42
0.0000000001
 43
0.0000000001
 40
6.072258403086967
 40
6.072258403086967
 40
6.072258403086967
 40
6.072258403086967
 40
6.091519998581971
 40
6.091519998581971
 40
6.594079983681545
 40
6.594079983681545
 40
7.096639968781119
 40
7.096639968781119
 40
7.599199953880694
 40
7.599199953880694
 40
8.101759938980269
 40
8.101759938980269
 40
8.212872863102408
 40
8.212872863102408
 40
8.212872863102408
 40
8.212872863102408
 10
319.3970509747928
 20
310.4972260989808
 30
0.0
 10
319.3979008449938
 20
310.4995558263223
 30
0.0
 10
319.3987342195858
 20
310.5018980368424
 30
0.0
 10
319.4208652781327
 20
310.5656856911195
 30
0.0
 10
319.4308216890109
 20
310.6356719515611
 30
0.0
 10
319.4308216890109
 20
310.785506390155
 30
0.0
 10
319.4208652781327
 20
310.871227204893
 30
0.0
 10
319.3782369742559
 20
311.0609057799796
 30
0.0
 10
319.3455672328145
 20
311.1648602772383
 30
0.0
 10
319.2582019000655
 20
311.3846596585149
 30
0.0
 10
319.2034493393314
 20
311.5006207977626
 30
0.0
 10
319.1254754573439
 20
311.6444131594936
 30
0.0
 10
319.1109186632473
 20
311.670533487512
 30
0.0
 10
319.0959557172627
 20
311.6966875831169
 30
0.0
  0
ARC
  5
1062
330
1F
100
AcDbEntity
  8
AM_VIS
100
AcDbCircle
 10
297.0696154368562
 20
298.5369501012825
 30
0.0
 40
25.65810508862755
100
AcDbArc
 50
30.85639869765895
 51
42.0943756774908
  0
SPLINE
  5
1063
330
1F
100
AcDbEntity
  8
AM_VIS
100
AcDbSpline
210
0.0
220
0.0
230
1.0
 70
    12
 71
     2
 72
     6
 73
     3
 74
     0
 42
0.0000000001
 43
0.0000000001
 40
0.0
 40
0.0
 40
0.0
 40
3.381727793507051
 40
3.381727793507051
 40
3.381727793507051
 10
316.1089980329936
 20
315.7369578657271
 30
0.0
 41
1.0
 10
314.6089980329934
 20
317.2776390884779
 30
0.0000000000000018
 41
1.021203771466364
 10
314.6089980329936
 20
318.6966875831168
 30
0.0
 41
1.0
  0
SPLINE
  5
1064
330
1F
100
AcDbEntity
  8
AM_VIS
100
AcDbSpline
210
0.0
220
0.0
230
1.0
 70
    12
 71
     2
 72
     6
 73
     3
 74
     0
 42
0.0000000001
 43
0.0000000001
 40
3.381727793507051
 40
3.381727793507051
 40
3.381727793507051
 40
6.763455587014103
 40
6.763455587014103
 40
6.763455587014103
 10
314.6089980329936
 20
318.6966875831168
 30
0.0
 41
1.0
 10
314.6089980329936
 20
320.1157360777557
 30
0.0
 41
1.021203771466368
 10
316.1089980329936
 20
321.6564173005066
 30
0.0
 41
1.0
  0
ARC
  5
1065
330
1F
100
AcDbEntity
  8
AM_VIS
100
AcDbCircle
 10
297.0696154368557
 20
338.8564250649513
 30
0.0
 40
25.65810508862801
100
AcDbArc
 50
317.9056243225092
 51
329.143601302341
  0
SPLINE
  5
1066
330
1F
100
AcDbEntity
  8
AM_VIS
100
AcDbSpline
210
0.0
220
0.0
230
1.0
 70
     8
 71
     3
 72
    18
 73
    14
 74
     0
 42
0.0000000001
 43
0.0000000001
 40
4.975287104260688
 40
4.975287104260688
 40
4.975287104260688
 40
4.975287104260688
 40
5.086400028383073
 40
5.086400028383073
 40
5.588960013482687
 40
5.588960013482687
 40
6.091519998582301
 40
6.091519998582301
 40
6.594079983681915
 40
6.594079983681915
 40
7.096639968781521
 40
7.096639968781521
 40
7.115901564276136
 40
7.115901564276136
 40
7.115901564276136
 40
7.115901564276136
 10
319.0959557172627
 20
325.6966875831168
 30
0.0
 10
319.1109186632474
 20
325.7228416787217
 30
0.0
 10
319.1254754573439
 20
325.7489620067403
 30
0.0
 10
319.2034493393315
 20
325.8927543684713
 30
0.0
 10
319.2582019000657
 20
326.0087155077191
 30
0.0
 10
319.3455672328146
 20
326.2285148889956
 30
0.0
 10
319.378236974256
 20
326.3324693862543
 30
0.0
 10
319.4208652781327
 20
326.5221479613409
 30
0.0
 10
319.4308216890109
 20
326.6078687760789
 30
0.0
 10
319.4308216890109
 20
326.7577032146727
 30
0.0
 10
319.4208652781327
 20
326.8276894751144
 30
0.0
 10
319.3987342195858
 20
326.8914771293915
 30
0.0
 10
319.3979008449938
 20
326.8938193399114
 30
0.0
 10
319.3970509747928
 20
326.896149067253
 30
0.0
  0
LINE
  5
1067
330
1F
100
AcDbEntity
  8
AM_VIS
100
AcDbLine
 10
319.6089980329936
 20
309.6966875831169
 30
0.0
 11
333.1089980329936
 21
309.6966875831169
 31
0.0
  0
LINE
  5
1068
330
1F
100
AcDbEntity
  8
AM_VIS
100
AcDbLine
 10
319.6089980329936
 20
327.6966875831168
 30
0.0
 11
333.1089980329936
 21
327.6966875831168
 31
0.0
  0
LINE
  5
1069
330
1F
100
AcDbEntity
  8
AM_VIS
100
AcDbLine
 10
319.110341837464
 20
309.8961500613287
 30
0.0
 11
319.6089980329936
 21
309.6966875831169
 31
0.0
  0
LINE
  5
106A
330
1F
100
AcDbEntity
  8
AM_VIS
100
AcDbLine
 10
319.110341837464
 20
327.497225104905
 30
0.0
 11
319.6089980329936
 21
327.6966875831168
 31
0.0
  0
CIRCLE
  5
106B
330
1F
100
AcDbEntity
  8
AM_VIS
100
AcDbCircle
 10
305.1089980329936
 20
318.6966875831168
 30
0.0
 40
3.5
  0
ARC
  5
106C
330
1F
100
AcDbEntity
  8
AM_VIS
100
AcDbCircle
 10
294.1089980329936
 20
311.6966875831169
 30
0.0
 40
3.5
100
AcDbArc
 50
180.0
 51
270.0
  0
ARC
  5
106D
330
1F
100
AcDbEntity
  8
AM_VIS
100
AcDbCircle
 10
294.1089980329936
 20
325.6966875831168
 30
0.0
 40
3.5
100
AcDbArc
 50
90.0
 51
180.0
  0
LINE
  5
106E
330
1F
100
AcDbEntity
  8
AM_VIS
100
AcDbLine
 10
333.1089980329936
 20
327.6966875831168
 30
0.0
 11
333.1089980329936
 21
309.6966875831169
 31
0.0
  0
ARC
  5
106F
330
1F
100
AcDbEntity
  8
AM_VIS
100
AcDbCircle
 10
316.1089980329936
 20
311.6966875831169
 30
0.0
 40
3.5
100
AcDbArc
 50
270.0
 51
339.9583415914317
  0
ARC
  5
1070
330
1F
100
AcDbEntity
  8
AM_VIS
100
AcDbCircle
 10
316.1089980329936
 20
325.6966875831168
 30
0.0
 40
3.5
100
AcDbArc
 50
20.04165840856825
 51
90.0
  0
LINE
  5
1071
330
1F
100
AcDbEntity
  8
AM_VIS
100
AcDbLine
 10
319.6089980329936
 20
309.6966875831169
 30
0.0
 11
319.6089980329936
 21
327.6966875831168
 31
0.0
  0
LINE
  5
1072
330
1F
100
AcDbEntity
  8
AM_VIS
100
AcDbLine
 10
341.1089980329937
 20
327.9342918901507
 30
0.0
 11
335.6089980329937
 21
327.9342918901507
 31
0.0
  0
LINE
  5
1073
330
1F
100
AcDbEntity
  8
AM_VIS
100
AcDbLine
 10
341.1089980329937
 20
323.3154897366337
 30
0.0
 11
335.6089980329937
 21
323.3154897366337
 31
0.0
  0
LINE
  5
1074
330
1F
100
AcDbEntity
  8
AM_VIS
100
AcDbLine
 10
341.1089980329937
 20
324.7498908133922
 30
0.0
 11
335.6089980329937
 21
324.7498908133922
 31
0.0
  0
LINE
  5
1075
330
1F
100
AcDbEntity
  8
AM_VIS
100
AcDbLine
 10
335.6089980329937
 20
326.4998908133922
 30
0.0
 11
341.1089980329937
 21
326.4998908133922
 31
0.0
  0
LINE
  5
1076
330
1F
100
AcDbEntity
  8
AM_VIS
100
AcDbLine
 10
341.1089980329937
 20
325.8168781114999
 30
0.0
 11
335.6089980329937
 21
325.8168781114999
 31
0.0
  0
LINE
  5
1077
330
1F
100
AcDbEntity
  8
AM_VIS
100
AcDbLine
 10
341.1089980329937
 20
314.0778854295996
 30
0.0
 11
335.6089980329937
 21
314.0778854295996
 31
0.0
  0
LINE
  5
1078
330
1F
100
AcDbEntity
  8
AM_VIS
100
AcDbLine
 10
341.1089980329937
 20
316.9466875831166
 30
0.0
 11
335.6089980329937
 21
316.9466875831166
 31
0.0
  0
LINE
  5
1079
330
1F
100
AcDbEntity
  8
AM_VIS
100
AcDbLine
 10
335.6089980329937
 20
320.4466875831167
 30
0.0
 11
341.1089980329937
 21
320.4466875831167
 31
0.0
  0
LINE
  5
107A
330
1F
100
AcDbEntity
  8
AM_VIS
100
AcDbLine
 10
341.1089980329937
 20
319.9466875831167
 30
0.0
 11
335.6089980329937
 21
319.9466875831166
 31
0.0
  0
LINE
  5
107B
330
1F
100
AcDbEntity
  8
AM_VIS
100
AcDbLine
 10
341.1089980329937
 20
317.4466875831167
 30
0.0
 11
335.6089980329937
 21
317.4466875831166
 31
0.0
  0
LINE
  5
107C
330
1F
100
AcDbEntity
  8
AM_VIS
100
AcDbLine
 10
335.6089980329937
 20
327.9342918901507
 30
0.0
 11
335.6089980329937
 21
326.4998908133922
 31
0.0
  0
LINE
  5
107D
330
1F
100
AcDbEntity
  8
AM_VIS
100
AcDbLine
 10
335.6089980329937
 20
325.8168781114999
 30
0.0
 11
335.6089980329937
 21
326.4998908133922
 31
0.0
  0
LINE
  5
107E
330
1F
100
AcDbEntity
  8
AM_VIS
100
AcDbLine
 10
335.6089980329937
 20
324.7498908133922
 30
0.0
 11
335.6089980329937
 21
325.8168781114999
 31
0.0
  0
LINE
  5
107F
330
1F
100
AcDbEntity
  8
AM_VIS
100
AcDbLine
 10
335.6089980329937
 20
324.7498908133922
 30
0.0
 11
335.6089980329937
 21
323.3154897366337
 31
0.0
  0
LINE
  5
1080
330
1F
100
AcDbEntity
  8
AM_VIS
100
AcDbLine
 10
335.6089980329937
 20
323.3154897366337
 30
0.0
 11
335.6089980329937
 21
320.4466875831166
 31
0.0
  0
LINE
  5
1081
330
1F
100
AcDbEntity
  8
AM_VIS
100
AcDbLine
 10
335.6089980329937
 20
319.9466875831166
 30
0.0
 11
335.6089980329937
 21
320.4466875831166
 31
0.0
  0
LINE
  5
1082
330
1F
100
AcDbEntity
  8
AM_VIS
100
AcDbLine
 10
335.6089980329937
 20
317.4466875831166
 30
0.0
 11
335.6089980329937
 21
319.9466875831166
 31
0.0
  0
LINE
  5
1083
330
1F
100
AcDbEntity
  8
AM_VIS
100
AcDbLine
 10
335.6089980329937
 20
316.9466875831166
 30
0.0
 11
335.6089980329937
 21
317.4466875831166
 31
0.0
  0
LINE
  5
1084
330
1F
100
AcDbEntity
  8
AM_VIS
100
AcDbLine
 10
335.6089980329937
 20
316.9466875831166
 30
0.0
 11
335.6089980329937
 21
314.0778854295996
 31
0.0
  0
LINE
  5
1085
330
1F
100
AcDbEntity
  8
AM_VIS
100
AcDbLine
 10
335.6089980329937
 20
314.0778854295996
 30
0.0
 11
335.6089980329937
 21
312.6434843528411
 31
0.0
  0
LINE
  5
1086
330
1F
100
AcDbEntity
  8
AM_VIS
100
AcDbLine
 10
341.1089980329937
 20
309.4590832760827
 30
0.0
 11
335.6089980329937
 21
309.4590832760827
 31
0.0
  0
LINE
  5
1087
330
1F
100
AcDbEntity
  8
AM_VIS
100
AcDbLine
 10
335.6089980329937
 20
310.8934843528412
 30
0.0
 11
335.6089980329937
 21
309.4590832760827
 31
0.0
  0
LINE
  5
1088
330
1F
100
AcDbEntity
  8
AM_VIS
100
AcDbLine
 10
341.1089980329937
 20
314.0778854295996
 30
0.0
 11
341.1089980329937
 21
312.6434843528411
 31
0.0
  0
LINE
  5
1089
330
1F
100
AcDbEntity
  8
AM_VIS
100
AcDbLine
 10
341.1089980329937
 20
316.9466875831167
 30
0.0
 11
341.1089980329937
 21
314.0778854295996
 31
0.0
  0
LINE
  5
108A
330
1F
100
AcDbEntity
  8
AM_VIS
100
AcDbLine
 10
341.1089980329937
 20
317.4466875831167
 30
0.0
 11
341.1089980329937
 21
316.9466875831167
 31
0.0
  0
LINE
  5
108B
330
1F
100
AcDbEntity
  8
AM_VIS
100
AcDbLine
 10
341.1089980329937
 20
319.9466875831167
 30
0.0
 11
341.1089980329937
 21
317.4466875831167
 31
0.0
  0
LINE
  5
108C
330
1F
100
AcDbEntity
  8
AM_VIS
100
AcDbLine
 10
341.1089980329937
 20
320.4466875831167
 30
0.0
 11
341.1089980329937
 21
319.9466875831167
 31
0.0
  0
LINE
  5
108D
330
1F
100
AcDbEntity
  8
AM_VIS
100
AcDbLine
 10
341.1089980329937
 20
323.3154897366337
 30
0.0
 11
341.1089980329937
 21
320.4466875831167
 31
0.0
  0
LINE
  5
108E
330
1F
100
AcDbEntity
  8
AM_VIS
100
AcDbLine
 10
341.1089980329937
 20
324.7498908133922
 30
0.0
 11
341.1089980329937
 21
323.3154897366337
 31
0.0
  0
LINE
  5
108F
330
1F
100
AcDbEntity
  8
AM_VIS
100
AcDbLine
 10
341.1089980329937
 20
325.8168781114999
 30
0.0
 11
341.1089980329937
 21
324.7498908133922
 31
0.0
  0
LINE
  5
1090
330
1F
100
AcDbEntity
  8
AM_VIS
100
AcDbLine
 10
341.1089980329937
 20
326.4998908133922
 30
0.0
 11
341.1089980329937
 21
325.8168781114999
 31
0.0
  0
LINE
  5
1091
102
{ACAD_REACTORS
330
112B
102
}
330
1F
100
AcDbEntity
  8
AM_VIS
100
AcDbLine
 10
341.1089980329937
 20
327.9342918901507
 30
0.0
 11
341.1089980329937
 21
326.4998908133922
 31
0.0
  0
LINE
  5
1092
330
1F
100
AcDbEntity
  8
AM_VIS
100
AcDbLine
 10
341.1089980329937
 20
310.8934843528412
 30
0.0
 11
341.1089980329937
 21
309.4590832760827
 31
0.0
  0
LINE
  5
1093
330
1F
100
AcDbEntity
  8
AM_VIS
100
AcDbLine
 10
341.1089980329937
 20
311.5764970547334
 30
0.0
 11
341.1089980329937
 21
310.8934843528412
 31
0.0
  0
LINE
  5
1094
330
1F
100
AcDbEntity
  8
AM_VIS
100
AcDbLine
 10
341.1089980329937
 20
310.8934843528412
 30
0.0
 11
335.6089980329937
 21
310.8934843528412
 31
0.0
  0
LINE
  5
1095
330
1F
100
AcDbEntity
  8
AM_VIS
100
AcDbLine
 10
335.6089980329937
 20
310.8934843528412
 30
0.0
 11
335.6089980329937
 21
311.5764970547334
 31
0.0
  0
LINE
  5
1096
330
1F
100
AcDbEntity
  8
AM_VIS
100
AcDbLine
 10
335.6089980329937
 20
312.6434843528411
 30
0.0
 11
341.1089980329937
 21
312.6434843528411
 31
0.0
  0
LINE
  5
1097
330
1F
100
AcDbEntity
  8
AM_VIS
100
AcDbLine
 10
341.1089980329937
 20
312.6434843528411
 30
0.0
 11
341.1089980329937
 21
311.5764970547334
 31
0.0
  0
LINE
  5
1098
330
1F
100
AcDbEntity
  8
AM_VIS
100
AcDbLine
 10
341.1089980329937
 20
311.5764970547334
 30
0.0
 11
335.6089980329937
 21
311.5764970547333
 31
0.0
  0
LINE
  5
1099
330
1F
100
AcDbEntity
  8
AM_VIS
100
AcDbLine
 10
335.6089980329937
 20
311.5764970547334
 30
0.0
 11
335.6089980329937
 21
312.6434843528411
 31
0.0
  0
LINE
  5
109A
330
1F
100
AcDbEntity
  8
AM_VIS
100
AcDbLine
 10
335.6089980329937
 20
325.4466875831167
 30
0.0
 11
334.0089980329937
 21
325.4466875831167
 31
0.0
  0
LINE
  5
109B
330
1F
100
AcDbEntity
  8
AM_VIS
100
AcDbLine
 10
335.6089980329937
 20
311.9466875831167
 30
0.0
 11
334.0089980329938
 21
311.9466875831167
 31
0.0
  0
LINE
  5
109C
330
1F
100
AcDbEntity
  8
AM_VIS
100
AcDbLine
 10
334.0089980329937
 20
325.6966875831166
 30
0.0
 11
333.1089980329936
 21
325.6966875831166
 31
0.0
  0
LINE
  5
109D
330
1F
100
AcDbEntity
  8
AM_VIS
100
AcDbLine
 10
334.0089980329938
 20
311.6966875831166
 30
0.0
 11
333.1089980329936
 21
311.6966875831166
 31
0.0
  0
LINE
  5
109E
330
1F
100
AcDbEntity
  8
AM_VIS
100
AcDbLine
 10
334.0089980329937
 20
325.6966875831166
 30
0.0
 11
334.0089980329938
 21
311.6966875831166
 31
0.0
  0
LINE
  5
109F
330
1F
100
AcDbEntity
  8
AM_7
100
AcDbLine
 10
319.1383957300243
 20
228.341359412704
 30
0.0
 11
328.9074258878272
 21
228.341359412704
 31
0.0
  0
LINE
  5
10A0
330
1F
100
AcDbEntity
  8
AM_7
100
AcDbLine
 10
343.1394288074252
 20
268.8413594127039
 30
0.0
 11
317.4063851415724
 21
268.8413594127039
 31
0.0
  0
LINE
  5
10A1
330
1F
100
AcDbEntity
  8
AM_VIS
100
AcDbLine
 10
290.1089980329937
 20
245.8413594127039
 30
0.0
 11
290.1089980329937
 21
221.3413594127039
 31
0.0
  0
LINE
  5
10A2
330
1F
100
AcDbEntity
  8
AM_VIS
100
AcDbLine
 10
290.1089980329937
 20
245.8413594127039
 30
0.0
 11
320.1089980329937
 21
245.8413594127039
 31
0.0
  0
LINE
  5
10A3
330
1F
100
AcDbEntity
  8
AM_VIS
100
AcDbLine
 10
320.1089980329937
 20
221.3413594127039
 30
0.0
 11
320.1089980329937
 21
245.8413594127039
 31
0.0
  0
LINE
  5
10A4
330
1F
100
AcDbEntity
  8
AM_VIS
100
AcDbLine
 10
290.1089980329937
 20
217.3413594127039
 30
0.0
 11
320.1089980329937
 21
217.3413594127039
 31
0.0
  0
LINE
  5
10A5
330
1F
100
AcDbEntity
  8
AM_VIS
100
AcDbLine
 10
290.1089980329937
 20
217.3413594127039
 30
0.0
 11
290.1089980329937
 21
221.3413594127039
 31
0.0
  0
LINE
  5
10A6
330
1F
100
AcDbEntity
  8
AM_VIS
100
AcDbLine
 10
320.1089980329937
 20
221.3413594127039
 30
0.0
 11
320.1089980329937
 21
217.3413594127039
 31
0.0
  0
LINE
  5
10A7
330
1F
100
AcDbEntity
  8
AM_VIS
100
AcDbLine
 10
325.9589980329938
 20
238.1793125830284
 30
0.0
 11
327.1089980329937
 21
238.1793125830284
 31
0.0
  0
LINE
  5
10A8
330
1F
100
AcDbEntity
  8
AM_VIS
100
AcDbLine
 10
327.1123262348049
 20
238.181933158079
 30
0.0
 11
327.6129865085699
 21
237.54608095092
 31
0.0
  0
SPLINE
  5
10A9
330
1F
100
AcDbEntity
  8
AM_VIS
100
AcDbSpline
210
0.0
220
0.0
230
1.0
 70
     8
 71
     3
 72
     8
 73
     4
 74
     0
 42
0.0000000001
 43
0.0000000001
 40
7.860869802063005
 40
7.860869802063005
 40
7.860869802063005
 40
7.860869802063005
 40
8.796716660561699
 40
8.796716660561699
 40
8.796716660561699
 40
8.796716660561699
 10
327.6089980329937
 20
234.9880432282274
 30
0.0
 10
327.4579589969595
 20
234.9155427912166
 30
0.0
 10
327.2888593812151
 20
234.8576494707907
 30
0.0
 10
327.1089980329937
 20
234.8130781090608
 30
0.0
  0
LINE
  5
10AA
330
1F
100
AcDbEntity
  8
AM_VIS
100
AcDbLine
 10
327.1089980329937
 20
234.8130781090608
 30
0.0
 11
325.9589980329938
 21
234.8130781090608
 31
0.0
  0
LINE
  5
10AB
330
1F
100
AcDbEntity
  8
AM_VIS
100
AcDbLine
 10
325.9589980329938
 20
221.869640716347
 30
0.0
 11
327.1089980329937
 21
221.869640716347
 31
0.0
  0
SPLINE
  5
10AC
330
1F
100
AcDbEntity
  8
AM_VIS
100
AcDbSpline
210
0.0
220
0.0
230
1.0
 70
     8
 71
     3
 72
     8
 73
     4
 74
     0
 42
0.0000000001
 43
0.0000000001
 40
1.630155803927018
 40
1.630155803927018
 40
1.630155803927018
 40
1.630155803927018
 40
2.566002662426996
 40
2.566002662426996
 40
2.566002662426996
 40
2.566002662426996
 10
327.1089980329937
 20
221.869640716347
 30
0.0
 10
327.2888592661889
 20
221.8250693831217
 30
0.0
 10
327.4579588875624
 20
221.7671760867031
 30
0.0
 10
327.6089980329937
 20
221.6946755971804
 30
0.0
  0
LINE
  5
10AD
330
1F
100
AcDbEntity
  8
AM_VIS
100
AcDbLine
 10
327.1123262329473
 20
218.5007856687673
 30
0.0
 11
327.6129865095767
 21
219.136637873666
 31
0.0
  0
LINE
  5
10AE
330
1F
100
AcDbEntity
  8
AM_VIS
100
AcDbLine
 10
327.1089980329937
 20
218.5034062423795
 30
0.0
 11
325.9589980329938
 21
218.5034062423795
 31
0.0
  0
LINE
  5
10AF
330
1F
100
AcDbEntity
  8
AM_VIS
100
AcDbLine
 10
325.9589980329938
 20
231.7075938866715
 30
0.0
 11
327.1089980329937
 21
231.7075938866715
 31
0.0
  0
SPLINE
  5
10B0
330
1F
100
AcDbEntity
  8
AM_VIS
100
AcDbSpline
210
0.0
220
0.0
230
1.0
 70
     8
 71
     3
 72
     8
 73
     4
 74
     0
 42
0.0000000001
 43
0.0000000001
 40
1.63015580392704
 40
1.63015580392704
 40
1.63015580392704
 40
1.63015580392704
 40
2.566002662427006
 40
2.566002662427006
 40
2.566002662427006
 40
2.566002662427006
 10
327.1089980329937
 20
231.7075938866715
 30
0.0
 10
327.2888592661889
 20
231.448216906447
 30
0.0
 10
327.4579588875624
 20
231.1770648084973
 30
0.0
 10
327.6089980329937
 20
230.8962566709122
 30
0.0
  0
SPLINE
  5
10B1
330
1F
100
AcDbEntity
  8
AM_VIS
100
AcDbSpline
210
0.0
220
0.0
230
1.0
 70
     8
 71
     3
 72
     8
 73
     4
 74
     0
 42
0.0000000001
 43
0.0000000001
 40
7.860869802062977
 40
7.860869802062977
 40
7.860869802062977
 40
7.860869802062977
 40
8.796716660561656
 40
8.796716660561656
 40
8.796716660561656
 40
8.796716660561656
 10
327.6089980329937
 20
225.7864621544957
 30
0.0
 10
327.4579589969595
 20
225.5056542202987
 30
0.0
 10
327.2888593812151
 20
225.2345020848395
 30
0.0
 10
327.1089980329937
 20
224.9751249387364
 30
0.0
  0
LINE
  5
10B2
330
1F
100
AcDbEntity
  8
AM_VIS
100
AcDbLine
 10
327.1089980329937
 20
224.9751249387364
 30
0.0
 11
325.9589980329938
 21
224.9751249387364
 31
0.0
  0
LINE
  5
10B3
330
1F
100
AcDbEntity
  8
AM_VIS
100
AcDbLine
 10
324.4589980329938
 20
224.9751249387364
 30
0.0
 11
321.6089980329937
 21
224.9751249387364
 31
0.0
  0
LINE
  5
10B4
330
1F
100
AcDbEntity
  8
AM_VIS
100
AcDbLine
 10
324.4589980329938
 20
234.8130781090608
 30
0.0
 11
321.6089980329937
 21
234.8130781090608
 31
0.0
  0
LINE
  5
10B5
330
1F
100
AcDbEntity
  8
AM_VIS
100
AcDbLine
 10
321.6089980329937
 20
231.7075938866715
 30
0.0
 11
324.4589980329938
 21
231.7075938866715
 31
0.0
  0
LINE
  5
10B6
330
1F
100
AcDbEntity
  8
AM_VIS
100
AcDbLine
 10
321.6089980329937
 20
238.1793125830284
 30
0.0
 11
324.4589980329938
 21
238.1793125830284
 31
0.0
  0
LINE
  5
10B7
330
1F
100
AcDbEntity
  8
AM_VIS
100
AcDbLine
 10
321.6089980329937
 20
221.869640716347
 30
0.0
 11
324.4589980329938
 21
221.869640716347
 31
0.0
  0
LINE
  5
10B8
330
1F
100
AcDbEntity
  8
AM_VIS
100
AcDbLine
 10
324.4589980329938
 20
218.5034062423795
 30
0.0
 11
321.6089980329937
 21
218.5034062423795
 31
0.0
  0
ARC
  5
10B9
330
1F
100
AcDbEntity
  8
AM_VIS
100
AcDbCircle
 10
334.8314562431482
 20
220.1865234793633
 30
0.0
 40
13.32915168916285
100
AcDbArc
 50
172.7457013204759
 51
187.254298679524
  0
ARC
  5
10BA
330
1F
100
AcDbEntity
  8
AM_VIS
100
AcDbCircle
 10
334.8314562431512
 20
236.4961953460445
 30
0.0
 40
13.32915168916579
100
AcDbArc
 50
172.7457013204759
 51
187.254298679524
  0
SPLINE
  5
10BB
330
1F
100
AcDbEntity
  8
AM_VIS
100
AcDbSpline
210
0.0
220
0.0
230
1.0
 70
     8
 71
     3
 72
    14
 73
    10
 74
     0
 42
0.0000000001
 43
0.0000000001
 40
13.28006742556183
 40
13.28006742556183
 40
13.28006742556183
 40
13.28006742556183
 40
14.27448381305591
 40
14.27448381305591
 40
16.65382904986477
 40
16.65382904986477
 40
19.03317428667361
 40
19.03317428667361
 40
20.02759067416768
 40
20.02759067416768
 40
20.02759067416768
 40
20.02759067416768
 10
321.6089980329937
 20
224.9751249387364
 30
0.0
 10
321.5912520578748
 20
225.2950172076062
 30
0.0
 10
321.5754764641713
 20
225.6209856615071
 30
0.0
 10
321.5302676522609
 20
226.7389789931347
 30
0.0
 10
321.5129980329937
 20
227.5482443337677
 30
0.0
 10
321.5129980329937
 20
229.1344744916402
 30
0.0
 10
321.5302676522609
 20
229.9437398322731
 30
0.0
 10
321.5754764641713
 20
231.0617331639008
 30
0.0
 10
321.5912520578748
 20
231.3877016178017
 30
0.0
 10
321.6089980329937
 20
231.7075938866715
 30
0.0
  0
SPLINE
  5
10BC
330
1F
100
AcDbEntity
  8
AM_VIS
100
AcDbSpline
210
0.0
220
0.0
230
1.0
 70
    11
 71
     3
 72
    58
 73
    54
 74
     0
 42
0.0000000001
 43
0.0000000001
 40
-3.363896419255587
 40
-3.363896419255587
 40
-3.363896419255587
 40
-3.363896419255587
 40
-3.330080057210193
 40
-3.330080057210193
 40
-3.276087946180991
 40
-3.276087946180991
 40
-3.130129325405927
 40
-3.130129325405927
 40
-2.864475625747458
 40
-2.864475625747458
 40
-2.670984402726474
 40
-2.670984402726474
 40
-2.529876972632633
 40
-2.529876972632633
 40
-2.39414607930529
 40
-2.39414607930529
 40
-2.234845146690002
 40
-2.234845146690002
 40
-1.995446372975766
 40
-1.995446372975766
 40
-1.792732498499779
 40
-1.792732498499779
 40
-1.655061186031255
 40
-1.655061186031255
 40
-1.604023047347052
 40
-1.604023047347052
 40
-1.569394244758093
 40
-1.569394244758093
 40
-1.535224675064294
 40
-1.535224675064294
 40
-1.486406949001721
 40
-1.486406949001721
 40
-1.367760828147406
 40
-1.367760828147406
 40
-1.211422564713941
 40
-1.211422564713941
 40
-1.00947781381898
 40
-1.00947781381898
 40
-0.8308451467036132
 40
-0.8308451467036132
 40
-0.6546659190622926
 40
-0.6546659190622926
 40
-0.4706948992192896
 40
-0.4706948992192896
 40
-0.3083260207238461
 40
-0.3083260207238461
 40
-0.1833529844742129
 40
-0.1833529844742129
 40
-0.0782943285735388
 40
-0.0782943285735388
 40
-0.0333492537450304
 40
-0.0333492537450304
 40
0.0
 40
0.0
 40
0.0
 40
0.0
 10
325.7089980329937
 20
234.4639619703384
 30
0.0
 10
325.7089980329937
 20
234.4604618460027
 30
0.0
 10
325.7086538792602
 20
234.4566446632663
 30
0.0
 10
325.7069211767231
 20
234.4459743184855
 30
0.0
 10
325.7050383724257
 20
234.4387030749275
 30
0.0
 10
325.695401053834
 20
234.409680744169
 30
0.0
 10
325.6830719755898
 20
234.3842281392999
 30
0.0
 10
325.6376196232832
 20
234.3089718409034
 30
0.0
 10
325.5940795760754
 20
234.2536588871843
 30
0.0
 10
325.4992516320238
 20
234.1696987958583
 30
0.0
 10
325.4518517512762
 20
234.1365432707533
 30
0.0
 10
325.3582096378453
 20
234.0937853038705
 30
0.0
 10
325.3154749510096
 20
234.0804219907284
 30
0.0
 10
325.2266627677571
 20
234.0677199988514
 30
0.0
 10
325.1829127599715
 20
234.068183184965
 30
0.0
 10
325.0891156647429
 20
234.0833742109647
 30
0.0
 10
325.0421234576628
 20
234.1000760832237
 30
0.0
 10
324.9356991482375
 20
234.1545297779966
 30
0.0
 10
324.880805251882
 20
234.1992212393569
 30
0.0
 10
324.7991856189242
 20
234.2854258887249
 30
0.0
 10
324.7687707695817
 20
234.327083539167
 30
0.0
 10
324.7321800778165
 20
234.3897076709359
 30
0.0
 10
324.721015914675
 20
234.4135866046396
 30
0.0
 10
324.7124025057453
 20
234.4407691710548
 30
0.0
 10
324.7107464757851
 20
234.4475596389444
 30
0.0
 10
324.7092091102164
 20
234.4578359263106
 30
0.0
 10
324.7089302839354
 20
234.4616706980323
 30
0.0
 10
324.7090924661332
 20
234.468612539768
 30
0.0
 10
324.7095236969936
 20
234.4717184300448
 30
0.0
 10
324.711457461951
 20
234.4784086488371
 30
0.0
 10
324.7133329126801
 20
234.4816046604732
 30
0.0
 10
324.7224038237792
 20
234.4900781993531
 30
0.0
 10
324.7331871525774
 20
234.4916042424931
 30
0.0
 10
324.7681176480407
 20
234.4875980421555
 30
0.0
 10
324.7949252765977
 20
234.479835830551
 30
0.0
 10
324.869192863959
 20
234.4583293170902
 30
0.0
 10
324.9216919393264
 20
234.4431294105482
 30
0.0
 10
325.0375716529445
 20
234.420336878324
 30
0.0
 10
325.0966874627203
 20
234.4125816179633
 30
0.0
 10
325.2184623677671
 20
234.4071225235623
 30
0.0
 10
325.27904081037
 20
234.4093609020176
 30
0.0
 10
325.3980298905483
 20
234.4227618737193
 30
0.0
 10
325.4545050896964
 20
234.4341371641066
 30
0.0
 10
325.5480879999865
 20
234.4576537357723
 30
0.0
 10
325.5863698691484
 20
234.4694448698184
 30
0.0
 10
325.6417215873985
 20
234.4848842669113
 30
0.0
 10
325.6615384018048
 20
234.4896952795115
 30
0.0
 10
325.6890467798585
 20
234.4910741051682
 30
0.0
 10
325.6979182128261
 20
234.4887914667558
 30
0.0
 10
325.705464045358
 20
234.4803262566535
 30
0.0
 10
325.7070390003804
 20
234.4771579820819
 30
0.0
 10
325.7086634039886
 20
234.4705551196121
 30
0.0
 10
325.7089980329937
 20
234.4674137471573
 30
0.0
 10
325.7089980329937
 20
234.4639619703384
 30
0.0
  0
CIRCLE
  5
10BD
330
1F
100
AcDbEntity
  8
AM_VIS
100
AcDbCircle
 10
325.2089980329937
 20
229.591359412704
 30
0.0
 40
0.5000000000000002
  0
SPLINE
  5
10BE
330
1F
100
AcDbEntity
  8
AM_VIS
100
AcDbSpline
210
0.0
220
0.0
230
1.0
 70
    11
 71
     3
 72
    58
 73
    54
 74
     0
 42
0.0000000001
 43
0.0000000001
 40
-3.310941722020734
 40
-3.310941722020734
 40
-3.310941722020734
 40
-3.310941722020734
 40
-3.295630163505362
 40
-3.295630163505362
 40
-3.25888521683784
 40
-3.25888521683784
 40
-3.197166102513703
 40
-3.197166102513703
 40
-3.038165220175974
 40
-3.038165220175974
 40
-2.856291614867816
 40
-2.856291614867816
 40
-2.666842086896373
 40
-2.666842086896373
 40
-2.492578752008394
 40
-2.492578752008394
 40
-2.312125783734214
 40
-2.312125783734214
 40
-2.13451249378157
 40
-2.13451249378157
 40
-1.991913706757117
 40
-1.991913706757117
 40
-1.842368186774402
 40
-1.842368186774402
 40
-1.791323432477104
 40
-1.791323432477104
 40
-1.757111173270509
 40
-1.757111173270509
 40
-1.723565230364853
 40
-1.723565230364853
 40
-1.676146471114944
 40
-1.676146471114944
 40
-1.5592641658533
 40
-1.5592641658533
 40
-1.304423753588805
 40
-1.304423753588805
 40
-1.102534997063944
 40
-1.102534997063944
 40
-0.9616332280833521
 40
-0.9616332280833521
 40
-0.8335600122414829
 40
-0.8335600122414829
 40
-0.6887403587885041
 40
-0.6887403587885041
 40
-0.4760113448049901
 40
-0.4760113448049901
 40
-0.2570316117964575
 40
-0.2570316117964575
 40
-0.0905362468527244
 40
-0.0905362468527244
 40
-0.0354113089023832
 40
-0.0354113089023832
 40
0.0
 40
0.0
 40
0.0
 40
0.0
 10
325.7089980329937
 20
222.2187568550696
 30
0.0
 10
325.7089980329937
 20
222.2171720495099
 30
0.0
 10
325.7089274331291
 20
222.2156535366727
 30
0.0
 10
325.7084411623712
 20
222.2107219132276
 30
0.0
 10
325.7076826842745
 20
222.2076481051208
 30
0.0
 10
325.7044893262823
 20
222.2005228842949
 30
0.0
 10
325.7012861220069
 20
222.197270261448
 30
0.0
 10
325.6853459114994
 20
222.1897379300143
 30
0.0
 10
325.6659985190534
 20
222.1921876336376
 30
0.0
 10
325.6094239025127
 20
222.2061835789071
 30
0.0
 10
325.5697104664076
 20
222.2189610173098
 30
0.0
 10
325.4713007430382
 20
222.2448484641887
 30
0.0
 10
325.4134876092294
 20
222.2573830483942
 30
0.0
 10
325.2934911353423
 20
222.2723383222293
 30
0.0
 10
325.2335085605451
 20
222.2753482991287
 30
0.0
 10
325.1113281795295
 20
222.271534242461
 30
0.0
 10
325.0512877189311
 20
222.2644191750731
 30
0.0
 10
324.9413781521412
 20
222.243976999243
 30
0.0
 10
324.8922528203991
 20
222.230899019589
 30
0.0
 10
324.8174431612664
 20
222.2094949010526
 30
0.0
 10
324.7890284413273
 20
222.2007813271097
 30
0.0
 10
324.7430418444707
 20
222.1909382077616
 30
0.0
 10
324.7265225458032
 20
222.1904344100657
 30
0.0
 10
324.71423834747
 20
222.1998697752186
 30
0.0
 10
324.7120204052819
 20
222.20310200054
 30
0.0
 10
324.7097398379827
 20
222.2098987489379
 30
0.0
 10
324.7092131912168
 20
222.212986636415
 30
0.0
 10
324.7088934238356
 20
222.2197834521836
 30
0.0
 10
324.7090867571009
 20
222.2234687614274
 30
0.0
 10
324.710343866738
 20
222.2330736371804
 30
0.0
 10
324.7117324486788
 20
222.2392732992183
 30
0.0
 10
324.7185706441662
 20
222.2624139804771
 30
0.0
 10
324.726990119318
 20
222.2818120273262
 30
0.0
 10
324.7623435079936
 20
222.3476666229676
 30
0.0
 10
324.8009238529922
 20
222.4018394754985
 30
0.0
 10
324.8910581894068
 20
222.4913407476486
 30
0.0
 10
324.9395623674134
 20
222.5296006333445
 30
0.0
 10
325.0354260731532
 20
222.579580852567
 30
0.0
 10
325.0786813610147
 20
222.5957856856888
 30
0.0
 10
325.1672687422963
 20
222.6132142822712
 30
0.0
 10
325.2102609279666
 20
222.6153003743968
 30
0.0
 10
325.3019662859049
 20
222.6058247809136
 30
0.0
 10
325.347857127802
 20
222.5927539817677
 30
0.0
 10
325.4522870993805
 20
222.5471249176154
 30
0.0
 10
325.5055760130511
 20
222.5088798875131
 30
0.0
 10
325.5942353768374
 20
222.4270377349611
 30
0.0
 10
325.6309570073181
 20
222.3814246438321
 30
0.0
 10
325.6781705607189
 20
222.308266828996
 30
0.0
 10
325.6935921355143
 20
222.2778801429867
 30
0.0
 10
325.7047418476446
 20
222.2450869315007
 30
0.0
 10
325.7067437795321
 20
222.237553778864
 30
0.0
 10
325.7086206412709
 20
222.2264408136009
 30
0.0
 10
325.7089980329937
 20
222.2224220625772
 30
0.0
 10
325.7089980329937
 20
222.2187568550696
 30
0.0
  0
CIRCLE
  5
10BF
330
1F
100
AcDbEntity
  8
AM_VIS
100
AcDbCircle
 10
325.2089980329937
 20
227.091359412704
 30
0.0
 40
0.5000000000000022
  0
ARC
  5
10C0
330
1F
100
AcDbEntity
  8
AM_VIS
100
AcDbCircle
 10
325.2089980329937
 20
235.2692406564167
 30
0.0
 40
0.6979039290997726
100
AcDbArc
 50
224.2394032771299
 51
315.7605967228747
  0
ARC
  5
10C1
330
1F
100
AcDbEntity
  8
AM_VIS
100
AcDbCircle
 10
325.2089980329937
 20
221.4134965469952
 30
0.0
 40
0.6978911076630025
100
AcDbArc
 50
44.23832232198608
 51
135.7616776780139
  0
LINE
  5
10C2
330
1F
100
AcDbEntity
  8
AM_VIS
100
AcDbLine
 10
327.6089980329937
 20
237.841359412704
 30
0.0
 11
327.1089980329937
 21
238.341359412704
 31
0.0
  0
LINE
  5
10C3
330
1F
100
AcDbEntity
  8
AM_VIS
100
AcDbLine
 10
327.6089980329937
 20
218.841359412704
 30
0.0
 11
327.1089980329937
 21
218.341359412704
 31
0.0
  0
LINE
  5
10C4
330
1F
100
AcDbEntity
  8
AM_VIS
100
AcDbLine
 10
325.9589980329938
 20
238.341359412704
 30
0.0
 11
327.1089980329937
 21
238.341359412704
 31
0.0
  0
LINE
  5
10C5
330
1F
100
AcDbEntity
  8
AM_VIS
100
AcDbLine
 10
325.9589980329938
 20
218.341359412704
 30
0.0
 11
327.1089980329937
 21
218.341359412704
 31
0.0
  0
LINE
  5
10C6
330
1F
100
AcDbEntity
  8
AM_VIS
100
AcDbLine
 10
321.6089980329937
 20
238.341359412704
 30
0.0
 11
324.4589980329938
 21
238.341359412704
 31
0.0
  0
LINE
  5
10C7
330
1F
100
AcDbEntity
  8
AM_VIS
100
AcDbLine
 10
321.6089980329937
 20
218.341359412704
 30
0.0
 11
324.4589980329938
 21
218.341359412704
 31
0.0
  0
LINE
  5
10C8
330
1F
100
AcDbEntity
  8
AM_VIS
100
AcDbLine
 10
321.4089980329938
 20
220.841359412704
 30
0.0
 11
321.6089980329937
 21
218.341359412704
 31
0.0
  0
LINE
  5
10C9
330
1F
100
AcDbEntity
  8
AM_VIS
100
AcDbLine
 10
321.4089980329937
 20
235.841359412704
 30
0.0
 11
321.6089980329937
 21
238.341359412704
 31
0.0
  0
LINE
  5
10CA
330
1F
100
AcDbEntity
  8
AM_VIS
100
AcDbLine
 10
320.6089980329937
 20
235.841359412704
 30
0.0
 11
320.1089980329937
 21
238.341359412704
 31
0.0
  0
LINE
  5
10CB
330
1F
100
AcDbEntity
  8
AM_VIS
100
AcDbLine
 10
320.6089980329937
 20
220.841359412704
 30
0.0
 11
320.1089980329937
 21
218.341359412704
 31
0.0
  0
LINE
  5
10CC
330
1F
100
AcDbEntity
  8
AM_VIS
100
AcDbLine
 10
320.6089980329937
 20
220.841359412704
 30
0.0
 11
321.4089980329938
 21
220.841359412704
 31
0.0
  0
LINE
  5
10CD
330
1F
100
AcDbEntity
  8
AM_VIS
100
AcDbLine
 10
320.6089980329937
 20
235.841359412704
 30
0.0
 11
321.4089980329937
 21
235.841359412704
 31
0.0
  0
LINE
  5
10CE
330
1F
100
AcDbEntity
  8
AM_VIS
100
AcDbLine
 10
327.1089980329937
 20
221.869640716347
 30
0.0
 11
327.1089980329937
 21
224.9751249387364
 31
0.0
  0
LINE
  5
10CF
330
1F
100
AcDbEntity
  8
AM_VIS
100
AcDbLine
 10
327.1089980329937
 20
231.7075938866715
 30
0.0
 11
327.1089980329937
 21
234.8130781090608
 31
0.0
  0
LINE
  5
10D0
330
1F
100
AcDbEntity
  8
AM_VIS
100
AcDbLine
 10
327.1089980329937
 20
238.1793125830284
 30
0.0
 11
327.1089980329937
 21
238.341359412704
 31
0.0
  0
LINE
  5
10D1
330
1F
100
AcDbEntity
  8
AM_VIS
100
AcDbLine
 10
327.1089980329937
 20
218.341359412704
 30
0.0
 11
327.1089980329937
 21
218.5034062423795
 31
0.0
  0
LINE
  5
10D2
330
1F
100
AcDbEntity
  8
AM_VIS
100
AcDbLine
 10
325.9589980329938
 20
221.869640716347
 30
0.0
 11
325.9589980329938
 21
224.9751249387364
 31
0.0
  0
LINE
  5
10D3
330
1F
100
AcDbEntity
  8
AM_VIS
100
AcDbLine
 10
325.9589980329938
 20
221.869640716347
 30
0.0
 11
325.9589980329938
 21
218.5034062423794
 31
0.0
  0
LINE
  5
10D4
330
1F
100
AcDbEntity
  8
AM_VIS
100
AcDbLine
 10
325.9589980329938
 20
218.341359412704
 30
0.0
 11
325.9589980329938
 21
218.5034062423795
 31
0.0
  0
LINE
  5
10D5
330
1F
100
AcDbEntity
  8
AM_VIS
100
AcDbLine
 10
325.9589980329938
 20
238.1793125830284
 30
0.0
 11
325.9589980329938
 21
238.341359412704
 31
0.0
  0
LINE
  5
10D6
330
1F
100
AcDbEntity
  8
AM_VIS
100
AcDbLine
 10
325.9589980329938
 20
238.1793125830284
 30
0.0
 11
325.9589980329938
 21
234.8130781090608
 31
0.0
  0
LINE
  5
10D7
330
1F
100
AcDbEntity
  8
AM_VIS
100
AcDbLine
 10
325.9589980329938
 20
231.7075938866714
 30
0.0
 11
325.9589980329938
 21
234.8130781090608
 31
0.0
  0
LINE
  5
10D8
330
1F
100
AcDbEntity
  8
AM_VIS
100
AcDbLine
 10
325.9589980329938
 20
231.7075938866715
 30
0.0
 11
325.9589980329938
 21
224.9751249387363
 31
0.0
  0
LINE
  5
10D9
330
1F
100
AcDbEntity
  8
AM_VIS
100
AcDbLine
 10
324.4589980329938
 20
234.8130781090608
 30
0.0
 11
324.4589980329938
 21
238.1793125830284
 31
0.0
  0
LINE
  5
10DA
330
1F
100
AcDbEntity
  8
AM_VIS
100
AcDbLine
 10
324.4589980329938
 20
224.9751249387364
 30
0.0
 11
324.4589980329938
 21
231.7075938866716
 31
0.0
  0
LINE
  5
10DB
330
1F
100
AcDbEntity
  8
AM_VIS
100
AcDbLine
 10
324.4589980329938
 20
224.9751249387364
 30
0.0
 11
324.4589980329938
 21
221.869640716347
 31
0.0
  0
LINE
  5
10DC
330
1F
100
AcDbEntity
  8
AM_VIS
100
AcDbLine
 10
324.4589980329938
 20
234.8130781090608
 30
0.0
 11
324.4589980329938
 21
231.7075938866714
 31
0.0
  0
LINE
  5
10DD
330
1F
100
AcDbEntity
  8
AM_VIS
100
AcDbLine
 10
324.4589980329938
 20
238.341359412704
 30
0.0
 11
324.4589980329938
 21
238.1793125830284
 31
0.0
  0
LINE
  5
10DE
330
1F
100
AcDbEntity
  8
AM_VIS
100
AcDbLine
 10
324.4589980329938
 20
218.5034062423795
 30
0.0
 11
324.4589980329938
 21
218.341359412704
 31
0.0
  0
LINE
  5
10DF
330
1F
100
AcDbEntity
  8
AM_VIS
100
AcDbLine
 10
324.4589980329938
 20
218.5034062423795
 30
0.0
 11
324.4589980329938
 21
221.869640716347
 31
0.0
  0
LINE
  5
10E0
330
1F
100
AcDbEntity
  8
AM_VIS
100
AcDbLine
 10
321.6089980329937
 20
221.869640716347
 30
0.0
 11
321.6089980329937
 21
224.9751249387364
 31
0.0
  0
LINE
  5
10E1
330
1F
100
AcDbEntity
  8
AM_VIS
100
AcDbLine
 10
321.6089980329937
 20
218.341359412704
 30
0.0
 11
321.6089980329937
 21
218.5034062423795
 31
0.0
  0
LINE
  5
10E2
330
1F
100
AcDbEntity
  8
AM_VIS
100
AcDbLine
 10
321.6089980329937
 20
238.1793125830284
 30
0.0
 11
321.6089980329937
 21
238.341359412704
 31
0.0
  0
LINE
  5
10E3
330
1F
100
AcDbEntity
  8
AM_VIS
100
AcDbLine
 10
321.6089980329937
 20
231.7075938866714
 30
0.0
 11
321.6089980329937
 21
234.8130781090608
 31
0.0
  0
LINE
  5
10E4
330
1F
100
AcDbEntity
  8
AM_VIS
100
AcDbLine
 10
321.4089980329937
 20
220.841359412704
 30
0.0
 11
321.4089980329937
 21
235.841359412704
 31
0.0
  0
LINE
  5
10E5
330
1F
100
AcDbEntity
  8
AM_VIS
100
AcDbLine
 10
320.6089980329937
 20
220.841359412704
 30
0.0
 11
320.6089980329937
 21
235.841359412704
 31
0.0
  0
LINE
  5
10E6
102
{ACAD_REACTORS
330
11D3
102
}
330
1F
100
AcDbEntity
  8
AM_VIS
100
AcDbLine
 10
327.6089980329937
 20
219.1397783389722
 30
0.0
 11
327.6089980329937
 21
218.841359412704
 31
0.0
  0
LINE
  5
10E7
330
1F
100
AcDbEntity
  8
AM_VIS
100
AcDbLine
 10
327.6089980329937
 20
221.6946755971804
 30
0.0
 11
327.6089980329937
 21
219.1397783389721
 31
0.0
  0
LINE
  5
10E8
330
1F
100
AcDbEntity
  8
AM_VIS
100
AcDbLine
 10
327.6089980329937
 20
225.7864621544957
 30
0.0
 11
327.6089980329937
 21
221.6946755971804
 31
0.0
  0
LINE
  5
10E9
330
1F
100
AcDbEntity
  8
AM_VIS
100
AcDbLine
 10
327.6089980329937
 20
230.8962566709121
 30
0.0
 11
327.6089980329937
 21
225.7864621544956
 31
0.0
  0
LINE
  5
10EA
330
1F
100
AcDbEntity
  8
AM_VIS
100
AcDbLine
 10
327.6089980329937
 20
234.9880432282274
 30
0.0
 11
327.6089980329937
 21
230.8962566709122
 31
0.0
  0
LINE
  5
10EB
330
1F
100
AcDbEntity
  8
AM_VIS
100
AcDbLine
 10
327.6089980329937
 20
237.5429404864357
 30
0.0
 11
327.6089980329937
 21
234.9880432282274
 31
0.0
  0
LINE
  5
10EC
330
1F
100
AcDbEntity
  8
AM_VIS
100
AcDbLine
 10
327.6089980329937
 20
237.841359412704
 30
0.0
 11
327.6089980329937
 21
237.5429404864357
 31
0.0
  0
ARC
  5
10ED
330
1F
100
AcDbEntity
  8
AM_VIS
100
AcDbCircle
 10
325.2089980329937
 20
235.341359412704
 30
0.0
 40
0.75
100
AcDbArc
 50
180.0
 51
228.1896851042216
  0
ARC
  5
10EE
330
1F
100
AcDbEntity
  8
AM_VIS
100
AcDbCircle
 10
325.2089980329937
 20
235.341359412704
 30
0.0
 40
0.75
100
AcDbArc
 50
311.8103148957784
 51
0.0
  0
ARC
  5
10EF
330
1F
100
AcDbEntity
  8
AM_VIS
100
AcDbCircle
 10
325.2089980329937
 20
221.341359412704
 30
0.0
 40
0.75
100
AcDbArc
 50
0.0
 51
48.18968510422497
  0
ARC
  5
10F0
330
1F
100
AcDbEntity
  8
AM_VIS
100
AcDbCircle
 10
325.2089980329937
 20
221.341359412704
 30
0.0
 40
0.75
100
AcDbArc
 50
131.8103148957784
 51
180.0
  0
LINE
  5
10F1
330
1F
100
AcDbEntity
  8
AM_VIS
100
AcDbLine
 10
316.1089980329937
 20
247.3413594127039
 30
0.0
 11
294.1089980329936
 21
247.3413594127039
 31
0.0
  0
LINE
  5
10F2
330
1F
100
AcDbEntity
  8
AM_VIS
100
AcDbLine
 10
290.6089980329936
 20
247.3413594127039
 30
0.0
 11
290.6089980329936
 21
245.8413594127039
 31
0.0
  0
LINE
  5
10F3
330
1F
100
AcDbEntity
  8
AM_VIS
100
AcDbLine
 10
319.6089980329937
 20
245.8413594127039
 30
0.0
 11
319.6089980329937
 21
247.3413594127039
 31
0.0
  0
LINE
  5
10F4
330
1F
100
AcDbEntity
  8
AM_VIS
100
AcDbLine
 10
290.6089980329936
 20
247.3413594127039
 30
0.0
 11
294.1089980329936
 21
247.3413594127039
 31
0.0
  0
LINE
  5
10F5
330
1F
100
AcDbEntity
  8
AM_VIS
100
AcDbLine
 10
316.1089980329937
 20
247.3413594127039
 30
0.0
 11
319.6089980329937
 21
247.3413594127039
 31
0.0
  0
LINE
  5
10F6
330
1F
100
AcDbEntity
  8
AM_VIS
100
AcDbLine
 10
294.1089980329936
 20
247.3413594127039
 30
0.0
 11
316.1089980329936
 21
247.3413594127039
 31
0.0
  0
LINE
  5
10F7
330
1F
100
AcDbEntity
  8
AM_VIS
100
AcDbLine
 10
290.6089980329936
 20
272.3413594127039
 30
0.0
 11
290.6089980329936
 21
247.3413594127039
 31
0.0
  0
LINE
  5
10F8
330
1F
100
AcDbEntity
  8
AM_VIS
100
AcDbLine
 10
316.1089980329936
 20
275.8413594127039
 30
0.0
 11
294.1089980329936
 21
275.8413594127039
 31
0.0
  0
LINE
  5
10F9
330
1F
100
AcDbEntity
  8
AM_VIS
100
AcDbLine
 10
319.6089980329936
 20
247.3413594127039
 30
0.0
 11
319.6089980329936
 21
263.1845051632116
 31
0.0
  0
ARC
  5
10FA
330
1F
100
AcDbEntity
  8
AM_VIS
100
AcDbCircle
 10
348.8217592834599
 20
268.4415517589451
 30
0.0
 40
29.68201406216336
100
AcDbArc
 50
172.4502959460586
 51
190.2015981703591
  0
ARC
  5
10FB
330
1F
100
AcDbEntity
  8
AM_VIS
100
AcDbCircle
 10
316.6362282513613
 20
272.8226940010118
 30
0.0
 40
2.802467679763098
100
AcDbArc
 50
350.1101932448616
 51
28.63378411755832
  0
LINE
  5
10FC
330
1F
100
AcDbEntity
  8
AM_VIS
100
AcDbLine
 10
319.6089980329936
 20
259.8413594127039
 30
0.0
 11
333.1089980329936
 21
259.8413594127039
 31
0.0
  0
LINE
  5
10FD
330
1F
100
AcDbEntity
  8
AM_VIS
100
AcDbLine
 10
319.6089980329936
 20
277.8413594127039
 30
0.0
 11
333.1089980329936
 21
277.8413594127039
 31
0.0
  0
LINE
  5
10FE
330
1F
100
AcDbEntity
  8
AM_VIS
100
AcDbLine
 10
314.6089980329936
 20
275.8413594127039
 30
0.0
 11
319.6089980329936
 21
277.8413594127039
 31
0.0
  0
LINE
  5
10FF
330
1F
100
AcDbEntity
  8
AM_VIS
100
AcDbLine
 10
294.1089980329936
 20
247.3413594127039
 30
0.0
 11
290.6089980329936
 21
247.3413594127039
 31
0.0
  0
ARC
  5
1100
330
1F
100
AcDbEntity
  8
AM_VIS
100
AcDbCircle
 10
294.1089980329936
 20
272.3413594127039
 30
0.0
 40
3.5
100
AcDbArc
 50
90.0
 51
180.0
  0
LINE
  5
1101
102
{ACAD_REACTORS
330
11D0
102
}
330
1F
100
AcDbEntity
  8
AM_VIS
100
AcDbLine
 10
333.1089980329936
 20
277.8413594127039
 30
0.0
 11
333.1089980329936
 21
259.8413594127039
 31
0.0
  0
LINE
  5
1102
330
1F
100
AcDbEntity
  8
AM_VIS
100
AcDbLine
 10
319.6089980329936
 20
247.3413594127039
 30
0.0
 11
316.1089980329936
 21
247.3413594127039
 31
0.0
  0
ARC
  5
1103
330
1F
100
AcDbEntity
  8
AM_VIS
100
AcDbCircle
 10
316.1089980329936
 20
272.3413594127039
 30
0.0
 40
3.5
100
AcDbArc
 50
31.41476770924168
 51
90.0
  0
LINE
  5
1104
330
1F
100
AcDbEntity
  8
AM_VIS
100
AcDbLine
 10
319.6089980329936
 20
263.1845051632116
 30
0.0
 11
319.6089980329936
 21
277.8413594127039
 31
0.0
  0
LINE
  5
1105
330
1F
100
AcDbEntity
  8
AM_VIS
100
AcDbLine
 10
341.1089980329937
 20
263.3258149560811
 30
0.0
 11
335.6089980329937
 21
263.3258149560811
 31
0.0
  0
LINE
  5
1106
330
1F
100
AcDbEntity
  8
AM_VIS
100
AcDbLine
 10
335.6089980329937
 20
266.3569038693266
 30
0.0
 11
341.1089980329937
 21
266.3569038693266
 31
0.0
  0
LINE
  5
1107
330
1F
100
AcDbEntity
  8
AM_VIS
100
AcDbLine
 10
341.1089980329937
 20
266.1738911674344
 30
0.0
 11
335.6089980329937
 21
266.1738911674344
 31
0.0
  0
LINE
  5
1108
330
1F
100
AcDbEntity
  8
AM_VIS
100
AcDbLine
 10
341.1089980329937
 20
264.0088276579732
 30
0.0
 11
335.6089980329937
 21
264.0088276579732
 31
0.0
  0
LINE
  5
1109
330
1F
100
AcDbEntity
  8
AM_VIS
100
AcDbLine
 10
341.1089980329937
 20
260.8413594127038
 30
0.0
 11
335.6089980329937
 21
260.8413594127038
 31
0.0
  0
LINE
  5
110A
330
1F
100
AcDbEntity
  8
AM_VIS
100
AcDbLine
 10
341.1089980329937
 20
276.8413594127039
 30
0.0
 11
335.6089980329937
 21
276.8413594127039
 31
0.0
  0
LINE
  5
110B
330
1F
100
AcDbEntity
  8
AM_VIS
100
AcDbLine
 10
335.6089980329937
 20
268.8413594127039
 30
0.0
 11
335.6089980329937
 21
266.3569038693266
 31
0.0
  0
LINE
  5
110C
330
1F
100
AcDbEntity
  8
AM_VIS
100
AcDbLine
 10
335.6089980329937
 20
266.1738911674344
 30
0.0
 11
335.6089980329937
 21
266.3569038693266
 31
0.0
  0
LINE
  5
110D
330
1F
100
AcDbEntity
  8
AM_VIS
100
AcDbLine
 10
335.6089980329937
 20
264.0088276579732
 30
0.0
 11
335.6089980329937
 21
266.1738911674344
 31
0.0
  0
LINE
  5
110E
330
1F
100
AcDbEntity
  8
AM_VIS
100
AcDbLine
 10
335.6089980329937
 20
263.3258149560811
 30
0.0
 11
335.6089980329937
 21
264.0088276579732
 31
0.0
  0
LINE
  5
110F
330
1F
100
AcDbEntity
  8
AM_VIS
100
AcDbLine
 10
335.6089980329937
 20
263.3258149560811
 30
0.0
 11
335.6089980329937
 21
260.8413594127038
 31
0.0
  0
LINE
  5
1110
330
1F
100
AcDbEntity
  8
AM_VIS
100
AcDbLine
 10
335.6089980329937
 20
276.8413594127038
 30
0.0
 11
335.6089980329937
 21
274.3569038693266
 31
0.0
  0
LINE
  5
1111
330
1F
100
AcDbEntity
  8
AM_VIS
100
AcDbLine
 10
341.1089980329937
 20
268.8413594127039
 30
0.0
 11
335.6089980329937
 21
268.8413594127039
 31
0.0
  0
LINE
  5
1112
330
1F
100
AcDbEntity
  8
AM_VIS
100
AcDbLine
 10
335.6089980329937
 20
271.3258149560811
 30
0.0
 11
335.6089980329937
 21
268.8413594127039
 31
0.0
  0
LINE
  5
1113
330
1F
100
AcDbEntity
  8
AM_VIS
100
AcDbLine
 10
341.1089980329937
 20
276.8413594127038
 30
0.0
 11
341.1089980329937
 21
274.3569038693266
 31
0.0
  0
LINE
  5
1114
330
1F
100
AcDbEntity
  8
AM_VIS
100
AcDbLine
 10
341.1089980329937
 20
263.3258149560811
 30
0.0
 11
341.1089980329937
 21
260.8413594127038
 31
0.0
  0
LINE
  5
1115
330
1F
100
AcDbEntity
  8
AM_VIS
100
AcDbLine
 10
341.1089980329937
 20
264.0088276579732
 30
0.0
 11
341.1089980329937
 21
263.3258149560811
 31
0.0
  0
LINE
  5
1116
330
1F
100
AcDbEntity
  8
AM_VIS
100
AcDbLine
 10
341.1089980329937
 20
266.1738911674344
 30
0.0
 11
341.1089980329937
 21
264.0088276579732
 31
0.0
  0
LINE
  5
1117
330
1F
100
AcDbEntity
  8
AM_VIS
100
AcDbLine
 10
341.1089980329937
 20
266.3569038693266
 30
0.0
 11
341.1089980329937
 21
266.1738911674344
 31
0.0
  0
LINE
  5
1118
330
1F
100
AcDbEntity
  8
AM_VIS
100
AcDbLine
 10
341.1089980329937
 20
268.8413594127039
 30
0.0
 11
341.1089980329937
 21
266.3569038693266
 31
0.0
  0
LINE
  5
1119
330
1F
100
AcDbEntity
  8
AM_VIS
100
AcDbLine
 10
341.1089980329937
 20
271.3258149560811
 30
0.0
 11
341.1089980329937
 21
268.8413594127039
 31
0.0
  0
LINE
  5
111A
330
1F
100
AcDbEntity
  8
AM_VIS
100
AcDbLine
 10
341.1089980329937
 20
271.5088276579733
 30
0.0
 11
341.1089980329937
 21
271.3258149560811
 31
0.0
  0
LINE
  5
111B
330
1F
100
AcDbEntity
  8
AM_VIS
100
AcDbLine
 10
341.1089980329937
 20
271.3258149560811
 30
0.0
 11
335.6089980329937
 21
271.3258149560811
 31
0.0
  0
LINE
  5
111C
330
1F
100
AcDbEntity
  8
AM_VIS
100
AcDbLine
 10
335.6089980329937
 20
271.3258149560811
 30
0.0
 11
335.6089980329937
 21
271.5088276579733
 31
0.0
  0
LINE
  5
111D
330
1F
100
AcDbEntity
  8
AM_VIS
100
AcDbLine
 10
335.6089980329937
 20
274.3569038693266
 30
0.0
 11
341.1089980329937
 21
274.3569038693266
 31
0.0
  0
LINE
  5
111E
330
1F
100
AcDbEntity
  8
AM_VIS
100
AcDbLine
 10
341.1089980329937
 20
274.3569038693266
 30
0.0
 11
341.1089980329937
 21
273.6738911674343
 31
0.0
  0
LINE
  5
111F
330
1F
100
AcDbEntity
  8
AM_VIS
100
AcDbLine
 10
335.6089980329937
 20
273.6738911674343
 30
0.0
 11
335.6089980329937
 21
274.3569038693266
 31
0.0
  0
LINE
  5
1120
330
1F
100
AcDbEntity
  8
AM_VIS
100
AcDbLine
 10
341.1089980329937
 20
273.6738911674343
 30
0.0
 11
335.6089980329937
 21
273.6738911674343
 31
0.0
  0
LINE
  5
1121
330
1F
100
AcDbEntity
  8
AM_VIS
100
AcDbLine
 10
341.1089980329937
 20
273.6738911674343
 30
0.0
 11
341.1089980329937
 21
271.5088276579733
 31
0.0
  0
LINE
  5
1122
330
1F
100
AcDbEntity
  8
AM_VIS
100
AcDbLine
 10
341.1089980329937
 20
271.5088276579733
 30
0.0
 11
335.6089980329937
 21
271.5088276579733
 31
0.0
  0
LINE
  5
1123
330
1F
100
AcDbEntity
  8
AM_VIS
100
AcDbLine
 10
335.6089980329937
 20
271.5088276579733
 30
0.0
 11
335.6089980329937
 21
273.6738911674343
 31
0.0
  0
LINE
  5
1124
330
1F
100
AcDbEntity
  8
AM_VIS
100
AcDbLine
 10
335.6089980329937
 20
275.5913594127038
 30
0.0
 11
334.0089980329937
 21
275.5913594127038
 31
0.0
  0
LINE
  5
1125
330
1F
100
AcDbEntity
  8
AM_VIS
100
AcDbLine
 10
335.6089980329937
 20
262.0913594127038
 30
0.0
 11
334.0089980329937
 21
262.0913594127038
 31
0.0
  0
LINE
  5
1126
330
1F
100
AcDbEntity
  8
AM_VIS
100
AcDbLine
 10
334.0089980329937
 20
275.8413594127038
 30
0.0
 11
333.1089980329936
 21
275.8413594127038
 31
0.0
  0
LINE
  5
1127
330
1F
100
AcDbEntity
  8
AM_VIS
100
AcDbLine
 10
334.0089980329937
 20
261.8413594127038
 30
0.0
 11
333.1089980329936
 21
261.8413594127038
 31
0.0
  0
LINE
  5
1128
330
1F
100
AcDbEntity
  8
AM_VIS
100
AcDbLine
 10
334.0089980329937
 20
275.8413594127038
 30
0.0
 11
334.0089980329937
 21
261.8413594127038
 31
0.0
  0
DIMENSION
  5
1129
102
{ACAD_XDICTIONARY
360
112A
102
}
102
{ACAD_REACTORS
330
112B
102
}
330
1F
100
AcDbEntity
  8
AM_5
100
AcDbDimension
  2
*D3
 10
341.1089980329937
 20
349.6111910712094
 30
0.0
 11
275.1089980329938
 21
353.4616733546739
 31
0.0
 70
    32
 71
     5
 42
131.9999999999999
  3
AM_ISO$0
100
AcDbAlignedDimension
 13
209.1089980329938
 23
328.8466875831167
 33
0.0
 14
341.1089980329937
 24
327.9342918901507
 34
0.0
100
AcDbRotatedDimension
1001
ACAD
1000
DSTYLE
1002
{
1070
    40
1040
1.399999999999999
1070
   144
1040
1.0
1070
   272
1070
     8
1002
}
  0
LINE
  5
112C
330
1F
100
AcDbEntity
  8
AM_VIS
100
AcDbLine
 10
216.1089980329938
 20
245.8413594127039
 30
0.0
 11
210.1089980329938
 21
245.8413594127039
 31
0.0
  0
LINE
  5
112D
330
1F
100
AcDbEntity
  8
AM_VIS
100
AcDbLine
 10
209.1089980329938
 20
214.3413594127039
 30
0.0
 11
209.1089980329938
 21
211.8413594127039
 31
0.0
  0
LINE
  5
112E
330
1F
100
AcDbEntity
  8
AM_VIS
100
AcDbLine
 10
209.1089980329938
 20
244.8413594127039
 30
0.0
 11
209.1089980329938
 21
219.3413594127039
 31
0.0
  0
LINE
  5
112F
330
1F
100
AcDbEntity
  8
AM_VIS
100
AcDbLine
 10
212.6089980329938
 20
210.8413594127039
 30
0.0
 11
210.1089980329938
 21
210.8413594127039
 31
0.0
  0
LINE
  5
1130
330
1F
100
AcDbEntity
  8
AM_VIS
100
AcDbLine
 10
212.6089980329938
 20
210.8413594127039
 30
0.0
 11
216.1089980329938
 21
210.8413594127039
 31
0.0
  0
LINE
  5
1131
330
1F
100
AcDbEntity
  8
AM_VIS
100
AcDbLine
 10
216.1089980329938
 20
244.8413594127039
 30
0.0
 11
216.1089980329938
 21
211.8413594127039
 31
0.0
  0
LINE
  5
1132
330
1F
100
AcDbEntity
  8
AM_VIS
100
AcDbLine
 10
212.1089980329938
 20
217.1231135761521
 30
0.0
 11
212.1089980329938
 21
211.5596052492558
 31
0.0
  0
LINE
  5
1133
330
1F
100
AcDbEntity
  8
AM_VIS
100
AcDbLine
 10
210.1089980329938
 20
218.3413594127039
 30
0.0
 11
211.1089980329938
 21
218.3413594127039
 31
0.0
  0
ARC
  5
1134
102
{ACAD_REACTORS
330
11BB
330
11C1
330
11CD
330
11D3
102
}
330
1F
100
AcDbEntity
  8
AM_VIS
100
AcDbCircle
 10
210.1089980329938
 20
211.8413594127039
 30
0.0
 40
0.9999999999999982
100
AcDbArc
 50
180.0
 51
270.0
  0
ARC
  5
1135
330
1F
100
AcDbEntity
  8
AM_VIS
100
AcDbCircle
 10
210.1089980329938
 20
219.3413594127039
 30
0.0
 40
1.0
100
AcDbArc
 50
180.0
 51
270.0
  0
LINE
  5
1136
330
1F
100
AcDbEntity
  8
AM_VIS
100
AcDbLine
 10
209.1089980329938
 20
219.3413594127039
 30
0.0
 11
209.1089980329938
 21
214.3413594127039
 31
0.0
  0
ARC
  5
1137
102
{ACAD_REACTORS
330
11CD
102
}
330
1F
100
AcDbEntity
  8
AM_VIS
100
AcDbCircle
 10
210.1089980329938
 20
244.8413594127039
 30
0.0
 40
1.0
100
AcDbArc
 50
90.0
 51
180.0
  0
ARC
  5
1138
330
1F
100
AcDbEntity
  8
AM_VIS
100
AcDbCircle
 10
212.6089980329938
 20
211.3413594127039
 30
0.0
 40
0.5
100
AcDbArc
 50
180.0
 51
270.0
  0
LINE
  5
1139
330
1F
100
AcDbEntity
  8
AM_VIS
100
AcDbLine
 10
216.1089980329938
 20
211.8413594127039
 30
0.0
 11
216.1089980329938
 21
210.8413594127039
 31
0.0
  0
LINE
  5
113A
330
1F
100
AcDbEntity
  8
AM_VIS
100
AcDbLine
 10
216.1089980329938
 20
245.8413594127039
 30
0.0
 11
216.1089980329938
 21
244.8413594127039
 31
0.0
  0
LINE
  5
113B
330
1F
100
AcDbEntity
  8
AM_VIS
100
AcDbLine
 10
212.1089980329938
 20
211.3413594127039
 30
0.0
 11
212.1089980329938
 21
211.8413594127039
 31
0.0
  0
ARC
  5
113C
330
1F
100
AcDbEntity
  8
AM_VIS
100
AcDbCircle
 10
211.1089980329938
 20
217.3413594127039
 30
0.0
 40
1.0
100
AcDbArc
 50
0.0
 51
90.0
  0
LINE
  5
113D
330
1F
100
AcDbEntity
  8
AM_VIS
100
AcDbLine
 10
210.1089980329938
 20
329.8466875831167
 30
0.0
 11
212.6089980329938
 21
329.8466875831167
 31
0.0
  0
LINE
  5
113E
330
1F
100
AcDbEntity
  8
AM_VIS
100
AcDbLine
 10
216.1089980329938
 20
329.8466875831167
 30
0.0
 11
212.6089980329938
 21
329.8466875831167
 31
0.0
  0
LINE
  5
113F
330
1F
100
AcDbEntity
  8
AM_VIS
100
AcDbLine
 10
209.1089980329938
 20
328.8466875831167
 30
0.0
 11
209.1089980329938
 21
325.6966875831168
 31
0.0
  0
LINE
  5
1140
330
1F
100
AcDbEntity
  8
AM_VIS
100
AcDbLine
 10
209.1089980329938
 20
320.6966875831167
 30
0.0
 11
209.1089980329938
 21
308.5466875831167
 31
0.0
  0
LINE
  5
1141
330
1F
100
AcDbEntity
  8
AM_VIS
100
AcDbLine
 10
210.1089980329938
 20
307.5466875831168
 30
0.0
 11
216.1089980329938
 21
307.5466875831168
 31
0.0
  0
LINE
  5
1142
330
1F
100
AcDbEntity
  8
AM_VIS
100
AcDbLine
 10
216.1089980329938
 20
328.8466875831167
 30
0.0
 11
216.1089980329938
 21
308.5466875831167
 31
0.0
  0
LINE
  5
1143
330
1F
100
AcDbEntity
  8
AM_VIS
100
AcDbLine
 10
211.1089980329938
 20
321.6966875831167
 30
0.0
 11
210.1089980329938
 21
321.6966875831167
 31
0.0
  0
LINE
  5
1144
330
1F
100
AcDbEntity
  8
AM_VIS
100
AcDbLine
 10
212.1089980329938
 20
328.8466875831167
 30
0.0
 11
212.1089980329938
 21
322.6331792562205
 31
0.0
  0
ARC
  5
1145
330
1F
100
AcDbEntity
  8
AM_VIS
100
AcDbCircle
 10
210.1089980329938
 20
320.6966875831167
 30
0.0
 40
1.0
100
AcDbArc
 50
90.0
 51
180.0
  0
LINE
  5
1146
330
1F
100
AcDbEntity
  8
AM_VIS
100
AcDbLine
 10
209.1089980329938
 20
325.6966875831167
 30
0.0
 11
209.1089980329938
 21
320.6966875831167
 31
0.0
  0
ARC
  5
1147
102
{ACAD_REACTORS
330
1193
330
1196
102
}
330
1F
100
AcDbEntity
  8
AM_VIS
100
AcDbCircle
 10
210.1089980329938
 20
328.8466875831167
 30
0.0
 40
1.0
100
AcDbArc
 50
90.0
 51
180.0
  0
ARC
  5
1148
102
{ACAD_REACTORS
330
1193
330
11D6
102
}
330
1F
100
AcDbEntity
  8
AM_VIS
100
AcDbCircle
 10
210.1089980329938
 20
308.5466875831167
 30
0.0
 40
1.0
100
AcDbArc
 50
180.0
 51
270.0
  0
LINE
  5
1149
330
1F
100
AcDbEntity
  8
AM_VIS
100
AcDbLine
 10
212.1089980329938
 20
328.8466875831167
 30
0.0
 11
212.1089980329938
 21
329.3466875831167
 31
0.0
  0
ARC
  5
114A
330
1F
100
AcDbEntity
  8
AM_VIS
100
AcDbCircle
 10
212.6089980329938
 20
329.3466875831167
 30
0.0
 40
0.5
100
AcDbArc
 50
90.0
 51
180.0
  0
LINE
  5
114B
330
1F
100
AcDbEntity
  8
AM_VIS
100
AcDbLine
 10
216.1089980329938
 20
308.5466875831167
 30
0.0
 11
216.1089980329938
 21
307.5466875831168
 31
0.0
  0
LINE
  5
114C
330
1F
100
AcDbEntity
  8
AM_VIS
100
AcDbLine
 10
216.1089980329938
 20
329.8466875831167
 30
0.0
 11
216.1089980329938
 21
328.8466875831167
 31
0.0
  0
ARC
  5
114D
330
1F
100
AcDbEntity
  8
AM_VIS
100
AcDbCircle
 10
211.1089980329938
 20
322.6966875831167
 30
0.0
 40
1.0
100
AcDbArc
 50
270.0
 51
0.0
  0
LINE
  5
114E
330
1F
100
AcDbEntity
  8
AM_VIS
100
AcDbLine
 10
210.1089980329938
 20
168.4616069473702
 30
0.0
 11
212.6089980329938
 21
168.4616069473702
 31
0.0
  0
LINE
  5
114F
330
1F
100
AcDbEntity
  8
AM_VIS
100
AcDbLine
 10
216.1089980329938
 20
168.4616069473702
 30
0.0
 11
212.6089980329938
 21
168.4616069473702
 31
0.0
  0
LINE
  5
1150
330
1F
100
AcDbEntity
  8
AM_VIS
100
AcDbLine
 10
209.1089980329938
 20
167.4616069473702
 30
0.0
 11
209.1089980329938
 21
164.3116069473702
 31
0.0
  0
LINE
  5
1151
330
1F
100
AcDbEntity
  8
AM_VIS
100
AcDbLine
 10
209.1089980329938
 20
159.3116069473702
 30
0.0
 11
209.1089980329938
 21
147.1616069473702
 31
0.0
  0
LINE
  5
1152
330
1F
100
AcDbEntity
  8
AM_VIS
100
AcDbLine
 10
210.1089980329938
 20
146.1616069473702
 30
0.0
 11
216.1089980329938
 21
146.1616069473702
 31
0.0
  0
LINE
  5
1153
330
1F
100
AcDbEntity
  8
AM_VIS
100
AcDbLine
 10
216.1089980329938
 20
167.4616069473702
 30
0.0
 11
216.1089980329938
 21
147.1616069473702
 31
0.0
  0
LINE
  5
1154
330
1F
100
AcDbEntity
  8
AM_VIS
100
AcDbLine
 10
211.1089980329938
 20
160.3116069473702
 30
0.0
 11
210.1089980329938
 21
160.3116069473702
 31
0.0
  0
LINE
  5
1155
330
1F
100
AcDbEntity
  8
AM_VIS
100
AcDbLine
 10
212.1089980329938
 20
167.4616069473702
 30
0.0
 11
212.1089980329938
 21
161.2480986204739
 31
0.0
  0
ARC
  5
1156
330
1F
100
AcDbEntity
  8
AM_VIS
100
AcDbCircle
 10
210.1089980329938
 20
159.3116069473702
 30
0.0
 40
1.0
100
AcDbArc
 50
90.0
 51
180.0
  0
LINE
  5
1157
330
1F
100
AcDbEntity
  8
AM_VIS
100
AcDbLine
 10
209.1089980329938
 20
164.3116069473702
 30
0.0
 11
209.1089980329938
 21
159.3116069473702
 31
0.0
  0
ARC
  5
1158
330
1F
100
AcDbEntity
  8
AM_VIS
100
AcDbCircle
 10
210.1089980329938
 20
167.4616069473702
 30
0.0
 40
1.0
100
AcDbArc
 50
90.0
 51
180.0
  0
ARC
  5
1159
102
{ACAD_REACTORS
330
11C4
102
}
330
1F
100
AcDbEntity
  8
AM_VIS
100
AcDbCircle
 10
210.1089980329938
 20
147.1616069473702
 30
0.0
 40
1.0
100
AcDbArc
 50
180.0
 51
270.0
  0
LINE
  5
115A
330
1F
100
AcDbEntity
  8
AM_VIS
100
AcDbLine
 10
212.1089980329938
 20
167.4616069473702
 30
0.0
 11
212.1089980329938
 21
167.9616069473702
 31
0.0
  0
ARC
  5
115B
330
1F
100
AcDbEntity
  8
AM_VIS
100
AcDbCircle
 10
212.6089980329938
 20
167.9616069473702
 30
0.0
 40
0.5
100
AcDbArc
 50
90.0
 51
180.0
  0
LINE
  5
115C
330
1F
100
AcDbEntity
  8
AM_VIS
100
AcDbLine
 10
216.1089980329938
 20
147.1616069473702
 30
0.0
 11
216.1089980329938
 21
146.1616069473702
 31
0.0
  0
LINE
  5
115D
330
1F
100
AcDbEntity
  8
AM_VIS
100
AcDbLine
 10
216.1089980329938
 20
168.4616069473702
 30
0.0
 11
216.1089980329938
 21
167.4616069473702
 31
0.0
  0
ARC
  5
115E
330
1F
100
AcDbEntity
  8
AM_VIS
100
AcDbCircle
 10
211.1089980329938
 20
161.3116069473702
 30
0.0
 40
1.0
100
AcDbArc
 50
270.0
 51
0.0
  0
LINE
  5
115F
330
1F
100
AcDbEntity
  8
AM_0N
100
AcDbLine
 10
211.0844791472299
 20
217.1055824248542
 30
0.0
 11
212.1089980329938
 21
217.1413594127039
 31
0.0
  0
LINE
  5
1160
330
1F
100
AcDbEntity
  8
AM_0N
100
AcDbLine
 10
211.0844791472299
 20
211.5771364005536
 30
0.0
 11
212.1089980329938
 21
211.5413594127039
 31
0.0
  0
ARC
  5
1161
330
1F
100
AcDbEntity
  8
AM_0N
100
AcDbCircle
 10
214.7089980329938
 20
214.3413594127039
 30
0.0
 40
5.0
100
AcDbArc
 50
153.8190153291797
 51
206.1809846708203
  0
ARC
  5
1162
330
1F
100
AcDbEntity
  8
AM_0N
100
AcDbCircle
 10
211.1193786439325
 20
212.5765272275727
 30
0.0
 40
1.0
100
AcDbArc
 50
206.1809846708203
 51
267.9999999999996
  0
ARC
  5
1163
330
1F
100
AcDbEntity
  8
AM_0N
100
AcDbCircle
 10
211.1193786439325
 20
216.1061915978351
 30
0.0
 40
1.0
100
AcDbArc
 50
92.00000000000041
 51
153.8190153291797
  0
LINE
  5
1164
330
1F
100
AcDbEntity
  8
AM_0N
100
AcDbLine
 10
212.1089980329938
 20
215.706044412704
 30
0.0
 11
212.1089980329938
 21
217.3413594127039
 31
0.0
  0
LINE
  5
1165
330
1F
100
AcDbEntity
  8
AM_0N
100
AcDbLine
 10
212.1089980329938
 20
211.5413594127039
 30
0.0
 11
212.1089980329938
 21
212.9766744127039
 31
0.0
  0
LINE
  5
1166
330
1F
100
AcDbEntity
  8
AM_0N
100
AcDbLine
 10
212.1089980329938
 20
212.9766744127039
 30
0.0
 11
212.1089980329938
 21
215.706044412704
 31
0.0
  0
LINE
  5
1167
330
1F
100
AcDbEntity
  8
AM_VIS
100
AcDbLine
 10
212.1089980329938
 20
167.1366069473702
 30
0.0
 11
212.1089980329938
 21
161.5730986204739
 31
0.0
  0
LINE
  5
1168
330
1F
100
AcDbEntity
  8
AM_VIS
100
AcDbLine
 10
212.1089980329938
 20
161.354852783922
 30
0.0
 11
212.1089980329938
 21
161.854852783922
 31
0.0
  0
LINE
  5
1169
330
1F
100
AcDbEntity
  8
AM_0N
100
AcDbLine
 10
211.0844791472299
 20
167.1190757960723
 30
0.0
 11
212.1089980329938
 21
167.154852783922
 31
0.0
  0
LINE
  5
116A
330
1F
100
AcDbEntity
  8
AM_0N
100
AcDbLine
 10
211.0844791472299
 20
161.5906297717718
 30
0.0
 11
212.1089980329938
 21
161.554852783922
 31
0.0
  0
ARC
  5
116B
330
1F
100
AcDbEntity
  8
AM_0N
100
AcDbCircle
 10
214.7089980329938
 20
164.3548527839221
 30
0.0
 40
5.0
100
AcDbArc
 50
153.8190153291797
 51
206.1809846708203
  0
ARC
  5
116C
330
1F
100
AcDbEntity
  8
AM_0N
100
AcDbCircle
 10
211.1193786439325
 20
162.5900205987908
 30
0.0
 40
1.0
100
AcDbArc
 50
206.1809846708203
 51
267.9999999999996
  0
ARC
  5
116D
330
1F
100
AcDbEntity
  8
AM_0N
100
AcDbCircle
 10
211.1193786439325
 20
166.1196849690532
 30
0.0
 40
1.0
100
AcDbArc
 50
92.00000000000041
 51
153.8190153291797
  0
LINE
  5
116E
330
1F
100
AcDbEntity
  8
AM_0N
100
AcDbLine
 10
212.1089980329938
 20
165.719537783922
 30
0.0
 11
212.1089980329938
 21
167.3548527839221
 31
0.0
  0
LINE
  5
116F
330
1F
100
AcDbEntity
  8
AM_0N
100
AcDbLine
 10
212.1089980329938
 20
161.554852783922
 30
0.0
 11
212.1089980329938
 21
162.990167783922
 31
0.0
  0
LINE
  5
1170
330
1F
100
AcDbEntity
  8
AM_0N
100
AcDbLine
 10
212.1089980329938
 20
162.990167783922
 30
0.0
 11
212.1089980329938
 21
165.719537783922
 31
0.0
  0
LINE
  5
1171
330
1F
100
AcDbEntity
  8
AM_VIS
100
AcDbLine
 10
212.1089980329938
 20
328.5216875831167
 30
0.0
 11
212.1089980329938
 21
322.9581792562204
 31
0.0
  0
LINE
  5
1172
330
1F
100
AcDbEntity
  8
AM_0N
100
AcDbLine
 10
211.0844791472299
 20
328.5041564318188
 30
0.0
 11
212.1089980329938
 21
328.5399334196685
 31
0.0
  0
LINE
  5
1173
330
1F
100
AcDbEntity
  8
AM_0N
100
AcDbLine
 10
211.0844791472299
 20
322.9757104075182
 30
0.0
 11
212.1089980329938
 21
322.9399334196686
 31
0.0
  0
ARC
  5
1174
330
1F
100
AcDbEntity
  8
AM_0N
100
AcDbCircle
 10
214.7089980329938
 20
325.7399334196685
 30
0.0
 40
5.0
100
AcDbArc
 50
153.8190153291797
 51
206.1809846708203
  0
ARC
  5
1175
330
1F
100
AcDbEntity
  8
AM_0N
100
AcDbCircle
 10
211.1193786439325
 20
323.9751012345373
 30
0.0
 40
1.0
100
AcDbArc
 50
206.1809846708203
 51
267.9999999999996
  0
ARC
  5
1176
330
1F
100
AcDbEntity
  8
AM_0N
100
AcDbCircle
 10
211.1193786439325
 20
327.5047656047997
 30
0.0
 40
1.0
100
AcDbArc
 50
92.00000000000041
 51
153.8190153291797
  0
LINE
  5
1177
330
1F
100
AcDbEntity
  8
AM_0N
100
AcDbLine
 10
212.1089980329938
 20
322.9399334196686
 30
0.0
 11
212.1089980329938
 21
324.3752484196686
 31
0.0
  0
LINE
  5
1178
330
1F
100
AcDbEntity
  8
AM_0N
100
AcDbLine
 10
212.1089980329938
 20
324.3752484196686
 30
0.0
 11
212.1089980329938
 21
327.1046184196686
 31
0.0
  0
TEXT
  5
1179
330
1F
100
AcDbEntity
  8
0
100
AcDbText
 10
261.7568441116329
 20
316.4463028474119
 30
0.0
 40
3.0
  1
B
100
AcDbText
  0
TEXT
  5
117A
330
1F
100
AcDbEntity
  8
0
100
AcDbText
 10
218.0864672419217
 20
317.8037650462369
 30
0.0
 40
3.0
  1
A
100
AcDbText
  0
TEXT
  5
117B
330
1F
100
AcDbEntity
  8
0
100
AcDbText
 10
250.8727702733533
 20
163.2217984670079
 30
0.0
 40
3.0
  1
R2
100
AcDbText
  0
TEXT
  5
117C
330
1F
100
AcDbEntity
  8
0
100
AcDbText
 10
226.8301023422765
 20
163.2414918125588
 30
0.0
 40
3.0
  1
R1
100
AcDbText
  0
TEXT
  5
117D
330
1F
100
AcDbEntity
  8
0
100
AcDbText
 10
248.5433316706645
 20
148.2523368894009
 30
0.0
 40
3.0
  1
P
100
AcDbText
  0
LINE
  5
117E
330
1F
100
AcDbEntity
  8
AM_7
100
AcDbLine
 10
230.6089980329938
 20
320.1966875831169
 30
0.0
 11
239.3089980329938
 21
320.1966875831169
 31
0.0
1001
GENIUS_GENOREF_13
1005
126F
  0
LINE
  5
117F
330
1F
100
AcDbEntity
  8
AM_7
100
AcDbLine
 10
230.6089980329938
 20
320.1966875831169
 30
0.0
 11
230.6089980329938
 21
328.8966875831169
 31
0.0
1001
GENIUS_GENOREF_13
1005
126F
  0
LINE
  5
1180
102
{ACAD_REACTORS
330
119C
102
}
330
1F
100
AcDbEntity
  8
AM_7
100
AcDbLine
 10
230.6089980329938
 20
320.1966875831169
 30
0.0
 11
221.9089980329938
 21
320.1966875831169
 31
0.0
1001
GENIUS_GENOREF_13
1005
126F
  0
LINE
  5
1181
102
{ACAD_REACTORS
330
11D6
330
11D9
102
}
330
1F
100
AcDbEntity
  8
AM_7
100
AcDbLine
 10
230.6089980329938
 20
320.1966875831169
 30
0.0
 11
230.6089980329938
 21
311.4966875831168
 31
0.0
1001
GENIUS_GENOREF_13
1005
126F
  0
LINE
  5
1182
330
1F
100
AcDbEntity
  8
AM_7
100
AcDbLine
 10
251.6089980329938
 20
317.1966875831168
 30
0.0
 11
260.2589980329938
 21
317.1966875831168
 31
0.0
1001
GENIUS_GENOREF_13
1005
126E
  0
LINE
  5
1183
330
1F
100
AcDbEntity
  8
AM_7
100
AcDbLine
 10
251.6089980329938
 20
317.1966875831168
 30
0.0
 11
251.6089980329938
 21
325.8466875831168
 31
0.0
1001
GENIUS_GENOREF_13
1005
126E
  0
LINE
  5
1184
102
{ACAD_REACTORS
330
119C
102
}
330
1F
100
AcDbEntity
  8
AM_7
100
AcDbLine
 10
251.6089980329938
 20
317.1966875831168
 30
0.0
 11
242.9589980329938
 21
317.1966875831168
 31
0.0
1001
GENIUS_GENOREF_13
1005
126E
  0
LINE
  5
1185
102
{ACAD_REACTORS
330
11D9
102
}
330
1F
100
AcDbEntity
  8
AM_7
100
AcDbLine
 10
251.6089980329938
 20
317.1966875831168
 30
0.0
 11
251.6089980329938
 21
308.5466875831169
 31
0.0
1001
GENIUS_GENOREF_13
1005
126E
  0
LINE
  5
1186
330
1F
100
AcDbEntity
  8
AM_7
  6
AM_ISO08W050x2
100
AcDbLine
 10
260.1089980329938
 20
310.1966875831168
 30
0.0
 11
265.1089980329938
 21
310.1966875831168
 31
0.0
1001
GENIUS_GENOREF_13
1005
126D
  0
LINE
  5
1187
102
{ACAD_REACTORS
330
1199
102
}
330
1F
100
AcDbEntity
  8
AM_7
  6
AM_ISO08W050x2
100
AcDbLine
 10
260.1089980329938
 20
310.1966875831168
 30
0.0
 11
260.1089980329938
 21
315.1966875831168
 31
0.0
1001
GENIUS_GENOREF_13
1005
126D
  0
LINE
  5
1188
102
{ACAD_REACTORS
330
1190
102
}
330
1F
100
AcDbEntity
  8
AM_7
  6
AM_ISO08W050x2
100
AcDbLine
 10
260.1089980329938
 20
310.1966875831168
 30
0.0
 11
255.1089980329938
 21
310.1966875831168
 31
0.0
1001
GENIUS_GENOREF_13
1005
126D
  0
LINE
  5
1189
330
1F
100
AcDbEntity
  8
AM_7
  6
AM_ISO08W050x2
100
AcDbLine
 10
260.1089980329938
 20
310.1966875831168
 30
0.0
 11
260.1089980329938
 21
305.1966875831169
 31
0.0
1001
GENIUS_GENOREF_13
1005
126D
  0
LINE
  5
118A
330
1F
100
AcDbEntity
  8
AM_7
  6
AM_ISO08W050x2
100
AcDbLine
 10
222.1089980329938
 20
327.1966875831168
 30
0.0
 11
227.1089980329938
 21
327.1966875831168
 31
0.0
1001
GENIUS_GENOREF_13
1005
126C
  0
LINE
  5
118B
102
{ACAD_REACTORS
330
1196
330
1199
102
}
330
1F
100
AcDbEntity
  8
AM_7
  6
AM_ISO08W050x2
100
AcDbLine
 10
222.1089980329938
 20
327.1966875831168
 30
0.0
 11
222.1089980329938
 21
332.1966875831169
 31
0.0
1001
GENIUS_GENOREF_13
1005
126C
  0
LINE
  5
118C
102
{ACAD_REACTORS
330
1190
102
}
330
1F
100
AcDbEntity
  8
AM_7
  6
AM_ISO08W050x2
100
AcDbLine
 10
222.1089980329938
 20
327.1966875831168
 30
0.0
 11
217.1089980329938
 21
327.1966875831168
 31
0.0
1001
GENIUS_GENOREF_13
1005
126C
  0
LINE
  5
118D
330
1F
100
AcDbEntity
  8
AM_7
  6
AM_ISO08W050x2
100
AcDbLine
 10
222.1089980329938
 20
327.1966875831168
 30
0.0
 11
222.1089980329938
 21
322.1966875831169
 31
0.0
1001
GENIUS_GENOREF_13
1005
126C
  0
DIMENSION
  5
118E
102
{ACAD_XDICTIONARY
360
118F
102
}
102
{ACAD_REACTORS
330
1190
102
}
330
1F
100
AcDbEntity
  8
AM_5
100
AcDbDimension
  2
*D4
 10
187.1089980329938
 20
310.1966875831168
 30
0.0
 11
183.2589980329937
 21
318.6966875831169
 31
0.0
 70
    32
 71
     5
 42
17.0
  3
AM_ISO$0
100
AcDbAlignedDimension
 13
217.1089980329938
 23
327.1966875831168
 33
0.0
 14
255.1089980329938
 24
310.1966875831168
 34
0.0
 50
90.0
100
AcDbRotatedDimension
1001
ACAD
1000
DSTYLE
1002
{
1070
    40
1040
1.399999999999999
1070
   272
1070
     8
1002
}
  0
DIMENSION
  5
1191
102
{ACAD_XDICTIONARY
360
1192
102
}
102
{ACAD_REACTORS
330
1193
102
}
330
1F
100
AcDbEntity
  8
AM_5
100
AcDbDimension
  2
*D5
 10
177.1089980329938
 20
307.5466875831168
 30
0.0
 11
173.2585157495291
 21
318.6966875831168
 31
0.0
 70
    32
 71
     5
 42
22.29999999999995
  3
AM_ISO$0
100
AcDbAlignedDimension
 13
210.1089980329938
 23
329.8466875831167
 33
0.0
 14
210.1089980329938
 24
307.5466875831168
 34
0.0
 50
90.0
100
AcDbRotatedDimension
1001
ACAD
1000
DSTYLE
1002
{
1070
    40
1040
1.399999999999999
1070
   272
1070
     8
1002
}
  0
DIMENSION
  5
1194
102
{ACAD_XDICTIONARY
360
1195
102
}
102
{ACAD_REACTORS
330
1196
102
}
330
1F
100
AcDbEntity
  8
AM_5
100
AcDbDimension
  2
*D6
 10
222.1089980329938
 20
339.6111910712094
 30
0.0
 11
215.6089980329938
 21
343.4611910712094
 31
0.0
 70
    32
 71
     5
 42
13.0
  3
AM_ISO$0
100
AcDbAlignedDimension
 13
209.1089980329938
 23
328.8466875831167
 33
0.0
 14
222.1089980329938
 24
332.1966875831169
 34
0.0
100
AcDbRotatedDimension
1001
ACAD
1000
DSTYLE
1002
{
1070
    40
1040
1.399999999999999
1070
   272
1070
     8
1002
}
  0
DIMENSION
  5
1197
102
{ACAD_XDICTIONARY
360
1198
102
}
102
{ACAD_REACTORS
330
1199
102
}
330
1F
100
AcDbEntity
  8
AM_5
100
AcDbDimension
  2
*D7
 10
260.1089980329938
 20
339.6111910712094
 30
0.0
 11
241.1089980329938
 21
343.4611910712094
 31
0.0
 70
    32
 71
     5
 42
38.0
  3
AM_ISO$0
100
AcDbAlignedDimension
 13
222.1089980329938
 23
332.1966875831169
 33
0.0
 14
260.1089980329938
 24
315.1966875831168
 34
0.0
100
AcDbRotatedDimension
1001
ACAD
1000
DSTYLE
1002
{
1070
    40
1040
1.399999999999999
1070
   272
1070
     8
1002
}
  0
DIMENSION
  5
119A
102
{ACAD_XDICTIONARY
360
119B
102
}
102
{ACAD_REACTORS
330
119C
102
}
330
1F
100
AcDbEntity
  8
AM_5
100
AcDbDimension
  2
*D8
 10
197.1089980329938
 20
317.1966875831168
 30
0.0
 11
193.2589980329937
 21
306.3152052603355
 31
0.0
 70
    32
 71
     5
 42
3.0
  3
AM_ISO$0
100
AcDbAlignedDimension
 13
221.9089980329938
 23
320.1966875831169
 33
0.0
 14
242.9589980329938
 24
317.1966875831168
 34
0.0
 50
90.0
100
AcDbRotatedDimension
1001
ACAD
1000
DSTYLE
1002
{
1070
    40
1040
1.399999999999999
1070
   272
1070
     8
1002
}
  0
LINE
  5
119D
330
1F
100
AcDbEntity
  8
AM_7
100
AcDbLine
 10
241.1089980329938
 20
157.3116069473702
 30
0.0
 11
249.8089980329937
 21
157.3116069473702
 31
0.0
1001
GENIUS_GENOREF_13
1005
126B
  0
LINE
  5
119E
330
1F
100
AcDbEntity
  8
AM_7
100
AcDbLine
 10
241.1089980329938
 20
157.3116069473702
 30
0.0
 11
241.1089980329938
 21
166.0116069473702
 31
0.0
1001
GENIUS_GENOREF_13
1005
126B
  0
LINE
  5
119F
330
1F
100
AcDbEntity
  8
AM_7
100
AcDbLine
 10
241.1089980329938
 20
157.3116069473702
 30
0.0
 11
232.4089980329938
 21
157.3116069473702
 31
0.0
1001
GENIUS_GENOREF_13
1005
126B
  0
LINE
  5
11A0
102
{ACAD_REACTORS
330
11C7
330
11CA
102
}
330
1F
100
AcDbEntity
  8
AM_7
100
AcDbLine
 10
241.1089980329938
 20
157.3116069473702
 30
0.0
 11
241.1089980329938
 21
148.6116069473703
 31
0.0
1001
GENIUS_GENOREF_13
1005
126B
  0
LINE
  5
11A1
330
1F
100
AcDbEntity
  8
AM_7
  6
AM_ISO08W050x2
100
AcDbLine
 10
259.1089980329938
 20
157.3116069473702
 30
0.0
 11
266.3589980329938
 21
157.3116069473702
 31
0.0
1001
GENIUS_GENOREF_13
1005
126A
  0
LINE
  5
11A2
330
1F
100
AcDbEntity
  8
AM_7
  6
AM_ISO08W050x2
100
AcDbLine
 10
259.1089980329938
 20
157.3116069473702
 30
0.0
 11
259.1089980329938
 21
164.5616069473702
 31
0.0
1001
GENIUS_GENOREF_13
1005
126A
  0
LINE
  5
11A3
330
1F
100
AcDbEntity
  8
AM_7
  6
AM_ISO08W050x2
100
AcDbLine
 10
259.1089980329938
 20
157.3116069473702
 30
0.0
 11
251.8589980329938
 21
157.3116069473702
 31
0.0
1001
GENIUS_GENOREF_13
1005
126A
  0
LINE
  5
11A4
330
1F
100
AcDbEntity
  8
AM_7
  6
AM_ISO08W050x2
100
AcDbLine
 10
259.1089980329938
 20
157.3116069473702
 30
0.0
 11
259.1089980329938
 21
150.0616069473702
 31
0.0
1001
GENIUS_GENOREF_13
1005
126A
  0
LINE
  5
11A5
330
1F
100
AcDbEntity
  8
AM_7
  6
AM_ISO08W050x2
100
AcDbLine
 10
223.1089980329938
 20
157.3116069473702
 30
0.0
 11
230.3589980329938
 21
157.3116069473702
 31
0.0
1001
GENIUS_GENOREF_13
1005
1269
  0
LINE
  5
11A6
330
1F
100
AcDbEntity
  8
AM_7
  6
AM_ISO08W050x2
100
AcDbLine
 10
223.1089980329938
 20
157.3116069473702
 30
0.0
 11
223.1089980329938
 21
164.5616069473702
 31
0.0
1001
GENIUS_GENOREF_13
1005
1269
  0
LINE
  5
11A7
330
1F
100
AcDbEntity
  8
AM_7
  6
AM_ISO08W050x2
100
AcDbLine
 10
223.1089980329938
 20
157.3116069473702
 30
0.0
 11
215.8589980329938
 21
157.3116069473702
 31
0.0
1001
GENIUS_GENOREF_13
1005
1269
  0
LINE
  5
11A8
102
{ACAD_REACTORS
330
11C4
330
11C7
102
}
330
1F
100
AcDbEntity
  8
AM_7
  6
AM_ISO08W050x2
100
AcDbLine
 10
223.1089980329938
 20
157.3116069473702
 30
0.0
 11
223.1089980329938
 21
150.0616069473702
 31
0.0
1001
GENIUS_GENOREF_13
1005
1269
  0
LINE
  5
11A9
330
1F
100
AcDbEntity
  8
AM_7
  6
AM_ISO08W050x2
100
AcDbLine
 10
222.1089980329938
 20
148.8116069473702
 30
0.0
 11
225.7089980329938
 21
148.8116069473702
 31
0.0
1001
GENIUS_GENOREF_13
1005
1268
  0
LINE
  5
11AA
330
1F
100
AcDbEntity
  8
AM_7
  6
AM_ISO08W050x2
100
AcDbLine
 10
222.1089980329938
 20
148.8116069473702
 30
0.0
 11
222.1089980329938
 21
152.4116069473702
 31
0.0
1001
GENIUS_GENOREF_13
1005
1268
  0
LINE
  5
11AB
330
1F
100
AcDbEntity
  8
AM_7
  6
AM_ISO08W050x2
100
AcDbLine
 10
222.1089980329938
 20
148.8116069473702
 30
0.0
 11
218.5089980329938
 21
148.8116069473702
 31
0.0
1001
GENIUS_GENOREF_13
1005
1268
  0
LINE
  5
11AC
330
1F
100
AcDbEntity
  8
AM_7
  6
AM_ISO08W050x2
100
AcDbLine
 10
222.1089980329938
 20
148.8116069473702
 30
0.0
 11
222.1089980329938
 21
145.2116069473701
 31
0.0
1001
GENIUS_GENOREF_13
1005
1268
  0
LINE
  5
11AD
330
1F
100
AcDbEntity
  8
AM_7
  6
AM_ISO08W050x2
100
AcDbLine
 10
260.1089980329938
 20
165.8116069473702
 30
0.0
 11
263.7089980329938
 21
165.8116069473702
 31
0.0
1001
GENIUS_GENOREF_13
1005
1267
  0
LINE
  5
11AE
330
1F
100
AcDbEntity
  8
AM_7
  6
AM_ISO08W050x2
100
AcDbLine
 10
260.1089980329938
 20
165.8116069473702
 30
0.0
 11
260.1089980329938
 21
169.4116069473702
 31
0.0
1001
GENIUS_GENOREF_13
1005
1267
  0
LINE
  5
11AF
330
1F
100
AcDbEntity
  8
AM_7
  6
AM_ISO08W050x2
100
AcDbLine
 10
260.1089980329938
 20
165.8116069473702
 30
0.0
 11
256.5089980329938
 21
165.8116069473702
 31
0.0
1001
GENIUS_GENOREF_13
1005
1267
  0
LINE
  5
11B0
330
1F
100
AcDbEntity
  8
AM_7
  6
AM_ISO08W050x2
100
AcDbLine
 10
260.1089980329938
 20
165.8116069473702
 30
0.0
 11
260.1089980329938
 21
162.2116069473702
 31
0.0
1001
GENIUS_GENOREF_13
1005
1267
  0
LINE
  5
11B1
330
1F
100
AcDbEntity
  8
AM_7
100
AcDbLine
 10
251.1089980329938
 20
217.8413594127039
 30
0.0
 11
256.8120678984373
 21
217.8413594127039
 31
0.0
1001
GENIUS_GENOREF_13
1005
1266
  0
LINE
  5
11B2
330
1F
100
AcDbEntity
  8
AM_7
100
AcDbLine
 10
251.1089980329938
 20
217.8413594127039
 30
0.0
 11
251.1089980329938
 21
223.5444292781474
 31
0.0
1001
GENIUS_GENOREF_13
1005
1266
  0
LINE
  5
11B3
330
1F
100
AcDbEntity
  8
AM_7
100
AcDbLine
 10
251.1089980329938
 20
217.8413594127039
 30
0.0
 11
245.4059281675503
 21
217.8413594127039
 31
0.0
1001
GENIUS_GENOREF_13
1005
1266
  0
LINE
  5
11B4
102
{ACAD_REACTORS
330
11BE
102
}
330
1F
100
AcDbEntity
  8
AM_7
100
AcDbLine
 10
251.1089980329938
 20
217.8413594127039
 30
0.0
 11
251.1089980329938
 21
212.1382895472605
 31
0.0
1001
GENIUS_GENOREF_13
1005
1266
  0
LINE
  5
11B5
330
1F
100
AcDbEntity
  8
AM_7
100
AcDbLine
 10
231.1089980329938
 20
217.8413594127039
 30
0.0
 11
236.8120678984372
 21
217.8413594127039
 31
0.0
1001
GENIUS_GENOREF_13
1005
1265
  0
LINE
  5
11B6
330
1F
100
AcDbEntity
  8
AM_7
100
AcDbLine
 10
231.1089980329938
 20
217.8413594127039
 30
0.0
 11
231.1089980329938
 21
223.5444292781474
 31
0.0
1001
GENIUS_GENOREF_13
1005
1265
  0
LINE
  5
11B7
102
{ACAD_REACTORS
330
11C1
102
}
330
1F
100
AcDbEntity
  8
AM_7
100
AcDbLine
 10
231.1089980329938
 20
217.8413594127039
 30
0.0
 11
225.4059281675503
 21
217.8413594127039
 31
0.0
1001
GENIUS_GENOREF_13
1005
1265
  0
LINE
  5
11B8
102
{ACAD_REACTORS
330
11BB
330
11BE
102
}
330
1F
100
AcDbEntity
  8
AM_7
100
AcDbLine
 10
231.1089980329938
 20
217.8413594127039
 30
0.0
 11
231.1089980329938
 21
212.1382895472605
 31
0.0
1001
GENIUS_GENOREF_13
1005
1265
  0
DIMENSION
  5
11B9
102
{ACAD_XDICTIONARY
360
11BA
102
}
102
{ACAD_REACTORS
330
11BB
102
}
330
1F
100
AcDbEntity
  8
AM_5
100
AcDbDimension
  2
*D9
 10
231.1089980329938
 20
198.8413594127039
 30
0.0
 11
220.1089980329938
 21
202.6918416961685
 31
0.0
 70
    32
 71
     5
 42
22.0
  3
AM_ISO$0
100
AcDbAlignedDimension
 13
209.1089980329938
 23
211.8413594127039
 33
0.0
 14
231.1089980329938
 24
212.1382895472605
 34
0.0
100
AcDbRotatedDimension
1001
ACAD
1000
DSTYLE
1002
{
1070
    40
1040
1.399999999999999
1070
   272
1070
     8
1002
}
  0
DIMENSION
  5
11BC
102
{ACAD_XDICTIONARY
360
11BD
102
}
102
{ACAD_REACTORS
330
11BE
102
}
330
1F
100
AcDbEntity
  8
AM_5
100
AcDbDimension
  2
*D10
 10
251.1089980329938
 20
198.841359412704
 30
0.0
 11
241.1089980329938
 21
202.6918416961685
 31
0.0
 70
    32
 71
     5
 42
20.0
  3
AM_ISO$0
100
AcDbAlignedDimension
 13
231.1089980329938
 23
212.1382895472605
 33
0.0
 14
251.1089980329938
 24
212.1382895472605
 34
0.0
100
AcDbRotatedDimension
1001
ACAD
1000
DSTYLE
1002
{
1070
    40
1040
1.399999999999999
1070
   272
1070
     8
1002
}
  0
DIMENSION
  5
11BF
102
{ACAD_XDICTIONARY
360
11C0
102
}
102
{ACAD_REACTORS
330
11C1
102
}
330
1F
100
AcDbEntity
  8
AM_5
100
AcDbDimension
  2
*D11
 10
197.1089980329938
 20
217.8413594127039
 30
0.0
 11
193.2589980329937
 21
214.341359412704
 31
0.0
 70
    32
 71
     5
 42
7.0
  3
AM_ISO$0
100
AcDbAlignedDimension
 13
210.1089980329938
 23
210.8413594127039
 33
0.0
 14
225.4059281675503
 24
217.8413594127039
 34
0.0
 50
90.0
100
AcDbRotatedDimension
1001
ACAD
1000
DSTYLE
1002
{
1070
    40
1040
1.399999999999999
1070
   272
1070
     8
1002
}
  0
DIMENSION
  5
11C2
102
{ACAD_XDICTIONARY
360
11C3
102
}
102
{ACAD_REACTORS
330
11C4
102
}
330
1F
100
AcDbEntity
  8
AM_5
100
AcDbDimension
  2
*D12
 10
223.1089980329938
 20
134.1616069473701
 30
0.0
 11
216.1089980329938
 21
138.0116069473701
 31
0.0
 70
    32
 71
     5
 42
14.0
  3
AM_ISO$0
100
AcDbAlignedDimension
 13
209.1089980329938
 23
147.1616069473702
 33
0.0
 14
223.1089980329938
 24
150.0616069473702
 34
0.0
100
AcDbRotatedDimension
1001
ACAD
1000
DSTYLE
1002
{
1070
    40
1040
1.399999999999999
1070
   272
1070
     8
1002
}
  0
DIMENSION
  5
11C5
102
{ACAD_XDICTIONARY
360
11C6
102
}
102
{ACAD_REACTORS
330
11C7
102
}
330
1F
100
AcDbEntity
  8
AM_5
100
AcDbDimension
  2
*D13
 10
241.1089980329938
 20
134.1616069473701
 30
0.0
 11
232.1089980329938
 21
138.0116069473701
 31
0.0
 70
    32
 71
     5
 42
18.0
  3
AM_ISO$0
100
AcDbAlignedDimension
 13
223.1089980329938
 23
150.0616069473702
 33
0.0
 14
241.1089980329938
 24
148.6116069473703
 34
0.0
100
AcDbRotatedDimension
1001
ACAD
1000
DSTYLE
1002
{
1070
    40
1040
1.399999999999999
1070
   272
1070
     8
1002
}
  0
DIMENSION
  5
11C8
102
{ACAD_XDICTIONARY
360
11C9
102
}
102
{ACAD_REACTORS
330
11CA
102
}
330
1F
100
AcDbEntity
  8
AM_5
100
AcDbDimension
  2
*D14
 10
259.1089980329938
 20
134.1616069473702
 30
0.0
 11
250.1089980329938
 21
138.0116069473702
 31
0.0
 70
    32
 71
     5
 42
18.0
  3
AM_ISO$0
100
AcDbAlignedDimension
 13
241.1089980329938
 23
148.6116069473703
 33
0.0
 14
259.1089980329938
 24
150.3116069473702
 34
0.0
100
AcDbRotatedDimension
1001
ACAD
1000
DSTYLE
1002
{
1070
    40
1040
1.399999999999999
1070
   272
1070
     8
1002
}
  0
DIMENSION
  5
11CB
102
{ACAD_XDICTIONARY
360
11CC
102
}
102
{ACAD_REACTORS
330
11CD
102
}
330
1F
100
AcDbEntity
  8
AM_5
100
AcDbDimension
  2
*D15
 10
187.1089980329938
 20
245.841359412704
 30
0.0
 11
183.2589980329937
 21
228.341359412704
 31
0.0
 70
    32
 71
     5
 42
35.0
  3
AM_ISO$0
100
AcDbAlignedDimension
 13
210.1089980329938
 23
210.8413594127039
 33
0.0
 14
210.1089980329938
 24
245.8413594127039
 34
0.0
 50
90.0
100
AcDbRotatedDimension
1001
ACAD
1000
DSTYLE
1002
{
1070
    40
1040
1.399999999999999
1070
   272
1070
     8
1002
}
  0
DIMENSION
  5
11CE
102
{ACAD_XDICTIONARY
360
11CF
102
}
102
{ACAD_REACTORS
330
11D0
102
}
330
1F
100
AcDbEntity
  8
AM_5
100
AcDbDimension
  2
*D16
 10
353.1089980329938
 20
277.8413594127039
 30
0.0
 11
349.2589980329937
 21
244.341359412704
 31
0.0
 70
    32
 71
     5
 42
67.0
  3
AM_ISO$0
100
AcDbAlignedDimension
 13
290.1867034183798
 23
210.8413594127039
 33
0.0
 14
333.1089980329936
 24
277.8413594127039
 34
0.0
 50
90.0
100
AcDbRotatedDimension
1001
ACAD
1000
DSTYLE
1002
{
1070
    40
1040
1.399999999999999
1070
   272
1070
     8
1002
}
  0
DIMENSION
  5
11D1
102
{ACAD_XDICTIONARY
360
11D2
102
}
102
{ACAD_REACTORS
330
11D3
102
}
330
1F
100
AcDbEntity
  8
AM_5
100
AcDbDimension
  2
*D17
 10
327.6089980329937
 20
188.8413594127041
 30
0.0
 11
268.3589980329938
 21
192.6913594127041
 31
0.0
 70
    32
 71
     5
 42
118.4999999999999
  3
AM_ISO$0
100
AcDbAlignedDimension
 13
209.1089980329938
 23
211.8413594127039
 33
0.0
 14
327.6089980329937
 24
218.841359412704
 34
0.0
100
AcDbRotatedDimension
1001
ACAD
1000
DSTYLE
1002
{
1070
    40
1040
1.399999999999999
1070
   272
1070
     8
1002
}
  0
DIMENSION
  5
11D4
102
{ACAD_XDICTIONARY
360
11D5
102
}
102
{ACAD_REACTORS
330
11D6
102
}
330
1F
100
AcDbEntity
  8
AM_5
100
AcDbDimension
  2
*D18
 10
230.6089980329938
 20
295.5466875831169
 30
0.0
 11
219.8589980329938
 21
299.3971698665814
 31
0.0
 70
    32
 71
     5
 42
21.5
  3
AM_ISO$0
100
AcDbAlignedDimension
 13
209.1089980329938
 23
308.5466875831167
 33
0.0
 14
230.6089980329938
 24
311.4966875831168
 34
0.0
100
AcDbRotatedDimension
1001
ACAD
1000
DSTYLE
1002
{
1070
    40
1040
1.399999999999999
1070
   272
1070
     8
1002
}
  0
DIMENSION
  5
11D7
102
{ACAD_XDICTIONARY
360
11D8
102
}
102
{ACAD_REACTORS
330
11D9
102
}
330
1F
100
AcDbEntity
  8
AM_5
100
AcDbDimension
  2
*D19
 10
251.6089980329938
 20
295.5466875831169
 30
0.0
 11
241.1089980329938
 21
299.3971698665814
 31
0.0
 70
    32
 71
     5
 42
21.0
  3
AM_ISO$0
100
AcDbAlignedDimension
 13
230.6089980329938
 23
311.4966875831168
 33
0.0
 14
251.6089980329938
 24
308.5466875831169
 34
0.0
100
AcDbRotatedDimension
1001
ACAD
1000
DSTYLE
1002
{
1070
    40
1040
1.399999999999999
1070
   272
1070
     8
1002
}
  0
LINE
  5
11DA
330
1F
100
AcDbEntity
  8
AM_7
100
AcDbLine
 10
207.6090095985474
 20
157.3116069473702
 30
0.0
 11
339.1404229832507
 21
157.3116069473702
 31
0.0
1001
GENIUS_GENODEF_13
1002
{
1000
HIER
1070
     0
1002
}
1002
{
1000
MANEDIT
1070
     0
1002
}
1002
{
1000
NOSEL
1070
     0
1002
}
1002
{
1000
BEHIND
1070
     0
1002
}
1002
{
1000
OTHER
1070
     0
1002
}
1002
{
1000
REACTOR
1002
}
1001
GENIUS_GENOBJ-N-CEN_13
1002
{
1000
OWNER
1000
GEN
1002
}
1001
GENIUS_GENCEN_19
1002
{
1040
1.0
1002
}
  0
INSERT
  5
11DB
330
1F
100
AcDbEntity
  8
AM_5
100
AcDbBlockReference
  2
*S22
 10
0.0
 20
0.0
 30
0.0
  0
TEXT
  5
11DC
330
1F
100
AcDbEntity
  8
AM_5
100
AcDbText
 10
272.6324916736503
 20
296.9062889581971
 30
0.0
 40
4.9
  1
2-%%c3.2thru
100
AcDbText
  0
INSERT
  5
11DD
330
1F
100
AcDbEntity
  8
AM_5
100
AcDbBlockReference
  2
*S23
 10
0.0
 20
0.0
 30
0.0
  0
TEXT
  5
11DE
330
1F
100
AcDbEntity
  8
AM_5
100
AcDbText
 10
272.1092918354443
 20
340.3608769577133
 30
0.0
 40
4.9
  1
3-PT1/4
100
AcDbText
  0
INSERT
  5
11DF
330
1F
100
AcDbEntity
  8
AM_5
100
AcDbBlockReference
  2
*S24
 10
0.0
 20
0.0
 30
0.0
  0
TEXT
  5
11E0
330
1F
100
AcDbEntity
  8
AM_5
100
AcDbText
 10
266.4319265922154
 20
200.6272063706031
 30
0.0
 40
4.9
  1
2-%%c4.2thru
100
AcDbText
  0
INSERT
  5
11E1
330
1F
100
AcDbEntity
  8
AM_5
100
AcDbBlockReference
  2
*S25
 10
0.0
 20
0.0
 30
0.0
  0
TEXT
  5
11E2
330
1F
100
AcDbEntity
  8
AM_5
100
AcDbText
 10
276.2414051047713
 20
134.699699422521
 30
0.0
 40
4.9
  1
2-PT1/8
100
AcDbText
  0
LINE
  5
11E3
330
1F
100
AcDbEntity
  8
AM_7
  6
AM_ISO08W050x2
100
AcDbLine
 10
208.7089980329938
 20
164.3548527839221
 30
0.0
 11
213.3336562810561
 21
164.3548527839221
 31
0.0
1001
GENIUS_GENOBJ-N-CEN_13
1002
{
1000
OWNER
1000
GEN
1002
}
1001
GENIUS_GENODEF_13
1002
{
1000
HIER
1070
     0
1002
}
1002
{
1000
MANEDIT
1070
     0
1002
}
1002
{
1000
NOSEL
1070
     0
1002
}
1002
{
1000
BEHIND
1070
     0
1002
}
1002
{
1000
OTHER
1070
     0
1002
}
1002
{
1000
REACTOR
1002
}
1001
GENIUS_GENCEN_19
1002
{
1040
1.0
1002
}
  0
LINE
  5
11E4
330
1F
100
AcDbEntity
  8
AM_7
  6
AM_ISO08W050x2
100
AcDbLine
 10
279.2589980329935
 20
249.041359412704
 30
0.0
 11
279.2589980329935
 21
243.9358608195142
 31
0.0
1001
GENIUS_GENOBJ-N-CEN_13
1002
{
1000
OWNER
1000
GEN
1002
}
1001
GENIUS_GENODEF_13
1002
{
1000
HIER
1070
     0
1002
}
1002
{
1000
MANEDIT
1070
     0
1002
}
1002
{
1000
NOSEL
1070
     0
1002
}
1002
{
1000
BEHIND
1070
     0
1002
}
1002
{
1000
OTHER
1070
     0
1002
}
1002
{
1000
REACTOR
1002
}
1001
GENIUS_GENCEN_19
1002
{
1040
1.0
1002
}
  0
LINE
  5
11E5
330
1F
100
AcDbEntity
  8
AM_7
  6
AM_ISO08W050x2
100
AcDbLine
 10
208.7089980329938
 20
214.3413594127039
 30
0.0
 11
213.1089980329938
 21
214.3413594127039
 31
0.0
1001
GENIUS_GENODEF_13
1002
{
1000
HIER
1070
     0
1002
}
1002
{
1000
MANEDIT
1070
     0
1002
}
1002
{
1000
NOSEL
1070
     0
1002
}
1002
{
1000
BEHIND
1070
     0
1002
}
1002
{
1000
OTHER
1070
     0
1002
}
1002
{
1000
REACTOR
1002
}
1001
GENIUS_GENOBJ-N-CEN_13
1002
{
1000
OWNER
1000
GEN
1002
}
1001
GENIUS_GENCEN_19
1002
{
1040
1.0
1002
}
  0
LINE
  5
11E6
330
1F
100
AcDbEntity
  8
AM_7
  6
AM_ISO08W050x2
100
AcDbLine
 10
208.7089980329938
 20
325.7399334196685
 30
0.0
 11
213.1089980329938
 21
325.7399334196685
 31
0.0
1001
GENIUS_GENOBJ-N-CEN_13
1002
{
1000
OWNER
1000
GEN
1002
}
1001
GENIUS_GENODEF_13
1002
{
1000
HIER
1070
     0
1002
}
1002
{
1000
MANEDIT
1070
     0
1002
}
1002
{
1000
NOSEL
1070
     0
1002
}
1002
{
1000
BEHIND
1070
     0
1002
}
1002
{
1000
OTHER
1070
     0
1002
}
1002
{
1000
REACTOR
1002
}
1001
GENIUS_GENCEN_19
1002
{
1040
1.0
1002
}
  0
LINE
  5
11E7
330
1F
100
AcDbEntity
  8
AM_VIS
100
AcDbLine
 10
320.1089980329938
 20
150.3116069473701
 30
0.0
 11
320.1089980329938
 21
164.3116069473701
 31
0.0
  0
LINE
  5
11E8
330
1F
100
AcDbEntity
  8
AM_VIS
100
AcDbLine
 10
320.1089980329938
 20
168.3116069473701
 30
0.0
 11
320.1089980329938
 21
164.3116069473701
 31
0.0
  0
LINE
  5
11E9
330
1F
100
AcDbEntity
  8
AM_VIS
100
AcDbLine
 10
320.1089980329938
 20
150.3116069473701
 30
0.0
 11
320.1089980329938
 21
146.3116069473701
 31
0.0
  0
LINE
  5
11EA
330
1F
100
AcDbEntity
  8
AM_VIS
100
AcDbLine
 10
325.9589980329937
 20
147.8952135047472
 30
0.0
 11
327.1089980329938
 21
147.8952135047472
 31
0.0
  0
LINE
  5
11EB
330
1F
100
AcDbEntity
  8
AM_VIS
100
AcDbLine
 10
327.1085565238035
 20
147.8960417815778
 30
0.0
 11
327.6085028600795
 21
148.1625358980263
 31
0.0
  0
LINE
  5
11EC
330
1F
100
AcDbEntity
  8
AM_VIS
100
AcDbLine
 10
325.9589980329937
 20
155.5186547956094
 30
0.0
 11
327.1089980329938
 21
155.5186547956094
 31
0.0
  0
SPLINE
  5
11ED
330
1F
100
AcDbEntity
  8
AM_VIS
100
AcDbSpline
210
0.0
220
0.0
230
1.0
 70
     8
 71
     3
 72
     8
 73
     4
 74
     0
 42
0.0000000001
 43
0.0000000001
 40
1.630155803927002
 40
1.630155803927002
 40
1.630155803927002
 40
1.630155803927002
 40
2.566002662426968
 40
2.566002662426968
 40
2.566002662426968
 40
2.566002662426968
 10
327.1089980329937
 20
155.5186547956094
 30
0.0
 10
327.2888592661889
 20
155.3431701550194
 30
0.0
 10
327.4579588875624
 20
155.1531957080053
 30
0.0
 10
327.6089980329937
 20
154.9492128770376
 30
0.0
  0
LINE
  5
11EE
330
1F
100
AcDbEntity
  8
AM_VIS
100
AcDbLine
 10
327.1149654514915
 20
149.6845903912531
 30
0.0
 11
327.6155356337928
 21
150.5200841385705
 31
0.0
  0
LINE
  5
11EF
330
1F
100
AcDbEntity
  8
AM_VIS
100
AcDbLine
 10
327.1089980329938
 20
149.6881656565077
 30
0.0
 11
325.9589980329937
 21
149.6881656565077
 31
0.0
  0
LINE
  5
11F0
330
1F
100
AcDbEntity
  8
AM_VIS
100
AcDbLine
 10
325.9589980329937
 20
164.9350482382324
 30
0.0
 11
327.1089980329938
 21
164.9350482382324
 31
0.0
  0
LINE
  5
11F1
330
1F
100
AcDbEntity
  8
AM_VIS
100
AcDbLine
 10
327.1149654545899
 20
164.9386235052946
 30
0.0
 11
327.6155356318688
 21
164.1031297549635
 31
0.0
  0
SPLINE
  5
11F2
330
1F
100
AcDbEntity
  8
AM_VIS
100
AcDbSpline
210
0.0
220
0.0
230
1.0
 70
     8
 71
     3
 72
     8
 73
     4
 74
     0
 42
0.0000000001
 43
0.0000000001
 40
7.860869802063004
 40
7.860869802063004
 40
7.860869802063004
 40
7.860869802063004
 40
8.796716660561713
 40
8.796716660561713
 40
8.796716660561713
 40
8.796716660561713
 10
327.6089980329937
 20
159.6740010177025
 30
0.0
 10
327.4579589969595
 20
159.4700183344787
 30
0.0
 10
327.2888593812151
 20
159.2800438519479
 30
0.0
 10
327.1089980329937
 20
159.1045590991307
 30
0.0
  0
LINE
  5
11F3
330
1F
100
AcDbEntity
  8
AM_VIS
100
AcDbLine
 10
327.1089980329938
 20
159.1045590991306
 30
0.0
 11
325.9589980329937
 21
159.1045590991306
 31
0.0
  0
LINE
  5
11F4
330
1F
100
AcDbEntity
  8
AM_VIS
100
AcDbLine
 10
327.1085565243642
 20
166.7271721142254
 30
0.0
 11
327.6085028592242
 21
166.4606779951214
 31
0.0
  0
LINE
  5
11F5
330
1F
100
AcDbEntity
  8
AM_VIS
100
AcDbLine
 10
327.1089980329938
 20
166.7280003899931
 30
0.0
 11
325.9589980329937
 21
166.7280003899931
 31
0.0
  0
LINE
  5
11F6
330
1F
100
AcDbEntity
  8
AM_VIS
100
AcDbLine
 10
324.4589980329937
 20
166.7280003899931
 30
0.0
 11
321.6089980329938
 21
166.7280003899931
 31
0.0
  0
LINE
  5
11F7
330
1F
100
AcDbEntity
  8
AM_VIS
100
AcDbLine
 10
321.6089980329938
 20
147.8952135047472
 30
0.0
 11
324.4589980329937
 21
147.8952135047472
 31
0.0
  0
LINE
  5
11F8
330
1F
100
AcDbEntity
  8
AM_VIS
100
AcDbLine
 10
321.6089980329938
 20
155.5186547956094
 30
0.0
 11
324.4589980329937
 21
155.5186547956094
 31
0.0
  0
LINE
  5
11F9
330
1F
100
AcDbEntity
  8
AM_VIS
100
AcDbLine
 10
324.4589980329937
 20
149.6881656565077
 30
0.0
 11
321.6089980329938
 21
149.6881656565077
 31
0.0
  0
LINE
  5
11FA
330
1F
100
AcDbEntity
  8
AM_VIS
100
AcDbLine
 10
321.6089980329938
 20
164.9350482382324
 30
0.0
 11
324.4589980329937
 21
164.9350482382324
 31
0.0
  0
LINE
  5
11FB
330
1F
100
AcDbEntity
  8
AM_VIS
100
AcDbLine
 10
324.4589980329937
 20
159.1045590991306
 30
0.0
 11
321.6089980329938
 21
159.1045590991306
 31
0.0
  0
LINE
  5
11FC
330
1F
100
AcDbEntity
  8
AM_VIS
100
AcDbLine
 10
321.5615384824495
 20
159.1045978566238
 30
0.0
 11
321.566299905376
 21
164.9350831073445
 31
0.0
  0
LINE
  5
11FD
330
1F
100
AcDbEntity
  8
AM_VIS
100
AcDbLine
 10
321.5615384824495
 20
155.5186160381163
 30
0.0
 11
321.566299905376
 21
149.6881307873956
 31
0.0
  0
LINE
  5
11FE
330
1F
100
AcDbEntity
  8
AM_VIS
100
AcDbLine
 10
321.5136776602643
 20
148.5117128154198
 30
0.0
 11
321.60969511939
 21
147.8953220924694
 31
0.0
  0
LINE
  5
11FF
330
1F
100
AcDbEntity
  8
AM_VIS
100
AcDbLine
 10
321.5136776602643
 20
166.1115010793205
 30
0.0
 11
321.60969511939
 21
166.7278918022709
 31
0.0
  0
CIRCLE
  5
1200
330
1F
100
AcDbEntity
  8
AM_VIS
100
AcDbCircle
 10
325.2089980329937
 20
159.3116069473702
 30
0.0
 40
0.4999999999999999
  0
CIRCLE
  5
1201
330
1F
100
AcDbEntity
  8
AM_VIS
100
AcDbCircle
 10
325.2089980329937
 20
155.3116069473702
 30
0.0
 40
0.4999999999999995
  0
SPLINE
  5
1202
330
1F
100
AcDbEntity
  8
AM_VIS
100
AcDbSpline
210
0.0
220
0.0
230
1.0
 70
    11
 71
     3
 72
    60
 73
    56
 74
     0
 42
0.0000000001
 43
0.0000000001
 40
-3.310750712816652
 40
-3.310750712816652
 40
-3.310750712816652
 40
-3.310750712816652
 40
-3.302671059125519
 40
-3.302671059125519
 40
-3.271516879648076
 40
-3.271516879648076
 40
-3.222342999562159
 40
-3.222342999562159
 40
-3.075760487521823
 40
-3.075760487521823
 40
-2.908994890068949
 40
-2.908994890068949
 40
-2.706317539053631
 40
-2.706317539053631
 40
-2.531583211411222
 40
-2.531583211411222
 40
-2.354322289708455
 40
-2.354322289708455
 40
-2.162856293862051
 40
-2.162856293862051
 40
-1.995635058289954
 40
-1.995635058289954
 40
-1.870614094148073
 40
-1.870614094148073
 40
-1.77765316190416
 40
-1.77765316190416
 40
-1.737876373527406
 40
-1.737876373527406
 40
-1.708569587915623
 40
-1.708569587915623
 40
-1.67759753243844
 40
-1.67759753243844
 40
-1.629510029901636
 40
-1.629510029901636
 40
-1.49514387547256
 40
-1.49514387547256
 40
-1.274685715457794
 40
-1.274685715457794
 40
-1.0731360304824
 40
-1.0731360304824
 40
-0.9227343317460663
 40
-0.9227343317460663
 40
-0.7786617880805702
 40
-0.7786617880805702
 40
-0.6125360661046729
 40
-0.6125360661046729
 40
-0.3879513966054244
 40
-0.3879513966054244
 40
-0.2081380036627772
 40
-0.2081380036627772
 40
-0.0765520961402888
 40
-0.0765520961402888
 40
-0.030511565745947
 40
-0.030511565745947
 40
0.0
 40
0.0
 40
0.0
 40
0.0
 10
325.7089980329937
 20
150.9930816385064
 30
0.0
 10
325.7089980329937
 20
150.9925589663665
 30
0.0
 10
325.7089770934085
 20
150.9920563809457
 30
0.0
 10
325.7087728491583
 20
150.9897142065394
 30
0.0
 10
325.7082972158542
 20
150.9881595829364
 30
0.0
 10
325.7062410121079
 20
150.9849465503944
 30
0.0
 10
325.70418998977
 20
150.9837628311574
 30
0.0
 10
325.6928142097162
 20
150.982028443333
 30
0.0
 10
325.6774300450717
 20
150.9874754469893
 30
0.0
 10
325.631575828907
 20
151.0070934210413
 30
0.0
 10
325.5995849086258
 20
151.0220873415708
 30
0.0
 10
325.515410177154
 20
151.0554294281198
 30
0.0
 10
325.4601449057783
 20
151.0738306573715
 30
0.0
 10
325.3453268716713
 20
151.0981038392011
 30
0.0
 10
325.2884965247746
 20
151.1051723825795
 30
0.0
 10
325.1707083698823
 20
151.1079004797039
 30
0.0
 10
325.1120414909987
 20
151.1033341050423
 30
0.0
 10
324.995942984984
 20
151.0836298450616
 30
0.0
 10
324.940759622745
 20
151.0679552197409
 30
0.0
 10
324.8512032936022
 20
151.0360132904274
 30
0.0
 10
324.8151589471407
 20
151.0201167541976
 30
0.0
 10
324.7646272896678
 20
150.997693148422
 30
0.0
 10
324.7469852609277
 20
150.9898580103282
 30
0.0
 10
324.7244165241863
 20
150.9829780861199
 30
0.0
 10
324.7175188319828
 20
150.9822524195512
 30
0.0
 10
324.7116660517164
 20
150.985188437662
 30
0.0
 10
324.7104403815179
 20
150.9865678959424
 30
0.0
 10
324.7092080605775
 20
150.9898455759574
 30
0.0
 10
324.7089674874921
 20
150.9915065546773
 30
0.0
 10
324.7090366712237
 20
150.9954678941412
 30
0.0
 10
324.7093783723694
 20
150.9977934065427
 30
0.0
 10
324.71100151604
 20
151.0044323975084
 30
0.0
 10
324.7126933606508
 20
151.0091178638333
 30
0.0
 10
324.7215851734846
 20
151.0290223436613
 30
0.0
 10
324.7331738186052
 20
151.0479810159138
 30
0.0
 10
324.7739462219456
 20
151.1027989832643
 30
0.0
 10
324.8103818994834
 20
151.1425712214743
 30
0.0
 10
324.8968596334415
 20
151.2129307556881
 30
0.0
 10
324.9466477776938
 20
151.2450534048076
 30
0.0
 10
325.0466296935144
 20
151.2872854416782
 30
0.0
 10
325.0930922751108
 20
151.300718579876
 30
0.0
 10
325.189610452053
 20
151.3134525001606
 30
0.0
 10
325.2372569686638
 20
151.3130202945503
 30
0.0
 10
325.3384386045852
 20
151.2979208062947
 30
0.0
 10
325.388924260719
 20
151.2815299040813
 30
0.0
 10
325.4962951035561
 20
151.2311483506576
 30
0.0
 10
325.5487405009033
 20
151.1932197091583
 30
0.0
 10
325.6239823551374
 20
151.1246341877956
 30
0.0
 10
325.6515561903173
 20
151.093140062938
 30
0.0
 10
325.6864564685479
 20
151.0454213241733
 30
0.0
 10
325.6974493982629
 20
151.0271093094274
 30
0.0
 10
325.7056967064997
 20
151.0080639173731
 30
0.0
 10
325.7072303440994
 20
151.0036520708147
 30
0.0
 10
325.708699612988
 20
150.9973124992518
 30
0.0
 10
325.7089980329937
 20
150.9950554292125
 30
0.0
 10
325.7089980329937
 20
150.9930816385064
 30
0.0
  0
SPLINE
  5
1203
330
1F
100
AcDbEntity
  8
AM_VIS
100
AcDbSpline
210
0.0
220
0.0
230
1.0
 70
    11
 71
     3
 72
    60
 73
    56
 74
     0
 42
0.0000000001
 43
0.0000000001
 40
-3.339179833650605
 40
-3.339179833650605
 40
-3.339179833650605
 40
-3.339179833650605
 40
-3.338178510341669
 40
-3.338178510341669
 40
-3.307426441093102
 40
-3.307426441093102
 40
-3.260257442848685
 40
-3.260257442848685
 40
-3.131698032149079
 40
-3.131698032149079
 40
-2.911444231468901
 40
-2.911444231468901
 40
-2.707105941030766
 40
-2.707105941030766
 40
-2.555612058899387
 40
-2.555612058899387
 40
-2.411713356363649
 40
-2.411713356363649
 40
-2.246665153548941
 40
-2.246665153548941
 40
-2.021546194443616
 40
-2.021546194443616
 40
-1.783002476135987
 40
-1.783002476135987
 40
-1.683076290570759
 40
-1.683076290570759
 40
-1.640889765310639
 40
-1.640889765310639
 40
-1.610262995428023
 40
-1.610262995428023
 40
-1.578336361562037
 40
-1.578336361562037
 40
-1.529528057337407
 40
-1.529528057337407
 40
-1.393989385708153
 40
-1.393989385708153
 40
-1.223638687617107
 40
-1.223638687617107
 40
-1.012165485955926
 40
-1.012165485955926
 40
-0.8368093096661988
 40
-0.8368093096661988
 40
-0.6617329501248318
 40
-0.6617329501248318
 40
-0.471355778622239
 40
-0.471355778622239
 40
-0.3001652834568147
 40
-0.3001652834568147
 40
-0.1716500352069761
 40
-0.1716500352069761
 40
-0.0705730179427
 40
-0.0705730179427
 40
-0.0295050875768574
 40
-0.0295050875768574
 40
0.0
 40
0.0
 40
0.0
 40
0.0
 10
325.7089980329937
 20
163.6301322562338
 30
0.0
 10
325.7089980329937
 20
163.6300674807104
 30
0.0
 10
325.7089977113655
 20
163.6300023976336
 30
0.0
 10
325.708977324204
 20
163.627928778387
 30
0.0
 10
325.7086548153158
 20
163.6256339494462
 30
0.0
 10
325.707101157602
 20
163.6191301795066
 30
0.0
 10
325.7054809937778
 20
163.614568665934
 30
0.0
 10
325.6971018718935
 20
163.5955533984732
 30
0.0
 10
325.6863434233137
 20
163.5776825913431
 30
0.0
 10
325.6474579818565
 20
163.5243952755029
 30
0.0
 10
325.611737606556
 20
163.4847529834631
 30
0.0
 10
325.5261295660895
 20
163.4137205465266
 30
0.0
 10
325.4762153454556
 20
163.3808317674161
 30
0.0
 10
325.3759630402724
 20
163.3374545067203
 30
0.0
 10
325.329441065098
 20
163.323545943652
 30
0.0
 10
325.2330078188147
 20
163.3099792038912
 30
0.0
 10
325.1855024541333
 20
163.3099565795196
 30
0.0
 10
325.0846697394297
 20
163.3240361131729
 30
0.0
 10
325.0343542391606
 20
163.339796659982
 30
0.0
 10
324.9264601411804
 20
163.3891025624752
 30
0.0
 10
324.8734808150179
 20
163.4267444696221
 30
0.0
 10
324.7862835104746
 20
163.5050401424633
 30
0.0
 10
324.7522730993226
 20
163.5467214100682
 30
0.0
 10
324.7230000622924
 20
163.5924354466861
 30
0.0
 10
324.7165739742058
 20
163.6044714529844
 30
0.0
 10
324.7112228278782
 20
163.6182590512694
 30
0.0
 10
324.7101147449007
 20
163.6219230820254
 30
0.0
 10
324.7090825742309
 20
163.6274277453141
 30
0.0
 10
324.7089185084342
 20
163.6294868540853
 30
0.0
 10
324.7091539263094
 20
163.6331479950456
 30
0.0
 10
324.7095772319247
 20
163.6347213476984
 30
0.0
 10
324.7114339528733
 20
163.6379448665286
 30
0.0
 10
324.713275459518
 20
163.6391827909204
 30
0.0
 10
324.7229951829631
 20
163.6412781096872
 30
0.0
 10
324.7355648113445
 20
163.6374667151956
 30
0.0
 10
324.775079710978
 20
163.6213150898551
 30
0.0
 10
324.8045824280024
 20
163.6073062641156
 30
0.0
 10
324.8839923620782
 20
163.5745773223161
 30
0.0
 10
324.9385212257168
 20
163.5549232986453
 30
0.0
 10
325.054472559373
 20
163.5280754991012
 30
0.0
 10
325.1111565373459
 20
163.5198152104002
 30
0.0
 10
325.2285951747465
 20
163.5147584105602
 30
0.0
 10
325.2870877961385
 20
163.5180438580424
 30
0.0
 10
325.4042678228101
 20
163.5354845113464
 30
0.0
 10
325.4605575593366
 20
163.5502885095673
 30
0.0
 10
325.5540944392653
 20
163.5820398497522
 30
0.0
 10
325.5924846460218
 20
163.59853985251
 30
0.0
 10
325.6467959109363
 20
163.6225816772182
 30
0.0
 10
325.6659646538019
 20
163.6312989568277
 30
0.0
 10
325.6914144291359
 20
163.6398717888564
 30
0.0
 10
325.6994228029812
 20
163.6411422075046
 30
0.0
 10
325.7060229032187
 20
163.6382975681699
 30
0.0
 10
325.7073639135242
 20
163.6369424685861
 30
0.0
 10
325.7087189847727
 20
163.6336800428486
 30
0.0
 10
325.7089980329937
 20
163.6320409379489
 30
0.0
 10
325.7089980329937
 20
163.6301322562338
 30
0.0
  0
CIRCLE
  5
1204
330
1F
100
AcDbEntity
  8
AM_VIS
100
AcDbCircle
 10
325.2089980329937
 20
157.3116069473702
 30
0.0
 40
0.5000000000000016
  0
LINE
  5
1205
330
1F
100
AcDbEntity
  8
AM_VIS
100
AcDbLine
 10
321.4089980329938
 20
149.8116069473702
 30
0.0
 11
321.5129980329938
 21
148.5116069473701
 31
0.0
  0
LINE
  5
1206
330
1F
100
AcDbEntity
  8
AM_VIS
100
AcDbLine
 10
321.4089980329938
 20
164.8116069473702
 30
0.0
 11
321.5129980329938
 21
166.1116069473701
 31
0.0
  0
LINE
  5
1207
330
1F
100
AcDbEntity
  8
AM_VIS
100
AcDbLine
 10
320.6089980329938
 20
164.8116069473702
 30
0.0
 11
320.1089980329938
 21
167.3116069473702
 31
0.0
  0
LINE
  5
1208
330
1F
100
AcDbEntity
  8
AM_VIS
100
AcDbLine
 10
320.6089980329938
 20
149.8116069473702
 30
0.0
 11
320.1089980329938
 21
147.3116069473702
 31
0.0
  0
LINE
  5
1209
330
1F
100
AcDbEntity
  8
AM_VIS
100
AcDbLine
 10
320.6089980329938
 20
149.8116069473702
 30
0.0
 11
321.4089980329938
 21
149.8116069473702
 31
0.0
  0
LINE
  5
120A
330
1F
100
AcDbEntity
  8
AM_VIS
100
AcDbLine
 10
320.6089980329938
 20
164.8116069473702
 30
0.0
 11
321.4089980329938
 21
164.8116069473702
 31
0.0
  0
LINE
  5
120B
330
1F
100
AcDbEntity
  8
AM_VIS
100
AcDbLine
 10
327.1089980329938
 20
164.9350482382324
 30
0.0
 11
327.1089980329938
 21
166.7280003899931
 31
0.0
  0
LINE
  5
120C
330
1F
100
AcDbEntity
  8
AM_VIS
100
AcDbLine
 10
327.1089980329938
 20
155.5186547956094
 30
0.0
 11
327.1089980329938
 21
159.1045590991307
 31
0.0
  0
LINE
  5
120D
330
1F
100
AcDbEntity
  8
AM_VIS
100
AcDbLine
 10
327.1089980329938
 20
147.8952135047472
 30
0.0
 11
327.1089980329938
 21
149.6881656565077
 31
0.0
  0
LINE
  5
120E
330
1F
100
AcDbEntity
  8
AM_VIS
100
AcDbLine
 10
325.9589980329937
 20
164.9350482382324
 30
0.0
 11
325.9589980329937
 21
166.7280003899931
 31
0.0
  0
LINE
  5
120F
330
1F
100
AcDbEntity
  8
AM_VIS
100
AcDbLine
 10
325.9589980329937
 20
164.9350482382324
 30
0.0
 11
325.9589980329937
 21
159.1045590991306
 31
0.0
  0
LINE
  5
1210
330
1F
100
AcDbEntity
  8
AM_VIS
100
AcDbLine
 10
325.9589980329937
 20
155.5186547956094
 30
0.0
 11
325.9589980329937
 21
159.1045590991307
 31
0.0
  0
LINE
  5
1211
330
1F
100
AcDbEntity
  8
AM_VIS
100
AcDbLine
 10
325.9589980329937
 20
155.5186547956094
 30
0.0
 11
325.9589980329937
 21
149.6881656565076
 31
0.0
  0
LINE
  5
1212
330
1F
100
AcDbEntity
  8
AM_VIS
100
AcDbLine
 10
325.9589980329937
 20
147.8952135047472
 30
0.0
 11
325.9589980329937
 21
149.6881656565077
 31
0.0
  0
LINE
  5
1213
330
1F
100
AcDbEntity
  8
AM_VIS
100
AcDbLine
 10
324.4589980329937
 20
166.7280003899931
 30
0.0
 11
324.4589980329937
 21
164.9350482382324
 31
0.0
  0
LINE
  5
1214
330
1F
100
AcDbEntity
  8
AM_VIS
100
AcDbLine
 10
324.4589980329937
 20
149.6881656565077
 30
0.0
 11
324.4589980329937
 21
147.8952135047472
 31
0.0
  0
LINE
  5
1215
330
1F
100
AcDbEntity
  8
AM_VIS
100
AcDbLine
 10
324.4589980329937
 20
159.1045590991307
 30
0.0
 11
324.4589980329937
 21
155.5186547956094
 31
0.0
  0
LINE
  5
1216
330
1F
100
AcDbEntity
  8
AM_VIS
100
AcDbLine
 10
324.4589980329937
 20
149.6881656565077
 30
0.0
 11
324.4589980329937
 21
155.5186547956095
 31
0.0
  0
LINE
  5
1217
330
1F
100
AcDbEntity
  8
AM_VIS
100
AcDbLine
 10
324.4589980329937
 20
159.1045590991307
 30
0.0
 11
324.4589980329937
 21
164.9350482382326
 31
0.0
  0
LINE
  5
1218
330
1F
100
AcDbEntity
  8
AM_VIS
100
AcDbLine
 10
321.6089980329938
 20
164.9350482382324
 30
0.0
 11
321.6089980329938
 21
166.7280003899931
 31
0.0
  0
LINE
  5
1219
330
1F
100
AcDbEntity
  8
AM_VIS
100
AcDbLine
 10
321.6089980329938
 20
155.5186547956094
 30
0.0
 11
321.6089980329938
 21
159.1045590991307
 31
0.0
  0
LINE
  5
121A
330
1F
100
AcDbEntity
  8
AM_VIS
100
AcDbLine
 10
321.6089980329938
 20
147.8952135047472
 30
0.0
 11
321.6089980329938
 21
149.6881656565077
 31
0.0
  0
LINE
  5
121B
330
1F
100
AcDbEntity
  8
AM_VIS
100
AcDbLine
 10
321.4089980329938
 20
149.8116069473702
 30
0.0
 11
321.4089980329938
 21
164.8116069473702
 31
0.0
  0
LINE
  5
121C
330
1F
100
AcDbEntity
  8
AM_VIS
100
AcDbLine
 10
320.6089980329938
 20
149.8116069473702
 30
0.0
 11
320.6089980329938
 21
164.8116069473702
 31
0.0
  0
LINE
  5
121D
330
1F
100
AcDbEntity
  8
AM_VIS
100
AcDbLine
 10
327.6089980329938
 20
159.6740010177025
 30
0.0
 11
327.6089980329938
 21
154.9492128770376
 31
0.0
  0
LINE
  5
121E
330
1F
100
AcDbEntity
  8
AM_VIS
100
AcDbLine
 10
327.6089980329938
 20
164.0992128770377
 30
0.0
 11
327.6089980329938
 21
159.6740010177024
 31
0.0
  0
LINE
  5
121F
330
1F
100
AcDbEntity
  8
AM_VIS
100
AcDbLine
 10
327.6089980329938
 20
166.4616069473701
 30
0.0
 11
327.6089980329938
 21
164.0992128770377
 31
0.0
  0
LINE
  5
1220
330
1F
100
AcDbEntity
  8
AM_VIS
100
AcDbLine
 10
327.6089980329938
 20
150.5240010177024
 30
0.0
 11
327.6089980329938
 21
148.1616069473701
 31
0.0
  0
LINE
  5
1221
330
1F
100
AcDbEntity
  8
AM_VIS
100
AcDbLine
 10
327.6089980329938
 20
154.9492128770376
 30
0.0
 11
327.6089980329938
 21
150.5240010177023
 31
0.0
  0
ARC
  5
1222
330
1F
100
AcDbEntity
  8
AM_VIS
100
AcDbCircle
 10
325.2089980329937
 20
164.3116069473702
 30
0.0
 40
0.75
100
AcDbArc
 50
180.0
 51
0.0
  0
ARC
  5
1223
330
1F
100
AcDbEntity
  8
AM_VIS
100
AcDbCircle
 10
325.2089980329937
 20
150.3116069473702
 30
0.0
 40
0.75
100
AcDbArc
 50
0.0
 51
180.0
  0
LINE
  5
1224
330
1F
100
AcDbEntity
  8
AM_VIS
100
AcDbLine
 10
320.3089980329938
 20
148.3116069473702
 30
0.0
 11
321.5455195873286
 21
148.3116069473702
 31
0.0
  0
LINE
  5
1225
330
1F
100
AcDbEntity
  8
AM_VIS
100
AcDbLine
 10
324.4589980329937
 20
148.3116069473702
 30
0.0
 11
325.9589980329937
 21
148.3116069473702
 31
0.0
  0
LINE
  5
1226
330
1F
100
AcDbEntity
  8
AM_VIS
100
AcDbLine
 10
327.6089980329938
 20
148.3116069473702
 30
0.0
 11
333.1089980329935
 21
148.3116069473702
 31
0.0
  0
LINE
  5
1227
330
1F
100
AcDbEntity
  8
AM_VIS
100
AcDbLine
 10
320.3089980329936
 20
166.3116069473702
 30
0.0
 11
321.5455195873286
 21
166.3116069473702
 31
0.0
  0
LINE
  5
1228
330
1F
100
AcDbEntity
  8
AM_VIS
100
AcDbLine
 10
324.4589980329937
 20
166.3116069473702
 30
0.0
 11
325.9589980329937
 21
166.3116069473702
 31
0.0
  0
LINE
  5
1229
330
1F
100
AcDbEntity
  8
AM_VIS
100
AcDbLine
 10
327.6089980329938
 20
166.3116069473702
 30
0.0
 11
333.1089980329935
 21
166.3116069473702
 31
0.0
  0
LINE
  5
122A
330
1F
100
AcDbEntity
  8
AM_VIS
100
AcDbLine
 10
333.1089980329935
 20
166.3116069473702
 30
0.0
 11
333.1089980329935
 21
148.3116069473702
 31
0.0
  0
LINE
  5
122B
330
1F
100
AcDbEntity
  8
AM_VIS
100
AcDbLine
 10
341.1089980329938
 20
163.3648101776459
 30
0.0
 11
335.6089980329938
 21
163.3648101776459
 31
0.0
  0
LINE
  5
122C
330
1F
100
AcDbEntity
  8
AM_VIS
100
AcDbLine
 10
335.6089980329938
 20
165.1148101776459
 30
0.0
 11
341.1089980329938
 21
165.1148101776459
 31
0.0
  0
LINE
  5
122D
330
1F
100
AcDbEntity
  8
AM_VIS
100
AcDbLine
 10
341.1089980329938
 20
164.4317974757537
 30
0.0
 11
335.6089980329938
 21
164.4317974757537
 31
0.0
  0
LINE
  5
122E
330
1F
100
AcDbEntity
  8
AM_VIS
100
AcDbLine
 10
341.1089980329938
 20
161.9304091008874
 30
0.0
 11
335.6089980329938
 21
161.9304091008874
 31
0.0
  0
LINE
  5
122F
330
1F
100
AcDbEntity
  8
AM_VIS
100
AcDbLine
 10
341.1089980329938
 20
152.6928047938534
 30
0.0
 11
335.6089980329938
 21
152.6928047938534
 31
0.0
  0
LINE
  5
1230
330
1F
100
AcDbEntity
  8
AM_VIS
100
AcDbLine
 10
341.1089980329938
 20
156.0616069473704
 30
0.0
 11
335.6089980329938
 21
156.0616069473704
 31
0.0
  0
LINE
  5
1231
330
1F
100
AcDbEntity
  8
AM_VIS
100
AcDbLine
 10
341.1089980329938
 20
155.5616069473704
 30
0.0
 11
335.6089980329938
 21
155.5616069473704
 31
0.0
  0
LINE
  5
1232
330
1F
100
AcDbEntity
  8
AM_VIS
100
AcDbLine
 10
335.6089980329938
 20
159.0616069473704
 30
0.0
 11
341.1089980329938
 21
159.0616069473704
 31
0.0
  0
LINE
  5
1233
330
1F
100
AcDbEntity
  8
AM_VIS
100
AcDbLine
 10
341.1089980329938
 20
158.5616069473704
 30
0.0
 11
335.6089980329938
 21
158.5616069473704
 31
0.0
  0
LINE
  5
1234
330
1F
100
AcDbEntity
  8
AM_VIS
100
AcDbLine
 10
341.1089980329938
 20
148.0740026403363
 30
0.0
 11
335.6089980329938
 21
148.0740026403364
 31
0.0
  0
LINE
  5
1235
330
1F
100
AcDbEntity
  8
AM_VIS
100
AcDbLine
 10
341.1089980329938
 20
149.5084037170948
 30
0.0
 11
335.6089980329938
 21
149.5084037170949
 31
0.0
  0
LINE
  5
1236
330
1F
100
AcDbEntity
  8
AM_VIS
100
AcDbLine
 10
335.6089980329938
 20
151.2584037170949
 30
0.0
 11
341.1089980329938
 21
151.2584037170948
 31
0.0
  0
LINE
  5
1237
330
1F
100
AcDbEntity
  8
AM_VIS
100
AcDbLine
 10
341.1089980329938
 20
150.1914164189871
 30
0.0
 11
335.6089980329938
 21
150.1914164189871
 31
0.0
  0
LINE
  5
1238
330
1F
100
AcDbEntity
  8
AM_VIS
100
AcDbLine
 10
335.6089980329938
 20
166.5492112544044
 30
0.0
 11
335.6089980329938
 21
165.1148101776459
 31
0.0
  0
LINE
  5
1239
330
1F
100
AcDbEntity
  8
AM_VIS
100
AcDbLine
 10
335.6089980329938
 20
164.4317974757537
 30
0.0
 11
335.6089980329938
 21
165.1148101776459
 31
0.0
  0
LINE
  5
123A
330
1F
100
AcDbEntity
  8
AM_VIS
100
AcDbLine
 10
335.6089980329938
 20
163.3648101776459
 30
0.0
 11
335.6089980329938
 21
164.4317974757537
 31
0.0
  0
LINE
  5
123B
330
1F
100
AcDbEntity
  8
AM_VIS
100
AcDbLine
 10
335.6089980329938
 20
163.3648101776459
 30
0.0
 11
335.6089980329938
 21
161.9304091008874
 31
0.0
  0
LINE
  5
123C
330
1F
100
AcDbEntity
  8
AM_VIS
100
AcDbLine
 10
335.6089980329938
 20
161.9304091008874
 30
0.0
 11
335.6089980329938
 21
159.0616069473704
 31
0.0
  0
LINE
  5
123D
330
1F
100
AcDbEntity
  8
AM_VIS
100
AcDbLine
 10
335.6089980329938
 20
158.5616069473704
 30
0.0
 11
335.6089980329938
 21
159.0616069473704
 31
0.0
  0
LINE
  5
123E
330
1F
100
AcDbEntity
  8
AM_VIS
100
AcDbLine
 10
335.6089980329938
 20
156.0616069473704
 30
0.0
 11
335.6089980329938
 21
158.5616069473704
 31
0.0
  0
LINE
  5
123F
330
1F
100
AcDbEntity
  8
AM_VIS
100
AcDbLine
 10
335.6089980329938
 20
155.5616069473704
 30
0.0
 11
335.6089980329938
 21
156.0616069473704
 31
0.0
  0
LINE
  5
1240
330
1F
100
AcDbEntity
  8
AM_VIS
100
AcDbLine
 10
335.6089980329938
 20
155.5616069473704
 30
0.0
 11
335.6089980329938
 21
152.6928047938534
 31
0.0
  0
LINE
  5
1241
330
1F
100
AcDbEntity
  8
AM_VIS
100
AcDbLine
 10
335.6089980329938
 20
152.6928047938534
 30
0.0
 11
335.6089980329938
 21
151.2584037170949
 31
0.0
  0
LINE
  5
1242
330
1F
100
AcDbEntity
  8
AM_VIS
100
AcDbLine
 10
335.6089980329938
 20
150.1914164189871
 30
0.0
 11
335.6089980329938
 21
151.2584037170949
 31
0.0
  0
LINE
  5
1243
330
1F
100
AcDbEntity
  8
AM_VIS
100
AcDbLine
 10
335.6089980329938
 20
149.5084037170949
 30
0.0
 11
335.6089980329938
 21
150.1914164189871
 31
0.0
  0
LINE
  5
1244
330
1F
100
AcDbEntity
  8
AM_VIS
100
AcDbLine
 10
335.6089980329938
 20
149.5084037170949
 30
0.0
 11
335.6089980329938
 21
148.0740026403364
 31
0.0
  0
LINE
  5
1245
330
1F
100
AcDbEntity
  8
AM_VIS
100
AcDbLine
 10
341.1089980329938
 20
166.5492112544044
 30
0.0
 11
335.6089980329938
 21
166.5492112544045
 31
0.0
  0
LINE
  5
1246
330
1F
100
AcDbEntity
  8
AM_VIS
100
AcDbLine
 10
341.1089980329938
 20
149.5084037170948
 30
0.0
 11
341.1089980329938
 21
148.0740026403363
 31
0.0
  0
LINE
  5
1247
330
1F
100
AcDbEntity
  8
AM_VIS
100
AcDbLine
 10
341.1089980329938
 20
150.1914164189871
 30
0.0
 11
341.1089980329938
 21
149.5084037170949
 31
0.0
  0
LINE
  5
1248
330
1F
100
AcDbEntity
  8
AM_VIS
100
AcDbLine
 10
341.1089980329938
 20
151.2584037170949
 30
0.0
 11
341.1089980329938
 21
150.1914164189871
 31
0.0
  0
LINE
  5
1249
330
1F
100
AcDbEntity
  8
AM_VIS
100
AcDbLine
 10
341.1089980329938
 20
152.6928047938534
 30
0.0
 11
341.1089980329938
 21
151.2584037170948
 31
0.0
  0
LINE
  5
124A
330
1F
100
AcDbEntity
  8
AM_VIS
100
AcDbLine
 10
341.1089980329938
 20
155.5616069473704
 30
0.0
 11
341.1089980329938
 21
152.6928047938533
 31
0.0
  0
LINE
  5
124B
330
1F
100
AcDbEntity
  8
AM_VIS
100
AcDbLine
 10
341.1089980329938
 20
156.0616069473704
 30
0.0
 11
341.1089980329938
 21
155.5616069473704
 31
0.0
  0
LINE
  5
124C
330
1F
100
AcDbEntity
  8
AM_VIS
100
AcDbLine
 10
341.1089980329938
 20
158.5616069473704
 30
0.0
 11
341.1089980329938
 21
156.0616069473704
 31
0.0
  0
LINE
  5
124D
330
1F
100
AcDbEntity
  8
AM_VIS
100
AcDbLine
 10
341.1089980329938
 20
159.0616069473704
 30
0.0
 11
341.1089980329938
 21
158.5616069473704
 31
0.0
  0
LINE
  5
124E
330
1F
100
AcDbEntity
  8
AM_VIS
100
AcDbLine
 10
341.1089980329938
 20
161.9304091008874
 30
0.0
 11
341.1089980329938
 21
159.0616069473704
 31
0.0
  0
LINE
  5
124F
330
1F
100
AcDbEntity
  8
AM_VIS
100
AcDbLine
 10
341.1089980329938
 20
163.3648101776459
 30
0.0
 11
341.1089980329938
 21
161.9304091008874
 31
0.0
  0
LINE
  5
1250
330
1F
100
AcDbEntity
  8
AM_VIS
100
AcDbLine
 10
341.1089980329938
 20
164.4317974757537
 30
0.0
 11
341.1089980329938
 21
163.3648101776459
 31
0.0
  0
LINE
  5
1251
330
1F
100
AcDbEntity
  8
AM_VIS
100
AcDbLine
 10
341.1089980329938
 20
165.1148101776459
 30
0.0
 11
341.1089980329938
 21
164.4317974757537
 31
0.0
  0
LINE
  5
1252
330
1F
100
AcDbEntity
  8
AM_VIS
100
AcDbLine
 10
341.1089980329938
 20
166.5492112544044
 30
0.0
 11
341.1089980329938
 21
165.1148101776459
 31
0.0
  0
LINE
  5
1253
330
1F
100
AcDbEntity
  8
AM_VIS
100
AcDbLine
 10
335.6089980329938
 20
164.0616069473704
 30
0.0
 11
334.0089980329937
 21
164.0616069473704
 31
0.0
  0
LINE
  5
1254
330
1F
100
AcDbEntity
  8
AM_VIS
100
AcDbLine
 10
335.6089980329938
 20
150.5616069473704
 30
0.0
 11
334.0089980329937
 21
150.5616069473704
 31
0.0
  0
LINE
  5
1255
330
1F
100
AcDbEntity
  8
AM_VIS
100
AcDbLine
 10
334.0089980329937
 20
164.3116069473704
 30
0.0
 11
333.1089980329935
 21
164.3116069473704
 31
0.0
  0
LINE
  5
1256
330
1F
100
AcDbEntity
  8
AM_VIS
100
AcDbLine
 10
334.0089980329937
 20
150.3116069473704
 30
0.0
 11
333.1089980329935
 21
150.3116069473704
 31
0.0
  0
LINE
  5
1257
330
1F
100
AcDbEntity
  8
AM_VIS
100
AcDbLine
 10
334.0089980329937
 20
164.3116069473704
 30
0.0
 11
334.0089980329937
 21
150.3116069473704
 31
0.0
  0
LINE
  5
1258
330
1F
100
AcDbEntity
  8
AM_7
100
AcDbLine
 10
343.1089980329938
 20
157.3116069473704
 30
0.0
 11
316.9975590569492
 21
157.3116069473704
 31
0.0
1001
GENIUS_GENODEF_13
1002
{
1000
HIER
1070
     0
1002
}
1002
{
1000
MANEDIT
1070
     0
1002
}
1002
{
1000
NOSEL
1070
     0
1002
}
1002
{
1000
BEHIND
1070
     0
1002
}
1002
{
1000
OTHER
1070
     0
1002
}
1002
{
1000
REACTOR
1002
}
1001
GENIUS_GENOBJ-N-CEN_13
1002
{
1000
OWNER
1000
GEN
1002
}
1001
GENIUS_GENCEN_19
1002
{
1040
2.0
1002
}
  0
DIMENSION
  5
1262
102
{ACAD_XDICTIONARY
360
1263
102
}
102
{ACAD_REACTORS
330
1264
102
}
330
1F
100
AcDbEntity
  8
AM_5
100
AcDbDimension
  2
*D20
 10
269.6092921199263
 20
242.8413594127039
 30
0.0
 11
269.6092921199262
 21
256.7228417354855
 31
0.0
 70
   160
 71
     5
 42
3.00000000000017
  3
AM_ISO$0
100
AcDbAlignedDimension
 13
263.1089980329938
 23
245.8413594127041
 33
0.0
 14
263.1089980329938
 24
242.8413594127039
 34
0.0
 50
90.0
100
AcDbRotatedDimension
1001
ACAD
1000
DSTYLE
1002
{
1070
    40
1040
1.399999999999999
1070
   272
1070
     8
1002
}
  0
POINT
  5
1265
330
1F
100
AcDbEntity
  8
0
 60
     1
100
AcDbPoint
 10
-74.93067582222773
 20
-213.7941414149622
 30
0.0
1001
GENIUS_GENOLIS_13
1002
{
1000
ENT
1005
11B8
1005
11B7
1005
11B6
1005
11B5
1002
}
1001
GENIUS_GENOENT_13
1002
{
1000
MYREF
1005
1265
1002
}
1002
{
1000
GRP
1005
0
1002
}
1001
GENIUS_GENOBJ-N-CRS_13
1002
{
1000
OWNER
1000
GEN
1002
}
1001
GENIUS_GENODEF_13
1002
{
1000
HIER
1070
    10
1002
}
1002
{
1000
MANEDIT
1070
     0
1002
}
1002
{
1000
NOSEL
1070
     0
1002
}
1002
{
1000
BEHIND
1070
     0
1002
}
1002
{
1000
OTHER
1070
     0
1002
}
1002
{
1000
REACTOR
1002
}
  0
POINT
  5
1266
330
1F
100
AcDbEntity
  8
0
 60
     1
100
AcDbPoint
 10
-74.93067582222773
 20
-213.7941414149622
 30
0.0
1001
GENIUS_GENOENT_13
1002
{
1000
MYREF
1005
1266
1002
}
1002
{
1000
GRP
1005
0
1002
}
1001
GENIUS_GENOLIS_13
1002
{
1000
ENT
1005
11B4
1005
11B3
1005
11B2
1005
11B1
1002
}
1001
GENIUS_GENOBJ-N-CRS_13
1002
{
1000
OWNER
1000
GEN
1002
}
1001
GENIUS_GENODEF_13
1002
{
1000
HIER
1070
    10
1002
}
1002
{
1000
MANEDIT
1070
     0
1002
}
1002
{
1000
NOSEL
1070
     0
1002
}
1002
{
1000
BEHIND
1070
     0
1002
}
1002
{
1000
OTHER
1070
     0
1002
}
1002
{
1000
REACTOR
1002
}
  0
POINT
  5
1267
330
1F
100
AcDbEntity
  8
0
 60
     1
100
AcDbPoint
 10
-74.93067582222773
 20
-213.7941414149622
 30
0.0
1001
GENIUS_GENOENT_13
1002
{
1000
MYREF
1005
1267
1002
}
1002
{
1000
GRP
1005
0
1002
}
1001
GENIUS_GENOLIS_13
1002
{
1000
ENT
1005
11B0
1005
11AF
1005
11AE
1005
11AD
1002
}
1001
GENIUS_GENOBJ-N-CRS_13
1002
{
1000
OWNER
1000
GEN
1002
}
1001
GENIUS_GENODEF_13
1002
{
1000
HIER
1070
    10
1002
}
1002
{
1000
MANEDIT
1070
     0
1002
}
1002
{
1000
NOSEL
1070
     0
1002
}
1002
{
1000
BEHIND
1070
     0
1002
}
1002
{
1000
OTHER
1070
     0
1002
}
1002
{
1000
REACTOR
1002
}
  0
POINT
  5
1268
330
1F
100
AcDbEntity
  8
0
 60
     1
100
AcDbPoint
 10
-74.93067582222773
 20
-213.7941414149622
 30
0.0
1001
GENIUS_GENODEF_13
1002
{
1000
HIER
1070
    10
1002
}
1002
{
1000
MANEDIT
1070
     0
1002
}
1002
{
1000
NOSEL
1070
     0
1002
}
1002
{
1000
BEHIND
1070
     0
1002
}
1002
{
1000
OTHER
1070
     0
1002
}
1002
{
1000
REACTOR
1002
}
1001
GENIUS_GENOLIS_13
1002
{
1000
ENT
1005
11AC
1005
11AB
1005
11AA
1005
11A9
1002
}
1001
GENIUS_GENOBJ-N-CRS_13
1002
{
1000
OWNER
1000
GEN
1002
}
1001
GENIUS_GENOENT_13
1002
{
1000
MYREF
1005
1268
1002
}
1002
{
1000
GRP
1005
0
1002
}
  0
POINT
  5
1269
330
1F
100
AcDbEntity
  8
0
 60
     1
100
AcDbPoint
 10
-74.93067582222773
 20
-213.7941414149622
 30
0.0
1001
GENIUS_GENODEF_13
1002
{
1000
HIER
1070
    10
1002
}
1002
{
1000
MANEDIT
1070
     0
1002
}
1002
{
1000
NOSEL
1070
     0
1002
}
1002
{
1000
BEHIND
1070
     0
1002
}
1002
{
1000
OTHER
1070
     0
1002
}
1002
{
1000
REACTOR
1002
}
1001
GENIUS_GENOBJ-N-CRS_13
1002
{
1000
OWNER
1000
GEN
1002
}
1001
GENIUS_GENOENT_13
1002
{
1000
MYREF
1005
1269
1002
}
1002
{
1000
GRP
1005
0
1002
}
1001
GENIUS_GENOLIS_13
1002
{
1000
ENT
1005
11A8
1005
11A7
1005
11A6
1005
11A5
1002
}
  0
POINT
  5
126A
330
1F
100
AcDbEntity
  8
0
 60
     1
100
AcDbPoint
 10
-74.93067582222773
 20
-213.7941414149622
 30
0.0
1001
GENIUS_GENOENT_13
1002
{
1000
MYREF
1005
126A
1002
}
1002
{
1000
GRP
1005
0
1002
}
1001
GENIUS_GENODEF_13
1002
{
1000
HIER
1070
    10
1002
}
1002
{
1000
MANEDIT
1070
     0
1002
}
1002
{
1000
NOSEL
1070
     0
1002
}
1002
{
1000
BEHIND
1070
     0
1002
}
1002
{
1000
OTHER
1070
     0
1002
}
1002
{
1000
REACTOR
1002
}
1001
GENIUS_GENOLIS_13
1002
{
1000
ENT
1005
11A4
1005
11A3
1005
11A2
1005
11A1
1002
}
1001
GENIUS_GENOBJ-N-CRS_13
1002
{
1000
OWNER
1000
GEN
1002
}
  0
POINT
  5
126B
330
1F
100
AcDbEntity
  8
0
 60
     1
100
AcDbPoint
 10
-74.93067582222773
 20
-213.7941414149622
 30
0.0
1001
GENIUS_GENOLIS_13
1002
{
1000
ENT
1005
11A0
1005
119F
1005
119E
1005
119D
1002
}
1001
GENIUS_GENOBJ-N-CRS_13
1002
{
1000
OWNER
1000
GEN
1002
}
1001
GENIUS_GENOENT_13
1002
{
1000
MYREF
1005
126B
1002
}
1002
{
1000
GRP
1005
0
1002
}
1001
GENIUS_GENODEF_13
1002
{
1000
HIER
1070
    10
1002
}
1002
{
1000
MANEDIT
1070
     0
1002
}
1002
{
1000
NOSEL
1070
     0
1002
}
1002
{
1000
BEHIND
1070
     0
1002
}
1002
{
1000
OTHER
1070
     0
1002
}
1002
{
1000
REACTOR
1002
}
  0
POINT
  5
126C
330
1F
100
AcDbEntity
  8
0
 60
     1
100
AcDbPoint
 10
-74.93067582222773
 20
-213.7941414149622
 30
0.0
1001
GENIUS_GENOENT_13
1002
{
1000
MYREF
1005
126C
1002
}
1002
{
1000
GRP
1005
0
1002
}
1001
GENIUS_GENOBJ-N-CRS_13
1002
{
1000
OWNER
1000
GEN
1002
}
1001
GENIUS_GENOLIS_13
1002
{
1000
ENT
1005
118D
1005
118C
1005
118B
1005
118A
1002
}
1001
GENIUS_GENODEF_13
1002
{
1000
HIER
1070
    10
1002
}
1002
{
1000
MANEDIT
1070
     0
1002
}
1002
{
1000
NOSEL
1070
     0
1002
}
1002
{
1000
BEHIND
1070
     0
1002
}
1002
{
1000
OTHER
1070
     0
1002
}
1002
{
1000
REACTOR
1002
}
  0
POINT
  5
126D
330
1F
100
AcDbEntity
  8
0
 60
     1
100
AcDbPoint
 10
-74.93067582222773
 20
-213.7941414149622
 30
0.0
1001
GENIUS_GENOBJ-N-CRS_13
1002
{
1000
OWNER
1000
GEN
1002
}
1001
GENIUS_GENOENT_13
1002
{
1000
MYREF
1005
126D
1002
}
1002
{
1000
GRP
1005
0
1002
}
1001
GENIUS_GENOLIS_13
1002
{
1000
ENT
1005
1189
1005
1188
1005
1187
1005
1186
1002
}
1001
GENIUS_GENODEF_13
1002
{
1000
HIER
1070
    10
1002
}
1002
{
1000
MANEDIT
1070
     0
1002
}
1002
{
1000
NOSEL
1070
     0
1002
}
1002
{
1000
BEHIND
1070
     0
1002
}
1002
{
1000
OTHER
1070
     0
1002
}
1002
{
1000
REACTOR
1002
}
  0
POINT
  5
126E
330
1F
100
AcDbEntity
  8
0
 60
     1
100
AcDbPoint
 10
-74.93067582222773
 20
-213.7941414149622
 30
0.0
1001
GENIUS_GENODEF_13
1002
{
1000
HIER
1070
    10
1002
}
1002
{
1000
MANEDIT
1070
     0
1002
}
1002
{
1000
NOSEL
1070
     0
1002
}
1002
{
1000
BEHIND
1070
     0
1002
}
1002
{
1000
OTHER
1070
     0
1002
}
1002
{
1000
REACTOR
1002
}
1001
GENIUS_GENOENT_13
1002
{
1000
MYREF
1005
126E
1002
}
1002
{
1000
GRP
1005
0
1002
}
1001
GENIUS_GENOLIS_13
1002
{
1000
ENT
1005
1185
1005
1184
1005
1183
1005
1182
1002
}
1001
GENIUS_GENOBJ-N-CRS_13
1002
{
1000
OWNER
1000
GEN
1002
}
  0
POINT
  5
126F
330
1F
100
AcDbEntity
  8
0
 60
     1
100
AcDbPoint
 10
-74.93067582222773
 20
-213.7941414149622
 30
0.0
1001
GENIUS_GENOENT_13
1002
{
1000
MYREF
1005
126F
1002
}
1002
{
1000
GRP
1005
0
1002
}
1001
GENIUS_GENODEF_13
1002
{
1000
HIER
1070
    10
1002
}
1002
{
1000
MANEDIT
1070
     0
1002
}
1002
{
1000
NOSEL
1070
     0
1002
}
1002
{
1000
BEHIND
1070
     0
1002
}
1002
{
1000
OTHER
1070
     0
1002
}
1002
{
1000
REACTOR
1002
}
1001
GENIUS_GENOLIS_13
1002
{
1000
ENT
1005
1181
1005
1180
1005
117F
1005
117E
1002
}
1001
GENIUS_GENOBJ-N-CRS_13
1002
{
1000
OWNER
1000
GEN
1002
}
  0
LINE
  5
1409
330
1F
100
AcDbEntity
  8
AM_VIS
100
AcDbLine
 10
393.0651682939888
 20
210.8413594127039
 30
0.0
 11
384.4151682939888
 21
210.8413594127039
 31
0.0
  0
LINE
  5
140A
330
1F
100
AcDbEntity
  8
AM_VIS
100
AcDbLine
 10
393.0651682939889
 20
245.8413594127039
 30
0.0
 11
393.0651682939889
 21
210.8413594127039
 31
0.0
  0
LINE
  5
140B
330
1F
100
AcDbEntity
  8
AM_VIS
100
AcDbLine
 10
384.4151682939888
 20
210.8481775945221
 30
0.0
 11
384.4151682939888
 21
210.8413594127039
 31
0.0
  0
LINE
  5
140C
330
1F
100
AcDbEntity
  8
AM_VIS
100
AcDbLine
 10
379.4151682939888
 20
210.8481775945221
 30
0.0
 11
384.4151682939888
 21
210.8481775945221
 31
0.0
  0
LINE
  5
140D
330
1F
100
AcDbEntity
  8
AM_VIS
100
AcDbLine
 10
379.4151682939888
 20
210.8413594127039
 30
0.0
 11
379.4151682939888
 21
210.8481775945221
 31
0.0
  0
LINE
  5
140E
330
1F
100
AcDbEntity
  8
AM_VIS
100
AcDbLine
 10
370.7651682939888
 20
230.8413594127039
 30
0.0
 11
370.7651682939888
 21
245.8413594127039
 31
0.0
  0
LINE
  5
1414
330
1F
100
AcDbEntity
  8
AM_VIS
100
AcDbLine
 10
370.7651682939888
 20
210.8413594127039
 30
0.0
 11
370.7651682939888
 21
225.8413594127039
 31
0.0
  0
LINE
  5
1415
330
1F
100
AcDbEntity
  8
AM_VIS
100
AcDbLine
 10
379.4151682939888
 20
210.8413594127039
 30
0.0
 11
370.7651682939888
 21
210.8413594127039
 31
0.0
  0
LINE
  5
1417
330
1F
100
AcDbEntity
  8
AM_VIS
100
AcDbLine
 10
392.8651682939888
 20
220.7108834020584
 30
0.0
 11
392.8651682939888
 21
212.1413594127039
 31
0.0
  0
ARC
  5
1419
330
1F
100
AcDbEntity
  8
AM_VIS
100
AcDbCircle
 10
388.9151682939888
 20
214.3413594127039
 30
0.0
 40
3.1
100
AcDbArc
 50
104.592550602032
 51
79.05118038444441
  0
ARC
  5
141A
330
1F
100
AcDbEntity
  8
AM_VIS
100
AcDbCircle
 10
391.8651682939888
 20
212.1413594127039
 30
0.0
 40
0.9999999999999998
100
AcDbArc
 50
270.0
 51
0.0
  0
LINE
  5
141C
330
1F
100
AcDbEntity
  8
AM_VIS
100
AcDbLine
 10
388.5661682939888
 20
215.9413594127039
 30
0.0
 11
389.2641682939887
 21
215.9413594127039
 31
0.0
  0
LINE
  5
141D
330
1F
100
AcDbEntity
  8
AM_VIS
100
AcDbLine
 10
389.2641682939887
 20
215.9413594127039
 30
0.0
 11
389.2641682939887
 21
214.9706217592434
 31
0.0
  0
LINE
  5
141F
330
1F
100
AcDbEntity
  8
AM_VIS
100
AcDbLine
 10
389.2641682939887
 20
212.7413594127039
 30
0.0
 11
388.5661682939888
 21
212.7413594127039
 31
0.0
  0
LINE
  5
1421
330
1F
100
AcDbEntity
  8
AM_VIS
100
AcDbLine
 10
388.5661682939888
 20
212.7413594127039
 30
0.0
 11
388.5661682939888
 21
213.7120970661645
 31
0.0
  0
LINE
  5
1422
330
1F
100
AcDbEntity
  8
AM_VIS
100
AcDbLine
 10
389.2641682939887
 20
213.992359412704
 30
0.0
 11
389.2641682939887
 21
214.690359412704
 31
0.0
  0
LINE
  5
1423
330
1F
100
AcDbEntity
  8
AM_VIS
100
AcDbLine
 10
390.5151682939888
 20
214.690359412704
 30
0.0
 11
390.5151682939887
 21
213.992359412704
 31
0.0
  0
LINE
  5
1428
330
1F
100
AcDbEntity
  8
AM_VIS
100
AcDbLine
 10
388.5661682939888
 20
214.690359412704
 30
0.0
 11
388.5661682939888
 21
213.992359412704
 31
0.0
  0
LINE
  5
1429
330
1F
100
AcDbEntity
  8
AM_VIS
100
AcDbLine
 10
387.3151682939888
 20
213.9923594127041
 30
0.0
 11
387.3151682939889
 21
214.690359412704
 31
0.0
  0
LINE
  5
142C
330
1F
100
AcDbEntity
  8
AM_VIS
100
AcDbLine
 10
390.5151682939888
 20
213.992359412704
 30
0.0
 11
389.5444306405282
 21
213.992359412704
 31
0.0
  0
LINE
  5
142D
330
1F
100
AcDbEntity
  8
AM_VIS
100
AcDbLine
 10
389.2641682939887
 20
213.992359412704
 30
0.0
 11
388.5661682939888
 21
213.992359412704
 31
0.0
  0
LINE
  5
142E
330
1F
100
AcDbEntity
  8
AM_VIS
100
AcDbLine
 10
387.3151682939888
 20
214.690359412704
 30
0.0
 11
388.2859059474492
 21
214.690359412704
 31
0.0
  0
LINE
  5
142F
330
1F
100
AcDbEntity
  8
AM_VIS
100
AcDbLine
 10
388.5661682939888
 20
214.690359412704
 30
0.0
 11
389.2641682939889
 21
214.690359412704
 31
0.0
  0
LINE
  5
1430
330
1F
100
AcDbEntity
  8
AM_VIS
100
AcDbLine
 10
388.5661682939888
 20
214.9706217592435
 30
0.0
 11
388.5661682939888
 21
215.9413594127039
 31
0.0
  0
LINE
  5
1431
330
1F
100
AcDbEntity
  8
AM_VIS
100
AcDbLine
 10
389.5444306405284
 20
214.690359412704
 30
0.0
 11
390.5151682939888
 21
214.690359412704
 31
0.0
  0
LINE
  5
1432
330
1F
100
AcDbEntity
  8
AM_VIS
100
AcDbLine
 10
388.2859059474492
 20
213.9923594127041
 30
0.0
 11
387.3151682939888
 21
213.9923594127041
 31
0.0
  0
LINE
  5
1433
330
1F
100
AcDbEntity
  8
AM_VIS
100
AcDbLine
 10
389.2641682939887
 20
213.7120970661643
 30
0.0
 11
389.2641682939887
 21
212.7413594127039
 31
0.0
  0
LINE
  5
1434
330
1F
100
AcDbEntity
  8
AM_VIS
100
AcDbLine
 10
388.5661682939888
 20
214.690359412704
 30
0.0
 11
388.2859059474492
 21
214.690359412704
 31
0.0
  0
LINE
  5
1436
330
1F
100
AcDbEntity
  8
AM_VIS
100
AcDbLine
 10
389.2641682939887
 20
214.690359412704
 30
0.0
 11
389.2641682939887
 21
214.9706217592434
 31
0.0
  0
LINE
  5
1438
330
1F
100
AcDbEntity
  8
AM_VIS
100
AcDbLine
 10
388.5661682939888
 20
213.992359412704
 30
0.0
 11
388.5661682939888
 21
213.7120970661645
 31
0.0
  0
LINE
  5
143A
330
1F
100
AcDbEntity
  8
AM_VIS
100
AcDbLine
 10
389.2641682939886
 20
213.992359412704
 30
0.0
 11
389.5444306405282
 21
213.992359412704
 31
0.0
  0
LINE
  5
143C
330
1F
100
AcDbEntity
  8
AM_VIS
100
AcDbLine
 10
388.5661682939888
 20
214.9706217592436
 30
0.0
 11
388.5661682939888
 21
214.690359412704
 31
0.0
  0
LINE
  5
143F
330
1F
100
AcDbEntity
  8
AM_VIS
100
AcDbLine
 10
389.5444306405284
 20
214.690359412704
 30
0.0
 11
389.264168293989
 21
214.690359412704
 31
0.0
  0
LINE
  5
1442
330
1F
100
AcDbEntity
  8
AM_VIS
100
AcDbLine
 10
388.2859059474492
 20
213.9923594127041
 30
0.0
 11
388.5661682939888
 21
213.9923594127041
 31
0.0
  0
LINE
  5
1445
330
1F
100
AcDbEntity
  8
AM_VIS
100
AcDbLine
 10
389.2641682939887
 20
213.7120970661643
 30
0.0
 11
389.2641682939887
 21
213.992359412704
 31
0.0
  0
CIRCLE
  5
1448
330
1F
100
AcDbEntity
  8
AM_VIS
100
AcDbCircle
 10
388.9151682939888
 20
214.3413594127039
 30
0.0
 40
2.75
  0
LINE
  5
1449
330
1F
100
AcDbEntity
  8
AM_VIS
100
AcDbLine
 10
370.9151682939887
 20
221.3413594127039
 30
0.0
 11
370.9151682939887
 21
245.8413594127039
 31
0.0
  0
LINE
  5
144A
330
1F
100
AcDbEntity
  8
AM_VIS
100
AcDbLine
 10
392.9151682939888
 20
245.8413594127039
 30
0.0
 11
392.9151682939888
 21
221.3413594127039
 31
0.0
  0
LINE
  5
144B
330
1F
100
AcDbEntity
  8
AM_VIS
100
AcDbLine
 10
388.9151682939887
 20
217.3413594127039
 30
0.0
 11
374.9151682939887
 21
217.3413594127039
 31
0.0
  0
ARC
  5
144C
330
1F
100
AcDbEntity
  8
AM_VIS
100
AcDbCircle
 10
374.9151682939887
 20
221.3413594127039
 30
0.0
 40
3.999999999999999
100
AcDbArc
 50
180.0
 51
270.0
  0
ARC
  5
144D
330
1F
100
AcDbEntity
  8
AM_VIS
100
AcDbCircle
 10
388.9151682939887
 20
221.3413594127039
 30
0.0
 40
3.999999999999999
100
AcDbArc
 50
270.0
 51
0.0
  0
LINE
  5
144E
330
1F
100
AcDbEntity
  8
AM_VIS
100
AcDbLine
 10
393.0651682939888
 20
245.3413594127038
 30
0.0
 11
393.0651682939888
 21
211.3413594127039
 31
0.0
  0
LINE
  5
144F
330
1F
100
AcDbEntity
  8
AM_VIS
100
AcDbLine
 10
392.5651682939887
 20
210.8413594127039
 30
0.0
 11
371.2651682939887
 21
210.8413594127039
 31
0.0
  0
LINE
  5
1450
330
1F
100
AcDbEntity
  8
AM_VIS
100
AcDbLine
 10
370.7651682939887
 20
211.3413594127039
 30
0.0
 11
370.7651682939887
 21
245.3413594127038
 31
0.0
  0
LINE
  5
1451
330
1F
100
AcDbEntity
  8
AM_7
100
AcDbLine
 10
381.9151682939888
 20
228.3413594127039
 30
0.0
 11
381.9151682939888
 21
228.3413594127039
 31
0.0
  0
LINE
  5
1452
330
1F
100
AcDbEntity
  8
AM_7
100
AcDbLine
 10
381.9151682939888
 20
228.3413594127039
 30
0.0
 11
381.9151682939888
 21
228.3413594127039
 31
0.0
  0
LINE
  5
1453
330
1F
100
AcDbEntity
  8
AM_7
100
AcDbLine
 10
368.9151682939888
 20
228.3413594127039
 30
0.0
 11
381.9151682939888
 21
228.3413594127039
 31
0.0
  0
LINE
  5
1454
330
1F
100
AcDbEntity
  8
AM_7
100
AcDbLine
 10
381.9151682939888
 20
228.3413594127039
 30
0.0
 11
394.9151682939888
 21
228.3413594127039
 31
0.0
  0
LINE
  5
1455
330
1F
100
AcDbEntity
  8
AM_7
100
AcDbLine
 10
381.9151682939888
 20
215.3413594127039
 30
0.0
 11
381.9151682939888
 21
228.3413594127039
 31
0.0
  0
LINE
  5
1456
330
1F
100
AcDbEntity
  8
AM_7
100
AcDbLine
 10
381.9151682939888
 20
228.3413594127039
 30
0.0
 11
381.9151682939888
 21
241.3413594127039
 31
0.0
  0
LINE
  5
1457
330
1F
100
AcDbEntity
  8
AM_7
100
AcDbLine
 10
381.9151682939888
 20
268.8413594127039
 30
0.0
 11
381.9151682939888
 21
268.8413594127039
 31
0.0
  0
LINE
  5
1458
330
1F
100
AcDbEntity
  8
AM_7
100
AcDbLine
 10
381.9151682939888
 20
268.8413594127039
 30
0.0
 11
381.9151682939888
 21
268.8413594127039
 31
0.0
  0
LINE
  5
1459
330
1F
100
AcDbEntity
  8
AM_7
100
AcDbLine
 10
369.9151682939888
 20
268.8413594127039
 30
0.0
 11
381.9151682939888
 21
268.8413594127039
 31
0.0
  0
LINE
  5
145A
330
1F
100
AcDbEntity
  8
AM_7
100
AcDbLine
 10
381.9151682939888
 20
268.8413594127039
 30
0.0
 11
393.9151682939888
 21
268.8413594127039
 31
0.0
  0
LINE
  5
145B
330
1F
100
AcDbEntity
  8
AM_7
100
AcDbLine
 10
381.9151682939888
 20
256.8413594127039
 30
0.0
 11
381.9151682939888
 21
268.8413594127039
 31
0.0
  0
LINE
  5
145C
330
1F
100
AcDbEntity
  8
AM_7
100
AcDbLine
 10
381.9151682939888
 20
268.8413594127039
 30
0.0
 11
381.9151682939888
 21
280.8413594127038
 31
0.0
  0
LINE
  5
145D
330
1F
100
AcDbEntity
  8
AM_VIS
100
AcDbLine
 10
370.9151682939889
 20
221.3413594127039
 30
0.0
 11
370.9151682939889
 21
245.8413594127039
 31
0.0
  0
LINE
  5
145E
330
1F
100
AcDbEntity
  8
AM_VIS
100
AcDbLine
 10
370.7651682939888
 20
245.8413594127039
 30
0.0
 11
393.0651682939889
 21
245.8413594127039
 31
0.0
  0
LINE
  5
145F
330
1F
100
AcDbEntity
  8
AM_VIS
100
AcDbLine
 10
392.9151682939889
 20
245.8413594127039
 30
0.0
 11
392.9151682939889
 21
221.3413594127039
 31
0.0
  0
LINE
  5
1460
330
1F
100
AcDbEntity
  8
AM_VIS
100
AcDbLine
 10
388.9151682939889
 20
217.3413594127039
 30
0.0
 11
374.9151682939889
 21
217.3413594127039
 31
0.0
  0
ARC
  5
1461
330
1F
100
AcDbEntity
  8
AM_VIS
100
AcDbCircle
 10
374.9151682939889
 20
221.3413594127039
 30
0.0
 40
3.999999999999999
100
AcDbArc
 50
180.0
 51
270.0
  0
ARC
  5
1462
330
1F
100
AcDbEntity
  8
AM_VIS
100
AcDbCircle
 10
388.9151682939889
 20
221.3413594127039
 30
0.0
 40
3.999999999999999
100
AcDbArc
 50
270.0
 51
0.0
  0
LINE
  5
1463
330
1F
100
AcDbEntity
  8
AM_VIS
100
AcDbLine
 10
391.059185256971
 20
225.7844991650447
 30
0.0
 11
391.3253983135123
 21
224.9731027659686
 31
0.0
  0
LINE
  5
1464
330
1F
100
AcDbEntity
  8
AM_VIS
100
AcDbLine
 10
391.0591852548027
 20
230.8982196611153
 30
0.0
 11
391.3253983163447
 21
231.709616058552
 31
0.0
  0
LINE
  5
1465
330
1F
100
AcDbEntity
  8
AM_VIS
100
AcDbLine
 10
388.7014827023622
 20
234.9818802637404
 30
0.0
 11
389.5372791274739
 21
234.806729346865
 31
0.0
  0
LINE
  5
1466
330
1F
100
AcDbEntity
  8
AM_VIS
100
AcDbLine
 10
383.7032874872738
 20
238.1749859940482
 30
0.0
 11
384.2728708394286
 21
237.5387405124439
 31
0.0
  0
LINE
  5
1467
330
1F
100
AcDbEntity
  8
AM_VIS
100
AcDbLine
 10
383.7032874850939
 20
218.5077328333647
 30
0.0
 11
384.2728708411599
 21
219.143978311466
 31
0.0
  0
LINE
  5
1468
330
1F
100
AcDbEntity
  8
AM_VIS
100
AcDbLine
 10
388.7014827019308
 20
221.7008385639161
 30
0.0
 11
389.5372791281205
 21
221.8759894756526
 31
0.0
  0
LINE
  5
1469
330
1F
100
AcDbEntity
  8
AM_VIS
100
AcDbLine
 10
379.5574657468178
 20
237.5387405139418
 30
0.0
 11
380.1270491028838
 21
238.1749859920431
 31
0.0
  0
LINE
  5
146A
330
1F
100
AcDbEntity
  8
AM_VIS
100
AcDbLine
 10
374.2930574598572
 20
234.8067293497553
 30
0.0
 11
375.1288538860471
 21
234.9818802614918
 31
0.0
  0
LINE
  5
146B
330
1F
100
AcDbEntity
  8
AM_VIS
100
AcDbLine
 10
374.2930574605038
 20
221.8759894785428
 30
0.0
 11
375.1288538856155
 21
221.7008385616676
 31
0.0
  0
LINE
  5
146C
330
1F
100
AcDbEntity
  8
AM_VIS
100
AcDbLine
 10
379.5574657485492
 20
219.143978312964
 30
0.0
 11
380.127049100704
 21
218.5077328313596
 31
0.0
  0
LINE
  5
146D
330
1F
100
AcDbEntity
  8
AM_VIS
100
AcDbLine
 10
372.5049382693986
 20
231.709616057882
 30
0.0
 11
372.7711513384444
 21
230.8982196629054
 31
0.0
  0
LINE
  5
146E
330
1F
100
AcDbEntity
  8
AM_VIS
100
AcDbLine
 10
372.5049382665724
 20
224.9731027684111
 30
0.0
 11
372.7711513406074
 21
225.7844991617519
 31
0.0
  0
ARC
  5
146F
330
1F
100
AcDbEntity
  8
AM_VIS
100
AcDbCircle
 10
381.9151682939888
 20
228.3413594127039
 30
0.0
 40
10.0
100
AcDbArc
 50
199.671289216708
 51
220.3287107832895
  0
ARC
  5
1470
330
1F
100
AcDbEntity
  8
AM_VIS
100
AcDbCircle
 10
381.9151682939888
 20
228.3413594127039
 30
0.0
 40
10.0
100
AcDbArc
 50
139.6712892167105
 51
160.3287107832935
  0
ARC
  5
1471
330
1F
100
AcDbEntity
  8
AM_VIS
100
AcDbCircle
 10
381.9151682939888
 20
228.3413594127039
 30
0.0
 40
10.0
100
AcDbArc
 50
79.67128921671033
 51
100.3287107832896
  0
ARC
  5
1472
330
1F
100
AcDbEntity
  8
AM_VIS
100
AcDbCircle
 10
381.9151682939888
 20
228.3413594127039
 30
0.0
 40
10.0
100
AcDbArc
 50
259.6712892167104
 51
280.3287107832897
  0
ARC
  5
1473
330
1F
100
AcDbEntity
  8
AM_VIS
100
AcDbCircle
 10
381.9151682939888
 20
228.3413594127039
 30
0.0
 40
10.0
100
AcDbArc
 50
19.67128921670797
 51
40.32871078329287
  0
ARC
  5
1474
330
1F
100
AcDbEntity
  8
AM_VIS
100
AcDbCircle
 10
381.9151682939888
 20
228.3413594127039
 30
0.0
 40
10.0
100
AcDbArc
 50
319.6712892167105
 51
340.328710783292
  0
ARC
  5
1475
330
1F
100
AcDbEntity
  8
AM_VIS
100
AcDbCircle
 10
381.9151682939888
 20
228.3413594127039
 30
0.0
 40
10.0
100
AcDbArc
 50
100.3287107832896
 51
139.6712892167105
  0
ARC
  5
1476
330
1F
100
AcDbEntity
  8
AM_VIS
100
AcDbCircle
 10
381.9151682939888
 20
228.3413594127039
 30
0.0
 40
10.0
100
AcDbArc
 50
40.32871078329287
 51
79.67128921671033
  0
ARC
  5
1477
330
1F
100
AcDbEntity
  8
AM_VIS
100
AcDbCircle
 10
381.9151682939888
 20
228.3413594127039
 30
0.0
 40
10.0
100
AcDbArc
 50
340.328710783292
 51
19.67128921670797
  0
ARC
  5
1478
330
1F
100
AcDbEntity
  8
AM_VIS
100
AcDbCircle
 10
381.9151682939888
 20
228.3413594127039
 30
0.0
 40
10.0
100
AcDbArc
 50
280.3287107832897
 51
319.6712892167105
  0
ARC
  5
1479
330
1F
100
AcDbEntity
  8
AM_VIS
100
AcDbCircle
 10
381.9151682939888
 20
228.3413594127039
 30
0.0
 40
10.0
100
AcDbArc
 50
220.3287107832895
 51
259.6712892167104
  0
ARC
  5
147A
330
1F
100
AcDbEntity
  8
AM_VIS
100
AcDbCircle
 10
381.9151682939888
 20
228.3413594127039
 30
0.0
 40
10.0
100
AcDbArc
 50
160.3287107832935
 51
199.671289216708
  0
ARC
  5
147B
330
1F
100
AcDbEntity
  8
AM_VIS
100
AcDbCircle
 10
381.9151682939888
 20
228.3413594127039
 30
0.0
 40
9.5
100
AcDbArc
 50
255.6009953934884
 51
284.3990046065116
  0
ARC
  5
147C
330
1F
100
AcDbEntity
  8
AM_VIS
100
AcDbCircle
 10
372.7651682939889
 20
212.4930945234486
 30
0.0
 40
9.5
100
AcDbArc
 50
44.39900460651065
 51
75.60099539348839
  0
ARC
  5
147D
330
1F
100
AcDbEntity
  8
AM_VIS
100
AcDbCircle
 10
381.9151682939888
 20
228.3413594127039
 30
0.0
 40
9.5
100
AcDbArc
 50
195.6009953934903
 51
224.3990046065141
  0
ARC
  5
147E
330
1F
100
AcDbEntity
  8
AM_VIS
100
AcDbCircle
 10
363.6151682939888
 20
228.3413594127038
 30
0.0
 40
9.5
100
AcDbArc
 50
344.3990046065096
 51
15.60099539349032
  0
ARC
  5
147F
330
1F
100
AcDbEntity
  8
AM_VIS
100
AcDbCircle
 10
381.9151682939888
 20
228.3413594127039
 30
0.0
 40
9.5
100
AcDbArc
 50
135.6009953934859
 51
164.3990046065121
  0
ARC
  5
1480
330
1F
100
AcDbEntity
  8
AM_VIS
100
AcDbCircle
 10
372.7651682939887
 20
244.1896243019591
 30
0.0
 40
9.500000000000003
100
AcDbArc
 50
284.3990046065116
 51
315.6009953934859
  0
ARC
  5
1481
330
1F
100
AcDbEntity
  8
AM_VIS
100
AcDbCircle
 10
381.9151682939888
 20
228.3413594127039
 30
0.0
 40
9.5
100
AcDbArc
 50
75.60099539348839
 51
104.3990046065116
  0
ARC
  5
1482
330
1F
100
AcDbEntity
  8
AM_VIS
100
AcDbCircle
 10
391.0651682939888
 20
244.1896243019592
 30
0.0
 40
9.5
100
AcDbArc
 50
224.3990046065141
 51
255.6009953934884
  0
ARC
  5
1483
330
1F
100
AcDbEntity
  8
AM_VIS
100
AcDbCircle
 10
381.9151682939888
 20
228.3413594127039
 30
0.0
 40
9.5
100
AcDbArc
 50
15.60099539348787
 51
44.39900460651409
  0
ARC
  5
1484
330
1F
100
AcDbEntity
  8
AM_VIS
100
AcDbCircle
 10
400.2151682939889
 20
228.3413594127039
 30
0.0
 40
9.5
100
AcDbArc
 50
164.3990046065096
 51
195.6009953934903
  0
ARC
  5
1485
330
1F
100
AcDbEntity
  8
AM_VIS
100
AcDbCircle
 10
381.9151682939888
 20
228.3413594127039
 30
0.0
 40
9.5
100
AcDbArc
 50
315.6009953934894
 51
344.3990046065096
  0
ARC
  5
1486
330
1F
100
AcDbEntity
  8
AM_VIS
100
AcDbCircle
 10
391.065168293989
 20
212.4930945234488
 30
0.0
 40
9.5
100
AcDbArc
 50
104.3990046065116
 51
135.6009953934893
  0
CIRCLE
  5
1487
330
1F
100
AcDbEntity
  8
AM_VIS
100
AcDbCircle
 10
381.9151682939888
 20
228.3413594127039
 30
0.0
 40
1.25
  0
LINE
  5
1488
330
1F
100
AcDbEntity
  8
AM_VIS
100
AcDbLine
 10
392.4151682939888
 20
245.8413594127039
 30
0.0
 11
392.4151682939888
 21
247.3413594127039
 31
0.0
  0
LINE
  5
1489
330
1F
100
AcDbEntity
  8
AM_VIS
100
AcDbLine
 10
388.9151682939888
 20
247.3413594127039
 30
0.0
 11
374.9151682939888
 21
247.3413594127039
 31
0.0
  0
LINE
  5
148A
330
1F
100
AcDbEntity
  8
AM_VIS
100
AcDbLine
 10
371.4151682939888
 20
247.3413594127039
 30
0.0
 11
371.4151682939888
 21
245.8413594127039
 31
0.0
  0
LINE
  5
148B
330
1F
100
AcDbEntity
  8
AM_VIS
100
AcDbLine
 10
388.9151682939888
 20
247.3413594127039
 30
0.0
 11
392.4151682939888
 21
247.3413594127039
 31
0.0
  0
LINE
  5
148C
330
1F
100
AcDbEntity
  8
AM_VIS
100
AcDbLine
 10
371.4151682939888
 20
247.3413594127039
 30
0.0
 11
374.9151682939888
 21
247.3413594127039
 31
0.0
  0
LINE
  5
148D
330
1F
100
AcDbEntity
  8
AM_VIS
100
AcDbLine
 10
374.9151682939888
 20
247.3413594127039
 30
0.0
 11
388.9151682939888
 21
247.3413594127039
 31
0.0
  0
LINE
  5
148E
330
1F
100
AcDbEntity
  8
AM_VIS
100
AcDbLine
 10
371.4151682939888
 20
272.3413594127038
 30
0.0
 11
371.4151682939888
 21
247.3413594127039
 31
0.0
  0
LINE
  5
148F
330
1F
100
AcDbEntity
  8
AM_VIS
100
AcDbLine
 10
388.9151682939888
 20
275.8413594127039
 30
0.0
 11
387.5720225434811
 21
275.8413594127039
 31
0.0
  0
LINE
  5
1490
330
1F
100
AcDbEntity
  8
AM_VIS
100
AcDbLine
 10
376.2583140444964
 20
275.8413594127039
 30
0.0
 11
374.9151682939888
 21
275.8413594127039
 31
0.0
  0
LINE
  5
1491
330
1F
100
AcDbEntity
  8
AM_VIS
100
AcDbLine
 10
392.4151682939888
 20
247.3413594127039
 30
0.0
 11
392.4151682939888
 21
272.3413594127038
 31
0.0
  0
ARC
  5
1492
330
1F
100
AcDbEntity
  8
AM_VIS
100
AcDbCircle
 10
374.9151682939888
 20
272.3413594127038
 30
0.0
 40
3.5
100
AcDbArc
 50
90.0
 51
180.0
  0
ARC
  5
1493
330
1F
100
AcDbEntity
  8
AM_VIS
100
AcDbCircle
 10
381.9151682939888
 20
268.8413594127039
 30
0.0
 40
9.0
100
AcDbArc
 50
302.7339555492633
 51
357.2660444507337
  0
ARC
  5
1494
330
1F
100
AcDbEntity
  8
AM_VIS
100
AcDbCircle
 10
381.9151682939888
 20
268.8413594127039
 30
0.0
 40
9.0
100
AcDbArc
 50
242.7339555492677
 51
297.2660444507322
  0
ARC
  5
1495
330
1F
100
AcDbEntity
  8
AM_VIS
100
AcDbCircle
 10
381.9151682939888
 20
268.8413594127039
 30
0.0
 40
9.0
100
AcDbArc
 50
182.7339555492696
 51
237.2660444507285
  0
ARC
  5
1496
330
1F
100
AcDbEntity
  8
AM_VIS
100
AcDbCircle
 10
381.9151682939888
 20
268.8413594127039
 30
0.0
 40
9.0
100
AcDbArc
 50
122.7339555492714
 51
177.2660444507304
  0
ARC
  5
1497
330
1F
100
AcDbEntity
  8
AM_VIS
100
AcDbCircle
 10
381.9151682939888
 20
268.8413594127039
 30
0.0
 40
9.0
100
AcDbArc
 50
62.73395554926779
 51
117.2660444507322
  0
ARC
  5
1498
330
1F
100
AcDbEntity
  8
AM_VIS
100
AcDbCircle
 10
381.9151682939888
 20
268.8413594127039
 30
0.0
 40
9.0
100
AcDbArc
 50
2.733955549264717
 51
57.26604445073669
  0
LINE
  5
1499
330
1F
100
AcDbEntity
  8
AM_VIS
100
AcDbLine
 10
374.9151682939888
 20
247.3413594127039
 30
0.0
 11
371.4151682939888
 21
247.3413594127039
 31
0.0
  0
LINE
  5
149A
330
1F
100
AcDbEntity
  8
AM_VIS
100
AcDbLine
 10
392.4151682939888
 20
247.3413594127039
 30
0.0
 11
388.9151682939888
 21
247.3413594127039
 31
0.0
  0
ARC
  5
149B
330
1F
100
AcDbEntity
  8
AM_VIS
100
AcDbCircle
 10
388.9151682939888
 20
272.3413594127038
 30
0.0
 40
3.5
100
AcDbArc
 50
0.0
 51
90.0
  0
LINE
  5
149C
330
1F
100
AcDbEntity
  8
AM_VIS
100
AcDbLine
 10
377.2963661404716
 20
276.8413594127038
 30
0.0
 11
375.861965063713
 21
274.3569038693266
 31
0.0
  0
LINE
  5
149D
330
1F
100
AcDbEntity
  8
AM_VIS
100
AcDbLine
 10
380.1651682939886
 20
276.8413594127039
 30
0.0
 11
377.2963661404716
 21
276.8413594127039
 31
0.0
  0
LINE
  5
149E
330
1F
100
AcDbEntity
  8
AM_VIS
100
AcDbLine
 10
380.6651682939886
 20
276.3413594127038
 30
0.0
 11
380.1651682939886
 21
276.8413594127038
 31
0.0
  0
LINE
  5
149F
330
1F
100
AcDbEntity
  8
AM_VIS
100
AcDbLine
 10
383.1651682939886
 20
276.3413594127038
 30
0.0
 11
380.6651682939886
 21
276.3413594127038
 31
0.0
  0
LINE
  5
14A0
330
1F
100
AcDbEntity
  8
AM_VIS
100
AcDbLine
 10
383.6651682939886
 20
276.8413594127038
 30
0.0
 11
383.1651682939886
 21
276.3413594127038
 31
0.0
  0
LINE
  5
14A1
330
1F
100
AcDbEntity
  8
AM_VIS
100
AcDbLine
 10
386.5339704475056
 20
276.8413594127039
 30
0.0
 11
383.6651682939886
 21
276.8413594127039
 31
0.0
  0
LINE
  5
14A2
330
1F
100
AcDbEntity
  8
AM_VIS
100
AcDbLine
 10
387.9683715242641
 20
274.3569038693266
 30
0.0
 11
386.5339704475056
 21
276.8413594127039
 31
0.0
  0
LINE
  5
14A3
330
1F
100
AcDbEntity
  8
AM_VIS
100
AcDbLine
 10
387.7853588223719
 20
273.6738911674343
 30
0.0
 11
387.9683715242642
 21
274.3569038693266
 31
0.0
  0
LINE
  5
14A4
330
1F
100
AcDbEntity
  8
AM_VIS
100
AcDbLine
 10
389.0353588223719
 20
271.5088276579733
 30
0.0
 11
387.7853588223719
 21
273.6738911674343
 31
0.0
  0
LINE
  5
14A5
330
1F
100
AcDbEntity
  8
AM_VIS
100
AcDbLine
 10
389.7183715242642
 20
271.3258149560811
 30
0.0
 11
389.0353588223719
 21
271.5088276579733
 31
0.0
  0
LINE
  5
14A6
330
1F
100
AcDbEntity
  8
AM_VIS
100
AcDbLine
 10
391.1527726010227
 20
268.8413594127037
 30
0.0
 11
389.7183715242641
 21
271.3258149560811
 31
0.0
  0
LINE
  5
14A7
330
1F
100
AcDbEntity
  8
AM_VIS
100
AcDbLine
 10
389.7183715242642
 20
266.3569038693266
 30
0.0
 11
391.1527726010227
 21
268.8413594127037
 31
0.0
  0
LINE
  5
14A8
330
1F
100
AcDbEntity
  8
AM_VIS
100
AcDbLine
 10
389.0353588223719
 20
266.1738911674343
 30
0.0
 11
389.7183715242642
 21
266.3569038693266
 31
0.0
  0
LINE
  5
14A9
330
1F
100
AcDbEntity
  8
AM_VIS
100
AcDbLine
 10
387.7853588223719
 20
264.0088276579732
 30
0.0
 11
389.0353588223719
 21
266.1738911674343
 31
0.0
  0
LINE
  5
14AA
330
1F
100
AcDbEntity
  8
AM_VIS
100
AcDbLine
 10
387.9683715242642
 20
263.325814956081
 30
0.0
 11
387.7853588223719
 21
264.0088276579732
 31
0.0
  0
LINE
  5
14AB
330
1F
100
AcDbEntity
  8
AM_VIS
100
AcDbLine
 10
386.5339704475056
 20
260.8413594127037
 30
0.0
 11
387.9683715242642
 21
263.325814956081
 31
0.0
  0
LINE
  5
14AC
330
1F
100
AcDbEntity
  8
AM_VIS
100
AcDbLine
 10
383.6651682939886
 20
260.8413594127038
 30
0.0
 11
386.5339704475057
 21
260.8413594127038
 31
0.0
  0
LINE
  5
14AD
330
1F
100
AcDbEntity
  8
AM_VIS
100
AcDbLine
 10
383.1651682939886
 20
261.3413594127038
 30
0.0
 11
383.6651682939886
 21
260.8413594127038
 31
0.0
  0
LINE
  5
14AE
330
1F
100
AcDbEntity
  8
AM_VIS
100
AcDbLine
 10
380.6651682939886
 20
261.3413594127038
 30
0.0
 11
383.1651682939886
 21
261.3413594127038
 31
0.0
  0
LINE
  5
14AF
330
1F
100
AcDbEntity
  8
AM_VIS
100
AcDbLine
 10
380.1651682939886
 20
260.8413594127038
 30
0.0
 11
380.6651682939886
 21
261.3413594127038
 31
0.0
  0
LINE
  5
14B0
330
1F
100
AcDbEntity
  8
AM_VIS
100
AcDbLine
 10
377.2963661404716
 20
260.8413594127038
 30
0.0
 11
380.1651682939886
 21
260.8413594127038
 31
0.0
  0
LINE
  5
14B1
330
1F
100
AcDbEntity
  8
AM_VIS
100
AcDbLine
 10
375.8619650637131
 20
263.325814956081
 30
0.0
 11
377.2963661404716
 21
260.8413594127038
 31
0.0
  0
LINE
  5
14B2
330
1F
100
AcDbEntity
  8
AM_VIS
100
AcDbLine
 10
376.0449777656053
 20
264.0088276579732
 30
0.0
 11
375.8619650637131
 21
263.325814956081
 31
0.0
  0
LINE
  5
14B3
330
1F
100
AcDbEntity
  8
AM_VIS
100
AcDbLine
 10
374.7949777656053
 20
266.1738911674344
 30
0.0
 11
376.0449777656053
 21
264.0088276579732
 31
0.0
  0
LINE
  5
14B4
330
1F
100
AcDbEntity
  8
AM_VIS
100
AcDbLine
 10
374.1119650637131
 20
266.3569038693266
 30
0.0
 11
374.7949777656053
 21
266.1738911674344
 31
0.0
  0
LINE
  5
14B5
330
1F
100
AcDbEntity
  8
AM_VIS
100
AcDbLine
 10
372.6775639869546
 20
268.8413594127039
 30
0.0
 11
374.1119650637131
 21
266.3569038693266
 31
0.0
  0
LINE
  5
14B6
330
1F
100
AcDbEntity
  8
AM_VIS
100
AcDbLine
 10
374.111965063713
 20
271.3258149560811
 30
0.0
 11
372.6775639869546
 21
268.8413594127039
 31
0.0
  0
LINE
  5
14B7
330
1F
100
AcDbEntity
  8
AM_VIS
100
AcDbLine
 10
374.7949777656053
 20
271.5088276579733
 30
0.0
 11
374.1119650637131
 21
271.3258149560811
 31
0.0
  0
LINE
  5
14B8
330
1F
100
AcDbEntity
  8
AM_VIS
100
AcDbLine
 10
375.8619650637131
 20
274.3569038693266
 30
0.0
 11
376.0449777656053
 21
273.6738911674343
 31
0.0
  0
LINE
  5
14B9
330
1F
100
AcDbEntity
  8
AM_VIS
100
AcDbLine
 10
376.0449777656053
 20
273.6738911674343
 30
0.0
 11
374.7949777656053
 21
271.5088276579733
 31
0.0
  0
CIRCLE
  5
14BA
330
1F
100
AcDbEntity
  8
AM_VIS
100
AcDbCircle
 10
381.9151682939886
 20
268.8413594127038
 30
0.0
 40
5.0
  0
LINE
  5
16B3
330
1F
100
AcDbEntity
  8
LOGO
 62
     4
100
AcDbLine
 10
435.7355338019203
 20
91.15818574662771
 30
0.0
 11
133.3355338019206
 21
91.15818574662771
 31
0.0
  0
LWPOLYLINE
  5
16B4
330
1F
100
AcDbEntity
  8
LOGO
 62
     4
100
AcDbPolyline
 90
        4
 70
     1
 43
0.0
 10
133.3355338019208
 20
91.15818574662762
 10
435.7355338019203
 20
91.15818574662762
 10
435.7355338019203
 20
409.0518779242381
 10
133.3355338019208
 20
409.0518779242381
1001
GENIUS_GENREC_14
1002
{
1000
PYDIR
1011
133.3355338019208
1021
409.0518779242381
1031
0.0
1002
}
1002
{
1000
PXDIR
1011
435.7355338019203
1021
91.15818574662762
1031
0.0
1002
}
1002
{
1000
PORI
1011
133.3355338019208
1021
91.15818574662762
1031
0.0
1002
}
1002
{
1000
PINS
1011
133.3355338019208
1021
91.15818574662762
1031
0.0
1002
}
1002
{
1000
PINS2
1011
435.7355338019203
1021
409.0518779242381
1031
0.0
1002
}
1002
{
1000
C
1070
     1
1002
}
1001
GENIUS_GENODEF_13
1002
{
1000
HIER
1070
     0
1002
}
1002
{
1000
MANEDIT
1070
     0
1002
}
1002
{
1000
NOSEL
1070
     0
1002
}
1002
{
1000
BEHIND
1070
     0
1002
}
1002
{
1000
OTHER
1070
     0
1002
}
1002
{
1000
REACTOR
1002
}
1001
GENIUS_GENOBJ-N-REC_13
1002
{
1000
OWNER
1000
GEN
1002
}
  0
LWPOLYLINE
  5
16B5
330
1F
100
AcDbEntity
  8
LOGO
 62
     4
100
AcDbPolyline
 90
        4
 70
     1
 43
0.0
 10
133.3355338019208
 20
91.15818574662762
 10
435.7355338019203
 20
91.15818574662762
 10
435.7355338019203
 20
60.92256438916137
 10
133.3355338019208
 20
60.92256438916137
1001
GENIUS_GENREC_14
1002
{
1000
PYDIR
1011
133.3355338019208
1021
60.92256438916137
1031
0.0
1002
}
1002
{
1000
PXDIR
1011
435.7355338019203
1021
91.15818574662762
1031
0.0
1002
}
1002
{
1000
PORI
1011
133.3355338019208
1021
91.15818574662762
1031
0.0
1002
}
1002
{
1000
PINS
1011
133.3355338019208
1021
91.15818574662762
1031
0.0
1002
}
1002
{
1000
PINS2
1011
435.7355338019203
1021
60.92256438916137
1031
0.0
1002
}
1002
{
1000
C
1070
     1
1002
}
1001
GENIUS_GENOBJ-N-REC_13
1002
{
1000
OWNER
1000
GEN
1002
}
1001
GENIUS_GENODEF_13
1002
{
1000
HIER
1070
     0
1002
}
1002
{
1000
MANEDIT
1070
     0
1002
}
1002
{
1000
NOSEL
1070
     0
1002
}
1002
{
1000
BEHIND
1070
     0
1002
}
1002
{
1000
OTHER
1070
     0
1002
}
1002
{
1000
REACTOR
1002
}
  0
TEXT
  5
16B6
330
1F
100
AcDbEntity
  8
LOGO
 62
     7
100
AcDbText
 10
201.6055647927661
 20
77.91247453298345
 30
0.0
 40
4.031416180995473
  1
Order example:
 41
0.8
  7
CHINESET
100
AcDbText
  0
TEXT
  5
16B7
330
1F
100
AcDbEntity
  8
LOGO
 62
     7
100
AcDbText
 10
202.3288341940922
 20
83.58787380045384
 30
0.0
 40
6.047124271493212
  1
訂購代號：
  7
CHINESET
100
AcDbText
  0
LINE
  5
16B8
330
1F
100
AcDbEntity
  8
LOGO
 62
     4
100
AcDbLine
 10
199.8539007883458
 20
60.92256438916149
 30
0.0
 11
199.8539007883458
 21
91.15818574662771
 31
0.0
  0
TEXT
  5
16B9
330
1F
100
AcDbEntity
  8
LOGO
  6
Continuous
100
AcDbText
 10
144.19630490527
 20
66.86230657530467
 30
0.0
 40
4.535343203619909
  1
金器工業股份有限公司
  7
CHINESET
100
AcDbText
  0
TEXT
  5
16BA
330
1F
100
AcDbEntity
  8
LOGO
  6
Continuous
100
AcDbText
 10
135.8657767136243
 20
62.32607480000144
 30
0.0
 40
3.023562135746606
  1
MINDMAN INDUSTRIAL CO., LTD.
 41
0.85
  7
CHINESET
100
AcDbText
  0
LINE
  5
16BB
330
1F
100
AcDbEntity
  8
LOGO
 62
     4
100
AcDbLine
 10
199.8539007883458
 20
85.1110614751345
 30
0.0
 11
155.5083227973956
 21
85.1110614751345
 31
0.0
  0
LINE
  5
16BC
330
1F
100
AcDbEntity
  8
LOGO
 62
     4
100
AcDbLine
 10
199.8539007883458
 20
79.06393720364127
 30
0.0
 11
155.5083227973956
 21
79.06393720364127
 31
0.0
  0
LINE
  5
16BD
330
1F
100
AcDbEntity
  8
LOGO
 62
     4
100
AcDbLine
 10
199.8539007883458
 20
73.01681293214824
 30
0.0
 11
133.3355338019206
 21
73.01681293214824
 31
0.0
  0
LINE
  5
16BE
330
1F
100
AcDbEntity
  8
LOGO
 62
     4
100
AcDbLine
 10
155.5083227973956
 20
73.01681293214824
 30
0.0
 11
155.5083227973956
 21
91.15818574662771
 31
0.0
  0
TEXT
  5
16BF
330
1F
100
AcDbEntity
  8
LOGO
100
AcDbText
 10
185.8164322748104
 20
74.52859400002115
 30
0.0
 40
3.023562135746606
  1
mm
  7
CHINESET
 72
     1
 11
189.5598901571634
 21
76.04037506789445
 31
0.0
100
AcDbText
 73
     2
  0
TEXT
  5
16C0
330
1F
100
AcDbEntity
  8
LOGO
100
AcDbText
 10
184.2326616322765
 20
86.62284254300761
 30
0.0
 40
3.023562135746606
  1
1 : 1
  7
CHINESET
 72
     1
 11
189.5598901571634
 21
88.1346236108809
 31
0.0
100
AcDbText
 73
     2
  0
LINE
  5
16C1
330
1F
100
AcDbEntity
  8
LOGO
 62
     4
100
AcDbLine
 10
179.6968198833684
 20
73.01681293214824
 30
0.0
 11
179.6968198833684
 21
91.15818574662771
 31
0.0
  0
TEXT
  5
16C2
330
1F
100
AcDbEntity
  8
LOGO
100
AcDbText
 10
158.0014117548617
 20
86.6243305164996
 30
198.1592813491953
 40
3.023562135746606
  1
比例 Scale:
 41
0.9
  7
CHINESET
 72
     4
 11
167.602571340382
 21
88.1346236108809
 31
198.1592813491953
100
AcDbText
  0
TEXT
  5
16C3
330
1F
100
AcDbEntity
  8
LOGO
100
AcDbText
 10
157.8272869711512
 20
80.61824951382741
 30
198.1592813491953
 40
3.023562135746606
  1
投影  View:
 41
0.9
  7
CHINESET
 72
     4
 11
167.602571340382
 21
82.08749933938767
 31
198.1592813491953
100
AcDbText
  0
TEXT
  5
16C4
330
1F
100
AcDbEntity
  8
LOGO
100
AcDbText
 10
158.1228941621015
 20
74.52859400002115
 30
198.1592813491953
 40
3.023562135746606
  1
單位  Unit:
 41
0.9
  7
CHINESET
 72
     4
 11
167.602571340382
 21
76.04037506789445
 31
198.1592813491953
100
AcDbText
  0
SOLID
  5
16C5
330
1F
100
AcDbEntity
  8
LOGO
 62
     5
100
AcDbTrace
 10
136.4725280422391
 20
78.04305461264647
 30
0.0
 11
137.7798369714654
 21
78.04305461264616
 31
0.0
 12
143.2344707796163
 22
90.43994963117294
 32
0.0
 13
144.5417797088437
 23
90.43994963117219
 33
0.0
  0
SOLID
  5
16C6
330
1F
100
AcDbEntity
  8
LOGO
 62
     5
100
AcDbTrace
 10
138.320792390457
 20
78.04305461264647
 30
0.0
 11
139.6281013196835
 21
78.04305461264647
 31
0.0
 12
144.5417797088437
 22
89.44819802969027
 32
0.0
 13
143.2344707796163
 23
84.65473195586008
 33
0.0
  0
SOLID
  5
16C7
330
1F
100
AcDbEntity
  8
LOGO
 62
     2
100
AcDbTrace
 10
137.7798369714654
 20
78.04305461264616
 30
0.0
 11
138.320792390457
 21
78.04305461264647
 31
0.0
 12
144.5417797088437
 22
90.43994963117219
 32
0.0
 13
145.0827351278346
 23
90.43994963117219
 33
0.0
  0
SOLID
  5
16C8
330
1F
100
AcDbEntity
  8
LOGO
 62
     5
100
AcDbTrace
 10
134.3765912372693
 20
73.53509278772825
 30
0.0
 11
134.8273874197617
 21
73.53509278772825
 31
0.0
 12
136.0968645568294
 22
75.78907370018725
 32
0.0
 13
136.5476607393204
 23
75.78907370018725
 33
0.0
  0
SOLID
  5
16C9
330
1F
100
AcDbEntity
  8
LOGO
 62
     5
100
AcDbTrace
 10
136.0968645568294
 20
75.78907370018725
 30
0.0
 11
136.5476607393204
 21
75.78907370018725
 31
0.0
 12
136.0968645568294
 22
73.53509278772825
 32
0.0
 13
136.5476607393204
 23
73.53509278772825
 33
0.0
  0
SOLID
  5
16CA
330
1F
100
AcDbEntity
  8
LOGO
 62
     5
100
AcDbTrace
 10
136.0968645568294
 20
73.53509278772825
 30
0.0
 11
136.5476607393204
 21
73.53509278772825
 31
0.0
 12
137.8171378763904
 22
75.78907370018725
 32
0.0
 13
138.2679340588822
 23
75.78907370018725
 33
0.0
  0
SOLID
  5
16CB
330
1F
100
AcDbEntity
  8
LOGO
 62
     5
100
AcDbTrace
 10
137.8171378763904
 20
75.78907370018725
 30
0.0
 11
138.2679340588822
 21
75.78907370018725
 31
0.0
 12
137.8171378763904
 22
73.53509278772825
 32
0.0
 13
138.2679340588822
 23
73.53509278772825
 33
0.0
  0
POLYLINE
  5
16CC
330
1F
100
AcDbEntity
  8
LOGO
 62
     5
100
AcDb2dPolyline
 66
     1
 10
0.0
 20
0.0
 30
0.0
 40
0.4515186122714931
 41
0.4515186122714931
  0
VERTEX
  5
16CD
330
16CC
100
AcDbEntity
  8
LOGO
 62
     5
100
AcDbVertex
100
AcDb2dVertex
 10
152.9276723478622
 20
74.88748133520352
 30
0.0
 42
1.0
  0
VERTEX
  5
16CE
330
16CC
100
AcDbEntity
  8
LOGO
 62
     5
100
AcDbVertex
100
AcDb2dVertex
 10
151.5731165110473
 20
74.88748133520352
 30
0.0
 42
1.0
  0
SEQEND
  5
16CF
330
16CC
100
AcDbEntity
  8
LOGO
 62
     5
  0
POLYLINE
  5
16D0
330
1F
100
AcDbEntity
  8
LOGO
 62
     5
100
AcDb2dPolyline
 66
     1
 10
0.0
 20
0.0
 30
0.0
 70
     1
  0
VERTEX
  5
16D1
330
16D0
100
AcDbEntity
  8
LOGO
 62
     5
100
AcDbVertex
100
AcDb2dVertex
 10
149.0197185080079
 20
74.66208324395734
 30
0.0
 42
1.000000057330635
  0
VERTEX
  5
16D2
330
16D0
100
AcDbEntity
  8
LOGO
 62
     5
100
AcDbVertex
100
AcDb2dVertex
 10
150.3721070554836
 20
74.66208324395734
 30
0.0
 42
1.000000057330635
  0
SEQEND
  5
16D3
330
16D0
100
AcDbEntity
  8
LOGO
 62
     5
  0
CIRCLE
  5
16D4
330
1F
100
AcDbEntity
  8
LOGO
 62
     5
100
AcDbCircle
 10
149.6959127817466
 20
74.66208324395734
 30
0.0
 40
0.6761942737377882
  0
POLYLINE
  5
16D5
330
1F
100
AcDbEntity
  8
LOGO
 62
     5
100
AcDb2dPolyline
 66
     1
 10
0.0
 20
0.0
 30
0.0
 70
     1
 40
0.4515186122714931
 41
0.4515186122714931
  0
VERTEX
  5
16D6
330
16D5
100
AcDbEntity
  8
LOGO
 62
     5
100
AcDbVertex
100
AcDb2dVertex
 10
148.7928755572029
 20
74.66208324395734
 30
0.0
 42
1.0
  0
VERTEX
  5
16D7
330
16D5
100
AcDbEntity
  8
LOGO
 62
     5
100
AcDbVertex
100
AcDb2dVertex
 10
150.598950006289
 20
74.66208324395734
 30
0.0
 42
1.0
  0
SEQEND
  5
16D8
330
16D5
100
AcDbEntity
  8
LOGO
 62
     5
  0
LINE
  5
16D9
330
1F
100
AcDbEntity
  8
LOGO
100
AcDbLine
 10
153.1519867944378
 20
73.53509278772825
 30
0.0
 11
153.1519867944378
 21
74.88748133520352
 31
0.0
  0
SOLID
  5
16DA
330
1F
100
AcDbEntity
  8
LOGO
 62
     5
100
AcDbTrace
 10
150.3720619758673
 20
75.78907370018725
 30
0.0
 11
150.8228581583582
 21
75.78907370018725
 31
0.0
 12
150.3720619758673
 22
73.53509278772825
 32
0.0
 13
150.8228581583582
 23
73.53509278772825
 33
0.0
  0
SOLID
  5
16DB
330
1F
100
AcDbEntity
  8
LOGO
 62
     5
100
AcDbTrace
 10
151.3488020644703
 20
73.53509278772825
 30
0.0
 11
151.7995982469629
 21
73.53509278772825
 31
0.0
 12
151.3488020644703
 22
75.78907370018725
 32
0.0
 13
151.7995982469629
 23
75.78907370018725
 33
0.0
  0
SOLID
  5
16DC
330
1F
100
AcDbEntity
  8
LOGO
 62
     5
100
AcDbTrace
 10
152.7011906119471
 20
74.88748133520352
 30
0.0
 11
153.1519867944378
 21
74.88748133520352
 31
0.0
 12
152.7011906119471
 22
73.53509278772825
 32
0.0
 13
153.1519867944378
 23
73.53509278772825
 33
0.0
  0
SOLID
  5
16DD
330
1F
100
AcDbEntity
  8
LOGO
 62
     5
100
AcDbTrace
 10
151.3037224462211
 20
89.44819802969027
 30
0.0
 11
149.9964135169957
 21
84.65473195586008
 31
0.0
 12
151.3037224462211
 22
78.04305461264616
 32
0.0
 13
149.9964135169957
 23
78.04305461264616
 33
0.0
  0
SOLID
  5
16DE
330
1F
100
AcDbEntity
  8
LOGO
 62
     5
100
AcDbTrace
 10
151.8446778652123
 20
78.04305461264616
 30
0.0
 11
153.1519867944378
 21
78.04305461264616
 31
0.0
 12
151.8446778652123
 22
90.43994963117219
 32
0.0
 13
153.1519867944378
 23
90.43994963117294
 33
0.0
  0
SOLID
  5
16DF
330
1F
100
AcDbEntity
  8
LOGO
 62
     2
100
AcDbTrace
 10
151.3037224462211
 20
90.43994963117294
 30
0.0
 11
151.8446778652123
 21
90.43994963117219
 31
0.0
 12
151.3037224462211
 22
78.04305461264616
 32
0.0
 13
151.8446778652123
 23
78.04305461264616
 33
0.0
  0
POLYLINE
  5
16E0
330
1F
100
AcDbEntity
  8
LOGO
 62
     5
100
AcDb2dPolyline
 66
     1
 10
0.0
 20
0.0
 30
0.0
 40
0.4515186122714931
 41
0.4515186122714931
  0
VERTEX
  5
16E1
330
16E0
100
AcDbEntity
  8
LOGO
 62
     5
100
AcDbVertex
100
AcDb2dVertex
 10
146.4662303457335
 20
74.88748133520352
 30
0.0
 42
1.0
  0
VERTEX
  5
16E2
330
16E0
100
AcDbEntity
  8
LOGO
 62
     5
100
AcDbVertex
100
AcDb2dVertex
 10
145.1116745089189
 20
74.88748133520352
 30
0.0
 42
1.0
  0
SEQEND
  5
16E3
330
16E0
100
AcDbEntity
  8
LOGO
 62
     5
  0
POLYLINE
  5
16E4
330
1F
100
AcDbEntity
  8
LOGO
 62
     5
100
AcDb2dPolyline
 66
     1
 10
0.0
 20
0.0
 30
0.0
 40
0.4515186122714931
 41
0.4515186122714931
  0
VERTEX
  5
16E5
330
16E4
100
AcDbEntity
  8
LOGO
 62
     5
100
AcDbVertex
100
AcDb2dVertex
 10
147.8186188932076
 20
74.88748133520352
 30
0.0
 42
1.0
  0
VERTEX
  5
16E6
330
16E4
100
AcDbEntity
  8
LOGO
 62
     5
100
AcDbVertex
100
AcDb2dVertex
 10
146.4640630563935
 20
74.88748133520352
 30
0.0
 42
1.0
  0
SEQEND
  5
16E7
330
16E4
100
AcDbEntity
  8
LOGO
 62
     5
  0
POLYLINE
  5
16E8
330
1F
100
AcDbEntity
  8
LOGO
 62
     5
100
AcDb2dPolyline
 66
     1
 10
0.0
 20
0.0
 30
0.0
 40
0.4515186122714931
 41
0.4515186122714931
  0
VERTEX
  5
16E9
330
16E8
100
AcDbEntity
  8
LOGO
 62
     5
100
AcDbVertex
100
AcDb2dVertex
 10
141.3571768910792
 20
74.88748133520352
 30
0.0
 42
1.0
  0
VERTEX
  5
16EA
330
16E8
100
AcDbEntity
  8
LOGO
 62
     5
100
AcDbVertex
100
AcDb2dVertex
 10
140.0026210542651
 20
74.88748133520352
 30
0.0
 42
1.0
  0
SEQEND
  5
16EB
330
16E8
100
AcDbEntity
  8
LOGO
 62
     5
  0
SOLID
  5
16EC
330
1F
100
AcDbEntity
  8
LOGO
 62
     5
100
AcDbTrace
 10
139.7783066076887
 20
75.78907370018725
 30
0.0
 11
140.2291027901797
 21
75.78907370018725
 31
0.0
 12
139.7783066076887
 22
73.53509278772825
 32
0.0
 13
140.2291027901797
 23
73.53509278772825
 33
0.0
  0
SOLID
  5
16ED
330
1F
100
AcDbEntity
  8
LOGO
 62
     5
100
AcDbTrace
 10
141.1306951551644
 20
74.88748133520352
 30
0.0
 11
141.5814913376568
 21
74.88748133520352
 31
0.0
 12
141.1306951551644
 22
73.53509278772825
 32
0.0
 13
141.5814913376568
 23
73.53509278772825
 33
0.0
  0
POLYLINE
  5
16EE
330
1F
100
AcDbEntity
  8
LOGO
 62
     5
100
AcDb2dPolyline
 66
     1
 10
0.0
 20
0.0
 30
0.0
 70
     1
 40
0.4515186122714931
 41
0.4515186122714931
  0
VERTEX
  5
16EF
330
16EE
100
AcDbEntity
  8
LOGO
 62
     5
100
AcDbVertex
100
AcDb2dVertex
 10
142.3314335550736
 20
74.66208324395734
 30
0.0
 42
1.0
  0
VERTEX
  5
16F0
330
16EE
100
AcDbEntity
  8
LOGO
 62
     5
100
AcDbVertex
100
AcDb2dVertex
 10
144.1375080041601
 20
74.66208324395734
 30
0.0
 42
1.0
  0
SEQEND
  5
16F1
330
16EE
100
AcDbEntity
  8
LOGO
 62
     5
  0
SOLID
  5
16F2
330
1F
100
AcDbEntity
  8
LOGO
 62
     5
100
AcDbTrace
 10
143.9106199737372
 20
76.46526797392531
 30
0.0
 11
144.361416156229
 21
76.46526797392531
 31
0.0
 12
143.9106199737372
 22
73.53509278772825
 32
0.0
 13
144.361416156229
 23
73.53509278772825
 33
0.0
  0
SOLID
  5
16F3
330
1F
100
AcDbEntity
  8
LOGO
 62
     5
100
AcDbTrace
 10
144.8873600623433
 20
75.78907370018725
 30
0.0
 11
145.3381562448343
 21
75.78907370018725
 31
0.0
 12
144.8873600623433
 22
73.53509278772825
 32
0.0
 13
145.3381562448343
 23
73.53509278772825
 33
0.0
  0
SOLID
  5
16F4
330
1F
100
AcDbEntity
  8
LOGO
 62
     5
100
AcDbTrace
 10
146.2397486098176
 20
74.88748133520352
 30
0.0
 11
146.6905447923097
 21
74.88748133520352
 31
0.0
 12
146.2397486098176
 22
73.53509278772825
 32
0.0
 13
146.6905447923097
 23
73.53509278772825
 33
0.0
  0
SOLID
  5
16F5
330
1F
100
AcDbEntity
  8
LOGO
 62
     5
100
AcDbTrace
 10
147.5921371572933
 20
74.88748133520352
 30
0.0
 11
148.0429333397848
 21
74.88748133520352
 31
0.0
 12
147.5921371572933
 22
73.53509278772751
 32
0.0
 13
148.0429333397848
 23
73.53509278772751
 33
0.0
  0
SOLID
  5
16F6
330
1F
100
AcDbEntity
  8
LOGO
 62
     5
100
AcDbTrace
 10
138.8015665190836
 20
76.10463102793156
 30
0.0
 11
139.2523627015766
 21
76.10463102793156
 31
0.0
 12
138.8015665190836
 22
76.46526797392531
 32
0.0
 13
139.2523627015766
 23
76.46526797392531
 33
0.0
  0
SOLID
  5
16F7
330
1F
100
AcDbEntity
  8
LOGO
 62
     5
100
AcDbTrace
 10
138.8015665190836
 20
75.78907370018725
 30
0.0
 11
139.2523627015766
 21
75.78907370018725
 31
0.0
 12
138.8015665190836
 22
73.53509278772751
 32
0.0
 13
139.2523627015766
 23
73.53509278772825
 33
0.0
  0
SOLID
  5
16F8
330
1F
100
AcDbEntity
  8
LOGO
 62
     5
100
AcDbTrace
 10
143.2344707796163
 20
78.04305461264647
 30
0.0
 11
144.5417797088437
 21
78.04305461264647
 31
0.0
 12
143.2344707796163
 22
84.65473195586008
 32
0.0
 13
144.5417797088437
 23
89.44819802969027
 33
0.0
  0
SOLID
  5
16F9
330
1F
100
AcDbEntity
  8
LOGO
 62
     5
100
AcDbTrace
 10
145.0827351278346
 20
90.43994963117219
 30
0.0
 11
146.3900440570603
 21
90.43994963117294
 31
0.0
 12
145.0827351278346
 22
79.03480621412843
 32
0.0
 13
146.3900440570603
 23
83.82827228795859
 33
0.0
  0
SOLID
  5
16FA
330
1F
100
AcDbEntity
  8
LOGO
 62
     2
100
AcDbTrace
 10
144.5417797088437
 20
90.43994963117219
 30
0.0
 11
145.0827351278346
 21
90.43994963117219
 31
0.0
 12
144.5417797088437
 22
78.04305461264647
 32
0.0
 13
145.0827351278346
 23
78.04305461264647
 33
0.0
  0
SOLID
  5
16FB
330
1F
100
AcDbEntity
  8
LOGO
 62
     5
100
AcDbTrace
 10
145.0827351278346
 20
79.03480621412843
 30
0.0
 11
146.3900440570603
 21
83.82827228795859
 31
0.0
 12
151.3037224462211
 22
90.43994963117294
 32
0.0
 13
149.9964135169957
 23
90.43994963117294
 33
0.0
  0
SOLID
  5
16FC
330
1F
100
AcDbEntity
  8
LOGO
 62
     5
100
AcDbTrace
 10
145.0827351278346
 20
78.04305461264647
 30
0.0
 11
146.3900440570603
 21
78.04305461264647
 31
0.0
 12
151.3037224462211
 22
89.44819802969027
 32
0.0
 13
149.9964135169957
 23
84.65473195586008
 33
0.0
  0
SOLID
  5
16FD
330
1F
100
AcDbEntity
  8
LOGO
 62
     2
100
AcDbTrace
 10
144.5417797088437
 20
78.04305461264647
 30
0.0
 11
145.0827351278346
 21
78.04305461264647
 31
0.0
 12
151.3037224462211
 22
90.43994963117294
 32
0.0
 13
151.8446778652123
 23
90.43994963117219
 33
0.0
  0
LINE
  5
16FE
330
1F
100
AcDbEntity
  8
LOGO
 62
     4
100
AcDbLine
 10
255.7802732942645
 20
74.52859400002171
 30
0.0
 11
255.7802732942645
 21
63.44219950228361
 31
0.0
  0
LINE
  5
16FF
330
1F
100
AcDbEntity
  8
LOGO
 62
     4
100
AcDbLine
 10
241.4416560405418
 20
74.52859400002171
 30
0.0
 11
241.4416560405418
 21
63.44219950228361
 31
0.0
  0
LINE
  5
1700
330
1F
100
AcDbEntity
  8
LOGO
 62
     4
100
AcDbLine
 10
255.7802732942645
 20
63.44219950228361
 30
0.0
 11
241.4416560405418
 21
63.44219950228361
 31
0.0
  0
LINE
  5
1701
330
1F
100
AcDbEntity
  8
LOGO
 62
     4
100
AcDbLine
 10
265.4304418223794
 20
88.1346236108809
 30
0.0
 11
241.4416560405418
 21
88.1346236108809
 31
0.0
  0
LINE
  5
1702
330
1F
100
AcDbEntity
  8
LOGO
 62
     4
100
AcDbLine
 10
265.4304418223794
 20
79.06393720364127
 30
0.0
 11
241.4416560405418
 21
79.06393720364127
 31
0.0
  0
LINE
  5
1703
330
1F
100
AcDbEntity
  8
LOGO
 62
     4
100
AcDbLine
 10
241.4416560405418
 20
88.1346236108809
 30
0.0
 11
241.4416560405418
 21
79.06393720364127
 31
0.0
  0
LINE
  5
1704
330
1F
100
AcDbEntity
  8
LOGO
 62
     4
100
AcDbLine
 10
265.4304418223794
 20
88.1346236108809
 30
0.0
 11
265.4304418223794
 21
79.06393720364127
 31
0.0
  0
LINE
  5
1705
330
1F
100
AcDbEntity
  8
LOGO
 62
     4
100
AcDbLine
 10
252.5718898329241
 20
79.06393720364127
 30
0.0
 11
252.5718898329241
 21
74.52859400002171
 31
0.0
  0
TEXT
  5
1706
330
1F
100
AcDbEntity
  8
LOGO
  6
Continuous
 62
     7
100
AcDbText
 10
243.053374955421
 20
80.95742972981033
 30
0.0
 40
5.291999999999998
  1
MVSC
  7
CHINESET
100
AcDbText
  0
LINE
  5
1707
330
1F
100
AcDbEntity
  8
LOGO
 62
     4
100
AcDbLine
 10
255.7802732942645
 20
74.52859400002171
 30
0.0
 11
241.4416560405418
 21
74.52859400002171
 31
0.0
  0
TEXT
  5
1708
330
1F
100
AcDbEntity
  8
LOGO
  6
Continuous
100
AcDbText
 10
245.5252386363962
 20
65.0070205763937
 30
198.1592813491953
 40
2.267999999999999
  1
Model
 41
0.8
  7
CHINESET
100
AcDbText
  0
TEXT
  5
1709
330
1F
100
AcDbEntity
  8
LOGO
100
AcDbText
 10
244.9215707645414
 20
69.21140378750781
 30
198.1592813491953
 40
3.78
  1
型號
  7
CHINESET
100
AcDbText
  0
LINE
  5
170A
330
1F
100
AcDbEntity
  8
LOGO
  6
Continuous
 62
     7
100
AcDbLine
 10
266.39473075566
 20
83.56715060249959
 30
0.0
 11
270.4000148984563
 21
83.56715060249959
 31
0.0
  0
LINE
  5
170B
330
1F
100
AcDbEntity
  8
LOGO
 62
     4
100
AcDbLine
 10
276.5081268272271
 20
74.52859400002171
 30
0.0
 11
276.5081268272271
 21
63.44219950228361
 31
0.0
  0
LINE
  5
170C
330
1F
100
AcDbEntity
  8
LOGO
 62
     4
100
AcDbLine
 10
258.1423964700836
 20
74.52859400002171
 30
0.0
 11
258.1423964700836
 21
63.44219950228361
 31
0.0
  0
LINE
  5
170D
330
1F
100
AcDbEntity
  8
LOGO
 62
     4
100
AcDbLine
 10
276.5081268272271
 20
63.44219950228361
 30
0.0
 11
258.1423964700836
 21
63.44219950228361
 31
0.0
  0
LINE
  5
170E
330
1F
100
AcDbEntity
  8
LOGO
 62
     4
100
AcDbLine
 10
282.5437476362951
 20
88.1346236108809
 30
0.0
 11
271.6634709143818
 21
88.1346236108809
 31
0.0
  0
LINE
  5
170F
330
1F
100
AcDbEntity
  8
LOGO
 62
     4
100
AcDbLine
 10
282.5437476362951
 20
79.06393720364127
 30
0.0
 11
271.6634709143818
 21
79.06393720364127
 31
0.0
  0
LINE
  5
1710
330
1F
100
AcDbEntity
  8
LOGO
 62
     4
100
AcDbLine
 10
271.6634709143818
 20
88.1346236108809
 30
0.0
 11
271.6634709143818
 21
79.06393720364127
 31
0.0
  0
LINE
  5
1711
330
1F
100
AcDbEntity
  8
LOGO
 62
     4
100
AcDbLine
 10
282.5437476362951
 20
88.1346236108809
 30
0.0
 11
282.5437476362951
 21
79.06393720364127
 31
0.0
  0
LINE
  5
1712
330
1F
100
AcDbEntity
  8
LOGO
 62
     4
100
AcDbLine
 10
277.1036092753385
 20
79.06393720364127
 30
0.0
 11
277.1036092753385
 21
76.79626560183144
 31
0.0
  0
TEXT
  5
1713
330
1F
100
AcDbEntity
  8
LOGO
  6
Continuous
 62
     7
100
AcDbText
 10
273.1379728596973
 20
80.95742972981033
 30
0.0
 40
5.291999999999998
  1
220
  7
CHINESET
100
AcDbText
  0
LINE
  5
1714
330
1F
100
AcDbEntity
  8
LOGO
 62
     4
100
AcDbLine
 10
276.5081268272271
 20
74.52859400002171
 30
0.0
 11
258.1423964700836
 21
74.52859400002171
 31
0.0
  0
LINE
  5
1715
330
1F
100
AcDbEntity
  8
LOGO
  6
Continuous
 62
     7
100
AcDbLine
 10
288.6771907353047
 20
83.56715060249959
 30
0.0
 11
292.6824748781013
 21
83.56715060249959
 31
0.0
  0
LINE
  5
1716
330
1F
100
AcDbEntity
  8
LOGO
 62
     4
100
AcDbLine
 10
294.1091054924509
 20
74.52859400002171
 30
0.0
 11
294.1091054924509
 21
63.44219950228361
 31
0.0
  0
LINE
  5
1717
330
1F
100
AcDbEntity
  8
LOGO
 62
     4
100
AcDbLine
 10
278.9676165745372
 20
74.52859400002171
 30
0.0
 11
278.9676165745372
 21
63.44219950228361
 31
0.0
  0
LINE
  5
1718
330
1F
100
AcDbEntity
  8
LOGO
 62
     4
100
AcDbLine
 10
294.1091054924509
 20
63.44219950228361
 30
0.0
 11
278.9676165745372
 21
63.44219950228361
 31
0.0
  0
LINE
  5
1719
330
1F
100
AcDbEntity
  8
LOGO
 62
     4
100
AcDbLine
 10
300.3850587481013
 20
88.1346236108809
 30
0.0
 11
293.9459308940265
 21
88.1346236108809
 31
0.0
  0
LINE
  5
171A
330
1F
100
AcDbEntity
  8
LOGO
 62
     4
100
AcDbLine
 10
300.3850587481013
 20
79.06393720364127
 30
0.0
 11
293.9459308940265
 21
79.06393720364127
 31
0.0
  0
LINE
  5
171B
330
1F
100
AcDbEntity
  8
LOGO
 62
     4
100
AcDbLine
 10
293.9459308940265
 20
88.1346236108809
 30
0.0
 11
293.9459308940265
 21
79.06393720364127
 31
0.0
  0
LINE
  5
171C
330
1F
100
AcDbEntity
  8
LOGO
 62
     4
100
AcDbLine
 10
300.3850587481013
 20
88.1346236108809
 30
0.0
 11
300.3850587481013
 21
79.06393720364127
 31
0.0
  0
LINE
  5
171D
330
1F
100
AcDbEntity
  8
LOGO
 62
     4
100
AcDbLine
 10
297.165494821064
 20
79.06393720364127
 30
0.0
 11
297.165494821064
 21
76.79626560183144
 31
0.0
  0
TEXT
  5
171E
330
1F
100
AcDbEntity
  8
LOGO
  6
Continuous
 62
     7
100
AcDbText
 10
295.153214999831
 20
80.95742972981033
 30
0.0
 40
5.291999999999998
  1
4
  7
CHINESET
100
AcDbText
  0
LINE
  5
171F
330
1F
100
AcDbEntity
  8
LOGO
 62
     4
100
AcDbLine
 10
294.1091054924509
 20
74.52859400002171
 30
0.0
 11
278.9676165745372
 21
74.52859400002171
 31
0.0
  0
LINE
  5
1720
330
1F
100
AcDbEntity
  8
LOGO
 62
     4
100
AcDbLine
 10
321.9049400973792
 20
74.52859400002171
 30
0.0
 11
321.9049400973792
 21
63.44219950228361
 31
0.0
  0
LINE
  5
1721
330
1F
100
AcDbEntity
  8
LOGO
 62
     4
100
AcDbLine
 10
297.1798579531924
 20
74.52859400002171
 30
0.0
 11
297.1798579531924
 21
63.44219950228361
 31
0.0
  0
LINE
  5
1722
330
1F
100
AcDbEntity
  8
LOGO
 62
     4
100
AcDbLine
 10
321.9049400973792
 20
63.44219950228361
 30
0.0
 11
297.1798579531924
 21
63.44219950228361
 31
0.0
  0
LINE
  5
1723
330
1F
100
AcDbEntity
  8
LOGO
 62
     4
100
AcDbLine
 10
314.1279768325509
 20
88.1346236108809
 30
0.0
 11
302.1606291302661
 21
88.1346236108809
 31
0.0
  0
LINE
  5
1724
330
1F
100
AcDbEntity
  8
LOGO
 62
     4
100
AcDbLine
 10
314.1279768325509
 20
79.06393720364127
 30
0.0
 11
302.1606291302661
 21
79.06393720364127
 31
0.0
  0
LINE
  5
1725
330
1F
100
AcDbEntity
  8
LOGO
 62
     4
100
AcDbLine
 10
302.1606291302661
 20
88.1346236108809
 30
0.0
 11
302.1606291302661
 21
79.06393720364127
 31
0.0
  0
LINE
  5
1726
330
1F
100
AcDbEntity
  8
LOGO
 62
     4
100
AcDbLine
 10
314.1279768325509
 20
88.1346236108809
 30
0.0
 11
314.1279768325509
 21
79.06393720364127
 31
0.0
  0
LINE
  5
1727
330
1F
100
AcDbEntity
  8
LOGO
 62
     4
100
AcDbLine
 10
308.1443029814082
 20
79.06393720364127
 30
0.0
 11
308.1443029814082
 21
74.52859400002171
 31
0.0
  0
TEXT
  5
1728
330
1F
100
AcDbEntity
  8
LOGO
  6
Continuous
 62
     7
100
AcDbText
 10
304.3015952335391
 20
80.95742972981033
 30
0.0
 40
5.291999999999998
  1
E1
  7
CHINESET
100
AcDbText
  0
LINE
  5
1729
330
1F
100
AcDbEntity
  8
LOGO
 62
     4
100
AcDbLine
 10
321.9049400973792
 20
74.52859400002171
 30
0.0
 11
297.1798579531924
 21
74.52859400002171
 31
0.0
  0
TEXT
  5
172A
330
1F
100
AcDbEntity
  8
LOGO
  6
Continuous
100
AcDbText
 10
259.5834055726285
 20
65.0070205763937
 30
198.1592813491953
 40
2.267999999999999
  1
Body width
 41
0.8
  7
CHINESET
100
AcDbText
  0
TEXT
  5
172B
330
1F
100
AcDbEntity
  8
LOGO
100
AcDbText
 10
259.5620402271103
 20
69.21140378750781
 30
198.1592813491953
 40
3.78
  1
本體寬度
  7
CHINESET
100
AcDbText
  0
TEXT
  5
172C
330
1F
100
AcDbEntity
  8
LOGO
  6
Continuous
100
AcDbText
 10
283.1897011823235
 20
65.0070205763937
 30
198.1592813491953
 40
2.267999999999999
  1
4 Way
 41
0.8
  7
CHINESET
100
AcDbText
  0
TEXT
  5
172D
330
1F
100
AcDbEntity
  8
LOGO
100
AcDbText
 10
280.9775798641114
 20
69.21140378750781
 30
198.1592813491953
 40
3.78
  1
4方向
  7
CHINESET
100
AcDbText
  0
TEXT
  5
172E
330
1F
100
AcDbEntity
  8
LOGO
  6
Continuous
100
AcDbText
 10
299.2809090447872
 20
65.0070205763937
 30
198.1592813491953
 40
2.267999999999999
  1
Single solenoid
 41
0.8
  7
CHINESET
100
AcDbText
  0
TEXT
  5
172F
330
1F
100
AcDbEntity
  8
LOGO
100
AcDbText
 10
303.3275346255511
 20
69.21140378750781
 30
198.1592813491953
 40
3.78
  1
單線圈
  7
CHINESET
100
AcDbText
  0
LINE
  5
1730
330
1F
100
AcDbEntity
  8
LOGO
 62
     4
100
AcDbLine
 10
335.1816300851188
 20
88.1346236108809
 30
0.0
 11
320.8413500157384
 21
88.1346236108809
 31
0.0
  0
LINE
  5
1731
330
1F
100
AcDbEntity
  8
LOGO
 62
     4
100
AcDbLine
 10
335.1816300851188
 20
79.06393720364127
 30
0.0
 11
320.8413500157384
 21
79.06393720364127
 31
0.0
  0
LINE
  5
1732
330
1F
100
AcDbEntity
  8
LOGO
 62
     4
100
AcDbLine
 10
320.8413500157384
 20
88.1346236108809
 30
0.0
 11
320.8413500157384
 21
79.06393720364127
 31
0.0
  0
LINE
  5
1733
330
1F
100
AcDbEntity
  8
LOGO
 62
     4
100
AcDbLine
 10
335.1816300851188
 20
88.1346236108809
 30
0.0
 11
335.1816300851188
 21
79.06393720364127
 31
0.0
  0
TEXT
  5
1734
330
1F
100
AcDbEntity
  8
LOGO
  6
Continuous
 62
     7
100
AcDbText
 10
326.59815889494
 20
80.95742972981033
 30
0.0
 40
5.291999999999998
  1
?
  7
CHINESET
100
AcDbText
  0
LINE
  5
1735
330
1F
100
AcDbEntity
  8
LOGO
 62
     4
100
AcDbLine
 10
340.8124994212291
 20
74.52859400002171
 30
0.0
 11
340.8124994212291
 21
63.44219950228361
 31
0.0
  0
LINE
  5
1736
330
1F
100
AcDbEntity
  8
LOGO
 62
     4
100
AcDbLine
 10
324.3913435597763
 20
74.52859400002171
 30
0.0
 11
324.3913435597763
 21
63.44219950228361
 31
0.0
  0
LINE
  5
1737
330
1F
100
AcDbEntity
  8
LOGO
 62
     4
100
AcDbLine
 10
340.8124994212291
 20
63.44219950228361
 30
0.0
 11
324.3913435597763
 21
63.44219950228361
 31
0.0
  0
LINE
  5
1738
330
1F
100
AcDbEntity
  8
LOGO
 62
     4
100
AcDbLine
 10
340.8124994212291
 20
74.52859400002171
 30
0.0
 11
324.3913435597763
 21
74.52859400002171
 31
0.0
  0
TEXT
  5
1739
330
1F
100
AcDbEntity
  8
LOGO
  6
Continuous
100
AcDbText
 10
327.9608802326386
 20
65.0070205763937
 30
198.1592813491953
 40
2.267999999999999
  1
Voltage
 41
0.8
  7
CHINESET
100
AcDbText
  0
TEXT
  5
173A
330
1F
100
AcDbEntity
  8
LOGO
100
AcDbText
 10
329.2923055780497
 20
69.21140378750781
 30
198.1592813491953
 40
3.78
  1
電壓
  7
CHINESET
100
AcDbText
  0
LINE
  5
173B
330
1F
100
AcDbEntity
  8
LOGO
 62
     4
100
AcDbLine
 10
328.0114900504293
 20
79.06393720364127
 30
0.0
 11
328.0114900504293
 21
74.52859400002191
 31
0.0
  0
TEXT
  5
173C
330
1F
100
AcDbEntity
  8
LOGO
100
AcDbText
 10
201.2548226022972
 20
62.53108751157054
 30
0.0
 40
3.024
  1
10710032
 41
0.7
  7
CHINESET
 72
     1
 11
208.6132226022972
 21
62.53108751157054
 31
0.0
100
AcDbText
  0
LINE
  5
173D
330
1F
100
AcDbEntity
  8
LOGO
 62
     4
100
AcDbLine
 10
217.9979007883448
 20
66.96968866065543
 30
0.0
 11
217.9979007883462
 21
60.9225643891618
 31
0.0
  0
LINE
  5
173E
330
1F
100
AcDbEntity
  8
LOGO
 62
     4
100
AcDbLine
 10
217.9979007883448
 20
66.96968866065543
 30
0.0
 11
199.8539007883458
 21
66.96968866065543
 31
0.0
  0
CIRCLE
  5
173F
330
1F
100
AcDbEntity
  8
LOGO
  6
Continuous
100
AcDbCircle
 10
185.2953233588768
 20
82.09396676092211
 30
0.0
 40
1.755551342644794
  0
CIRCLE
  5
1740
330
1F
100
AcDbEntity
  8
LOGO
  6
Continuous
100
AcDbCircle
 10
185.2953233588768
 20
82.09396676092211
 30
0.0
 40
1.028597676622382
  0
LINE
  5
1741
330
1F
100
AcDbEntity
  8
LOGO
100
AcDbLine
 10
196.3274117016201
 20
80.3384154182771
 30
0.0
 11
196.3274117016201
 21
83.84951810356724
 31
0.0
  0
LINE
  5
1742
330
1F
100
AcDbEntity
  8
LOGO
100
AcDbLine
 10
190.8238590158844
 20
81.06536908429999
 30
0.0
 11
190.8238590158844
 21
83.12256443754476
 31
0.0
  0
LINE
  5
1743
330
1F
100
AcDbEntity
  8
LOGO
  6
Continuous
100
AcDbLine
 10
190.8238590158844
 20
83.12256443754476
 30
0.0
 11
196.3274117016201
 21
83.84951810356724
 31
0.0
  0
LINE
  5
1744
330
1F
100
AcDbEntity
  8
LOGO
  6
Continuous
100
AcDbLine
 10
190.8238590158844
 20
81.06536908429999
 30
0.0
 11
196.3274117016201
 21
80.3384154182771
 31
0.0
  0
LINE
  5
1745
330
1F
100
AcDbEntity
  8
LOGO
  6
AM_ISO08W050x2
 48
0.3
100
AcDbLine
 10
182.8752695457299
 20
82.09396676092211
 30
0.0
 11
187.715377172024
 21
82.09396676092211
 31
0.0
1001
GENIUS_GENOREF_13
1005
175C
  0
LINE
  5
1746
330
1F
100
AcDbEntity
  8
LOGO
  6
AM_ISO08W050x2
 48
0.3
100
AcDbLine
 10
185.2953233588768
 20
79.67391294777505
 30
0.0
 11
185.2953233588768
 21
84.51402057406935
 31
0.0
1001
GENIUS_GENOREF_13
1005
175B
  0
LINE
  5
1747
330
1F
100
AcDbEntity
  8
LOGO
  6
CENTER
 48
0.5
100
AcDbLine
 10
190.3837277715568
 20
82.09396676092211
 30
0.0
 11
196.881601641155
 21
82.09396676092211
 31
0.0
1001
GENIUS_GENOREF_13
1005
175A
  0
LINE
  5
1748
330
1F
100
AcDbEntity
  8
LOGO
  6
Continuous
 62
     7
100
AcDbLine
 10
336.8838305290191
 20
83.56715060249959
 30
0.0
 11
340.8891146718159
 21
83.56715060249959
 31
0.0
  0
LINE
  5
1749
330
1F
100
AcDbEntity
  8
LOGO
 62
     4
100
AcDbLine
 10
350.1373970485716
 20
88.1346236108809
 30
0.0
 11
342.1525706877411
 21
88.1346236108809
 31
0.0
  0
LINE
  5
174A
330
1F
100
AcDbEntity
  8
LOGO
 62
     4
100
AcDbLine
 10
350.1373970485716
 20
79.06393720364127
 30
0.0
 11
342.1525706877411
 21
79.06393720364127
 31
0.0
  0
LINE
  5
174B
330
1F
100
AcDbEntity
  8
LOGO
 62
     4
100
AcDbLine
 10
342.1525706877411
 20
88.1346236108809
 30
0.0
 11
342.1525706877411
 21
79.06393720364127
 31
0.0
  0
LINE
  5
174C
330
1F
100
AcDbEntity
  8
LOGO
 62
     4
100
AcDbLine
 10
350.1373970485716
 20
88.1346236108809
 30
0.0
 11
350.1373970485716
 21
79.06393720364127
 31
0.0
  0
LINE
  5
174D
330
1F
100
AcDbEntity
  8
LOGO
 62
     4
100
AcDbLine
 10
346.1449838681565
 20
79.06393720364127
 30
0.0
 11
346.1449838681565
 21
74.5285940000216
 31
0.0
  0
LINE
  5
174E
330
1F
100
AcDbEntity
  8
LOGO
 62
     4
100
AcDbLine
 10
277.1036092753385
 20
76.79626560183144
 30
0.0
 11
267.3252616486549
 21
76.79626560183144
 31
0.0
  0
LINE
  5
174F
330
1F
100
AcDbEntity
  8
LOGO
 62
     4
100
AcDbLine
 10
267.3252616486549
 20
74.52859400002171
 30
0.0
 11
267.3252616486549
 21
76.79626560183144
 31
0.0
  0
LINE
  5
1750
330
1F
100
AcDbEntity
  8
LOGO
 62
     4
100
AcDbLine
 10
297.165494821064
 20
76.79626560183144
 30
0.0
 11
286.5383610334941
 21
76.79626560183144
 31
0.0
  0
LINE
  5
1751
330
1F
100
AcDbEntity
  8
LOGO
 62
     4
100
AcDbLine
 10
286.5383610334941
 20
74.52859400002171
 30
0.0
 11
286.5383610334941
 21
76.79626560183144
 31
0.0
  0
LINE
  5
1752
330
1F
100
AcDbEntity
  8
LOGO
 62
     4
100
AcDbLine
 10
366.1862486227493
 20
74.52859400002171
 30
0.0
 11
366.1862486227493
 21
63.44219950228361
 31
0.0
  0
LINE
  5
1753
330
1F
100
AcDbEntity
  8
LOGO
 62
     4
100
AcDbLine
 10
343.3094794395952
 20
74.52859400002171
 30
0.0
 11
343.3094794395952
 21
63.44219950228361
 31
0.0
  0
LINE
  5
1754
330
1F
100
AcDbEntity
  8
LOGO
 62
     4
100
AcDbLine
 10
366.1862486227493
 20
63.44219950228361
 30
0.0
 11
343.3094794395952
 21
63.44219950228361
 31
0.0
  0
LINE
  5
1755
330
1F
100
AcDbEntity
  8
LOGO
 62
     4
100
AcDbLine
 10
366.1862486227493
 20
74.52859400002171
 30
0.0
 11
343.3094794395952
 21
74.52859400002171
 31
0.0
  0
TEXT
  5
1756
330
1F
100
AcDbEntity
  8
LOGO
  6
Continuous
100
AcDbText
 10
345.5748512176513
 20
65.0070205763937
 30
198.1592813491953
 40
2.267999999999999
  1
DIN connector
 41
0.8
  7
CHINESET
100
AcDbText
  0
TEXT
  5
1757
330
1F
100
AcDbEntity
  8
LOGO
100
AcDbText
 10
351.6939195109417
 20
69.21140378750781
 30
198.1592813491953
 40
3.78
  1
端子型
  7
CHINESET
100
AcDbText
  0
TEXT
  5
1758
330
1F
100
AcDbEntity
  8
LOGO
  6
Continuous
100
AcDbText
 10
345.5145217581349
 20
69.6472980821313
 30
198.1592813491953
 40
3.024
  1
DIN
 41
0.8
  7
CHINESET
100
AcDbText
  0
LINE
  5
1759
330
1F
100
AcDbEntity
  8
LOGO
  6
Continuous
 62
     7
100
AcDbLine
 10
315.5726098570162
 20
83.56715060249959
 30
0.0
 11
319.577893999813
 21
83.56715060249959
 31
0.0
  0
POINT
  5
175A
330
1F
100
AcDbEntity
  8
0
 60
     1
100
AcDbPoint
 10
-2590.265601739849
 20
-850.6179531073112
 30
0.0
1001
GENIUS_GENOBJ-N-CRS_13
1002
{
1000
OWNER
1000
GEN
1002
}
1001
GENIUS_GENOLIS_13
1002
{
1000
ENT
1005
0
1005
0
1005
0
1005
1747
1002
}
1001
GENIUS_GENOENT_13
1002
{
1000
MYREF
1005
175A
1002
}
1002
{
1000
GRP
1005
0
1002
}
1001
GENIUS_GENODEF_13
1002
{
1000
HIER
1070
    10
1002
}
1002
{
1000
MANEDIT
1070
     1
1002
}
1002
{
1000
NOSEL
1070
     0
1002
}
1002
{
1000
BEHIND
1070
     0
1002
}
1002
{
1000
OTHER
1070
     0
1002
}
1002
{
1000
REACTOR
1002
}
  0
POINT
  5
175B
330
1F
100
AcDbEntity
  8
0
 60
     1
100
AcDbPoint
 10
-2601.590186962703
 20
-841.7423666286749
 30
0.0
1001
GENIUS_GENOBJ-N-CRS_13
1002
{
1000
OWNER
1000
GEN
1002
}
1001
GENIUS_GENOLIS_13
1002
{
1000
ENT
1005
0
1005
0
1005
0
1005
1746
1002
}
1001
GENIUS_GENOENT_13
1002
{
1000
MYREF
1005
175B
1002
}
1002
{
1000
GRP
1005
0
1002
}
1001
GENIUS_GENODEF_13
1002
{
1000
HIER
1070
    10
1002
}
1002
{
1000
MANEDIT
1070
     1
1002
}
1002
{
1000
NOSEL
1070
     0
1002
}
1002
{
1000
BEHIND
1070
     0
1002
}
1002
{
1000
OTHER
1070
     0
1002
}
1002
{
1000
REACTOR
1002
}
  0
POINT
  5
175C
330
1F
100
AcDbEntity
  8
0
 60
     1
100
AcDbPoint
 10
-2595.231513264867
 20
-850.6179531073112
 30
0.0
1001
GENIUS_GENOBJ-N-CRS_13
1002
{
1000
OWNER
1000
GEN
1002
}
1001
GENIUS_GENOLIS_13
1002
{
1000
ENT
1005
0
1005
0
1005
0
1005
1745
1002
}
1001
GENIUS_GENOENT_13
1002
{
1000
MYREF
1005
175C
1002
}
1002
{
1000
GRP
1005
0
1002
}
1001
GENIUS_GENODEF_13
1002
{
1000
HIER
1070
    10
1002
}
1002
{
1000
MANEDIT
1070
     1
1002
}
1002
{
1000
NOSEL
1070
     0
1002
}
1002
{
1000
BEHIND
1070
     0
1002
}
1002
{
1000
OTHER
1070
     0
1002
}
1002
{
1000
REACTOR
1002
}
  0
ENDSEC
  0
SECTION
  2
OBJECTS
  0
DICTIONARY
  5
C
330
0
100
AcDbDictionary
281
     1
  3
ACAD_COLOR
350
BE
  3
ACAD_GROUP
350
D
  3
ACAD_LAYOUT
350
1A
  3
ACAD_MATERIAL
350
BD
  3
ACAD_MLINESTYLE
350
17
  3
ACAD_PLOTSETTINGS
350
19
  3
ACAD_PLOTSTYLENAME
350
E
  3
ACAD_TABLESTYLE
350
11A
  3
ACDBHEADERROUNDTRIPXREC
350
17DD
  3
AcDbVariableDictionary
350
94
  3
AcmDictionary
350
5B
  3
AMG
350
41
  3
AMGSNAPSETTINGS
350
1B8
  3
DWGPROPS
350
17DC
  0
DICTIONARY
  5
3F9
330
2
100
AcDbDictionary
280
     1
281
     1
  3
ACAD_LAYERFILTERS
360
5B7
  3
ACAD_LAYERSTATES
360
BB1
  3
ACLYDICTIONARY
360
5B6
  0
DICTIONARY
  5
8F
330
1F
100
AcDbDictionary
280
     1
281
     1
  0
DICTIONARY
  5
112A
330
1129
100
AcDbDictionary
280
     1
281
     1
  3
ACAD_DIMASSOC
360
112B
  0
DICTIONARY
  5
118F
330
118E
100
AcDbDictionary
280
     1
281
     1
  3
ACAD_DIMASSOC
360
1190
  0
DICTIONARY
  5
1192
330
1191
100
AcDbDictionary
280
     1
281
     1
  3
ACAD_DIMASSOC
360
1193
  0
DICTIONARY
  5
1195
330
1194
100
AcDbDictionary
280
     1
281
     1
  3
ACAD_DIMASSOC
360
1196
  0
DICTIONARY
  5
1198
330
1197
100
AcDbDictionary
280
     1
281
     1
  3
ACAD_DIMASSOC
360
1199
  0
DICTIONARY
  5
119B
330
119A
100
AcDbDictionary
280
     1
281
     1
  3
ACAD_DIMASSOC
360
119C
  0
DICTIONARY
  5
11BA
330
11B9
100
AcDbDictionary
280
     1
281
     1
  3
ACAD_DIMASSOC
360
11BB
  0
DICTIONARY
  5
11BD
330
11BC
100
AcDbDictionary
280
     1
281
     1
  3
ACAD_DIMASSOC
360
11BE
  0
DICTIONARY
  5
11C0
330
11BF
100
AcDbDictionary
280
     1
281
     1
  3
ACAD_DIMASSOC
360
11C1
  0
DICTIONARY
  5
11C3
330
11C2
100
AcDbDictionary
280
     1
281
     1
  3
ACAD_DIMASSOC
360
11C4
  0
DICTIONARY
  5
11C6
330
11C5
100
AcDbDictionary
280
     1
281
     1
  3
ACAD_DIMASSOC
360
11C7
  0
DICTIONARY
  5
11C9
330
11C8
100
AcDbDictionary
280
     1
281
     1
  3
ACAD_DIMASSOC
360
11CA
  0
DICTIONARY
  5
11CC
330
11CB
100
AcDbDictionary
280
     1
281
     1
  3
ACAD_DIMASSOC
360
11CD
  0
DICTIONARY
  5
11CF
330
11CE
100
AcDbDictionary
280
     1
281
     1
  3
ACAD_DIMASSOC
360
11D0
  0
DICTIONARY
  5
11D2
330
11D1
100
AcDbDictionary
280
     1
281
     1
  3
ACAD_DIMASSOC
360
11D3
  0
DICTIONARY
  5
11D5
330
11D4
100
AcDbDictionary
280
     1
281
     1
  3
ACAD_DIMASSOC
360
11D6
  0
DICTIONARY
  5
11D8
330
11D7
100
AcDbDictionary
280
     1
281
     1
  3
ACAD_DIMASSOC
360
11D9
  0
DICTIONARY
  5
1263
330
1262
100
AcDbDictionary
280
     1
281
     1
  3
ACAD_DIMASSOC
360
1264
  0
DICTIONARY
  5
BE
102
{ACAD_REACTORS
330
C
102
}
330
C
100
AcDbDictionary
281
     1
  0
DICTIONARY
  5
D
102
{ACAD_REACTORS
330
C
102
}
330
C
100
AcDbDictionary
281
     1
  0
DICTIONARY
  5
1A
102
{ACAD_REACTORS
330
C
102
}
330
C
100
AcDbDictionary
281
     1
  3
Model
350
22
  3
配置1
350
1E
  3
配置2
350
26
  0
DICTIONARY
  5
BD
102
{ACAD_REACTORS
330
C
102
}
330
C
100
AcDbDictionary
281
     1
  0
DICTIONARY
  5
17
102
{ACAD_REACTORS
330
C
102
}
330
C
100
AcDbDictionary
281
     1
  3
Standard
350
18
  0
DICTIONARY
  5
19
102
{ACAD_REACTORS
330
C
102
}
330
C
100
AcDbDictionary
281
     1
  0
ACDBDICTIONARYWDFLT
  5
E
102
{ACAD_REACTORS
330
C
102
}
330
C
100
AcDbDictionary
281
     1
  3
Normal
350
F
100
AcDbDictionaryWithDefault
340
F
  0
DICTIONARY
  5
11A
102
{ACAD_REACTORS
330
C
102
}
330
C
100
AcDbDictionary
281
     1
  3
Standard
350
11B
  0
DICTIONARY
  5
17DD
102
{ACAD_REACTORS
330
C
102
}
330
C
100
AcDbDictionary
281
     1
  0
DICTIONARY
  5
94
102
{ACAD_REACTORS
330
C
102
}
330
C
100
AcDbDictionary
281
     1
  3
CTABLESTYLE
350
138
  3
DIMASSOC
350
96
  3
INDEXCTL
350
95
  3
PROJECTNAME
350
17DA
  0
DICTIONARY
  5
5B
102
{ACAD_REACTORS
330
C
102
}
330
C
100
AcDbDictionary
281
     1
  3
AcmBOM
350
1B5
  3
AcmStdDictionary
350
61
  3
AMDTSECTSYM_ARROWCOLOR
350
123
  0
DICTIONARY
  5
41
102
{ACAD_REACTORS
330
C
102
}
330
C
100
AcDbDictionary
281
     1
  0
DICTIONARY
  5
1B8
102
{ACAD_REACTORS
330
C
102
}
330
C
100
AcDbDictionary
281
     1
  0
XRECORD
  5
17DC
102
{ACAD_REACTORS
330
C
102
}
330
C
100
AcDbXrecord
280
     1
  1
DWGPROPS COOKIE
  2

  3

  4

  6

  7

  8

  9

300
AmdtFileType=84
301
=
302
=
303
=
304
=
305
=
306
=
307
=
308
=
309
=
 40
0.0185389467592593
 41
2454377.561548391
 42
2454377.580464224
  1

 90
        1
  0
DICTIONARY
  5
5B7
102
{ACAD_REACTORS
330
3F9
102
}
330
3F9
100
AcDbDictionary
281
     1
  0
DICTIONARY
  5
BB1
102
{ACAD_REACTORS
330
3F9
102
}
330
3F9
100
AcDbDictionary
281
     1
  0
DICTIONARY
  5
5B6
102
{ACAD_REACTORS
330
3F9
102
}
330
3F9
100
AcDbDictionary
281
     1
1001
ACAD
1000
<All
  0
DIMASSOC
  5
112B
102
{ACAD_REACTORS
330
112A
102
}
330
112A
100
AcDbDimAssoc
330
1129
 90
        2
 70
     0
 71
     0
  1
AcDbOsnapPointRef
 72
    13
331
1091
 73
     0
 91
        0
 40
0.0
 10
0.0
 20
0.0
 30
2.000000000000000E+50
 75
     0
  0
DIMASSOC
  5
1190
102
{ACAD_REACTORS
330
118F
102
}
330
118F
100
AcDbDimAssoc
330
118E
 90
        3
 70
     0
 71
     0
  1
AcDbOsnapPointRef
 72
     1
331
118C
 73
     0
 91
        0
 40
0.0
 10
0.0
 20
0.0
 30
2.000000000000000E+50
 75
     0
  1
AcDbOsnapPointRef
 72
     1
331
1188
 73
     0
 91
        0
 40
0.0
 10
0.0
 20
0.0
 30
2.000000000000000E+50
 75
     0
  0
DIMASSOC
  5
1193
102
{ACAD_REACTORS
330
1192
102
}
330
1192
100
AcDbDimAssoc
330
1191
 90
        3
 70
     0
 71
     0
  1
AcDbOsnapPointRef
 72
    13
331
1147
 73
     0
 91
        0
 40
0.0
 10
0.0
 20
0.0
 30
2.000000000000000E+50
 75
     0
  1
AcDbOsnapPointRef
 72
     1
331
1148
 73
     0
 91
        0
 40
0.0
 10
0.0
 20
0.0
 30
2.000000000000000E+50
 75
     0
  0
DIMASSOC
  5
1196
102
{ACAD_REACTORS
330
1195
102
}
330
1195
100
AcDbDimAssoc
330
1194
 90
        3
 70
     0
 71
     0
  1
AcDbOsnapPointRef
 72
     1
331
1147
 73
     0
 91
        0
 40
0.0
 10
0.0
 20
0.0
 30
2.000000000000000E+50
 75
     0
  1
AcDbOsnapPointRef
 72
     1
331
118B
 73
     0
 91
        0
 40
0.0
 10
0.0
 20
0.0
 30
2.000000000000000E+50
 75
     0
  0
DIMASSOC
  5
1199
102
{ACAD_REACTORS
330
1198
102
}
330
1198
100
AcDbDimAssoc
330
1197
 90
        3
 70
     0
 71
     0
  1
AcDbOsnapPointRef
 72
     1
331
118B
 73
     0
 91
        0
 40
0.0
 10
0.0
 20
0.0
 30
2.000000000000000E+50
 75
     0
  1
AcDbOsnapPointRef
 72
     1
331
1187
 73
     0
 91
        0
 40
0.0
 10
0.0
 20
0.0
 30
2.000000000000000E+50
 75
     0
  0
DIMASSOC
  5
119C
102
{ACAD_REACTORS
330
119B
102
}
330
119B
100
AcDbDimAssoc
330
119A
 90
        3
 70
     0
 71
     0
  1
AcDbOsnapPointRef
 72
     1
331
1180
 73
     0
 91
        0
 40
0.0
 10
0.0
 20
0.0
 30
2.000000000000000E+50
 75
     0
  1
AcDbOsnapPointRef
 72
     1
331
1184
 73
     0
 91
        0
 40
0.0
 10
0.0
 20
0.0
 30
2.000000000000000E+50
 75
     0
  0
DIMASSOC
  5
11BB
102
{ACAD_REACTORS
330
11BA
102
}
330
11BA
100
AcDbDimAssoc
330
11B9
 90
        3
 70
     0
 71
     0
  1
AcDbOsnapPointRef
 72
    13
331
1134
 73
     0
 91
        0
 40
0.0
 10
0.0
 20
0.0
 30
2.000000000000000E+50
 75
     0
  1
AcDbOsnapPointRef
 72
     1
331
11B8
 73
     0
 91
        0
 40
0.0
 10
0.0
 20
0.0
 30
2.000000000000000E+50
 75
     0
  0
DIMASSOC
  5
11BE
102
{ACAD_REACTORS
330
11BD
102
}
330
11BD
100
AcDbDimAssoc
330
11BC
 90
        3
 70
     0
 71
     0
  1
AcDbOsnapPointRef
 72
     1
331
11B8
 73
     0
 91
        0
 40
0.0
 10
0.0
 20
0.0
 30
2.000000000000000E+50
 75
     0
  1
AcDbOsnapPointRef
 72
     1
331
11B4
 73
     0
 91
        0
 40
0.0
 10
0.0
 20
0.0
 30
2.000000000000000E+50
 75
     0
  0
DIMASSOC
  5
11C1
102
{ACAD_REACTORS
330
11C0
102
}
330
11C0
100
AcDbDimAssoc
330
11BF
 90
        3
 70
     0
 71
     0
  1
AcDbOsnapPointRef
 72
     1
331
1134
 73
     0
 91
        0
 40
0.0
 10
0.0
 20
0.0
 30
2.000000000000000E+50
 75
     0
  1
AcDbOsnapPointRef
 72
     1
331
11B7
 73
     0
 91
        0
 40
0.0
 10
0.0
 20
0.0
 30
2.000000000000000E+50
 75
     0
  0
DIMASSOC
  5
11C4
102
{ACAD_REACTORS
330
11C3
102
}
330
11C3
100
AcDbDimAssoc
330
11C2
 90
        3
 70
     0
 71
     0
  1
AcDbOsnapPointRef
 72
    13
331
1159
 73
     0
 91
        0
 40
0.0
 10
0.0
 20
0.0
 30
2.000000000000000E+50
 75
     0
  1
AcDbOsnapPointRef
 72
     1
331
11A8
 73
     0
 91
        0
 40
0.0
 10
0.0
 20
0.0
 30
2.000000000000000E+50
 75
     0
  0
DIMASSOC
  5
11C7
102
{ACAD_REACTORS
330
11C6
102
}
330
11C6
100
AcDbDimAssoc
330
11C5
 90
        3
 70
     0
 71
     0
  1
AcDbOsnapPointRef
 72
     1
331
11A8
 73
     0
 91
        0
 40
0.0
 10
0.0
 20
0.0
 30
2.000000000000000E+50
 75
     0
  1
AcDbOsnapPointRef
 72
     1
331
11A0
 73
     0
 91
        0
 40
0.0
 10
0.0
 20
0.0
 30
2.000000000000000E+50
 75
     0
  0
DIMASSOC
  5
11CA
102
{ACAD_REACTORS
330
11C9
102
}
330
11C9
100
AcDbDimAssoc
330
11C8
 90
        3
 70
     0
 71
     0
  1
AcDbOsnapPointRef
 72
     1
331
11A0
 73
     0
 91
        0
 40
0.0
 10
0.0
 20
0.0
 30
2.000000000000000E+50
 75
     0
  1
AcDbOsnapPointRef
 72
     1
331
F4E
 73
     0
 91
        0
 40
0.0
 10
0.0
 20
0.0
 30
2.000000000000000E+50
 75
     0
  0
DIMASSOC
  5
11CD
102
{ACAD_REACTORS
330
11CC
102
}
330
11CC
100
AcDbDimAssoc
330
11CB
 90
        3
 70
     0
 71
     0
  1
AcDbOsnapPointRef
 72
     1
331
1134
 73
     0
 91
        0
 40
0.0
 10
0.0
 20
0.0
 30
2.000000000000000E+50
 75
     0
  1
AcDbOsnapPointRef
 72
    13
331
1137
 73
     0
 91
        0
 40
0.0
 10
0.0
 20
0.0
 30
2.000000000000000E+50
 75
     0
  0
DIMASSOC
  5
11D0
102
{ACAD_REACTORS
330
11CF
102
}
330
11CF
100
AcDbDimAssoc
330
11CE
 90
        2
 70
     0
 71
     0
  1
AcDbOsnapPointRef
 72
    13
331
1101
 73
     0
 91
        0
 40
0.0
 10
0.0
 20
0.0
 30
2.000000000000000E+50
 75
     0
  0
DIMASSOC
  5
11D3
102
{ACAD_REACTORS
330
11D2
102
}
330
11D2
100
AcDbDimAssoc
330
11D1
 90
        3
 70
     0
 71
     0
  1
AcDbOsnapPointRef
 72
    13
331
1134
 73
     0
 91
        0
 40
0.0
 10
0.0
 20
0.0
 30
2.000000000000000E+50
 75
     0
  1
AcDbOsnapPointRef
 72
     1
331
10E6
 73
     0
 91
        0
 40
0.0
 10
0.0
 20
0.0
 30
2.000000000000000E+50
 75
     0
  0
DIMASSOC
  5
11D6
102
{ACAD_REACTORS
330
11D5
102
}
330
11D5
100
AcDbDimAssoc
330
11D4
 90
        3
 70
     0
 71
     0
  1
AcDbOsnapPointRef
 72
    13
331
1148
 73
     0
 91
        0
 40
0.0
 10
0.0
 20
0.0
 30
2.000000000000000E+50
 75
     0
  1
AcDbOsnapPointRef
 72
     1
331
1181
 73
     0
 91
        0
 40
0.0
 10
0.0
 20
0.0
 30
2.000000000000000E+50
 75
     0
  0
DIMASSOC
  5
11D9
102
{ACAD_REACTORS
330
11D8
102
}
330
11D8
100
AcDbDimAssoc
330
11D7
 90
        3
 70
     0
 71
     0
  1
AcDbOsnapPointRef
 72
     1
331
1181
 73
     0
 91
        0
 40
0.0
 10
0.0
 20
0.0
 30
2.000000000000000E+50
 75
     0
  1
AcDbOsnapPointRef
 72
     1
331
1185
 73
     0
 91
        0
 40
0.0
 10
0.0
 20
0.0
 30
2.000000000000000E+50
 75
     0
  0
DIMASSOC
  5
1264
102
{ACAD_REACTORS
330
1263
102
}
330
1263
100
AcDbDimAssoc
330
1262
 90
        2
 70
     0
 71
     0
  1
AcDbOsnapPointRef
 72
     1
331
100F
 73
     0
 91
        0
 40
0.0
 10
0.0
 20
0.0
 30
2.000000000000000E+50
 75
     0
  0
LAYOUT
  5
22
102
{ACAD_XDICTIONARY
360
17E0
102
}
102
{ACAD_REACTORS
330
1A
102
}
330
1A
100
AcDbPlotSettings
  1

  2
\\RD\EPSON Stylus C63 Series單色
  4
A4
  6

 40
3.757083177566528
 41
3.757076978683471
 42
3.757080078125
 43
3.757080078125
 44
209.9733276367187
 45
296.9683227539062
 46
0.0
 47
0.0
 48
0.0
 49
0.0
140
0.0
141
0.0
142
1.0
143
0.3405120737814363
 70
 11952
 72
     1
 73
     0
 74
     0
  7
單色出圖.ctb
 75
     0
147
2.936753428137963
148
-2047.07469463503
149
-1261.649717473083
100
AcDbLayout
  1
Model
 70
     1
 71
     0
 10
0.0
 20
0.0
 11
12.0
 21
9.0
 12
0.0
 22
0.0
 32
0.0
 14
0.0
 24
0.0
 34
0.0
 15
0.0
 25
0.0
 35
0.0
146
0.0
 13
0.0
 23
0.0
 33
0.0
 16
1.0
 26
0.0
 36
0.0
 17
0.0
 27
1.0
 37
0.0
 76
     0
330
1F
1001
ACAD_PSEXT
1000
\\RD\EPSON Stylus C63 Series單色
1000
EPSON Stylus C63 Series
1000
\\RD
1000

1070
     0
  0
LAYOUT
  5
1E
102
{ACAD_XDICTIONARY
360
17DE
102
}
102
{ACAD_REACTORS
330
1A
102
}
330
1A
100
AcDbPlotSettings
  1

  2

  4

  6

 40
0.0
 41
0.0
 42
0.0
 43
0.0
 44
0.0
 45
0.0
 46
0.0
 47
0.0
 48
0.0
 49
0.0
140
0.0
141
0.0
142
1.0
143
1.0
 70
   688
 72
     0
 73
     0
 74
     5
  7
單色出圖.ctb
 75
    16
147
1.0
148
0.0
149
0.0
100
AcDbLayout
  1
配置1
 70
     1
 71
     1
 10
0.0
 20
0.0
 11
420.0
 21
297.0
 12
0.0
 22
0.0
 32
0.0
 14
1.000000000000000E+20
 24
1.000000000000000E+20
 34
1.000000000000000E+20
 15
-1.000000000000000E+20
 25
-1.000000000000000E+20
 35
-1.000000000000000E+20
146
0.0
 13
0.0
 23
0.0
 33
0.0
 16
1.0
 26
0.0
 36
0.0
 17
0.0
 27
1.0
 37
0.0
 76
     0
330
1B
  0
LAYOUT
  5
26
102
{ACAD_XDICTIONARY
360
17E2
102
}
102
{ACAD_REACTORS
330
1A
102
}
330
1A
100
AcDbPlotSettings
  1

  2

  4

  6

 40
0.0
 41
0.0
 42
0.0
 43
0.0
 44
0.0
 45
0.0
 46
0.0
 47
0.0
 48
0.0
 49
0.0
140
0.0
141
0.0
142
1.0
143
1.0
 70
   688
 72
     0
 73
     0
 74
     5
  7
單色出圖.ctb
 75
    16
147
1.0
148
0.0
149
0.0
100
AcDbLayout
  1
配置2
 70
     1
 71
     2
 10
0.0
 20
0.0
 11
12.0
 21
9.0
 12
0.0
 22
0.0
 32
0.0
 14
0.0
 24
0.0
 34
0.0
 15
0.0
 25
0.0
 35
0.0
146
0.0
 13
0.0
 23
0.0
 33
0.0
 16
1.0
 26
0.0
 36
0.0
 17
0.0
 27
1.0
 37
0.0
 76
     0
330
23
  0
MLINESTYLE
  5
18
102
{ACAD_REACTORS
330
17
102
}
330
17
100
AcDbMlineStyle
  2
STANDARD
 70
     0
  3

 62
   256
 51
90.0
 52
90.0
 71
     2
 49
0.5
 62
   256
  6
BYLAYER
 49
-0.5
 62
   256
  6
BYLAYER
  0
ACDBPLACEHOLDER
  5
F
102
{ACAD_REACTORS
330
E
102
}
330
E
  0
TABLESTYLE
  5
11B
102
{ACAD_REACTORS
330
11A
102
}
330
11A
100
AcDbTableStyle
  3
Standard
 70
     0
 71
     0
 40
1.5
 41
1.5
280
     0
281
     0
  7
STANDARD
140
4.5
170
     2
 62
     0
 63
     7
283
     0
274
    -2
284
     1
 64
     0
275
    -2
285
     1
 65
     0
276
    -2
286
     1
 66
     0
277
    -2
287
     1
 67
     0
278
    -2
288
     1
 68
     0
279
    -2
289
     1
 69
     0
  7
STANDARD
140
6.0
170
     5
 62
     0
 63
     7
283
     0
274
    -2
284
     1
 64
     0
275
    -2
285
     1
 65
     0
276
    -2
286
     1
 66
     0
277
    -2
287
     1
 67
     0
278
    -2
288
     1
 68
     0
279
    -2
289
     1
 69
     0
  7
STANDARD
140
4.5
170
     5
 62
     0
 63
     7
283
     0
274
    -2
284
     1
 64
     0
275
    -2
285
     1
 65
     0
276
    -2
286
     1
 66
     0
277
    -2
287
     1
 67
     0
278
    -2
288
     1
 68
     0
279
    -2
289
     1
 69
     0
  0
DICTIONARYVAR
  5
138
102
{ACAD_REACTORS
330
94
102
}
330
94
100
DictionaryVariables
280
     0
  1
STANDARD
  0
DICTIONARYVAR
  5
96
102
{ACAD_REACTORS
330
94
102
}
330
94
100
DictionaryVariables
280
     0
  1
2
  0
DICTIONARYVAR
  5
95
102
{ACAD_REACTORS
330
94
102
}
330
94
100
DictionaryVariables
280
     0
  1
0
  0
DICTIONARYVAR
  5
17DA
102
{ACAD_REACTORS
330
94
102
}
330
94
100
DictionaryVariables
280
     0
  1

  0
DICTIONARY
  5
1B5
102
{ACAD_REACTORS
330
5B
102
}
330
5B
100
AcDbDictionary
281
     1
  0
DICTIONARY
  5
61
102
{ACAD_REACTORS
330
5B
102
}
330
5B
100
AcDbDictionary
281
     1
  0
XRECORD
  5
123
102
{ACAD_REACTORS
330
5B
102
}
330
5B
100
AcDbXrecord
280
     1
 90
-1023410169
  0
DICTIONARY
  5
17E0
330
22
100
AcDbDictionary
280
     1
281
     1
  3
ACAD_XREC_ROUNDTRIP
360
17E1
  0
DICTIONARY
  5
17DE
330
1E
100
AcDbDictionary
280
     1
281
     1
  3
ACAD_XREC_ROUNDTRIP
360
17DF
  0
DICTIONARY
  5
17E2
330
26
100
AcDbDictionary
280
     1
281
     1
  3
ACAD_XREC_ROUNDTRIP
360
17E3
  0
XRECORD
  5
17E1
102
{ACAD_REACTORS
330
17E0
102
}
330
17E0
100
AcDbXrecord
280
     1
102
SHADEPLOT
 70
     0
102
SHADEPLOTRESLEVEL
 70
     2
102
SHADEPLOTCUSTOMDPI
 70
   300
  0
XRECORD
  5
17DF
102
{ACAD_REACTORS
330
17DE
102
}
330
17DE
100
AcDbXrecord
280
     1
102
SHADEPLOT
 70
     0
102
SHADEPLOTRESLEVEL
 70
     2
102
SHADEPLOTCUSTOMDPI
 70
   300
  0
XRECORD
  5
17E3
102
{ACAD_REACTORS
330
17E2
102
}
330
17E2
100
AcDbXrecord
280
     1
102
SHADEPLOT
 70
     0
102
SHADEPLOTRESLEVEL
 70
     2
102
SHADEPLOTCUSTOMDPI
 70
   300
  0
ENDSEC
  0
EOF
