  0
SECTION
  2
HEADER
  9
$ACADVER
  1
AC1015
  9
$ACADMAINTVER
 70
    20
  9
$DWGCODEPAGE
  3
ANSI_950
  9
$INSBASE
 10
0.0
 20
0.0
 30
0.0
  9
$EXTMIN
 10
102.8146373280494
 20
103.1691977444027
 30
-0.0046090183057004
  9
$EXTMAX
 10
266.0440071463167
 20
309.3769210548495
 30
151.0444448128728
  9
$LIMMIN
 10
0.0
 20
0.0
  9
$LIMMAX
 10
420.0
 20
297.0
  9
$ORTHOMODE
 70
     1
  9
$REGENMODE
 70
     1
  9
$FILLMODE
 70
     1
  9
$QTEXTMODE
 70
     0
  9
$MIRRTEXT
 70
     1
  9
$LTSCALE
 40
1.0
  9
$ATTMODE
 70
     1
  9
$TEXTSIZE
 40
3.5
  9
$TRACEWID
 40
1.0
  9
$TEXTSTYLE
  7
STANDARD
  9
$CLAYER
  8
0
  9
$CELTYPE
  6
ByLayer
  9
$CECOLOR
 62
   256
  9
$CELTSCALE
 40
1.0
  9
$DISPSILH
 70
     0
  9
$DIMSCALE
 40
1.0
  9
$DIMASZ
 40
3.0
  9
$DIMEXO
 40
1.0
  9
$DIMDLI
 40
8.0
  9
$DIMRND
 40
0.0
  9
$DIMDLE
 40
0.0
  9
$DIMEXE
 40
1.5
  9
$DIMTP
 40
0.1
  9
$DIMTM
 40
0.1
  9
$DIMTXT
 40
3.5
  9
$DIMCEN
 40
3.0
  9
$DIMTSZ
 40
0.0
  9
$DIMTOL
 70
     0
  9
$DIMLIM
 70
     0
  9
$DIMTIH
 70
     0
  9
$DIMTOH
 70
     0
  9
$DIMSE1
 70
     0
  9
$DIMSE2
 70
     0
  9
$DIMTAD
 70
     1
  9
$DIMZIN
 70
     8
  9
$DIMBLK
  1

  9
$DIMASO
 70
     1
  9
$DIMSHO
 70
     1
  9
$DIMPOST
  1

  9
$DIMAPOST
  1
"
  9
$DIMALT
 70
     0
  9
$DIMALTD
 70
     2
  9
$DIMALTF
 40
0.0393701
  9
$DIMLFAC
 40
1.0
  9
$DIMTOFL
 70
     1
  9
$DIMTVP
 40
0.0
  9
$DIMTIX
 70
     0
  9
$DIMSOXD
 70
     0
  9
$DIMSAH
 70
     0
  9
$DIMBLK1
  1

  9
$DIMBLK2
  1

  9
$DIMSTYLE
  2
AM_ISO
  9
$DIMCLRD
 70
   256
  9
$DIMCLRE
 70
   256
  9
$DIMCLRT
 70
   256
  9
$DIMTFAC
 40
0.71
  9
$DIMGAP
 40
0.8
  9
$DIMJUST
 70
     0
  9
$DIMSD1
 70
     0
  9
$DIMSD2
 70
     0
  9
$DIMTOLJ
 70
     0
  9
$DIMTZIN
 70
     8
  9
$DIMALTZ
 70
     0
  9
$DIMALTTZ
 70
     0
  9
$DIMUPT
 70
     0
  9
$DIMDEC
 70
     2
  9
$DIMTDEC
 70
     8
  9
$DIMALTU
 70
     2
  9
$DIMALTTD
 70
     2
  9
$DIMTXSTY
  7
STANDARD
  9
$DIMAUNIT
 70
     0
  9
$DIMADEC
 70
     0
  9
$DIMALTRND
 40
0.0
  9
$DIMAZIN
 70
     2
  9
$DIMDSEP
 70
    46
  9
$DIMATFIT
 70
     3
  9
$DIMFRAC
 70
     0
  9
$DIMLDRBLK
  1

  9
$DIMLUNIT
 70
     2
  9
$DIMLWD
 70
    -1
  9
$DIMLWE
 70
    -1
  9
$DIMTMOVE
 70
     0
  9
$LUNITS
 70
     2
  9
$LUPREC
 70
     2
  9
$SKETCHINC
 40
1.0
  9
$FILLETRAD
 40
2.5
  9
$AUNITS
 70
     0
  9
$AUPREC
 70
     0
  9
$MENU
  1
.
  9
$ELEVATION
 40
0.0
  9
$PELEVATION
 40
0.0
  9
$THICKNESS
 40
0.0
  9
$LIMCHECK
 70
     0
  9
$CHAMFERA
 40
2.5
  9
$CHAMFERB
 40
2.5
  9
$CHAMFERC
 40
20.0
  9
$CHAMFERD
 40
0.0
  9
$SKPOLY
 70
     0
  9
$TDCREATE
 40
2453021.369367211
  9
$TDUCREATE
 40
2453021.036033877
  9
$TDUPDATE
 40
2453559.600154433
  9
$TDUUPDATE
 40
2453559.266821100
  9
$TDINDWG
 40
0.4073153819
  9
$TDUSRTIMER
 40
0.4073150347
  9
$USRTIMER
 70
     1
  9
$ANGBASE
 50
0.0
  9
$ANGDIR
 70
     0
  9
$PDMODE
 70
     0
  9
$PDSIZE
 40
0.0
  9
$PLINEWID
 40
0.0
  9
$SPLFRAME
 70
     0
  9
$SPLINETYPE
 70
     6
  9
$SPLINESEGS
 70
     8
  9
$HANDSEED
  5
2BB9
  9
$SURFTAB1
 70
     6
  9
$SURFTAB2
 70
     6
  9
$SURFTYPE
 70
     6
  9
$SURFU
 70
     6
  9
$SURFV
 70
     6
  9
$UCSBASE
  2

  9
$UCSNAME
  2

  9
$UCSORG
 10
0.0
 20
0.0
 30
0.0
  9
$UCSXDIR
 10
1.0
 20
0.0
 30
0.0
  9
$UCSYDIR
 10
0.0
 20
1.0
 30
0.0
  9
$UCSORTHOREF
  2

  9
$UCSORTHOVIEW
 70
     0
  9
$UCSORGTOP
 10
0.0
 20
0.0
 30
0.0
  9
$UCSORGBOTTOM
 10
0.0
 20
0.0
 30
0.0
  9
$UCSORGLEFT
 10
0.0
 20
0.0
 30
0.0
  9
$UCSORGRIGHT
 10
0.0
 20
0.0
 30
0.0
  9
$UCSORGFRONT
 10
0.0
 20
0.0
 30
0.0
  9
$UCSORGBACK
 10
0.0
 20
0.0
 30
0.0
  9
$PUCSBASE
  2

  9
$PUCSNAME
  2

  9
$PUCSORG
 10
0.0
 20
0.0
 30
0.0
  9
$PUCSXDIR
 10
1.0
 20
0.0
 30
0.0
  9
$PUCSYDIR
 10
0.0
 20
1.0
 30
0.0
  9
$PUCSORTHOREF
  2

  9
$PUCSORTHOVIEW
 70
     0
  9
$PUCSORGTOP
 10
0.0
 20
0.0
 30
0.0
  9
$PUCSORGBOTTOM
 10
0.0
 20
0.0
 30
0.0
  9
$PUCSORGLEFT
 10
0.0
 20
0.0
 30
0.0
  9
$PUCSORGRIGHT
 10
0.0
 20
0.0
 30
0.0
  9
$PUCSORGFRONT
 10
0.0
 20
0.0
 30
0.0
  9
$PUCSORGBACK
 10
0.0
 20
0.0
 30
0.0
  9
$USERI1
 70
     0
  9
$USERI2
 70
     0
  9
$USERI3
 70
     0
  9
$USERI4
 70
     0
  9
$USERI5
 70
     0
  9
$USERR1
 40
0.0
  9
$USERR2
 40
0.0
  9
$USERR3
 40
0.0
  9
$USERR4
 40
0.0
  9
$USERR5
 40
0.0
  9
$WORLDVIEW
 70
     1
  9
$SHADEDGE
 70
     3
  9
$SHADEDIF
 70
    70
  9
$TILEMODE
 70
     1
  9
$MAXACTVP
 70
    64
  9
$PINSBASE
 10
0.0
 20
0.0
 30
0.0
  9
$PLIMCHECK
 70
     0
  9
$PEXTMIN
 10
1.000000000000000E+20
 20
1.000000000000000E+20
 30
1.000000000000000E+20
  9
$PEXTMAX
 10
-1.000000000000000E+20
 20
-1.000000000000000E+20
 30
-1.000000000000000E+20
  9
$PLIMMIN
 10
0.0
 20
0.0
  9
$PLIMMAX
 10
420.0
 20
297.0
  9
$UNITMODE
 70
     0
  9
$VISRETAIN
 70
     1
  9
$PLINEGEN
 70
     0
  9
$PSLTSCALE
 70
     1
  9
$TREEDEPTH
 70
  3020
  9
$CMLSTYLE
  2
Standard
  9
$CMLJUST
 70
     0
  9
$CMLSCALE
 40
20.0
  9
$PROXYGRAPHICS
 70
     1
  9
$MEASUREMENT
 70
     1
  9
$CELWEIGHT
370
    -1
  9
$ENDCAPS
280
     0
  9
$JOINSTYLE
280
     0
  9
$LWDISPLAY
290
     0
  9
$INSUNITS
 70
     4
  9
$HYPERLINKBASE
  1

  9
$STYLESHEET
  1
彩色出圖.ctb
  9
$XEDIT
290
     1
  9
$CEPSNTYPE
380
     0
  9
$PSTYLEMODE
290
     1
  9
$FINGERPRINTGUID
  2
{6C02722A-18D3-491A-897A-B8025DE410A9}
  9
$VERSIONGUID
  2
{D9B7D2FF-FA63-4E51-9E79-7B67C2DE7AC1}
  9
$EXTNAMES
290
     1
  9
$PSVPSCALE
 40
0.0
  9
$OLESTARTUP
290
     0
  0
ENDSEC
  0
SECTION
  2
CLASSES
  0
CLASS
  1
ACDBDICTIONARYWDFLT
  2
AcDbDictionaryWithDefault
  3
ObjectDBX Classes
 90
        0
280
     0
281
     0
  0
CLASS
  1
ACDBPLACEHOLDER
  2
AcDbPlaceHolder
  3
ObjectDBX Classes
 90
        0
280
     0
281
     0
  0
CLASS
  1
LAYOUT
  2
AcDbLayout
  3
ObjectDBX Classes
 90
        0
280
     0
281
     0
  0
CLASS
  1
AMGSETTINGSOBJ
  2
AmgSettingsObj
  3
"AcadM|Product Description: AutoCAD Mechanical 2000|Company: Autodesk"
 90
        0
280
     0
281
     0
  0
CLASS
  1
ACME_DOCUMENT
  2
AcMeDbDoc
  3
AcMeServices
 90
        0
280
     0
281
     0
  0
CLASS
  1
ACMESCOPE
  2
AcMeScope
  3
AcMeServices
 90
        0
280
     0
281
     0
  0
CLASS
  1
ACMECOMMANDHISTORY
  2
AcMeCommandHistory
  3
AcMeServices
 90
        0
280
     0
281
     0
  0
CLASS
  1
ACIMSYSVARMAN
  2
AcImSysVarManager
  3
AcMeServices
 90
        0
280
     0
281
     0
  0
CLASS
  1
ACIMREALSYSVAR
  2
AcImRealSysVar
  3
AcMeServices
 90
        0
280
     0
281
     0
  0
CLASS
  1
ACIMINTSYSVAR
  2
AcImIntSysVar
  3
AcMeServices
 90
        0
280
     0
281
     0
  0
CLASS
  1
ACMEDRAWINGMAN
  2
AcMeDrawingMan
  3
AcMeServices
 90
        0
280
     0
281
     0
  0
CLASS
  1
ACMEVIEW
  2
AcMeView
  3
AcMeServices
 90
        0
280
     0
281
     0
  0
CLASS
  1
ACDBENTITYCACHE
  2
AcMeEntityCache
  3
AcMeServices
 90
        0
280
     0
281
     0
  0
CLASS
  1
GSMANAGER
  2
AcMeGSManager
  3
AcMeServices
 90
        0
280
     0
281
     0
  0
CLASS
  1
AMDTINTERNALREACTOR
  2
AmdtInternalReactor
  3
AcMeServices
 90
        0
280
     0
281
     0
  0
CLASS
  1
ACMESTATEMGR
  2
AcMeStateMgr
  3
AcMeServices
 90
        0
280
     0
281
     0
  0
CLASS
  1
ACGREFMASTER
  2
AcGrefMaster
  3
AcAttribServices
 90
        0
280
     0
281
     0
  0
CLASS
  1
ACME_DATABASE
  2
AcMeDbDatabase
  3
AcMeServices
 90
        0
280
     0
281
     0
  0
CLASS
  1
ACRFINSADJUSTERMGR
  2
AcRfInsAdjusterMgr
  3
AcMeServices
 90
        0
280
     0
281
     0
  0
CLASS
  1
ACGREFACADMASTER
  2
AcGrefacadMaster
  3
AcGrefServices
 90
        0
280
     0
281
     0
  0
CLASS
  1
AMIMASTER
  2
AmiMaster
  3
AmiServices
 90
        0
280
     0
281
     0
  0
CLASS
  1
ACMDATADICTIONARY
  2
AcmDataDictionary
  3
"AcmSymBB|Product Description: AutoCAD Mechanical 2004 DX|Company: Autodesk"
 90
        0
280
     0
281
     0
  0
CLASS
  1
ACMDATAENTRYBLOCK
  2
AcmDataEntryBlock
  3
"AcmSymBB|Product Description: AutoCAD Mechanical 2004 DX|Company: Autodesk"
 90
    32768
280
     0
281
     0
  0
CLASS
  1
ACIMSTRSYSVAR
  2
AcImStrSysVar
  3
AcMeServices
 90
        0
280
     0
281
     0
  0
CLASS
  1
ACMSTANDARDISO
  2
AcmStandardISO
  3
"Amdt_StdImp|Product Description: AutoCAD Mechanical 2004 DX|Company: Autodesk"
 90
        0
280
     0
281
     0
  0
CLASS
  1
AMGOBJPROPCFG
  2
AmgObjPropCfg
  3
"AmgLay|Product Description: AutoCAD Mechanical 2000|Company: Autodesk"
 90
        1
280
     0
281
     0
  0
CLASS
  1
AMDTEDGESTANDARDISO
  2
AmdtEdgeStdISO
  3
"Amdt_StdImp|Product Description: AutoCAD Mechanical 2004 DX|Company: Autodesk"
 90
    32768
280
     0
281
     0
  0
CLASS
  1
ACMSURFSTANDARDISO
  2
AcmSurfTextStdISO
  3
"Amdt_StdImp|Product Description: AutoCAD Mechanical 2004 DX|Company: Autodesk"
 90
        0
280
     0
281
     0
  0
CLASS
  1
ACMFCFSTANDARDISO
  2
AcmFCFStdISO
  3
"Amdt_StdImp|Product Description: AutoCAD Mechanical 2004 DX|Company: Autodesk"
 90
        0
280
     0
281
     0
  0
CLASS
  1
ACMWELDSTANDARDISO
  2
AcmWeldingStdISO
  3
"Amdt_StdImp|Product Description: AutoCAD Mechanical 2004 DX|Company: Autodesk"
 90
        0
280
     0
281
     0
  0
CLASS
  1
ACMIDSTANDARDISO
  2
AcmIdStdISO
  3
"Amdt_StdImp|Product Description: AutoCAD Mechanical 2004 DX|Company: Autodesk"
 90
        0
280
     0
281
     0
  0
CLASS
  1
ACMDATUMSTANDARDISO
  2
AcmDatumStdISO
  3
"Amdt_StdImp|Product Description: AutoCAD Mechanical 2004 DX|Company: Autodesk"
 90
        0
280
     0
281
     0
  0
CLASS
  1
ACMBOMSTANDARDISO
  2
AcmBOMStdISO
  3
"Amdt_StdImp|Product Description: AutoCAD Mechanical 2004 DX|Company: Autodesk"
 90
        0
280
     0
281
     0
  0
CLASS
  1
ACMDETAILSTANDARDISO
  2
AmdtDetailSymStdISO
  3
"Amdt_StdImp|Product Description: AutoCAD Mechanical 2004 DX|Company: Autodesk"
 90
        0
280
     0
281
     0
  0
CLASS
  1
ACMSECTIONSTANDARDISO
  2
AmdtSectionSymStdISO
  3
"Amdt_StdImp|Product Description: AutoCAD Mechanical 2004 DX|Company: Autodesk"
 90
        0
280
     0
281
     0
  0
CLASS
  1
ACMCENTERLINESTANDARDISO
  2
AmdtCenterLineStdISO
  3
"Amdt_StdImp|Product Description: AutoCAD Mechanical 2004 DX|Company: Autodesk"
 90
        0
280
     0
281
     0
  0
CLASS
  1
ACMNOTESTANDARDISO
  2
AmdtNoteStdISO
  3
"Amdt_StdImp|Product Description: AutoCAD Mechanical 2004 DX|Company: Autodesk"
 90
        0
280
     0
281
     0
  0
CLASS
  1
ACAMGLAYSTD
  2
AcAmgLayStd
  3
"AcAmgLayStd|Product Description: AutoCAD Mechanical 2000|Company: Autodesk"
 90
        0
280
     0
281
     0
  0
CLASS
  1
ACAMGDIMSTD
  2
AcAmgDimStd
  3
"AcAmgDimStd|Product Description: AutoCAD Mechanical 2000|Company: Autodesk"
 90
        0
280
     0
281
     0
  0
CLASS
  1
ACAMGHOLECHARTSTDISO
  2
AcAmgHoleChartStdISO
  3
ACMSYMBB_MODULE_NAME
 90
        0
280
     0
281
     0
  0
CLASS
  1
ACAMGTITLESTD
  2
AcAmgTitleStd
  3
"TITLEAPP"
 90
        0
280
     0
281
     0
  0
CLASS
  1
LAYER_INDEX
  2
AcDbLayerIndex
  3
ObjectDBX Classes
 90
    32768
280
     0
281
     0
  0
CLASS
  1
IDBUFFER
  2
AcDbIdBuffer
  3
ObjectDBX Classes
 90
    32768
280
     0
281
     0
  0
CLASS
  1
DICTIONARYVAR
  2
AcDbDictionaryVar
  3
ObjectDBX Classes
 90
        0
280
     0
281
     0
  0
CLASS
  1
ACAMGFILTERDAT
  2
AcAmgFilterDat
  3
"AcadM|Product Description: AutoCAD Mechanical 2000|Company: Autodesk"
 90
    32768
280
     0
281
     0
  0
CLASS
  1
AMDTFORMULAUPDATEDISPATCHER
  2
AmdtFormulaUpdateDispatcher
  3
AcMeServices
 90
    32768
280
     0
281
     0
  0
CLASS
  1
DIMASSOC
  2
AcDbDimAssoc
  3
"AcDbDimAssoc|Product Desc:     AcDim ARX App For Dimension|Company:          Autodesk, Inc.|WEB Address:      www.autodesk.com"
 90
        0
280
     0
281
     0
  0
CLASS
  1
AMDTNOTE
  2
AmdtNote
  3
"AcmSymBB|Product Description: AutoCAD Mechanical 2004 DX|Company: Autodesk"
 90
    33791
280
     0
281
     1
  0
CLASS
  1
TABLESTYLE
  2
AcDbTableStyle
  3
ObjectDBX Classes
 90
     2047
280
     0
281
     0
  0
CLASS
  1
AM_DRAWING_MGR
  2
AcDmDwgMgr
  3
AcMechDwgViewMgmt
 90
        0
280
     0
281
     0
  0
CLASS
  1
AM_DWG_DOCUMENT
  2
AcDmDwgDocument
  3
AcMechDwgViewMgmt
 90
        0
280
     0
281
     0
  0
CLASS
  1
AM_DWG_SHEET
  2
AcDmSheet
  3
AcMechDwgViewMgmt
 90
        0
280
     0
281
     0
  0
CLASS
  1
AM_VIEWDIMPARMAP
  2
AcDmViewDimParMap
  3
AcMechDwgViewMgmt
 90
        0
280
     0
281
     0
  0
CLASS
  1
AM_DWGMGR_NAME
  2
AcDmDwgMgrName
  3
AcMechDwgViewMgmt
 90
        0
280
     0
281
     0
  0
CLASS
  1
AMDTMENUSTATEMGR
  2
AmdtMenuStateMgr
  3
McadcomServices
 90
        0
280
     0
281
     0
  0
CLASS
  1
AMDTMCOMMENUSTATE
  2
AmdtMcomMenuState
  3
McadcomServices
 90
        0
280
     0
281
     0
  0
CLASS
  1
MAPIAMMOUDLE
  2
MApiAmModule
  3
MApiAmServices
 90
        0
280
     0
281
     0
  0
CLASS
  1
AMDTADMENUSTATE
  2
AmdtAdMenuState
  3
DesignerServices
 90
        0
280
     0
281
     0
  0
CLASS
  1
ADAPPL
  2
AcAdAppl
  3
DesignerServices
 90
        0
280
     0
281
     0
  0
CLASS
  1
DEPMGR
  2
AcAdDepMgr
  3
DesignerServices
 90
        0
280
     0
281
     0
  0
CLASS
  1
PARAMMGR
  2
AcAdParamMgr
  3
DesignerServices
 90
        0
280
     0
281
     0
  0
CLASS
  1
PARAMSCOPE
  2
AcAdParamScope
  3
DesignerServices
 90
        0
280
     0
281
     0
  0
CLASS
  1
NAMEDAPPL
  2
AcAdNamedAppl
  3
DesignerServices
 90
        0
280
     0
281
     0
  0
CLASS
  1
AMDTDMMENUSTATE
  2
AmdtDmMenuState
  3
AcMechDwgViewMgmt
 90
        0
280
     0
281
     0
  0
CLASS
  1
AMDTAMMENUSTATE
  2
AmdtAmMenuState
  3
DesignerAssemblies
 90
        0
280
     0
281
     0
  0
CLASS
  1
ACAMPROJECT
  2
AcAmProject
  3
DesignerAssemblies
 90
        0
280
     0
281
     0
  0
CLASS
  1
ACAMGRCOMPDEF
  2
AcAmGrCompDef
  3
DesignerAssemblies
 90
        0
280
     0
281
     0
  0
CLASS
  1
ACCMCONTEXT
  2
AcCmContext
  3
DesignerAssemblies
 90
        0
280
     0
281
     0
  0
CLASS
  1
ACAMCOMPDEF
  2
AcAmCompDef
  3
DesignerAssemblies
 90
        0
280
     0
281
     0
  0
CLASS
  1
ACAMCOMPDEFMGR
  2
AcAmCompDefMgr
  3
DesignerAssemblies
 90
        0
280
     0
281
     0
  0
CLASS
  1
AMCONTEXTMGR
  2
AcAmContextMgr
  3
DesignerAssemblies
 90
        0
280
     0
281
     0
  0
CLASS
  1
ACAMCONTEXTMODELER
  2
AcAmContextModeler
  3
DesignerAssemblies
 90
        0
280
     0
281
     0
  0
CLASS
  1
ACMTHREADLINESTANDARDISO
  2
AmdtThreadLineStdISO
  3
"Amdt_StdImp|Product Description: AutoCAD Mechanical 2004 DX|Company: Autodesk"
 90
        0
280
     0
281
     0
  0
CLASS
  1
CATALOGSTATE
  2
AcAmCatalogState
  3
DesignerAssemblies
 90
        0
280
     0
281
     0
  0
CLASS
  1
ACAMGRCOMPDEFSET
  2
AcAmGrCompDefSet
  3
DesignerAssemblies
 90
        0
280
     0
281
     0
  0
CLASS
  1
AMDTBROWSERDBTAB
  2
AmdtBrowserDbTab
  3
McadcomServices
 90
        0
280
     0
281
     0
  0
CLASS
  1
CBROWSERAPPOBJECT
  2
CBrowserAppObject
  3
McadcomServices
 90
        0
280
     0
281
     0
  0
CLASS
  1
DM_PLACEHOLDER
  2
AcDmSelsetPlaceholder
  3
AcMechDwgViewMgmt
 90
        0
280
     0
281
     0
  0
CLASS
  1
VAACXREFPANELOBJECT
  2
VaAcXREFPanelObject
  3
VAAC_ADDIN
 90
    32768
280
     0
281
     0
  0
CLASS
  1
VAACIMAGEINVENTORY
  2
VaAcImageInventory
  3
VAAC_ADDIN
 90
    32768
280
     0
281
     0
  0
CLASS
  1
AMDTEDGESTANDARDISO13715
  2
AmdtEdgeStdISO13715
  3
"Amdt_StdImp|Product Description: AutoCAD Mechanical 2004 DX|Company: Autodesk"
 90
        0
280
     0
281
     0
  0
CLASS
  1
AMDTNOTETEMPLATEDB
  2
AmdtNoteTemplateDB
  3
AMDT_STDIMP_MODULE_NAME
 90
        0
280
     0
281
     0
  0
CLASS
  1
ACRFATTGENMGR
  2
AcRfAttGeneralMgr
  3
AcAttribServices
 90
        0
280
     0
281
     0
  0
CLASS
  1
SORTENTSTABLE
  2
AcDbSortentsTable
  3
ObjectDBX Classes
 90
        0
280
     0
281
     0
  0
CLASS
  1
STDPART2D
  2
AmgStdPart
  3
"AmgStdPart|Product Description: AutoCAD Mechanical 2000|Company: Autodesk"
 90
    33791
280
     0
281
     1
  0
CLASS
  1
ACAMSTDPCOMPDEF
  2
AcAmStdpCompDef
  3
DesignerAssemblies
 90
    32768
280
     0
281
     0
  0
CLASS
  1
ACRFOBJATTMGR
  2
AcRfObjAttGroupMgr
  3
AcAttribServices
 90
    32768
280
     0
281
     0
  0
CLASS
  1
ACRFMCADAPIATTHOLDER
  2
AcRfMCADAPIAttHolder
  3
AcAttribServices
 90
    32768
280
     0
281
     0
  0
CLASS
  1
AMDTSYSATTR
  2
AmdtSystemAttribute
  3
AcAttribServices
 90
    32768
280
     0
281
     0
  0
CLASS
  1
ACAMCOMP
  2
AcAmComp
  3
DesignerAssemblies
 90
    32768
280
     0
281
     0
  0
CLASS
  1
AC_AM_STDP_VIEW_DEF
  2
AcAmStdpViewDef
  3
DesignerAssemblies
 90
    32768
280
     0
281
     0
  0
CLASS
  1
AC_AM_MVD_DEP_MGR
  2
AcAmMVDdepMgr
  3
DesignerAssemblies
 90
    32768
280
     0
281
     0
  0
CLASS
  1
AC_AM_MASTER_VIEW_DEF
  2
AcAmMasterViewDef
  3
DesignerAssemblies
 90
    32768
280
     0
281
     0
  0
CLASS
  1
AC_AM_DIRTY_NODES
  2
AcAmDirtyNodes
  3
DesignerAssemblies
 90
    32768
280
     0
281
     0
  0
CLASS
  1
AC_AM_MAPPER_CACHE
  2
AcAmMapperCache
  3
DesignerAssemblies
 90
    32768
280
     0
281
     0
  0
CLASS
  1
ACAMMVDBACKUPOBJECT
  2
AcAmMVDBackupObject
  3
DesignerAssemblies
 90
    32768
280
     0
281
     0
  0
CLASS
  1
AC_AM_COMP_VIEW_INST
  2
AcAmCompView
  3
DesignerAssemblies
 90
    32768
280
     0
281
     0
  0
CLASS
  1
AC_AM_2D_XREF_MGR
  2
AcAmXrefMgr2d
  3
DesignerAssemblies
 90
    32768
280
     0
281
     0
  0
CLASS
  1
ACMSTANDARDANSI
  2
AcmStandardANSI
  3
"Amdt_StdImp|Product Description: AutoCAD Mechanical 2004 DX|Company: Autodesk"
 90
    32768
280
     0
281
     0
  0
CLASS
  1
ACMSURFSTANDARDANSI
  2
AcmSurfTextStdANSI
  3
"Amdt_StdImp|Product Description: AutoCAD Mechanical 2004 DX|Company: Autodesk"
 90
    32768
280
     0
281
     0
  0
CLASS
  1
ACMFCFSTANDARDANSI
  2
AcmFCFStdANSI
  3
"Amdt_StdImp|Product Description: AutoCAD Mechanical 2004 DX|Company: Autodesk"
 90
    32768
280
     0
281
     0
  0
CLASS
  1
ACMWELDSTANDARDANSI
  2
AcmWeldingStdANSI
  3
"Amdt_StdImp|Product Description: AutoCAD Mechanical 2004 DX|Company: Autodesk"
 90
    32768
280
     0
281
     0
  0
CLASS
  1
ACMIDSTANDARDANSI
  2
AcmIdStdANSI
  3
"Amdt_StdImp|Product Description: AutoCAD Mechanical 2004 DX|Company: Autodesk"
 90
    32768
280
     0
281
     0
  0
CLASS
  1
ACMDATUMSTANDARDANSI
  2
AcmDatumStdANSI
  3
"Amdt_StdImp|Product Description: AutoCAD Mechanical 2004 DX|Company: Autodesk"
 90
    32768
280
     0
281
     0
  0
CLASS
  1
ACMBOMSTANDARDANSI
  2
AcmBOMStdANSI
  3
"Amdt_StdImp|Product Description: AutoCAD Mechanical 2004 DX|Company: Autodesk"
 90
    32768
280
     0
281
     0
  0
CLASS
  1
ACMDETAILSTANDARDANSI
  2
AmdtDetailSymStdANSI
  3
"Amdt_StdImp|Product Description: AutoCAD Mechanical 2004 DX|Company: Autodesk"
 90
    32768
280
     0
281
     0
  0
CLASS
  1
ACMSECTIONSTANDARDANSI
  2
AmdtSectionSymStdANSI
  3
"Amdt_StdImp|Product Description: AutoCAD Mechanical 2004 DX|Company: Autodesk"
 90
    32768
280
     0
281
     0
  0
CLASS
  1
ACMCENTERLINESTANDARDANSI
  2
AmdtCenterLineStdANSI
  3
"Amdt_StdImp|Product Description: AutoCAD Mechanical 2004 DX|Company: Autodesk"
 90
    32768
280
     0
281
     0
  0
CLASS
  1
ACMTHREADLINESTANDARDANSI
  2
AmdtThreadLineStdANSI
  3
"Amdt_StdImp|Product Description: AutoCAD Mechanical 2004 DX|Company: Autodesk"
 90
    32768
280
     0
281
     0
  0
CLASS
  1
ACMNOTESTANDARDANSI
  2
AmdtNoteStdANSI
  3
"Amdt_StdImp|Product Description: AutoCAD Mechanical 2004 DX|Company: Autodesk"
 90
    32768
280
     0
281
     0
  0
CLASS
  1
ACAMGHOLECHARTSTDANSI
  2
AcAmgHoleChartStdANSI
  3
ACMSYMBB_MODULE_NAME
 90
    32768
280
     0
281
     0
  0
ENDSEC
  0
SECTION
  2
TABLES
  0
TABLE
  2
VPORT
  5
8
330
0
100
AcDbSymbolTable
 70
     4
  0
VPORT
  5
2BB0
330
8
100
AcDbSymbolTableRecord
100
AcDbViewportTableRecord
  2
*Active
 70
     0
 10
0.0
 20
0.0
 11
1.0
 21
1.0
 12
184.4293222371831
 22
206.2730593996261
 13
0.0
 23
0.0
 14
2.5
 24
2.5
 15
10.0
 25
10.0
 16
0.0
 26
0.0
 36
1.0
 17
0.0
 27
0.0
 37
0.0
 40
208.5290110024969
 41
1.81766917293233
 42
50.0
 43
0.0
 44
0.0
 50
0.0
 51
0.0
 71
     0
 72
   100
 73
     1
 74
     3
 75
     0
 76
     0
 77
     0
 78
     0
281
     0
 65
     1
110
0.0
120
0.0
130
0.0
111
1.0
121
0.0
131
0.0
112
0.0
122
1.0
132
0.0
 79
     0
146
0.0
  0
ENDTAB
  0
TABLE
  2
LTYPE
  5
5
330
0
100
AcDbSymbolTable
 70
    14
  0
LTYPE
  5
14
330
5
100
AcDbSymbolTableRecord
100
AcDbLinetypeTableRecord
  2
ByBlock
 70
     0
  3

 72
    65
 73
     0
 40
0.0
  0
LTYPE
  5
15
330
5
100
AcDbSymbolTableRecord
100
AcDbLinetypeTableRecord
  2
ByLayer
 70
     0
  3

 72
    65
 73
     0
 40
0.0
  0
LTYPE
  5
16
330
5
100
AcDbSymbolTableRecord
100
AcDbLinetypeTableRecord
  2
Continuous
 70
     0
  3
Solid line
 72
    65
 73
     0
 40
0.0
  0
LTYPE
  5
4D
330
5
100
AcDbSymbolTableRecord
100
AcDbLinetypeTableRecord
  2
AM_ISO02W050
 70
     0
  3
__ __ __ __ __ __ __ __ __ __ __ __ __ __ __
 72
    65
 73
     2
 40
7.5
 49
6.0
 74
     0
 49
-1.5
 74
     0
  0
LTYPE
  5
4E
330
5
100
AcDbSymbolTableRecord
100
AcDbLinetypeTableRecord
  2
AM_ISO08W050
 70
     0
  3
____ . ____ . ____ . ____ . ____ . ____ . ____
 72
    65
 73
     4
 40
18.0
 49
12.0
 74
     0
 49
-1.5
 74
     0
 49
3.0
 74
     0
 49
-1.5
 74
     0
  0
LTYPE
  5
4F
330
5
100
AcDbSymbolTableRecord
100
AcDbLinetypeTableRecord
  2
AM_ISO09W050
 70
     0
  3
_____ . . _____ . . _____ . . ____ .. ____
 72
    65
 73
     6
 40
22.5
 49
12.0
 74
     0
 49
-1.5
 74
     0
 49
3.0
 74
     0
 49
-1.5
 74
     0
 49
3.0
 74
     0
 49
-1.5
 74
     0
  0
LTYPE
  5
50
330
5
100
AcDbSymbolTableRecord
100
AcDbLinetypeTableRecord
  2
Amconstr
 70
     0
  3
_______________________
 72
    65
 73
     2
 40
9999.0
 49
9999.0
 74
     0
 49
0.0
 74
     0
  0
LTYPE
  5
51
330
5
100
AcDbSymbolTableRecord
100
AcDbLinetypeTableRecord
  2
AM_ISO08W050x2
 70
     0
  3
__ . __ . __ . __ . __ . __
 72
    65
 73
     4
 40
9.0
 49
6.0
 74
     0
 49
-0.75
 74
     0
 49
1.5
 74
     0
 49
-0.75
 74
     0
  0
LTYPE
  5
52
330
5
100
AcDbSymbolTableRecord
100
AcDbLinetypeTableRecord
  2
AM_ISO02W050x2
 70
     0
  3
 _ _ _ _ _ _ _ _ _ _ _ _
 72
    65
 73
     2
 40
3.75
 49
3.0
 74
     0
 49
-0.75
 74
     0
  0
LTYPE
  5
55
330
5
100
AcDbSymbolTableRecord
100
AcDbLinetypeTableRecord
  2
Amzigzag
 70
     0
  3
/\/-/\/-/\/-/\/-/\/-/\/
 72
    65
 73
     2
 40
11.0001
 49
0.0001
 74
     4
 75
   135
340
54
 46
0.04
 50
0.0
 44
0.0
 45
0.0
 49
-11.0
 74
     0
  0
LTYPE
  5
63
330
5
100
AcDbSymbolTableRecord
100
AcDbLinetypeTableRecord
  2
ACISOWELD
 70
     0
  3
_ _ _ _ _
 72
    65
 73
     2
 40
2.0
 49
2.0
 74
     0
 49
-1.0
 74
     0
  0
LTYPE
  5
64
330
5
100
AcDbSymbolTableRecord
100
AcDbLinetypeTableRecord
  2
ACISOTGB
 70
     0
  3
__ . . __ . .
 72
    65
 73
     6
 40
9.0
 49
4.0
 74
     0
 49
-1.0
 74
     0
 49
1.0
 74
     0
 49
-1.0
 74
     0
 49
1.0
 74
     0
 49
-1.0
 74
     0
  0
LTYPE
  5
65
330
5
100
AcDbSymbolTableRecord
100
AcDbLinetypeTableRecord
  2
ACISOTGL
 70
     0
  3
_ _ _ _ _
 72
    65
 73
     2
 40
3.0
 49
2.0
 74
     0
 49
-1.0
 74
     0
  0
LTYPE
  5
68
330
5
100
AcDbSymbolTableRecord
100
AcDbLinetypeTableRecord
  2
CENTER
 70
     0
  3
__ . __
 72
    65
 73
     4
 40
7.0
 49
4.0
 74
     0
 49
-1.0
 74
     0
 49
1.0
 74
     0
 49
-1.0
 74
     0
  0
LTYPE
  5
806
330
5
100
AcDbSymbolTableRecord
100
AcDbLinetypeTableRecord
  2
HIDDEN
 70
     0
  3
Hidden __ __ __ __ __ __ __ __ __ __ __ __ __ _
 72
    65
 73
     2
 40
9.524999999999998
 49
6.349999999999999
 74
     0
 49
-3.174999999999999
 74
     0
  0
LTYPE
  5
807
330
5
100
AcDbSymbolTableRecord
100
AcDbLinetypeTableRecord
  2
PHANTOM2
 70
     0
  3
Phantom (.5x) ___ _ _ ___ _ _ ___ _ _ ___ _ _
 72
    65
 73
     6
 40
31.75
 49
15.875
 74
     0
 49
-3.174999999999999
 74
     0
 49
3.174999999999999
 74
     0
 49
-3.174999999999999
 74
     0
 49
3.174999999999999
 74
     0
 49
-3.174999999999999
 74
     0
  0
ENDTAB
  0
TABLE
  2
LAYER
  5
2
102
{ACAD_XDICTIONARY
360
AAB
102
}
330
0
100
AcDbSymbolTable
 70
     8
  0
LAYER
  5
10
330
2
100
AcDbSymbolTableRecord
100
AcDbLayerTableRecord
  2
0
 70
     0
 62
     7
  6
Continuous
370
    -3
390
F
  0
LAYER
  5
42A
330
2
100
AcDbSymbolTableRecord
100
AcDbLayerTableRecord
  2
AM_5
 70
     0
 62
     5
  6
Continuous
370
    50
390
F
  0
LAYER
  5
43E
330
2
100
AcDbSymbolTableRecord
100
AcDbLayerTableRecord
  2
Defpoints
 70
     0
 62
     7
  6
Continuous
290
     0
370
    -3
390
F
  0
LAYER
  5
CD5
330
2
100
AcDbSymbolTableRecord
100
AcDbLayerTableRecord
  2
AM_7
 70
     0
 62
     1
  6
CENTER
370
    25
390
F
  0
LAYER
  5
CD6
330
2
100
AcDbSymbolTableRecord
100
AcDbLayerTableRecord
  2
AM_VIS
 70
     0
 62
     7
  6
Continuous
370
    50
390
F
  0
LAYER
  5
CD7
330
2
100
AcDbSymbolTableRecord
100
AcDbLayerTableRecord
  2
AM_4
 70
     0
 62
     3
  6
Continuous
370
    25
390
F
  0
LAYER
  5
CD9
330
2
100
AcDbSymbolTableRecord
100
AcDbLayerTableRecord
  2
AM_0
 70
     0
 62
     7
  6
Continuous
370
    50
390
F
  0
LAYER
  5
135E
330
2
100
AcDbSymbolTableRecord
100
AcDbLayerTableRecord
  2
LOGO
 70
     0
 62
     7
  6
Continuous
370
    -3
390
F
  0
ENDTAB
  0
TABLE
  2
STYLE
  5
3
330
0
100
AcDbSymbolTable
 70
     6
  0
STYLE
  5
11
330
3
100
AcDbSymbolTableRecord
100
AcDbTextStyleTableRecord
  2
STANDARD
 70
     0
 40
0.0
 41
1.0
 50
0.0
 71
     0
 42
3.5
  3
ISOCP.SHX
  4
CHINESET.SHX
  0
STYLE
  5
54
330
3
100
AcDbSymbolTableRecord
100
AcDbTextStyleTableRecord
  2

 70
     1
 40
0.0
 41
1.0
 50
0.0
 71
     0
 42
2.5
  3
ltypeshp.shx
  4

  0
STYLE
  5
56
330
3
100
AcDbSymbolTableRecord
100
AcDbTextStyleTableRecord
  2
ACISOTS
 70
     0
 40
1.0
 41
1.0
 50
0.0
 71
     0
 42
2.5
  3
isocp.shx
  4
chineset.shx
  0
STYLE
  5
62
330
3
100
AcDbSymbolTableRecord
100
AcDbTextStyleTableRecord
  2
ACISOGDT
 70
     0
 40
0.0
 41
1.0
 50
0.0
 71
     0
 42
3.5
  3
amgdt.shx
  4

  0
STYLE
  5
1360
330
3
100
AcDbSymbolTableRecord
100
AcDbTextStyleTableRecord
  2
CHINESET
 70
     0
 40
0.0
 41
1.0
 50
0.0
 71
     0
 42
4.0
  3
simplex.shx
  4
chineset.shx
  0
ENDTAB
  0
TABLE
  2
VIEW
  5
6
330
0
100
AcDbSymbolTable
 70
     0
  0
ENDTAB
  0
TABLE
  2
UCS
  5
7
330
0
100
AcDbSymbolTable
 70
     0
  0
ENDTAB
  0
TABLE
  2
APPID
  5
9
330
0
100
AcDbSymbolTable
 70
    25
  0
APPID
  5
12
330
9
100
AcDbSymbolTableRecord
100
AcDbRegAppTableRecord
  2
ACAD
 70
     0
  0
APPID
  5
30
330
9
100
AcDbSymbolTableRecord
100
AcDbRegAppTableRecord
  2
MCAD_NO_VIS
 70
     0
  0
APPID
  5
31
330
9
100
AcDbSymbolTableRecord
100
AcDbRegAppTableRecord
  2
ACAD_TEMP_GRAPHIC
 70
     0
  0
APPID
  5
42
330
9
100
AcDbSymbolTableRecord
100
AcDbRegAppTableRecord
  2
ACATTRIBSERVICES
 70
     0
  0
APPID
  5
20A
330
9
100
AcDbSymbolTableRecord
100
AcDbRegAppTableRecord
  2
GENIUS_GENODEF_13
 70
     0
  0
APPID
  5
20B
330
9
100
AcDbSymbolTableRecord
100
AcDbRegAppTableRecord
  2
GENIUS_GENOBJ-N-HTC_13
 70
     0
  0
APPID
  5
20C
330
9
100
AcDbSymbolTableRecord
100
AcDbRegAppTableRecord
  2
GENIUS_GENHATCH_13
 70
     0
  0
APPID
  5
809
330
9
100
AcDbSymbolTableRecord
100
AcDbRegAppTableRecord
  2
AD_DRAW
 70
     0
  0
APPID
  5
827
330
9
100
AcDbSymbolTableRecord
100
AcDbRegAppTableRecord
  2
DESIGNERASSEMBLIES
 70
     0
  0
APPID
  5
82C
330
9
100
AcDbSymbolTableRecord
100
AcDbRegAppTableRecord
  2
ACADM_DIM_EDIT
 70
     0
  0
APPID
  5
82D
330
9
100
AcDbSymbolTableRecord
100
AcDbRegAppTableRecord
  2
AMDT_DM_ADJ
 70
     0
  0
APPID
  5
FE4
330
9
100
AcDbSymbolTableRecord
100
AcDbRegAppTableRecord
  2
GENIUS_GENDTOL_13
 70
     0
  0
APPID
  5
108C
330
9
100
AcDbSymbolTableRecord
100
AcDbRegAppTableRecord
  2
ACAD_DSTYLE_DIMTEXT_FILL
 70
     0
  0
APPID
  5
1201
330
9
100
AcDbSymbolTableRecord
100
AcDbRegAppTableRecord
  2
GEVID1116400677
 70
     0
  0
APPID
  5
1202
330
9
100
AcDbSymbolTableRecord
100
AcDbRegAppTableRecord
  2
GEVDC
 70
     0
  0
APPID
  5
1203
330
9
100
AcDbSymbolTableRecord
100
AcDbRegAppTableRecord
  2
GEVRADREF
 70
     0
  0
APPID
  5
120C
330
9
100
AcDbSymbolTableRecord
100
AcDbRegAppTableRecord
  2
AMG_2DHIDE
 70
     0
  0
APPID
  5
120D
330
9
100
AcDbSymbolTableRecord
100
AcDbRegAppTableRecord
  2
AMG_2DSTRUCT_BTR
 70
     0
  0
APPID
  5
121E
330
9
100
AcDbSymbolTableRecord
100
AcDbRegAppTableRecord
  2
ACADM_2DVIEW_IGN_NOTIFY
 70
     0
  0
APPID
  5
1361
330
9
100
AcDbSymbolTableRecord
100
AcDbRegAppTableRecord
  2
GENIUS_GENREC_14
 70
     0
  0
APPID
  5
1362
330
9
100
AcDbSymbolTableRecord
100
AcDbRegAppTableRecord
  2
GENIUS_GENOBJ-N-REC_13
 70
     0
  0
APPID
  5
1E31
330
9
100
AcDbSymbolTableRecord
100
AcDbRegAppTableRecord
  2
ACAD_PSEXT
 70
     0
  0
APPID
  5
1F6E
330
9
100
AcDbSymbolTableRecord
100
AcDbRegAppTableRecord
  2
GEVID1116471484
 70
     0
  0
APPID
  5
2915
330
9
100
AcDbSymbolTableRecord
100
AcDbRegAppTableRecord
  2
GENIUS_GENOBJ-N-CEN_13
 70
     0
  0
APPID
  5
2916
330
9
100
AcDbSymbolTableRecord
100
AcDbRegAppTableRecord
  2
GENIUS_GENCEN_19
 70
     0
  0
ENDTAB
  0
TABLE
  2
DIMSTYLE
  5
A
330
0
100
AcDbSymbolTable
 70
    10
100
AcDbDimStyleTable
 71
     2
340
6B
340
75
  0
DIMSTYLE
105
6B
330
A
100
AcDbSymbolTableRecord
100
AcDbDimStyleTableRecord
  2
AM_ISO
 70
     0
  4
"
 41
3.0
 42
1.0
 43
8.0
 44
1.5
 47
0.1
 48
0.1
 73
     0
 74
     0
 77
     1
 78
     8
 79
     2
140
3.5
141
3.0
143
0.0393701
146
0.71
147
0.8
172
     1
176
   256
177
   256
178
   256
271
     2
272
     2
283
     0
284
     8
340
11
371
    -1
372
    -1
  0
DIMSTYLE
105
6C
330
A
100
AcDbSymbolTableRecord
100
AcDbDimStyleTableRecord
  2
AM_ISO$3
 70
     0
  4
"
 41
3.0
 42
1.0
 43
8.0
 44
1.5
 47
0.1
 48
0.1
 73
     0
 77
     1
 78
     8
 79
     2
140
3.5
141
3.0
143
0.0393701
146
0.71
147
0.8
176
   256
177
   256
178
   256
271
     2
272
     2
283
     0
284
     8
288
     1
289
     0
340
11
371
    -1
372
    -1
  0
DIMSTYLE
105
6D
330
A
100
AcDbSymbolTableRecord
100
AcDbDimStyleTableRecord
  2
AM_ISO$4
 70
     0
  4
"
 41
3.0
 42
1.0
 43
8.0
 44
1.5
 47
0.1
 48
0.1
 73
     0
 77
     1
 78
     8
 79
     2
140
3.5
141
3.0
143
0.0393701
146
0.71
147
0.8
176
   256
177
   256
178
   256
271
     2
272
     2
283
     0
284
     8
288
     1
289
     0
340
11
371
    -1
372
    -1
  0
DIMSTYLE
105
6E
330
A
100
AcDbSymbolTableRecord
100
AcDbDimStyleTableRecord
  2
AM_ISO$6
 70
     0
  4
"
 41
3.0
 42
1.0
 43
8.0
 44
1.5
 47
0.1
 48
0.1
 73
     0
 74
     0
 78
     8
 79
     2
140
3.5
141
3.0
143
0.0393701
146
0.71
147
0.8
172
     1
176
   256
177
   256
178
   256
271
     2
272
     2
283
     0
284
     8
340
11
371
    -1
372
    -1
  0
DIMSTYLE
105
6F
330
A
100
AcDbSymbolTableRecord
100
AcDbDimStyleTableRecord
  2
AM_ISO$7
 70
     0
  4
"
 41
3.0
 42
1.0
 43
8.0
 44
1.5
 47
0.1
 48
0.1
 73
     0
 74
     0
 77
     1
 78
     8
 79
     2
140
5.0
141
3.0
143
0.0393701
146
0.71
147
0.8
172
     1
176
   256
177
   256
178
   256
271
     2
272
     2
283
     0
284
     8
340
11
371
    -1
372
    -1
  0
DIMSTYLE
105
70
330
A
100
AcDbSymbolTableRecord
100
AcDbDimStyleTableRecord
  2
AM_ISO$SF
 70
     0
  4
"
 41
2.5
 42
1.0
 43
10.0
 44
1.0
 47
0.1
 48
0.1
 73
     0
 74
     0
 75
     1
 76
     1
 77
     1
 78
     8
 79
     2
140
3.5
141
0.0
143
0.0393701
146
0.71
147
1.5
172
     1
176
   256
177
   256
178
     2
271
     2
272
     3
274
     4
283
     0
284
     8
340
11
371
    -1
372
    -1
  0
DIMSTYLE
105
75
330
A
100
AcDbSymbolTableRecord
100
AcDbDimStyleTableRecord
  2
AM_ISO$SH
 70
     0
  4
"
 41
2.5
 42
1.0
 43
10.0
 44
1.0
 47
0.1
 48
0.1
 73
     0
 74
     0
 75
     1
 76
     1
 77
     1
 78
     8
 79
     2
140
3.5
141
0.0
143
0.0393701
144
2.0
146
0.71
147
1.5
172
     1
173
     1
176
   256
177
   256
178
     2
271
     2
272
     3
274
     4
283
     0
284
     8
340
11
343
71
371
    -1
372
    -1
  0
DIMSTYLE
105
AAA
102
{ACAD_REACTORS
330
DF8
330
DF6
330
E25
330
DF7
330
DF1
330
1007
330
11A6
102
}
330
A
100
AcDbSymbolTableRecord
100
AcDbDimStyleTableRecord
  2
AM_ISO$0
 70
     0
  4
"
 41
3.0
 42
1.0
 43
8.0
 44
1.5
 47
0.1
 48
0.1000000001
 73
     0
 74
     0
 77
     1
 78
     8
 79
     2
140
3.0
141
0.0
143
0.0393701
146
0.71
147
1.0
172
     1
176
   256
177
   256
178
   256
271
     2
272
     2
283
     2
284
     8
340
11
371
    -1
372
    -1
  0
ENDTAB
  0
TABLE
  2
BLOCK_RECORD
  5
1
330
0
100
AcDbSymbolTable
 70
    23
  0
BLOCK_RECORD
  5
1F
102
{ACAD_XDICTIONARY
360
7D
102
}
330
1
100
AcDbSymbolTableRecord
100
AcDbBlockTableRecord
  2
*Model_Space
340
22
  0
BLOCK_RECORD
  5
1B
330
1
100
AcDbSymbolTableRecord
100
AcDbBlockTableRecord
  2
*Paper_Space
340
1E
  0
BLOCK_RECORD
  5
23
330
1
100
AcDbSymbolTableRecord
100
AcDbBlockTableRecord
  2
*Paper_Space0
340
26
  0
BLOCK_RECORD
  5
71
330
1
100
AcDbSymbolTableRecord
100
AcDbBlockTableRecord
  2
GENAXEH
340
0
  0
BLOCK_RECORD
  5
E58
330
1
100
AcDbSymbolTableRecord
100
AcDbBlockTableRecord
  2
*D2
340
0
  0
BLOCK_RECORD
  5
E96
330
1
100
AcDbSymbolTableRecord
100
AcDbBlockTableRecord
  2
*D3
340
0
  0
BLOCK_RECORD
  5
EA2
330
1
100
AcDbSymbolTableRecord
100
AcDbBlockTableRecord
  2
*D4
340
0
  0
BLOCK_RECORD
  5
EAE
330
1
100
AcDbSymbolTableRecord
100
AcDbBlockTableRecord
  2
*D5
340
0
  0
BLOCK_RECORD
  5
EDE
330
1
100
AcDbSymbolTableRecord
100
AcDbBlockTableRecord
  2
*D6
340
0
  0
BLOCK_RECORD
  5
1008
330
1
100
AcDbSymbolTableRecord
100
AcDbBlockTableRecord
  2
*D7
340
0
  0
BLOCK_RECORD
  5
11A7
330
1
100
AcDbSymbolTableRecord
100
AcDbBlockTableRecord
  2
*D8
340
0
  0
BLOCK_RECORD
  5
2A2B
330
1
100
AcDbSymbolTableRecord
100
AcDbBlockTableRecord
  2
*S17
340
0
102
{BLKREFS
331
1037
102
}
  0
BLOCK_RECORD
  5
2A43
330
1
100
AcDbSymbolTableRecord
100
AcDbBlockTableRecord
  2
*S20
340
0
102
{BLKREFS
331
2488
102
}
  0
ENDTAB
  0
ENDSEC
  0
SECTION
  2
BLOCKS
  0
BLOCK
  5
20
330
1F
100
AcDbEntity
  8
0
100
AcDbBlockBegin
  2
*Model_Space
 70
     0
 10
0.0
 20
0.0
 30
0.0
  3
*Model_Space
  1

  0
ENDBLK
  5
21
330
1F
100
AcDbEntity
  8
0
100
AcDbBlockEnd
  0
BLOCK
  5
1C
330
1B
100
AcDbEntity
 67
     1
  8
0
100
AcDbBlockBegin
  2
*Paper_Space
 70
     0
 10
0.0
 20
0.0
 30
0.0
  3
*Paper_Space
  1

  0
ENDBLK
  5
1D
330
1B
100
AcDbEntity
 67
     1
  8
0
100
AcDbBlockEnd
  0
BLOCK
  5
24
330
23
100
AcDbEntity
  8
0
100
AcDbBlockBegin
  2
*Paper_Space0
 70
     0
 10
0.0
 20
0.0
 30
0.0
  3
*Paper_Space0
  1

  0
ENDBLK
  5
25
330
23
100
AcDbEntity
  8
0
100
AcDbBlockEnd
  0
BLOCK
  5
73
330
71
100
AcDbEntity
  8
0
100
AcDbBlockBegin
  2
GENAXEH
 70
     0
 10
0.0
 20
0.0
 30
0.0
  3
GENAXEH
  1

  0
LINE
  5
72
330
71
100
AcDbEntity
  8
0
100
AcDbLine
 10
-1.0
 20
0.0
 30
0.0
 11
1.0
 21
0.0
 31
0.0
  0
ENDBLK
  5
74
330
71
100
AcDbEntity
  8
0
100
AcDbBlockEnd
  0
BLOCK
  5
E64
330
E58
100
AcDbEntity
  8
0
100
AcDbBlockBegin
  2
*D2
 70
     1
 10
0.0
 20
0.0
 30
0.0
  3
*D2
  1

  0
LINE
  5
26C0
330
E58
100
AcDbEntity
  8
AM_5
100
AcDbLine
 10
170.8426267423845
 20
227.8582243321512
 30
0.0
 11
198.9259600757179
 21
227.8582243321511
 31
0.0
  0
LINE
  5
26C1
330
E58
100
AcDbEntity
  8
AM_5
100
AcDbLine
 10
186.4259600757179
 20
221.858224332151
 30
0.0
 11
198.9259600757179
 21
221.8582243321509
 31
0.0
  0
LINE
  5
26C2
330
E58
100
AcDbEntity
  8
AM_5
100
AcDbLine
 10
197.4259600757179
 20
230.8582243321511
 30
0.0
 11
197.4259600757179
 21
233.8582243321511
 31
0.0
  0
LINE
  5
26C3
330
E58
100
AcDbEntity
  8
AM_5
100
AcDbLine
 10
197.4259600757179
 20
218.8582243321509
 30
0.0
 11
197.4259600757179
 21
215.8582243321509
 31
0.0
  0
LINE
  5
26C4
330
E58
100
AcDbEntity
  8
AM_5
100
AcDbLine
 10
197.4259600757179
 20
227.8582243321511
 30
0.0
 11
197.4259600757179
 21
221.8582243321509
 31
0.0
  0
SOLID
  5
26C5
330
E58
100
AcDbEntity
  8
AM_5
100
AcDbTrace
 10
196.9259600757179
 20
230.8582243321511
 30
0.0
 11
197.9259600757179
 21
230.8582243321511
 31
0.0
 12
197.4259600757179
 22
227.8582243321511
 32
0.0
 13
197.4259600757179
 23
227.8582243321511
 33
0.0
  0
SOLID
  5
26C6
330
E58
100
AcDbEntity
  8
AM_5
100
AcDbTrace
 10
196.9259600757179
 20
218.8582243321509
 30
0.0
 11
197.9259600757179
 21
218.8582243321509
 31
0.0
 12
197.4259600757179
 22
221.8582243321509
 32
0.0
 13
197.4259600757179
 23
221.8582243321509
 33
0.0
  0
MTEXT
  5
26C7
330
E58
100
AcDbEntity
  8
AM_5
100
AcDbMText
 10
194.8759600757179
 20
224.8582243321511
 30
0.0
 40
3.5
 41
0.0
 71
     5
 72
     1
  1
6
 11
0.0000000000000001
 21
1.0
 31
0.0
 73
     1
 44
1.0
1001
ACAD
1000
MTEXTBEGIN
1070
    73
1070
     1
1070
    44
1040
1.0
1070
    74
1070
     0
1000
MTEXTEND
  0
POINT
  5
26C8
330
E58
100
AcDbEntity
  8
Defpoints
 62
     0
100
AcDbPoint
 10
169.8426267423845
 20
227.8582243321512
 30
0.0
  0
POINT
  5
26C9
330
E58
100
AcDbEntity
  8
Defpoints
 62
     0
100
AcDbPoint
 10
185.4259600757179
 20
221.858224332151
 30
0.0
  0
POINT
  5
26CA
330
E58
100
AcDbEntity
  8
Defpoints
 62
     0
100
AcDbPoint
 10
197.4259600757179
 20
221.8582243321509
 30
0.0
  0
ENDBLK
  5
E65
330
E58
100
AcDbEntity
  8
0
100
AcDbBlockEnd
  0
BLOCK
  5
EA0
330
E96
100
AcDbEntity
  8
0
100
AcDbBlockBegin
  2
*D3
 70
     1
 10
0.0
 20
0.0
 30
0.0
  3
*D3
  1

  0
LINE
  5
26CB
330
E96
100
AcDbEntity
  8
AM_5
100
AcDbLine
 10
125.4259600757175
 20
157.4977597901572
 30
0.0
 11
125.4259600757175
 21
136.9977597901572
 31
0.0
  0
LINE
  5
26CC
330
E96
100
AcDbEntity
  8
AM_5
100
AcDbLine
 10
185.4259600757179
 20
157.4977597901572
 30
0.0
 11
185.4259600757179
 21
136.9977597901572
 31
0.0
  0
LINE
  5
26CD
330
E96
100
AcDbEntity
  8
AM_5
100
AcDbLine
 10
128.4259600757175
 20
138.4977597901572
 30
0.0
 11
182.4259600757179
 21
138.4977597901572
 31
0.0
  0
SOLID
  5
26CE
330
E96
100
AcDbEntity
  8
AM_5
100
AcDbTrace
 10
128.4259600757175
 20
138.9977597901572
 30
0.0
 11
128.4259600757175
 21
137.9977597901572
 31
0.0
 12
125.4259600757175
 22
138.4977597901572
 32
0.0
 13
125.4259600757175
 23
138.4977597901572
 33
0.0
  0
SOLID
  5
26CF
330
E96
100
AcDbEntity
  8
AM_5
100
AcDbTrace
 10
182.4259600757179
 20
138.9977597901572
 30
0.0
 11
182.4259600757179
 21
137.9977597901572
 31
0.0
 12
185.4259600757179
 22
138.4977597901572
 32
0.0
 13
185.4259600757179
 23
138.4977597901572
 33
0.0
  0
MTEXT
  5
26D0
330
E96
100
AcDbEntity
  8
AM_5
100
AcDbMText
 10
155.4259600757177
 20
141.0477597901572
 30
0.0
 40
3.5
 41
0.0
 71
     5
 72
     1
  1
60
 73
     1
 44
1.0
1001
ACAD
1000
MTEXTBEGIN
1070
    73
1070
     1
1070
    44
1040
1.0
1070
    74
1070
     0
1000
MTEXTEND
  0
POINT
  5
26D1
330
E96
100
AcDbEntity
  8
Defpoints
 62
     0
100
AcDbPoint
 10
125.4259600757175
 20
158.4977597901572
 30
0.0
  0
POINT
  5
26D2
330
E96
100
AcDbEntity
  8
Defpoints
 62
     0
100
AcDbPoint
 10
185.4259600757179
 20
158.4977597901572
 30
0.0
  0
POINT
  5
26D3
330
E96
100
AcDbEntity
  8
Defpoints
 62
     0
100
AcDbPoint
 10
185.4259600757179
 20
138.4977597901572
 30
0.0
  0
ENDBLK
  5
EA1
330
E96
100
AcDbEntity
  8
0
100
AcDbBlockEnd
  0
BLOCK
  5
EAC
330
EA2
100
AcDbEntity
  8
0
100
AcDbBlockBegin
  2
*D4
 70
     1
 10
0.0
 20
0.0
 30
0.0
  3
*D4
  1

  0
LINE
  5
2861
330
EA2
100
AcDbEntity
  8
AM_5
100
AcDbLine
 10
185.4259600757179
 20
157.4977597901572
 30
0.0
 11
206.925960075718
 21
157.4977597901572
 31
0.0
  0
LINE
  5
2862
330
EA2
100
AcDbEntity
  8
AM_5
100
AcDbLine
 10
181.4259600757179
 20
182.4977597901572
 30
0.0
 11
206.925960075718
 21
182.4977597901572
 31
0.0
  0
LINE
  5
2863
330
EA2
100
AcDbEntity
  8
AM_5
100
AcDbLine
 10
205.425960075718
 20
160.4977597901572
 30
0.0
 11
205.425960075718
 21
179.4977597901572
 31
0.0
  0
SOLID
  5
2864
330
EA2
100
AcDbEntity
  8
AM_5
100
AcDbTrace
 10
204.925960075718
 20
160.4977597901572
 30
0.0
 11
205.9259600757179
 21
160.4977597901572
 31
0.0
 12
205.425960075718
 22
157.4977597901572
 32
0.0
 13
205.425960075718
 23
157.4977597901572
 33
0.0
  0
SOLID
  5
2865
330
EA2
100
AcDbEntity
  8
AM_5
100
AcDbTrace
 10
204.925960075718
 20
179.4977597901572
 30
0.0
 11
205.9259600757179
 21
179.4977597901572
 31
0.0
 12
205.425960075718
 22
182.4977597901572
 32
0.0
 13
205.425960075718
 23
182.4977597901572
 33
0.0
  0
MTEXT
  5
2866
330
EA2
100
AcDbEntity
  8
AM_5
100
AcDbMText
 10
202.875615587529
 20
169.9977597901573
 30
0.0
 40
3.5
 41
0.0
 71
     5
 72
     1
  1
25
 11
0.0000000000000001
 21
1.0
 31
0.0
 73
     1
 44
1.0
1001
ACAD
1000
MTEXTBEGIN
1070
    73
1070
     1
1070
    44
1040
1.0
1070
    74
1070
     0
1000
MTEXTEND
  0
POINT
  5
2867
330
EA2
100
AcDbEntity
  8
Defpoints
 62
     0
100
AcDbPoint
 10
184.4259600757179
 20
157.4977597901572
 30
0.0
  0
POINT
  5
2868
330
EA2
100
AcDbEntity
  8
Defpoints
 62
     0
100
AcDbPoint
 10
180.4259600757179
 20
182.4977597901572
 30
0.0
  0
POINT
  5
2869
330
EA2
100
AcDbEntity
  8
Defpoints
 62
     0
100
AcDbPoint
 10
205.425960075718
 20
182.4977597901572
 30
0.0
  0
ENDBLK
  5
EAD
330
EA2
100
AcDbEntity
  8
0
100
AcDbBlockEnd
  0
BLOCK
  5
EB8
330
EAE
100
AcDbEntity
  8
0
100
AcDbBlockBegin
  2
*D5
 70
     1
 10
0.0
 20
0.0
 30
0.0
  3
*D5
  1

  0
LINE
  5
26DD
330
EAE
100
AcDbEntity
  8
AM_5
100
AcDbLine
 10
133.9259600757175
 20
159.1310931234905
 30
0.0
 11
133.9259600757175
 21
144.9977597901572
 31
0.0
  0
LINE
  5
26DE
330
EAE
100
AcDbEntity
  8
AM_5
100
AcDbLine
 10
176.9259600757175
 20
159.1310931234905
 30
0.0
 11
176.9259600757175
 21
144.9977597901572
 31
0.0
  0
LINE
  5
26DF
330
EAE
100
AcDbEntity
  8
AM_5
100
AcDbLine
 10
136.9259600757175
 20
146.4977597901572
 30
0.0
 11
173.9259600757175
 21
146.4977597901572
 31
0.0
  0
SOLID
  5
26E0
330
EAE
100
AcDbEntity
  8
AM_5
100
AcDbTrace
 10
136.9259600757175
 20
146.9977597901572
 30
0.0
 11
136.9259600757175
 21
145.9977597901572
 31
0.0
 12
133.9259600757175
 22
146.4977597901572
 32
0.0
 13
133.9259600757175
 23
146.4977597901572
 33
0.0
  0
SOLID
  5
26E1
330
EAE
100
AcDbEntity
  8
AM_5
100
AcDbTrace
 10
173.9259600757175
 20
146.9977597901572
 30
0.0
 11
173.9259600757175
 21
145.9977597901572
 31
0.0
 12
176.9259600757175
 22
146.4977597901572
 32
0.0
 13
176.9259600757175
 23
146.4977597901572
 33
0.0
  0
MTEXT
  5
26E2
330
EAE
100
AcDbEntity
  8
AM_5
100
AcDbMText
 10
155.4259600757175
 20
149.0477597901572
 30
0.0
 40
3.5
 41
0.0
 71
     5
 72
     1
  1
43
 73
     1
 44
1.0
1001
ACAD
1000
MTEXTBEGIN
1070
    73
1070
     1
1070
    44
1040
1.0
1070
    74
1070
     0
1000
MTEXTEND
  0
POINT
  5
26E3
330
EAE
100
AcDbEntity
  8
Defpoints
 62
     0
100
AcDbPoint
 10
133.9259600757175
 20
160.1310931234904
 30
0.0
  0
POINT
  5
26E4
330
EAE
100
AcDbEntity
  8
Defpoints
 62
     0
100
AcDbPoint
 10
176.9259600757175
 20
160.1310931234904
 30
0.0
  0
POINT
  5
26E5
330
EAE
100
AcDbEntity
  8
Defpoints
 62
     0
100
AcDbPoint
 10
176.9259600757175
 20
146.4977597901572
 30
0.0
  0
ENDBLK
  5
EB9
330
EAE
100
AcDbEntity
  8
0
100
AcDbBlockEnd
  0
BLOCK
  5
EE8
330
EDE
100
AcDbEntity
  8
0
100
AcDbBlockBegin
  2
*D6
 70
     1
 10
0.0
 20
0.0
 30
0.0
  3
*D6
  1

  0
LINE
  5
26E6
330
EDE
100
AcDbEntity
  8
AM_5
100
AcDbLine
 10
185.2926267423843
 20
167.4977597901572
 30
0.0
 11
198.9259600757179
 21
167.4977597901572
 31
0.0
  0
LINE
  5
26E7
330
EDE
100
AcDbEntity
  8
AM_5
100
AcDbLine
 10
185.4259600757179
 20
157.4977597901572
 30
0.0
 11
198.9259600757179
 21
157.4977597901572
 31
0.0
  0
LINE
  5
26E8
330
EDE
100
AcDbEntity
  8
AM_5
100
AcDbLine
 10
197.4259600757179
 20
164.4977597901572
 30
0.0
 11
197.4259600757179
 21
160.4977597901572
 31
0.0
  0
SOLID
  5
26E9
330
EDE
100
AcDbEntity
  8
AM_5
100
AcDbTrace
 10
196.9259600757179
 20
164.4977597901572
 30
0.0
 11
197.9259600757179
 21
164.4977597901572
 31
0.0
 12
197.4259600757179
 22
167.4977597901572
 32
0.0
 13
197.4259600757179
 23
167.4977597901572
 33
0.0
  0
SOLID
  5
26EA
330
EDE
100
AcDbEntity
  8
AM_5
100
AcDbTrace
 10
196.9259600757179
 20
160.4977597901572
 30
0.0
 11
197.9259600757179
 21
160.4977597901572
 31
0.0
 12
197.4259600757179
 22
157.4977597901572
 32
0.0
 13
197.4259600757179
 23
157.4977597901572
 33
0.0
  0
MTEXT
  5
26EB
330
EDE
100
AcDbEntity
  8
AM_5
100
AcDbMText
 10
194.8759600757179
 20
162.4977597901573
 30
0.0
 40
3.5
 41
0.0
 71
     5
 72
     1
  1
10
 11
0.0000000000000001
 21
1.0
 31
0.0
 73
     1
 44
1.0
1001
ACAD
1000
MTEXTBEGIN
1070
    73
1070
     1
1070
    44
1040
1.0
1070
    74
1070
     0
1000
MTEXTEND
  0
POINT
  5
26EC
330
EDE
100
AcDbEntity
  8
Defpoints
 62
     0
100
AcDbPoint
 10
184.2926267423843
 20
167.4977597901572
 30
0.0
  0
POINT
  5
26ED
330
EDE
100
AcDbEntity
  8
Defpoints
 62
     0
100
AcDbPoint
 10
184.4259600757179
 20
157.4977597901572
 30
0.0
  0
POINT
  5
26EE
330
EDE
100
AcDbEntity
  8
Defpoints
 62
     0
100
AcDbPoint
 10
197.4259600757179
 20
157.4977597901572
 30
0.0
  0
ENDBLK
  5
EE9
330
EDE
100
AcDbEntity
  8
0
100
AcDbBlockEnd
  0
BLOCK
  5
1014
330
1008
100
AcDbEntity
  8
0
100
AcDbBlockBegin
  2
*D7
 70
     1
 10
0.0
 20
0.0
 30
0.0
  3
*D7
  1

  0
LINE
  5
26EF
330
1008
100
AcDbEntity
  8
AM_5
100
AcDbLine
 10
186.4259600757179
 20
290.8582243321509
 30
0.0
 11
198.9259600757179
 21
290.8582243321509
 31
0.0
  0
LINE
  5
26F0
330
1008
100
AcDbEntity
  8
AM_5
100
AcDbLine
 10
170.8426267423845
 20
284.8582243321509
 30
0.0
 11
198.9259600757179
 21
284.8582243321509
 31
0.0
  0
LINE
  5
26F1
330
1008
100
AcDbEntity
  8
AM_5
100
AcDbLine
 10
197.4259600757179
 20
293.8582243321509
 30
0.0
 11
197.4259600757179
 21
296.858224332151
 31
0.0
  0
LINE
  5
26F2
330
1008
100
AcDbEntity
  8
AM_5
100
AcDbLine
 10
197.4259600757179
 20
281.8582243321509
 30
0.0
 11
197.4259600757179
 21
278.8582243321509
 31
0.0
  0
LINE
  5
26F3
330
1008
100
AcDbEntity
  8
AM_5
100
AcDbLine
 10
197.4259600757179
 20
290.8582243321509
 30
0.0
 11
197.4259600757179
 21
284.8582243321509
 31
0.0
  0
SOLID
  5
26F4
330
1008
100
AcDbEntity
  8
AM_5
100
AcDbTrace
 10
196.9259600757179
 20
293.8582243321509
 30
0.0
 11
197.9259600757179
 21
293.8582243321509
 31
0.0
 12
197.4259600757179
 22
290.8582243321509
 32
0.0
 13
197.4259600757179
 23
290.8582243321509
 33
0.0
  0
SOLID
  5
26F5
330
1008
100
AcDbEntity
  8
AM_5
100
AcDbTrace
 10
196.9259600757179
 20
281.8582243321509
 30
0.0
 11
197.9259600757179
 21
281.8582243321509
 31
0.0
 12
197.4259600757179
 22
284.8582243321509
 32
0.0
 13
197.4259600757179
 23
284.8582243321509
 33
0.0
  0
MTEXT
  5
26F6
330
1008
100
AcDbEntity
  8
AM_5
100
AcDbMText
 10
194.8759600757179
 20
287.858224332151
 30
0.0
 40
3.5
 41
0.0
 71
     5
 72
     1
  1
6
 11
0.0000000000000001
 21
1.0
 31
0.0
 73
     1
 44
1.0
1001
ACAD
1000
MTEXTBEGIN
1070
    73
1070
     1
1070
    44
1040
1.0
1070
    74
1070
     0
1000
MTEXTEND
  0
POINT
  5
26F7
330
1008
100
AcDbEntity
  8
Defpoints
 62
     0
100
AcDbPoint
 10
185.4259600757179
 20
290.8582243321509
 30
0.0
  0
POINT
  5
26F8
330
1008
100
AcDbEntity
  8
Defpoints
 62
     0
100
AcDbPoint
 10
169.8426267423845
 20
284.8582243321509
 30
0.0
  0
POINT
  5
26F9
330
1008
100
AcDbEntity
  8
Defpoints
 62
     0
100
AcDbPoint
 10
197.4259600757179
 20
284.8582243321509
 30
0.0
  0
ENDBLK
  5
1015
330
1008
100
AcDbEntity
  8
0
100
AcDbBlockEnd
  0
BLOCK
  5
11B1
330
11A7
100
AcDbEntity
  8
0
100
AcDbBlockBegin
  2
*D8
 70
     1
 10
0.0
 20
0.0
 30
0.0
  3
*D8
  1

  0
LINE
  5
26FA
330
11A7
100
AcDbEntity
  8
AM_5
100
AcDbLine
 10
144.9259600757179
 20
222.9415576654844
 30
0.0
 11
144.9259600757179
 21
208.3582243321518
 31
0.0
  0
LINE
  5
26FB
330
11A7
100
AcDbEntity
  8
AM_5
100
AcDbLine
 10
165.9259600757179
 20
222.9415576654844
 30
0.0
 11
165.9259600757179
 21
208.3582243321518
 31
0.0
  0
LINE
  5
26FC
330
11A7
100
AcDbEntity
  8
AM_5
100
AcDbLine
 10
147.9259600757179
 20
209.8582243321518
 30
0.0
 11
162.925960075718
 21
209.8582243321518
 31
0.0
  0
SOLID
  5
26FD
330
11A7
100
AcDbEntity
  8
AM_5
100
AcDbTrace
 10
147.9259600757179
 20
210.3582243321518
 30
0.0
 11
147.9259600757179
 21
209.3582243321518
 31
0.0
 12
144.9259600757179
 22
209.8582243321518
 32
0.0
 13
144.9259600757179
 23
209.8582243321518
 33
0.0
  0
SOLID
  5
26FE
330
11A7
100
AcDbEntity
  8
AM_5
100
AcDbTrace
 10
162.925960075718
 20
210.3582243321518
 30
0.0
 11
162.925960075718
 21
209.3582243321518
 31
0.0
 12
165.9259600757179
 22
209.8582243321518
 32
0.0
 13
165.9259600757179
 23
209.8582243321518
 33
0.0
  0
MTEXT
  5
26FF
330
11A7
100
AcDbEntity
  8
AM_5
100
AcDbMText
 10
155.4259600757179
 20
212.3585196077424
 30
0.0
 40
3.0
 41
0.0
 71
     5
 72
     1
  1
\A2;21
 73
     1
 44
1.0
1001
ACAD
1000
MTEXTBEGIN
1070
    73
1070
     1
1070
    44
1040
1.0
1070
    74
1070
     0
1000
MTEXTEND
  0
POINT
  5
2700
330
11A7
100
AcDbEntity
  8
Defpoints
 62
     0
100
AcDbPoint
 10
144.9259600757179
 20
223.9415576654844
 30
0.0
  0
POINT
  5
2701
330
11A7
100
AcDbEntity
  8
Defpoints
 62
     0
100
AcDbPoint
 10
165.9259600757179
 20
223.9415576654844
 30
0.0
  0
POINT
  5
2702
330
11A7
100
AcDbEntity
  8
Defpoints
 62
     0
100
AcDbPoint
 10
165.9259600757179
 20
209.8582243321518
 30
0.0
  0
ENDBLK
  5
11B2
330
11A7
100
AcDbEntity
  8
0
100
AcDbBlockEnd
  0
BLOCK
  5
2A30
330
2A2B
100
AcDbEntity
  8
0
100
AcDbBlockBegin
  2
*S17
 70
     1
 10
0.0
 20
0.0
 30
0.0
  3
*S17
  1

  0
LINE
  5
2A2C
330
2A2B
100
AcDbEntity
  8
AM_5
 62
     5
100
AcDbLine
 10
198.8804071186685
 20
209.2561685441479
 30
0.0
 11
183.2655152258792
 21
209.2561685441479
 31
0.0
  0
LINE
  5
2A2D
330
2A2B
100
AcDbEntity
  8
AM_5
 62
     5
100
AcDbLine
 10
183.2655152258792
 20
209.2561685441479
 30
0.0
 11
169.8316022013867
 21
223.8105586044016
 31
0.0
  0
TRACE
  5
2A2E
330
2A2B
100
AcDbEntity
  8
AM_5
 62
     5
370
    35
100
AcDbTrace
 10
170.1701982150071
 20
224.1230876336901
 30
0.0
 11
169.4930061877663
 21
223.4980295751132
 31
0.0
 12
167.4577085312314
 22
226.3824506788862
 32
0.0
 13
167.4577085312314
 23
226.3824506788862
 33
0.0
  0
MTEXT
  5
2A2F
330
2A2B
100
AcDbEntity
  8
AM_5
 62
     2
100
AcDbMText
 10
198.8804071186685
 20
204.5874891629321
 30
0.0
 40
3.5
 41
0.0
 71
     9
 72
     5
  1

  7
ACISOTS
210
0.0
220
0.0
230
-1.0
 11
-1.0
 21
0.0
 31
0.0
 73
     1
 44
1.0
1001
ACAD
1000
MTEXTBEGIN
1070
    73
1070
     1
1070
    44
1040
1.0
1070
    74
1070
     0
1000
MTEXTEND
  0
ENDBLK
  5
2A31
330
2A2B
100
AcDbEntity
  8
0
100
AcDbBlockEnd
  0
BLOCK
  5
2A48
330
2A43
100
AcDbEntity
  8
0
100
AcDbBlockBegin
  2
*S20
 70
     1
 10
0.0
 20
0.0
 30
0.0
  3
*S20
  1

  0
LINE
  5
2A44
330
2A43
100
AcDbEntity
  8
AM_5
 62
     5
100
AcDbLine
 10
210.2204035416235
 20
147.122138025856
 30
0.0
 11
192.0440934421338
 21
147.122138025856
 31
0.0
  0
LINE
  5
2A45
330
2A43
100
AcDbEntity
  8
AM_5
 62
     5
100
AcDbLine
 10
192.0440934421338
 20
147.122138025856
 30
0.0
 11
184.3514496400106
 21
160.2066812483689
 31
0.0
  0
TRACE
  5
2A46
330
2A43
100
AcDbEntity
  8
AM_5
 62
     5
370
    35
100
AcDbTrace
 10
184.7486699091355
 20
160.4402143560515
 30
0.0
 11
183.9542293708856
 21
159.9731481406862
 31
0.0
 12
182.577589568958
 22
163.2238687546942
 32
0.0
 13
182.577589568958
 23
163.2238687546942
 33
0.0
  0
MTEXT
  5
2A47
330
2A43
100
AcDbEntity
  8
AM_5
 62
     2
100
AcDbMText
 10
210.2204035416235
 20
142.4534586446402
 30
0.0
 40
3.5
 41
0.0
 71
     9
 72
     5
  1

  7
ACISOTS
210
0.0
220
0.0
230
-1.0
 11
-1.0
 21
0.0
 31
0.0
 73
     1
 44
1.0
1001
ACAD
1000
MTEXTBEGIN
1070
    73
1070
     1
1070
    44
1040
1.0
1070
    74
1070
     0
1000
MTEXTEND
  0
ENDBLK
  5
2A49
330
2A43
100
AcDbEntity
  8
0
100
AcDbBlockEnd
  0
ENDSEC
  0
SECTION
  2
ENTITIES
  0
LINE
  5
D91
330
1F
100
AcDbEntity
  8
AM_7
100
AcDbLine
 10
155.4259600757175
 20
219.9876311457658
 30
0.0
 11
155.4259600757175
 21
292.8930404725602
 31
0.0
  0
LINE
  5
DA2
330
1F
100
AcDbEntity
  8
AM_7
100
AcDbLine
 10
155.4259600757179
 20
260.1915576654844
 30
0.0
 11
155.4259600757179
 21
266.5665576654844
 31
0.0
  0
LINE
  5
DA3
330
1F
100
AcDbEntity
  8
AM_7
100
AcDbLine
 10
155.4259600757179
 20
269.1498909988177
 30
0.0
 11
155.4259600757179
 21
275.5248909988177
 31
0.0
  0
LINE
  5
DB4
330
1F
100
AcDbEntity
  8
AM_7
100
AcDbLine
 10
155.4259600757179
 20
237.1915576654844
 30
0.0
 11
155.4259600757179
 21
243.5665576654844
 31
0.0
  0
LINE
  5
DB5
330
1F
100
AcDbEntity
  8
AM_7
100
AcDbLine
 10
155.4259600757179
 20
246.1498909988177
 30
0.0
 11
155.4259600757179
 21
252.5248909988177
 31
0.0
  0
LINE
  5
DB6
330
1F
100
AcDbEntity
  8
AM_7
100
AcDbLine
 10
173.8009600757179
 20
259.358224332151
 30
0.0
 11
175.0509600757179
 21
259.358224332151
 31
0.0
  0
LINE
  5
DB7
330
1F
100
AcDbEntity
  8
AM_7
100
AcDbLine
 10
174.425960075718
 20
258.733224332151
 30
0.0
 11
174.425960075718
 21
259.9832243321509
 31
0.0
  0
LINE
  5
DB8
330
1F
100
AcDbEntity
  8
AM_7
100
AcDbLine
 10
171.509293409051
 20
259.358224332151
 30
0.0
 11
173.134293409051
 21
259.358224332151
 31
0.0
  0
LINE
  5
DB9
330
1F
100
AcDbEntity
  8
AM_7
100
AcDbLine
 10
175.7176267423845
 20
259.358224332151
 30
0.0
 11
177.3426267423845
 21
259.358224332151
 31
0.0
  0
LINE
  5
DBA
330
1F
100
AcDbEntity
  8
AM_7
100
AcDbLine
 10
174.425960075718
 20
256.4415576654844
 30
0.0
 11
174.425960075718
 21
258.0665576654844
 31
0.0
  0
LINE
  5
DBB
330
1F
100
AcDbEntity
  8
AM_7
100
AcDbLine
 10
174.425960075718
 20
260.6498909988177
 30
0.0
 11
174.425960075718
 21
262.2748909988177
 31
0.0
  0
LINE
  5
DBC
330
1F
100
AcDbEntity
  8
AM_7
100
AcDbLine
 10
165.3009600757179
 20
284.8582243321509
 30
0.0
 11
166.5509600757179
 21
284.8582243321509
 31
0.0
  0
LINE
  5
DBD
330
1F
100
AcDbEntity
  8
AM_7
100
AcDbLine
 10
165.9259600757179
 20
284.2332243321509
 30
0.0
 11
165.9259600757179
 21
285.483224332151
 31
0.0
  0
LINE
  5
DBE
330
1F
100
AcDbEntity
  8
AM_7
100
AcDbLine
 10
162.009293409051
 20
284.8582243321509
 30
0.0
 11
164.634293409051
 21
284.8582243321509
 31
0.0
  0
LINE
  5
DBF
330
1F
100
AcDbEntity
  8
AM_7
100
AcDbLine
 10
167.2176267423845
 20
284.8582243321509
 30
0.0
 11
169.8426267423845
 21
284.8582243321509
 31
0.0
  0
LINE
  5
DC0
330
1F
100
AcDbEntity
  8
AM_7
100
AcDbLine
 10
165.9259600757179
 20
280.9415576654844
 30
0.0
 11
165.9259600757179
 21
283.5665576654844
 31
0.0
  0
LINE
  5
DC1
330
1F
100
AcDbEntity
  8
AM_7
100
AcDbLine
 10
165.9259600757179
 20
286.1498909988177
 30
0.0
 11
165.9259600757179
 21
288.7748909988177
 31
0.0
  0
LINE
  5
DC2
330
1F
100
AcDbEntity
  8
AM_7
100
AcDbLine
 10
165.3009600757179
 20
227.8582243321512
 30
0.0
 11
166.5509600757179
 21
227.8582243321512
 31
0.0
  0
LINE
  5
DC3
330
1F
100
AcDbEntity
  8
AM_7
100
AcDbLine
 10
165.9259600757179
 20
227.2332243321512
 30
0.0
 11
165.9259600757179
 21
228.4832243321512
 31
0.0
  0
LINE
  5
DC4
330
1F
100
AcDbEntity
  8
AM_7
100
AcDbLine
 10
162.009293409051
 20
227.8582243321512
 30
0.0
 11
164.634293409051
 21
227.8582243321512
 31
0.0
  0
LINE
  5
DC5
330
1F
100
AcDbEntity
  8
AM_7
100
AcDbLine
 10
167.2176267423845
 20
227.8582243321512
 30
0.0
 11
169.8426267423845
 21
227.8582243321512
 31
0.0
  0
LINE
  5
DC6
102
{ACAD_REACTORS
330
11B4
102
}
330
1F
100
AcDbEntity
  8
AM_7
100
AcDbLine
 10
165.9259600757179
 20
223.9415576654844
 30
0.0
 11
165.9259600757179
 21
226.5665576654844
 31
0.0
  0
LINE
  5
DC7
330
1F
100
AcDbEntity
  8
AM_7
100
AcDbLine
 10
165.9259600757179
 20
229.1498909988177
 30
0.0
 11
165.9259600757179
 21
231.7748909988177
 31
0.0
  0
LINE
  5
DC8
330
1F
100
AcDbEntity
  8
AM_7
100
AcDbLine
 10
144.3009600757179
 20
284.8582243321509
 30
0.0
 11
145.5509600757179
 21
284.8582243321509
 31
0.0
  0
LINE
  5
DC9
330
1F
100
AcDbEntity
  8
AM_7
100
AcDbLine
 10
144.9259600757179
 20
284.2332243321509
 30
0.0
 11
144.9259600757179
 21
285.483224332151
 31
0.0
  0
LINE
  5
DCA
330
1F
100
AcDbEntity
  8
AM_7
100
AcDbLine
 10
141.009293409051
 20
284.8582243321509
 30
0.0
 11
143.634293409051
 21
284.8582243321509
 31
0.0
  0
LINE
  5
DCB
330
1F
100
AcDbEntity
  8
AM_7
100
AcDbLine
 10
146.2176267423845
 20
284.8582243321509
 30
0.0
 11
148.8426267423845
 21
284.8582243321509
 31
0.0
  0
LINE
  5
DCC
330
1F
100
AcDbEntity
  8
AM_7
100
AcDbLine
 10
144.9259600757179
 20
280.9415576654844
 30
0.0
 11
144.9259600757179
 21
283.5665576654844
 31
0.0
  0
LINE
  5
DCD
330
1F
100
AcDbEntity
  8
AM_7
100
AcDbLine
 10
144.9259600757179
 20
286.1498909988177
 30
0.0
 11
144.9259600757179
 21
288.7748909988177
 31
0.0
  0
LINE
  5
DCE
330
1F
100
AcDbEntity
  8
AM_7
100
AcDbLine
 10
144.3009600757179
 20
227.8582243321512
 30
0.0
 11
145.5509600757179
 21
227.8582243321512
 31
0.0
  0
LINE
  5
DCF
330
1F
100
AcDbEntity
  8
AM_7
100
AcDbLine
 10
144.9259600757179
 20
227.2332243321512
 30
0.0
 11
144.9259600757179
 21
228.4832243321512
 31
0.0
  0
LINE
  5
DD0
330
1F
100
AcDbEntity
  8
AM_7
100
AcDbLine
 10
141.009293409051
 20
227.8582243321512
 30
0.0
 11
143.634293409051
 21
227.8582243321512
 31
0.0
  0
LINE
  5
DD1
330
1F
100
AcDbEntity
  8
AM_7
100
AcDbLine
 10
146.2176267423845
 20
227.8582243321512
 30
0.0
 11
148.8426267423845
 21
227.8582243321512
 31
0.0
  0
LINE
  5
DD2
102
{ACAD_REACTORS
330
11B4
102
}
330
1F
100
AcDbEntity
  8
AM_7
100
AcDbLine
 10
144.9259600757179
 20
223.9415576654844
 30
0.0
 11
144.9259600757179
 21
226.5665576654844
 31
0.0
  0
LINE
  5
DD3
330
1F
100
AcDbEntity
  8
AM_7
100
AcDbLine
 10
144.9259600757179
 20
229.1498909988177
 30
0.0
 11
144.9259600757179
 21
231.7748909988177
 31
0.0
  0
LINE
  5
DD4
330
1F
100
AcDbEntity
  8
AM_7
100
AcDbLine
 10
135.800960075718
 20
276.3582243321512
 30
0.0
 11
137.0509600757179
 21
276.3582243321512
 31
0.0
  0
LINE
  5
DD5
330
1F
100
AcDbEntity
  8
AM_7
100
AcDbLine
 10
136.4259600757179
 20
275.7332243321512
 30
0.0
 11
136.4259600757179
 21
276.9832243321512
 31
0.0
  0
LINE
  5
DD6
330
1F
100
AcDbEntity
  8
AM_7
100
AcDbLine
 10
133.509293409051
 20
276.3582243321512
 30
0.0
 11
135.134293409051
 21
276.3582243321512
 31
0.0
  0
LINE
  5
DD7
330
1F
100
AcDbEntity
  8
AM_7
100
AcDbLine
 10
137.7176267423845
 20
276.3582243321512
 30
0.0
 11
139.3426267423845
 21
276.3582243321512
 31
0.0
  0
LINE
  5
DD8
330
1F
100
AcDbEntity
  8
AM_7
100
AcDbLine
 10
136.4259600757179
 20
273.4415576654844
 30
0.0
 11
136.4259600757179
 21
275.0665576654844
 31
0.0
  0
LINE
  5
DD9
330
1F
100
AcDbEntity
  8
AM_7
100
AcDbLine
 10
136.4259600757179
 20
277.6498909988177
 30
0.0
 11
136.4259600757179
 21
279.2748909988177
 31
0.0
  0
LINE
  5
DDA
330
1F
100
AcDbEntity
  8
AM_7
100
AcDbLine
 10
173.8009600757179
 20
236.3582243321512
 30
0.0
 11
175.0509600757179
 21
236.3582243321512
 31
0.0
  0
LINE
  5
DDB
330
1F
100
AcDbEntity
  8
AM_7
100
AcDbLine
 10
174.425960075718
 20
235.7332243321512
 30
0.0
 11
174.425960075718
 21
236.9832243321511
 31
0.0
  0
LINE
  5
DDC
330
1F
100
AcDbEntity
  8
AM_7
100
AcDbLine
 10
171.509293409051
 20
236.3582243321512
 30
0.0
 11
173.134293409051
 21
236.3582243321512
 31
0.0
  0
LINE
  5
DDD
330
1F
100
AcDbEntity
  8
AM_7
100
AcDbLine
 10
175.7176267423845
 20
236.3582243321512
 30
0.0
 11
177.3426267423845
 21
236.3582243321512
 31
0.0
  0
LINE
  5
DDE
330
1F
100
AcDbEntity
  8
AM_7
100
AcDbLine
 10
174.425960075718
 20
233.4415576654844
 30
0.0
 11
174.425960075718
 21
235.0665576654844
 31
0.0
  0
LINE
  5
DDF
330
1F
100
AcDbEntity
  8
AM_7
100
AcDbLine
 10
174.425960075718
 20
237.6498909988177
 30
0.0
 11
174.425960075718
 21
239.2748909988177
 31
0.0
  0
LINE
  5
DE0
330
1F
100
AcDbEntity
  8
AM_7
100
AcDbLine
 10
135.800960075718
 20
253.3582243321512
 30
0.0
 11
137.0509600757179
 21
253.3582243321512
 31
0.0
  0
LINE
  5
DE1
330
1F
100
AcDbEntity
  8
AM_7
100
AcDbLine
 10
136.4259600757179
 20
252.7332243321512
 30
0.0
 11
136.4259600757179
 21
253.9832243321512
 31
0.0
  0
LINE
  5
DE2
330
1F
100
AcDbEntity
  8
AM_7
100
AcDbLine
 10
133.509293409051
 20
253.3582243321512
 30
0.0
 11
135.134293409051
 21
253.3582243321512
 31
0.0
  0
LINE
  5
DE3
330
1F
100
AcDbEntity
  8
AM_7
100
AcDbLine
 10
137.7176267423845
 20
253.3582243321512
 30
0.0
 11
139.3426267423845
 21
253.3582243321512
 31
0.0
  0
LINE
  5
DE4
330
1F
100
AcDbEntity
  8
AM_7
100
AcDbLine
 10
136.4259600757179
 20
250.4415576654844
 30
0.0
 11
136.4259600757179
 21
252.0665576654844
 31
0.0
  0
LINE
  5
DE5
330
1F
100
AcDbEntity
  8
AM_7
100
AcDbLine
 10
136.4259600757179
 20
254.6498909988177
 30
0.0
 11
136.4259600757179
 21
256.2748909988177
 31
0.0
  0
LINE
  5
DE6
330
1F
100
AcDbEntity
  8
AM_7
100
AcDbLine
 10
178.2176267423845
 20
167.4977597901572
 30
0.0
 11
184.2926267423843
 21
167.4977597901572
 31
0.0
  0
LINE
  5
DE7
330
1F
100
AcDbEntity
  8
AM_7
100
AcDbLine
 10
176.9259600757175
 20
160.1310931234904
 30
0.0
 11
176.9259600757175
 21
166.2060931234905
 31
0.0
  0
LINE
  5
DE8
330
1F
100
AcDbEntity
  8
AM_7
100
AcDbLine
 10
176.9259600757175
 20
168.7894264568237
 30
0.0
 11
176.9259600757175
 21
174.8644264568238
 31
0.0
  0
LINE
  5
DE9
330
1F
100
AcDbEntity
  8
AM_7
100
AcDbLine
 10
155.4259600757175
 20
160.1310931234904
 30
0.0
 11
155.4259600757175
 21
166.2060931234905
 31
0.0
  0
LINE
  5
DEA
330
1F
100
AcDbEntity
  8
AM_7
100
AcDbLine
 10
155.4259600757175
 20
168.7894264568237
 30
0.0
 11
155.4259600757175
 21
174.8644264568238
 31
0.0
  0
LINE
  5
DEB
330
1F
100
AcDbEntity
  8
AM_7
100
AcDbLine
 10
126.5592934090512
 20
167.4977597901572
 30
0.0
 11
132.634293409051
 21
167.4977597901572
 31
0.0
  0
LINE
  5
DEC
330
1F
100
AcDbEntity
  8
AM_7
100
AcDbLine
 10
133.9259600757175
 20
160.1310931234904
 30
0.0
 11
133.9259600757175
 21
166.2060931234905
 31
0.0
  0
LINE
  5
DED
330
1F
100
AcDbEntity
  8
AM_7
100
AcDbLine
 10
133.9259600757175
 20
168.7894264568237
 30
0.0
 11
133.9259600757175
 21
174.8644264568238
 31
0.0
  0
DIMENSION
  5
DF1
330
1F
100
AcDbEntity
  8
AM_5
100
AcDbDimension
  2
*D2
 10
197.4259600757179
 20
221.8582243321509
 30
0.0
 11
194.8759600757179
 21
224.8582243321511
 31
0.0
 70
    32
 71
     5
 42
6.000000000000227
  3
AM_ISO$0
100
AcDbAlignedDimension
 13
169.8426267423845
 23
227.8582243321512
 33
0.0
 14
185.4259600757179
 24
221.858224332151
 34
0.0
 50
90.0
100
AcDbRotatedDimension
1001
ACAD
1000
DSTYLE
1002
{
1070
    48
1040
0.1
1070
   140
1040
3.5
1070
   141
1040
3.0
1070
   147
1040
0.8
1070
   283
1070
     0
1002
}
  0
DIMENSION
  5
DF6
330
1F
100
AcDbEntity
  8
AM_5
100
AcDbDimension
  2
*D3
 10
185.4259600757179
 20
138.4977597901572
 30
0.0
 11
155.4259600757177
 21
141.0477597901572
 31
0.0
 70
    32
  1
<>
 71
     5
 42
60.00000000000046
  3
AM_ISO$0
100
AcDbAlignedDimension
 13
125.4259600757175
 23
158.4977597901572
 33
0.0
 14
185.4259600757179
 24
158.4977597901572
 34
0.0
100
AcDbRotatedDimension
1001
ACAD
1000
DSTYLE
1002
{
1070
    48
1040
0.1
1070
   140
1040
3.5
1070
   141
1040
3.0
1070
   147
1040
0.8
1070
   283
1070
     0
1002
}
  0
DIMENSION
  5
DF7
330
1F
100
AcDbEntity
  8
AM_5
100
AcDbDimension
  2
*D4
 10
205.425960075718
 20
182.4977597901572
 30
0.0
 11
202.875615587529
 21
169.9977597901573
 31
0.0
 70
    32
  1
<>
 71
     5
 42
25.0
  3
AM_ISO$0
100
AcDbAlignedDimension
 13
184.4259600757179
 23
157.4977597901572
 33
0.0
 14
180.4259600757179
 24
182.4977597901572
 34
0.0
 50
90.0
100
AcDbRotatedDimension
1001
ACAD
1000
DSTYLE
1002
{
1070
    48
1040
0.1
1070
   140
1040
3.5
1070
   141
1040
3.0
1070
   147
1040
0.8
1070
   283
1070
     0
1002
}
  0
DIMENSION
  5
DF8
330
1F
100
AcDbEntity
  8
AM_5
100
AcDbDimension
  2
*D5
 10
176.9259600757175
 20
146.4977597901572
 30
0.0
 11
155.4259600757175
 21
149.0477597901572
 31
0.0
 70
    32
  1
<>
 71
     5
 42
43.0
  3
AM_ISO$0
100
AcDbAlignedDimension
 13
133.9259600757175
 23
160.1310931234904
 33
0.0
 14
176.9259600757175
 24
160.1310931234904
 34
0.0
100
AcDbRotatedDimension
1001
ACAD
1000
DSTYLE
1002
{
1070
    48
1040
0.1
1070
   140
1040
3.5
1070
   141
1040
3.0
1070
   147
1040
0.8
1070
   283
1070
     0
1002
}
  0
LINE
  5
DFC
330
1F
100
AcDbEntity
  8
AM_VIS
100
AcDbLine
 10
180.4259600757179
 20
290.8582243321509
 30
0.0
 11
130.4259600757179
 21
290.8582243321509
 31
0.0
  0
LINE
  5
DFD
330
1F
100
AcDbEntity
  8
AM_VIS
100
AcDbLine
 10
130.4259600757179
 20
221.8582243321512
 30
0.0
 11
130.4259600757179
 21
290.8582243321512
 31
0.0
  0
LINE
  5
DFE
330
1F
100
AcDbEntity
  8
AM_VIS
100
AcDbLine
 10
180.4259600757179
 20
221.858224332151
 30
0.0
 11
130.4259600757179
 21
221.858224332151
 31
0.0
  0
LINE
  5
DFF
330
1F
100
AcDbEntity
  8
AM_VIS
100
AcDbLine
 10
180.4259600757179
 20
221.858224332151
 30
0.0
 11
180.4259600757179
 21
290.8582243321509
 31
0.0
  0
LINE
  5
E00
330
1F
100
AcDbEntity
  8
AM_VIS
100
AcDbLine
 10
130.4259600757179
 20
290.8582243321512
 30
0.0
 11
125.4259600757175
 21
290.8582243321512
 31
0.0
  0
LINE
  5
E01
330
1F
100
AcDbEntity
  8
AM_VIS
100
AcDbLine
 10
185.4259600757179
 20
290.8582243321509
 30
0.0
 11
180.4259600757179
 21
290.8582243321509
 31
0.0
  0
LINE
  5
E02
330
1F
100
AcDbEntity
  8
AM_VIS
100
AcDbLine
 10
185.4259600757179
 20
221.858224332151
 30
0.0
 11
180.4259600757179
 21
221.858224332151
 31
0.0
  0
LINE
  5
E03
330
1F
100
AcDbEntity
  8
AM_VIS
100
AcDbLine
 10
130.4259600757179
 20
221.8582243321512
 30
0.0
 11
125.4259600757175
 21
221.8582243321512
 31
0.0
  0
LINE
  5
E04
330
1F
100
AcDbEntity
  8
AM_VIS
100
AcDbLine
 10
125.4259600757175
 20
221.8582243321512
 30
0.0
 11
125.4259600757175
 21
290.8582243321512
 31
0.0
  0
LINE
  5
E05
102
{ACAD_REACTORS
330
1017
102
}
330
1F
100
AcDbEntity
  8
AM_VIS
100
AcDbLine
 10
185.4259600757179
 20
221.858224332151
 30
0.0
 11
185.4259600757179
 21
290.8582243321509
 31
0.0
  0
CIRCLE
  5
E0F
330
1F
100
AcDbEntity
  8
AM_VIS
100
AcDbCircle
 10
165.9259600757179
 20
284.8582243321509
 30
0.0
 40
2.25
  0
CIRCLE
  5
E10
330
1F
100
AcDbEntity
  8
AM_VIS
100
AcDbCircle
 10
165.9259600757179
 20
227.8582243321512
 30
0.0
 40
2.25
  0
CIRCLE
  5
E11
330
1F
100
AcDbEntity
  8
AM_VIS
100
AcDbCircle
 10
144.9259600757179
 20
284.8582243321509
 30
0.0
 40
2.25
  0
CIRCLE
  5
E12
330
1F
100
AcDbEntity
  8
AM_VIS
100
AcDbCircle
 10
144.9259600757179
 20
227.8582243321512
 30
0.0
 40
2.25
  0
ARC
  5
E17
330
1F
100
AcDbEntity
  8
AM_VIS
100
AcDbCircle
 10
184.4259600757179
 20
158.4977597901572
 30
0.0
 40
0.9999999999999998
100
AcDbArc
 50
270.0
 51
0.0
  0
ARC
  5
E18
330
1F
100
AcDbEntity
  8
AM_VIS
100
AcDbCircle
 10
126.4259600757175
 20
158.4977597901572
 30
0.0
 40
1.0
100
AcDbArc
 50
180.0
 51
270.0
  0
LINE
  5
E19
330
1F
100
AcDbEntity
  8
AM_VIS
100
AcDbLine
 10
125.4259600757175
 20
172.4977597901572
 30
0.0
 11
125.4259600757175
 21
158.4977597901572
 31
0.0
  0
LINE
  5
E1A
330
1F
100
AcDbEntity
  8
AM_VIS
100
AcDbLine
 10
130.4259600757179
 20
177.4977597901572
 30
0.0
 11
125.4259600757175
 21
172.4977597901572
 31
0.0
  0
LINE
  5
E1B
330
1F
100
AcDbEntity
  8
AM_VIS
100
AcDbLine
 10
130.4259600757179
 20
182.4977597901572
 30
0.0
 11
130.4259600757179
 21
177.4977597901572
 31
0.0
  0
LINE
  5
E1C
330
1F
100
AcDbEntity
  8
AM_VIS
100
AcDbLine
 10
180.4259600757179
 20
177.4977597901572
 30
0.0
 11
180.4259600757179
 21
182.4977597901572
 31
0.0
  0
LINE
  5
E1D
330
1F
100
AcDbEntity
  8
AM_VIS
100
AcDbLine
 10
185.4259600757179
 20
172.4977597901572
 30
0.0
 11
180.4259600757179
 21
177.4977597901572
 31
0.0
  0
LINE
  5
E1E
330
1F
100
AcDbEntity
  8
AM_VIS
100
AcDbLine
 10
185.4259600757179
 20
158.4977597901572
 30
0.0
 11
185.4259600757179
 21
172.4977597901572
 31
0.0
  0
LINE
  5
E1F
330
1F
100
AcDbEntity
  8
AM_VIS
100
AcDbLine
 10
175.425960075718
 20
157.4977597901572
 30
0.0
 11
184.4259600757179
 21
157.4977597901572
 31
0.0
  0
LINE
  5
E20
330
1F
100
AcDbEntity
  8
AM_VIS
100
AcDbLine
 10
174.425960075718
 20
158.4977597901572
 30
0.0
 11
175.425960075718
 21
157.4977597901572
 31
0.0
  0
LINE
  5
E21
330
1F
100
AcDbEntity
  8
AM_VIS
100
AcDbLine
 10
136.4259600757179
 20
158.4977597901572
 30
0.0
 11
174.425960075718
 21
158.4977597901572
 31
0.0
  0
LINE
  5
E22
330
1F
100
AcDbEntity
  8
AM_VIS
100
AcDbLine
 10
135.4259600757179
 20
157.4977597901572
 30
0.0
 11
136.4259600757179
 21
158.4977597901572
 31
0.0
  0
LINE
  5
E23
330
1F
100
AcDbEntity
  8
AM_VIS
100
AcDbLine
 10
126.4259600757175
 20
157.4977597901572
 30
0.0
 11
135.4259600757179
 21
157.4977597901572
 31
0.0
  0
LINE
  5
E24
330
1F
100
AcDbEntity
  8
AM_VIS
100
AcDbLine
 10
180.4259600757179
 20
182.4977597901572
 30
0.0
 11
130.4259600757179
 21
182.4977597901572
 31
0.0
  0
DIMENSION
  5
E25
330
1F
100
AcDbEntity
  8
AM_5
100
AcDbDimension
  2
*D6
 10
197.4259600757179
 20
157.4977597901572
 30
0.0
 11
194.8759600757179
 21
162.4977597901573
 31
0.0
 70
    32
 71
     5
 42
10.0
  3
AM_ISO$0
100
AcDbAlignedDimension
 13
184.2926267423843
 23
167.4977597901572
 33
0.0
 14
184.4259600757179
 24
157.4977597901572
 34
0.0
 50
90.0
100
AcDbRotatedDimension
1001
ACAD
1000
DSTYLE
1002
{
1070
    48
1040
0.1
1070
   140
1040
3.5
1070
   141
1040
3.0
1070
   147
1040
0.8
1070
   283
1070
     0
1002
}
  0
LINE
  5
E28
330
1F
100
AcDbEntity
  8
AM_7
  6
AM_ISO08W050x2
100
AcDbLine
 10
133.9259600757179
 20
176.3977597901573
 30
0.0
 11
133.9259600757179
 21
158.5977597901572
 31
0.0
  0
LINE
  5
E29
330
1F
100
AcDbEntity
  8
AM_7
  6
AM_ISO08W050x2
100
AcDbLine
 10
125.0259600757178
 20
167.4977597901572
 30
0.0
 11
142.825960075718
 21
167.4977597901572
 31
0.0
  0
LINE
  5
E2C
330
1F
100
AcDbEntity
  8
AM_7
  6
AM_ISO08W050x2
100
AcDbLine
 10
155.4259600757175
 20
183.4354320396248
 30
0.0
 11
155.4259600757175
 21
157.6838580134356
 31
0.0
  0
LINE
  5
E2D
330
1F
100
AcDbEntity
  8
AM_7
  6
AM_ISO08W050x2
100
AcDbLine
 10
146.5259600757174
 20
167.4977597901575
 30
0.0
 11
164.3259600757176
 21
167.4977597901575
 31
0.0
  0
LINE
  5
E30
330
1F
100
AcDbEntity
  8
AM_7
  6
AM_ISO08W050x2
100
AcDbLine
 10
176.9259600757175
 20
176.3977597901576
 30
0.0
 11
176.9259600757175
 21
158.5977597901574
 31
0.0
  0
LINE
  5
E31
330
1F
100
AcDbEntity
  8
AM_7
  6
AM_ISO08W050x2
100
AcDbLine
 10
168.0259600757174
 20
167.4977597901575
 30
0.0
 11
185.8259600757176
 21
167.4977597901575
 31
0.0
  0
DIMENSION
  5
1007
102
{ACAD_XDICTIONARY
360
1016
102
}
102
{ACAD_REACTORS
330
1017
102
}
330
1F
100
AcDbEntity
  8
AM_5
100
AcDbDimension
  2
*D7
 10
197.4259600757179
 20
284.8582243321509
 30
0.0
 11
194.8759600757179
 21
287.858224332151
 31
0.0
 70
    32
 71
     5
 42
6.0
  3
AM_ISO$0
100
AcDbAlignedDimension
 13
185.4259600757179
 23
290.8582243321509
 33
0.0
 14
169.8426267423845
 24
284.8582243321509
 34
0.0
 50
90.0
100
AcDbRotatedDimension
1001
ACAD
1000
DSTYLE
1002
{
1070
    48
1040
0.1
1070
   140
1040
3.5
1070
   141
1040
3.0
1070
   147
1040
0.8
1070
   283
1070
     0
1002
}
  0
TEXT
  5
1036
330
1F
100
AcDbEntity
  8
AM_5
100
AcDbText
 10
183.7635329999558
 20
210.2884861076664
 30
0.0
 40
3.5
  1
4-%%C4.5
100
AcDbText
  0
INSERT
  5
1037
330
1F
100
AcDbEntity
  8
AM_5
100
AcDbBlockReference
  2
*S17
 10
0.0
 20
0.0
 30
0.0
  0
DIMENSION
  5
11A6
102
{ACAD_XDICTIONARY
360
11B3
102
}
102
{ACAD_REACTORS
330
11B4
102
}
330
1F
100
AcDbEntity
  8
AM_5
100
AcDbDimension
  2
*D8
 10
165.9259600757179
 20
209.8582243321518
 30
0.0
 11
155.4259600757179
 21
212.3585196077424
 31
0.0
 70
    32
 71
     5
 42
21.0
  3
AM_ISO$0
100
AcDbAlignedDimension
 13
144.9259600757179
 23
223.9415576654844
 33
0.0
 14
165.9259600757179
 24
223.9415576654844
 34
0.0
100
AcDbRotatedDimension
1001
ACAD
1000
DSTYLE
1002
{
1070
    40
1040
1.0
1070
   144
1040
1.0
1002
}
  0
TEXT
  5
13F1
330
1F
100
AcDbEntity
  8
LOGO
 62
     7
100
AcDbText
 10
154.8716069851909
 20
116.1378817991358
 30
0.0
 40
3.072803004814478
  1
Order example:
 41
0.8
  7
CHINESET
100
AcDbText
  0
TEXT
  5
13F2
330
1F
100
AcDbEntity
  8
LOGO
 62
     7
100
AcDbText
 10
155.4228932553013
 20
120.4637521979342
 30
0.0
 40
4.609204507221718
  1
訂購代號:
  7
CHINESET
100
AcDbText
  0
LINE
  5
13F3
330
1F
100
AcDbEntity
  8
LOGO
 62
     1
100
AcDbLine
 10
266.0224629123797
 20
126.2339521106213
 30
0.0
 11
102.8352140778111
 21
126.2339521106213
 31
0.0
  0
LINE
  5
13F4
330
1F
100
AcDbEntity
  8
LOGO
 62
     1
100
AcDbLine
 10
266.0224629123797
 20
103.1879295745127
 30
0.0
 11
102.8352140778111
 21
103.1879295745127
 31
0.0
  0
LINE
  5
13F5
330
1F
100
AcDbEntity
  8
LOGO
 62
     1
100
AcDbLine
 10
153.5364636572502
 20
103.1879295745127
 30
0.0
 11
153.5364636572502
 21
126.2339521106213
 31
0.0
  0
LINE
  5
13F6
330
1F
100
AcDbEntity
  8
LOGO
 62
     1
100
AcDbLine
 10
102.8352140778111
 20
103.1879295745127
 30
0.0
 11
102.8352140778111
 21
126.2339521106213
 31
0.0
  0
TEXT
  5
13F7
330
1F
100
AcDbEntity
  8
LOGO
  6
Continuous
 62
     5
100
AcDbText
 10
111.1134489666573
 20
107.7152859222507
 30
0.0
 40
3.456903380416289
  1
金器工業股份有限公司
  7
CHINESET
100
AcDbText
  0
TEXT
  5
13F8
330
1F
100
AcDbEntity
  8
LOGO
  6
Continuous
 62
     5
100
AcDbText
 10
104.7638013714391
 20
104.2577052598036
 30
0.0
 40
2.304602253610859
  1
MINDMAN INDUSTRIAL CO., LTD.
 41
0.85
  7
CHINESET
100
AcDbText
  0
LINE
  5
13F9
330
1F
100
AcDbEntity
  8
LOGO
 62
     1
100
AcDbLine
 10
153.5364636572502
 20
121.6247476033996
 30
0.0
 11
119.7356306042909
 21
121.6247476033996
 31
0.0
  0
LINE
  5
13FA
330
1F
100
AcDbEntity
  8
LOGO
 62
     1
100
AcDbLine
 10
153.5364636572502
 20
117.0155430961778
 30
0.0
 11
119.7356306042909
 21
117.0155430961778
 31
0.0
  0
LINE
  5
13FB
330
1F
100
AcDbEntity
  8
LOGO
 62
     1
100
AcDbLine
 10
153.5364636572502
 20
112.4063385889562
 30
0.0
 11
102.8352140778111
 21
112.4063385889562
 31
0.0
  0
LINE
  5
13FC
330
1F
100
AcDbEntity
  8
LOGO
 62
     1
100
AcDbLine
 10
119.7356306042909
 20
112.4063385889562
 30
0.0
 11
119.7356306042909
 21
126.2339521106213
 31
0.0
  0
TEXT
  5
13FD
330
1F
100
AcDbEntity
  8
LOGO
 62
     6
100
AcDbText
 10
141.6297320119354
 20
113.5586397157616
 30
0.0
 40
2.304602253610859
  1
m/m
  7
CHINESET
 72
     1
 11
145.6902216968689
 21
114.710940842567
 31
0.0
100
AcDbText
 73
     2
  0
TEXT
  5
13FE
330
1F
100
AcDbEntity
  8
LOGO
 62
     6
100
AcDbText
 10
141.6297320119354
 20
122.7770487302051
 30
0.0
 40
2.304602253610859
  1
1 : 1
  7
CHINESET
 72
     1
 11
145.6902216968689
 21
123.9293498570105
 31
0.0
100
AcDbText
 73
     2
  0
LINE
  5
13FF
330
1F
100
AcDbEntity
  8
LOGO
 62
     1
100
AcDbLine
 10
138.1724486331777
 20
112.4063385889562
 30
0.0
 11
138.1724486331777
 21
126.2339521106213
 31
0.0
  0
CIRCLE
  5
1400
330
1F
100
AcDbEntity
  8
LOGO
  6
Continuous
 62
     6
100
AcDbCircle
 10
142.4397079608314
 20
119.3250749108738
 30
0.0
 40
1.338106312668757
  0
CIRCLE
  5
1401
330
1F
100
AcDbEntity
  8
LOGO
  6
Continuous
 62
     6
100
AcDbCircle
 10
142.4397079608314
 20
119.3250749108738
 30
0.0
 40
0.7840118433741034
  0
LINE
  5
1402
330
1F
100
AcDbEntity
  8
LOGO
 62
     6
100
AcDbLine
 10
150.8485232969327
 20
117.986968598205
 30
0.0
 11
150.8485232969327
 21
120.6631812235426
 31
0.0
  0
LINE
  5
1403
330
1F
100
AcDbEntity
  8
LOGO
 62
     6
100
AcDbLine
 10
146.6536368176833
 20
118.5410630674998
 30
0.0
 11
146.6536368176833
 21
120.1090867542481
 31
0.0
  0
LINE
  5
1404
330
1F
100
AcDbEntity
  8
LOGO
  6
Continuous
 62
     6
100
AcDbLine
 10
146.6536368176833
 20
120.1090867542481
 30
0.0
 11
150.8485232969327
 21
120.6631812235426
 31
0.0
  0
LINE
  5
1405
330
1F
100
AcDbEntity
  8
LOGO
  6
Continuous
 62
     6
100
AcDbLine
 10
146.6536368176833
 20
118.5410630674998
 30
0.0
 11
150.8485232969327
 21
117.986968598205
 31
0.0
  0
LINE
  5
1424
330
1F
100
AcDbEntity
  8
LOGO
 62
     1
100
AcDbLine
 10
266.0224629123797
 20
103.1879295745127
 30
0.0
 11
266.0224629123797
 21
126.2339521106213
 31
0.0
  0
TEXT
  5
1432
330
1F
100
AcDbEntity
  8
LOGO
 62
     6
100
AcDbText
 10
121.6358986232281
 20
122.7781828848574
 30
151.039835091233
 40
2.304602253610859
  1
比例 Scale:
 41
0.9
  7
CHINESET
 72
     4
 11
128.9540396187344
 21
123.9293498570105
 31
151.039835091233
100
AcDbText
  0
TEXT
  5
1433
330
1F
100
AcDbEntity
  8
LOGO
 62
     6
100
AcDbText
 10
122.4414805717001
 20
118.2002621434634
 30
151.039835091233
 40
2.304602253610859
  1
投影 View:
 41
0.9
  7
CHINESET
 72
     4
 11
128.9540396187344
 21
119.3201453497886
 31
151.039835091233
100
AcDbText
  0
TEXT
  5
1434
330
1F
100
AcDbEntity
  8
LOGO
 62
     6
100
AcDbText
 10
122.6667965956023
 20
113.5586397157616
 30
151.039835091233
 40
2.304602253610859
  1
單位 Unit:
 41
0.9
  7
CHINESET
 72
     4
 11
128.9540396187344
 21
114.710940842567
 31
151.039835091233
100
AcDbText
  0
LWPOLYLINE
  5
143D
330
1F
100
AcDbEntity
  8
0
 62
     4
100
AcDbPolyline
 90
        4
 70
     1
 43
0.0
 10
102.8352140778113
 20
126.2339521106213
 10
266.0224629123797
 20
126.2339521106213
 10
266.0224629123797
 20
309.3541785714078
 10
102.8352140778113
 20
309.3541785714078
1001
GENIUS_GENREC_14
1002
{
1000
PYDIR
1011
102.8352140778113
1021
309.3541785714078
1031
0.0
1002
}
1002
{
1000
PXDIR
1011
266.0224629123797
1021
126.2339521106213
1031
0.0
1002
}
1002
{
1000
PORI
1011
102.8352140778113
1021
126.2339521106213
1031
0.0
1002
}
1002
{
1000
PINS
1011
102.8352140778113
1021
126.2339521106213
1031
0.0
1002
}
1002
{
1000
PINS2
1011
266.0224629123797
1021
309.3541785714078
1031
0.0
1002
}
1002
{
1000
C
1070
     1
1002
}
1001
GENIUS_GENODEF_13
1002
{
1000
HIER
1070
     0
1002
}
1002
{
1000
MANEDIT
1070
     0
1002
}
1002
{
1000
NOSEL
1070
     0
1002
}
1002
{
1000
BEHIND
1070
     0
1002
}
1002
{
1000
OTHER
1070
     0
1002
}
1002
{
1000
REACTOR
1002
}
1001
GENIUS_GENOBJ-N-REC_13
1002
{
1000
OWNER
1000
GEN
1002
}
  0
SOLID
  5
143E
330
1F
100
AcDbEntity
  8
LOGO
 62
     5
100
AcDbTrace
 10
105.2262759019856
 20
116.2374118012847
 30
0.0
 11
106.2227254436837
 21
116.2374118012843
 31
0.0
 12
110.3803252555973
 22
125.6865022829058
 32
0.0
 13
111.3767747972954
 23
125.686502282905
 33
0.0
  0
SOLID
  5
143F
330
1F
100
AcDbEntity
  8
LOGO
 62
     5
100
AcDbTrace
 10
106.6350493919733
 20
116.2374118012847
 30
0.0
 11
107.6314989336713
 21
116.2374118012847
 31
0.0
 12
111.3767747972954
 22
124.9305750443756
 32
0.0
 13
110.3803252555973
 23
121.2769267248154
 33
0.0
  0
SOLID
  5
1440
330
1F
100
AcDbEntity
  8
LOGO
 62
     2
100
AcDbTrace
 10
106.2227254436837
 20
116.2374118012843
 30
0.0
 11
106.6350493919733
 21
116.2374118012847
 31
0.0
 12
111.3767747972954
 22
125.686502282905
 32
0.0
 13
111.7890987455846
 23
125.686502282905
 33
0.0
  0
SOLID
  5
1441
330
1F
100
AcDbEntity
  8
LOGO
 62
     5
100
AcDbTrace
 10
103.6287229272835
 20
112.8013788988774
 30
0.0
 11
103.9723262175247
 21
112.8013788988774
 31
0.0
 12
104.9399398267852
 22
114.5193953500807
 32
0.0
 13
105.2835431170257
 23
114.5193953500807
 33
0.0
  0
SOLID
  5
1442
330
1F
100
AcDbEntity
  8
LOGO
 62
     5
100
AcDbTrace
 10
104.9399398267852
 20
114.5193953500807
 30
0.0
 11
105.2835431170257
 21
114.5193953500807
 31
0.0
 12
104.9399398267852
 22
112.8013788988774
 32
0.0
 13
105.2835431170257
 23
112.8013788988774
 33
0.0
  0
SOLID
  5
1443
330
1F
100
AcDbEntity
  8
LOGO
 62
     5
100
AcDbTrace
 10
104.9399398267852
 20
112.8013788988774
 30
0.0
 11
105.2835431170257
 21
112.8013788988774
 31
0.0
 12
106.2511567262875
 22
114.5193953500807
 32
0.0
 13
106.5947600165278
 23
114.5193953500807
 33
0.0
  0
SOLID
  5
1444
330
1F
100
AcDbEntity
  8
LOGO
 62
     5
100
AcDbTrace
 10
106.2511567262875
 20
114.5193953500807
 30
0.0
 11
106.5947600165278
 21
114.5193953500807
 31
0.0
 12
106.2511567262875
 22
112.8013788988774
 32
0.0
 13
106.5947600165278
 23
112.8013788988774
 33
0.0
  0
POLYLINE
  5
1445
330
1F
100
AcDbEntity
  8
LOGO
 62
     5
100
AcDb2dPolyline
 66
     1
 10
0.0
 20
0.0
 30
0.0
 40
0.3441539365392216
 41
0.3441539365392216
  0
VERTEX
  5
1446
330
1445
100
AcDbEntity
  8
LOGO
 62
     5
100
AcDbVertex
100
AcDb2dVertex
 10
117.7686219652216
 20
113.8321887695992
 30
0.0
 42
1.0
  0
VERTEX
  5
1447
330
1445
100
AcDbEntity
  8
LOGO
 62
     5
100
AcDbVertex
100
AcDb2dVertex
 10
116.7361601556037
 20
113.8321887695992
 30
0.0
 42
1.0
  0
SEQEND
  5
1448
330
1445
100
AcDbEntity
  8
LOGO
 62
     5
  0
POLYLINE
  5
1449
330
1F
100
AcDbEntity
  8
LOGO
 62
     5
100
AcDb2dPolyline
 66
     1
 10
0.0
 20
0.0
 30
0.0
 70
     1
  0
VERTEX
  5
144A
330
1449
100
AcDbEntity
  8
LOGO
 62
     5
100
AcDbVertex
100
AcDb2dVertex
 10
114.7899237205727
 20
113.660387124479
 30
0.0
 42
1.000000057330635
  0
VERTEX
  5
144B
330
1449
100
AcDbEntity
  8
LOGO
 62
     5
100
AcDbVertex
100
AcDb2dVertex
 10
115.8207335912952
 20
113.660387124479
 30
0.0
 42
1.000000057330635
  0
SEQEND
  5
144C
330
1449
100
AcDbEntity
  8
LOGO
 62
     5
  0
CIRCLE
  5
144D
330
1F
100
AcDbEntity
  8
LOGO
 62
     5
100
AcDbCircle
 10
115.3053286559342
 20
113.660387124479
 30
0.0
 40
0.5154049353611385
  0
POLYLINE
  5
144E
330
1F
100
AcDbEntity
  8
LOGO
 62
     5
100
AcDb2dPolyline
 66
     1
 10
0.0
 20
0.0
 30
0.0
 70
     1
 40
0.3441539365392216
 41
0.3441539365392216
  0
VERTEX
  5
144F
330
144E
100
AcDbEntity
  8
LOGO
 62
     5
100
AcDbVertex
100
AcDb2dVertex
 10
114.6170207828555
 20
113.660387124479
 30
0.0
 42
1.0
  0
VERTEX
  5
1450
330
144E
100
AcDbEntity
  8
LOGO
 62
     5
100
AcDbVertex
100
AcDb2dVertex
 10
115.9936365290125
 20
113.660387124479
 30
0.0
 42
1.0
  0
SEQEND
  5
1451
330
144E
100
AcDbEntity
  8
LOGO
 62
     5
  0
LINE
  5
1452
330
1F
100
AcDbEntity
  8
LOGO
 62
     5
100
AcDbLine
 10
117.9395976408939
 20
112.8013788988774
 30
0.0
 11
117.9395976408939
 21
113.8321887695992
 31
0.0
  0
SOLID
  5
1453
330
1F
100
AcDbEntity
  8
LOGO
 62
     5
100
AcDbTrace
 10
115.8206992309669
 20
114.5193953500807
 30
0.0
 11
116.1643025212072
 21
114.5193953500807
 31
0.0
 12
115.8206992309669
 22
112.8013788988774
 32
0.0
 13
116.1643025212072
 23
112.8013788988774
 33
0.0
  0
SOLID
  5
1454
330
1F
100
AcDbEntity
  8
LOGO
 62
     5
100
AcDbTrace
 10
116.5651844799307
 20
112.8013788988774
 30
0.0
 11
116.9087877701719
 21
112.8013788988774
 31
0.0
 12
116.5651844799307
 22
114.5193953500807
 32
0.0
 13
116.9087877701719
 23
114.5193953500807
 33
0.0
  0
SOLID
  5
1455
330
1F
100
AcDbEntity
  8
LOGO
 62
     5
100
AcDbTrace
 10
117.5959943506535
 20
113.8321887695992
 30
0.0
 11
117.9395976408939
 21
113.8321887695992
 31
0.0
 12
117.5959943506535
 22
112.8013788988774
 32
0.0
 13
117.9395976408939
 23
112.8013788988774
 33
0.0
  0
SOLID
  5
1456
330
1F
100
AcDbEntity
  8
LOGO
 62
     5
100
AcDbTrace
 10
116.5308241509067
 20
124.9305750443756
 30
0.0
 11
115.5343746092085
 21
121.2769267248154
 31
0.0
 12
116.5308241509067
 22
116.2374118012843
 32
0.0
 13
115.5343746092085
 23
116.2374118012843
 33
0.0
  0
SOLID
  5
1457
330
1F
100
AcDbEntity
  8
LOGO
 62
     5
100
AcDbTrace
 10
116.9431480991959
 20
116.2374118012843
 30
0.0
 11
117.9395976408939
 21
116.2374118012843
 31
0.0
 12
116.9431480991959
 22
125.686502282905
 32
0.0
 13
117.9395976408939
 23
125.6865022829058
 33
0.0
  0
SOLID
  5
1458
330
1F
100
AcDbEntity
  8
LOGO
 62
     2
100
AcDbTrace
 10
116.5308241509067
 20
125.6865022829058
 30
0.0
 11
116.9431480991959
 21
125.686502282905
 31
0.0
 12
116.5308241509067
 22
116.2374118012843
 32
0.0
 13
116.9431480991959
 23
116.2374118012843
 33
0.0
  0
POLYLINE
  5
1459
330
1F
100
AcDbEntity
  8
LOGO
 62
     5
100
AcDb2dPolyline
 66
     1
 10
0.0
 20
0.0
 30
0.0
 40
0.3441539365392216
 41
0.3441539365392216
  0
VERTEX
  5
145A
330
1459
100
AcDbEntity
  8
LOGO
 62
     5
100
AcDbVertex
100
AcDb2dVertex
 10
112.8436185648846
 20
113.8321887695992
 30
0.0
 42
1.0
  0
VERTEX
  5
145B
330
1459
100
AcDbEntity
  8
LOGO
 62
     5
100
AcDbVertex
100
AcDb2dVertex
 10
111.8111567552667
 20
113.8321887695992
 30
0.0
 42
1.0
  0
SEQEND
  5
145C
330
1459
100
AcDbEntity
  8
LOGO
 62
     5
  0
POLYLINE
  5
145D
330
1F
100
AcDbEntity
  8
LOGO
 62
     5
100
AcDb2dPolyline
 66
     1
 10
0.0
 20
0.0
 30
0.0
 40
0.3441539365392216
 41
0.3441539365392216
  0
VERTEX
  5
145E
330
145D
100
AcDbEntity
  8
LOGO
 62
     5
100
AcDbVertex
100
AcDb2dVertex
 10
113.8744284356065
 20
113.8321887695992
 30
0.0
 42
1.0
  0
VERTEX
  5
145F
330
145D
100
AcDbEntity
  8
LOGO
 62
     5
100
AcDbVertex
100
AcDb2dVertex
 10
112.8419666259887
 20
113.8321887695992
 30
0.0
 42
1.0
  0
SEQEND
  5
1460
330
145D
100
AcDbEntity
  8
LOGO
 62
     5
  0
POLYLINE
  5
1461
330
1F
100
AcDbEntity
  8
LOGO
 62
     5
100
AcDb2dPolyline
 66
     1
 10
0.0
 20
0.0
 30
0.0
 40
0.3441539365392216
 41
0.3441539365392216
  0
VERTEX
  5
1462
330
1461
100
AcDbEntity
  8
LOGO
 62
     5
100
AcDbVertex
100
AcDb2dVertex
 10
108.9494250352696
 20
113.8321887695992
 30
0.0
 42
1.0
  0
VERTEX
  5
1463
330
1461
100
AcDbEntity
  8
LOGO
 62
     5
100
AcDbVertex
100
AcDb2dVertex
 10
107.916963225652
 20
113.8321887695992
 30
0.0
 42
1.0
  0
SEQEND
  5
1464
330
1461
100
AcDbEntity
  8
LOGO
 62
     5
  0
SOLID
  5
1465
330
1F
100
AcDbEntity
  8
LOGO
 62
     5
100
AcDbTrace
 10
107.7459875499797
 20
114.5193953500807
 30
0.0
 11
108.08959084022
 21
114.5193953500807
 31
0.0
 12
107.7459875499797
 22
112.8013788988774
 32
0.0
 13
108.08959084022
 23
112.8013788988774
 33
0.0
  0
SOLID
  5
1466
330
1F
100
AcDbEntity
  8
LOGO
 62
     5
100
AcDbTrace
 10
108.7767974207016
 20
113.8321887695992
 30
0.0
 11
109.1204007109427
 21
113.8321887695992
 31
0.0
 12
108.7767974207016
 22
112.8013788988774
 32
0.0
 13
109.1204007109427
 23
112.8013788988774
 33
0.0
  0
POLYLINE
  5
1467
330
1F
100
AcDbEntity
  8
LOGO
 62
     5
100
AcDb2dPolyline
 66
     1
 10
0.0
 20
0.0
 30
0.0
 70
     1
 40
0.3441539365392216
 41
0.3441539365392216
  0
VERTEX
  5
1468
330
1467
100
AcDbEntity
  8
LOGO
 62
     5
100
AcDbVertex
100
AcDb2dVertex
 10
109.6920173825184
 20
113.660387124479
 30
0.0
 42
1.0
  0
VERTEX
  5
1469
330
1467
100
AcDbEntity
  8
LOGO
 62
     5
100
AcDbVertex
100
AcDb2dVertex
 10
111.0686331286753
 20
113.660387124479
 30
0.0
 42
1.0
  0
SEQEND
  5
146A
330
1467
100
AcDbEntity
  8
LOGO
 62
     5
  0
SOLID
  5
146B
330
1F
100
AcDbEntity
  8
LOGO
 62
     5
100
AcDbTrace
 10
110.8956958306297
 20
115.0348002854422
 30
0.0
 11
111.23929912087
 21
115.0348002854422
 31
0.0
 12
110.8956958306297
 22
112.8013788988774
 32
0.0
 13
111.23929912087
 23
112.8013788988774
 33
0.0
  0
SOLID
  5
146C
330
1F
100
AcDbEntity
  8
LOGO
 62
     5
100
AcDbTrace
 10
111.6401810795944
 20
114.5193953500807
 30
0.0
 11
111.983784369835
 21
114.5193953500807
 31
0.0
 12
111.6401810795944
 22
112.8013788988774
 32
0.0
 13
111.983784369835
 23
112.8013788988774
 33
0.0
  0
SOLID
  5
146D
330
1F
100
AcDbEntity
  8
LOGO
 62
     5
100
AcDbTrace
 10
112.6709909503165
 20
113.8321887695992
 30
0.0
 11
113.0145942405571
 21
113.8321887695992
 31
0.0
 12
112.6709909503165
 22
112.8013788988774
 32
0.0
 13
113.0145942405571
 23
112.8013788988774
 33
0.0
  0
SOLID
  5
146E
330
1F
100
AcDbEntity
  8
LOGO
 62
     5
100
AcDbTrace
 10
113.7018008210386
 20
113.8321887695992
 30
0.0
 11
114.0454041112789
 21
113.8321887695992
 31
0.0
 12
113.7018008210386
 22
112.8013788988766
 32
0.0
 13
114.0454041112789
 23
112.8013788988766
 33
0.0
  0
SOLID
  5
146F
330
1F
100
AcDbEntity
  8
LOGO
 62
     5
100
AcDbTrace
 10
107.0015023010146
 20
114.7599176532491
 30
0.0
 11
107.3451055912561
 21
114.7599176532491
 31
0.0
 12
107.0015023010146
 22
115.0348002854422
 32
0.0
 13
107.3451055912561
 23
115.0348002854422
 33
0.0
  0
SOLID
  5
1470
330
1F
100
AcDbEntity
  8
LOGO
 62
     5
100
AcDbTrace
 10
107.0015023010146
 20
114.5193953500807
 30
0.0
 11
107.3451055912561
 21
114.5193953500807
 31
0.0
 12
107.0015023010146
 22
112.8013788988766
 32
0.0
 13
107.3451055912561
 23
112.8013788988774
 33
0.0
  0
SOLID
  5
1471
330
1F
100
AcDbEntity
  8
LOGO
 62
     5
100
AcDbTrace
 10
110.3803252555973
 20
116.2374118012847
 30
0.0
 11
111.3767747972954
 21
116.2374118012847
 31
0.0
 12
110.3803252555973
 22
121.2769267248154
 32
0.0
 13
111.3767747972954
 23
124.9305750443756
 33
0.0
  0
SOLID
  5
1472
330
1F
100
AcDbEntity
  8
LOGO
 62
     5
100
AcDbTrace
 10
111.7890987455846
 20
125.686502282905
 30
0.0
 11
112.7855482872828
 21
125.6865022829058
 31
0.0
 12
111.7890987455846
 22
116.9933390398141
 32
0.0
 13
112.7855482872828
 23
120.6469873593744
 33
0.0
  0
SOLID
  5
1473
330
1F
100
AcDbEntity
  8
LOGO
 62
     2
100
AcDbTrace
 10
111.3767747972954
 20
125.686502282905
 30
0.0
 11
111.7890987455846
 21
125.686502282905
 31
0.0
 12
111.3767747972954
 22
116.2374118012847
 32
0.0
 13
111.7890987455846
 23
116.2374118012847
 33
0.0
  0
SOLID
  5
1474
330
1F
100
AcDbEntity
  8
LOGO
 62
     5
100
AcDbTrace
 10
111.7890987455846
 20
116.9933390398141
 30
0.0
 11
112.7855482872828
 21
120.6469873593744
 31
0.0
 12
116.5308241509067
 22
125.6865022829058
 32
0.0
 13
115.5343746092085
 23
125.6865022829058
 33
0.0
  0
SOLID
  5
1475
330
1F
100
AcDbEntity
  8
LOGO
 62
     5
100
AcDbTrace
 10
111.7890987455846
 20
116.2374118012847
 30
0.0
 11
112.7855482872828
 21
116.2374118012847
 31
0.0
 12
116.5308241509067
 22
124.9305750443756
 32
0.0
 13
115.5343746092085
 23
121.2769267248154
 33
0.0
  0
SOLID
  5
1476
330
1F
100
AcDbEntity
  8
LOGO
 62
     2
100
AcDbTrace
 10
111.3767747972954
 20
116.2374118012847
 30
0.0
 11
111.7890987455846
 21
116.2374118012847
 31
0.0
 12
116.5308241509067
 22
125.6865022829058
 32
0.0
 13
116.9431480991959
 23
125.686502282905
 33
0.0
  0
TEXT
  5
1477
330
1F
100
AcDbEntity
  8
0
100
AcDbText
 10
154.7040861507508
 20
104.4139688773143
 30
0.0
 40
1.921728865319999
  1
1050519
 41
0.8
  7
CHINESET
 72
     1
 11
159.2796310681794
 21
104.4139688773143
 31
0.0
100
AcDbText
  0
LINE
  5
1478
330
1F
100
AcDbEntity
  8
LOGO
 62
     1
100
AcDbLine
 10
165.2089577664285
 20
107.7971340817345
 30
0.0
 11
165.2089577664288
 21
103.1879295745127
 31
0.0
  0
LINE
  5
1479
330
1F
100
AcDbEntity
  8
LOGO
 62
     1
100
AcDbLine
 10
165.2089577664285
 20
107.7971340817345
 30
0.0
 11
153.5364636572502
 21
107.7971340817345
 31
0.0
  0
LINE
  5
1602
330
1F
100
AcDbEntity
  8
LOGO
 62
     6
100
AcDbLine
 10
243.0528547256207
 20
113.5623387173689
 30
0.0
 11
232.0125597667069
 21
113.5623387173689
 31
0.0
  0
LINE
  5
1603
330
1F
100
AcDbEntity
  8
LOGO
 62
     6
100
AcDbLine
 10
239.620883625043
 20
117.020475098321
 30
0.0
 11
235.160682247233
 21
117.020475098321
 31
0.0
  0
LINE
  5
1604
330
1F
100
AcDbEntity
  8
LOGO
 62
     6
100
AcDbLine
 10
243.0528547256207
 20
105.1091164528194
 30
0.0
 11
232.0125597667069
 21
105.1091164528194
 31
0.0
  0
LINE
  5
1605
330
1F
100
AcDbEntity
  8
LOGO
 62
     6
100
AcDbLine
 10
243.0528547256207
 20
113.5623387173689
 30
0.0
 11
243.0528547256207
 21
105.0772421997361
 31
0.0
  0
TEXT
  5
160A
330
1F
100
AcDbEntity
  8
LOGO
 62
     6
100
AcDbText
 10
191.3943490819355
 20
109.4143903549145
 30
0.0
 40
3.073899005290723
  1
型式
  7
CHINESET
 72
     4
 11
194.4682480872262
 21
110.8726770877394
 31
0.0
100
AcDbText
  0
LINE
  5
160B
330
1F
100
AcDbEntity
  8
LOGO
 62
     6
100
AcDbLine
 10
232.0125597667069
 20
113.5623387173689
 30
0.0
 11
232.0125597667069
 21
105.1091164528194
 31
0.0
  0
LINE
  5
160F
330
1F
100
AcDbEntity
  8
LOGO
 62
     6
100
AcDbLine
 10
237.390782936138
 20
117.020475098321
 30
0.0
 11
237.3907829361381
 21
113.5623387173689
 31
0.0
  0
TEXT
  5
1610
330
1F
100
AcDbEntity
  8
LOGO
 62
     6
100
AcDbText
 10
233.2822828451769
 20
109.4128776093411
 30
0.0
 40
3.073899005290723
  1
連座數
 41
0.9
  7
CHINESET
 72
     4
 11
237.4874129903083
 21
110.8726770877395
 31
0.0
100
AcDbText
  0
LINE
  5
1615
330
1F
100
AcDbEntity
  8
LOGO
 62
     6
100
AcDbLine
 10
194.4682480872262
 20
117.0204750983209
 30
0.0
 11
194.4682480872262
 21
113.5623387173688
 31
0.0
  0
LINE
  5
1616
330
1F
100
AcDbEntity
  8
LOGO
 62
     6
100
AcDbLine
 10
186.7835005739995
 20
113.5623387173688
 30
0.0
 11
186.7835005739995
 21
105.1091164528193
 31
0.0
  0
LINE
  5
161A
330
1F
100
AcDbEntity
  8
LOGO
 62
     6
100
AcDbLine
 10
239.6208836250431
 20
123.9367478602251
 30
0.0
 11
235.160682247233
 21
123.9367478602251
 31
0.0
  0
LINE
  5
161D
330
1F
100
AcDbEntity
  8
LOGO
 62
     6
100
AcDbLine
 10
185.2465510713541
 20
123.936747860225
 30
0.0
 11
185.2465510713541
 21
117.0204750983209
 31
0.0
  0
LINE
  5
1620
330
1F
100
AcDbEntity
  8
LOGO
 62
     6
100
AcDbLine
 10
239.6208836250431
 20
123.9367478602251
 30
0.0
 11
239.620883625043
 21
117.020475098321
 31
0.0
  0
TEXT
  5
1623
330
1F
100
AcDbEntity
  8
LOGO
  6
Continuous
 62
     6
100
AcDbText
 10
233.242504840145
 20
106.0697098919727
 30
0.0
 40
1.921186878306702
  1
Number
 41
0.8
  7
CHINESET
 72
     4
 11
237.4874129903083
 21
107.0303033311261
 31
0.0
100
AcDbText
  0
TEXT
  5
1626
330
1F
100
AcDbEntity
  8
LOGO
  6
Continuous
 62
     6
100
AcDbText
 10
190.8088445094992
 20
106.0697098919727
 30
0.0
 40
1.921186878306702
  1
Model
  7
CHINESET
 72
     4
 11
194.4682480872262
 21
107.0303033311261
 31
0.0
100
AcDbText
  0
TEXT
  5
1627
330
1F
100
AcDbEntity
  8
LOGO
  6
Continuous
 62
     7
100
AcDbText
 10
235.816345919989
 20
118.5138518404477
 30
0.0
 40
3.842373756613404
  1
2
  7
CHINESET
 72
     1
 11
237.0971371721935
 21
120.4350387187544
 31
0.0
100
AcDbText
 73
     2
  0
TEXT
  5
1628
330
1F
100
AcDbEntity
  8
LOGO
  6
Continuous
 62
     7
100
AcDbText
 10
208.7246591337388
 20
118.5138518404476
 30
0.0
 40
3.842373756613404
  1
220
  7
CHINESET
 72
     1
 11
213.6648539636703
 21
120.4350387187543
 31
0.0
100
AcDbText
 73
     2
  0
TEXT
  5
1629
330
1F
100
AcDbEntity
  8
LOGO
  6
Continuous
 62
     7
100
AcDbText
 10
187.2409260212153
 20
118.5574246009663
 30
0.0
 40
3.842373756613404
  1
MVSC
  7
CHINESET
 72
     1
 11
194.4682480872262
 21
120.478611479273
 31
0.0
100
AcDbText
 73
     2
  0
LINE
  5
162D
330
1F
100
AcDbEntity
  8
LOGO
 62
     6
100
AcDbLine
 10
203.6899451030985
 20
123.936747860225
 30
0.0
 11
203.6899451030985
 21
117.0204750983209
 31
0.0
  0
LINE
  5
162E
330
1F
100
AcDbEntity
  8
LOGO
 62
     6
100
AcDbLine
 10
202.1529956004532
 20
113.5623387173688
 30
0.0
 11
202.1529956004532
 21
105.1091164528193
 31
0.0
  0
LINE
  5
162F
330
1F
100
AcDbEntity
  8
LOGO
 62
     6
100
AcDbLine
 10
203.6899451030985
 20
123.936747860225
 30
0.0
 11
185.2465510713541
 21
123.936747860225
 31
0.0
  0
LINE
  5
1630
330
1F
100
AcDbEntity
  8
LOGO
 62
     6
100
AcDbLine
 10
203.6899451030985
 20
117.0204750983209
 30
0.0
 11
185.2465510713541
 21
117.0204750983209
 31
0.0
  0
LINE
  5
1631
330
1F
100
AcDbEntity
  8
LOGO
 62
     6
100
AcDbLine
 10
202.1529956004531
 20
113.5623387173688
 30
0.0
 11
186.7835005739995
 21
113.5623387173688
 31
0.0
  0
LINE
  5
1632
330
1F
100
AcDbEntity
  8
LOGO
 62
     6
100
AcDbLine
 10
202.1529956004531
 20
105.1091164528193
 30
0.0
 11
186.7835005739995
 21
105.1091164528193
 31
0.0
  0
TEXT
  5
1634
330
1F
100
AcDbEntity
  8
LOGO
  6
Continuous
 62
     7
100
AcDbText
 10
225.9343845391036
 20
118.5574246009663
 30
0.0
 40
3.842373756613404
  1
5B
  7
CHINESET
 72
     1
 11
229.0448775801716
 21
120.478611479273
 31
0.0
100
AcDbText
 73
     2
  0
LINE
  5
1635
330
1F
100
AcDbEntity
  8
LOGO
 62
     6
100
AcDbLine
 10
233.7712578860711
 20
123.9367478602251
 30
0.0
 11
223.9263099824614
 21
123.9367478602251
 31
0.0
  0
LINE
  5
1636
330
1F
100
AcDbEntity
  8
LOGO
 62
     6
100
AcDbLine
 10
230.7434682199696
 20
113.5623387173689
 30
0.0
 11
218.4052956105202
 21
113.5623387173689
 31
0.0
  0
LINE
  5
1637
330
1F
100
AcDbEntity
  8
LOGO
 62
     6
100
AcDbLine
 10
233.7712578860711
 20
117.0204750983209
 30
0.0
 11
223.9263099824614
 21
117.0204750983209
 31
0.0
  0
TEXT
  5
1638
330
1F
100
AcDbEntity
  8
LOGO
 62
     6
100
AcDbText
 10
221.8135456063837
 20
109.428257189338
 30
0.0
 40
3.073899005290723
  1
連座
 41
0.9
  7
CHINESET
 72
     4
 11
224.5743819152449
 21
110.8726770877395
 31
0.0
100
AcDbText
  0
LINE
  5
1639
330
1F
100
AcDbEntity
  8
LOGO
 62
     6
100
AcDbLine
 10
230.7434682199696
 20
105.1091164528194
 30
0.0
 11
218.4052956105202
 21
105.1091164528194
 31
0.0
  0
TEXT
  5
163A
330
1F
100
AcDbEntity
  8
LOGO
  6
Continuous
 62
     6
100
AcDbText
 10
220.1465035861951
 20
106.0697098919727
 30
0.0
 40
1.921186878306702
  1
Manifold
 41
0.8
  7
CHINESET
 72
     4
 11
224.5743819152449
 21
107.0303033311261
 31
0.0
100
AcDbText
  0
LINE
  5
163B
330
1F
100
AcDbEntity
  8
LOGO
 62
     6
100
AcDbLine
 10
223.9263099824614
 20
123.9367478602251
 30
0.0
 11
223.9263099824614
 21
117.0204750983209
 31
0.0
  0
LINE
  5
163C
330
1F
100
AcDbEntity
  8
LOGO
 62
     6
100
AcDbLine
 10
218.4052956105202
 20
113.5623387173689
 30
0.0
 11
218.4052956105202
 21
105.1091164528194
 31
0.0
  0
LINE
  5
163D
330
1F
100
AcDbEntity
  8
LOGO
 62
     6
100
AcDbLine
 10
233.7712578860711
 20
123.9367478602251
 30
0.0
 11
233.7712578860711
 21
117.0204750983209
 31
0.0
  0
LINE
  5
163E
330
1F
100
AcDbEntity
  8
LOGO
 62
     6
100
AcDbLine
 10
230.7434682199696
 20
113.5623387173689
 30
0.0
 11
230.7434682199696
 21
105.1091164528194
 31
0.0
  0
LINE
  5
1640
330
1F
100
AcDbEntity
  8
LOGO
  6
Continuous
 62
     7
100
AcDbLine
 10
204.8815149588084
 20
120.4541129481208
 30
0.0
 11
207.935488646886
 21
120.4541129481208
 31
0.0
  0
LINE
  5
1641
330
1F
100
AcDbEntity
  8
LOGO
  6
Continuous
 62
     7
100
AcDbLine
 10
219.890592275304
 20
120.4541129481209
 30
0.0
 11
222.9445659633816
 21
120.4541129481209
 31
0.0
  0
LINE
  5
1642
330
1F
100
AcDbEntity
  8
LOGO
 62
     6
100
AcDbLine
 10
235.160682247233
 20
123.9367478602251
 30
0.0
 11
235.160682247233
 21
117.0204750983209
 31
0.0
  0
LINE
  5
1644
330
1F
100
AcDbEntity
  8
LOGO
 62
     6
100
AcDbLine
 10
228.8487839342662
 20
115.2914069078449
 30
0.0
 11
228.8487839342662
 21
117.0204750983209
 31
0.0
  0
ARC
  5
1FA0
330
1F
100
AcDbEntity
  8
AM_4
100
AcDbCircle
 10
176.9259600757175
 20
167.4977597901575
 30
0.0
 40
6.899999999999999
100
AcDbArc
 50
260.0
 51
170.0
  0
CIRCLE
  5
1FA1
330
1F
100
AcDbEntity
  8
AM_0
100
AcDbCircle
 10
176.9259600757175
 20
167.4977597901575
 30
0.0
 40
5.7225
  0
ARC
  5
1FA2
330
1F
100
AcDbEntity
  8
AM_4
100
AcDbCircle
 10
155.4259600757175
 20
167.4977597901575
 30
0.0
 40
6.899999999999999
100
AcDbArc
 50
260.0
 51
170.0
  0
CIRCLE
  5
1FA3
330
1F
100
AcDbEntity
  8
AM_0
100
AcDbCircle
 10
155.4259600757175
 20
167.4977597901575
 30
0.0
 40
5.7225
  0
ARC
  5
1FA4
330
1F
100
AcDbEntity
  8
AM_4
100
AcDbCircle
 10
133.9259600757179
 20
167.4977597901572
 30
0.0
 40
6.899999999999999
100
AcDbArc
 50
260.0
 51
170.0
  0
CIRCLE
  5
1FA5
330
1F
100
AcDbEntity
  8
AM_0
100
AcDbCircle
 10
133.9259600757179
 20
167.4977597901572
 30
0.0
 40
5.7225
  0
TEXT
  5
2487
330
1F
100
AcDbEntity
  8
AM_5
100
AcDbText
 10
192.5508240585397
 20
147.9307054948465
 30
0.0
 40
3.5
  1
3-PT1/4
100
AcDbText
  0
INSERT
  5
2488
330
1F
100
AcDbEntity
  8
AM_5
100
AcDbBlockReference
  2
*S20
 10
0.0
 20
0.0
 30
0.0
  0
LINE
  5
25FD
330
1F
100
AcDbEntity
  8
0
100
AcDbLine
 10
209.8786258010011
 20
290.8582243321509
 30
0.0
 11
209.8786258010011
 21
221.858224332151
 31
0.0
  0
LINE
  5
25FE
330
1F
100
AcDbEntity
  8
0
100
AcDbLine
 10
214.8786258010011
 20
290.8582243321509
 30
0.0
 11
214.8786258010011
 21
221.858224332151
 31
0.0
  0
LINE
  5
25FF
330
1F
100
AcDbEntity
  8
0
100
AcDbLine
 10
219.8786258010011
 20
290.8582243321509
 30
0.0
 11
219.8786258010011
 21
221.858224332151
 31
0.0
  0
LINE
  5
2600
330
1F
100
AcDbEntity
  8
0
100
AcDbLine
 10
234.8786258010012
 20
290.8582243321509
 30
0.0
 11
234.8786258010012
 21
221.858224332151
 31
0.0
  0
LINE
  5
2601
330
1F
100
AcDbEntity
  8
0
100
AcDbLine
 10
234.8786258010012
 20
290.8582243321509
 30
0.0
 11
209.8786258010011
 21
290.8582243321509
 31
0.0
  0
LINE
  5
2602
330
1F
100
AcDbEntity
  8
0
100
AcDbLine
 10
234.8786258010012
 20
221.858224332151
 30
0.0
 11
209.8786258010011
 21
221.858224332151
 31
0.0
  0
LINE
  5
2B9B
330
1F
100
AcDbEntity
  8
LOGO
 62
     6
100
AcDbLine
 10
228.8487839342662
 20
115.2914069078449
 30
0.0
 11
224.5743819152449
 21
115.2914069078449
 31
0.0
  0
LINE
  5
2B9C
330
1F
100
AcDbEntity
  8
LOGO
 62
     6
100
AcDbLine
 10
224.5743819152449
 20
113.5623387173689
 30
0.0
 11
224.5743819152449
 21
115.2914069078449
 31
0.0
  0
ENDSEC
  0
SECTION
  2
OBJECTS
  0
DICTIONARY
  5
C
330
0
100
AcDbDictionary
281
     1
  3
ACAD_COLOR
350
7D1
  3
ACAD_GROUP
350
D
  3
ACAD_LAYOUT
350
1A
  3
ACAD_MATERIAL
350
7D0
  3
ACAD_MLINESTYLE
350
17
  3
ACAD_PLOTSETTINGS
350
19
  3
ACAD_PLOTSTYLENAME
350
E
  3
ACAD_TABLESTYLE
350
7D2
  3
ACDBHEADERROUNDTRIPXREC
350
2BB2
  3
AcDbVariableDictionary
350
82
  3
AcmDictionary
350
45
  3
AMG
350
2B
  3
AMGSNAPSETTINGS
350
87
  3
DWGPROPS
350
2BB1
  0
DICTIONARY
  5
AAB
330
2
100
AcDbDictionary
280
     1
281
     1
  3
ACAD_LAYERSTATES
360
AAC
  0
DICTIONARY
  5
7D
330
1F
100
AcDbDictionary
280
     1
281
     1
  3
ACAD_SORTENTS
360
EEA
  0
DICTIONARY
  5
1016
330
1007
100
AcDbDictionary
280
     1
281
     1
  3
ACAD_DIMASSOC
360
1017
  0
DICTIONARY
  5
11B3
330
11A6
100
AcDbDictionary
280
     1
281
     1
  3
ACAD_DIMASSOC
360
11B4
  0
DICTIONARY
  5
7D1
102
{ACAD_REACTORS
330
C
102
}
330
C
100
AcDbDictionary
281
     1
  0
DICTIONARY
  5
D
102
{ACAD_REACTORS
330
C
102
}
330
C
100
AcDbDictionary
281
     1
  0
DICTIONARY
  5
1A
102
{ACAD_REACTORS
330
C
102
}
330
C
100
AcDbDictionary
281
     1
  3
Layout1
350
1E
  3
Layout2
350
26
  3
Model
350
22
  0
DICTIONARY
  5
7D0
102
{ACAD_REACTORS
330
C
102
}
330
C
100
AcDbDictionary
281
     1
  0
DICTIONARY
  5
17
102
{ACAD_REACTORS
330
C
102
}
330
C
100
AcDbDictionary
281
     1
  3
Standard
350
18
  0
DICTIONARY
  5
19
102
{ACAD_REACTORS
330
C
102
}
330
C
100
AcDbDictionary
281
     1
  0
ACDBDICTIONARYWDFLT
  5
E
102
{ACAD_REACTORS
330
C
102
}
330
C
100
AcDbDictionary
281
     1
  3
Normal
350
F
100
AcDbDictionaryWithDefault
340
F
  0
DICTIONARY
  5
7D2
102
{ACAD_REACTORS
330
C
102
}
330
C
100
AcDbDictionary
281
     1
  3
Standard
350
7D3
  0
DICTIONARY
  5
2BB2
102
{ACAD_REACTORS
330
C
102
}
330
C
100
AcDbDictionary
281
     1
  0
DICTIONARY
  5
82
102
{ACAD_REACTORS
330
C
102
}
330
C
100
AcDbDictionary
281
     1
  3
CTABLESTYLE
350
847
  3
DIMASSOC
350
85
  3
HIDETEXT
350
84
  3
INDEXCTL
350
83
  3
PROJECTNAME
350
848
  0
DICTIONARY
  5
45
102
{ACAD_REACTORS
330
C
102
}
330
C
100
AcDbDictionary
281
     1
  3
AcmStdDictionary
350
4A
  3
AMDTSECTSYM_ARROWCOLOR
350
7DF
  0
DICTIONARY
  5
2B
102
{ACAD_REACTORS
330
C
102
}
330
C
100
AcDbDictionary
281
     1
  0
DICTIONARY
  5
87
102
{ACAD_REACTORS
330
C
102
}
330
C
100
AcDbDictionary
281
     1
  0
XRECORD
  5
2BB1
102
{ACAD_REACTORS
330
C
102
}
330
C
100
AcDbXrecord
280
     1
  1
DWGPROPS COOKIE
  2

  3

  4

  6

  7

  8

  9

300
AmdtFileType=84
301
=
302
=
303
=
304
=
305
=
306
=
307
=
308
=
309
=
 40
0.4073150231481482
 41
2453021.369367211
 42
2453559.600154433
  1

 90
        1
  0
DICTIONARY
  5
AAC
102
{ACAD_REACTORS
330
AAB
102
}
330
AAB
100
AcDbDictionary
281
     1
  0
SORTENTSTABLE
  5
EEA
102
{ACAD_REACTORS
330
7D
102
}
330
7D
100
AcDbSortentsTable
330
1F
331
146E
  5
146E
331
DC8
  5
DC7
331
162D
  5
162D
331
1476
  5
1476
331
E0F
  5
E0E
331
DD0
  5
DCF
331
1433
  5
1433
331
E17
  5
E16
331
DD8
  5
DD7
331
D91
  5
D90
331
DE0
  5
DDF
331
E1F
  5
E1E
331
1635
  5
1635
331
163D
  5
163D
331
DE8
  5
DE7
331
1457
  5
1457
331
1616
  5
1616
331
13F4
  5
13F4
331
DF8
  5
DF7
331
DB9
  5
DB8
331
13FC
  5
13FC
331
E00
  5
DFF
331
DC1
  5
DC0
331
1404
  5
1404
331
1467
  5
1467
331
1626
  5
1626
331
146F
  5
146F
331
DC9
  5
DC8
331
162E
  5
162E
331
1477
  5
1477
331
1424
  5
1424
331
E10
  5
E0F
331
DD1
  5
DD0
331
1434
  5
1434
331
DD9
  5
DD8
331
E18
  5
E17
331
DE1
  5
DE0
331
1440
  5
1440
331
1636
  5
1636
331
163E
  5
163E
331
E20
  5
E1F
331
DE9
  5
DE8
331
DA2
  5
DA1
331
160F
  5
160F
331
1458
  5
1458
331
E28
  5
E27
331
DF1
  5
DF0
331
1036
  5
1036
331
13F5
  5
13F5
331
E30
  5
E2F
331
DBA
  5
DB9
331
13FD
  5
13FD
331
DC2
  5
DC1
331
E01
  5
E00
331
11A6
  5
11A6
331
1405
  5
1405
331
1627
  5
1627
331
1470
  5
1470
331
DCA
  5
DC9
331
162F
  5
162F
331
1478
  5
1478
331
1007
  5
1007
331
E11
  5
E10
331
DD2
  5
DD1
331
DDA
  5
DD9
331
E19
  5
E18
331
143D
  5
143D
331
DE2
  5
DE1
331
1441
  5
1441
331
1637
  5
1637
331
1449
  5
1449
331
E21
  5
E20
331
DEA
  5
DE9
331
1610
  5
1610
331
1459
  5
1459
331
DA3
  5
DA2
331
E29
  5
E28
331
1037
  5
1037
331
13F6
  5
13F6
331
E31
  5
E30
331
DBB
  5
DBA
331
13FE
  5
13FE
331
E02
  5
E01
331
DC3
  5
DC2
331
1461
  5
1461
331
1620
  5
1620
331
1628
  5
1628
331
1471
  5
1471
331
1479
  5
1479
331
DCB
  5
DCA
331
E12
  5
E11
331
DD3
  5
DD2
331
DDB
  5
DDA
331
E1A
  5
E19
331
143E
  5
143E
331
DE3
  5
DE2
331
1630
  5
1630
331
1442
  5
1442
331
1638
  5
1638
331
1640
  5
1640
331
1452
  5
1452
331
E22
  5
E21
331
DEB
  5
DEA
331
DB4
  5
DB3
331
13F7
  5
13F7
331
DBC
  5
DBB
331
13FF
  5
13FF
331
DC4
  5
DC3
331
E03
  5
E02
331
1629
  5
1629
331
1472
  5
1472
331
DCC
  5
DCB
331
DD4
  5
DD3
331
DDC
  5
DDB
331
E1B
  5
E1A
331
143F
  5
143F
331
DE4
  5
DE3
331
1631
  5
1631
331
1443
  5
1443
331
1639
  5
1639
331
1602
  5
1602
331
1641
  5
1641
331
160A
  5
160A
331
1453
  5
1453
331
E23
  5
E22
331
DEC
  5
DEB
331
DB5
  5
DB4
331
13F8
  5
13F8
331
DFC
  5
DFB
331
DBD
  5
DBC
331
1400
  5
1400
331
E04
  5
E03
331
DC5
  5
DC4
331
161A
  5
161A
331
146B
  5
146B
331
1473
  5
1473
331
DCD
  5
DCC
331
DD5
  5
DD4
331
DDD
  5
DDC
331
E1C
  5
E1B
331
DE5
  5
DE4
331
1632
  5
1632
331
1444
  5
1444
331
163A
  5
163A
331
1603
  5
1603
331
1642
  5
1642
331
160B
  5
160B
331
1454
  5
1454
331
E24
  5
E23
331
DED
  5
DEC
331
13F1
  5
13F1
331
E2C
  5
E2B
331
DB6
  5
DB5
331
13F9
  5
13F9
331
DBE
  5
DBD
331
DFD
  5
DFC
331
1401
  5
1401
331
E05
  5
E04
331
DC6
  5
DC5
331
1623
  5
1623
331
146C
  5
146C
331
1474
  5
1474
331
DCE
  5
DCD
331
DD6
  5
DD5
331
E1D
  5
E1C
331
DDE
  5
DDD
331
DE6
  5
DE5
331
1445
  5
1445
331
163B
  5
163B
331
1604
  5
1604
331
144D
  5
144D
331
1455
  5
1455
331
E25
  5
E24
331
145D
  5
145D
331
13F2
  5
13F2
331
E2D
  5
E2C
331
DF6
  5
DF5
331
DB7
  5
DB6
331
13FA
  5
13FA
331
DFE
  5
DFD
331
DBF
  5
DBE
331
1402
  5
1402
331
DC7
  5
DC6
331
1465
  5
1465
331
146D
  5
146D
331
1475
  5
1475
331
DCF
  5
DCE
331
1432
  5
1432
331
DD7
  5
DD6
331
DDF
  5
DDE
331
E1E
  5
E1D
331
DE7
  5
DE6
331
1634
  5
1634
331
163C
  5
163C
331
1605
  5
1605
331
144E
  5
144E
331
1644
  5
1644
331
1456
  5
1456
331
1615
  5
1615
331
13F3
  5
13F3
331
DB8
  5
DB7
331
DF7
  5
DF6
331
13FB
  5
13FB
331
DFF
  5
DFE
331
DC0
  5
DBF
331
1403
  5
1403
331
161D
  5
161D
331
1466
  5
1466
  0
DIMASSOC
  5
1017
102
{ACAD_REACTORS
330
1016
102
}
330
1016
100
AcDbDimAssoc
330
1007
 90
        1
 70
     0
 71
     0
  1
AcDbOsnapPointRef
 72
     1
331
E05
 73
     0
 91
        0
 40
0.0
 10
0.0
 20
0.0
 30
2.000000000000000E+50
 75
     0
  0
DIMASSOC
  5
11B4
102
{ACAD_REACTORS
330
11B3
102
}
330
11B3
100
AcDbDimAssoc
330
11A6
 90
        3
 70
     0
 71
     0
  1
AcDbOsnapPointRef
 72
    13
331
DD2
 73
     0
 91
        0
 40
0.0
 10
0.0
 20
0.0
 30
2.000000000000000E+50
 75
     0
  1
AcDbOsnapPointRef
 72
    13
331
DC6
 73
     0
 91
        0
 40
0.0
 10
0.0
 20
0.0
 30
2.000000000000000E+50
 75
     0
  0
LAYOUT
  5
1E
102
{ACAD_XDICTIONARY
360
2BB3
102
}
102
{ACAD_REACTORS
330
1A
102
}
330
1A
100
AcDbPlotSettings
  1

  2
自動 RD 上的 Epson Stylus Photo 750 單色
  4

  6

 40
0.0
 41
0.0
 42
0.0
 43
0.0
 44
0.0
 45
0.0
 46
0.0
 47
0.0
 48
0.0
 49
0.0
140
0.0
141
0.0
142
1.0
143
1.0
 70
   688
 72
     0
 73
     0
 74
     5
  7
彩色出圖.ctb
 75
    16
147
1.0
148
0.0
149
0.0
100
AcDbLayout
  1
Layout1
 70
     1
 71
     1
 10
0.0
 20
0.0
 11
420.0
 21
297.0
 12
0.0
 22
0.0
 32
0.0
 14
1.000000000000000E+20
 24
1.000000000000000E+20
 34
1.000000000000000E+20
 15
-1.000000000000000E+20
 25
-1.000000000000000E+20
 35
-1.000000000000000E+20
146
0.0
 13
0.0
 23
0.0
 33
0.0
 16
1.0
 26
0.0
 36
0.0
 17
0.0
 27
1.0
 37
0.0
 76
     0
330
1B
  0
LAYOUT
  5
26
102
{ACAD_XDICTIONARY
360
2BB7
102
}
102
{ACAD_REACTORS
330
1A
102
}
330
1A
100
AcDbPlotSettings
  1

  2
自動 RD 上的 Epson Stylus Photo 750 單色
  4

  6

 40
0.0
 41
0.0
 42
0.0
 43
0.0
 44
0.0
 45
0.0
 46
0.0
 47
0.0
 48
0.0
 49
0.0
140
0.0
141
0.0
142
1.0
143
1.0
 70
   688
 72
     0
 73
     0
 74
     5
  7
彩色出圖.ctb
 75
    16
147
1.0
148
0.0
149
0.0
100
AcDbLayout
  1
Layout2
 70
     1
 71
     2
 10
0.0
 20
0.0
 11
12.0
 21
9.0
 12
0.0
 22
0.0
 32
0.0
 14
0.0
 24
0.0
 34
0.0
 15
0.0
 25
0.0
 35
0.0
146
0.0
 13
0.0
 23
0.0
 33
0.0
 16
1.0
 26
0.0
 36
0.0
 17
0.0
 27
1.0
 37
0.0
 76
     0
330
23
  0
LAYOUT
  5
22
102
{ACAD_XDICTIONARY
360
2BB5
102
}
102
{ACAD_REACTORS
330
1A
102
}
330
1A
100
AcDbPlotSettings
  1

  2
自動 RD 上的 Epson Stylus Photo 750 單色
  4
A4
  6

 40
3.757083177566528
 41
14.7637300491333
 42
3.757080078125
 43
3.757080078125
 44
209.9733276367187
 45
296.9683227539062
 46
7.54
 47
0.0
 48
0.0
 49
0.0
140
0.0
141
0.0
142
1.0
143
1.817317462545654
 70
 11956
 72
     1
 73
     0
 74
     1
  7
彩色出圖.ctb
 75
     0
147
0.5502615919395967
148
-125.5654918467224
149
222.8859553785132
100
AcDbLayout
  1
Model
 70
     1
 71
     0
 10
0.0
 20
0.0
 11
12.0
 21
9.0
 12
0.0
 22
0.0
 32
0.0
 14
0.0
 24
0.0
 34
0.0
 15
0.0
 25
0.0
 35
0.0
146
0.0
 13
0.0
 23
0.0
 33
0.0
 16
1.0
 26
0.0
 36
0.0
 17
0.0
 27
1.0
 37
0.0
 76
     0
330
1F
  0
MLINESTYLE
  5
18
102
{ACAD_REACTORS
330
17
102
}
330
17
100
AcDbMlineStyle
  2
STANDARD
 70
     0
  3

 62
   256
 51
90.0
 52
90.0
 71
     2
 49
0.5
 62
   256
  6
BYLAYER
 49
-0.5
 62
   256
  6
BYLAYER
  0
ACDBPLACEHOLDER
  5
F
102
{ACAD_REACTORS
330
E
102
}
330
E
  0
TABLESTYLE
  5
7D3
102
{ACAD_REACTORS
330
7D2
102
}
330
7D2
100
AcDbTableStyle
  3
Standard
 70
     0
 71
     0
 40
1.5
 41
1.5
280
     0
281
     0
  7
STANDARD
140
4.5
170
     2
 62
     0
 63
     7
283
     0
274
    -2
284
     1
 64
     0
275
    -2
285
     1
 65
     0
276
    -2
286
     1
 66
     0
277
    -2
287
     1
 67
     0
278
    -2
288
     1
 68
     0
279
    -2
289
     1
 69
     0
  7
STANDARD
140
6.0
170
     5
 62
     0
 63
     7
283
     0
274
    -2
284
     1
 64
     0
275
    -2
285
     1
 65
     0
276
    -2
286
     1
 66
     0
277
    -2
287
     1
 67
     0
278
    -2
288
     1
 68
     0
279
    -2
289
     1
 69
     0
  7
STANDARD
140
4.5
170
     5
 62
     0
 63
     7
283
     0
274
    -2
284
     1
 64
     0
275
    -2
285
     1
 65
     0
276
    -2
286
     1
 66
     0
277
    -2
287
     1
 67
     0
278
    -2
288
     1
 68
     0
279
    -2
289
     1
 69
     0
  0
DICTIONARYVAR
  5
847
102
{ACAD_REACTORS
330
82
102
}
330
82
100
DictionaryVariables
280
     0
  1
STANDARD
  0
DICTIONARYVAR
  5
85
102
{ACAD_REACTORS
330
82
102
}
330
82
100
DictionaryVariables
280
     0
  1
2
  0
DICTIONARYVAR
  5
84
102
{ACAD_REACTORS
330
82
102
}
330
82
100
DictionaryVariables
280
     0
  1
1
  0
DICTIONARYVAR
  5
83
102
{ACAD_REACTORS
330
82
102
}
330
82
100
DictionaryVariables
280
     0
  1
0
  0
DICTIONARYVAR
  5
848
102
{ACAD_REACTORS
330
82
102
}
330
82
100
DictionaryVariables
280
     0
  1

  0
DICTIONARY
  5
4A
102
{ACAD_REACTORS
330
45
102
}
330
45
100
AcDbDictionary
281
     1
  0
XRECORD
  5
7DF
102
{ACAD_REACTORS
330
45
102
}
330
45
100
AcDbXrecord
280
     1
 90
-1023410169
  0
DICTIONARY
  5
2BB3
330
1E
100
AcDbDictionary
280
     1
281
     1
  3
ACAD_XREC_ROUNDTRIP
360
2BB4
  0
DICTIONARY
  5
2BB7
330
26
100
AcDbDictionary
280
     1
281
     1
  3
ACAD_XREC_ROUNDTRIP
360
2BB8
  0
DICTIONARY
  5
2BB5
330
22
100
AcDbDictionary
280
     1
281
     1
  3
ACAD_XREC_ROUNDTRIP
360
2BB6
  0
XRECORD
  5
2BB4
102
{ACAD_REACTORS
330
2BB3
102
}
330
2BB3
100
AcDbXrecord
280
     1
102
SHADEPLOT
 70
     0
102
SHADEPLOTRESLEVEL
 70
     2
102
SHADEPLOTCUSTOMDPI
 70
   300
  0
XRECORD
  5
2BB8
102
{ACAD_REACTORS
330
2BB7
102
}
330
2BB7
100
AcDbXrecord
280
     1
102
SHADEPLOT
 70
     0
102
SHADEPLOTRESLEVEL
 70
     2
102
SHADEPLOTCUSTOMDPI
 70
   300
  0
XRECORD
  5
2BB6
102
{ACAD_REACTORS
330
2BB5
102
}
330
2BB5
100
AcDbXrecord
280
     1
102
SHADEPLOT
 70
     0
102
SHADEPLOTRESLEVEL
 70
     2
102
SHADEPLOTCUSTOMDPI
 70
   300
  0
ENDSEC
  0
EOF
