  0
SECTION
  2
HEADER
  9
$ACADVER
  1
AC1015
  9
$ACADMAINTVER
 70
    20
  9
$DWGCODEPAGE
  3
ANSI_950
  9
$INSBASE
 10
0.0
 20
0.0
 30
0.0
  9
$EXTMIN
 10
94.6435557755683
 20
85.26975947177868
 30
-0.0084098337234195
  9
$EXTMAX
 10
263.9932258939293
 20
318.0773625589076
 30
127.8636343896482
  9
$LIMMIN
 10
0.0
 20
0.0
  9
$LIMMAX
 10
420.0
 20
297.0
  9
$ORTHOMODE
 70
     1
  9
$REGENMODE
 70
     1
  9
$FILLMODE
 70
     1
  9
$QTEXTMODE
 70
     0
  9
$MIRRTEXT
 70
     1
  9
$LTSCALE
 40
1.0
  9
$ATTMODE
 70
     1
  9
$TEXTSIZE
 40
3.5
  9
$TRACEWID
 40
1.0
  9
$TEXTSTYLE
  7
STANDARD
  9
$CLAYER
  8
0
  9
$CELTYPE
  6
ByLayer
  9
$CECOLOR
 62
   256
  9
$CELTSCALE
 40
1.0
  9
$DISPSILH
 70
     0
  9
$DIMSCALE
 40
1.0
  9
$DIMASZ
 40
3.0
  9
$DIMEXO
 40
1.0
  9
$DIMDLI
 40
8.0
  9
$DIMRND
 40
0.0
  9
$DIMDLE
 40
0.0
  9
$DIMEXE
 40
1.5
  9
$DIMTP
 40
0.1
  9
$DIMTM
 40
0.1
  9
$DIMTXT
 40
3.5
  9
$DIMCEN
 40
3.0
  9
$DIMTSZ
 40
0.0
  9
$DIMTOL
 70
     0
  9
$DIMLIM
 70
     0
  9
$DIMTIH
 70
     0
  9
$DIMTOH
 70
     0
  9
$DIMSE1
 70
     0
  9
$DIMSE2
 70
     0
  9
$DIMTAD
 70
     1
  9
$DIMZIN
 70
     8
  9
$DIMBLK
  1

  9
$DIMASO
 70
     1
  9
$DIMSHO
 70
     1
  9
$DIMPOST
  1

  9
$DIMAPOST
  1
"
  9
$DIMALT
 70
     0
  9
$DIMALTD
 70
     2
  9
$DIMALTF
 40
0.0393701
  9
$DIMLFAC
 40
1.0
  9
$DIMTOFL
 70
     1
  9
$DIMTVP
 40
0.0
  9
$DIMTIX
 70
     0
  9
$DIMSOXD
 70
     0
  9
$DIMSAH
 70
     0
  9
$DIMBLK1
  1

  9
$DIMBLK2
  1

  9
$DIMSTYLE
  2
AM_ISO
  9
$DIMCLRD
 70
   256
  9
$DIMCLRE
 70
   256
  9
$DIMCLRT
 70
   256
  9
$DIMTFAC
 40
0.71
  9
$DIMGAP
 40
0.8
  9
$DIMJUST
 70
     0
  9
$DIMSD1
 70
     0
  9
$DIMSD2
 70
     0
  9
$DIMTOLJ
 70
     0
  9
$DIMTZIN
 70
     8
  9
$DIMALTZ
 70
     0
  9
$DIMALTTZ
 70
     0
  9
$DIMUPT
 70
     0
  9
$DIMDEC
 70
     2
  9
$DIMTDEC
 70
     8
  9
$DIMALTU
 70
     2
  9
$DIMALTTD
 70
     2
  9
$DIMTXSTY
  7
STANDARD
  9
$DIMAUNIT
 70
     0
  9
$DIMADEC
 70
     0
  9
$DIMALTRND
 40
0.0
  9
$DIMAZIN
 70
     2
  9
$DIMDSEP
 70
    46
  9
$DIMATFIT
 70
     3
  9
$DIMFRAC
 70
     0
  9
$DIMLDRBLK
  1

  9
$DIMLUNIT
 70
     2
  9
$DIMLWD
 70
    -1
  9
$DIMLWE
 70
    -1
  9
$DIMTMOVE
 70
     0
  9
$LUNITS
 70
     2
  9
$LUPREC
 70
     2
  9
$SKETCHINC
 40
1.0
  9
$FILLETRAD
 40
2.5
  9
$AUNITS
 70
     0
  9
$AUPREC
 70
     0
  9
$MENU
  1
.
  9
$ELEVATION
 40
0.0
  9
$PELEVATION
 40
0.0
  9
$THICKNESS
 40
0.0
  9
$LIMCHECK
 70
     0
  9
$CHAMFERA
 40
2.5
  9
$CHAMFERB
 40
2.5
  9
$CHAMFERC
 40
20.0
  9
$CHAMFERD
 40
0.0
  9
$SKPOLY
 70
     0
  9
$TDCREATE
 40
2453021.369367211
  9
$TDUCREATE
 40
2453021.036033877
  9
$TDUPDATE
 40
2453514.629046944
  9
$TDUUPDATE
 40
2453514.295713611
  9
$TDINDWG
 40
0.6958411574
  9
$TDUSRTIMER
 40
0.6958408102
  9
$USRTIMER
 70
     1
  9
$ANGBASE
 50
0.0
  9
$ANGDIR
 70
     0
  9
$PDMODE
 70
     0
  9
$PDSIZE
 40
0.0
  9
$PLINEWID
 40
0.0
  9
$SPLFRAME
 70
     0
  9
$SPLINETYPE
 70
     6
  9
$SPLINESEGS
 70
     8
  9
$HANDSEED
  5
510A
  9
$SURFTAB1
 70
     6
  9
$SURFTAB2
 70
     6
  9
$SURFTYPE
 70
     6
  9
$SURFU
 70
     6
  9
$SURFV
 70
     6
  9
$UCSBASE
  2

  9
$UCSNAME
  2

  9
$UCSORG
 10
0.0
 20
0.0
 30
0.0
  9
$UCSXDIR
 10
1.0
 20
0.0
 30
0.0
  9
$UCSYDIR
 10
0.0
 20
1.0
 30
0.0
  9
$UCSORTHOREF
  2

  9
$UCSORTHOVIEW
 70
     0
  9
$UCSORGTOP
 10
0.0
 20
0.0
 30
0.0
  9
$UCSORGBOTTOM
 10
0.0
 20
0.0
 30
0.0
  9
$UCSORGLEFT
 10
0.0
 20
0.0
 30
0.0
  9
$UCSORGRIGHT
 10
0.0
 20
0.0
 30
0.0
  9
$UCSORGFRONT
 10
0.0
 20
0.0
 30
0.0
  9
$UCSORGBACK
 10
0.0
 20
0.0
 30
0.0
  9
$PUCSBASE
  2

  9
$PUCSNAME
  2

  9
$PUCSORG
 10
0.0
 20
0.0
 30
0.0
  9
$PUCSXDIR
 10
1.0
 20
0.0
 30
0.0
  9
$PUCSYDIR
 10
0.0
 20
1.0
 30
0.0
  9
$PUCSORTHOREF
  2

  9
$PUCSORTHOVIEW
 70
     0
  9
$PUCSORGTOP
 10
0.0
 20
0.0
 30
0.0
  9
$PUCSORGBOTTOM
 10
0.0
 20
0.0
 30
0.0
  9
$PUCSORGLEFT
 10
0.0
 20
0.0
 30
0.0
  9
$PUCSORGRIGHT
 10
0.0
 20
0.0
 30
0.0
  9
$PUCSORGFRONT
 10
0.0
 20
0.0
 30
0.0
  9
$PUCSORGBACK
 10
0.0
 20
0.0
 30
0.0
  9
$USERI1
 70
     0
  9
$USERI2
 70
     0
  9
$USERI3
 70
     0
  9
$USERI4
 70
     0
  9
$USERI5
 70
     0
  9
$USERR1
 40
0.0
  9
$USERR2
 40
0.0
  9
$USERR3
 40
0.0
  9
$USERR4
 40
0.0
  9
$USERR5
 40
0.0
  9
$WORLDVIEW
 70
     1
  9
$SHADEDGE
 70
     3
  9
$SHADEDIF
 70
    70
  9
$TILEMODE
 70
     1
  9
$MAXACTVP
 70
    64
  9
$PINSBASE
 10
0.0
 20
0.0
 30
0.0
  9
$PLIMCHECK
 70
     0
  9
$PEXTMIN
 10
1.000000000000000E+20
 20
1.000000000000000E+20
 30
1.000000000000000E+20
  9
$PEXTMAX
 10
-1.000000000000000E+20
 20
-1.000000000000000E+20
 30
-1.000000000000000E+20
  9
$PLIMMIN
 10
0.0
 20
0.0
  9
$PLIMMAX
 10
420.0
 20
297.0
  9
$UNITMODE
 70
     0
  9
$VISRETAIN
 70
     1
  9
$PLINEGEN
 70
     0
  9
$PSLTSCALE
 70
     1
  9
$TREEDEPTH
 70
  3020
  9
$CMLSTYLE
  2
Standard
  9
$CMLJUST
 70
     0
  9
$CMLSCALE
 40
20.0
  9
$PROXYGRAPHICS
 70
     1
  9
$MEASUREMENT
 70
     1
  9
$CELWEIGHT
370
    -1
  9
$ENDCAPS
280
     0
  9
$JOINSTYLE
280
     0
  9
$LWDISPLAY
290
     0
  9
$INSUNITS
 70
     4
  9
$HYPERLINKBASE
  1

  9
$STYLESHEET
  1
彩色出圖.ctb
  9
$XEDIT
290
     1
  9
$CEPSNTYPE
380
     0
  9
$PSTYLEMODE
290
     1
  9
$FINGERPRINTGUID
  2
{6C02722A-18D3-491A-897A-B8025DE410A9}
  9
$VERSIONGUID
  2
{226FF8BE-6059-4758-B937-84BF559256AA}
  9
$EXTNAMES
290
     1
  9
$PSVPSCALE
 40
0.0
  9
$OLESTARTUP
290
     0
  0
ENDSEC
  0
SECTION
  2
CLASSES
  0
CLASS
  1
ACDBDICTIONARYWDFLT
  2
AcDbDictionaryWithDefault
  3
ObjectDBX Classes
 90
        0
280
     0
281
     0
  0
CLASS
  1
ACDBPLACEHOLDER
  2
AcDbPlaceHolder
  3
ObjectDBX Classes
 90
        0
280
     0
281
     0
  0
CLASS
  1
LAYOUT
  2
AcDbLayout
  3
ObjectDBX Classes
 90
        0
280
     0
281
     0
  0
CLASS
  1
AMGSETTINGSOBJ
  2
AmgSettingsObj
  3
"AcadM|Product Description: AutoCAD Mechanical 2000|Company: Autodesk"
 90
        0
280
     0
281
     0
  0
CLASS
  1
ACME_DOCUMENT
  2
AcMeDbDoc
  3
AcMeServices
 90
        0
280
     0
281
     0
  0
CLASS
  1
ACMESCOPE
  2
AcMeScope
  3
AcMeServices
 90
        0
280
     0
281
     0
  0
CLASS
  1
ACMECOMMANDHISTORY
  2
AcMeCommandHistory
  3
AcMeServices
 90
        0
280
     0
281
     0
  0
CLASS
  1
ACIMSYSVARMAN
  2
AcImSysVarManager
  3
AcMeServices
 90
        0
280
     0
281
     0
  0
CLASS
  1
ACIMREALSYSVAR
  2
AcImRealSysVar
  3
AcMeServices
 90
        0
280
     0
281
     0
  0
CLASS
  1
ACIMINTSYSVAR
  2
AcImIntSysVar
  3
AcMeServices
 90
        0
280
     0
281
     0
  0
CLASS
  1
ACMEDRAWINGMAN
  2
AcMeDrawingMan
  3
AcMeServices
 90
        0
280
     0
281
     0
  0
CLASS
  1
ACMEVIEW
  2
AcMeView
  3
AcMeServices
 90
        0
280
     0
281
     0
  0
CLASS
  1
ACDBENTITYCACHE
  2
AcMeEntityCache
  3
AcMeServices
 90
        0
280
     0
281
     0
  0
CLASS
  1
GSMANAGER
  2
AcMeGSManager
  3
AcMeServices
 90
        0
280
     0
281
     0
  0
CLASS
  1
AMDTINTERNALREACTOR
  2
AmdtInternalReactor
  3
AcMeServices
 90
        0
280
     0
281
     0
  0
CLASS
  1
ACMESTATEMGR
  2
AcMeStateMgr
  3
AcMeServices
 90
        0
280
     0
281
     0
  0
CLASS
  1
ACGREFMASTER
  2
AcGrefMaster
  3
AcAttribServices
 90
        0
280
     0
281
     0
  0
CLASS
  1
ACME_DATABASE
  2
AcMeDbDatabase
  3
AcMeServices
 90
        0
280
     0
281
     0
  0
CLASS
  1
ACRFINSADJUSTERMGR
  2
AcRfInsAdjusterMgr
  3
AcMeServices
 90
        0
280
     0
281
     0
  0
CLASS
  1
ACGREFACADMASTER
  2
AcGrefacadMaster
  3
AcGrefServices
 90
        0
280
     0
281
     0
  0
CLASS
  1
AMIMASTER
  2
AmiMaster
  3
AmiServices
 90
        0
280
     0
281
     0
  0
CLASS
  1
ACMDATADICTIONARY
  2
AcmDataDictionary
  3
"AcmSymBB|Product Description: AutoCAD Mechanical 2004 DX|Company: Autodesk"
 90
        0
280
     0
281
     0
  0
CLASS
  1
ACMDATAENTRYBLOCK
  2
AcmDataEntryBlock
  3
"AcmSymBB|Product Description: AutoCAD Mechanical 2004 DX|Company: Autodesk"
 90
    32768
280
     0
281
     0
  0
CLASS
  1
ACIMSTRSYSVAR
  2
AcImStrSysVar
  3
AcMeServices
 90
        0
280
     0
281
     0
  0
CLASS
  1
ACMSTANDARDISO
  2
AcmStandardISO
  3
"Amdt_StdImp|Product Description: AutoCAD Mechanical 2004 DX|Company: Autodesk"
 90
        0
280
     0
281
     0
  0
CLASS
  1
AMGOBJPROPCFG
  2
AmgObjPropCfg
  3
"AmgLay|Product Description: AutoCAD Mechanical 2000|Company: Autodesk"
 90
        1
280
     0
281
     0
  0
CLASS
  1
AMDTEDGESTANDARDISO
  2
AmdtEdgeStdISO
  3
"Amdt_StdImp|Product Description: AutoCAD Mechanical 2004 DX|Company: Autodesk"
 90
    32768
280
     0
281
     0
  0
CLASS
  1
ACMSURFSTANDARDISO
  2
AcmSurfTextStdISO
  3
"Amdt_StdImp|Product Description: AutoCAD Mechanical 2004 DX|Company: Autodesk"
 90
        0
280
     0
281
     0
  0
CLASS
  1
ACMFCFSTANDARDISO
  2
AcmFCFStdISO
  3
"Amdt_StdImp|Product Description: AutoCAD Mechanical 2004 DX|Company: Autodesk"
 90
        0
280
     0
281
     0
  0
CLASS
  1
ACMWELDSTANDARDISO
  2
AcmWeldingStdISO
  3
"Amdt_StdImp|Product Description: AutoCAD Mechanical 2004 DX|Company: Autodesk"
 90
        0
280
     0
281
     0
  0
CLASS
  1
ACMIDSTANDARDISO
  2
AcmIdStdISO
  3
"Amdt_StdImp|Product Description: AutoCAD Mechanical 2004 DX|Company: Autodesk"
 90
        0
280
     0
281
     0
  0
CLASS
  1
ACMDATUMSTANDARDISO
  2
AcmDatumStdISO
  3
"Amdt_StdImp|Product Description: AutoCAD Mechanical 2004 DX|Company: Autodesk"
 90
        0
280
     0
281
     0
  0
CLASS
  1
ACMBOMSTANDARDISO
  2
AcmBOMStdISO
  3
"Amdt_StdImp|Product Description: AutoCAD Mechanical 2004 DX|Company: Autodesk"
 90
        0
280
     0
281
     0
  0
CLASS
  1
ACMDETAILSTANDARDISO
  2
AmdtDetailSymStdISO
  3
"Amdt_StdImp|Product Description: AutoCAD Mechanical 2004 DX|Company: Autodesk"
 90
        0
280
     0
281
     0
  0
CLASS
  1
ACMSECTIONSTANDARDISO
  2
AmdtSectionSymStdISO
  3
"Amdt_StdImp|Product Description: AutoCAD Mechanical 2004 DX|Company: Autodesk"
 90
        0
280
     0
281
     0
  0
CLASS
  1
ACMCENTERLINESTANDARDISO
  2
AmdtCenterLineStdISO
  3
"Amdt_StdImp|Product Description: AutoCAD Mechanical 2004 DX|Company: Autodesk"
 90
        0
280
     0
281
     0
  0
CLASS
  1
ACMNOTESTANDARDISO
  2
AmdtNoteStdISO
  3
"Amdt_StdImp|Product Description: AutoCAD Mechanical 2004 DX|Company: Autodesk"
 90
        0
280
     0
281
     0
  0
CLASS
  1
ACAMGLAYSTD
  2
AcAmgLayStd
  3
"AcAmgLayStd|Product Description: AutoCAD Mechanical 2000|Company: Autodesk"
 90
        0
280
     0
281
     0
  0
CLASS
  1
ACAMGDIMSTD
  2
AcAmgDimStd
  3
"AcAmgDimStd|Product Description: AutoCAD Mechanical 2000|Company: Autodesk"
 90
        0
280
     0
281
     0
  0
CLASS
  1
ACAMGHOLECHARTSTDISO
  2
AcAmgHoleChartStdISO
  3
ACMSYMBB_MODULE_NAME
 90
        0
280
     0
281
     0
  0
CLASS
  1
ACAMGTITLESTD
  2
AcAmgTitleStd
  3
"TITLEAPP"
 90
        0
280
     0
281
     0
  0
CLASS
  1
LAYER_INDEX
  2
AcDbLayerIndex
  3
ObjectDBX Classes
 90
    32768
280
     0
281
     0
  0
CLASS
  1
IDBUFFER
  2
AcDbIdBuffer
  3
ObjectDBX Classes
 90
    32768
280
     0
281
     0
  0
CLASS
  1
DICTIONARYVAR
  2
AcDbDictionaryVar
  3
ObjectDBX Classes
 90
        0
280
     0
281
     0
  0
CLASS
  1
ACAMGFILTERDAT
  2
AcAmgFilterDat
  3
"AcadM|Product Description: AutoCAD Mechanical 2000|Company: Autodesk"
 90
    32768
280
     0
281
     0
  0
CLASS
  1
AMDTFORMULAUPDATEDISPATCHER
  2
AmdtFormulaUpdateDispatcher
  3
AcMeServices
 90
    32768
280
     0
281
     0
  0
CLASS
  1
DIMASSOC
  2
AcDbDimAssoc
  3
"AcDbDimAssoc|Product Desc:     AcDim ARX App For Dimension|Company:          Autodesk, Inc.|WEB Address:      www.autodesk.com"
 90
        0
280
     0
281
     0
  0
CLASS
  1
AMDTNOTE
  2
AmdtNote
  3
"AcmSymBB|Product Description: AutoCAD Mechanical 2004 DX|Company: Autodesk"
 90
     1023
280
     0
281
     1
  0
CLASS
  1
TABLESTYLE
  2
AcDbTableStyle
  3
ObjectDBX Classes
 90
     2047
280
     0
281
     0
  0
CLASS
  1
AM_DRAWING_MGR
  2
AcDmDwgMgr
  3
AcMechDwgViewMgmt
 90
        0
280
     0
281
     0
  0
CLASS
  1
AM_DWG_DOCUMENT
  2
AcDmDwgDocument
  3
AcMechDwgViewMgmt
 90
        0
280
     0
281
     0
  0
CLASS
  1
AM_DWG_SHEET
  2
AcDmSheet
  3
AcMechDwgViewMgmt
 90
        0
280
     0
281
     0
  0
CLASS
  1
AM_VIEWDIMPARMAP
  2
AcDmViewDimParMap
  3
AcMechDwgViewMgmt
 90
        0
280
     0
281
     0
  0
CLASS
  1
AM_DWGMGR_NAME
  2
AcDmDwgMgrName
  3
AcMechDwgViewMgmt
 90
        0
280
     0
281
     0
  0
CLASS
  1
AMDTMENUSTATEMGR
  2
AmdtMenuStateMgr
  3
McadcomServices
 90
        0
280
     0
281
     0
  0
CLASS
  1
AMDTMCOMMENUSTATE
  2
AmdtMcomMenuState
  3
McadcomServices
 90
        0
280
     0
281
     0
  0
CLASS
  1
MAPIAMMOUDLE
  2
MApiAmModule
  3
MApiAmServices
 90
        0
280
     0
281
     0
  0
CLASS
  1
AMDTADMENUSTATE
  2
AmdtAdMenuState
  3
DesignerServices
 90
        0
280
     0
281
     0
  0
CLASS
  1
ADAPPL
  2
AcAdAppl
  3
DesignerServices
 90
        0
280
     0
281
     0
  0
CLASS
  1
DEPMGR
  2
AcAdDepMgr
  3
DesignerServices
 90
        0
280
     0
281
     0
  0
CLASS
  1
PARAMMGR
  2
AcAdParamMgr
  3
DesignerServices
 90
        0
280
     0
281
     0
  0
CLASS
  1
PARAMSCOPE
  2
AcAdParamScope
  3
DesignerServices
 90
        0
280
     0
281
     0
  0
CLASS
  1
NAMEDAPPL
  2
AcAdNamedAppl
  3
DesignerServices
 90
        0
280
     0
281
     0
  0
CLASS
  1
AMDTDMMENUSTATE
  2
AmdtDmMenuState
  3
AcMechDwgViewMgmt
 90
        0
280
     0
281
     0
  0
CLASS
  1
AMDTAMMENUSTATE
  2
AmdtAmMenuState
  3
DesignerAssemblies
 90
        0
280
     0
281
     0
  0
CLASS
  1
ACAMPROJECT
  2
AcAmProject
  3
DesignerAssemblies
 90
        0
280
     0
281
     0
  0
CLASS
  1
ACAMGRCOMPDEF
  2
AcAmGrCompDef
  3
DesignerAssemblies
 90
        0
280
     0
281
     0
  0
CLASS
  1
ACCMCONTEXT
  2
AcCmContext
  3
DesignerAssemblies
 90
        0
280
     0
281
     0
  0
CLASS
  1
ACAMCOMPDEF
  2
AcAmCompDef
  3
DesignerAssemblies
 90
        0
280
     0
281
     0
  0
CLASS
  1
ACAMCOMPDEFMGR
  2
AcAmCompDefMgr
  3
DesignerAssemblies
 90
        0
280
     0
281
     0
  0
CLASS
  1
AMCONTEXTMGR
  2
AcAmContextMgr
  3
DesignerAssemblies
 90
        0
280
     0
281
     0
  0
CLASS
  1
ACAMCONTEXTMODELER
  2
AcAmContextModeler
  3
DesignerAssemblies
 90
        0
280
     0
281
     0
  0
CLASS
  1
ACMTHREADLINESTANDARDISO
  2
AmdtThreadLineStdISO
  3
"Amdt_StdImp|Product Description: AutoCAD Mechanical 2004 DX|Company: Autodesk"
 90
        0
280
     0
281
     0
  0
CLASS
  1
CATALOGSTATE
  2
AcAmCatalogState
  3
DesignerAssemblies
 90
        0
280
     0
281
     0
  0
CLASS
  1
ACAMGRCOMPDEFSET
  2
AcAmGrCompDefSet
  3
DesignerAssemblies
 90
        0
280
     0
281
     0
  0
CLASS
  1
AMDTBROWSERDBTAB
  2
AmdtBrowserDbTab
  3
McadcomServices
 90
        0
280
     0
281
     0
  0
CLASS
  1
CBROWSERAPPOBJECT
  2
CBrowserAppObject
  3
McadcomServices
 90
        0
280
     0
281
     0
  0
CLASS
  1
DM_PLACEHOLDER
  2
AcDmSelsetPlaceholder
  3
AcMechDwgViewMgmt
 90
        0
280
     0
281
     0
  0
CLASS
  1
VAACXREFPANELOBJECT
  2
VaAcXREFPanelObject
  3
VAAC_ADDIN
 90
        0
280
     0
281
     0
  0
CLASS
  1
VAACIMAGEINVENTORY
  2
VaAcImageInventory
  3
VAAC_ADDIN
 90
        0
280
     0
281
     0
  0
CLASS
  1
AMDTEDGESTANDARDISO13715
  2
AmdtEdgeStdISO13715
  3
"Amdt_StdImp|Product Description: AutoCAD Mechanical 2004 DX|Company: Autodesk"
 90
        0
280
     0
281
     0
  0
CLASS
  1
AMDTNOTETEMPLATEDB
  2
AmdtNoteTemplateDB
  3
AMDT_STDIMP_MODULE_NAME
 90
        0
280
     0
281
     0
  0
CLASS
  1
ACRFATTGENMGR
  2
AcRfAttGeneralMgr
  3
AcAttribServices
 90
        0
280
     0
281
     0
  0
CLASS
  1
SORTENTSTABLE
  2
AcDbSortentsTable
  3
ObjectDBX Classes
 90
        0
280
     0
281
     0
  0
CLASS
  1
STDPART2D
  2
AmgStdPart
  3
"AmgStdPart|Product Description: AutoCAD Mechanical 2000|Company: Autodesk"
 90
    33791
280
     0
281
     1
  0
CLASS
  1
ACAMSTDPCOMPDEF
  2
AcAmStdpCompDef
  3
DesignerAssemblies
 90
    32768
280
     0
281
     0
  0
CLASS
  1
ACRFOBJATTMGR
  2
AcRfObjAttGroupMgr
  3
AcAttribServices
 90
    32768
280
     0
281
     0
  0
CLASS
  1
ACRFMCADAPIATTHOLDER
  2
AcRfMCADAPIAttHolder
  3
AcAttribServices
 90
    32768
280
     0
281
     0
  0
CLASS
  1
AMDTSYSATTR
  2
AmdtSystemAttribute
  3
AcAttribServices
 90
    32768
280
     0
281
     0
  0
CLASS
  1
ACAMCOMP
  2
AcAmComp
  3
DesignerAssemblies
 90
    32768
280
     0
281
     0
  0
CLASS
  1
AC_AM_STDP_VIEW_DEF
  2
AcAmStdpViewDef
  3
DesignerAssemblies
 90
    32768
280
     0
281
     0
  0
CLASS
  1
AC_AM_MVD_DEP_MGR
  2
AcAmMVDdepMgr
  3
DesignerAssemblies
 90
        0
280
     0
281
     0
  0
CLASS
  1
AC_AM_MASTER_VIEW_DEF
  2
AcAmMasterViewDef
  3
DesignerAssemblies
 90
        0
280
     0
281
     0
  0
CLASS
  1
AC_AM_DIRTY_NODES
  2
AcAmDirtyNodes
  3
DesignerAssemblies
 90
        0
280
     0
281
     0
  0
CLASS
  1
AC_AM_MAPPER_CACHE
  2
AcAmMapperCache
  3
DesignerAssemblies
 90
        0
280
     0
281
     0
  0
CLASS
  1
ACAMMVDBACKUPOBJECT
  2
AcAmMVDBackupObject
  3
DesignerAssemblies
 90
        0
280
     0
281
     0
  0
CLASS
  1
AC_AM_COMP_VIEW_INST
  2
AcAmCompView
  3
DesignerAssemblies
 90
    32768
280
     0
281
     0
  0
CLASS
  1
AC_AM_2D_XREF_MGR
  2
AcAmXrefMgr2d
  3
DesignerAssemblies
 90
        0
280
     0
281
     0
  0
CLASS
  1
ACMSTANDARDANSI
  2
AcmStandardANSI
  3
"Amdt_StdImp|Product Description: AutoCAD Mechanical 2004 DX|Company: Autodesk"
 90
    32768
280
     0
281
     0
  0
CLASS
  1
ACMSURFSTANDARDANSI
  2
AcmSurfTextStdANSI
  3
"Amdt_StdImp|Product Description: AutoCAD Mechanical 2004 DX|Company: Autodesk"
 90
    32768
280
     0
281
     0
  0
CLASS
  1
ACMFCFSTANDARDANSI
  2
AcmFCFStdANSI
  3
"Amdt_StdImp|Product Description: AutoCAD Mechanical 2004 DX|Company: Autodesk"
 90
    32768
280
     0
281
     0
  0
CLASS
  1
ACMWELDSTANDARDANSI
  2
AcmWeldingStdANSI
  3
"Amdt_StdImp|Product Description: AutoCAD Mechanical 2004 DX|Company: Autodesk"
 90
    32768
280
     0
281
     0
  0
CLASS
  1
ACMIDSTANDARDANSI
  2
AcmIdStdANSI
  3
"Amdt_StdImp|Product Description: AutoCAD Mechanical 2004 DX|Company: Autodesk"
 90
    32768
280
     0
281
     0
  0
CLASS
  1
ACMDATUMSTANDARDANSI
  2
AcmDatumStdANSI
  3
"Amdt_StdImp|Product Description: AutoCAD Mechanical 2004 DX|Company: Autodesk"
 90
    32768
280
     0
281
     0
  0
CLASS
  1
ACMBOMSTANDARDANSI
  2
AcmBOMStdANSI
  3
"Amdt_StdImp|Product Description: AutoCAD Mechanical 2004 DX|Company: Autodesk"
 90
    32768
280
     0
281
     0
  0
CLASS
  1
ACMDETAILSTANDARDANSI
  2
AmdtDetailSymStdANSI
  3
"Amdt_StdImp|Product Description: AutoCAD Mechanical 2004 DX|Company: Autodesk"
 90
    32768
280
     0
281
     0
  0
CLASS
  1
ACMSECTIONSTANDARDANSI
  2
AmdtSectionSymStdANSI
  3
"Amdt_StdImp|Product Description: AutoCAD Mechanical 2004 DX|Company: Autodesk"
 90
    32768
280
     0
281
     0
  0
CLASS
  1
ACMCENTERLINESTANDARDANSI
  2
AmdtCenterLineStdANSI
  3
"Amdt_StdImp|Product Description: AutoCAD Mechanical 2004 DX|Company: Autodesk"
 90
    32768
280
     0
281
     0
  0
CLASS
  1
ACMTHREADLINESTANDARDANSI
  2
AmdtThreadLineStdANSI
  3
"Amdt_StdImp|Product Description: AutoCAD Mechanical 2004 DX|Company: Autodesk"
 90
    32768
280
     0
281
     0
  0
CLASS
  1
ACMNOTESTANDARDANSI
  2
AmdtNoteStdANSI
  3
"Amdt_StdImp|Product Description: AutoCAD Mechanical 2004 DX|Company: Autodesk"
 90
    32768
280
     0
281
     0
  0
CLASS
  1
ACAMGHOLECHARTSTDANSI
  2
AcAmgHoleChartStdANSI
  3
ACMSYMBB_MODULE_NAME
 90
    32768
280
     0
281
     0
  0
ENDSEC
  0
SECTION
  2
TABLES
  0
TABLE
  2
VPORT
  5
8
330
0
100
AcDbSymbolTable
 70
     3
  0
VPORT
  5
5101
330
8
100
AcDbSymbolTableRecord
100
AcDbViewportTableRecord
  2
*Active
 70
     0
 10
0.0
 20
0.0
 11
1.0
 21
1.0
 12
179.3183908347488
 22
201.679540018545
 13
0.0
 23
0.0
 14
2.5
 24
2.5
 15
10.0
 25
10.0
 16
0.0
 26
0.0
 36
1.0
 17
0.0
 27
0.0
 37
0.0
 40
235.6453827291374
 41
1.81766917293233
 42
50.0
 43
0.0
 44
0.0
 50
0.0
 51
0.0
 71
     0
 72
   100
 73
     1
 74
     3
 75
     0
 76
     0
 77
     0
 78
     0
281
     0
 65
     1
110
0.0
120
0.0
130
0.0
111
1.0
121
0.0
131
0.0
112
0.0
122
1.0
132
0.0
 79
     0
146
0.0
  0
ENDTAB
  0
TABLE
  2
LTYPE
  5
5
330
0
100
AcDbSymbolTable
 70
    14
  0
LTYPE
  5
14
330
5
100
AcDbSymbolTableRecord
100
AcDbLinetypeTableRecord
  2
ByBlock
 70
     0
  3

 72
    65
 73
     0
 40
0.0
  0
LTYPE
  5
15
330
5
100
AcDbSymbolTableRecord
100
AcDbLinetypeTableRecord
  2
ByLayer
 70
     0
  3

 72
    65
 73
     0
 40
0.0
  0
LTYPE
  5
16
330
5
100
AcDbSymbolTableRecord
100
AcDbLinetypeTableRecord
  2
Continuous
 70
     0
  3
Solid line
 72
    65
 73
     0
 40
0.0
  0
LTYPE
  5
4D
330
5
100
AcDbSymbolTableRecord
100
AcDbLinetypeTableRecord
  2
AM_ISO02W050
 70
     0
  3
__ __ __ __ __ __ __ __ __ __ __ __ __ __ __
 72
    65
 73
     2
 40
7.5
 49
6.0
 74
     0
 49
-1.5
 74
     0
  0
LTYPE
  5
4E
330
5
100
AcDbSymbolTableRecord
100
AcDbLinetypeTableRecord
  2
AM_ISO08W050
 70
     0
  3
____ . ____ . ____ . ____ . ____ . ____ . ____
 72
    65
 73
     4
 40
18.0
 49
12.0
 74
     0
 49
-1.5
 74
     0
 49
3.0
 74
     0
 49
-1.5
 74
     0
  0
LTYPE
  5
4F
330
5
100
AcDbSymbolTableRecord
100
AcDbLinetypeTableRecord
  2
AM_ISO09W050
 70
     0
  3
_____ . . _____ . . _____ . . ____ .. ____
 72
    65
 73
     6
 40
22.5
 49
12.0
 74
     0
 49
-1.5
 74
     0
 49
3.0
 74
     0
 49
-1.5
 74
     0
 49
3.0
 74
     0
 49
-1.5
 74
     0
  0
LTYPE
  5
50
330
5
100
AcDbSymbolTableRecord
100
AcDbLinetypeTableRecord
  2
Amconstr
 70
     0
  3
_______________________
 72
    65
 73
     2
 40
9999.0
 49
9999.0
 74
     0
 49
0.0
 74
     0
  0
LTYPE
  5
51
330
5
100
AcDbSymbolTableRecord
100
AcDbLinetypeTableRecord
  2
AM_ISO08W050x2
 70
     0
  3
__ . __ . __ . __ . __ . __
 72
    65
 73
     4
 40
9.0
 49
6.0
 74
     0
 49
-0.75
 74
     0
 49
1.5
 74
     0
 49
-0.75
 74
     0
  0
LTYPE
  5
52
330
5
100
AcDbSymbolTableRecord
100
AcDbLinetypeTableRecord
  2
AM_ISO02W050x2
 70
     0
  3
 _ _ _ _ _ _ _ _ _ _ _ _
 72
    65
 73
     2
 40
3.75
 49
3.0
 74
     0
 49
-0.75
 74
     0
  0
LTYPE
  5
55
330
5
100
AcDbSymbolTableRecord
100
AcDbLinetypeTableRecord
  2
Amzigzag
 70
     0
  3
/\/-/\/-/\/-/\/-/\/-/\/
 72
    65
 73
     2
 40
11.0001
 49
0.0001
 74
     4
 75
   135
340
54
 46
0.04
 50
0.0
 44
0.0
 45
0.0
 49
-11.0
 74
     0
  0
LTYPE
  5
63
330
5
100
AcDbSymbolTableRecord
100
AcDbLinetypeTableRecord
  2
ACISOWELD
 70
     0
  3
_ _ _ _ _
 72
    65
 73
     2
 40
2.0
 49
2.0
 74
     0
 49
-1.0
 74
     0
  0
LTYPE
  5
64
330
5
100
AcDbSymbolTableRecord
100
AcDbLinetypeTableRecord
  2
ACISOTGB
 70
     0
  3
__ . . __ . .
 72
    65
 73
     6
 40
9.0
 49
4.0
 74
     0
 49
-1.0
 74
     0
 49
1.0
 74
     0
 49
-1.0
 74
     0
 49
1.0
 74
     0
 49
-1.0
 74
     0
  0
LTYPE
  5
65
330
5
100
AcDbSymbolTableRecord
100
AcDbLinetypeTableRecord
  2
ACISOTGL
 70
     0
  3
_ _ _ _ _
 72
    65
 73
     2
 40
3.0
 49
2.0
 74
     0
 49
-1.0
 74
     0
  0
LTYPE
  5
68
330
5
100
AcDbSymbolTableRecord
100
AcDbLinetypeTableRecord
  2
CENTER
 70
     0
  3
__ . __
 72
    65
 73
     4
 40
7.0
 49
4.0
 74
     0
 49
-1.0
 74
     0
 49
1.0
 74
     0
 49
-1.0
 74
     0
  0
LTYPE
  5
806
330
5
100
AcDbSymbolTableRecord
100
AcDbLinetypeTableRecord
  2
HIDDEN
 70
     0
  3
Hidden __ __ __ __ __ __ __ __ __ __ __ __ __ _
 72
    65
 73
     2
 40
9.524999999999998
 49
6.349999999999999
 74
     0
 49
-3.174999999999999
 74
     0
  0
LTYPE
  5
807
330
5
100
AcDbSymbolTableRecord
100
AcDbLinetypeTableRecord
  2
PHANTOM2
 70
     0
  3
Phantom (.5x) ___ _ _ ___ _ _ ___ _ _ ___ _ _
 72
    65
 73
     6
 40
31.75
 49
15.875
 74
     0
 49
-3.174999999999999
 74
     0
 49
3.174999999999999
 74
     0
 49
-3.174999999999999
 74
     0
 49
3.174999999999999
 74
     0
 49
-3.174999999999999
 74
     0
  0
ENDTAB
  0
TABLE
  2
LAYER
  5
2
102
{ACAD_XDICTIONARY
360
AAB
102
}
330
0
100
AcDbSymbolTable
 70
     8
  0
LAYER
  5
10
330
2
100
AcDbSymbolTableRecord
100
AcDbLayerTableRecord
  2
0
 70
     0
 62
     7
  6
Continuous
370
    -3
390
F
  0
LAYER
  5
42A
330
2
100
AcDbSymbolTableRecord
100
AcDbLayerTableRecord
  2
AM_5
 70
     0
 62
     5
  6
Continuous
370
    50
390
F
  0
LAYER
  5
43E
330
2
100
AcDbSymbolTableRecord
100
AcDbLayerTableRecord
  2
Defpoints
 70
     0
 62
     7
  6
Continuous
290
     0
370
    -3
390
F
  0
LAYER
  5
CD5
330
2
100
AcDbSymbolTableRecord
100
AcDbLayerTableRecord
  2
AM_7
 70
     0
 62
     1
  6
AM_ISO08W050
370
    25
390
F
  0
LAYER
  5
CD6
330
2
100
AcDbSymbolTableRecord
100
AcDbLayerTableRecord
  2
AM_VIS
 70
     0
 62
     7
  6
Continuous
370
    50
390
F
  0
LAYER
  5
CD7
330
2
100
AcDbSymbolTableRecord
100
AcDbLayerTableRecord
  2
AM_4
 70
     0
 62
     3
  6
Continuous
370
    25
390
F
  0
LAYER
  5
CD9
330
2
100
AcDbSymbolTableRecord
100
AcDbLayerTableRecord
  2
AM_0
 70
     0
 62
     7
  6
Continuous
370
    50
390
F
  0
LAYER
  5
135E
330
2
100
AcDbSymbolTableRecord
100
AcDbLayerTableRecord
  2
LOGO
 70
     0
 62
     7
  6
Continuous
370
    -3
390
F
  0
ENDTAB
  0
TABLE
  2
STYLE
  5
3
330
0
100
AcDbSymbolTable
 70
     6
  0
STYLE
  5
11
330
3
100
AcDbSymbolTableRecord
100
AcDbTextStyleTableRecord
  2
STANDARD
 70
     0
 40
0.0
 41
1.0
 50
0.0
 71
     0
 42
3.5
  3
ISOCP.SHX
  4
CHINESET.SHX
  0
STYLE
  5
54
330
3
100
AcDbSymbolTableRecord
100
AcDbTextStyleTableRecord
  2

 70
     1
 40
0.0
 41
1.0
 50
0.0
 71
     0
 42
2.5
  3
ltypeshp.shx
  4

  0
STYLE
  5
56
330
3
100
AcDbSymbolTableRecord
100
AcDbTextStyleTableRecord
  2
ACISOTS
 70
     0
 40
1.0
 41
1.0
 50
0.0
 71
     0
 42
2.5
  3
isocp.shx
  4
chineset.shx
  0
STYLE
  5
62
330
3
100
AcDbSymbolTableRecord
100
AcDbTextStyleTableRecord
  2
ACISOGDT
 70
     0
 40
0.0
 41
1.0
 50
0.0
 71
     0
 42
3.5
  3
amgdt.shx
  4

  0
STYLE
  5
1360
330
3
100
AcDbSymbolTableRecord
100
AcDbTextStyleTableRecord
  2
CHINESET
 70
     0
 40
0.0
 41
1.0
 50
0.0
 71
     0
 42
4.0
  3
simplex.shx
  4
chineset.shx
  0
ENDTAB
  0
TABLE
  2
VIEW
  5
6
330
0
100
AcDbSymbolTable
 70
     0
  0
ENDTAB
  0
TABLE
  2
UCS
  5
7
330
0
100
AcDbSymbolTable
 70
     0
  0
ENDTAB
  0
TABLE
  2
APPID
  5
9
330
0
100
AcDbSymbolTable
 70
    33
  0
APPID
  5
12
330
9
100
AcDbSymbolTableRecord
100
AcDbRegAppTableRecord
  2
ACAD
 70
     0
  0
APPID
  5
30
330
9
100
AcDbSymbolTableRecord
100
AcDbRegAppTableRecord
  2
MCAD_NO_VIS
 70
     0
  0
APPID
  5
31
330
9
100
AcDbSymbolTableRecord
100
AcDbRegAppTableRecord
  2
ACAD_TEMP_GRAPHIC
 70
     0
  0
APPID
  5
42
330
9
100
AcDbSymbolTableRecord
100
AcDbRegAppTableRecord
  2
ACATTRIBSERVICES
 70
     0
  0
APPID
  5
20A
330
9
100
AcDbSymbolTableRecord
100
AcDbRegAppTableRecord
  2
GENIUS_GENODEF_13
 70
     0
  0
APPID
  5
20B
330
9
100
AcDbSymbolTableRecord
100
AcDbRegAppTableRecord
  2
GENIUS_GENOBJ-N-HTC_13
 70
     0
  0
APPID
  5
20C
330
9
100
AcDbSymbolTableRecord
100
AcDbRegAppTableRecord
  2
GENIUS_GENHATCH_13
 70
     0
  0
APPID
  5
809
330
9
100
AcDbSymbolTableRecord
100
AcDbRegAppTableRecord
  2
AD_DRAW
 70
     0
  0
APPID
  5
827
330
9
100
AcDbSymbolTableRecord
100
AcDbRegAppTableRecord
  2
DESIGNERASSEMBLIES
 70
     0
  0
APPID
  5
82C
330
9
100
AcDbSymbolTableRecord
100
AcDbRegAppTableRecord
  2
ACADM_DIM_EDIT
 70
     0
  0
APPID
  5
82D
330
9
100
AcDbSymbolTableRecord
100
AcDbRegAppTableRecord
  2
AMDT_DM_ADJ
 70
     0
  0
APPID
  5
FE4
330
9
100
AcDbSymbolTableRecord
100
AcDbRegAppTableRecord
  2
GENIUS_GENDTOL_13
 70
     0
  0
APPID
  5
108C
330
9
100
AcDbSymbolTableRecord
100
AcDbRegAppTableRecord
  2
ACAD_DSTYLE_DIMTEXT_FILL
 70
     0
  0
APPID
  5
1201
330
9
100
AcDbSymbolTableRecord
100
AcDbRegAppTableRecord
  2
GEVID1116400677
 70
     0
  0
APPID
  5
1202
330
9
100
AcDbSymbolTableRecord
100
AcDbRegAppTableRecord
  2
GEVDC
 70
     0
  0
APPID
  5
1203
330
9
100
AcDbSymbolTableRecord
100
AcDbRegAppTableRecord
  2
GEVRADREF
 70
     0
  0
APPID
  5
120C
330
9
100
AcDbSymbolTableRecord
100
AcDbRegAppTableRecord
  2
AMG_2DHIDE
 70
     0
  0
APPID
  5
120D
330
9
100
AcDbSymbolTableRecord
100
AcDbRegAppTableRecord
  2
AMG_2DSTRUCT_BTR
 70
     0
  0
APPID
  5
121E
330
9
100
AcDbSymbolTableRecord
100
AcDbRegAppTableRecord
  2
ACADM_2DVIEW_IGN_NOTIFY
 70
     0
  0
APPID
  5
1361
330
9
100
AcDbSymbolTableRecord
100
AcDbRegAppTableRecord
  2
GENIUS_GENREC_14
 70
     0
  0
APPID
  5
1362
330
9
100
AcDbSymbolTableRecord
100
AcDbRegAppTableRecord
  2
GENIUS_GENOBJ-N-REC_13
 70
     0
  0
APPID
  5
1E31
330
9
100
AcDbSymbolTableRecord
100
AcDbRegAppTableRecord
  2
ACAD_PSEXT
 70
     0
  0
APPID
  5
1F6E
330
9
100
AcDbSymbolTableRecord
100
AcDbRegAppTableRecord
  2
GEVID1116471484
 70
     0
  0
APPID
  5
2915
330
9
100
AcDbSymbolTableRecord
100
AcDbRegAppTableRecord
  2
GENIUS_GENOBJ-N-CEN_13
 70
     0
  0
APPID
  5
2916
330
9
100
AcDbSymbolTableRecord
100
AcDbRegAppTableRecord
  2
GENIUS_GENCEN_19
 70
     0
  0
APPID
  5
31F5
330
9
100
AcDbSymbolTableRecord
100
AcDbRegAppTableRecord
  2
GEVID1116471486
 70
     0
  0
APPID
  5
36ED
330
9
100
AcDbSymbolTableRecord
100
AcDbRegAppTableRecord
  2
GEVID1116471487
 70
     0
  0
APPID
  5
3B9C
330
9
100
AcDbSymbolTableRecord
100
AcDbRegAppTableRecord
  2
GENIUS_GENOLIS_13
 70
     0
  0
APPID
  5
3B9D
330
9
100
AcDbSymbolTableRecord
100
AcDbRegAppTableRecord
  2
GENIUS_GENOENT_13
 70
     0
  0
APPID
  5
3B9E
330
9
100
AcDbSymbolTableRecord
100
AcDbRegAppTableRecord
  2
GENIUS_GENOBJ-N-CRS_13
 70
     0
  0
APPID
  5
3B9F
330
9
100
AcDbSymbolTableRecord
100
AcDbRegAppTableRecord
  2
GENIUS_GENOREF_13
 70
     0
  0
APPID
  5
4172
330
9
100
AcDbSymbolTableRecord
100
AcDbRegAppTableRecord
  2
GEVID1116554186
 70
     0
  0
APPID
  5
462D
330
9
100
AcDbSymbolTableRecord
100
AcDbRegAppTableRecord
  2
GENIUS_GENDIMSH_14
 70
     0
  0
ENDTAB
  0
TABLE
  2
DIMSTYLE
  5
A
330
0
100
AcDbSymbolTable
 70
    10
100
AcDbDimStyleTable
 71
     2
340
6B
340
75
  0
DIMSTYLE
105
6B
330
A
100
AcDbSymbolTableRecord
100
AcDbDimStyleTableRecord
  2
AM_ISO
 70
     0
  4
"
 41
3.0
 42
1.0
 43
8.0
 44
1.5
 47
0.1
 48
0.1
 73
     0
 74
     0
 77
     1
 78
     8
 79
     2
140
3.5
141
3.0
143
0.0393701
146
0.71
147
0.8
172
     1
176
   256
177
   256
178
   256
271
     2
272
     2
283
     0
284
     8
340
11
371
    -1
372
    -1
  0
DIMSTYLE
105
6C
330
A
100
AcDbSymbolTableRecord
100
AcDbDimStyleTableRecord
  2
AM_ISO$3
 70
     0
  4
"
 41
3.0
 42
1.0
 43
8.0
 44
1.5
 47
0.1
 48
0.1
 73
     0
 77
     1
 78
     8
 79
     2
140
3.5
141
3.0
143
0.0393701
146
0.71
147
0.8
176
   256
177
   256
178
   256
271
     2
272
     2
283
     0
284
     8
288
     1
289
     0
340
11
371
    -1
372
    -1
  0
DIMSTYLE
105
6D
330
A
100
AcDbSymbolTableRecord
100
AcDbDimStyleTableRecord
  2
AM_ISO$4
 70
     0
  4
"
 41
3.0
 42
1.0
 43
8.0
 44
1.5
 47
0.1
 48
0.1
 73
     0
 77
     1
 78
     8
 79
     2
140
3.5
141
3.0
143
0.0393701
146
0.71
147
0.8
176
   256
177
   256
178
   256
271
     2
272
     2
283
     0
284
     8
288
     1
289
     0
340
11
371
    -1
372
    -1
  0
DIMSTYLE
105
6E
330
A
100
AcDbSymbolTableRecord
100
AcDbDimStyleTableRecord
  2
AM_ISO$6
 70
     0
  4
"
 41
3.0
 42
1.0
 43
8.0
 44
1.5
 47
0.1
 48
0.1
 73
     0
 74
     0
 78
     8
 79
     2
140
3.5
141
3.0
143
0.0393701
146
0.71
147
0.8
172
     1
176
   256
177
   256
178
   256
271
     2
272
     2
283
     0
284
     8
340
11
371
    -1
372
    -1
  0
DIMSTYLE
105
6F
330
A
100
AcDbSymbolTableRecord
100
AcDbDimStyleTableRecord
  2
AM_ISO$7
 70
     0
  4
"
 41
3.0
 42
1.0
 43
8.0
 44
1.5
 47
0.1
 48
0.1
 73
     0
 74
     0
 77
     1
 78
     8
 79
     2
140
5.0
141
3.0
143
0.0393701
146
0.71
147
0.8
172
     1
176
   256
177
   256
178
   256
271
     2
272
     2
283
     0
284
     8
340
11
371
    -1
372
    -1
  0
DIMSTYLE
105
70
330
A
100
AcDbSymbolTableRecord
100
AcDbDimStyleTableRecord
  2
AM_ISO$SF
 70
     0
  4
"
 41
2.5
 42
1.0
 43
10.0
 44
1.0
 47
0.1
 48
0.1
 73
     0
 74
     0
 75
     1
 76
     1
 77
     1
 78
     8
 79
     2
140
3.5
141
0.0
143
0.0393701
146
0.71
147
1.5
172
     1
176
   256
177
   256
178
     2
271
     2
272
     3
274
     4
283
     0
284
     8
340
11
371
    -1
372
    -1
  0
DIMSTYLE
105
75
330
A
100
AcDbSymbolTableRecord
100
AcDbDimStyleTableRecord
  2
AM_ISO$SH
 70
     0
  4
"
 41
2.5
 42
1.0
 43
10.0
 44
1.0
 47
0.1
 48
0.1
 73
     0
 74
     0
 75
     1
 76
     1
 77
     1
 78
     8
 79
     2
140
3.5
141
0.0
143
0.0393701
144
2.0
146
0.71
147
1.5
172
     1
173
     1
176
   256
177
   256
178
     2
271
     2
272
     3
274
     4
283
     0
284
     8
340
11
343
71
371
    -1
372
    -1
  0
DIMSTYLE
105
AAA
102
{ACAD_REACTORS
330
4B47
330
4B6D
330
4B93
330
4BB9
330
4BDF
330
4C05
330
4C2F
330
4F08
102
}
330
A
100
AcDbSymbolTableRecord
100
AcDbDimStyleTableRecord
  2
AM_ISO$0
 70
     0
  4
"
 41
3.0
 42
1.0
 43
8.0
 44
1.5
 47
0.1
 48
0.1000000001
 73
     0
 74
     0
 77
     1
 78
     8
 79
     2
140
3.0
141
0.0
143
0.0393701
146
0.71
147
1.0
172
     1
176
   256
177
   256
178
   256
271
     2
272
     2
283
     2
284
     8
340
11
371
    -1
372
    -1
  0
DIMSTYLE
105
157A
330
A
100
AcDbSymbolTableRecord
100
AcDbDimStyleTableRecord
  2
STANDARD
 70
     0
 41
3.0
 42
2.0
 43
8.0
 44
2.0
 73
     0
 74
     0
 77
     1
 78
     8
 79
     2
140
3.0
141
5.0
147
1.0
176
   256
177
   256
178
   256
271
     2
272
     2
279
     2
284
     8
285
     8
286
     8
340
1360
  0
ENDTAB
  0
TABLE
  2
BLOCK_RECORD
  5
1
330
0
100
AcDbSymbolTable
 70
    16
  0
BLOCK_RECORD
  5
1F
102
{ACAD_XDICTIONARY
360
7D
102
}
330
1
100
AcDbSymbolTableRecord
100
AcDbBlockTableRecord
  2
*Model_Space
340
22
  0
BLOCK_RECORD
  5
1B
330
1
100
AcDbSymbolTableRecord
100
AcDbBlockTableRecord
  2
*Paper_Space
340
1E
  0
BLOCK_RECORD
  5
23
330
1
100
AcDbSymbolTableRecord
100
AcDbBlockTableRecord
  2
*Paper_Space0
340
26
  0
BLOCK_RECORD
  5
71
330
1
100
AcDbSymbolTableRecord
100
AcDbBlockTableRecord
  2
GENAXEH
340
0
  0
BLOCK_RECORD
  5
3211
330
1
100
AcDbSymbolTableRecord
100
AcDbBlockTableRecord
  2
*U4
340
0
  0
BLOCK_RECORD
  5
4B48
330
1
100
AcDbSymbolTableRecord
100
AcDbBlockTableRecord
  2
*D5
340
0
  0
BLOCK_RECORD
  5
4B6E
330
1
100
AcDbSymbolTableRecord
100
AcDbBlockTableRecord
  2
*D6
340
0
  0
BLOCK_RECORD
  5
4B94
330
1
100
AcDbSymbolTableRecord
100
AcDbBlockTableRecord
  2
*D7
340
0
  0
BLOCK_RECORD
  5
4BBA
330
1
100
AcDbSymbolTableRecord
100
AcDbBlockTableRecord
  2
*D8
340
0
  0
BLOCK_RECORD
  5
4BE0
330
1
100
AcDbSymbolTableRecord
100
AcDbBlockTableRecord
  2
*D9
340
0
  0
BLOCK_RECORD
  5
4C06
330
1
100
AcDbSymbolTableRecord
100
AcDbBlockTableRecord
  2
*D10
340
0
  0
BLOCK_RECORD
  5
4C30
330
1
100
AcDbSymbolTableRecord
100
AcDbBlockTableRecord
  2
*D11
340
0
  0
BLOCK_RECORD
  5
4F09
330
1
100
AcDbSymbolTableRecord
100
AcDbBlockTableRecord
  2
*D12
340
0
  0
BLOCK_RECORD
  5
50F0
330
1
100
AcDbSymbolTableRecord
100
AcDbBlockTableRecord
  2
*S14
340
0
  0
BLOCK_RECORD
  5
50F8
330
1
100
AcDbSymbolTableRecord
100
AcDbBlockTableRecord
  2
*S15
340
0
  0
ENDTAB
  0
ENDSEC
  0
SECTION
  2
BLOCKS
  0
BLOCK
  5
20
330
1F
100
AcDbEntity
  8
0
100
AcDbBlockBegin
  2
*Model_Space
 70
     0
 10
0.0
 20
0.0
 30
0.0
  3
*Model_Space
  1

  0
ENDBLK
  5
21
330
1F
100
AcDbEntity
  8
0
100
AcDbBlockEnd
  0
BLOCK
  5
1C
330
1B
100
AcDbEntity
 67
     1
  8
0
100
AcDbBlockBegin
  2
*Paper_Space
 70
     0
 10
0.0
 20
0.0
 30
0.0
  3
*Paper_Space
  1

  0
ENDBLK
  5
1D
330
1B
100
AcDbEntity
 67
     1
  8
0
100
AcDbBlockEnd
  0
BLOCK
  5
24
330
23
100
AcDbEntity
  8
0
100
AcDbBlockBegin
  2
*Paper_Space0
 70
     0
 10
0.0
 20
0.0
 30
0.0
  3
*Paper_Space0
  1

  0
ENDBLK
  5
25
330
23
100
AcDbEntity
  8
0
100
AcDbBlockEnd
  0
BLOCK
  5
73
330
71
100
AcDbEntity
  8
0
100
AcDbBlockBegin
  2
GENAXEH
 70
     0
 10
0.0
 20
0.0
 30
0.0
  3
GENAXEH
  1

  0
LINE
  5
72
330
71
100
AcDbEntity
  8
0
100
AcDbLine
 10
-1.0
 20
0.0
 30
0.0
 11
1.0
 21
0.0
 31
0.0
  0
ENDBLK
  5
74
330
71
100
AcDbEntity
  8
0
100
AcDbBlockEnd
  0
BLOCK
  5
3212
330
3211
100
AcDbEntity
  8
0
100
AcDbBlockBegin
  2
*U4
 70
     1
 10
0.0
 20
0.0
 30
0.0
  3
*U4
  1

  0
ENDBLK
  5
3213
330
3211
100
AcDbEntity
  8
0
100
AcDbBlockEnd
  0
BLOCK
  5
4B52
330
4B48
100
AcDbEntity
  8
0
100
AcDbBlockBegin
  2
*D5
 70
     1
 10
0.0
 20
0.0
 30
0.0
  3
*D5
  1

  0
LINE
  5
501D
330
4B48
100
AcDbEntity
  8
AM_5
100
AcDbLine
 10
132.7938575288395
 20
139.2992091610631
 30
0.0
 11
132.7938575288395
 21
126.9492091610632
 31
0.0
  0
LINE
  5
501E
330
4B48
100
AcDbEntity
  8
AM_5
100
AcDbLine
 10
158.7938575288395
 20
139.2992091610631
 30
0.0
 11
158.7938575288395
 21
126.9492091610632
 31
0.0
  0
LINE
  5
501F
330
4B48
100
AcDbEntity
  8
AM_5
100
AcDbLine
 10
135.7938575288395
 20
128.4492091610632
 30
0.0
 11
155.7938575288395
 21
128.4492091610632
 31
0.0
  0
SOLID
  5
5020
330
4B48
100
AcDbEntity
  8
AM_5
100
AcDbTrace
 10
135.7938575288395
 20
128.9492091610632
 30
0.0
 11
135.7938575288395
 21
127.9492091610632
 31
0.0
 12
132.7938575288395
 22
128.4492091610632
 32
0.0
 13
132.7938575288395
 23
128.4492091610632
 33
0.0
  0
SOLID
  5
5021
330
4B48
100
AcDbEntity
  8
AM_5
100
AcDbTrace
 10
155.7938575288395
 20
128.9492091610632
 30
0.0
 11
155.7938575288395
 21
127.9492091610632
 31
0.0
 12
158.7938575288395
 22
128.4492091610632
 32
0.0
 13
158.7938575288395
 23
128.4492091610632
 33
0.0
  0
MTEXT
  5
5022
330
4B48
100
AcDbEntity
  8
AM_5
100
AcDbMText
 10
145.7938575288395
 20
130.9495044366537
 30
0.0
 40
3.0
 41
0.0
 71
     5
 72
     1
  1
\A2;26
 73
     1
 44
1.0
1001
ACAD
1000
MTEXTBEGIN
1070
    73
1070
     1
1070
    44
1040
1.0
1070
    74
1070
     0
1000
MTEXTEND
  0
POINT
  5
5023
330
4B48
100
AcDbEntity
  8
Defpoints
 62
     0
100
AcDbPoint
 10
132.7938575288395
 20
140.2992091610631
 30
0.0
  0
POINT
  5
5024
330
4B48
100
AcDbEntity
  8
Defpoints
 62
     0
100
AcDbPoint
 10
158.7938575288395
 20
140.2992091610631
 30
0.0
  0
POINT
  5
5025
330
4B48
100
AcDbEntity
  8
Defpoints
 62
     0
100
AcDbPoint
 10
158.7938575288395
 20
128.4492091610632
 30
0.0
  0
ENDBLK
  5
4B53
330
4B48
100
AcDbEntity
  8
0
100
AcDbBlockEnd
  0
BLOCK
  5
4B78
330
4B6E
100
AcDbEntity
  8
0
100
AcDbBlockBegin
  2
*D6
 70
     1
 10
0.0
 20
0.0
 30
0.0
  3
*D6
  1

  0
LINE
  5
5026
330
4B6E
100
AcDbEntity
  8
AM_5
100
AcDbLine
 10
112.7938575288395
 20
139.4492091610631
 30
0.0
 11
112.7938575288395
 21
118.9492091610632
 31
0.0
  0
LINE
  5
5027
330
4B6E
100
AcDbEntity
  8
AM_5
100
AcDbLine
 10
178.7938575288395
 20
139.4492091610631
 30
0.0
 11
178.7938575288395
 21
118.9492091610632
 31
0.0
  0
LINE
  5
5028
330
4B6E
100
AcDbEntity
  8
AM_5
100
AcDbLine
 10
115.7938575288395
 20
120.4492091610632
 30
0.0
 11
175.7938575288395
 21
120.4492091610632
 31
0.0
  0
SOLID
  5
5029
330
4B6E
100
AcDbEntity
  8
AM_5
100
AcDbTrace
 10
115.7938575288395
 20
120.9492091610632
 30
0.0
 11
115.7938575288395
 21
119.9492091610632
 31
0.0
 12
112.7938575288395
 22
120.4492091610632
 32
0.0
 13
112.7938575288395
 23
120.4492091610632
 33
0.0
  0
SOLID
  5
502A
330
4B6E
100
AcDbEntity
  8
AM_5
100
AcDbTrace
 10
175.7938575288395
 20
120.9492091610632
 30
0.0
 11
175.7938575288395
 21
119.9492091610632
 31
0.0
 12
178.7938575288395
 22
120.4492091610632
 32
0.0
 13
178.7938575288395
 23
120.4492091610632
 33
0.0
  0
MTEXT
  5
502B
330
4B6E
100
AcDbEntity
  8
AM_5
100
AcDbMText
 10
145.7938575288395
 20
122.9492091610632
 30
0.0
 40
3.0
 41
0.0
 71
     5
 72
     1
  1
\A2;66
 73
     1
 44
1.0
1001
ACAD
1000
MTEXTBEGIN
1070
    73
1070
     1
1070
    44
1040
1.0
1070
    74
1070
     0
1000
MTEXTEND
  0
POINT
  5
502C
330
4B6E
100
AcDbEntity
  8
Defpoints
 62
     0
100
AcDbPoint
 10
112.7938575288395
 20
140.4492091610631
 30
0.0
  0
POINT
  5
502D
330
4B6E
100
AcDbEntity
  8
Defpoints
 62
     0
100
AcDbPoint
 10
178.7938575288395
 20
140.4492091610631
 30
0.0
  0
POINT
  5
502E
330
4B6E
100
AcDbEntity
  8
Defpoints
 62
     0
100
AcDbPoint
 10
178.7938575288395
 20
120.4492091610632
 30
0.0
  0
ENDBLK
  5
4B79
330
4B6E
100
AcDbEntity
  8
0
100
AcDbBlockEnd
  0
BLOCK
  5
4B9E
330
4B94
100
AcDbEntity
  8
0
100
AcDbBlockBegin
  2
*D7
 70
     1
 10
0.0
 20
0.0
 30
0.0
  3
*D7
  1

  0
LINE
  5
502F
330
4B94
100
AcDbEntity
  8
AM_5
100
AcDbLine
 10
179.7938575288395
 20
140.4492091610631
 30
0.0
 11
192.2938575288395
 21
140.4492091610631
 31
0.0
  0
LINE
  5
5030
330
4B94
100
AcDbEntity
  8
AM_5
100
AcDbLine
 10
171.4438575288395
 20
151.9492091610631
 30
0.0
 11
192.2938575288395
 21
151.9492091610631
 31
0.0
  0
LINE
  5
5031
330
4B94
100
AcDbEntity
  8
AM_5
100
AcDbLine
 10
190.7938575288395
 20
143.4492091610631
 30
0.0
 11
190.7938575288395
 21
148.9492091610631
 31
0.0
  0
SOLID
  5
5032
330
4B94
100
AcDbEntity
  8
AM_5
100
AcDbTrace
 10
190.2938575288395
 20
143.4492091610631
 30
0.0
 11
191.2938575288395
 21
143.4492091610631
 31
0.0
 12
190.7938575288395
 22
140.4492091610631
 32
0.0
 13
190.7938575288395
 23
140.4492091610631
 33
0.0
  0
SOLID
  5
5033
330
4B94
100
AcDbEntity
  8
AM_5
100
AcDbTrace
 10
190.2938575288395
 20
148.9492091610631
 30
0.0
 11
191.2938575288395
 21
148.9492091610631
 31
0.0
 12
190.7938575288395
 22
151.9492091610631
 32
0.0
 13
190.7938575288395
 23
151.9492091610631
 33
0.0
  0
MTEXT
  5
5034
330
4B94
100
AcDbEntity
  8
AM_5
100
AcDbMText
 10
188.2938575288395
 20
146.1992091610632
 30
0.0
 40
3.0
 41
0.0
 71
     5
 72
     1
  1
\A2;11.5
 11
0.0000000000000001
 21
1.0
 31
0.0
 73
     1
 44
1.0
1001
ACAD
1000
MTEXTBEGIN
1070
    73
1070
     1
1070
    44
1040
1.0
1070
    74
1070
     0
1000
MTEXTEND
  0
POINT
  5
5035
330
4B94
100
AcDbEntity
  8
Defpoints
 62
     0
100
AcDbPoint
 10
178.7938575288395
 20
140.4492091610631
 30
0.0
  0
POINT
  5
5036
330
4B94
100
AcDbEntity
  8
Defpoints
 62
     0
100
AcDbPoint
 10
170.4438575288395
 20
151.9492091610631
 30
0.0
  0
POINT
  5
5037
330
4B94
100
AcDbEntity
  8
Defpoints
 62
     0
100
AcDbPoint
 10
190.7938575288395
 20
151.9492091610631
 30
0.0
  0
ENDBLK
  5
4B9F
330
4B94
100
AcDbEntity
  8
0
100
AcDbBlockEnd
  0
BLOCK
  5
4BC4
330
4BBA
100
AcDbEntity
  8
0
100
AcDbBlockBegin
  2
*D8
 70
     1
 10
0.0
 20
0.0
 30
0.0
  3
*D8
  1

  0
LINE
  5
5038
330
4BBA
100
AcDbEntity
  8
AM_5
100
AcDbLine
 10
179.7938575288395
 20
140.4492091610631
 30
0.0
 11
200.2938575288396
 21
140.4492091610631
 31
0.0
  0
LINE
  5
5039
330
4BBA
100
AcDbEntity
  8
AM_5
100
AcDbLine
 10
179.7938575288395
 20
167.4492091610631
 30
0.0
 11
200.2938575288396
 21
167.4492091610631
 31
0.0
  0
LINE
  5
503A
330
4BBA
100
AcDbEntity
  8
AM_5
100
AcDbLine
 10
198.7938575288396
 20
143.4492091610631
 30
0.0
 11
198.7938575288396
 21
164.4492091610631
 31
0.0
  0
SOLID
  5
503B
330
4BBA
100
AcDbEntity
  8
AM_5
100
AcDbTrace
 10
198.2938575288395
 20
143.4492091610631
 30
0.0
 11
199.2938575288395
 21
143.4492091610631
 31
0.0
 12
198.7938575288396
 22
140.4492091610631
 32
0.0
 13
198.7938575288396
 23
140.4492091610631
 33
0.0
  0
SOLID
  5
503C
330
4BBA
100
AcDbEntity
  8
AM_5
100
AcDbTrace
 10
198.2938575288395
 20
164.4492091610631
 30
0.0
 11
199.2938575288395
 21
164.4492091610631
 31
0.0
 12
198.7938575288396
 22
167.4492091610631
 32
0.0
 13
198.7938575288396
 23
167.4492091610631
 33
0.0
  0
MTEXT
  5
503D
330
4BBA
100
AcDbEntity
  8
AM_5
100
AcDbMText
 10
196.293562253249
 20
153.9492091610632
 30
0.0
 40
3.0
 41
0.0
 71
     5
 72
     1
  1
\A2;27
 11
0.0000000000000001
 21
1.0
 31
0.0
 73
     1
 44
1.0
1001
ACAD
1000
MTEXTBEGIN
1070
    73
1070
     1
1070
    44
1040
1.0
1070
    74
1070
     0
1000
MTEXTEND
  0
POINT
  5
503E
330
4BBA
100
AcDbEntity
  8
Defpoints
 62
     0
100
AcDbPoint
 10
178.7938575288395
 20
140.4492091610631
 30
0.0
  0
POINT
  5
503F
330
4BBA
100
AcDbEntity
  8
Defpoints
 62
     0
100
AcDbPoint
 10
178.7938575288395
 20
167.4492091610631
 30
0.0
  0
POINT
  5
5040
330
4BBA
100
AcDbEntity
  8
Defpoints
 62
     0
100
AcDbPoint
 10
198.7938575288396
 20
167.4492091610631
 30
0.0
  0
ENDBLK
  5
4BC5
330
4BBA
100
AcDbEntity
  8
0
100
AcDbBlockEnd
  0
BLOCK
  5
4BEA
330
4BE0
100
AcDbEntity
  8
0
100
AcDbBlockBegin
  2
*D9
 70
     1
 10
0.0
 20
0.0
 30
0.0
  3
*D9
  1

  0
LINE
  5
506B
330
4BE0
100
AcDbEntity
  8
AM_5
100
AcDbLine
 10
118.2938575288395
 20
196.4657098106663
 30
0.0
 11
118.2938575288395
 21
182.8157098106663
 31
0.0
  0
LINE
  5
506C
330
4BE0
100
AcDbEntity
  8
AM_5
100
AcDbLine
 10
173.2938575288395
 20
196.4657098106663
 30
0.0
 11
173.2938575288395
 21
182.8157098106663
 31
0.0
  0
LINE
  5
506D
330
4BE0
100
AcDbEntity
  8
AM_5
100
AcDbLine
 10
121.2938575288395
 20
184.3157098106663
 30
0.0
 11
170.2938575288395
 21
184.3157098106663
 31
0.0
  0
SOLID
  5
506E
330
4BE0
100
AcDbEntity
  8
AM_5
100
AcDbTrace
 10
121.2938575288395
 20
184.8157098106663
 30
0.0
 11
121.2938575288395
 21
183.8157098106663
 31
0.0
 12
118.2938575288395
 22
184.3157098106663
 32
0.0
 13
118.2938575288395
 23
184.3157098106663
 33
0.0
  0
SOLID
  5
506F
330
4BE0
100
AcDbEntity
  8
AM_5
100
AcDbTrace
 10
170.2938575288395
 20
184.8157098106663
 30
0.0
 11
170.2938575288395
 21
183.8157098106663
 31
0.0
 12
173.2938575288395
 22
184.3157098106663
 32
0.0
 13
173.2938575288395
 23
184.3157098106663
 33
0.0
  0
MTEXT
  5
5070
330
4BE0
100
AcDbEntity
  8
AM_5
100
AcDbMText
 10
145.7938575288395
 20
186.8157098106663
 30
0.0
 40
3.0
 41
0.0
 71
     5
 72
     1
  1
\A2;55
 73
     1
 44
1.0
1001
ACAD
1000
MTEXTBEGIN
1070
    73
1070
     1
1070
    44
1040
1.0
1070
    74
1070
     0
1000
MTEXTEND
  0
POINT
  5
5071
330
4BE0
100
AcDbEntity
  8
Defpoints
 62
     0
100
AcDbPoint
 10
118.2938575288395
 20
197.4657098106663
 30
0.0
  0
POINT
  5
5072
330
4BE0
100
AcDbEntity
  8
Defpoints
 62
     0
100
AcDbPoint
 10
173.2938575288395
 20
197.4657098106663
 30
0.0
  0
POINT
  5
5073
330
4BE0
100
AcDbEntity
  8
Defpoints
 62
     0
100
AcDbPoint
 10
173.2938575288395
 20
184.3157098106663
 30
0.0
  0
ENDBLK
  5
4BEB
330
4BE0
100
AcDbEntity
  8
0
100
AcDbBlockEnd
  0
BLOCK
  5
4C12
330
4C06
100
AcDbEntity
  8
0
100
AcDbBlockBegin
  2
*D10
 70
     1
 10
0.0
 20
0.0
 30
0.0
  3
*D10
  1

  0
LINE
  5
5074
330
4C06
100
AcDbEntity
  8
AM_5
100
AcDbLine
 10
179.7938575288395
 20
196.3157098106663
 30
0.0
 11
194.9203162834269
 21
196.3157098106663
 31
0.0
  0
LINE
  5
5075
330
4C06
100
AcDbEntity
  8
AM_5
100
AcDbLine
 10
178.1438575288396
 20
201.3157098106663
 30
0.0
 11
194.9203162834269
 21
201.3157098106663
 31
0.0
  0
LINE
  5
5076
330
4C06
100
AcDbEntity
  8
AM_5
100
AcDbLine
 10
193.4203162834269
 20
193.3157098106662
 30
0.0
 11
193.4203162834269
 21
190.3157098106662
 31
0.0
  0
LINE
  5
5077
330
4C06
100
AcDbEntity
  8
AM_5
100
AcDbLine
 10
193.4203162834269
 20
204.3157098106663
 30
0.0
 11
193.4203162834269
 21
207.3157098106663
 31
0.0
  0
LINE
  5
5078
330
4C06
100
AcDbEntity
  8
AM_5
100
AcDbLine
 10
193.4203162834269
 20
196.3157098106663
 30
0.0
 11
193.4203162834269
 21
201.3157098106663
 31
0.0
  0
SOLID
  5
5079
330
4C06
100
AcDbEntity
  8
AM_5
100
AcDbTrace
 10
192.9203162834269
 20
193.3157098106662
 30
0.0
 11
193.9203162834269
 21
193.3157098106662
 31
0.0
 12
193.4203162834269
 22
196.3157098106663
 32
0.0
 13
193.4203162834269
 23
196.3157098106663
 33
0.0
  0
SOLID
  5
507A
330
4C06
100
AcDbEntity
  8
AM_5
100
AcDbTrace
 10
192.9203162834269
 20
204.3157098106663
 30
0.0
 11
193.9203162834269
 21
204.3157098106663
 31
0.0
 12
193.4203162834269
 22
201.3157098106663
 32
0.0
 13
193.4203162834269
 23
201.3157098106663
 33
0.0
  0
MTEXT
  5
507B
330
4C06
100
AcDbEntity
  8
AM_5
100
AcDbMText
 10
190.9203162834268
 20
198.8157098106663
 30
0.0
 40
3.0
 41
0.0
 71
     5
 72
     1
  1
\A2;5
 11
0.0000000000000001
 21
1.0
 31
0.0
 73
     1
 44
1.0
1001
ACAD
1000
MTEXTBEGIN
1070
    73
1070
     1
1070
    44
1040
1.0
1070
    74
1070
     0
1000
MTEXTEND
  0
POINT
  5
507C
330
4C06
100
AcDbEntity
  8
Defpoints
 62
     0
100
AcDbPoint
 10
178.7938575288395
 20
196.3157098106663
 30
0.0
  0
POINT
  5
507D
330
4C06
100
AcDbEntity
  8
Defpoints
 62
     0
100
AcDbPoint
 10
177.1438575288396
 20
201.3157098106663
 30
0.0
  0
POINT
  5
507E
330
4C06
100
AcDbEntity
  8
Defpoints
 62
     0
100
AcDbPoint
 10
193.4203162834269
 20
201.3157098106663
 30
0.0
  0
ENDBLK
  5
4C13
330
4C06
100
AcDbEntity
  8
0
100
AcDbBlockEnd
  0
BLOCK
  5
4C3C
330
4C30
100
AcDbEntity
  8
0
100
AcDbBlockBegin
  2
*D11
 70
     1
 10
0.0
 20
0.0
 30
0.0
  3
*D11
  1

  0
LINE
  5
507F
330
4C30
100
AcDbEntity
  8
AM_5
100
AcDbLine
 10
178.1438575288396
 20
272.3157098106663
 30
0.0
 11
192.2938575288395
 21
272.3157098106663
 31
0.0
  0
LINE
  5
5080
330
4C30
100
AcDbEntity
  8
AM_5
100
AcDbLine
 10
179.7938575288395
 20
277.3157098106663
 30
0.0
 11
192.2938575288395
 21
277.3157098106663
 31
0.0
  0
LINE
  5
5081
330
4C30
100
AcDbEntity
  8
AM_5
100
AcDbLine
 10
190.7938575288395
 20
269.3157098106663
 30
0.0
 11
190.7938575288395
 21
266.3157098106663
 31
0.0
  0
LINE
  5
5082
330
4C30
100
AcDbEntity
  8
AM_5
100
AcDbLine
 10
190.7938575288395
 20
280.3157098106663
 30
0.0
 11
190.7938575288395
 21
283.3157098106663
 31
0.0
  0
LINE
  5
5083
330
4C30
100
AcDbEntity
  8
AM_5
100
AcDbLine
 10
190.7938575288395
 20
272.3157098106663
 30
0.0
 11
190.7938575288395
 21
277.3157098106663
 31
0.0
  0
SOLID
  5
5084
330
4C30
100
AcDbEntity
  8
AM_5
100
AcDbTrace
 10
190.2938575288395
 20
269.3157098106663
 30
0.0
 11
191.2938575288395
 21
269.3157098106663
 31
0.0
 12
190.7938575288395
 22
272.3157098106663
 32
0.0
 13
190.7938575288395
 23
272.3157098106663
 33
0.0
  0
SOLID
  5
5085
330
4C30
100
AcDbEntity
  8
AM_5
100
AcDbTrace
 10
190.2938575288395
 20
280.3157098106663
 30
0.0
 11
191.2938575288395
 21
280.3157098106663
 31
0.0
 12
190.7938575288395
 22
277.3157098106663
 32
0.0
 13
190.7938575288395
 23
277.3157098106663
 33
0.0
  0
MTEXT
  5
5086
330
4C30
100
AcDbEntity
  8
AM_5
100
AcDbMText
 10
188.2938575288395
 20
274.8157098106664
 30
0.0
 40
3.0
 41
0.0
 71
     5
 72
     1
  1
\A2;5
 11
0.0000000000000001
 21
1.0
 31
0.0
 73
     1
 44
1.0
1001
ACAD
1000
MTEXTBEGIN
1070
    73
1070
     1
1070
    44
1040
1.0
1070
    74
1070
     0
1000
MTEXTEND
  0
POINT
  5
5087
330
4C30
100
AcDbEntity
  8
Defpoints
 62
     0
100
AcDbPoint
 10
177.1438575288396
 20
272.3157098106663
 30
0.0
  0
POINT
  5
5088
330
4C30
100
AcDbEntity
  8
Defpoints
 62
     0
100
AcDbPoint
 10
178.7938575288395
 20
277.3157098106663
 30
0.0
  0
POINT
  5
5089
330
4C30
100
AcDbEntity
  8
Defpoints
 62
     0
100
AcDbPoint
 10
190.7938575288395
 20
277.3157098106663
 30
0.0
  0
ENDBLK
  5
4C3D
330
4C30
100
AcDbEntity
  8
0
100
AcDbBlockEnd
  0
BLOCK
  5
4F13
330
4F09
100
AcDbEntity
  8
0
100
AcDbBlockBegin
  2
*D12
 70
     1
 10
0.0
 20
0.0
 30
0.0
  3
*D12
  1

  0
LINE
  5
5060
330
4F09
100
AcDbEntity
  8
AM_5
100
AcDbLine
 10
112.7938575288395
 20
139.4492091610631
 30
0.0
 11
112.7938575288395
 21
126.949208161063
 31
0.0
  0
LINE
  5
5061
330
4F09
100
AcDbEntity
  8
AM_5
100
AcDbLine
 10
132.7938575288395
 20
139.2992091610631
 30
0.0
 11
132.7938575288395
 21
126.949208161063
 31
0.0
  0
LINE
  5
5062
330
4F09
100
AcDbEntity
  8
AM_5
100
AcDbLine
 10
115.7938575288395
 20
128.449208161063
 30
0.0
 11
129.7938575288395
 21
128.449208161063
 31
0.0
  0
SOLID
  5
5063
330
4F09
100
AcDbEntity
  8
AM_5
100
AcDbTrace
 10
115.7938575288395
 20
128.9492081610631
 30
0.0
 11
115.7938575288395
 21
127.949208161063
 31
0.0
 12
112.7938575288395
 22
128.449208161063
 32
0.0
 13
112.7938575288395
 23
128.449208161063
 33
0.0
  0
SOLID
  5
5064
330
4F09
100
AcDbEntity
  8
AM_5
100
AcDbTrace
 10
129.7938575288395
 20
128.9492081610631
 30
0.0
 11
129.7938575288395
 21
127.949208161063
 31
0.0
 12
132.7938575288395
 22
128.449208161063
 32
0.0
 13
132.7938575288395
 23
128.449208161063
 33
0.0
  0
MTEXT
  5
5065
330
4F09
100
AcDbEntity
  8
AM_5
100
AcDbMText
 10
122.7938575288396
 20
130.9495034366536
 30
0.0
 40
3.0
 41
0.0
 71
     5
 72
     1
  1
\A2;20
 73
     1
 44
1.0
1001
ACAD
1000
MTEXTBEGIN
1070
    73
1070
     1
1070
    44
1040
1.0
1070
    74
1070
     0
1000
MTEXTEND
  0
POINT
  5
5066
330
4F09
100
AcDbEntity
  8
Defpoints
 62
     0
100
AcDbPoint
 10
112.7938575288395
 20
140.4492091610631
 30
0.0
  0
POINT
  5
5067
330
4F09
100
AcDbEntity
  8
Defpoints
 62
     0
100
AcDbPoint
 10
132.7938575288395
 20
140.2992091610631
 30
0.0
  0
POINT
  5
5068
330
4F09
100
AcDbEntity
  8
Defpoints
 62
     0
100
AcDbPoint
 10
132.7938575288395
 20
128.449208161063
 30
0.0
  0
ENDBLK
  5
4F14
330
4F09
100
AcDbEntity
  8
0
100
AcDbBlockEnd
  0
BLOCK
  5
50F5
330
50F0
100
AcDbEntity
  8
0
100
AcDbBlockBegin
  2
*S14
 70
     1
 10
0.0
 20
0.0
 30
0.0
  3
*S14
  1

  0
LINE
  5
50F1
330
50F0
100
AcDbEntity
  8
AM_5
 62
     5
100
AcDbLine
 10
195.8685587413522
 20
184.1707455814066
 30
0.0
 11
182.1256789202795
 21
184.1707455814066
 31
0.0
  0
LINE
  5
50F2
330
50F0
100
AcDbEntity
  8
AM_5
 62
     5
100
AcDbLine
 10
182.1256789202795
 20
184.1707455814066
 30
0.0
 11
176.3628979317035
 21
196.4275771971032
 31
0.0
  0
TRACE
  5
50F3
330
50F0
100
AcDbEntity
  8
AM_5
 62
     5
370
    35
100
AcDbTrace
 10
176.7798910210739
 20
196.6236343775506
 30
0.0
 11
175.9459048423331
 21
196.2315200166559
 31
0.0
 12
174.873695790347
 22
199.5949541847981
 32
0.0
 13
174.873695790347
 23
199.5949541847981
 33
0.0
  0
MTEXT
  5
50F4
330
50F0
100
AcDbEntity
  8
AM_5
 62
     2
100
AcDbMText
 10
195.8685587413522
 20
182.2374502793503
 30
0.0
 40
3.5
 41
0.0
 71
     9
 72
     5
  1

  7
ACISOTS
210
0.0
220
0.0
230
-1.0
 11
-1.0
 21
0.0
 31
0.0
 73
     1
 44
1.0
1001
ACAD
1000
MTEXTBEGIN
1070
    73
1070
     1
1070
    44
1040
1.0
1070
    74
1070
     0
1000
MTEXTEND
  0
ENDBLK
  5
50F6
330
50F0
100
AcDbEntity
  8
0
100
AcDbBlockEnd
  0
BLOCK
  5
50FD
330
50F8
100
AcDbEntity
  8
0
100
AcDbBlockBegin
  2
*S15
 70
     1
 10
0.0
 20
0.0
 30
0.0
  3
*S15
  1

  0
LINE
  5
50F9
330
50F8
100
AcDbEntity
  8
AM_5
 62
     5
100
AcDbLine
 10
202.5046462845498
 20
129.9541926262941
 30
0.0
 11
186.1678078515885
 21
129.9541926262941
 31
0.0
  0
LINE
  5
50FA
330
50F8
100
AcDbEntity
  8
AM_5
 62
     5
100
AcDbLine
 10
186.1678078515885
 20
129.9541926262941
 30
0.0
 11
168.4053250862024
 21
144.5174340845114
 31
0.0
  0
TRACE
  5
50FB
330
50F8
100
AcDbEntity
  8
AM_5
 62
     5
370
    35
100
AcDbTrace
 10
168.697474726018
 20
144.8737629249709
 30
0.0
 11
168.1131754463868
 21
144.1611052440519
 31
0.0
 12
165.6987388187235
 22
146.7365309225729
 32
0.0
 13
165.6987388187235
 23
146.7365309225729
 33
0.0
  0
MTEXT
  5
50FC
330
50F8
100
AcDbEntity
  8
AM_5
 62
     2
100
AcDbMText
 10
202.5046462845498
 20
127.5160385514977
 30
0.0
 40
3.5
 41
0.0
 71
     9
 72
     5
  1

  7
ACISOTS
210
0.0
220
0.0
230
-1.0
 11
-1.0
 21
0.0
 31
0.0
 73
     1
 44
1.0
1001
ACAD
1000
MTEXTBEGIN
1070
    73
1070
     1
1070
    44
1040
1.0
1070
    74
1070
     0
1000
MTEXTEND
  0
ENDBLK
  5
50FE
330
50F8
100
AcDbEntity
  8
0
100
AcDbBlockEnd
  0
ENDSEC
  0
SECTION
  2
ENTITIES
  0
TEXT
  5
13F1
330
1F
100
AcDbEntity
  8
LOGO
 62
     7
100
AcDbText
 10
138.7223197280951
 20
96.23662519945316
 30
0.0
 40
2.601209062234176
  1
Order example:
 41
0.8
  7
CHINESET
100
AcDbText
  0
TEXT
  5
13F2
330
1F
100
AcDbEntity
  8
LOGO
 62
     7
100
AcDbText
 10
139.1889981449834
 20
99.89858897187025
 30
0.0
 40
3.901813593351263
  1
訂購代號:
  7
CHINESET
100
AcDbText
  0
LINE
  5
13F3
330
1F
100
AcDbEntity
  8
LOGO
 62
     1
100
AcDbLine
 10
263.9774288408962
 20
104.7832159005303
 30
0.0
 11
94.6721360408962
 21
104.7832159005303
 31
0.0
  0
LINE
  5
13F4
330
1F
100
AcDbEntity
  8
LOGO
 62
     1
100
AcDbLine
 10
263.9774288408962
 20
85.27414793377401
 30
0.0
 11
94.6721360408962
 21
85.27414793377401
 31
0.0
  0
LINE
  5
13F5
330
1F
100
AcDbEntity
  8
LOGO
 62
     1
100
AcDbLine
 10
137.5920855677603
 20
85.27414793377401
 30
0.0
 11
137.5920855677603
 21
104.7832159005303
 31
0.0
  0
LINE
  5
13F6
330
1F
100
AcDbEntity
  8
LOGO
 62
     1
100
AcDbLine
 10
94.6721360408962
 20
85.27414793377401
 30
0.0
 11
94.6721360408962
 21
104.7832159005303
 31
0.0
  0
TEXT
  5
13F7
330
1F
100
AcDbEntity
  8
LOGO
  6
Continuous
 62
     5
100
AcDbText
 10
101.6798809495126
 20
89.10667489409263
 30
0.0
 40
2.926360195013449
  1
金器工業股份有限公司
  7
CHINESET
100
AcDbText
  0
TEXT
  5
13F8
330
1F
100
AcDbEntity
  8
LOGO
  6
Continuous
 62
     5
100
AcDbText
 10
96.30473622308644
 20
86.17974136191655
 30
0.0
 40
1.950906796675631
  1
MINDMAN INDUSTRIAL CO., LTD.
 41
0.85
  7
CHINESET
100
AcDbText
  0
LINE
  5
13F9
330
1F
100
AcDbEntity
  8
LOGO
 62
     1
100
AcDbLine
 10
137.5920855677603
 20
100.8814023071791
 30
0.0
 11
108.9787858831843
 21
100.8814023071791
 31
0.0
  0
LINE
  5
13FA
330
1F
100
AcDbEntity
  8
LOGO
 62
     1
100
AcDbLine
 10
137.5920855677603
 20
96.97958871382779
 30
0.0
 11
108.9787858831843
 21
96.97958871382779
 31
0.0
  0
LINE
  5
13FB
330
1F
100
AcDbEntity
  8
LOGO
 62
     1
100
AcDbLine
 10
137.5920855677603
 20
93.0777751204766
 30
0.0
 11
94.6721360408962
 21
93.0777751204766
 31
0.0
  0
LINE
  5
13FC
330
1F
100
AcDbEntity
  8
LOGO
 62
     1
100
AcDbLine
 10
108.9787858831843
 20
93.0777751204766
 30
0.0
 11
108.9787858831843
 21
104.7832159005303
 31
0.0
  0
TEXT
  5
13FD
330
1F
100
AcDbEntity
  8
LOGO
 62
     6
100
AcDbText
 10
127.512722130255
 20
94.05322851881438
 30
0.0
 40
1.950906796675631
  1
m/m
  7
CHINESET
 72
     1
 11
130.9500341053502
 21
95.0286819171522
 31
0.0
100
AcDbText
 73
     2
  0
TEXT
  5
13FE
330
1F
100
AcDbEntity
  8
LOGO
 62
     6
100
AcDbText
 10
127.512722130255
 20
101.8568557055169
 30
0.0
 40
1.950906796675631
  1
1 : 1
  7
CHINESET
 72
     1
 11
130.9500341053502
 21
102.8323091038547
 31
0.0
100
AcDbText
 73
     2
  0
LINE
  5
13FF
330
1F
100
AcDbEntity
  8
LOGO
 62
     1
100
AcDbLine
 10
124.5860402565892
 20
93.0777751204766
 30
0.0
 11
124.5860402565892
 21
104.7832159005303
 31
0.0
  0
CIRCLE
  5
1400
330
1F
100
AcDbEntity
  8
LOGO
  6
Continuous
 62
     6
100
AcDbCircle
 10
128.198388206199
 20
98.93466851441795
 30
0.0
 40
1.132742405319561
  0
CIRCLE
  5
1401
330
1F
100
AcDbEntity
  8
LOGO
  6
Continuous
 62
     6
100
AcDbCircle
 10
128.198388206199
 20
98.93466851441795
 30
0.0
 40
0.6636867735056013
  0
LINE
  5
1402
330
1F
100
AcDbEntity
  8
LOGO
 62
     6
100
AcDbLine
 10
135.3166729190979
 20
97.80192610909828
 30
0.0
 11
135.3166729190979
 21
100.0674109197375
 31
0.0
  0
LINE
  5
1403
330
1F
100
AcDbEntity
  8
LOGO
 62
     6
100
AcDbLine
 10
131.7655905009374
 20
98.27098174091233
 30
0.0
 11
131.7655905009374
 21
99.59835528792366
 31
0.0
  0
LINE
  5
1404
330
1F
100
AcDbEntity
  8
LOGO
  6
Continuous
 62
     6
100
AcDbLine
 10
131.7655905009374
 20
99.59835528792366
 30
0.0
 11
135.3166729190979
 21
100.0674109197375
 31
0.0
  0
LINE
  5
1405
330
1F
100
AcDbEntity
  8
LOGO
  6
Continuous
 62
     6
100
AcDbLine
 10
131.7655905009374
 20
98.27098174091233
 30
0.0
 11
135.3166729190979
 21
97.80192610909828
 31
0.0
  0
TEXT
  5
1432
330
1F
100
AcDbEntity
  8
LOGO
 62
     6
100
AcDbText
 10
110.5874130499075
 20
101.8578157974444
 30
127.8592175229246
 40
1.950906796675631
  1
比例 Scale:
 41
0.9
  7
CHINESET
 72
     4
 11
116.7824130698869
 21
102.8323091038547
 31
127.8592175229246
100
AcDbText
  0
TEXT
  5
1433
330
1F
100
AcDbEntity
  8
LOGO
 62
     6
100
AcDbText
 10
111.2693594882097
 20
97.98248473975988
 30
127.8592175229246
 40
1.950906796675631
  1
投影 View:
 41
0.9
  7
CHINESET
 72
     4
 11
116.7824130698869
 21
98.93049551050339
 31
127.8592175229246
100
AcDbText
  0
TEXT
  5
1434
330
1F
100
AcDbEntity
  8
LOGO
 62
     6
100
AcDbText
 10
111.4600954652061
 20
94.05322851881438
 30
127.8592175229246
 40
1.950906796675631
  1
單位 Unit:
 41
0.9
  7
CHINESET
 72
     4
 11
116.7824130698869
 21
95.0286819171522
 31
127.8592175229246
100
AcDbText
  0
LWPOLYLINE
  5
143D
330
1F
100
AcDbEntity
  8
0
 62
     4
100
AcDbPolyline
 90
        4
 70
     1
 43
0.0
 10
94.67213604089636
 20
104.7832159005303
 10
263.9774288408962
 20
104.7832159005303
 10
263.9774288408962
 20
318.0689255337741
 10
94.6721360408962
 20
318.0689255337741
1001
GENIUS_GENREC_14
1002
{
1000
PYDIR
1011
94.6721360408962
1021
318.0689255337741
1031
0.0
1002
}
1002
{
1000
PXDIR
1011
263.9774288408962
1021
104.7832159005303
1031
0.0
1002
}
1002
{
1000
PORI
1011
94.67213604089636
1021
104.7832159005303
1031
0.0
1002
}
1002
{
1000
PINS
1011
94.67213604089636
1021
104.7832159005303
1031
0.0
1002
}
1002
{
1000
PINS2
1011
263.9774288408962
1021
318.0689255337741
1031
0.0
1002
}
1002
{
1000
C
1070
     1
1002
}
1001
GENIUS_GENODEF_13
1002
{
1000
HIER
1070
     0
1002
}
1002
{
1000
MANEDIT
1070
     0
1002
}
1002
{
1000
NOSEL
1070
     0
1002
}
1002
{
1000
BEHIND
1070
     0
1002
}
1002
{
1000
OTHER
1070
     0
1002
}
1002
{
1000
REACTOR
1002
}
1001
GENIUS_GENOBJ-N-REC_13
1002
{
1000
OWNER
1000
GEN
1002
}
  0
SOLID
  5
143E
330
1F
100
AcDbEntity
  8
LOGO
 62
     5
100
AcDbTrace
 10
96.69623315212
 20
96.32087998023417
 30
0.0
 11
97.53975405920819
 21
96.32087998023385
 31
0.0
 12
101.0592723267143
 22
104.319785133657
 32
0.0
 13
101.9027932338026
 23
104.3197851336563
 33
0.0
  0
SOLID
  5
143F
330
1F
100
AcDbEntity
  8
LOGO
 62
     5
100
AcDbTrace
 10
97.88879719317625
 20
96.32087998023417
 30
0.0
 11
98.73231810026425
 21
96.32087998023417
 31
0.0
 12
101.9027932338026
 22
103.6798727213827
 32
0.0
 13
101.0592723267143
 23
100.5869627287258
 33
0.0
  0
SOLID
  5
1440
330
1F
100
AcDbEntity
  8
LOGO
 62
     2
100
AcDbTrace
 10
97.53975405920819
 20
96.32087998023385
 30
0.0
 11
97.88879719317625
 21
96.32087998023417
 31
0.0
 12
101.9027932338026
 22
104.3197851336563
 32
0.0
 13
102.2518363677703
 23
104.3197851336563
 33
0.0
  0
SOLID
  5
1441
330
1F
100
AcDbEntity
  8
LOGO
 62
     5
100
AcDbTrace
 10
95.34386228139274
 20
93.41218719717165
 30
0.0
 11
95.63473155969942
 21
93.41218719717165
 31
0.0
 12
96.45384208686495
 22
94.86653358870265
 32
0.0
 13
96.74471136517105
 23
94.86653358870265
 33
0.0
  0
SOLID
  5
1442
330
1F
100
AcDbEntity
  8
LOGO
 62
     5
100
AcDbTrace
 10
96.45384208686495
 20
94.86653358870265
 30
0.0
 11
96.74471136517105
 21
94.86653358870265
 31
0.0
 12
96.45384208686495
 22
93.41218719717165
 32
0.0
 13
96.74471136517105
 23
93.41218719717165
 33
0.0
  0
SOLID
  5
1443
330
1F
100
AcDbEntity
  8
LOGO
 62
     5
100
AcDbTrace
 10
96.45384208686495
 20
93.41218719717165
 30
0.0
 11
96.74471136517105
 21
93.41218719717165
 31
0.0
 12
97.5638218923377
 22
94.86653358870265
 32
0.0
 13
97.85469117064355
 23
94.86653358870265
 33
0.0
  0
SOLID
  5
1444
330
1F
100
AcDbEntity
  8
LOGO
 62
     5
100
AcDbTrace
 10
97.5638218923377
 20
94.86653358870265
 30
0.0
 11
97.85469117064355
 21
94.86653358870265
 31
0.0
 12
97.5638218923377
 22
93.41218719717165
 32
0.0
 13
97.85469117064355
 23
93.41218719717165
 33
0.0
  0
POLYLINE
  5
1445
330
1F
100
AcDbEntity
  8
LOGO
 62
     5
100
AcDb2dPolyline
 66
     1
 10
0.0
 20
0.0
 30
0.0
 40
0.2913354149702276
 41
0.2913354149702276
  0
VERTEX
  5
1446
330
1445
100
AcDbEntity
  8
LOGO
 62
     5
100
AcDbVertex
100
AcDb2dVertex
 10
107.3136610152955
 20
94.28479503209008
 30
0.0
 42
1.0
  0
VERTEX
  5
1447
330
1445
100
AcDbEntity
  8
LOGO
 62
     5
100
AcDbVertex
100
AcDb2dVertex
 10
106.4396547703846
 20
94.28479503209008
 30
0.0
 42
1.0
  0
SEQEND
  5
1448
330
1445
100
AcDbEntity
  8
LOGO
 62
     5
  0
POLYLINE
  5
1449
330
1F
100
AcDbEntity
  8
LOGO
 62
     5
100
AcDb2dPolyline
 66
     1
 10
0.0
 20
0.0
 30
0.0
 70
     1
  0
VERTEX
  5
144A
330
1449
100
AcDbEntity
  8
LOGO
 62
     5
100
AcDbVertex
100
AcDb2dVertex
 10
104.7921141229298
 20
94.13936039293707
 30
0.0
 42
1.000000057330635
  0
VERTEX
  5
144B
330
1449
100
AcDbEntity
  8
LOGO
 62
     5
100
AcDbVertex
100
AcDb2dVertex
 10
105.6647219578489
 20
94.13936039293707
 30
0.0
 42
1.000000057330635
  0
SEQEND
  5
144C
330
1449
100
AcDbEntity
  8
LOGO
 62
     5
  0
CIRCLE
  5
144D
330
1F
100
AcDbEntity
  8
LOGO
 62
     5
100
AcDbCircle
 10
105.2284180403896
 20
94.13936039293707
 30
0.0
 40
0.4363039174594131
  0
POLYLINE
  5
144E
330
1F
100
AcDbEntity
  8
LOGO
 62
     5
100
AcDb2dPolyline
 66
     1
 10
0.0
 20
0.0
 30
0.0
 70
     1
 40
0.2913354149702276
 41
0.2913354149702276
  0
VERTEX
  5
144F
330
144E
100
AcDbEntity
  8
LOGO
 62
     5
100
AcDbVertex
100
AcDb2dVertex
 10
104.6457472104489
 20
94.13936039293707
 30
0.0
 42
1.0
  0
VERTEX
  5
1450
330
144E
100
AcDbEntity
  8
LOGO
 62
     5
100
AcDbVertex
100
AcDb2dVertex
 10
105.8110888703299
 20
94.13936039293707
 30
0.0
 42
1.0
  0
SEQEND
  5
1451
330
144E
100
AcDbEntity
  8
LOGO
 62
     5
  0
LINE
  5
1452
330
1F
100
AcDbEntity
  8
LOGO
 62
     5
100
AcDbLine
 10
107.4583964494524
 20
93.41218719717165
 30
0.0
 11
107.4583964494524
 21
94.28479503209008
 31
0.0
  0
SOLID
  5
1453
330
1F
100
AcDbEntity
  8
LOGO
 62
     5
100
AcDbTrace
 10
105.6646928709216
 20
94.86653358870265
 30
0.0
 11
105.9555621492275
 21
94.86653358870265
 31
0.0
 12
105.6646928709216
 22
93.41218719717165
 32
0.0
 13
105.9555621492275
 23
93.41218719717165
 33
0.0
  0
SOLID
  5
1454
330
1F
100
AcDbEntity
  8
LOGO
 62
     5
100
AcDbTrace
 10
106.2949193362271
 20
93.41218719717165
 30
0.0
 11
106.5857886145338
 21
93.41218719717165
 31
0.0
 12
106.2949193362271
 22
94.86653358870265
 32
0.0
 13
106.5857886145338
 23
94.86653358870265
 33
0.0
  0
SOLID
  5
1455
330
1F
100
AcDbEntity
  8
LOGO
 62
     5
100
AcDbTrace
 10
107.1675271711464
 20
94.28479503209008
 30
0.0
 11
107.4583964494524
 21
94.28479503209008
 31
0.0
 12
107.1675271711464
 22
93.41218719717165
 32
0.0
 13
107.4583964494524
 23
93.41218719717165
 33
0.0
  0
SOLID
  5
1456
330
1F
100
AcDbEntity
  8
LOGO
 62
     5
100
AcDbTrace
 10
106.2658324083966
 20
103.6798727213827
 30
0.0
 11
105.4223115013083
 21
100.5869627287258
 31
0.0
 12
106.2658324083966
 22
96.32087998023385
 32
0.0
 13
105.4223115013083
 23
96.32087998023385
 33
0.0
  0
SOLID
  5
1457
330
1F
100
AcDbEntity
  8
LOGO
 62
     5
100
AcDbTrace
 10
106.6148755423643
 20
96.32087998023385
 30
0.0
 11
107.4583964494524
 21
96.32087998023385
 31
0.0
 12
106.6148755423643
 22
104.3197851336563
 32
0.0
 13
107.4583964494524
 23
104.319785133657
 33
0.0
  0
SOLID
  5
1458
330
1F
100
AcDbEntity
  8
LOGO
 62
     2
100
AcDbTrace
 10
106.2658324083966
 20
104.319785133657
 30
0.0
 11
106.6148755423643
 21
104.3197851336563
 31
0.0
 12
106.2658324083966
 22
96.32087998023385
 32
0.0
 13
106.6148755423643
 23
96.32087998023385
 33
0.0
  0
POLYLINE
  5
1459
330
1F
100
AcDbEntity
  8
LOGO
 62
     5
100
AcDb2dPolyline
 66
     1
 10
0.0
 20
0.0
 30
0.0
 40
0.2913354149702276
 41
0.2913354149702276
  0
VERTEX
  5
145A
330
1459
100
AcDbEntity
  8
LOGO
 62
     5
100
AcDbVertex
100
AcDb2dVertex
 10
103.1445153016202
 20
94.28479503209008
 30
0.0
 42
1.0
  0
VERTEX
  5
145B
330
1459
100
AcDbEntity
  8
LOGO
 62
     5
100
AcDbVertex
100
AcDb2dVertex
 10
102.2705090567094
 20
94.28479503209008
 30
0.0
 42
1.0
  0
SEQEND
  5
145C
330
1459
100
AcDbEntity
  8
LOGO
 62
     5
  0
POLYLINE
  5
145D
330
1F
100
AcDbEntity
  8
LOGO
 62
     5
100
AcDb2dPolyline
 66
     1
 10
0.0
 20
0.0
 30
0.0
 40
0.2913354149702276
 41
0.2913354149702276
  0
VERTEX
  5
145E
330
145D
100
AcDbEntity
  8
LOGO
 62
     5
100
AcDbVertex
100
AcDb2dVertex
 10
104.0171231365387
 20
94.28479503209008
 30
0.0
 42
1.0
  0
VERTEX
  5
145F
330
145D
100
AcDbEntity
  8
LOGO
 62
     5
100
AcDbVertex
100
AcDb2dVertex
 10
103.1431168916279
 20
94.28479503209008
 30
0.0
 42
1.0
  0
SEQEND
  5
1460
330
145D
100
AcDbEntity
  8
LOGO
 62
     5
  0
POLYLINE
  5
1461
330
1F
100
AcDbEntity
  8
LOGO
 62
     5
100
AcDb2dPolyline
 66
     1
 10
0.0
 20
0.0
 30
0.0
 40
0.2913354149702276
 41
0.2913354149702276
  0
VERTEX
  5
1462
330
1461
100
AcDbEntity
  8
LOGO
 62
     5
100
AcDbVertex
100
AcDb2dVertex
 10
99.84797742286362
 20
94.28479503209008
 30
0.0
 42
1.0
  0
VERTEX
  5
1463
330
1461
100
AcDbEntity
  8
LOGO
 62
     5
100
AcDbVertex
100
AcDb2dVertex
 10
98.97397117795298
 20
94.28479503209008
 30
0.0
 42
1.0
  0
SEQEND
  5
1464
330
1461
100
AcDbEntity
  8
LOGO
 62
     5
  0
SOLID
  5
1465
330
1F
100
AcDbEntity
  8
LOGO
 62
     5
100
AcDbTrace
 10
98.82923574379606
 20
94.86653358870265
 30
0.0
 11
99.12010502210197
 21
94.86653358870265
 31
0.0
 12
98.82923574379606
 22
93.41218719717165
 32
0.0
 13
99.12010502210197
 23
93.41218719717165
 33
0.0
  0
SOLID
  5
1466
330
1F
100
AcDbEntity
  8
LOGO
 62
     5
100
AcDbTrace
 10
99.7018435787146
 20
94.28479503209008
 30
0.0
 11
99.99271285702111
 21
94.28479503209008
 31
0.0
 12
99.7018435787146
 22
93.41218719717165
 32
0.0
 13
99.99271285702111
 23
93.41218719717165
 33
0.0
  0
POLYLINE
  5
1467
330
1F
100
AcDbEntity
  8
LOGO
 62
     5
100
AcDb2dPolyline
 66
     1
 10
0.0
 20
0.0
 30
0.0
 70
     1
 40
0.2913354149702276
 41
0.2913354149702276
  0
VERTEX
  5
1468
330
1467
100
AcDbEntity
  8
LOGO
 62
     5
100
AcDbVertex
100
AcDb2dVertex
 10
100.4766014967736
 20
94.13936039293707
 30
0.0
 42
1.0
  0
VERTEX
  5
1469
330
1467
100
AcDbEntity
  8
LOGO
 62
     5
100
AcDbVertex
100
AcDb2dVertex
 10
101.6419431566545
 20
94.13936039293707
 30
0.0
 42
1.0
  0
SEQEND
  5
146A
330
1467
100
AcDbEntity
  8
LOGO
 62
     5
  0
SOLID
  5
146B
330
1F
100
AcDbEntity
  8
LOGO
 62
     5
100
AcDbTrace
 10
101.4955471572462
 20
95.30283750616233
 30
0.0
 11
101.7864164355521
 21
95.30283750616233
 31
0.0
 12
101.4955471572462
 22
93.41218719717165
 32
0.0
 13
101.7864164355521
 23
93.41218719717165
 33
0.0
  0
SOLID
  5
146C
330
1F
100
AcDbEntity
  8
LOGO
 62
     5
100
AcDbTrace
 10
102.1257736225525
 20
94.86653358870265
 30
0.0
 11
102.4166429008586
 21
94.86653358870265
 31
0.0
 12
102.1257736225525
 22
93.41218719717165
 32
0.0
 13
102.4166429008586
 23
93.41218719717165
 33
0.0
  0
SOLID
  5
146D
330
1F
100
AcDbEntity
  8
LOGO
 62
     5
100
AcDbTrace
 10
102.9983814574712
 20
94.28479503209008
 30
0.0
 11
103.2892507357773
 21
94.28479503209008
 31
0.0
 12
102.9983814574712
 22
93.41218719717165
 32
0.0
 13
103.2892507357773
 23
93.41218719717165
 33
0.0
  0
SOLID
  5
146E
330
1F
100
AcDbEntity
  8
LOGO
 62
     5
100
AcDbTrace
 10
103.8709892923898
 20
94.28479503209008
 30
0.0
 11
104.1618585706957
 21
94.28479503209008
 31
0.0
 12
103.8709892923898
 22
93.41218719717097
 32
0.0
 13
104.1618585706957
 23
93.41218719717097
 33
0.0
  0
SOLID
  5
146F
330
1F
100
AcDbEntity
  8
LOGO
 62
     5
100
AcDbTrace
 10
98.1990092784895
 20
95.07014208351693
 30
0.0
 11
98.48987855679638
 21
95.07014208351693
 31
0.0
 12
98.1990092784895
 22
95.30283750616233
 32
0.0
 13
98.48987855679638
 23
95.30283750616233
 33
0.0
  0
SOLID
  5
1470
330
1F
100
AcDbEntity
  8
LOGO
 62
     5
100
AcDbTrace
 10
98.1990092784895
 20
94.86653358870265
 30
0.0
 11
98.48987855679638
 21
94.86653358870265
 31
0.0
 12
98.1990092784895
 22
93.41218719717097
 32
0.0
 13
98.48987855679638
 23
93.41218719717165
 33
0.0
  0
SOLID
  5
1471
330
1F
100
AcDbEntity
  8
LOGO
 62
     5
100
AcDbTrace
 10
101.0592723267143
 20
96.32087998023417
 30
0.0
 11
101.9027932338026
 21
96.32087998023417
 31
0.0
 12
101.0592723267143
 22
100.5869627287258
 32
0.0
 13
101.9027932338026
 23
103.6798727213827
 33
0.0
  0
SOLID
  5
1472
330
1F
100
AcDbEntity
  8
LOGO
 62
     5
100
AcDbTrace
 10
102.2518363677703
 20
104.3197851336563
 30
0.0
 11
103.0953572748585
 21
104.319785133657
 31
0.0
 12
102.2518363677703
 22
96.96079239250778
 32
0.0
 13
103.0953572748585
 23
100.0537023851646
 33
0.0
  0
SOLID
  5
1473
330
1F
100
AcDbEntity
  8
LOGO
 62
     2
100
AcDbTrace
 10
101.9027932338026
 20
104.3197851336563
 30
0.0
 11
102.2518363677703
 21
104.3197851336563
 31
0.0
 12
101.9027932338026
 22
96.32087998023417
 32
0.0
 13
102.2518363677703
 23
96.32087998023417
 33
0.0
  0
SOLID
  5
1474
330
1F
100
AcDbEntity
  8
LOGO
 62
     5
100
AcDbTrace
 10
102.2518363677703
 20
96.96079239250778
 30
0.0
 11
103.0953572748585
 21
100.0537023851646
 31
0.0
 12
106.2658324083966
 22
104.319785133657
 32
0.0
 13
105.4223115013083
 23
104.319785133657
 33
0.0
  0
SOLID
  5
1475
330
1F
100
AcDbEntity
  8
LOGO
 62
     5
100
AcDbTrace
 10
102.2518363677703
 20
96.32087998023417
 30
0.0
 11
103.0953572748585
 21
96.32087998023417
 31
0.0
 12
106.2658324083966
 22
103.6798727213827
 32
0.0
 13
105.4223115013083
 23
100.5869627287258
 33
0.0
  0
SOLID
  5
1476
330
1F
100
AcDbEntity
  8
LOGO
 62
     2
100
AcDbTrace
 10
101.9027932338026
 20
96.32087998023417
 30
0.0
 11
102.2518363677703
 21
96.32087998023417
 31
0.0
 12
106.2658324083966
 22
104.319785133657
 32
0.0
 13
106.6148755423643
 23
104.3197851336563
 33
0.0
  0
TEXT
  5
1477
330
1F
100
AcDbEntity
  8
0
100
AcDbText
 10
138.4255761140772
 20
86.31202264949967
 30
0.0
 40
1.626794341126071
  1
1050520
 41
0.8
  7
CHINESET
 72
     1
 11
142.4538287682941
 21
86.31202264949967
 31
0.0
100
AcDbText
  0
LINE
  5
1478
330
1F
100
AcDbEntity
  8
LOGO
 62
     1
100
AcDbLine
 10
147.4731607320638
 20
89.17596152712535
 30
0.0
 11
147.473160732064
 21
85.27414793377401
 31
0.0
  0
LINE
  5
1479
330
1F
100
AcDbEntity
  8
LOGO
 62
     1
100
AcDbLine
 10
147.4731607320638
 20
89.17596152712535
 30
0.0
 11
137.5920855677603
 21
89.17596152712535
 31
0.0
  0
LINE
  5
1602
330
1F
100
AcDbEntity
  8
LOGO
 62
     6
100
AcDbLine
 10
216.7632853365748
 20
94.05635982156537
 30
0.0
 11
207.4173834834885
 21
94.05635982156537
 31
0.0
  0
LINE
  5
1603
330
1F
100
AcDbEntity
  8
LOGO
 62
     6
100
AcDbLine
 10
207.4792339306389
 20
96.98376378416249
 30
0.0
 11
203.7035554295534
 21
96.98376378416249
 31
0.0
  0
LINE
  5
1604
330
1F
100
AcDbEntity
  8
LOGO
 62
     6
100
AcDbLine
 10
216.7632853365748
 20
86.90048346855022
 30
0.0
 11
207.4173834834885
 21
86.9004834685502
 31
0.0
  0
LINE
  5
1605
330
1F
100
AcDbEntity
  8
LOGO
 62
     6
100
AcDbLine
 10
216.7632853365748
 20
94.05635982156537
 30
0.0
 11
216.7632853365748
 21
86.87350106979492
 31
0.0
  0
TEXT
  5
160A
330
1F
100
AcDbEntity
  8
LOGO
 62
     6
100
AcDbText
 10
169.6397874508362
 20
90.54501176144226
 30
0.0
 40
2.602136855641873
  1
型式
  7
CHINESET
 72
     4
 11
172.2419243064781
 21
91.77949007287867
 31
0.0
100
AcDbText
  0
LINE
  5
160B
330
1F
100
AcDbEntity
  8
LOGO
 62
     6
100
AcDbLine
 10
207.4173834834885
 20
94.05635982156537
 30
0.0
 11
207.4173834834885
 21
86.9004834685502
 31
0.0
  0
LINE
  5
160F
330
1F
100
AcDbEntity
  8
LOGO
 62
     6
100
AcDbLine
 10
205.5913946800962
 20
96.98376378416249
 30
0.0
 11
205.5913946800962
 21
95.52006180286394
 31
0.0
  0
TEXT
  5
1610
330
1F
100
AcDbEntity
  8
LOGO
 62
     6
100
AcDbText
 10
208.4922376713648
 20
90.54373118228109
 30
0.0
 40
2.602136855641873
  1
連座數
 41
0.9
  7
CHINESET
 72
     4
 11
212.0519916237828
 21
91.77949007287873
 31
0.0
100
AcDbText
  0
LINE
  5
1615
330
1F
100
AcDbEntity
  8
LOGO
 62
     6
100
AcDbLine
 10
172.2419243064781
 20
96.98376378416242
 30
0.0
 11
172.2419243064781
 21
94.05635982156528
 31
0.0
  0
LINE
  5
1616
330
1F
100
AcDbEntity
  8
LOGO
 62
     6
100
AcDbLine
 10
165.7365821673735
 20
94.05635982156528
 30
0.0
 11
165.7365821673735
 21
86.90048346855013
 31
0.0
  0
LINE
  5
161A
330
1F
100
AcDbEntity
  8
LOGO
 62
     6
100
AcDbLine
 10
207.479233930639
 20
102.8385717093567
 30
0.0
 11
203.7035554295534
 21
102.8385717093567
 31
0.0
  0
LINE
  5
161D
330
1F
100
AcDbEntity
  8
LOGO
 62
     6
100
AcDbLine
 10
164.4355137395526
 20
102.8385717093566
 30
0.0
 11
164.4355137395526
 21
96.98376378416242
 31
0.0
  0
LINE
  5
1620
330
1F
100
AcDbEntity
  8
LOGO
 62
     6
100
AcDbLine
 10
207.479233930639
 20
102.8385717093567
 30
0.0
 11
207.4792339306389
 21
96.98376378416249
 31
0.0
  0
TEXT
  5
1623
330
1F
100
AcDbEntity
  8
LOGO
  6
Continuous
 62
     6
100
AcDbText
 10
208.4585645374202
 20
87.71365123593829
 30
0.0
 40
1.62633553477617
  1
Number
 41
0.8
  7
CHINESET
 72
     4
 11
212.0519916237828
 21
88.52681900332639
 31
0.0
100
AcDbText
  0
TEXT
  5
1626
330
1F
100
AcDbEntity
  8
LOGO
  6
Continuous
 62
     6
100
AcDbText
 10
169.1441423354758
 20
87.71365123593826
 30
0.0
 40
1.62633553477617
  1
Model
  7
CHINESET
 72
     4
 11
172.2419243064781
 21
88.52681900332633
 31
0.0
100
AcDbText
  0
TEXT
  5
1627
330
1F
100
AcDbEntity
  8
LOGO
  6
Continuous
 62
     7
100
AcDbText
 10
204.2585920800248
 20
98.24794671709485
 30
0.0
 40
3.252671069552341
  1
2
  7
CHINESET
 72
     1
 11
205.3428157698756
 21
99.87428225187102
 31
0.0
100
AcDbText
 73
     2
  0
TEXT
  5
1628
330
1F
100
AcDbEntity
  8
LOGO
  6
Continuous
 62
     7
100
AcDbText
 10
184.1774897401952
 20
98.24794671709478
 30
0.0
 40
3.252671069552341
  1
300
  7
CHINESET
 72
     1
 11
188.3594954010483
 21
99.87428225187095
 31
0.0
100
AcDbText
 73
     2
  0
TEXT
  5
1629
330
1F
100
AcDbEntity
  8
LOGO
  6
Continuous
 62
     7
100
AcDbText
 10
166.1238049137487
 20
98.28483221198334
 30
0.0
 40
3.252671069552341
  1
MVSC
  7
CHINESET
 72
     1
 11
172.2419243064781
 21
99.91116774675951
 31
0.0
100
AcDbText
 73
     2
  0
LINE
  5
162D
330
1F
100
AcDbEntity
  8
LOGO
 62
     6
100
AcDbLine
 10
180.0483348734037
 20
102.8385717093566
 30
0.0
 11
180.0483348734037
 21
96.98376378416242
 31
0.0
  0
LINE
  5
162E
330
1F
100
AcDbEntity
  8
LOGO
 62
     6
100
AcDbLine
 10
178.7472664455829
 20
94.05635982156528
 30
0.0
 11
178.7472664455829
 21
86.90048346855016
 31
0.0
  0
LINE
  5
162F
330
1F
100
AcDbEntity
  8
LOGO
 62
     6
100
AcDbLine
 10
180.0483348734037
 20
102.8385717093566
 30
0.0
 11
164.4355137395526
 21
102.8385717093566
 31
0.0
  0
LINE
  5
1630
330
1F
100
AcDbEntity
  8
LOGO
 62
     6
100
AcDbLine
 10
180.0483348734037
 20
96.98376378416242
 30
0.0
 11
164.4355137395526
 21
96.98376378416242
 31
0.0
  0
LINE
  5
1631
330
1F
100
AcDbEntity
  8
LOGO
 62
     6
100
AcDbLine
 10
178.7472664455828
 20
94.05635982156528
 30
0.0
 11
165.7365821673735
 21
94.05635982156528
 31
0.0
  0
LINE
  5
1632
330
1F
100
AcDbEntity
  8
LOGO
 62
     6
100
AcDbLine
 10
178.7472664455828
 20
86.90048346855016
 30
0.0
 11
165.7365821673735
 21
86.90048346855013
 31
0.0
  0
TEXT
  5
1634
330
1F
100
AcDbEntity
  8
LOGO
  6
Continuous
 62
     7
100
AcDbText
 10
197.1536747791815
 20
98.28483221198339
 30
0.0
 40
3.252671069552341
  1
3B
  7
CHINESET
 72
     1
 11
199.7867894545333
 21
99.91116774675957
 31
0.0
100
AcDbText
 73
     2
  0
LINE
  5
1635
330
1F
100
AcDbEntity
  8
LOGO
 62
     6
100
AcDbLine
 10
202.9917780901721
 20
102.8385717093567
 30
0.0
 11
196.5144459682884
 21
102.8385717093567
 31
0.0
  0
LINE
  5
1636
330
1F
100
AcDbEntity
  8
LOGO
 62
     6
100
AcDbLine
 10
205.5149263287391
 20
94.05635982156535
 30
0.0
 11
195.0703366974402
 21
94.05635982156535
 31
0.0
  0
LINE
  5
1637
330
1F
100
AcDbEntity
  8
LOGO
 62
     6
100
AcDbLine
 10
202.9917780901721
 20
96.98376378416247
 30
0.0
 11
196.5144459682884
 21
96.98376378416247
 31
0.0
  0
TEXT
  5
1638
330
1F
100
AcDbEntity
  8
LOGO
 62
     6
100
AcDbText
 10
197.9555105148666
 20
90.55675040375367
 30
0.0
 40
2.602136855641873
  1
連座
 41
0.9
  7
CHINESET
 72
     4
 11
200.2926315130896
 21
91.77949007287869
 31
0.0
100
AcDbText
  0
LINE
  5
1639
330
1F
100
AcDbEntity
  8
LOGO
 62
     6
100
AcDbLine
 10
205.5149263287391
 20
86.9004834685502
 30
0.0
 11
195.0703366974402
 21
86.90048346855016
 31
0.0
  0
TEXT
  5
163A
330
1F
100
AcDbEntity
  8
LOGO
  6
Continuous
 62
     6
100
AcDbText
 10
196.5443153281769
 20
87.71365123593826
 30
0.0
 40
1.62633553477617
  1
Manifold
 41
0.8
  7
CHINESET
 72
     4
 11
200.2926315130896
 21
88.52681900332633
 31
0.0
100
AcDbText
  0
LINE
  5
163B
330
1F
100
AcDbEntity
  8
LOGO
 62
     6
100
AcDbLine
 10
196.5144459682884
 20
102.8385717093567
 30
0.0
 11
196.5144459682884
 21
96.98376378416247
 31
0.0
  0
LINE
  5
163C
330
1F
100
AcDbEntity
  8
LOGO
 62
     6
100
AcDbLine
 10
195.0703366974402
 20
94.05635982156535
 30
0.0
 11
195.0703366974402
 21
86.9004834685502
 31
0.0
  0
LINE
  5
163D
330
1F
100
AcDbEntity
  8
LOGO
 62
     6
100
AcDbLine
 10
202.9917780901721
 20
102.8385717093567
 30
0.0
 11
202.9917780901721
 21
96.98376378416247
 31
0.0
  0
LINE
  5
163E
330
1F
100
AcDbEntity
  8
LOGO
 62
     6
100
AcDbLine
 10
205.5149263287391
 20
94.05635982156535
 30
0.0
 11
205.5149263287391
 21
86.9004834685502
 31
0.0
  0
LINE
  5
1640
330
1F
100
AcDbEntity
  8
LOGO
  6
Continuous
 62
     7
100
AcDbLine
 10
181.057030289967
 20
99.89042909181012
 30
0.0
 11
183.6422998372843
 21
99.89042909181012
 31
0.0
  0
LINE
  5
1641
330
1F
100
AcDbEntity
  8
LOGO
  6
Continuous
 62
     7
100
AcDbLine
 10
193.560817928672
 20
99.89042909181018
 30
0.0
 11
196.1460874759893
 21
99.89042909181018
 31
0.0
  0
LINE
  5
1642
330
1F
100
AcDbEntity
  8
LOGO
 62
     6
100
AcDbLine
 10
203.7035554295534
 20
102.8385717093567
 30
0.0
 11
203.7035554295534
 21
96.98376378416247
 31
0.0
  0
LINE
  5
1644
330
1F
100
AcDbEntity
  8
LOGO
 62
     6
100
AcDbLine
 10
199.7531120292303
 20
94.05635982156535
 30
0.0
 11
199.7531120292302
 21
96.98376378416242
 31
0.0
  0
LINE
  5
1647
330
1F
100
AcDbEntity
  8
LOGO
 62
     6
100
AcDbLine
 10
205.5913946800962
 20
95.52006180286394
 30
0.0
 11
212.0519916237828
 21
95.52006180286394
 31
0.0
  0
LINE
  5
1648
330
1F
100
AcDbEntity
  8
LOGO
 62
     6
100
AcDbLine
 10
212.0519916237828
 20
94.05635982156537
 30
0.0
 11
212.0519916237828
 21
95.52006180286394
 31
0.0
  0
TEXT
  5
1664
330
1F
100
AcDbEntity
  8
0
100
AcDbText
 10
104.2997957090133
 20
304.9891064475647
 30
0.0
 40
5.225471999999999
  1
MVSC-300-3B2
100
AcDbText
  0
LINE
  5
2D18
330
1F
100
AcDbEntity
  8
LOGO
 62
     1
100
AcDbLine
 10
263.9774288408962
 20
85.27414793377401
 30
0.0
 11
263.9774288408962
 21
104.7832159005303
 31
0.0
  0
TEXT
  5
3380
330
1F
100
AcDbEntity
  8
AM_5
100
AcDbText
 10
182.6236966943561
 20
185.2030631449251
 30
0.0
 40
3.0
  1
4-%%C4.5
100
AcDbText
  0
INSERT
  5
3381
330
1F
100
AcDbEntity
  8
AM_5
100
AcDbBlockReference
  2
*S14
 10
0.0
 20
0.0
 30
0.0
  0
TEXT
  5
39BB
330
1F
100
AcDbEntity
  8
AM_5
100
AcDbText
 10
186.6658256256652
 20
130.9865101898126
 30
0.0
 40
3.0
  1
2-PT3/8
100
AcDbText
  0
INSERT
  5
39BC
330
1F
100
AcDbEntity
  8
AM_5
100
AcDbBlockReference
  2
*S15
 10
0.0
 20
0.0
 30
0.0
  0
DIMENSION
  5
4B47
330
1F
100
AcDbEntity
  8
AM_5
100
AcDbDimension
  2
*D5
 10
158.7938575288395
 20
128.4492091610632
 30
0.0
 11
145.7938575288395
 21
130.9495044366537
 31
0.0
 70
    32
 71
     5
 42
26.0
  3
AM_ISO$0
100
AcDbAlignedDimension
 13
132.7938575288395
 23
140.2992091610631
 33
0.0
 14
158.7938575288395
 24
140.2992091610631
 34
0.0
 50
0.0000000000001018
100
AcDbRotatedDimension
1001
ACAD
1000
DSTYLE
1002
{
1070
    40
1040
1.0
1070
   144
1040
1.0
1070
   272
1070
     8
1002
}
  0
DIMENSION
  5
4B6D
330
1F
100
AcDbEntity
  8
AM_5
100
AcDbDimension
  2
*D6
 10
178.7938575288395
 20
120.4492091610632
 30
0.0
 11
145.7938575288395
 21
122.9492091610632
 31
0.0
 70
    32
 71
     5
 42
66.0
  3
AM_ISO$0
100
AcDbAlignedDimension
 13
112.7938575288395
 23
140.4492091610631
 33
0.0
 14
178.7938575288395
 24
140.4492091610631
 34
0.0
 50
0.0000000000001018
100
AcDbRotatedDimension
1001
ACAD
1000
DSTYLE
1002
{
1070
    40
1040
1.0
1070
   144
1040
1.0
1070
   272
1070
     8
1002
}
  0
DIMENSION
  5
4B93
330
1F
100
AcDbEntity
  8
AM_5
100
AcDbDimension
  2
*D7
 10
190.7938575288395
 20
151.9492091610631
 30
0.0
 11
188.2938575288395
 21
146.1992091610632
 31
0.0
 70
    32
 71
     5
 42
11.5
  3
AM_ISO$0
100
AcDbAlignedDimension
 13
178.7938575288395
 23
140.4492091610631
 33
0.0
 14
170.4438575288395
 24
151.9492091610631
 34
0.0
 50
90.0
100
AcDbRotatedDimension
1001
ACAD
1000
DSTYLE
1002
{
1070
    40
1040
1.0
1070
   144
1040
1.0
1070
   272
1070
     8
1002
}
  0
DIMENSION
  5
4BB9
330
1F
100
AcDbEntity
  8
AM_5
100
AcDbDimension
  2
*D8
 10
198.7938575288396
 20
167.4492091610631
 30
0.0
 11
196.293562253249
 21
153.9492091610632
 31
0.0
 70
    32
 71
     5
 42
27.0
  3
AM_ISO$0
100
AcDbAlignedDimension
 13
178.7938575288395
 23
140.4492091610631
 33
0.0
 14
178.7938575288395
 24
167.4492091610631
 34
0.0
 50
90.0
100
AcDbRotatedDimension
1001
ACAD
1000
DSTYLE
1002
{
1070
    40
1040
1.0
1070
   144
1040
1.0
1070
   272
1070
     8
1002
}
  0
DIMENSION
  5
4BDF
330
1F
100
AcDbEntity
  8
AM_5
100
AcDbDimension
  2
*D9
 10
173.2938575288395
 20
184.3157098106663
 30
0.0
 11
145.7938575288395
 21
186.8157098106663
 31
0.0
 70
    32
 71
     5
 42
55.0
  3
AM_ISO$0
100
AcDbAlignedDimension
 13
118.2938575288395
 23
197.4657098106663
 33
0.0
 14
173.2938575288395
 24
197.4657098106663
 34
0.0
 50
0.0000000000001018
100
AcDbRotatedDimension
1001
ACAD
1000
DSTYLE
1002
{
1070
    40
1040
1.0
1070
   144
1040
1.0
1070
   272
1070
     8
1002
}
  0
DIMENSION
  5
4C05
330
1F
100
AcDbEntity
  8
AM_5
100
AcDbDimension
  2
*D10
 10
193.4203162834269
 20
201.3157098106663
 30
0.0
 11
190.9203162834268
 21
198.8157098106663
 31
0.0
 70
    32
 71
     5
 42
5.0
  3
AM_ISO$0
100
AcDbAlignedDimension
 13
178.7938575288395
 23
196.3157098106663
 33
0.0
 14
177.1438575288396
 24
201.3157098106663
 34
0.0
 50
90.0
100
AcDbRotatedDimension
1001
ACAD
1000
DSTYLE
1002
{
1070
    40
1040
1.0
1070
   144
1040
1.0
1070
   272
1070
     8
1002
}
  0
DIMENSION
  5
4C2F
330
1F
100
AcDbEntity
  8
AM_5
100
AcDbDimension
  2
*D11
 10
190.7938575288395
 20
277.3157098106663
 30
0.0
 11
188.2938575288395
 21
274.8157098106664
 31
0.0
 70
    32
 71
     5
 42
5.0
  3
AM_ISO$0
100
AcDbAlignedDimension
 13
177.1438575288396
 23
272.3157098106663
 33
0.0
 14
178.7938575288395
 24
277.3157098106663
 34
0.0
 50
90.0
100
AcDbRotatedDimension
1001
ACAD
1000
DSTYLE
1002
{
1070
    40
1040
1.0
1070
   144
1040
1.0
1070
   272
1070
     8
1002
}
  0
LINE
  5
4DFF
330
1F
100
AcDbEntity
  8
AM_7
100
AcDbLine
 10
165.2938575288395
 20
209.8157098106663
 30
0.0
 11
167.2938575288395
 21
209.8157098106663
 31
0.0
  0
LINE
  5
4E00
330
1F
100
AcDbEntity
  8
AM_7
100
AcDbLine
 10
166.2938575288395
 20
208.8157098106663
 30
0.0
 11
166.2938575288395
 21
210.8157098106663
 31
0.0
  0
LINE
  5
4E01
330
1F
100
AcDbEntity
  8
AM_7
100
AcDbLine
 10
163.0438575288395
 20
209.8157098106663
 30
0.0
 11
164.4938575288395
 21
209.8157098106663
 31
0.0
  0
LINE
  5
4E02
330
1F
100
AcDbEntity
  8
AM_7
100
AcDbLine
 10
168.0938575288396
 20
209.8157098106663
 30
0.0
 11
169.5438575288395
 21
209.8157098106663
 31
0.0
  0
LINE
  5
4E03
330
1F
100
AcDbEntity
  8
AM_7
100
AcDbLine
 10
166.2938575288395
 20
206.5657098106663
 30
0.0
 11
166.2938575288395
 21
208.0157098106663
 31
0.0
  0
LINE
  5
4E04
330
1F
100
AcDbEntity
  8
AM_7
100
AcDbLine
 10
166.2938575288395
 20
211.6157098106663
 30
0.0
 11
166.2938575288395
 21
213.0657098106663
 31
0.0
  0
LINE
  5
4E05
330
1F
100
AcDbEntity
  8
AM_7
100
AcDbLine
 10
165.2938575288395
 20
240.8157098106663
 30
0.0
 11
167.2938575288395
 21
240.8157098106663
 31
0.0
  0
LINE
  5
4E06
330
1F
100
AcDbEntity
  8
AM_7
100
AcDbLine
 10
166.2938575288395
 20
239.8157098106663
 30
0.0
 11
166.2938575288395
 21
241.8157098106663
 31
0.0
  0
LINE
  5
4E07
330
1F
100
AcDbEntity
  8
AM_7
100
AcDbLine
 10
163.0438575288395
 20
240.8157098106663
 30
0.0
 11
164.4938575288395
 21
240.8157098106663
 31
0.0
  0
LINE
  5
4E08
330
1F
100
AcDbEntity
  8
AM_7
100
AcDbLine
 10
168.0938575288396
 20
240.8157098106663
 30
0.0
 11
169.5438575288395
 21
240.8157098106663
 31
0.0
  0
LINE
  5
4E09
330
1F
100
AcDbEntity
  8
AM_7
100
AcDbLine
 10
166.2938575288395
 20
237.5657098106663
 30
0.0
 11
166.2938575288395
 21
239.0157098106663
 31
0.0
  0
LINE
  5
4E0A
330
1F
100
AcDbEntity
  8
AM_7
100
AcDbLine
 10
166.2938575288395
 20
242.6157098106663
 30
0.0
 11
166.2938575288395
 21
244.0657098106663
 31
0.0
  0
LINE
  5
4E0B
330
1F
100
AcDbEntity
  8
AM_7
100
AcDbLine
 10
124.2938575288395
 20
232.8157098106663
 30
0.0
 11
126.2938575288395
 21
232.8157098106663
 31
0.0
  0
LINE
  5
4E0C
330
1F
100
AcDbEntity
  8
AM_7
100
AcDbLine
 10
125.2938575288395
 20
231.8157098106663
 30
0.0
 11
125.2938575288395
 21
233.8157098106663
 31
0.0
  0
LINE
  5
4E0D
330
1F
100
AcDbEntity
  8
AM_7
100
AcDbLine
 10
122.0438575288395
 20
232.8157098106663
 30
0.0
 11
123.4938575288395
 21
232.8157098106663
 31
0.0
  0
LINE
  5
4E0E
330
1F
100
AcDbEntity
  8
AM_7
100
AcDbLine
 10
127.0938575288395
 20
232.8157098106663
 30
0.0
 11
128.5438575288395
 21
232.8157098106663
 31
0.0
  0
LINE
  5
4E0F
330
1F
100
AcDbEntity
  8
AM_7
100
AcDbLine
 10
125.2938575288395
 20
229.5657098106663
 30
0.0
 11
125.2938575288395
 21
231.0157098106663
 31
0.0
  0
LINE
  5
4E10
330
1F
100
AcDbEntity
  8
AM_7
100
AcDbLine
 10
125.2938575288395
 20
234.6157098106663
 30
0.0
 11
125.2938575288395
 21
236.0657098106663
 31
0.0
  0
LINE
  5
4E11
330
1F
100
AcDbEntity
  8
AM_7
100
AcDbLine
 10
124.2938575288395
 20
263.8157098106663
 30
0.0
 11
126.2938575288395
 21
263.8157098106663
 31
0.0
  0
LINE
  5
4E12
330
1F
100
AcDbEntity
  8
AM_7
100
AcDbLine
 10
125.2938575288395
 20
262.8157098106663
 30
0.0
 11
125.2938575288395
 21
264.8157098106663
 31
0.0
  0
LINE
  5
4E13
330
1F
100
AcDbEntity
  8
AM_7
100
AcDbLine
 10
122.0438575288395
 20
263.8157098106663
 30
0.0
 11
123.4938575288395
 21
263.8157098106663
 31
0.0
  0
LINE
  5
4E14
330
1F
100
AcDbEntity
  8
AM_7
100
AcDbLine
 10
127.0938575288395
 20
263.8157098106663
 30
0.0
 11
128.5438575288395
 21
263.8157098106663
 31
0.0
  0
LINE
  5
4E15
330
1F
100
AcDbEntity
  8
AM_7
100
AcDbLine
 10
125.2938575288395
 20
260.5657098106663
 30
0.0
 11
125.2938575288395
 21
262.0157098106663
 31
0.0
  0
LINE
  5
4E16
330
1F
100
AcDbEntity
  8
AM_7
100
AcDbLine
 10
125.2938575288395
 20
265.6157098106663
 30
0.0
 11
125.2938575288395
 21
267.0657098106663
 31
0.0
  0
LINE
  5
4E17
330
1F
100
AcDbEntity
  8
AM_7
100
AcDbLine
 10
117.2938575288395
 20
201.3157098106663
 30
0.0
 11
119.2938575288395
 21
201.3157098106663
 31
0.0
  0
LINE
  5
4E18
330
1F
100
AcDbEntity
  8
AM_7
100
AcDbLine
 10
118.2938575288395
 20
200.3157098106663
 30
0.0
 11
118.2938575288395
 21
202.3157098106663
 31
0.0
  0
LINE
  5
4E19
330
1F
100
AcDbEntity
  8
AM_7
100
AcDbLine
 10
114.4438575288395
 20
201.3157098106663
 30
0.0
 11
116.4938575288395
 21
201.3157098106663
 31
0.0
  0
LINE
  5
4E1A
330
1F
100
AcDbEntity
  8
AM_7
100
AcDbLine
 10
120.0938575288396
 20
201.3157098106663
 30
0.0
 11
122.1438575288396
 21
201.3157098106663
 31
0.0
  0
LINE
  5
4E1B
330
1F
100
AcDbEntity
  8
AM_7
100
AcDbLine
 10
118.2938575288395
 20
197.4657098106663
 30
0.0
 11
118.2938575288395
 21
199.5157098106663
 31
0.0
  0
LINE
  5
4E1C
330
1F
100
AcDbEntity
  8
AM_7
100
AcDbLine
 10
118.2938575288395
 20
203.1157098106663
 30
0.0
 11
118.2938575288395
 21
205.1657098106663
 31
0.0
  0
LINE
  5
4E1D
330
1F
100
AcDbEntity
  8
AM_7
100
AcDbLine
 10
117.2938575288395
 20
272.3157098106663
 30
0.0
 11
119.2938575288395
 21
272.3157098106663
 31
0.0
  0
LINE
  5
4E1E
330
1F
100
AcDbEntity
  8
AM_7
100
AcDbLine
 10
118.2938575288395
 20
271.3157098106663
 30
0.0
 11
118.2938575288395
 21
273.3157098106663
 31
0.0
  0
LINE
  5
4E1F
330
1F
100
AcDbEntity
  8
AM_7
100
AcDbLine
 10
114.4438575288395
 20
272.3157098106663
 30
0.0
 11
116.4938575288395
 21
272.3157098106663
 31
0.0
  0
LINE
  5
4E20
330
1F
100
AcDbEntity
  8
AM_7
100
AcDbLine
 10
120.0938575288396
 20
272.3157098106663
 30
0.0
 11
122.1438575288396
 21
272.3157098106663
 31
0.0
  0
LINE
  5
4E21
330
1F
100
AcDbEntity
  8
AM_7
100
AcDbLine
 10
118.2938575288395
 20
268.4657098106663
 30
0.0
 11
118.2938575288395
 21
270.5157098106663
 31
0.0
  0
LINE
  5
4E22
330
1F
100
AcDbEntity
  8
AM_7
100
AcDbLine
 10
118.2938575288395
 20
274.1157098106663
 30
0.0
 11
118.2938575288395
 21
276.1657098106663
 31
0.0
  0
LINE
  5
4E23
330
1F
100
AcDbEntity
  8
AM_7
100
AcDbLine
 10
172.2938575288395
 20
201.3157098106663
 30
0.0
 11
174.2938575288395
 21
201.3157098106663
 31
0.0
  0
LINE
  5
4E24
330
1F
100
AcDbEntity
  8
AM_7
100
AcDbLine
 10
173.2938575288395
 20
200.3157098106663
 30
0.0
 11
173.2938575288395
 21
202.3157098106663
 31
0.0
  0
LINE
  5
4E25
330
1F
100
AcDbEntity
  8
AM_7
100
AcDbLine
 10
169.4438575288395
 20
201.3157098106663
 30
0.0
 11
171.4938575288395
 21
201.3157098106663
 31
0.0
  0
LINE
  5
4E26
330
1F
100
AcDbEntity
  8
AM_7
100
AcDbLine
 10
175.0938575288396
 20
201.3157098106663
 30
0.0
 11
177.1438575288396
 21
201.3157098106663
 31
0.0
  0
LINE
  5
4E27
330
1F
100
AcDbEntity
  8
AM_7
100
AcDbLine
 10
173.2938575288395
 20
197.4657098106663
 30
0.0
 11
173.2938575288395
 21
199.5157098106663
 31
0.0
  0
LINE
  5
4E28
330
1F
100
AcDbEntity
  8
AM_7
100
AcDbLine
 10
173.2938575288395
 20
203.1157098106663
 30
0.0
 11
173.2938575288395
 21
205.1657098106663
 31
0.0
  0
LINE
  5
4E29
330
1F
100
AcDbEntity
  8
AM_7
100
AcDbLine
 10
172.2938575288395
 20
272.3157098106663
 30
0.0
 11
174.2938575288395
 21
272.3157098106663
 31
0.0
  0
LINE
  5
4E2A
330
1F
100
AcDbEntity
  8
AM_7
100
AcDbLine
 10
173.2938575288395
 20
271.3157098106663
 30
0.0
 11
173.2938575288395
 21
273.3157098106663
 31
0.0
  0
LINE
  5
4E2B
330
1F
100
AcDbEntity
  8
AM_7
100
AcDbLine
 10
169.4438575288395
 20
272.3157098106663
 30
0.0
 11
171.4938575288395
 21
272.3157098106663
 31
0.0
  0
LINE
  5
4E2C
330
1F
100
AcDbEntity
  8
AM_7
100
AcDbLine
 10
175.0938575288396
 20
272.3157098106663
 30
0.0
 11
177.1438575288396
 21
272.3157098106663
 31
0.0
  0
LINE
  5
4E2D
330
1F
100
AcDbEntity
  8
AM_7
100
AcDbLine
 10
173.2938575288395
 20
268.4657098106663
 30
0.0
 11
173.2938575288395
 21
270.5157098106663
 31
0.0
  0
LINE
  5
4E2E
330
1F
100
AcDbEntity
  8
AM_7
100
AcDbLine
 10
173.2938575288395
 20
274.1157098106663
 30
0.0
 11
173.2938575288395
 21
276.1657098106663
 31
0.0
  0
LINE
  5
4E45
330
1F
100
AcDbEntity
  8
AM_VIS
100
AcDbLine
 10
112.7938575288395
 20
277.3157098106663
 30
0.0
 11
112.7938575288395
 21
196.3157098106663
 31
0.0
  0
LINE
  5
4E46
330
1F
100
AcDbEntity
  8
AM_VIS
100
AcDbLine
 10
178.7938575288395
 20
277.3157098106663
 30
0.0
 11
112.7938575288395
 21
277.3157098106663
 31
0.0
  0
LINE
  5
4E47
330
1F
100
AcDbEntity
  8
AM_VIS
100
AcDbLine
 10
178.7938575288395
 20
277.3157098106663
 30
0.0
 11
178.7938575288395
 21
196.3157098106663
 31
0.0
  0
LINE
  5
4E48
330
1F
100
AcDbEntity
  8
AM_VIS
100
AcDbLine
 10
112.7938575288395
 20
196.3157098106663
 30
0.0
 11
178.7938575288395
 21
196.3157098106663
 31
0.0
  0
CIRCLE
  5
4E4D
330
1F
100
AcDbEntity
  8
AM_VIS
100
AcDbCircle
 10
118.2938575288395
 20
201.3157098106663
 30
0.0
 40
2.25
  0
CIRCLE
  5
4E4E
330
1F
100
AcDbEntity
  8
AM_VIS
100
AcDbCircle
 10
118.2938575288395
 20
272.3157098106663
 30
0.0
 40
2.25
  0
CIRCLE
  5
4E4F
330
1F
100
AcDbEntity
  8
AM_VIS
100
AcDbCircle
 10
173.2938575288395
 20
201.3157098106663
 30
0.0
 40
2.25
  0
CIRCLE
  5
4E50
330
1F
100
AcDbEntity
  8
AM_VIS
100
AcDbCircle
 10
173.2938575288395
 20
272.3157098106663
 30
0.0
 40
2.25
  0
LINE
  5
4E59
330
1F
100
AcDbEntity
  8
AM_VIS
100
AcDbLine
 10
237.4015116293652
 20
277.3157098106663
 30
0.0
 11
237.4015116293652
 21
196.3157098106663
 31
0.0
  0
LINE
  5
4E5A
330
1F
100
AcDbEntity
  8
AM_VIS
100
AcDbLine
 10
210.4015116293652
 20
196.3157098106663
 30
0.0
 11
237.4015116293652
 21
196.3157098106663
 31
0.0
  0
LINE
  5
4E5B
330
1F
100
AcDbEntity
  8
AM_VIS
100
AcDbLine
 10
237.4015116293652
 20
277.3157098106663
 30
0.0
 11
210.4015116293652
 21
277.3157098106663
 31
0.0
  0
LINE
  5
4E5C
330
1F
100
AcDbEntity
  8
AM_VIS
100
AcDbLine
 10
210.4015116293652
 20
277.3157098106663
 30
0.0
 11
210.4015116293652
 21
196.3157098106663
 31
0.0
  0
LINE
  5
4E5D
330
1F
100
AcDbEntity
  8
AM_VIS
100
AcDbLine
 10
178.7938575288395
 20
167.4492091610631
 30
0.0
 11
178.7938575288395
 21
140.4492091610631
 31
0.0
  0
LINE
  5
4E5E
330
1F
100
AcDbEntity
  8
AM_VIS
100
AcDbLine
 10
178.7938575288395
 20
140.4492091610631
 30
0.0
 11
112.7938575288395
 21
140.4492091610631
 31
0.0
  0
LINE
  5
4E5F
102
{ACAD_REACTORS
330
4F16
102
}
330
1F
100
AcDbEntity
  8
AM_VIS
100
AcDbLine
 10
112.7938575288395
 20
140.4492091610631
 30
0.0
 11
112.7938575288395
 21
167.4492091610631
 31
0.0
  0
LINE
  5
4E60
330
1F
100
AcDbEntity
  8
AM_VIS
100
AcDbLine
 10
112.7938575288395
 20
167.4492091610631
 30
0.0
 11
178.7938575288395
 21
167.4492091610631
 31
0.0
  0
ARC
  5
4E83
330
1F
100
AcDbEntity
  8
AM_4
100
AcDbCircle
 10
132.7938575288395
 20
151.9492091610631
 30
0.0
 40
8.649999999999998
100
AcDbArc
 50
259.9999999999982
 51
169.9999999999997
  0
LINE
  5
4E84
102
{ACAD_REACTORS
330
4F16
102
}
330
1F
100
AcDbEntity
  8
AM_7
  6
AM_ISO08W050x2
100
AcDbLine
 10
132.7938575288395
 20
163.5992091610631
 30
0.0
 11
132.7938575288395
 21
140.2992091610631
 31
0.0
  0
CIRCLE
  5
4E85
330
1F
100
AcDbEntity
  8
AM_0
100
AcDbCircle
 10
132.7938575288395
 20
151.9492091610631
 30
0.0
 40
7.474999999999998
  0
LINE
  5
4E86
330
1F
100
AcDbEntity
  8
AM_7
  6
AM_ISO08W050x2
100
AcDbLine
 10
121.1438575288396
 20
151.9492091610631
 30
0.0
 11
144.4438575288395
 21
151.9492091610631
 31
0.0
  0
ARC
  5
4E92
330
1F
100
AcDbEntity
  8
AM_4
100
AcDbCircle
 10
158.7938575288395
 20
151.9492091610631
 30
0.0
 40
8.649999999999998
100
AcDbArc
 50
259.9999999999982
 51
169.9999999999997
  0
LINE
  5
4E93
330
1F
100
AcDbEntity
  8
AM_7
  6
AM_ISO08W050x2
100
AcDbLine
 10
158.7938575288395
 20
163.5992091610631
 30
0.0
 11
158.7938575288395
 21
140.2992091610631
 31
0.0
  0
CIRCLE
  5
4E94
330
1F
100
AcDbEntity
  8
AM_0
100
AcDbCircle
 10
158.7938575288395
 20
151.9492091610631
 30
0.0
 40
7.474999999999998
  0
LINE
  5
4E95
330
1F
100
AcDbEntity
  8
AM_7
  6
AM_ISO08W050x2
100
AcDbLine
 10
147.1438575288396
 20
151.9492091610631
 30
0.0
 11
170.4438575288395
 21
151.9492091610631
 31
0.0
  0
DIMENSION
  5
4F08
102
{ACAD_XDICTIONARY
360
4F15
102
}
102
{ACAD_REACTORS
330
4F16
102
}
330
1F
100
AcDbEntity
  8
AM_5
100
AcDbDimension
  2
*D12
 10
132.7938575288395
 20
128.449208161063
 30
0.0
 11
122.7938575288396
 21
130.9495034366536
 31
0.0
 70
    32
 71
     5
 42
20.0
  3
AM_ISO$0
100
AcDbAlignedDimension
 13
112.7938575288395
 23
140.4492091610631
 33
0.0
 14
132.7938575288395
 24
140.2992091610631
 34
0.0
 50
0.0000000000001018
100
AcDbRotatedDimension
1001
ACAD
1000
DSTYLE
1002
{
1070
    40
1040
1.0
1070
   144
1040
1.0
1070
   272
1070
     8
1002
}
  0
ENDSEC
  0
SECTION
  2
OBJECTS
  0
DICTIONARY
  5
C
330
0
100
AcDbDictionary
281
     1
  3
ACAD_COLOR
350
7D1
  3
ACAD_GROUP
350
D
  3
ACAD_LAYOUT
350
1A
  3
ACAD_MATERIAL
350
7D0
  3
ACAD_MLINESTYLE
350
17
  3
ACAD_PLOTSETTINGS
350
19
  3
ACAD_PLOTSTYLENAME
350
E
  3
ACAD_TABLESTYLE
350
7D2
  3
ACDBHEADERROUNDTRIPXREC
350
5103
  3
AcDbVariableDictionary
350
82
  3
AcmDictionary
350
45
  3
AMG
350
2B
  3
AMGSNAPSETTINGS
350
87
  3
DWGPROPS
350
5102
  0
DICTIONARY
  5
AAB
330
2
100
AcDbDictionary
280
     1
281
     1
  3
ACAD_LAYERSTATES
360
AAC
  3
AMLAYER_GROUPCOLORS
360
3426
  0
DICTIONARY
  5
7D
330
1F
100
AcDbDictionary
280
     1
281
     1
  3
ACAD_SORTENTS
360
EEA
  0
DICTIONARY
  5
4F15
330
4F08
100
AcDbDictionary
280
     1
281
     1
  3
ACAD_DIMASSOC
360
4F16
  0
DICTIONARY
  5
7D1
102
{ACAD_REACTORS
330
C
102
}
330
C
100
AcDbDictionary
281
     1
  0
DICTIONARY
  5
D
102
{ACAD_REACTORS
330
C
102
}
330
C
100
AcDbDictionary
281
     1
  0
DICTIONARY
  5
1A
102
{ACAD_REACTORS
330
C
102
}
330
C
100
AcDbDictionary
281
     1
  3
Layout1
350
1E
  3
Layout2
350
26
  3
Model
350
22
  0
DICTIONARY
  5
7D0
102
{ACAD_REACTORS
330
C
102
}
330
C
100
AcDbDictionary
281
     1
  0
DICTIONARY
  5
17
102
{ACAD_REACTORS
330
C
102
}
330
C
100
AcDbDictionary
281
     1
  3
Standard
350
18
  0
DICTIONARY
  5
19
102
{ACAD_REACTORS
330
C
102
}
330
C
100
AcDbDictionary
281
     1
  0
ACDBDICTIONARYWDFLT
  5
E
102
{ACAD_REACTORS
330
C
102
}
330
C
100
AcDbDictionary
281
     1
  3
Normal
350
F
100
AcDbDictionaryWithDefault
340
F
  0
DICTIONARY
  5
7D2
102
{ACAD_REACTORS
330
C
102
}
330
C
100
AcDbDictionary
281
     1
  3
Standard
350
7D3
  0
DICTIONARY
  5
5103
102
{ACAD_REACTORS
330
C
102
}
330
C
100
AcDbDictionary
281
     1
  0
DICTIONARY
  5
82
102
{ACAD_REACTORS
330
C
102
}
330
C
100
AcDbDictionary
281
     1
  3
CTABLESTYLE
350
847
  3
DIMASSOC
350
85
  3
HIDETEXT
350
84
  3
INDEXCTL
350
83
  3
PROJECTNAME
350
848
  0
DICTIONARY
  5
45
102
{ACAD_REACTORS
330
C
102
}
330
C
100
AcDbDictionary
281
     1
  3
AcmStdDictionary
350
4A
  3
AMDTSECTSYM_ARROWCOLOR
350
7DF
  0
DICTIONARY
  5
2B
102
{ACAD_REACTORS
330
C
102
}
330
C
100
AcDbDictionary
281
     1
  0
DICTIONARY
  5
87
102
{ACAD_REACTORS
330
C
102
}
330
C
100
AcDbDictionary
281
     1
  0
XRECORD
  5
5102
102
{ACAD_REACTORS
330
C
102
}
330
C
100
AcDbXrecord
280
     1
  1
DWGPROPS COOKIE
  2

  3

  4

  6

  7

  8

  9

300
AmdtFileType=84
301
=
302
=
303
=
304
=
305
=
306
=
307
=
308
=
309
=
 40
0.6958409722222222
 41
2453021.369367211
 42
2453514.629046944
  1

 90
        1
  0
DICTIONARY
  5
AAC
102
{ACAD_REACTORS
330
AAB
102
}
330
AAB
100
AcDbDictionary
281
     1
  0
DICTIONARY
  5
3426
102
{ACAD_REACTORS
330
AAB
102
}
330
AAB
100
AcDbDictionary
280
     1
281
     1
  0
SORTENTSTABLE
  5
EEA
102
{ACAD_REACTORS
330
7D
102
}
330
7D
100
AcDbSortentsTable
330
1F
331
1476
  5
1476
331
1441
  5
1441
331
1644
  5
1644
331
1648
  5
1648
331
1477
  5
1477
331
1442
  5
1442
331
1620
  5
1620
331
1443
  5
1443
331
1444
  5
1444
331
1461
  5
1461
331
13F8
  5
13F8
331
1647
  5
1647
331
1445
  5
1445
331
2D18
  5
2D18
331
1623
  5
1623
331
13F9
  5
13F9
331
1630
  5
1630
331
13FA
  5
13FA
331
1631
  5
1631
331
13FB
  5
13FB
331
1632
  5
1632
331
1626
  5
1626
331
1465
  5
1465
331
13FC
  5
13FC
331
1602
  5
1602
331
143D
  5
143D
331
1449
  5
1449
331
1627
  5
1627
331
1466
  5
1466
331
13FD
  5
13FD
331
13F1
  5
13F1
331
1603
  5
1603
331
143E
  5
143E
331
1634
  5
1634
331
1628
  5
1628
331
1467
  5
1467
331
13FE
  5
13FE
331
13F2
  5
13F2
331
1604
  5
1604
331
1610
  5
1610
331
143F
  5
143F
331
1635
  5
1635
331
1629
  5
1629
331
13FF
  5
13FF
331
13F3
  5
13F3
331
1605
  5
1605
331
1636
  5
1636
331
1400
  5
1400
331
13F4
  5
13F4
331
144D
  5
144D
331
39BB
  5
39BB
331
1637
  5
1637
331
13F5
  5
13F5
331
1664
  5
1664
331
1401
  5
1401
331
144E
  5
144E
331
39BC
  5
39BC
331
1638
  5
1638
331
146B
  5
146B
331
13F6
  5
13F6
331
1402
  5
1402
331
162D
  5
162D
331
1639
  5
1639
331
146C
  5
146C
331
1478
  5
1478
331
13F7
  5
13F7
331
1403
  5
1403
331
1615
  5
1615
331
163A
  5
163A
331
162E
  5
162E
331
146D
  5
146D
331
1479
  5
1479
331
1404
  5
1404
331
1616
  5
1616
331
160A
  5
160A
331
163B
  5
163B
331
162F
  5
162F
331
146E
  5
146E
331
1405
  5
1405
331
160B
  5
160B
331
1452
  5
1452
331
163C
  5
163C
331
146F
  5
146F
331
1453
  5
1453
331
163D
  5
163D
331
1470
  5
1470
331
1454
  5
1454
331
1458
  5
1458
331
163E
  5
163E
331
1471
  5
1471
331
161A
  5
161A
331
1455
  5
1455
331
1459
  5
1459
331
1472
  5
1472
331
160F
  5
160F
331
1456
  5
1456
331
1640
  5
1640
331
1473
  5
1473
331
1432
  5
1432
331
3380
  5
3380
331
1457
  5
1457
331
1641
  5
1641
331
1474
  5
1474
331
1433
  5
1433
331
3381
  5
3381
331
161D
  5
161D
331
1642
  5
1642
331
1475
  5
1475
331
1434
  5
1434
331
1440
  5
1440
331
145D
  5
145D
  0
DIMASSOC
  5
4F16
102
{ACAD_REACTORS
330
4F15
102
}
330
4F15
100
AcDbDimAssoc
330
4F08
 90
        3
 70
     0
 71
     0
  1
AcDbOsnapPointRef
 72
    13
331
4E5F
 73
     0
 91
        0
 40
0.0
 10
0.0
 20
0.0
 30
2.000000000000000E+50
 75
     0
  1
AcDbOsnapPointRef
 72
     1
331
4E84
 73
     0
 91
        0
 40
0.0
 10
0.0
 20
0.0
 30
2.000000000000000E+50
 75
     0
  0
LAYOUT
  5
1E
102
{ACAD_XDICTIONARY
360
5104
102
}
102
{ACAD_REACTORS
330
1A
102
}
330
1A
100
AcDbPlotSettings
  1

  2
自動 RD 上的 Epson Stylus Photo 750 單色
  4

  6

 40
0.0
 41
0.0
 42
0.0
 43
0.0
 44
0.0
 45
0.0
 46
0.0
 47
0.0
 48
0.0
 49
0.0
140
0.0
141
0.0
142
1.0
143
1.0
 70
   688
 72
     0
 73
     0
 74
     5
  7
彩色出圖.ctb
 75
    16
147
1.0
148
0.0
149
0.0
100
AcDbLayout
  1
Layout1
 70
     1
 71
     1
 10
0.0
 20
0.0
 11
420.0
 21
297.0
 12
0.0
 22
0.0
 32
0.0
 14
1.000000000000000E+20
 24
1.000000000000000E+20
 34
1.000000000000000E+20
 15
-1.000000000000000E+20
 25
-1.000000000000000E+20
 35
-1.000000000000000E+20
146
0.0
 13
0.0
 23
0.0
 33
0.0
 16
1.0
 26
0.0
 36
0.0
 17
0.0
 27
1.0
 37
0.0
 76
     0
330
1B
  0
LAYOUT
  5
26
102
{ACAD_XDICTIONARY
360
5108
102
}
102
{ACAD_REACTORS
330
1A
102
}
330
1A
100
AcDbPlotSettings
  1

  2
自動 RD 上的 Epson Stylus Photo 750 單色
  4

  6

 40
0.0
 41
0.0
 42
0.0
 43
0.0
 44
0.0
 45
0.0
 46
0.0
 47
0.0
 48
0.0
 49
0.0
140
0.0
141
0.0
142
1.0
143
1.0
 70
   688
 72
     0
 73
     0
 74
     5
  7
彩色出圖.ctb
 75
    16
147
1.0
148
0.0
149
0.0
100
AcDbLayout
  1
Layout2
 70
     1
 71
     2
 10
0.0
 20
0.0
 11
12.0
 21
9.0
 12
0.0
 22
0.0
 32
0.0
 14
0.0
 24
0.0
 34
0.0
 15
0.0
 25
0.0
 35
0.0
146
0.0
 13
0.0
 23
0.0
 33
0.0
 16
1.0
 26
0.0
 36
0.0
 17
0.0
 27
1.0
 37
0.0
 76
     0
330
23
  0
LAYOUT
  5
22
102
{ACAD_XDICTIONARY
360
5106
102
}
102
{ACAD_REACTORS
330
1A
102
}
330
1A
100
AcDbPlotSettings
  1

  2
自動 RD 上的 Epson Stylus Photo 750 單色
  4
A4
  6

 40
3.757083177566528
 41
14.7637300491333
 42
3.757080078125
 43
3.757080078125
 44
209.9733276367187
 45
296.9683227539062
 46
7.54
 47
0.0
 48
0.0
 49
0.0
140
0.0
141
0.0
142
1.0
143
1.817317462545654
 70
 11956
 72
     1
 73
     0
 74
     1
  7
彩色出圖.ctb
 75
     0
147
0.5502615919395967
148
-125.5654918467224
149
222.8859553785132
100
AcDbLayout
  1
Model
 70
     1
 71
     0
 10
0.0
 20
0.0
 11
12.0
 21
9.0
 12
0.0
 22
0.0
 32
0.0
 14
0.0
 24
0.0
 34
0.0
 15
0.0
 25
0.0
 35
0.0
146
0.0
 13
0.0
 23
0.0
 33
0.0
 16
1.0
 26
0.0
 36
0.0
 17
0.0
 27
1.0
 37
0.0
 76
     0
330
1F
  0
MLINESTYLE
  5
18
102
{ACAD_REACTORS
330
17
102
}
330
17
100
AcDbMlineStyle
  2
STANDARD
 70
     0
  3

 62
   256
 51
90.0
 52
90.0
 71
     2
 49
0.5
 62
   256
  6
BYLAYER
 49
-0.5
 62
   256
  6
BYLAYER
  0
ACDBPLACEHOLDER
  5
F
102
{ACAD_REACTORS
330
E
102
}
330
E
  0
TABLESTYLE
  5
7D3
102
{ACAD_REACTORS
330
7D2
102
}
330
7D2
100
AcDbTableStyle
  3
Standard
 70
     0
 71
     0
 40
1.5
 41
1.5
280
     0
281
     0
  7
STANDARD
140
4.5
170
     2
 62
     0
 63
     7
283
     0
274
    -2
284
     1
 64
     0
275
    -2
285
     1
 65
     0
276
    -2
286
     1
 66
     0
277
    -2
287
     1
 67
     0
278
    -2
288
     1
 68
     0
279
    -2
289
     1
 69
     0
  7
STANDARD
140
6.0
170
     5
 62
     0
 63
     7
283
     0
274
    -2
284
     1
 64
     0
275
    -2
285
     1
 65
     0
276
    -2
286
     1
 66
     0
277
    -2
287
     1
 67
     0
278
    -2
288
     1
 68
     0
279
    -2
289
     1
 69
     0
  7
STANDARD
140
4.5
170
     5
 62
     0
 63
     7
283
     0
274
    -2
284
     1
 64
     0
275
    -2
285
     1
 65
     0
276
    -2
286
     1
 66
     0
277
    -2
287
     1
 67
     0
278
    -2
288
     1
 68
     0
279
    -2
289
     1
 69
     0
  0
DICTIONARYVAR
  5
847
102
{ACAD_REACTORS
330
82
102
}
330
82
100
DictionaryVariables
280
     0
  1
STANDARD
  0
DICTIONARYVAR
  5
85
102
{ACAD_REACTORS
330
82
102
}
330
82
100
DictionaryVariables
280
     0
  1
2
  0
DICTIONARYVAR
  5
84
102
{ACAD_REACTORS
330
82
102
}
330
82
100
DictionaryVariables
280
     0
  1
1
  0
DICTIONARYVAR
  5
83
102
{ACAD_REACTORS
330
82
102
}
330
82
100
DictionaryVariables
280
     0
  1
0
  0
DICTIONARYVAR
  5
848
102
{ACAD_REACTORS
330
82
102
}
330
82
100
DictionaryVariables
280
     0
  1

  0
DICTIONARY
  5
4A
102
{ACAD_REACTORS
330
45
102
}
330
45
100
AcDbDictionary
281
     1
  0
XRECORD
  5
7DF
102
{ACAD_REACTORS
330
45
102
}
330
45
100
AcDbXrecord
280
     1
 90
-1023410169
  0
DICTIONARY
  5
5104
330
1E
100
AcDbDictionary
280
     1
281
     1
  3
ACAD_XREC_ROUNDTRIP
360
5105
  0
DICTIONARY
  5
5108
330
26
100
AcDbDictionary
280
     1
281
     1
  3
ACAD_XREC_ROUNDTRIP
360
5109
  0
DICTIONARY
  5
5106
330
22
100
AcDbDictionary
280
     1
281
     1
  3
ACAD_XREC_ROUNDTRIP
360
5107
  0
XRECORD
  5
5105
102
{ACAD_REACTORS
330
5104
102
}
330
5104
100
AcDbXrecord
280
     1
102
SHADEPLOT
 70
     0
102
SHADEPLOTRESLEVEL
 70
     2
102
SHADEPLOTCUSTOMDPI
 70
   300
  0
XRECORD
  5
5109
102
{ACAD_REACTORS
330
5108
102
}
330
5108
100
AcDbXrecord
280
     1
102
SHADEPLOT
 70
     0
102
SHADEPLOTRESLEVEL
 70
     2
102
SHADEPLOTCUSTOMDPI
 70
   300
  0
XRECORD
  5
5107
102
{ACAD_REACTORS
330
5106
102
}
330
5106
100
AcDbXrecord
280
     1
102
SHADEPLOT
 70
     0
102
SHADEPLOTRESLEVEL
 70
     2
102
SHADEPLOTCUSTOMDPI
 70
   300
  0
ENDSEC
  0
EOF
