  0
SECTION
  2
HEADER
  9
$ACADVER
  1
AC1015
  9
$ACADMAINTVER
 70
    20
  9
$DWGCODEPAGE
  3
ANSI_950
  9
$INSBASE
 10
0.0
 20
0.0
 30
0.0
  9
$EXTMIN
 10
181.1918038136318
 20
129.865998283572
 30
-0.0067187555347914
  9
$EXTMAX
 10
517.2466405277491
 20
534.0166723511265
 30
220.1836990576973
  9
$LIMMIN
 10
0.0
 20
0.0
  9
$LIMMAX
 10
420.0
 20
297.0
  9
$ORTHOMODE
 70
     1
  9
$REGENMODE
 70
     1
  9
$FILLMODE
 70
     1
  9
$QTEXTMODE
 70
     0
  9
$MIRRTEXT
 70
     1
  9
$LTSCALE
 40
1.0
  9
$ATTMODE
 70
     1
  9
$TEXTSIZE
 40
3.0
  9
$TRACEWID
 40
1.0
  9
$TEXTSTYLE
  7
STANDARD
  9
$CLAYER
  8
0
  9
$CELTYPE
  6
ByLayer
  9
$CECOLOR
 62
   256
  9
$CELTSCALE
 40
1.0
  9
$DISPSILH
 70
     0
  9
$DIMSCALE
 40
1.0
  9
$DIMASZ
 40
3.0
  9
$DIMEXO
 40
1.5
  9
$DIMDLI
 40
8.0
  9
$DIMRND
 40
0.0
  9
$DIMDLE
 40
0.0
  9
$DIMEXE
 40
1.5
  9
$DIMTP
 40
0.1
  9
$DIMTM
 40
0.1
  9
$DIMTXT
 40
3.5
  9
$DIMCEN
 40
0.0
  9
$DIMTSZ
 40
0.0
  9
$DIMTOL
 70
     0
  9
$DIMLIM
 70
     0
  9
$DIMTIH
 70
     0
  9
$DIMTOH
 70
     0
  9
$DIMSE1
 70
     0
  9
$DIMSE2
 70
     0
  9
$DIMTAD
 70
     1
  9
$DIMZIN
 70
     8
  9
$DIMBLK
  1

  9
$DIMASO
 70
     1
  9
$DIMSHO
 70
     1
  9
$DIMPOST
  1

  9
$DIMAPOST
  1
"
  9
$DIMALT
 70
     0
  9
$DIMALTD
 70
     2
  9
$DIMALTF
 40
0.0393701
  9
$DIMLFAC
 40
1.0
  9
$DIMTOFL
 70
     1
  9
$DIMTVP
 40
0.0
  9
$DIMTIX
 70
     0
  9
$DIMSOXD
 70
     0
  9
$DIMSAH
 70
     0
  9
$DIMBLK1
  1

  9
$DIMBLK2
  1

  9
$DIMSTYLE
  2
AM_ISO
  9
$DIMCLRD
 70
   256
  9
$DIMCLRE
 70
   256
  9
$DIMCLRT
 70
   256
  9
$DIMTFAC
 40
0.6
  9
$DIMGAP
 40
1.0
  9
$DIMJUST
 70
     0
  9
$DIMSD1
 70
     0
  9
$DIMSD2
 70
     0
  9
$DIMTOLJ
 70
     0
  9
$DIMTZIN
 70
     8
  9
$DIMALTZ
 70
     0
  9
$DIMALTTZ
 70
     0
  9
$DIMUPT
 70
     0
  9
$DIMDEC
 70
     2
  9
$DIMTDEC
 70
     8
  9
$DIMALTU
 70
     2
  9
$DIMALTTD
 70
     2
  9
$DIMTXSTY
  7
STANDARD
  9
$DIMAUNIT
 70
     0
  9
$DIMADEC
 70
     0
  9
$DIMALTRND
 40
0.0
  9
$DIMAZIN
 70
     2
  9
$DIMDSEP
 70
    46
  9
$DIMATFIT
 70
     3
  9
$DIMFRAC
 70
     0
  9
$DIMLDRBLK
  1

  9
$DIMLUNIT
 70
     2
  9
$DIMLWD
 70
    -1
  9
$DIMLWE
 70
    -1
  9
$DIMTMOVE
 70
     0
  9
$LUNITS
 70
     2
  9
$LUPREC
 70
     2
  9
$SKETCHINC
 40
1.0
  9
$FILLETRAD
 40
2.5
  9
$AUNITS
 70
     0
  9
$AUPREC
 70
     0
  9
$MENU
  1
.
  9
$ELEVATION
 40
0.0
  9
$PELEVATION
 40
0.0
  9
$THICKNESS
 40
0.0
  9
$LIMCHECK
 70
     0
  9
$CHAMFERA
 40
2.5
  9
$CHAMFERB
 40
2.5
  9
$CHAMFERC
 40
20.0
  9
$CHAMFERD
 40
0.0
  9
$SKPOLY
 70
     0
  9
$TDCREATE
 40
2454411.613581806
  9
$TDUCREATE
 40
2454411.280248472
  9
$TDUPDATE
 40
2454411.615554109
  9
$TDUUPDATE
 40
2454411.282220775
  9
$TDINDWG
 40
0.0019732060
  9
$TDUSRTIMER
 40
0.0019732060
  9
$USRTIMER
 70
     1
  9
$ANGBASE
 50
0.0
  9
$ANGDIR
 70
     0
  9
$PDMODE
 70
     0
  9
$PDSIZE
 40
0.0
  9
$PLINEWID
 40
0.0
  9
$SPLFRAME
 70
     0
  9
$SPLINETYPE
 70
     6
  9
$SPLINESEGS
 70
     8
  9
$HANDSEED
  5
15DC
  9
$SURFTAB1
 70
     6
  9
$SURFTAB2
 70
     6
  9
$SURFTYPE
 70
     6
  9
$SURFU
 70
     6
  9
$SURFV
 70
     6
  9
$UCSBASE
  2

  9
$UCSNAME
  2

  9
$UCSORG
 10
0.0
 20
0.0
 30
0.0
  9
$UCSXDIR
 10
1.0
 20
0.0
 30
0.0
  9
$UCSYDIR
 10
0.0
 20
1.0
 30
0.0
  9
$UCSORTHOREF
  2

  9
$UCSORTHOVIEW
 70
     0
  9
$UCSORGTOP
 10
0.0
 20
0.0
 30
0.0
  9
$UCSORGBOTTOM
 10
0.0
 20
0.0
 30
0.0
  9
$UCSORGLEFT
 10
0.0
 20
0.0
 30
0.0
  9
$UCSORGRIGHT
 10
0.0
 20
0.0
 30
0.0
  9
$UCSORGFRONT
 10
0.0
 20
0.0
 30
0.0
  9
$UCSORGBACK
 10
0.0
 20
0.0
 30
0.0
  9
$PUCSBASE
  2

  9
$PUCSNAME
  2

  9
$PUCSORG
 10
0.0
 20
0.0
 30
0.0
  9
$PUCSXDIR
 10
1.0
 20
0.0
 30
0.0
  9
$PUCSYDIR
 10
0.0
 20
1.0
 30
0.0
  9
$PUCSORTHOREF
  2

  9
$PUCSORTHOVIEW
 70
     0
  9
$PUCSORGTOP
 10
0.0
 20
0.0
 30
0.0
  9
$PUCSORGBOTTOM
 10
0.0
 20
0.0
 30
0.0
  9
$PUCSORGLEFT
 10
0.0
 20
0.0
 30
0.0
  9
$PUCSORGRIGHT
 10
0.0
 20
0.0
 30
0.0
  9
$PUCSORGFRONT
 10
0.0
 20
0.0
 30
0.0
  9
$PUCSORGBACK
 10
0.0
 20
0.0
 30
0.0
  9
$USERI1
 70
     0
  9
$USERI2
 70
     0
  9
$USERI3
 70
     0
  9
$USERI4
 70
     0
  9
$USERI5
 70
     0
  9
$USERR1
 40
0.0
  9
$USERR2
 40
0.0
  9
$USERR3
 40
0.0
  9
$USERR4
 40
0.0
  9
$USERR5
 40
0.0
  9
$WORLDVIEW
 70
     1
  9
$SHADEDGE
 70
     3
  9
$SHADEDIF
 70
    70
  9
$TILEMODE
 70
     1
  9
$MAXACTVP
 70
    64
  9
$PINSBASE
 10
0.0
 20
0.0
 30
0.0
  9
$PLIMCHECK
 70
     0
  9
$PEXTMIN
 10
1.000000000000000E+20
 20
1.000000000000000E+20
 30
1.000000000000000E+20
  9
$PEXTMAX
 10
-1.000000000000000E+20
 20
-1.000000000000000E+20
 30
-1.000000000000000E+20
  9
$PLIMMIN
 10
0.0
 20
0.0
  9
$PLIMMAX
 10
420.0
 20
297.0
  9
$UNITMODE
 70
     0
  9
$VISRETAIN
 70
     1
  9
$PLINEGEN
 70
     0
  9
$PSLTSCALE
 70
     1
  9
$TREEDEPTH
 70
  3020
  9
$CMLSTYLE
  2
Standard
  9
$CMLJUST
 70
     0
  9
$CMLSCALE
 40
20.0
  9
$PROXYGRAPHICS
 70
     1
  9
$MEASUREMENT
 70
     1
  9
$CELWEIGHT
370
    -1
  9
$ENDCAPS
280
     0
  9
$JOINSTYLE
280
     0
  9
$LWDISPLAY
290
     0
  9
$INSUNITS
 70
     4
  9
$HYPERLINKBASE
  1

  9
$STYLESHEET
  1
彩色出圖.ctb
  9
$XEDIT
290
     1
  9
$CEPSNTYPE
380
     0
  9
$PSTYLEMODE
290
     1
  9
$FINGERPRINTGUID
  2
{9E090CA9-7DD3-4A75-8419-62CD5336F091}
  9
$VERSIONGUID
  2
{3DE5B609-E829-43BA-856F-3444016D09EC}
  9
$EXTNAMES
290
     1
  9
$PSVPSCALE
 40
0.0
  9
$OLESTARTUP
290
     0
  0
ENDSEC
  0
SECTION
  2
CLASSES
  0
CLASS
  1
ACDBDICTIONARYWDFLT
  2
AcDbDictionaryWithDefault
  3
ObjectDBX Classes
 90
        0
280
     0
281
     0
  0
CLASS
  1
ACDBPLACEHOLDER
  2
AcDbPlaceHolder
  3
ObjectDBX Classes
 90
        0
280
     0
281
     0
  0
CLASS
  1
LAYOUT
  2
AcDbLayout
  3
ObjectDBX Classes
 90
        0
280
     0
281
     0
  0
CLASS
  1
ACME_DOCUMENT
  2
AcMeDbDoc
  3
AcMeServices
 90
        0
280
     0
281
     0
  0
CLASS
  1
AMGSETTINGSOBJ
  2
AmgSettingsObj
  3
"AcadM|Product Description: AutoCAD Mechanical 2000|Company: Autodesk"
 90
        0
280
     0
281
     0
  0
CLASS
  1
ACMESCOPE
  2
AcMeScope
  3
AcMeServices
 90
        0
280
     0
281
     0
  0
CLASS
  1
ACMECOMMANDHISTORY
  2
AcMeCommandHistory
  3
AcMeServices
 90
        0
280
     0
281
     0
  0
CLASS
  1
ACIMSYSVARMAN
  2
AcImSysVarManager
  3
AcMeServices
 90
        0
280
     0
281
     0
  0
CLASS
  1
ACIMREALSYSVAR
  2
AcImRealSysVar
  3
AcMeServices
 90
        0
280
     0
281
     0
  0
CLASS
  1
ACIMINTSYSVAR
  2
AcImIntSysVar
  3
AcMeServices
 90
        0
280
     0
281
     0
  0
CLASS
  1
ACMEDRAWINGMAN
  2
AcMeDrawingMan
  3
AcMeServices
 90
        0
280
     0
281
     0
  0
CLASS
  1
ACMEVIEW
  2
AcMeView
  3
AcMeServices
 90
        0
280
     0
281
     0
  0
CLASS
  1
ACDBENTITYCACHE
  2
AcMeEntityCache
  3
AcMeServices
 90
        0
280
     0
281
     0
  0
CLASS
  1
GSMANAGER
  2
AcMeGSManager
  3
AcMeServices
 90
        0
280
     0
281
     0
  0
CLASS
  1
AMDTINTERNALREACTOR
  2
AmdtInternalReactor
  3
AcMeServices
 90
        0
280
     0
281
     0
  0
CLASS
  1
ACMESTATEMGR
  2
AcMeStateMgr
  3
AcMeServices
 90
        0
280
     0
281
     0
  0
CLASS
  1
ACGREFMASTER
  2
AcGrefMaster
  3
AcAttribServices
 90
        0
280
     0
281
     0
  0
CLASS
  1
ACME_DATABASE
  2
AcMeDbDatabase
  3
AcMeServices
 90
        0
280
     0
281
     0
  0
CLASS
  1
ACRFINSADJUSTERMGR
  2
AcRfInsAdjusterMgr
  3
AcMeServices
 90
        0
280
     0
281
     0
  0
CLASS
  1
ACGREFACADMASTER
  2
AcGrefacadMaster
  3
AcGrefServices
 90
        0
280
     0
281
     0
  0
CLASS
  1
AMIMASTER
  2
AmiMaster
  3
AmiServices
 90
        0
280
     0
281
     0
  0
CLASS
  1
ACMDATADICTIONARY
  2
AcmDataDictionary
  3
"AcmSymBB|Product Description: AutoCAD Mechanical 2004 DX|Company: Autodesk"
 90
        0
280
     0
281
     0
  0
CLASS
  1
ACMDATAENTRYBLOCK
  2
AcmDataEntryBlock
  3
"AcmSymBB|Product Description: AutoCAD Mechanical 2004 DX|Company: Autodesk"
 90
        0
280
     0
281
     0
  0
CLASS
  1
ACIMSTRSYSVAR
  2
AcImStrSysVar
  3
AcMeServices
 90
        0
280
     0
281
     0
  0
CLASS
  1
ACMSTANDARDISO
  2
AcmStandardISO
  3
"Amdt_StdImp|Product Description: AutoCAD Mechanical 2004 DX|Company: Autodesk"
 90
        0
280
     0
281
     0
  0
CLASS
  1
AMGOBJPROPCFG
  2
AmgObjPropCfg
  3
"AmgLay|Product Description: AutoCAD Mechanical 2000|Company: Autodesk"
 90
        1
280
     0
281
     0
  0
CLASS
  1
AMDTEDGESTANDARDISO
  2
AmdtEdgeStdISO
  3
"Amdt_StdImp|Product Description: AutoCAD Mechanical 2004 DX|Company: Autodesk"
 90
        0
280
     0
281
     0
  0
CLASS
  1
ACMSURFSTANDARDISO
  2
AcmSurfTextStdISO
  3
"Amdt_StdImp|Product Description: AutoCAD Mechanical 2004 DX|Company: Autodesk"
 90
        0
280
     0
281
     0
  0
CLASS
  1
ACMFCFSTANDARDISO
  2
AcmFCFStdISO
  3
"Amdt_StdImp|Product Description: AutoCAD Mechanical 2004 DX|Company: Autodesk"
 90
        0
280
     0
281
     0
  0
CLASS
  1
ACMWELDSTANDARDISO
  2
AcmWeldingStdISO
  3
"Amdt_StdImp|Product Description: AutoCAD Mechanical 2004 DX|Company: Autodesk"
 90
        0
280
     0
281
     0
  0
CLASS
  1
ACMIDSTANDARDISO
  2
AcmIdStdISO
  3
"Amdt_StdImp|Product Description: AutoCAD Mechanical 2004 DX|Company: Autodesk"
 90
        0
280
     0
281
     0
  0
CLASS
  1
ACMDATUMSTANDARDISO
  2
AcmDatumStdISO
  3
"Amdt_StdImp|Product Description: AutoCAD Mechanical 2004 DX|Company: Autodesk"
 90
        0
280
     0
281
     0
  0
CLASS
  1
ACMBOMSTANDARDISO
  2
AcmBOMStdISO
  3
"Amdt_StdImp|Product Description: AutoCAD Mechanical 2004 DX|Company: Autodesk"
 90
        0
280
     0
281
     0
  0
CLASS
  1
ACMDETAILSTANDARDISO
  2
AmdtDetailSymStdISO
  3
"Amdt_StdImp|Product Description: AutoCAD Mechanical 2004 DX|Company: Autodesk"
 90
        0
280
     0
281
     0
  0
CLASS
  1
ACMSECTIONSTANDARDISO
  2
AmdtSectionSymStdISO
  3
"Amdt_StdImp|Product Description: AutoCAD Mechanical 2004 DX|Company: Autodesk"
 90
        0
280
     0
281
     0
  0
CLASS
  1
ACMCENTERLINESTANDARDISO
  2
AmdtCenterLineStdISO
  3
"Amdt_StdImp|Product Description: AutoCAD Mechanical 2004 DX|Company: Autodesk"
 90
        0
280
     0
281
     0
  0
CLASS
  1
ACMNOTESTANDARDISO
  2
AmdtNoteStdISO
  3
"Amdt_StdImp|Product Description: AutoCAD Mechanical 2004 DX|Company: Autodesk"
 90
        0
280
     0
281
     0
  0
CLASS
  1
ACAMGLAYSTD
  2
AcAmgLayStd
  3
"AcAmgLayStd|Product Description: AutoCAD Mechanical 2000|Company: Autodesk"
 90
        0
280
     0
281
     0
  0
CLASS
  1
ACAMGDIMSTD
  2
AcAmgDimStd
  3
"AcAmgDimStd|Product Description: AutoCAD Mechanical 2000|Company: Autodesk"
 90
        0
280
     0
281
     0
  0
CLASS
  1
ACAMGHOLECHARTSTDISO
  2
AcAmgHoleChartStdISO
  3
ACMSYMBB_MODULE_NAME
 90
        0
280
     0
281
     0
  0
CLASS
  1
ACAMGTITLESTD
  2
AcAmgTitleStd
  3
"TITLEAPP"
 90
        0
280
     0
281
     0
  0
CLASS
  1
LAYER_INDEX
  2
AcDbLayerIndex
  3
ObjectDBX Classes
 90
    32768
280
     0
281
     0
  0
CLASS
  1
IDBUFFER
  2
AcDbIdBuffer
  3
ObjectDBX Classes
 90
    32768
280
     0
281
     0
  0
CLASS
  1
DICTIONARYVAR
  2
AcDbDictionaryVar
  3
ObjectDBX Classes
 90
        0
280
     0
281
     0
  0
CLASS
  1
AM_DRAWING_MGR
  2
AcDmDwgMgr
  3
AcMechDwgViewMgmt
 90
        0
280
     0
281
     0
  0
CLASS
  1
AM_DWG_DOCUMENT
  2
AcDmDwgDocument
  3
AcMechDwgViewMgmt
 90
        0
280
     0
281
     0
  0
CLASS
  1
AM_DWG_SHEET
  2
AcDmSheet
  3
AcMechDwgViewMgmt
 90
        0
280
     0
281
     0
  0
CLASS
  1
AM_VIEWDIMPARMAP
  2
AcDmViewDimParMap
  3
AcMechDwgViewMgmt
 90
        0
280
     0
281
     0
  0
CLASS
  1
AM_DWGMGR_NAME
  2
AcDmDwgMgrName
  3
AcMechDwgViewMgmt
 90
        0
280
     0
281
     0
  0
CLASS
  1
AMDTMENUSTATEMGR
  2
AmdtMenuStateMgr
  3
McadcomServices
 90
        0
280
     0
281
     0
  0
CLASS
  1
AMDTMCOMMENUSTATE
  2
AmdtMcomMenuState
  3
McadcomServices
 90
        0
280
     0
281
     0
  0
CLASS
  1
MAPIAMMOUDLE
  2
MApiAmModule
  3
MApiAmServices
 90
        0
280
     0
281
     0
  0
CLASS
  1
AMDTADMENUSTATE
  2
AmdtAdMenuState
  3
DesignerServices
 90
        0
280
     0
281
     0
  0
CLASS
  1
ADAPPL
  2
AcAdAppl
  3
DesignerServices
 90
        0
280
     0
281
     0
  0
CLASS
  1
DEPMGR
  2
AcAdDepMgr
  3
DesignerServices
 90
        0
280
     0
281
     0
  0
CLASS
  1
PARAMMGR
  2
AcAdParamMgr
  3
DesignerServices
 90
        0
280
     0
281
     0
  0
CLASS
  1
PARAMSCOPE
  2
AcAdParamScope
  3
DesignerServices
 90
        0
280
     0
281
     0
  0
CLASS
  1
NAMEDAPPL
  2
AcAdNamedAppl
  3
DesignerServices
 90
        0
280
     0
281
     0
  0
CLASS
  1
AMDTDMMENUSTATE
  2
AmdtDmMenuState
  3
AcMechDwgViewMgmt
 90
        0
280
     0
281
     0
  0
CLASS
  1
AMDTAMMENUSTATE
  2
AmdtAmMenuState
  3
DesignerAssemblies
 90
        0
280
     0
281
     0
  0
CLASS
  1
ACAMPROJECT
  2
AcAmProject
  3
DesignerAssemblies
 90
        0
280
     0
281
     0
  0
CLASS
  1
ACAMGRCOMPDEF
  2
AcAmGrCompDef
  3
DesignerAssemblies
 90
        0
280
     0
281
     0
  0
CLASS
  1
ACCMCONTEXT
  2
AcCmContext
  3
DesignerAssemblies
 90
        0
280
     0
281
     0
  0
CLASS
  1
ACAMCOMPDEF
  2
AcAmCompDef
  3
DesignerAssemblies
 90
        0
280
     0
281
     0
  0
CLASS
  1
ACAMCOMPDEFMGR
  2
AcAmCompDefMgr
  3
DesignerAssemblies
 90
        0
280
     0
281
     0
  0
CLASS
  1
AMCONTEXTMGR
  2
AcAmContextMgr
  3
DesignerAssemblies
 90
        0
280
     0
281
     0
  0
CLASS
  1
ACAMCONTEXTMODELER
  2
AcAmContextModeler
  3
DesignerAssemblies
 90
        0
280
     0
281
     0
  0
CLASS
  1
ACMTHREADLINESTANDARDISO
  2
AmdtThreadLineStdISO
  3
"Amdt_StdImp|Product Description: AutoCAD Mechanical 2004 DX|Company: Autodesk"
 90
        0
280
     0
281
     0
  0
CLASS
  1
CATALOGSTATE
  2
AcAmCatalogState
  3
DesignerAssemblies
 90
        0
280
     0
281
     0
  0
CLASS
  1
ACAMGRCOMPDEFSET
  2
AcAmGrCompDefSet
  3
DesignerAssemblies
 90
        0
280
     0
281
     0
  0
CLASS
  1
AMDTBROWSERDBTAB
  2
AmdtBrowserDbTab
  3
McadcomServices
 90
        0
280
     0
281
     0
  0
CLASS
  1
CBROWSERAPPOBJECT
  2
CBrowserAppObject
  3
McadcomServices
 90
        0
280
     0
281
     0
  0
CLASS
  1
DM_PLACEHOLDER
  2
AcDmSelsetPlaceholder
  3
AcMechDwgViewMgmt
 90
        0
280
     0
281
     0
  0
CLASS
  1
TABLESTYLE
  2
AcDbTableStyle
  3
ObjectDBX Classes
 90
     2047
280
     0
281
     0
  0
CLASS
  1
VAACXREFPANELOBJECT
  2
VaAcXREFPanelObject
  3
VAAC_ADDIN
 90
    32768
280
     0
281
     0
  0
CLASS
  1
VAACIMAGEINVENTORY
  2
VaAcImageInventory
  3
VAAC_ADDIN
 90
    32768
280
     0
281
     0
  0
CLASS
  1
AMDTNOTETEMPLATEDB
  2
AmdtNoteTemplateDB
  3
AMDT_STDIMP_MODULE_NAME
 90
        0
280
     0
281
     0
  0
CLASS
  1
ACMBOM
  2
AcmBom
  3
"AcmSymBB|Product Description: AutoCAD Mechanical 2004 DX|Company: Autodesk"
 90
    32768
280
     0
281
     0
  0
CLASS
  1
AMDTFORMULAUPDATEDISPATCHER
  2
AmdtFormulaUpdateDispatcher
  3
AcMeServices
 90
    32768
280
     0
281
     0
  0
CLASS
  1
ACMPARTLIST
  2
AcmPartList
  3
"AcmSymBB|Product Description: AutoCAD Mechanical 2004 DX|Company: Autodesk"
 90
    33791
280
     0
281
     1
  0
CLASS
  1
ACAMGFILTERDAT
  2
AcAmgFilterDat
  3
"AcadM|Product Description: AutoCAD Mechanical 2000|Company: Autodesk"
 90
        0
280
     0
281
     0
  0
CLASS
  1
DIMASSOC
  2
AcDbDimAssoc
  3
"AcDbDimAssoc|Product Desc:     AcDim ARX App For Dimension|Company:          Autodesk, Inc.|WEB Address:      www.autodesk.com"
 90
        0
280
     0
281
     0
  0
CLASS
  1
AMDTNOTE
  2
AmdtNote
  3
"AcmSymBB|Product Description: AutoCAD Mechanical 2004 DX|Company: Autodesk"
 90
     1023
280
     0
281
     1
  0
CLASS
  1
SORTENTSTABLE
  2
AcDbSortentsTable
  3
ObjectDBX Classes
 90
        0
280
     0
281
     0
  0
CLASS
  1
ACRFATTGENMGR
  2
AcRfAttGeneralMgr
  3
AcAttribServices
 90
        0
280
     0
281
     0
  0
ENDSEC
  0
SECTION
  2
TABLES
  0
TABLE
  2
VPORT
  5
8
330
0
100
AcDbSymbolTable
 70
     5
  0
VPORT
  5
15D3
330
8
100
AcDbSymbolTableRecord
100
AcDbViewportTableRecord
  2
*Active
 70
     0
 10
0.0
 20
0.0
 11
1.0
 21
1.0
 12
349.2192221706905
 22
331.9413353173493
 13
0.0
 23
0.0
 14
2.5
 24
2.5
 15
10.0
 25
10.0
 16
0.0
 26
0.0
 36
1.0
 17
0.0
 27
0.0
 37
0.0
 40
407.4770170639953
 41
1.399725274725274
 42
50.0
 43
0.0
 44
0.0
 50
0.0
 51
0.0
 71
     0
 72
   100
 73
     1
 74
     3
 75
     0
 76
     0
 77
     0
 78
     0
281
     0
 65
     1
110
0.0
120
0.0
130
0.0
111
1.0
121
0.0
131
0.0
112
0.0
122
1.0
132
0.0
 79
     0
146
0.0
  0
ENDTAB
  0
TABLE
  2
LTYPE
  5
5
330
0
100
AcDbSymbolTable
 70
    14
  0
LTYPE
  5
14
330
5
100
AcDbSymbolTableRecord
100
AcDbLinetypeTableRecord
  2
ByBlock
 70
     0
  3

 72
    65
 73
     0
 40
0.0
  0
LTYPE
  5
15
330
5
100
AcDbSymbolTableRecord
100
AcDbLinetypeTableRecord
  2
ByLayer
 70
     0
  3

 72
    65
 73
     0
 40
0.0
  0
LTYPE
  5
16
330
5
100
AcDbSymbolTableRecord
100
AcDbLinetypeTableRecord
  2
Continuous
 70
     0
  3
Solid line
 72
    65
 73
     0
 40
0.0
  0
LTYPE
  5
64
330
5
100
AcDbSymbolTableRecord
100
AcDbLinetypeTableRecord
  2
AM_ISO02W050
 70
     0
  3
__ __ __ __ __ __ __ __ __ __ __ __ __ __ __
 72
    65
 73
     2
 40
7.5
 49
6.0
 74
     0
 49
-1.5
 74
     0
  0
LTYPE
  5
65
330
5
100
AcDbSymbolTableRecord
100
AcDbLinetypeTableRecord
  2
AM_ISO08W050
 70
     0
  3
____ . ____ . ____ . ____ . ____ . ____ . ____
 72
    65
 73
     4
 40
18.0
 49
12.0
 74
     0
 49
-1.5
 74
     0
 49
3.0
 74
     0
 49
-1.5
 74
     0
  0
LTYPE
  5
66
330
5
100
AcDbSymbolTableRecord
100
AcDbLinetypeTableRecord
  2
AM_ISO09W050
 70
     0
  3
_____ . . _____ . . _____ . . ____ .. ____
 72
    65
 73
     6
 40
22.5
 49
12.0
 74
     0
 49
-1.5
 74
     0
 49
3.0
 74
     0
 49
-1.5
 74
     0
 49
3.0
 74
     0
 49
-1.5
 74
     0
  0
LTYPE
  5
67
330
5
100
AcDbSymbolTableRecord
100
AcDbLinetypeTableRecord
  2
Amconstr
 70
     0
  3
_______________________
 72
    65
 73
     2
 40
9999.0
 49
9999.0
 74
     0
 49
0.0
 74
     0
  0
LTYPE
  5
68
330
5
100
AcDbSymbolTableRecord
100
AcDbLinetypeTableRecord
  2
AM_ISO08W050x2
 70
     0
  3
__ . __ . __ . __ . __ . __
 72
    65
 73
     4
 40
9.0
 49
6.0
 74
     0
 49
-0.75
 74
     0
 49
1.5
 74
     0
 49
-0.75
 74
     0
  0
LTYPE
  5
69
330
5
100
AcDbSymbolTableRecord
100
AcDbLinetypeTableRecord
  2
AM_ISO02W050x2
 70
     0
  3
 _ _ _ _ _ _ _ _ _ _ _ _
 72
    65
 73
     2
 40
3.75
 49
3.0
 74
     0
 49
-0.75
 74
     0
  0
LTYPE
  5
6C
330
5
100
AcDbSymbolTableRecord
100
AcDbLinetypeTableRecord
  2
Amzigzag
 70
     0
  3
/\/-/\/-/\/-/\/-/\/-/\/
 72
    65
 73
     2
 40
11.0001
 49
0.0001
 74
     4
 75
   135
340
6B
 46
0.04
 50
0.0
 44
0.0
 45
0.0
 49
-11.0
 74
     0
  0
LTYPE
  5
7A
330
5
100
AcDbSymbolTableRecord
100
AcDbLinetypeTableRecord
  2
ACISOWELD
 70
     0
  3
_ _ _ _ _
 72
    65
 73
     2
 40
2.0
 49
2.0
 74
     0
 49
-1.0
 74
     0
  0
LTYPE
  5
7B
330
5
100
AcDbSymbolTableRecord
100
AcDbLinetypeTableRecord
  2
ACISOTGB
 70
     0
  3
__ . . __ . .
 72
    65
 73
     6
 40
9.0
 49
4.0
 74
     0
 49
-1.0
 74
     0
 49
1.0
 74
     0
 49
-1.0
 74
     0
 49
1.0
 74
     0
 49
-1.0
 74
     0
  0
LTYPE
  5
7C
330
5
100
AcDbSymbolTableRecord
100
AcDbLinetypeTableRecord
  2
ACISOTGL
 70
     0
  3
_ _ _ _ _
 72
    65
 73
     2
 40
3.0
 49
2.0
 74
     0
 49
-1.0
 74
     0
  0
LTYPE
  5
7E
330
5
100
AcDbSymbolTableRecord
100
AcDbLinetypeTableRecord
  2
CENTER
 70
     0
  3
__ . __
 72
    65
 73
     4
 40
7.0
 49
4.0
 74
     0
 49
-1.0
 74
     0
 49
1.0
 74
     0
 49
-1.0
 74
     0
  0
LTYPE
  5
D8
330
5
100
AcDbSymbolTableRecord
100
AcDbLinetypeTableRecord
  2
HIDDEN
 70
     0
  3
Hidden __ __ __ __ __ __ __ __ __ __ __ __ __ _
 72
    65
 73
     2
 40
9.524999999999998
 49
6.349999999999999
 74
     0
 49
-3.174999999999999
 74
     0
  0
LTYPE
  5
D9
330
5
100
AcDbSymbolTableRecord
100
AcDbLinetypeTableRecord
  2
PHANTOM2
 70
     0
  3
Phantom (.5x) ___ _ _ ___ _ _ ___ _ _ ___ _ _
 72
    65
 73
     6
 40
31.75
 49
15.875
 74
     0
 49
-3.174999999999999
 74
     0
 49
3.174999999999999
 74
     0
 49
-3.174999999999999
 74
     0
 49
3.174999999999999
 74
     0
 49
-3.174999999999999
 74
     0
  0
ENDTAB
  0
TABLE
  2
LAYER
  5
2
102
{ACAD_XDICTIONARY
360
3F9
102
}
330
0
100
AcDbSymbolTable
 70
     8
  0
LAYER
  5
10
330
2
100
AcDbSymbolTableRecord
100
AcDbLayerTableRecord
  2
0
 70
     0
 62
     7
  6
Continuous
370
    -3
390
F
  0
LAYER
  5
B9E
330
2
100
AcDbSymbolTableRecord
100
AcDbLayerTableRecord
  2
AM_5
 70
     0
 62
     5
  6
Continuous
370
    50
390
F
  0
LAYER
  5
B9F
330
2
100
AcDbSymbolTableRecord
100
AcDbLayerTableRecord
  2
Defpoints
 70
     0
 62
     7
  6
Continuous
290
     0
370
    -3
390
F
  0
LAYER
  5
BA0
330
2
100
AcDbSymbolTableRecord
100
AcDbLayerTableRecord
  2
AM_VIS
 70
     0
 62
     7
  6
Continuous
370
    50
390
F
  0
LAYER
  5
BA1
330
2
100
AcDbSymbolTableRecord
100
AcDbLayerTableRecord
  2
AM_7
 70
     0
 62
     1
  6
CENTER
370
    25
390
F
  0
LAYER
  5
BA2
330
2
100
AcDbSymbolTableRecord
100
AcDbLayerTableRecord
  2
LOGO
 70
     0
 62
     7
  6
Continuous
370
    -3
390
F
  0
LAYER
  5
BA3
330
2
100
AcDbSymbolTableRecord
100
AcDbLayerTableRecord
  2
BORDER
 70
     0
 62
     7
  6
Continuous
370
    -3
390
F
  0
LAYER
  5
BA4
330
2
100
AcDbSymbolTableRecord
100
AcDbLayerTableRecord
  2
AM_0N
 70
     0
 62
     7
  6
Continuous
370
    50
390
F
  0
ENDTAB
  0
TABLE
  2
STYLE
  5
3
330
0
100
AcDbSymbolTable
 70
     6
  0
STYLE
  5
11
330
3
100
AcDbSymbolTableRecord
100
AcDbTextStyleTableRecord
  2
STANDARD
 70
     0
 40
0.0
 41
1.0
 50
0.0
 71
     0
 42
3.0
  3
ISOCP.SHX
  4
CHINESET.SHX
  0
STYLE
  5
6B
330
3
100
AcDbSymbolTableRecord
100
AcDbTextStyleTableRecord
  2

 70
     1
 40
0.0
 41
1.0
 50
0.0
 71
     0
 42
2.5
  3
ltypeshp.shx
  4

  0
STYLE
  5
6D
330
3
100
AcDbSymbolTableRecord
100
AcDbTextStyleTableRecord
  2
ACISOTS
 70
     0
 40
1.0
 41
1.0
 50
0.0
 71
     0
 42
1.0
  3
isocp.shx
  4
chineset.shx
  0
STYLE
  5
79
330
3
100
AcDbSymbolTableRecord
100
AcDbTextStyleTableRecord
  2
ACISOGDT
 70
     0
 40
0.0
 41
1.0
 50
0.0
 71
     0
 42
2.5
  3
amgdt.shx
  4
chineset.shx
  0
STYLE
  5
BA5
330
3
100
AcDbSymbolTableRecord
100
AcDbTextStyleTableRecord
  2
CHINESET
 70
     0
 40
0.0
 41
0.75
 50
0.0
 71
     0
 42
3.0
  3
simplex.shx
  4
CHINESET.SHX
  0
ENDTAB
  0
TABLE
  2
VIEW
  5
6
330
0
100
AcDbSymbolTable
 70
     0
  0
ENDTAB
  0
TABLE
  2
UCS
  5
7
330
0
100
AcDbSymbolTable
 70
     0
  0
ENDTAB
  0
TABLE
  2
APPID
  5
9
330
0
100
AcDbSymbolTable
 70
    20
  0
APPID
  5
12
330
9
100
AcDbSymbolTableRecord
100
AcDbRegAppTableRecord
  2
ACAD
 70
     0
  0
APPID
  5
46
330
9
100
AcDbSymbolTableRecord
100
AcDbRegAppTableRecord
  2
MCAD_NO_VIS
 70
     0
  0
APPID
  5
47
330
9
100
AcDbSymbolTableRecord
100
AcDbRegAppTableRecord
  2
ACAD_TEMP_GRAPHIC
 70
     0
  0
APPID
  5
58
330
9
100
AcDbSymbolTableRecord
100
AcDbRegAppTableRecord
  2
ACATTRIBSERVICES
 70
     0
  0
APPID
  5
EE
330
9
100
AcDbSymbolTableRecord
100
AcDbRegAppTableRecord
  2
AD_DRAW
 70
     0
  0
APPID
  5
10C
330
9
100
AcDbSymbolTableRecord
100
AcDbRegAppTableRecord
  2
DESIGNERASSEMBLIES
 70
     0
  0
APPID
  5
111
330
9
100
AcDbSymbolTableRecord
100
AcDbRegAppTableRecord
  2
ACADM_DIM_EDIT
 70
     0
  0
APPID
  5
112
330
9
100
AcDbSymbolTableRecord
100
AcDbRegAppTableRecord
  2
AMDT_DM_ADJ
 70
     0
  0
APPID
  5
22C
330
9
100
AcDbSymbolTableRecord
100
AcDbRegAppTableRecord
  2
ACAD_DSTYLE_DIMTEXT_FILL
 70
     0
  0
APPID
  5
452
330
9
100
AcDbSymbolTableRecord
100
AcDbRegAppTableRecord
  2
GENIUS_GENOENT_13
 70
     0
  0
APPID
  5
453
330
9
100
AcDbSymbolTableRecord
100
AcDbRegAppTableRecord
  2
GENIUS_GENOBJ-N-CRS_13
 70
     0
  0
APPID
  5
454
330
9
100
AcDbSymbolTableRecord
100
AcDbRegAppTableRecord
  2
GENIUS_GENOLIS_13
 70
     0
  0
APPID
  5
455
330
9
100
AcDbSymbolTableRecord
100
AcDbRegAppTableRecord
  2
GENIUS_GENODEF_13
 70
     0
  0
APPID
  5
456
330
9
100
AcDbSymbolTableRecord
100
AcDbRegAppTableRecord
  2
GENIUS_GENOREF_13
 70
     0
  0
APPID
  5
6F3
330
9
100
AcDbSymbolTableRecord
100
AcDbRegAppTableRecord
  2
ACAD_PSEXT
 70
     0
  0
APPID
  5
808
330
9
100
AcDbSymbolTableRecord
100
AcDbRegAppTableRecord
  2
GENIUS_GENDTOL_13
 70
     0
  0
APPID
  5
BA6
330
9
100
AcDbSymbolTableRecord
100
AcDbRegAppTableRecord
  2
GENIUS_GENOBJ-N-CEN_13
 70
     0
  0
APPID
  5
BA7
330
9
100
AcDbSymbolTableRecord
100
AcDbRegAppTableRecord
  2
GENIUS_GENCEN_19
 70
     0
  0
APPID
  5
BA8
330
9
100
AcDbSymbolTableRecord
100
AcDbRegAppTableRecord
  2
GENIUS_GENREC_14
 70
     0
  0
APPID
  5
BA9
330
9
100
AcDbSymbolTableRecord
100
AcDbRegAppTableRecord
  2
GENIUS_GENOBJ-N-REC_13
 70
     0
  0
ENDTAB
  0
TABLE
  2
DIMSTYLE
  5
A
330
0
100
AcDbSymbolTable
 70
     9
100
AcDbDimStyleTable
 71
     3
340
81
340
8B
340
86
  0
DIMSTYLE
105
81
330
A
100
AcDbSymbolTableRecord
100
AcDbDimStyleTableRecord
  2
AM_ISO
 70
     0
  4
"
 41
3.0
 42
1.5
 43
8.0
 44
1.5
 47
0.1
 48
0.1
 73
     0
 74
     0
 77
     1
 78
     8
 79
     2
140
3.5
141
0.0
143
0.0393701
146
0.6
147
1.0
172
     1
176
   256
177
   256
178
   256
271
     2
272
     2
283
     0
284
     8
340
11
371
    -1
372
    -1
  0
DIMSTYLE
105
82
330
A
100
AcDbSymbolTableRecord
100
AcDbDimStyleTableRecord
  2
AM_ISO$3
 70
     0
  4
"
 41
3.0
 42
1.5
 43
8.0
 44
1.5
 47
0.1
 48
0.1
 73
     0
 77
     1
 78
     8
 79
     2
140
3.5
141
0.0
143
0.0393701
146
0.6
147
1.0
176
   256
177
   256
178
   256
271
     2
272
     2
283
     0
284
     8
288
     1
289
     0
340
11
371
    -1
372
    -1
  0
DIMSTYLE
105
83
330
A
100
AcDbSymbolTableRecord
100
AcDbDimStyleTableRecord
  2
AM_ISO$4
 70
     0
  4
"
 41
3.0
 42
1.5
 43
8.0
 44
1.5
 47
0.1
 48
0.1
 73
     0
 77
     1
 78
     8
 79
     2
140
3.5
141
0.0
143
0.0393701
146
0.6
147
1.0
176
   256
177
   256
178
   256
271
     2
272
     2
283
     0
284
     8
288
     1
289
     0
340
11
371
    -1
372
    -1
  0
DIMSTYLE
105
84
330
A
100
AcDbSymbolTableRecord
100
AcDbDimStyleTableRecord
  2
AM_ISO$6
 70
     0
  4
"
 41
3.0
 42
1.5
 43
8.0
 44
1.5
 47
0.1
 48
0.1
 73
     0
 74
     0
 78
     8
 79
     2
140
3.5
141
0.0
143
0.0393701
146
0.6
147
1.0
172
     1
176
   256
177
   256
178
   256
271
     2
272
     2
283
     0
284
     8
340
11
371
    -1
372
    -1
  0
DIMSTYLE
105
85
330
A
100
AcDbSymbolTableRecord
100
AcDbDimStyleTableRecord
  2
AM_ISO$7
 70
     0
  4
"
 41
3.0
 42
1.5
 43
8.0
 44
1.5
 47
0.1
 48
0.1
 73
     0
 74
     0
 77
     1
 78
     8
 79
     2
140
5.0
141
0.0
143
0.0393701
146
0.6
147
1.0
172
     1
176
   256
177
   256
178
   256
271
     2
272
     2
283
     0
284
     8
340
11
371
    -1
372
    -1
  0
DIMSTYLE
105
86
330
A
100
AcDbSymbolTableRecord
100
AcDbDimStyleTableRecord
  2
AM_ISO$SF
 70
     0
  4
"
 41
2.5
 42
1.0
 43
10.0
 44
1.0
 47
0.1
 48
0.1
 73
     0
 74
     0
 75
     1
 76
     1
 77
     1
 78
     8
 79
     2
140
3.5
141
0.0
143
0.0393701
146
0.71
147
1.5
172
     1
176
   256
177
   256
178
     2
271
     2
272
     3
274
     4
283
     0
284
     8
340
11
371
    -1
372
    -1
  0
DIMSTYLE
105
8B
330
A
100
AcDbSymbolTableRecord
100
AcDbDimStyleTableRecord
  2
AM_ISO$SH
 70
     0
  4
"
 41
2.5
 42
1.0
 43
10.0
 44
1.0
 47
0.1
 48
0.1
 73
     0
 74
     0
 75
     1
 76
     1
 77
     1
 78
     8
 79
     2
140
3.5
141
0.0
143
0.0393701
144
2.0
146
0.71
147
1.5
172
     1
173
     1
176
   256
177
   256
178
     2
271
     2
272
     3
274
     4
283
     0
284
     8
340
11
343
87
371
    -1
372
    -1
  0
DIMSTYLE
105
40B
102
{ACAD_REACTORS
330
12C0
330
12C1
330
12C2
330
12C3
330
12C4
330
12C5
330
12C6
330
12C7
330
12C8
330
12CB
330
12CC
330
12CD
330
12CE
330
12CF
330
135A
330
1375
102
}
330
A
100
AcDbSymbolTableRecord
100
AcDbDimStyleTableRecord
  2
AM_ISO$0
 70
     0
  4
"
 41
3.0
 42
1.5
 43
8.0
 44
1.5
 47
0.1
 48
0.1
 73
     0
 74
     0
 77
     1
 78
     8
 79
     2
140
3.5
141
0.0
143
0.0393701
146
0.6
147
1.0
172
     1
176
   256
177
   256
178
   256
271
     2
272
     2
283
     0
284
     8
340
11
371
    -1
372
    -1
  0
ENDTAB
  0
TABLE
  2
BLOCK_RECORD
  5
1
330
0
100
AcDbSymbolTable
 70
    41
  0
BLOCK_RECORD
  5
1F
102
{ACAD_XDICTIONARY
360
8F
102
}
330
1
100
AcDbSymbolTableRecord
100
AcDbBlockTableRecord
  2
*Model_Space
340
22
  0
BLOCK_RECORD
  5
1B
330
1
100
AcDbSymbolTableRecord
100
AcDbBlockTableRecord
  2
*Paper_Space
340
1E
  0
BLOCK_RECORD
  5
23
330
1
100
AcDbSymbolTableRecord
100
AcDbBlockTableRecord
  2
*Paper_Space0
340
26
  0
BLOCK_RECORD
  5
87
330
1
100
AcDbSymbolTableRecord
100
AcDbBlockTableRecord
  2
GENAXEH
340
0
  0
BLOCK_RECORD
  5
ACA
330
1
100
AcDbSymbolTableRecord
100
AcDbBlockTableRecord
  2
A$C75484636
340
0
102
{BLKREFS
331
D85
331
11D5
102
}
  0
BLOCK_RECORD
  5
1447
330
1
100
AcDbSymbolTableRecord
100
AcDbBlockTableRecord
  2
*D21
340
0
  0
BLOCK_RECORD
  5
1453
330
1
100
AcDbSymbolTableRecord
100
AcDbBlockTableRecord
  2
*D22
340
0
  0
BLOCK_RECORD
  5
145F
330
1
100
AcDbSymbolTableRecord
100
AcDbBlockTableRecord
  2
*D23
340
0
  0
BLOCK_RECORD
  5
146B
330
1
100
AcDbSymbolTableRecord
100
AcDbBlockTableRecord
  2
*D24
340
0
  0
BLOCK_RECORD
  5
1477
330
1
100
AcDbSymbolTableRecord
100
AcDbBlockTableRecord
  2
*D25
340
0
  0
BLOCK_RECORD
  5
1483
330
1
100
AcDbSymbolTableRecord
100
AcDbBlockTableRecord
  2
*D26
340
0
  0
BLOCK_RECORD
  5
148F
330
1
100
AcDbSymbolTableRecord
100
AcDbBlockTableRecord
  2
*D27
340
0
  0
BLOCK_RECORD
  5
149D
330
1
100
AcDbSymbolTableRecord
100
AcDbBlockTableRecord
  2
*D28
340
0
  0
BLOCK_RECORD
  5
14A9
330
1
100
AcDbSymbolTableRecord
100
AcDbBlockTableRecord
  2
*D29
340
0
  0
BLOCK_RECORD
  5
14B5
330
1
100
AcDbSymbolTableRecord
100
AcDbBlockTableRecord
  2
*D30
340
0
  0
BLOCK_RECORD
  5
14C1
330
1
100
AcDbSymbolTableRecord
100
AcDbBlockTableRecord
  2
*D31
340
0
  0
BLOCK_RECORD
  5
14CD
330
1
100
AcDbSymbolTableRecord
100
AcDbBlockTableRecord
  2
*D32
340
0
  0
BLOCK_RECORD
  5
14D9
330
1
100
AcDbSymbolTableRecord
100
AcDbBlockTableRecord
  2
*D33
340
0
  0
BLOCK_RECORD
  5
14E5
330
1
100
AcDbSymbolTableRecord
100
AcDbBlockTableRecord
  2
*D34
340
0
  0
BLOCK_RECORD
  5
1571
330
1
100
AcDbSymbolTableRecord
100
AcDbBlockTableRecord
  2
*D35
340
0
  0
BLOCK_RECORD
  5
157D
330
1
100
AcDbSymbolTableRecord
100
AcDbBlockTableRecord
  2
*D36
340
0
  0
BLOCK_RECORD
  5
15B9
330
1
100
AcDbSymbolTableRecord
100
AcDbBlockTableRecord
  2
*S38
340
0
  0
BLOCK_RECORD
  5
15C1
330
1
100
AcDbSymbolTableRecord
100
AcDbBlockTableRecord
  2
*S39
340
0
  0
BLOCK_RECORD
  5
15C9
330
1
100
AcDbSymbolTableRecord
100
AcDbBlockTableRecord
  2
*S40
340
0
  0
ENDTAB
  0
ENDSEC
  0
SECTION
  2
BLOCKS
  0
BLOCK
  5
20
330
1F
100
AcDbEntity
  8
0
100
AcDbBlockBegin
  2
*Model_Space
 70
     0
 10
0.0
 20
0.0
 30
0.0
  3
*Model_Space
  1

  0
ENDBLK
  5
21
330
1F
100
AcDbEntity
  8
0
100
AcDbBlockEnd
  0
BLOCK
  5
1C
330
1B
100
AcDbEntity
 67
     1
  8
0
100
AcDbBlockBegin
  2
*Paper_Space
 70
     0
 10
0.0
 20
0.0
 30
0.0
  3
*Paper_Space
  1

  0
ENDBLK
  5
1D
330
1B
100
AcDbEntity
 67
     1
  8
0
100
AcDbBlockEnd
  0
BLOCK
  5
24
330
23
100
AcDbEntity
  8
0
100
AcDbBlockBegin
  2
*Paper_Space0
 70
     0
 10
0.0
 20
0.0
 30
0.0
  3
*Paper_Space0
  1

  0
ENDBLK
  5
25
330
23
100
AcDbEntity
  8
0
100
AcDbBlockEnd
  0
BLOCK
  5
89
330
87
100
AcDbEntity
  8
0
100
AcDbBlockBegin
  2
GENAXEH
 70
     0
 10
0.0
 20
0.0
 30
0.0
  3
GENAXEH
  1

  0
LINE
  5
88
330
87
100
AcDbEntity
  8
0
100
AcDbLine
 10
-1.0
 20
0.0
 30
0.0
 11
1.0
 21
0.0
 31
0.0
  0
ENDBLK
  5
8A
330
87
100
AcDbEntity
  8
0
100
AcDbBlockEnd
  0
BLOCK
  5
ACB
330
ACA
100
AcDbEntity
  8
0
100
AcDbBlockBegin
  2
A$C75484636
 70
     0
 10
0.0
 20
0.0
 30
0.0
  3
A$C75484636
  1

  0
LINE
  5
ACC
330
ACA
100
AcDbEntity
  8
AM_0N
100
AcDbLine
 10
1.149999754443911
 20
3.005000206466093
 30
0.0
 11
2.494999754443938
 21
3.005000206466093
 31
0.0
1001
GENIUS_GENOREF_13
1005
0
  0
LINE
  5
ACD
330
ACA
100
AcDbEntity
  8
AM_0N
100
AcDbLine
 10
1.149999754443911
 20
2.495000206466102
 30
0.0
 11
2.494999754443938
 21
2.495000206466102
 31
0.0
1001
GENIUS_GENOREF_13
1005
0
  0
CIRCLE
  5
ACE
330
ACA
100
AcDbEntity
  8
AM_0N
100
AcDbCircle
 10
2.749999754443933
 20
2.750000206466097
 30
0.0
 40
2.75
1001
GENIUS_GENOREF_13
1005
0
  0
LINE
  5
ACF
330
ACA
100
AcDbEntity
  8
AM_0N
100
AcDbLine
 10
1.149999754443911
 20
3.005000206466093
 30
0.0
 11
1.149999754443911
 21
2.495000206466102
 31
0.0
1001
GENIUS_GENOREF_13
1005
0
  0
LINE
  5
AD0
330
ACA
100
AcDbEntity
  8
AM_0N
100
AcDbLine
 10
3.004999754443929
 20
4.35000020646612
 30
0.0
 11
2.494999754443938
 21
4.35000020646612
 31
0.0
1001
GENIUS_GENOREF_13
1005
0
  0
LINE
  5
AD1
330
ACA
100
AcDbEntity
  8
AM_0N
100
AcDbLine
 10
3.004999754443929
 20
2.495000206466102
 30
0.0
 11
4.349999754443956
 21
2.495000206466102
 31
0.0
1001
GENIUS_GENOREF_13
1005
0
  0
LINE
  5
AD2
330
ACA
100
AcDbEntity
  8
AM_0N
100
AcDbLine
 10
3.004999754443929
 20
3.005000206466093
 30
0.0
 11
4.349999754443956
 21
3.005000206466093
 31
0.0
1001
GENIUS_GENOREF_13
1005
0
  0
LINE
  5
AD3
330
ACA
100
AcDbEntity
  8
AM_0N
100
AcDbLine
 10
3.004999754443929
 20
1.150000206466074
 30
0.0
 11
2.494999754443938
 21
1.150000206466074
 31
0.0
1001
GENIUS_GENOREF_13
1005
0
  0
LINE
  5
AD4
330
ACA
100
AcDbEntity
  8
AM_0N
100
AcDbLine
 10
2.494999754443938
 20
2.495000206466102
 30
0.0
 11
2.494999754443938
 21
1.150000206466074
 31
0.0
1001
GENIUS_GENOREF_13
1005
0
  0
LINE
  5
AD5
330
ACA
100
AcDbEntity
  8
AM_0N
100
AcDbLine
 10
3.004999754443929
 20
2.495000206466102
 30
0.0
 11
3.004999754443929
 21
1.150000206466074
 31
0.0
1001
GENIUS_GENOREF_13
1005
0
  0
LINE
  5
AD6
330
ACA
100
AcDbEntity
  8
AM_0N
100
AcDbLine
 10
4.349999754443956
 20
3.005000206466093
 30
0.0
 11
4.349999754443956
 21
2.495000206466102
 31
0.0
1001
GENIUS_GENOREF_13
1005
0
  0
LINE
  5
AD7
330
ACA
100
AcDbEntity
  8
AM_0N
100
AcDbLine
 10
2.494999754443938
 20
4.35000020646612
 30
0.0
 11
2.494999754443938
 21
3.005000206466093
 31
0.0
1001
GENIUS_GENOREF_13
1005
0
  0
LINE
  5
AD8
330
ACA
100
AcDbEntity
  8
AM_0N
100
AcDbLine
 10
3.004999754443929
 20
4.35000020646612
 30
0.0
 11
3.004999754443929
 21
3.005000206466093
 31
0.0
1001
GENIUS_GENOREF_13
1005
0
  0
ENDBLK
  5
AD9
330
ACA
100
AcDbEntity
  8
0
100
AcDbBlockEnd
  0
BLOCK
  5
1451
330
1447
100
AcDbEntity
  8
0
100
AcDbBlockBegin
  2
*D21
 70
     1
 10
0.0
 20
0.0
 30
0.0
  3
*D21
  1

  0
LINE
  5
14F1
330
1447
100
AcDbEntity
  8
AM_5
100
AcDbLine
 10
257.2292500768422
 20
236.3448446025951
 30
0.0
 11
257.2292500768422
 21
222.3448446025951
 31
0.0
  0
LINE
  5
14F2
330
1447
100
AcDbEntity
  8
AM_5
100
AcDbLine
 10
283.2292500768422
 20
239.6948446025951
 30
0.0
 11
283.2292500768422
 21
222.3448446025951
 31
0.0
  0
LINE
  5
14F3
330
1447
100
AcDbEntity
  8
AM_5
100
AcDbLine
 10
262.0292500768422
 20
224.7448446025951
 30
0.0
 11
278.4292500768422
 21
224.7448446025951
 31
0.0
  0
SOLID
  5
14F4
330
1447
100
AcDbEntity
  8
AM_5
100
AcDbTrace
 10
262.0292500768422
 20
225.5448446025951
 30
0.0
 11
262.0292500768422
 21
223.9448446025951
 31
0.0
 12
257.2292500768422
 22
224.7448446025951
 32
0.0
 13
257.2292500768422
 23
224.7448446025951
 33
0.0
  0
SOLID
  5
14F5
330
1447
100
AcDbEntity
  8
AM_5
100
AcDbTrace
 10
278.4292500768422
 20
225.5448446025951
 30
0.0
 11
278.4292500768422
 21
223.9448446025951
 31
0.0
 12
283.2292500768422
 22
224.7448446025951
 32
0.0
 13
283.2292500768422
 23
224.7448446025951
 33
0.0
  0
MTEXT
  5
14F6
330
1447
100
AcDbEntity
  8
AM_5
100
AcDbMText
 10
270.2292500768422
 20
229.1453957836975
 30
0.0
 40
5.6
 41
0.0
 71
     5
 72
     1
  1
26
 73
     1
 44
1.0
1001
ACAD
1000
MTEXTBEGIN
1070
    73
1070
     1
1070
    44
1040
1.0
1070
    74
1070
     0
1000
MTEXTEND
  0
POINT
  5
14F7
330
1447
100
AcDbEntity
  8
Defpoints
 62
     0
100
AcDbPoint
 10
257.2292500768422
 20
238.7448446025951
 30
0.0
  0
POINT
  5
14F8
330
1447
100
AcDbEntity
  8
Defpoints
 62
     0
100
AcDbPoint
 10
283.2292500768422
 20
242.0948446025951
 30
0.0
  0
POINT
  5
14F9
330
1447
100
AcDbEntity
  8
Defpoints
 62
     0
100
AcDbPoint
 10
283.2292500768422
 20
224.7448446025951
 30
0.0
  0
ENDBLK
  5
1452
330
1447
100
AcDbEntity
  8
0
100
AcDbBlockEnd
  0
BLOCK
  5
145D
330
1453
100
AcDbEntity
  8
0
100
AcDbBlockBegin
  2
*D22
 70
     1
 10
0.0
 20
0.0
 30
0.0
  3
*D22
  1

  0
LINE
  5
14FA
330
1453
100
AcDbEntity
  8
AM_5
100
AcDbLine
 10
283.2292500768422
 20
239.6948446025951
 30
0.0
 11
283.2292500768422
 21
222.3448446025951
 31
0.0
  0
LINE
  5
14FB
330
1453
100
AcDbEntity
  8
AM_5
100
AcDbLine
 10
309.2292500768422
 20
239.6948446025951
 30
0.0
 11
309.2292500768422
 21
222.3448446025951
 31
0.0
  0
LINE
  5
14FC
330
1453
100
AcDbEntity
  8
AM_5
100
AcDbLine
 10
288.0292500768422
 20
224.7448446025951
 30
0.0
 11
304.4292500768421
 21
224.7448446025951
 31
0.0
  0
SOLID
  5
14FD
330
1453
100
AcDbEntity
  8
AM_5
100
AcDbTrace
 10
288.0292500768422
 20
225.5448446025951
 30
0.0
 11
288.0292500768422
 21
223.9448446025951
 31
0.0
 12
283.2292500768422
 22
224.7448446025951
 32
0.0
 13
283.2292500768422
 23
224.7448446025951
 33
0.0
  0
SOLID
  5
14FE
330
1453
100
AcDbEntity
  8
AM_5
100
AcDbTrace
 10
304.4292500768421
 20
225.5448446025951
 30
0.0
 11
304.4292500768421
 21
223.9448446025951
 31
0.0
 12
309.2292500768422
 22
224.7448446025951
 32
0.0
 13
309.2292500768422
 23
224.7448446025951
 33
0.0
  0
MTEXT
  5
14FF
330
1453
100
AcDbEntity
  8
AM_5
100
AcDbMText
 10
296.2292500768421
 20
229.1453957836975
 30
0.0
 40
5.6
 41
0.0
 71
     5
 72
     1
  1
26
 73
     1
 44
1.0
1001
ACAD
1000
MTEXTBEGIN
1070
    73
1070
     1
1070
    44
1040
1.0
1070
    74
1070
     0
1000
MTEXTEND
  0
POINT
  5
1500
330
1453
100
AcDbEntity
  8
Defpoints
 62
     0
100
AcDbPoint
 10
283.2292500768422
 20
242.0948446025951
 30
0.0
  0
POINT
  5
1501
330
1453
100
AcDbEntity
  8
Defpoints
 62
     0
100
AcDbPoint
 10
309.2292500768422
 20
242.0948446025951
 30
0.0
  0
POINT
  5
1502
330
1453
100
AcDbEntity
  8
Defpoints
 62
     0
100
AcDbPoint
 10
309.2292500768422
 20
224.7448446025951
 30
0.0
  0
ENDBLK
  5
145E
330
1453
100
AcDbEntity
  8
0
100
AcDbBlockEnd
  0
BLOCK
  5
1469
330
145F
100
AcDbEntity
  8
0
100
AcDbBlockBegin
  2
*D23
 70
     1
 10
0.0
 20
0.0
 30
0.0
  3
*D23
  1

  0
LINE
  5
1503
330
145F
100
AcDbEntity
  8
AM_5
100
AcDbLine
 10
257.2292500768422
 20
236.3448446025951
 30
0.0
 11
257.2292500768422
 21
210.3448446025951
 31
0.0
  0
LINE
  5
1504
330
145F
100
AcDbEntity
  8
AM_5
100
AcDbLine
 10
346.2292500768421
 20
235.7448446025951
 30
0.0
 11
346.2292500768421
 21
210.3448446025951
 31
0.0
  0
LINE
  5
1505
330
145F
100
AcDbEntity
  8
AM_5
100
AcDbLine
 10
262.0292500768422
 20
212.7448446025951
 30
0.0
 11
341.4292500768421
 21
212.7448446025951
 31
0.0
  0
SOLID
  5
1506
330
145F
100
AcDbEntity
  8
AM_5
100
AcDbTrace
 10
262.0292500768422
 20
213.5448446025951
 30
0.0
 11
262.0292500768422
 21
211.9448446025951
 31
0.0
 12
257.2292500768422
 22
212.7448446025951
 32
0.0
 13
257.2292500768422
 23
212.7448446025951
 33
0.0
  0
SOLID
  5
1507
330
145F
100
AcDbEntity
  8
AM_5
100
AcDbTrace
 10
341.4292500768421
 20
213.5448446025951
 30
0.0
 11
341.4292500768421
 21
211.9448446025951
 31
0.0
 12
346.2292500768421
 22
212.7448446025951
 32
0.0
 13
346.2292500768421
 23
212.7448446025951
 33
0.0
  0
MTEXT
  5
1508
330
145F
100
AcDbEntity
  8
AM_5
100
AcDbMText
 10
301.7292500768422
 20
217.1448446025951
 30
0.0
 40
5.6
 41
0.0
 71
     5
 72
     1
  1
89
 73
     1
 44
1.0
1001
ACAD
1000
MTEXTBEGIN
1070
    73
1070
     1
1070
    44
1040
1.0
1070
    74
1070
     0
1000
MTEXTEND
  0
POINT
  5
1509
330
145F
100
AcDbEntity
  8
Defpoints
 62
     0
100
AcDbPoint
 10
257.2292500768422
 20
238.7448446025951
 30
0.0
  0
POINT
  5
150A
330
145F
100
AcDbEntity
  8
Defpoints
 62
     0
100
AcDbPoint
 10
346.2292500768421
 20
238.1448446025951
 30
0.0
  0
POINT
  5
150B
330
145F
100
AcDbEntity
  8
Defpoints
 62
     0
100
AcDbPoint
 10
346.2292500768421
 20
212.7448446025951
 30
0.0
  0
ENDBLK
  5
146A
330
145F
100
AcDbEntity
  8
0
100
AcDbBlockEnd
  0
BLOCK
  5
1475
330
146B
100
AcDbEntity
  8
0
100
AcDbBlockBegin
  2
*D24
 70
     1
 10
0.0
 20
0.0
 30
0.0
  3
*D24
  1

  0
LINE
  5
150C
330
146B
100
AcDbEntity
  8
AM_5
100
AcDbLine
 10
349.2751780820414
 20
316.0733301986496
 30
0.0
 11
412.1292500768418
 21
316.0733301986496
 31
0.0
  0
LINE
  5
150D
330
146B
100
AcDbEntity
  8
AM_5
100
AcDbLine
 10
391.6292500768419
 20
388.7733301986497
 30
0.0
 11
412.1292500768419
 21
388.7733301986497
 31
0.0
  0
LINE
  5
150E
330
146B
100
AcDbEntity
  8
AM_5
100
AcDbLine
 10
409.7292500768419
 20
320.8733301986496
 30
0.0
 11
409.7292500768419
 21
383.9733301986496
 31
0.0
  0
SOLID
  5
150F
330
146B
100
AcDbEntity
  8
AM_5
100
AcDbTrace
 10
408.9292500768419
 20
320.8733301986496
 30
0.0
 11
410.5292500768419
 21
320.8733301986496
 31
0.0
 12
409.7292500768419
 22
316.0733301986496
 32
0.0
 13
409.7292500768419
 23
316.0733301986496
 33
0.0
  0
SOLID
  5
1510
330
146B
100
AcDbEntity
  8
AM_5
100
AcDbTrace
 10
408.9292500768419
 20
383.9733301986496
 30
0.0
 11
410.5292500768419
 21
383.9733301986496
 31
0.0
 12
409.7292500768419
 22
388.7733301986497
 32
0.0
 13
409.7292500768419
 23
388.7733301986497
 33
0.0
  0
MTEXT
  5
1511
330
146B
100
AcDbEntity
  8
AM_5
100
AcDbMText
 10
405.0492500768418
 20
352.4233301986498
 30
0.0
 40
5.6
 41
0.0
 71
     5
 72
     1
  1
(73)
 11
0.0000000000000001
 21
1.0
 31
0.0
 73
     1
 44
1.0
1001
ACAD
1000
MTEXTBEGIN
1070
    73
1070
     1
1070
    44
1040
1.0
1070
    74
1070
     0
1000
MTEXTEND
  0
POINT
  5
1512
330
146B
100
AcDbEntity
  8
Defpoints
 62
     0
100
AcDbPoint
 10
346.8751780820414
 20
316.0733301986496
 30
0.0
  0
POINT
  5
1513
330
146B
100
AcDbEntity
  8
Defpoints
 62
     0
100
AcDbPoint
 10
389.2292500768419
 20
388.7733301986497
 30
0.0
  0
POINT
  5
1514
330
146B
100
AcDbEntity
  8
Defpoints
 62
     0
100
AcDbPoint
 10
409.7292500768419
 20
388.7733301986497
 30
0.0
  0
ENDBLK
  5
1476
330
146B
100
AcDbEntity
  8
0
100
AcDbBlockEnd
  0
BLOCK
  5
1481
330
1477
100
AcDbEntity
  8
0
100
AcDbBlockBegin
  2
*D25
 70
     1
 10
0.0
 20
0.0
 30
0.0
  3
*D25
  1

  0
LINE
  5
1515
330
1477
100
AcDbEntity
  8
AM_5
100
AcDbLine
 10
257.2292500768422
 20
314.6733301986496
 30
0.0
 11
257.2292500768422
 21
300.6733301986496
 31
0.0
  0
LINE
  5
1516
330
1477
100
AcDbEntity
  8
AM_5
100
AcDbLine
 10
270.2292500768422
 20
316.4233301986496
 30
0.0
 11
270.2292500768422
 21
300.6733301986496
 31
0.0
  0
LINE
  5
1517
330
1477
100
AcDbEntity
  8
AM_5
100
AcDbLine
 10
262.0292500768422
 20
303.0733301986496
 30
0.0
 11
265.4292500768422
 21
303.0733301986496
 31
0.0
  0
SOLID
  5
1518
330
1477
100
AcDbEntity
  8
AM_5
100
AcDbTrace
 10
262.0292500768422
 20
303.8733301986496
 30
0.0
 11
262.0292500768422
 21
302.2733301986496
 31
0.0
 12
257.2292500768422
 22
303.0733301986496
 32
0.0
 13
257.2292500768422
 23
303.0733301986496
 33
0.0
  0
SOLID
  5
1519
330
1477
100
AcDbEntity
  8
AM_5
100
AcDbTrace
 10
265.4292500768422
 20
303.8733301986496
 30
0.0
 11
265.4292500768422
 21
302.2733301986496
 31
0.0
 12
270.2292500768422
 22
303.0733301986496
 32
0.0
 13
270.2292500768422
 23
303.0733301986496
 33
0.0
  0
MTEXT
  5
151A
330
1477
100
AcDbEntity
  8
AM_5
100
AcDbMText
 10
263.7292500768422
 20
307.4733301986496
 30
0.0
 40
5.6
 41
0.0
 71
     5
 72
     1
  1
13
 73
     1
 44
1.0
1001
ACAD
1000
MTEXTBEGIN
1070
    73
1070
     1
1070
    44
1040
1.0
1070
    74
1070
     0
1000
MTEXTEND
  0
POINT
  5
151B
330
1477
100
AcDbEntity
  8
Defpoints
 62
     0
100
AcDbPoint
 10
257.2292500768422
 20
317.0733301986496
 30
0.0
  0
POINT
  5
151C
330
1477
100
AcDbEntity
  8
Defpoints
 62
     0
100
AcDbPoint
 10
270.2292500768422
 20
318.8233301986496
 30
0.0
  0
POINT
  5
151D
330
1477
100
AcDbEntity
  8
Defpoints
 62
     0
100
AcDbPoint
 10
270.2292500768422
 20
303.0733301986496
 30
0.0
  0
ENDBLK
  5
1482
330
1477
100
AcDbEntity
  8
0
100
AcDbBlockEnd
  0
BLOCK
  5
148D
330
1483
100
AcDbEntity
  8
0
100
AcDbBlockBegin
  2
*D26
 70
     1
 10
0.0
 20
0.0
 30
0.0
  3
*D26
  1

  0
LINE
  5
151E
330
1483
100
AcDbEntity
  8
AM_5
100
AcDbLine
 10
270.2292500768422
 20
316.4233301986496
 30
0.0
 11
270.2292500768422
 21
300.6733301986496
 31
0.0
  0
LINE
  5
151F
330
1483
100
AcDbEntity
  8
AM_5
100
AcDbLine
 10
296.2292500768421
 20
312.6233301986497
 30
0.0
 11
296.2292500768421
 21
300.6733301986496
 31
0.0
  0
LINE
  5
1520
330
1483
100
AcDbEntity
  8
AM_5
100
AcDbLine
 10
275.0292500768422
 20
303.0733301986496
 30
0.0
 11
291.4292500768421
 21
303.0733301986496
 31
0.0
  0
SOLID
  5
1521
330
1483
100
AcDbEntity
  8
AM_5
100
AcDbTrace
 10
275.0292500768422
 20
303.8733301986496
 30
0.0
 11
275.0292500768422
 21
302.2733301986496
 31
0.0
 12
270.2292500768422
 22
303.0733301986496
 32
0.0
 13
270.2292500768422
 23
303.0733301986496
 33
0.0
  0
SOLID
  5
1522
330
1483
100
AcDbEntity
  8
AM_5
100
AcDbTrace
 10
291.4292500768421
 20
303.8733301986496
 30
0.0
 11
291.4292500768421
 21
302.2733301986496
 31
0.0
 12
296.2292500768421
 22
303.0733301986496
 32
0.0
 13
296.2292500768421
 23
303.0733301986496
 33
0.0
  0
MTEXT
  5
1523
330
1483
100
AcDbEntity
  8
AM_5
100
AcDbMText
 10
283.2292500768422
 20
307.473881379752
 30
0.0
 40
5.6
 41
0.0
 71
     5
 72
     1
  1
26
 73
     1
 44
1.0
1001
ACAD
1000
MTEXTBEGIN
1070
    73
1070
     1
1070
    44
1040
1.0
1070
    74
1070
     0
1000
MTEXTEND
  0
POINT
  5
1524
330
1483
100
AcDbEntity
  8
Defpoints
 62
     0
100
AcDbPoint
 10
270.2292500768422
 20
318.8233301986496
 30
0.0
  0
POINT
  5
1525
330
1483
100
AcDbEntity
  8
Defpoints
 62
     0
100
AcDbPoint
 10
296.2292500768421
 20
315.0233301986497
 30
0.0
  0
POINT
  5
1526
330
1483
100
AcDbEntity
  8
Defpoints
 62
     0
100
AcDbPoint
 10
296.2292500768421
 20
303.0733301986496
 30
0.0
  0
ENDBLK
  5
148E
330
1483
100
AcDbEntity
  8
0
100
AcDbBlockEnd
  0
BLOCK
  5
149B
330
148F
100
AcDbEntity
  8
0
100
AcDbBlockBegin
  2
*D27
 70
     1
 10
0.0
 20
0.0
 30
0.0
  3
*D27
  1

  0
LINE
  5
1527
330
148F
100
AcDbEntity
  8
AM_5
100
AcDbLine
 10
255.8292500768422
 20
316.0733301986496
 30
0.0
 11
241.8292500768421
 21
316.0733301986496
 31
0.0
  0
LINE
  5
1528
330
148F
100
AcDbEntity
  8
AM_5
100
AcDbLine
 10
263.5792500768422
 20
323.0733301986496
 30
0.0
 11
241.8292500768421
 21
323.0733301986496
 31
0.0
  0
LINE
  5
1529
330
148F
100
AcDbEntity
  8
AM_5
100
AcDbLine
 10
244.2292500768421
 20
311.2733301986496
 30
0.0
 11
244.2292500768421
 21
306.4733301986496
 31
0.0
  0
LINE
  5
152A
330
148F
100
AcDbEntity
  8
AM_5
100
AcDbLine
 10
244.2292500768421
 20
327.8733301986496
 30
0.0
 11
244.2292500768421
 21
332.6733301986497
 31
0.0
  0
LINE
  5
152B
330
148F
100
AcDbEntity
  8
AM_5
100
AcDbLine
 10
244.2292500768421
 20
316.0733301986496
 30
0.0
 11
244.2292500768421
 21
323.0733301986496
 31
0.0
  0
SOLID
  5
152C
330
148F
100
AcDbEntity
  8
AM_5
100
AcDbTrace
 10
243.4292500768421
 20
311.2733301986496
 30
0.0
 11
245.0292500768421
 21
311.2733301986496
 31
0.0
 12
244.2292500768421
 22
316.0733301986496
 32
0.0
 13
244.2292500768421
 23
316.0733301986496
 33
0.0
  0
SOLID
  5
152D
330
148F
100
AcDbEntity
  8
AM_5
100
AcDbTrace
 10
243.4292500768421
 20
327.8733301986496
 30
0.0
 11
245.0292500768422
 21
327.8733301986496
 31
0.0
 12
244.2292500768421
 22
323.0733301986496
 32
0.0
 13
244.2292500768421
 23
323.0733301986496
 33
0.0
  0
MTEXT
  5
152E
330
148F
100
AcDbEntity
  8
AM_5
100
AcDbMText
 10
239.8292500768421
 20
319.5733301986497
 30
0.0
 40
5.6
 41
0.0
 71
     5
 72
     1
  1
7
 11
0.0000000000000001
 21
1.0
 31
0.0
 73
     1
 44
1.0
1001
ACAD
1000
MTEXTBEGIN
1070
    73
1070
     1
1070
    44
1040
1.0
1070
    74
1070
     0
1000
MTEXTEND
  0
POINT
  5
152F
330
148F
100
AcDbEntity
  8
Defpoints
 62
     0
100
AcDbPoint
 10
258.2292500768422
 20
316.0733301986496
 30
0.0
  0
POINT
  5
1530
330
148F
100
AcDbEntity
  8
Defpoints
 62
     0
100
AcDbPoint
 10
265.9792500768422
 20
323.0733301986496
 30
0.0
  0
POINT
  5
1531
330
148F
100
AcDbEntity
  8
Defpoints
 62
     0
100
AcDbPoint
 10
244.2292500768421
 20
323.0733301986496
 30
0.0
  0
ENDBLK
  5
149C
330
148F
100
AcDbEntity
  8
0
100
AcDbBlockEnd
  0
BLOCK
  5
14A7
330
149D
100
AcDbEntity
  8
0
100
AcDbBlockBegin
  2
*D28
 70
     1
 10
0.0
 20
0.0
 30
0.0
  3
*D28
  1

  0
LINE
  5
1532
330
149D
100
AcDbEntity
  8
AM_5
100
AcDbLine
 10
257.2292500768422
 20
314.6733301986496
 30
0.0
 11
257.2292500768422
 21
288.6733301986496
 31
0.0
  0
LINE
  5
1533
330
149D
100
AcDbEntity
  8
AM_5
100
AcDbLine
 10
383.7292500768419
 20
327.3733301986497
 30
0.0
 11
383.7292500768419
 21
288.6733301986496
 31
0.0
  0
LINE
  5
1534
330
149D
100
AcDbEntity
  8
AM_5
100
AcDbLine
 10
262.0292500768422
 20
291.0733301986496
 30
0.0
 11
378.9292500768419
 21
291.0733301986496
 31
0.0
  0
SOLID
  5
1535
330
149D
100
AcDbEntity
  8
AM_5
100
AcDbTrace
 10
262.0292500768422
 20
291.8733301986496
 30
0.0
 11
262.0292500768422
 21
290.2733301986496
 31
0.0
 12
257.2292500768422
 22
291.0733301986496
 32
0.0
 13
257.2292500768422
 23
291.0733301986496
 33
0.0
  0
SOLID
  5
1536
330
149D
100
AcDbEntity
  8
AM_5
100
AcDbTrace
 10
378.9292500768419
 20
291.8733301986496
 30
0.0
 11
378.9292500768419
 21
290.2733301986496
 31
0.0
 12
383.7292500768419
 22
291.0733301986496
 32
0.0
 13
383.7292500768419
 23
291.0733301986496
 33
0.0
  0
MTEXT
  5
1537
330
149D
100
AcDbEntity
  8
AM_5
100
AcDbMText
 10
320.479250076842
 20
295.4738813797519
 30
0.0
 40
5.6
 41
0.0
 71
     5
 72
     1
  1
126.5
 73
     1
 44
1.0
1001
ACAD
1000
MTEXTBEGIN
1070
    73
1070
     1
1070
    44
1040
1.0
1070
    74
1070
     0
1000
MTEXTEND
  0
POINT
  5
1538
330
149D
100
AcDbEntity
  8
Defpoints
 62
     0
100
AcDbPoint
 10
257.2292500768422
 20
317.0733301986496
 30
0.0
  0
POINT
  5
1539
330
149D
100
AcDbEntity
  8
Defpoints
 62
     0
100
AcDbPoint
 10
383.7292500768419
 20
329.7733301986497
 30
0.0
  0
POINT
  5
153A
330
149D
100
AcDbEntity
  8
Defpoints
 62
     0
100
AcDbPoint
 10
383.7292500768419
 20
291.0733301986496
 30
0.0
  0
ENDBLK
  5
14A8
330
149D
100
AcDbEntity
  8
0
100
AcDbBlockEnd
  0
BLOCK
  5
14B3
330
14A9
100
AcDbEntity
  8
0
100
AcDbBlockBegin
  2
*D29
 70
     1
 10
0.0
 20
0.0
 30
0.0
  3
*D29
  1

  0
LINE
  5
153B
330
14A9
100
AcDbEntity
  8
AM_5
100
AcDbLine
 10
254.8559557665456
 20
316.0733301986496
 30
0.0
 11
229.8292500768421
 21
316.0733301986496
 31
0.0
  0
LINE
  5
153C
330
14A9
100
AcDbEntity
  8
AM_5
100
AcDbLine
 10
254.8200428451768
 20
362.4733301986496
 30
0.0
 11
229.8292500768422
 21
362.4733301986496
 31
0.0
  0
LINE
  5
153D
330
14A9
100
AcDbEntity
  8
AM_5
100
AcDbLine
 10
232.2292500768422
 20
320.8733301986496
 30
0.0
 11
232.2292500768422
 21
357.6733301986496
 31
0.0
  0
SOLID
  5
153E
330
14A9
100
AcDbEntity
  8
AM_5
100
AcDbTrace
 10
231.4292500768421
 20
320.8733301986496
 30
0.0
 11
233.0292500768422
 21
320.8733301986496
 31
0.0
 12
232.2292500768421
 22
316.0733301986496
 32
0.0
 13
232.2292500768421
 23
316.0733301986496
 33
0.0
  0
SOLID
  5
153F
330
14A9
100
AcDbEntity
  8
AM_5
100
AcDbTrace
 10
231.4292500768421
 20
357.6733301986496
 30
0.0
 11
233.0292500768422
 21
357.6733301986496
 31
0.0
 12
232.2292500768422
 22
362.4733301986496
 32
0.0
 13
232.2292500768422
 23
362.4733301986496
 33
0.0
  0
MTEXT
  5
1540
330
14A9
100
AcDbEntity
  8
AM_5
100
AcDbMText
 10
227.8292500768421
 20
339.2733301986496
 30
0.0
 40
5.6
 41
0.0
 71
     5
 72
     1
  1
46.4
 11
0.0000000000000001
 21
1.0
 31
0.0
 73
     1
 44
1.0
1001
ACAD
1000
MTEXTBEGIN
1070
    73
1070
     1
1070
    44
1040
1.0
1070
    74
1070
     0
1000
MTEXTEND
  0
POINT
  5
1541
330
14A9
100
AcDbEntity
  8
Defpoints
 62
     0
100
AcDbPoint
 10
257.2559557665456
 20
316.0733301986496
 30
0.0
  0
POINT
  5
1542
330
14A9
100
AcDbEntity
  8
Defpoints
 62
     0
100
AcDbPoint
 10
257.2200428451767
 20
362.4733301986496
 30
0.0
  0
POINT
  5
1543
330
14A9
100
AcDbEntity
  8
Defpoints
 62
     0
100
AcDbPoint
 10
232.2292500768422
 20
362.4733301986496
 30
0.0
  0
ENDBLK
  5
14B4
330
14A9
100
AcDbEntity
  8
0
100
AcDbBlockEnd
  0
BLOCK
  5
14BF
330
14B5
100
AcDbEntity
  8
0
100
AcDbBlockBegin
  2
*D30
 70
     1
 10
0.0
 20
0.0
 30
0.0
  3
*D30
  1

  0
LINE
  5
1544
330
14B5
100
AcDbEntity
  8
AM_5
100
AcDbLine
 10
262.8292500768422
 20
450.5990877172349
 30
0.0
 11
241.8292500768422
 21
450.5990877172349
 31
0.0
  0
LINE
  5
1545
330
14B5
100
AcDbEntity
  8
AM_5
100
AcDbLine
 10
304.8292500768424
 20
427.599087717235
 30
0.0
 11
241.8292500768421
 21
427.599087717235
 31
0.0
  0
LINE
  5
1546
330
14B5
100
AcDbEntity
  8
AM_5
100
AcDbLine
 10
244.2292500768421
 20
445.7990877172349
 30
0.0
 11
244.2292500768421
 21
432.399087717235
 31
0.0
  0
SOLID
  5
1547
330
14B5
100
AcDbEntity
  8
AM_5
100
AcDbTrace
 10
243.4292500768421
 20
445.7990877172349
 30
0.0
 11
245.0292500768422
 21
445.7990877172349
 31
0.0
 12
244.2292500768422
 22
450.5990877172349
 32
0.0
 13
244.2292500768422
 23
450.5990877172349
 33
0.0
  0
SOLID
  5
1548
330
14B5
100
AcDbEntity
  8
AM_5
100
AcDbTrace
 10
243.4292500768421
 20
432.399087717235
 30
0.0
 11
245.0292500768422
 21
432.399087717235
 31
0.0
 12
244.2292500768421
 22
427.599087717235
 32
0.0
 13
244.2292500768421
 23
427.599087717235
 33
0.0
  0
MTEXT
  5
1549
330
14B5
100
AcDbEntity
  8
AM_5
100
AcDbMText
 10
239.8286988957397
 20
439.099087717235
 30
0.0
 40
5.6
 41
0.0
 71
     5
 72
     1
  1
23
 11
0.0000000000000001
 21
1.0
 31
0.0
 73
     1
 44
1.0
1001
ACAD
1000
MTEXTBEGIN
1070
    73
1070
     1
1070
    44
1040
1.0
1070
    74
1070
     0
1000
MTEXTEND
  0
POINT
  5
154A
330
14B5
100
AcDbEntity
  8
Defpoints
 62
     0
100
AcDbPoint
 10
265.2292500768421
 20
450.5990877172349
 30
0.0
  0
POINT
  5
154B
330
14B5
100
AcDbEntity
  8
Defpoints
 62
     0
100
AcDbPoint
 10
307.2292500768424
 20
427.599087717235
 30
0.0
  0
POINT
  5
154C
330
14B5
100
AcDbEntity
  8
Defpoints
 62
     0
100
AcDbPoint
 10
244.2292500768421
 20
427.599087717235
 30
0.0
  0
ENDBLK
  5
14C0
330
14B5
100
AcDbEntity
  8
0
100
AcDbBlockEnd
  0
BLOCK
  5
14CB
330
14C1
100
AcDbEntity
  8
0
100
AcDbBlockBegin
  2
*D31
 70
     1
 10
0.0
 20
0.0
 30
0.0
  3
*D31
  1

  0
LINE
  5
154D
330
14C1
100
AcDbEntity
  8
AM_5
100
AcDbLine
 10
255.8292500768422
 20
454.0990877172349
 30
0.0
 11
229.8292500768422
 21
454.0990877172349
 31
0.0
  0
LINE
  5
154E
330
14C1
100
AcDbEntity
  8
AM_5
100
AcDbLine
 10
255.8292500768421
 20
424.0990877172349
 30
0.0
 11
229.8292500768422
 21
424.0990877172349
 31
0.0
  0
LINE
  5
154F
330
14C1
100
AcDbEntity
  8
AM_5
100
AcDbLine
 10
232.2292500768422
 20
449.2990877172349
 30
0.0
 11
232.2292500768422
 21
428.8990877172349
 31
0.0
  0
SOLID
  5
1550
330
14C1
100
AcDbEntity
  8
AM_5
100
AcDbTrace
 10
231.4292500768422
 20
449.2990877172349
 30
0.0
 11
233.0292500768422
 21
449.2990877172349
 31
0.0
 12
232.2292500768422
 22
454.0990877172349
 32
0.0
 13
232.2292500768422
 23
454.0990877172349
 33
0.0
  0
SOLID
  5
1551
330
14C1
100
AcDbEntity
  8
AM_5
100
AcDbTrace
 10
231.4292500768421
 20
428.8990877172349
 30
0.0
 11
233.0292500768422
 21
428.8990877172349
 31
0.0
 12
232.2292500768422
 22
424.0990877172349
 32
0.0
 13
232.2292500768422
 23
424.0990877172349
 33
0.0
  0
MTEXT
  5
1552
330
14C1
100
AcDbEntity
  8
AM_5
100
AcDbMText
 10
227.8292500768421
 20
439.099087717235
 30
0.0
 40
5.6
 41
0.0
 71
     5
 72
     1
  1
30
 11
0.0000000000000001
 21
1.0
 31
0.0
 73
     1
 44
1.0
1001
ACAD
1000
MTEXTBEGIN
1070
    73
1070
     1
1070
    44
1040
1.0
1070
    74
1070
     0
1000
MTEXTEND
  0
POINT
  5
1553
330
14C1
100
AcDbEntity
  8
Defpoints
 62
     0
100
AcDbPoint
 10
258.2292500768422
 20
454.0990877172349
 30
0.0
  0
POINT
  5
1554
330
14C1
100
AcDbEntity
  8
Defpoints
 62
     0
100
AcDbPoint
 10
258.2292500768422
 20
424.0990877172349
 30
0.0
  0
POINT
  5
1555
330
14C1
100
AcDbEntity
  8
Defpoints
 62
     0
100
AcDbPoint
 10
232.2292500768422
 20
424.0990877172349
 30
0.0
  0
ENDBLK
  5
14CC
330
14C1
100
AcDbEntity
  8
0
100
AcDbBlockEnd
  0
BLOCK
  5
14D7
330
14CD
100
AcDbEntity
  8
0
100
AcDbBlockBegin
  2
*D32
 70
     1
 10
0.0
 20
0.0
 30
0.0
  3
*D32
  1

  0
LINE
  5
1556
330
14CD
100
AcDbEntity
  8
AM_5
100
AcDbLine
 10
257.2292500768422
 20
422.6990877172349
 30
0.0
 11
257.2292500768422
 21
408.6990877172349
 31
0.0
  0
LINE
  5
1557
330
14CD
100
AcDbEntity
  8
AM_5
100
AcDbLine
 10
298.2292500768424
 20
426.0490877172349
 30
0.0
 11
298.2292500768424
 21
408.6990877172349
 31
0.0
  0
LINE
  5
1558
330
14CD
100
AcDbEntity
  8
AM_5
100
AcDbLine
 10
262.0292500768422
 20
411.099087717235
 30
0.0
 11
293.4292500768424
 21
411.099087717235
 31
0.0
  0
SOLID
  5
1559
330
14CD
100
AcDbEntity
  8
AM_5
100
AcDbTrace
 10
262.0292500768422
 20
411.899087717235
 30
0.0
 11
262.0292500768422
 21
410.299087717235
 31
0.0
 12
257.2292500768422
 22
411.099087717235
 32
0.0
 13
257.2292500768422
 23
411.099087717235
 33
0.0
  0
SOLID
  5
155A
330
14CD
100
AcDbEntity
  8
AM_5
100
AcDbTrace
 10
293.4292500768424
 20
411.899087717235
 30
0.0
 11
293.4292500768424
 21
410.299087717235
 31
0.0
 12
298.2292500768424
 22
411.099087717235
 32
0.0
 13
298.2292500768424
 23
411.099087717235
 33
0.0
  0
MTEXT
  5
155B
330
14CD
100
AcDbEntity
  8
AM_5
100
AcDbMText
 10
277.7292500768423
 20
415.4990877172349
 30
0.0
 40
5.6
 41
0.0
 71
     5
 72
     1
  1
41
 73
     1
 44
1.0
1001
ACAD
1000
MTEXTBEGIN
1070
    73
1070
     1
1070
    44
1040
1.0
1070
    74
1070
     0
1000
MTEXTEND
  0
POINT
  5
155C
330
14CD
100
AcDbEntity
  8
Defpoints
 62
     0
100
AcDbPoint
 10
257.2292500768422
 20
425.0990877172349
 30
0.0
  0
POINT
  5
155D
330
14CD
100
AcDbEntity
  8
Defpoints
 62
     0
100
AcDbPoint
 10
298.2292500768424
 20
428.4490877172349
 30
0.0
  0
POINT
  5
155E
330
14CD
100
AcDbEntity
  8
Defpoints
 62
     0
100
AcDbPoint
 10
298.2292500768424
 20
411.099087717235
 30
0.0
  0
ENDBLK
  5
14D8
330
14CD
100
AcDbEntity
  8
0
100
AcDbBlockEnd
  0
BLOCK
  5
14E3
330
14D9
100
AcDbEntity
  8
0
100
AcDbBlockBegin
  2
*D33
 70
     1
 10
0.0
 20
0.0
 30
0.0
  3
*D33
  1

  0
LINE
  5
155F
330
14D9
100
AcDbEntity
  8
AM_5
100
AcDbLine
 10
257.2292500768422
 20
455.4990877172349
 30
0.0
 11
257.2292500768422
 21
469.4990877172349
 31
0.0
  0
LINE
  5
1560
330
14D9
100
AcDbEntity
  8
AM_5
100
AcDbLine
 10
272.2292500768422
 20
458.9990877172349
 30
0.0
 11
272.2292500768422
 21
469.4990877172349
 31
0.0
  0
LINE
  5
1561
330
14D9
100
AcDbEntity
  8
AM_5
100
AcDbLine
 10
262.0292500768422
 20
467.0990877172349
 30
0.0
 11
267.4292500768422
 21
467.0990877172349
 31
0.0
  0
SOLID
  5
1562
330
14D9
100
AcDbEntity
  8
AM_5
100
AcDbTrace
 10
262.0292500768422
 20
467.8990877172349
 30
0.0
 11
262.0292500768422
 21
466.2990877172349
 31
0.0
 12
257.2292500768422
 22
467.0990877172349
 32
0.0
 13
257.2292500768422
 23
467.0990877172349
 33
0.0
  0
SOLID
  5
1563
330
14D9
100
AcDbEntity
  8
AM_5
100
AcDbTrace
 10
267.4292500768422
 20
467.8990877172349
 30
0.0
 11
267.4292500768422
 21
466.2990877172349
 31
0.0
 12
272.2292500768422
 22
467.0990877172349
 32
0.0
 13
272.2292500768422
 23
467.0990877172349
 33
0.0
  0
MTEXT
  5
1564
330
14D9
100
AcDbEntity
  8
AM_5
100
AcDbMText
 10
264.7292500768422
 20
471.4990877172349
 30
0.0
 40
5.6
 41
0.0
 71
     5
 72
     1
  1
15
 73
     1
 44
1.0
1001
ACAD
1000
MTEXTBEGIN
1070
    73
1070
     1
1070
    44
1040
1.0
1070
    74
1070
     0
1000
MTEXTEND
  0
POINT
  5
1565
330
14D9
100
AcDbEntity
  8
Defpoints
 62
     0
100
AcDbPoint
 10
257.2292500768422
 20
453.0990877172349
 30
0.0
  0
POINT
  5
1566
330
14D9
100
AcDbEntity
  8
Defpoints
 62
     0
100
AcDbPoint
 10
272.2292500768422
 20
456.599087717235
 30
0.0
  0
POINT
  5
1567
330
14D9
100
AcDbEntity
  8
Defpoints
 62
     0
100
AcDbPoint
 10
272.2292500768422
 20
467.0990877172349
 30
0.0
  0
ENDBLK
  5
14E4
330
14D9
100
AcDbEntity
  8
0
100
AcDbBlockEnd
  0
BLOCK
  5
14EF
330
14E5
100
AcDbEntity
  8
0
100
AcDbBlockBegin
  2
*D34
 70
     1
 10
0.0
 20
0.0
 30
0.0
  3
*D34
  1

  0
LINE
  5
1568
330
14E5
100
AcDbEntity
  8
AM_5
100
AcDbLine
 10
257.2292500768422
 20
455.3990877172347
 30
0.0
 11
257.2292500768422
 21
481.4990877172349
 31
0.0
  0
LINE
  5
1569
330
14E5
100
AcDbEntity
  8
AM_5
100
AcDbLine
 10
396.729250076842
 20
450.7366920242691
 30
0.0
 11
396.729250076842
 21
481.4990877172349
 31
0.0
  0
LINE
  5
156A
330
14E5
100
AcDbEntity
  8
AM_5
100
AcDbLine
 10
262.0292500768422
 20
479.0990877172349
 30
0.0
 11
391.9292500768419
 21
479.0990877172349
 31
0.0
  0
SOLID
  5
156B
330
14E5
100
AcDbEntity
  8
AM_5
100
AcDbTrace
 10
262.0292500768422
 20
479.8990877172349
 30
0.0
 11
262.0292500768422
 21
478.2990877172349
 31
0.0
 12
257.2292500768422
 22
479.0990877172349
 32
0.0
 13
257.2292500768422
 23
479.0990877172349
 33
0.0
  0
SOLID
  5
156C
330
14E5
100
AcDbEntity
  8
AM_5
100
AcDbTrace
 10
391.9292500768419
 20
479.8990877172349
 30
0.0
 11
391.9292500768419
 21
478.2990877172349
 31
0.0
 12
396.729250076842
 22
479.0990877172349
 32
0.0
 13
396.729250076842
 23
479.0990877172349
 33
0.0
  0
MTEXT
  5
156D
330
14E5
100
AcDbEntity
  8
AM_5
100
AcDbMText
 10
326.9792500768421
 20
483.4990877172349
 30
0.0
 40
5.6
 41
0.0
 71
     5
 72
     1
  1
139.5
 73
     1
 44
1.0
1001
ACAD
1000
MTEXTBEGIN
1070
    73
1070
     1
1070
    44
1040
1.0
1070
    74
1070
     0
1000
MTEXTEND
  0
POINT
  5
156E
330
14E5
100
AcDbEntity
  8
Defpoints
 62
     0
100
AcDbPoint
 10
257.2292500768422
 20
452.9990877172348
 30
0.0
  0
POINT
  5
156F
330
14E5
100
AcDbEntity
  8
Defpoints
 62
     0
100
AcDbPoint
 10
396.729250076842
 20
448.3366920242692
 30
0.0
  0
POINT
  5
1570
330
14E5
100
AcDbEntity
  8
Defpoints
 62
     0
100
AcDbPoint
 10
396.729250076842
 20
479.0990877172349
 30
0.0
  0
ENDBLK
  5
14F0
330
14E5
100
AcDbEntity
  8
0
100
AcDbBlockEnd
  0
BLOCK
  5
157B
330
1571
100
AcDbEntity
  8
0
100
AcDbBlockBegin
  2
*D35
 70
     1
 10
0.0
 20
0.0
 30
0.0
  3
*D35
  1

  0
LINE
  5
1572
330
1571
100
AcDbEntity
  8
AM_5
100
AcDbLine
 10
272.2292500768422
 20
458.9990877172349
 30
0.0
 11
272.2292500768422
 21
469.4990877172349
 31
0.0
  0
LINE
  5
1573
330
1571
100
AcDbEntity
  8
AM_5
100
AcDbLine
 10
313.2292500768424
 20
435.9990877172349
 30
0.0
 11
313.2292500768424
 21
469.4990877172349
 31
0.0
  0
LINE
  5
1574
330
1571
100
AcDbEntity
  8
AM_5
100
AcDbLine
 10
277.0292500768422
 20
467.0990877172349
 30
0.0
 11
308.4292500768424
 21
467.0990877172349
 31
0.0
  0
SOLID
  5
1575
330
1571
100
AcDbEntity
  8
AM_5
100
AcDbTrace
 10
277.0292500768422
 20
467.8990877172349
 30
0.0
 11
277.0292500768422
 21
466.2990877172349
 31
0.0
 12
272.2292500768422
 22
467.0990877172349
 32
0.0
 13
272.2292500768422
 23
467.0990877172349
 33
0.0
  0
SOLID
  5
1576
330
1571
100
AcDbEntity
  8
AM_5
100
AcDbTrace
 10
308.4292500768424
 20
467.8990877172349
 30
0.0
 11
308.4292500768424
 21
466.2990877172349
 31
0.0
 12
313.2292500768424
 22
467.0990877172349
 32
0.0
 13
313.2292500768424
 23
467.0990877172349
 33
0.0
  0
MTEXT
  5
1577
330
1571
100
AcDbEntity
  8
AM_5
100
AcDbMText
 10
292.7292500768423
 20
471.4990877172349
 30
0.0
 40
5.6
 41
0.0
 71
     5
 72
     1
  1
41
 73
     1
 44
1.0
1001
ACAD
1000
MTEXTBEGIN
1070
    73
1070
     1
1070
    44
1040
1.0
1070
    74
1070
     0
1000
MTEXTEND
  0
POINT
  5
1578
330
1571
100
AcDbEntity
  8
Defpoints
 62
     0
100
AcDbPoint
 10
272.2292500768422
 20
456.599087717235
 30
0.0
  0
POINT
  5
1579
330
1571
100
AcDbEntity
  8
Defpoints
 62
     0
100
AcDbPoint
 10
313.2292500768424
 20
433.5990877172349
 30
0.0
  0
POINT
  5
157A
330
1571
100
AcDbEntity
  8
Defpoints
 62
     0
100
AcDbPoint
 10
313.2292500768424
 20
467.0990877172349
 30
0.0
  0
ENDBLK
  5
157C
330
1571
100
AcDbEntity
  8
0
100
AcDbBlockEnd
  0
BLOCK
  5
1589
330
157D
100
AcDbEntity
  8
0
100
AcDbBlockBegin
  2
*D36
 70
     1
 10
0.0
 20
0.0
 30
0.0
  3
*D36
  1

  0
LINE
  5
157E
330
157D
100
AcDbEntity
  8
AM_5
100
AcDbLine
 10
306.8292500768422
 20
362.4733301986497
 30
0.0
 11
299.9292923909715
 21
362.4733301986497
 31
0.0
  0
LINE
  5
157F
330
157D
100
AcDbEntity
  8
AM_5
100
AcDbLine
 10
306.8292500768422
 20
358.4733301986496
 30
0.0
 11
299.9292923909715
 21
358.4733301986496
 31
0.0
  0
LINE
  5
1580
330
157D
100
AcDbEntity
  8
AM_5
100
AcDbLine
 10
302.3292923909715
 20
353.6733301986496
 30
0.0
 11
302.3292923909715
 21
348.8733301986496
 31
0.0
  0
LINE
  5
1581
330
157D
100
AcDbEntity
  8
AM_5
100
AcDbLine
 10
302.3292923909715
 20
367.2733301986497
 30
0.0
 11
302.3292923909715
 21
378.6733301986497
 31
0.0
  0
LINE
  5
1582
330
157D
100
AcDbEntity
  8
AM_5
100
AcDbLine
 10
302.3292923909715
 20
358.4733301986496
 30
0.0
 11
302.3292923909715
 21
362.4733301986497
 31
0.0
  0
SOLID
  5
1583
330
157D
100
AcDbEntity
  8
AM_5
100
AcDbTrace
 10
301.5292923909715
 20
353.6733301986496
 30
0.0
 11
303.1292923909715
 21
353.6733301986496
 31
0.0
 12
302.3292923909715
 22
358.4733301986496
 32
0.0
 13
302.3292923909715
 23
358.4733301986496
 33
0.0
  0
SOLID
  5
1584
330
157D
100
AcDbEntity
  8
AM_5
100
AcDbTrace
 10
301.5292923909715
 20
367.2733301986497
 30
0.0
 11
303.1292923909715
 21
367.2733301986497
 31
0.0
 12
302.3292923909715
 22
362.4733301986497
 32
0.0
 13
302.3292923909715
 23
362.4733301986497
 33
0.0
  0
MTEXT
  5
1585
330
157D
100
AcDbEntity
  8
AM_5
100
AcDbMText
 10
297.9292923909715
 20
375.6733301986498
 30
0.0
 40
5.6
 41
0.0
 71
     5
 72
     1
  1
4
 11
0.0000000000000001
 21
1.0
 31
0.0
 73
     1
 44
1.0
1001
ACAD
1000
MTEXTBEGIN
1070
    73
1070
     1
1070
    44
1040
1.0
1070
    74
1070
     0
1000
MTEXTEND
  0
POINT
  5
1586
330
157D
100
AcDbEntity
  8
Defpoints
 62
     0
100
AcDbPoint
 10
309.2292500768422
 20
362.4733301986497
 30
0.0
  0
POINT
  5
1587
330
157D
100
AcDbEntity
  8
Defpoints
 62
     0
100
AcDbPoint
 10
309.2292500768422
 20
358.4733301986496
 30
0.0
  0
POINT
  5
1588
330
157D
100
AcDbEntity
  8
Defpoints
 62
     0
100
AcDbPoint
 10
302.3292923909715
 20
358.4733301986496
 30
0.0
  0
ENDBLK
  5
158A
330
157D
100
AcDbEntity
  8
0
100
AcDbBlockEnd
  0
BLOCK
  5
15BE
330
15B9
100
AcDbEntity
  8
0
100
AcDbBlockBegin
  2
*S38
 70
     1
 10
0.0
 20
0.0
 30
0.0
  3
*S38
  1

  0
LINE
  5
15BA
330
15B9
100
AcDbEntity
  8
AM_5
 62
     5
100
AcDbLine
 10
353.1339353186777
 20
304.0632447775593
 30
0.0
 11
312.8923867625629
 21
304.0632447775593
 31
0.0
  0
LINE
  5
15BB
330
15B9
100
AcDbEntity
  8
AM_5
 62
     5
100
AcDbLine
 10
312.8923867625629
 20
304.0632447775593
 30
0.0
 11
301.2391392036656
 21
317.3445606540492
 31
0.0
  0
TRACE
  5
15BC
330
15B9
100
AcDbEntity
  8
AM_5
 62
     5
370
    35
100
AcDbTrace
 10
301.7586791578931
 20
317.8004136553373
 30
0.0
 11
300.719599249438
 21
316.8887076527612
 31
0.0
 12
297.776591878885
 22
321.2908584157057
 32
0.0
 13
297.776591878885
 23
321.2908584157057
 33
0.0
  0
MTEXT
  5
15BD
330
15B9
100
AcDbEntity
  8
AM_5
 62
     5
100
AcDbMText
 10
353.1339353186777
 20
309.7256187116136
 30
0.0
 40
5.25
 41
0.0
 71
     7
 72
     5
  1

  7
ACISOTS
 73
     1
 44
1.0
1001
ACAD
1000
MTEXTBEGIN
1070
    73
1070
     1
1070
    44
1040
1.0
1070
    74
1070
     0
1000
MTEXTEND
  0
ENDBLK
  5
15BF
330
15B9
100
AcDbEntity
  8
0
100
AcDbBlockEnd
  0
BLOCK
  5
15C6
330
15C1
100
AcDbEntity
  8
0
100
AcDbBlockBegin
  2
*S39
 70
     1
 10
0.0
 20
0.0
 30
0.0
  3
*S39
  1

  0
LINE
  5
15C2
330
15C1
100
AcDbEntity
  8
AM_5
 62
     5
100
AcDbLine
 10
375.9341114536506
 20
410.270221346178
 30
0.0
 11
325.7450510594092
 21
410.270221346178
 31
0.0
  0
LINE
  5
15C3
330
15C1
100
AcDbEntity
  8
AM_5
 62
     5
100
AcDbLine
 10
325.7450510594092
 20
410.270221346178
 30
0.0
 11
317.6579686841683
 21
421.6823326676949
 31
0.0
  0
TRACE
  5
15C4
330
15C1
100
AcDbEntity
  8
AM_5
 62
     5
370
    35
100
AcDbTrace
 10
318.2219032298436
 20
422.0819594323341
 30
0.0
 11
317.0940341384929
 21
421.2827059030556
 31
0.0
 12
314.6225020295613
 22
425.965840831428
 32
0.0
 13
314.6225020295613
 23
425.965840831428
 33
0.0
  0
MTEXT
  5
15C5
330
15C1
100
AcDbEntity
  8
AM_5
 62
     5
100
AcDbMText
 10
375.9341114536507
 20
415.9325952802324
 30
0.0
 40
5.25
 41
0.0
 71
     7
 72
     5
  1

  7
ACISOTS
 73
     1
 44
1.0
1001
ACAD
1000
MTEXTBEGIN
1070
    73
1070
     1
1070
    44
1040
1.0
1070
    74
1070
     0
1000
MTEXTEND
  0
ENDBLK
  5
15C7
330
15C1
100
AcDbEntity
  8
0
100
AcDbBlockEnd
  0
BLOCK
  5
15CE
330
15C9
100
AcDbEntity
  8
0
100
AcDbBlockBegin
  2
*S40
 70
     1
 10
0.0
 20
0.0
 30
0.0
  3
*S40
  1

  0
LINE
  5
15CA
330
15C9
100
AcDbEntity
  8
AM_5
 62
     5
100
AcDbLine
 10
354.9252019772443
 20
465.5608221275147
 30
0.0
 11
319.498757318763
 21
465.5608221275147
 31
0.0
  0
LINE
  5
15CB
330
15C9
100
AcDbEntity
  8
AM_5
 62
     5
100
AcDbLine
 10
319.498757318763
 20
465.5608221275147
 30
0.0
 11
307.3697674459972
 21
449.229845949819
 31
0.0
  0
TRACE
  5
15CC
330
15C9
100
AcDbEntity
  8
AM_5
 62
     5
370
    35
100
AcDbTrace
 10
306.814888315664
 20
449.6419537919463
 30
0.0
 11
307.9246465763304
 21
448.8177381076918
 31
0.0
 12
304.2394975953068
 22
445.0151204947201
 32
0.0
 13
304.2394975953068
 23
445.0151204947201
 33
0.0
  0
MTEXT
  5
15CD
330
15C9
100
AcDbEntity
  8
AM_5
 62
     5
100
AcDbMText
 10
354.9252019772443
 20
474.6311543448694
 30
0.0
 40
5.25
 41
0.0
 71
     7
 72
     5
  1

  7
ACISOTS
 73
     1
 44
1.0
1001
ACAD
1000
MTEXTBEGIN
1070
    73
1070
     1
1070
    44
1040
1.0
1070
    74
1070
     0
1000
MTEXTEND
  0
ENDBLK
  5
15CF
330
15C9
100
AcDbEntity
  8
0
100
AcDbBlockEnd
  0
ENDSEC
  0
SECTION
  2
ENTITIES
  0
LINE
  5
FFC
330
1F
100
AcDbEntity
  8
LOGO
 62
     4
100
AcDbLine
 10
517.2308546904424
 20
163.4893911169149
 30
0.0
 11
181.2308546904428
 21
163.4893911169149
 31
0.0
  0
LWPOLYLINE
  5
FFD
330
1F
100
AcDbEntity
  8
LOGO
 62
     4
100
AcDbPolyline
 90
        4
 70
     1
 43
0.0
 10
181.2308546904428
 20
163.4893911169148
 10
517.2308546904424
 20
163.4893911169148
 10
517.2308546904424
 20
534.0003747096369
 10
181.2308546904428
 20
534.0003747096369
1001
GENIUS_GENREC_14
1002
{
1000
PYDIR
1011
181.2308546904428
1021
534.0003747096369
1031
0.0
1002
}
1002
{
1000
PXDIR
1011
517.2308546904424
1021
163.4893911169148
1031
0.0
1002
}
1002
{
1000
PORI
1011
181.2308546904428
1021
163.4893911169148
1031
0.0
1002
}
1002
{
1000
PINS
1011
181.2308546904428
1021
163.4893911169148
1031
0.0
1002
}
1002
{
1000
PINS2
1011
517.2308546904424
1021
534.0003747096369
1031
0.0
1002
}
1002
{
1000
C
1070
     1
1002
}
1001
GENIUS_GENODEF_13
1002
{
1000
HIER
1070
     0
1002
}
1002
{
1000
MANEDIT
1070
     0
1002
}
1002
{
1000
NOSEL
1070
     0
1002
}
1002
{
1000
BEHIND
1070
     0
1002
}
1002
{
1000
OTHER
1070
     0
1002
}
1002
{
1000
REACTOR
1002
}
1001
GENIUS_GENOBJ-N-REC_13
1002
{
1000
OWNER
1000
GEN
1002
}
  0
LWPOLYLINE
  5
FFE
330
1F
100
AcDbEntity
  8
LOGO
 62
     4
100
AcDbPolyline
 90
        4
 70
     1
 43
0.0
 10
181.2308546904428
 20
163.4893911169148
 10
517.2308546904424
 20
163.4893911169148
 10
517.2308546904424
 20
129.8942562752857
 10
181.2308546904428
 20
129.8942562752857
1001
GENIUS_GENREC_14
1002
{
1000
PYDIR
1011
181.2308546904428
1021
129.8942562752857
1031
0.0
1002
}
1002
{
1000
PXDIR
1011
517.2308546904424
1021
163.4893911169148
1031
0.0
1002
}
1002
{
1000
PORI
1011
181.2308546904428
1021
163.4893911169148
1031
0.0
1002
}
1002
{
1000
PINS
1011
181.2308546904428
1021
163.4893911169148
1031
0.0
1002
}
1002
{
1000
PINS2
1011
517.2308546904424
1021
129.8942562752857
1031
0.0
1002
}
1002
{
1000
C
1070
     1
1002
}
1001
GENIUS_GENOBJ-N-REC_13
1002
{
1000
OWNER
1000
GEN
1002
}
1001
GENIUS_GENODEF_13
1002
{
1000
HIER
1070
     0
1002
}
1002
{
1000
MANEDIT
1070
     0
1002
}
1002
{
1000
NOSEL
1070
     0
1002
}
1002
{
1000
BEHIND
1070
     0
1002
}
1002
{
1000
OTHER
1070
     0
1002
}
1002
{
1000
REACTOR
1002
}
  0
TEXT
  5
FFF
330
1F
100
AcDbEntity
  8
LOGO
 62
     7
100
AcDbText
 10
257.0864446802711
 20
148.7719342128657
 30
0.0
 40
4.479351312217192
  1
Order example:
 41
0.8
  7
CHINESET
100
AcDbText
  0
TEXT
  5
1000
330
1F
100
AcDbEntity
  8
LOGO
 62
     7
100
AcDbText
 10
257.8900773484111
 20
155.077933398944
 30
0.0
 40
6.71902696832579
  1
訂購代號：
  7
CHINESET
100
AcDbText
  0
LINE
  5
1001
330
1F
100
AcDbEntity
  8
LOGO
 62
     4
100
AcDbLine
 10
255.1401513420265
 20
129.8942562752858
 30
0.0
 11
255.1401513420265
 21
163.4893911169149
 31
0.0
  0
TEXT
  5
1002
330
1F
100
AcDbEntity
  8
LOGO
  6
Continuous
100
AcDbText
 10
193.2983781386088
 20
136.4939698154449
 30
0.0
 40
5.039270226244343
  1
金器工業股份有限公司
  7
CHINESET
100
AcDbText
  0
TEXT
  5
1003
330
1F
100
AcDbEntity
  8
LOGO
  6
Continuous
100
AcDbText
 10
184.0422357034467
 20
131.4537122873302
 30
0.0
 40
3.359513484162895
  1
MINDMAN INDUSTRIAL CO., LTD.
 41
0.85
  7
CHINESET
100
AcDbText
  0
LINE
  5
1004
330
1F
100
AcDbEntity
  8
LOGO
 62
     4
100
AcDbLine
 10
255.1401513420265
 20
156.7703641485891
 30
0.0
 11
205.8672869076367
 21
156.7703641485891
 31
0.0
  0
LINE
  5
1005
330
1F
100
AcDbEntity
  8
LOGO
 62
     4
100
AcDbLine
 10
255.1401513420265
 20
150.0513371802633
 30
0.0
 11
205.8672869076367
 21
150.0513371802633
 31
0.0
  0
LINE
  5
1006
330
1F
100
AcDbEntity
  8
LOGO
 62
     4
100
AcDbLine
 10
255.1401513420265
 20
143.3323102119377
 30
0.0
 11
181.2308546904428
 21
143.3323102119377
 31
0.0
  0
LINE
  5
1007
330
1F
100
AcDbEntity
  8
LOGO
 62
     4
100
AcDbLine
 10
205.8672869076367
 20
143.3323102119377
 30
0.0
 11
205.8672869076367
 21
163.4893911169149
 31
0.0
  0
TEXT
  5
1008
330
1F
100
AcDbEntity
  8
LOGO
100
AcDbText
 10
239.5429641047646
 20
145.0120669540187
 30
0.0
 40
3.359513484162895
  1
mm
  7
CHINESET
 72
     1
 11
243.7023617518235
 21
146.6918236961002
 31
0.0
100
AcDbText
 73
     2
  0
TEXT
  5
1009
330
1F
100
AcDbEntity
  8
LOGO
100
AcDbText
 10
237.7832189463936
 20
158.4501208906703
 30
0.0
 40
3.359513484162895
  1
1 : 1
  7
CHINESET
 72
     1
 11
243.7023617518235
 21
160.1298776327518
 31
0.0
100
AcDbText
 73
     2
  0
LINE
  5
100A
330
1F
100
AcDbEntity
  8
LOGO
 62
     4
100
AcDbLine
 10
232.74339478094
 20
143.3323102119377
 30
0.0
 11
232.74339478094
 21
163.4893911169149
 31
0.0
  0
TEXT
  5
100B
330
1F
100
AcDbEntity
  8
LOGO
100
AcDbText
 10
208.6373857492662
 20
158.4517741945503
 30
220.1769792768836
 40
3.359513484162895
  1
比例 Scale:
 41
0.9
  7
CHINESET
 72
     4
 11
219.3053408442888
 21
160.1298776327518
 31
220.1769792768836
100
AcDbText
  0
TEXT
  5
100C
330
1F
100
AcDbEntity
  8
LOGO
100
AcDbText
 10
208.4439137673657
 20
151.7783508582479
 30
220.1769792768836
 40
3.359513484162895
  1
投影  View:
 41
0.9
  7
CHINESET
 72
     4
 11
219.3053408442888
 21
153.410850664426
 31
220.1769792768836
100
AcDbText
  0
TEXT
  5
100D
330
1F
100
AcDbEntity
  8
LOGO
100
AcDbText
 10
208.7723662017549
 20
145.0120669540187
 30
220.1769792768836
 40
3.359513484162895
  1
單位  Unit:
 41
0.9
  7
CHINESET
 72
     4
 11
219.3053408442888
 21
146.6918236961002
 31
220.1769792768836
100
AcDbText
  0
SOLID
  5
100E
330
1F
100
AcDbEntity
  8
LOGO
 62
     5
100
AcDbTrace
 10
184.716403846352
 20
148.9170231902691
 30
0.0
 11
186.1689693232701
 21
148.9170231902687
 31
0.0
 12
192.2296735545492
 22
162.6913509886318
 32
0.0
 13
193.6822390314683
 23
162.691350988631
 33
0.0
  0
SOLID
  5
100F
330
1F
100
AcDbEntity
  8
LOGO
 62
     5
100
AcDbTrace
 10
186.7700308999274
 20
148.9170231902691
 30
0.0
 11
188.2225963768455
 21
148.9170231902691
 31
0.0
 12
193.6822390314683
 22
161.5894047647622
 32
0.0
 13
192.2296735545492
 23
156.2633313493953
 33
0.0
  0
SOLID
  5
1010
330
1F
100
AcDbEntity
  8
LOGO
 62
     2
100
AcDbTrace
 10
186.1689693232701
 20
148.9170231902687
 30
0.0
 11
186.7700308999274
 21
148.9170231902691
 31
0.0
 12
193.6822390314683
 22
162.691350988631
 32
0.0
 13
194.283300608125
 23
162.691350988631
 33
0.0
  0
SOLID
  5
1011
330
1F
100
AcDbEntity
  8
LOGO
 62
     5
100
AcDbTrace
 10
182.3875851741636
 20
143.9081767181377
 30
0.0
 11
182.8884698213774
 21
143.9081767181377
 31
0.0
 12
184.2989999736746
 22
146.4125999542033
 32
0.0
 13
184.799884620887
 23
146.4125999542033
 33
0.0
  0
SOLID
  5
1012
330
1F
100
AcDbEntity
  8
LOGO
 62
     5
100
AcDbTrace
 10
184.2989999736746
 20
146.4125999542033
 30
0.0
 11
184.799884620887
 21
146.4125999542033
 31
0.0
 12
184.2989999736746
 22
143.9081767181377
 32
0.0
 13
184.799884620887
 23
143.9081767181377
 33
0.0
  0
SOLID
  5
1013
330
1F
100
AcDbEntity
  8
LOGO
 62
     5
100
AcDbTrace
 10
184.2989999736746
 20
143.9081767181377
 30
0.0
 11
184.799884620887
 21
143.9081767181377
 31
0.0
 12
186.2104147731866
 22
146.4125999542033
 32
0.0
 13
186.7112994203998
 23
146.4125999542033
 33
0.0
  0
SOLID
  5
1014
330
1F
100
AcDbEntity
  8
LOGO
 62
     5
100
AcDbTrace
 10
186.2104147731866
 20
146.4125999542033
 30
0.0
 11
186.7112994203998
 21
146.4125999542033
 31
0.0
 12
186.2104147731866
 22
143.9081767181377
 32
0.0
 13
186.7112994203998
 23
143.9081767181377
 33
0.0
  0
POLYLINE
  5
1015
330
1F
100
AcDbEntity
  8
LOGO
 62
     5
100
AcDb2dPolyline
 66
     1
 10
0.0
 20
0.0
 30
0.0
 40
0.5016873469683257
 41
0.5016873469683257
  0
VERTEX
  5
1016
330
1015
100
AcDbEntity
  8
LOGO
 62
     5
100
AcDbVertex
100
AcDb2dVertex
 10
202.9998975192666
 20
145.4108306597769
 30
0.0
 42
1.0
  0
VERTEX
  5
1017
330
1015
100
AcDbEntity
  8
LOGO
 62
     5
100
AcDbVertex
100
AcDb2dVertex
 10
201.4948354783614
 20
145.4108306597769
 30
0.0
 42
1.0
  0
SEQEND
  5
1018
330
1015
100
AcDbEntity
  8
LOGO
 62
     5
  0
POLYLINE
  5
1019
330
1F
100
AcDbEntity
  8
LOGO
 62
     5
100
AcDb2dPolyline
 66
     1
 10
0.0
 20
0.0
 30
0.0
 70
     1
  0
VERTEX
  5
101A
330
1019
100
AcDbEntity
  8
LOGO
 62
     5
100
AcDbVertex
100
AcDb2dVertex
 10
198.6577265860951
 20
145.16038833617
 30
0.0
 42
1.000000057330635
  0
VERTEX
  5
101B
330
1019
100
AcDbEntity
  8
LOGO
 62
     5
100
AcDbVertex
100
AcDb2dVertex
 10
200.160380527735
 20
145.16038833617
 30
0.0
 42
1.000000057330635
  0
SEQEND
  5
101C
330
1019
100
AcDbEntity
  8
LOGO
 62
     5
  0
CIRCLE
  5
101D
330
1F
100
AcDbEntity
  8
LOGO
 62
     5
100
AcDbCircle
 10
199.4090535569162
 20
145.16038833617
 30
0.0
 40
0.7513269708197647
  0
POLYLINE
  5
101E
330
1F
100
AcDbEntity
  8
LOGO
 62
     5
100
AcDb2dPolyline
 66
     1
 10
0.0
 20
0.0
 30
0.0
 70
     1
 40
0.5016873469683257
 41
0.5016873469683257
  0
VERTEX
  5
101F
330
101E
100
AcDbEntity
  8
LOGO
 62
     5
100
AcDbVertex
100
AcDb2dVertex
 10
198.4056788629782
 20
145.16038833617
 30
0.0
 42
1.0
  0
VERTEX
  5
1020
330
101E
100
AcDbEntity
  8
LOGO
 62
     5
100
AcDbVertex
100
AcDb2dVertex
 10
200.4124282508519
 20
145.16038833617
 30
0.0
 42
1.0
  0
SEQEND
  5
1021
330
101E
100
AcDbEntity
  8
LOGO
 62
     5
  0
LINE
  5
1022
330
1F
100
AcDbEntity
  8
LOGO
100
AcDbLine
 10
203.2491357932395
 20
143.9081767181377
 30
0.0
 11
203.2491357932395
 21
145.4108306597769
 31
0.0
  0
SOLID
  5
1023
330
1F
100
AcDbEntity
  8
LOGO
 62
     5
100
AcDbTrace
 10
200.1603304392725
 20
146.4125999542033
 30
0.0
 11
200.6612150864844
 21
146.4125999542033
 31
0.0
 12
200.1603304392725
 22
143.9081767181377
 32
0.0
 13
200.6612150864844
 23
143.9081767181377
 33
0.0
  0
SOLID
  5
1024
330
1F
100
AcDbEntity
  8
LOGO
 62
     5
100
AcDbTrace
 10
201.2455972043867
 20
143.9081767181377
 30
0.0
 11
201.7464818516005
 21
143.9081767181377
 31
0.0
 12
201.2455972043867
 22
146.4125999542033
 32
0.0
 13
201.7464818516005
 23
146.4125999542033
 33
0.0
  0
SOLID
  5
1025
330
1F
100
AcDbEntity
  8
LOGO
 62
     5
100
AcDbTrace
 10
202.7482511460275
 20
145.4108306597769
 30
0.0
 11
203.2491357932395
 21
145.4108306597769
 31
0.0
 12
202.7482511460275
 22
143.9081767181377
 32
0.0
 13
203.2491357932395
 23
143.9081767181377
 33
0.0
  0
SOLID
  5
1026
330
1F
100
AcDbEntity
  8
LOGO
 62
     5
100
AcDbTrace
 10
201.1955087396655
 20
161.5894047647622
 30
0.0
 11
199.7429432627482
 21
156.2633313493953
 31
0.0
 12
201.1955087396655
 22
148.9170231902687
 32
0.0
 13
199.7429432627482
 23
148.9170231902687
 33
0.0
  0
SOLID
  5
1027
330
1F
100
AcDbEntity
  8
LOGO
 62
     5
100
AcDbTrace
 10
201.7965703163222
 20
148.9170231902687
 30
0.0
 11
203.2491357932395
 21
148.9170231902687
 31
0.0
 12
201.7965703163222
 22
162.691350988631
 32
0.0
 13
203.2491357932395
 23
162.6913509886318
 33
0.0
  0
SOLID
  5
1028
330
1F
100
AcDbEntity
  8
LOGO
 62
     2
100
AcDbTrace
 10
201.1955087396655
 20
162.6913509886318
 30
0.0
 11
201.7965703163222
 21
162.691350988631
 31
0.0
 12
201.1955087396655
 22
148.9170231902687
 32
0.0
 13
201.7965703163222
 23
148.9170231902687
 33
0.0
  0
POLYLINE
  5
1029
330
1F
100
AcDbEntity
  8
LOGO
 62
     5
100
AcDb2dPolyline
 66
     1
 10
0.0
 20
0.0
 30
0.0
 40
0.5016873469683257
 41
0.5016873469683257
  0
VERTEX
  5
102A
330
1029
100
AcDbEntity
  8
LOGO
 62
     5
100
AcDbVertex
100
AcDb2dVertex
 10
195.8205175169014
 20
145.4108306597769
 30
0.0
 42
1.0
  0
VERTEX
  5
102B
330
1029
100
AcDbEntity
  8
LOGO
 62
     5
100
AcDbVertex
100
AcDb2dVertex
 10
194.3154554759962
 20
145.4108306597769
 30
0.0
 42
1.0
  0
SEQEND
  5
102C
330
1029
100
AcDbEntity
  8
LOGO
 62
     5
  0
POLYLINE
  5
102D
330
1F
100
AcDbEntity
  8
LOGO
 62
     5
100
AcDb2dPolyline
 66
     1
 10
0.0
 20
0.0
 30
0.0
 40
0.5016873469683257
 41
0.5016873469683257
  0
VERTEX
  5
102E
330
102D
100
AcDbEntity
  8
LOGO
 62
     5
100
AcDbVertex
100
AcDb2dVertex
 10
197.3231714585395
 20
145.4108306597769
 30
0.0
 42
1.0
  0
VERTEX
  5
102F
330
102D
100
AcDbEntity
  8
LOGO
 62
     5
100
AcDbVertex
100
AcDb2dVertex
 10
195.8181094176348
 20
145.4108306597769
 30
0.0
 42
1.0
  0
SEQEND
  5
1030
330
102D
100
AcDbEntity
  8
LOGO
 62
     5
  0
POLYLINE
  5
1031
330
1F
100
AcDbEntity
  8
LOGO
 62
     5
100
AcDb2dPolyline
 66
     1
 10
0.0
 20
0.0
 30
0.0
 40
0.5016873469683257
 41
0.5016873469683257
  0
VERTEX
  5
1032
330
1031
100
AcDbEntity
  8
LOGO
 62
     5
100
AcDbVertex
100
AcDb2dVertex
 10
190.1437914561743
 20
145.4108306597769
 30
0.0
 42
1.0
  0
VERTEX
  5
1033
330
1031
100
AcDbEntity
  8
LOGO
 62
     5
100
AcDbVertex
100
AcDb2dVertex
 10
188.6387294152696
 20
145.4108306597769
 30
0.0
 42
1.0
  0
SEQEND
  5
1034
330
1031
100
AcDbEntity
  8
LOGO
 62
     5
  0
SOLID
  5
1035
330
1F
100
AcDbEntity
  8
LOGO
 62
     5
100
AcDbTrace
 10
188.3894911412958
 20
146.4125999542033
 30
0.0
 11
188.8903757885082
 21
146.4125999542033
 31
0.0
 12
188.3894911412958
 22
143.9081767181377
 32
0.0
 13
188.8903757885082
 23
143.9081767181377
 33
0.0
  0
SOLID
  5
1036
330
1F
100
AcDbEntity
  8
LOGO
 62
     5
100
AcDbTrace
 10
189.8921450829357
 20
145.4108306597769
 30
0.0
 11
190.3930297301494
 21
145.4108306597769
 31
0.0
 12
189.8921450829357
 22
143.9081767181377
 32
0.0
 13
190.3930297301494
 23
143.9081767181377
 33
0.0
  0
POLYLINE
  5
1037
330
1F
100
AcDbEntity
  8
LOGO
 62
     5
100
AcDb2dPolyline
 66
     1
 10
0.0
 20
0.0
 30
0.0
 70
     1
 40
0.5016873469683257
 41
0.5016873469683257
  0
VERTEX
  5
1038
330
1037
100
AcDbEntity
  8
LOGO
 62
     5
100
AcDbVertex
100
AcDb2dVertex
 10
191.2262988606126
 20
145.16038833617
 30
0.0
 42
1.0
  0
VERTEX
  5
1039
330
1037
100
AcDbEntity
  8
LOGO
 62
     5
100
AcDbVertex
100
AcDb2dVertex
 10
193.2330482484863
 20
145.16038833617
 30
0.0
 42
1.0
  0
SEQEND
  5
103A
330
1037
100
AcDbEntity
  8
LOGO
 62
     5
  0
SOLID
  5
103B
330
1F
100
AcDbEntity
  8
LOGO
 62
     5
100
AcDbTrace
 10
192.9809504369054
 20
147.1639269250233
 30
0.0
 11
193.4818350841183
 21
147.1639269250233
 31
0.0
 12
192.9809504369054
 22
143.9081767181377
 32
0.0
 13
193.4818350841183
 23
143.9081767181377
 33
0.0
  0
SOLID
  5
103C
330
1F
100
AcDbEntity
  8
LOGO
 62
     5
100
AcDbTrace
 10
194.0662172020234
 20
146.4125999542033
 30
0.0
 11
194.5671018492353
 21
146.4125999542033
 31
0.0
 12
194.0662172020234
 22
143.9081767181377
 32
0.0
 13
194.5671018492353
 23
143.9081767181377
 33
0.0
  0
SOLID
  5
103D
330
1F
100
AcDbEntity
  8
LOGO
 62
     5
100
AcDbTrace
 10
195.5688711436614
 20
145.4108306597769
 30
0.0
 11
196.0697557908747
 21
145.4108306597769
 31
0.0
 12
195.5688711436614
 22
143.9081767181377
 32
0.0
 13
196.0697557908747
 23
143.9081767181377
 33
0.0
  0
SOLID
  5
103E
330
1F
100
AcDbEntity
  8
LOGO
 62
     5
100
AcDbTrace
 10
197.0715250853013
 20
145.4108306597769
 30
0.0
 11
197.5724097325142
 21
145.4108306597769
 31
0.0
 12
197.0715250853013
 22
143.9081767181369
 32
0.0
 13
197.5724097325142
 23
143.9081767181369
 33
0.0
  0
SOLID
  5
103F
330
1F
100
AcDbEntity
  8
LOGO
 62
     5
100
AcDbTrace
 10
187.3042243761792
 20
146.7632192072525
 30
0.0
 11
187.8051090233934
 21
146.7632192072525
 31
0.0
 12
187.3042243761792
 22
147.1639269250233
 32
0.0
 13
187.8051090233934
 23
147.1639269250233
 33
0.0
  0
SOLID
  5
1040
330
1F
100
AcDbEntity
  8
LOGO
 62
     5
100
AcDbTrace
 10
187.3042243761792
 20
146.4125999542033
 30
0.0
 11
187.8051090233934
 21
146.4125999542033
 31
0.0
 12
187.3042243761792
 22
143.9081767181369
 32
0.0
 13
187.8051090233934
 23
143.9081767181377
 33
0.0
  0
SOLID
  5
1041
330
1F
100
AcDbEntity
  8
LOGO
 62
     5
100
AcDbTrace
 10
192.2296735545492
 20
148.9170231902691
 30
0.0
 11
193.6822390314683
 21
148.9170231902691
 31
0.0
 12
192.2296735545492
 22
156.2633313493953
 32
0.0
 13
193.6822390314683
 23
161.5894047647622
 33
0.0
  0
SOLID
  5
1042
330
1F
100
AcDbEntity
  8
LOGO
 62
     5
100
AcDbTrace
 10
194.283300608125
 20
162.691350988631
 30
0.0
 11
195.7358660850423
 21
162.6913509886318
 31
0.0
 12
194.283300608125
 22
150.0189694141379
 32
0.0
 13
195.7358660850423
 23
155.3450428295048
 33
0.0
  0
SOLID
  5
1043
330
1F
100
AcDbEntity
  8
LOGO
 62
     2
100
AcDbTrace
 10
193.6822390314683
 20
162.691350988631
 30
0.0
 11
194.283300608125
 21
162.691350988631
 31
0.0
 12
193.6822390314683
 22
148.9170231902691
 32
0.0
 13
194.283300608125
 23
148.9170231902691
 33
0.0
  0
SOLID
  5
1044
330
1F
100
AcDbEntity
  8
LOGO
 62
     5
100
AcDbTrace
 10
194.283300608125
 20
150.0189694141379
 30
0.0
 11
195.7358660850423
 21
155.3450428295048
 31
0.0
 12
201.1955087396655
 22
162.6913509886318
 32
0.0
 13
199.7429432627482
 23
162.6913509886318
 33
0.0
  0
SOLID
  5
1045
330
1F
100
AcDbEntity
  8
LOGO
 62
     5
100
AcDbTrace
 10
194.283300608125
 20
148.9170231902691
 30
0.0
 11
195.7358660850423
 21
148.9170231902691
 31
0.0
 12
201.1955087396655
 22
161.5894047647622
 32
0.0
 13
199.7429432627482
 23
156.2633313493953
 33
0.0
  0
SOLID
  5
1046
330
1F
100
AcDbEntity
  8
LOGO
 62
     2
100
AcDbTrace
 10
193.6822390314683
 20
148.9170231902691
 30
0.0
 11
194.283300608125
 21
148.9170231902691
 31
0.0
 12
201.1955087396655
 22
162.6913509886318
 32
0.0
 13
201.7965703163222
 23
162.691350988631
 33
0.0
  0
LINE
  5
1047
330
1F
100
AcDbEntity
  8
LOGO
 62
     4
100
AcDbLine
 10
317.2805652374914
 20
145.0120669540193
 30
0.0
 11
317.2805652374914
 21
132.6938508454215
 31
0.0
  0
LINE
  5
1048
330
1F
100
AcDbEntity
  8
LOGO
 62
     4
100
AcDbLine
 10
301.3487682889104
 20
145.0120669540193
 30
0.0
 11
301.3487682889104
 21
132.6938508454215
 31
0.0
  0
LINE
  5
1049
330
1F
100
AcDbEntity
  8
LOGO
 62
     4
100
AcDbLine
 10
317.2805652374914
 20
132.6938508454215
 30
0.0
 11
301.3487682889104
 21
132.6938508454215
 31
0.0
  0
LINE
  5
104A
330
1F
100
AcDbEntity
  8
LOGO
 62
     4
100
AcDbLine
 10
328.0029747131743
 20
160.1298776327518
 30
0.0
 11
301.3487682889104
 21
160.1298776327518
 31
0.0
  0
LINE
  5
104B
330
1F
100
AcDbEntity
  8
LOGO
 62
     4
100
AcDbLine
 10
328.0029747131743
 20
150.0513371802633
 30
0.0
 11
301.3487682889104
 21
150.0513371802633
 31
0.0
  0
LINE
  5
104C
330
1F
100
AcDbEntity
  8
LOGO
 62
     4
100
AcDbLine
 10
301.3487682889104
 20
160.1298776327518
 30
0.0
 11
301.3487682889104
 21
150.0513371802633
 31
0.0
  0
LINE
  5
104D
330
1F
100
AcDbEntity
  8
LOGO
 62
     4
100
AcDbLine
 10
328.0029747131743
 20
160.1298776327518
 30
0.0
 11
328.0029747131743
 21
150.0513371802633
 31
0.0
  0
LINE
  5
104E
330
1F
100
AcDbEntity
  8
LOGO
 62
     4
100
AcDbLine
 10
313.7156947248909
 20
150.0513371802633
 30
0.0
 11
313.7156947248909
 21
145.0120669540193
 31
0.0
  0
TEXT
  5
104F
330
1F
100
AcDbEntity
  8
LOGO
  6
Continuous
 62
     7
100
AcDbText
 10
303.1395670832207
 20
152.1552177648956
 30
0.0
 40
5.879999999999999
  1
MVSC
  7
CHINESET
100
AcDbText
  0
LINE
  5
1050
330
1F
100
AcDbEntity
  8
LOGO
 62
     4
100
AcDbLine
 10
317.2805652374914
 20
145.0120669540193
 30
0.0
 11
301.3487682889104
 21
145.0120669540193
 31
0.0
  0
TEXT
  5
1051
330
1F
100
AcDbEntity
  8
LOGO
  6
Continuous
100
AcDbText
 10
305.8860822843044
 20
134.432540927766
 30
220.1769792768836
 40
2.519999999999999
  1
Model
 41
0.8
  7
CHINESET
100
AcDbText
  0
TEXT
  5
1052
330
1F
100
AcDbEntity
  8
LOGO
100
AcDbText
 10
305.2153402044655
 20
139.1040778290039
 30
220.1769792768836
 40
4.2
  1
型號
  7
CHINESET
100
AcDbText
  0
LINE
  5
1053
330
1F
100
AcDbEntity
  8
LOGO
  6
Continuous
 62
     7
100
AcDbLine
 10
329.0744068612644
 20
155.0549076234392
 30
0.0
 11
333.5247225754824
 21
155.0549076234392
 31
0.0
  0
LINE
  5
1054
330
1F
100
AcDbEntity
  8
LOGO
 62
     4
100
AcDbLine
 10
340.3115136074498
 20
145.0120669540193
 30
0.0
 11
340.3115136074498
 21
132.6938508454215
 31
0.0
  0
LINE
  5
1055
330
1F
100
AcDbEntity
  8
LOGO
 62
     4
100
AcDbLine
 10
319.905146543957
 20
145.0120669540193
 30
0.0
 11
319.905146543957
 21
132.6938508454215
 31
0.0
  0
LINE
  5
1056
330
1F
100
AcDbEntity
  8
LOGO
 62
     4
100
AcDbLine
 10
340.3115136074498
 20
132.6938508454215
 30
0.0
 11
319.905146543957
 21
132.6938508454215
 31
0.0
  0
LINE
  5
1057
330
1F
100
AcDbEntity
  8
LOGO
 62
     4
100
AcDbLine
 10
347.017758950859
 20
160.1298776327518
 30
0.0
 11
334.9285625931775
 21
160.1298776327518
 31
0.0
  0
LINE
  5
1058
330
1F
100
AcDbEntity
  8
LOGO
 62
     4
100
AcDbLine
 10
347.017758950859
 20
150.0513371802633
 30
0.0
 11
334.9285625931775
 21
150.0513371802633
 31
0.0
  0
LINE
  5
1059
330
1F
100
AcDbEntity
  8
LOGO
 62
     4
100
AcDbLine
 10
334.9285625931775
 20
160.1298776327518
 30
0.0
 11
334.9285625931775
 21
150.0513371802633
 31
0.0
  0
LINE
  5
105A
330
1F
100
AcDbEntity
  8
LOGO
 62
     4
100
AcDbLine
 10
347.017758950859
 20
160.1298776327518
 30
0.0
 11
347.017758950859
 21
150.0513371802633
 31
0.0
  0
LINE
  5
105B
330
1F
100
AcDbEntity
  8
LOGO
 62
     4
100
AcDbLine
 10
340.9731607720182
 20
150.0513371802633
 30
0.0
 11
340.9731607720182
 21
147.5317020671413
 31
0.0
  0
TEXT
  5
105C
330
1F
100
AcDbEntity
  8
LOGO
  6
Continuous
 62
     7
100
AcDbText
 10
336.5668980879723
 20
152.1552177648956
 30
0.0
 40
5.879999999999999
  1
300
  7
CHINESET
100
AcDbText
  0
LINE
  5
105D
330
1F
100
AcDbEntity
  8
LOGO
 62
     4
100
AcDbLine
 10
340.3115136074498
 20
145.0120669540193
 30
0.0
 11
319.905146543957
 21
145.0120669540193
 31
0.0
  0
LINE
  5
105E
330
1F
100
AcDbEntity
  8
LOGO
  6
Continuous
 62
     7
100
AcDbLine
 10
353.8326957275363
 20
155.0549076234392
 30
0.0
 11
358.2830114417543
 21
155.0549076234392
 31
0.0
  0
LINE
  5
105F
330
1F
100
AcDbEntity
  8
LOGO
 62
     4
100
AcDbLine
 10
359.8681565688098
 20
145.0120669540193
 30
0.0
 11
359.8681565688098
 21
132.6938508454215
 31
0.0
  0
LINE
  5
1060
330
1F
100
AcDbEntity
  8
LOGO
 62
     4
100
AcDbLine
 10
343.0442799933498
 20
145.0120669540193
 30
0.0
 11
343.0442799933498
 21
132.6938508454215
 31
0.0
  0
LINE
  5
1061
330
1F
100
AcDbEntity
  8
LOGO
 62
     4
100
AcDbLine
 10
359.8681565688098
 20
132.6938508454215
 30
0.0
 11
343.0442799933498
 21
132.6938508454215
 31
0.0
  0
LINE
  5
1062
330
1F
100
AcDbEntity
  8
LOGO
 62
     4
100
AcDbLine
 10
366.8414379639767
 20
160.1298776327518
 30
0.0
 11
359.6868514594494
 21
160.1298776327518
 31
0.0
  0
LINE
  5
1063
330
1F
100
AcDbEntity
  8
LOGO
 62
     4
100
AcDbLine
 10
366.8414379639767
 20
150.0513371802633
 30
0.0
 11
359.6868514594494
 21
150.0513371802633
 31
0.0
  0
LINE
  5
1064
330
1F
100
AcDbEntity
  8
LOGO
 62
     4
100
AcDbLine
 10
359.6868514594494
 20
160.1298776327518
 30
0.0
 11
359.6868514594494
 21
150.0513371802633
 31
0.0
  0
LINE
  5
1065
330
1F
100
AcDbEntity
  8
LOGO
 62
     4
100
AcDbLine
 10
366.8414379639767
 20
160.1298776327518
 30
0.0
 11
366.8414379639767
 21
150.0513371802633
 31
0.0
  0
LINE
  5
1066
330
1F
100
AcDbEntity
  8
LOGO
 62
     4
100
AcDbLine
 10
363.264144711713
 20
150.0513371802633
 30
0.0
 11
363.264144711713
 21
147.5317020671413
 31
0.0
  0
TEXT
  5
1067
330
1F
100
AcDbEntity
  8
LOGO
  6
Continuous
 62
     7
100
AcDbText
 10
361.0282782436766
 20
152.1552177648956
 30
0.0
 40
5.879999999999999
  1
3
  7
CHINESET
100
AcDbText
  0
LINE
  5
1068
330
1F
100
AcDbEntity
  8
LOGO
 62
     4
100
AcDbLine
 10
359.8681565688098
 20
145.0120669540193
 30
0.0
 11
343.0442799933498
 21
145.0120669540193
 31
0.0
  0
LINE
  5
1069
330
1F
100
AcDbEntity
  8
LOGO
 62
     4
100
AcDbLine
 10
390.7524172409521
 20
145.0120669540193
 30
0.0
 11
390.7524172409521
 21
132.6938508454215
 31
0.0
  0
LINE
  5
106A
330
1F
100
AcDbEntity
  8
LOGO
 62
     4
100
AcDbLine
 10
363.2801037474114
 20
145.0120669540193
 30
0.0
 11
363.2801037474114
 21
132.6938508454215
 31
0.0
  0
LINE
  5
106B
330
1F
100
AcDbEntity
  8
LOGO
 62
     4
100
AcDbLine
 10
390.7524172409521
 20
132.6938508454215
 30
0.0
 11
363.2801037474114
 21
132.6938508454215
 31
0.0
  0
LINE
  5
106C
330
1F
100
AcDbEntity
  8
LOGO
 62
     4
100
AcDbLine
 10
382.1113469466986
 20
160.1298776327518
 30
0.0
 11
368.81429394416
 21
160.1298776327518
 31
0.0
  0
LINE
  5
106D
330
1F
100
AcDbEntity
  8
LOGO
 62
     4
100
AcDbLine
 10
382.1113469466986
 20
150.0513371802633
 30
0.0
 11
368.81429394416
 21
150.0513371802633
 31
0.0
  0
LINE
  5
106E
330
1F
100
AcDbEntity
  8
LOGO
 62
     4
100
AcDbLine
 10
368.81429394416
 20
160.1298776327518
 30
0.0
 11
368.81429394416
 21
150.0513371802633
 31
0.0
  0
LINE
  5
106F
330
1F
100
AcDbEntity
  8
LOGO
 62
     4
100
AcDbLine
 10
382.1113469466986
 20
160.1298776327518
 30
0.0
 11
382.1113469466986
 21
150.0513371802633
 31
0.0
  0
LINE
  5
1070
330
1F
100
AcDbEntity
  8
LOGO
 62
     4
100
AcDbLine
 10
375.4628204454288
 20
150.0513371802633
 30
0.0
 11
375.4628204454288
 21
145.0120669540193
 31
0.0
  0
TEXT
  5
1071
330
1F
100
AcDbEntity
  8
LOGO
  6
Continuous
 62
     7
100
AcDbText
 10
371.1931451700189
 20
152.1552177648956
 30
0.0
 40
5.879999999999999
  1
E1
  7
CHINESET
100
AcDbText
  0
LINE
  5
1072
330
1F
100
AcDbEntity
  8
LOGO
 62
     4
100
AcDbLine
 10
390.7524172409521
 20
145.0120669540193
 30
0.0
 11
363.2801037474114
 21
145.0120669540193
 31
0.0
  0
TEXT
  5
1073
330
1F
100
AcDbEntity
  8
LOGO
  6
Continuous
100
AcDbText
 10
321.5062677690071
 20
134.432540927766
 30
220.1769792768836
 40
2.519999999999999
  1
Body width
 41
0.8
  7
CHINESET
100
AcDbText
  0
TEXT
  5
1074
330
1F
100
AcDbEntity
  8
LOGO
100
AcDbText
 10
321.4825284962089
 20
139.1040778290039
 30
220.1769792768836
 40
4.2
  1
本體寬度
  7
CHINESET
100
AcDbText
  0
TEXT
  5
1075
330
1F
100
AcDbEntity
  8
LOGO
  6
Continuous
100
AcDbText
 10
347.7354851131126
 20
134.432540927766
 30
220.1769792768836
 40
2.519999999999999
  1
3 Way
 41
0.8
  7
CHINESET
100
AcDbText
  0
TEXT
  5
1076
330
1F
100
AcDbEntity
  8
LOGO
100
AcDbText
 10
345.2775725373212
 20
139.1040778290039
 30
220.1769792768836
 40
4.2
  1
3方向
  7
CHINESET
100
AcDbText
  0
TEXT
  5
1077
330
1F
100
AcDbEntity
  8
LOGO
  6
Continuous
100
AcDbText
 10
365.6146049602944
 20
134.432540927766
 30
220.1769792768836
 40
2.519999999999999
  1
Single solenoid
 41
0.8
  7
CHINESET
100
AcDbText
  0
TEXT
  5
1078
330
1F
100
AcDbEntity
  8
LOGO
100
AcDbText
 10
370.1108556055874
 20
139.1040778290039
 30
220.1769792768836
 40
4.2
  1
單線圈
  7
CHINESET
100
AcDbText
  0
LINE
  5
1079
330
1F
100
AcDbEntity
  8
LOGO
 62
     4
100
AcDbLine
 10
422.3640628705748
 20
160.1298776327518
 30
0.0
 11
389.5706504835735
 21
160.1298776327518
 31
0.0
  0
LINE
  5
107A
330
1F
100
AcDbEntity
  8
LOGO
 62
     4
100
AcDbLine
 10
422.3640628705748
 20
150.0513371802633
 30
0.0
 11
389.5706504835735
 21
150.0513371802633
 31
0.0
  0
LINE
  5
107B
330
1F
100
AcDbEntity
  8
LOGO
 62
     4
100
AcDbLine
 10
389.5706504835735
 20
160.1298776327518
 30
0.0
 11
389.5706504835735
 21
150.0513371802633
 31
0.0
  0
LINE
  5
107C
330
1F
100
AcDbEntity
  8
LOGO
 62
     4
100
AcDbLine
 10
422.3640628705748
 20
160.1298776327518
 30
0.0
 11
422.3640628705748
 21
150.0513371802633
 31
0.0
  0
TEXT
  5
107D
330
1F
100
AcDbEntity
  8
LOGO
  6
Continuous
 62
     7
100
AcDbText
 10
391.8065964808279
 20
152.1552177648956
 30
0.0
 40
5.879999999999999
  1
NC/NO
  7
CHINESET
100
AcDbText
  0
LINE
  5
107E
330
1F
100
AcDbEntity
  8
LOGO
 62
     4
100
AcDbLine
 10
428.7678059463173
 20
145.0120669540193
 30
0.0
 11
428.7678059463173
 21
132.6938508454215
 31
0.0
  0
LINE
  5
107F
330
1F
100
AcDbEntity
  8
LOGO
 62
     4
100
AcDbLine
 10
410.5220772113698
 20
145.0120669540193
 30
0.0
 11
410.5220772113698
 21
132.6938508454215
 31
0.0
  0
LINE
  5
1080
330
1F
100
AcDbEntity
  8
LOGO
 62
     4
100
AcDbLine
 10
428.7678059463173
 20
132.6938508454215
 30
0.0
 11
410.5220772113698
 21
132.6938508454215
 31
0.0
  0
LINE
  5
1081
330
1F
100
AcDbEntity
  8
LOGO
 62
     4
100
AcDbLine
 10
428.7678059463173
 20
145.0120669540193
 30
0.0
 11
410.5220772113698
 21
145.0120669540193
 31
0.0
  0
TEXT
  5
1082
330
1F
100
AcDbEntity
  8
LOGO
  6
Continuous
100
AcDbText
 10
414.4882290701056
 20
134.432540927766
 30
220.1769792768836
 40
2.519999999999999
  1
Voltage
 41
0.8
  7
CHINESET
100
AcDbText
  0
TEXT
  5
1083
330
1F
100
AcDbEntity
  8
LOGO
100
AcDbText
 10
415.9675905650069
 20
139.1040778290039
 30
220.1769792768836
 40
4.2
  1
電壓
  7
CHINESET
100
AcDbText
  0
LINE
  5
1084
330
1F
100
AcDbEntity
  8
LOGO
 62
     4
100
AcDbLine
 10
433.5894864182478
 20
150.0513371802633
 30
0.0
 11
433.5894864182478
 21
147.5317020671414
 31
0.0
  0
TEXT
  5
1085
330
1F
100
AcDbEntity
  8
LOGO
100
AcDbText
 10
256.4727311353055
 20
131.6815041890736
 30
0.0
 40
3.359999999999999
  1
10707263
 41
0.7
  7
CHINESET
 72
     1
 11
264.8727311353054
 21
131.6815041890736
 31
0.0
100
AcDbText
  0
LINE
  5
1086
330
1F
100
AcDbEntity
  8
LOGO
 62
     4
100
AcDbLine
 10
275.300151342025
 20
136.6132832436124
 30
0.0
 11
275.3001513420263
 21
129.8942562752861
 31
0.0
  0
LINE
  5
1087
330
1F
100
AcDbEntity
  8
LOGO
 62
     4
100
AcDbLine
 10
275.300151342025
 20
136.6132832436124
 30
0.0
 11
255.1401513420265
 21
136.6132832436124
 31
0.0
  0
CIRCLE
  5
1088
330
1F
100
AcDbEntity
  8
LOGO
  6
Continuous
100
AcDbCircle
 10
238.9639541981719
 20
153.4180366883531
 30
0.0
 40
1.95061260293866
  0
CIRCLE
  5
1089
330
1F
100
AcDbEntity
  8
LOGO
  6
Continuous
100
AcDbCircle
 10
238.9639541981719
 20
153.4180366883531
 30
0.0
 40
1.142886307358202
  0
LINE
  5
108A
330
1F
100
AcDbEntity
  8
LOGO
100
AcDbLine
 10
251.2218301345533
 20
151.4674240854142
 30
0.0
 11
251.2218301345533
 21
155.3686492912921
 31
0.0
  0
LINE
  5
108B
330
1F
100
AcDbEntity
  8
LOGO
100
AcDbLine
 10
245.106771594847
 20
152.2751503809952
 30
0.0
 11
245.106771594847
 21
154.5609229957116
 31
0.0
  0
LINE
  5
108C
330
1F
100
AcDbEntity
  8
LOGO
  6
Continuous
100
AcDbLine
 10
245.106771594847
 20
154.5609229957116
 30
0.0
 11
251.2218301345533
 21
155.3686492912921
 31
0.0
  0
LINE
  5
108D
330
1F
100
AcDbEntity
  8
LOGO
  6
Continuous
100
AcDbLine
 10
245.106771594847
 20
152.2751503809952
 30
0.0
 11
251.2218301345533
 21
151.4674240854142
 31
0.0
  0
LINE
  5
108E
330
1F
100
AcDbEntity
  8
LOGO
  6
AM_ISO08W050x2
 48
0.3
100
AcDbLine
 10
236.2750055168977
 20
153.4180366883531
 30
0.0
 11
241.6529028794462
 21
153.4180366883531
 31
0.0
1001
GENIUS_GENOREF_13
1005
1439
  0
LINE
  5
108F
330
1F
100
AcDbEntity
  8
LOGO
  6
AM_ISO08W050x2
 48
0.3
100
AcDbLine
 10
238.9639541981719
 20
150.7290880070786
 30
0.0
 11
238.9639541981719
 21
156.1069853696278
 31
0.0
1001
GENIUS_GENOREF_13
1005
1438
  0
LINE
  5
1090
330
1F
100
AcDbEntity
  8
LOGO
  6
CENTER
 48
0.5
100
AcDbLine
 10
244.6177368789272
 20
153.4180366883531
 30
0.0
 11
251.8375967340367
 21
153.4180366883531
 31
0.0
1001
GENIUS_GENOREF_13
1005
1437
  0
LINE
  5
1091
330
1F
100
AcDbEntity
  8
LOGO
  6
Continuous
 62
     7
100
AcDbLine
 10
439.8577181176297
 20
155.0549076234392
 30
0.0
 11
444.3080338318481
 21
155.0549076234392
 31
0.0
  0
LINE
  5
1092
330
1F
100
AcDbEntity
  8
LOGO
 62
     4
100
AcDbLine
 10
454.2341389700054
 20
160.1298776327518
 30
0.0
 11
445.3621096801939
 21
160.1298776327518
 31
0.0
  0
LINE
  5
1093
330
1F
100
AcDbEntity
  8
LOGO
 62
     4
100
AcDbLine
 10
454.2341389700054
 20
150.0513371802633
 30
0.0
 11
445.3621096801939
 21
150.0513371802633
 31
0.0
  0
LINE
  5
1094
330
1F
100
AcDbEntity
  8
LOGO
 62
     4
100
AcDbLine
 10
445.3621096801939
 20
160.1298776327518
 30
0.0
 11
445.3621096801939
 21
150.0513371802633
 31
0.0
  0
LINE
  5
1095
330
1F
100
AcDbEntity
  8
LOGO
 62
     4
100
AcDbLine
 10
454.2341389700054
 20
160.1298776327518
 30
0.0
 11
454.2341389700054
 21
150.0513371802633
 31
0.0
  0
LINE
  5
1096
330
1F
100
AcDbEntity
  8
LOGO
 62
     4
100
AcDbLine
 10
449.7981243250997
 20
150.0513371802633
 30
0.0
 11
449.7981243250997
 21
145.0120669540192
 31
0.0
  0
LINE
  5
1097
330
1F
100
AcDbEntity
  8
LOGO
 62
     4
100
AcDbLine
 10
340.9731607720182
 20
147.5317020671413
 30
0.0
 11
330.1083300757032
 21
147.5317020671413
 31
0.0
  0
LINE
  5
1098
330
1F
100
AcDbEntity
  8
LOGO
 62
     4
100
AcDbLine
 10
330.1083300757032
 20
145.0120669540193
 30
0.0
 11
330.1083300757032
 21
147.5317020671413
 31
0.0
  0
LINE
  5
1099
330
1F
100
AcDbEntity
  8
LOGO
 62
     4
100
AcDbLine
 10
363.264144711713
 20
147.5317020671413
 30
0.0
 11
351.45621828108
 21
147.5317020671413
 31
0.0
  0
LINE
  5
109A
330
1F
100
AcDbEntity
  8
LOGO
 62
     4
100
AcDbLine
 10
351.45621828108
 20
145.0120669540193
 30
0.0
 11
351.45621828108
 21
147.5317020671413
 31
0.0
  0
LINE
  5
109B
330
1F
100
AcDbEntity
  8
LOGO
 62
     4
100
AcDbLine
 10
457.0610724716503
 20
145.0120669540193
 30
0.0
 11
457.0610724716503
 21
132.6938508454215
 31
0.0
  0
LINE
  5
109C
330
1F
100
AcDbEntity
  8
LOGO
 62
     4
100
AcDbLine
 10
431.6424400459232
 20
145.0120669540193
 30
0.0
 11
431.6424400459232
 21
132.6938508454215
 31
0.0
  0
LINE
  5
109D
330
1F
100
AcDbEntity
  8
LOGO
 62
     4
100
AcDbLine
 10
457.0610724716503
 20
132.6938508454215
 30
0.0
 11
431.6424400459232
 21
132.6938508454215
 31
0.0
  0
LINE
  5
109E
330
1F
100
AcDbEntity
  8
LOGO
 62
     4
100
AcDbLine
 10
457.0610724716503
 20
145.0120669540193
 30
0.0
 11
431.6424400459232
 21
145.0120669540193
 31
0.0
  0
TEXT
  5
109F
330
1F
100
AcDbEntity
  8
LOGO
  6
Continuous
100
AcDbText
 10
434.1595197993187
 20
134.432540927766
 30
220.1769792768836
 40
2.519999999999999
  1
DIN connector
 41
0.8
  7
CHINESET
100
AcDbText
  0
TEXT
  5
10A0
330
1F
100
AcDbEntity
  8
LOGO
100
AcDbText
 10
440.9584845696413
 20
139.1040778290039
 30
220.1769792768836
 40
4.2
  1
端子型
  7
CHINESET
100
AcDbText
  0
TEXT
  5
10A1
330
1F
100
AcDbEntity
  8
LOGO
  6
Continuous
100
AcDbText
 10
434.0924870665226
 20
139.58840482303
 30
220.1769792768836
 40
3.359999999999999
  1
DIN
 41
0.8
  7
CHINESET
100
AcDbText
  0
LINE
  5
10A2
330
1F
100
AcDbEntity
  8
LOGO
  6
Continuous
 62
     7
100
AcDbLine
 10
383.7164947516598
 20
155.0549076234392
 30
0.0
 11
388.1668104658788
 21
155.0549076234392
 31
0.0
  0
LINE
  5
10A3
330
1F
100
AcDbEntity
  8
LOGO
  6
Continuous
 62
     7
100
AcDbLine
 10
423.4740947252744
 20
155.0549076234392
 30
0.0
 11
427.9244104394933
 21
155.0549076234392
 31
0.0
  0
LINE
  5
10A4
330
1F
100
AcDbEntity
  8
LOGO
 62
     4
100
AcDbLine
 10
438.4152481533501
 20
160.1298776327518
 30
0.0
 11
429.5432188635381
 21
160.1298776327518
 31
0.0
  0
LINE
  5
10A5
330
1F
100
AcDbEntity
  8
LOGO
 62
     4
100
AcDbLine
 10
438.4152481533501
 20
150.0513371802633
 30
0.0
 11
429.5432188635381
 21
150.0513371802633
 31
0.0
  0
LINE
  5
10A6
330
1F
100
AcDbEntity
  8
LOGO
 62
     4
100
AcDbLine
 10
429.5432188635381
 20
160.1298776327518
 30
0.0
 11
429.5432188635381
 21
150.0513371802633
 31
0.0
  0
LINE
  5
10A7
330
1F
100
AcDbEntity
  8
LOGO
 62
     4
100
AcDbLine
 10
438.4152481533501
 20
160.1298776327518
 30
0.0
 11
438.4152481533501
 21
150.0513371802633
 31
0.0
  0
TEXT
  5
10A8
330
1F
100
AcDbEntity
  8
LOGO
  6
Continuous
 62
     7
100
AcDbText
 10
432.4881390098466
 20
152.1552177648956
 30
0.0
 40
5.879999999999999
  1
*
  7
CHINESET
100
AcDbText
  0
LINE
  5
10A9
330
1F
100
AcDbEntity
  8
LOGO
 62
     4
100
AcDbLine
 10
406.9611658893995
 20
145.0120669540193
 30
0.0
 11
406.9611658893995
 21
132.6938508454215
 31
0.0
  0
LINE
  5
10AA
330
1F
100
AcDbEntity
  8
LOGO
 62
     4
100
AcDbLine
 10
393.8971843395034
 20
145.0120669540193
 30
0.0
 11
393.8971843395034
 21
132.6938508454215
 31
0.0
  0
LINE
  5
10AB
330
1F
100
AcDbEntity
  8
LOGO
 62
     4
100
AcDbLine
 10
406.9611658893995
 20
132.6938508454215
 30
0.0
 11
393.8971843395034
 21
132.6938508454215
 31
0.0
  0
LINE
  5
10AC
330
1F
100
AcDbEntity
  8
LOGO
 62
     4
100
AcDbLine
 10
406.9611658893995
 20
145.0120669540193
 30
0.0
 11
393.8971843395034
 21
145.0120669540193
 31
0.0
  0
TEXT
  5
10AD
330
1F
100
AcDbEntity
  8
LOGO
  6
Continuous
100
AcDbText
 10
397.8633361982393
 20
134.432540927766
 30
220.1769792768836
 40
2.519999999999999
  1
Type
 41
0.8
  7
CHINESET
100
AcDbText
  0
TEXT
  5
10AE
330
1F
100
AcDbEntity
  8
LOGO
100
AcDbText
 10
396.6716940871688
 20
139.1040778290039
 30
220.1769792768836
 40
4.2
  1
型式
  7
CHINESET
100
AcDbText
  0
LINE
  5
10AF
330
1F
100
AcDbEntity
  8
LOGO
 62
     4
100
AcDbLine
 10
402.2042159285669
 20
150.0513371802633
 30
0.0
 11
402.2042159285669
 21
145.0120669540195
 31
0.0
  0
LINE
  5
10B0
330
1F
100
AcDbEntity
  8
LOGO
 62
     4
100
AcDbLine
 10
419.9418661864251
 20
147.5317020671414
 30
0.0
 11
419.9418661864251
 21
145.0120669540195
 31
0.0
  0
LINE
  5
10B1
330
1F
100
AcDbEntity
  8
LOGO
 62
     4
100
AcDbLine
 10
433.5894864182478
 20
147.5317020671414
 30
0.0
 11
419.9418661864251
 21
147.5317020671414
 31
0.0
  0
LINE
  5
10B2
330
1F
100
AcDbEntity
  8
AM_VIS
100
AcDbLine
 10
320.2292500768422
 20
237.9796829035143
 30
0.0
 11
320.2292500768422
 21
267.5100063016758
 31
0.0
  0
LINE
  5
10B3
330
1F
100
AcDbEntity
  8
AM_VIS
100
AcDbLine
 10
265.2292500768421
 20
267.5100063016758
 30
0.0
 11
265.2292500768421
 21
237.9796829035143
 31
0.0
  0
LINE
  5
10B4
330
1F
100
AcDbEntity
  8
AM_VIS
100
AcDbLine
 10
265.2292500768421
 20
267.7448446025951
 30
0.0
 11
320.2292500768422
 21
267.7448446025951
 31
0.0
  0
LINE
  5
10B5
330
1F
100
AcDbEntity
  8
AM_VIS
100
AcDbLine
 10
320.2292500768422
 20
237.7448446025951
 30
0.0
 11
265.2292500768421
 21
237.7448446025951
 31
0.0
  0
LINE
  5
10B6
330
1F
100
AcDbEntity
  8
AM_VIS
100
AcDbLine
 10
265.2292500768421
 20
267.7448446025951
 30
0.0
 11
265.2292500768421
 21
267.5100063016758
 31
0.0
  0
LINE
  5
10B7
330
1F
100
AcDbEntity
  8
AM_VIS
100
AcDbLine
 10
265.2292500768421
 20
237.9796829035143
 30
0.0
 11
265.2292500768421
 21
237.7448446025951
 31
0.0
  0
LINE
  5
10B8
330
1F
100
AcDbEntity
  8
AM_VIS
100
AcDbLine
 10
258.2292500768422
 20
237.7448446025951
 30
0.0
 11
265.2292500768421
 21
237.7448446025951
 31
0.0
  0
LINE
  5
10B9
330
1F
100
AcDbEntity
  8
AM_VIS
100
AcDbLine
 10
260.2292500768422
 20
259.744844602595
 30
0.0
 11
258.2292500768422
 21
259.744844602595
 31
0.0
  0
LINE
  5
10BA
330
1F
100
AcDbEntity
  8
AM_VIS
100
AcDbLine
 10
257.2292500768422
 20
258.744844602595
 30
0.0
 11
257.2292500768422
 21
238.7448446025951
 31
0.0
  0
LINE
  5
10BB
330
1F
100
AcDbEntity
  8
AM_VIS
100
AcDbLine
 10
257.2292500768422
 20
266.7448446025951
 30
0.0
 11
257.2292500768422
 21
264.8370752330027
 31
0.0
  0
LINE
  5
10BC
330
1F
100
AcDbEntity
  8
AM_VIS
100
AcDbLine
 10
257.2292500768422
 20
264.0563446025971
 30
0.0
 11
257.2292500768422
 21
263.7448446025951
 31
0.0
  0
LINE
  5
10BD
330
1F
100
AcDbEntity
  8
AM_VIS
100
AcDbLine
 10
265.2292500768421
 20
267.7448446025951
 30
0.0
 11
262.2292500768422
 21
267.7448446025951
 31
0.0
  0
LINE
  5
10BE
330
1F
100
AcDbEntity
  8
AM_VIS
100
AcDbLine
 10
261.2292500768422
 20
266.7448446025951
 30
0.0
 11
261.2292500768422
 21
265.794234755787
 31
0.0
  0
LINE
  5
10BF
330
1F
100
AcDbEntity
  8
AM_VIS
100
AcDbLine
 10
261.2292500768422
 20
261.6954544494032
 30
0.0
 11
261.2292500768422
 21
260.744844602595
 31
0.0
  0
LINE
  5
10C0
330
1F
100
AcDbEntity
  8
AM_VIS
100
AcDbLine
 10
258.2292500768422
 20
267.7448446025951
 30
0.0
 11
262.2292500768422
 21
267.7448446025951
 31
0.0
  0
LINE
  5
10C1
330
1F
100
AcDbEntity
  8
AM_VIS
100
AcDbLine
 10
265.2292500768421
 20
266.7448446025951
 30
0.0
 11
265.2292500768421
 21
238.7448446025951
 31
0.0
  0
ARC
  5
10C2
330
1F
100
AcDbEntity
  8
AM_VIS
100
AcDbCircle
 10
258.2292500768422
 20
258.744844602595
 30
0.0
 40
1.0
100
AcDbArc
 50
90.0
 51
180.0
  0
ARC
  5
10C3
330
1F
100
AcDbEntity
  8
AM_VIS
100
AcDbCircle
 10
258.2292500768422
 20
238.7448446025951
 30
0.0
 40
1.0
100
AcDbArc
 50
180.0
 51
270.0
  0
LINE
  5
10C4
330
1F
100
AcDbEntity
  8
AM_VIS
100
AcDbLine
 10
257.2292500768422
 20
263.7448446025951
 30
0.0
 11
257.2292500768422
 21
263.4333446025971
 31
0.0
  0
LINE
  5
10C5
330
1F
100
AcDbEntity
  8
AM_VIS
100
AcDbLine
 10
257.2292500768422
 20
262.6526139721875
 30
0.0
 11
257.2292500768422
 21
258.7448446025951
 31
0.0
  0
ARC
  5
10C6
330
1F
100
AcDbEntity
  8
AM_VIS
100
AcDbCircle
 10
258.2292500768422
 20
266.7448446025951
 30
0.0
 40
1.0
100
AcDbArc
 50
90.0
 51
180.0
  0
ARC
  5
10C7
330
1F
100
AcDbEntity
  8
AM_VIS
100
AcDbCircle
 10
262.2292500768422
 20
266.7448446025951
 30
0.0
 40
1.0
100
AcDbArc
 50
90.0
 51
180.0
  0
ARC
  5
10C8
330
1F
100
AcDbEntity
  8
AM_VIS
100
AcDbCircle
 10
260.2292500768422
 20
260.744844602595
 30
0.0
 40
1.0
100
AcDbArc
 50
270.0
 51
0.0
  0
ARC
  5
10C9
330
1F
100
AcDbEntity
  8
AM_VIS
100
AcDbCircle
 10
263.629250076842
 20
245.2448446025951
 30
0.0
 40
6.492531690334708
100
AcDbArc
 50
182.7500042420105
 51
189.6848520335337
  0
ARC
  5
10CA
330
1F
100
AcDbEntity
  8
AM_VIS
100
AcDbCircle
 10
263.629250076842
 20
245.2448446025951
 30
0.0
 40
6.492531690334708
100
AcDbArc
 50
170.3151479664662
 51
177.2499957580286
  0
LINE
  5
10CB
330
1F
100
AcDbEntity
  8
AM_VIS
100
AcDbLine
 10
257.2292500768422
 20
245.5563446025931
 30
0.0
 11
257.1441952968112
 21
245.5563446025931
 31
0.0
  0
LINE
  5
10CC
330
1F
100
AcDbEntity
  8
AM_VIS
100
AcDbLine
 10
257.1441952968114
 20
244.9333446025931
 30
0.0
 11
257.2292500768422
 21
244.9333446025931
 31
0.0
  0
LINE
  5
10CD
330
1F
100
AcDbEntity
  8
AM_VIS
100
AcDbLine
 10
261.2292500768422
 20
267.5448446025951
 30
0.0
 11
260.2292500768422
 21
267.5448446025951
 31
0.0
  0
LINE
  5
10CE
330
1F
100
AcDbEntity
  8
AM_VIS
100
AcDbLine
 10
260.8292500768421
 20
259.944844602595
 30
0.0
 11
260.2292500768422
 21
259.944844602595
 31
0.0
  0
LINE
  5
10CF
330
1F
100
AcDbEntity
  8
AM_VIS
100
AcDbLine
 10
261.2292500768422
 20
265.794234755787
 30
0.0
 11
261.2292500768422
 21
261.6954544494032
 31
0.0
  0
LINE
  5
10D0
330
1F
100
AcDbEntity
  8
AM_VIS
100
AcDbLine
 10
261.2292500768422
 20
267.5448446025951
 30
0.0
 11
261.2292500768422
 21
266.7448446025951
 31
0.0
  0
LINE
  5
10D1
330
1F
100
AcDbEntity
  8
AM_VIS
100
AcDbLine
 10
259.1703125647141
 20
259.8374896302887
 30
0.0
 11
260.2292500768422
 21
259.7448446025951
 31
0.0
  0
LINE
  5
10D2
330
1F
100
AcDbEntity
  8
AM_VIS
100
AcDbLine
 10
259.1703125647141
 20
267.6521995749015
 30
0.0
 11
260.2292500768422
 21
267.7448446025951
 31
0.0
  0
LINE
  5
10D3
330
1F
100
AcDbEntity
  8
AM_VIS
100
AcDbLine
 10
260.2292500768422
 20
267.7448446025951
 30
0.0
 11
260.2292500768422
 21
259.7448446025951
 31
0.0
  0
ARC
  5
10D4
330
1F
100
AcDbEntity
  8
AM_VIS
100
AcDbCircle
 10
263.629250076842
 20
263.7448446025951
 30
0.0
 40
6.492531690334708
100
AcDbArc
 50
159.307016814423
 51
177.2499957579895
  0
LINE
  5
10D5
330
1F
100
AcDbEntity
  8
AM_VIS
100
AcDbLine
 10
257.5555690535753
 20
266.0390474222273
 30
0.0
 11
257.5497764154134
 21
266.044844602594
 31
0.0
  0
LINE
  5
10D6
330
1F
100
AcDbEntity
  8
AM_VIS
100
AcDbLine
 10
257.549776415414
 20
261.444844602594
 30
0.0
 11
257.5555690535759
 21
261.4506417829608
 31
0.0
  0
ARC
  5
10D7
330
1F
100
AcDbEntity
  8
AM_VIS
100
AcDbCircle
 10
263.629250076842
 20
263.7448446025951
 30
0.0
 40
6.492531690334708
100
AcDbArc
 50
182.7500042419713
 51
200.6929831855873
  0
LINE
  5
10D8
330
1F
100
AcDbEntity
  8
AM_VIS
100
AcDbLine
 10
257.5555690535757
 20
264.0563446025971
 30
0.0
 11
257.1441952968114
 21
264.0563446025971
 31
0.0
  0
LINE
  5
10D9
330
1F
100
AcDbEntity
  8
AM_VIS
100
AcDbLine
 10
257.1441952968112
 20
263.4333446025971
 30
0.0
 11
257.5555690535755
 21
263.4333446025971
 31
0.0
  0
ELLIPSE
  5
10DA
330
1F
100
AcDbEntity
  8
AM_VIS
100
AcDbEllipse
 10
261.7371302661415
 20
263.7448446025951
 30
0.0
 11
-0.0000000000000121
 21
-5.924134808644386
 31
0.0
210
0.0
220
0.0
230
1.0
 40
0.7068296022936167
 41
4.659783202666559
 42
4.764994758102135
  0
ARC
  5
10DB
330
1F
100
AcDbEntity
  8
AM_VIS
100
AcDbCircle
 10
259.3097617531105
 20
261.4314011472354
 30
0.0
 40
1.6
100
AcDbArc
 50
208.1727341318593
 51
265.0000000000003
  0
ARC
  5
10DC
330
1F
100
AcDbEntity
  8
AM_VIS
100
AcDbCircle
 10
259.3097617531105
 20
266.0582880579548
 30
0.0
 40
1.6
100
AcDbArc
 50
94.99999999999975
 51
151.8272658681406
  0
ARC
  5
10DD
330
1F
100
AcDbEntity
  8
AM_VIS
100
AcDbCircle
 10
263.629250076842
 20
263.7448446025951
 30
0.0
 40
6.500000000000034
100
AcDbArc
 50
200.7227443816017
 51
208.1727341318593
  0
ARC
  5
10DE
330
1F
100
AcDbEntity
  8
AM_VIS
100
AcDbCircle
 10
263.629250076842
 20
263.7448446025951
 30
0.0
 40
6.500000000000036
100
AcDbArc
 50
151.8272658681406
 51
159.277255618424
  0
LINE
  5
10DF
330
1F
100
AcDbEntity
  8
AM_VIS
100
AcDbLine
 10
320.2292500768419
 20
237.7448446025951
 30
0.0
 11
344.2292500768419
 21
238.1637661608723
 31
0.0
  0
LINE
  5
10E0
330
1F
100
AcDbEntity
  8
AM_VIS
100
AcDbLine
 10
320.2292500768419
 20
267.7448446025951
 30
0.0
 11
344.2292500768419
 21
267.3259230443179
 31
0.0
  0
LINE
  5
10E1
330
1F
100
AcDbEntity
  8
AM_VIS
100
AcDbLine
 10
344.2292500768419
 20
267.3274134959935
 30
0.0
 11
344.1438621575369
 21
267.3274134959935
 31
0.0
  0
LINE
  5
10E2
330
1F
100
AcDbEntity
  8
AM_VIS
100
AcDbLine
 10
344.2292500768419
 20
238.1637661608723
 30
0.0
 11
344.2292500768419
 21
238.50859654606
 31
0.0
  0
LINE
  5
10E3
330
1F
100
AcDbEntity
  8
AM_VIS
100
AcDbLine
 10
344.2292500768419
 20
266.9810926591302
 30
0.0
 11
344.2292500768419
 21
267.3259230443179
 31
0.0
  0
LINE
  5
10E4
330
1F
100
AcDbEntity
  8
AM_VIS
100
AcDbLine
 10
320.2292500768419
 20
237.7448446025951
 30
0.0
 11
320.2292500768419
 21
267.7448446025951
 31
0.0
  0
LINE
  5
10E5
330
1F
100
AcDbEntity
  8
AM_VIS
100
AcDbLine
 10
346.2292500768419
 20
243.533698984595
 30
0.0
 11
346.2292500768419
 21
239.9559902205953
 31
0.0
  0
LINE
  5
10E6
330
1F
100
AcDbEntity
  8
AM_VIS
100
AcDbLine
 10
346.2292500768419
 20
267.3448446025951
 30
0.0
 11
344.2292500768419
 21
267.3448446025951
 31
0.0
  0
LINE
  5
10E7
330
1F
100
AcDbEntity
  8
AM_VIS
100
AcDbLine
 10
344.2292500768421
 20
238.6448446025951
 30
0.0
 11
344.2292500768421
 21
266.8448446025951
 31
0.0
  0
LINE
  5
10E8
330
1F
100
AcDbEntity
  8
AM_VIS
100
AcDbLine
 10
346.2292500768421
 20
238.1448446025951
 30
0.0
 11
346.2292500768421
 21
239.9559902205953
 31
0.0
  0
LINE
  5
10E9
330
1F
100
AcDbEntity
  8
AM_VIS
100
AcDbLine
 10
346.2292500768419
 20
243.533698984595
 30
0.0
 11
346.2292500768419
 21
266.8448446025951
 31
0.0
  0
LINE
  5
10EA
330
1F
100
AcDbEntity
  8
AM_VIS
100
AcDbLine
 10
344.2292500768421
 20
238.1448446025951
 30
0.0
 11
346.2292500768421
 21
238.1448446025951
 31
0.0
  0
LINE
  5
10EB
330
1F
100
AcDbEntity
  8
AM_VIS
100
AcDbLine
 10
344.2292500768419
 20
267.3259230443179
 30
0.0
 11
344.2292500768419
 21
267.3448446025951
 31
0.0
  0
LINE
  5
10EC
330
1F
100
AcDbEntity
  8
AM_VIS
100
AcDbLine
 10
344.2292500768419
 20
266.8448446025951
 30
0.0
 11
344.2292500768419
 21
266.9810926591302
 31
0.0
  0
LINE
  5
10ED
330
1F
100
AcDbEntity
  8
AM_VIS
100
AcDbLine
 10
344.2292500768421
 20
238.50859654606
 30
0.0
 11
344.2292500768421
 21
238.6448446025951
 31
0.0
  0
LINE
  5
10EE
330
1F
100
AcDbEntity
  8
AM_VIS
100
AcDbLine
 10
344.2292500768421
 20
238.1448446025951
 30
0.0
 11
344.2292500768421
 21
238.1637661608723
 31
0.0
  0
LINE
  5
10EF
330
1F
100
AcDbEntity
  8
AM_VIS
100
AcDbLine
 10
346.2292500768419
 20
267.3448446025951
 30
0.0
 11
346.2292500768419
 21
266.8448446025951
 31
0.0
  0
LINE
  5
10F0
330
1F
100
AcDbEntity
  8
AM_VIS
100
AcDbLine
 10
333.5292459462862
 20
237.9767971956777
 30
0.0
 11
333.4292611767705
 21
237.9750519550339
 31
0.0
  0
ARC
  5
10F1
330
1F
100
AcDbEntity
  8
AM_VIS
100
AcDbCircle
 10
333.4584926209357
 20
239.1653180653207
 30
0.0
 40
1.190625
100
AcDbArc
 50
268.3743118666467
 51
268.5931702408151
  0
ARC
  5
10F2
330
1F
100
AcDbEntity
  8
AM_VIS
100
AcDbCircle
 10
333.4584926209357
 20
239.1653180653207
 30
0.0
 40
1.190625
100
AcDbArc
 50
273.4068297591871
 51
273.6256881333562
  0
LINE
  5
10F3
330
1F
100
AcDbEntity
  8
AM_VIS
100
AcDbLine
 10
265.2292500768421
 20
362.3221913418819
 30
0.0
 11
265.2292500768421
 21
316.2244690554175
 31
0.0
  0
LINE
  5
10F4
330
1F
100
AcDbEntity
  8
AM_VIS
100
AcDbLine
 10
320.2292500768422
 20
316.2244690554175
 30
0.0
 11
320.2292500768422
 21
362.3221913418819
 31
0.0
  0
LINE
  5
10F5
330
1F
100
AcDbEntity
  8
AM_VIS
100
AcDbLine
 10
320.2292500768422
 20
316.0733301986496
 30
0.0
 11
265.2292500768421
 21
316.0733301986496
 31
0.0
  0
LINE
  5
10F6
102
{ACAD_REACTORS
330
1377
102
}
330
1F
100
AcDbEntity
  8
AM_VIS
100
AcDbLine
 10
265.2292500768421
 20
362.4733301986497
 30
0.0
 11
320.2292500768422
 21
362.4733301986497
 31
0.0
  0
LINE
  5
10F7
330
1F
100
AcDbEntity
  8
AM_VIS
100
AcDbLine
 10
265.2292500768421
 20
316.2244690554175
 30
0.0
 11
265.2292500768421
 21
316.0733301986496
 31
0.0
  0
LINE
  5
10F8
330
1F
100
AcDbEntity
  8
AM_VIS
100
AcDbLine
 10
265.2292500768421
 20
362.4733301986497
 30
0.0
 11
265.2292500768421
 21
362.3221913418819
 31
0.0
  0
LINE
  5
10F9
330
1F
100
AcDbEntity
  8
AM_VIS
100
AcDbLine
 10
257.2292500768422
 20
320.2733301986496
 30
0.0
 11
257.2292500768422
 21
319.9618301986496
 31
0.0
  0
LINE
  5
10FA
330
1F
100
AcDbEntity
  8
AM_VIS
100
AcDbLine
 10
257.2292500768422
 20
319.1810995682421
 30
0.0
 11
257.2292500768422
 21
317.0733301986496
 31
0.0
  0
LINE
  5
10FB
330
1F
100
AcDbEntity
  8
AM_VIS
100
AcDbLine
 10
257.2292500768422
 20
361.4733301986496
 30
0.0
 11
257.2292500768422
 21
325.2733301986497
 31
0.0
  0
LINE
  5
10FC
330
1F
100
AcDbEntity
  8
AM_VIS
100
AcDbLine
 10
262.2292500768422
 20
316.0733301986496
 30
0.0
 11
258.2292500768422
 21
316.0733301986496
 31
0.0
  0
LINE
  5
10FD
330
1F
100
AcDbEntity
  8
AM_VIS
100
AcDbLine
 10
262.2292500768422
 20
316.0733301986496
 30
0.0
 11
265.2292500768421
 21
316.0733301986496
 31
0.0
  0
LINE
  5
10FE
330
1F
100
AcDbEntity
  8
AM_VIS
100
AcDbLine
 10
261.2292500768422
 20
323.2733301986497
 30
0.0
 11
261.2292500768422
 21
322.6057109565878
 31
0.0
  0
LINE
  5
10FF
330
1F
100
AcDbEntity
  8
AM_VIS
100
AcDbLine
 10
261.2292500768422
 20
317.9409494407115
 30
0.0
 11
261.2292500768422
 21
317.0733301986496
 31
0.0
  0
LINE
  5
1100
330
1F
100
AcDbEntity
  8
AM_VIS
100
AcDbLine
 10
258.2292500768422
 20
324.2733301986497
 30
0.0
 11
260.2292500768422
 21
324.2733301986497
 31
0.0
  0
LINE
  5
1101
330
1F
100
AcDbEntity
  8
AM_VIS
100
AcDbLine
 10
265.2292500768421
 20
362.4733301986496
 30
0.0
 11
258.2292500768422
 21
362.4733301986496
 31
0.0
  0
LINE
  5
1102
330
1F
100
AcDbEntity
  8
AM_VIS
100
AcDbLine
 10
265.2292500768421
 20
361.4733301986496
 30
0.0
 11
265.2292500768421
 21
317.0733301986496
 31
0.0
  0
ARC
  5
1103
330
1F
100
AcDbEntity
  8
AM_VIS
100
AcDbCircle
 10
258.2292500768422
 20
317.0733301986496
 30
0.0
 40
1.0
100
AcDbArc
 50
180.0
 51
270.0
  0
LINE
  5
1104
330
1F
100
AcDbEntity
  8
AM_VIS
100
AcDbLine
 10
257.2292500768422
 20
325.2733301986497
 30
0.0
 11
257.2292500768422
 21
321.3655608290573
 31
0.0
  0
LINE
  5
1105
330
1F
100
AcDbEntity
  8
AM_VIS
100
AcDbLine
 10
257.2292500768422
 20
320.5848301986497
 30
0.0
 11
257.2292500768422
 21
320.2733301986496
 31
0.0
  0
ARC
  5
1106
330
1F
100
AcDbEntity
  8
AM_VIS
100
AcDbCircle
 10
258.2292500768422
 20
325.2733301986497
 30
0.0
 40
1.0
100
AcDbArc
 50
180.0
 51
270.0
  0
ARC
  5
1107
330
1F
100
AcDbEntity
  8
AM_VIS
100
AcDbCircle
 10
258.2292500768422
 20
361.4733301986496
 30
0.0
 40
1.0
100
AcDbArc
 50
90.0
 51
180.0
  0
ARC
  5
1108
330
1F
100
AcDbEntity
  8
AM_VIS
100
AcDbCircle
 10
262.2292500768422
 20
317.0733301986496
 30
0.0
 40
1.0
100
AcDbArc
 50
180.0
 51
270.0
  0
ARC
  5
1109
330
1F
100
AcDbEntity
  8
AM_VIS
100
AcDbCircle
 10
260.2292500768422
 20
323.2733301986497
 30
0.0
 40
1.0
100
AcDbArc
 50
0.0
 51
90.0
  0
LINE
  5
110A
330
1F
100
AcDbEntity
  8
AM_VIS
100
AcDbLine
 10
257.1441952968112
 20
356.9618301986496
 30
0.0
 11
257.2292500768422
 21
356.9618301986496
 31
0.0
  0
LINE
  5
110B
330
1F
100
AcDbEntity
  8
AM_VIS
100
AcDbLine
 10
257.2292500768422
 20
357.5848301986497
 30
0.0
 11
257.1441952968112
 21
357.5848301986497
 31
0.0
  0
ARC
  5
110C
330
1F
100
AcDbEntity
  8
AM_VIS
100
AcDbCircle
 10
263.629250076842
 20
357.2733301986497
 30
0.0
 40
6.492531690334804
100
AcDbArc
 50
170.3151479664598
 51
177.249995758009
  0
ARC
  5
110D
330
1F
100
AcDbEntity
  8
AM_VIS
100
AcDbCircle
 10
263.629250076842
 20
357.2733301986497
 30
0.0
 40
6.492531690334804
100
AcDbArc
 50
182.7500042419909
 51
189.6848520335402
  0
ELLIPSE
  5
110E
330
1F
100
AcDbEntity
  8
AM_VIS
100
AcDbEllipse
 10
260.7787455607329
 20
320.2733301986496
 30
0.0
 11
-10.44041419392712
 21
0.0
 31
0.0000000000000001
210
0.0
220
0.0
230
1.0
 40
0.363970234266219
 41
4.712388980384689
 42
4.765044888646255
  0
LINE
  5
110F
330
1F
100
AcDbEntity
  8
AM_VIS
100
AcDbLine
 10
260.8292500768421
 20
324.0733301986496
 30
0.0
 11
260.7787455607329
 21
324.0733301986496
 31
0.0
  0
LINE
  5
1110
330
1F
100
AcDbEntity
  8
AM_VIS
100
AcDbLine
 10
261.2292500768422
 20
316.4733301986497
 30
0.0
 11
260.2292500768422
 21
316.4733301986497
 31
0.0
  0
LINE
  5
1111
330
1F
100
AcDbEntity
  8
AM_VIS
100
AcDbLine
 10
261.2292500768422
 20
317.0733301986496
 30
0.0
 11
261.2292500768422
 21
316.4733301986497
 31
0.0
  0
LINE
  5
1112
330
1F
100
AcDbEntity
  8
AM_VIS
100
AcDbLine
 10
261.2292500768422
 20
322.6057109565878
 30
0.0
 11
261.2292500768422
 21
317.9409494407115
 31
0.0
  0
LINE
  5
1113
330
1F
100
AcDbEntity
  8
AM_VIS
100
AcDbLine
 10
259.1703125647141
 20
316.3659752263433
 30
0.0
 11
260.2292500768422
 21
316.2733301986496
 31
0.0
  0
LINE
  5
1114
330
1F
100
AcDbEntity
  8
AM_VIS
100
AcDbLine
 10
259.1703125647141
 20
324.1806851709561
 30
0.0
 11
260.2292500768422
 21
324.2733301986497
 31
0.0
  0
LINE
  5
1115
330
1F
100
AcDbEntity
  8
AM_VIS
100
AcDbLine
 10
260.2292500768422
 20
324.2733301986497
 30
0.0
 11
260.2292500768422
 21
316.2733301986496
 31
0.0
  0
LINE
  5
1116
330
1F
100
AcDbEntity
  8
AM_VIS
100
AcDbLine
 10
257.1441952968114
 20
319.9618301986496
 30
0.0
 11
257.5555690535753
 21
319.9618301986496
 31
0.0
  0
ELLIPSE
  5
1117
330
1F
100
AcDbEntity
  8
AM_VIS
100
AcDbEllipse
 10
261.7371302661429
 20
320.2733301986496
 30
0.0
 11
0.0
 21
5.924134808644829
 31
0.0
210
0.0
220
0.0
230
1.0
 40
0.706829602293854
 41
1.518190549077111
 42
1.623402104512681
  0
LINE
  5
1118
330
1F
100
AcDbEntity
  8
AM_VIS
100
AcDbLine
 10
257.5555690535753
 20
320.5848301986497
 30
0.0
 11
257.1441952968114
 21
320.5848301986497
 31
0.0
  0
ARC
  5
1119
330
1F
100
AcDbEntity
  8
AM_VIS
100
AcDbCircle
 10
263.629250076842
 20
320.2733301986496
 30
0.0
 40
6.492531690334613
100
AcDbArc
 50
182.7500042419909
 51
200.6929831855785
  0
LINE
  5
111A
330
1F
100
AcDbEntity
  8
AM_VIS
100
AcDbLine
 10
257.5555690535757
 20
322.5675330182828
 30
0.0
 11
257.5497764154138
 21
322.5733301986497
 31
0.0
  0
LINE
  5
111B
330
1F
100
AcDbEntity
  8
AM_VIS
100
AcDbLine
 10
257.5497764154138
 20
317.9733301986496
 30
0.0
 11
257.5555690535757
 21
317.9791273790165
 31
0.0
  0
ARC
  5
111C
330
1F
100
AcDbEntity
  8
AM_VIS
100
AcDbCircle
 10
263.629250076842
 20
320.2733301986496
 30
0.0
 40
6.492531690334613
100
AcDbArc
 50
159.3070168144193
 51
177.249995758009
  0
ARC
  5
111D
330
1F
100
AcDbEntity
  8
AM_VIS
100
AcDbCircle
 10
259.3097617531105
 20
317.95988674329
 30
0.0
 40
1.6
100
AcDbArc
 50
208.1727341318593
 51
265.0000000000003
  0
ARC
  5
111E
330
1F
100
AcDbEntity
  8
AM_VIS
100
AcDbCircle
 10
259.3097617531105
 20
322.5867736540093
 30
0.0
 40
1.6
100
AcDbArc
 50
94.99999999999975
 51
151.8272658681406
  0
ARC
  5
111F
330
1F
100
AcDbEntity
  8
AM_VIS
100
AcDbCircle
 10
263.629250076842
 20
320.2733301986496
 30
0.0
 40
6.500000000000034
100
AcDbArc
 50
200.7227443815914
 51
208.1727341318593
  0
ARC
  5
1120
330
1F
100
AcDbEntity
  8
AM_VIS
100
AcDbCircle
 10
263.629250076842
 20
320.2733301986496
 30
0.0
 40
6.500000000000034
100
AcDbArc
 50
151.8272658681406
 51
159.2772556184086
  0
LINE
  5
1121
330
1F
100
AcDbEntity
  8
AM_VIS
100
AcDbLine
 10
320.2292500768422
 20
362.4733301986497
 30
0.0
 11
344.2292500768421
 21
362.0544086403725
 31
0.0
  0
LINE
  5
1122
330
1F
100
AcDbEntity
  8
AM_VIS
100
AcDbLine
 10
320.2292500768419
 20
316.0733301986496
 30
0.0
 11
344.2292500768419
 21
316.4922517569269
 31
0.0
  0
LINE
  5
1123
330
1F
100
AcDbEntity
  8
AM_VIS
100
AcDbLine
 10
344.2292500768419
 20
360.8081827963025
 30
0.0
 11
344.143862157538
 21
360.8104778906179
 31
0.0
  0
LINE
  5
1124
330
1F
100
AcDbEntity
  8
AM_VIS
100
AcDbLine
 10
344.2292500768419
 20
360.8104778906179
 30
0.0
 11
344.143862157538
 21
360.8104778906179
 31
0.0
  0
LINE
  5
1125
330
1F
100
AcDbEntity
  8
AM_VIS
100
AcDbLine
 10
344.143862157538
 20
360.8104778906179
 30
0.0
 11
344.2292500768421
 21
360.8114458012533
 31
0.0
  0
LINE
  5
1126
330
1F
100
AcDbEntity
  8
AM_VIS
100
AcDbLine
 10
344.2292500768419
 20
361.7095782551847
 30
0.0
 11
344.2292500768419
 21
362.0544086403725
 31
0.0
  0
LINE
  5
1127
330
1F
100
AcDbEntity
  8
AM_VIS
100
AcDbLine
 10
344.2292500768419
 20
316.4922517569269
 30
0.0
 11
344.2292500768419
 21
316.8370821421146
 31
0.0
  0
LINE
  5
1128
330
1F
100
AcDbEntity
  8
AM_VIS
100
AcDbLine
 10
320.2292500768419
 20
316.0733301986496
 30
0.0
 11
320.2292500768419
 21
337.2733301986496
 31
0.0
  0
LINE
  5
1129
330
1F
100
AcDbEntity
  8
AM_VIS
100
AcDbLine
 10
320.2292500768419
 20
341.2733301986496
 30
0.0
 11
320.2292500768422
 21
362.4733301986497
 31
0.0
  0
LINE
  5
112A
330
1F
100
AcDbEntity
  8
AM_VIS
100
AcDbLine
 10
321.2292500768419
 20
341.2733301986496
 30
0.0
 11
321.2292500768419
 21
337.2733301986496
 31
0.0
  0
LINE
  5
112B
330
1F
100
AcDbEntity
  8
AM_VIS
100
AcDbLine
 10
320.2292500768419
 20
341.2733301986496
 30
0.0
 11
321.2292500768419
 21
341.2733301986496
 31
0.0
  0
LINE
  5
112C
330
1F
100
AcDbEntity
  8
AM_VIS
100
AcDbLine
 10
321.2292500768419
 20
337.2733301986496
 30
0.0
 11
320.2292500768419
 21
337.2733301986496
 31
0.0
  0
LINE
  5
112D
330
1F
100
AcDbEntity
  8
AM_VIS
100
AcDbLine
 10
331.9792500768419
 20
364.3733301986497
 30
0.0
 11
331.9792500768419
 21
362.2682331857431
 31
0.0
  0
LINE
  5
112E
330
1F
100
AcDbEntity
  8
AM_VIS
100
AcDbLine
 10
338.879250076842
 20
364.3733301986497
 30
0.0
 11
338.879250076842
 21
362.1477932377384
 31
0.0
  0
LINE
  5
112F
330
1F
100
AcDbEntity
  8
AM_VIS
100
AcDbLine
 10
331.9792500768419
 20
364.3733301986497
 30
0.0
 11
338.879250076842
 21
364.3733301986497
 31
0.0
  0
LINE
  5
1130
330
1F
100
AcDbEntity
  8
AM_VIS
100
AcDbLine
 10
346.2292500768419
 20
362.0733301986496
 30
0.0
 11
344.2292500768419
 21
362.0733301986496
 31
0.0
  0
LINE
  5
1131
330
1F
100
AcDbEntity
  8
AM_VIS
100
AcDbLine
 10
344.2292500768419
 20
316.9733301986497
 30
0.0
 11
344.2292500768419
 21
361.5733301986496
 31
0.0
  0
LINE
  5
1132
330
1F
100
AcDbEntity
  8
AM_VIS
100
AcDbLine
 10
344.2292500768419
 20
316.4733301986497
 30
0.0
 11
346.2292500768419
 21
316.4733301986497
 31
0.0
  0
LINE
  5
1133
330
1F
100
AcDbEntity
  8
AM_VIS
100
AcDbLine
 10
346.2292500768419
 20
316.4733301986497
 30
0.0
 11
346.2292500768419
 21
361.5733301986496
 31
0.0
  0
LINE
  5
1134
330
1F
100
AcDbEntity
  8
AM_VIS
100
AcDbLine
 10
344.2292500768419
 20
362.0544086403725
 30
0.0
 11
344.2292500768419
 21
362.0733301986496
 31
0.0
  0
LINE
  5
1135
330
1F
100
AcDbEntity
  8
AM_VIS
100
AcDbLine
 10
344.2292500768419
 20
361.5733301986496
 30
0.0
 11
344.2292500768419
 21
361.7095782551847
 31
0.0
  0
LINE
  5
1136
330
1F
100
AcDbEntity
  8
AM_VIS
100
AcDbLine
 10
344.2292500768419
 20
316.8370821421146
 30
0.0
 11
344.2292500768419
 21
316.9733301986497
 31
0.0
  0
LINE
  5
1137
330
1F
100
AcDbEntity
  8
AM_VIS
100
AcDbLine
 10
344.2292500768419
 20
316.4733301986497
 30
0.0
 11
344.2292500768419
 21
316.4922517569269
 31
0.0
  0
LINE
  5
1138
330
1F
100
AcDbEntity
  8
AM_VIS
100
AcDbLine
 10
346.2292500768419
 20
362.0733301986496
 30
0.0
 11
346.2292500768419
 21
361.5733301986496
 31
0.0
  0
LINE
  5
1139
330
1F
100
AcDbEntity
  8
AM_VIS
100
AcDbLine
 10
265.2292500768421
 20
453.8642494163158
 30
0.0
 11
265.2292500768421
 21
424.3339260181543
 31
0.0
  0
LINE
  5
113A
330
1F
100
AcDbEntity
  8
AM_VIS
100
AcDbLine
 10
320.2292500768422
 20
424.3339260181543
 30
0.0
 11
320.2292500768422
 21
453.8642494163158
 31
0.0
  0
LINE
  5
113B
330
1F
100
AcDbEntity
  8
AM_VIS
100
AcDbLine
 10
320.2292500768422
 20
424.0990877172349
 30
0.0
 11
265.2292500768421
 21
424.0990877172349
 31
0.0
  0
LINE
  5
113C
330
1F
100
AcDbEntity
  8
AM_VIS
100
AcDbLine
 10
265.2292500768421
 20
454.0990877172349
 30
0.0
 11
320.2292500768422
 21
454.0990877172349
 31
0.0
  0
LINE
  5
113D
330
1F
100
AcDbEntity
  8
AM_VIS
100
AcDbLine
 10
265.2292500768421
 20
424.3339260181543
 30
0.0
 11
265.2292500768421
 21
424.0990877172349
 31
0.0
  0
LINE
  5
113E
330
1F
100
AcDbEntity
  8
AM_VIS
100
AcDbLine
 10
265.2292500768421
 20
454.0990877172349
 30
0.0
 11
265.2292500768421
 21
453.8642494163158
 31
0.0
  0
LINE
  5
113F
330
1F
100
AcDbEntity
  8
AM_VIS
100
AcDbLine
 10
265.2292500768421
 20
454.0990877172349
 30
0.0
 11
258.2292500768422
 21
454.0990877172349
 31
0.0
  0
LINE
  5
1140
330
1F
100
AcDbEntity
  8
AM_VIS
100
AcDbLine
 10
257.2292500768422
 20
453.0990877172349
 30
0.0
 11
257.2292500768422
 21
451.5990877172349
 31
0.0
  0
LINE
  5
1141
330
1F
100
AcDbEntity
  8
AM_VIS
100
AcDbLine
 10
260.2292500768422
 20
442.5990877172349
 30
0.0
 11
258.2292500768422
 21
442.5990877172349
 31
0.0
  0
LINE
  5
1142
330
1F
100
AcDbEntity
  8
AM_VIS
100
AcDbLine
 10
257.2292500768422
 20
441.5990877172349
 30
0.0
 11
257.2292500768422
 21
425.0990877172349
 31
0.0
  0
LINE
  5
1143
330
1F
100
AcDbEntity
  8
AM_VIS
100
AcDbLine
 10
258.2292500768422
 20
424.0990877172349
 30
0.0
 11
265.2292500768421
 21
424.0990877172349
 31
0.0
  0
LINE
  5
1144
330
1F
100
AcDbEntity
  8
AM_VIS
100
AcDbLine
 10
261.2292500768422
 20
449.5990877172349
 30
0.0
 11
261.2292500768422
 21
443.599087717235
 31
0.0
  0
LINE
  5
1145
330
1F
100
AcDbEntity
  8
AM_VIS
100
AcDbLine
 10
258.2292500768422
 20
450.5990877172349
 30
0.0
 11
260.2292500768422
 21
450.5990877172349
 31
0.0
  0
LINE
  5
1146
330
1F
100
AcDbEntity
  8
AM_VIS
100
AcDbLine
 10
265.2292500768421
 20
453.0990877172349
 30
0.0
 11
265.2292500768421
 21
425.0990877172349
 31
0.0
  0
ARC
  5
1147
330
1F
100
AcDbEntity
  8
AM_VIS
100
AcDbCircle
 10
258.2292500768422
 20
451.5990877172349
 30
0.0
 40
1.0
100
AcDbArc
 50
180.0
 51
270.0
  0
ARC
  5
1148
330
1F
100
AcDbEntity
  8
AM_VIS
100
AcDbCircle
 10
258.2292500768422
 20
453.0990877172349
 30
0.0
 40
1.0
100
AcDbArc
 50
90.0
 51
180.0
  0
LINE
  5
1149
330
1F
100
AcDbEntity
  8
AM_VIS
100
AcDbLine
 10
257.2292500768422
 20
451.5990877172349
 30
0.0
 11
257.2292500768422
 21
447.6913183476425
 31
0.0
  0
LINE
  5
114A
330
1F
100
AcDbEntity
  8
AM_VIS
100
AcDbLine
 10
257.2292500768422
 20
446.910587717237
 30
0.0
 11
257.2292500768422
 21
446.2875877172369
 31
0.0
  0
LINE
  5
114B
330
1F
100
AcDbEntity
  8
AM_VIS
100
AcDbLine
 10
257.2292500768422
 20
445.5068570868274
 30
0.0
 11
257.2292500768422
 21
441.5990877172349
 31
0.0
  0
ARC
  5
114C
330
1F
100
AcDbEntity
  8
AM_VIS
100
AcDbCircle
 10
258.2292500768422
 20
425.0990877172349
 30
0.0
 40
1.0
100
AcDbArc
 50
180.0
 51
270.0
  0
ARC
  5
114D
330
1F
100
AcDbEntity
  8
AM_VIS
100
AcDbCircle
 10
258.2292500768422
 20
441.5990877172349
 30
0.0
 40
0.9999999999999998
100
AcDbArc
 50
90.0
 51
180.0
  0
ARC
  5
114E
330
1F
100
AcDbEntity
  8
AM_VIS
100
AcDbCircle
 10
260.2292500768422
 20
443.599087717235
 30
0.0
 40
1.0
100
AcDbArc
 50
270.0
 51
0.0
  0
ARC
  5
114F
330
1F
100
AcDbEntity
  8
AM_VIS
100
AcDbCircle
 10
260.2292500768422
 20
449.5990877172349
 30
0.0
 40
1.0
100
AcDbArc
 50
0.0
 51
90.0
  0
LINE
  5
1150
330
1F
100
AcDbEntity
  8
AM_VIS
100
AcDbLine
 10
260.2292500768422
 20
446.3990877172348
 30
0.0
 11
261.2292500768422
 21
446.7630579515013
 31
0.0
  0
LINE
  5
1151
330
1F
100
AcDbEntity
  8
AM_VIS
100
AcDbLine
 10
261.2292500768422
 20
447.1630579515012
 30
0.0
 11
260.2292500768422
 21
446.799087717235
 31
0.0
  0
LINE
  5
1152
330
1F
100
AcDbEntity
  8
AM_VIS
100
AcDbLine
 10
260.8292500768421
 20
450.3990877172348
 30
0.0
 11
260.2292500768422
 21
450.3990877172348
 31
0.0
  0
LINE
  5
1153
330
1F
100
AcDbEntity
  8
AM_VIS
100
AcDbLine
 10
260.8292500768421
 20
442.799087717235
 30
0.0
 11
260.2292500768422
 21
442.799087717235
 31
0.0
  0
LINE
  5
1154
330
1F
100
AcDbEntity
  8
AM_VIS
100
AcDbLine
 10
259.1703125647141
 20
442.6917327449285
 30
0.0
 11
260.2292500768422
 21
442.5990877172349
 31
0.0
  0
LINE
  5
1155
330
1F
100
AcDbEntity
  8
AM_VIS
100
AcDbLine
 10
259.1703125647141
 20
450.5064426895414
 30
0.0
 11
260.2292500768422
 21
450.5990877172349
 31
0.0
  0
LINE
  5
1156
330
1F
100
AcDbEntity
  8
AM_VIS
100
AcDbLine
 10
260.2292500768422
 20
450.5990877172349
 30
0.0
 11
260.2292500768422
 21
442.5990877172349
 31
0.0
  0
LINE
  5
1157
330
1F
100
AcDbEntity
  8
AM_VIS
100
AcDbLine
 10
261.199835076842
 20
447.1523517670601
 30
0.0
 11
261.199835076842
 21
446.7523517670603
 31
0.0
  0
ARC
  5
1158
330
1F
100
AcDbEntity
  8
AM_VIS
100
AcDbCircle
 10
263.629250076842
 20
446.5990877172349
 30
0.0
 40
6.492531690334708
100
AcDbArc
 50
159.307016814423
 51
177.2499957579895
  0
LINE
  5
1159
330
1F
100
AcDbEntity
  8
AM_VIS
100
AcDbLine
 10
257.5555690535753
 20
448.8932905368673
 30
0.0
 11
257.5497764154134
 21
448.899087717234
 31
0.0
  0
LINE
  5
115A
330
1F
100
AcDbEntity
  8
AM_VIS
100
AcDbLine
 10
257.549776415414
 20
444.2990877172339
 30
0.0
 11
257.5555690535759
 21
444.3048848976007
 31
0.0
  0
ARC
  5
115B
330
1F
100
AcDbEntity
  8
AM_VIS
100
AcDbCircle
 10
263.629250076842
 20
446.5990877172349
 30
0.0
 40
6.492531690334708
100
AcDbArc
 50
182.7500042419713
 51
200.6929831855873
  0
LINE
  5
115C
330
1F
100
AcDbEntity
  8
AM_VIS
100
AcDbLine
 10
257.5555690535757
 20
446.910587717237
 30
0.0
 11
257.1441952968114
 21
446.910587717237
 31
0.0
  0
LINE
  5
115D
330
1F
100
AcDbEntity
  8
AM_VIS
100
AcDbLine
 10
257.1441952968112
 20
446.2875877172369
 30
0.0
 11
257.5555690535755
 21
446.2875877172369
 31
0.0
  0
ELLIPSE
  5
115E
330
1F
100
AcDbEntity
  8
AM_VIS
100
AcDbEllipse
 10
261.7371302661415
 20
446.5990877172349
 30
0.0
 11
0.0000000000000129
 21
5.924134808644386
 31
0.0
210
0.0
220
0.0
230
1.0
 40
0.7068296022936167
 41
1.518190549076766
 42
1.623402104512342
  0
ARC
  5
115F
330
1F
100
AcDbEntity
  8
AM_VIS
100
AcDbCircle
 10
259.3097617531105
 20
444.2856442618753
 30
0.0
 40
1.6
100
AcDbArc
 50
208.1727341318593
 51
265.0000000000003
  0
ARC
  5
1160
330
1F
100
AcDbEntity
  8
AM_VIS
100
AcDbCircle
 10
259.3097617531105
 20
448.9125311725946
 30
0.0
 40
1.6
100
AcDbArc
 50
94.99999999999975
 51
151.8272658681406
  0
ARC
  5
1161
330
1F
100
AcDbEntity
  8
AM_VIS
100
AcDbCircle
 10
263.629250076842
 20
446.5990877172349
 30
0.0
 40
6.500000000000034
100
AcDbArc
 50
200.7227443816017
 51
208.1727341318593
  0
ARC
  5
1162
330
1F
100
AcDbEntity
  8
AM_VIS
100
AcDbCircle
 10
263.629250076842
 20
446.5990877172349
 30
0.0
 40
6.500000000000034
100
AcDbArc
 50
151.8272658681406
 51
159.277255618424
  0
LINE
  5
1163
330
1F
100
AcDbEntity
  8
AM_VIS
100
AcDbLine
 10
320.2292500768419
 20
454.0990877172349
 30
0.0
 11
344.2292500768419
 21
453.6801661589578
 31
0.0
  0
LINE
  5
1164
330
1F
100
AcDbEntity
  8
AM_VIS
100
AcDbLine
 10
320.2292500768422
 20
424.0990877172349
 30
0.0
 11
344.2292500768421
 21
424.5180092755123
 31
0.0
  0
LINE
  5
1165
330
1F
100
AcDbEntity
  8
AM_VIS
100
AcDbLine
 10
344.2292500768419
 20
424.5165188238367
 30
0.0
 11
344.143862157538
 21
424.5165188238367
 31
0.0
  0
CIRCLE
  5
1166
330
1F
100
AcDbEntity
  8
AM_VIS
100
AcDbCircle
 10
333.4792500768419
 20
450.0990877172349
 30
0.0
 40
1.074999999999999
  0
LINE
  5
1167
330
1F
100
AcDbEntity
  8
AM_VIS
100
AcDbLine
 10
344.2292500768419
 20
424.5180092755123
 30
0.0
 11
344.2292500768419
 21
424.8628396606999
 31
0.0
  0
LINE
  5
1168
330
1F
100
AcDbEntity
  8
AM_VIS
100
AcDbLine
 10
344.2292500768421
 20
453.3353357737702
 30
0.0
 11
344.2292500768421
 21
453.6801661589578
 31
0.0
  0
LINE
  5
1169
330
1F
100
AcDbEntity
  8
AM_VIS
100
AcDbLine
 10
320.2292500768422
 20
424.0990877172349
 30
0.0
 11
320.2292500768422
 21
454.0990877172349
 31
0.0
  0
LINE
  5
116A
330
1F
100
AcDbEntity
  8
AM_VIS
100
AcDbLine
 10
334.929250076842
 20
436.5990877172349
 30
0.0
 11
334.929250076842
 21
441.5990877172349
 31
0.0
  0
LINE
  5
116B
330
1F
100
AcDbEntity
  8
AM_VIS
100
AcDbLine
 10
334.929250076842
 20
441.5990877172349
 30
0.0
 11
335.929250076842
 21
441.5990877172349
 31
0.0
  0
LINE
  5
116C
330
1F
100
AcDbEntity
  8
AM_VIS
100
AcDbLine
 10
335.929250076842
 20
441.5990877172349
 30
0.0
 11
335.929250076842
 21
436.5990877172349
 31
0.0
  0
LINE
  5
116D
330
1F
100
AcDbEntity
  8
AM_VIS
100
AcDbLine
 10
335.929250076842
 20
436.5990877172349
 30
0.0
 11
334.929250076842
 21
436.5990877172349
 31
0.0
  0
CIRCLE
  5
116E
330
1F
100
AcDbEntity
  8
AM_VIS
100
AcDbCircle
 10
335.429250076842
 20
439.0990877172352
 30
0.0
 40
3.449999999999999
  0
LINE
  5
116F
330
1F
100
AcDbEntity
  8
AM_VIS
100
AcDbLine
 10
344.2292500768419
 20
424.999087717235
 30
0.0
 11
344.2292500768419
 21
453.1990877172351
 31
0.0
  0
LINE
  5
1170
330
1F
100
AcDbEntity
  8
AM_VIS
100
AcDbLine
 10
344.2292500768419
 20
424.499087717235
 30
0.0
 11
346.2292500768419
 21
424.499087717235
 31
0.0
  0
LINE
  5
1171
330
1F
100
AcDbEntity
  8
AM_VIS
100
AcDbLine
 10
346.2292500768419
 20
424.999087717235
 30
0.0
 11
346.2292500768421
 21
453.6990877172351
 31
0.0
  0
LINE
  5
1172
330
1F
100
AcDbEntity
  8
AM_VIS
100
AcDbLine
 10
346.2292500768421
 20
453.6990877172351
 30
0.0
 11
344.2292500768421
 21
453.6990877172351
 31
0.0
  0
LINE
  5
1173
330
1F
100
AcDbEntity
  8
AM_VIS
100
AcDbLine
 10
344.2292500768419
 20
424.8628396606999
 30
0.0
 11
344.2292500768419
 21
424.999087717235
 31
0.0
  0
LINE
  5
1174
330
1F
100
AcDbEntity
  8
AM_VIS
100
AcDbLine
 10
344.2292500768419
 20
424.499087717235
 30
0.0
 11
344.2292500768419
 21
424.5180092755123
 31
0.0
  0
LINE
  5
1175
330
1F
100
AcDbEntity
  8
AM_VIS
100
AcDbLine
 10
346.2292500768419
 20
424.999087717235
 30
0.0
 11
346.2292500768419
 21
424.499087717235
 31
0.0
  0
LINE
  5
1176
330
1F
100
AcDbEntity
  8
AM_VIS
100
AcDbLine
 10
344.2292500768421
 20
453.6801661589578
 30
0.0
 11
344.2292500768421
 21
453.6990877172351
 31
0.0
  0
LINE
  5
1177
330
1F
100
AcDbEntity
  8
AM_VIS
100
AcDbLine
 10
344.2292500768421
 20
453.1990877172351
 30
0.0
 11
344.2292500768421
 21
453.3353357737702
 31
0.0
  0
ELLIPSE
  5
1178
330
1F
100
AcDbEntity
  8
AM_VIS
100
AcDbEllipse
 10
333.4377316803432
 20
450.0990877172349
 30
0.0
 11
0.0
 21
0.049999999999957
 31
0.0
210
0.0
220
0.0
230
1.0
 40
0.9998476951577195
 41
3.56984549682599
 42
5.854932463943388
  0
ELLIPSE
  5
1179
330
1F
100
AcDbEntity
  8
AM_VIS
100
AcDbEllipse
 10
333.4792535615282
 20
450.0990877172349
 30
0.0
 11
0.0000000000000004
 21
-0.0500000000000115
 31
0.0
210
0.0
220
0.0
230
1.0
 40
0.9998476951563912
 41
-0.0000000000000077
 42
6.283185307179578
  0
LINE
  5
117A
330
1F
100
AcDbEntity
  8
AM_VIS
100
AcDbLine
 10
333.4292611767705
 20
453.8688803647962
 30
0.0
 11
333.5292459462862
 21
453.8671351241524
 31
0.0
  0
ARC
  5
117B
330
1F
100
AcDbEntity
  8
AM_VIS
100
AcDbCircle
 10
333.4584926209357
 20
452.6786142545096
 30
0.0
 40
1.190625
100
AcDbArc
 50
86.37431186666995
 51
86.59317024081287
  0
ARC
  5
117C
330
1F
100
AcDbEntity
  8
AM_VIS
100
AcDbCircle
 10
333.4584926209357
 20
452.6786142545096
 30
0.0
 40
1.190625
100
AcDbArc
 50
91.40682975918492
 51
91.62568813334029
  0
LINE
  5
117D
330
1F
100
AcDbEntity
  8
AM_VIS
100
AcDbLine
 10
346.2292500768419
 20
450.0990877172349
 30
0.0
 11
346.2292500768419
 21
445.5990877172347
 31
0.0
  0
LINE
  5
117E
330
1F
100
AcDbEntity
  8
AM_VIS
100
AcDbLine
 10
346.2292500768419
 20
432.5990877172347
 30
0.0
 11
346.2292500768419
 21
428.0990877172349
 31
0.0
  0
LINE
  5
117F
330
1F
100
AcDbEntity
  8
AM_VIS
100
AcDbLine
 10
346.2292500768419
 20
432.5990877172347
 30
0.0
 11
346.2292500768419
 21
445.5990877172347
 31
0.0
  0
LINE
  5
1180
330
1F
100
AcDbEntity
  8
AM_VIS
100
AcDbLine
 10
346.2292500768419
 20
428.0990877172349
 30
0.0
 11
375.7292500768419
 21
428.0990877172349
 31
0.0
  0
LINE
  5
1181
330
1F
100
AcDbEntity
  8
AM_VIS
100
AcDbLine
 10
346.2292500768419
 20
450.0990877172349
 30
0.0
 11
375.7292500768419
 21
450.0990877172349
 31
0.0
  0
LINE
  5
1182
330
1F
100
AcDbEntity
  8
AM_VIS
100
AcDbLine
 10
375.7292500768419
 20
450.0990877172349
 30
0.0
 11
375.7292500768419
 21
448.099087717235
 31
0.0
  0
LINE
  5
1183
330
1F
100
AcDbEntity
  8
AM_VIS
100
AcDbLine
 10
375.7292500768419
 20
430.0990877172349
 30
0.0
 11
375.7292500768419
 21
428.0990877172349
 31
0.0
  0
LINE
  5
1184
330
1F
100
AcDbEntity
  8
AM_VIS
100
AcDbLine
 10
383.7287549037444
 20
429.9500166682317
 30
0.0
 11
383.2288085678397
 21
429.6835225510866
 31
0.0
  0
LINE
  5
1185
330
1F
100
AcDbEntity
  8
AM_VIS
100
AcDbLine
 10
383.2292500768419
 20
429.6826942746118
 30
0.0
 11
382.0792500768419
 21
429.6826942746118
 31
0.0
  0
LINE
  5
1186
330
1F
100
AcDbEntity
  8
AM_VIS
100
AcDbLine
 10
382.0792500768419
 20
448.515481159858
 30
0.0
 11
383.2292500768419
 21
448.515481159858
 31
0.0
  0
LINE
  5
1187
330
1F
100
AcDbEntity
  8
AM_VIS
100
AcDbLine
 10
383.7287549032551
 20
448.2481587653261
 30
0.0
 11
383.2288085680245
 21
448.5146528837352
 31
0.0
  0
LINE
  5
1188
330
1F
100
AcDbEntity
  8
AM_VIS
100
AcDbLine
 10
377.7292500768419
 20
448.515481159858
 30
0.0
 11
380.5792500768419
 21
448.515481159858
 31
0.0
  0
LINE
  5
1189
330
1F
100
AcDbEntity
  8
AM_VIS
100
AcDbLine
 10
380.5792500768419
 20
429.6826942746118
 30
0.0
 11
377.7292500768419
 21
429.6826942746118
 31
0.0
  0
LINE
  5
118A
330
1F
100
AcDbEntity
  8
AM_VIS
100
AcDbLine
 10
377.729947163238
 20
429.6828028623341
 30
0.0
 11
377.6651009341308
 21
430.0990877172349
 31
0.0
  0
LINE
  5
118B
330
1F
100
AcDbEntity
  8
AM_VIS
100
AcDbLine
 10
377.729947163238
 20
448.5153725721358
 30
0.0
 11
377.6651009341308
 21
448.099087717235
 31
0.0
  0
LINE
  5
118C
330
1F
100
AcDbEntity
  8
AM_VIS
100
AcDbLine
 10
376.4292500768418
 20
430.0990877172349
 30
0.0
 11
376.229250076842
 21
429.0990877172349
 31
0.0
  0
LINE
  5
118D
330
1F
100
AcDbEntity
  8
AM_VIS
100
AcDbLine
 10
376.4292500768418
 20
448.099087717235
 30
0.0
 11
376.229250076842
 21
449.0990877172349
 31
0.0
  0
LINE
  5
118E
330
1F
100
AcDbEntity
  8
AM_VIS
100
AcDbLine
 10
375.7292500768419
 20
449.0990877172349
 30
0.0
 11
376.229250076842
 21
449.0990877172349
 31
0.0
  0
LINE
  5
118F
330
1F
100
AcDbEntity
  8
AM_VIS
100
AcDbLine
 10
375.7292500768419
 20
429.0990877172349
 30
0.0
 11
376.229250076842
 21
429.0990877172349
 31
0.0
  0
LINE
  5
1190
330
1F
100
AcDbEntity
  8
AM_VIS
100
AcDbLine
 10
383.2292500768419
 20
448.515481159858
 30
0.0
 11
383.2292500768419
 21
448.099087717235
 31
0.0
  0
LINE
  5
1191
330
1F
100
AcDbEntity
  8
AM_VIS
100
AcDbLine
 10
383.2292500768419
 20
430.0990877172349
 30
0.0
 11
383.2292500768419
 21
429.6826942746118
 31
0.0
  0
LINE
  5
1192
330
1F
100
AcDbEntity
  8
AM_VIS
100
AcDbLine
 10
382.0792500768419
 20
430.0990877172349
 30
0.0
 11
382.0792500768419
 21
429.6826942746118
 31
0.0
  0
LINE
  5
1193
330
1F
100
AcDbEntity
  8
AM_VIS
100
AcDbLine
 10
382.0792500768419
 20
448.515481159858
 30
0.0
 11
382.0792500768419
 21
448.099087717235
 31
0.0
  0
LINE
  5
1194
330
1F
100
AcDbEntity
  8
AM_VIS
100
AcDbLine
 10
380.5792500768419
 20
448.099087717235
 30
0.0
 11
380.5792500768419
 21
448.515481159858
 31
0.0
  0
LINE
  5
1195
330
1F
100
AcDbEntity
  8
AM_VIS
100
AcDbLine
 10
380.5792500768419
 20
429.6826942746118
 30
0.0
 11
380.5792500768419
 21
430.0990877172349
 31
0.0
  0
LINE
  5
1196
330
1F
100
AcDbEntity
  8
AM_VIS
100
AcDbLine
 10
377.7292500768419
 20
430.0990877172349
 30
0.0
 11
377.7292500768419
 21
429.6826942746118
 31
0.0
  0
LINE
  5
1197
330
1F
100
AcDbEntity
  8
AM_VIS
100
AcDbLine
 10
377.7292500768419
 20
448.515481159858
 30
0.0
 11
377.7292500768419
 21
448.099087717235
 31
0.0
  0
LINE
  5
1198
330
1F
100
AcDbEntity
  8
AM_VIS
100
AcDbLine
 10
383.7292500768419
 20
448.099087717235
 30
0.0
 11
383.7292500768419
 21
448.2490877172351
 31
0.0
  0
LINE
  5
1199
330
1F
100
AcDbEntity
  8
AM_VIS
100
AcDbLine
 10
383.7292500768419
 20
429.9490877172351
 30
0.0
 11
383.7292500768419
 21
430.0990877172349
 31
0.0
  0
SPLINE
  5
119A
330
1F
100
AcDbEntity
  8
AM_VIS
100
AcDbSpline
210
0.0
220
0.0
230
1.0
 70
     8
 71
     3
 72
    18
 73
    14
 74
     0
 42
0.0000000001
 43
0.0000000001
 40
6.072258403086962
 40
6.072258403086962
 40
6.072258403086962
 40
6.072258403086962
 40
6.091519998582311
 40
6.091519998582311
 40
6.594079983681931
 40
6.594079983681931
 40
7.096639968781531
 40
7.096639968781531
 40
7.59919995388113
 40
7.59919995388113
 40
8.101759938980729
 40
8.101759938980729
 40
8.212872863102431
 40
8.212872863102431
 40
8.212872863102431
 40
8.212872863102431
 10
375.0173030186409
 20
447.2985492013711
 30
0.0
 10
375.018152888842
 20
447.2962194740294
 30
0.0
 10
375.0189862634341
 20
447.2938772635094
 30
0.0
 10
375.0411173219809
 20
447.2300896092323
 30
0.0
 10
375.0510737328591
 20
447.1601033487906
 30
0.0
 10
375.0510737328591
 20
447.0102689101967
 30
0.0
 10
375.0411173219809
 20
446.9245480954586
 30
0.0
 10
374.9984890181043
 20
446.7348695203719
 30
0.0
 10
374.9658192766626
 20
446.6309150231133
 30
0.0
 10
374.8784539439137
 20
446.4111156418365
 30
0.0
 10
374.8237013831795
 20
446.2951545025888
 30
0.0
 10
374.7457275011921
 20
446.1513621408579
 30
0.0
 10
374.7311707070955
 20
446.1252418128395
 30
0.0
 10
374.7162077611108
 20
446.0990877172349
 30
0.0
  0
ARC
  5
119B
330
1F
100
AcDbEntity
  8
AM_VIS
100
AcDbCircle
 10
352.6898674807025
 20
459.2588251990706
 30
0.0
 40
25.65810508862975
100
AcDbArc
 50
317.9056243225092
 51
329.1436013023438
  0
SPLINE
  5
119C
330
1F
100
AcDbEntity
  8
AM_VIS
100
AcDbSpline
210
0.0
220
0.0
230
1.0
 70
     8
 71
     3
 72
    18
 73
    14
 74
     0
 42
0.0000000001
 43
0.0000000001
 40
4.975287104260677
 40
4.975287104260677
 40
4.975287104260677
 40
4.975287104260677
 40
5.086400028382842
 40
5.086400028382842
 40
5.588960013482415
 40
5.588960013482415
 40
6.091519998581987
 40
6.091519998581987
 40
6.59407998368156
 40
6.59407998368156
 40
7.096639968781131
 40
7.096639968781131
 40
7.11590156427612
 40
7.11590156427612
 40
7.11590156427612
 40
7.11590156427612
 10
374.7162077611108
 20
432.0990877172349
 30
0.0
 10
374.7311707070955
 20
432.0729336216301
 30
0.0
 10
374.7457275011923
 20
432.0468132936118
 30
0.0
 10
374.8237013831797
 20
431.9030209318806
 30
0.0
 10
374.8784539439137
 20
431.7870597926328
 30
0.0
 10
374.9658192766626
 20
431.5672604113564
 30
0.0
 10
374.9984890181043
 20
431.4633059140978
 30
0.0
 10
375.0411173219809
 20
431.2736273390111
 30
0.0
 10
375.0510737328591
 20
431.1879065242732
 30
0.0
 10
375.0510737328591
 20
431.0380720856791
 30
0.0
 10
375.0411173219809
 20
430.9680858252376
 30
0.0
 10
375.0189862634341
 20
430.9042981709604
 30
0.0
 10
375.018152888842
 20
430.9019559604404
 30
0.0
 10
375.0173030186409
 20
430.8996262330989
 30
0.0
  0
ARC
  5
119D
330
1F
100
AcDbEntity
  8
AM_VIS
100
AcDbCircle
 10
352.6898674807039
 20
418.9393502354004
 30
0.0
 40
25.65810508862814
100
AcDbArc
 50
30.85639869765615
 51
42.0943756774908
  0
LINE
  5
119E
330
1F
100
AcDbEntity
  8
AM_VIS
100
AcDbLine
 10
349.7292500768419
 20
449.5990877172349
 30
0.0
 11
371.7292500768419
 21
449.5990877172349
 31
0.0
  0
SPLINE
  5
119F
330
1F
100
AcDbEntity
  8
AM_VIS
100
AcDbSpline
210
0.0
220
0.0
230
1.0
 70
    12
 71
     2
 72
     6
 73
     3
 74
     0
 42
0.0000000001
 43
0.0000000001
 40
0.0
 40
0.0
 40
0.0
 40
3.381727793507036
 40
3.381727793507036
 40
3.381727793507036
 10
371.7292500768419
 20
442.0588174346248
 30
0.0
 41
1.0
 10
370.2292500768419
 20
440.5181362118738
 30
0.0
 41
1.021203771466384
 10
370.2292500768419
 20
439.0990877172349
 30
0.0
 41
1.0
  0
SPLINE
  5
11A0
330
1F
100
AcDbEntity
  8
AM_VIS
100
AcDbSpline
210
0.0
220
0.0
230
1.0
 70
    12
 71
     2
 72
     6
 73
     3
 74
     0
 42
0.0000000001
 43
0.0000000001
 40
3.381727793507036
 40
3.381727793507036
 40
3.381727793507036
 40
6.763455587014078
 40
6.763455587014078
 40
6.763455587014078
 10
370.2292500768419
 20
439.0990877172349
 30
0.0
 41
1.0
 10
370.2292500768419
 20
437.680039222596
 30
0.0
 41
1.021203771466384
 10
371.7292500768419
 20
436.1393579998451
 30
0.0
 41
1.0
  0
LINE
  5
11A1
330
1F
100
AcDbEntity
  8
AM_VIS
100
AcDbLine
 10
371.7292500768419
 20
428.5990877172349
 30
0.0
 11
349.7292500768419
 21
428.5990877172349
 31
0.0
  0
LINE
  5
11A2
330
1F
100
AcDbEntity
  8
AM_VIS
100
AcDbLine
 10
374.7305938813122
 20
447.899625239023
 30
0.0
 11
375.2292500768419
 21
448.099087717235
 31
0.0
  0
LINE
  5
11A3
330
1F
100
AcDbEntity
  8
AM_VIS
100
AcDbLine
 10
374.7305938813122
 20
430.2985501954468
 30
0.0
 11
375.2292500768419
 21
430.0990877172349
 31
0.0
  0
LINE
  5
11A4
330
1F
100
AcDbEntity
  8
AM_VIS
100
AcDbLine
 10
375.2292500768419
 20
448.099087717235
 30
0.0
 11
389.2292500768419
 21
448.099087717235
 31
0.0
  0
LINE
  5
11A5
330
1F
100
AcDbEntity
  8
AM_VIS
100
AcDbLine
 10
375.2292500768419
 20
430.0990877172349
 30
0.0
 11
389.2292500768419
 21
430.0990877172349
 31
0.0
  0
ARC
  5
11A6
330
1F
100
AcDbEntity
  8
AM_VIS
100
AcDbCircle
 10
371.7292500768419
 20
446.0990877172349
 30
0.0
 40
3.5
100
AcDbArc
 50
20.04165840856102
 51
90.0
  0
LINE
  5
11A7
330
1F
100
AcDbEntity
  8
AM_VIS
100
AcDbLine
 10
375.2292500768419
 20
448.099087717235
 30
0.0
 11
375.2292500768419
 21
430.0990877172349
 31
0.0
  0
LINE
  5
11A8
330
1F
100
AcDbEntity
  8
AM_VIS
100
AcDbLine
 10
389.2292500768419
 20
430.0990877172349
 30
0.0
 11
389.2292500768419
 21
448.099087717235
 31
0.0
  0
ARC
  5
11A9
330
1F
100
AcDbEntity
  8
AM_VIS
100
AcDbCircle
 10
349.7292500768419
 20
432.0990877172349
 30
0.0
 40
3.5
100
AcDbArc
 50
180.0
 51
270.0
  0
ARC
  5
11AA
330
1F
100
AcDbEntity
  8
AM_VIS
100
AcDbCircle
 10
371.7292500768419
 20
432.0990877172349
 30
0.0
 40
3.499999999999999
100
AcDbArc
 50
270.0
 51
339.958341591439
  0
ARC
  5
11AB
330
1F
100
AcDbEntity
  8
AM_VIS
100
AcDbCircle
 10
349.7292500768419
 20
446.0990877172349
 30
0.0
 40
3.5
100
AcDbArc
 50
90.0
 51
180.0
  0
CIRCLE
  5
11AC
330
1F
100
AcDbEntity
  8
AM_VIS
100
AcDbCircle
 10
360.7292500768419
 20
439.0990877172349
 30
0.0
 40
3.5
  0
LINE
  5
11AD
330
1F
100
AcDbEntity
  8
AM_VIS
100
AcDbLine
 10
396.729250076842
 20
429.861483410201
 30
0.0
 11
391.2292500768419
 21
429.861483410201
 31
0.0
  0
LINE
  5
11AE
330
1F
100
AcDbEntity
  8
AM_VIS
100
AcDbLine
 10
396.729250076842
 20
434.480285563718
 30
0.0
 11
391.2292500768419
 21
434.480285563718
 31
0.0
  0
LINE
  5
11AF
330
1F
100
AcDbEntity
  8
AM_VIS
100
AcDbLine
 10
396.729250076842
 20
433.0458844869593
 30
0.0
 11
391.2292500768419
 21
433.0458844869593
 31
0.0
  0
LINE
  5
11B0
330
1F
100
AcDbEntity
  8
AM_VIS
100
AcDbLine
 10
391.2292500768419
 20
431.2958844869593
 30
0.0
 11
396.729250076842
 21
431.2958844869593
 31
0.0
  0
LINE
  5
11B1
330
1F
100
AcDbEntity
  8
AM_VIS
100
AcDbLine
 10
396.729250076842
 20
431.9788971888518
 30
0.0
 11
391.2292500768419
 21
431.9788971888518
 31
0.0
  0
LINE
  5
11B2
330
1F
100
AcDbEntity
  8
AM_VIS
100
AcDbLine
 10
396.729250076842
 20
443.7178898707519
 30
0.0
 11
391.2292500768419
 21
443.7178898707519
 31
0.0
  0
LINE
  5
11B3
330
1F
100
AcDbEntity
  8
AM_VIS
100
AcDbLine
 10
396.729250076842
 20
440.8490877172352
 30
0.0
 11
391.2292500768419
 21
440.8490877172352
 31
0.0
  0
LINE
  5
11B4
330
1F
100
AcDbEntity
  8
AM_VIS
100
AcDbLine
 10
391.2292500768419
 20
437.3490877172351
 30
0.0
 11
396.729250076842
 21
437.3490877172351
 31
0.0
  0
LINE
  5
11B5
330
1F
100
AcDbEntity
  8
AM_VIS
100
AcDbLine
 10
396.729250076842
 20
448.3366920242692
 30
0.0
 11
391.2292500768419
 21
448.3366920242692
 31
0.0
  0
LINE
  5
11B6
330
1F
100
AcDbEntity
  8
AM_VIS
100
AcDbLine
 10
396.729250076842
 20
446.9022909475105
 30
0.0
 11
391.2292500768419
 21
446.9022909475105
 31
0.0
  0
LINE
  5
11B7
330
1F
100
AcDbEntity
  8
AM_VIS
100
AcDbLine
 10
391.2292500768419
 20
445.1522909475105
 30
0.0
 11
396.729250076842
 21
445.1522909475105
 31
0.0
  0
LINE
  5
11B8
330
1F
100
AcDbEntity
  8
AM_VIS
100
AcDbLine
 10
396.729250076842
 20
446.2192782456183
 30
0.0
 11
391.2292500768419
 21
446.2192782456183
 31
0.0
  0
LINE
  5
11B9
330
1F
100
AcDbEntity
  8
AM_VIS
100
AcDbLine
 10
391.2292500768419
 20
429.861483410201
 30
0.0
 11
391.2292500768419
 21
431.2958844869593
 31
0.0
  0
LINE
  5
11BA
330
1F
100
AcDbEntity
  8
AM_VIS
100
AcDbLine
 10
391.2292500768419
 20
431.9788971888518
 30
0.0
 11
391.2292500768419
 21
431.2958844869596
 31
0.0
  0
LINE
  5
11BB
330
1F
100
AcDbEntity
  8
AM_VIS
100
AcDbLine
 10
391.2292500768419
 20
433.0458844869595
 30
0.0
 11
391.2292500768419
 21
431.9788971888518
 31
0.0
  0
LINE
  5
11BC
330
1F
100
AcDbEntity
  8
AM_VIS
100
AcDbLine
 10
391.2292500768419
 20
433.0458844869593
 30
0.0
 11
391.2292500768419
 21
434.480285563718
 31
0.0
  0
LINE
  5
11BD
330
1F
100
AcDbEntity
  8
AM_VIS
100
AcDbLine
 10
391.2292500768419
 20
434.480285563718
 30
0.0
 11
391.2292500768419
 21
437.3490877172351
 31
0.0
  0
LINE
  5
11BE
330
1F
100
AcDbEntity
  8
AM_VIS
100
AcDbLine
 10
391.2292500768419
 20
437.8490877172351
 30
0.0
 11
391.2292500768419
 21
437.3490877172351
 31
0.0
  0
LINE
  5
11BF
330
1F
100
AcDbEntity
  8
AM_VIS
100
AcDbLine
 10
391.2292500768419
 20
440.3490877172352
 30
0.0
 11
391.2292500768419
 21
437.8490877172351
 31
0.0
  0
LINE
  5
11C0
330
1F
100
AcDbEntity
  8
AM_VIS
100
AcDbLine
 10
391.2292500768419
 20
440.8490877172352
 30
0.0
 11
391.2292500768419
 21
440.3490877172352
 31
0.0
  0
LINE
  5
11C1
330
1F
100
AcDbEntity
  8
AM_VIS
100
AcDbLine
 10
391.2292500768419
 20
440.8490877172352
 30
0.0
 11
391.2292500768419
 21
443.7178898707519
 31
0.0
  0
LINE
  5
11C2
330
1F
100
AcDbEntity
  8
AM_VIS
100
AcDbLine
 10
391.2292500768419
 20
443.7178898707519
 30
0.0
 11
391.2292500768419
 21
445.1522909475105
 31
0.0
  0
LINE
  5
11C3
330
1F
100
AcDbEntity
  8
AM_VIS
100
AcDbLine
 10
391.2292500768419
 20
446.2192782456183
 30
0.0
 11
391.2292500768419
 21
445.1522909475105
 31
0.0
  0
LINE
  5
11C4
330
1F
100
AcDbEntity
  8
AM_VIS
100
AcDbLine
 10
391.2292500768419
 20
446.9022909475105
 30
0.0
 11
391.2292500768419
 21
446.2192782456183
 31
0.0
  0
LINE
  5
11C5
330
1F
100
AcDbEntity
  8
AM_VIS
100
AcDbLine
 10
391.2292500768419
 20
446.9022909475105
 30
0.0
 11
391.2292500768419
 21
448.3366920242692
 31
0.0
  0
LINE
  5
11C6
330
1F
100
AcDbEntity
  8
AM_VIS
100
AcDbLine
 10
396.729250076842
 20
446.9022909475105
 30
0.0
 11
396.729250076842
 21
448.3366920242692
 31
0.0
  0
LINE
  5
11C7
330
1F
100
AcDbEntity
  8
AM_VIS
100
AcDbLine
 10
396.729250076842
 20
446.2192782456183
 30
0.0
 11
396.729250076842
 21
446.9022909475105
 31
0.0
  0
LINE
  5
11C8
330
1F
100
AcDbEntity
  8
AM_VIS
100
AcDbLine
 10
396.729250076842
 20
445.1522909475105
 30
0.0
 11
396.729250076842
 21
446.2192782456183
 31
0.0
  0
LINE
  5
11C9
330
1F
100
AcDbEntity
  8
AM_VIS
100
AcDbLine
 10
396.729250076842
 20
443.7178898707519
 30
0.0
 11
396.729250076842
 21
445.1522909475105
 31
0.0
  0
LINE
  5
11CA
330
1F
100
AcDbEntity
  8
AM_VIS
100
AcDbLine
 10
396.729250076842
 20
440.8490877172352
 30
0.0
 11
396.729250076842
 21
443.7178898707519
 31
0.0
  0
LINE
  5
11CB
330
1F
100
AcDbEntity
  8
AM_VIS
100
AcDbLine
 10
396.729250076842
 20
440.3490877172352
 30
0.0
 11
396.729250076842
 21
440.8490877172352
 31
0.0
  0
LINE
  5
11CC
330
1F
100
AcDbEntity
  8
AM_VIS
100
AcDbLine
 10
396.729250076842
 20
437.8490877172351
 30
0.0
 11
396.729250076842
 21
440.3490877172352
 31
0.0
  0
LINE
  5
11CD
330
1F
100
AcDbEntity
  8
AM_VIS
100
AcDbLine
 10
396.729250076842
 20
437.3490877172351
 30
0.0
 11
396.729250076842
 21
437.8490877172351
 31
0.0
  0
LINE
  5
11CE
330
1F
100
AcDbEntity
  8
AM_VIS
100
AcDbLine
 10
396.729250076842
 20
434.480285563718
 30
0.0
 11
396.729250076842
 21
437.3490877172351
 31
0.0
  0
LINE
  5
11CF
330
1F
100
AcDbEntity
  8
AM_VIS
100
AcDbLine
 10
396.729250076842
 20
433.0458844869593
 30
0.0
 11
396.729250076842
 21
434.480285563718
 31
0.0
  0
LINE
  5
11D0
330
1F
100
AcDbEntity
  8
AM_VIS
100
AcDbLine
 10
396.729250076842
 20
431.9788971888518
 30
0.0
 11
396.729250076842
 21
433.0458844869595
 31
0.0
  0
LINE
  5
11D1
330
1F
100
AcDbEntity
  8
AM_VIS
100
AcDbLine
 10
396.729250076842
 20
431.2958844869596
 30
0.0
 11
396.729250076842
 21
431.9788971888518
 31
0.0
  0
LINE
  5
11D2
330
1F
100
AcDbEntity
  8
AM_VIS
100
AcDbLine
 10
396.729250076842
 20
429.861483410201
 30
0.0
 11
396.729250076842
 21
431.2958844869593
 31
0.0
  0
LINE
  5
11D3
330
1F
100
AcDbEntity
  8
AM_VIS
100
AcDbLine
 10
391.2292500768419
 20
432.3490877172349
 30
0.0
 11
389.2292500768419
 21
432.3490877172349
 31
0.0
  0
LINE
  5
11D4
330
1F
100
AcDbEntity
  8
AM_VIS
100
AcDbLine
 10
391.2292500768419
 20
445.849087717235
 30
0.0
 11
389.2292500768419
 21
445.849087717235
 31
0.0
  0
INSERT
  5
11D5
330
1F
100
AcDbEntity
  8
AM_VIS
100
AcDbBlockReference
  2
A$C75484636
 10
357.9792503223978
 20
436.3490875107689
 30
0.0
  0
LINE
  5
11D6
330
1F
100
AcDbEntity
  8
AM_VIS
100
AcDbLine
 10
346.2292500768419
 20
356.5233301986497
 30
0.0
 11
346.2292500768419
 21
356.0233301986496
 31
0.0
  0
LINE
  5
11D7
330
1F
100
AcDbEntity
  8
AM_VIS
100
AcDbLine
 10
346.2292500768419
 20
356.7733301986497
 30
0.0
 11
346.2292500768419
 21
356.5233301986497
 31
0.0
  0
LINE
  5
11D8
330
1F
100
AcDbEntity
  8
AM_VIS
100
AcDbLine
 10
346.2292500768419
 20
356.7733301986497
 30
0.0
 11
375.7292500768419
 21
356.7733301986497
 31
0.0
  0
LINE
  5
11D9
330
1F
100
AcDbEntity
  8
AM_VIS
100
AcDbLine
 10
375.7292500768419
 20
332.2733301986497
 30
0.0
 11
375.7292500768419
 21
356.7733301986497
 31
0.0
  0
LINE
  5
11DA
330
1F
100
AcDbEntity
  8
AM_VIS
100
AcDbLine
 10
346.2292500768419
 20
328.2733301986497
 30
0.0
 11
375.7292500768419
 21
328.2733301986497
 31
0.0
  0
LINE
  5
11DB
330
1F
100
AcDbEntity
  8
AM_VIS
100
AcDbLine
 10
375.7292500768419
 20
332.2733301986497
 30
0.0
 11
375.7292500768419
 21
328.2733301986497
 31
0.0
  0
LINE
  5
11DC
330
1F
100
AcDbEntity
  8
AM_VIS
100
AcDbLine
 10
382.0792500768419
 20
342.6395646726172
 30
0.0
 11
383.2292500768419
 21
342.6395646726172
 31
0.0
  0
SPLINE
  5
11DD
330
1F
100
AcDbEntity
  8
AM_VIS
100
AcDbSpline
210
0.0
220
0.0
230
1.0
 70
     8
 71
     3
 72
     8
 73
     4
 74
     0
 42
0.0000000001
 43
0.0000000001
 40
1.629958734905461
 40
1.629958734905461
 40
1.629958734905461
 40
1.629958734905461
 40
2.565803457021723
 40
2.565803457021723
 40
2.565803457021723
 40
2.565803457021723
 10
383.2292500768419
 20
342.6395646726172
 30
0.0
 10
383.4091109537979
 20
342.3801882061233
 30
0.0
 10
383.5782107007553
 20
342.1090360232712
 30
0.0
 10
383.7292500768419
 20
341.8282274568579
 30
0.0
  0
SPLINE
  5
11DE
330
1F
100
AcDbEntity
  8
AM_VIS
100
AcDbSpline
210
0.0
220
0.0
230
1.0
 70
     8
 71
     3
 72
     8
 73
     4
 74
     0
 42
0.0000000001
 43
0.0000000001
 40
7.8606508081159
 40
7.8606508081159
 40
7.8606508081159
 40
7.8606508081159
 40
8.796495530230886
 40
8.796495530230886
 40
8.796495530230886
 40
8.796495530230886
 10
383.7292500768419
 20
336.7184329404414
 30
0.0
 10
383.5782108103901
 20
336.4376245778584
 30
0.0
 10
383.4091110690945
 20
336.1664723574444
 30
0.0
 10
383.2292500768419
 20
335.9070957246821
 30
0.0
  0
LINE
  5
11DF
330
1F
100
AcDbEntity
  8
AM_VIS
100
AcDbLine
 10
383.2292500768419
 20
335.9070957246821
 30
0.0
 11
382.0792500768419
 21
335.9070957246821
 31
0.0
  0
LINE
  5
11E0
330
1F
100
AcDbEntity
  8
AM_VIS
100
AcDbLine
 10
382.0792500768419
 20
332.8016115022927
 30
0.0
 11
383.2292500768419
 21
332.8016115022927
 31
0.0
  0
SPLINE
  5
11E1
330
1F
100
AcDbEntity
  8
AM_VIS
100
AcDbSpline
210
0.0
220
0.0
230
1.0
 70
     8
 71
     3
 72
     8
 73
     4
 74
     0
 42
0.0000000001
 43
0.0000000001
 40
1.630155802117218
 40
1.630155802117218
 40
1.630155802117218
 40
1.630155802117218
 40
2.566002660597602
 40
2.566002660597602
 40
2.566002660597602
 40
2.566002660597602
 10
383.2292500768419
 20
332.8016115022927
 30
0.0
 10
383.4091113100337
 20
332.7570401690681
 30
0.0
 10
383.5782109314084
 20
332.6991468726498
 30
0.0
 10
383.7292500768419
 20
332.626646383126
 30
0.0
  0
SPLINE
  5
11E2
330
1F
100
AcDbEntity
  8
AM_VIS
100
AcDbSpline
210
0.0
220
0.0
230
1.0
 70
     8
 71
     3
 72
     8
 73
     4
 74
     0
 42
0.0000000001
 43
0.0000000001
 40
7.860869802063071
 40
7.860869802063071
 40
7.860869802063071
 40
7.860869802063071
 40
8.796716660561775
 40
8.796716660561775
 40
8.796716660561775
 40
8.796716660561775
 10
383.7292500768419
 20
345.920014014173
 30
0.0
 10
383.5782110408075
 20
345.8475135771622
 30
0.0
 10
383.4091114250632
 20
345.7896202567364
 30
0.0
 10
383.2292500768419
 20
345.7450488950065
 30
0.0
  0
LINE
  5
11E3
330
1F
100
AcDbEntity
  8
AM_VIS
100
AcDbLine
 10
383.2292500768419
 20
345.7450488950065
 30
0.0
 11
382.0792500768419
 21
345.7450488950065
 31
0.0
  0
LINE
  5
11E4
330
1F
100
AcDbEntity
  8
AM_VIS
100
AcDbLine
 10
377.7292500768419
 20
332.8016115022927
 30
0.0
 11
380.5792500768419
 21
332.8016115022927
 31
0.0
  0
LINE
  5
11E5
330
1F
100
AcDbEntity
  8
AM_VIS
100
AcDbLine
 10
377.7292500768419
 20
342.6395646726172
 30
0.0
 11
380.5792500768419
 21
342.6395646726172
 31
0.0
  0
LINE
  5
11E6
330
1F
100
AcDbEntity
  8
AM_VIS
100
AcDbLine
 10
380.5792500768419
 20
335.9070957246821
 30
0.0
 11
377.7292500768419
 21
335.9070957246821
 31
0.0
  0
LINE
  5
11E7
330
1F
100
AcDbEntity
  8
AM_VIS
100
AcDbLine
 10
380.5792500768419
 20
345.7450488950065
 30
0.0
 11
377.7292500768419
 21
345.7450488950065
 31
0.0
  0
ARC
  5
11E8
330
1F
100
AcDbEntity
  8
AM_VIS
100
AcDbCircle
 10
390.951708287
 20
347.4281661319902
 30
0.0
 40
13.32915168916665
100
AcDbArc
 50
172.7457013204759
 51
187.254298679524
  0
SPLINE
  5
11E9
330
1F
100
AcDbEntity
  8
AM_VIS
100
AcDbSpline
210
0.0
220
0.0
230
1.0
 70
     8
 71
     3
 72
    14
 73
    10
 74
     0
 42
0.0000000001
 43
0.0000000001
 40
13.28006742556184
 40
13.28006742556184
 40
13.28006742556184
 40
13.28006742556184
 40
14.27448381305596
 40
14.27448381305596
 40
16.65382904986482
 40
16.65382904986482
 40
19.03317428667365
 40
19.03317428667365
 40
20.02759067416773
 40
20.02759067416773
 40
20.02759067416773
 40
20.02759067416773
 10
377.7292500768419
 20
335.9070957246821
 30
0.0
 10
377.711504101723
 20
336.2269879935519
 30
0.0
 10
377.6957285080194
 20
336.5529564474528
 30
0.0
 10
377.6505196961088
 20
337.6709497790805
 30
0.0
 10
377.6332500768419
 20
338.4802151197134
 30
0.0
 10
377.6332500768419
 20
340.066445277586
 30
0.0
 10
377.6505196961088
 20
340.8757106182189
 30
0.0
 10
377.6957285080194
 20
341.9937039498464
 30
0.0
 10
377.711504101723
 20
342.3196724037474
 30
0.0
 10
377.7292500768419
 20
342.6395646726172
 30
0.0
  0
ARC
  5
11EA
330
1F
100
AcDbEntity
  8
AM_VIS
100
AcDbCircle
 10
390.9517082870018
 20
331.1184942653089
 30
0.0
 40
13.32915168916832
100
AcDbArc
 50
172.7457013204759
 51
187.254298679524
  0
CIRCLE
  5
11EB
330
1F
100
AcDbEntity
  8
AM_VIS
100
AcDbCircle
 10
381.3292500768418
 20
338.0233301986497
 30
0.0
 40
0.5
  0
CIRCLE
  5
11EC
330
1F
100
AcDbEntity
  8
AM_VIS
100
AcDbCircle
 10
381.3292500768418
 20
340.5233301986497
 30
0.0
 40
0.5000000000000006
  0
ARC
  5
11ED
330
1F
100
AcDbEntity
  8
AM_VIS
100
AcDbCircle
 10
381.3292500768418
 20
332.3454673329409
 30
0.0
 40
0.697891107663042
100
AcDbArc
 50
44.23832232200567
 51
135.7616776780127
  0
ARC
  5
11EE
330
1F
100
AcDbEntity
  8
AM_VIS
100
AcDbCircle
 10
381.3292500768418
 20
346.2012114423625
 30
0.0
 40
0.6979039290997723
100
AcDbArc
 50
224.2394032771322
 51
315.7605967228678
  0
LINE
  5
11EF
330
1F
100
AcDbEntity
  8
AM_VIS
100
AcDbLine
 10
383.7292500768419
 20
329.7733301986497
 30
0.0
 11
383.2292500768419
 21
329.2733301986497
 31
0.0
  0
LINE
  5
11F0
330
1F
100
AcDbEntity
  8
AM_VIS
100
AcDbLine
 10
383.7292500768419
 20
348.7733301986497
 30
0.0
 11
383.2292500768419
 21
349.2733301986497
 31
0.0
  0
LINE
  5
11F1
330
1F
100
AcDbEntity
  8
AM_VIS
100
AcDbLine
 10
382.0792500768419
 20
329.2733301986497
 30
0.0
 11
383.2292500768419
 21
329.2733301986497
 31
0.0
  0
LINE
  5
11F2
330
1F
100
AcDbEntity
  8
AM_VIS
100
AcDbLine
 10
382.0792500768419
 20
349.2733301986497
 30
0.0
 11
383.2292500768419
 21
349.2733301986497
 31
0.0
  0
LINE
  5
11F3
330
1F
100
AcDbEntity
  8
AM_VIS
100
AcDbLine
 10
377.7292500768419
 20
329.2733301986497
 30
0.0
 11
380.5792500768419
 21
329.2733301986497
 31
0.0
  0
LINE
  5
11F4
330
1F
100
AcDbEntity
  8
AM_VIS
100
AcDbLine
 10
377.7292500768419
 20
349.2733301986497
 30
0.0
 11
380.5792500768419
 21
349.2733301986497
 31
0.0
  0
LINE
  5
11F5
330
1F
100
AcDbEntity
  8
AM_VIS
100
AcDbLine
 10
377.5292500768419
 20
331.7733301986497
 30
0.0
 11
377.7292500768419
 21
329.2733301986497
 31
0.0
  0
LINE
  5
11F6
330
1F
100
AcDbEntity
  8
AM_VIS
100
AcDbLine
 10
377.5292500768419
 20
346.7733301986497
 30
0.0
 11
377.7292500768419
 21
349.2733301986497
 31
0.0
  0
LINE
  5
11F7
330
1F
100
AcDbEntity
  8
AM_VIS
100
AcDbLine
 10
376.7292500768419
 20
346.7733301986497
 30
0.0
 11
376.229250076842
 21
349.2733301986497
 31
0.0
  0
LINE
  5
11F8
330
1F
100
AcDbEntity
  8
AM_VIS
100
AcDbLine
 10
376.7292500768419
 20
331.7733301986497
 30
0.0
 11
376.229250076842
 21
329.2733301986497
 31
0.0
  0
LINE
  5
11F9
330
1F
100
AcDbEntity
  8
AM_VIS
100
AcDbLine
 10
376.7292500768419
 20
331.7733301986497
 30
0.0
 11
377.5292500768417
 21
331.7733301986497
 31
0.0
  0
LINE
  5
11FA
330
1F
100
AcDbEntity
  8
AM_VIS
100
AcDbLine
 10
376.7292500768419
 20
346.7733301986497
 30
0.0
 11
377.5292500768417
 21
346.7733301986497
 31
0.0
  0
LINE
  5
11FB
330
1F
100
AcDbEntity
  8
AM_VIS
100
AcDbLine
 10
375.7292500768419
 20
329.2733301986497
 30
0.0
 11
376.229250076842
 21
329.2733301986497
 31
0.0
  0
LINE
  5
11FC
330
1F
100
AcDbEntity
  8
AM_VIS
100
AcDbLine
 10
375.7292500768419
 20
349.2733301986497
 30
0.0
 11
376.229250076842
 21
349.2733301986497
 31
0.0
  0
LINE
  5
11FD
330
1F
100
AcDbEntity
  8
AM_VIS
100
AcDbLine
 10
383.2292500768419
 20
332.8016115022927
 30
0.0
 11
383.2292500768419
 21
335.9070957246821
 31
0.0
  0
LINE
  5
11FE
330
1F
100
AcDbEntity
  8
AM_VIS
100
AcDbLine
 10
383.2292500768419
 20
342.6395646726172
 30
0.0
 11
383.2292500768419
 21
345.7450488950065
 31
0.0
  0
LINE
  5
11FF
330
1F
100
AcDbEntity
  8
AM_VIS
100
AcDbLine
 10
382.0792500768419
 20
349.1112833689741
 30
0.0
 11
382.0792500768419
 21
349.2733301986497
 31
0.0
  0
LINE
  5
1200
330
1F
100
AcDbEntity
  8
AM_VIS
100
AcDbLine
 10
382.0792500768419
 20
349.1112833689741
 30
0.0
 11
382.0792500768419
 21
345.7450488950065
 31
0.0
  0
LINE
  5
1201
330
1F
100
AcDbEntity
  8
AM_VIS
100
AcDbLine
 10
382.0792500768419
 20
342.6395646726172
 30
0.0
 11
382.0792500768419
 21
345.7450488950065
 31
0.0
  0
LINE
  5
1202
330
1F
100
AcDbEntity
  8
AM_VIS
100
AcDbLine
 10
382.0792500768419
 20
342.6395646726172
 30
0.0
 11
382.0792500768419
 21
335.907095724682
 31
0.0
  0
LINE
  5
1203
330
1F
100
AcDbEntity
  8
AM_VIS
100
AcDbLine
 10
382.0792500768419
 20
332.8016115022927
 30
0.0
 11
382.0792500768419
 21
335.9070957246821
 31
0.0
  0
LINE
  5
1204
330
1F
100
AcDbEntity
  8
AM_VIS
100
AcDbLine
 10
382.0792500768419
 20
332.8016115022927
 30
0.0
 11
382.0792500768419
 21
329.435377028325
 31
0.0
  0
LINE
  5
1205
330
1F
100
AcDbEntity
  8
AM_VIS
100
AcDbLine
 10
382.0792500768419
 20
329.2733301986497
 30
0.0
 11
382.0792500768419
 21
329.4353770283252
 31
0.0
  0
LINE
  5
1206
330
1F
100
AcDbEntity
  8
AM_VIS
100
AcDbLine
 10
380.5792500768419
 20
329.4353770283252
 30
0.0
 11
380.5792500768419
 21
332.8016115022927
 31
0.0
  0
LINE
  5
1207
330
1F
100
AcDbEntity
  8
AM_VIS
100
AcDbLine
 10
380.5792500768419
 20
329.4353770283252
 30
0.0
 11
380.5792500768419
 21
329.2733301986497
 31
0.0
  0
LINE
  5
1208
330
1F
100
AcDbEntity
  8
AM_VIS
100
AcDbLine
 10
380.5792500768419
 20
335.9070957246821
 30
0.0
 11
380.5792500768419
 21
332.8016115022927
 31
0.0
  0
LINE
  5
1209
330
1F
100
AcDbEntity
  8
AM_VIS
100
AcDbLine
 10
380.5792500768419
 20
345.7450488950065
 30
0.0
 11
380.5792500768419
 21
342.6395646726172
 31
0.0
  0
LINE
  5
120A
330
1F
100
AcDbEntity
  8
AM_VIS
100
AcDbLine
 10
380.5792500768419
 20
349.2733301986497
 30
0.0
 11
380.5792500768419
 21
349.1112833689741
 31
0.0
  0
LINE
  5
120B
330
1F
100
AcDbEntity
  8
AM_VIS
100
AcDbLine
 10
380.5792500768419
 20
335.9070957246821
 30
0.0
 11
380.5792500768419
 21
342.6395646726173
 31
0.0
  0
LINE
  5
120C
330
1F
100
AcDbEntity
  8
AM_VIS
100
AcDbLine
 10
380.5792500768419
 20
345.7450488950065
 30
0.0
 11
380.5792500768419
 21
349.1112833689742
 31
0.0
  0
LINE
  5
120D
330
1F
100
AcDbEntity
  8
AM_VIS
100
AcDbLine
 10
377.7292500768419
 20
349.1112833689741
 30
0.0
 11
377.7292500768419
 21
349.2733301986497
 31
0.0
  0
LINE
  5
120E
330
1F
100
AcDbEntity
  8
AM_VIS
100
AcDbLine
 10
377.7292500768419
 20
342.6395646726172
 30
0.0
 11
377.7292500768419
 21
345.7450488950065
 31
0.0
  0
LINE
  5
120F
330
1F
100
AcDbEntity
  8
AM_VIS
100
AcDbLine
 10
377.7292500768419
 20
332.8016115022927
 30
0.0
 11
377.7292500768419
 21
335.9070957246821
 31
0.0
  0
LINE
  5
1210
330
1F
100
AcDbEntity
  8
AM_VIS
100
AcDbLine
 10
377.7292500768419
 20
329.2733301986497
 30
0.0
 11
377.7292500768419
 21
329.4353770283252
 31
0.0
  0
LINE
  5
1211
330
1F
100
AcDbEntity
  8
AM_VIS
100
AcDbLine
 10
377.5292500768419
 20
331.7733301986497
 30
0.0
 11
377.5292500768419
 21
346.7733301986497
 31
0.0
  0
LINE
  5
1212
330
1F
100
AcDbEntity
  8
AM_VIS
100
AcDbLine
 10
376.7292500768419
 20
331.7733301986497
 30
0.0
 11
376.7292500768419
 21
346.7733301986497
 31
0.0
  0
LINE
  5
1213
330
1F
100
AcDbEntity
  8
AM_VIS
100
AcDbLine
 10
383.7292500768419
 20
348.7733301986497
 30
0.0
 11
383.7292500768419
 21
348.4749112723814
 31
0.0
  0
LINE
  5
1214
330
1F
100
AcDbEntity
  8
AM_VIS
100
AcDbLine
 10
383.7292500768419
 20
330.0717491249179
 30
0.0
 11
383.7292500768419
 21
329.7733301986497
 31
0.0
  0
LINE
  5
1215
330
1F
100
AcDbEntity
  8
AM_VIS
100
AcDbLine
 10
383.7292500768419
 20
332.626646383126
 30
0.0
 11
383.7292500768419
 21
330.0717491249178
 31
0.0
  0
LINE
  5
1216
330
1F
100
AcDbEntity
  8
AM_VIS
100
AcDbLine
 10
383.7292500768419
 20
336.7184329404414
 30
0.0
 11
383.7292500768419
 21
332.626646383126
 31
0.0
  0
LINE
  5
1217
330
1F
100
AcDbEntity
  8
AM_VIS
100
AcDbLine
 10
383.7292500768419
 20
341.8282274568579
 30
0.0
 11
383.7292500768419
 21
336.7184329404413
 31
0.0
  0
LINE
  5
1218
330
1F
100
AcDbEntity
  8
AM_VIS
100
AcDbLine
 10
383.7292500768419
 20
345.920014014173
 30
0.0
 11
383.7292500768419
 21
341.8282274568579
 31
0.0
  0
LINE
  5
1219
330
1F
100
AcDbEntity
  8
AM_VIS
100
AcDbLine
 10
383.7292500768419
 20
348.4749112723814
 30
0.0
 11
383.7292500768419
 21
345.920014014173
 31
0.0
  0
ARC
  5
121A
330
1F
100
AcDbEntity
  8
AM_VIS
100
AcDbCircle
 10
381.3292500768418
 20
346.2733301986497
 30
0.0
 40
0.75
100
AcDbArc
 50
180.0
 51
228.189685104217
  0
ARC
  5
121B
330
1F
100
AcDbEntity
  8
AM_VIS
100
AcDbCircle
 10
381.3292500768418
 20
346.2733301986497
 30
0.0
 40
0.75
100
AcDbArc
 50
311.8103148957831
 51
0.0
  0
ARC
  5
121C
330
1F
100
AcDbEntity
  8
AM_VIS
100
AcDbCircle
 10
381.3292500768418
 20
332.2733301986497
 30
0.0
 40
0.75
100
AcDbArc
 50
0.0
 51
48.18968510423307
  0
ARC
  5
121D
330
1F
100
AcDbEntity
  8
AM_VIS
100
AcDbCircle
 10
381.3292500768418
 20
332.2733301986497
 30
0.0
 40
0.75
100
AcDbArc
 50
131.8103148957842
 51
180.0
  0
LINE
  5
121E
330
1F
100
AcDbEntity
  8
0
100
AcDbLine
 10
375.2292500768419
 20
356.7733301986497
 30
0.0
 11
346.2292500768419
 21
356.7733301986497
 31
0.0
  0
ARC
  5
121F
330
1F
100
AcDbEntity
  8
AM_VIS
100
AcDbCircle
 10
404.4420113273099
 20
379.373522544891
 30
0.0
 40
29.68201406216515
100
AcDbArc
 50
172.450295946057
 51
190.2015981703591
  0
ARC
  5
1220
330
1F
100
AcDbEntity
  8
AM_VIS
100
AcDbCircle
 10
372.2564802952097
 20
383.7546647869575
 30
0.0
 40
2.802467679762879
100
AcDbArc
 50
350.1101932448633
 51
28.63378411756702
  0
LINE
  5
1221
330
1F
100
AcDbEntity
  8
AM_VIS
100
AcDbLine
 10
375.2292500768419
 20
374.1164759491572
 30
0.0
 11
375.2292500768419
 21
356.7733301986497
 31
0.0
  0
LINE
  5
1222
330
1F
100
AcDbEntity
  8
AM_VIS
100
AcDbLine
 10
349.7292500768419
 20
386.7733301986497
 30
0.0
 11
371.7292500768419
 21
386.7733301986497
 31
0.0
  0
LINE
  5
1223
330
1F
100
AcDbEntity
  8
AM_VIS
100
AcDbLine
 10
346.2292500768419
 20
356.7733301986497
 30
0.0
 11
346.2292500768419
 21
383.2733301986497
 31
0.0
  0
LINE
  5
1224
330
1F
100
AcDbEntity
  8
AM_VIS
100
AcDbLine
 10
370.2292500768419
 20
386.7733301986497
 30
0.0
 11
375.2292500768419
 21
388.7733301986497
 31
0.0
  0
LINE
  5
1225
330
1F
100
AcDbEntity
  8
AM_VIS
100
AcDbLine
 10
375.2292500768419
 20
388.7733301986497
 30
0.0
 11
389.2292500768419
 21
388.7733301986497
 31
0.0
  0
LINE
  5
1226
330
1F
100
AcDbEntity
  8
AM_VIS
100
AcDbLine
 10
375.2292500768419
 20
370.7733301986497
 30
0.0
 11
389.2292500768419
 21
370.7733301986497
 31
0.0
  0
LINE
  5
1227
330
1F
100
AcDbEntity
  8
AM_VIS
100
AcDbLine
 10
375.2292500768419
 20
388.7733301986497
 30
0.0
 11
375.2292500768419
 21
374.1164759491572
 31
0.0
  0
LINE
  5
1228
330
1F
100
AcDbEntity
  8
AM_VIS
100
AcDbLine
 10
389.2292500768419
 20
370.7733301986497
 30
0.0
 11
389.2292500768419
 21
379.7733301986497
 31
0.0
  0
LINE
  5
1229
330
1F
100
AcDbEntity
  8
AM_VIS
100
AcDbLine
 10
389.2292500768419
 20
379.7733301986497
 30
0.0
 11
389.2292500768419
 21
388.7733301986497
 31
0.0
  0
ARC
  5
122A
330
1F
100
AcDbEntity
  8
AM_VIS
100
AcDbCircle
 10
349.7292500768419
 20
383.2733301986497
 30
0.0
 40
3.5
100
AcDbArc
 50
90.0
 51
180.0
  0
ARC
  5
122B
330
1F
100
AcDbEntity
  8
AM_VIS
100
AcDbCircle
 10
371.7292500768419
 20
383.2733301986497
 30
0.0
 40
3.5
100
AcDbArc
 50
31.41476770924168
 51
90.0
  0
LINE
  5
122C
330
1F
100
AcDbEntity
  8
AM_VIS
100
AcDbLine
 10
396.729250076842
 20
371.7733301986497
 30
0.0
 11
391.2292500768419
 21
371.7733301986497
 31
0.0
  0
LINE
  5
122D
330
1F
100
AcDbEntity
  8
AM_VIS
100
AcDbLine
 10
396.729250076842
 20
379.7733301986497
 30
0.0
 11
391.2292500768419
 21
379.7733301986497
 31
0.0
  0
LINE
  5
122E
330
1F
100
AcDbEntity
  8
AM_VIS
100
AcDbLine
 10
396.729250076842
 20
377.1058619533804
 30
0.0
 11
391.2292500768419
 21
377.1058619533804
 31
0.0
  0
LINE
  5
122F
330
1F
100
AcDbEntity
  8
AM_VIS
100
AcDbLine
 10
391.2292500768419
 20
374.2577857420268
 30
0.0
 11
396.729250076842
 21
374.2577857420268
 31
0.0
  0
LINE
  5
1230
330
1F
100
AcDbEntity
  8
AM_VIS
100
AcDbLine
 10
396.729250076842
 20
374.9407984439193
 30
0.0
 11
391.2292500768419
 21
374.9407984439193
 31
0.0
  0
LINE
  5
1231
330
1F
100
AcDbEntity
  8
AM_VIS
100
AcDbLine
 10
396.729250076842
 20
387.7733301986497
 30
0.0
 11
391.2292500768419
 21
387.7733301986497
 31
0.0
  0
LINE
  5
1232
330
1F
100
AcDbEntity
  8
AM_VIS
100
AcDbLine
 10
396.729250076842
 20
385.2888746552725
 30
0.0
 11
391.2292500768419
 21
385.2888746552725
 31
0.0
  0
LINE
  5
1233
330
1F
100
AcDbEntity
  8
AM_VIS
100
AcDbLine
 10
396.729250076842
 20
382.4407984439194
 30
0.0
 11
391.2292500768419
 21
382.4407984439194
 31
0.0
  0
LINE
  5
1234
330
1F
100
AcDbEntity
  8
AM_VIS
100
AcDbLine
 10
396.729250076842
 20
384.6058619533804
 30
0.0
 11
391.2292500768419
 21
384.6058619533804
 31
0.0
  0
LINE
  5
1235
330
1F
100
AcDbEntity
  8
AM_VIS
100
AcDbLine
 10
391.2292500768419
 20
371.7733301986497
 30
0.0
 11
391.2292500768419
 21
374.2577857420268
 31
0.0
  0
LINE
  5
1236
330
1F
100
AcDbEntity
  8
AM_VIS
100
AcDbLine
 10
391.2292500768419
 20
374.9407984439193
 30
0.0
 11
391.2292500768419
 21
374.2577857420271
 31
0.0
  0
LINE
  5
1237
330
1F
100
AcDbEntity
  8
AM_VIS
100
AcDbLine
 10
391.2292500768419
 20
377.1058619533804
 30
0.0
 11
391.2292500768419
 21
374.9407984439193
 31
0.0
  0
LINE
  5
1238
330
1F
100
AcDbEntity
  8
AM_VIS
100
AcDbLine
 10
391.2292500768419
 20
377.2888746552725
 30
0.0
 11
391.2292500768419
 21
377.1058619533804
 31
0.0
  0
LINE
  5
1239
330
1F
100
AcDbEntity
  8
AM_VIS
100
AcDbLine
 10
391.2292500768419
 20
377.2888746552725
 30
0.0
 11
391.2292500768419
 21
379.7733301986497
 31
0.0
  0
LINE
  5
123A
330
1F
100
AcDbEntity
  8
AM_VIS
100
AcDbLine
 10
391.2292500768419
 20
379.7733301986497
 30
0.0
 11
391.2292500768419
 21
382.2577857420271
 31
0.0
  0
LINE
  5
123B
330
1F
100
AcDbEntity
  8
AM_VIS
100
AcDbLine
 10
391.2292500768419
 20
382.4407984439194
 30
0.0
 11
391.2292500768419
 21
382.2577857420271
 31
0.0
  0
LINE
  5
123C
330
1F
100
AcDbEntity
  8
AM_VIS
100
AcDbLine
 10
391.2292500768419
 20
384.6058619533804
 30
0.0
 11
391.2292500768419
 21
382.4407984439194
 31
0.0
  0
LINE
  5
123D
330
1F
100
AcDbEntity
  8
AM_VIS
100
AcDbLine
 10
391.2292500768419
 20
385.2888746552725
 30
0.0
 11
391.2292500768419
 21
384.6058619533804
 31
0.0
  0
LINE
  5
123E
330
1F
100
AcDbEntity
  8
AM_VIS
100
AcDbLine
 10
391.2292500768419
 20
385.2888746552725
 30
0.0
 11
391.2292500768419
 21
387.7733301986497
 31
0.0
  0
LINE
  5
123F
330
1F
100
AcDbEntity
  8
AM_VIS
100
AcDbLine
 10
396.729250076842
 20
385.2888746552725
 30
0.0
 11
396.729250076842
 21
387.7733301986497
 31
0.0
  0
LINE
  5
1240
330
1F
100
AcDbEntity
  8
AM_VIS
100
AcDbLine
 10
396.729250076842
 20
384.6058619533804
 30
0.0
 11
396.729250076842
 21
385.2888746552725
 31
0.0
  0
LINE
  5
1241
330
1F
100
AcDbEntity
  8
AM_VIS
100
AcDbLine
 10
396.729250076842
 20
382.4407984439194
 30
0.0
 11
396.729250076842
 21
384.6058619533804
 31
0.0
  0
LINE
  5
1242
330
1F
100
AcDbEntity
  8
AM_VIS
100
AcDbLine
 10
396.729250076842
 20
382.2577857420271
 30
0.0
 11
396.729250076842
 21
382.4407984439194
 31
0.0
  0
LINE
  5
1243
330
1F
100
AcDbEntity
  8
AM_VIS
100
AcDbLine
 10
396.729250076842
 20
379.7733301986497
 30
0.0
 11
396.729250076842
 21
382.2577857420271
 31
0.0
  0
LINE
  5
1244
330
1F
100
AcDbEntity
  8
AM_VIS
100
AcDbLine
 10
396.729250076842
 20
377.2888746552725
 30
0.0
 11
396.729250076842
 21
379.7733301986497
 31
0.0
  0
LINE
  5
1245
330
1F
100
AcDbEntity
  8
AM_VIS
100
AcDbLine
 10
396.729250076842
 20
377.1058619533804
 30
0.0
 11
396.729250076842
 21
377.2888746552725
 31
0.0
  0
LINE
  5
1246
330
1F
100
AcDbEntity
  8
AM_VIS
100
AcDbLine
 10
396.729250076842
 20
374.9407984439193
 30
0.0
 11
396.729250076842
 21
377.1058619533804
 31
0.0
  0
LINE
  5
1247
330
1F
100
AcDbEntity
  8
AM_VIS
100
AcDbLine
 10
396.729250076842
 20
374.2577857420271
 30
0.0
 11
396.729250076842
 21
374.9407984439193
 31
0.0
  0
LINE
  5
1248
330
1F
100
AcDbEntity
  8
AM_VIS
100
AcDbLine
 10
396.729250076842
 20
371.7733301986497
 30
0.0
 11
396.729250076842
 21
374.2577857420268
 31
0.0
  0
LINE
  5
1249
330
1F
100
AcDbEntity
  8
AM_VIS
100
AcDbLine
 10
391.2292500768419
 20
373.0233301986497
 30
0.0
 11
389.2292500768419
 21
373.0233301986497
 31
0.0
  0
LINE
  5
124A
330
1F
100
AcDbEntity
  8
AM_VIS
100
AcDbLine
 10
391.2292500768419
 20
386.5233301986497
 30
0.0
 11
389.2292500768419
 21
386.5233301986494
 31
0.0
  0
LINE
  5
124B
330
1F
100
AcDbEntity
  8
0
100
AcDbLine
 10
375.2292500768419
 20
356.7733301986497
 30
0.0
 11
346.2292500768419
 21
356.7733301986497
 31
0.0
  0
LINE
  5
124C
330
1F
100
AcDbEntity
  8
0
100
AcDbLine
 10
375.2292500768419
 20
358.2733301986497
 30
0.0
 11
346.2292500768419
 21
358.2733301986497
 31
0.0
  0
LINE
  5
124D
330
1F
100
AcDbEntity
  8
AM_7
100
AcDbLine
 10
398.5795123453736
 20
379.7733301986497
 30
0.0
 11
387.80836642533
 21
379.7733301986497
 31
0.0
  0
LINE
  5
124E
330
1F
100
AcDbEntity
  8
AM_7
  6
AM_ISO08W050x2
100
AcDbLine
 10
385.2292500768419
 20
339.2733301986496
 30
0.0
 11
373.4215939651706
 21
339.2733301986496
 31
0.0
1001
GENIUS_GENOBJ-N-CEN_13
1002
{
1000
OWNER
1000
GEN
1002
}
1001
GENIUS_GENODEF_13
1002
{
1000
HIER
1070
     0
1002
}
1002
{
1000
MANEDIT
1070
     0
1002
}
1002
{
1000
NOSEL
1070
     0
1002
}
1002
{
1000
BEHIND
1070
     0
1002
}
1002
{
1000
OTHER
1070
     0
1002
}
1002
{
1000
REACTOR
1002
}
1001
GENIUS_GENCEN_19
1002
{
1040
1.5
1002
}
  0
LINE
  5
124F
330
1F
100
AcDbEntity
  8
BORDER
100
AcDbLine
 10
376.4292500768418
 20
261.7448446025951
 30
0.0
 11
377.6651009341308
 21
261.7448446025951
 31
0.0
  0
LINE
  5
1250
330
1F
100
AcDbEntity
  8
BORDER
100
AcDbLine
 10
380.5792500768419
 20
261.7448446025951
 30
0.0
 11
382.0792500768419
 21
261.7448446025951
 31
0.0
  0
LINE
  5
1251
330
1F
100
AcDbEntity
  8
BORDER
100
AcDbLine
 10
383.7292500768419
 20
261.7448446025951
 30
0.0
 11
389.2292500768419
 21
261.7448446025951
 31
0.0
  0
LINE
  5
1252
330
1F
100
AcDbEntity
  8
BORDER
100
AcDbLine
 10
389.2292500768419
 20
243.7448446025951
 30
0.0
 11
389.2292500768419
 21
261.7448446025951
 31
0.0
  0
LINE
  5
1253
330
1F
100
AcDbEntity
  8
BORDER
100
AcDbLine
 10
396.729250076842
 20
254.4948446025951
 30
0.0
 11
391.2292500768419
 21
254.4948446025951
 31
0.0
  0
LINE
  5
1254
330
1F
100
AcDbEntity
  8
BORDER
100
AcDbLine
 10
391.2292500768419
 20
250.9948446025951
 30
0.0
 11
396.729250076842
 21
250.9948446025951
 31
0.0
  0
LINE
  5
1255
330
1F
100
AcDbEntity
  8
BORDER
100
AcDbLine
 10
396.729250076842
 20
257.3636467561121
 30
0.0
 11
391.2292500768419
 21
257.3636467561121
 31
0.0
  0
LINE
  5
1256
330
1F
100
AcDbEntity
  8
BORDER
100
AcDbLine
 10
396.729250076842
 20
261.982448909629
 30
0.0
 11
391.2292500768419
 21
261.982448909629
 31
0.0
  0
LINE
  5
1257
330
1F
100
AcDbEntity
  8
BORDER
100
AcDbLine
 10
396.729250076842
 20
259.8650351309783
 30
0.0
 11
391.2292500768419
 21
259.8650351309783
 31
0.0
  0
LINE
  5
1258
330
1F
100
AcDbEntity
  8
BORDER
100
AcDbLine
 10
396.729250076842
 20
260.5480478328705
 30
0.0
 11
391.2292500768419
 21
260.5480478328705
 31
0.0
  0
LINE
  5
1259
330
1F
100
AcDbEntity
  8
BORDER
100
AcDbLine
 10
391.2292500768419
 20
258.7980478328706
 30
0.0
 11
396.729250076842
 21
258.7980478328706
 31
0.0
  0
LINE
  5
125A
330
1F
100
AcDbEntity
  8
BORDER
100
AcDbLine
 10
396.729250076842
 20
243.5072402955609
 30
0.0
 11
391.2292500768419
 21
243.5072402955609
 31
0.0
  0
LINE
  5
125B
330
1F
100
AcDbEntity
  8
BORDER
100
AcDbLine
 10
391.2292500768419
 20
248.126042449078
 30
0.0
 11
391.2292500768419
 21
250.9948446025951
 31
0.0
  0
LINE
  5
125C
330
1F
100
AcDbEntity
  8
BORDER
100
AcDbLine
 10
391.2292500768419
 20
251.4948446025951
 30
0.0
 11
391.2292500768419
 21
250.9948446025951
 31
0.0
  0
LINE
  5
125D
330
1F
100
AcDbEntity
  8
BORDER
100
AcDbLine
 10
391.2292500768419
 20
253.9948446025951
 30
0.0
 11
391.2292500768419
 21
251.4948446025951
 31
0.0
  0
LINE
  5
125E
330
1F
100
AcDbEntity
  8
BORDER
100
AcDbLine
 10
391.2292500768419
 20
254.4948446025951
 30
0.0
 11
391.2292500768419
 21
253.9948446025951
 31
0.0
  0
LINE
  5
125F
330
1F
100
AcDbEntity
  8
BORDER
100
AcDbLine
 10
391.2292500768419
 20
254.4948446025951
 30
0.0
 11
391.2292500768419
 21
257.3636467561121
 31
0.0
  0
LINE
  5
1260
330
1F
100
AcDbEntity
  8
BORDER
100
AcDbLine
 10
391.2292500768419
 20
257.3636467561121
 30
0.0
 11
391.2292500768419
 21
258.7980478328706
 31
0.0
  0
LINE
  5
1261
330
1F
100
AcDbEntity
  8
BORDER
100
AcDbLine
 10
391.2292500768419
 20
259.8650351309783
 30
0.0
 11
391.2292500768419
 21
258.7980478328705
 31
0.0
  0
LINE
  5
1262
330
1F
100
AcDbEntity
  8
BORDER
100
AcDbLine
 10
391.2292500768419
 20
260.5480478328705
 30
0.0
 11
391.2292500768419
 21
259.8650351309783
 31
0.0
  0
LINE
  5
1263
330
1F
100
AcDbEntity
  8
BORDER
100
AcDbLine
 10
391.2292500768419
 20
260.5480478328705
 30
0.0
 11
391.2292500768419
 21
261.982448909629
 31
0.0
  0
LINE
  5
1264
330
1F
100
AcDbEntity
  8
BORDER
100
AcDbLine
 10
391.2292500768419
 20
243.507240295561
 30
0.0
 11
391.2292500768419
 21
244.9416413723195
 31
0.0
  0
LINE
  5
1265
330
1F
100
AcDbEntity
  8
BORDER
100
AcDbLine
 10
396.729250076842
 20
248.126042449078
 30
0.0
 11
391.2292500768419
 21
248.126042449078
 31
0.0
  0
LINE
  5
1266
330
1F
100
AcDbEntity
  8
BORDER
100
AcDbLine
 10
391.2292500768419
 20
246.6916413723195
 30
0.0
 11
391.2292500768419
 21
248.126042449078
 31
0.0
  0
LINE
  5
1267
330
1F
100
AcDbEntity
  8
BORDER
100
AcDbLine
 10
396.729250076842
 20
243.507240295561
 30
0.0
 11
396.729250076842
 21
244.9416413723195
 31
0.0
  0
LINE
  5
1268
330
1F
100
AcDbEntity
  8
BORDER
100
AcDbLine
 10
396.729250076842
 20
260.5480478328705
 30
0.0
 11
396.729250076842
 21
261.982448909629
 31
0.0
  0
LINE
  5
1269
330
1F
100
AcDbEntity
  8
BORDER
100
AcDbLine
 10
396.729250076842
 20
259.8650351309783
 30
0.0
 11
396.729250076842
 21
260.5480478328705
 31
0.0
  0
LINE
  5
126A
330
1F
100
AcDbEntity
  8
BORDER
100
AcDbLine
 10
396.729250076842
 20
258.7980478328705
 30
0.0
 11
396.729250076842
 21
259.8650351309783
 31
0.0
  0
LINE
  5
126B
330
1F
100
AcDbEntity
  8
BORDER
100
AcDbLine
 10
396.729250076842
 20
257.3636467561121
 30
0.0
 11
396.729250076842
 21
258.7980478328706
 31
0.0
  0
LINE
  5
126C
330
1F
100
AcDbEntity
  8
BORDER
100
AcDbLine
 10
396.729250076842
 20
254.4948446025951
 30
0.0
 11
396.729250076842
 21
257.3636467561121
 31
0.0
  0
LINE
  5
126D
330
1F
100
AcDbEntity
  8
BORDER
100
AcDbLine
 10
396.729250076842
 20
253.9948446025951
 30
0.0
 11
396.729250076842
 21
254.4948446025951
 31
0.0
  0
LINE
  5
126E
330
1F
100
AcDbEntity
  8
BORDER
100
AcDbLine
 10
396.729250076842
 20
251.4948446025951
 30
0.0
 11
396.729250076842
 21
253.9948446025951
 31
0.0
  0
LINE
  5
126F
330
1F
100
AcDbEntity
  8
BORDER
100
AcDbLine
 10
396.729250076842
 20
250.9948446025951
 30
0.0
 11
396.729250076842
 21
251.4948446025951
 31
0.0
  0
LINE
  5
1270
330
1F
100
AcDbEntity
  8
BORDER
100
AcDbLine
 10
396.729250076842
 20
248.126042449078
 30
0.0
 11
396.729250076842
 21
250.9948446025951
 31
0.0
  0
LINE
  5
1271
330
1F
100
AcDbEntity
  8
BORDER
100
AcDbLine
 10
396.729250076842
 20
246.6916413723195
 30
0.0
 11
396.729250076842
 21
248.126042449078
 31
0.0
  0
LINE
  5
1272
330
1F
100
AcDbEntity
  8
BORDER
100
AcDbLine
 10
396.729250076842
 20
246.6916413723196
 30
0.0
 11
391.2292500768419
 21
246.6916413723196
 31
0.0
  0
LINE
  5
1273
330
1F
100
AcDbEntity
  8
BORDER
100
AcDbLine
 10
391.2292500768419
 20
244.9416413723195
 30
0.0
 11
396.729250076842
 21
244.9416413723195
 31
0.0
  0
LINE
  5
1274
330
1F
100
AcDbEntity
  8
BORDER
100
AcDbLine
 10
396.729250076842
 20
244.9416413723195
 30
0.0
 11
396.729250076842
 21
245.6246540742118
 31
0.0
  0
LINE
  5
1275
330
1F
100
AcDbEntity
  8
BORDER
100
AcDbLine
 10
391.2292500768419
 20
245.6246540742118
 30
0.0
 11
391.2292500768419
 21
244.9416413723195
 31
0.0
  0
LINE
  5
1276
330
1F
100
AcDbEntity
  8
BORDER
100
AcDbLine
 10
396.729250076842
 20
245.6246540742118
 30
0.0
 11
391.2292500768419
 21
245.6246540742118
 31
0.0
  0
LINE
  5
1277
330
1F
100
AcDbEntity
  8
BORDER
100
AcDbLine
 10
396.729250076842
 20
245.6246540742118
 30
0.0
 11
396.729250076842
 21
246.6916413723196
 31
0.0
  0
LINE
  5
1278
330
1F
100
AcDbEntity
  8
BORDER
100
AcDbLine
 10
391.2292500768419
 20
246.6916413723196
 30
0.0
 11
391.2292500768419
 21
245.6246540742118
 31
0.0
  0
LINE
  5
1279
330
1F
100
AcDbEntity
  8
BORDER
100
AcDbLine
 10
391.2292500768419
 20
245.994844602595
 30
0.0
 11
389.2292500768419
 21
245.994844602595
 31
0.0
  0
LINE
  5
127A
330
1F
100
AcDbEntity
  8
BORDER
100
AcDbLine
 10
391.2292500768419
 20
259.494844602595
 30
0.0
 11
389.2292500768419
 21
259.4948446025949
 31
0.0
  0
LINE
  5
127B
330
1F
100
AcDbEntity
  8
AM_VIS
100
AcDbLine
 10
375.7292500768419
 20
263.7448446025948
 30
0.0
 11
346.2292500768419
 21
263.7448446025948
 31
0.0
  0
LINE
  5
127C
330
1F
100
AcDbEntity
  8
AM_VIS
100
AcDbLine
 10
375.7292500768419
 20
245.7448446025948
 30
0.0
 11
375.7292500768419
 21
259.7448446025948
 31
0.0
  0
LINE
  5
127D
330
1F
100
AcDbEntity
  8
AM_VIS
100
AcDbLine
 10
346.2292500768419
 20
241.7448446025947
 30
0.0
 11
375.7292500768419
 21
241.7448446025947
 31
0.0
  0
LINE
  5
127E
330
1F
100
AcDbEntity
  8
AM_VIS
100
AcDbLine
 10
375.7292500768419
 20
263.7448446025948
 30
0.0
 11
375.7292500768419
 21
259.7448446025948
 31
0.0
  0
LINE
  5
127F
330
1F
100
AcDbEntity
  8
AM_VIS
100
AcDbLine
 10
375.7292500768419
 20
245.7448446025948
 30
0.0
 11
375.7292500768419
 21
241.7448446025947
 31
0.0
  0
LINE
  5
1280
330
1F
100
AcDbEntity
  8
AM_VIS
100
AcDbLine
 10
383.2288085678397
 20
262.1604097687432
 30
0.0
 11
383.7287549037442
 21
261.893915651598
 31
0.0
  0
LINE
  5
1281
330
1F
100
AcDbEntity
  8
AM_VIS
100
AcDbLine
 10
383.2292500768419
 20
262.1612380452178
 30
0.0
 11
382.0792500768419
 21
262.1612380452178
 31
0.0
  0
LINE
  5
1282
330
1F
100
AcDbEntity
  8
AM_VIS
100
AcDbLine
 10
382.0792500768419
 20
260.3682858934571
 30
0.0
 11
383.2292500768419
 21
260.3682858934571
 31
0.0
  0
LINE
  5
1283
330
1F
100
AcDbEntity
  8
AM_VIS
100
AcDbLine
 10
383.235217498438
 20
260.3718611605194
 30
0.0
 11
383.7357876757167
 21
259.5363674101882
 31
0.0
  0
SPLINE
  5
1284
330
1F
100
AcDbEntity
  8
AM_VIS
100
AcDbSpline
210
0.0
220
0.0
230
1.0
 70
     8
 71
     3
 72
     8
 73
     4
 74
     0
 42
0.0000000001
 43
0.0000000001
 40
7.860869800051694
 40
7.860869800051694
 40
7.860869800051694
 40
7.860869800051694
 40
8.796716658530822
 40
8.796716658530822
 40
8.796716658530822
 40
8.796716658530822
 10
383.7292500768419
 20
255.1072386729273
 30
0.0
 10
383.5782110408054
 20
254.9032559897007
 30
0.0
 10
383.40911142506
 20
254.7132815071695
 30
0.0
 10
383.2292500768419
 20
254.5377967543554
 30
0.0
  0
LINE
  5
1285
330
1F
100
AcDbEntity
  8
AM_VIS
100
AcDbLine
 10
383.2292500768419
 20
254.5377967543554
 30
0.0
 11
382.0792500768419
 21
254.5377967543554
 31
0.0
  0
LINE
  5
1286
330
1F
100
AcDbEntity
  8
AM_VIS
100
AcDbLine
 10
382.0792500768419
 20
250.9518924508342
 30
0.0
 11
383.2292500768419
 21
250.9518924508342
 31
0.0
  0
SPLINE
  5
1287
330
1F
100
AcDbEntity
  8
AM_VIS
100
AcDbSpline
210
0.0
220
0.0
230
1.0
 70
     8
 71
     3
 72
     8
 73
     4
 74
     0
 42
0.0000000001
 43
0.0000000001
 40
1.630155803927018
 40
1.630155803927018
 40
1.630155803927018
 40
1.630155803927018
 40
2.566002662426991
 40
2.566002662426991
 40
2.566002662426991
 40
2.566002662426991
 10
383.2292500768419
 20
250.9518924508342
 30
0.0
 10
383.4091113100369
 20
250.7764078102442
 30
0.0
 10
383.5782109314105
 20
250.5864333632301
 30
0.0
 10
383.7292500768419
 20
250.3824505322624
 30
0.0
  0
LINE
  5
1288
330
1F
100
AcDbEntity
  8
AM_VIS
100
AcDbLine
 10
383.2352174953396
 20
245.1178280464778
 30
0.0
 11
383.7357876776407
 21
245.9533217937953
 31
0.0
  0
LINE
  5
1289
330
1F
100
AcDbEntity
  8
AM_VIS
100
AcDbLine
 10
383.2292500768419
 20
245.1214033117326
 30
0.0
 11
382.0792500768419
 21
245.1214033117326
 31
0.0
  0
LINE
  5
128A
330
1F
100
AcDbEntity
  8
AM_VIS
100
AcDbLine
 10
382.0792500768419
 20
243.3284511599719
 30
0.0
 11
383.2292500768419
 21
243.3284511599719
 31
0.0
  0
LINE
  5
128B
330
1F
100
AcDbEntity
  8
AM_VIS
100
AcDbLine
 10
383.2288085680245
 20
243.3292794360948
 30
0.0
 11
383.7287549032551
 21
243.5957735545037
 31
0.0
  0
LINE
  5
128C
330
1F
100
AcDbEntity
  8
AM_VIS
100
AcDbLine
 10
380.5792500768419
 20
245.1214033117326
 30
0.0
 11
377.7292500768419
 21
245.1214033117326
 31
0.0
  0
LINE
  5
128D
330
1F
100
AcDbEntity
  8
AM_VIS
100
AcDbLine
 10
377.7292500768419
 20
243.3284511599719
 30
0.0
 11
380.5792500768419
 21
243.3284511599719
 31
0.0
  0
LINE
  5
128E
330
1F
100
AcDbEntity
  8
AM_VIS
100
AcDbLine
 10
380.5792500768419
 20
254.5377967543554
 30
0.0
 11
377.7292500768419
 21
254.5377967543554
 31
0.0
  0
LINE
  5
128F
330
1F
100
AcDbEntity
  8
AM_VIS
100
AcDbLine
 10
377.7292500768419
 20
250.9518924508342
 30
0.0
 11
380.5792500768419
 21
250.9518924508342
 31
0.0
  0
LINE
  5
1290
330
1F
100
AcDbEntity
  8
AM_VIS
100
AcDbLine
 10
377.7292500768419
 20
260.3682858934571
 30
0.0
 11
380.5792500768419
 21
260.3682858934571
 31
0.0
  0
LINE
  5
1291
330
1F
100
AcDbEntity
  8
AM_VIS
100
AcDbLine
 10
380.5792500768419
 20
262.1612380452178
 30
0.0
 11
377.7292500768419
 21
262.1612380452178
 31
0.0
  0
LINE
  5
1292
330
1F
100
AcDbEntity
  8
AM_VIS
100
AcDbLine
 10
377.6339297041125
 20
261.5447387345451
 30
0.0
 11
377.729947163238
 21
262.1611294574957
 31
0.0
  0
LINE
  5
1293
330
1F
100
AcDbEntity
  8
AM_VIS
100
AcDbLine
 10
377.6817905262976
 20
254.5378355118487
 30
0.0
 11
377.6865519492242
 21
260.3683207625693
 31
0.0
  0
LINE
  5
1294
330
1F
100
AcDbEntity
  8
AM_VIS
100
AcDbLine
 10
377.6817905262976
 20
250.951853693341
 30
0.0
 11
377.6865519492242
 21
245.1213684426205
 31
0.0
  0
LINE
  5
1295
330
1F
100
AcDbEntity
  8
AM_VIS
100
AcDbLine
 10
377.6339297041125
 20
243.9449504706445
 30
0.0
 11
377.729947163238
 21
243.328559747694
 31
0.0
  0
CIRCLE
  5
1296
330
1F
100
AcDbEntity
  8
AM_VIS
100
AcDbCircle
 10
381.3292500768418
 20
250.7448446025949
 30
0.0
 40
0.5000000000000008
  0
CIRCLE
  5
1297
330
1F
100
AcDbEntity
  8
AM_VIS
100
AcDbCircle
 10
381.3292500768418
 20
254.7448446025949
 30
0.0
 40
0.5000000000000028
  0
CIRCLE
  5
1298
330
1F
100
AcDbEntity
  8
AM_VIS
100
AcDbCircle
 10
381.3292500768418
 20
252.7448446025949
 30
0.0
 40
0.4999999999999996
  0
LINE
  5
1299
330
1F
100
AcDbEntity
  8
AM_VIS
100
AcDbLine
 10
377.5292500768419
 20
245.2448446025949
 30
0.0
 11
377.6332500768419
 21
243.9448446025949
 31
0.0
  0
LINE
  5
129A
330
1F
100
AcDbEntity
  8
AM_VIS
100
AcDbLine
 10
377.5292500768419
 20
260.2448446025949
 30
0.0
 11
377.6332500768419
 21
261.5448446025948
 31
0.0
  0
LINE
  5
129B
330
1F
100
AcDbEntity
  8
AM_VIS
100
AcDbLine
 10
376.7292500768419
 20
260.2448446025949
 30
0.0
 11
376.229250076842
 21
262.7448446025949
 31
0.0
  0
LINE
  5
129C
330
1F
100
AcDbEntity
  8
AM_VIS
100
AcDbLine
 10
376.7292500768419
 20
245.2448446025949
 30
0.0
 11
376.229250076842
 21
242.7448446025949
 31
0.0
  0
LINE
  5
129D
330
1F
100
AcDbEntity
  8
AM_VIS
100
AcDbLine
 10
376.7292500768419
 20
245.2448446025949
 30
0.0
 11
377.5292500768419
 21
245.2448446025949
 31
0.0
  0
LINE
  5
129E
330
1F
100
AcDbEntity
  8
AM_VIS
100
AcDbLine
 10
376.7292500768419
 20
260.2448446025949
 30
0.0
 11
377.5292500768417
 21
260.2448446025949
 31
0.0
  0
LINE
  5
129F
330
1F
100
AcDbEntity
  8
AM_VIS
100
AcDbLine
 10
375.7292500768419
 20
242.7448446025949
 30
0.0
 11
376.229250076842
 21
242.7448446025949
 31
0.0
  0
LINE
  5
12A0
330
1F
100
AcDbEntity
  8
AM_VIS
100
AcDbLine
 10
375.7292500768419
 20
262.7448446025949
 30
0.0
 11
376.229250076842
 21
262.7448446025949
 31
0.0
  0
LINE
  5
12A1
330
1F
100
AcDbEntity
  8
AM_VIS
100
AcDbLine
 10
383.2292500768419
 20
243.3284511599719
 30
0.0
 11
383.2292500768419
 21
245.1214033117326
 31
0.0
  0
LINE
  5
12A2
330
1F
100
AcDbEntity
  8
AM_VIS
100
AcDbLine
 10
383.2292500768419
 20
250.9518924508342
 30
0.0
 11
383.2292500768419
 21
254.5377967543554
 31
0.0
  0
LINE
  5
12A3
330
1F
100
AcDbEntity
  8
AM_VIS
100
AcDbLine
 10
383.2292500768419
 20
260.3682858934571
 30
0.0
 11
383.2292500768419
 21
262.1612380452178
 31
0.0
  0
LINE
  5
12A4
330
1F
100
AcDbEntity
  8
AM_VIS
100
AcDbLine
 10
382.0792500768419
 20
260.3682858934571
 30
0.0
 11
382.0792500768419
 21
262.1612380452178
 31
0.0
  0
LINE
  5
12A5
330
1F
100
AcDbEntity
  8
AM_VIS
100
AcDbLine
 10
382.0792500768419
 20
260.3682858934571
 30
0.0
 11
382.0792500768419
 21
254.5377967543554
 31
0.0
  0
LINE
  5
12A6
330
1F
100
AcDbEntity
  8
AM_VIS
100
AcDbLine
 10
382.0792500768419
 20
250.9518924508342
 30
0.0
 11
382.0792500768419
 21
254.5377967543554
 31
0.0
  0
LINE
  5
12A7
330
1F
100
AcDbEntity
  8
AM_VIS
100
AcDbLine
 10
382.0792500768419
 20
250.9518924508342
 30
0.0
 11
382.0792500768419
 21
245.1214033117326
 31
0.0
  0
LINE
  5
12A8
330
1F
100
AcDbEntity
  8
AM_VIS
100
AcDbLine
 10
382.0792500768419
 20
243.3284511599719
 30
0.0
 11
382.0792500768419
 21
245.1214033117326
 31
0.0
  0
LINE
  5
12A9
330
1F
100
AcDbEntity
  8
AM_VIS
100
AcDbLine
 10
380.5792500768419
 20
245.1214033117326
 30
0.0
 11
380.5792500768419
 21
250.9518924508342
 31
0.0
  0
LINE
  5
12AA
330
1F
100
AcDbEntity
  8
AM_VIS
100
AcDbLine
 10
380.5792500768419
 20
254.5377967543556
 30
0.0
 11
380.5792500768419
 21
260.3682858934572
 31
0.0
  0
LINE
  5
12AB
330
1F
100
AcDbEntity
  8
AM_VIS
100
AcDbLine
 10
380.5792500768419
 20
245.1214033117326
 30
0.0
 11
380.5792500768419
 21
243.3284511599719
 31
0.0
  0
LINE
  5
12AC
330
1F
100
AcDbEntity
  8
AM_VIS
100
AcDbLine
 10
380.5792500768419
 20
254.5377967543554
 30
0.0
 11
380.5792500768419
 21
250.9518924508342
 31
0.0
  0
LINE
  5
12AD
330
1F
100
AcDbEntity
  8
AM_VIS
100
AcDbLine
 10
380.5792500768419
 20
262.1612380452178
 30
0.0
 11
380.5792500768419
 21
260.3682858934571
 31
0.0
  0
LINE
  5
12AE
330
1F
100
AcDbEntity
  8
AM_VIS
100
AcDbLine
 10
377.7292500768419
 20
260.3682858934571
 30
0.0
 11
377.7292500768419
 21
262.1612380452178
 31
0.0
  0
LINE
  5
12AF
330
1F
100
AcDbEntity
  8
AM_VIS
100
AcDbLine
 10
377.7292500768419
 20
250.9518924508342
 30
0.0
 11
377.7292500768419
 21
254.5377967543554
 31
0.0
  0
LINE
  5
12B0
330
1F
100
AcDbEntity
  8
AM_VIS
100
AcDbLine
 10
377.7292500768419
 20
243.3284511599719
 30
0.0
 11
377.7292500768419
 21
245.1214033117326
 31
0.0
  0
LINE
  5
12B1
330
1F
100
AcDbEntity
  8
AM_VIS
100
AcDbLine
 10
377.5292500768419
 20
245.2448446025949
 30
0.0
 11
377.5292500768419
 21
260.2448446025949
 31
0.0
  0
LINE
  5
12B2
330
1F
100
AcDbEntity
  8
AM_VIS
100
AcDbLine
 10
376.7292500768419
 20
245.2448446025949
 30
0.0
 11
376.7292500768419
 21
260.2448446025949
 31
0.0
  0
LINE
  5
12B3
330
1F
100
AcDbEntity
  8
AM_VIS
100
AcDbLine
 10
383.7292500768419
 20
245.9572386729274
 30
0.0
 11
383.7292500768419
 21
243.5948446025948
 31
0.0
  0
LINE
  5
12B4
330
1F
100
AcDbEntity
  8
AM_VIS
100
AcDbLine
 10
383.7292500768419
 20
250.3824505322623
 30
0.0
 11
383.7292500768419
 21
245.9572386729274
 31
0.0
  0
LINE
  5
12B5
330
1F
100
AcDbEntity
  8
AM_VIS
100
AcDbLine
 10
383.7292500768419
 20
255.1072386729273
 30
0.0
 11
383.7292500768419
 21
250.3824505322623
 31
0.0
  0
LINE
  5
12B6
330
1F
100
AcDbEntity
  8
AM_VIS
100
AcDbLine
 10
383.7292500768419
 20
259.5324505322624
 30
0.0
 11
383.7292500768419
 21
255.1072386729272
 31
0.0
  0
LINE
  5
12B7
330
1F
100
AcDbEntity
  8
AM_VIS
100
AcDbLine
 10
383.7292500768419
 20
261.8948446025949
 30
0.0
 11
383.7292500768419
 21
259.5324505322624
 31
0.0
  0
ARC
  5
12B8
330
1F
100
AcDbEntity
  8
AM_VIS
100
AcDbCircle
 10
381.3292500768418
 20
259.7448446025949
 30
0.0
 40
0.75
100
AcDbArc
 50
180.0
 51
0.0
  0
ARC
  5
12B9
330
1F
100
AcDbEntity
  8
AM_VIS
100
AcDbCircle
 10
381.3292500768418
 20
245.7448446025949
 30
0.0
 40
0.75
100
AcDbArc
 50
0.0
 51
180.0
  0
LINE
  5
12BA
330
1F
100
AcDbEntity
  8
BORDER
100
AcDbLine
 10
376.4292500768418
 20
243.7448446025951
 30
0.0
 11
377.6651009341308
 21
243.7448446025951
 31
0.0
  0
LINE
  5
12BB
330
1F
100
AcDbEntity
  8
BORDER
100
AcDbLine
 10
380.5792500768419
 20
243.7448446025951
 30
0.0
 11
382.0792500768419
 21
243.7448446025951
 31
0.0
  0
LINE
  5
12BC
330
1F
100
AcDbEntity
  8
BORDER
100
AcDbLine
 10
383.7292500768419
 20
243.7448446025951
 30
0.0
 11
389.2292500768419
 21
243.7448446025951
 31
0.0
  0
LINE
  5
12BD
330
1F
100
AcDbEntity
  8
AM_7
100
AcDbLine
 10
276.2292500768422
 20
252.7448446025951
 30
0.0
 11
266.0792500768421
 21
252.7448446025951
 31
0.0
1001
GENIUS_GENOREF_13
1005
1446
  0
LINE
  5
12BE
330
1F
100
AcDbEntity
  8
AM_7
100
AcDbLine
 10
309.2292500768422
 20
252.7448446025951
 30
0.0
 11
319.3792500768422
 21
252.7448446025951
 31
0.0
1001
GENIUS_GENOREF_13
1005
1445
  0
LINE
  5
12BF
330
1F
100
AcDbEntity
  8
AM_VIS
100
AcDbLine
 10
304.7292500768421
 20
362.4733301986496
 30
0.0
 11
293.7292500768421
 21
362.4733301986496
 31
0.0
  0
DIMENSION
  5
12C0
330
1F
100
AcDbEntity
  8
AM_5
100
AcDbDimension
  2
*D21
 10
283.2292500768422
 20
224.7448446025951
 30
0.0
 11
270.2292500768422
 21
229.1453957836975
 31
0.0
 70
    32
 71
     5
 42
26.0
  3
AM_ISO$0
100
AcDbAlignedDimension
 13
257.2292500768422
 23
238.7448446025951
 33
0.0
 14
283.2292500768422
 24
242.0948446025951
 34
0.0
100
AcDbRotatedDimension
1001
ACAD
1000
DSTYLE
1002
{
1070
    40
1040
1.6
1070
   147
1040
1.0
1070
   272
1070
     8
1002
}
  0
DIMENSION
  5
12C1
330
1F
100
AcDbEntity
  8
AM_5
100
AcDbDimension
  2
*D22
 10
309.2292500768422
 20
224.7448446025951
 30
0.0
 11
296.2292500768421
 21
229.1453957836975
 31
0.0
 70
    32
 71
     5
 42
26.0
  3
AM_ISO$0
100
AcDbAlignedDimension
 13
283.2292500768422
 23
242.0948446025951
 33
0.0
 14
309.2292500768422
 24
242.0948446025951
 34
0.0
100
AcDbRotatedDimension
1001
ACAD
1000
DSTYLE
1002
{
1070
    40
1040
1.6
1070
   147
1040
1.0
1070
   272
1070
     8
1002
}
  0
DIMENSION
  5
12C2
330
1F
100
AcDbEntity
  8
AM_5
100
AcDbDimension
  2
*D23
 10
346.2292500768421
 20
212.7448446025951
 30
0.0
 11
301.7292500768422
 21
217.1448446025951
 31
0.0
 70
    32
 71
     5
 42
89.0
  3
AM_ISO$0
100
AcDbAlignedDimension
 13
257.2292500768422
 23
238.7448446025951
 33
0.0
 14
346.2292500768421
 24
238.1448446025951
 34
0.0
100
AcDbRotatedDimension
1001
ACAD
1000
DSTYLE
1002
{
1070
    40
1040
1.6
1070
   147
1040
1.0
1070
   272
1070
     8
1002
}
  0
DIMENSION
  5
12C3
330
1F
100
AcDbEntity
  8
AM_5
100
AcDbDimension
  2
*D24
 10
409.7292500768419
 20
388.7733301986497
 30
0.0
 11
405.0492500768418
 21
352.4233301986498
 31
0.0
 70
    32
  1
(<>)
 71
     5
 42
72.7000000000001
  3
AM_ISO$0
100
AcDbAlignedDimension
 13
346.8751780820414
 23
316.0733301986496
 33
0.0
 14
389.2292500768419
 24
388.7733301986497
 34
0.0
 50
90.0
100
AcDbRotatedDimension
1001
ACAD
1000
DSTYLE
1002
{
1070
    40
1040
1.6
1070
   147
1040
1.0
1070
   271
1070
     0
1070
   272
1070
     8
1002
}
  0
DIMENSION
  5
12C4
330
1F
100
AcDbEntity
  8
AM_5
100
AcDbDimension
  2
*D25
 10
270.2292500768422
 20
303.0733301986496
 30
0.0
 11
263.7292500768422
 21
307.4733301986496
 31
0.0
 70
    32
 71
     5
 42
13.0
  3
AM_ISO$0
100
AcDbAlignedDimension
 13
257.2292500768422
 23
317.0733301986496
 33
0.0
 14
270.2292500768422
 24
318.8233301986496
 34
0.0
100
AcDbRotatedDimension
1001
ACAD
1000
DSTYLE
1002
{
1070
    40
1040
1.6
1070
   147
1040
1.0
1070
   272
1070
     8
1002
}
  0
DIMENSION
  5
12C5
330
1F
100
AcDbEntity
  8
AM_5
100
AcDbDimension
  2
*D26
 10
296.2292500768421
 20
303.0733301986496
 30
0.0
 11
283.2292500768422
 21
307.473881379752
 31
0.0
 70
    32
 71
     5
 42
26.0
  3
AM_ISO$0
100
AcDbAlignedDimension
 13
270.2292500768422
 23
318.8233301986496
 33
0.0
 14
296.2292500768421
 24
315.0233301986497
 34
0.0
100
AcDbRotatedDimension
1001
ACAD
1000
DSTYLE
1002
{
1070
    40
1040
1.6
1070
   147
1040
1.0
1070
   272
1070
     8
1002
}
  0
DIMENSION
  5
12C6
330
1F
100
AcDbEntity
  8
AM_5
100
AcDbDimension
  2
*D27
 10
244.2292500768421
 20
323.0733301986496
 30
0.0
 11
239.8292500768421
 21
319.5733301986497
 31
0.0
 70
    32
 71
     5
 42
7.0
  3
AM_ISO$0
100
AcDbAlignedDimension
 13
258.2292500768422
 23
316.0733301986496
 33
0.0
 14
265.9792500768422
 24
323.0733301986496
 34
0.0
 50
90.0
100
AcDbRotatedDimension
1001
ACAD
1000
DSTYLE
1002
{
1070
    40
1040
1.6
1070
   147
1040
1.0
1070
   272
1070
     8
1002
}
  0
DIMENSION
  5
12C7
330
1F
100
AcDbEntity
  8
AM_5
100
AcDbDimension
  2
*D28
 10
383.7292500768419
 20
291.0733301986496
 30
0.0
 11
320.479250076842
 21
295.4738813797519
 31
0.0
 70
    32
 71
     5
 42
126.4999999999997
  3
AM_ISO$0
100
AcDbAlignedDimension
 13
257.2292500768422
 23
317.0733301986496
 33
0.0
 14
383.7292500768419
 24
329.7733301986497
 34
0.0
100
AcDbRotatedDimension
1001
ACAD
1000
DSTYLE
1002
{
1070
    40
1040
1.6
1070
   147
1040
1.0
1070
   272
1070
     8
1002
}
  0
DIMENSION
  5
12C8
330
1F
100
AcDbEntity
  8
AM_5
100
AcDbDimension
  2
*D29
 10
232.2292500768422
 20
362.4733301986496
 30
0.0
 11
227.8292500768421
 21
339.2733301986496
 31
0.0
 70
    32
 71
     5
 42
46.39999999999997
  3
AM_ISO$0
100
AcDbAlignedDimension
 13
257.2559557665456
 23
316.0733301986496
 33
0.0
 14
257.2200428451767
 24
362.4733301986496
 34
0.0
 50
90.0
100
AcDbRotatedDimension
1001
ACAD
1000
DSTYLE
1002
{
1070
    40
1040
1.6
1070
   147
1040
1.0
1070
   272
1070
     8
1002
}
  0
TEXT
  5
12C9
330
1F
100
AcDbEntity
  8
AM_5
100
AcDbText
 10
314.8769671508344
 20
305.5744529284528
 30
0.0
 40
4.5
  1
2-%%c4.5thru
  7
CHINESET
100
AcDbText
  0
LINE
  5
12CA
330
1F
100
AcDbEntity
  8
AM_7
100
AcDbLine
 10
255.206821007657
 20
439.0990877172349
 30
0.0
 11
399.5944519985135
 21
439.0990877172349
 31
0.0
1001
GENIUS_GENODEF_13
1002
{
1000
HIER
1070
     0
1002
}
1002
{
1000
MANEDIT
1070
     0
1002
}
1002
{
1000
NOSEL
1070
     0
1002
}
1002
{
1000
BEHIND
1070
     0
1002
}
1002
{
1000
OTHER
1070
     0
1002
}
1002
{
1000
REACTOR
1002
}
1001
GENIUS_GENOBJ-N-CEN_13
1002
{
1000
OWNER
1000
GEN
1002
}
1001
GENIUS_GENCEN_19
1002
{
1040
1.5
1002
}
  0
DIMENSION
  5
12CB
330
1F
100
AcDbEntity
  8
AM_5
100
AcDbDimension
  2
*D30
 10
244.2292500768421
 20
427.599087717235
 30
0.0
 11
239.8286988957397
 21
439.099087717235
 31
0.0
 70
    32
 71
     5
 42
23.0
  3
AM_ISO$0
100
AcDbAlignedDimension
 13
265.2292500768421
 23
450.5990877172349
 33
0.0
 14
307.2292500768424
 24
427.599087717235
 34
0.0
 50
90.0
100
AcDbRotatedDimension
1001
ACAD
1000
DSTYLE
1002
{
1070
    40
1040
1.6
1070
   147
1040
1.0
1070
   272
1070
     8
1002
}
  0
DIMENSION
  5
12CC
330
1F
100
AcDbEntity
  8
AM_5
100
AcDbDimension
  2
*D31
 10
232.2292500768422
 20
424.0990877172349
 30
0.0
 11
227.8292500768421
 21
439.099087717235
 31
0.0
 70
    32
 71
     5
 42
30.0
  3
AM_ISO$0
100
AcDbAlignedDimension
 13
258.2292500768422
 23
454.0990877172349
 33
0.0
 14
258.2292500768422
 24
424.0990877172349
 34
0.0
 50
90.0
100
AcDbRotatedDimension
1001
ACAD
1000
DSTYLE
1002
{
1070
    40
1040
1.6
1070
   147
1040
1.0
1070
   272
1070
     8
1002
}
  0
DIMENSION
  5
12CD
330
1F
100
AcDbEntity
  8
AM_5
100
AcDbDimension
  2
*D32
 10
298.2292500768424
 20
411.099087717235
 30
0.0
 11
277.7292500768423
 21
415.4990877172349
 31
0.0
 70
    32
 71
     5
 42
41.00000000000022
  3
AM_ISO$0
100
AcDbAlignedDimension
 13
257.2292500768422
 23
425.0990877172349
 33
0.0
 14
298.2292500768424
 24
428.4490877172349
 34
0.0
100
AcDbRotatedDimension
1001
ACAD
1000
DSTYLE
1002
{
1070
    40
1040
1.6
1070
   147
1040
1.0
1070
   272
1070
     8
1002
}
  0
DIMENSION
  5
12CE
330
1F
100
AcDbEntity
  8
AM_5
100
AcDbDimension
  2
*D33
 10
272.2292500768422
 20
467.0990877172349
 30
0.0
 11
264.7292500768422
 21
471.4990877172349
 31
0.0
 70
    32
 71
     5
 42
15.0
  3
AM_ISO$0
100
AcDbAlignedDimension
 13
257.2292500768422
 23
453.0990877172349
 33
0.0
 14
272.2292500768422
 24
456.599087717235
 34
0.0
100
AcDbRotatedDimension
1001
ACAD
1000
DSTYLE
1002
{
1070
    40
1040
1.6
1070
   147
1040
1.0
1070
   272
1070
     8
1002
}
  0
DIMENSION
  5
12CF
330
1F
100
AcDbEntity
  8
AM_5
100
AcDbDimension
  2
*D34
 10
396.729250076842
 20
479.0990877172349
 30
0.0
 11
326.9792500768421
 21
483.4990877172349
 31
0.0
 70
    32
 71
     5
 42
139.4999999999998
  3
AM_ISO$0
100
AcDbAlignedDimension
 13
257.2292500768422
 23
452.9990877172348
 33
0.0
 14
396.729250076842
 24
448.3366920242692
 34
0.0
100
AcDbRotatedDimension
1001
ACAD
1000
DSTYLE
1002
{
1070
    40
1040
1.6
1070
   147
1040
1.0
1070
   272
1070
     8
1002
}
  0
TEXT
  5
12D0
330
1F
100
AcDbEntity
  8
AM_5
100
AcDbText
 10
321.9782688843679
 20
467.680592621703
 30
0.0
 40
4.5
  1
3-PT3/8
  7
CHINESET
100
AcDbText
  0
TEXT
  5
12D1
330
1F
100
AcDbEntity
  8
AM_5
100
AcDbText
 10
327.9491425081105
 20
412.3464369219958
 30
0.0
 40
5.299999999999999
  1
2-%%c4.5thru
  7
CHINESET
100
AcDbText
  0
LINE
  5
12D2
330
1F
100
AcDbEntity
  8
AM_7
100
AcDbLine
 10
254.3607566797752
 20
252.7448446025951
 30
0.0
 11
401.537804138001
 21
252.7448446025951
 31
0.0
1001
GENIUS_GENOBJ-N-CEN_13
1002
{
1000
OWNER
1000
GEN
1002
}
1001
GENIUS_GENODEF_13
1002
{
1000
HIER
1070
     0
1002
}
1002
{
1000
MANEDIT
1070
     0
1002
}
1002
{
1000
NOSEL
1070
     0
1002
}
1002
{
1000
BEHIND
1070
     0
1002
}
1002
{
1000
OTHER
1070
     0
1002
}
1002
{
1000
REACTOR
1002
}
1001
GENIUS_GENCEN_19
1002
{
1040
1.5
1002
}
  0
LINE
  5
12D3
330
1F
100
AcDbEntity
  8
AM_VIS
100
AcDbLine
 10
293.2292500768424
 20
435.0990877172349
 30
0.0
 11
293.2292500768424
 21
443.0990877172349
 31
0.0
  0
LINE
  5
12D4
330
1F
100
AcDbEntity
  8
AM_VIS
100
AcDbLine
 10
298.2292500768424
 20
443.0990877172349
 30
0.0
 11
298.2292500768424
 21
435.0990877172349
 31
0.0
  0
LINE
  5
12D5
330
1F
100
AcDbEntity
  8
AM_VIS
100
AcDbLine
 10
268.2292500768422
 20
450.5990877172349
 30
0.0
 11
268.2292500768422
 21
454.0990877172349
 31
0.0
  0
LINE
  5
12D6
330
1F
100
AcDbEntity
  8
AM_VIS
100
AcDbLine
 10
276.2292500768422
 20
454.0990877172349
 30
0.0
 11
276.2292500768422
 21
450.5990877172349
 31
0.0
  0
LINE
  5
12D7
330
1F
100
AcDbEntity
  8
AM_VIS
100
AcDbLine
 10
268.2292500768422
 20
454.0990877172349
 30
0.0
 11
276.2292500768422
 21
454.0990877172349
 31
0.0
  0
LINE
  5
12D8
330
1F
100
AcDbEntity
  8
AM_VIS
100
AcDbLine
 10
317.2292500768424
 20
427.599087717235
 30
0.0
 11
317.2292500768424
 21
424.0990877172349
 31
0.0
  0
LINE
  5
12D9
330
1F
100
AcDbEntity
  8
AM_VIS
100
AcDbLine
 10
309.2292500768424
 20
424.0990877172349
 30
0.0
 11
309.2292500768424
 21
427.599087717235
 31
0.0
  0
LINE
  5
12DA
330
1F
100
AcDbEntity
  8
AM_VIS
100
AcDbLine
 10
317.2292500768424
 20
424.0990877172349
 30
0.0
 11
309.2292500768424
 21
424.0990877172349
 31
0.0
  0
LINE
  5
12DB
330
1F
100
AcDbEntity
  8
AM_VIS
100
AcDbLine
 10
285.790689598082
 20
439.48560307104
 30
0.0
 11
286.2953624952784
 21
438.0156431244446
 31
0.0
  0
LINE
  5
12DC
330
1F
100
AcDbEntity
  8
AM_VIS
100
AcDbLine
 10
286.2953624952786
 20
438.0156431244444
 30
0.0
 11
286.8240674351985
 21
439.48560307104
 31
0.0
  0
LINE
  5
12DD
330
1F
100
AcDbEntity
  8
AM_VIS
100
AcDbLine
 10
286.8240674351982
 20
439.48560307104
 30
0.0
 11
285.790689598082
 21
439.48560307104
 31
0.0
  0
LINE
  5
12DE
330
1F
100
AcDbEntity
  8
AM_VIS
100
AcDbLine
 10
284.8974986768539
 20
440.5990877172349
 30
0.0
 11
285.8467643644374
 21
440.5990877172349
 31
0.0
  0
LINE
  5
12DF
330
1F
100
AcDbEntity
  8
AM_VIS
100
AcDbLine
 10
285.8467643644374
 20
440.5990877172349
 30
0.0
 11
285.8467643644374
 21
440.5189809081561
 31
0.0
  0
SPLINE
  5
12E0
330
1F
100
AcDbEntity
  8
AM_VIS
100
AcDbSpline
210
0.0
220
0.0
230
1.0
 70
     8
 71
     3
 72
     8
 73
     4
 74
     0
 42
0.0000000001
 43
0.0000000001
 40
0.0
 40
0.0
 40
0.0
 40
0.0
 40
80.0
 40
80.0
 40
80.0
 40
80.0
 10
285.8467643644374
 20
440.5189809081561
 30
0.0
 10
285.742625512635
 20
440.5136404134731
 30
0.0
 10
285.6691942913517
 20
440.5029595463404
 30
0.0
 10
285.6264706394707
 20
440.4869381845247
 30
0.0
  0
SPLINE
  5
12E1
330
1F
100
AcDbEntity
  8
AM_VIS
100
AcDbSpline
210
0.0
220
0.0
230
1.0
 70
     8
 71
     3
 72
     8
 73
     4
 74
     0
 42
0.0000000001
 43
0.0000000001
 40
0.0
 40
0.0
 40
0.0
 40
0.0
 40
80.0
 40
80.0
 40
80.0
 40
80.0
 10
285.6264706394707
 20
440.4869381845247
 30
0.0
 10
285.5597150059828
 20
440.4575656471179
 30
0.0
 10
285.5263371281223
 20
440.4014908807629
 30
0.0
 10
285.5263371281223
 20
440.3187138854592
 30
0.0
  0
SPLINE
  5
12E2
330
1F
100
AcDbEntity
  8
AM_VIS
100
AcDbSpline
210
0.0
220
0.0
230
1.0
 70
     8
 71
     3
 72
     8
 73
     4
 74
     0
 42
0.0000000001
 43
0.0000000001
 40
0.0
 40
0.0
 40
0.0
 40
0.0
 40
80.0
 40
80.0
 40
80.0
 40
80.0
 10
285.5263371281223
 20
440.3187138854592
 30
0.0
 10
285.5263371281223
 20
440.2519582519714
 30
0.0
 10
285.5490340777335
 20
440.1558300810768
 30
0.0
 10
285.5944279158393
 20
440.0303293727756
 30
0.0
  0
LINE
  5
12E3
330
1F
100
AcDbEntity
  8
AM_VIS
100
AcDbLine
 10
285.5944279158391
 20
440.0303293727756
 30
0.0
 11
285.7386201721809
 21
439.6338006678357
 31
0.0
  0
LINE
  5
12E4
330
1F
100
AcDbEntity
  8
AM_VIS
100
AcDbLine
 10
285.7386201721809
 20
439.6338006678357
 30
0.0
 11
286.8601154992837
 21
439.6338006678357
 31
0.0
  0
LINE
  5
12E5
330
1F
100
AcDbEntity
  8
AM_VIS
100
AcDbLine
 10
286.8601154992839
 20
439.6338006678357
 30
0.0
 11
287.0603825219807
 21
440.142478905486
 31
0.0
  0
SPLINE
  5
12E6
330
1F
100
AcDbEntity
  8
AM_VIS
100
AcDbSpline
210
0.0
220
0.0
230
1.0
 70
     8
 71
     3
 72
     8
 73
     4
 74
     0
 42
0.0000000001
 43
0.0000000001
 40
0.0
 40
0.0
 40
0.0
 40
0.0
 40
80.0
 40
80.0
 40
80.0
 40
80.0
 10
287.0603825219807
 20
440.142478905486
 30
0.0
 10
287.0817443784795
 20
440.1958834856162
 30
0.0
 10
287.0924252456123
 20
440.2546284381962
 30
0.0
 10
287.0924252456123
 20
440.3187138854592
 30
0.0
  0
SPLINE
  5
12E7
330
1F
100
AcDbEntity
  8
AM_VIS
100
AcDbSpline
210
0.0
220
0.0
230
1.0
 70
     8
 71
     3
 72
     8
 73
     4
 74
     0
 42
0.0000000001
 43
0.0000000001
 40
0.0
 40
0.0
 40
0.0
 40
0.0
 40
80.0
 40
80.0
 40
80.0
 40
80.0
 10
287.0924252456123
 20
440.3187138854592
 30
0.0
 10
287.0924252456123
 20
440.4041611281043
 30
0.0
 10
287.0603825219807
 20
440.4602358944595
 30
0.0
 10
286.9962970747176
 20
440.4869381845247
 30
0.0
  0
SPLINE
  5
12E8
330
1F
100
AcDbEntity
  8
AM_VIS
100
AcDbSpline
210
0.0
220
0.0
230
1.0
 70
     8
 71
     3
 72
     8
 73
     4
 74
     0
 42
0.0000000001
 43
0.0000000001
 40
0.0
 40
0.0
 40
0.0
 40
0.0
 40
80.0
 40
80.0
 40
80.0
 40
80.0
 10
286.9962970747176
 20
440.4869381845247
 30
0.0
 10
286.9669245984278
 20
440.5029595463404
 30
0.0
 10
286.9108498320727
 20
440.5136404134731
 30
0.0
 10
286.8280727756523
 20
440.5189809081561
 30
0.0
  0
LINE
  5
12E9
330
1F
100
AcDbEntity
  8
AM_VIS
100
AcDbLine
 10
286.8280727756523
 20
440.5189809081561
 30
0.0
 11
286.8280727756523
 21
440.5990877172349
 31
0.0
  0
LINE
  5
12EA
330
1F
100
AcDbEntity
  8
AM_VIS
100
AcDbLine
 10
286.8280727756523
 20
440.5990877172349
 30
0.0
 11
287.5610500787232
 21
440.5990877172349
 31
0.0
  0
LINE
  5
12EB
330
1F
100
AcDbEntity
  8
AM_VIS
100
AcDbLine
 10
287.5610500787232
 20
440.5990877172349
 30
0.0
 11
287.5610500787232
 21
440.5189809081561
 31
0.0
  0
LINE
  5
12EC
330
1F
100
AcDbEntity
  8
AM_VIS
100
AcDbLine
 10
287.4567884254261
 20
440.4995924096872
 30
0.0
 11
287.5609251580247
 21
440.5196301255358
 31
0.0
  0
SPLINE
  5
12ED
330
1F
100
AcDbEntity
  8
AM_VIS
100
AcDbSpline
210
0.0
220
0.0
230
1.0
 70
     8
 71
     3
 72
     8
 73
     4
 74
     0
 42
0.0000000001
 43
0.0000000001
 40
0.0
 40
0.0
 40
0.0
 40
0.0
 40
80.0
 40
80.0
 40
80.0
 40
80.0
 10
287.4569112269207
 20
440.4989542058864
 30
0.0
 10
287.4248685644058
 20
440.4909435249786
 30
0.0
 10
287.3941609338867
 20
440.4682465753674
 30
0.0
 10
287.3647883964802
 20
440.4308634181695
 30
0.0
  0
SPLINE
  5
12EE
330
1F
100
AcDbEntity
  8
AM_VIS
100
AcDbSpline
210
0.0
220
0.0
230
1.0
 70
     8
 71
     3
 72
     8
 73
     4
 74
     0
 42
0.0000000001
 43
0.0000000001
 40
0.0
 40
0.0
 40
0.0
 40
0.0
 40
80.0
 40
80.0
 40
80.0
 40
80.0
 10
287.3647883964802
 20
440.4308634181695
 30
0.0
 10
287.2900220820843
 20
440.3347353083916
 30
0.0
 10
287.1925587569608
 20
440.1237873574453
 30
0.0
 10
287.0723985433426
 20
439.7980196264472
 30
0.0
  0
LINE
  5
12EF
330
1F
100
AcDbEntity
  8
AM_VIS
100
AcDbLine
 10
287.0723985433426
 20
439.7980196264472
 30
0.0
 11
286.2633197716471
 21
437.5990877172349
 31
0.0
  0
LINE
  5
12F0
330
1F
100
AcDbEntity
  8
AM_VIS
100
AcDbLine
 10
286.2633197716468
 20
437.5990877172349
 30
0.0
 11
286.247298409831
 21
437.5990877172349
 31
0.0
  0
LINE
  5
12F1
330
1F
100
AcDbEntity
  8
AM_VIS
100
AcDbLine
 10
286.2472984098313
 20
437.5990877172349
 30
0.0
 11
285.2980327222478
 21
440.1264575436702
 31
0.0
  0
SPLINE
  5
12F2
330
1F
100
AcDbEntity
  8
AM_VIS
100
AcDbSpline
210
0.0
220
0.0
230
1.0
 70
     8
 71
     3
 72
     8
 73
     4
 74
     0
 42
0.0000000001
 43
0.0000000001
 40
0.0
 40
0.0
 40
0.0
 40
0.0
 40
80.0
 40
80.0
 40
80.0
 40
80.0
 10
285.2980327222478
 20
440.1264575436702
 30
0.0
 10
285.2392877696677
 20
440.2866711618277
 30
0.0
 10
285.1752023224049
 20
440.3948153540841
 30
0.0
 10
285.1057763804588
 20
440.4508901204392
 30
0.0
  0
SPLINE
  5
12F3
330
1F
100
AcDbEntity
  8
AM_VIS
100
AcDbSpline
210
0.0
220
0.0
230
1.0
 70
     8
 71
     3
 72
     8
 73
     4
 74
     0
 42
0.0000000001
 43
0.0000000001
 40
0.0
 40
0.0
 40
0.0
 40
0.0
 40
80.0
 40
80.0
 40
80.0
 40
80.0
 10
285.1057763804588
 20
440.4508901204392
 30
0.0
 10
285.0657229759193
 20
440.4829328440707
 30
0.0
 10
284.9962970950898
 20
440.5056297325653
 30
0.0
 10
284.8974986768539
 20
440.5189809081561
 30
0.0
  0
LINE
  5
12F4
330
1F
100
AcDbEntity
  8
AM_VIS
100
AcDbLine
 10
284.8974986768539
 20
440.5189809081561
 30
0.0
 11
284.8974986768539
 21
440.5990877172349
 31
0.0
  0
CIRCLE
  5
12F5
330
1F
100
AcDbEntity
  8
AM_VIS
100
AcDbCircle
 10
298.2292500768424
 20
439.0990877172349
 30
0.0
 40
8.649999999999998
  0
CIRCLE
  5
12F6
330
1F
100
AcDbEntity
  8
AM_VIS
100
AcDbCircle
 10
298.2292500768424
 20
439.0990877172349
 30
0.0
 40
7.5
  0
ARC
  5
12F7
330
1F
100
AcDbEntity
  8
AM_VIS
100
AcDbCircle
 10
295.7292500768424
 20
435.0990877172349
 30
0.0
 40
2.5
100
AcDbArc
 50
180.0
 51
0.0
  0
ARC
  5
12F8
330
1F
100
AcDbEntity
  8
AM_VIS
100
AcDbCircle
 10
295.7292500768424
 20
443.0990877172349
 30
0.0
 40
2.500000000000007
100
AcDbArc
 50
0.0
 51
180.0
  0
ARC
  5
12F9
330
1F
100
AcDbEntity
  8
AM_VIS
100
AcDbCircle
 10
272.2292500768422
 20
450.5990877172349
 30
0.0
 40
4.0
100
AcDbArc
 50
180.0
 51
0.0
  0
CIRCLE
  5
12FA
330
1F
100
AcDbEntity
  8
AM_VIS
100
AcDbCircle
 10
272.2292500768422
 20
450.5990877172349
 30
0.0
 40
2.25
  0
ARC
  5
12FB
330
1F
100
AcDbEntity
  8
AM_VIS
100
AcDbCircle
 10
313.2292500768424
 20
427.599087717235
 30
0.0
 40
4.0
100
AcDbArc
 50
0.0
 51
180.0
  0
CIRCLE
  5
12FC
330
1F
100
AcDbEntity
  8
AM_VIS
100
AcDbCircle
 10
313.2292500768424
 20
427.599087717235
 30
0.0
 40
2.25
  0
LINE
  5
12FD
330
1F
100
AcDbEntity
  8
AM_VIS
100
AcDbLine
 10
317.2292500768421
 20
362.4733301986496
 30
0.0
 11
317.2292500768421
 21
358.4733301986496
 31
0.0
  0
LINE
  5
12FE
102
{ACAD_REACTORS
330
1377
102
}
330
1F
100
AcDbEntity
  8
AM_VIS
100
AcDbLine
 10
309.2292500768422
 20
358.4733301986496
 30
0.0
 11
309.2292500768422
 21
362.4733301986496
 31
0.0
  0
LINE
  5
12FF
102
{ACAD_REACTORS
330
1377
102
}
330
1F
100
AcDbEntity
  8
AM_VIS
100
AcDbLine
 10
317.2292500768421
 20
358.4733301986496
 30
0.0
 11
309.2292500768422
 21
358.4733301986496
 31
0.0
  0
LINE
  5
1300
330
1F
100
AcDbEntity
  8
AM_VIS
100
AcDbLine
 10
276.5023479029421
 20
316.0733301986495
 30
0.0
 11
277.4439239898986
 21
316.0733301986495
 31
0.0
  0
LINE
  5
1301
330
1F
100
AcDbEntity
  8
AM_VIS
100
AcDbLine
 10
276.3515326855509
 20
316.0733301986495
 30
0.0
 11
276.5023479029421
 21
316.0733301986495
 31
0.0
  0
LINE
  5
1302
330
1F
100
AcDbEntity
  8
AM_VIS
100
AcDbLine
 10
276.3107718159856
 20
316.0733301986495
 30
0.0
 11
276.3515326855509
 21
316.0733301986495
 31
0.0
  0
LINE
  5
1303
330
1F
100
AcDbEntity
  8
AM_VIS
100
AcDbLine
 10
302.6205544246488
 20
316.0733301986495
 30
0.0
 11
302.9955544246488
 21
316.0733301986495
 31
0.0
  0
LINE
  5
1304
330
1F
100
AcDbEntity
  8
AM_VIS
100
AcDbLine
 10
302.1273479029096
 20
316.0733301986495
 30
0.0
 11
302.6205544246488
 21
316.0733301986495
 31
0.0
  0
LINE
  5
1305
330
1F
100
AcDbEntity
  8
AM_VIS
100
AcDbLine
 10
301.9235435550836
 20
316.0733301986495
 30
0.0
 11
302.1273479029096
 21
316.0733301986495
 31
0.0
  0
LINE
  5
1306
330
1F
100
AcDbEntity
  8
AM_VIS
100
AcDbLine
 10
301.8583261637791
 20
316.0733301986495
 30
0.0
 11
301.9235435550836
 21
316.0733301986495
 31
0.0
  0
CIRCLE
  5
1307
330
1F
100
AcDbEntity
  8
AM_VIS
100
AcDbCircle
 10
296.2292500768421
 20
323.0733301986496
 30
0.0
 40
2.25
  0
CIRCLE
  5
1308
330
1F
100
AcDbEntity
  8
AM_VIS
100
AcDbCircle
 10
270.2292500768422
 20
323.0733301986496
 30
0.0
 40
2.25
  0
LINE
  5
1309
330
1F
100
AcDbEntity
  8
AM_VIS
100
AcDbLine
 10
309.2292500768422
 20
362.4733301986496
 30
0.0
 11
317.2292500768421
 21
362.4733301986496
 31
0.0
  0
LINE
  5
130A
330
1F
100
AcDbEntity
  8
AM_VIS
100
AcDbLine
 10
285.7292500768421
 20
256.7448446025951
 30
0.0
 11
285.7292500768421
 21
248.7448446025951
 31
0.0
  0
LINE
  5
130B
330
1F
100
AcDbEntity
  8
AM_VIS
100
AcDbLine
 10
309.7292500768422
 20
256.7448446025951
 30
0.0
 11
309.7292500768422
 21
248.7448446025951
 31
0.0
  0
LINE
  5
130C
330
1F
100
AcDbEntity
  8
AM_VIS
100
AcDbLine
 10
304.7292500768421
 20
248.7448446025951
 30
0.0
 11
304.7292500768421
 21
256.7448446025951
 31
0.0
  0
LINE
  5
130D
330
1F
100
AcDbEntity
  8
AM_VIS
100
AcDbLine
 10
280.7292500768422
 20
248.7448446025951
 30
0.0
 11
280.7292500768422
 21
256.7448446025951
 31
0.0
  0
SPLINE
  5
130E
330
1F
100
AcDbEntity
  8
AM_VIS
100
AcDbSpline
210
0.0
220
0.0
230
1.0
 70
     8
 71
     3
 72
     8
 73
     4
 74
     0
 42
0.0000000001
 43
0.0000000001
 40
0.0
 40
0.0
 40
0.0
 40
0.0
 40
80.0
 40
80.0
 40
80.0
 40
80.0
 10
277.4439239898986
 20
263.9296272112907
 30
0.0
 10
277.4439239277026
 20
264.3807141263484
 30
0.0
 10
277.1300652320503
 20
264.6062576460733
 30
0.0
 10
276.5023479029421
 20
264.6062576460733
 30
0.0
  0
SPLINE
  5
130F
330
1F
100
AcDbEntity
  8
AM_VIS
100
AcDbSpline
210
0.0
220
0.0
230
1.0
 70
     8
 71
     3
 72
     8
 73
     4
 74
     0
 42
0.0000000001
 43
0.0000000001
 40
0.0
 40
0.0
 40
0.0
 40
0.0
 40
80.0
 40
80.0
 40
80.0
 40
80.0
 10
276.5023479029421
 20
264.6062576460733
 30
0.0
 10
276.423543513652
 20
264.6062576460733
 30
0.0
 10
276.3732717952535
 20
264.5981054721603
 30
0.0
 10
276.3515326855509
 20
264.5818011243342
 30
0.0
  0
SPLINE
  5
1310
330
1F
100
AcDbEntity
  8
AM_VIS
100
AcDbSpline
210
0.0
220
0.0
230
1.0
 70
     8
 71
     3
 72
     8
 73
     4
 74
     0
 42
0.0000000001
 43
0.0000000001
 40
0.0
 40
0.0
 40
0.0
 40
0.0
 40
80.0
 40
80.0
 40
80.0
 40
80.0
 10
276.3515326855509
 20
264.5818011243342
 30
0.0
 10
276.3243587517752
 20
264.5546271905587
 30
0.0
 10
276.3107718159856
 20
264.5002793852038
 30
0.0
 10
276.3107718159856
 20
264.4187576460733
 30
0.0
  0
LINE
  5
1311
330
1F
100
AcDbEntity
  8
AM_VIS
100
AcDbLine
 10
276.3107718159856
 20
264.4187576460733
 30
0.0
 11
276.3107718159856
 21
263.2326163417255
 31
0.0
  0
SPLINE
  5
1312
330
1F
100
AcDbEntity
  8
AM_VIS
100
AcDbSpline
210
0.0
220
0.0
230
1.0
 70
     8
 71
     3
 72
     8
 73
     4
 74
     0
 42
0.0000000001
 43
0.0000000001
 40
0.0
 40
0.0
 40
0.0
 40
0.0
 40
80.0
 40
80.0
 40
80.0
 40
80.0
 10
276.3107718159856
 20
263.2326163417255
 30
0.0
 10
276.4004456668329
 20
263.2217467557761
 30
0.0
 10
276.5077826648187
 20
263.2163119938994
 30
0.0
 10
276.6327826855508
 20
263.2163119938994
 30
0.0
  0
SPLINE
  5
1313
330
1F
100
AcDbEntity
  8
AM_VIS
100
AcDbSpline
210
0.0
220
0.0
230
1.0
 70
     8
 71
     3
 72
     8
 73
     4
 74
     0
 42
0.0000000001
 43
0.0000000001
 40
0.0
 40
0.0
 40
0.0
 40
0.0
 40
80.0
 40
80.0
 40
80.0
 40
80.0
 10
276.6327826855508
 20
263.2163119938994
 30
0.0
 10
277.173543513652
 20
263.2163119938994
 30
0.0
 10
277.4439239277026
 20
263.4540837122978
 30
0.0
 10
277.4439239898986
 20
263.9296272112907
 30
0.0
  0
SPLINE
  5
1314
330
1F
100
AcDbEntity
  8
AM_VIS
100
AcDbSpline
210
0.0
220
0.0
230
1.0
 70
     8
 71
     3
 72
     8
 73
     4
 74
     0
 42
0.0000000001
 43
0.0000000001
 40
0.0
 40
0.0
 40
0.0
 40
0.0
 40
80.0
 40
80.0
 40
80.0
 40
80.0
 10
277.7292500768551
 20
263.9377793852038
 30
0.0
 10
277.7292500768551
 20
263.6959315176528
 30
0.0
 10
277.6531630996014
 20
263.4962032567832
 30
0.0
 10
277.5009892072899
 20
263.3385946025951
 30
0.0
  0
SPLINE
  5
1315
330
1F
100
AcDbEntity
  8
AM_VIS
100
AcDbSpline
210
0.0
220
0.0
230
1.0
 70
     8
 71
     3
 72
     8
 73
     4
 74
     0
 42
0.0000000001
 43
0.0000000001
 40
0.0
 40
0.0
 40
0.0
 40
0.0
 40
80.0
 40
80.0
 40
80.0
 40
80.0
 10
277.5009892072899
 20
263.3385946025951
 30
0.0
 10
277.3325109049563
 20
263.1646815383848
 30
0.0
 10
277.0526195798764
 20
263.0777250373777
 30
0.0
 10
276.6613152942464
 20
263.0777250373777
 30
0.0
  0
LINE
  5
1316
330
1F
100
AcDbEntity
  8
AM_VIS
100
AcDbLine
 10
276.3107252118027
 20
263.0834763087145
 30
0.0
 11
276.6612948412624
 21
263.0766713632478
 31
0.0
  0
LINE
  5
1317
330
1F
100
AcDbEntity
  8
AM_VIS
100
AcDbLine
 10
276.3107718159856
 20
263.0858772112908
 30
0.0
 11
276.3107718159856
 21
262.2788119938995
 31
0.0
  0
SPLINE
  5
1318
330
1F
100
AcDbEntity
  8
AM_VIS
100
AcDbSpline
210
0.0
220
0.0
230
1.0
 70
     8
 71
     3
 72
     8
 73
     4
 74
     0
 42
0.0000000001
 43
0.0000000001
 40
0.0
 40
0.0
 40
0.0
 40
0.0
 40
80.0
 40
80.0
 40
80.0
 40
80.0
 10
276.3107718159856
 20
262.2788119938994
 30
0.0
 10
276.3107718159856
 20
262.1130511036022
 30
0.0
 10
276.3447391865579
 20
261.9962032567832
 30
0.0
 10
276.4126739898986
 20
261.9282685156386
 30
0.0
  0
SPLINE
  5
1319
330
1F
100
AcDbEntity
  8
AM_VIS
100
AcDbSpline
210
0.0
220
0.0
230
1.0
 70
     8
 71
     3
 72
     8
 73
     4
 74
     0
 42
0.0000000001
 43
0.0000000001
 40
0.0
 40
0.0
 40
0.0
 40
0.0
 40
80.0
 40
80.0
 40
80.0
 40
80.0
 10
276.4126739898986
 20
261.9282685156386
 30
0.0
 10
276.4697392072899
 20
261.8712033604434
 30
0.0
 10
276.5784348179998
 20
261.837235927675
 30
0.0
 10
276.7387609464204
 20
261.8263663417256
 30
0.0
  0
LINE
  5
131A
330
1F
100
AcDbEntity
  8
AM_VIS
100
AcDbLine
 10
276.7387609464204
 20
261.8263663417256
 30
0.0
 11
276.7387609464204
 21
261.7448446025951
 31
0.0
  0
LINE
  5
131B
330
1F
100
AcDbEntity
  8
AM_VIS
100
AcDbLine
 10
276.7387609464204
 20
261.7448446025951
 30
0.0
 11
275.6667500768553
 21
261.7448446025951
 31
0.0
  0
LINE
  5
131C
330
1F
100
AcDbEntity
  8
AM_VIS
100
AcDbLine
 10
275.6667500768551
 20
261.7448446025951
 30
0.0
 11
275.6667500768551
 21
261.8263663417256
 31
0.0
  0
SPLINE
  5
131D
330
1F
100
AcDbEntity
  8
AM_VIS
100
AcDbSpline
210
0.0
220
0.0
230
1.0
 70
     8
 71
     3
 72
     8
 73
     4
 74
     0
 42
0.0000000001
 43
0.0000000001
 40
0.0
 40
0.0
 40
0.0
 40
0.0
 40
80.0
 40
80.0
 40
80.0
 40
80.0
 10
275.6667500768551
 20
261.8263663417256
 30
0.0
 10
275.8270761430797
 20
261.8426706895516
 30
0.0
 10
275.9330544039492
 20
261.8888663831896
 30
0.0
 10
275.9846848594639
 20
261.9649532982473
 30
0.0
  0
SPLINE
  5
131E
330
1F
100
AcDbEntity
  8
AM_VIS
100
AcDbSpline
210
0.0
220
0.0
230
1.0
 70
     8
 71
     3
 72
     8
 73
     4
 74
     0
 42
0.0000000001
 43
0.0000000001
 40
0.0
 40
0.0
 40
0.0
 40
0.0
 40
80.0
 40
80.0
 40
80.0
 40
80.0
 10
275.9846848594639
 20
261.9649532982473
 30
0.0
 10
276.0308804909057
 20
262.0301706895516
 30
0.0
 10
276.0539783377246
 20
262.1538119731674
 30
0.0
 10
276.0539783377246
 20
262.3358772112907
 30
0.0
  0
LINE
  5
131F
330
1F
100
AcDbEntity
  8
AM_VIS
100
AcDbLine
 10
276.0539783377246
 20
262.3358772112907
 30
0.0
 11
276.0539783377246
 21
264.2394098199864
 31
0.0
  0
SPLINE
  5
1320
330
1F
100
AcDbEntity
  8
AM_VIS
100
AcDbSpline
210
0.0
220
0.0
230
1.0
 70
     8
 71
     3
 72
     8
 73
     4
 74
     0
 42
0.0000000001
 43
0.0000000001
 40
0.0
 40
0.0
 40
0.0
 40
0.0
 40
80.0
 40
80.0
 40
80.0
 40
80.0
 10
276.0539783377246
 20
264.2394098199864
 30
0.0
 10
276.0539783377246
 20
264.4024532982473
 30
0.0
 10
276.0281630788693
 20
264.509790234037
 30
0.0
 10
275.9765326855509
 20
264.5614206895516
 30
0.0
  0
SPLINE
  5
1321
330
1F
100
AcDbEntity
  8
AM_VIS
100
AcDbSpline
210
0.0
220
0.0
230
1.0
 70
     8
 71
     3
 72
     8
 73
     4
 74
     0
 42
0.0000000001
 43
0.0000000001
 40
0.0
 40
0.0
 40
0.0
 40
0.0
 40
80.0
 40
80.0
 40
80.0
 40
80.0
 10
275.9765326855509
 20
264.5614206895516
 30
0.0
 10
275.9276196420726
 20
264.6103337330299
 30
0.0
 10
275.8243587310433
 20
264.6443011036022
 30
0.0
 10
275.6667500768551
 20
264.6633228634647
 30
0.0
  0
LINE
  5
1322
330
1F
100
AcDbEntity
  8
AM_VIS
100
AcDbLine
 10
275.6667500768551
 20
264.6633228634647
 30
0.0
 11
275.6667500768551
 21
264.7448446025951
 31
0.0
  0
LINE
  5
1323
330
1F
100
AcDbEntity
  8
AM_VIS
100
AcDbLine
 10
275.6667500768553
 20
264.7448446025951
 30
0.0
 11
276.7020761638118
 21
264.7448446025951
 31
0.0
  0
SPLINE
  5
1324
330
1F
100
AcDbEntity
  8
AM_VIS
100
AcDbSpline
210
0.0
220
0.0
230
1.0
 70
     8
 71
     3
 72
     8
 73
     4
 74
     0
 42
0.0000000001
 43
0.0000000001
 40
0.0
 40
0.0
 40
0.0
 40
0.0
 40
80.0
 40
80.0
 40
80.0
 40
80.0
 10
276.7020761638116
 20
264.7448446025951
 30
0.0
 10
276.9982717745215
 20
264.7448446025951
 30
0.0
 10
277.2374022300362
 20
264.682344561131
 30
0.0
 10
277.4194674681596
 20
264.5573446025951
 30
0.0
  0
SPLINE
  5
1325
330
1F
100
AcDbEntity
  8
AM_VIS
100
AcDbSpline
210
0.0
220
0.0
230
1.0
 70
     8
 71
     3
 72
     8
 73
     4
 74
     0
 42
0.0000000001
 43
0.0000000001
 40
0.0
 40
0.0
 40
0.0
 40
0.0
 40
80.0
 40
80.0
 40
80.0
 40
80.0
 10
277.4194674681596
 20
264.5573446025951
 30
0.0
 10
277.6259891658258
 20
264.4133228220006
 30
0.0
 10
277.7292500768551
 20
264.2068011243342
 30
0.0
 10
277.7292500768551
 20
263.9377793852038
 30
0.0
  0
SPLINE
  5
1326
330
1F
100
AcDbEntity
  8
AM_VIS
100
AcDbSpline
210
0.0
220
0.0
230
1.0
 70
     8
 71
     3
 72
     8
 73
     4
 74
     0
 42
0.0000000001
 43
0.0000000001
 40
0.0
 40
0.0
 40
0.0
 40
0.0
 40
80.0
 40
80.0
 40
80.0
 40
80.0
 10
302.9955544246488
 20
263.9663119938994
 30
0.0
 10
302.9955543624526
 20
264.2489206688196
 30
0.0
 10
302.8705544039167
 20
264.4377793437397
 30
0.0
 10
302.6205544246488
 20
264.5328880808559
 30
0.0
  0
SPLINE
  5
1327
330
1F
100
AcDbEntity
  8
AM_VIS
100
AcDbSpline
210
0.0
220
0.0
230
1.0
 70
     8
 71
     3
 72
     8
 73
     4
 74
     0
 42
0.0000000001
 43
0.0000000001
 40
0.0
 40
0.0
 40
0.0
 40
0.0
 40
80.0
 40
80.0
 40
80.0
 40
80.0
 10
302.6205544246488
 20
264.5328880808559
 30
0.0
 10
302.4792500560907
 20
264.5926706480875
 30
0.0
 10
302.3148479029096
 20
264.6171271698266
 30
0.0
 10
302.1273479029096
 20
264.6062576460733
 30
0.0
  0
SPLINE
  5
1328
330
1F
100
AcDbEntity
  8
AM_VIS
100
AcDbSpline
210
0.0
220
0.0
230
1.0
 70
     8
 71
     3
 72
     8
 73
     4
 74
     0
 42
0.0000000001
 43
0.0000000001
 40
0.0
 40
0.0
 40
0.0
 40
0.0
 40
80.0
 40
80.0
 40
80.0
 40
80.0
 10
302.1273479029096
 20
264.6062576460733
 30
0.0
 10
302.0186522300037
 20
264.6008228220006
 30
0.0
 10
301.950717426663
 20
264.5913119731674
 30
0.0
 10
301.9235435550836
 20
264.5777250373777
 30
0.0
  0
SPLINE
  5
1329
330
1F
100
AcDbEntity
  8
AM_VIS
100
AcDbSpline
210
0.0
220
0.0
230
1.0
 70
     8
 71
     3
 72
     8
 73
     4
 74
     0
 42
0.0000000001
 43
0.0000000001
 40
0.0
 40
0.0
 40
0.0
 40
0.0
 40
80.0
 40
80.0
 40
80.0
 40
80.0
 10
301.9235435550836
 20
264.5777250373777
 30
0.0
 10
301.8800652734819
 20
264.5505511036022
 30
0.0
 10
301.8583261637791
 20
264.494844561131
 30
0.0
 10
301.8583261637791
 20
264.4106054721603
 30
0.0
  0
LINE
  5
132A
330
1F
100
AcDbEntity
  8
AM_VIS
100
AcDbLine
 10
301.8583261637791
 20
264.4106054721603
 30
0.0
 11
301.8583261637791
 21
263.2937576460733
 31
0.0
  0
SPLINE
  5
132B
330
1F
100
AcDbEntity
  8
AM_VIS
100
AcDbSpline
210
0.0
220
0.0
230
1.0
 70
     8
 71
     3
 72
     8
 73
     4
 74
     0
 42
0.0000000001
 43
0.0000000001
 40
0.0
 40
0.0
 40
0.0
 40
0.0
 40
80.0
 40
80.0
 40
80.0
 40
80.0
 10
301.8583261637791
 20
263.2937576460733
 30
0.0
 10
302.1816957082644
 20
263.2964749959135
 30
0.0
 10
302.4181087517427
 20
263.3250076046092
 30
0.0
 10
302.5675652942141
 20
263.3793554721603
 30
0.0
  0
SPLINE
  5
132C
330
1F
100
AcDbEntity
  8
AM_VIS
100
AcDbSpline
210
0.0
220
0.0
230
1.0
 70
     8
 71
     3
 72
     8
 73
     4
 74
     0
 42
0.0000000001
 43
0.0000000001
 40
0.0
 40
0.0
 40
0.0
 40
0.0
 40
80.0
 40
80.0
 40
80.0
 40
80.0
 10
302.5675652942141
 20
263.3793554721603
 30
0.0
 10
302.8528913189743
 20
263.4798989089571
 30
0.0
 10
302.9955543624526
 20
263.6755510828701
 30
0.0
 10
302.9955544246488
 20
263.9663119938994
 30
0.0
  0
LINE
  5
132D
330
1F
100
AcDbEntity
  8
AM_VIS
100
AcDbLine
 10
303.7292500768226
 20
261.7448446025951
 30
0.0
 11
303.1667500768226
 21
261.7448446025951
 31
0.0
  0
LINE
  5
132E
330
1F
100
AcDbEntity
  8
AM_VIS
100
AcDbLine
 10
303.1667500768228
 20
261.7448446025951
 30
0.0
 11
302.2007174681271
 21
263.1673989504212
 31
0.0
  0
LINE
  5
132F
330
1F
100
AcDbEntity
  8
AM_VIS
100
AcDbLine
 10
302.2007174681269
 20
263.1673989504212
 30
0.0
 11
301.8583261637791
 21
263.151094602595
 31
0.0
  0
LINE
  5
1330
330
1F
100
AcDbEntity
  8
AM_VIS
100
AcDbLine
 10
301.8583261637791
 20
263.1510946025951
 30
0.0
 11
301.8583261637791
 21
262.2788119938995
 31
0.0
  0
SPLINE
  5
1331
330
1F
100
AcDbEntity
  8
AM_VIS
100
AcDbSpline
210
0.0
220
0.0
230
1.0
 70
     8
 71
     3
 72
     8
 73
     4
 74
     0
 42
0.0000000001
 43
0.0000000001
 40
0.0
 40
0.0
 40
0.0
 40
0.0
 40
80.0
 40
80.0
 40
80.0
 40
80.0
 10
301.8583261637791
 20
262.2788119938994
 30
0.0
 10
301.8583261637791
 20
262.1184858654788
 30
0.0
 10
301.888217447395
 20
262.0057141678125
 30
0.0
 10
301.9480000768226
 20
261.9404967765081
 30
0.0
  0
SPLINE
  5
1332
330
1F
100
AcDbEntity
  8
AM_VIS
100
AcDbSpline
210
0.0
220
0.0
230
1.0
 70
     8
 71
     3
 72
     8
 73
     4
 74
     0
 42
0.0000000001
 43
0.0000000001
 40
0.0
 40
0.0
 40
0.0
 40
0.0
 40
80.0
 40
80.0
 40
80.0
 40
80.0
 10
301.9480000768226
 20
261.9404967765081
 30
0.0
 10
302.0050652320179
 20
261.8779967972402
 30
0.0
 10
302.1124022300037
 20
261.8399533397114
 30
0.0
 10
302.2700109463879
 20
261.8263663417256
 30
0.0
  0
LINE
  5
1333
330
1F
100
AcDbEntity
  8
AM_VIS
100
AcDbLine
 10
302.2700109463879
 20
261.8263663417256
 30
0.0
 11
302.2700109463879
 21
261.7448446025951
 31
0.0
  0
LINE
  5
1334
330
1F
100
AcDbEntity
  8
AM_VIS
100
AcDbLine
 10
302.2700109463879
 20
261.7448446025951
 30
0.0
 11
301.2102283376921
 21
261.7448446025951
 31
0.0
  0
LINE
  5
1335
330
1F
100
AcDbEntity
  8
AM_VIS
100
AcDbLine
 10
301.2102283376923
 20
261.744844602595
 30
0.0
 11
301.2102283376923
 21
261.8263663417255
 31
0.0
  0
SPLINE
  5
1336
330
1F
100
AcDbEntity
  8
AM_VIS
100
AcDbSpline
210
0.0
220
0.0
230
1.0
 70
     8
 71
     3
 72
     8
 73
     4
 74
     0
 42
0.0000000001
 43
0.0000000001
 40
0.0
 40
0.0
 40
0.0
 40
0.0
 40
80.0
 40
80.0
 40
80.0
 40
80.0
 10
301.2102283376923
 20
261.8263663417256
 30
0.0
 10
301.3678369918803
 20
261.8426706895516
 30
0.0
 10
301.4724565778297
 20
261.8861489711532
 30
0.0
 10
301.5240870333443
 20
261.9568011243342
 30
0.0
  0
SPLINE
  5
1337
330
1F
100
AcDbEntity
  8
AM_VIS
100
AcDbSpline
210
0.0
220
0.0
230
1.0
 70
     8
 71
     3
 72
     8
 73
     4
 74
     0
 42
0.0000000001
 43
0.0000000001
 40
0.0
 40
0.0
 40
0.0
 40
0.0
 40
80.0
 40
80.0
 40
80.0
 40
80.0
 10
301.5240870333443
 20
261.9568011243342
 30
0.0
 10
301.575717426663
 20
262.0247358654788
 30
0.0
 10
301.6015326233221
 20
262.151094561131
 30
0.0
 10
301.6015326855184
 20
262.3358772112907
 30
0.0
  0
LINE
  5
1338
330
1F
100
AcDbEntity
  8
AM_VIS
100
AcDbLine
 10
301.6015326855184
 20
262.3358772112908
 30
0.0
 11
301.6015326855184
 21
264.2027250373777
 31
0.0
  0
SPLINE
  5
1339
330
1F
100
AcDbEntity
  8
AM_VIS
100
AcDbSpline
210
0.0
220
0.0
230
1.0
 70
     8
 71
     3
 72
     8
 73
     4
 74
     0
 42
0.0000000001
 43
0.0000000001
 40
0.0
 40
0.0
 40
0.0
 40
0.0
 40
80.0
 40
80.0
 40
80.0
 40
80.0
 10
301.6015326855184
 20
264.2027250373776
 30
0.0
 10
301.6015326233221
 20
264.3739206895516
 30
0.0
 10
301.5716413397065
 20
264.4921272112907
 30
0.0
 10
301.5118587724749
 20
264.5573446025951
 30
0.0
  0
SPLINE
  5
133A
330
1F
100
AcDbEntity
  8
AM_VIS
100
AcDbSpline
210
0.0
220
0.0
230
1.0
 70
     8
 71
     3
 72
     8
 73
     4
 74
     0
 42
0.0000000001
 43
0.0000000001
 40
0.0
 40
0.0
 40
0.0
 40
0.0
 40
80.0
 40
80.0
 40
80.0
 40
80.0
 10
301.5118587724749
 20
264.5573446025951
 30
0.0
 10
301.4629457289966
 20
264.61169240795
 30
0.0
 10
301.3624022300037
 20
264.6470185156385
 30
0.0
 10
301.2102283376923
 20
264.6633228634647
 30
0.0
  0
LINE
  5
133B
330
1F
100
AcDbEntity
  8
AM_VIS
100
AcDbLine
 10
301.2102283376923
 20
264.6633228634647
 30
0.0
 11
301.2102283376923
 21
264.7448446025951
 31
0.0
  0
LINE
  5
133C
330
1F
100
AcDbEntity
  8
AM_VIS
100
AcDbLine
 10
301.2102283376923
 20
264.7448446025951
 30
0.0
 11
302.2944674681271
 21
264.7448446025951
 31
0.0
  0
SPLINE
  5
133D
330
1F
100
AcDbEntity
  8
AM_VIS
100
AcDbSpline
210
0.0
220
0.0
230
1.0
 70
     8
 71
     3
 72
     8
 73
     4
 74
     0
 42
0.0000000001
 43
0.0000000001
 40
0.0
 40
0.0
 40
0.0
 40
0.0
 40
80.0
 40
80.0
 40
80.0
 40
80.0
 10
302.2944674681271
 20
264.7448446025951
 30
0.0
 10
302.5471848594313
 20
264.7448446025951
 30
0.0
 10
302.7550652942141
 20
264.7013663209935
 30
0.0
 10
302.9181087724749
 20
264.6144098199864
 30
0.0
  0
SPLINE
  5
133E
330
1F
100
AcDbEntity
  8
AM_VIS
100
AcDbSpline
210
0.0
220
0.0
230
1.0
 70
     8
 71
     3
 72
     8
 73
     4
 74
     0
 42
0.0000000001
 43
0.0000000001
 40
0.0
 40
0.0
 40
0.0
 40
0.0
 40
80.0
 40
80.0
 40
80.0
 40
80.0
 10
302.9181087724749
 20
264.6144098199864
 30
0.0
 10
303.1599565778297
 20
264.4839750373777
 30
0.0
 10
303.2808805116053
 20
264.2652250166456
 30
0.0
 10
303.2808805116053
 20
263.9581598199864
 30
0.0
  0
SPLINE
  5
133F
330
1F
100
AcDbEntity
  8
AM_VIS
100
AcDbSpline
210
0.0
220
0.0
230
1.0
 70
     8
 71
     3
 72
     8
 73
     4
 74
     0
 42
0.0000000001
 43
0.0000000001
 40
0.0
 40
0.0
 40
0.0
 40
0.0
 40
80.0
 40
80.0
 40
80.0
 40
80.0
 10
303.2808805116053
 20
263.9581598199864
 30
0.0
 10
303.2808805116053
 20
263.7000076046092
 30
0.0
 10
303.1844130995689
 20
263.5070728427326
 30
0.0
 10
302.9914783376923
 20
263.3793554721603
 30
0.0
  0
SPLINE
  5
1340
330
1F
100
AcDbEntity
  8
AM_VIS
100
AcDbSpline
210
0.0
220
0.0
230
1.0
 70
     8
 71
     3
 72
     8
 73
     4
 74
     0
 42
0.0000000001
 43
0.0000000001
 40
0.0
 40
0.0
 40
0.0
 40
0.0
 40
80.0
 40
80.0
 40
80.0
 40
80.0
 10
302.9914783376923
 20
263.3793554721603
 30
0.0
 10
302.8827826647862
 20
263.3059859069429
 30
0.0
 10
302.7265326855184
 20
263.2502793644718
 30
0.0
 10
302.5227283376923
 20
263.2122359069429
 30
0.0
  0
LINE
  5
1341
330
1F
100
AcDbEntity
  8
AM_VIS
100
AcDbLine
 10
302.5227283376923
 20
263.2122359069429
 30
0.0
 11
303.3460979029096
 21
261.9894098199864
 31
0.0
  0
SPLINE
  5
1342
330
1F
100
AcDbEntity
  8
AM_VIS
100
AcDbSpline
210
0.0
220
0.0
230
1.0
 70
     8
 71
     3
 72
     8
 73
     4
 74
     0
 42
0.0000000001
 43
0.0000000001
 40
0.0
 40
0.0
 40
0.0
 40
0.0
 40
80.0
 40
80.0
 40
80.0
 40
80.0
 10
303.3460979029096
 20
261.9894098199864
 30
0.0
 10
303.4004457082644
 20
261.9051707310157
 30
0.0
 10
303.5281630788368
 20
261.8508228634647
 30
0.0
 10
303.7292500768226
 20
261.8263663417256
 30
0.0
  0
LINE
  5
1343
330
1F
100
AcDbEntity
  8
AM_VIS
100
AcDbLine
 10
303.7292500768226
 20
261.8263663417256
 30
0.0
 11
303.7292500768226
 21
261.7448446025951
 31
0.0
  0
CIRCLE
  5
1344
330
1F
100
AcDbEntity
  8
AM_VIS
100
AcDbCircle
 10
283.2292500768422
 20
252.7448446025951
 30
0.0
 40
7.5
  0
CIRCLE
  5
1345
330
1F
100
AcDbEntity
  8
AM_VIS
100
AcDbCircle
 10
283.2292500768422
 20
252.7448446025951
 30
0.0
 40
8.649999999999998
  0
CIRCLE
  5
1346
330
1F
100
AcDbEntity
  8
AM_VIS
100
AcDbCircle
 10
309.2292500768422
 20
252.7448446025951
 30
0.0
 40
8.65
  0
CIRCLE
  5
1347
330
1F
100
AcDbEntity
  8
AM_VIS
100
AcDbCircle
 10
309.2292500768422
 20
252.7448446025951
 30
0.0
 40
7.5
  0
ARC
  5
1348
330
1F
100
AcDbEntity
  8
AM_VIS
100
AcDbCircle
 10
283.2292500768422
 20
248.7448446025951
 30
0.0
 40
2.5
100
AcDbArc
 50
180.0
 51
0.0
  0
ARC
  5
1349
330
1F
100
AcDbEntity
  8
AM_VIS
100
AcDbCircle
 10
307.2292500768422
 20
248.7448446025951
 30
0.0
 40
2.5
100
AcDbArc
 50
180.0
 51
0.0
  0
CIRCLE
  5
134A
330
1F
100
AcDbEntity
  8
AM_VIS
100
AcDbCircle
 10
313.2292500768422
 20
264.2448446025951
 30
0.0
 40
2.25
  0
CIRCLE
  5
134B
330
1F
100
AcDbEntity
  8
AM_VIS
100
AcDbCircle
 10
272.2292500768419
 20
241.2448446025951
 30
0.0
 40
2.25
  0
ARC
  5
134C
330
1F
100
AcDbEntity
  8
AM_VIS
100
AcDbCircle
 10
307.2292500768422
 20
256.7448446025951
 30
0.0
 40
2.5
100
AcDbArc
 50
0.0
 51
180.0
  0
ARC
  5
134D
330
1F
100
AcDbEntity
  8
AM_VIS
100
AcDbCircle
 10
283.2292500768422
 20
256.7448446025951
 30
0.0
 40
2.500000000000003
100
AcDbArc
 50
0.0
 51
180.0
  0
LINE
  5
134E
330
1F
100
AcDbEntity
  8
AM_7
  6
AM_ISO08W050x2
100
AcDbLine
 10
272.2292500768422
 20
450.5990877172349
 30
0.0
 11
278.2292500768422
 21
450.5990877172349
 31
0.0
1001
GENIUS_GENOREF_13
1005
1444
  0
LINE
  5
134F
102
{ACAD_REACTORS
330
135C
102
}
330
1F
100
AcDbEntity
  8
AM_7
  6
AM_ISO08W050x2
100
AcDbLine
 10
272.2292500768422
 20
450.5990877172349
 30
0.0
 11
272.2292500768422
 21
456.599087717235
 31
0.0
1001
GENIUS_GENOREF_13
1005
1444
  0
LINE
  5
1350
330
1F
100
AcDbEntity
  8
AM_7
  6
AM_ISO08W050x2
100
AcDbLine
 10
272.2292500768422
 20
450.5990877172349
 30
0.0
 11
266.2292500768422
 21
450.5990877172349
 31
0.0
1001
GENIUS_GENOREF_13
1005
1444
  0
LINE
  5
1351
330
1F
100
AcDbEntity
  8
AM_7
  6
AM_ISO08W050x2
100
AcDbLine
 10
272.2292500768422
 20
450.5990877172349
 30
0.0
 11
272.2292500768422
 21
444.5990877172349
 31
0.0
1001
GENIUS_GENOREF_13
1005
1444
  0
LINE
  5
1352
330
1F
100
AcDbEntity
  8
AM_7
  6
AM_ISO08W050x2
100
AcDbLine
 10
313.2292500768424
 20
427.599087717235
 30
0.0
 11
319.2292500768424
 21
427.599087717235
 31
0.0
1001
GENIUS_GENOREF_13
1005
1443
  0
LINE
  5
1353
102
{ACAD_REACTORS
330
135C
102
}
330
1F
100
AcDbEntity
  8
AM_7
  6
AM_ISO08W050x2
100
AcDbLine
 10
313.2292500768424
 20
427.599087717235
 30
0.0
 11
313.2292500768424
 21
433.5990877172349
 31
0.0
1001
GENIUS_GENOREF_13
1005
1443
  0
LINE
  5
1354
330
1F
100
AcDbEntity
  8
AM_7
  6
AM_ISO08W050x2
100
AcDbLine
 10
313.2292500768424
 20
427.599087717235
 30
0.0
 11
307.2292500768424
 21
427.599087717235
 31
0.0
1001
GENIUS_GENOREF_13
1005
1443
  0
LINE
  5
1355
330
1F
100
AcDbEntity
  8
AM_7
  6
AM_ISO08W050x2
100
AcDbLine
 10
313.2292500768424
 20
427.599087717235
 30
0.0
 11
313.2292500768424
 21
421.5990877172349
 31
0.0
1001
GENIUS_GENOREF_13
1005
1443
  0
LINE
  5
1356
330
1F
100
AcDbEntity
  8
AM_7
100
AcDbLine
 10
298.2292500768424
 20
439.0990877172349
 30
0.0
 11
308.8792500768425
 21
439.0990877172349
 31
0.0
1001
GENIUS_GENOREF_13
1005
1442
  0
LINE
  5
1357
330
1F
100
AcDbEntity
  8
AM_7
100
AcDbLine
 10
298.2292500768424
 20
439.0990877172349
 30
0.0
 11
298.2292500768424
 21
449.7490877172349
 31
0.0
1001
GENIUS_GENOREF_13
1005
1442
  0
LINE
  5
1358
330
1F
100
AcDbEntity
  8
AM_7
100
AcDbLine
 10
298.2292500768424
 20
439.0990877172349
 30
0.0
 11
287.5792500768423
 21
439.0990877172349
 31
0.0
1001
GENIUS_GENOREF_13
1005
1442
  0
LINE
  5
1359
330
1F
100
AcDbEntity
  8
AM_7
100
AcDbLine
 10
298.2292500768424
 20
439.0990877172349
 30
0.0
 11
298.2292500768424
 21
428.4490877172349
 31
0.0
1001
GENIUS_GENOREF_13
1005
1442
  0
DIMENSION
  5
135A
102
{ACAD_XDICTIONARY
360
135B
102
}
102
{ACAD_REACTORS
330
135C
102
}
330
1F
100
AcDbEntity
  8
AM_5
100
AcDbDimension
  2
*D35
 10
313.2292500768424
 20
467.0990877172349
 30
0.0
 11
292.7292500768423
 21
471.4990877172349
 31
0.0
 70
    32
 71
     5
 42
41.00000000000022
  3
AM_ISO$0
100
AcDbAlignedDimension
 13
272.2292500768422
 23
456.599087717235
 33
0.0
 14
313.2292500768424
 24
433.5990877172349
 34
0.0
100
AcDbRotatedDimension
1001
ACAD
1000
DSTYLE
1002
{
1070
    40
1040
1.6
1070
   147
1040
1.0
1070
   272
1070
     8
1002
}
  0
LINE
  5
135D
330
1F
100
AcDbEntity
  8
AM_7
100
AcDbLine
 10
283.2292500768422
 20
252.7448446025951
 30
0.0
 11
293.879250076842
 21
252.7448446025951
 31
0.0
1001
GENIUS_GENOREF_13
1005
1441
  0
LINE
  5
135E
330
1F
100
AcDbEntity
  8
AM_7
100
AcDbLine
 10
283.2292500768422
 20
252.7448446025951
 30
0.0
 11
283.2292500768422
 21
263.3948446025951
 31
0.0
1001
GENIUS_GENOREF_13
1005
1441
  0
LINE
  5
135F
330
1F
100
AcDbEntity
  8
AM_7
100
AcDbLine
 10
283.2292500768422
 20
252.7448446025951
 30
0.0
 11
272.5792500768423
 21
252.7448446025951
 31
0.0
1001
GENIUS_GENOREF_13
1005
1441
  0
LINE
  5
1360
330
1F
100
AcDbEntity
  8
AM_7
100
AcDbLine
 10
283.2292500768422
 20
252.7448446025951
 30
0.0
 11
283.2292500768422
 21
242.0948446025951
 31
0.0
1001
GENIUS_GENOREF_13
1005
1441
  0
LINE
  5
1361
330
1F
100
AcDbEntity
  8
AM_7
100
AcDbLine
 10
309.2292500768422
 20
252.7448446025951
 30
0.0
 11
319.879250076842
 21
252.7448446025951
 31
0.0
1001
GENIUS_GENOREF_13
1005
1440
  0
LINE
  5
1362
330
1F
100
AcDbEntity
  8
AM_7
100
AcDbLine
 10
309.2292500768422
 20
252.7448446025951
 30
0.0
 11
309.2292500768422
 21
263.3948446025951
 31
0.0
1001
GENIUS_GENOREF_13
1005
1440
  0
LINE
  5
1363
330
1F
100
AcDbEntity
  8
AM_7
100
AcDbLine
 10
309.2292500768422
 20
252.7448446025951
 30
0.0
 11
298.5792500768423
 21
252.7448446025951
 31
0.0
1001
GENIUS_GENOREF_13
1005
1440
  0
LINE
  5
1364
330
1F
100
AcDbEntity
  8
AM_7
100
AcDbLine
 10
309.2292500768422
 20
252.7448446025951
 30
0.0
 11
309.2292500768422
 21
242.0948446025951
 31
0.0
1001
GENIUS_GENOREF_13
1005
1440
  0
LINE
  5
1365
330
1F
100
AcDbEntity
  8
AM_7
  6
AM_ISO08W050x2
100
AcDbLine
 10
313.2292500768422
 20
264.2448446025951
 30
0.0
 11
317.4792500768422
 21
264.2448446025951
 31
0.0
1001
GENIUS_GENOREF_13
1005
143F
  0
LINE
  5
1366
330
1F
100
AcDbEntity
  8
AM_7
  6
AM_ISO08W050x2
100
AcDbLine
 10
313.2292500768422
 20
264.2448446025951
 30
0.0
 11
313.2292500768422
 21
268.4948446025951
 31
0.0
1001
GENIUS_GENOREF_13
1005
143F
  0
LINE
  5
1367
330
1F
100
AcDbEntity
  8
AM_7
  6
AM_ISO08W050x2
100
AcDbLine
 10
313.2292500768422
 20
264.2448446025951
 30
0.0
 11
308.9792500768421
 21
264.2448446025951
 31
0.0
1001
GENIUS_GENOREF_13
1005
143F
  0
LINE
  5
1368
330
1F
100
AcDbEntity
  8
AM_7
  6
AM_ISO08W050x2
100
AcDbLine
 10
313.2292500768422
 20
264.2448446025951
 30
0.0
 11
313.2292500768422
 21
259.9948446025951
 31
0.0
1001
GENIUS_GENOREF_13
1005
143F
  0
LINE
  5
1369
330
1F
100
AcDbEntity
  8
AM_7
  6
AM_ISO08W050x2
100
AcDbLine
 10
272.2292500768419
 20
241.2448446025951
 30
0.0
 11
276.4792500768419
 21
241.2448446025951
 31
0.0
1001
GENIUS_GENOREF_13
1005
143E
  0
LINE
  5
136A
330
1F
100
AcDbEntity
  8
AM_7
  6
AM_ISO08W050x2
100
AcDbLine
 10
272.2292500768419
 20
241.2448446025951
 30
0.0
 11
272.2292500768419
 21
245.4948446025951
 31
0.0
1001
GENIUS_GENOREF_13
1005
143E
  0
LINE
  5
136B
330
1F
100
AcDbEntity
  8
AM_7
  6
AM_ISO08W050x2
100
AcDbLine
 10
272.2292500768419
 20
241.2448446025951
 30
0.0
 11
267.979250076842
 21
241.2448446025951
 31
0.0
1001
GENIUS_GENOREF_13
1005
143E
  0
LINE
  5
136C
330
1F
100
AcDbEntity
  8
AM_7
  6
AM_ISO08W050x2
100
AcDbLine
 10
272.2292500768419
 20
241.2448446025951
 30
0.0
 11
272.2292500768419
 21
236.9948446025951
 31
0.0
1001
GENIUS_GENOREF_13
1005
143E
  0
LINE
  5
136D
330
1F
100
AcDbEntity
  8
AM_7
  6
AM_ISO08W050x2
100
AcDbLine
 10
296.2292500768421
 20
323.0733301986496
 30
0.0
 11
300.4792500768421
 21
323.0733301986496
 31
0.0
1001
GENIUS_GENOREF_13
1005
143D
  0
LINE
  5
136E
330
1F
100
AcDbEntity
  8
AM_7
  6
AM_ISO08W050x2
100
AcDbLine
 10
296.2292500768421
 20
323.0733301986496
 30
0.0
 11
296.2292500768421
 21
327.3233301986496
 31
0.0
1001
GENIUS_GENOREF_13
1005
143D
  0
LINE
  5
136F
330
1F
100
AcDbEntity
  8
AM_7
  6
AM_ISO08W050x2
100
AcDbLine
 10
296.2292500768421
 20
323.0733301986496
 30
0.0
 11
291.9792500768421
 21
323.0733301986496
 31
0.0
1001
GENIUS_GENOREF_13
1005
143D
  0
LINE
  5
1370
330
1F
100
AcDbEntity
  8
AM_7
  6
AM_ISO08W050x2
100
AcDbLine
 10
296.2292500768421
 20
323.0733301986496
 30
0.0
 11
296.2292500768421
 21
318.8233301986496
 31
0.0
1001
GENIUS_GENOREF_13
1005
143D
  0
LINE
  5
1371
330
1F
100
AcDbEntity
  8
AM_7
  6
AM_ISO08W050x2
100
AcDbLine
 10
270.2292500768422
 20
323.0733301986496
 30
0.0
 11
274.4792500768422
 21
323.0733301986496
 31
0.0
1001
GENIUS_GENOREF_13
1005
143C
  0
LINE
  5
1372
330
1F
100
AcDbEntity
  8
AM_7
  6
AM_ISO08W050x2
100
AcDbLine
 10
270.2292500768422
 20
323.0733301986496
 30
0.0
 11
270.2292500768422
 21
327.3233301986496
 31
0.0
1001
GENIUS_GENOREF_13
1005
143C
  0
LINE
  5
1373
330
1F
100
AcDbEntity
  8
AM_7
  6
AM_ISO08W050x2
100
AcDbLine
 10
270.2292500768422
 20
323.0733301986496
 30
0.0
 11
265.9792500768422
 21
323.0733301986496
 31
0.0
1001
GENIUS_GENOREF_13
1005
143C
  0
LINE
  5
1374
330
1F
100
AcDbEntity
  8
AM_7
  6
AM_ISO08W050x2
100
AcDbLine
 10
270.2292500768422
 20
323.0733301986496
 30
0.0
 11
270.2292500768422
 21
318.8233301986496
 31
0.0
1001
GENIUS_GENOREF_13
1005
143C
  0
DIMENSION
  5
1375
102
{ACAD_XDICTIONARY
360
1376
102
}
102
{ACAD_REACTORS
330
1377
102
}
330
1F
100
AcDbEntity
  8
AM_5
100
AcDbDimension
  2
*D36
 10
302.3292923909715
 20
358.4733301986496
 30
0.0
 11
302.3292923909715
 21
375.6733301986498
 31
0.0
 70
   160
 71
     5
 42
4.000000000000113
  3
AM_ISO$0
100
AcDbAlignedDimension
 13
309.2292500768422
 23
362.4733301986497
 33
0.0
 14
309.2292500768422
 24
358.4733301986496
 34
0.0
 50
90.0
100
AcDbRotatedDimension
1001
ACAD
1000
DSTYLE
1002
{
1070
    40
1040
1.6
1070
   147
1040
1.0
1070
   272
1070
     8
1002
}
  0
INSERT
  5
1378
330
1F
100
AcDbEntity
  8
AM_5
100
AcDbBlockReference
  2
*S38
 10
0.0
 20
0.0
 30
0.0
  0
INSERT
  5
1379
330
1F
100
AcDbEntity
  8
AM_5
100
AcDbBlockReference
  2
*S39
 10
0.0
 20
0.0
 30
0.0
  0
INSERT
  5
137A
330
1F
100
AcDbEntity
  8
AM_5
100
AcDbBlockReference
  2
*S40
 10
0.0
 20
0.0
 30
0.0
  0
LINE
  5
137B
330
1F
100
AcDbEntity
  8
AM_VIS
100
AcDbLine
 10
456.9689899807333
 20
318.5312010842121
 30
0.0
 11
458.0649802384032
 21
319.6271913418817
 31
0.0
  0
LINE
  5
137C
330
1F
100
AcDbEntity
  8
AM_VIS
100
AcDbLine
 10
456.9689899807333
 20
318.5312010842119
 30
0.0
 11
457.6826636339294
 21
319.6271913418817
 31
0.0
  0
CIRCLE
  5
137D
330
1F
100
AcDbEntity
  8
AM_VIS
100
AcDbCircle
 10
458.5599802384028
 20
320.1221913418818
 30
0.0
 40
4.199999999999988
  0
LINE
  5
137E
330
1F
100
AcDbEntity
  8
AM_VIS
100
AcDbLine
 10
461.659980238403
 20
316.3221913418819
 30
0.0
 11
433.459980238403
 21
316.3221913418819
 31
0.0
  0
LINE
  5
137F
330
1F
100
AcDbEntity
  8
AM_VIS
100
AcDbLine
 10
432.959980238403
 20
316.8221913418819
 30
0.0
 11
432.959980238403
 21
361.4221913418818
 31
0.0
  0
LINE
  5
1380
330
1F
100
AcDbEntity
  8
AM_VIS
100
AcDbLine
 10
433.459980238403
 20
361.9221913418818
 30
0.0
 11
437.0599802384028
 21
361.9221913418816
 31
0.0
  0
LINE
  5
1381
330
1F
100
AcDbEntity
  8
AM_VIS
100
AcDbLine
 10
458.0599802384031
 20
361.9221913418819
 30
0.0
 11
461.659980238403
 21
361.9221913418818
 31
0.0
  0
LINE
  5
1382
330
1F
100
AcDbEntity
  8
AM_VIS
100
AcDbLine
 10
462.159980238403
 20
319.0721913418818
 30
0.0
 11
462.159980238403
 21
316.8221913418819
 31
0.0
  0
LINE
  5
1383
330
1F
100
AcDbEntity
  8
AM_VIS
100
AcDbLine
 10
462.159980238403
 20
361.4221913418818
 30
0.0
 11
462.159980238403
 21
321.1721913418818
 31
0.0
  0
ARC
  5
1384
330
1F
100
AcDbEntity
  8
AM_VIS
100
AcDbCircle
 10
440.059980238403
 20
357.1221913418818
 30
0.0
 40
3.75
100
AcDbArc
 50
143.1301023541507
 51
201.0394697813111
  0
ARC
  5
1385
330
1F
100
AcDbEntity
  8
AM_VIS
100
AcDbCircle
 10
458.5599802384028
 20
320.1221913418818
 30
0.0
 40
3.75
100
AcDbArc
 50
16.26020470830675
 51
343.7397952916933
  0
ARC
  5
1386
330
1F
100
AcDbEntity
  8
AM_VIS
100
AcDbCircle
 10
461.659980238403
 20
316.8221913418819
 30
0.0
 40
0.5
100
AcDbArc
 50
270.0
 51
0.0
  0
ARC
  5
1387
330
1F
100
AcDbEntity
  8
AM_VIS
100
AcDbCircle
 10
433.459980238403
 20
316.8221913418819
 30
0.0
 40
0.5
100
AcDbArc
 50
180.0
 51
270.0
  0
ARC
  5
1388
330
1F
100
AcDbEntity
  8
AM_VIS
100
AcDbCircle
 10
433.459980238403
 20
361.4221913418818
 30
0.0
 40
0.5
100
AcDbArc
 50
90.0
 51
180.0
  0
ARC
  5
1389
330
1F
100
AcDbEntity
  8
AM_VIS
100
AcDbCircle
 10
461.659980238403
 20
361.4221913418818
 30
0.0
 40
0.5
100
AcDbArc
 50
0.0
 51
90.0
  0
LINE
  5
138A
330
1F
100
AcDbEntity
  8
AM_VIS
100
AcDbLine
 10
432.5599802384031
 20
316.0733301986496
 30
0.0
 11
432.5599802384031
 21
362.171052485114
 31
0.0
  0
LINE
  5
138B
330
1F
100
AcDbEntity
  8
AM_VIS
100
AcDbLine
 10
432.7948185393222
 20
362.3221913418819
 30
0.0
 11
437.0599802384028
 21
362.3221913418821
 31
0.0
  0
LINE
  5
138C
330
1F
100
AcDbEntity
  8
AM_VIS
100
AcDbLine
 10
458.0599802384031
 20
362.322191341882
 30
0.0
 11
462.3251419374837
 21
362.3221913418819
 31
0.0
  0
LINE
  5
138D
330
1F
100
AcDbEntity
  8
AM_VIS
100
AcDbLine
 10
462.5599802384031
 20
362.171052485114
 30
0.0
 11
462.5599802384031
 21
321.4028161893683
 31
0.0
  0
LINE
  5
138E
330
1F
100
AcDbEntity
  8
AM_VIS
100
AcDbLine
 10
462.5599802384031
 20
318.8415664943954
 30
0.0
 11
462.5599802384031
 21
316.0733301986496
 31
0.0
  0
LINE
  5
138F
330
1F
100
AcDbEntity
  8
AM_VIS
100
AcDbLine
 10
462.3251419374837
 20
315.9221913418818
 30
0.0
 11
432.7948185393222
 21
315.9221913418818
 31
0.0
  0
LINE
  5
1390
330
1F
100
AcDbEntity
  8
AM_VIS
100
AcDbLine
 10
462.5599802384031
 20
362.3221913418819
 30
0.0
 11
462.1410586801257
 21
361.9032697836046
 31
0.0
  0
LINE
  5
1391
330
1F
100
AcDbEntity
  8
AM_VIS
100
AcDbLine
 10
462.5599802384031
 20
315.9221913418818
 30
0.0
 11
462.1410586801257
 21
316.341112900159
 31
0.0
  0
LINE
  5
1392
330
1F
100
AcDbEntity
  8
AM_VIS
100
AcDbLine
 10
432.5599802384031
 20
362.3221913418819
 30
0.0
 11
432.9789017966802
 21
361.9032697836046
 31
0.0
  0
LINE
  5
1393
330
1F
100
AcDbEntity
  8
AM_VIS
100
AcDbLine
 10
432.5599802384028
 20
315.9221913418818
 30
0.0
 11
432.9789017966802
 21
316.341112900159
 31
0.0
  0
LINE
  5
1394
330
1F
100
AcDbEntity
  8
AM_VIS
100
AcDbLine
 10
432.9789017966802
 20
361.5584393984169
 30
0.0
 11
432.9789017966802
 21
361.9032697836046
 31
0.0
  0
LINE
  5
1395
330
1F
100
AcDbEntity
  8
AM_VIS
100
AcDbLine
 10
432.9789017966802
 20
361.9032697836046
 30
0.0
 11
433.3237321818678
 21
361.9032697836046
 31
0.0
  0
LINE
  5
1396
330
1F
100
AcDbEntity
  8
AM_VIS
100
AcDbLine
 10
461.7962282949381
 20
361.9032697836046
 30
0.0
 11
462.141058680126
 21
361.9032697836046
 31
0.0
  0
LINE
  5
1397
330
1F
100
AcDbEntity
  8
AM_VIS
100
AcDbLine
 10
462.1410586801257
 20
361.9032697836046
 30
0.0
 11
462.1410586801257
 21
361.5584393984169
 31
0.0
  0
LINE
  5
1398
330
1F
100
AcDbEntity
  8
AM_VIS
100
AcDbLine
 10
462.1410586801257
 20
316.6859432853467
 30
0.0
 11
462.1410586801257
 21
316.341112900159
 31
0.0
  0
LINE
  5
1399
330
1F
100
AcDbEntity
  8
AM_VIS
100
AcDbLine
 10
462.1410586801257
 20
316.341112900159
 30
0.0
 11
461.7962282949381
 21
316.341112900159
 31
0.0
  0
LINE
  5
139A
330
1F
100
AcDbEntity
  8
AM_VIS
100
AcDbLine
 10
433.3237321818678
 20
316.341112900159
 30
0.0
 11
432.9789017966802
 21
316.341112900159
 31
0.0
  0
LINE
  5
139B
330
1F
100
AcDbEntity
  8
AM_VIS
100
AcDbLine
 10
432.9789017966802
 20
316.341112900159
 30
0.0
 11
432.9789017966802
 21
316.6859432853467
 31
0.0
  0
LINE
  5
139C
330
1F
100
AcDbEntity
  8
AM_VIS
100
AcDbLine
 10
432.5599802384031
 20
315.9221913418818
 30
0.0
 11
432.5599802384031
 21
337.1221913418818
 31
0.0
  0
LINE
  5
139D
330
1F
100
AcDbEntity
  8
AM_VIS
100
AcDbLine
 10
462.5599802384028
 20
315.9221913418818
 30
0.0
 11
432.5599802384028
 21
315.9221913418818
 31
0.0
  0
LINE
  5
139E
330
1F
100
AcDbEntity
  8
AM_VIS
100
AcDbLine
 10
462.5599802384028
 20
362.3221913418819
 30
0.0
 11
462.5599802384028
 21
321.4028161893683
 31
0.0
  0
LINE
  5
139F
330
1F
100
AcDbEntity
  8
AM_VIS
100
AcDbLine
 10
462.5599802384028
 20
318.8415664943954
 30
0.0
 11
462.5599802384028
 21
315.9221913418818
 31
0.0
  0
LINE
  5
13A0
330
1F
100
AcDbEntity
  8
AM_VIS
100
AcDbLine
 10
432.5599802384031
 20
362.3221913418819
 30
0.0
 11
437.0599802384028
 21
362.3221913418817
 31
0.0
  0
LINE
  5
13A1
330
1F
100
AcDbEntity
  8
AM_VIS
100
AcDbLine
 10
458.0599802384031
 20
362.322191341882
 30
0.0
 11
462.5599802384031
 21
362.3221913418819
 31
0.0
  0
LINE
  5
13A2
330
1F
100
AcDbEntity
  8
AM_VIS
100
AcDbLine
 10
432.5599802384031
 20
341.1221913418818
 30
0.0
 11
432.5599802384031
 21
362.3221913418819
 31
0.0
  0
LINE
  5
13A3
330
1F
100
AcDbEntity
  8
AM_VIS
100
AcDbLine
 10
432.5774353033311
 20
341.1221913418818
 30
0.0
 11
432.5774353033311
 21
337.1221913418818
 31
0.0
  0
LINE
  5
13A4
330
1F
100
AcDbEntity
  8
AM_VIS
100
AcDbLine
 10
432.5599802384031
 20
341.1221913418818
 30
0.0
 11
432.5774353033311
 21
341.1221913418818
 31
0.0
  0
LINE
  5
13A5
330
1F
100
AcDbEntity
  8
AM_VIS
100
AcDbLine
 10
432.5774353033311
 20
337.1221913418818
 30
0.0
 11
432.5599802384031
 21
337.1221913418818
 31
0.0
  0
ARC
  5
13A6
330
1F
100
AcDbEntity
  8
AM_VIS
100
AcDbCircle
 10
440.059980238403
 20
357.1221913418818
 30
0.0
 40
4.199999999999988
100
AcDbArc
 50
135.5846914028123
 51
213.5573097619275
  0
LINE
  5
13A7
330
1F
100
AcDbEntity
  8
AM_VIS
100
AcDbLine
 10
459.054980238403
 20
317.8721913418818
 30
0.0
 11
458.0649802384029
 21
317.8721913418818
 31
0.0
  0
LINE
  5
13A8
330
1F
100
AcDbEntity
  8
AM_VIS
100
AcDbLine
 10
458.0649802384029
 20
317.8721913418818
 30
0.0
 11
458.0649802384029
 21
319.2448747374081
 31
0.0
  0
LINE
  5
13A9
330
1F
100
AcDbEntity
  8
AM_VIS
100
AcDbLine
 10
459.054980238403
 20
320.1221913418818
 30
0.0
 11
458.5599802384028
 21
320.1221913418818
 31
0.0
  0
LINE
  5
13AA
330
1F
100
AcDbEntity
  8
AM_VIS
100
AcDbLine
 10
458.0649802384029
 20
322.3721913418818
 30
0.0
 11
459.054980238403
 21
322.3721913418818
 31
0.0
  0
LINE
  5
13AB
330
1F
100
AcDbEntity
  8
AM_VIS
100
AcDbLine
 10
458.5599802384028
 20
320.1221913418818
 30
0.0
 11
458.0649802384029
 21
320.1221913418818
 31
0.0
  0
LINE
  5
13AC
330
1F
100
AcDbEntity
  8
AM_VIS
100
AcDbLine
 10
459.054980238403
 20
322.3721913418818
 30
0.0
 11
459.054980238403
 21
320.9995079463556
 31
0.0
  0
LINE
  5
13AD
330
1F
100
AcDbEntity
  8
AM_VIS
100
AcDbLine
 10
458.0649802384029
 20
320.6171913418817
 30
0.0
 11
458.0649802384029
 21
319.6271913418817
 31
0.0
  0
LINE
  5
13AE
330
1F
100
AcDbEntity
  8
AM_VIS
100
AcDbLine
 10
456.3099802384028
 20
319.6271913418817
 30
0.0
 11
456.3099802384028
 21
320.6171913418817
 31
0.0
  0
LINE
  5
13AF
330
1F
100
AcDbEntity
  8
AM_VIS
100
AcDbLine
 10
458.5599802384031
 20
320.1221913418818
 30
0.0
 11
458.0649802384029
 21
320.6171913418818
 31
0.0
  0
LINE
  5
13B0
330
1F
100
AcDbEntity
  8
AM_VIS
100
AcDbLine
 10
458.0649802384029
 20
319.6271913418817
 30
0.0
 11
458.5599802384028
 21
320.1221913418818
 31
0.0
  0
LINE
  5
13B1
330
1F
100
AcDbEntity
  8
AM_VIS
100
AcDbLine
 10
458.5599802384028
 20
320.1221913418818
 30
0.0
 11
458.5599802384028
 21
320.6171913418817
 31
0.0
  0
LINE
  5
13B2
330
1F
100
AcDbEntity
  8
AM_VIS
100
AcDbLine
 10
459.054980238403
 20
320.6171913418817
 30
0.0
 11
458.5599802384031
 21
320.1221913418818
 31
0.0
  0
LINE
  5
13B3
330
1F
100
AcDbEntity
  8
AM_VIS
100
AcDbLine
 10
459.054980238403
 20
319.6271913418817
 30
0.0
 11
459.054980238403
 21
320.6171913418817
 31
0.0
  0
LINE
  5
13B4
330
1F
100
AcDbEntity
  8
AM_VIS
100
AcDbLine
 10
460.8099802384028
 20
320.6171913418817
 30
0.0
 11
460.8099802384028
 21
319.6271913418817
 31
0.0
  0
LINE
  5
13B5
330
1F
100
AcDbEntity
  8
AM_VIS
100
AcDbLine
 10
458.5599802384028
 20
319.6271913418817
 30
0.0
 11
458.5599802384028
 21
320.1221913418818
 31
0.0
  0
LINE
  5
13B6
330
1F
100
AcDbEntity
  8
AM_VIS
100
AcDbLine
 10
458.5599802384031
 20
320.1221913418818
 30
0.0
 11
459.054980238403
 21
319.6271913418817
 31
0.0
  0
LINE
  5
13B7
330
1F
100
AcDbEntity
  8
AM_VIS
100
AcDbLine
 10
456.3099802384028
 20
320.6171913418817
 30
0.0
 11
457.6826636339291
 21
320.6171913418817
 31
0.0
  0
LINE
  5
13B8
330
1F
100
AcDbEntity
  8
AM_VIS
100
AcDbLine
 10
458.0649802384029
 20
320.6171913418817
 30
0.0
 11
459.054980238403
 21
320.6171913418817
 31
0.0
  0
LINE
  5
13B9
330
1F
100
AcDbEntity
  8
AM_VIS
100
AcDbLine
 10
460.8099802384028
 20
319.6271913418817
 30
0.0
 11
459.4372968428768
 21
319.6271913418817
 31
0.0
  0
LINE
  5
13BA
330
1F
100
AcDbEntity
  8
AM_VIS
100
AcDbLine
 10
459.054980238403
 20
319.6271913418817
 30
0.0
 11
458.0649802384029
 21
319.6271913418817
 31
0.0
  0
LINE
  5
13BB
330
1F
100
AcDbEntity
  8
AM_VIS
100
AcDbLine
 10
458.0649802384029
 20
320.9995079463553
 30
0.0
 11
458.0649802384029
 21
322.3721913418818
 31
0.0
  0
LINE
  5
13BC
330
1F
100
AcDbEntity
  8
AM_VIS
100
AcDbLine
 10
459.054980238403
 20
319.2448747374084
 30
0.0
 11
459.054980238403
 21
317.8721913418818
 31
0.0
  0
LINE
  5
13BD
330
1F
100
AcDbEntity
  8
AM_VIS
100
AcDbLine
 10
459.4372968428763
 20
320.6171913418817
 30
0.0
 11
460.8099802384031
 21
320.6171913418816
 31
0.0
  0
LINE
  5
13BE
330
1F
100
AcDbEntity
  8
AM_VIS
100
AcDbLine
 10
457.6826636339294
 20
319.6271913418817
 30
0.0
 11
456.3099802384028
 21
319.6271913418817
 31
0.0
  0
LINE
  5
13BF
330
1F
100
AcDbEntity
  8
AM_VIS
100
AcDbLine
 10
458.0649802384027
 20
320.6171913418817
 30
0.0
 11
457.6826636339294
 21
320.6171913418817
 31
0.0
  0
LINE
  5
13C0
330
1F
100
AcDbEntity
  8
AM_VIS
100
AcDbLine
 10
457.6826636339294
 20
320.6171913418817
 30
0.0
 11
456.9689899807333
 21
321.7131815995514
 31
0.0
  0
LINE
  5
13C1
330
1F
100
AcDbEntity
  8
AM_VIS
100
AcDbLine
 10
458.0649802384029
 20
320.9995079463551
 30
0.0
 11
458.0649802384029
 21
320.6171913418815
 31
0.0
  0
LINE
  5
13C2
330
1F
100
AcDbEntity
  8
AM_VIS
100
AcDbLine
 10
456.9689899807333
 20
321.7131815995515
 30
0.0
 11
458.0649802384029
 21
320.6171913418817
 31
0.0
  0
LINE
  5
13C3
330
1F
100
AcDbEntity
  8
AM_VIS
100
AcDbLine
 10
456.9689899807333
 20
321.7131815995515
 30
0.0
 11
458.0649802384029
 21
320.9995079463553
 31
0.0
  0
LINE
  5
13C4
330
1F
100
AcDbEntity
  8
AM_VIS
100
AcDbLine
 10
459.0549802384034
 20
319.6271913418817
 30
0.0
 11
459.4372968428768
 21
319.6271913418817
 31
0.0
  0
LINE
  5
13C5
330
1F
100
AcDbEntity
  8
AM_VIS
100
AcDbLine
 10
459.4372968428768
 20
319.6271913418817
 30
0.0
 11
460.1509704960728
 21
318.5312010842122
 31
0.0
  0
LINE
  5
13C6
330
1F
100
AcDbEntity
  8
AM_VIS
100
AcDbLine
 10
459.054980238403
 20
319.2448747374084
 30
0.0
 11
459.054980238403
 21
319.6271913418819
 31
0.0
  0
LINE
  5
13C7
330
1F
100
AcDbEntity
  8
AM_VIS
100
AcDbLine
 10
460.1509704960728
 20
318.5312010842122
 30
0.0
 11
459.0549802384034
 21
319.6271913418817
 31
0.0
  0
LINE
  5
13C8
330
1F
100
AcDbEntity
  8
AM_VIS
100
AcDbLine
 10
460.1509704960728
 20
318.5312010842122
 30
0.0
 11
459.054980238403
 21
319.2448747374084
 31
0.0
  0
LINE
  5
13C9
330
1F
100
AcDbEntity
  8
AM_VIS
100
AcDbLine
 10
459.054980238403
 20
320.6171913418821
 30
0.0
 11
459.054980238403
 21
320.9995079463556
 31
0.0
  0
LINE
  5
13CA
330
1F
100
AcDbEntity
  8
AM_VIS
100
AcDbLine
 10
459.054980238403
 20
320.9995079463556
 30
0.0
 11
460.1509704960726
 21
321.7131815995516
 31
0.0
  0
LINE
  5
13CB
330
1F
100
AcDbEntity
  8
AM_VIS
100
AcDbLine
 10
459.4372968428763
 20
320.6171913418817
 30
0.0
 11
459.0549802384025
 21
320.6171913418817
 31
0.0
  0
LINE
  5
13CC
330
1F
100
AcDbEntity
  8
AM_VIS
100
AcDbLine
 10
460.1509704960726
 20
321.7131815995516
 30
0.0
 11
459.0549802384027
 21
320.6171913418817
 31
0.0
  0
LINE
  5
13CD
330
1F
100
AcDbEntity
  8
AM_VIS
100
AcDbLine
 10
460.1509704960726
 20
321.7131815995516
 30
0.0
 11
459.4372968428763
 21
320.6171913418817
 31
0.0
  0
LINE
  5
13CE
330
1F
100
AcDbEntity
  8
AM_VIS
100
AcDbLine
 10
458.0649802384029
 20
319.6271913418815
 30
0.0
 11
458.0649802384029
 21
319.2448747374081
 31
0.0
  0
LINE
  5
13CF
330
1F
100
AcDbEntity
  8
AM_VIS
100
AcDbLine
 10
458.0649802384029
 20
319.2448747374081
 30
0.0
 11
456.9689899807333
 21
318.5312010842119
 31
0.0
  0
LINE
  5
13D0
330
1F
100
AcDbEntity
  8
AM_VIS
100
AcDbLine
 10
457.6826636339294
 20
319.6271913418817
 30
0.0
 11
458.0649802384032
 21
319.6271913418817
 31
0.0
  0
LINE
  5
13D1
330
1F
100
AcDbEntity
  8
AM_VIS
100
AcDbLine
 10
456.0798486537597
 20
328.4221913418818
 30
0.0
 11
456.3899802384026
 21
328.4221913418818
 31
0.0
  0
LINE
  5
13D2
330
1F
100
AcDbEntity
  8
AM_VIS
100
AcDbLine
 10
436.5599802384029
 20
332.1221913418818
 30
0.0
 11
436.5599802384029
 21
356.6221913418818
 31
0.0
  0
LINE
  5
13D3
330
1F
100
AcDbEntity
  8
AM_VIS
100
AcDbLine
 10
436.5599802384029
 20
356.6221913418818
 30
0.0
 11
458.5599802384028
 21
356.6221913418818
 31
0.0
  0
LINE
  5
13D4
330
1F
100
AcDbEntity
  8
AM_VIS
100
AcDbLine
 10
458.5599802384028
 20
356.6221913418818
 30
0.0
 11
458.5599802384028
 21
332.1221913418818
 31
0.0
  0
LINE
  5
13D5
330
1F
100
AcDbEntity
  8
AM_VIS
100
AcDbLine
 10
454.5599802384028
 20
328.1221913418818
 30
0.0
 11
440.5599802384029
 21
328.1221913418818
 31
0.0
  0
ARC
  5
13D6
330
1F
100
AcDbEntity
  8
AM_VIS
100
AcDbCircle
 10
440.5599802384029
 20
332.1221913418818
 30
0.0
 40
3.999999999999999
100
AcDbArc
 50
180.0
 51
270.0
  0
ARC
  5
13D7
330
1F
100
AcDbEntity
  8
AM_VIS
100
AcDbCircle
 10
454.5599802384028
 20
332.1221913418818
 30
0.0
 40
3.999999999999999
100
AcDbArc
 50
270.0
 51
0.0
  0
LINE
  5
13D8
330
1F
100
AcDbEntity
  8
AM_VIS
100
AcDbLine
 10
438.1497502188794
 20
342.4904479886171
 30
0.0
 11
438.4159632754208
 21
341.679051589541
 31
0.0
  0
LINE
  5
13D9
330
1F
100
AcDbEntity
  8
AM_VIS
100
AcDbLine
 10
438.1497502160469
 20
335.7539346960337
 30
0.0
 11
438.415963277589
 21
336.5653310934704
 31
0.0
  0
LINE
  5
13DA
330
1F
100
AcDbEntity
  8
AM_VIS
100
AcDbLine
 10
439.9378694049178
 20
332.6568214077207
 30
0.0
 11
440.7736658300293
 21
332.4816704908454
 31
0.0
  0
LINE
  5
13DB
330
1F
100
AcDbEntity
  8
AM_VIS
100
AcDbLine
 10
445.202277692963
 20
329.9248102421419
 30
0.0
 11
445.7718610451179
 21
329.2885647605375
 31
0.0
  0
LINE
  5
13DC
330
1F
100
AcDbEntity
  8
AM_VIS
100
AcDbLine
 10
445.2022776912317
 20
348.3195724431198
 30
0.0
 11
445.7718610472977
 21
348.9558179212211
 31
0.0
  0
LINE
  5
13DD
330
1F
100
AcDbEntity
  8
AM_VIS
100
AcDbLine
 10
439.9378694042711
 20
345.5875612789331
 30
0.0
 11
440.7736658304608
 21
345.7627121906696
 31
0.0
  0
LINE
  5
13DE
330
1F
100
AcDbEntity
  8
AM_VIS
100
AcDbLine
 10
449.3480994295078
 20
329.2885647625427
 30
0.0
 11
449.9176827855738
 21
329.924810240644
 31
0.0
  0
LINE
  5
13DF
330
1F
100
AcDbEntity
  8
AM_VIS
100
AcDbLine
 10
454.3462946463446
 20
332.4816704930939
 30
0.0
 11
455.1820910725344
 21
332.6568214048303
 31
0.0
  0
LINE
  5
13E0
330
1F
100
AcDbEntity
  8
AM_VIS
100
AcDbLine
 10
454.3462946467761
 20
345.7627121929182
 30
0.0
 11
455.182091071888
 21
345.587561276043
 31
0.0
  0
LINE
  5
13E1
330
1F
100
AcDbEntity
  8
AM_VIS
100
AcDbLine
 10
449.3480994316878
 20
348.9558179232262
 30
0.0
 11
449.9176827838423
 21
348.3195724416217
 31
0.0
  0
LINE
  5
13E2
330
1F
100
AcDbEntity
  8
AM_VIS
100
AcDbLine
 10
456.7039971939473
 20
336.5653310916802
 30
0.0
 11
456.970210262993
 21
335.7539346967036
 31
0.0
  0
LINE
  5
13E3
330
1F
100
AcDbEntity
  8
AM_VIS
100
AcDbLine
 10
456.7039971917843
 20
341.6790515928338
 30
0.0
 11
456.9702102658193
 21
342.4904479861747
 31
0.0
  0
ARC
  5
13E4
330
1F
100
AcDbEntity
  8
AM_VIS
100
AcDbCircle
 10
447.5599802384029
 20
339.1221913418818
 30
0.0
 40
10.0
100
AcDbArc
 50
19.67128921670644
 51
40.3287107832987
  0
ARC
  5
13E5
330
1F
100
AcDbEntity
  8
AM_VIS
100
AcDbCircle
 10
447.5599802384029
 20
339.1221913418818
 30
0.0
 40
10.0
100
AcDbArc
 50
319.6712892167013
 51
340.3287107832936
  0
ARC
  5
13E6
330
1F
100
AcDbEntity
  8
AM_VIS
100
AcDbCircle
 10
447.5599802384029
 20
339.1221913418818
 30
0.0
 40
10.0
100
AcDbArc
 50
259.6712892167039
 51
280.3287107832961
  0
ARC
  5
13E7
330
1F
100
AcDbEntity
  8
AM_VIS
100
AcDbCircle
 10
447.5599802384029
 20
339.1221913418818
 30
0.0
 40
10.0
100
AcDbArc
 50
79.67128921670393
 51
100.328710783296
  0
ARC
  5
13E8
330
1F
100
AcDbEntity
  8
AM_VIS
100
AcDbCircle
 10
447.5599802384029
 20
339.1221913418818
 30
0.0
 40
10.0
100
AcDbArc
 50
199.6712892167064
 51
220.3287107832987
  0
ARC
  5
13E9
330
1F
100
AcDbEntity
  8
AM_VIS
100
AcDbCircle
 10
447.5599802384029
 20
339.1221913418818
 30
0.0
 40
10.0
100
AcDbArc
 50
139.6712892167013
 51
160.3287107832935
  0
ARC
  5
13EA
330
1F
100
AcDbEntity
  8
AM_VIS
100
AcDbCircle
 10
447.5599802384029
 20
339.1221913418818
 30
0.0
 40
10.0
100
AcDbArc
 50
280.3287107832961
 51
319.6712892167013
  0
ARC
  5
13EB
330
1F
100
AcDbEntity
  8
AM_VIS
100
AcDbCircle
 10
447.5599802384029
 20
339.1221913418818
 30
0.0
 40
10.0
100
AcDbArc
 50
220.3287107832987
 51
259.6712892167039
  0
ARC
  5
13EC
330
1F
100
AcDbEntity
  8
AM_VIS
100
AcDbCircle
 10
447.5599802384029
 20
339.1221913418818
 30
0.0
 40
10.0
100
AcDbArc
 50
160.3287107832935
 51
199.6712892167064
  0
ARC
  5
13ED
330
1F
100
AcDbEntity
  8
AM_VIS
100
AcDbCircle
 10
447.5599802384029
 20
339.1221913418818
 30
0.0
 40
10.0
100
AcDbArc
 50
100.328710783296
 51
139.6712892167013
  0
ARC
  5
13EE
330
1F
100
AcDbEntity
  8
AM_VIS
100
AcDbCircle
 10
447.5599802384029
 20
339.1221913418818
 30
0.0
 40
10.0
100
AcDbArc
 50
40.3287107832987
 51
79.67128921670393
  0
ARC
  5
13EF
330
1F
100
AcDbEntity
  8
AM_VIS
100
AcDbCircle
 10
447.5599802384029
 20
339.1221913418818
 30
0.0
 40
10.0
100
AcDbArc
 50
340.3287107832936
 51
19.67128921670644
  0
ARC
  5
13F0
330
1F
100
AcDbEntity
  8
AM_VIS
100
AcDbCircle
 10
447.5599802384029
 20
339.1221913418818
 30
0.0
 40
9.5
100
AcDbArc
 50
75.6009953934951
 51
104.3990046065183
  0
ARC
  5
13F1
330
1F
100
AcDbEntity
  8
AM_VIS
100
AcDbCircle
 10
456.7099802384027
 20
354.9704562311372
 30
0.0
 40
9.5
100
AcDbArc
 50
224.3990046065141
 51
255.6009953934951
  0
ARC
  5
13F2
330
1F
100
AcDbEntity
  8
AM_VIS
100
AcDbCircle
 10
447.5599802384029
 20
339.1221913418818
 30
0.0
 40
9.5
100
AcDbArc
 50
15.60099539348474
 51
44.39900460651409
  0
ARC
  5
13F3
330
1F
100
AcDbEntity
  8
AM_VIS
100
AcDbCircle
 10
465.8599802384028
 20
339.1221913418819
 30
0.0
 40
9.5
100
AcDbArc
 50
164.3990046065117
 51
195.6009953934847
  0
ARC
  5
13F4
330
1F
100
AcDbEntity
  8
AM_VIS
100
AcDbCircle
 10
447.5599802384029
 20
339.1221913418818
 30
0.0
 40
9.5
100
AcDbArc
 50
315.6009953934859
 51
344.3990046065153
  0
ARC
  5
13F5
330
1F
100
AcDbEntity
  8
AM_VIS
100
AcDbCircle
 10
456.709980238403
 20
323.2739264526266
 30
0.0
 40
9.500000000000001
100
AcDbArc
 50
104.3990046065183
 51
135.6009953934859
  0
ARC
  5
13F6
330
1F
100
AcDbEntity
  8
AM_VIS
100
AcDbCircle
 10
447.5599802384029
 20
339.1221913418818
 30
0.0
 40
9.5
100
AcDbArc
 50
255.6009953934817
 51
284.3990046065183
  0
ARC
  5
13F7
330
1F
100
AcDbEntity
  8
AM_VIS
100
AcDbCircle
 10
438.4099802384027
 20
323.2739264526266
 30
0.0
 40
9.5
100
AcDbArc
 50
44.39900460651409
 51
75.60099539348167
  0
ARC
  5
13F8
330
1F
100
AcDbEntity
  8
AM_VIS
100
AcDbCircle
 10
447.5599802384029
 20
339.1221913418818
 30
0.0
 40
9.5
100
AcDbArc
 50
195.6009953934847
 51
224.3990046065141
  0
ARC
  5
13F9
330
1F
100
AcDbEntity
  8
AM_VIS
100
AcDbCircle
 10
429.2599802384029
 20
339.1221913418818
 30
0.0
 40
9.5
100
AcDbArc
 50
344.3990046065153
 51
15.60099539348474
  0
ARC
  5
13FA
330
1F
100
AcDbEntity
  8
AM_VIS
100
AcDbCircle
 10
447.5599802384029
 20
339.1221913418818
 30
0.0
 40
9.5
100
AcDbArc
 50
135.6009953934859
 51
164.3990046065117
  0
ARC
  5
13FB
330
1F
100
AcDbEntity
  8
AM_VIS
100
AcDbCircle
 10
438.4099802384025
 20
354.970456231137
 30
0.0
 40
9.5
100
AcDbArc
 50
284.3990046065049
 51
315.6009953934859
  0
CIRCLE
  5
13FC
330
1F
100
AcDbEntity
  8
AM_VIS
100
AcDbCircle
 10
447.5599802384029
 20
339.1221913418818
 30
0.0
 40
1.25
  0
LINE
  5
13FD
330
1F
100
AcDbEntity
  8
0
100
AcDbLine
 10
458.0599802384028
 20
356.6221913418818
 30
0.0
 11
437.0599802384028
 21
356.6221913418818
 31
0.0
  0
LINE
  5
13FE
330
1F
100
AcDbEntity
  8
AM_VIS
100
AcDbLine
 10
458.0599802384028
 20
383.1221913418819
 30
0.0
 11
458.0599802384028
 21
356.6221913418818
 31
0.0
  0
LINE
  5
13FF
330
1F
100
AcDbEntity
  8
AM_VIS
100
AcDbLine
 10
453.2168344878953
 20
386.6221913418818
 30
0.0
 11
454.5599802384028
 21
386.6221913418818
 31
0.0
  0
LINE
  5
1400
330
1F
100
AcDbEntity
  8
AM_VIS
100
AcDbLine
 10
440.5599802384029
 20
386.6221913418818
 30
0.0
 11
441.9031259889107
 21
386.6221913418818
 31
0.0
  0
LINE
  5
1401
330
1F
100
AcDbEntity
  8
AM_VIS
100
AcDbLine
 10
437.0599802384028
 20
356.6221913418818
 30
0.0
 11
437.0599802384028
 21
383.1221913418819
 31
0.0
  0
LINE
  5
1402
330
1F
100
AcDbEntity
  8
AM_VIS
100
AcDbLine
 10
455.8515422142914
 20
383.1221913418819
 30
0.0
 11
458.0599802384028
 21
383.1221913418819
 31
0.0
  0
LINE
  5
1403
330
1F
100
AcDbEntity
  8
AM_VIS
100
AcDbLine
 10
454.5599802384028
 20
386.6221913418818
 30
0.0
 11
454.5599802384028
 21
385.2790455913742
 31
0.0
  0
ARC
  5
1404
330
1F
100
AcDbEntity
  8
AM_VIS
100
AcDbCircle
 10
447.5599802384029
 20
379.6221913418818
 30
0.0
 40
9.0
100
AcDbArc
 50
182.7339555492663
 51
237.2660444507367
  0
ARC
  5
1405
330
1F
100
AcDbEntity
  8
AM_VIS
100
AcDbCircle
 10
447.5599802384029
 20
379.6221913418818
 30
0.0
 40
9.0
100
AcDbArc
 50
242.7339555492605
 51
297.2660444507395
  0
ARC
  5
1406
330
1F
100
AcDbEntity
  8
AM_VIS
100
AcDbCircle
 10
447.5599802384029
 20
379.6221913418818
 30
0.0
 40
9.0
100
AcDbArc
 50
302.7339555492633
 51
357.2660444507337
  0
ARC
  5
1407
330
1F
100
AcDbEntity
  8
AM_VIS
100
AcDbCircle
 10
447.5599802384029
 20
379.6221913418818
 30
0.0
 40
9.0
100
AcDbArc
 50
2.733955549266344
 51
57.26604445073669
  0
ARC
  5
1408
330
1F
100
AcDbEntity
  8
AM_VIS
100
AcDbCircle
 10
447.5599802384029
 20
379.6221913418818
 30
0.0
 40
9.0
100
AcDbArc
 50
62.73395554926049
 51
117.2660444507395
  0
ARC
  5
1409
330
1F
100
AcDbEntity
  8
AM_VIS
100
AcDbCircle
 10
447.5599802384029
 20
379.6221913418818
 30
0.0
 40
9.0
100
AcDbArc
 50
122.7339555492633
 51
177.2660444507336
  0
ARC
  5
140A
330
1F
100
AcDbEntity
  8
AM_VIS
100
AcDbCircle
 10
440.5599802384029
 20
383.1221913418819
 30
0.0
 40
3.5
100
AcDbArc
 50
90.0
 51
180.0
  0
LINE
  5
140B
330
1F
100
AcDbEntity
  8
AM_VIS
100
AcDbLine
 10
437.0599802384028
 20
383.1221913418819
 30
0.0
 11
439.2684182625144
 21
383.1221913418819
 31
0.0
  0
LINE
  5
140C
330
1F
100
AcDbEntity
  8
AM_VIS
100
AcDbLine
 10
440.5599802384029
 20
386.6221913418818
 30
0.0
 11
440.5599802384029
 21
385.2790455913742
 31
0.0
  0
ARC
  5
140D
330
1F
100
AcDbEntity
  8
AM_VIS
100
AcDbCircle
 10
454.5599802384028
 20
383.1221913418819
 30
0.0
 40
3.5
100
AcDbArc
 50
0.0
 51
90.0
  0
CIRCLE
  5
140E
330
1F
100
AcDbEntity
  8
AM_VIS
100
AcDbCircle
 10
447.5599802384029
 20
379.6221913418818
 30
0.0
 40
5.0
  0
LINE
  5
140F
330
1F
100
AcDbEntity
  8
AM_VIS
100
AcDbLine
 10
456.7975845454371
 20
379.6221913418818
 30
0.0
 11
455.3631834686784
 21
377.1377357985044
 31
0.0
  0
LINE
  5
1410
330
1F
100
AcDbEntity
  8
AM_VIS
100
AcDbLine
 10
455.3631834686784
 20
382.106646885259
 30
0.0
 11
456.7975845454371
 21
379.6221913418818
 31
0.0
  0
LINE
  5
1411
330
1F
100
AcDbEntity
  8
AM_VIS
100
AcDbLine
 10
454.6801707667862
 20
382.2896595871513
 30
0.0
 11
455.3631834686784
 21
382.106646885259
 31
0.0
  0
LINE
  5
1412
330
1F
100
AcDbEntity
  8
AM_VIS
100
AcDbLine
 10
453.4301707667864
 20
384.4547230966124
 30
0.0
 11
454.6801707667862
 21
382.2896595871513
 31
0.0
  0
LINE
  5
1413
330
1F
100
AcDbEntity
  8
AM_VIS
100
AcDbLine
 10
453.6131834686784
 20
385.1377357985047
 30
0.0
 11
453.4301707667864
 21
384.4547230966124
 31
0.0
  0
LINE
  5
1414
330
1F
100
AcDbEntity
  8
AM_VIS
100
AcDbLine
 10
452.1787823919201
 20
387.6221913418818
 30
0.0
 11
453.6131834686784
 21
385.1377357985047
 31
0.0
  0
LINE
  5
1415
330
1F
100
AcDbEntity
  8
AM_VIS
100
AcDbLine
 10
449.3099802384031
 20
387.6221913418818
 30
0.0
 11
452.1787823919201
 21
387.6221913418818
 31
0.0
  0
LINE
  5
1416
330
1F
100
AcDbEntity
  8
AM_VIS
100
AcDbLine
 10
448.8099802384031
 20
387.1221913418819
 30
0.0
 11
449.3099802384031
 21
387.6221913418818
 31
0.0
  0
LINE
  5
1417
330
1F
100
AcDbEntity
  8
AM_VIS
100
AcDbLine
 10
446.309980238403
 20
387.1221913418819
 30
0.0
 11
448.8099802384031
 21
387.1221913418819
 31
0.0
  0
LINE
  5
1418
330
1F
100
AcDbEntity
  8
AM_VIS
100
AcDbLine
 10
445.8099802384031
 20
387.6221913418818
 30
0.0
 11
446.309980238403
 21
387.1221913418819
 31
0.0
  0
LINE
  5
1419
330
1F
100
AcDbEntity
  8
AM_VIS
100
AcDbLine
 10
442.9411780848859
 20
387.6221913418818
 30
0.0
 11
445.8099802384031
 21
387.6221913418818
 31
0.0
  0
LINE
  5
141A
330
1F
100
AcDbEntity
  8
AM_VIS
100
AcDbLine
 10
441.5067770081275
 20
385.1377357985047
 30
0.0
 11
442.9411780848859
 21
387.6221913418818
 31
0.0
  0
LINE
  5
141B
330
1F
100
AcDbEntity
  8
AM_VIS
100
AcDbLine
 10
441.6897897100198
 20
384.4547230966124
 30
0.0
 11
441.5067770081275
 21
385.1377357985047
 31
0.0
  0
LINE
  5
141C
330
1F
100
AcDbEntity
  8
AM_VIS
100
AcDbLine
 10
440.4397897100198
 20
382.2896595871515
 30
0.0
 11
441.6897897100198
 21
384.4547230966124
 31
0.0
  0
LINE
  5
141D
330
1F
100
AcDbEntity
  8
AM_VIS
100
AcDbLine
 10
439.7567770081275
 20
382.106646885259
 30
0.0
 11
440.4397897100198
 21
382.2896595871515
 31
0.0
  0
LINE
  5
141E
330
1F
100
AcDbEntity
  8
AM_VIS
100
AcDbLine
 10
438.3223759313689
 20
379.6221913418818
 30
0.0
 11
439.7567770081275
 21
382.106646885259
 31
0.0
  0
LINE
  5
141F
330
1F
100
AcDbEntity
  8
AM_VIS
100
AcDbLine
 10
439.7567770081275
 20
377.1377357985047
 30
0.0
 11
438.3223759313689
 21
379.6221913418818
 31
0.0
  0
LINE
  5
1420
330
1F
100
AcDbEntity
  8
AM_VIS
100
AcDbLine
 10
440.4397897100198
 20
376.9547230966126
 30
0.0
 11
439.7567770081275
 21
377.1377357985047
 31
0.0
  0
LINE
  5
1421
330
1F
100
AcDbEntity
  8
AM_VIS
100
AcDbLine
 10
441.6897897100198
 20
374.7896595871515
 30
0.0
 11
440.4397897100198
 21
376.9547230966126
 31
0.0
  0
LINE
  5
1422
330
1F
100
AcDbEntity
  8
AM_VIS
100
AcDbLine
 10
441.5067770081275
 20
374.106646885259
 30
0.0
 11
441.6897897100198
 21
374.7896595871515
 31
0.0
  0
LINE
  5
1423
330
1F
100
AcDbEntity
  8
AM_VIS
100
AcDbLine
 10
442.9411780848859
 20
371.6221913418818
 30
0.0
 11
441.5067770081275
 21
374.106646885259
 31
0.0
  0
LINE
  5
1424
330
1F
100
AcDbEntity
  8
AM_VIS
100
AcDbLine
 10
445.8099802384029
 20
371.6221913418818
 30
0.0
 11
442.9411780848859
 21
371.6221913418818
 31
0.0
  0
LINE
  5
1425
330
1F
100
AcDbEntity
  8
AM_VIS
100
AcDbLine
 10
446.3099802384029
 20
372.1221913418818
 30
0.0
 11
445.8099802384029
 21
371.6221913418818
 31
0.0
  0
LINE
  5
1426
330
1F
100
AcDbEntity
  8
AM_VIS
100
AcDbLine
 10
448.8099802384028
 20
372.1221913418818
 30
0.0
 11
446.3099802384029
 21
372.1221913418818
 31
0.0
  0
LINE
  5
1427
330
1F
100
AcDbEntity
  8
AM_VIS
100
AcDbLine
 10
449.3099802384029
 20
371.6221913418818
 30
0.0
 11
448.8099802384028
 21
372.1221913418818
 31
0.0
  0
LINE
  5
1428
330
1F
100
AcDbEntity
  8
AM_VIS
100
AcDbLine
 10
452.1787823919201
 20
371.6221913418818
 30
0.0
 11
449.3099802384029
 21
371.6221913418818
 31
0.0
  0
LINE
  5
1429
330
1F
100
AcDbEntity
  8
AM_VIS
100
AcDbLine
 10
453.6131834686784
 20
374.106646885259
 30
0.0
 11
452.1787823919201
 21
371.6221913418818
 31
0.0
  0
LINE
  5
142A
330
1F
100
AcDbEntity
  8
AM_VIS
100
AcDbLine
 10
453.4301707667862
 20
374.7896595871513
 30
0.0
 11
453.6131834686784
 21
374.106646885259
 31
0.0
  0
LINE
  5
142B
330
1F
100
AcDbEntity
  8
AM_VIS
100
AcDbLine
 10
455.3631834686784
 20
377.1377357985044
 30
0.0
 11
454.6801707667862
 21
376.9547230966121
 31
0.0
  0
LINE
  5
142C
330
1F
100
AcDbEntity
  8
AM_VIS
100
AcDbLine
 10
454.6801707667862
 20
376.9547230966121
 30
0.0
 11
453.4301707667862
 21
374.7896595871513
 31
0.0
  0
LINE
  5
142D
330
1F
100
AcDbEntity
  8
0
100
AcDbLine
 10
458.0599802384028
 20
356.6221913418818
 30
0.0
 11
437.0599802384028
 21
356.6221913418818
 31
0.0
  0
LINE
  5
142E
330
1F
100
AcDbEntity
  8
0
100
AcDbLine
 10
458.0599802384028
 20
358.1221913418819
 30
0.0
 11
437.0599802384028
 21
358.1221913418819
 31
0.0
  0
LINE
  5
142F
330
1F
100
AcDbEntity
  8
AM_7
100
AcDbLine
 10
447.5599802384029
 20
379.6221913418818
 30
0.0
 11
437.5129016295217
 21
379.6221913418818
 31
0.0
1001
GENIUS_GENOREF_13
1005
143B
  0
LINE
  5
1430
330
1F
100
AcDbEntity
  8
AM_7
100
AcDbLine
 10
447.5599802384029
 20
379.6221913418818
 30
0.0
 11
447.5599802384029
 21
389.6692699507629
 31
0.0
1001
GENIUS_GENOREF_13
1005
143B
  0
LINE
  5
1431
330
1F
100
AcDbEntity
  8
AM_7
100
AcDbLine
 10
447.5599802384029
 20
379.6221913418818
 30
0.0
 11
457.6070588472841
 21
379.6221913418818
 31
0.0
1001
GENIUS_GENOREF_13
1005
143B
  0
LINE
  5
1432
330
1F
100
AcDbEntity
  8
AM_7
100
AcDbLine
 10
447.5599802384029
 20
379.6221913418818
 30
0.0
 11
447.5599802384029
 21
369.5751127330006
 31
0.0
1001
GENIUS_GENOREF_13
1005
143B
  0
LINE
  5
1433
330
1F
100
AcDbEntity
  8
AM_7
100
AcDbLine
 10
447.5599802384029
 20
339.1221913418818
 30
0.0
 11
459.8772551068917
 21
339.1221913418818
 31
0.0
1001
GENIUS_GENOREF_13
1005
143A
  0
LINE
  5
1434
330
1F
100
AcDbEntity
  8
AM_7
100
AcDbLine
 10
447.5599802384029
 20
339.1221913418818
 30
0.0
 11
447.5599802384029
 21
351.4394662103705
 31
0.0
1001
GENIUS_GENOREF_13
1005
143A
  0
LINE
  5
1435
330
1F
100
AcDbEntity
  8
AM_7
100
AcDbLine
 10
447.5599802384029
 20
339.1221913418818
 30
0.0
 11
435.2427053699141
 21
339.1221913418818
 31
0.0
1001
GENIUS_GENOREF_13
1005
143A
  0
LINE
  5
1436
330
1F
100
AcDbEntity
  8
AM_7
100
AcDbLine
 10
447.5599802384029
 20
339.1221913418818
 30
0.0
 11
447.5599802384029
 21
326.8049164733932
 31
0.0
1001
GENIUS_GENOREF_13
1005
143A
  0
POINT
  5
1437
330
1F
100
AcDbEntity
  8
0
 60
     1
100
AcDbPoint
 10
-1306.489327480058
 20
-896.078884873906
 30
0.0
1001
GENIUS_GENOBJ-N-CRS_13
1002
{
1000
OWNER
1000
GEN
1002
}
1001
GENIUS_GENOLIS_13
1002
{
1000
ENT
1005
0
1005
0
1005
0
1005
1090
1002
}
1001
GENIUS_GENOENT_13
1002
{
1000
MYREF
1005
1437
1002
}
1002
{
1000
GRP
1005
0
1002
}
1001
GENIUS_GENODEF_13
1002
{
1000
HIER
1070
    10
1002
}
1002
{
1000
MANEDIT
1070
     1
1002
}
1002
{
1000
NOSEL
1070
     0
1002
}
1002
{
1000
BEHIND
1070
     0
1002
}
1002
{
1000
OTHER
1070
     0
1002
}
1002
{
1000
REACTOR
1002
}
  0
POINT
  5
1438
330
1F
100
AcDbEntity
  8
0
 60
     1
100
AcDbPoint
 10
-1317.813912702913
 20
-887.2032983952696
 30
0.0
1001
GENIUS_GENOBJ-N-CRS_13
1002
{
1000
OWNER
1000
GEN
1002
}
1001
GENIUS_GENOLIS_13
1002
{
1000
ENT
1005
0
1005
0
1005
0
1005
108F
1002
}
1001
GENIUS_GENOENT_13
1002
{
1000
MYREF
1005
1438
1002
}
1002
{
1000
GRP
1005
0
1002
}
1001
GENIUS_GENODEF_13
1002
{
1000
HIER
1070
    10
1002
}
1002
{
1000
MANEDIT
1070
     1
1002
}
1002
{
1000
NOSEL
1070
     0
1002
}
1002
{
1000
BEHIND
1070
     0
1002
}
1002
{
1000
OTHER
1070
     0
1002
}
1002
{
1000
REACTOR
1002
}
  0
POINT
  5
1439
330
1F
100
AcDbEntity
  8
0
 60
     1
100
AcDbPoint
 10
-1311.455239005076
 20
-896.078884873906
 30
0.0
1001
GENIUS_GENOBJ-N-CRS_13
1002
{
1000
OWNER
1000
GEN
1002
}
1001
GENIUS_GENOLIS_13
1002
{
1000
ENT
1005
0
1005
0
1005
0
1005
108E
1002
}
1001
GENIUS_GENOENT_13
1002
{
1000
MYREF
1005
1439
1002
}
1002
{
1000
GRP
1005
0
1002
}
1001
GENIUS_GENODEF_13
1002
{
1000
HIER
1070
    10
1002
}
1002
{
1000
MANEDIT
1070
     1
1002
}
1002
{
1000
NOSEL
1070
     0
1002
}
1002
{
1000
BEHIND
1070
     0
1002
}
1002
{
1000
OTHER
1070
     0
1002
}
1002
{
1000
REACTOR
1002
}
  0
POINT
  5
143A
330
1F
100
AcDbEntity
  8
0
 60
     1
100
AcDbPoint
 10
-83.95886144516294
 20
-576.9209223348692
 30
0.0
1001
GENIUS_GENOBJ-N-CRS_13
1002
{
1000
OWNER
1000
GEN
1002
}
1001
GENIUS_GENOENT_13
1002
{
1000
MYREF
1005
143A
1002
}
1002
{
1000
GRP
1005
0
1002
}
1001
GENIUS_GENOLIS_13
1002
{
1000
ENT
1005
1436
1005
1435
1005
1434
1005
1433
1002
}
1001
GENIUS_GENODEF_13
1002
{
1000
HIER
1070
    10
1002
}
1002
{
1000
MANEDIT
1070
     0
1002
}
1002
{
1000
NOSEL
1070
     0
1002
}
1002
{
1000
BEHIND
1070
     0
1002
}
1002
{
1000
OTHER
1070
     0
1002
}
1002
{
1000
REACTOR
1002
}
  0
POINT
  5
143B
330
1F
100
AcDbEntity
  8
0
 60
     1
100
AcDbPoint
 10
280.4838631954797
 20
-565.1911468018594
 30
0.0
1001
GENIUS_GENODEF_13
1002
{
1000
HIER
1070
    10
1002
}
1002
{
1000
MANEDIT
1070
     0
1002
}
1002
{
1000
NOSEL
1070
     0
1002
}
1002
{
1000
BEHIND
1070
     0
1002
}
1002
{
1000
OTHER
1070
     0
1002
}
1002
{
1000
REACTOR
1002
}
1001
GENIUS_GENOBJ-N-CRS_13
1002
{
1000
OWNER
1000
GEN
1002
}
1001
GENIUS_GENOLIS_13
1002
{
1000
ENT
1005
1432
1005
1431
1005
1430
1005
142F
1002
}
1001
GENIUS_GENOENT_13
1002
{
1000
MYREF
1005
143B
1002
}
1002
{
1000
GRP
1005
0
1002
}
  0
POINT
  5
143C
330
1F
100
AcDbEntity
  8
0
 60
     1
100
AcDbPoint
 10
48.93283978443628
 20
169.3658232845134
 30
0.0
1001
GENIUS_GENOLIS_13
1002
{
1000
ENT
1005
1374
1005
1373
1005
1372
1005
1371
1002
}
1001
GENIUS_GENOBJ-N-CRS_13
1002
{
1000
OWNER
1000
GEN
1002
}
1001
GENIUS_GENODEF_13
1002
{
1000
HIER
1070
    10
1002
}
1002
{
1000
MANEDIT
1070
     0
1002
}
1002
{
1000
NOSEL
1070
     0
1002
}
1002
{
1000
BEHIND
1070
     0
1002
}
1002
{
1000
OTHER
1070
     0
1002
}
1002
{
1000
REACTOR
1002
}
1001
GENIUS_GENOENT_13
1002
{
1000
MYREF
1005
143C
1002
}
1002
{
1000
GRP
1005
0
1002
}
  0
POINT
  5
143D
330
1F
100
AcDbEntity
  8
0
 60
     1
100
AcDbPoint
 10
48.93283978443628
 20
169.3658232845134
 30
0.0
1001
GENIUS_GENOENT_13
1002
{
1000
MYREF
1005
143D
1002
}
1002
{
1000
GRP
1005
0
1002
}
1001
GENIUS_GENOBJ-N-CRS_13
1002
{
1000
OWNER
1000
GEN
1002
}
1001
GENIUS_GENOLIS_13
1002
{
1000
ENT
1005
1370
1005
136F
1005
136E
1005
136D
1002
}
1001
GENIUS_GENODEF_13
1002
{
1000
HIER
1070
    10
1002
}
1002
{
1000
MANEDIT
1070
     0
1002
}
1002
{
1000
NOSEL
1070
     0
1002
}
1002
{
1000
BEHIND
1070
     0
1002
}
1002
{
1000
OTHER
1070
     0
1002
}
1002
{
1000
REACTOR
1002
}
  0
POINT
  5
143E
330
1F
100
AcDbEntity
  8
0
 60
     1
100
AcDbPoint
 10
48.93283978443628
 20
169.3658232845134
 30
0.0
1001
GENIUS_GENOLIS_13
1002
{
1000
ENT
1005
136C
1005
136B
1005
136A
1005
1369
1002
}
1001
GENIUS_GENODEF_13
1002
{
1000
HIER
1070
    10
1002
}
1002
{
1000
MANEDIT
1070
     0
1002
}
1002
{
1000
NOSEL
1070
     0
1002
}
1002
{
1000
BEHIND
1070
     0
1002
}
1002
{
1000
OTHER
1070
     0
1002
}
1002
{
1000
REACTOR
1002
}
1001
GENIUS_GENOBJ-N-CRS_13
1002
{
1000
OWNER
1000
GEN
1002
}
1001
GENIUS_GENOENT_13
1002
{
1000
MYREF
1005
143E
1002
}
1002
{
1000
GRP
1005
0
1002
}
  0
POINT
  5
143F
330
1F
100
AcDbEntity
  8
0
 60
     1
100
AcDbPoint
 10
48.93283978443628
 20
169.3658232845134
 30
0.0
1001
GENIUS_GENOENT_13
1002
{
1000
MYREF
1005
143F
1002
}
1002
{
1000
GRP
1005
0
1002
}
1001
GENIUS_GENOBJ-N-CRS_13
1002
{
1000
OWNER
1000
GEN
1002
}
1001
GENIUS_GENOLIS_13
1002
{
1000
ENT
1005
1368
1005
1367
1005
1366
1005
1365
1002
}
1001
GENIUS_GENODEF_13
1002
{
1000
HIER
1070
    10
1002
}
1002
{
1000
MANEDIT
1070
     0
1002
}
1002
{
1000
NOSEL
1070
     0
1002
}
1002
{
1000
BEHIND
1070
     0
1002
}
1002
{
1000
OTHER
1070
     0
1002
}
1002
{
1000
REACTOR
1002
}
  0
POINT
  5
1440
330
1F
100
AcDbEntity
  8
0
 60
     1
100
AcDbPoint
 10
48.93283978443628
 20
169.3658232845134
 30
0.0
1001
GENIUS_GENODEF_13
1002
{
1000
HIER
1070
    10
1002
}
1002
{
1000
MANEDIT
1070
     0
1002
}
1002
{
1000
NOSEL
1070
     0
1002
}
1002
{
1000
BEHIND
1070
     0
1002
}
1002
{
1000
OTHER
1070
     0
1002
}
1002
{
1000
REACTOR
1002
}
1001
GENIUS_GENOENT_13
1002
{
1000
MYREF
1005
1440
1002
}
1002
{
1000
GRP
1005
0
1002
}
1001
GENIUS_GENOBJ-N-CRS_13
1002
{
1000
OWNER
1000
GEN
1002
}
1001
GENIUS_GENOLIS_13
1002
{
1000
ENT
1005
1364
1005
1363
1005
1362
1005
1361
1002
}
  0
POINT
  5
1441
330
1F
100
AcDbEntity
  8
0
 60
     1
100
AcDbPoint
 10
48.93283978443628
 20
169.3658232845134
 30
0.0
1001
GENIUS_GENOLIS_13
1002
{
1000
ENT
1005
1360
1005
135F
1005
135E
1005
135D
1002
}
1001
GENIUS_GENOENT_13
1002
{
1000
MYREF
1005
1441
1002
}
1002
{
1000
GRP
1005
0
1002
}
1001
GENIUS_GENOBJ-N-CRS_13
1002
{
1000
OWNER
1000
GEN
1002
}
1001
GENIUS_GENODEF_13
1002
{
1000
HIER
1070
    10
1002
}
1002
{
1000
MANEDIT
1070
     0
1002
}
1002
{
1000
NOSEL
1070
     0
1002
}
1002
{
1000
BEHIND
1070
     0
1002
}
1002
{
1000
OTHER
1070
     0
1002
}
1002
{
1000
REACTOR
1002
}
  0
POINT
  5
1442
330
1F
100
AcDbEntity
  8
0
 60
     1
100
AcDbPoint
 10
48.93283978443628
 20
169.3658232845134
 30
0.0
1001
GENIUS_GENOENT_13
1002
{
1000
MYREF
1005
1442
1002
}
1002
{
1000
GRP
1005
0
1002
}
1001
GENIUS_GENOBJ-N-CRS_13
1002
{
1000
OWNER
1000
GEN
1002
}
1001
GENIUS_GENODEF_13
1002
{
1000
HIER
1070
    10
1002
}
1002
{
1000
MANEDIT
1070
     0
1002
}
1002
{
1000
NOSEL
1070
     0
1002
}
1002
{
1000
BEHIND
1070
     0
1002
}
1002
{
1000
OTHER
1070
     0
1002
}
1002
{
1000
REACTOR
1002
}
1001
GENIUS_GENOLIS_13
1002
{
1000
ENT
1005
1359
1005
1358
1005
1357
1005
1356
1002
}
  0
POINT
  5
1443
330
1F
100
AcDbEntity
  8
0
 60
     1
100
AcDbPoint
 10
48.93283978443628
 20
169.3658232845134
 30
0.0
1001
GENIUS_GENOLIS_13
1002
{
1000
ENT
1005
1355
1005
1354
1005
1353
1005
1352
1002
}
1001
GENIUS_GENOENT_13
1002
{
1000
MYREF
1005
1443
1002
}
1002
{
1000
GRP
1005
0
1002
}
1001
GENIUS_GENOBJ-N-CRS_13
1002
{
1000
OWNER
1000
GEN
1002
}
1001
GENIUS_GENODEF_13
1002
{
1000
HIER
1070
    10
1002
}
1002
{
1000
MANEDIT
1070
     0
1002
}
1002
{
1000
NOSEL
1070
     0
1002
}
1002
{
1000
BEHIND
1070
     0
1002
}
1002
{
1000
OTHER
1070
     0
1002
}
1002
{
1000
REACTOR
1002
}
  0
POINT
  5
1444
330
1F
100
AcDbEntity
  8
0
 60
     1
100
AcDbPoint
 10
48.93283978443628
 20
169.3658232845134
 30
0.0
1001
GENIUS_GENODEF_13
1002
{
1000
HIER
1070
    10
1002
}
1002
{
1000
MANEDIT
1070
     0
1002
}
1002
{
1000
NOSEL
1070
     0
1002
}
1002
{
1000
BEHIND
1070
     0
1002
}
1002
{
1000
OTHER
1070
     0
1002
}
1002
{
1000
REACTOR
1002
}
1001
GENIUS_GENOLIS_13
1002
{
1000
ENT
1005
1351
1005
1350
1005
134F
1005
134E
1002
}
1001
GENIUS_GENOENT_13
1002
{
1000
MYREF
1005
1444
1002
}
1002
{
1000
GRP
1005
0
1002
}
1001
GENIUS_GENOBJ-N-CRS_13
1002
{
1000
OWNER
1000
GEN
1002
}
  0
POINT
  5
1445
330
1F
100
AcDbEntity
  8
0
 60
     1
100
AcDbPoint
 10
-543.1337022119762
 20
-564.2778921219404
 30
0.0
1001
GENIUS_GENOBJ-N-CRS_13
1002
{
1000
OWNER
1000
GEN
1002
}
1001
GENIUS_GENOENT_13
1002
{
1000
MYREF
1005
1445
1002
}
1002
{
1000
GRP
1005
0
1002
}
1001
GENIUS_GENOLIS_13
1002
{
1000
ENT
1005
0
1005
0
1005
0
1005
12BE
1002
}
1001
GENIUS_GENODEF_13
1002
{
1000
HIER
1070
    10
1002
}
1002
{
1000
MANEDIT
1070
     1
1002
}
1002
{
1000
NOSEL
1070
     0
1002
}
1002
{
1000
BEHIND
1070
     0
1002
}
1002
{
1000
OTHER
1070
     0
1002
}
1002
{
1000
REACTOR
1002
}
  0
POINT
  5
1446
330
1F
100
AcDbEntity
  8
0
 60
     1
100
AcDbPoint
 10
-543.1337022119762
 20
-564.2778921219404
 30
0.0
1001
GENIUS_GENOLIS_13
1002
{
1000
ENT
1005
0
1005
12BD
1005
0
1005
0
1002
}
1001
GENIUS_GENOBJ-N-CRS_13
1002
{
1000
OWNER
1000
GEN
1002
}
1001
GENIUS_GENOENT_13
1002
{
1000
MYREF
1005
1446
1002
}
1002
{
1000
GRP
1005
0
1002
}
1001
GENIUS_GENODEF_13
1002
{
1000
HIER
1070
    10
1002
}
1002
{
1000
MANEDIT
1070
     1
1002
}
1002
{
1000
NOSEL
1070
     0
1002
}
1002
{
1000
BEHIND
1070
     0
1002
}
1002
{
1000
OTHER
1070
     0
1002
}
1002
{
1000
REACTOR
1002
}
  0
ENDSEC
  0
SECTION
  2
OBJECTS
  0
DICTIONARY
  5
C
330
0
100
AcDbDictionary
281
     1
  3
ACAD_COLOR
350
BE
  3
ACAD_GROUP
350
D
  3
ACAD_LAYOUT
350
1A
  3
ACAD_MATERIAL
350
BD
  3
ACAD_MLINESTYLE
350
17
  3
ACAD_PLOTSETTINGS
350
19
  3
ACAD_PLOTSTYLENAME
350
E
  3
ACAD_TABLESTYLE
350
11A
  3
ACDBHEADERROUNDTRIPXREC
350
15D5
  3
AcDbVariableDictionary
350
94
  3
AcmDictionary
350
5B
  3
AMG
350
41
  3
AMGSNAPSETTINGS
350
1B8
  3
DWGPROPS
350
15D4
  0
DICTIONARY
  5
3F9
330
2
100
AcDbDictionary
280
     1
281
     1
  3
ACAD_LAYERFILTERS
360
5B7
  3
ACAD_LAYERSTATES
360
BAA
  3
ACLYDICTIONARY
360
5B6
  0
DICTIONARY
  5
8F
330
1F
100
AcDbDictionary
280
     1
281
     1
  0
DICTIONARY
  5
135B
330
135A
100
AcDbDictionary
280
     1
281
     1
  3
ACAD_DIMASSOC
360
135C
  0
DICTIONARY
  5
1376
330
1375
100
AcDbDictionary
280
     1
281
     1
  3
ACAD_DIMASSOC
360
1377
  0
DICTIONARY
  5
BE
102
{ACAD_REACTORS
330
C
102
}
330
C
100
AcDbDictionary
281
     1
  0
DICTIONARY
  5
D
102
{ACAD_REACTORS
330
C
102
}
330
C
100
AcDbDictionary
281
     1
  0
DICTIONARY
  5
1A
102
{ACAD_REACTORS
330
C
102
}
330
C
100
AcDbDictionary
281
     1
  3
Model
350
22
  3
配置1
350
1E
  3
配置2
350
26
  0
DICTIONARY
  5
BD
102
{ACAD_REACTORS
330
C
102
}
330
C
100
AcDbDictionary
281
     1
  0
DICTIONARY
  5
17
102
{ACAD_REACTORS
330
C
102
}
330
C
100
AcDbDictionary
281
     1
  3
Standard
350
18
  0
DICTIONARY
  5
19
102
{ACAD_REACTORS
330
C
102
}
330
C
100
AcDbDictionary
281
     1
  0
ACDBDICTIONARYWDFLT
  5
E
102
{ACAD_REACTORS
330
C
102
}
330
C
100
AcDbDictionary
281
     1
  3
Normal
350
F
100
AcDbDictionaryWithDefault
340
F
  0
DICTIONARY
  5
11A
102
{ACAD_REACTORS
330
C
102
}
330
C
100
AcDbDictionary
281
     1
  3
Standard
350
11B
  0
DICTIONARY
  5
15D5
102
{ACAD_REACTORS
330
C
102
}
330
C
100
AcDbDictionary
281
     1
  0
DICTIONARY
  5
94
102
{ACAD_REACTORS
330
C
102
}
330
C
100
AcDbDictionary
281
     1
  3
CTABLESTYLE
350
138
  3
DIMASSOC
350
96
  3
INDEXCTL
350
95
  3
PROJECTNAME
350
15D2
  0
DICTIONARY
  5
5B
102
{ACAD_REACTORS
330
C
102
}
330
C
100
AcDbDictionary
281
     1
  3
AcmBOM
350
1B5
  3
AcmStdDictionary
350
61
  3
AMDTSECTSYM_ARROWCOLOR
350
123
  0
DICTIONARY
  5
41
102
{ACAD_REACTORS
330
C
102
}
330
C
100
AcDbDictionary
281
     1
  0
DICTIONARY
  5
1B8
102
{ACAD_REACTORS
330
C
102
}
330
C
100
AcDbDictionary
281
     1
  0
XRECORD
  5
15D4
102
{ACAD_REACTORS
330
C
102
}
330
C
100
AcDbXrecord
280
     1
  1
DWGPROPS COOKIE
  2

  3

  4

  6

  7

  8

  9

300
AmdtFileType=84
301
=
302
=
303
=
304
=
305
=
306
=
307
=
308
=
309
=
 40
0.001972662037037
 41
2454411.613581806
 42
2454411.615554109
  1

 90
        1
  0
DICTIONARY
  5
5B7
102
{ACAD_REACTORS
330
3F9
102
}
330
3F9
100
AcDbDictionary
281
     1
  0
DICTIONARY
  5
BAA
102
{ACAD_REACTORS
330
3F9
102
}
330
3F9
100
AcDbDictionary
281
     1
  0
DICTIONARY
  5
5B6
102
{ACAD_REACTORS
330
3F9
102
}
330
3F9
100
AcDbDictionary
281
     1
1001
ACAD
1000
<All
  0
DIMASSOC
  5
135C
102
{ACAD_REACTORS
330
135B
102
}
330
135B
100
AcDbDimAssoc
330
135A
 90
        3
 70
     0
 71
     0
  1
AcDbOsnapPointRef
 72
     1
331
134F
 73
     0
 91
        0
 40
0.0
 10
0.0
 20
0.0
 30
2.000000000000000E+50
 75
     0
  1
AcDbOsnapPointRef
 72
     1
331
1353
 73
     0
 91
        0
 40
0.0
 10
0.0
 20
0.0
 30
2.000000000000000E+50
 75
     0
  0
DIMASSOC
  5
1377
102
{ACAD_REACTORS
330
1376
102
}
330
1376
100
AcDbDimAssoc
330
1375
 90
        3
 70
     0
 71
     0
  1
AcDbOsnapPointRef
 72
     6
331
12FE
 73
     0
 91
        0
 40
1.0
 10
0.0
 20
0.0
 30
0.0
332
10F6
 74
     0
 92
        0
 75
     0
  1
AcDbOsnapPointRef
 72
     1
331
12FF
 73
     0
 91
        0
 40
0.0
 10
0.0
 20
0.0
 30
2.000000000000000E+50
 75
     0
  0
LAYOUT
  5
22
102
{ACAD_XDICTIONARY
360
15D8
102
}
102
{ACAD_REACTORS
330
1A
102
}
330
1A
100
AcDbPlotSettings
  1

  2
\\RD\EPSON Stylus C63 Series單色
  4
A4
  6

 40
3.757083177566528
 41
3.757076978683471
 42
3.757080078125
 43
3.757080078125
 44
209.9733276367187
 45
296.9683227539062
 46
0.0
 47
0.0
 48
0.0
 49
0.0
140
0.0
141
0.0
142
1.0
143
0.3405120737814363
 70
 11952
 72
     1
 73
     0
 74
     0
  7
彩色出圖.ctb
 75
     0
147
2.936753428137963
148
-2047.07469463503
149
-1261.649717473083
100
AcDbLayout
  1
Model
 70
     1
 71
     0
 10
0.0
 20
0.0
 11
12.0
 21
9.0
 12
0.0
 22
0.0
 32
0.0
 14
0.0
 24
0.0
 34
0.0
 15
0.0
 25
0.0
 35
0.0
146
0.0
 13
0.0
 23
0.0
 33
0.0
 16
1.0
 26
0.0
 36
0.0
 17
0.0
 27
1.0
 37
0.0
 76
     0
330
1F
1001
ACAD_PSEXT
1000
\\RD\EPSON Stylus C63 Series單色
1000
EPSON Stylus C63 Series
1000
\\RD
1000

1070
     0
  0
LAYOUT
  5
1E
102
{ACAD_XDICTIONARY
360
15D6
102
}
102
{ACAD_REACTORS
330
1A
102
}
330
1A
100
AcDbPlotSettings
  1

  2

  4

  6

 40
0.0
 41
0.0
 42
0.0
 43
0.0
 44
0.0
 45
0.0
 46
0.0
 47
0.0
 48
0.0
 49
0.0
140
0.0
141
0.0
142
1.0
143
1.0
 70
   688
 72
     0
 73
     0
 74
     5
  7
彩色出圖.ctb
 75
    16
147
1.0
148
0.0
149
0.0
100
AcDbLayout
  1
配置1
 70
     1
 71
     1
 10
0.0
 20
0.0
 11
420.0
 21
297.0
 12
0.0
 22
0.0
 32
0.0
 14
1.000000000000000E+20
 24
1.000000000000000E+20
 34
1.000000000000000E+20
 15
-1.000000000000000E+20
 25
-1.000000000000000E+20
 35
-1.000000000000000E+20
146
0.0
 13
0.0
 23
0.0
 33
0.0
 16
1.0
 26
0.0
 36
0.0
 17
0.0
 27
1.0
 37
0.0
 76
     0
330
1B
  0
LAYOUT
  5
26
102
{ACAD_XDICTIONARY
360
15DA
102
}
102
{ACAD_REACTORS
330
1A
102
}
330
1A
100
AcDbPlotSettings
  1

  2

  4

  6

 40
0.0
 41
0.0
 42
0.0
 43
0.0
 44
0.0
 45
0.0
 46
0.0
 47
0.0
 48
0.0
 49
0.0
140
0.0
141
0.0
142
1.0
143
1.0
 70
   688
 72
     0
 73
     0
 74
     5
  7
彩色出圖.ctb
 75
    16
147
1.0
148
0.0
149
0.0
100
AcDbLayout
  1
配置2
 70
     1
 71
     2
 10
0.0
 20
0.0
 11
12.0
 21
9.0
 12
0.0
 22
0.0
 32
0.0
 14
0.0
 24
0.0
 34
0.0
 15
0.0
 25
0.0
 35
0.0
146
0.0
 13
0.0
 23
0.0
 33
0.0
 16
1.0
 26
0.0
 36
0.0
 17
0.0
 27
1.0
 37
0.0
 76
     0
330
23
  0
MLINESTYLE
  5
18
102
{ACAD_REACTORS
330
17
102
}
330
17
100
AcDbMlineStyle
  2
STANDARD
 70
     0
  3

 62
   256
 51
90.0
 52
90.0
 71
     2
 49
0.5
 62
   256
  6
BYLAYER
 49
-0.5
 62
   256
  6
BYLAYER
  0
ACDBPLACEHOLDER
  5
F
102
{ACAD_REACTORS
330
E
102
}
330
E
  0
TABLESTYLE
  5
11B
102
{ACAD_REACTORS
330
11A
102
}
330
11A
100
AcDbTableStyle
  3
Standard
 70
     0
 71
     0
 40
1.5
 41
1.5
280
     0
281
     0
  7
STANDARD
140
4.5
170
     2
 62
     0
 63
     7
283
     0
274
    -2
284
     1
 64
     0
275
    -2
285
     1
 65
     0
276
    -2
286
     1
 66
     0
277
    -2
287
     1
 67
     0
278
    -2
288
     1
 68
     0
279
    -2
289
     1
 69
     0
  7
STANDARD
140
6.0
170
     5
 62
     0
 63
     7
283
     0
274
    -2
284
     1
 64
     0
275
    -2
285
     1
 65
     0
276
    -2
286
     1
 66
     0
277
    -2
287
     1
 67
     0
278
    -2
288
     1
 68
     0
279
    -2
289
     1
 69
     0
  7
STANDARD
140
4.5
170
     5
 62
     0
 63
     7
283
     0
274
    -2
284
     1
 64
     0
275
    -2
285
     1
 65
     0
276
    -2
286
     1
 66
     0
277
    -2
287
     1
 67
     0
278
    -2
288
     1
 68
     0
279
    -2
289
     1
 69
     0
  0
DICTIONARYVAR
  5
138
102
{ACAD_REACTORS
330
94
102
}
330
94
100
DictionaryVariables
280
     0
  1
STANDARD
  0
DICTIONARYVAR
  5
96
102
{ACAD_REACTORS
330
94
102
}
330
94
100
DictionaryVariables
280
     0
  1
2
  0
DICTIONARYVAR
  5
95
102
{ACAD_REACTORS
330
94
102
}
330
94
100
DictionaryVariables
280
     0
  1
0
  0
DICTIONARYVAR
  5
15D2
102
{ACAD_REACTORS
330
94
102
}
330
94
100
DictionaryVariables
280
     0
  1

  0
DICTIONARY
  5
1B5
102
{ACAD_REACTORS
330
5B
102
}
330
5B
100
AcDbDictionary
281
     1
  0
DICTIONARY
  5
61
102
{ACAD_REACTORS
330
5B
102
}
330
5B
100
AcDbDictionary
281
     1
  0
XRECORD
  5
123
102
{ACAD_REACTORS
330
5B
102
}
330
5B
100
AcDbXrecord
280
     1
 90
-1023410169
  0
DICTIONARY
  5
15D8
330
22
100
AcDbDictionary
280
     1
281
     1
  3
ACAD_XREC_ROUNDTRIP
360
15D9
  0
DICTIONARY
  5
15D6
330
1E
100
AcDbDictionary
280
     1
281
     1
  3
ACAD_XREC_ROUNDTRIP
360
15D7
  0
DICTIONARY
  5
15DA
330
26
100
AcDbDictionary
280
     1
281
     1
  3
ACAD_XREC_ROUNDTRIP
360
15DB
  0
XRECORD
  5
15D9
102
{ACAD_REACTORS
330
15D8
102
}
330
15D8
100
AcDbXrecord
280
     1
102
SHADEPLOT
 70
     0
102
SHADEPLOTRESLEVEL
 70
     2
102
SHADEPLOTCUSTOMDPI
 70
   300
  0
XRECORD
  5
15D7
102
{ACAD_REACTORS
330
15D6
102
}
330
15D6
100
AcDbXrecord
280
     1
102
SHADEPLOT
 70
     0
102
SHADEPLOTRESLEVEL
 70
     2
102
SHADEPLOTCUSTOMDPI
 70
   300
  0
XRECORD
  5
15DB
102
{ACAD_REACTORS
330
15DA
102
}
330
15DA
100
AcDbXrecord
280
     1
102
SHADEPLOT
 70
     0
102
SHADEPLOTRESLEVEL
 70
     2
102
SHADEPLOTCUSTOMDPI
 70
   300
  0
ENDSEC
  0
EOF
