  0
SECTION
  2
HEADER
  9
$ACADVER
  1
AC1015
  9
$ACADMAINTVER
 70
    20
  9
$DWGCODEPAGE
  3
ANSI_950
  9
$INSBASE
 10
0.0
 20
0.0
 30
0.0
  9
$EXTMIN
 10
1075.154707573725
 20
788.0761527335812
 30
-0.0078372236869768
  9
$EXTMAX
 10
1399.027617973941
 20
1192.229428766227
 30
220.1809006101619
  9
$LIMMIN
 10
0.0
 20
0.0
  9
$LIMMAX
 10
420.0
 20
297.0
  9
$ORTHOMODE
 70
     1
  9
$REGENMODE
 70
     1
  9
$FILLMODE
 70
     1
  9
$QTEXTMODE
 70
     0
  9
$MIRRTEXT
 70
     1
  9
$LTSCALE
 40
1.0
  9
$ATTMODE
 70
     1
  9
$TEXTSIZE
 40
3.0
  9
$TRACEWID
 40
1.0
  9
$TEXTSTYLE
  7
STANDARD
  9
$CLAYER
  8
0
  9
$CELTYPE
  6
ByLayer
  9
$CECOLOR
 62
   256
  9
$CELTSCALE
 40
1.0
  9
$DISPSILH
 70
     0
  9
$DIMSCALE
 40
1.0
  9
$DIMASZ
 40
3.0
  9
$DIMEXO
 40
1.0
  9
$DIMDLI
 40
12.0
  9
$DIMRND
 40
0.0
  9
$DIMDLE
 40
0.0
  9
$DIMEXE
 40
1.5
  9
$DIMTP
 40
0.1
  9
$DIMTM
 40
0.1
  9
$DIMTXT
 40
3.5
  9
$DIMCEN
 40
0.0
  9
$DIMTSZ
 40
0.0
  9
$DIMTOL
 70
     0
  9
$DIMLIM
 70
     0
  9
$DIMTIH
 70
     0
  9
$DIMTOH
 70
     0
  9
$DIMSE1
 70
     0
  9
$DIMSE2
 70
     0
  9
$DIMTAD
 70
     1
  9
$DIMZIN
 70
     8
  9
$DIMBLK
  1

  9
$DIMASO
 70
     1
  9
$DIMSHO
 70
     1
  9
$DIMPOST
  1

  9
$DIMAPOST
  1
"
  9
$DIMALT
 70
     0
  9
$DIMALTD
 70
     2
  9
$DIMALTF
 40
0.0393701
  9
$DIMLFAC
 40
1.0
  9
$DIMTOFL
 70
     1
  9
$DIMTVP
 40
0.0
  9
$DIMTIX
 70
     0
  9
$DIMSOXD
 70
     0
  9
$DIMSAH
 70
     0
  9
$DIMBLK1
  1

  9
$DIMBLK2
  1

  9
$DIMSTYLE
  2
AM_ISO
  9
$DIMCLRD
 70
   256
  9
$DIMCLRE
 70
   256
  9
$DIMCLRT
 70
   256
  9
$DIMTFAC
 40
0.6
  9
$DIMGAP
 40
0.7
  9
$DIMJUST
 70
     0
  9
$DIMSD1
 70
     0
  9
$DIMSD2
 70
     0
  9
$DIMTOLJ
 70
     0
  9
$DIMTZIN
 70
     8
  9
$DIMALTZ
 70
     0
  9
$DIMALTTZ
 70
     0
  9
$DIMUPT
 70
     0
  9
$DIMDEC
 70
     2
  9
$DIMTDEC
 70
     8
  9
$DIMALTU
 70
     2
  9
$DIMALTTD
 70
     2
  9
$DIMTXSTY
  7
STANDARD
  9
$DIMAUNIT
 70
     0
  9
$DIMADEC
 70
     0
  9
$DIMALTRND
 40
0.0
  9
$DIMAZIN
 70
     2
  9
$DIMDSEP
 70
    46
  9
$DIMATFIT
 70
     3
  9
$DIMFRAC
 70
     0
  9
$DIMLDRBLK
  1

  9
$DIMLUNIT
 70
     2
  9
$DIMLWD
 70
    -1
  9
$DIMLWE
 70
    -1
  9
$DIMTMOVE
 70
     0
  9
$LUNITS
 70
     2
  9
$LUPREC
 70
     2
  9
$SKETCHINC
 40
1.0
  9
$FILLETRAD
 40
2.5
  9
$AUNITS
 70
     0
  9
$AUPREC
 70
     0
  9
$MENU
  1
.
  9
$ELEVATION
 40
0.0
  9
$PELEVATION
 40
0.0
  9
$THICKNESS
 40
0.0
  9
$LIMCHECK
 70
     0
  9
$CHAMFERA
 40
2.5
  9
$CHAMFERB
 40
2.5
  9
$CHAMFERC
 40
20.0
  9
$CHAMFERD
 40
0.0
  9
$SKPOLY
 70
     0
  9
$TDCREATE
 40
2454098.708838426
  9
$TDUCREATE
 40
2454098.375505093
  9
$TDUPDATE
 40
2454789.460737060
  9
$TDUUPDATE
 40
2454789.127403727
  9
$TDINDWG
 40
0.5884345255
  9
$TDUSRTIMER
 40
0.5884345255
  9
$USRTIMER
 70
     1
  9
$ANGBASE
 50
0.0
  9
$ANGDIR
 70
     0
  9
$PDMODE
 70
     0
  9
$PDSIZE
 40
0.0
  9
$PLINEWID
 40
0.0
  9
$SPLFRAME
 70
     0
  9
$SPLINETYPE
 70
     6
  9
$SPLINESEGS
 70
     8
  9
$HANDSEED
  5
78B6
  9
$SURFTAB1
 70
     6
  9
$SURFTAB2
 70
     6
  9
$SURFTYPE
 70
     6
  9
$SURFU
 70
     6
  9
$SURFV
 70
     6
  9
$UCSBASE
  2

  9
$UCSNAME
  2

  9
$UCSORG
 10
0.0
 20
0.0
 30
0.0
  9
$UCSXDIR
 10
1.0
 20
0.0
 30
0.0
  9
$UCSYDIR
 10
0.0
 20
1.0
 30
0.0
  9
$UCSORTHOREF
  2

  9
$UCSORTHOVIEW
 70
     0
  9
$UCSORGTOP
 10
0.0
 20
0.0
 30
0.0
  9
$UCSORGBOTTOM
 10
0.0
 20
0.0
 30
0.0
  9
$UCSORGLEFT
 10
0.0
 20
0.0
 30
0.0
  9
$UCSORGRIGHT
 10
0.0
 20
0.0
 30
0.0
  9
$UCSORGFRONT
 10
0.0
 20
0.0
 30
0.0
  9
$UCSORGBACK
 10
0.0
 20
0.0
 30
0.0
  9
$PUCSBASE
  2

  9
$PUCSNAME
  2

  9
$PUCSORG
 10
0.0
 20
0.0
 30
0.0
  9
$PUCSXDIR
 10
1.0
 20
0.0
 30
0.0
  9
$PUCSYDIR
 10
0.0
 20
1.0
 30
0.0
  9
$PUCSORTHOREF
  2

  9
$PUCSORTHOVIEW
 70
     0
  9
$PUCSORGTOP
 10
0.0
 20
0.0
 30
0.0
  9
$PUCSORGBOTTOM
 10
0.0
 20
0.0
 30
0.0
  9
$PUCSORGLEFT
 10
0.0
 20
0.0
 30
0.0
  9
$PUCSORGRIGHT
 10
0.0
 20
0.0
 30
0.0
  9
$PUCSORGFRONT
 10
0.0
 20
0.0
 30
0.0
  9
$PUCSORGBACK
 10
0.0
 20
0.0
 30
0.0
  9
$USERI1
 70
     0
  9
$USERI2
 70
     0
  9
$USERI3
 70
     0
  9
$USERI4
 70
     0
  9
$USERI5
 70
     0
  9
$USERR1
 40
0.0
  9
$USERR2
 40
0.0
  9
$USERR3
 40
0.0
  9
$USERR4
 40
0.0
  9
$USERR5
 40
0.0
  9
$WORLDVIEW
 70
     1
  9
$SHADEDGE
 70
     3
  9
$SHADEDIF
 70
    70
  9
$TILEMODE
 70
     1
  9
$MAXACTVP
 70
    64
  9
$PINSBASE
 10
0.0
 20
0.0
 30
0.0
  9
$PLIMCHECK
 70
     0
  9
$PEXTMIN
 10
1.000000000000000E+20
 20
1.000000000000000E+20
 30
1.000000000000000E+20
  9
$PEXTMAX
 10
-1.000000000000000E+20
 20
-1.000000000000000E+20
 30
-1.000000000000000E+20
  9
$PLIMMIN
 10
0.0
 20
0.0
  9
$PLIMMAX
 10
420.0
 20
297.0
  9
$UNITMODE
 70
     0
  9
$VISRETAIN
 70
     1
  9
$PLINEGEN
 70
     0
  9
$PSLTSCALE
 70
     1
  9
$TREEDEPTH
 70
  3020
  9
$CMLSTYLE
  2
Standard
  9
$CMLJUST
 70
     0
  9
$CMLSCALE
 40
20.0
  9
$PROXYGRAPHICS
 70
     1
  9
$MEASUREMENT
 70
     1
  9
$CELWEIGHT
370
    -1
  9
$ENDCAPS
280
     0
  9
$JOINSTYLE
280
     0
  9
$LWDISPLAY
290
     0
  9
$INSUNITS
 70
     4
  9
$HYPERLINKBASE
  1

  9
$STYLESHEET
  1
acad.ctb
  9
$XEDIT
290
     1
  9
$CEPSNTYPE
380
     0
  9
$PSTYLEMODE
290
     1
  9
$FINGERPRINTGUID
  2
{7A381171-16FB-4E44-972A-3DD660A2669C}
  9
$VERSIONGUID
  2
{AFAA6892-3B31-4926-8F11-44FDAD3541F1}
  9
$EXTNAMES
290
     1
  9
$PSVPSCALE
 40
0.0
  9
$OLESTARTUP
290
     0
  0
ENDSEC
  0
SECTION
  2
CLASSES
  0
CLASS
  1
ACDBDICTIONARYWDFLT
  2
AcDbDictionaryWithDefault
  3
ObjectDBX Classes
 90
        0
280
     0
281
     0
  0
CLASS
  1
ACDBPLACEHOLDER
  2
AcDbPlaceHolder
  3
ObjectDBX Classes
 90
        0
280
     0
281
     0
  0
CLASS
  1
LAYOUT
  2
AcDbLayout
  3
ObjectDBX Classes
 90
        0
280
     0
281
     0
  0
CLASS
  1
ACME_DOCUMENT
  2
AcMeDbDoc
  3
AcMeServices
 90
        0
280
     0
281
     0
  0
CLASS
  1
AMGSETTINGSOBJ
  2
AmgSettingsObj
  3
"AcadM|Product Description: AutoCAD Mechanical 2000|Company: Autodesk"
 90
        0
280
     0
281
     0
  0
CLASS
  1
ACMESCOPE
  2
AcMeScope
  3
AcMeServices
 90
        0
280
     0
281
     0
  0
CLASS
  1
ACMECOMMANDHISTORY
  2
AcMeCommandHistory
  3
AcMeServices
 90
        0
280
     0
281
     0
  0
CLASS
  1
ACIMSYSVARMAN
  2
AcImSysVarManager
  3
AcMeServices
 90
        0
280
     0
281
     0
  0
CLASS
  1
ACIMREALSYSVAR
  2
AcImRealSysVar
  3
AcMeServices
 90
        0
280
     0
281
     0
  0
CLASS
  1
ACIMINTSYSVAR
  2
AcImIntSysVar
  3
AcMeServices
 90
        0
280
     0
281
     0
  0
CLASS
  1
ACMEDRAWINGMAN
  2
AcMeDrawingMan
  3
AcMeServices
 90
        0
280
     0
281
     0
  0
CLASS
  1
ACMEVIEW
  2
AcMeView
  3
AcMeServices
 90
        0
280
     0
281
     0
  0
CLASS
  1
ACDBENTITYCACHE
  2
AcMeEntityCache
  3
AcMeServices
 90
        0
280
     0
281
     0
  0
CLASS
  1
GSMANAGER
  2
AcMeGSManager
  3
AcMeServices
 90
        0
280
     0
281
     0
  0
CLASS
  1
AMDTINTERNALREACTOR
  2
AmdtInternalReactor
  3
AcMeServices
 90
        0
280
     0
281
     0
  0
CLASS
  1
ACMESTATEMGR
  2
AcMeStateMgr
  3
AcMeServices
 90
        0
280
     0
281
     0
  0
CLASS
  1
ACGREFMASTER
  2
AcGrefMaster
  3
AcAttribServices
 90
        0
280
     0
281
     0
  0
CLASS
  1
ACME_DATABASE
  2
AcMeDbDatabase
  3
AcMeServices
 90
        0
280
     0
281
     0
  0
CLASS
  1
ACRFINSADJUSTERMGR
  2
AcRfInsAdjusterMgr
  3
AcMeServices
 90
        0
280
     0
281
     0
  0
CLASS
  1
ACGREFACADMASTER
  2
AcGrefacadMaster
  3
AcGrefServices
 90
        0
280
     0
281
     0
  0
CLASS
  1
AMIMASTER
  2
AmiMaster
  3
AmiServices
 90
        0
280
     0
281
     0
  0
CLASS
  1
ACMDATADICTIONARY
  2
AcmDataDictionary
  3
"AcmSymBB|Product Description: AutoCAD Mechanical 2004 DX|Company: Autodesk"
 90
        0
280
     0
281
     0
  0
CLASS
  1
ACMDATAENTRYBLOCK
  2
AcmDataEntryBlock
  3
"AcmSymBB|Product Description: AutoCAD Mechanical 2004 DX|Company: Autodesk"
 90
    32768
280
     0
281
     0
  0
CLASS
  1
ACIMSTRSYSVAR
  2
AcImStrSysVar
  3
AcMeServices
 90
        0
280
     0
281
     0
  0
CLASS
  1
ACMSTANDARDISO
  2
AcmStandardISO
  3
"Amdt_StdImp|Product Description: AutoCAD Mechanical 2004 DX|Company: Autodesk"
 90
        0
280
     0
281
     0
  0
CLASS
  1
AMGOBJPROPCFG
  2
AmgObjPropCfg
  3
"AmgLay|Product Description: AutoCAD Mechanical 2000|Company: Autodesk"
 90
        1
280
     0
281
     0
  0
CLASS
  1
AMDTEDGESTANDARDISO
  2
AmdtEdgeStdISO
  3
"Amdt_StdImp|Product Description: AutoCAD Mechanical 2004 DX|Company: Autodesk"
 90
    32768
280
     0
281
     0
  0
CLASS
  1
ACMSURFSTANDARDISO
  2
AcmSurfTextStdISO
  3
"Amdt_StdImp|Product Description: AutoCAD Mechanical 2004 DX|Company: Autodesk"
 90
        0
280
     0
281
     0
  0
CLASS
  1
ACMFCFSTANDARDISO
  2
AcmFCFStdISO
  3
"Amdt_StdImp|Product Description: AutoCAD Mechanical 2004 DX|Company: Autodesk"
 90
        0
280
     0
281
     0
  0
CLASS
  1
ACMWELDSTANDARDISO
  2
AcmWeldingStdISO
  3
"Amdt_StdImp|Product Description: AutoCAD Mechanical 2004 DX|Company: Autodesk"
 90
        0
280
     0
281
     0
  0
CLASS
  1
ACMIDSTANDARDISO
  2
AcmIdStdISO
  3
"Amdt_StdImp|Product Description: AutoCAD Mechanical 2004 DX|Company: Autodesk"
 90
        0
280
     0
281
     0
  0
CLASS
  1
ACMDATUMSTANDARDISO
  2
AcmDatumStdISO
  3
"Amdt_StdImp|Product Description: AutoCAD Mechanical 2004 DX|Company: Autodesk"
 90
        0
280
     0
281
     0
  0
CLASS
  1
ACMBOMSTANDARDISO
  2
AcmBOMStdISO
  3
"Amdt_StdImp|Product Description: AutoCAD Mechanical 2004 DX|Company: Autodesk"
 90
        0
280
     0
281
     0
  0
CLASS
  1
ACMDETAILSTANDARDISO
  2
AmdtDetailSymStdISO
  3
"Amdt_StdImp|Product Description: AutoCAD Mechanical 2004 DX|Company: Autodesk"
 90
        0
280
     0
281
     0
  0
CLASS
  1
ACMSECTIONSTANDARDISO
  2
AmdtSectionSymStdISO
  3
"Amdt_StdImp|Product Description: AutoCAD Mechanical 2004 DX|Company: Autodesk"
 90
        0
280
     0
281
     0
  0
CLASS
  1
ACMCENTERLINESTANDARDISO
  2
AmdtCenterLineStdISO
  3
"Amdt_StdImp|Product Description: AutoCAD Mechanical 2004 DX|Company: Autodesk"
 90
        0
280
     0
281
     0
  0
CLASS
  1
ACMNOTESTANDARDISO
  2
AmdtNoteStdISO
  3
"Amdt_StdImp|Product Description: AutoCAD Mechanical 2004 DX|Company: Autodesk"
 90
        0
280
     0
281
     0
  0
CLASS
  1
ACAMGLAYSTD
  2
AcAmgLayStd
  3
"AcAmgLayStd|Product Description: AutoCAD Mechanical 2000|Company: Autodesk"
 90
        0
280
     0
281
     0
  0
CLASS
  1
ACAMGDIMSTD
  2
AcAmgDimStd
  3
"AcAmgDimStd|Product Description: AutoCAD Mechanical 2000|Company: Autodesk"
 90
        0
280
     0
281
     0
  0
CLASS
  1
ACAMGHOLECHARTSTDISO
  2
AcAmgHoleChartStdISO
  3
ACMSYMBB_MODULE_NAME
 90
        0
280
     0
281
     0
  0
CLASS
  1
ACAMGTITLESTD
  2
AcAmgTitleStd
  3
"TITLEAPP"
 90
        0
280
     0
281
     0
  0
CLASS
  1
LAYER_INDEX
  2
AcDbLayerIndex
  3
ObjectDBX Classes
 90
    32768
280
     0
281
     0
  0
CLASS
  1
IDBUFFER
  2
AcDbIdBuffer
  3
ObjectDBX Classes
 90
    32768
280
     0
281
     0
  0
CLASS
  1
DICTIONARYVAR
  2
AcDbDictionaryVar
  3
ObjectDBX Classes
 90
        0
280
     0
281
     0
  0
CLASS
  1
AM_DRAWING_MGR
  2
AcDmDwgMgr
  3
AcMechDwgViewMgmt
 90
        0
280
     0
281
     0
  0
CLASS
  1
AM_DWG_DOCUMENT
  2
AcDmDwgDocument
  3
AcMechDwgViewMgmt
 90
        0
280
     0
281
     0
  0
CLASS
  1
AM_DWG_SHEET
  2
AcDmSheet
  3
AcMechDwgViewMgmt
 90
        0
280
     0
281
     0
  0
CLASS
  1
AM_VIEWDIMPARMAP
  2
AcDmViewDimParMap
  3
AcMechDwgViewMgmt
 90
        0
280
     0
281
     0
  0
CLASS
  1
AM_DWGMGR_NAME
  2
AcDmDwgMgrName
  3
AcMechDwgViewMgmt
 90
        0
280
     0
281
     0
  0
CLASS
  1
AMDTMENUSTATEMGR
  2
AmdtMenuStateMgr
  3
McadcomServices
 90
        0
280
     0
281
     0
  0
CLASS
  1
AMDTMCOMMENUSTATE
  2
AmdtMcomMenuState
  3
McadcomServices
 90
        0
280
     0
281
     0
  0
CLASS
  1
MAPIAMMOUDLE
  2
MApiAmModule
  3
MApiAmServices
 90
        0
280
     0
281
     0
  0
CLASS
  1
AMDTADMENUSTATE
  2
AmdtAdMenuState
  3
DesignerServices
 90
        0
280
     0
281
     0
  0
CLASS
  1
ADAPPL
  2
AcAdAppl
  3
DesignerServices
 90
        0
280
     0
281
     0
  0
CLASS
  1
DEPMGR
  2
AcAdDepMgr
  3
DesignerServices
 90
        0
280
     0
281
     0
  0
CLASS
  1
PARAMMGR
  2
AcAdParamMgr
  3
DesignerServices
 90
        0
280
     0
281
     0
  0
CLASS
  1
PARAMSCOPE
  2
AcAdParamScope
  3
DesignerServices
 90
        0
280
     0
281
     0
  0
CLASS
  1
NAMEDAPPL
  2
AcAdNamedAppl
  3
DesignerServices
 90
        0
280
     0
281
     0
  0
CLASS
  1
AMDTDMMENUSTATE
  2
AmdtDmMenuState
  3
AcMechDwgViewMgmt
 90
        0
280
     0
281
     0
  0
CLASS
  1
AMDTAMMENUSTATE
  2
AmdtAmMenuState
  3
DesignerAssemblies
 90
        0
280
     0
281
     0
  0
CLASS
  1
ACAMPROJECT
  2
AcAmProject
  3
DesignerAssemblies
 90
        0
280
     0
281
     0
  0
CLASS
  1
ACAMGRCOMPDEF
  2
AcAmGrCompDef
  3
DesignerAssemblies
 90
        0
280
     0
281
     0
  0
CLASS
  1
ACCMCONTEXT
  2
AcCmContext
  3
DesignerAssemblies
 90
        0
280
     0
281
     0
  0
CLASS
  1
ACAMCOMPDEF
  2
AcAmCompDef
  3
DesignerAssemblies
 90
        0
280
     0
281
     0
  0
CLASS
  1
ACAMCOMPDEFMGR
  2
AcAmCompDefMgr
  3
DesignerAssemblies
 90
        0
280
     0
281
     0
  0
CLASS
  1
AMCONTEXTMGR
  2
AcAmContextMgr
  3
DesignerAssemblies
 90
        0
280
     0
281
     0
  0
CLASS
  1
ACAMCONTEXTMODELER
  2
AcAmContextModeler
  3
DesignerAssemblies
 90
        0
280
     0
281
     0
  0
CLASS
  1
ACMTHREADLINESTANDARDISO
  2
AmdtThreadLineStdISO
  3
"Amdt_StdImp|Product Description: AutoCAD Mechanical 2004 DX|Company: Autodesk"
 90
        0
280
     0
281
     0
  0
CLASS
  1
CATALOGSTATE
  2
AcAmCatalogState
  3
DesignerAssemblies
 90
        0
280
     0
281
     0
  0
CLASS
  1
ACAMGRCOMPDEFSET
  2
AcAmGrCompDefSet
  3
DesignerAssemblies
 90
        0
280
     0
281
     0
  0
CLASS
  1
AMDTBROWSERDBTAB
  2
AmdtBrowserDbTab
  3
McadcomServices
 90
        0
280
     0
281
     0
  0
CLASS
  1
CBROWSERAPPOBJECT
  2
CBrowserAppObject
  3
McadcomServices
 90
        0
280
     0
281
     0
  0
CLASS
  1
DM_PLACEHOLDER
  2
AcDmSelsetPlaceholder
  3
AcMechDwgViewMgmt
 90
        0
280
     0
281
     0
  0
CLASS
  1
TABLESTYLE
  2
AcDbTableStyle
  3
ObjectDBX Classes
 90
     2047
280
     0
281
     0
  0
CLASS
  1
VAACXREFPANELOBJECT
  2
VaAcXREFPanelObject
  3
VAAC_ADDIN
 90
    32768
280
     0
281
     0
  0
CLASS
  1
VAACIMAGEINVENTORY
  2
VaAcImageInventory
  3
VAAC_ADDIN
 90
    32768
280
     0
281
     0
  0
CLASS
  1
AMDTNOTETEMPLATEDB
  2
AmdtNoteTemplateDB
  3
AMDT_STDIMP_MODULE_NAME
 90
        0
280
     0
281
     0
  0
CLASS
  1
ACMBOM
  2
AcmBom
  3
"AcmSymBB|Product Description: AutoCAD Mechanical 2004 DX|Company: Autodesk"
 90
    32768
280
     0
281
     0
  0
CLASS
  1
AMDTFORMULAUPDATEDISPATCHER
  2
AmdtFormulaUpdateDispatcher
  3
AcMeServices
 90
    32768
280
     0
281
     0
  0
CLASS
  1
ACMPARTLIST
  2
AcmPartList
  3
"AcmSymBB|Product Description: AutoCAD Mechanical 2004 DX|Company: Autodesk"
 90
    33791
280
     0
281
     1
  0
CLASS
  1
ACAMGFILTERDAT
  2
AcAmgFilterDat
  3
"AcadM|Product Description: AutoCAD Mechanical 2000|Company: Autodesk"
 90
    32768
280
     0
281
     0
  0
CLASS
  1
DIMASSOC
  2
AcDbDimAssoc
  3
"AcDbDimAssoc|Product Desc:     AcDim ARX App For Dimension|Company:          Autodesk, Inc.|WEB Address:      www.autodesk.com"
 90
    32768
280
     0
281
     0
  0
CLASS
  1
SORTENTSTABLE
  2
AcDbSortentsTable
  3
ObjectDBX Classes
 90
        0
280
     0
281
     0
  0
CLASS
  1
AMDTNOTE
  2
AmdtNote
  3
"AcmSymBB|Product Description: AutoCAD Mechanical 2004 DX|Company: Autodesk"
 90
    33791
280
     0
281
     1
  0
CLASS
  1
AMDTEDGESTANDARDISO13715
  2
AmdtEdgeStdISO13715
  3
"Amdt_StdImp|Product Description: AutoCAD Mechanical 2004 DX|Company: Autodesk"
 90
        0
280
     0
281
     0
  0
CLASS
  1
ACRFATTGENMGR
  2
AcRfAttGeneralMgr
  3
AcAttribServices
 90
        0
280
     0
281
     0
  0
ENDSEC
  0
SECTION
  2
TABLES
  0
TABLE
  2
VPORT
  5
8
330
0
100
AcDbSymbolTable
 70
     4
  0
VPORT
  5
78AD
330
8
100
AcDbSymbolTableRecord
100
AcDbViewportTableRecord
  2
*Active
 70
     0
 10
0.0
 20
0.0
 11
1.0
 21
1.0
 12
1237.091162773833
 22
990.1527907499044
 13
0.0
 23
0.0
 14
2.5
 24
2.5
 15
10.0
 25
10.0
 16
0.0
 26
0.0
 36
1.0
 17
0.0
 27
0.0
 37
0.0
 40
536.7729041474425
 41
1.283837056504599
 42
50.0
 43
0.0
 44
0.0
 50
0.0
 51
0.0
 71
     0
 72
   100
 73
     1
 74
     3
 75
     0
 76
     0
 77
     0
 78
     0
281
     0
 65
     1
110
0.0
120
0.0
130
0.0
111
1.0
121
0.0
131
0.0
112
0.0
122
1.0
132
0.0
 79
     0
146
0.0
  0
ENDTAB
  0
TABLE
  2
LTYPE
  5
5
330
0
100
AcDbSymbolTable
 70
    14
  0
LTYPE
  5
14
330
5
100
AcDbSymbolTableRecord
100
AcDbLinetypeTableRecord
  2
ByBlock
 70
     0
  3

 72
    65
 73
     0
 40
0.0
  0
LTYPE
  5
15
330
5
100
AcDbSymbolTableRecord
100
AcDbLinetypeTableRecord
  2
ByLayer
 70
     0
  3

 72
    65
 73
     0
 40
0.0
  0
LTYPE
  5
16
330
5
100
AcDbSymbolTableRecord
100
AcDbLinetypeTableRecord
  2
Continuous
 70
     0
  3
Solid line
 72
    65
 73
     0
 40
0.0
  0
LTYPE
  5
64
330
5
100
AcDbSymbolTableRecord
100
AcDbLinetypeTableRecord
  2
AM_ISO02W050
 70
     0
  3
__ __ __ __ __ __ __ __ __ __ __ __ __ __ __
 72
    65
 73
     2
 40
7.5
 49
6.0
 74
     0
 49
-1.5
 74
     0
  0
LTYPE
  5
65
330
5
100
AcDbSymbolTableRecord
100
AcDbLinetypeTableRecord
  2
AM_ISO08W050
 70
     0
  3
____ . ____ . ____ . ____ . ____ . ____ . ____
 72
    65
 73
     4
 40
18.0
 49
12.0
 74
     0
 49
-1.5
 74
     0
 49
3.0
 74
     0
 49
-1.5
 74
     0
  0
LTYPE
  5
66
330
5
100
AcDbSymbolTableRecord
100
AcDbLinetypeTableRecord
  2
AM_ISO09W050
 70
     0
  3
_____ . . _____ . . _____ . . ____ .. ____
 72
    65
 73
     6
 40
22.5
 49
12.0
 74
     0
 49
-1.5
 74
     0
 49
3.0
 74
     0
 49
-1.5
 74
     0
 49
3.0
 74
     0
 49
-1.5
 74
     0
  0
LTYPE
  5
67
330
5
100
AcDbSymbolTableRecord
100
AcDbLinetypeTableRecord
  2
Amconstr
 70
     0
  3
_______________________
 72
    65
 73
     2
 40
9999.0
 49
9999.0
 74
     0
 49
0.0
 74
     0
  0
LTYPE
  5
68
330
5
100
AcDbSymbolTableRecord
100
AcDbLinetypeTableRecord
  2
AM_ISO08W050x2
 70
     0
  3
__ . __ . __ . __ . __ . __
 72
    65
 73
     4
 40
9.0
 49
6.0
 74
     0
 49
-0.75
 74
     0
 49
1.5
 74
     0
 49
-0.75
 74
     0
  0
LTYPE
  5
69
330
5
100
AcDbSymbolTableRecord
100
AcDbLinetypeTableRecord
  2
AM_ISO02W050x2
 70
     0
  3
 _ _ _ _ _ _ _ _ _ _ _ _
 72
    65
 73
     2
 40
3.75
 49
3.0
 74
     0
 49
-0.75
 74
     0
  0
LTYPE
  5
6C
330
5
100
AcDbSymbolTableRecord
100
AcDbLinetypeTableRecord
  2
Amzigzag
 70
     0
  3
/\/-/\/-/\/-/\/-/\/-/\/
 72
    65
 73
     2
 40
11.0001
 49
0.0001
 74
     4
 75
   135
340
6B
 46
0.04
 50
0.0
 44
0.0
 45
0.0
 49
-11.0
 74
     0
  0
LTYPE
  5
7A
330
5
100
AcDbSymbolTableRecord
100
AcDbLinetypeTableRecord
  2
ACISOWELD
 70
     0
  3
_ _ _ _ _
 72
    65
 73
     2
 40
2.0
 49
2.0
 74
     0
 49
-1.0
 74
     0
  0
LTYPE
  5
7B
330
5
100
AcDbSymbolTableRecord
100
AcDbLinetypeTableRecord
  2
ACISOTGB
 70
     0
  3
__ . . __ . .
 72
    65
 73
     6
 40
9.0
 49
4.0
 74
     0
 49
-1.0
 74
     0
 49
1.0
 74
     0
 49
-1.0
 74
     0
 49
1.0
 74
     0
 49
-1.0
 74
     0
  0
LTYPE
  5
7C
330
5
100
AcDbSymbolTableRecord
100
AcDbLinetypeTableRecord
  2
ACISOTGL
 70
     0
  3
_ _ _ _ _
 72
    65
 73
     2
 40
3.0
 49
2.0
 74
     0
 49
-1.0
 74
     0
  0
LTYPE
  5
7E
330
5
100
AcDbSymbolTableRecord
100
AcDbLinetypeTableRecord
  2
CENTER
 70
     0
  3
__ . __
 72
    65
 73
     4
 40
7.0
 49
4.0
 74
     0
 49
-1.0
 74
     0
 49
1.0
 74
     0
 49
-1.0
 74
     0
  0
LTYPE
  5
D8
330
5
100
AcDbSymbolTableRecord
100
AcDbLinetypeTableRecord
  2
HIDDEN
 70
     0
  3
Hidden __ __ __ __ __ __ __ __ __ __ __ __ __ _
 72
    65
 73
     2
 40
9.524999999999998
 49
6.349999999999999
 74
     0
 49
-3.174999999999999
 74
     0
  0
LTYPE
  5
D9
330
5
100
AcDbSymbolTableRecord
100
AcDbLinetypeTableRecord
  2
PHANTOM2
 70
     0
  3
Phantom (.5x) ___ _ _ ___ _ _ ___ _ _ ___ _ _
 72
    65
 73
     6
 40
31.75
 49
15.875
 74
     0
 49
-3.174999999999999
 74
     0
 49
3.174999999999999
 74
     0
 49
-3.174999999999999
 74
     0
 49
3.174999999999999
 74
     0
 49
-3.174999999999999
 74
     0
  0
ENDTAB
  0
TABLE
  2
LAYER
  5
2
102
{ACAD_XDICTIONARY
360
3F9
102
}
330
0
100
AcDbSymbolTable
 70
    11
  0
LAYER
  5
10
330
2
100
AcDbSymbolTableRecord
100
AcDbLayerTableRecord
  2
0
 70
     0
 62
     7
  6
Continuous
370
    -3
390
F
  0
LAYER
  5
A8E
330
2
100
AcDbSymbolTableRecord
100
AcDbLayerTableRecord
  2
AM_VIS
 70
     0
 62
     7
  6
Continuous
370
    50
390
F
  0
LAYER
  5
A8F
330
2
100
AcDbSymbolTableRecord
100
AcDbLayerTableRecord
  2
AM_7
 70
     0
 62
     1
  6
CENTER
370
    25
390
F
  0
LAYER
  5
A90
330
2
100
AcDbSymbolTableRecord
100
AcDbLayerTableRecord
  2
BORDER
 70
     0
 62
     7
  6
Continuous
370
    -3
390
F
  0
LAYER
  5
A91
330
2
100
AcDbSymbolTableRecord
100
AcDbLayerTableRecord
  2
AM_0N
 70
     0
 62
     7
  6
Continuous
370
    50
390
F
  0
LAYER
  5
33A3
330
2
100
AcDbSymbolTableRecord
100
AcDbLayerTableRecord
  2
AM_5
 70
     0
 62
     5
  6
Continuous
370
    50
390
F
  0
LAYER
  5
33B7
330
2
100
AcDbSymbolTableRecord
100
AcDbLayerTableRecord
  2
Defpoints
 70
     0
 62
     7
  6
Continuous
290
     0
370
    -3
390
F
  0
LAYER
  5
5F63
330
2
100
AcDbSymbolTableRecord
100
AcDbLayerTableRecord
  2
LOGO
 70
     0
 62
     7
  6
Continuous
370
    -3
390
F
  0
LAYER
  5
7573
330
2
100
AcDbSymbolTableRecord
100
AcDbLayerTableRecord
  2
AM_HID
 70
     0
 62
     7
  6
AM_ISO02W050
370
    25
390
F
  0
LAYER
  5
7574
330
2
100
AcDbSymbolTableRecord
100
AcDbLayerTableRecord
  2
AM_REFDIM
 70
     0
 62
     4
  6
Continuous
370
    25
390
F
  0
LAYER
  5
771D
330
2
100
AcDbSymbolTableRecord
100
AcDbLayerTableRecord
  2
AM_10
 70
     0
 62
     7
  6
AM_ISO08W050
370
    50
390
F
  0
ENDTAB
  0
TABLE
  2
STYLE
  5
3
330
0
100
AcDbSymbolTable
 70
     7
  0
STYLE
  5
11
330
3
100
AcDbSymbolTableRecord
100
AcDbTextStyleTableRecord
  2
STANDARD
 70
     0
 40
0.0
 41
1.0
 50
0.0
 71
     0
 42
3.0
  3
ISOCP.SHX
  4
CHINESET.SHX
  0
STYLE
  5
6B
330
3
100
AcDbSymbolTableRecord
100
AcDbTextStyleTableRecord
  2

 70
     1
 40
0.0
 41
1.0
 50
0.0
 71
     0
 42
2.5
  3
ltypeshp.shx
  4

  0
STYLE
  5
6D
330
3
100
AcDbSymbolTableRecord
100
AcDbTextStyleTableRecord
  2
ACISOTS
 70
     0
 40
1.0
 41
1.0
 50
0.0
 71
     0
 42
1.0
  3
isocp.shx
  4
chineset.shx
  0
STYLE
  5
79
330
3
100
AcDbSymbolTableRecord
100
AcDbTextStyleTableRecord
  2
ACISOGDT
 70
     0
 40
0.0
 41
1.0
 50
0.0
 71
     0
 42
2.5
  3
amgdt.shx
  4
chineset.shx
  0
STYLE
  5
5F64
330
3
100
AcDbSymbolTableRecord
100
AcDbTextStyleTableRecord
  2
CHINESET
 70
     0
 40
0.0
 41
1.0
 50
0.0
 71
     0
 42
3.0
  3
simplex.shx
  4
CHINESET.SHX
  0
STYLE
  5
7575
330
3
100
AcDbSymbolTableRecord
100
AcDbTextStyleTableRecord
  2
DAYUS
 70
     0
 40
0.0
 41
1.0
 50
0.0
 71
     0
 42
2.5
  3
simplex.shx
  4
dayus.shx
  0
ENDTAB
  0
TABLE
  2
VIEW
  5
6
330
0
100
AcDbSymbolTable
 70
     0
  0
ENDTAB
  0
TABLE
  2
UCS
  5
7
330
0
100
AcDbSymbolTable
 70
     0
  0
ENDTAB
  0
TABLE
  2
APPID
  5
9
330
0
100
AcDbSymbolTable
 70
    23
  0
APPID
  5
12
330
9
100
AcDbSymbolTableRecord
100
AcDbRegAppTableRecord
  2
ACAD
 70
     0
  0
APPID
  5
46
330
9
100
AcDbSymbolTableRecord
100
AcDbRegAppTableRecord
  2
MCAD_NO_VIS
 70
     0
  0
APPID
  5
47
330
9
100
AcDbSymbolTableRecord
100
AcDbRegAppTableRecord
  2
ACAD_TEMP_GRAPHIC
 70
     0
  0
APPID
  5
58
330
9
100
AcDbSymbolTableRecord
100
AcDbRegAppTableRecord
  2
ACATTRIBSERVICES
 70
     0
  0
APPID
  5
EE
330
9
100
AcDbSymbolTableRecord
100
AcDbRegAppTableRecord
  2
AD_DRAW
 70
     0
  0
APPID
  5
10C
330
9
100
AcDbSymbolTableRecord
100
AcDbRegAppTableRecord
  2
DESIGNERASSEMBLIES
 70
     0
  0
APPID
  5
111
330
9
100
AcDbSymbolTableRecord
100
AcDbRegAppTableRecord
  2
ACADM_DIM_EDIT
 70
     0
  0
APPID
  5
112
330
9
100
AcDbSymbolTableRecord
100
AcDbRegAppTableRecord
  2
AMDT_DM_ADJ
 70
     0
  0
APPID
  5
22C
330
9
100
AcDbSymbolTableRecord
100
AcDbRegAppTableRecord
  2
ACAD_DSTYLE_DIMTEXT_FILL
 70
     0
  0
APPID
  5
452
330
9
100
AcDbSymbolTableRecord
100
AcDbRegAppTableRecord
  2
GENIUS_GENOENT_13
 70
     0
  0
APPID
  5
453
330
9
100
AcDbSymbolTableRecord
100
AcDbRegAppTableRecord
  2
GENIUS_GENOBJ-N-CRS_13
 70
     0
  0
APPID
  5
454
330
9
100
AcDbSymbolTableRecord
100
AcDbRegAppTableRecord
  2
GENIUS_GENOLIS_13
 70
     0
  0
APPID
  5
455
330
9
100
AcDbSymbolTableRecord
100
AcDbRegAppTableRecord
  2
GENIUS_GENODEF_13
 70
     0
  0
APPID
  5
456
330
9
100
AcDbSymbolTableRecord
100
AcDbRegAppTableRecord
  2
GENIUS_GENOREF_13
 70
     0
  0
APPID
  5
6F3
330
9
100
AcDbSymbolTableRecord
100
AcDbRegAppTableRecord
  2
ACAD_PSEXT
 70
     0
  0
APPID
  5
808
330
9
100
AcDbSymbolTableRecord
100
AcDbRegAppTableRecord
  2
GENIUS_GENDTOL_13
 70
     0
  0
APPID
  5
17FF
330
9
100
AcDbSymbolTableRecord
100
AcDbRegAppTableRecord
  2
GENIUS_GENOBJ-N-CEN_13
 70
     0
  0
APPID
  5
1800
330
9
100
AcDbSymbolTableRecord
100
AcDbRegAppTableRecord
  2
GENIUS_GENCEN_19
 70
     0
  0
APPID
  5
34E6
330
9
100
AcDbSymbolTableRecord
100
AcDbRegAppTableRecord
  2
GENIUS_GENOBJ-N-HTC_13
 70
     0
  0
APPID
  5
34E7
330
9
100
AcDbSymbolTableRecord
100
AcDbRegAppTableRecord
  2
GENIUS_GENHATCH_13
 70
     0
  0
APPID
  5
5F03
330
9
100
AcDbSymbolTableRecord
100
AcDbRegAppTableRecord
  2
AcAecLayerStandard
 70
     0
  0
APPID
  5
5F65
330
9
100
AcDbSymbolTableRecord
100
AcDbRegAppTableRecord
  2
GENIUS_GENREC_14
 70
     0
  0
APPID
  5
5F66
330
9
100
AcDbSymbolTableRecord
100
AcDbRegAppTableRecord
  2
GENIUS_GENOBJ-N-REC_13
 70
     0
  0
ENDTAB
  0
TABLE
  2
DIMSTYLE
  5
A
330
0
100
AcDbSymbolTable
 70
    11
100
AcDbDimStyleTable
 71
     3
340
81
340
8B
340
86
  0
DIMSTYLE
105
81
330
A
100
AcDbSymbolTableRecord
100
AcDbDimStyleTableRecord
  2
AM_ISO
 70
     0
  4
"
 41
3.0
 42
1.0
 43
12.0
 44
1.5
 47
0.1
 48
0.1
 73
     0
 74
     0
 77
     1
 78
     8
 79
     2
140
3.5
141
0.0
143
0.0393701
146
0.6
147
0.7
172
     1
176
   256
177
   256
178
   256
271
     2
272
     2
283
     0
284
     8
340
11
371
    -1
372
    -1
  0
DIMSTYLE
105
82
330
A
100
AcDbSymbolTableRecord
100
AcDbDimStyleTableRecord
  2
AM_ISO$3
 70
     0
  4
"
 41
3.0
 42
1.0
 43
12.0
 44
1.5
 47
0.1
 48
0.1
 73
     0
 77
     1
 78
     8
 79
     2
140
3.5
141
0.0
143
0.0393701
146
0.6
147
0.7
176
   256
177
   256
178
   256
271
     2
272
     2
283
     0
284
     8
288
     1
289
     0
340
11
371
    -1
372
    -1
  0
DIMSTYLE
105
83
330
A
100
AcDbSymbolTableRecord
100
AcDbDimStyleTableRecord
  2
AM_ISO$4
 70
     0
  4
"
 41
3.0
 42
1.0
 43
12.0
 44
1.5
 47
0.1
 48
0.1
 73
     0
 77
     1
 78
     8
 79
     2
140
3.5
141
0.0
143
0.0393701
146
0.6
147
0.7
176
   256
177
   256
178
   256
271
     2
272
     2
283
     0
284
     8
288
     1
289
     0
340
11
371
    -1
372
    -1
  0
DIMSTYLE
105
84
330
A
100
AcDbSymbolTableRecord
100
AcDbDimStyleTableRecord
  2
AM_ISO$6
 70
     0
  4
"
 41
3.0
 42
1.0
 43
12.0
 44
1.5
 47
0.1
 48
0.1
 73
     0
 74
     0
 78
     8
 79
     2
140
3.5
141
0.0
143
0.0393701
146
0.6
147
0.7
172
     1
176
   256
177
   256
178
   256
271
     2
272
     2
283
     0
284
     8
340
11
371
    -1
372
    -1
  0
DIMSTYLE
105
85
330
A
100
AcDbSymbolTableRecord
100
AcDbDimStyleTableRecord
  2
AM_ISO$7
 70
     0
  4
"
 41
3.0
 42
1.0
 43
12.0
 44
1.5
 47
0.1
 48
0.1
 73
     0
 74
     0
 77
     1
 78
     8
 79
     2
140
5.0
141
0.0
143
0.0393701
146
0.6
147
0.7
172
     1
176
   256
177
   256
178
   256
271
     2
272
     2
283
     0
284
     8
340
11
371
    -1
372
    -1
  0
DIMSTYLE
105
86
330
A
100
AcDbSymbolTableRecord
100
AcDbDimStyleTableRecord
  2
AM_ISO$SF
 70
     0
  4
"
 41
2.5
 42
1.0
 43
10.0
 44
1.0
 47
0.1
 48
0.1
 73
     0
 74
     0
 75
     1
 76
     1
 77
     1
 78
     8
 79
     2
140
3.5
141
0.0
143
0.0393701
146
0.71
147
1.5
172
     1
176
   256
177
   256
178
     2
271
     2
272
     3
274
     4
283
     0
284
     8
340
11
371
    -1
372
    -1
  0
DIMSTYLE
105
8B
330
A
100
AcDbSymbolTableRecord
100
AcDbDimStyleTableRecord
  2
AM_ISO$SH
 70
     0
  4
"
 41
2.5
 42
1.0
 43
10.0
 44
1.0
 47
0.1
 48
0.1
 73
     0
 74
     0
 75
     1
 76
     1
 77
     1
 78
     8
 79
     2
140
3.5
141
0.0
143
0.0393701
144
2.0
146
0.71
147
1.5
172
     1
173
     1
176
   256
177
   256
178
     2
271
     2
272
     3
274
     4
283
     0
284
     8
340
11
343
87
371
    -1
372
    -1
  0
DIMSTYLE
105
40B
102
{ACAD_REACTORS
330
7033
330
7036
330
7039
330
703C
330
7122
330
7125
330
7128
330
712B
330
712E
330
7131
330
7134
330
72AC
330
72AF
330
72B2
330
72B5
330
72B8
330
72BB
330
72BE
102
}
330
A
100
AcDbSymbolTableRecord
100
AcDbDimStyleTableRecord
  2
AM_ISO$0
 70
     0
  4
"
 41
3.0
 42
1.0
 43
12.0
 44
1.5
 47
0.1
 48
0.1
 73
     0
 74
     0
 77
     1
 78
     8
 79
     2
140
3.5
141
0.0
143
0.0393701
146
0.6
147
0.7
172
     1
176
   256
177
   256
178
   256
271
     2
272
     2
283
     0
284
     8
340
11
371
    -1
372
    -1
  0
DIMSTYLE
105
7576
330
A
100
AcDbSymbolTableRecord
100
AcDbDimStyleTableRecord
  2
AM_ANSI
 70
     0
  4
mm
 40
1.5
 41
0.1
 42
0.05
 43
0.5
 44
0.1
 47
0.1
 48
0.1
 78
     7
 79
     2
140
0.12
141
0.0
146
0.71
147
0.06
176
   256
177
   256
178
     2
274
     4
284
     7
340
11
371
    -1
372
    -1
  0
DIMSTYLE
105
7577
330
A
100
AcDbSymbolTableRecord
100
AcDbDimStyleTableRecord
  2
AM_ISO$2
 70
     0
  4
"
 40
1.199999999999999
 41
3.0
 42
1.5
 43
6.4
 44
2.0
 47
0.1
 48
0.1
 73
     0
 74
     0
 77
     3
 78
     8
 79
     2
140
3.0
141
0.0
143
0.0393701
146
0.6
147
0.8
172
     1
176
   256
177
   256
178
   256
271
     2
272
     2
284
     8
340
5F64
371
    -1
372
    -1
  0
ENDTAB
  0
TABLE
  2
BLOCK_RECORD
  5
1
330
0
100
AcDbSymbolTable
 70
    32
  0
BLOCK_RECORD
  5
1F
102
{ACAD_XDICTIONARY
360
8F
102
}
330
1
100
AcDbSymbolTableRecord
100
AcDbBlockTableRecord
  2
*Model_Space
340
22
  0
BLOCK_RECORD
  5
1B
330
1
100
AcDbSymbolTableRecord
100
AcDbBlockTableRecord
  2
*Paper_Space
340
1E
  0
BLOCK_RECORD
  5
23
330
1
100
AcDbSymbolTableRecord
100
AcDbBlockTableRecord
  2
*Paper_Space0
340
26
  0
BLOCK_RECORD
  5
87
330
1
100
AcDbSymbolTableRecord
100
AcDbBlockTableRecord
  2
GENAXEH
340
0
  0
BLOCK_RECORD
  5
A7E
330
1
100
AcDbSymbolTableRecord
100
AcDbBlockTableRecord
  2
A$C75484636
340
0
102
{BLKREFS
331
6A9A
102
}
  0
BLOCK_RECORD
  5
703D
330
1
100
AcDbSymbolTableRecord
100
AcDbBlockTableRecord
  2
*D3
340
0
  0
BLOCK_RECORD
  5
7049
330
1
100
AcDbSymbolTableRecord
100
AcDbBlockTableRecord
  2
*D4
340
0
  0
BLOCK_RECORD
  5
7055
330
1
100
AcDbSymbolTableRecord
100
AcDbBlockTableRecord
  2
*D5
340
0
  0
BLOCK_RECORD
  5
7061
330
1
100
AcDbSymbolTableRecord
100
AcDbBlockTableRecord
  2
*D6
340
0
  0
BLOCK_RECORD
  5
7137
330
1
100
AcDbSymbolTableRecord
100
AcDbBlockTableRecord
  2
*D7
340
0
  0
BLOCK_RECORD
  5
7143
330
1
100
AcDbSymbolTableRecord
100
AcDbBlockTableRecord
  2
*D8
340
0
  0
BLOCK_RECORD
  5
714F
330
1
100
AcDbSymbolTableRecord
100
AcDbBlockTableRecord
  2
*D9
340
0
  0
BLOCK_RECORD
  5
715B
330
1
100
AcDbSymbolTableRecord
100
AcDbBlockTableRecord
  2
*D10
340
0
  0
BLOCK_RECORD
  5
7169
330
1
100
AcDbSymbolTableRecord
100
AcDbBlockTableRecord
  2
*D11
340
0
  0
BLOCK_RECORD
  5
7175
330
1
100
AcDbSymbolTableRecord
100
AcDbBlockTableRecord
  2
*D12
340
0
  0
BLOCK_RECORD
  5
7181
330
1
100
AcDbSymbolTableRecord
100
AcDbBlockTableRecord
  2
*D13
340
0
  0
BLOCK_RECORD
  5
72BF
330
1
100
AcDbSymbolTableRecord
100
AcDbBlockTableRecord
  2
*D14
340
0
  0
BLOCK_RECORD
  5
72CB
330
1
100
AcDbSymbolTableRecord
100
AcDbBlockTableRecord
  2
*D15
340
0
  0
BLOCK_RECORD
  5
72D7
330
1
100
AcDbSymbolTableRecord
100
AcDbBlockTableRecord
  2
*D16
340
0
  0
BLOCK_RECORD
  5
72E3
330
1
100
AcDbSymbolTableRecord
100
AcDbBlockTableRecord
  2
*D17
340
0
  0
BLOCK_RECORD
  5
72EF
330
1
100
AcDbSymbolTableRecord
100
AcDbBlockTableRecord
  2
*D18
340
0
  0
BLOCK_RECORD
  5
72FB
330
1
100
AcDbSymbolTableRecord
100
AcDbBlockTableRecord
  2
*D19
340
0
  0
BLOCK_RECORD
  5
7309
330
1
100
AcDbSymbolTableRecord
100
AcDbBlockTableRecord
  2
*D20
340
0
  0
BLOCK_RECORD
  5
74BC
330
1
100
AcDbSymbolTableRecord
100
AcDbBlockTableRecord
  2
*S21
340
0
102
{BLKREFS
331
70FB
102
}
  0
BLOCK_RECORD
  5
74C4
330
1
100
AcDbSymbolTableRecord
100
AcDbBlockTableRecord
  2
*S22
340
0
102
{BLKREFS
331
7265
102
}
  0
BLOCK_RECORD
  5
74CC
330
1
100
AcDbSymbolTableRecord
100
AcDbBlockTableRecord
  2
*S23
340
0
102
{BLKREFS
331
73DE
102
}
  0
BLOCK_RECORD
  5
74D4
330
1
100
AcDbSymbolTableRecord
100
AcDbBlockTableRecord
  2
*S24
340
0
102
{BLKREFS
331
73E1
102
}
  0
BLOCK_RECORD
  5
7561
102
{ACAD_XDICTIONARY
360
7562
102
}
330
1
100
AcDbSymbolTableRecord
100
AcDbBlockTableRecord
  2
S3
340
0
102
{BLKREFS
331
759A
102
}
1001
ACAD
1000
DesignCenter Data
1002
{
1070
     1
1070
     4
1002
}
  0
BLOCK_RECORD
  5
756A
330
1
100
AcDbSymbolTableRecord
100
AcDbBlockTableRecord
  2
*D27
340
0
  0
BLOCK_RECORD
  5
770D
330
1
100
AcDbSymbolTableRecord
100
AcDbBlockTableRecord
  2
*D29
340
0
  0
ENDTAB
  0
ENDSEC
  0
SECTION
  2
BLOCKS
  0
BLOCK
  5
20
330
1F
100
AcDbEntity
  8
0
100
AcDbBlockBegin
  2
*Model_Space
 70
     0
 10
0.0
 20
0.0
 30
0.0
  3
*Model_Space
  1

  0
ENDBLK
  5
21
330
1F
100
AcDbEntity
  8
0
100
AcDbBlockEnd
  0
BLOCK
  5
1C
330
1B
100
AcDbEntity
 67
     1
  8
0
100
AcDbBlockBegin
  2
*Paper_Space
 70
     0
 10
0.0
 20
0.0
 30
0.0
  3
*Paper_Space
  1

  0
ENDBLK
  5
1D
330
1B
100
AcDbEntity
 67
     1
  8
0
100
AcDbBlockEnd
  0
BLOCK
  5
24
330
23
100
AcDbEntity
  8
0
100
AcDbBlockBegin
  2
*Paper_Space0
 70
     0
 10
0.0
 20
0.0
 30
0.0
  3
*Paper_Space0
  1

  0
ENDBLK
  5
25
330
23
100
AcDbEntity
  8
0
100
AcDbBlockEnd
  0
BLOCK
  5
89
330
87
100
AcDbEntity
  8
0
100
AcDbBlockBegin
  2
GENAXEH
 70
     0
 10
0.0
 20
0.0
 30
0.0
  3
GENAXEH
  1

  0
LINE
  5
88
330
87
100
AcDbEntity
  8
0
100
AcDbLine
 10
-1.0
 20
0.0
 30
0.0
 11
1.0
 21
0.0
 31
0.0
  0
ENDBLK
  5
8A
330
87
100
AcDbEntity
  8
0
100
AcDbBlockEnd
  0
BLOCK
  5
A7F
330
A7E
100
AcDbEntity
  8
0
100
AcDbBlockBegin
  2
A$C75484636
 70
     0
 10
0.0
 20
0.0
 30
0.0
  3
A$C75484636
  1

  0
LINE
  5
A80
330
A7E
100
AcDbEntity
  8
AM_0N
100
AcDbLine
 10
1.149999754443911
 20
3.005000206466093
 30
0.0
 11
2.494999754443938
 21
3.005000206466093
 31
0.0
1001
GENIUS_GENOREF_13
1005
0
  0
LINE
  5
A81
330
A7E
100
AcDbEntity
  8
AM_0N
100
AcDbLine
 10
1.149999754443911
 20
2.495000206466102
 30
0.0
 11
2.494999754443938
 21
2.495000206466102
 31
0.0
1001
GENIUS_GENOREF_13
1005
0
  0
CIRCLE
  5
A82
330
A7E
100
AcDbEntity
  8
AM_0N
100
AcDbCircle
 10
2.749999754443933
 20
2.750000206466097
 30
0.0
 40
2.75
1001
GENIUS_GENOREF_13
1005
0
  0
LINE
  5
A83
330
A7E
100
AcDbEntity
  8
AM_0N
100
AcDbLine
 10
1.149999754443911
 20
3.005000206466093
 30
0.0
 11
1.149999754443911
 21
2.495000206466102
 31
0.0
1001
GENIUS_GENOREF_13
1005
0
  0
LINE
  5
A84
330
A7E
100
AcDbEntity
  8
AM_0N
100
AcDbLine
 10
3.004999754443929
 20
4.35000020646612
 30
0.0
 11
2.494999754443938
 21
4.35000020646612
 31
0.0
1001
GENIUS_GENOREF_13
1005
0
  0
LINE
  5
A85
330
A7E
100
AcDbEntity
  8
AM_0N
100
AcDbLine
 10
3.004999754443929
 20
2.495000206466102
 30
0.0
 11
4.349999754443956
 21
2.495000206466102
 31
0.0
1001
GENIUS_GENOREF_13
1005
0
  0
LINE
  5
A86
330
A7E
100
AcDbEntity
  8
AM_0N
100
AcDbLine
 10
3.004999754443929
 20
3.005000206466093
 30
0.0
 11
4.349999754443956
 21
3.005000206466093
 31
0.0
1001
GENIUS_GENOREF_13
1005
0
  0
LINE
  5
A87
330
A7E
100
AcDbEntity
  8
AM_0N
100
AcDbLine
 10
3.004999754443929
 20
1.150000206466074
 30
0.0
 11
2.494999754443938
 21
1.150000206466074
 31
0.0
1001
GENIUS_GENOREF_13
1005
0
  0
LINE
  5
A88
330
A7E
100
AcDbEntity
  8
AM_0N
100
AcDbLine
 10
2.494999754443938
 20
2.495000206466102
 30
0.0
 11
2.494999754443938
 21
1.150000206466074
 31
0.0
1001
GENIUS_GENOREF_13
1005
0
  0
LINE
  5
A89
330
A7E
100
AcDbEntity
  8
AM_0N
100
AcDbLine
 10
3.004999754443929
 20
2.495000206466102
 30
0.0
 11
3.004999754443929
 21
1.150000206466074
 31
0.0
1001
GENIUS_GENOREF_13
1005
0
  0
LINE
  5
A8A
330
A7E
100
AcDbEntity
  8
AM_0N
100
AcDbLine
 10
4.349999754443956
 20
3.005000206466093
 30
0.0
 11
4.349999754443956
 21
2.495000206466102
 31
0.0
1001
GENIUS_GENOREF_13
1005
0
  0
LINE
  5
A8B
330
A7E
100
AcDbEntity
  8
AM_0N
100
AcDbLine
 10
2.494999754443938
 20
4.35000020646612
 30
0.0
 11
2.494999754443938
 21
3.005000206466093
 31
0.0
1001
GENIUS_GENOREF_13
1005
0
  0
LINE
  5
A8C
330
A7E
100
AcDbEntity
  8
AM_0N
100
AcDbLine
 10
3.004999754443929
 20
4.35000020646612
 30
0.0
 11
3.004999754443929
 21
3.005000206466093
 31
0.0
1001
GENIUS_GENOREF_13
1005
0
  0
ENDBLK
  5
A8D
330
A7E
100
AcDbEntity
  8
0
100
AcDbBlockEnd
  0
BLOCK
  5
7047
330
703D
100
AcDbEntity
  8
0
100
AcDbBlockBegin
  2
*D3
 70
     1
 10
0.0
 20
0.0
 30
0.0
  3
*D3
  1

  0
LINE
  5
744D
330
703D
100
AcDbEntity
  8
AM_5
100
AcDbLine
 10
1142.112475603983
 20
877.0025506639411
 30
0.0
 11
1142.112475603983
 21
848.1525506639414
 31
0.0
  0
LINE
  5
744E
330
703D
100
AcDbEntity
  8
AM_5
100
AcDbLine
 10
1250.112475603984
 20
876.4025506639411
 30
0.0
 11
1250.112475603984
 21
848.1525506639414
 31
0.0
  0
LINE
  5
744F
330
703D
100
AcDbEntity
  8
AM_5
100
AcDbLine
 10
1147.212475603983
 20
850.7025506639413
 30
0.0
 11
1245.012475603984
 21
850.7025506639413
 31
0.0
  0
SOLID
  5
7450
330
703D
100
AcDbEntity
  8
AM_5
100
AcDbTrace
 10
1147.212475603983
 20
851.5525506639413
 30
0.0
 11
1147.212475603983
 21
849.8525506639413
 31
0.0
 12
1142.112475603983
 22
850.7025506639413
 32
0.0
 13
1142.112475603983
 23
850.7025506639413
 33
0.0
  0
SOLID
  5
7451
330
703D
100
AcDbEntity
  8
AM_5
100
AcDbTrace
 10
1245.012475603984
 20
851.5525506639413
 30
0.0
 11
1245.012475603984
 21
849.8525506639413
 31
0.0
 12
1250.112475603984
 22
850.7025506639413
 32
0.0
 13
1250.112475603984
 23
850.7025506639413
 33
0.0
  0
MTEXT
  5
7452
330
703D
100
AcDbEntity
  8
AM_5
100
AcDbMText
 10
1196.112475603984
 20
854.8675506639412
 30
0.0
 40
5.95
 41
0.0
 71
     5
 72
     1
  1
108
 73
     1
 44
1.0
1001
ACAD
1000
MTEXTBEGIN
1070
    73
1070
     1
1070
    44
1040
1.0
1070
    74
1070
     0
1000
MTEXTEND
  0
POINT
  5
7453
330
703D
100
AcDbEntity
  8
Defpoints
 62
     0
100
AcDbPoint
 10
1142.112475603983
 20
878.7025506639412
 30
0.0
  0
POINT
  5
7454
330
703D
100
AcDbEntity
  8
Defpoints
 62
     0
100
AcDbPoint
 10
1250.112475603984
 20
878.1025506639412
 30
0.0
  0
POINT
  5
7455
330
703D
100
AcDbEntity
  8
Defpoints
 62
     0
100
AcDbPoint
 10
1250.112475603984
 20
850.7025506639413
 30
0.0
  0
ENDBLK
  5
7048
330
703D
100
AcDbEntity
  8
0
100
AcDbBlockEnd
  0
BLOCK
  5
7053
330
7049
100
AcDbEntity
  8
0
100
AcDbBlockBegin
  2
*D4
 70
     1
 10
0.0
 20
0.0
 30
0.0
  3
*D4
  1

  0
LINE
  5
7432
330
7049
100
AcDbEntity
  8
AM_5
100
AcDbLine
 10
1142.112475603983
 20
877.0025506639411
 30
0.0
 11
1142.112475603983
 21
860.1525506639413
 31
0.0
  0
LINE
  5
7433
330
7049
100
AcDbEntity
  8
AM_5
100
AcDbLine
 10
1161.112475603983
 20
880.852550663941
 30
0.0
 11
1161.112475603983
 21
860.1525506639413
 31
0.0
  0
LINE
  5
7434
330
7049
100
AcDbEntity
  8
AM_5
100
AcDbLine
 10
1147.212475603983
 20
862.7025506639412
 30
0.0
 11
1156.012475603984
 21
862.7025506639412
 31
0.0
  0
SOLID
  5
7435
330
7049
100
AcDbEntity
  8
AM_5
100
AcDbTrace
 10
1147.212475603983
 20
863.5525506639412
 30
0.0
 11
1147.212475603983
 21
861.8525506639413
 31
0.0
 12
1142.112475603983
 22
862.7025506639412
 32
0.0
 13
1142.112475603983
 23
862.7025506639412
 33
0.0
  0
SOLID
  5
7436
330
7049
100
AcDbEntity
  8
AM_5
100
AcDbTrace
 10
1156.012475603984
 20
863.5525506639412
 30
0.0
 11
1156.012475603984
 21
861.8525506639413
 31
0.0
 12
1161.112475603983
 22
862.7025506639412
 32
0.0
 13
1161.112475603983
 23
862.7025506639412
 33
0.0
  0
MTEXT
  5
7437
330
7049
100
AcDbEntity
  8
AM_5
100
AcDbMText
 10
1151.612475603984
 20
866.8675506639411
 30
0.0
 40
5.95
 41
0.0
 71
     5
 72
     1
  1
19
 73
     1
 44
1.0
1001
ACAD
1000
MTEXTBEGIN
1070
    73
1070
     1
1070
    44
1040
1.0
1070
    74
1070
     0
1000
MTEXTEND
  0
POINT
  5
7438
330
7049
100
AcDbEntity
  8
Defpoints
 62
     0
100
AcDbPoint
 10
1142.112475603983
 20
878.7025506639412
 30
0.0
  0
POINT
  5
7439
330
7049
100
AcDbEntity
  8
Defpoints
 62
     0
100
AcDbPoint
 10
1161.112475603983
 20
882.5525506639412
 30
0.0
  0
POINT
  5
743A
330
7049
100
AcDbEntity
  8
Defpoints
 62
     0
100
AcDbPoint
 10
1161.112475603983
 20
862.7025506639412
 30
0.0
  0
ENDBLK
  5
7054
330
7049
100
AcDbEntity
  8
0
100
AcDbBlockEnd
  0
BLOCK
  5
705F
330
7055
100
AcDbEntity
  8
0
100
AcDbBlockBegin
  2
*D5
 70
     1
 10
0.0
 20
0.0
 30
0.0
  3
*D5
  1

  0
LINE
  5
743B
330
7055
100
AcDbEntity
  8
AM_5
100
AcDbLine
 10
1161.112475603983
 20
880.852550663941
 30
0.0
 11
1161.112475603983
 21
860.1525506639413
 31
0.0
  0
LINE
  5
743C
330
7055
100
AcDbEntity
  8
AM_5
100
AcDbLine
 10
1187.112475603983
 20
880.852550663941
 30
0.0
 11
1187.112475603983
 21
860.1525506639413
 31
0.0
  0
LINE
  5
743D
330
7055
100
AcDbEntity
  8
AM_5
100
AcDbLine
 10
1166.212475603984
 20
862.7025506639412
 30
0.0
 11
1182.012475603984
 21
862.7025506639412
 31
0.0
  0
SOLID
  5
743E
330
7055
100
AcDbEntity
  8
AM_5
100
AcDbTrace
 10
1166.212475603984
 20
863.5525506639412
 30
0.0
 11
1166.212475603984
 21
861.8525506639413
 31
0.0
 12
1161.112475603983
 22
862.7025506639412
 32
0.0
 13
1161.112475603983
 23
862.7025506639412
 33
0.0
  0
SOLID
  5
743F
330
7055
100
AcDbEntity
  8
AM_5
100
AcDbTrace
 10
1182.012475603984
 20
863.5525506639412
 30
0.0
 11
1182.012475603984
 21
861.8525506639413
 31
0.0
 12
1187.112475603983
 22
862.7025506639412
 32
0.0
 13
1187.112475603983
 23
862.7025506639412
 33
0.0
  0
MTEXT
  5
7440
330
7055
100
AcDbEntity
  8
AM_5
100
AcDbMText
 10
1174.112475603984
 20
866.8681362938624
 30
0.0
 40
5.95
 41
0.0
 71
     5
 72
     1
  1
26
 73
     1
 44
1.0
1001
ACAD
1000
MTEXTBEGIN
1070
    73
1070
     1
1070
    44
1040
1.0
1070
    74
1070
     0
1000
MTEXTEND
  0
POINT
  5
7441
330
7055
100
AcDbEntity
  8
Defpoints
 62
     0
100
AcDbPoint
 10
1161.112475603983
 20
882.5525506639412
 30
0.0
  0
POINT
  5
7442
330
7055
100
AcDbEntity
  8
Defpoints
 62
     0
100
AcDbPoint
 10
1187.112475603983
 20
882.5525506639412
 30
0.0
  0
POINT
  5
7443
330
7055
100
AcDbEntity
  8
Defpoints
 62
     0
100
AcDbPoint
 10
1187.112475603983
 20
862.7025506639412
 30
0.0
  0
ENDBLK
  5
7060
330
7055
100
AcDbEntity
  8
0
100
AcDbBlockEnd
  0
BLOCK
  5
706B
330
7061
100
AcDbEntity
  8
0
100
AcDbBlockBegin
  2
*D6
 70
     1
 10
0.0
 20
0.0
 30
0.0
  3
*D6
  1

  0
LINE
  5
7444
330
7061
100
AcDbEntity
  8
AM_5
100
AcDbLine
 10
1187.112475603983
 20
880.852550663941
 30
0.0
 11
1187.112475603983
 21
860.1525506639413
 31
0.0
  0
LINE
  5
7445
330
7061
100
AcDbEntity
  8
AM_5
100
AcDbLine
 10
1213.112475603984
 20
880.852550663941
 30
0.0
 11
1213.112475603984
 21
860.1525506639413
 31
0.0
  0
LINE
  5
7446
330
7061
100
AcDbEntity
  8
AM_5
100
AcDbLine
 10
1192.212475603984
 20
862.7025506639412
 30
0.0
 11
1208.012475603984
 21
862.7025506639412
 31
0.0
  0
SOLID
  5
7447
330
7061
100
AcDbEntity
  8
AM_5
100
AcDbTrace
 10
1192.212475603984
 20
863.5525506639412
 30
0.0
 11
1192.212475603984
 21
861.8525506639413
 31
0.0
 12
1187.112475603983
 22
862.7025506639412
 32
0.0
 13
1187.112475603983
 23
862.7025506639412
 33
0.0
  0
SOLID
  5
7448
330
7061
100
AcDbEntity
  8
AM_5
100
AcDbTrace
 10
1208.012475603984
 20
863.5525506639412
 30
0.0
 11
1208.012475603984
 21
861.8525506639413
 31
0.0
 12
1213.112475603984
 22
862.7025506639412
 32
0.0
 13
1213.112475603984
 23
862.7025506639412
 33
0.0
  0
MTEXT
  5
7449
330
7061
100
AcDbEntity
  8
AM_5
100
AcDbMText
 10
1200.112475603984
 20
866.8681362938624
 30
0.0
 40
5.95
 41
0.0
 71
     5
 72
     1
  1
26
 73
     1
 44
1.0
1001
ACAD
1000
MTEXTBEGIN
1070
    73
1070
     1
1070
    44
1040
1.0
1070
    74
1070
     0
1000
MTEXTEND
  0
POINT
  5
744A
330
7061
100
AcDbEntity
  8
Defpoints
 62
     0
100
AcDbPoint
 10
1187.112475603983
 20
882.5525506639412
 30
0.0
  0
POINT
  5
744B
330
7061
100
AcDbEntity
  8
Defpoints
 62
     0
100
AcDbPoint
 10
1213.112475603984
 20
882.5525506639412
 30
0.0
  0
POINT
  5
744C
330
7061
100
AcDbEntity
  8
Defpoints
 62
     0
100
AcDbPoint
 10
1213.112475603984
 20
862.7025506639412
 30
0.0
  0
ENDBLK
  5
706C
330
7061
100
AcDbEntity
  8
0
100
AcDbBlockEnd
  0
BLOCK
  5
7141
330
7137
100
AcDbEntity
  8
0
100
AcDbBlockBegin
  2
*D7
 70
     1
 10
0.0
 20
0.0
 30
0.0
  3
*D7
  1

  0
LINE
  5
723B
330
7137
100
AcDbEntity
  8
AM_5
100
AcDbLine
 10
1225.812475603984
 20
967.8999252049957
 30
0.0
 11
1320.067041298413
 21
967.8999252049957
 31
0.0
  0
LINE
  5
723C
330
7137
100
AcDbEntity
  8
AM_5
100
AcDbLine
 10
1294.812475603983
 20
1040.599925204996
 30
0.0
 11
1320.067041298413
 21
1040.599925204996
 31
0.0
  0
LINE
  5
723D
330
7137
100
AcDbEntity
  8
AM_5
100
AcDbLine
 10
1317.517041298414
 20
972.9999252049957
 30
0.0
 11
1317.517041298414
 21
1035.499925204996
 31
0.0
  0
SOLID
  5
723E
330
7137
100
AcDbEntity
  8
AM_5
100
AcDbTrace
 10
1316.667041298414
 20
972.9999252049957
 30
0.0
 11
1318.367041298414
 21
972.9999252049957
 31
0.0
 12
1317.517041298414
 22
967.8999252049957
 32
0.0
 13
1317.517041298414
 23
967.8999252049957
 33
0.0
  0
SOLID
  5
723F
330
7137
100
AcDbEntity
  8
AM_5
100
AcDbTrace
 10
1316.667041298414
 20
1035.499925204996
 30
0.0
 11
1318.367041298414
 21
1035.499925204996
 31
0.0
 12
1317.517041298414
 22
1040.599925204996
 32
0.0
 13
1317.517041298414
 23
1040.599925204996
 33
0.0
  0
MTEXT
  5
7240
330
7137
100
AcDbEntity
  8
AM_5
100
AcDbMText
 10
1313.054541298413
 20
1004.249925204996
 30
0.0
 40
5.95
 41
0.0
 71
     5
 72
     1
  1
(72.7)
 11
0.0000000000000001
 21
1.0
 31
0.0
 73
     1
 44
1.0
1001
ACAD
1000
MTEXTBEGIN
1070
    73
1070
     1
1070
    44
1040
1.0
1070
    74
1070
     0
1000
MTEXTEND
  0
POINT
  5
7241
330
7137
100
AcDbEntity
  8
Defpoints
 62
     0
100
AcDbPoint
 10
1224.112475603984
 20
967.8999252049957
 30
0.0
  0
POINT
  5
7242
330
7137
100
AcDbEntity
  8
Defpoints
 62
     0
100
AcDbPoint
 10
1293.112475603983
 20
1040.599925204996
 30
0.0
  0
POINT
  5
7243
330
7137
100
AcDbEntity
  8
Defpoints
 62
     0
100
AcDbPoint
 10
1317.517041298414
 20
1040.599925204996
 30
0.0
  0
ENDBLK
  5
7142
330
7137
100
AcDbEntity
  8
0
100
AcDbBlockEnd
  0
BLOCK
  5
714D
330
7143
100
AcDbEntity
  8
0
100
AcDbBlockBegin
  2
*D8
 70
     1
 10
0.0
 20
0.0
 30
0.0
  3
*D8
  1

  0
LINE
  5
7282
330
7143
100
AcDbEntity
  8
AM_5
100
AcDbLine
 10
1142.112475603983
 20
967.1999252049957
 30
0.0
 11
1142.112475603983
 21
950.3499252049957
 31
0.0
  0
LINE
  5
7283
330
7143
100
AcDbEntity
  8
AM_5
100
AcDbLine
 10
1174.112475603984
 20
965.1499252049957
 30
0.0
 11
1174.112475603984
 21
950.3499252049957
 31
0.0
  0
LINE
  5
7284
330
7143
100
AcDbEntity
  8
AM_5
100
AcDbLine
 10
1147.212475603983
 20
952.8999252049956
 30
0.0
 11
1169.012475603984
 21
952.8999252049956
 31
0.0
  0
SOLID
  5
7285
330
7143
100
AcDbEntity
  8
AM_5
100
AcDbTrace
 10
1147.212475603983
 20
953.7499252049958
 30
0.0
 11
1147.212475603983
 21
952.0499252049956
 31
0.0
 12
1142.112475603983
 22
952.8999252049956
 32
0.0
 13
1142.112475603983
 23
952.8999252049956
 33
0.0
  0
SOLID
  5
7286
330
7143
100
AcDbEntity
  8
AM_5
100
AcDbTrace
 10
1169.012475603984
 20
953.7499252049958
 30
0.0
 11
1169.012475603984
 21
952.0499252049956
 31
0.0
 12
1174.112475603984
 22
952.8999252049956
 32
0.0
 13
1174.112475603984
 23
952.8999252049956
 33
0.0
  0
MTEXT
  5
7287
330
7143
100
AcDbEntity
  8
AM_5
100
AcDbMText
 10
1158.112475603984
 20
957.0655108349169
 30
0.0
 40
5.95
 41
0.0
 71
     5
 72
     1
  1
32
 73
     1
 44
1.0
1001
ACAD
1000
MTEXTBEGIN
1070
    73
1070
     1
1070
    44
1040
1.0
1070
    74
1070
     0
1000
MTEXTEND
  0
POINT
  5
7288
330
7143
100
AcDbEntity
  8
Defpoints
 62
     0
100
AcDbPoint
 10
1142.112475603983
 20
968.8999252049956
 30
0.0
  0
POINT
  5
7289
330
7143
100
AcDbEntity
  8
Defpoints
 62
     0
100
AcDbPoint
 10
1174.112475603984
 20
966.8499252049958
 30
0.0
  0
POINT
  5
728A
330
7143
100
AcDbEntity
  8
Defpoints
 62
     0
100
AcDbPoint
 10
1174.112475603984
 20
952.8999252049956
 30
0.0
  0
ENDBLK
  5
714E
330
7143
100
AcDbEntity
  8
0
100
AcDbBlockEnd
  0
BLOCK
  5
7159
330
714F
100
AcDbEntity
  8
0
100
AcDbBlockBegin
  2
*D9
 70
     1
 10
0.0
 20
0.0
 30
0.0
  3
*D9
  1

  0
LINE
  5
7294
330
714F
100
AcDbEntity
  8
AM_5
100
AcDbLine
 10
1174.112475603984
 20
965.1499252049957
 30
0.0
 11
1174.112475603984
 21
950.3499252049959
 31
0.0
  0
LINE
  5
7295
330
714F
100
AcDbEntity
  8
AM_5
100
AcDbLine
 10
1200.112475603984
 20
965.1499252049957
 30
0.0
 11
1200.112475603984
 21
950.3499252049959
 31
0.0
  0
LINE
  5
7296
330
714F
100
AcDbEntity
  8
AM_5
100
AcDbLine
 10
1179.212475603983
 20
952.8999252049958
 30
0.0
 11
1195.012475603984
 21
952.8999252049958
 31
0.0
  0
SOLID
  5
7297
330
714F
100
AcDbEntity
  8
AM_5
100
AcDbTrace
 10
1179.212475603983
 20
953.7499252049958
 30
0.0
 11
1179.212475603983
 21
952.0499252049958
 31
0.0
 12
1174.112475603984
 22
952.8999252049958
 32
0.0
 13
1174.112475603984
 23
952.8999252049958
 33
0.0
  0
SOLID
  5
7298
330
714F
100
AcDbEntity
  8
AM_5
100
AcDbTrace
 10
1195.012475603984
 20
953.7499252049958
 30
0.0
 11
1195.012475603984
 21
952.0499252049958
 31
0.0
 12
1200.112475603984
 22
952.8999252049958
 32
0.0
 13
1200.112475603984
 23
952.8999252049958
 33
0.0
  0
MTEXT
  5
7299
330
714F
100
AcDbEntity
  8
AM_5
100
AcDbMText
 10
1187.112475603983
 20
957.0655108349169
 30
0.0
 40
5.95
 41
0.0
 71
     5
 72
     1
  1
26
 73
     1
 44
1.0
1001
ACAD
1000
MTEXTBEGIN
1070
    73
1070
     1
1070
    44
1040
1.0
1070
    74
1070
     0
1000
MTEXTEND
  0
POINT
  5
729A
330
714F
100
AcDbEntity
  8
Defpoints
 62
     0
100
AcDbPoint
 10
1174.112475603984
 20
966.8499252049958
 30
0.0
  0
POINT
  5
729B
330
714F
100
AcDbEntity
  8
Defpoints
 62
     0
100
AcDbPoint
 10
1200.112475603984
 20
966.8499252049958
 30
0.0
  0
POINT
  5
729C
330
714F
100
AcDbEntity
  8
Defpoints
 62
     0
100
AcDbPoint
 10
1200.112475603984
 20
952.8999252049958
 30
0.0
  0
ENDBLK
  5
715A
330
714F
100
AcDbEntity
  8
0
100
AcDbBlockEnd
  0
BLOCK
  5
7167
330
715B
100
AcDbEntity
  8
0
100
AcDbBlockBegin
  2
*D10
 70
     1
 10
0.0
 20
0.0
 30
0.0
  3
*D10
  1

  0
LINE
  5
71FA
330
715B
100
AcDbEntity
  8
AM_5
100
AcDbLine
 10
1141.412475603984
 20
967.8999252049957
 30
0.0
 11
1129.227155844057
 21
967.8999252049957
 31
0.0
  0
LINE
  5
71FB
330
715B
100
AcDbEntity
  8
AM_5
100
AcDbLine
 10
1166.662475603984
 20
972.5999252049957
 30
0.0
 11
1129.227155844057
 21
972.5999252049957
 31
0.0
  0
LINE
  5
71FC
330
715B
100
AcDbEntity
  8
AM_5
100
AcDbLine
 10
1131.777155844057
 20
962.7999252049956
 30
0.0
 11
1131.777155844057
 21
957.6999252049956
 31
0.0
  0
LINE
  5
71FD
330
715B
100
AcDbEntity
  8
AM_5
100
AcDbLine
 10
1131.777155844057
 20
977.6999252049957
 30
0.0
 11
1131.777155844057
 21
994.1049252049957
 31
0.0
  0
LINE
  5
71FE
330
715B
100
AcDbEntity
  8
AM_5
100
AcDbLine
 10
1131.777155844057
 20
967.8999252049957
 30
0.0
 11
1131.777155844057
 21
972.5999252049957
 31
0.0
  0
SOLID
  5
71FF
330
715B
100
AcDbEntity
  8
AM_5
100
AcDbTrace
 10
1130.927155844057
 20
962.7999252049956
 30
0.0
 11
1132.627155844057
 21
962.7999252049956
 31
0.0
 12
1131.777155844057
 22
967.8999252049957
 32
0.0
 13
1131.777155844057
 23
967.8999252049957
 33
0.0
  0
SOLID
  5
7200
330
715B
100
AcDbEntity
  8
AM_5
100
AcDbTrace
 10
1130.927155844057
 20
977.6999252049957
 30
0.0
 11
1132.627155844057
 21
977.6999252049957
 31
0.0
 12
1131.777155844057
 22
972.5999252049957
 32
0.0
 13
1131.777155844057
 23
972.5999252049957
 33
0.0
  0
MTEXT
  5
7201
330
715B
100
AcDbEntity
  8
AM_5
100
AcDbMText
 10
1127.612155844057
 20
988.4524252049958
 30
0.0
 40
5.95
 41
0.0
 71
     5
 72
     1
  1
4.7
 11
0.0000000000000001
 21
1.0
 31
0.0
 73
     1
 44
1.0
1001
ACAD
1000
MTEXTBEGIN
1070
    73
1070
     1
1070
    44
1040
1.0
1070
    74
1070
     0
1000
MTEXTEND
  0
POINT
  5
7202
330
715B
100
AcDbEntity
  8
Defpoints
 62
     0
100
AcDbPoint
 10
1143.112475603984
 20
967.8999252049957
 30
0.0
  0
POINT
  5
7203
330
715B
100
AcDbEntity
  8
Defpoints
 62
     0
100
AcDbPoint
 10
1168.362475603983
 20
972.5999252049957
 30
0.0
  0
POINT
  5
7204
330
715B
100
AcDbEntity
  8
Defpoints
 62
     0
100
AcDbPoint
 10
1131.777155844057
 20
972.5999252049957
 30
0.0
  0
ENDBLK
  5
7168
330
715B
100
AcDbEntity
  8
0
100
AcDbBlockEnd
  0
BLOCK
  5
7173
330
7169
100
AcDbEntity
  8
0
100
AcDbBlockBegin
  2
*D11
 70
     1
 10
0.0
 20
0.0
 30
0.0
  3
*D11
  1

  0
LINE
  5
7229
330
7169
100
AcDbEntity
  8
AM_5
100
AcDbLine
 10
1142.112475603983
 20
967.1999252049957
 30
0.0
 11
1142.112475603983
 21
938.349925204996
 31
0.0
  0
LINE
  5
722A
330
7169
100
AcDbEntity
  8
AM_5
100
AcDbLine
 10
1287.612475603983
 20
979.8999252049958
 30
0.0
 11
1287.612475603983
 21
938.349925204996
 31
0.0
  0
LINE
  5
722B
330
7169
100
AcDbEntity
  8
AM_5
100
AcDbLine
 10
1147.212475603983
 20
940.8999252049959
 30
0.0
 11
1282.512475603983
 21
940.8999252049959
 31
0.0
  0
SOLID
  5
722C
330
7169
100
AcDbEntity
  8
AM_5
100
AcDbTrace
 10
1147.212475603983
 20
941.749925204996
 30
0.0
 11
1147.212475603983
 21
940.0499252049959
 31
0.0
 12
1142.112475603983
 22
940.8999252049959
 32
0.0
 13
1142.112475603983
 23
940.8999252049959
 33
0.0
  0
SOLID
  5
722D
330
7169
100
AcDbEntity
  8
AM_5
100
AcDbTrace
 10
1282.512475603983
 20
941.749925204996
 30
0.0
 11
1282.512475603983
 21
940.0499252049959
 31
0.0
 12
1287.612475603983
 22
940.8999252049959
 32
0.0
 13
1287.612475603983
 23
940.8999252049959
 33
0.0
  0
MTEXT
  5
722E
330
7169
100
AcDbEntity
  8
AM_5
100
AcDbMText
 10
1214.862475603983
 20
945.0649252049959
 30
0.0
 40
5.95
 41
0.0
 71
     5
 72
     1
  1
145.5
 73
     1
 44
1.0
1001
ACAD
1000
MTEXTBEGIN
1070
    73
1070
     1
1070
    44
1040
1.0
1070
    74
1070
     0
1000
MTEXTEND
  0
POINT
  5
722F
330
7169
100
AcDbEntity
  8
Defpoints
 62
     0
100
AcDbPoint
 10
1142.112475603983
 20
968.8999252049956
 30
0.0
  0
POINT
  5
7230
330
7169
100
AcDbEntity
  8
Defpoints
 62
     0
100
AcDbPoint
 10
1287.612475603983
 20
981.5999252049957
 30
0.0
  0
POINT
  5
7231
330
7169
100
AcDbEntity
  8
Defpoints
 62
     0
100
AcDbPoint
 10
1287.612475603983
 20
940.8999252049959
 30
0.0
  0
ENDBLK
  5
7174
330
7169
100
AcDbEntity
  8
0
100
AcDbBlockEnd
  0
BLOCK
  5
717F
330
7175
100
AcDbEntity
  8
0
100
AcDbBlockBegin
  2
*D12
 70
     1
 10
0.0
 20
0.0
 30
0.0
  3
*D12
  1

  0
LINE
  5
741C
330
7175
100
AcDbEntity
  8
AM_5
100
AcDbLine
 10
1141.412475603984
 20
967.8999252049957
 30
0.0
 11
1114.570197324628
 21
967.8999252049957
 31
0.0
  0
LINE
  5
741D
330
7175
100
AcDbEntity
  8
AM_5
100
AcDbLine
 10
1141.412475603984
 20
1014.299925204996
 30
0.0
 11
1114.570197324628
 21
1014.299925204996
 31
0.0
  0
LINE
  5
741E
330
7175
100
AcDbEntity
  8
AM_5
100
AcDbLine
 10
1117.120197324628
 20
972.9999252049957
 30
0.0
 11
1117.120197324628
 21
1009.199925204995
 31
0.0
  0
SOLID
  5
741F
330
7175
100
AcDbEntity
  8
AM_5
100
AcDbTrace
 10
1116.270197324628
 20
972.9999252049957
 30
0.0
 11
1117.970197324628
 21
972.9999252049957
 31
0.0
 12
1117.120197324628
 22
967.8999252049957
 32
0.0
 13
1117.120197324628
 23
967.8999252049957
 33
0.0
  0
SOLID
  5
7420
330
7175
100
AcDbEntity
  8
AM_5
100
AcDbTrace
 10
1116.270197324628
 20
1009.199925204995
 30
0.0
 11
1117.970197324628
 21
1009.199925204995
 31
0.0
 12
1117.120197324628
 22
1014.299925204996
 32
0.0
 13
1117.120197324628
 23
1014.299925204996
 33
0.0
  0
MTEXT
  5
7421
330
7175
100
AcDbEntity
  8
AM_5
100
AcDbMText
 10
1112.955197324628
 20
991.0999252049959
 30
0.0
 40
5.95
 41
0.0
 71
     5
 72
     1
  1
46.4
 11
0.0000000000000001
 21
1.0
 31
0.0
 73
     1
 44
1.0
1001
ACAD
1000
MTEXTBEGIN
1070
    73
1070
     1
1070
    44
1040
1.0
1070
    74
1070
     0
1000
MTEXTEND
  0
POINT
  5
7422
330
7175
100
AcDbEntity
  8
Defpoints
 62
     0
100
AcDbPoint
 10
1143.112475603984
 20
967.8999252049957
 30
0.0
  0
POINT
  5
7423
330
7175
100
AcDbEntity
  8
Defpoints
 62
     0
100
AcDbPoint
 10
1143.112475603984
 20
1014.299925204996
 30
0.0
  0
POINT
  5
7424
330
7175
100
AcDbEntity
  8
Defpoints
 62
     0
100
AcDbPoint
 10
1117.120197324628
 20
1014.299925204996
 30
0.0
  0
ENDBLK
  5
7180
330
7175
100
AcDbEntity
  8
0
100
AcDbBlockEnd
  0
BLOCK
  5
718D
330
7181
100
AcDbEntity
  8
0
100
AcDbBlockBegin
  2
*D13
 70
     1
 10
0.0
 20
0.0
 30
0.0
  3
*D13
  1

  0
LINE
  5
7259
330
7181
100
AcDbEntity
  8
AM_5
100
AcDbLine
 10
1199.312475603984
 20
1014.299925204996
 30
0.0
 11
1213.452741447735
 21
1014.299925204996
 31
0.0
  0
LINE
  5
725A
330
7181
100
AcDbEntity
  8
AM_5
100
AcDbLine
 10
1199.312475603984
 20
1010.299925204996
 30
0.0
 11
1213.452741447735
 21
1010.299925204996
 31
0.0
  0
LINE
  5
725B
330
7181
100
AcDbEntity
  8
AM_5
100
AcDbLine
 10
1210.902741447735
 20
1005.199925204995
 30
0.0
 11
1210.902741447735
 21
1000.099925204995
 31
0.0
  0
LINE
  5
725C
330
7181
100
AcDbEntity
  8
AM_5
100
AcDbLine
 10
1210.902741447735
 20
1019.399925204996
 30
0.0
 11
1210.902741447735
 21
1029.854925204995
 31
0.0
  0
LINE
  5
725D
330
7181
100
AcDbEntity
  8
AM_5
100
AcDbLine
 10
1210.902741447735
 20
1010.299925204996
 30
0.0
 11
1210.902741447735
 21
1014.299925204996
 31
0.0
  0
SOLID
  5
725E
330
7181
100
AcDbEntity
  8
AM_5
100
AcDbTrace
 10
1210.052741447735
 20
1005.199925204995
 30
0.0
 11
1211.752741447735
 21
1005.199925204995
 31
0.0
 12
1210.902741447735
 22
1010.299925204996
 32
0.0
 13
1210.902741447735
 23
1010.299925204996
 33
0.0
  0
SOLID
  5
725F
330
7181
100
AcDbEntity
  8
AM_5
100
AcDbTrace
 10
1210.052741447735
 20
1019.399925204996
 30
0.0
 11
1211.752741447735
 21
1019.399925204996
 31
0.0
 12
1210.902741447735
 22
1014.299925204996
 32
0.0
 13
1210.902741447735
 23
1014.299925204996
 33
0.0
  0
MTEXT
  5
7260
330
7181
100
AcDbEntity
  8
AM_5
100
AcDbMText
 10
1206.737741447735
 20
1027.177425204996
 30
0.0
 40
5.95
 41
0.0
 71
     5
 72
     1
  1
4
 11
0.0000000000000001
 21
1.0
 31
0.0
 73
     1
 44
1.0
1001
ACAD
1000
MTEXTBEGIN
1070
    73
1070
     1
1070
    44
1040
1.0
1070
    74
1070
     0
1000
MTEXTEND
  0
POINT
  5
7261
330
7181
100
AcDbEntity
  8
Defpoints
 62
     0
100
AcDbPoint
 10
1197.612475603984
 20
1014.299925204996
 30
0.0
  0
POINT
  5
7262
330
7181
100
AcDbEntity
  8
Defpoints
 62
     0
100
AcDbPoint
 10
1197.612475603984
 20
1010.299925204996
 30
0.0
  0
POINT
  5
7263
330
7181
100
AcDbEntity
  8
Defpoints
 62
     0
100
AcDbPoint
 10
1210.902741447735
 20
1010.299925204996
 30
0.0
  0
ENDBLK
  5
718E
330
7181
100
AcDbEntity
  8
0
100
AcDbBlockEnd
  0
BLOCK
  5
72C9
330
72BF
100
AcDbEntity
  8
0
100
AcDbBlockBegin
  2
*D14
 70
     1
 10
0.0
 20
0.0
 30
0.0
  3
*D14
  1

  0
LINE
  5
748C
330
72BF
100
AcDbEntity
  8
AM_5
100
AcDbLine
 10
1142.112475603983
 20
1106.525682723581
 30
0.0
 11
1142.112475603983
 21
1133.67568272358
 31
0.0
  0
LINE
  5
748D
330
72BF
100
AcDbEntity
  8
AM_5
100
AcDbLine
 10
1300.612475603983
 20
1101.863287030615
 30
0.0
 11
1300.612475603983
 21
1133.67568272358
 31
0.0
  0
LINE
  5
748E
330
72BF
100
AcDbEntity
  8
AM_5
100
AcDbLine
 10
1147.212475603983
 20
1131.125682723581
 30
0.0
 11
1295.512475603983
 21
1131.125682723581
 31
0.0
  0
SOLID
  5
748F
330
72BF
100
AcDbEntity
  8
AM_5
100
AcDbTrace
 10
1147.212475603983
 20
1131.975682723581
 30
0.0
 11
1147.212475603983
 21
1130.275682723581
 31
0.0
 12
1142.112475603983
 22
1131.125682723581
 32
0.0
 13
1142.112475603983
 23
1131.125682723581
 33
0.0
  0
SOLID
  5
7490
330
72BF
100
AcDbEntity
  8
AM_5
100
AcDbTrace
 10
1295.512475603983
 20
1131.975682723581
 30
0.0
 11
1295.512475603983
 21
1130.275682723581
 31
0.0
 12
1300.612475603983
 22
1131.125682723581
 32
0.0
 13
1300.612475603983
 23
1131.125682723581
 33
0.0
  0
MTEXT
  5
7491
330
72BF
100
AcDbEntity
  8
AM_5
100
AcDbMText
 10
1221.362475603983
 20
1135.290682723581
 30
0.0
 40
5.95
 41
0.0
 71
     5
 72
     1
  1
158.5
 73
     1
 44
1.0
1001
ACAD
1000
MTEXTBEGIN
1070
    73
1070
     1
1070
    44
1040
1.0
1070
    74
1070
     0
1000
MTEXTEND
  0
POINT
  5
7492
330
72BF
100
AcDbEntity
  8
Defpoints
 62
     0
100
AcDbPoint
 10
1142.112475603983
 20
1104.825682723581
 30
0.0
  0
POINT
  5
7493
330
72BF
100
AcDbEntity
  8
Defpoints
 62
     0
100
AcDbPoint
 10
1300.612475603983
 20
1100.163287030615
 30
0.0
  0
POINT
  5
7494
330
72BF
100
AcDbEntity
  8
Defpoints
 62
     0
100
AcDbPoint
 10
1300.612475603983
 20
1131.125682723581
 30
0.0
  0
ENDBLK
  5
72CA
330
72BF
100
AcDbEntity
  8
0
100
AcDbBlockEnd
  0
BLOCK
  5
72D5
330
72CB
100
AcDbEntity
  8
0
100
AcDbBlockBegin
  2
*D15
 70
     1
 10
0.0
 20
0.0
 30
0.0
  3
*D15
  1

  0
LINE
  5
7456
330
72CB
100
AcDbEntity
  8
AM_5
100
AcDbLine
 10
1173.412475603983
 20
1102.425682723581
 30
0.0
 11
1124.562475603984
 21
1102.425682723581
 31
0.0
  0
LINE
  5
7457
330
72CB
100
AcDbEntity
  8
AM_5
100
AcDbLine
 10
1186.412475603983
 20
1079.425682723581
 30
0.0
 11
1124.562475603984
 21
1079.425682723581
 31
0.0
  0
LINE
  5
7458
330
72CB
100
AcDbEntity
  8
AM_5
100
AcDbLine
 10
1127.112475603984
 20
1097.325682723581
 30
0.0
 11
1127.112475603984
 21
1084.525682723581
 31
0.0
  0
SOLID
  5
7459
330
72CB
100
AcDbEntity
  8
AM_5
100
AcDbTrace
 10
1126.262475603984
 20
1097.325682723581
 30
0.0
 11
1127.962475603983
 21
1097.325682723581
 31
0.0
 12
1127.112475603984
 22
1102.425682723581
 32
0.0
 13
1127.112475603984
 23
1102.425682723581
 33
0.0
  0
SOLID
  5
745A
330
72CB
100
AcDbEntity
  8
AM_5
100
AcDbTrace
 10
1126.262475603984
 20
1084.525682723581
 30
0.0
 11
1127.962475603983
 21
1084.525682723581
 31
0.0
 12
1127.112475603984
 22
1079.425682723581
 32
0.0
 13
1127.112475603984
 23
1079.425682723581
 33
0.0
  0
MTEXT
  5
745B
330
72CB
100
AcDbEntity
  8
AM_5
100
AcDbMText
 10
1122.946889974062
 20
1090.925682723581
 30
0.0
 40
5.95
 41
0.0
 71
     5
 72
     1
  1
23
 11
0.0000000000000001
 21
1.0
 31
0.0
 73
     1
 44
1.0
1001
ACAD
1000
MTEXTBEGIN
1070
    73
1070
     1
1070
    44
1040
1.0
1070
    74
1070
     0
1000
MTEXTEND
  0
POINT
  5
745C
330
72CB
100
AcDbEntity
  8
Defpoints
 62
     0
100
AcDbPoint
 10
1175.112475603984
 20
1102.425682723581
 30
0.0
  0
POINT
  5
745D
330
72CB
100
AcDbEntity
  8
Defpoints
 62
     0
100
AcDbPoint
 10
1188.112475603984
 20
1079.425682723581
 30
0.0
  0
POINT
  5
745E
330
72CB
100
AcDbEntity
  8
Defpoints
 62
     0
100
AcDbPoint
 10
1127.112475603984
 20
1079.425682723581
 30
0.0
  0
ENDBLK
  5
72D6
330
72CB
100
AcDbEntity
  8
0
100
AcDbBlockEnd
  0
BLOCK
  5
72E1
330
72D7
100
AcDbEntity
  8
0
100
AcDbBlockBegin
  2
*D16
 70
     1
 10
0.0
 20
0.0
 30
0.0
  3
*D16
  1

  0
LINE
  5
745F
330
72D7
100
AcDbEntity
  8
AM_5
100
AcDbLine
 10
1141.412475603984
 20
1105.925682723581
 30
0.0
 11
1112.562475603984
 21
1105.925682723581
 31
0.0
  0
LINE
  5
7460
330
72D7
100
AcDbEntity
  8
AM_5
100
AcDbLine
 10
1141.412475603984
 20
1075.925682723581
 30
0.0
 11
1112.562475603984
 21
1075.925682723581
 31
0.0
  0
LINE
  5
7461
330
72D7
100
AcDbEntity
  8
AM_5
100
AcDbLine
 10
1115.112475603984
 20
1100.825682723581
 30
0.0
 11
1115.112475603984
 21
1081.025682723581
 31
0.0
  0
SOLID
  5
7462
330
72D7
100
AcDbEntity
  8
AM_5
100
AcDbTrace
 10
1114.262475603984
 20
1100.825682723581
 30
0.0
 11
1115.962475603983
 21
1100.825682723581
 31
0.0
 12
1115.112475603984
 22
1105.925682723581
 32
0.0
 13
1115.112475603984
 23
1105.925682723581
 33
0.0
  0
SOLID
  5
7463
330
72D7
100
AcDbEntity
  8
AM_5
100
AcDbTrace
 10
1114.262475603984
 20
1081.025682723581
 30
0.0
 11
1115.962475603983
 21
1081.025682723581
 31
0.0
 12
1115.112475603984
 22
1075.925682723581
 32
0.0
 13
1115.112475603984
 23
1075.925682723581
 33
0.0
  0
MTEXT
  5
7464
330
72D7
100
AcDbEntity
  8
AM_5
100
AcDbMText
 10
1110.947475603983
 20
1090.925682723581
 30
0.0
 40
5.95
 41
0.0
 71
     5
 72
     1
  1
30
 11
0.0000000000000001
 21
1.0
 31
0.0
 73
     1
 44
1.0
1001
ACAD
1000
MTEXTBEGIN
1070
    73
1070
     1
1070
    44
1040
1.0
1070
    74
1070
     0
1000
MTEXTEND
  0
POINT
  5
7465
330
72D7
100
AcDbEntity
  8
Defpoints
 62
     0
100
AcDbPoint
 10
1143.112475603984
 20
1105.925682723581
 30
0.0
  0
POINT
  5
7466
330
72D7
100
AcDbEntity
  8
Defpoints
 62
     0
100
AcDbPoint
 10
1143.112475603984
 20
1075.925682723581
 30
0.0
  0
POINT
  5
7467
330
72D7
100
AcDbEntity
  8
Defpoints
 62
     0
100
AcDbPoint
 10
1115.112475603984
 20
1075.925682723581
 30
0.0
  0
ENDBLK
  5
72E2
330
72D7
100
AcDbEntity
  8
0
100
AcDbBlockEnd
  0
BLOCK
  5
72ED
330
72E3
100
AcDbEntity
  8
0
100
AcDbBlockBegin
  2
*D17
 70
     1
 10
0.0
 20
0.0
 30
0.0
  3
*D17
  1

  0
LINE
  5
7468
330
72E3
100
AcDbEntity
  8
AM_5
100
AcDbLine
 10
1142.112475603983
 20
1077.025682723581
 30
0.0
 11
1142.112475603983
 21
1060.175682723581
 31
0.0
  0
LINE
  5
7469
330
72E3
100
AcDbEntity
  8
AM_5
100
AcDbLine
 10
1172.112475603984
 20
1079.075682723581
 30
0.0
 11
1172.112475603984
 21
1060.175682723581
 31
0.0
  0
LINE
  5
746A
330
72E3
100
AcDbEntity
  8
AM_5
100
AcDbLine
 10
1147.212475603983
 20
1062.725682723581
 30
0.0
 11
1167.012475603984
 21
1062.725682723581
 31
0.0
  0
SOLID
  5
746B
330
72E3
100
AcDbEntity
  8
AM_5
100
AcDbTrace
 10
1147.212475603983
 20
1063.57568272358
 30
0.0
 11
1147.212475603983
 21
1061.875682723581
 31
0.0
 12
1142.112475603983
 22
1062.725682723581
 32
0.0
 13
1142.112475603983
 23
1062.725682723581
 33
0.0
  0
SOLID
  5
746C
330
72E3
100
AcDbEntity
  8
AM_5
100
AcDbTrace
 10
1167.012475603984
 20
1063.57568272358
 30
0.0
 11
1167.012475603984
 21
1061.875682723581
 31
0.0
 12
1172.112475603984
 22
1062.725682723581
 32
0.0
 13
1172.112475603984
 23
1062.725682723581
 33
0.0
  0
MTEXT
  5
746D
330
72E3
100
AcDbEntity
  8
AM_5
100
AcDbMText
 10
1157.112475603984
 20
1066.890682723581
 30
0.0
 40
5.95
 41
0.0
 71
     5
 72
     1
  1
30
 73
     1
 44
1.0
1001
ACAD
1000
MTEXTBEGIN
1070
    73
1070
     1
1070
    44
1040
1.0
1070
    74
1070
     0
1000
MTEXTEND
  0
POINT
  5
746E
330
72E3
100
AcDbEntity
  8
Defpoints
 62
     0
100
AcDbPoint
 10
1142.112475603983
 20
1078.725682723581
 30
0.0
  0
POINT
  5
746F
330
72E3
100
AcDbEntity
  8
Defpoints
 62
     0
100
AcDbPoint
 10
1172.112475603984
 20
1080.775682723581
 30
0.0
  0
POINT
  5
7470
330
72E3
100
AcDbEntity
  8
Defpoints
 62
     0
100
AcDbPoint
 10
1172.112475603984
 20
1062.725682723581
 30
0.0
  0
ENDBLK
  5
72EE
330
72E3
100
AcDbEntity
  8
0
100
AcDbBlockEnd
  0
BLOCK
  5
72F9
330
72EF
100
AcDbEntity
  8
0
100
AcDbBlockBegin
  2
*D18
 70
     1
 10
0.0
 20
0.0
 30
0.0
  3
*D18
  1

  0
LINE
  5
7471
330
72EF
100
AcDbEntity
  8
AM_5
100
AcDbLine
 10
1172.112475603984
 20
1079.075682723581
 30
0.0
 11
1172.112475603984
 21
1060.175682723581
 31
0.0
  0
LINE
  5
7472
330
72EF
100
AcDbEntity
  8
AM_5
100
AcDbLine
 10
1202.112475603984
 20
1079.075682723581
 30
0.0
 11
1202.112475603984
 21
1060.175682723581
 31
0.0
  0
LINE
  5
7473
330
72EF
100
AcDbEntity
  8
AM_5
100
AcDbLine
 10
1177.212475603983
 20
1062.725682723581
 30
0.0
 11
1197.012475603984
 21
1062.725682723581
 31
0.0
  0
SOLID
  5
7474
330
72EF
100
AcDbEntity
  8
AM_5
100
AcDbTrace
 10
1177.212475603983
 20
1063.57568272358
 30
0.0
 11
1177.212475603983
 21
1061.875682723581
 31
0.0
 12
1172.112475603984
 22
1062.725682723581
 32
0.0
 13
1172.112475603984
 23
1062.725682723581
 33
0.0
  0
SOLID
  5
7475
330
72EF
100
AcDbEntity
  8
AM_5
100
AcDbTrace
 10
1197.012475603984
 20
1063.57568272358
 30
0.0
 11
1197.012475603984
 21
1061.875682723581
 31
0.0
 12
1202.112475603984
 22
1062.725682723581
 32
0.0
 13
1202.112475603984
 23
1062.725682723581
 33
0.0
  0
MTEXT
  5
7476
330
72EF
100
AcDbEntity
  8
AM_5
100
AcDbMText
 10
1187.112475603983
 20
1066.890682723581
 30
0.0
 40
5.95
 41
0.0
 71
     5
 72
     1
  1
30
 73
     1
 44
1.0
1001
ACAD
1000
MTEXTBEGIN
1070
    73
1070
     1
1070
    44
1040
1.0
1070
    74
1070
     0
1000
MTEXTEND
  0
POINT
  5
7477
330
72EF
100
AcDbEntity
  8
Defpoints
 62
     0
100
AcDbPoint
 10
1172.112475603984
 20
1080.775682723581
 30
0.0
  0
POINT
  5
7478
330
72EF
100
AcDbEntity
  8
Defpoints
 62
     0
100
AcDbPoint
 10
1202.112475603984
 20
1080.775682723581
 30
0.0
  0
POINT
  5
7479
330
72EF
100
AcDbEntity
  8
Defpoints
 62
     0
100
AcDbPoint
 10
1202.112475603984
 20
1062.725682723581
 30
0.0
  0
ENDBLK
  5
72FA
330
72EF
100
AcDbEntity
  8
0
100
AcDbBlockEnd
  0
BLOCK
  5
7307
330
72FB
100
AcDbEntity
  8
0
100
AcDbBlockBegin
  2
*D19
 70
     1
 10
0.0
 20
0.0
 30
0.0
  3
*D19
  1

  0
LINE
  5
747A
330
72FB
100
AcDbEntity
  8
AM_5
100
AcDbLine
 10
1180.612475603983
 20
1109.625682723581
 30
0.0
 11
1180.612475603983
 21
1121.675682723581
 31
0.0
  0
LINE
  5
747B
330
72FB
100
AcDbEntity
  8
AM_5
100
AcDbLine
 10
1193.612475603984
 20
1086.625682723581
 30
0.0
 11
1193.612475603984
 21
1121.675682723581
 31
0.0
  0
LINE
  5
747C
330
72FB
100
AcDbEntity
  8
AM_5
100
AcDbLine
 10
1185.712475603983
 20
1119.125682723581
 30
0.0
 11
1188.512475603983
 21
1119.125682723581
 31
0.0
  0
SOLID
  5
747D
330
72FB
100
AcDbEntity
  8
AM_5
100
AcDbTrace
 10
1185.712475603983
 20
1119.97568272358
 30
0.0
 11
1185.712475603983
 21
1118.275682723581
 31
0.0
 12
1180.612475603983
 22
1119.125682723581
 32
0.0
 13
1180.612475603983
 23
1119.125682723581
 33
0.0
  0
SOLID
  5
747E
330
72FB
100
AcDbEntity
  8
AM_5
100
AcDbTrace
 10
1188.512475603983
 20
1119.97568272358
 30
0.0
 11
1188.512475603983
 21
1118.275682723581
 31
0.0
 12
1193.612475603984
 22
1119.125682723581
 32
0.0
 13
1193.612475603984
 23
1119.125682723581
 33
0.0
  0
MTEXT
  5
747F
330
72FB
100
AcDbEntity
  8
AM_5
100
AcDbMText
 10
1187.112475603983
 20
1123.290682723581
 30
0.0
 40
5.95
 41
0.0
 71
     5
 72
     1
  1
13
 73
     1
 44
1.0
1001
ACAD
1000
MTEXTBEGIN
1070
    73
1070
     1
1070
    44
1040
1.0
1070
    74
1070
     0
1000
MTEXTEND
  0
POINT
  5
7480
330
72FB
100
AcDbEntity
  8
Defpoints
 62
     0
100
AcDbPoint
 10
1180.612475603983
 20
1107.925682723581
 30
0.0
  0
POINT
  5
7481
330
72FB
100
AcDbEntity
  8
Defpoints
 62
     0
100
AcDbPoint
 10
1193.612475603984
 20
1084.925682723581
 30
0.0
  0
POINT
  5
7482
330
72FB
100
AcDbEntity
  8
Defpoints
 62
     0
100
AcDbPoint
 10
1193.612475603984
 20
1119.125682723581
 30
0.0
  0
ENDBLK
  5
7308
330
72FB
100
AcDbEntity
  8
0
100
AcDbBlockEnd
  0
BLOCK
  5
7313
330
7309
100
AcDbEntity
  8
0
100
AcDbBlockBegin
  2
*D20
 70
     1
 10
0.0
 20
0.0
 30
0.0
  3
*D20
  1

  0
LINE
  5
7483
330
7309
100
AcDbEntity
  8
AM_5
100
AcDbLine
 10
1142.112475603983
 20
1106.625682723581
 30
0.0
 11
1142.112475603983
 21
1121.675682723581
 31
0.0
  0
LINE
  5
7484
330
7309
100
AcDbEntity
  8
AM_5
100
AcDbLine
 10
1180.612475603983
 20
1109.625682723581
 30
0.0
 11
1180.612475603983
 21
1121.675682723581
 31
0.0
  0
LINE
  5
7485
330
7309
100
AcDbEntity
  8
AM_5
100
AcDbLine
 10
1147.212475603983
 20
1119.125682723581
 30
0.0
 11
1175.512475603984
 21
1119.125682723581
 31
0.0
  0
SOLID
  5
7486
330
7309
100
AcDbEntity
  8
AM_5
100
AcDbTrace
 10
1147.212475603983
 20
1119.97568272358
 30
0.0
 11
1147.212475603983
 21
1118.275682723581
 31
0.0
 12
1142.112475603983
 22
1119.125682723581
 32
0.0
 13
1142.112475603983
 23
1119.125682723581
 33
0.0
  0
SOLID
  5
7487
330
7309
100
AcDbEntity
  8
AM_5
100
AcDbTrace
 10
1175.512475603984
 20
1119.97568272358
 30
0.0
 11
1175.512475603984
 21
1118.275682723581
 31
0.0
 12
1180.612475603983
 22
1119.125682723581
 32
0.0
 13
1180.612475603983
 23
1119.125682723581
 33
0.0
  0
MTEXT
  5
7488
330
7309
100
AcDbEntity
  8
AM_5
100
AcDbMText
 10
1161.362475603984
 20
1123.290682723581
 30
0.0
 40
5.95
 41
0.0
 71
     5
 72
     1
  1
38.5
 73
     1
 44
1.0
1001
ACAD
1000
MTEXTBEGIN
1070
    73
1070
     1
1070
    44
1040
1.0
1070
    74
1070
     0
1000
MTEXTEND
  0
POINT
  5
7489
330
7309
100
AcDbEntity
  8
Defpoints
 62
     0
100
AcDbPoint
 10
1142.112475603983
 20
1104.925682723581
 30
0.0
  0
POINT
  5
748A
330
7309
100
AcDbEntity
  8
Defpoints
 62
     0
100
AcDbPoint
 10
1180.612475603983
 20
1107.925682723581
 30
0.0
  0
POINT
  5
748B
330
7309
100
AcDbEntity
  8
Defpoints
 62
     0
100
AcDbPoint
 10
1180.612475603983
 20
1119.125682723581
 30
0.0
  0
ENDBLK
  5
7314
330
7309
100
AcDbEntity
  8
0
100
AcDbBlockEnd
  0
BLOCK
  5
74C1
330
74BC
100
AcDbEntity
  8
0
100
AcDbBlockBegin
  2
*S21
 70
     1
 10
0.0
 20
0.0
 30
0.0
  3
*S21
  1

  0
LINE
  5
74BD
330
74BC
100
AcDbEntity
  8
AM_5
 62
     5
100
AcDbLine
 10
1265.12739307441
 20
919.205913349703
 30
0.0
 11
1231.872248074569
 21
919.205913349703
 31
0.0
  0
LINE
  5
74BE
330
74BC
100
AcDbEntity
  8
AM_5
 62
     5
100
AcDbLine
 10
1231.872248074569
 20
919.205913349703
 30
0.0
 11
1221.865850654496
 21
904.5883837454212
 31
0.0
  0
TRACE
  5
74BF
330
74BC
100
AcDbEntity
  8
AM_5
 62
     5
370
    35
100
AcDbTrace
 10
1221.219462383562
 20
905.0308674004389
 30
0.0
 11
1222.512238925429
 21
904.1459000904033
 31
0.0
 12
1218.504853597085
 22
899.6785773561553
 32
0.0
 13
1218.504853597085
 23
899.6785773561553
 33
0.0
  0
MTEXT
  5
74C0
330
74BC
100
AcDbEntity
  8
AM_5
 62
     5
100
AcDbMText
 10
1265.12739307441
 20
909.1123041552039
 30
0.0
 40
5.95
 41
0.0
 71
     7
 72
     5
  1

  7
ACISOTS
210
0.0
220
0.0
230
-1.0
 73
     1
 44
1.0
1001
ACAD
1000
MTEXTBEGIN
1070
    73
1070
     1
1070
    44
1040
1.0
1070
    74
1070
     0
1000
MTEXTEND
  0
ENDBLK
  5
74C2
330
74BC
100
AcDbEntity
  8
0
100
AcDbBlockEnd
  0
BLOCK
  5
74C9
330
74C4
100
AcDbEntity
  8
0
100
AcDbBlockBegin
  2
*S22
 70
     1
 10
0.0
 20
0.0
 30
0.0
  3
*S22
  1

  0
LINE
  5
74C5
330
74C4
100
AcDbEntity
  8
AM_5
 62
     5
100
AcDbLine
 10
1258.444379907993
 20
952.9896326333581
 30
0.0
 11
1217.698344942623
 21
952.9896326333581
 31
0.0
  0
LINE
  5
74C6
330
74C4
100
AcDbEntity
  8
AM_5
 62
     5
100
AcDbLine
 10
1217.698344942623
 20
952.9896326333581
 30
0.0
 11
1206.043241884378
 21
966.2361525665925
 31
0.0
  0
TRACE
  5
74C7
330
74C4
100
AcDbEntity
  8
AM_5
 62
     5
370
    35
100
AcDbTrace
 10
1206.631340463138
 20
966.7535978713525
 30
0.0
 11
1205.455143305617
 21
965.7187072618325
 31
0.0
 12
1202.112854565101
 22
970.7032047848308
 32
0.0
 13
1202.112854565101
 23
970.7032047848308
 33
0.0
  0
MTEXT
  5
74C8
330
74C4
100
AcDbEntity
  8
AM_5
 62
     5
100
AcDbMText
 10
1258.444379907993
 20
962.6045583331222
 30
0.0
 40
5.95
 41
0.0
 71
     7
 72
     5
  1

  7
ACISOTS
 73
     1
 44
1.0
1001
ACAD
1000
MTEXTBEGIN
1070
    73
1070
     1
1070
    44
1040
1.0
1070
    74
1070
     0
1000
MTEXTEND
  0
ENDBLK
  5
74CA
330
74C4
100
AcDbEntity
  8
0
100
AcDbBlockEnd
  0
BLOCK
  5
74D1
330
74CC
100
AcDbEntity
  8
0
100
AcDbBlockBegin
  2
*S23
 70
     1
 10
0.0
 20
0.0
 30
0.0
  3
*S23
  1

  0
LINE
  5
74CD
330
74CC
100
AcDbEntity
  8
AM_5
 62
     5
100
AcDbLine
 10
1257.570223844095
 20
1117.884596477655
 30
0.0
 11
1224.315078844254
 21
1117.884596477655
 31
0.0
  0
LINE
  5
74CE
330
74CC
100
AcDbEntity
  8
AM_5
 62
     5
100
AcDbLine
 10
1224.315078844254
 20
1117.884596477655
 30
0.0
 11
1210.986721372175
 21
1102.5068542604
 31
0.0
  0
TRACE
  5
74CF
330
74CC
100
AcDbEntity
  8
AM_5
 62
     5
370
    35
100
AcDbTrace
 10
1210.394784349043
 20
1103.019904104376
 30
0.0
 11
1211.578658395308
 21
1101.993804416424
 31
0.0
 12
1207.089720892376
 22
1098.010646162409
 32
0.0
 13
1207.089720892376
 23
1098.010646162409
 33
0.0
  0
MTEXT
  5
74D0
330
74CC
100
AcDbEntity
  8
AM_5
 62
     5
100
AcDbMText
 10
1257.570223844095
 20
1127.978205672154
 30
0.0
 40
5.95
 41
0.0
 71
     7
 72
     5
  1

  7
ACISOTS
 73
     1
 44
1.0
1001
ACAD
1000
MTEXTBEGIN
1070
    73
1070
     1
1070
    44
1040
1.0
1070
    74
1070
     0
1000
MTEXTEND
  0
ENDBLK
  5
74D2
330
74CC
100
AcDbEntity
  8
0
100
AcDbBlockEnd
  0
BLOCK
  5
74D9
330
74D4
100
AcDbEntity
  8
0
100
AcDbBlockBegin
  2
*S24
 70
     1
 10
0.0
 20
0.0
 30
0.0
  3
*S24
  1

  0
LINE
  5
74D5
330
74D4
100
AcDbEntity
  8
AM_5
 62
     5
100
AcDbLine
 10
1254.401901009626
 20
1062.942953331205
 30
0.0
 11
1213.655866044256
 21
1062.942953331205
 31
0.0
  0
LINE
  5
74D6
330
74D4
100
AcDbEntity
  8
AM_5
 62
     5
100
AcDbLine
 10
1213.655866044256
 20
1062.942953331205
 30
0.0
 11
1199.865413104726
 21
1074.167021152659
 31
0.0
  0
TRACE
  5
74D7
330
74D4
100
AcDbEntity
  8
AM_5
 62
     5
370
    35
100
AcDbTrace
 10
1200.35988935219
 20
1074.774559482686
 30
0.0
 11
1199.370936857263
 21
1073.559482822631
 31
0.0
 12
1195.250701315192
 22
1077.922941159732
 32
0.0
 13
1195.250701315192
 23
1077.922941159732
 33
0.0
  0
MTEXT
  5
74D8
330
74D4
100
AcDbEntity
  8
AM_5
 62
     5
100
AcDbMText
 10
1254.401901009626
 20
1072.557879030969
 30
0.0
 40
5.95
 41
0.0
 71
     7
 72
     5
  1

  7
ACISOTS
 73
     1
 44
1.0
1001
ACAD
1000
MTEXTBEGIN
1070
    73
1070
     1
1070
    44
1040
1.0
1070
    74
1070
     0
1000
MTEXTEND
  0
ENDBLK
  5
74DA
330
74D4
100
AcDbEntity
  8
0
100
AcDbBlockEnd
  0
BLOCK
  5
7563
330
7561
100
AcDbEntity
  8
0
100
AcDbBlockBegin
  2
S3
 70
     0
 10
0.0
 20
0.0
 30
0.0
  3
S3
  1

  0
LINE
  5
7564
330
7561
100
AcDbEntity
  8
AM_5
100
AcDbLine
 10
0.0
 20
4.000000000000028
 30
0.0
 11
3.999999999999971
 21
4.0
 31
0.0
  0
LINE
  5
7565
330
7561
100
AcDbEntity
  8
AM_5
100
AcDbLine
 10
0.0
 20
0.0
 30
0.0
 11
3.999999999999971
 21
0.0
 31
0.0
  0
LINE
  5
7566
330
7561
100
AcDbEntity
  8
AM_5
100
AcDbLine
 10
-0.0000000000000284
 20
4.0
 30
0.0
 11
-0.0000000000000284
 21
0.0
 31
0.0
  0
TEXT
  5
7567
330
7561
100
AcDbEntity
  8
AM_5
100
AcDbText
 10
1.099999999999971
 20
0.5
 30
0.0
 40
3.0
  1
3
 41
0.9
  7
DAYUS
 72
     4
 11
1.999999999999971
 21
2.0
 31
0.0
100
AcDbText
  0
LINE
  5
7568
330
7561
100
AcDbEntity
  8
AM_5
100
AcDbLine
 10
3.999999999999971
 20
4.0
 30
0.0
 11
3.999999999999971
 21
0.0
 31
0.0
  0
ENDBLK
  5
7569
330
7561
100
AcDbEntity
  8
0
100
AcDbBlockEnd
  0
BLOCK
  5
756B
330
756A
100
AcDbEntity
  8
0
100
AcDbBlockBegin
  2
*D27
 70
     1
 10
0.0
 20
0.0
 30
0.0
  3
*D27
  1

  0
LINE
  5
756C
330
756A
100
AcDbEntity
  8
AM_REFDIM
100
AcDbLine
 10
567.8418986213236
 20
259.8186698049929
 30
0.0
 11
564.4469524358235
 21
253.2783458953327
 31
0.0
  0
LINE
  5
756D
330
756A
100
AcDbEntity
  8
AM_REFDIM
100
AcDbLine
 10
564.4469524358235
 20
253.2783458953327
 30
0.0
 11
551.9326667215377
 21
253.2783458953328
 31
0.0
  0
SOLID
  5
756E
330
756A
100
AcDbEntity
  8
AM_REFDIM
100
AcDbTrace
 10
567.3981230798297
 20
260.0490244636646
 30
0.0
 11
568.2856741628175
 21
259.588315146321
 31
0.0
 12
569.2240265733545
 22
262.4813230539561
 32
0.0
 13
569.2240265733545
 23
262.4813230539561
 33
0.0
  0
MTEXT
  5
756F
330
756A
100
AcDbEntity
  8
AM_REFDIM
100
AcDbMText
 10
557.7898095786806
 20
255.5783458953326
 30
0.0
 40
3.0
 41
0.0
 71
     5
 72
     1
  1
\A1;2-R4
  7
CHINESET
 73
     1
 44
1.0
1001
ACAD
1000
MTEXTBEGIN
1070
    73
1070
     1
1070
    44
1040
1.0
1070
    74
1070
     0
1000
MTEXTEND
  0
POINT
  5
7570
330
756A
100
AcDbEntity
  8
Defpoints
 62
     0
100
AcDbPoint
 10
569.2240265733545
 20
262.4813230539561
 30
0.0
  0
POINT
  5
7571
330
756A
100
AcDbEntity
  8
Defpoints
 62
     0
100
AcDbPoint
 10
571.0668638427292
 20
266.0315273859075
 30
0.0
  0
ENDBLK
  5
7572
330
756A
100
AcDbEntity
  8
0
100
AcDbBlockEnd
  0
BLOCK
  5
7714
330
770D
100
AcDbEntity
  8
0
100
AcDbBlockBegin
  2
*D29
 70
     1
 10
0.0
 20
0.0
 30
0.0
  3
*D29
  1

  0
LINE
  5
7716
330
770D
100
AcDbEntity
  8
AM_REFDIM
100
AcDbLine
 10
1194.741154748366
 20
1237.382514792699
 30
0.0
 11
1190.588461548956
 21
1230.599387282513
 31
0.0
  0
LINE
  5
7717
330
770D
100
AcDbEntity
  8
AM_REFDIM
100
AcDbLine
 10
1190.588461548956
 20
1230.599387282513
 30
0.0
 11
1180.3495835962
 21
1230.599387282513
 31
0.0
  0
SOLID
  5
7718
330
770D
100
AcDbEntity
  8
AM_REFDIM
100
AcDbTrace
 10
1194.314722321195
 20
1237.643580656146
 30
0.0
 11
1195.167587175536
 21
1237.121448929252
 31
0.0
 12
1196.307549929049
 22
1239.941109355723
 32
0.0
 13
1196.307549929049
 23
1239.941109355723
 33
0.0
  0
MTEXT
  5
7719
330
770D
100
AcDbEntity
  8
AM_REFDIM
100
AcDbMText
 10
1185.119022572578
 20
1233.049731770702
 30
0.0
 40
3.5
 41
0.0
 71
     5
 72
     1
  1
2-R4
 73
     1
 44
1.0
1001
ACAD
1000
MTEXTBEGIN
1070
    73
1070
     1
1070
    44
1040
1.0
1070
    74
1070
     0
1000
MTEXTEND
  0
POINT
  5
771A
330
770D
100
AcDbEntity
  8
Defpoints
 62
     0
100
AcDbPoint
 10
1196.307549929049
 20
1239.941109355723
 30
0.0
  0
POINT
  5
771B
330
770D
100
AcDbEntity
  8
Defpoints
 62
     0
100
AcDbPoint
 10
1198.396076836626
 20
1243.352568773088
 30
0.0
  0
ENDBLK
  5
7715
330
770D
100
AcDbEntity
  8
0
100
AcDbBlockEnd
  0
ENDSEC
  0
SECTION
  2
ENTITIES
  0
LINE
  5
6017
330
1F
100
AcDbEntity
  8
LOGO
 62
     4
100
AcDbLine
 10
1398.933746833642
 20
821.6822094487392
 30
0.0
 11
1075.251303151299
 21
821.6822094487392
 31
0.0
  0
LWPOLYLINE
  5
6018
330
1F
100
AcDbEntity
  8
LOGO
 62
     4
100
AcDbPolyline
 90
        4
 70
     1
 43
0.0
 10
1075.251303151299
 20
821.682209448739
 10
1398.933746833642
 20
821.682209448739
 10
1398.933746833642
 20
1192.193193041461
 10
1075.251303151299
 20
1192.193193041461
1001
GENIUS_GENREC_14
1002
{
1000
PYDIR
1011
1075.251303151299
1021
1192.193193041461
1031
0.0
1002
}
1002
{
1000
PXDIR
1011
1398.933746833642
1021
821.682209448739
1031
0.0
1002
}
1002
{
1000
PORI
1011
1075.251303151299
1021
821.682209448739
1031
0.0
1002
}
1002
{
1000
PINS
1011
1075.251303151299
1021
821.682209448739
1031
0.0
1002
}
1002
{
1000
PINS2
1011
1398.933746833642
1021
1192.193193041461
1031
0.0
1002
}
1002
{
1000
C
1070
     1
1002
}
1001
GENIUS_GENODEF_13
1002
{
1000
HIER
1070
     0
1002
}
1002
{
1000
MANEDIT
1070
     0
1002
}
1002
{
1000
NOSEL
1070
     0
1002
}
1002
{
1000
BEHIND
1070
     0
1002
}
1002
{
1000
OTHER
1070
     0
1002
}
1002
{
1000
REACTOR
1002
}
1001
GENIUS_GENOBJ-N-REC_13
1002
{
1000
OWNER
1000
GEN
1002
}
  0
LWPOLYLINE
  5
6019
330
1F
100
AcDbEntity
  8
LOGO
 62
     4
100
AcDbPolyline
 90
        4
 70
     1
 43
0.0
 10
1075.251303151299
 20
821.682209448739
 10
1398.933746833642
 20
821.682209448739
 10
1398.933746833642
 20
788.0870746071098
 10
1075.251303151299
 20
788.0870746071098
1001
GENIUS_GENREC_14
1002
{
1000
PYDIR
1011
1075.251303151299
1021
788.0870746071098
1031
0.0
1002
}
1002
{
1000
PXDIR
1011
1398.933746833642
1021
821.682209448739
1031
0.0
1002
}
1002
{
1000
PORI
1011
1075.251303151299
1021
821.682209448739
1031
0.0
1002
}
1002
{
1000
PINS
1011
1075.251303151299
1021
821.682209448739
1031
0.0
1002
}
1002
{
1000
PINS2
1011
1398.933746833642
1021
788.0870746071098
1031
0.0
1002
}
1002
{
1000
C
1070
     1
1002
}
1001
GENIUS_GENOBJ-N-REC_13
1002
{
1000
OWNER
1000
GEN
1002
}
1001
GENIUS_GENODEF_13
1002
{
1000
HIER
1070
     0
1002
}
1002
{
1000
MANEDIT
1070
     0
1002
}
1002
{
1000
NOSEL
1070
     0
1002
}
1002
{
1000
BEHIND
1070
     0
1002
}
1002
{
1000
OTHER
1070
     0
1002
}
1002
{
1000
REACTOR
1002
}
  0
TEXT
  5
601A
330
1F
100
AcDbEntity
  8
LOGO
 62
     7
100
AcDbText
 10
1151.106893141127
 20
806.96475254469
 30
0.0
 40
4.479351312217192
  1
Order example:
 41
0.8
  7
CHINESET
100
AcDbText
  0
TEXT
  5
601B
330
1F
100
AcDbEntity
  8
LOGO
 62
     7
100
AcDbText
 10
1151.910525809267
 20
813.2707517307682
 30
0.0
 40
6.71902696832579
  1
訂購代號：
  7
CHINESET
100
AcDbText
  0
LINE
  5
601C
330
1F
100
AcDbEntity
  8
LOGO
 62
     4
100
AcDbLine
 10
1149.160599802882
 20
788.08707460711
 30
0.0
 11
1149.160599802882
 21
821.6822094487392
 31
0.0
  0
TEXT
  5
601D
330
1F
100
AcDbEntity
  8
LOGO
  6
Continuous
100
AcDbText
 10
1087.318826599465
 20
794.6867881472691
 30
0.0
 40
5.039270226244343
  1
金器工業股份有限公司
  7
CHINESET
100
AcDbText
  0
TEXT
  5
601E
330
1F
100
AcDbEntity
  8
LOGO
  6
Continuous
100
AcDbText
 10
1078.062684164303
 20
789.6465306191544
 30
0.0
 40
3.359513484162895
  1
MINDMAN INDUSTRIAL CO., LTD.
 41
0.85
  7
CHINESET
100
AcDbText
  0
LINE
  5
601F
330
1F
100
AcDbEntity
  8
LOGO
 62
     4
100
AcDbLine
 10
1149.160599802882
 20
814.9631824804133
 30
0.0
 11
1099.887735368493
 21
814.9631824804133
 31
0.0
  0
LINE
  5
6020
330
1F
100
AcDbEntity
  8
LOGO
 62
     4
100
AcDbLine
 10
1149.160599802882
 20
808.2441555120876
 30
0.0
 11
1099.887735368493
 21
808.2441555120876
 31
0.0
  0
LINE
  5
6021
330
1F
100
AcDbEntity
  8
LOGO
 62
     4
100
AcDbLine
 10
1149.160599802882
 20
801.5251285437619
 30
0.0
 11
1075.251303151299
 21
801.5251285437619
 31
0.0
  0
LINE
  5
6022
330
1F
100
AcDbEntity
  8
LOGO
 62
     4
100
AcDbLine
 10
1099.887735368493
 20
801.5251285437619
 30
0.0
 11
1099.887735368493
 21
821.6822094487392
 31
0.0
  0
TEXT
  5
6023
330
1F
100
AcDbEntity
  8
LOGO
100
AcDbText
 10
1133.563412565621
 20
803.204885285843
 30
0.0
 40
3.359513484162895
  1
mm
  7
CHINESET
 72
     1
 11
1137.722810212679
 21
804.8846420279243
 31
0.0
100
AcDbText
 73
     2
  0
TEXT
  5
6024
330
1F
100
AcDbEntity
  8
LOGO
100
AcDbText
 10
1131.80366740725
 20
816.6429392224946
 30
0.0
 40
3.359513484162895
  1
1 : 1
  7
CHINESET
 72
     1
 11
1137.722810212679
 21
818.3226959645761
 31
0.0
100
AcDbText
 73
     2
  0
LINE
  5
6025
330
1F
100
AcDbEntity
  8
LOGO
 62
     4
100
AcDbLine
 10
1126.763843241796
 20
801.5251285437619
 30
0.0
 11
1126.763843241796
 21
821.6822094487392
 31
0.0
  0
TEXT
  5
6026
330
1F
100
AcDbEntity
  8
LOGO
100
AcDbText
 10
1102.657834210122
 20
816.6445925263746
 30
220.1769792768836
 40
3.359513484162895
  1
比例 Scale:
 41
0.9
  7
CHINESET
 72
     4
 11
1113.325789305145
 21
818.3226959645761
 31
220.1769792768836
100
AcDbText
  0
TEXT
  5
6027
330
1F
100
AcDbEntity
  8
LOGO
100
AcDbText
 10
1102.464362228221
 20
809.971169190072
 30
220.1769792768836
 40
3.359513484162895
  1
投影  View:
 41
0.9
  7
CHINESET
 72
     4
 11
1113.325789305145
 21
811.6036689962502
 31
220.1769792768836
100
AcDbText
  0
TEXT
  5
6028
330
1F
100
AcDbEntity
  8
LOGO
100
AcDbText
 10
1102.792814662611
 20
803.204885285843
 30
220.1769792768836
 40
3.359513484162895
  1
單位  Unit:
 41
0.9
  7
CHINESET
 72
     4
 11
1113.325789305145
 21
804.8846420279243
 31
220.1769792768836
100
AcDbText
  0
SOLID
  5
6029
330
1F
100
AcDbEntity
  8
LOGO
 62
     5
100
AcDbTrace
 10
1078.736852307208
 20
807.1098415220934
 30
0.0
 11
1080.189417784126
 21
807.109841522093
 31
0.0
 12
1086.250122015405
 22
820.884169320456
 32
0.0
 13
1087.702687492324
 23
820.8841693204552
 33
0.0
  0
SOLID
  5
602A
330
1F
100
AcDbEntity
  8
LOGO
 62
     5
100
AcDbTrace
 10
1080.790479360783
 20
807.1098415220934
 30
0.0
 11
1082.243044837702
 21
807.1098415220934
 31
0.0
 12
1087.702687492324
 22
819.7822230965865
 32
0.0
 13
1086.250122015405
 23
814.4561496812196
 33
0.0
  0
SOLID
  5
602B
330
1F
100
AcDbEntity
  8
LOGO
 62
     2
100
AcDbTrace
 10
1080.189417784126
 20
807.109841522093
 30
0.0
 11
1080.790479360783
 21
807.1098415220934
 31
0.0
 12
1087.702687492324
 22
820.8841693204552
 32
0.0
 13
1088.303749068981
 23
820.8841693204552
 33
0.0
  0
SOLID
  5
602C
330
1F
100
AcDbEntity
  8
LOGO
 62
     5
100
AcDbTrace
 10
1076.408033635019
 20
802.1009950499619
 30
0.0
 11
1076.908918282233
 21
802.1009950499619
 31
0.0
 12
1078.319448434531
 22
804.6054182860276
 32
0.0
 13
1078.820333081743
 23
804.6054182860276
 33
0.0
  0
SOLID
  5
602D
330
1F
100
AcDbEntity
  8
LOGO
 62
     5
100
AcDbTrace
 10
1078.319448434531
 20
804.6054182860276
 30
0.0
 11
1078.820333081743
 21
804.6054182860276
 31
0.0
 12
1078.319448434531
 22
802.1009950499619
 32
0.0
 13
1078.820333081743
 23
802.1009950499619
 33
0.0
  0
SOLID
  5
602E
330
1F
100
AcDbEntity
  8
LOGO
 62
     5
100
AcDbTrace
 10
1078.319448434531
 20
802.1009950499619
 30
0.0
 11
1078.820333081743
 21
802.1009950499619
 31
0.0
 12
1080.230863234043
 22
804.6054182860276
 32
0.0
 13
1080.731747881256
 23
804.6054182860276
 33
0.0
  0
SOLID
  5
602F
330
1F
100
AcDbEntity
  8
LOGO
 62
     5
100
AcDbTrace
 10
1080.230863234043
 20
804.6054182860276
 30
0.0
 11
1080.731747881256
 21
804.6054182860276
 31
0.0
 12
1080.230863234043
 22
802.1009950499619
 32
0.0
 13
1080.731747881256
 23
802.1009950499619
 33
0.0
  0
POLYLINE
  5
6030
330
1F
100
AcDbEntity
  8
LOGO
 62
     5
100
AcDb2dPolyline
 66
     1
 10
0.0
 20
0.0
 30
0.0
 40
0.5016873469683257
 41
0.5016873469683257
  0
VERTEX
  5
6031
330
6030
100
AcDbEntity
  8
LOGO
 62
     5
100
AcDbVertex
100
AcDb2dVertex
 10
1097.020345980123
 20
803.6036489916011
 30
0.0
 42
1.0
  0
VERTEX
  5
6032
330
6030
100
AcDbEntity
  8
LOGO
 62
     5
100
AcDbVertex
100
AcDb2dVertex
 10
1095.515283939217
 20
803.6036489916011
 30
0.0
 42
1.0
  0
SEQEND
  5
6033
330
6030
100
AcDbEntity
  8
LOGO
 62
     5
  0
POLYLINE
  5
6034
330
1F
100
AcDbEntity
  8
LOGO
 62
     5
100
AcDb2dPolyline
 66
     1
 10
0.0
 20
0.0
 30
0.0
 70
     1
  0
VERTEX
  5
6035
330
6034
100
AcDbEntity
  8
LOGO
 62
     5
100
AcDbVertex
100
AcDb2dVertex
 10
1092.678175046951
 20
803.3532066679942
 30
0.0
 42
1.000000057330635
  0
VERTEX
  5
6036
330
6034
100
AcDbEntity
  8
LOGO
 62
     5
100
AcDbVertex
100
AcDb2dVertex
 10
1094.180828988591
 20
803.3532066679942
 30
0.0
 42
1.000000057330635
  0
SEQEND
  5
6037
330
6034
100
AcDbEntity
  8
LOGO
 62
     5
  0
CIRCLE
  5
6038
330
1F
100
AcDbEntity
  8
LOGO
 62
     5
100
AcDbCircle
 10
1093.429502017772
 20
803.3532066679942
 30
0.0
 40
0.7513269708197647
  0
POLYLINE
  5
6039
330
1F
100
AcDbEntity
  8
LOGO
 62
     5
100
AcDb2dPolyline
 66
     1
 10
0.0
 20
0.0
 30
0.0
 70
     1
 40
0.5016873469683257
 41
0.5016873469683257
  0
VERTEX
  5
603A
330
6039
100
AcDbEntity
  8
LOGO
 62
     5
100
AcDbVertex
100
AcDb2dVertex
 10
1092.426127323834
 20
803.3532066679942
 30
0.0
 42
1.0
  0
VERTEX
  5
603B
330
6039
100
AcDbEntity
  8
LOGO
 62
     5
100
AcDbVertex
100
AcDb2dVertex
 10
1094.432876711708
 20
803.3532066679942
 30
0.0
 42
1.0
  0
SEQEND
  5
603C
330
6039
100
AcDbEntity
  8
LOGO
 62
     5
  0
LINE
  5
603D
330
1F
100
AcDbEntity
  8
LOGO
100
AcDbLine
 10
1097.269584254095
 20
802.1009950499619
 30
0.0
 11
1097.269584254095
 21
803.6036489916011
 31
0.0
  0
SOLID
  5
603E
330
1F
100
AcDbEntity
  8
LOGO
 62
     5
100
AcDbTrace
 10
1094.180778900128
 20
804.6054182860276
 30
0.0
 11
1094.68166354734
 21
804.6054182860276
 31
0.0
 12
1094.180778900128
 22
802.1009950499619
 32
0.0
 13
1094.68166354734
 23
802.1009950499619
 33
0.0
  0
SOLID
  5
603F
330
1F
100
AcDbEntity
  8
LOGO
 62
     5
100
AcDbTrace
 10
1095.266045665243
 20
802.1009950499619
 30
0.0
 11
1095.766930312457
 21
802.1009950499619
 31
0.0
 12
1095.266045665243
 22
804.6054182860276
 32
0.0
 13
1095.766930312457
 23
804.6054182860276
 33
0.0
  0
SOLID
  5
6040
330
1F
100
AcDbEntity
  8
LOGO
 62
     5
100
AcDbTrace
 10
1096.768699606883
 20
803.6036489916011
 30
0.0
 11
1097.269584254095
 21
803.6036489916011
 31
0.0
 12
1096.768699606883
 22
802.1009950499619
 32
0.0
 13
1097.269584254095
 23
802.1009950499619
 33
0.0
  0
SOLID
  5
6041
330
1F
100
AcDbEntity
  8
LOGO
 62
     5
100
AcDbTrace
 10
1095.215957200522
 20
819.7822230965865
 30
0.0
 11
1093.763391723604
 21
814.4561496812196
 31
0.0
 12
1095.215957200522
 22
807.109841522093
 32
0.0
 13
1093.763391723604
 23
807.109841522093
 33
0.0
  0
SOLID
  5
6042
330
1F
100
AcDbEntity
  8
LOGO
 62
     5
100
AcDbTrace
 10
1095.817018777178
 20
807.109841522093
 30
0.0
 11
1097.269584254095
 21
807.109841522093
 31
0.0
 12
1095.817018777178
 22
820.8841693204552
 32
0.0
 13
1097.269584254095
 23
820.884169320456
 33
0.0
  0
SOLID
  5
6043
330
1F
100
AcDbEntity
  8
LOGO
 62
     2
100
AcDbTrace
 10
1095.215957200522
 20
820.884169320456
 30
0.0
 11
1095.817018777178
 21
820.8841693204552
 31
0.0
 12
1095.215957200522
 22
807.109841522093
 32
0.0
 13
1095.817018777178
 23
807.109841522093
 33
0.0
  0
POLYLINE
  5
6044
330
1F
100
AcDbEntity
  8
LOGO
 62
     5
100
AcDb2dPolyline
 66
     1
 10
0.0
 20
0.0
 30
0.0
 40
0.5016873469683257
 41
0.5016873469683257
  0
VERTEX
  5
6045
330
6044
100
AcDbEntity
  8
LOGO
 62
     5
100
AcDbVertex
100
AcDb2dVertex
 10
1089.840965977757
 20
803.6036489916011
 30
0.0
 42
1.0
  0
VERTEX
  5
6046
330
6044
100
AcDbEntity
  8
LOGO
 62
     5
100
AcDbVertex
100
AcDb2dVertex
 10
1088.335903936852
 20
803.6036489916011
 30
0.0
 42
1.0
  0
SEQEND
  5
6047
330
6044
100
AcDbEntity
  8
LOGO
 62
     5
  0
POLYLINE
  5
6048
330
1F
100
AcDbEntity
  8
LOGO
 62
     5
100
AcDb2dPolyline
 66
     1
 10
0.0
 20
0.0
 30
0.0
 40
0.5016873469683257
 41
0.5016873469683257
  0
VERTEX
  5
6049
330
6048
100
AcDbEntity
  8
LOGO
 62
     5
100
AcDbVertex
100
AcDb2dVertex
 10
1091.343619919395
 20
803.6036489916011
 30
0.0
 42
1.0
  0
VERTEX
  5
604A
330
6048
100
AcDbEntity
  8
LOGO
 62
     5
100
AcDbVertex
100
AcDb2dVertex
 10
1089.838557878491
 20
803.6036489916011
 30
0.0
 42
1.0
  0
SEQEND
  5
604B
330
6048
100
AcDbEntity
  8
LOGO
 62
     5
  0
POLYLINE
  5
604C
330
1F
100
AcDbEntity
  8
LOGO
 62
     5
100
AcDb2dPolyline
 66
     1
 10
0.0
 20
0.0
 30
0.0
 40
0.5016873469683257
 41
0.5016873469683257
  0
VERTEX
  5
604D
330
604C
100
AcDbEntity
  8
LOGO
 62
     5
100
AcDbVertex
100
AcDb2dVertex
 10
1084.16423991703
 20
803.6036489916011
 30
0.0
 42
1.0
  0
VERTEX
  5
604E
330
604C
100
AcDbEntity
  8
LOGO
 62
     5
100
AcDbVertex
100
AcDb2dVertex
 10
1082.659177876126
 20
803.6036489916011
 30
0.0
 42
1.0
  0
SEQEND
  5
604F
330
604C
100
AcDbEntity
  8
LOGO
 62
     5
  0
SOLID
  5
6050
330
1F
100
AcDbEntity
  8
LOGO
 62
     5
100
AcDbTrace
 10
1082.409939602152
 20
804.6054182860276
 30
0.0
 11
1082.910824249364
 21
804.6054182860276
 31
0.0
 12
1082.409939602152
 22
802.1009950499619
 32
0.0
 13
1082.910824249364
 23
802.1009950499619
 33
0.0
  0
SOLID
  5
6051
330
1F
100
AcDbEntity
  8
LOGO
 62
     5
100
AcDbTrace
 10
1083.912593543792
 20
803.6036489916011
 30
0.0
 11
1084.413478191005
 21
803.6036489916011
 31
0.0
 12
1083.912593543792
 22
802.1009950499619
 32
0.0
 13
1084.413478191005
 23
802.1009950499619
 33
0.0
  0
POLYLINE
  5
6052
330
1F
100
AcDbEntity
  8
LOGO
 62
     5
100
AcDb2dPolyline
 66
     1
 10
0.0
 20
0.0
 30
0.0
 70
     1
 40
0.5016873469683257
 41
0.5016873469683257
  0
VERTEX
  5
6053
330
6052
100
AcDbEntity
  8
LOGO
 62
     5
100
AcDbVertex
100
AcDb2dVertex
 10
1085.246747321469
 20
803.3532066679942
 30
0.0
 42
1.0
  0
VERTEX
  5
6054
330
6052
100
AcDbEntity
  8
LOGO
 62
     5
100
AcDbVertex
100
AcDb2dVertex
 10
1087.253496709343
 20
803.3532066679942
 30
0.0
 42
1.0
  0
SEQEND
  5
6055
330
6052
100
AcDbEntity
  8
LOGO
 62
     5
  0
SOLID
  5
6056
330
1F
100
AcDbEntity
  8
LOGO
 62
     5
100
AcDbTrace
 10
1087.001398897761
 20
805.3567452568476
 30
0.0
 11
1087.502283544975
 21
805.3567452568476
 31
0.0
 12
1087.001398897761
 22
802.1009950499619
 32
0.0
 13
1087.502283544975
 23
802.1009950499619
 33
0.0
  0
SOLID
  5
6057
330
1F
100
AcDbEntity
  8
LOGO
 62
     5
100
AcDbTrace
 10
1088.086665662879
 20
804.6054182860276
 30
0.0
 11
1088.587550310092
 21
804.6054182860276
 31
0.0
 12
1088.086665662879
 22
802.1009950499619
 32
0.0
 13
1088.587550310092
 23
802.1009950499619
 33
0.0
  0
SOLID
  5
6058
330
1F
100
AcDbEntity
  8
LOGO
 62
     5
100
AcDbTrace
 10
1089.589319604518
 20
803.6036489916011
 30
0.0
 11
1090.090204251731
 21
803.6036489916011
 31
0.0
 12
1089.589319604518
 22
802.1009950499619
 32
0.0
 13
1090.090204251731
 23
802.1009950499619
 33
0.0
  0
SOLID
  5
6059
330
1F
100
AcDbEntity
  8
LOGO
 62
     5
100
AcDbTrace
 10
1091.091973546157
 20
803.6036489916011
 30
0.0
 11
1091.59285819337
 21
803.6036489916011
 31
0.0
 12
1091.091973546157
 22
802.1009950499612
 32
0.0
 13
1091.59285819337
 23
802.1009950499612
 33
0.0
  0
SOLID
  5
605A
330
1F
100
AcDbEntity
  8
LOGO
 62
     5
100
AcDbTrace
 10
1081.324672837035
 20
804.9560375390766
 30
0.0
 11
1081.82555748425
 21
804.9560375390766
 31
0.0
 12
1081.324672837035
 22
805.3567452568476
 32
0.0
 13
1081.82555748425
 23
805.3567452568476
 33
0.0
  0
SOLID
  5
605B
330
1F
100
AcDbEntity
  8
LOGO
 62
     5
100
AcDbTrace
 10
1081.324672837035
 20
804.6054182860276
 30
0.0
 11
1081.82555748425
 21
804.6054182860276
 31
0.0
 12
1081.324672837035
 22
802.1009950499612
 32
0.0
 13
1081.82555748425
 23
802.1009950499619
 33
0.0
  0
SOLID
  5
605C
330
1F
100
AcDbEntity
  8
LOGO
 62
     5
100
AcDbTrace
 10
1086.250122015405
 20
807.1098415220934
 30
0.0
 11
1087.702687492324
 21
807.1098415220934
 31
0.0
 12
1086.250122015405
 22
814.4561496812196
 32
0.0
 13
1087.702687492324
 23
819.7822230965865
 33
0.0
  0
SOLID
  5
605D
330
1F
100
AcDbEntity
  8
LOGO
 62
     5
100
AcDbTrace
 10
1088.303749068981
 20
820.8841693204552
 30
0.0
 11
1089.756314545898
 21
820.884169320456
 31
0.0
 12
1088.303749068981
 22
808.2117877459621
 32
0.0
 13
1089.756314545898
 23
813.537861161329
 33
0.0
  0
SOLID
  5
605E
330
1F
100
AcDbEntity
  8
LOGO
 62
     2
100
AcDbTrace
 10
1087.702687492324
 20
820.8841693204552
 30
0.0
 11
1088.303749068981
 21
820.8841693204552
 31
0.0
 12
1087.702687492324
 22
807.1098415220934
 32
0.0
 13
1088.303749068981
 23
807.1098415220934
 33
0.0
  0
SOLID
  5
605F
330
1F
100
AcDbEntity
  8
LOGO
 62
     5
100
AcDbTrace
 10
1088.303749068981
 20
808.2117877459621
 30
0.0
 11
1089.756314545898
 21
813.537861161329
 31
0.0
 12
1095.215957200522
 22
820.884169320456
 32
0.0
 13
1093.763391723604
 23
820.884169320456
 33
0.0
  0
SOLID
  5
6060
330
1F
100
AcDbEntity
  8
LOGO
 62
     5
100
AcDbTrace
 10
1088.303749068981
 20
807.1098415220934
 30
0.0
 11
1089.756314545898
 21
807.1098415220934
 31
0.0
 12
1095.215957200522
 22
819.7822230965865
 32
0.0
 13
1093.763391723604
 23
814.4561496812196
 33
0.0
  0
SOLID
  5
6061
330
1F
100
AcDbEntity
  8
LOGO
 62
     2
100
AcDbTrace
 10
1087.702687492324
 20
807.1098415220934
 30
0.0
 11
1088.303749068981
 21
807.1098415220934
 31
0.0
 12
1095.215957200522
 22
820.884169320456
 32
0.0
 13
1095.817018777178
 23
820.8841693204552
 33
0.0
  0
LINE
  5
6062
330
1F
100
AcDbEntity
  8
LOGO
 62
     4
100
AcDbLine
 10
1211.301013698347
 20
803.2048852858435
 30
0.0
 11
1211.301013698347
 21
790.8866691772457
 31
0.0
  0
LINE
  5
6063
330
1F
100
AcDbEntity
  8
LOGO
 62
     4
100
AcDbLine
 10
1195.369216749766
 20
803.2048852858435
 30
0.0
 11
1195.369216749766
 21
790.8866691772457
 31
0.0
  0
LINE
  5
6064
330
1F
100
AcDbEntity
  8
LOGO
 62
     4
100
AcDbLine
 10
1211.301013698347
 20
790.8866691772457
 30
0.0
 11
1195.369216749766
 21
790.8866691772457
 31
0.0
  0
LINE
  5
6065
330
1F
100
AcDbEntity
  8
LOGO
 62
     4
100
AcDbLine
 10
1222.023423174031
 20
818.3226959645761
 30
0.0
 11
1195.369216749766
 21
818.3226959645761
 31
0.0
  0
LINE
  5
6066
330
1F
100
AcDbEntity
  8
LOGO
 62
     4
100
AcDbLine
 10
1222.023423174031
 20
808.2441555120876
 30
0.0
 11
1195.369216749766
 21
808.2441555120876
 31
0.0
  0
LINE
  5
6067
330
1F
100
AcDbEntity
  8
LOGO
 62
     4
100
AcDbLine
 10
1195.369216749766
 20
818.3226959645761
 30
0.0
 11
1195.369216749766
 21
808.2441555120876
 31
0.0
  0
LINE
  5
6068
330
1F
100
AcDbEntity
  8
LOGO
 62
     4
100
AcDbLine
 10
1222.023423174031
 20
818.3226959645761
 30
0.0
 11
1222.023423174031
 21
808.2441555120876
 31
0.0
  0
LINE
  5
6069
330
1F
100
AcDbEntity
  8
LOGO
 62
     4
100
AcDbLine
 10
1207.736143185747
 20
808.2441555120876
 30
0.0
 11
1207.736143185747
 21
803.2048852858435
 31
0.0
  0
TEXT
  5
606A
330
1F
100
AcDbEntity
  8
LOGO
  6
Continuous
 62
     7
100
AcDbText
 10
1197.160015544077
 20
810.3480360967198
 30
0.0
 40
5.879999999999999
  1
MVSC
  7
CHINESET
100
AcDbText
  0
LINE
  5
606B
330
1F
100
AcDbEntity
  8
LOGO
 62
     4
100
AcDbLine
 10
1211.301013698347
 20
803.2048852858435
 30
0.0
 11
1195.369216749766
 21
803.2048852858435
 31
0.0
  0
TEXT
  5
606C
330
1F
100
AcDbEntity
  8
LOGO
  6
Continuous
100
AcDbText
 10
1199.90653074516
 20
792.6253592595903
 30
220.1769792768836
 40
2.519999999999999
  1
Model
 41
0.8
  7
CHINESET
100
AcDbText
  0
TEXT
  5
606D
330
1F
100
AcDbEntity
  8
LOGO
100
AcDbText
 10
1199.235788665322
 20
797.2968961608281
 30
220.1769792768836
 40
4.2
  1
型號
  7
CHINESET
100
AcDbText
  0
LINE
  5
606E
330
1F
100
AcDbEntity
  8
LOGO
  6
Continuous
 62
     7
100
AcDbLine
 10
1223.09485532212
 20
813.2477259552635
 30
0.0
 11
1227.545171036338
 21
813.2477259552635
 31
0.0
  0
LINE
  5
606F
330
1F
100
AcDbEntity
  8
LOGO
 62
     4
100
AcDbLine
 10
1234.331962068306
 20
803.2048852858435
 30
0.0
 11
1234.331962068306
 21
790.8866691772457
 31
0.0
  0
LINE
  5
6070
330
1F
100
AcDbEntity
  8
LOGO
 62
     4
100
AcDbLine
 10
1213.925595004813
 20
803.2048852858435
 30
0.0
 11
1213.925595004813
 21
790.8866691772457
 31
0.0
  0
LINE
  5
6071
330
1F
100
AcDbEntity
  8
LOGO
 62
     4
100
AcDbLine
 10
1234.331962068306
 20
790.8866691772457
 30
0.0
 11
1213.925595004813
 21
790.8866691772457
 31
0.0
  0
LINE
  5
6072
330
1F
100
AcDbEntity
  8
LOGO
 62
     4
100
AcDbLine
 10
1246.718943573654
 20
818.3226959645761
 30
0.0
 11
1228.949011054033
 21
818.3226959645761
 31
0.0
  0
LINE
  5
6073
330
1F
100
AcDbEntity
  8
LOGO
 62
     4
100
AcDbLine
 10
1246.718943573654
 20
808.2441555120876
 30
0.0
 11
1228.949011054033
 21
808.2441555120876
 31
0.0
  0
LINE
  5
6074
330
1F
100
AcDbEntity
  8
LOGO
 62
     4
100
AcDbLine
 10
1228.949011054033
 20
818.3226959645761
 30
0.0
 11
1228.949011054033
 21
808.2441555120876
 31
0.0
  0
LINE
  5
6075
330
1F
100
AcDbEntity
  8
LOGO
 62
     4
100
AcDbLine
 10
1246.718943573654
 20
818.3226959645761
 30
0.0
 11
1246.718943573654
 21
808.2441555120876
 31
0.0
  0
LINE
  5
6076
330
1F
100
AcDbEntity
  8
LOGO
 62
     4
100
AcDbLine
 10
1234.993609232874
 20
808.2441555120876
 30
0.0
 11
1234.993609232874
 21
805.7245203989655
 31
0.0
  0
TEXT
  5
6077
330
1F
100
AcDbEntity
  8
LOGO
  6
Continuous
 62
     7
100
AcDbText
 10
1230.587346548828
 20
810.3480360967198
 30
0.0
 40
5.879999999999999
  1
300
  7
CHINESET
100
AcDbText
  0
LINE
  5
6078
330
1F
100
AcDbEntity
  8
LOGO
 62
     4
100
AcDbLine
 10
1234.331962068306
 20
803.2048852858435
 30
0.0
 11
1213.925595004813
 21
803.2048852858435
 31
0.0
  0
LINE
  5
6079
330
1F
100
AcDbEntity
  8
LOGO
  6
Continuous
 62
     7
100
AcDbLine
 10
1247.853144188392
 20
813.2477259552635
 30
0.0
 11
1252.303459902611
 21
813.2477259552635
 31
0.0
  0
LINE
  5
607A
330
1F
100
AcDbEntity
  8
LOGO
 62
     4
100
AcDbLine
 10
1253.888605029666
 20
803.2048852858435
 30
0.0
 11
1253.888605029666
 21
790.8866691772457
 31
0.0
  0
LINE
  5
607B
330
1F
100
AcDbEntity
  8
LOGO
 62
     4
100
AcDbLine
 10
1237.064728454206
 20
803.2048852858435
 30
0.0
 11
1237.064728454206
 21
790.8866691772457
 31
0.0
  0
LINE
  5
607C
330
1F
100
AcDbEntity
  8
LOGO
 62
     4
100
AcDbLine
 10
1253.888605029666
 20
790.8866691772457
 30
0.0
 11
1237.064728454206
 21
790.8866691772457
 31
0.0
  0
LINE
  5
607D
330
1F
100
AcDbEntity
  8
LOGO
 62
     4
100
AcDbLine
 10
1260.861886424833
 20
818.3226959645761
 30
0.0
 11
1253.707299920305
 21
818.3226959645761
 31
0.0
  0
LINE
  5
607E
330
1F
100
AcDbEntity
  8
LOGO
 62
     4
100
AcDbLine
 10
1260.861886424833
 20
808.2441555120876
 30
0.0
 11
1253.707299920305
 21
808.2441555120876
 31
0.0
  0
LINE
  5
607F
330
1F
100
AcDbEntity
  8
LOGO
 62
     4
100
AcDbLine
 10
1253.707299920305
 20
818.3226959645761
 30
0.0
 11
1253.707299920305
 21
808.2441555120876
 31
0.0
  0
LINE
  5
6080
330
1F
100
AcDbEntity
  8
LOGO
 62
     4
100
AcDbLine
 10
1260.861886424833
 20
818.3226959645761
 30
0.0
 11
1260.861886424833
 21
808.2441555120876
 31
0.0
  0
LINE
  5
6081
330
1F
100
AcDbEntity
  8
LOGO
 62
     4
100
AcDbLine
 10
1257.284593172569
 20
808.2441555120876
 30
0.0
 11
1257.284593172569
 21
805.7245203989655
 31
0.0
  0
TEXT
  5
6082
330
1F
100
AcDbEntity
  8
LOGO
  6
Continuous
 62
     7
100
AcDbText
 10
1255.048726704532
 20
810.3480360967198
 30
0.0
 40
5.879999999999999
  1
4
  7
CHINESET
100
AcDbText
  0
LINE
  5
6083
330
1F
100
AcDbEntity
  8
LOGO
 62
     4
100
AcDbLine
 10
1253.888605029666
 20
803.2048852858435
 30
0.0
 11
1237.064728454206
 21
803.2048852858435
 31
0.0
  0
LINE
  5
6084
330
1F
100
AcDbEntity
  8
LOGO
 62
     4
100
AcDbLine
 10
1284.772865701808
 20
803.2048852858435
 30
0.0
 11
1284.772865701808
 21
790.8866691772457
 31
0.0
  0
LINE
  5
6085
330
1F
100
AcDbEntity
  8
LOGO
 62
     4
100
AcDbLine
 10
1257.300552208267
 20
803.2048852858435
 30
0.0
 11
1257.300552208267
 21
790.8866691772457
 31
0.0
  0
LINE
  5
6086
330
1F
100
AcDbEntity
  8
LOGO
 62
     4
100
AcDbLine
 10
1284.772865701808
 20
790.8866691772457
 30
0.0
 11
1257.300552208267
 21
790.8866691772457
 31
0.0
  0
LINE
  5
6087
330
1F
100
AcDbEntity
  8
LOGO
 62
     4
100
AcDbLine
 10
1276.131795407554
 20
818.3226959645761
 30
0.0
 11
1262.834742405016
 21
818.3226959645761
 31
0.0
  0
LINE
  5
6088
330
1F
100
AcDbEntity
  8
LOGO
 62
     4
100
AcDbLine
 10
1276.131795407554
 20
808.2441555120876
 30
0.0
 11
1262.834742405016
 21
808.2441555120876
 31
0.0
  0
LINE
  5
6089
330
1F
100
AcDbEntity
  8
LOGO
 62
     4
100
AcDbLine
 10
1262.834742405016
 20
818.3226959645761
 30
0.0
 11
1262.834742405016
 21
808.2441555120876
 31
0.0
  0
LINE
  5
608A
330
1F
100
AcDbEntity
  8
LOGO
 62
     4
100
AcDbLine
 10
1276.131795407554
 20
818.3226959645761
 30
0.0
 11
1276.131795407554
 21
808.2441555120876
 31
0.0
  0
LINE
  5
608B
330
1F
100
AcDbEntity
  8
LOGO
 62
     4
100
AcDbLine
 10
1269.483268906285
 20
808.2441555120876
 30
0.0
 11
1269.483268906285
 21
803.2048852858435
 31
0.0
  0
TEXT
  5
608C
330
1F
100
AcDbEntity
  8
LOGO
  6
Continuous
 62
     7
100
AcDbText
 10
1265.213593630875
 20
810.3480360967198
 30
0.0
 40
5.879999999999999
  1
E1
  7
CHINESET
100
AcDbText
  0
LINE
  5
608D
330
1F
100
AcDbEntity
  8
LOGO
 62
     4
100
AcDbLine
 10
1284.772865701808
 20
803.2048852858435
 30
0.0
 11
1257.300552208267
 21
803.2048852858435
 31
0.0
  0
TEXT
  5
608E
330
1F
100
AcDbEntity
  8
LOGO
  6
Continuous
100
AcDbText
 10
1215.526716229863
 20
792.6253592595903
 30
220.1769792768836
 40
2.519999999999999
  1
Body width
 41
0.8
  7
CHINESET
100
AcDbText
  0
TEXT
  5
608F
330
1F
100
AcDbEntity
  8
LOGO
100
AcDbText
 10
1215.502976957065
 20
797.2968961608281
 30
220.1769792768836
 40
4.2
  1
本體寬度
  7
CHINESET
100
AcDbText
  0
TEXT
  5
6090
330
1F
100
AcDbEntity
  8
LOGO
  6
Continuous
100
AcDbText
 10
1241.755933573968
 20
792.6253592595903
 30
220.1769792768836
 40
2.519999999999999
  1
4 Way
 41
0.8
  7
CHINESET
100
AcDbText
  0
TEXT
  5
6091
330
1F
100
AcDbEntity
  8
LOGO
100
AcDbText
 10
1239.298020998177
 20
797.2968961608281
 30
220.1769792768836
 40
4.2
  1
4方向
  7
CHINESET
100
AcDbText
  0
TEXT
  5
6092
330
1F
100
AcDbEntity
  8
LOGO
  6
Continuous
100
AcDbText
 10
1259.63505342115
 20
792.6253592595903
 30
220.1769792768836
 40
2.519999999999999
  1
Single solenoid
 41
0.8
  7
CHINESET
100
AcDbText
  0
TEXT
  5
6093
330
1F
100
AcDbEntity
  8
LOGO
100
AcDbText
 10
1264.131304066444
 20
797.2968961608281
 30
220.1769792768836
 40
4.2
  1
單線圈
  7
CHINESET
100
AcDbText
  0
LINE
  5
6094
330
1F
100
AcDbEntity
  8
LOGO
 62
     4
100
AcDbLine
 10
1299.524743465963
 20
818.3226959645761
 30
0.0
 11
1283.59109894443
 21
818.3226959645761
 31
0.0
  0
LINE
  5
6095
330
1F
100
AcDbEntity
  8
LOGO
 62
     4
100
AcDbLine
 10
1299.524743465963
 20
808.2441555120876
 30
0.0
 11
1283.59109894443
 21
808.2441555120876
 31
0.0
  0
LINE
  5
6096
330
1F
100
AcDbEntity
  8
LOGO
 62
     4
100
AcDbLine
 10
1283.59109894443
 20
818.3226959645761
 30
0.0
 11
1283.59109894443
 21
808.2441555120876
 31
0.0
  0
LINE
  5
6097
330
1F
100
AcDbEntity
  8
LOGO
 62
     4
100
AcDbLine
 10
1299.524743465963
 20
818.3226959645761
 30
0.0
 11
1299.524743465963
 21
808.2441555120876
 31
0.0
  0
TEXT
  5
6098
330
1F
100
AcDbEntity
  8
LOGO
  6
Continuous
 62
     7
100
AcDbText
 10
1289.987553254653
 20
810.3480360967198
 30
0.0
 40
5.879999999999999
  1
?
  7
CHINESET
100
AcDbText
  0
LINE
  5
6099
330
1F
100
AcDbEntity
  8
LOGO
 62
     4
100
AcDbLine
 10
1305.78126495053
 20
803.2048852858435
 30
0.0
 11
1305.78126495053
 21
790.8866691772457
 31
0.0
  0
LINE
  5
609A
330
1F
100
AcDbEntity
  8
LOGO
 62
     4
100
AcDbLine
 10
1287.535536215583
 20
803.2048852858435
 30
0.0
 11
1287.535536215583
 21
790.8866691772457
 31
0.0
  0
LINE
  5
609B
330
1F
100
AcDbEntity
  8
LOGO
 62
     4
100
AcDbLine
 10
1305.78126495053
 20
790.8866691772457
 30
0.0
 11
1287.535536215583
 21
790.8866691772457
 31
0.0
  0
LINE
  5
609C
330
1F
100
AcDbEntity
  8
LOGO
 62
     4
100
AcDbLine
 10
1305.78126495053
 20
803.2048852858435
 30
0.0
 11
1287.535536215583
 21
803.2048852858435
 31
0.0
  0
TEXT
  5
609D
330
1F
100
AcDbEntity
  8
LOGO
  6
Continuous
100
AcDbText
 10
1291.501688074319
 20
792.6253592595903
 30
220.1769792768836
 40
2.519999999999999
  1
Voltage
 41
0.8
  7
CHINESET
100
AcDbText
  0
TEXT
  5
609E
330
1F
100
AcDbEntity
  8
LOGO
100
AcDbText
 10
1292.98104956922
 20
797.2968961608281
 30
220.1769792768836
 40
4.2
  1
電壓
  7
CHINESET
100
AcDbText
  0
LINE
  5
609F
330
1F
100
AcDbEntity
  8
LOGO
 62
     4
100
AcDbLine
 10
1291.557921205197
 20
808.2441555120876
 30
0.0
 11
1291.557921205197
 21
803.2048852858437
 31
0.0
  0
TEXT
  5
60A0
330
1F
100
AcDbEntity
  8
LOGO
100
AcDbText
 10
1150.941179596161
 20
789.8743225208979
 30
0.0
 40
3.359999999999999
  1
20811193
 41
0.7
  7
CHINESET
 72
     1
 11
1158.893179596161
 21
789.8743225208979
 31
0.0
100
AcDbText
  0
LINE
  5
60A1
330
1F
100
AcDbEntity
  8
LOGO
 62
     4
100
AcDbLine
 10
1169.320599802881
 20
794.8061015754366
 30
0.0
 11
1169.320599802883
 21
788.0870746071104
 31
0.0
  0
LINE
  5
60A2
330
1F
100
AcDbEntity
  8
LOGO
 62
     4
100
AcDbLine
 10
1169.320599802881
 20
794.8061015754366
 30
0.0
 11
1149.160599802882
 21
794.8061015754366
 31
0.0
  0
CIRCLE
  5
60A3
330
1F
100
AcDbEntity
  8
LOGO
  6
Continuous
100
AcDbCircle
 10
1132.984402659028
 20
811.6108550201774
 30
0.0
 40
1.95061260293866
  0
CIRCLE
  5
60A4
330
1F
100
AcDbEntity
  8
LOGO
  6
Continuous
100
AcDbCircle
 10
1132.984402659028
 20
811.6108550201774
 30
0.0
 40
1.142886307358202
  0
LINE
  5
60A5
330
1F
100
AcDbEntity
  8
LOGO
100
AcDbLine
 10
1145.242278595409
 20
809.6602424172385
 30
0.0
 11
1145.242278595409
 21
813.5614676231163
 31
0.0
  0
LINE
  5
60A6
330
1F
100
AcDbEntity
  8
LOGO
100
AcDbLine
 10
1139.127220055703
 20
810.4679687128195
 30
0.0
 11
1139.127220055703
 21
812.7537413275359
 31
0.0
  0
LINE
  5
60A7
330
1F
100
AcDbEntity
  8
LOGO
  6
Continuous
100
AcDbLine
 10
1139.127220055703
 20
812.7537413275359
 30
0.0
 11
1145.242278595409
 21
813.5614676231163
 31
0.0
  0
LINE
  5
60A8
330
1F
100
AcDbEntity
  8
LOGO
  6
Continuous
100
AcDbLine
 10
1139.127220055703
 20
810.4679687128195
 30
0.0
 11
1145.242278595409
 21
809.6602424172385
 31
0.0
  0
LINE
  5
60A9
330
1F
100
AcDbEntity
  8
LOGO
  6
AM_ISO08W050x2
 48
0.3
100
AcDbLine
 10
1130.295453977753
 20
811.6108550201774
 30
0.0
 11
1135.673351340303
 21
811.6108550201774
 31
0.0
1001
GENIUS_GENOREF_13
1005
60C0
  0
LINE
  5
60AA
330
1F
100
AcDbEntity
  8
LOGO
  6
AM_ISO08W050x2
 48
0.3
100
AcDbLine
 10
1132.984402659028
 20
808.9219063389029
 30
0.0
 11
1132.984402659028
 21
814.2998037014521
 31
0.0
1001
GENIUS_GENOREF_13
1005
60BF
  0
LINE
  5
60AB
330
1F
100
AcDbEntity
  8
LOGO
  6
CENTER
 48
0.5
100
AcDbLine
 10
1138.638185339783
 20
811.6108550201774
 30
0.0
 11
1145.858045194892
 21
811.6108550201774
 31
0.0
1001
GENIUS_GENOREF_13
1005
60BE
  0
LINE
  5
60AC
330
1F
100
AcDbEntity
  8
LOGO
  6
Continuous
 62
     7
100
AcDbLine
 10
1301.416077292519
 20
813.2477259552635
 30
0.0
 11
1305.866393006738
 21
813.2477259552635
 31
0.0
  0
LINE
  5
60AD
330
1F
100
AcDbEntity
  8
LOGO
 62
     4
100
AcDbLine
 10
1316.142262314244
 20
818.3226959645761
 30
0.0
 11
1307.270233024432
 21
818.3226959645761
 31
0.0
  0
LINE
  5
60AE
330
1F
100
AcDbEntity
  8
LOGO
 62
     4
100
AcDbLine
 10
1316.142262314244
 20
808.2441555120876
 30
0.0
 11
1307.270233024432
 21
808.2441555120876
 31
0.0
  0
LINE
  5
60AF
330
1F
100
AcDbEntity
  8
LOGO
 62
     4
100
AcDbLine
 10
1307.270233024432
 20
818.3226959645761
 30
0.0
 11
1307.270233024432
 21
808.2441555120876
 31
0.0
  0
LINE
  5
60B0
330
1F
100
AcDbEntity
  8
LOGO
 62
     4
100
AcDbLine
 10
1316.142262314244
 20
818.3226959645761
 30
0.0
 11
1316.142262314244
 21
808.2441555120876
 31
0.0
  0
LINE
  5
60B1
330
1F
100
AcDbEntity
  8
LOGO
 62
     4
100
AcDbLine
 10
1311.706247669338
 20
808.2441555120876
 30
0.0
 11
1311.706247669338
 21
803.2048852858434
 31
0.0
  0
LINE
  5
60B2
330
1F
100
AcDbEntity
  8
LOGO
 62
     4
100
AcDbLine
 10
1234.993609232874
 20
805.7245203989655
 30
0.0
 11
1224.128778536559
 21
805.7245203989655
 31
0.0
  0
LINE
  5
60B3
330
1F
100
AcDbEntity
  8
LOGO
 62
     4
100
AcDbLine
 10
1224.128778536559
 20
803.2048852858435
 30
0.0
 11
1224.128778536559
 21
805.7245203989655
 31
0.0
  0
LINE
  5
60B4
330
1F
100
AcDbEntity
  8
LOGO
 62
     4
100
AcDbLine
 10
1257.284593172569
 20
805.7245203989655
 30
0.0
 11
1245.476666741936
 21
805.7245203989655
 31
0.0
  0
LINE
  5
60B5
330
1F
100
AcDbEntity
  8
LOGO
 62
     4
100
AcDbLine
 10
1245.476666741936
 20
803.2048852858435
 30
0.0
 11
1245.476666741936
 21
805.7245203989655
 31
0.0
  0
LINE
  5
60B6
330
1F
100
AcDbEntity
  8
LOGO
 62
     4
100
AcDbLine
 10
1333.974319618886
 20
803.2048852858435
 30
0.0
 11
1333.974319618886
 21
790.8866691772457
 31
0.0
  0
LINE
  5
60B7
330
1F
100
AcDbEntity
  8
LOGO
 62
     4
100
AcDbLine
 10
1308.555687193159
 20
803.2048852858435
 30
0.0
 11
1308.555687193159
 21
790.8866691772457
 31
0.0
  0
LINE
  5
60B8
330
1F
100
AcDbEntity
  8
LOGO
 62
     4
100
AcDbLine
 10
1333.974319618886
 20
790.8866691772457
 30
0.0
 11
1308.555687193159
 21
790.8866691772457
 31
0.0
  0
LINE
  5
60B9
330
1F
100
AcDbEntity
  8
LOGO
 62
     4
100
AcDbLine
 10
1333.974319618886
 20
803.2048852858435
 30
0.0
 11
1308.555687193159
 21
803.2048852858435
 31
0.0
  0
TEXT
  5
60BA
330
1F
100
AcDbEntity
  8
LOGO
  6
Continuous
100
AcDbText
 10
1311.072766946555
 20
792.6253592595903
 30
220.1769792768836
 40
2.519999999999999
  1
DIN connector
 41
0.8
  7
CHINESET
100
AcDbText
  0
TEXT
  5
60BB
330
1F
100
AcDbEntity
  8
LOGO
100
AcDbText
 10
1317.871731716877
 20
797.2968961608281
 30
220.1769792768836
 40
4.2
  1
端子型
  7
CHINESET
100
AcDbText
  0
TEXT
  5
60BC
330
1F
100
AcDbEntity
  8
LOGO
  6
Continuous
100
AcDbText
 10
1311.005734213759
 20
797.7812231548543
 30
220.1769792768836
 40
3.359999999999999
  1
DIN
 41
0.8
  7
CHINESET
100
AcDbText
  0
LINE
  5
60BD
330
1F
100
AcDbEntity
  8
LOGO
  6
Continuous
 62
     7
100
AcDbLine
 10
1277.736943212516
 20
813.2477259552635
 30
0.0
 11
1282.187258926735
 21
813.2477259552635
 31
0.0
  0
POINT
  5
60BE
330
1F
100
AcDbEntity
  8
0
 60
     1
100
AcDbPoint
 10
-1632.375003031462
 20
-90.68036630036226
 30
0.0
1001
GENIUS_GENOBJ-N-CRS_13
1002
{
1000
OWNER
1000
GEN
1002
}
1001
GENIUS_GENOLIS_13
1002
{
1000
ENT
1005
0
1005
0
1005
0
1005
60AB
1002
}
1001
GENIUS_GENOENT_13
1002
{
1000
MYREF
1005
60BE
1002
}
1002
{
1000
GRP
1005
0
1002
}
1001
GENIUS_GENODEF_13
1002
{
1000
HIER
1070
    10
1002
}
1002
{
1000
MANEDIT
1070
     1
1002
}
1002
{
1000
NOSEL
1070
     0
1002
}
1002
{
1000
BEHIND
1070
     0
1002
}
1002
{
1000
OTHER
1070
     0
1002
}
1002
{
1000
REACTOR
1002
}
  0
POINT
  5
60BF
330
1F
100
AcDbEntity
  8
0
 60
     1
100
AcDbPoint
 10
-1643.699588254316
 20
-81.80477982172602
 30
0.0
1001
GENIUS_GENOBJ-N-CRS_13
1002
{
1000
OWNER
1000
GEN
1002
}
1001
GENIUS_GENOLIS_13
1002
{
1000
ENT
1005
0
1005
0
1005
0
1005
60AA
1002
}
1001
GENIUS_GENOENT_13
1002
{
1000
MYREF
1005
60BF
1002
}
1002
{
1000
GRP
1005
0
1002
}
1001
GENIUS_GENODEF_13
1002
{
1000
HIER
1070
    10
1002
}
1002
{
1000
MANEDIT
1070
     1
1002
}
1002
{
1000
NOSEL
1070
     0
1002
}
1002
{
1000
BEHIND
1070
     0
1002
}
1002
{
1000
OTHER
1070
     0
1002
}
1002
{
1000
REACTOR
1002
}
  0
POINT
  5
60C0
330
1F
100
AcDbEntity
  8
0
 60
     1
100
AcDbPoint
 10
-1637.340914556479
 20
-90.68036630036226
 30
0.0
1001
GENIUS_GENOBJ-N-CRS_13
1002
{
1000
OWNER
1000
GEN
1002
}
1001
GENIUS_GENOLIS_13
1002
{
1000
ENT
1005
0
1005
0
1005
0
1005
60A9
1002
}
1001
GENIUS_GENOENT_13
1002
{
1000
MYREF
1005
60C0
1002
}
1002
{
1000
GRP
1005
0
1002
}
1001
GENIUS_GENODEF_13
1002
{
1000
HIER
1070
    10
1002
}
1002
{
1000
MANEDIT
1070
     1
1002
}
1002
{
1000
NOSEL
1070
     0
1002
}
1002
{
1000
BEHIND
1070
     0
1002
}
1002
{
1000
OTHER
1070
     0
1002
}
1002
{
1000
REACTOR
1002
}
  0
LINE
  5
6657
330
1F
100
AcDbEntity
  8
AM_VIS
100
AcDbLine
 10
1372.490667461246
 20
970.508934947326
 30
0.0
 11
1373.586657718916
 21
971.6049252049955
 31
0.0
  0
LINE
  5
6658
330
1F
100
AcDbEntity
  8
AM_VIS
100
AcDbLine
 10
1372.490667461246
 20
970.5089349473258
 30
0.0
 11
1373.204341114442
 21
971.6049252049955
 31
0.0
  0
CIRCLE
  5
6659
330
1F
100
AcDbEntity
  8
AM_VIS
100
AcDbCircle
 10
1374.081657718916
 20
972.0999252049958
 30
0.0
 40
4.199999999999988
  0
LINE
  5
665A
330
1F
100
AcDbEntity
  8
AM_VIS
100
AcDbLine
 10
1377.181657718916
 20
968.2999252049958
 30
0.0
 11
1348.981657718916
 21
968.2999252049958
 31
0.0
  0
LINE
  5
665B
330
1F
100
AcDbEntity
  8
AM_VIS
100
AcDbLine
 10
1348.481657718916
 20
968.7999252049959
 30
0.0
 11
1348.481657718916
 21
1013.399925204995
 31
0.0
  0
LINE
  5
665C
330
1F
100
AcDbEntity
  8
AM_VIS
100
AcDbLine
 10
1348.981657718916
 20
1013.899925204996
 30
0.0
 11
1352.581657718916
 21
1013.899925204995
 31
0.0
  0
LINE
  5
665F
330
1F
100
AcDbEntity
  8
AM_VIS
100
AcDbLine
 10
1373.581657718916
 20
1013.899925204996
 30
0.0
 11
1377.181657718916
 21
1013.899925204996
 31
0.0
  0
LINE
  5
6660
330
1F
100
AcDbEntity
  8
AM_VIS
100
AcDbLine
 10
1377.681657718916
 20
971.0499252049956
 30
0.0
 11
1377.681657718916
 21
968.7999252049959
 31
0.0
  0
LINE
  5
6661
330
1F
100
AcDbEntity
  8
AM_VIS
100
AcDbLine
 10
1377.681657718916
 20
1013.399925204995
 30
0.0
 11
1377.681657718916
 21
973.1499252049957
 31
0.0
  0
ARC
  5
6662
330
1F
100
AcDbEntity
  8
AM_VIS
100
AcDbCircle
 10
1355.581657718916
 20
1009.099925204996
 30
0.0
 40
3.75
100
AcDbArc
 50
143.130102354156
 51
201.0394697813136
  0
ARC
  5
6664
330
1F
100
AcDbEntity
  8
AM_VIS
100
AcDbCircle
 10
1374.081657718916
 20
972.0999252049958
 30
0.0
 40
3.75
100
AcDbArc
 50
16.26020470830987
 51
343.7397952916902
  0
ARC
  5
6665
330
1F
100
AcDbEntity
  8
AM_VIS
100
AcDbCircle
 10
1377.181657718916
 20
968.7999252049959
 30
0.0
 40
0.5
100
AcDbArc
 50
270.0
 51
0.0
  0
ARC
  5
6666
330
1F
100
AcDbEntity
  8
AM_VIS
100
AcDbCircle
 10
1348.981657718916
 20
968.7999252049959
 30
0.0
 40
0.5
100
AcDbArc
 50
180.0
 51
270.0
  0
ARC
  5
6667
330
1F
100
AcDbEntity
  8
AM_VIS
100
AcDbCircle
 10
1348.981657718916
 20
1013.399925204995
 30
0.0
 40
0.5
100
AcDbArc
 50
90.0
 51
180.0
  0
ARC
  5
6668
330
1F
100
AcDbEntity
  8
AM_VIS
100
AcDbCircle
 10
1377.181657718916
 20
1013.399925204995
 30
0.0
 40
0.5
100
AcDbArc
 50
0.0
 51
90.0
  0
LINE
  5
66EB
330
1F
100
AcDbEntity
  8
AM_VIS
100
AcDbLine
 10
1224.112475603984
 20
877.9373889648605
 30
0.0
 11
1224.112475603984
 21
907.467712363022
 31
0.0
  0
LINE
  5
66EC
330
1F
100
AcDbEntity
  8
AM_VIS
100
AcDbLine
 10
1150.112475603983
 20
907.467712363022
 30
0.0
 11
1150.112475603983
 21
877.9373889648605
 31
0.0
  0
LINE
  5
66FA
330
1F
100
AcDbEntity
  8
AM_VIS
100
AcDbLine
 10
1150.112475603983
 20
907.7025506639412
 30
0.0
 11
1224.112475603984
 21
907.7025506639412
 31
0.0
  0
LINE
  5
66FB
330
1F
100
AcDbEntity
  8
AM_VIS
100
AcDbLine
 10
1224.112475603984
 20
877.7025506639413
 30
0.0
 11
1150.112475603983
 21
877.7025506639413
 31
0.0
  0
ARC
  5
66FD
330
1F
100
AcDbEntity
  8
AM_VIS
100
AcDbCircle
 10
1213.112475603984
 20
892.7025506639411
 30
0.0
 40
7.075
100
AcDbArc
 50
156.740814658068
 51
203.259185341932
  0
ARC
  5
66FE
330
1F
100
AcDbEntity
  8
AM_VIS
100
AcDbCircle
 10
1213.112475603984
 20
892.7025506639411
 30
0.0
 40
7.075
100
AcDbArc
 50
203.259185341932
 51
290.6927754657811
  0
ARC
  5
66FF
330
1F
100
AcDbEntity
  8
AM_VIS
100
AcDbCircle
 10
1213.112475603984
 20
892.7025506639411
 30
0.0
 40
7.075
100
AcDbArc
 50
290.6927754657811
 51
69.30722453421893
  0
ARC
  5
6700
330
1F
100
AcDbEntity
  8
AM_VIS
100
AcDbCircle
 10
1161.112475603983
 20
892.7025506639411
 30
0.0
 40
7.075
100
AcDbArc
 50
110.6927754657811
 51
249.3072245342189
  0
ARC
  5
6701
330
1F
100
AcDbEntity
  8
AM_VIS
100
AcDbCircle
 10
1161.112475603983
 20
892.7025506639411
 30
0.0
 40
7.075
100
AcDbArc
 50
336.740814658068
 51
23.259185341932
  0
ARC
  5
6702
330
1F
100
AcDbEntity
  8
AM_VIS
100
AcDbCircle
 10
1161.112475603983
 20
892.7025506639411
 30
0.0
 40
7.075
100
AcDbArc
 50
23.259185341932
 51
110.6927754657811
  0
ARC
  5
6703
330
1F
100
AcDbEntity
  8
AM_VIS
100
AcDbCircle
 10
1187.112475603983
 20
892.7025506639411
 30
0.0
 40
7.075
100
AcDbArc
 50
309.4973404819492
 51
50.50265951805083
  0
ARC
  5
6704
330
1F
100
AcDbEntity
  8
AM_VIS
100
AcDbCircle
 10
1187.112475603983
 20
892.7025506639411
 30
0.0
 40
7.075
100
AcDbArc
 50
129.4973404819492
 51
230.5026595180509
  0
ARC
  5
6705
330
1F
100
AcDbEntity
  8
AM_VIS
100
AcDbCircle
 10
1187.112475603983
 20
892.7025506639411
 30
0.0
 40
7.075
100
AcDbArc
 50
230.5026595180509
 51
309.4973404819492
  0
ARC
  5
6706
330
1F
100
AcDbEntity
  8
AM_VIS
100
AcDbCircle
 10
1187.112475603983
 20
892.7025506639411
 30
0.0
 40
7.075
100
AcDbArc
 50
50.50265951805083
 51
129.4973404819492
  0
ARC
  5
6707
330
1F
100
AcDbEntity
  8
AM_VIS
100
AcDbCircle
 10
1161.112475603983
 20
892.7025506639411
 30
0.0
 40
7.075
100
AcDbArc
 50
249.3072245342189
 51
336.740814658068
  0
ARC
  5
6708
330
1F
100
AcDbEntity
  8
AM_VIS
100
AcDbCircle
 10
1213.112475603984
 20
892.7025506639411
 30
0.0
 40
7.075
100
AcDbArc
 50
69.30722453421893
 51
156.740814658068
  0
CIRCLE
  5
6709
330
1F
100
AcDbEntity
  8
AM_VIS
100
AcDbCircle
 10
1161.112475603983
 20
892.7025506639411
 30
0.0
 40
8.65
  0
CIRCLE
  5
670A
330
1F
100
AcDbEntity
  8
AM_VIS
100
AcDbCircle
 10
1213.112475603984
 20
892.7025506639411
 30
0.0
 40
8.65
  0
CIRCLE
  5
670B
330
1F
100
AcDbEntity
  8
AM_VIS
100
AcDbCircle
 10
1193.612475603984
 20
904.2025506639411
 30
0.0
 40
2.25
  0
CIRCLE
  5
670C
330
1F
100
AcDbEntity
  8
AM_VIS
100
AcDbCircle
 10
1180.612475603983
 20
881.2025506639413
 30
0.0
 40
2.25
  0
CIRCLE
  5
670D
330
1F
100
AcDbEntity
  8
AM_VIS
100
AcDbCircle
 10
1187.112475603983
 20
892.7025506639411
 30
0.0
 40
8.65
  0
LINE
  5
670E
330
1F
100
AcDbEntity
  8
AM_VIS
100
AcDbLine
 10
1150.112475603983
 20
907.7025506639412
 30
0.0
 11
1150.112475603983
 21
907.467712363022
 31
0.0
  0
LINE
  5
670F
330
1F
100
AcDbEntity
  8
AM_VIS
100
AcDbLine
 10
1150.112475603983
 20
877.9373889648605
 30
0.0
 11
1150.112475603983
 21
877.7025506639413
 31
0.0
  0
LINE
  5
6710
330
1F
100
AcDbEntity
  8
AM_VIS
100
AcDbLine
 10
1143.112475603984
 20
877.7025506639413
 30
0.0
 11
1150.112475603983
 21
877.7025506639413
 31
0.0
  0
LINE
  5
6711
330
1F
100
AcDbEntity
  8
AM_VIS
100
AcDbLine
 10
1145.112475603983
 20
899.7025506639412
 30
0.0
 11
1143.112475603984
 21
899.7025506639412
 31
0.0
  0
LINE
  5
6712
330
1F
100
AcDbEntity
  8
AM_VIS
100
AcDbLine
 10
1142.112475603983
 20
898.702550663941
 30
0.0
 11
1142.112475603983
 21
878.7025506639412
 31
0.0
  0
LINE
  5
6713
330
1F
100
AcDbEntity
  8
AM_VIS
100
AcDbLine
 10
1142.112475603983
 20
906.7025506639412
 30
0.0
 11
1142.112475603983
 21
904.7947812943489
 31
0.0
  0
LINE
  5
6714
330
1F
100
AcDbEntity
  8
AM_VIS
100
AcDbLine
 10
1142.112475603983
 20
904.0140506639431
 30
0.0
 11
1142.112475603983
 21
903.7025506639412
 31
0.0
  0
LINE
  5
6715
330
1F
100
AcDbEntity
  8
AM_VIS
100
AcDbLine
 10
1150.112475603983
 20
907.7025506639412
 30
0.0
 11
1147.112475603984
 21
907.7025506639412
 31
0.0
  0
LINE
  5
6716
330
1F
100
AcDbEntity
  8
AM_VIS
100
AcDbLine
 10
1146.112475603983
 20
906.7025506639412
 30
0.0
 11
1146.112475603983
 21
905.751940817133
 31
0.0
  0
LINE
  5
6717
330
1F
100
AcDbEntity
  8
AM_VIS
100
AcDbLine
 10
1146.112475603983
 20
901.6531605107493
 30
0.0
 11
1146.112475603983
 21
900.7025506639411
 31
0.0
  0
LINE
  5
6718
330
1F
100
AcDbEntity
  8
AM_VIS
100
AcDbLine
 10
1143.112475603984
 20
907.7025506639412
 30
0.0
 11
1147.112475603984
 21
907.7025506639412
 31
0.0
  0
LINE
  5
6719
330
1F
100
AcDbEntity
  8
AM_VIS
100
AcDbLine
 10
1150.112475603983
 20
906.7025506639412
 30
0.0
 11
1150.112475603983
 21
878.7025506639412
 31
0.0
  0
ARC
  5
671A
330
1F
100
AcDbEntity
  8
AM_VIS
100
AcDbCircle
 10
1143.112475603984
 20
898.702550663941
 30
0.0
 40
1.0
100
AcDbArc
 50
90.0
 51
180.0
  0
ARC
  5
671B
330
1F
100
AcDbEntity
  8
AM_VIS
100
AcDbCircle
 10
1143.112475603984
 20
878.7025506639412
 30
0.0
 40
1.0
100
AcDbArc
 50
180.0
 51
270.0
  0
LINE
  5
671C
330
1F
100
AcDbEntity
  8
AM_VIS
100
AcDbLine
 10
1142.112475603983
 20
903.7025506639412
 30
0.0
 11
1142.112475603983
 21
903.3910506639433
 31
0.0
  0
LINE
  5
671D
330
1F
100
AcDbEntity
  8
AM_VIS
100
AcDbLine
 10
1142.112475603983
 20
902.6103200335336
 30
0.0
 11
1142.112475603983
 21
898.7025506639412
 31
0.0
  0
ARC
  5
671E
330
1F
100
AcDbEntity
  8
AM_VIS
100
AcDbCircle
 10
1143.112475603984
 20
906.7025506639412
 30
0.0
 40
1.0
100
AcDbArc
 50
90.0
 51
180.0
  0
ARC
  5
671F
330
1F
100
AcDbEntity
  8
AM_VIS
100
AcDbCircle
 10
1147.112475603984
 20
906.7025506639412
 30
0.0
 40
1.0
100
AcDbArc
 50
90.0
 51
180.0
  0
ARC
  5
6720
330
1F
100
AcDbEntity
  8
AM_VIS
100
AcDbCircle
 10
1145.112475603983
 20
900.7025506639411
 30
0.0
 40
1.0
100
AcDbArc
 50
270.0
 51
0.0
  0
ARC
  5
6721
330
1F
100
AcDbEntity
  8
AM_VIS
100
AcDbCircle
 10
1148.512475603983
 20
885.2025506639412
 30
0.0
 40
6.492531690334708
100
AcDbArc
 50
182.7500042420107
 51
189.6848520335337
  0
ARC
  5
6722
330
1F
100
AcDbEntity
  8
AM_VIS
100
AcDbCircle
 10
1148.512475603983
 20
885.2025506639412
 30
0.0
 40
6.492531690334708
100
AcDbArc
 50
170.3151479664662
 51
177.2499957580288
  0
LINE
  5
6723
330
1F
100
AcDbEntity
  8
AM_VIS
100
AcDbLine
 10
1142.112475603983
 20
885.5140506639392
 30
0.0
 11
1142.027420823953
 21
885.5140506639392
 31
0.0
  0
LINE
  5
6724
330
1F
100
AcDbEntity
  8
AM_VIS
100
AcDbLine
 10
1142.027420823953
 20
884.8910506639393
 30
0.0
 11
1142.112475603983
 21
884.8910506639393
 31
0.0
  0
LINE
  5
6725
330
1F
100
AcDbEntity
  8
AM_VIS
100
AcDbLine
 10
1146.112475603983
 20
907.5025506639411
 30
0.0
 11
1145.112475603983
 21
907.5025506639411
 31
0.0
  0
LINE
  5
6726
330
1F
100
AcDbEntity
  8
AM_VIS
100
AcDbLine
 10
1145.712475603984
 20
899.902550663941
 30
0.0
 11
1145.112475603983
 21
899.902550663941
 31
0.0
  0
LINE
  5
6727
330
1F
100
AcDbEntity
  8
AM_VIS
100
AcDbLine
 10
1146.112475603983
 20
905.751940817133
 30
0.0
 11
1146.112475603983
 21
901.6531605107493
 31
0.0
  0
LINE
  5
6728
330
1F
100
AcDbEntity
  8
AM_VIS
100
AcDbLine
 10
1146.112475603983
 20
907.5025506639411
 30
0.0
 11
1146.112475603983
 21
906.7025506639412
 31
0.0
  0
LINE
  5
6729
330
1F
100
AcDbEntity
  8
AM_VIS
100
AcDbLine
 10
1144.053538091855
 20
899.7951956916349
 30
0.0
 11
1145.112475603983
 21
899.7025506639412
 31
0.0
  0
LINE
  5
672A
330
1F
100
AcDbEntity
  8
AM_VIS
100
AcDbLine
 10
1144.053538091855
 20
907.6099056362476
 30
0.0
 11
1145.112475603983
 21
907.7025506639412
 31
0.0
  0
LINE
  5
672B
330
1F
100
AcDbEntity
  8
AM_VIS
100
AcDbLine
 10
1145.112475603983
 20
907.7025506639412
 30
0.0
 11
1145.112475603983
 21
899.7025506639412
 31
0.0
  0
ARC
  5
672C
330
1F
100
AcDbEntity
  8
AM_VIS
100
AcDbCircle
 10
1148.512475603983
 20
903.7025506639412
 30
0.0
 40
6.492531690334708
100
AcDbArc
 50
159.307016814427
 51
177.2499957579892
  0
LINE
  5
672D
330
1F
100
AcDbEntity
  8
AM_VIS
100
AcDbLine
 10
1142.438794580717
 20
905.9967534835735
 30
0.0
 11
1142.433001942555
 21
906.0025506639401
 31
0.0
  0
LINE
  5
672E
330
1F
100
AcDbEntity
  8
AM_VIS
100
AcDbLine
 10
1142.433001942555
 20
901.40255066394
 30
0.0
 11
1142.438794580717
 21
901.4083478443069
 31
0.0
  0
ARC
  5
672F
330
1F
100
AcDbEntity
  8
AM_VIS
100
AcDbCircle
 10
1148.512475603983
 20
903.7025506639412
 30
0.0
 40
6.492531690334708
100
AcDbArc
 50
182.7500042419711
 51
200.6929831855913
  0
LINE
  5
6730
330
1F
100
AcDbEntity
  8
AM_VIS
100
AcDbLine
 10
1142.438794580717
 20
904.0140506639431
 30
0.0
 11
1142.027420823953
 21
904.0140506639431
 31
0.0
  0
LINE
  5
6731
330
1F
100
AcDbEntity
  8
AM_VIS
100
AcDbLine
 10
1142.027420823953
 20
903.3910506639433
 30
0.0
 11
1142.438794580717
 21
903.3910506639433
 31
0.0
  0
ELLIPSE
  5
6732
330
1F
100
AcDbEntity
  8
AM_VIS
100
AcDbEllipse
 10
1146.620355793283
 20
903.7025506639412
 30
0.0
 11
-0.0000000000000121
 21
-5.924134808644386
 31
0.0
210
0.0
220
0.0
230
1.0
 40
0.7068296022936167
 41
4.659783202666559
 42
4.764994758102135
  0
ARC
  5
6733
330
1F
100
AcDbEntity
  8
AM_VIS
100
AcDbCircle
 10
1144.192987280252
 20
901.3891072085815
 30
0.0
 40
1.6
100
AcDbArc
 50
208.1727341318621
 51
265.0
  0
ARC
  5
6734
330
1F
100
AcDbEntity
  8
AM_VIS
100
AcDbCircle
 10
1144.192987280252
 20
906.0159941193008
 30
0.0
 40
1.6
100
AcDbArc
 50
95.00000000000001
 51
151.8272658681379
  0
ARC
  5
6735
330
1F
100
AcDbEntity
  8
AM_VIS
100
AcDbCircle
 10
1148.512475603983
 20
903.7025506639412
 30
0.0
 40
6.500000000000034
100
AcDbArc
 50
200.7227443816017
 51
208.1727341318621
  0
ARC
  5
6736
330
1F
100
AcDbEntity
  8
AM_VIS
100
AcDbCircle
 10
1148.512475603983
 20
903.7025506639412
 30
0.0
 40
6.500000000000036
100
AcDbArc
 50
151.8272658681379
 51
159.2772556184212
  0
LINE
  5
6737
330
1F
100
AcDbEntity
  8
AM_VIS
100
AcDbLine
 10
1224.112475603983
 20
877.7025506639413
 30
0.0
 11
1248.112475603983
 21
878.1214722222184
 31
0.0
  0
LINE
  5
6738
330
1F
100
AcDbEntity
  8
AM_VIS
100
AcDbLine
 10
1224.112475603983
 20
907.7025506639412
 30
0.0
 11
1248.112475603983
 21
907.283629105664
 31
0.0
  0
LINE
  5
6739
330
1F
100
AcDbEntity
  8
AM_VIS
100
AcDbLine
 10
1248.112475603983
 20
907.2851195573395
 30
0.0
 11
1248.027087684678
 21
907.2851195573395
 31
0.0
  0
LINE
  5
673A
330
1F
100
AcDbEntity
  8
AM_VIS
100
AcDbLine
 10
1248.112475603983
 20
878.1214722222184
 30
0.0
 11
1248.112475603983
 21
878.466302607406
 31
0.0
  0
LINE
  5
673B
330
1F
100
AcDbEntity
  8
AM_VIS
100
AcDbLine
 10
1248.112475603983
 20
906.9387987204763
 30
0.0
 11
1248.112475603983
 21
907.283629105664
 31
0.0
  0
LINE
  5
673C
330
1F
100
AcDbEntity
  8
AM_VIS
100
AcDbLine
 10
1224.112475603983
 20
877.7025506639413
 30
0.0
 11
1224.112475603983
 21
907.7025506639412
 31
0.0
  0
LINE
  5
6742
330
1F
100
AcDbEntity
  8
AM_VIS
100
AcDbLine
 10
1250.112475603983
 20
883.491405045941
 30
0.0
 11
1250.112475603983
 21
879.9136962819414
 31
0.0
  0
LINE
  5
6743
330
1F
100
AcDbEntity
  8
AM_VIS
100
AcDbLine
 10
1250.112475603983
 20
907.3025506639412
 30
0.0
 11
1248.112475603983
 21
907.3025506639412
 31
0.0
  0
LINE
  5
6744
330
1F
100
AcDbEntity
  8
AM_VIS
100
AcDbLine
 10
1248.112475603984
 20
878.6025506639411
 30
0.0
 11
1248.112475603984
 21
906.8025506639413
 31
0.0
  0
LINE
  5
6745
330
1F
100
AcDbEntity
  8
AM_VIS
100
AcDbLine
 10
1250.112475603984
 20
878.1025506639412
 30
0.0
 11
1250.112475603984
 21
879.9136962819414
 31
0.0
  0
LINE
  5
6746
330
1F
100
AcDbEntity
  8
AM_VIS
100
AcDbLine
 10
1250.112475603983
 20
883.491405045941
 30
0.0
 11
1250.112475603983
 21
906.8025506639413
 31
0.0
  0
LINE
  5
6747
330
1F
100
AcDbEntity
  8
AM_VIS
100
AcDbLine
 10
1248.112475603984
 20
878.1025506639412
 30
0.0
 11
1250.112475603984
 21
878.1025506639412
 31
0.0
  0
LINE
  5
6748
330
1F
100
AcDbEntity
  8
AM_VIS
100
AcDbLine
 10
1248.112475603983
 20
907.283629105664
 30
0.0
 11
1248.112475603983
 21
907.3025506639412
 31
0.0
  0
LINE
  5
6749
330
1F
100
AcDbEntity
  8
AM_VIS
100
AcDbLine
 10
1248.112475603983
 20
906.8025506639413
 30
0.0
 11
1248.112475603983
 21
906.9387987204763
 31
0.0
  0
LINE
  5
674A
330
1F
100
AcDbEntity
  8
AM_VIS
100
AcDbLine
 10
1248.112475603984
 20
878.466302607406
 30
0.0
 11
1248.112475603984
 21
878.6025506639411
 31
0.0
  0
LINE
  5
674B
330
1F
100
AcDbEntity
  8
AM_VIS
100
AcDbLine
 10
1248.112475603984
 20
878.1025506639412
 30
0.0
 11
1248.112475603984
 21
878.1214722222184
 31
0.0
  0
LINE
  5
674D
330
1F
100
AcDbEntity
  8
AM_VIS
100
AcDbLine
 10
1250.112475603983
 20
907.3025506639412
 30
0.0
 11
1250.112475603983
 21
906.8025506639413
 31
0.0
  0
LINE
  5
674E
330
1F
100
AcDbEntity
  8
AM_VIS
100
AcDbLine
 10
1237.412471473428
 20
877.9345032570239
 30
0.0
 11
1237.312486703912
 21
877.9327580163799
 31
0.0
  0
ARC
  5
674F
330
1F
100
AcDbEntity
  8
AM_VIS
100
AcDbCircle
 10
1237.341718148077
 20
879.1230241266667
 30
0.0
 40
1.190625
100
AcDbArc
 50
268.3743118666466
 51
268.5931702408151
  0
ARC
  5
6750
330
1F
100
AcDbEntity
  8
AM_VIS
100
AcDbCircle
 10
1237.341718148077
 20
879.1230241266667
 30
0.0
 40
1.190625
100
AcDbArc
 50
273.4068297591872
 51
273.6256881333562
  0
LINE
  5
67D2
330
1F
100
AcDbEntity
  8
AM_VIS
100
AcDbLine
 10
1150.112475603983
 20
1014.148786348228
 30
0.0
 11
1150.112475603983
 21
968.0510640617635
 31
0.0
  0
LINE
  5
67D4
330
1F
100
AcDbEntity
  8
AM_VIS
100
AcDbLine
 10
1224.112475603984
 20
968.0510640617635
 30
0.0
 11
1224.112475603984
 21
1014.148786348228
 31
0.0
  0
LINE
  5
67D5
330
1F
100
AcDbEntity
  8
AM_VIS
100
AcDbLine
 10
1224.112475603984
 20
967.8999252049957
 30
0.0
 11
1150.112475603983
 21
967.8999252049957
 31
0.0
  0
LINE
  5
67D6
330
1F
100
AcDbEntity
  8
AM_VIS
100
AcDbLine
 10
1150.112475603983
 20
1014.299925204996
 30
0.0
 11
1224.112475603984
 21
1014.299925204996
 31
0.0
  0
LINE
  5
67F5
330
1F
100
AcDbEntity
  8
AM_VIS
100
AcDbLine
 10
1150.112475603983
 20
968.0510640617635
 30
0.0
 11
1150.112475603983
 21
967.8999252049957
 31
0.0
  0
LINE
  5
67F6
330
1F
100
AcDbEntity
  8
AM_VIS
100
AcDbLine
 10
1150.112475603983
 20
1014.299925204996
 30
0.0
 11
1150.112475603983
 21
1014.148786348228
 31
0.0
  0
LINE
  5
67F8
330
1F
100
AcDbEntity
  8
AM_VIS
100
AcDbLine
 10
1142.112475603983
 20
972.0999252049958
 30
0.0
 11
1142.112475603983
 21
971.7884252049957
 31
0.0
  0
LINE
  5
67F9
330
1F
100
AcDbEntity
  8
AM_VIS
100
AcDbLine
 10
1142.112475603983
 20
971.0076945745882
 30
0.0
 11
1142.112475603983
 21
968.8999252049956
 31
0.0
  0
LINE
  5
67FA
330
1F
100
AcDbEntity
  8
AM_VIS
100
AcDbLine
 10
1142.112475603983
 20
1013.299925204996
 30
0.0
 11
1142.112475603983
 21
977.0999252049957
 31
0.0
  0
LINE
  5
67FB
330
1F
100
AcDbEntity
  8
AM_VIS
100
AcDbLine
 10
1147.112475603984
 20
967.8999252049957
 30
0.0
 11
1143.112475603984
 21
967.8999252049957
 31
0.0
  0
LINE
  5
67FC
330
1F
100
AcDbEntity
  8
AM_VIS
100
AcDbLine
 10
1147.112475603984
 20
967.8999252049957
 30
0.0
 11
1150.112475603983
 21
967.8999252049957
 31
0.0
  0
LINE
  5
67FD
330
1F
100
AcDbEntity
  8
AM_VIS
100
AcDbLine
 10
1146.112475603983
 20
975.0999252049957
 30
0.0
 11
1146.112475603983
 21
974.4323059629339
 31
0.0
  0
LINE
  5
67FE
330
1F
100
AcDbEntity
  8
AM_VIS
100
AcDbLine
 10
1146.112475603983
 20
969.7675444470576
 30
0.0
 11
1146.112475603983
 21
968.8999252049956
 31
0.0
  0
LINE
  5
67FF
330
1F
100
AcDbEntity
  8
AM_VIS
100
AcDbLine
 10
1143.112475603984
 20
976.0999252049957
 30
0.0
 11
1145.112475603983
 21
976.0999252049957
 31
0.0
  0
LINE
  5
6800
330
1F
100
AcDbEntity
  8
AM_VIS
100
AcDbLine
 10
1150.112475603983
 20
1014.299925204996
 30
0.0
 11
1143.112475603984
 21
1014.299925204996
 31
0.0
  0
LINE
  5
6801
330
1F
100
AcDbEntity
  8
AM_VIS
100
AcDbLine
 10
1150.112475603983
 20
1013.299925204996
 30
0.0
 11
1150.112475603983
 21
968.8999252049956
 31
0.0
  0
ARC
  5
6802
330
1F
100
AcDbEntity
  8
AM_VIS
100
AcDbCircle
 10
1143.112475603984
 20
968.8999252049956
 30
0.0
 40
1.0
100
AcDbArc
 50
180.0
 51
270.0
  0
LINE
  5
6803
330
1F
100
AcDbEntity
  8
AM_VIS
100
AcDbLine
 10
1142.112475603983
 20
977.0999252049957
 30
0.0
 11
1142.112475603983
 21
973.1921558354033
 31
0.0
  0
LINE
  5
6804
330
1F
100
AcDbEntity
  8
AM_VIS
100
AcDbLine
 10
1142.112475603983
 20
972.4114252049957
 30
0.0
 11
1142.112475603983
 21
972.0999252049958
 31
0.0
  0
ARC
  5
6805
330
1F
100
AcDbEntity
  8
AM_VIS
100
AcDbCircle
 10
1143.112475603984
 20
977.0999252049957
 30
0.0
 40
1.0
100
AcDbArc
 50
180.0
 51
270.0
  0
ARC
  5
6806
330
1F
100
AcDbEntity
  8
AM_VIS
100
AcDbCircle
 10
1143.112475603984
 20
1013.299925204996
 30
0.0
 40
1.0
100
AcDbArc
 50
90.0
 51
180.0
  0
ARC
  5
6807
330
1F
100
AcDbEntity
  8
AM_VIS
100
AcDbCircle
 10
1147.112475603984
 20
968.8999252049956
 30
0.0
 40
1.0
100
AcDbArc
 50
180.0
 51
270.0
  0
ARC
  5
6808
330
1F
100
AcDbEntity
  8
AM_VIS
100
AcDbCircle
 10
1145.112475603983
 20
975.0999252049957
 30
0.0
 40
1.0
100
AcDbArc
 50
0.0
 51
90.0
  0
LINE
  5
6809
330
1F
100
AcDbEntity
  8
AM_VIS
100
AcDbLine
 10
1142.027420823953
 20
1008.788425204996
 30
0.0
 11
1142.112475603983
 21
1008.788425204996
 31
0.0
  0
LINE
  5
680A
330
1F
100
AcDbEntity
  8
AM_VIS
100
AcDbLine
 10
1142.112475603983
 20
1009.411425204996
 30
0.0
 11
1142.027420823953
 21
1009.411425204996
 31
0.0
  0
ARC
  5
680B
330
1F
100
AcDbEntity
  8
AM_VIS
100
AcDbCircle
 10
1148.512475603983
 20
1009.099925204996
 30
0.0
 40
6.492531690334804
100
AcDbArc
 50
170.3151479664598
 51
177.2499957580087
  0
ARC
  5
680C
330
1F
100
AcDbEntity
  8
AM_VIS
100
AcDbCircle
 10
1148.512475603983
 20
1009.099925204996
 30
0.0
 40
6.492531690334804
100
AcDbArc
 50
182.7500042419912
 51
189.6848520335402
  0
ELLIPSE
  5
680D
330
1F
100
AcDbEntity
  8
AM_VIS
100
AcDbEllipse
 10
1145.661971087874
 20
972.0999252049958
 30
0.0
 11
-10.44041419392712
 21
0.0
 31
0.0000000000000001
210
0.0
220
0.0
230
1.0
 40
0.363970234266219
 41
4.712388980384689
 42
4.765044888646255
  0
LINE
  5
680E
330
1F
100
AcDbEntity
  8
AM_VIS
100
AcDbLine
 10
1145.712475603984
 20
975.8999252049957
 30
0.0
 11
1145.661971087874
 21
975.8999252049957
 31
0.0
  0
LINE
  5
680F
330
1F
100
AcDbEntity
  8
AM_VIS
100
AcDbLine
 10
1146.112475603983
 20
968.2999252049958
 30
0.0
 11
1145.112475603983
 21
968.2999252049958
 31
0.0
  0
LINE
  5
6810
330
1F
100
AcDbEntity
  8
AM_VIS
100
AcDbLine
 10
1146.112475603983
 20
968.8999252049956
 30
0.0
 11
1146.112475603983
 21
968.2999252049958
 31
0.0
  0
LINE
  5
6811
330
1F
100
AcDbEntity
  8
AM_VIS
100
AcDbLine
 10
1146.112475603983
 20
974.4323059629339
 30
0.0
 11
1146.112475603983
 21
969.7675444470576
 31
0.0
  0
LINE
  5
6812
330
1F
100
AcDbEntity
  8
AM_VIS
100
AcDbLine
 10
1144.053538091855
 20
968.1925702326893
 30
0.0
 11
1145.112475603983
 21
968.0999252049957
 31
0.0
  0
LINE
  5
6813
330
1F
100
AcDbEntity
  8
AM_VIS
100
AcDbLine
 10
1144.053538091855
 20
976.0072801773022
 30
0.0
 11
1145.112475603983
 21
976.0999252049957
 31
0.0
  0
LINE
  5
6814
330
1F
100
AcDbEntity
  8
AM_VIS
100
AcDbLine
 10
1145.112475603983
 20
976.0999252049957
 30
0.0
 11
1145.112475603983
 21
968.0999252049957
 31
0.0
  0
LINE
  5
6815
330
1F
100
AcDbEntity
  8
AM_VIS
100
AcDbLine
 10
1142.027420823953
 20
971.7884252049957
 30
0.0
 11
1142.438794580717
 21
971.7884252049957
 31
0.0
  0
ELLIPSE
  5
6816
330
1F
100
AcDbEntity
  8
AM_VIS
100
AcDbEllipse
 10
1146.620355793284
 20
972.0999252049958
 30
0.0
 11
0.0
 21
5.924134808644829
 31
0.0
210
0.0
220
0.0
230
1.0
 40
0.706829602293854
 41
1.518190549077111
 42
1.623402104512681
  0
LINE
  5
6817
330
1F
100
AcDbEntity
  8
AM_VIS
100
AcDbLine
 10
1142.438794580717
 20
972.4114252049957
 30
0.0
 11
1142.027420823953
 21
972.4114252049957
 31
0.0
  0
ARC
  5
6818
330
1F
100
AcDbEntity
  8
AM_VIS
100
AcDbCircle
 10
1148.512475603983
 20
972.0999252049958
 30
0.0
 40
6.492531690334613
100
AcDbArc
 50
182.7500042419912
 51
200.6929831855791
  0
LINE
  5
6819
330
1F
100
AcDbEntity
  8
AM_VIS
100
AcDbLine
 10
1142.438794580717
 20
974.3941280246289
 30
0.0
 11
1142.433001942555
 21
974.3999252049958
 31
0.0
  0
LINE
  5
681A
330
1F
100
AcDbEntity
  8
AM_VIS
100
AcDbLine
 10
1142.433001942555
 20
969.7999252049957
 30
0.0
 11
1142.438794580717
 21
969.8057223853625
 31
0.0
  0
ARC
  5
681B
330
1F
100
AcDbEntity
  8
AM_VIS
100
AcDbCircle
 10
1148.512475603983
 20
972.0999252049958
 30
0.0
 40
6.492531690334613
100
AcDbArc
 50
159.3070168144209
 51
177.2499957580087
  0
ARC
  5
681C
330
1F
100
AcDbEntity
  8
AM_VIS
100
AcDbCircle
 10
1144.192987280252
 20
969.7864817496361
 30
0.0
 40
1.6
100
AcDbArc
 50
208.1727341318621
 51
265.0
  0
ARC
  5
681D
330
1F
100
AcDbEntity
  8
AM_VIS
100
AcDbCircle
 10
1144.192987280252
 20
974.4133686603554
 30
0.0
 40
1.6
100
AcDbArc
 50
95.00000000000001
 51
151.8272658681379
  0
ARC
  5
681E
330
1F
100
AcDbEntity
  8
AM_VIS
100
AcDbCircle
 10
1148.512475603983
 20
972.0999252049958
 30
0.0
 40
6.500000000000034
100
AcDbArc
 50
200.7227443815895
 51
208.1727341318621
  0
ARC
  5
681F
330
1F
100
AcDbEntity
  8
AM_VIS
100
AcDbCircle
 10
1148.512475603983
 20
972.0999252049958
 30
0.0
 40
6.500000000000034
100
AcDbArc
 50
151.8272658681379
 51
159.2772556184105
  0
LINE
  5
6820
330
1F
100
AcDbEntity
  8
AM_VIS
100
AcDbLine
 10
1224.112475603984
 20
1014.299925204996
 30
0.0
 11
1248.112475603984
 21
1013.881003646718
 31
0.0
  0
LINE
  5
6821
330
1F
100
AcDbEntity
  8
AM_VIS
100
AcDbLine
 10
1224.112475603983
 20
967.8999252049957
 30
0.0
 11
1248.112475603983
 21
968.318846763273
 31
0.0
  0
LINE
  5
6825
330
1F
100
AcDbEntity
  8
AM_VIS
100
AcDbLine
 10
1248.112475603983
 20
1012.634777802648
 30
0.0
 11
1248.027087684679
 21
1012.637072896964
 31
0.0
  0
LINE
  5
6826
330
1F
100
AcDbEntity
  8
AM_VIS
100
AcDbLine
 10
1248.112475603983
 20
1012.637072896964
 30
0.0
 11
1248.027087684679
 21
1012.637072896964
 31
0.0
  0
LINE
  5
6827
330
1F
100
AcDbEntity
  8
AM_VIS
100
AcDbLine
 10
1248.027087684679
 20
1012.637072896964
 30
0.0
 11
1248.112475603984
 21
1012.638040807599
 31
0.0
  0
LINE
  5
6828
330
1F
100
AcDbEntity
  8
AM_VIS
100
AcDbLine
 10
1248.112475603983
 20
1013.536173261531
 30
0.0
 11
1248.112475603983
 21
1013.881003646718
 31
0.0
  0
LINE
  5
6829
330
1F
100
AcDbEntity
  8
AM_VIS
100
AcDbLine
 10
1248.112475603983
 20
968.318846763273
 30
0.0
 11
1248.112475603983
 21
968.6636771484607
 31
0.0
  0
LINE
  5
682A
330
1F
100
AcDbEntity
  8
AM_VIS
100
AcDbLine
 10
1224.112475603983
 20
967.8999252049957
 30
0.0
 11
1224.112475603983
 21
989.0999252049958
 31
0.0
  0
LINE
  5
682B
330
1F
100
AcDbEntity
  8
AM_VIS
100
AcDbLine
 10
1224.112475603983
 20
993.0999252049957
 30
0.0
 11
1224.112475603984
 21
1014.299925204996
 31
0.0
  0
LINE
  5
682C
330
1F
100
AcDbEntity
  8
AM_VIS
100
AcDbLine
 10
1225.112475603983
 20
993.0999252049957
 30
0.0
 11
1225.112475603983
 21
989.0999252049958
 31
0.0
  0
LINE
  5
682D
330
1F
100
AcDbEntity
  8
AM_VIS
100
AcDbLine
 10
1224.112475603983
 20
993.0999252049957
 30
0.0
 11
1225.112475603983
 21
993.0999252049957
 31
0.0
  0
LINE
  5
682E
330
1F
100
AcDbEntity
  8
AM_VIS
100
AcDbLine
 10
1225.112475603983
 20
989.0999252049958
 30
0.0
 11
1224.112475603983
 21
989.0999252049958
 31
0.0
  0
LINE
  5
682F
330
1F
100
AcDbEntity
  8
AM_VIS
100
AcDbLine
 10
1235.862475603983
 20
1016.199925204996
 30
0.0
 11
1235.862475603983
 21
1014.094828192089
 31
0.0
  0
LINE
  5
6830
330
1F
100
AcDbEntity
  8
AM_VIS
100
AcDbLine
 10
1242.762475603983
 20
1016.199925204996
 30
0.0
 11
1242.762475603983
 21
1013.974388244084
 31
0.0
  0
LINE
  5
6831
330
1F
100
AcDbEntity
  8
AM_VIS
100
AcDbLine
 10
1235.862475603983
 20
1016.199925204996
 30
0.0
 11
1242.762475603983
 21
1016.199925204996
 31
0.0
  0
LINE
  5
6836
330
1F
100
AcDbEntity
  8
AM_VIS
100
AcDbLine
 10
1250.112475603983
 20
1013.899925204996
 30
0.0
 11
1248.112475603983
 21
1013.899925204996
 31
0.0
  0
LINE
  5
6837
330
1F
100
AcDbEntity
  8
AM_VIS
100
AcDbLine
 10
1248.112475603983
 20
968.7999252049959
 30
0.0
 11
1248.112475603983
 21
1013.399925204995
 31
0.0
  0
LINE
  5
6838
330
1F
100
AcDbEntity
  8
AM_VIS
100
AcDbLine
 10
1248.112475603983
 20
968.2999252049958
 30
0.0
 11
1250.112475603983
 21
968.2999252049958
 31
0.0
  0
LINE
  5
6839
330
1F
100
AcDbEntity
  8
AM_VIS
100
AcDbLine
 10
1250.112475603983
 20
968.2999252049958
 30
0.0
 11
1250.112475603983
 21
1013.399925204995
 31
0.0
  0
LINE
  5
683A
330
1F
100
AcDbEntity
  8
AM_VIS
100
AcDbLine
 10
1248.112475603983
 20
1013.881003646718
 30
0.0
 11
1248.112475603983
 21
1013.899925204996
 31
0.0
  0
LINE
  5
683B
330
1F
100
AcDbEntity
  8
AM_VIS
100
AcDbLine
 10
1248.112475603983
 20
1013.399925204995
 30
0.0
 11
1248.112475603983
 21
1013.536173261531
 31
0.0
  0
LINE
  5
683C
330
1F
100
AcDbEntity
  8
AM_VIS
100
AcDbLine
 10
1248.112475603983
 20
968.6636771484607
 30
0.0
 11
1248.112475603983
 21
968.7999252049959
 31
0.0
  0
LINE
  5
683D
330
1F
100
AcDbEntity
  8
AM_VIS
100
AcDbLine
 10
1248.112475603983
 20
968.2999252049958
 30
0.0
 11
1248.112475603983
 21
968.318846763273
 31
0.0
  0
LINE
  5
683F
330
1F
100
AcDbEntity
  8
AM_VIS
100
AcDbLine
 10
1250.112475603983
 20
1013.899925204996
 30
0.0
 11
1250.112475603983
 21
1013.399925204995
 31
0.0
  0
LINE
  5
68DC
330
1F
100
AcDbEntity
  8
AM_VIS
100
AcDbLine
 10
1150.112475603983
 20
1105.690844422662
 30
0.0
 11
1150.112475603983
 21
1076.1605210245
 31
0.0
  0
LINE
  5
68DD
330
1F
100
AcDbEntity
  8
AM_VIS
100
AcDbLine
 10
1224.112475603984
 20
1076.1605210245
 30
0.0
 11
1224.112475603984
 21
1105.690844422662
 31
0.0
  0
LINE
  5
68DE
330
1F
100
AcDbEntity
  8
AM_VIS
100
AcDbLine
 10
1224.112475603984
 20
1075.925682723581
 30
0.0
 11
1150.112475603983
 21
1075.925682723581
 31
0.0
  0
LINE
  5
68E0
330
1F
100
AcDbEntity
  8
AM_VIS
100
AcDbLine
 10
1150.112475603983
 20
1105.925682723581
 30
0.0
 11
1224.112475603984
 21
1105.925682723581
 31
0.0
  0
ARC
  5
68E1
330
1F
100
AcDbEntity
  8
AM_VIS
100
AcDbCircle
 10
1172.112475603984
 20
1090.925682723581
 30
0.0
 40
7.075
100
AcDbArc
 50
351.6499430021174
 51
8.350056997882628
  0
ARC
  5
68E2
330
1F
100
AcDbEntity
  8
AM_VIS
100
AcDbCircle
 10
1172.112475603984
 20
1090.925682723581
 30
0.0
 40
7.075
100
AcDbArc
 50
8.350056997882628
 51
106.420550239987
  0
ARC
  5
68E3
330
1F
100
AcDbEntity
  8
AM_VIS
100
AcDbCircle
 10
1202.112475603984
 20
1090.925682723581
 30
0.0
 40
7.075
100
AcDbArc
 50
171.6499430021173
 51
188.3500569978826
  0
ARC
  5
68E4
330
1F
100
AcDbEntity
  8
AM_VIS
100
AcDbCircle
 10
1202.112475603984
 20
1090.925682723581
 30
0.0
 40
7.075
100
AcDbArc
 50
188.3500569978826
 51
286.4205502399871
  0
ARC
  5
68E5
330
1F
100
AcDbEntity
  8
AM_VIS
100
AcDbCircle
 10
1202.112475603984
 20
1090.925682723581
 30
0.0
 40
7.075
100
AcDbArc
 50
286.4205502399871
 51
73.57944976001293
  0
ARC
  5
68E6
330
1F
100
AcDbEntity
  8
AM_VIS
100
AcDbCircle
 10
1172.112475603984
 20
1090.925682723581
 30
0.0
 40
7.075
100
AcDbArc
 50
106.420550239987
 51
253.5794497600129
  0
CIRCLE
  5
68E7
330
1F
100
AcDbEntity
  8
AM_VIS
100
AcDbCircle
 10
1202.112475603984
 20
1090.925682723581
 30
0.0
 40
8.65
  0
CIRCLE
  5
68EA
330
1F
100
AcDbEntity
  8
AM_VIS
100
AcDbCircle
 10
1172.112475603984
 20
1090.925682723581
 30
0.0
 40
8.65
  0
ARC
  5
68EB
330
1F
100
AcDbEntity
  8
AM_VIS
100
AcDbCircle
 10
1172.112475603984
 20
1090.925682723581
 30
0.0
 40
7.075
100
AcDbArc
 50
253.5794497600129
 51
351.6499430021174
  0
ARC
  5
68EC
330
1F
100
AcDbEntity
  8
AM_VIS
100
AcDbCircle
 10
1202.112475603984
 20
1090.925682723581
 30
0.0
 40
7.075
100
AcDbArc
 50
73.57944976001293
 51
171.6499430021173
  0
LINE
  5
68ED
330
1F
100
AcDbEntity
  8
AM_VIS
100
AcDbLine
 10
1150.112475603983
 20
1076.1605210245
 30
0.0
 11
1150.112475603983
 21
1075.925682723581
 31
0.0
  0
LINE
  5
68EE
330
1F
100
AcDbEntity
  8
AM_VIS
100
AcDbLine
 10
1150.112475603983
 20
1105.925682723581
 30
0.0
 11
1150.112475603983
 21
1105.690844422662
 31
0.0
  0
LINE
  5
68EF
330
1F
100
AcDbEntity
  8
AM_VIS
100
AcDbLine
 10
1150.112475603983
 20
1105.925682723581
 30
0.0
 11
1143.112475603984
 21
1105.925682723581
 31
0.0
  0
LINE
  5
68F0
330
1F
100
AcDbEntity
  8
AM_VIS
100
AcDbLine
 10
1142.112475603983
 20
1104.925682723581
 30
0.0
 11
1142.112475603983
 21
1103.425682723581
 31
0.0
  0
LINE
  5
68F1
330
1F
100
AcDbEntity
  8
AM_VIS
100
AcDbLine
 10
1145.112475603983
 20
1094.425682723581
 30
0.0
 11
1143.112475603984
 21
1094.425682723581
 31
0.0
  0
LINE
  5
68F2
330
1F
100
AcDbEntity
  8
AM_VIS
100
AcDbLine
 10
1142.112475603983
 20
1093.425682723581
 30
0.0
 11
1142.112475603983
 21
1076.925682723581
 31
0.0
  0
LINE
  5
68F3
330
1F
100
AcDbEntity
  8
AM_VIS
100
AcDbLine
 10
1143.112475603984
 20
1075.925682723581
 30
0.0
 11
1150.112475603983
 21
1075.925682723581
 31
0.0
  0
LINE
  5
68F4
330
1F
100
AcDbEntity
  8
AM_VIS
100
AcDbLine
 10
1146.112475603983
 20
1101.425682723581
 30
0.0
 11
1146.112475603983
 21
1095.425682723581
 31
0.0
  0
LINE
  5
68F5
330
1F
100
AcDbEntity
  8
AM_VIS
100
AcDbLine
 10
1143.112475603984
 20
1102.425682723581
 30
0.0
 11
1145.112475603983
 21
1102.425682723581
 31
0.0
  0
LINE
  5
68F6
330
1F
100
AcDbEntity
  8
AM_VIS
100
AcDbLine
 10
1150.112475603983
 20
1104.925682723581
 30
0.0
 11
1150.112475603983
 21
1076.925682723581
 31
0.0
  0
ARC
  5
68F7
330
1F
100
AcDbEntity
  8
AM_VIS
100
AcDbCircle
 10
1143.112475603984
 20
1103.425682723581
 30
0.0
 40
1.0
100
AcDbArc
 50
180.0
 51
270.0
  0
ARC
  5
68F8
330
1F
100
AcDbEntity
  8
AM_VIS
100
AcDbCircle
 10
1143.112475603984
 20
1104.925682723581
 30
0.0
 40
1.0
100
AcDbArc
 50
90.0
 51
180.0
  0
LINE
  5
68F9
330
1F
100
AcDbEntity
  8
AM_VIS
100
AcDbLine
 10
1142.112475603983
 20
1103.425682723581
 30
0.0
 11
1142.112475603983
 21
1099.517913353988
 31
0.0
  0
LINE
  5
68FA
330
1F
100
AcDbEntity
  8
AM_VIS
100
AcDbLine
 10
1142.112475603983
 20
1098.737182723583
 30
0.0
 11
1142.112475603983
 21
1098.114182723583
 31
0.0
  0
LINE
  5
68FB
330
1F
100
AcDbEntity
  8
AM_VIS
100
AcDbLine
 10
1142.112475603983
 20
1097.333452093173
 30
0.0
 11
1142.112475603983
 21
1093.425682723581
 31
0.0
  0
ARC
  5
68FC
330
1F
100
AcDbEntity
  8
AM_VIS
100
AcDbCircle
 10
1143.112475603984
 20
1076.925682723581
 30
0.0
 40
1.0
100
AcDbArc
 50
180.0
 51
270.0
  0
ARC
  5
68FD
330
1F
100
AcDbEntity
  8
AM_VIS
100
AcDbCircle
 10
1143.112475603984
 20
1093.425682723581
 30
0.0
 40
0.9999999999999998
100
AcDbArc
 50
90.0
 51
180.0
  0
ARC
  5
68FE
330
1F
100
AcDbEntity
  8
AM_VIS
100
AcDbCircle
 10
1145.112475603983
 20
1095.425682723581
 30
0.0
 40
1.0
100
AcDbArc
 50
270.0
 51
0.0
  0
ARC
  5
68FF
330
1F
100
AcDbEntity
  8
AM_VIS
100
AcDbCircle
 10
1145.112475603983
 20
1101.425682723581
 30
0.0
 40
1.0
100
AcDbArc
 50
0.0
 51
90.0
  0
LINE
  5
6900
330
1F
100
AcDbEntity
  8
AM_VIS
100
AcDbLine
 10
1145.112475603983
 20
1098.225682723581
 30
0.0
 11
1146.112475603983
 21
1098.589652957847
 31
0.0
  0
LINE
  5
6901
330
1F
100
AcDbEntity
  8
AM_VIS
100
AcDbLine
 10
1146.112475603983
 20
1098.989652957847
 30
0.0
 11
1145.112475603983
 21
1098.625682723581
 31
0.0
  0
LINE
  5
6902
330
1F
100
AcDbEntity
  8
AM_VIS
100
AcDbLine
 10
1145.712475603984
 20
1102.225682723581
 30
0.0
 11
1145.112475603983
 21
1102.225682723581
 31
0.0
  0
LINE
  5
6903
330
1F
100
AcDbEntity
  8
AM_VIS
100
AcDbLine
 10
1145.712475603984
 20
1094.625682723581
 30
0.0
 11
1145.112475603983
 21
1094.625682723581
 31
0.0
  0
LINE
  5
6904
330
1F
100
AcDbEntity
  8
AM_VIS
100
AcDbLine
 10
1144.053538091855
 20
1094.518327751274
 30
0.0
 11
1145.112475603983
 21
1094.425682723581
 31
0.0
  0
LINE
  5
6905
330
1F
100
AcDbEntity
  8
AM_VIS
100
AcDbLine
 10
1144.053538091855
 20
1102.333037695887
 30
0.0
 11
1145.112475603983
 21
1102.425682723581
 31
0.0
  0
LINE
  5
6906
330
1F
100
AcDbEntity
  8
AM_VIS
100
AcDbLine
 10
1145.112475603983
 20
1102.425682723581
 30
0.0
 11
1145.112475603983
 21
1094.425682723581
 31
0.0
  0
LINE
  5
6907
330
1F
100
AcDbEntity
  8
AM_VIS
100
AcDbLine
 10
1146.083060603983
 20
1098.978946773406
 30
0.0
 11
1146.083060603983
 21
1098.578946773406
 31
0.0
  0
ARC
  5
6908
330
1F
100
AcDbEntity
  8
AM_VIS
100
AcDbCircle
 10
1148.512475603983
 20
1098.425682723581
 30
0.0
 40
6.492531690334708
100
AcDbArc
 50
159.307016814427
 51
177.2499957579892
  0
LINE
  5
6909
330
1F
100
AcDbEntity
  8
AM_VIS
100
AcDbLine
 10
1142.438794580717
 20
1100.719885543213
 30
0.0
 11
1142.433001942555
 21
1100.72568272358
 31
0.0
  0
LINE
  5
690A
330
1F
100
AcDbEntity
  8
AM_VIS
100
AcDbLine
 10
1142.433001942555
 20
1096.12568272358
 30
0.0
 11
1142.438794580717
 21
1096.131479903947
 31
0.0
  0
ARC
  5
690B
330
1F
100
AcDbEntity
  8
AM_VIS
100
AcDbCircle
 10
1148.512475603983
 20
1098.425682723581
 30
0.0
 40
6.492531690334708
100
AcDbArc
 50
182.7500042419711
 51
200.6929831855913
  0
LINE
  5
690C
330
1F
100
AcDbEntity
  8
AM_VIS
100
AcDbLine
 10
1142.438794580717
 20
1098.737182723583
 30
0.0
 11
1142.027420823953
 21
1098.737182723583
 31
0.0
  0
LINE
  5
690D
330
1F
100
AcDbEntity
  8
AM_VIS
100
AcDbLine
 10
1142.027420823953
 20
1098.114182723583
 30
0.0
 11
1142.438794580717
 21
1098.114182723583
 31
0.0
  0
ELLIPSE
  5
690E
330
1F
100
AcDbEntity
  8
AM_VIS
100
AcDbEllipse
 10
1146.620355793283
 20
1098.425682723581
 30
0.0
 11
0.0000000000000129
 21
5.924134808644386
 31
0.0
210
0.0
220
0.0
230
1.0
 40
0.7068296022936167
 41
1.518190549076766
 42
1.623402104512342
  0
ARC
  5
690F
330
1F
100
AcDbEntity
  8
AM_VIS
100
AcDbCircle
 10
1144.192987280252
 20
1096.112239268221
 30
0.0
 40
1.6
100
AcDbArc
 50
208.1727341318621
 51
265.0
  0
ARC
  5
6910
330
1F
100
AcDbEntity
  8
AM_VIS
100
AcDbCircle
 10
1144.192987280252
 20
1100.73912617894
 30
0.0
 40
1.6
100
AcDbArc
 50
95.00000000000001
 51
151.8272658681379
  0
ARC
  5
6911
330
1F
100
AcDbEntity
  8
AM_VIS
100
AcDbCircle
 10
1148.512475603983
 20
1098.425682723581
 30
0.0
 40
6.500000000000034
100
AcDbArc
 50
200.7227443816017
 51
208.1727341318621
  0
ARC
  5
6912
330
1F
100
AcDbEntity
  8
AM_VIS
100
AcDbCircle
 10
1148.512475603983
 20
1098.425682723581
 30
0.0
 40
6.500000000000034
100
AcDbArc
 50
151.8272658681379
 51
159.2772556184212
  0
ARC
  5
6913
330
1F
100
AcDbEntity
  8
AM_VIS
100
AcDbCircle
 10
1148.512475603983
 20
1079.925682723581
 30
0.0
 40
6.492531690334708
100
AcDbArc
 50
182.7500042420107
 51
189.6848520335337
  0
ARC
  5
6914
330
1F
100
AcDbEntity
  8
AM_VIS
100
AcDbCircle
 10
1148.512475603983
 20
1079.925682723581
 30
0.0
 40
6.492531690334708
100
AcDbArc
 50
170.3151479664662
 51
177.2499957580288
  0
LINE
  5
6915
330
1F
100
AcDbEntity
  8
AM_VIS
100
AcDbLine
 10
1142.112475603983
 20
1080.237182723579
 30
0.0
 11
1142.027420823953
 21
1080.237182723579
 31
0.0
  0
LINE
  5
6916
330
1F
100
AcDbEntity
  8
AM_VIS
100
AcDbLine
 10
1142.027420823953
 20
1079.614182723579
 30
0.0
 11
1142.112475603983
 21
1079.614182723579
 31
0.0
  0
LINE
  5
6917
330
1F
100
AcDbEntity
  8
AM_VIS
100
AcDbLine
 10
1224.112475603983
 20
1105.925682723581
 30
0.0
 11
1248.112475603983
 21
1105.506761165304
 31
0.0
  0
LINE
  5
6918
330
1F
100
AcDbEntity
  8
AM_VIS
100
AcDbLine
 10
1224.112475603984
 20
1075.925682723581
 30
0.0
 11
1248.112475603984
 21
1076.344604281858
 31
0.0
  0
LINE
  5
6919
330
1F
100
AcDbEntity
  8
AM_VIS
100
AcDbLine
 10
1248.112475603983
 20
1076.343113830183
 30
0.0
 11
1248.027087684679
 21
1076.343113830183
 31
0.0
  0
CIRCLE
  5
691D
330
1F
100
AcDbEntity
  8
AM_VIS
100
AcDbCircle
 10
1237.362475603983
 20
1101.925682723581
 30
0.0
 40
1.074999999999999
  0
LINE
  5
691E
330
1F
100
AcDbEntity
  8
AM_VIS
100
AcDbLine
 10
1248.112475603983
 20
1076.344604281858
 30
0.0
 11
1248.112475603983
 21
1076.689434667046
 31
0.0
  0
LINE
  5
691F
330
1F
100
AcDbEntity
  8
AM_VIS
100
AcDbLine
 10
1248.112475603984
 20
1105.161930780116
 30
0.0
 11
1248.112475603984
 21
1105.506761165304
 31
0.0
  0
LINE
  5
6920
330
1F
100
AcDbEntity
  8
AM_VIS
100
AcDbLine
 10
1224.112475603984
 20
1075.925682723581
 30
0.0
 11
1224.112475603984
 21
1105.925682723581
 31
0.0
  0
LINE
  5
6921
330
1F
100
AcDbEntity
  8
AM_VIS
100
AcDbLine
 10
1238.812475603983
 20
1088.425682723581
 30
0.0
 11
1238.812475603983
 21
1093.425682723581
 31
0.0
  0
LINE
  5
6922
330
1F
100
AcDbEntity
  8
AM_VIS
100
AcDbLine
 10
1238.812475603983
 20
1093.425682723581
 30
0.0
 11
1239.812475603983
 21
1093.425682723581
 31
0.0
  0
LINE
  5
6923
330
1F
100
AcDbEntity
  8
AM_VIS
100
AcDbLine
 10
1239.812475603983
 20
1093.425682723581
 30
0.0
 11
1239.812475603983
 21
1088.425682723581
 31
0.0
  0
LINE
  5
6924
330
1F
100
AcDbEntity
  8
AM_VIS
100
AcDbLine
 10
1239.812475603983
 20
1088.425682723581
 30
0.0
 11
1238.812475603983
 21
1088.425682723581
 31
0.0
  0
CIRCLE
  5
6925
330
1F
100
AcDbEntity
  8
AM_VIS
100
AcDbCircle
 10
1239.312475603983
 20
1090.925682723581
 30
0.0
 40
3.449999999999999
  0
LINE
  5
692B
330
1F
100
AcDbEntity
  8
AM_VIS
100
AcDbLine
 10
1248.112475603983
 20
1076.825682723581
 30
0.0
 11
1248.112475603983
 21
1105.025682723581
 31
0.0
  0
LINE
  5
692C
330
1F
100
AcDbEntity
  8
AM_VIS
100
AcDbLine
 10
1248.112475603983
 20
1076.325682723581
 30
0.0
 11
1250.112475603983
 21
1076.325682723581
 31
0.0
  0
LINE
  5
692D
330
1F
100
AcDbEntity
  8
AM_VIS
100
AcDbLine
 10
1250.112475603983
 20
1076.825682723581
 30
0.0
 11
1250.112475603984
 21
1105.525682723581
 31
0.0
  0
LINE
  5
692E
330
1F
100
AcDbEntity
  8
AM_VIS
100
AcDbLine
 10
1250.112475603984
 20
1105.525682723581
 30
0.0
 11
1248.112475603984
 21
1105.525682723581
 31
0.0
  0
LINE
  5
692F
330
1F
100
AcDbEntity
  8
AM_VIS
100
AcDbLine
 10
1248.112475603983
 20
1076.689434667046
 30
0.0
 11
1248.112475603983
 21
1076.825682723581
 31
0.0
  0
LINE
  5
6930
330
1F
100
AcDbEntity
  8
AM_VIS
100
AcDbLine
 10
1248.112475603983
 20
1076.325682723581
 30
0.0
 11
1248.112475603983
 21
1076.344604281858
 31
0.0
  0
LINE
  5
6931
330
1F
100
AcDbEntity
  8
AM_VIS
100
AcDbLine
 10
1250.112475603983
 20
1076.825682723581
 30
0.0
 11
1250.112475603983
 21
1076.325682723581
 31
0.0
  0
LINE
  5
6932
330
1F
100
AcDbEntity
  8
AM_VIS
100
AcDbLine
 10
1248.112475603984
 20
1105.506761165304
 30
0.0
 11
1248.112475603984
 21
1105.525682723581
 31
0.0
  0
LINE
  5
6933
330
1F
100
AcDbEntity
  8
AM_VIS
100
AcDbLine
 10
1248.112475603984
 20
1105.025682723581
 30
0.0
 11
1248.112475603984
 21
1105.161930780116
 31
0.0
  0
ELLIPSE
  5
6935
330
1F
100
AcDbEntity
  8
AM_VIS
100
AcDbEllipse
 10
1237.320957207485
 20
1101.925682723581
 30
0.0
 11
0.0000000000000004
 21
-0.0500000000000111
 31
0.0
210
0.0
220
0.0
230
1.0
 40
0.9998476951563912
 41
0.4282528432372247
 42
2.713339810352537
  0
ELLIPSE
  5
6936
330
1F
100
AcDbEntity
  8
AM_VIS
100
AcDbEllipse
 10
1237.36247908867
 20
1101.925682723581
 30
0.0
 11
0.0000000000000004
 21
-0.0500000000000115
 31
0.0
210
0.0
220
0.0
230
1.0
 40
0.9998476951563912
 41
-0.0000000000000077
 42
6.283185307179578
  0
LINE
  5
6937
330
1F
100
AcDbEntity
  8
AM_VIS
100
AcDbLine
 10
1237.312486703912
 20
1105.695475371142
 30
0.0
 11
1237.412471473428
 21
1105.693730130498
 31
0.0
  0
ARC
  5
6938
330
1F
100
AcDbEntity
  8
AM_VIS
100
AcDbCircle
 10
1237.341718148077
 20
1104.505209260856
 30
0.0
 40
1.190625
100
AcDbArc
 50
86.37431186666985
 51
86.5931702408128
  0
ARC
  5
6939
330
1F
100
AcDbEntity
  8
AM_VIS
100
AcDbCircle
 10
1237.341718148077
 20
1104.505209260856
 30
0.0
 40
1.190625
100
AcDbArc
 50
91.40682975918492
 51
91.62568813334033
  0
LINE
  5
69AF
330
1F
100
AcDbEntity
  8
AM_VIS
100
AcDbLine
 10
1348.081657718916
 20
968.0510640617635
 30
0.0
 11
1348.081657718916
 21
1014.148786348228
 31
0.0
  0
LINE
  5
69B0
330
1F
100
AcDbEntity
  8
AM_VIS
100
AcDbLine
 10
1348.316496019835
 20
1014.299925204996
 30
0.0
 11
1352.581657718916
 21
1014.299925204996
 31
0.0
  0
LINE
  5
69B3
330
1F
100
AcDbEntity
  8
AM_VIS
100
AcDbLine
 10
1373.581657718916
 20
1014.299925204996
 30
0.0
 11
1377.846819417996
 21
1014.299925204996
 31
0.0
  0
LINE
  5
69B4
330
1F
100
AcDbEntity
  8
AM_VIS
100
AcDbLine
 10
1378.081657718916
 20
1014.148786348228
 30
0.0
 11
1378.081657718916
 21
973.3805500524821
 31
0.0
  0
LINE
  5
69B5
330
1F
100
AcDbEntity
  8
AM_VIS
100
AcDbLine
 10
1378.081657718916
 20
970.8193003575093
 30
0.0
 11
1378.081657718916
 21
968.0510640617635
 31
0.0
  0
LINE
  5
69B6
330
1F
100
AcDbEntity
  8
AM_VIS
100
AcDbLine
 10
1377.846819417996
 20
967.8999252049957
 30
0.0
 11
1348.316496019835
 21
967.8999252049957
 31
0.0
  0
LINE
  5
69B7
330
1F
100
AcDbEntity
  8
AM_VIS
100
AcDbLine
 10
1378.081657718916
 20
1014.299925204996
 30
0.0
 11
1377.662736160639
 21
1013.881003646718
 31
0.0
  0
LINE
  5
69B8
330
1F
100
AcDbEntity
  8
AM_VIS
100
AcDbLine
 10
1378.081657718916
 20
967.8999252049957
 30
0.0
 11
1377.662736160639
 21
968.318846763273
 31
0.0
  0
LINE
  5
69B9
330
1F
100
AcDbEntity
  8
AM_VIS
100
AcDbLine
 10
1348.081657718916
 20
1014.299925204996
 30
0.0
 11
1348.500579277193
 21
1013.881003646718
 31
0.0
  0
LINE
  5
69BA
330
1F
100
AcDbEntity
  8
AM_VIS
100
AcDbLine
 10
1348.081657718916
 20
967.8999252049957
 30
0.0
 11
1348.500579277193
 21
968.318846763273
 31
0.0
  0
LINE
  5
69BE
330
1F
100
AcDbEntity
  8
AM_VIS
100
AcDbLine
 10
1348.500579277193
 20
1013.536173261531
 30
0.0
 11
1348.500579277193
 21
1013.881003646718
 31
0.0
  0
LINE
  5
69BF
330
1F
100
AcDbEntity
  8
AM_VIS
100
AcDbLine
 10
1348.500579277193
 20
1013.881003646718
 30
0.0
 11
1348.84540966238
 21
1013.881003646718
 31
0.0
  0
LINE
  5
69C0
330
1F
100
AcDbEntity
  8
AM_VIS
100
AcDbLine
 10
1377.317905775451
 20
1013.881003646718
 30
0.0
 11
1377.662736160639
 21
1013.881003646718
 31
0.0
  0
LINE
  5
69C1
330
1F
100
AcDbEntity
  8
AM_VIS
100
AcDbLine
 10
1377.662736160639
 20
1013.881003646718
 30
0.0
 11
1377.662736160639
 21
1013.536173261531
 31
0.0
  0
LINE
  5
69C2
330
1F
100
AcDbEntity
  8
AM_VIS
100
AcDbLine
 10
1377.662736160639
 20
968.6636771484607
 30
0.0
 11
1377.662736160639
 21
968.318846763273
 31
0.0
  0
LINE
  5
69C3
330
1F
100
AcDbEntity
  8
AM_VIS
100
AcDbLine
 10
1377.662736160639
 20
968.318846763273
 30
0.0
 11
1377.317905775451
 21
968.318846763273
 31
0.0
  0
LINE
  5
69C4
330
1F
100
AcDbEntity
  8
AM_VIS
100
AcDbLine
 10
1348.84540966238
 20
968.318846763273
 30
0.0
 11
1348.500579277193
 21
968.318846763273
 31
0.0
  0
LINE
  5
69C5
330
1F
100
AcDbEntity
  8
AM_VIS
100
AcDbLine
 10
1348.500579277193
 20
968.318846763273
 30
0.0
 11
1348.500579277193
 21
968.6636771484607
 31
0.0
  0
LINE
  5
69C7
330
1F
100
AcDbEntity
  8
AM_VIS
100
AcDbLine
 10
1348.081657718916
 20
967.8999252049957
 30
0.0
 11
1348.081657718916
 21
989.0999252049958
 31
0.0
  0
LINE
  5
69C8
330
1F
100
AcDbEntity
  8
AM_VIS
100
AcDbLine
 10
1378.081657718915
 20
967.8999252049957
 30
0.0
 11
1348.081657718916
 21
967.8999252049957
 31
0.0
  0
LINE
  5
69C9
330
1F
100
AcDbEntity
  8
AM_VIS
100
AcDbLine
 10
1378.081657718915
 20
1014.299925204996
 30
0.0
 11
1378.081657718915
 21
973.3805500524821
 31
0.0
  0
LINE
  5
69CA
330
1F
100
AcDbEntity
  8
AM_VIS
100
AcDbLine
 10
1378.081657718915
 20
970.8193003575093
 30
0.0
 11
1378.081657718915
 21
967.8999252049957
 31
0.0
  0
LINE
  5
69CB
330
1F
100
AcDbEntity
  8
AM_VIS
100
AcDbLine
 10
1348.081657718916
 20
1014.299925204996
 30
0.0
 11
1352.581657718916
 21
1014.299925204996
 31
0.0
  0
LINE
  5
69CE
330
1F
100
AcDbEntity
  8
AM_VIS
100
AcDbLine
 10
1373.581657718916
 20
1014.299925204996
 30
0.0
 11
1378.081657718916
 21
1014.299925204996
 31
0.0
  0
LINE
  5
69CF
330
1F
100
AcDbEntity
  8
AM_VIS
100
AcDbLine
 10
1348.081657718916
 20
993.0999252049957
 30
0.0
 11
1348.081657718916
 21
1014.299925204996
 31
0.0
  0
LINE
  5
69D0
330
1F
100
AcDbEntity
  8
AM_VIS
100
AcDbLine
 10
1348.099112783844
 20
993.0999252049957
 30
0.0
 11
1348.099112783844
 21
989.0999252049958
 31
0.0
  0
LINE
  5
69D1
330
1F
100
AcDbEntity
  8
AM_VIS
100
AcDbLine
 10
1348.081657718916
 20
993.0999252049957
 30
0.0
 11
1348.099112783844
 21
993.0999252049957
 31
0.0
  0
LINE
  5
69D2
330
1F
100
AcDbEntity
  8
AM_VIS
100
AcDbLine
 10
1348.099112783844
 20
989.0999252049958
 30
0.0
 11
1348.081657718916
 21
989.0999252049958
 31
0.0
  0
ARC
  5
6A02
330
1F
100
AcDbEntity
  8
AM_VIS
100
AcDbCircle
 10
1355.581657718916
 20
1009.099925204996
 30
0.0
 40
4.199999999999988
100
AcDbArc
 50
135.5846914028072
 51
213.557309761922
  0
LINE
  5
6A03
330
1F
100
AcDbEntity
  8
AM_VIS
100
AcDbLine
 10
1374.576657718916
 20
969.8499252049957
 30
0.0
 11
1373.586657718916
 21
969.8499252049957
 31
0.0
  0
LINE
  5
6A04
330
1F
100
AcDbEntity
  8
AM_VIS
100
AcDbLine
 10
1373.586657718916
 20
969.8499252049957
 30
0.0
 11
1373.586657718916
 21
971.222608600522
 31
0.0
  0
LINE
  5
6A05
330
1F
100
AcDbEntity
  8
AM_VIS
100
AcDbLine
 10
1374.576657718916
 20
972.0999252049958
 30
0.0
 11
1374.081657718916
 21
972.0999252049958
 31
0.0
  0
LINE
  5
6A06
330
1F
100
AcDbEntity
  8
AM_VIS
100
AcDbLine
 10
1373.586657718916
 20
974.3499252049957
 30
0.0
 11
1374.576657718916
 21
974.3499252049957
 31
0.0
  0
LINE
  5
6A07
330
1F
100
AcDbEntity
  8
AM_VIS
100
AcDbLine
 10
1374.081657718916
 20
972.0999252049958
 30
0.0
 11
1373.586657718916
 21
972.0999252049958
 31
0.0
  0
LINE
  5
6A08
330
1F
100
AcDbEntity
  8
AM_VIS
100
AcDbLine
 10
1374.576657718916
 20
974.3499252049957
 30
0.0
 11
1374.576657718916
 21
972.9772418094695
 31
0.0
  0
LINE
  5
6A09
330
1F
100
AcDbEntity
  8
AM_VIS
100
AcDbLine
 10
1373.586657718916
 20
972.5949252049955
 30
0.0
 11
1373.586657718916
 21
971.6049252049955
 31
0.0
  0
LINE
  5
6A0A
330
1F
100
AcDbEntity
  8
AM_VIS
100
AcDbLine
 10
1371.831657718916
 20
971.6049252049955
 30
0.0
 11
1371.831657718916
 21
972.5949252049955
 31
0.0
  0
LINE
  5
6A0B
330
1F
100
AcDbEntity
  8
AM_VIS
100
AcDbLine
 10
1374.081657718916
 20
972.0999252049958
 30
0.0
 11
1373.586657718916
 21
972.5949252049957
 31
0.0
  0
LINE
  5
6A0C
330
1F
100
AcDbEntity
  8
AM_VIS
100
AcDbLine
 10
1373.586657718916
 20
971.6049252049955
 30
0.0
 11
1374.081657718916
 21
972.0999252049958
 31
0.0
  0
LINE
  5
6A0D
330
1F
100
AcDbEntity
  8
AM_VIS
100
AcDbLine
 10
1374.081657718916
 20
972.0999252049958
 30
0.0
 11
1374.081657718916
 21
972.5949252049955
 31
0.0
  0
LINE
  5
6A0E
330
1F
100
AcDbEntity
  8
AM_VIS
100
AcDbLine
 10
1374.576657718916
 20
972.5949252049955
 30
0.0
 11
1374.081657718916
 21
972.0999252049958
 31
0.0
  0
LINE
  5
6A0F
330
1F
100
AcDbEntity
  8
AM_VIS
100
AcDbLine
 10
1374.576657718916
 20
971.6049252049955
 30
0.0
 11
1374.576657718916
 21
972.5949252049955
 31
0.0
  0
LINE
  5
6A10
330
1F
100
AcDbEntity
  8
AM_VIS
100
AcDbLine
 10
1376.331657718916
 20
972.5949252049955
 30
0.0
 11
1376.331657718916
 21
971.6049252049955
 31
0.0
  0
LINE
  5
6A11
330
1F
100
AcDbEntity
  8
AM_VIS
100
AcDbLine
 10
1374.081657718916
 20
971.6049252049955
 30
0.0
 11
1374.081657718916
 21
972.0999252049958
 31
0.0
  0
LINE
  5
6A12
330
1F
100
AcDbEntity
  8
AM_VIS
100
AcDbLine
 10
1374.081657718916
 20
972.0999252049958
 30
0.0
 11
1374.576657718916
 21
971.6049252049955
 31
0.0
  0
LINE
  5
6A13
330
1F
100
AcDbEntity
  8
AM_VIS
100
AcDbLine
 10
1371.831657718916
 20
972.5949252049955
 30
0.0
 11
1373.204341114442
 21
972.5949252049955
 31
0.0
  0
LINE
  5
6A14
330
1F
100
AcDbEntity
  8
AM_VIS
100
AcDbLine
 10
1373.586657718916
 20
972.5949252049955
 30
0.0
 11
1374.576657718916
 21
972.5949252049955
 31
0.0
  0
LINE
  5
6A15
330
1F
100
AcDbEntity
  8
AM_VIS
100
AcDbLine
 10
1376.331657718916
 20
971.6049252049955
 30
0.0
 11
1374.958974323389
 21
971.6049252049955
 31
0.0
  0
LINE
  5
6A16
330
1F
100
AcDbEntity
  8
AM_VIS
100
AcDbLine
 10
1374.576657718916
 20
971.6049252049955
 30
0.0
 11
1373.586657718916
 21
971.6049252049955
 31
0.0
  0
LINE
  5
6A17
330
1F
100
AcDbEntity
  8
AM_VIS
100
AcDbLine
 10
1373.586657718916
 20
972.9772418094691
 30
0.0
 11
1373.586657718916
 21
974.3499252049957
 31
0.0
  0
LINE
  5
6A18
330
1F
100
AcDbEntity
  8
AM_VIS
100
AcDbLine
 10
1374.576657718916
 20
971.2226086005223
 30
0.0
 11
1374.576657718916
 21
969.8499252049957
 31
0.0
  0
LINE
  5
6A19
330
1F
100
AcDbEntity
  8
AM_VIS
100
AcDbLine
 10
1374.958974323389
 20
972.5949252049955
 30
0.0
 11
1376.331657718916
 21
972.5949252049955
 31
0.0
  0
LINE
  5
6A1A
330
1F
100
AcDbEntity
  8
AM_VIS
100
AcDbLine
 10
1373.204341114442
 20
971.6049252049955
 30
0.0
 11
1371.831657718916
 21
971.6049252049955
 31
0.0
  0
LINE
  5
6A1B
330
1F
100
AcDbEntity
  8
AM_VIS
100
AcDbLine
 10
1373.586657718915
 20
972.5949252049955
 30
0.0
 11
1373.204341114442
 21
972.5949252049955
 31
0.0
  0
LINE
  5
6A1C
330
1F
100
AcDbEntity
  8
AM_VIS
100
AcDbLine
 10
1373.204341114442
 20
972.5949252049955
 30
0.0
 11
1372.490667461246
 21
973.6909154626653
 31
0.0
  0
LINE
  5
6A1D
330
1F
100
AcDbEntity
  8
AM_VIS
100
AcDbLine
 10
1373.586657718916
 20
972.9772418094691
 30
0.0
 11
1373.586657718916
 21
972.5949252049954
 31
0.0
  0
LINE
  5
6A1E
330
1F
100
AcDbEntity
  8
AM_VIS
100
AcDbLine
 10
1372.490667461246
 20
973.6909154626655
 30
0.0
 11
1373.586657718916
 21
972.5949252049955
 31
0.0
  0
LINE
  5
6A1F
330
1F
100
AcDbEntity
  8
AM_VIS
100
AcDbLine
 10
1372.490667461246
 20
973.6909154626655
 30
0.0
 11
1373.586657718916
 21
972.9772418094691
 31
0.0
  0
LINE
  5
6A20
330
1F
100
AcDbEntity
  8
AM_VIS
100
AcDbLine
 10
1374.576657718916
 20
971.6049252049955
 30
0.0
 11
1374.958974323389
 21
971.6049252049955
 31
0.0
  0
LINE
  5
6A21
330
1F
100
AcDbEntity
  8
AM_VIS
100
AcDbLine
 10
1374.958974323389
 20
971.6049252049955
 30
0.0
 11
1375.672647976586
 21
970.5089349473261
 31
0.0
  0
LINE
  5
6A22
330
1F
100
AcDbEntity
  8
AM_VIS
100
AcDbLine
 10
1374.576657718916
 20
971.2226086005223
 30
0.0
 11
1374.576657718916
 21
971.6049252049959
 31
0.0
  0
LINE
  5
6A23
330
1F
100
AcDbEntity
  8
AM_VIS
100
AcDbLine
 10
1375.672647976586
 20
970.5089349473261
 30
0.0
 11
1374.576657718916
 21
971.6049252049955
 31
0.0
  0
LINE
  5
6A24
330
1F
100
AcDbEntity
  8
AM_VIS
100
AcDbLine
 10
1375.672647976586
 20
970.5089349473261
 30
0.0
 11
1374.576657718916
 21
971.2226086005223
 31
0.0
  0
LINE
  5
6A25
330
1F
100
AcDbEntity
  8
AM_VIS
100
AcDbLine
 10
1374.576657718916
 20
972.5949252049959
 30
0.0
 11
1374.576657718916
 21
972.9772418094695
 31
0.0
  0
LINE
  5
6A26
330
1F
100
AcDbEntity
  8
AM_VIS
100
AcDbLine
 10
1374.576657718916
 20
972.9772418094695
 30
0.0
 11
1375.672647976585
 21
973.6909154626655
 31
0.0
  0
LINE
  5
6A27
330
1F
100
AcDbEntity
  8
AM_VIS
100
AcDbLine
 10
1374.958974323389
 20
972.5949252049955
 30
0.0
 11
1374.576657718915
 21
972.5949252049955
 31
0.0
  0
LINE
  5
6A28
330
1F
100
AcDbEntity
  8
AM_VIS
100
AcDbLine
 10
1375.672647976585
 20
973.6909154626655
 30
0.0
 11
1374.576657718916
 21
972.5949252049955
 31
0.0
  0
LINE
  5
6A29
330
1F
100
AcDbEntity
  8
AM_VIS
100
AcDbLine
 10
1375.672647976585
 20
973.6909154626655
 30
0.0
 11
1374.958974323389
 21
972.5949252049955
 31
0.0
  0
LINE
  5
6A2A
330
1F
100
AcDbEntity
  8
AM_VIS
100
AcDbLine
 10
1373.586657718916
 20
971.6049252049954
 30
0.0
 11
1373.586657718916
 21
971.222608600522
 31
0.0
  0
LINE
  5
6A2B
330
1F
100
AcDbEntity
  8
AM_VIS
100
AcDbLine
 10
1373.586657718916
 20
971.222608600522
 30
0.0
 11
1372.490667461246
 21
970.5089349473258
 31
0.0
  0
LINE
  5
6A2C
330
1F
100
AcDbEntity
  8
AM_VIS
100
AcDbLine
 10
1373.204341114442
 20
971.6049252049955
 30
0.0
 11
1373.586657718916
 21
971.6049252049955
 31
0.0
  0
LINE
  5
6A42
330
1F
100
AcDbEntity
  8
AM_VIS
100
AcDbLine
 10
1250.112475603983
 20
1101.925682723581
 30
0.0
 11
1250.112475603983
 21
1097.425682723581
 31
0.0
  0
LINE
  5
6A43
330
1F
100
AcDbEntity
  8
AM_VIS
100
AcDbLine
 10
1250.112475603983
 20
1084.425682723581
 30
0.0
 11
1250.112475603983
 21
1079.925682723581
 31
0.0
  0
LINE
  5
6A44
330
1F
100
AcDbEntity
  8
AM_VIS
100
AcDbLine
 10
1250.112475603983
 20
1084.425682723581
 30
0.0
 11
1250.112475603983
 21
1097.425682723581
 31
0.0
  0
LINE
  5
6A45
330
1F
100
AcDbEntity
  8
AM_VIS
100
AcDbLine
 10
1250.112475603983
 20
1079.925682723581
 30
0.0
 11
1279.612475603983
 21
1079.925682723581
 31
0.0
  0
LINE
  5
6A46
330
1F
100
AcDbEntity
  8
AM_VIS
100
AcDbLine
 10
1250.112475603983
 20
1101.925682723581
 30
0.0
 11
1279.612475603983
 21
1101.925682723581
 31
0.0
  0
LINE
  5
6A47
330
1F
100
AcDbEntity
  8
AM_VIS
100
AcDbLine
 10
1279.612475603983
 20
1101.925682723581
 30
0.0
 11
1279.612475603983
 21
1099.925682723581
 31
0.0
  0
LINE
  5
6A48
330
1F
100
AcDbEntity
  8
AM_VIS
100
AcDbLine
 10
1279.612475603983
 20
1081.925682723581
 30
0.0
 11
1279.612475603983
 21
1079.925682723581
 31
0.0
  0
LINE
  5
6A49
330
1F
100
AcDbEntity
  8
AM_VIS
100
AcDbLine
 10
1287.611980430886
 20
1081.776611674578
 30
0.0
 11
1287.112034094981
 21
1081.510117557432
 31
0.0
  0
LINE
  5
6A4A
330
1F
100
AcDbEntity
  8
AM_VIS
100
AcDbLine
 10
1287.112475603983
 20
1081.509289280958
 30
0.0
 11
1285.962475603983
 21
1081.509289280958
 31
0.0
  0
LINE
  5
6A4B
330
1F
100
AcDbEntity
  8
AM_VIS
100
AcDbLine
 10
1285.962475603983
 20
1100.342076166204
 30
0.0
 11
1287.112475603983
 21
1100.342076166204
 31
0.0
  0
LINE
  5
6A4C
330
1F
100
AcDbEntity
  8
AM_VIS
100
AcDbLine
 10
1287.611980430396
 20
1100.074753771672
 30
0.0
 11
1287.112034095166
 21
1100.341247890081
 31
0.0
  0
LINE
  5
6A4D
330
1F
100
AcDbEntity
  8
AM_VIS
100
AcDbLine
 10
1281.612475603983
 20
1100.342076166204
 30
0.0
 11
1284.462475603983
 21
1100.342076166204
 31
0.0
  0
LINE
  5
6A4E
330
1F
100
AcDbEntity
  8
AM_VIS
100
AcDbLine
 10
1284.462475603983
 20
1081.509289280958
 30
0.0
 11
1281.612475603983
 21
1081.509289280958
 31
0.0
  0
LINE
  5
6A4F
330
1F
100
AcDbEntity
  8
AM_VIS
100
AcDbLine
 10
1281.613172690379
 20
1081.50939786868
 30
0.0
 11
1281.548326461272
 21
1081.925682723581
 31
0.0
  0
LINE
  5
6A50
330
1F
100
AcDbEntity
  8
AM_VIS
100
AcDbLine
 10
1281.613172690379
 20
1100.341967578482
 30
0.0
 11
1281.548326461272
 21
1099.925682723581
 31
0.0
  0
LINE
  5
6A51
330
1F
100
AcDbEntity
  8
AM_VIS
100
AcDbLine
 10
1280.312475603983
 20
1081.925682723581
 30
0.0
 11
1280.112475603983
 21
1080.925682723581
 31
0.0
  0
LINE
  5
6A52
330
1F
100
AcDbEntity
  8
AM_VIS
100
AcDbLine
 10
1280.312475603983
 20
1099.925682723581
 30
0.0
 11
1280.112475603983
 21
1100.925682723581
 31
0.0
  0
LINE
  5
6A53
330
1F
100
AcDbEntity
  8
AM_VIS
100
AcDbLine
 10
1279.612475603983
 20
1100.925682723581
 30
0.0
 11
1280.112475603983
 21
1100.925682723581
 31
0.0
  0
LINE
  5
6A54
330
1F
100
AcDbEntity
  8
AM_VIS
100
AcDbLine
 10
1279.612475603983
 20
1080.925682723581
 30
0.0
 11
1280.112475603983
 21
1080.925682723581
 31
0.0
  0
LINE
  5
6A55
330
1F
100
AcDbEntity
  8
AM_VIS
100
AcDbLine
 10
1287.112475603983
 20
1100.342076166204
 30
0.0
 11
1287.112475603983
 21
1099.925682723581
 31
0.0
  0
LINE
  5
6A56
330
1F
100
AcDbEntity
  8
AM_VIS
100
AcDbLine
 10
1287.112475603983
 20
1081.925682723581
 30
0.0
 11
1287.112475603983
 21
1081.509289280958
 31
0.0
  0
LINE
  5
6A57
330
1F
100
AcDbEntity
  8
AM_VIS
100
AcDbLine
 10
1285.962475603983
 20
1081.925682723581
 30
0.0
 11
1285.962475603983
 21
1081.509289280958
 31
0.0
  0
LINE
  5
6A58
330
1F
100
AcDbEntity
  8
AM_VIS
100
AcDbLine
 10
1285.962475603983
 20
1100.342076166204
 30
0.0
 11
1285.962475603983
 21
1099.925682723581
 31
0.0
  0
LINE
  5
6A59
330
1F
100
AcDbEntity
  8
AM_VIS
100
AcDbLine
 10
1284.462475603983
 20
1099.925682723581
 30
0.0
 11
1284.462475603983
 21
1100.342076166204
 31
0.0
  0
LINE
  5
6A5A
330
1F
100
AcDbEntity
  8
AM_VIS
100
AcDbLine
 10
1284.462475603983
 20
1081.509289280958
 30
0.0
 11
1284.462475603983
 21
1081.925682723581
 31
0.0
  0
LINE
  5
6A5B
330
1F
100
AcDbEntity
  8
AM_VIS
100
AcDbLine
 10
1281.612475603983
 20
1081.925682723581
 30
0.0
 11
1281.612475603983
 21
1081.509289280958
 31
0.0
  0
LINE
  5
6A5C
330
1F
100
AcDbEntity
  8
AM_VIS
100
AcDbLine
 10
1281.612475603983
 20
1100.342076166204
 30
0.0
 11
1281.612475603983
 21
1099.925682723581
 31
0.0
  0
LINE
  5
6A5D
330
1F
100
AcDbEntity
  8
AM_VIS
100
AcDbLine
 10
1287.612475603983
 20
1099.925682723581
 30
0.0
 11
1287.612475603983
 21
1100.075682723581
 31
0.0
  0
LINE
  5
6A5E
330
1F
100
AcDbEntity
  8
AM_VIS
100
AcDbLine
 10
1287.612475603983
 20
1081.775682723581
 30
0.0
 11
1287.612475603983
 21
1081.925682723581
 31
0.0
  0
SPLINE
  5
6A5F
330
1F
100
AcDbEntity
  8
AM_VIS
100
AcDbSpline
210
0.0
220
0.0
230
1.0
 70
     8
 71
     3
 72
    18
 73
    14
 74
     0
 42
0.0000000001
 43
0.0000000001
 40
6.072258403086962
 40
6.072258403086962
 40
6.072258403086962
 40
6.072258403086962
 40
6.091519998582311
 40
6.091519998582311
 40
6.594079983681931
 40
6.594079983681931
 40
7.096639968781531
 40
7.096639968781531
 40
7.59919995388113
 40
7.59919995388113
 40
8.101759938980729
 40
8.101759938980729
 40
8.212872863102431
 40
8.212872863102431
 40
8.212872863102431
 40
8.212872863102431
 10
1278.900528545782
 20
1099.125144207717
 30
0.0
 10
1278.901378415983
 20
1099.122814480375
 30
0.0
 10
1278.902211790575
 20
1099.120472269855
 30
0.0
 10
1278.924342849122
 20
1099.056684615578
 30
0.0
 10
1278.934299260001
 20
1098.986698355137
 30
0.0
 10
1278.934299260001
 20
1098.836863916543
 30
0.0
 10
1278.924342849122
 20
1098.751143101805
 30
0.0
 10
1278.881714545246
 20
1098.561464526718
 30
0.0
 10
1278.849044803804
 20
1098.457510029459
 30
0.0
 10
1278.761679471055
 20
1098.237710648183
 30
0.0
 10
1278.706926910321
 20
1098.121749508935
 30
0.0
 10
1278.628953028334
 20
1097.977957147204
 30
0.0
 10
1278.614396234237
 20
1097.951836819186
 30
0.0
 10
1278.599433288252
 20
1097.925682723581
 30
0.0
  0
ARC
  5
6A60
330
1F
100
AcDbEntity
  8
AM_VIS
100
AcDbCircle
 10
1256.573093007844
 20
1111.085420205417
 30
0.0
 40
25.65810508862975
100
AcDbArc
 50
317.905624322515
 51
329.1436013023425
  0
SPLINE
  5
6A61
330
1F
100
AcDbEntity
  8
AM_VIS
100
AcDbSpline
210
0.0
220
0.0
230
1.0
 70
     8
 71
     3
 72
    18
 73
    14
 74
     0
 42
0.0000000001
 43
0.0000000001
 40
4.975287104260677
 40
4.975287104260677
 40
4.975287104260677
 40
4.975287104260677
 40
5.086400028382842
 40
5.086400028382842
 40
5.588960013482415
 40
5.588960013482415
 40
6.091519998581987
 40
6.091519998581987
 40
6.59407998368156
 40
6.59407998368156
 40
7.096639968781131
 40
7.096639968781131
 40
7.11590156427612
 40
7.11590156427612
 40
7.11590156427612
 40
7.11590156427612
 10
1278.599433288252
 20
1083.925682723581
 30
0.0
 10
1278.614396234237
 20
1083.899528627976
 30
0.0
 10
1278.628953028334
 20
1083.873408299958
 30
0.0
 10
1278.706926910321
 20
1083.729615938227
 30
0.0
 10
1278.761679471055
 20
1083.613654798979
 30
0.0
 10
1278.849044803804
 20
1083.393855417702
 30
0.0
 10
1278.881714545246
 20
1083.289900920444
 30
0.0
 10
1278.924342849122
 20
1083.100222345357
 30
0.0
 10
1278.934299260001
 20
1083.014501530619
 30
0.0
 10
1278.934299260001
 20
1082.864667092025
 30
0.0
 10
1278.924342849122
 20
1082.794680831584
 30
0.0
 10
1278.902211790575
 20
1082.730893177306
 30
0.0
 10
1278.901378415983
 20
1082.728550966786
 30
0.0
 10
1278.900528545782
 20
1082.726221239445
 30
0.0
  0
ARC
  5
6A62
330
1F
100
AcDbEntity
  8
AM_VIS
100
AcDbCircle
 10
1256.573093007845
 20
1070.765945241746
 30
0.0
 40
25.65810508862814
100
AcDbArc
 50
30.85639869765755
 51
42.094375677485
  0
LINE
  5
6A63
330
1F
100
AcDbEntity
  8
AM_VIS
100
AcDbLine
 10
1253.612475603983
 20
1101.425682723581
 30
0.0
 11
1275.612475603983
 21
1101.425682723581
 31
0.0
  0
SPLINE
  5
6A64
330
1F
100
AcDbEntity
  8
AM_VIS
100
AcDbSpline
210
0.0
220
0.0
230
1.0
 70
    12
 71
     2
 72
     6
 73
     3
 74
     0
 42
0.0000000001
 43
0.0000000001
 40
0.0
 40
0.0
 40
0.0
 40
3.381727793507036
 40
3.381727793507036
 40
3.381727793507036
 10
1275.612475603983
 20
1093.885412440971
 30
0.0
 41
1.0
 10
1274.112475603983
 20
1092.34473121822
 30
0.0
 41
1.021203771466384
 10
1274.112475603983
 20
1090.925682723581
 30
0.0
 41
1.0
  0
SPLINE
  5
6A65
330
1F
100
AcDbEntity
  8
AM_VIS
100
AcDbSpline
210
0.0
220
0.0
230
1.0
 70
    12
 71
     2
 72
     6
 73
     3
 74
     0
 42
0.0000000001
 43
0.0000000001
 40
3.381727793507036
 40
3.381727793507036
 40
3.381727793507036
 40
6.763455587014078
 40
6.763455587014078
 40
6.763455587014078
 10
1274.112475603983
 20
1090.925682723581
 30
0.0
 41
1.0
 10
1274.112475603983
 20
1089.506634228942
 30
0.0
 41
1.021203771466384
 10
1275.612475603983
 20
1087.965953006191
 30
0.0
 41
1.0
  0
LINE
  5
6A66
330
1F
100
AcDbEntity
  8
AM_VIS
100
AcDbLine
 10
1275.612475603983
 20
1080.425682723581
 30
0.0
 11
1253.612475603983
 21
1080.425682723581
 31
0.0
  0
LINE
  5
6A67
330
1F
100
AcDbEntity
  8
AM_VIS
100
AcDbLine
 10
1278.613819408454
 20
1099.726220245369
 30
0.0
 11
1279.112475603983
 21
1099.925682723581
 31
0.0
  0
LINE
  5
6A68
330
1F
100
AcDbEntity
  8
AM_VIS
100
AcDbLine
 10
1278.613819408454
 20
1082.125145201793
 30
0.0
 11
1279.112475603983
 21
1081.925682723581
 31
0.0
  0
LINE
  5
6A69
330
1F
100
AcDbEntity
  8
AM_VIS
100
AcDbLine
 10
1279.112475603983
 20
1099.925682723581
 30
0.0
 11
1293.112475603983
 21
1099.925682723581
 31
0.0
  0
LINE
  5
6A6A
330
1F
100
AcDbEntity
  8
AM_VIS
100
AcDbLine
 10
1279.112475603983
 20
1081.925682723581
 30
0.0
 11
1293.112475603983
 21
1081.925682723581
 31
0.0
  0
ARC
  5
6A6B
330
1F
100
AcDbEntity
  8
AM_VIS
100
AcDbCircle
 10
1275.612475603983
 20
1097.925682723581
 30
0.0
 40
3.5
100
AcDbArc
 50
20.0416584085677
 51
90.0
  0
LINE
  5
6A6C
330
1F
100
AcDbEntity
  8
AM_VIS
100
AcDbLine
 10
1279.112475603983
 20
1099.925682723581
 30
0.0
 11
1279.112475603983
 21
1081.925682723581
 31
0.0
  0
LINE
  5
6A6D
330
1F
100
AcDbEntity
  8
AM_VIS
100
AcDbLine
 10
1293.112475603983
 20
1081.925682723581
 30
0.0
 11
1293.112475603983
 21
1099.925682723581
 31
0.0
  0
ARC
  5
6A6E
330
1F
100
AcDbEntity
  8
AM_VIS
100
AcDbCircle
 10
1253.612475603983
 20
1083.925682723581
 30
0.0
 40
3.5
100
AcDbArc
 50
180.0
 51
270.0
  0
ARC
  5
6A6F
330
1F
100
AcDbEntity
  8
AM_VIS
100
AcDbCircle
 10
1275.612475603983
 20
1083.925682723581
 30
0.0
 40
3.499999999999999
100
AcDbArc
 50
270.0
 51
339.9583415914353
  0
ARC
  5
6A70
330
1F
100
AcDbEntity
  8
AM_VIS
100
AcDbCircle
 10
1253.612475603983
 20
1097.925682723581
 30
0.0
 40
3.5
100
AcDbArc
 50
90.0
 51
180.0
  0
CIRCLE
  5
6A71
330
1F
100
AcDbEntity
  8
AM_VIS
100
AcDbCircle
 10
1264.612475603983
 20
1090.925682723581
 30
0.0
 40
3.5
  0
LINE
  5
6A72
330
1F
100
AcDbEntity
  8
AM_VIS
100
AcDbLine
 10
1300.612475603983
 20
1081.688078416547
 30
0.0
 11
1295.112475603983
 21
1081.688078416547
 31
0.0
  0
LINE
  5
6A73
330
1F
100
AcDbEntity
  8
AM_VIS
100
AcDbLine
 10
1300.612475603983
 20
1086.306880570064
 30
0.0
 11
1295.112475603983
 21
1086.306880570064
 31
0.0
  0
LINE
  5
6A74
330
1F
100
AcDbEntity
  8
AM_VIS
100
AcDbLine
 10
1300.612475603983
 20
1084.872479493305
 30
0.0
 11
1295.112475603983
 21
1084.872479493305
 31
0.0
  0
LINE
  5
6A75
330
1F
100
AcDbEntity
  8
AM_VIS
100
AcDbLine
 10
1295.112475603983
 20
1083.122479493305
 30
0.0
 11
1300.612475603983
 21
1083.122479493305
 31
0.0
  0
LINE
  5
6A76
330
1F
100
AcDbEntity
  8
AM_VIS
100
AcDbLine
 10
1300.612475603983
 20
1083.805492195198
 30
0.0
 11
1295.112475603983
 21
1083.805492195198
 31
0.0
  0
LINE
  5
6A77
330
1F
100
AcDbEntity
  8
AM_VIS
100
AcDbLine
 10
1300.612475603983
 20
1095.544484877098
 30
0.0
 11
1295.112475603983
 21
1095.544484877098
 31
0.0
  0
LINE
  5
6A78
330
1F
100
AcDbEntity
  8
AM_VIS
100
AcDbLine
 10
1300.612475603983
 20
1092.675682723581
 30
0.0
 11
1295.112475603983
 21
1092.675682723581
 31
0.0
  0
LINE
  5
6A79
330
1F
100
AcDbEntity
  8
AM_VIS
100
AcDbLine
 10
1295.112475603983
 20
1089.175682723581
 30
0.0
 11
1300.612475603983
 21
1089.175682723581
 31
0.0
  0
LINE
  5
6A7A
330
1F
100
AcDbEntity
  8
AM_VIS
100
AcDbLine
 10
1300.612475603983
 20
1100.163287030615
 30
0.0
 11
1295.112475603983
 21
1100.163287030615
 31
0.0
  0
LINE
  5
6A7B
330
1F
100
AcDbEntity
  8
AM_VIS
100
AcDbLine
 10
1300.612475603983
 20
1098.728885953856
 30
0.0
 11
1295.112475603983
 21
1098.728885953856
 31
0.0
  0
LINE
  5
6A7C
330
1F
100
AcDbEntity
  8
AM_VIS
100
AcDbLine
 10
1295.112475603983
 20
1096.978885953856
 30
0.0
 11
1300.612475603983
 21
1096.978885953856
 31
0.0
  0
LINE
  5
6A7D
330
1F
100
AcDbEntity
  8
AM_VIS
100
AcDbLine
 10
1300.612475603983
 20
1098.045873251964
 30
0.0
 11
1295.112475603983
 21
1098.045873251964
 31
0.0
  0
LINE
  5
6A7E
330
1F
100
AcDbEntity
  8
AM_VIS
100
AcDbLine
 10
1295.112475603983
 20
1081.688078416547
 30
0.0
 11
1295.112475603983
 21
1083.122479493305
 31
0.0
  0
LINE
  5
6A7F
330
1F
100
AcDbEntity
  8
AM_VIS
100
AcDbLine
 10
1295.112475603983
 20
1083.805492195198
 30
0.0
 11
1295.112475603983
 21
1083.122479493305
 31
0.0
  0
LINE
  5
6A80
330
1F
100
AcDbEntity
  8
AM_VIS
100
AcDbLine
 10
1295.112475603983
 20
1084.872479493306
 30
0.0
 11
1295.112475603983
 21
1083.805492195198
 31
0.0
  0
LINE
  5
6A81
330
1F
100
AcDbEntity
  8
AM_VIS
100
AcDbLine
 10
1295.112475603983
 20
1084.872479493305
 30
0.0
 11
1295.112475603983
 21
1086.306880570064
 31
0.0
  0
LINE
  5
6A82
330
1F
100
AcDbEntity
  8
AM_VIS
100
AcDbLine
 10
1295.112475603983
 20
1086.306880570064
 30
0.0
 11
1295.112475603983
 21
1089.175682723581
 31
0.0
  0
LINE
  5
6A83
330
1F
100
AcDbEntity
  8
AM_VIS
100
AcDbLine
 10
1295.112475603983
 20
1089.675682723581
 30
0.0
 11
1295.112475603983
 21
1089.175682723581
 31
0.0
  0
LINE
  5
6A84
330
1F
100
AcDbEntity
  8
AM_VIS
100
AcDbLine
 10
1295.112475603983
 20
1092.175682723581
 30
0.0
 11
1295.112475603983
 21
1089.675682723581
 31
0.0
  0
LINE
  5
6A85
330
1F
100
AcDbEntity
  8
AM_VIS
100
AcDbLine
 10
1295.112475603983
 20
1092.675682723581
 30
0.0
 11
1295.112475603983
 21
1092.175682723581
 31
0.0
  0
LINE
  5
6A86
330
1F
100
AcDbEntity
  8
AM_VIS
100
AcDbLine
 10
1295.112475603983
 20
1092.675682723581
 30
0.0
 11
1295.112475603983
 21
1095.544484877098
 31
0.0
  0
LINE
  5
6A87
330
1F
100
AcDbEntity
  8
AM_VIS
100
AcDbLine
 10
1295.112475603983
 20
1095.544484877098
 30
0.0
 11
1295.112475603983
 21
1096.978885953856
 31
0.0
  0
LINE
  5
6A88
330
1F
100
AcDbEntity
  8
AM_VIS
100
AcDbLine
 10
1295.112475603983
 20
1098.045873251964
 30
0.0
 11
1295.112475603983
 21
1096.978885953856
 31
0.0
  0
LINE
  5
6A89
330
1F
100
AcDbEntity
  8
AM_VIS
100
AcDbLine
 10
1295.112475603983
 20
1098.728885953856
 30
0.0
 11
1295.112475603983
 21
1098.045873251964
 31
0.0
  0
LINE
  5
6A8A
330
1F
100
AcDbEntity
  8
AM_VIS
100
AcDbLine
 10
1295.112475603983
 20
1098.728885953856
 30
0.0
 11
1295.112475603983
 21
1100.163287030615
 31
0.0
  0
LINE
  5
6A8B
330
1F
100
AcDbEntity
  8
AM_VIS
100
AcDbLine
 10
1300.612475603983
 20
1098.728885953856
 30
0.0
 11
1300.612475603983
 21
1100.163287030615
 31
0.0
  0
LINE
  5
6A8C
330
1F
100
AcDbEntity
  8
AM_VIS
100
AcDbLine
 10
1300.612475603983
 20
1098.045873251964
 30
0.0
 11
1300.612475603983
 21
1098.728885953856
 31
0.0
  0
LINE
  5
6A8D
330
1F
100
AcDbEntity
  8
AM_VIS
100
AcDbLine
 10
1300.612475603983
 20
1096.978885953856
 30
0.0
 11
1300.612475603983
 21
1098.045873251964
 31
0.0
  0
LINE
  5
6A8E
330
1F
100
AcDbEntity
  8
AM_VIS
100
AcDbLine
 10
1300.612475603983
 20
1095.544484877098
 30
0.0
 11
1300.612475603983
 21
1096.978885953856
 31
0.0
  0
LINE
  5
6A8F
330
1F
100
AcDbEntity
  8
AM_VIS
100
AcDbLine
 10
1300.612475603983
 20
1092.675682723581
 30
0.0
 11
1300.612475603983
 21
1095.544484877098
 31
0.0
  0
LINE
  5
6A90
330
1F
100
AcDbEntity
  8
AM_VIS
100
AcDbLine
 10
1300.612475603983
 20
1092.175682723581
 30
0.0
 11
1300.612475603983
 21
1092.675682723581
 31
0.0
  0
LINE
  5
6A91
330
1F
100
AcDbEntity
  8
AM_VIS
100
AcDbLine
 10
1300.612475603983
 20
1089.675682723581
 30
0.0
 11
1300.612475603983
 21
1092.175682723581
 31
0.0
  0
LINE
  5
6A92
330
1F
100
AcDbEntity
  8
AM_VIS
100
AcDbLine
 10
1300.612475603983
 20
1089.175682723581
 30
0.0
 11
1300.612475603983
 21
1089.675682723581
 31
0.0
  0
LINE
  5
6A93
330
1F
100
AcDbEntity
  8
AM_VIS
100
AcDbLine
 10
1300.612475603983
 20
1086.306880570064
 30
0.0
 11
1300.612475603983
 21
1089.175682723581
 31
0.0
  0
LINE
  5
6A94
330
1F
100
AcDbEntity
  8
AM_VIS
100
AcDbLine
 10
1300.612475603983
 20
1084.872479493305
 30
0.0
 11
1300.612475603983
 21
1086.306880570064
 31
0.0
  0
LINE
  5
6A95
330
1F
100
AcDbEntity
  8
AM_VIS
100
AcDbLine
 10
1300.612475603983
 20
1083.805492195198
 30
0.0
 11
1300.612475603983
 21
1084.872479493306
 31
0.0
  0
LINE
  5
6A96
330
1F
100
AcDbEntity
  8
AM_VIS
100
AcDbLine
 10
1300.612475603983
 20
1083.122479493305
 30
0.0
 11
1300.612475603983
 21
1083.805492195198
 31
0.0
  0
LINE
  5
6A97
330
1F
100
AcDbEntity
  8
AM_VIS
100
AcDbLine
 10
1300.612475603983
 20
1081.688078416547
 30
0.0
 11
1300.612475603983
 21
1083.122479493305
 31
0.0
  0
LINE
  5
6A98
330
1F
100
AcDbEntity
  8
AM_VIS
100
AcDbLine
 10
1295.112475603983
 20
1084.175682723581
 30
0.0
 11
1293.112475603983
 21
1084.175682723581
 31
0.0
  0
LINE
  5
6A99
330
1F
100
AcDbEntity
  8
AM_VIS
100
AcDbLine
 10
1295.112475603983
 20
1097.675682723581
 30
0.0
 11
1293.112475603983
 21
1097.675682723581
 31
0.0
  0
INSERT
  5
6A9A
330
1F
100
AcDbEntity
  8
AM_VIS
100
AcDbBlockReference
  2
A$C75484636
 10
1261.862475849539
 20
1088.175682517115
 30
0.0
  0
LINE
  5
6A9C
330
1F
100
AcDbEntity
  8
AM_VIS
100
AcDbLine
 10
1250.112475603983
 20
1008.349925204996
 30
0.0
 11
1250.112475603983
 21
1007.849925204996
 31
0.0
  0
LINE
  5
6A9D
330
1F
100
AcDbEntity
  8
AM_VIS
100
AcDbLine
 10
1250.112475603983
 20
1008.599925204995
 30
0.0
 11
1250.112475603983
 21
1008.349925204996
 31
0.0
  0
LINE
  5
6A9E
330
1F
100
AcDbEntity
  8
AM_VIS
100
AcDbLine
 10
1250.112475603983
 20
1008.599925204995
 30
0.0
 11
1279.612475603983
 21
1008.599925204995
 31
0.0
  0
LINE
  5
6A9F
330
1F
100
AcDbEntity
  8
AM_VIS
100
AcDbLine
 10
1279.612475603983
 20
984.0999252049957
 30
0.0
 11
1279.612475603983
 21
1008.599925204995
 31
0.0
  0
LINE
  5
6AA0
330
1F
100
AcDbEntity
  8
AM_VIS
100
AcDbLine
 10
1250.112475603983
 20
980.0999252049958
 30
0.0
 11
1279.612475603983
 21
980.0999252049958
 31
0.0
  0
LINE
  5
6AA1
330
1F
100
AcDbEntity
  8
AM_VIS
100
AcDbLine
 10
1279.612475603983
 20
984.0999252049957
 30
0.0
 11
1279.612475603983
 21
980.0999252049958
 31
0.0
  0
LINE
  5
6AA2
330
1F
100
AcDbEntity
  8
AM_VIS
100
AcDbLine
 10
1285.962475603983
 20
994.4661596789632
 30
0.0
 11
1287.112475603983
 21
994.4661596789632
 31
0.0
  0
SPLINE
  5
6AA3
330
1F
100
AcDbEntity
  8
AM_VIS
100
AcDbSpline
210
0.0
220
0.0
230
1.0
 70
     8
 71
     3
 72
     8
 73
     4
 74
     0
 42
0.0000000001
 43
0.0000000001
 40
1.629958734905461
 40
1.629958734905461
 40
1.629958734905461
 40
1.629958734905461
 40
2.565803457021723
 40
2.565803457021723
 40
2.565803457021723
 40
2.565803457021723
 10
1287.112475603983
 20
994.4661596789632
 30
0.0
 10
1287.292336480939
 20
994.2067832124694
 30
0.0
 10
1287.461436227897
 20
993.9356310296172
 30
0.0
 10
1287.612475603983
 20
993.6548224632041
 30
0.0
  0
SPLINE
  5
6AA4
330
1F
100
AcDbEntity
  8
AM_VIS
100
AcDbSpline
210
0.0
220
0.0
230
1.0
 70
     8
 71
     3
 72
     8
 73
     4
 74
     0
 42
0.0000000001
 43
0.0000000001
 40
7.8606508081159
 40
7.8606508081159
 40
7.8606508081159
 40
7.8606508081159
 40
8.796495530230886
 40
8.796495530230886
 40
8.796495530230886
 40
8.796495530230886
 10
1287.612475603983
 20
988.5450279467875
 30
0.0
 10
1287.461436337532
 20
988.2642195842045
 30
0.0
 10
1287.292336596236
 20
987.9930673637904
 30
0.0
 10
1287.112475603983
 20
987.7336907310281
 30
0.0
  0
LINE
  5
6AA5
330
1F
100
AcDbEntity
  8
AM_VIS
100
AcDbLine
 10
1287.112475603983
 20
987.7336907310281
 30
0.0
 11
1285.962475603983
 21
987.7336907310281
 31
0.0
  0
LINE
  5
6AA6
330
1F
100
AcDbEntity
  8
AM_VIS
100
AcDbLine
 10
1285.962475603983
 20
984.6282065086388
 30
0.0
 11
1287.112475603983
 21
984.6282065086388
 31
0.0
  0
SPLINE
  5
6AA7
330
1F
100
AcDbEntity
  8
AM_VIS
100
AcDbSpline
210
0.0
220
0.0
230
1.0
 70
     8
 71
     3
 72
     8
 73
     4
 74
     0
 42
0.0000000001
 43
0.0000000001
 40
1.630155802117218
 40
1.630155802117218
 40
1.630155802117218
 40
1.630155802117218
 40
2.566002660597602
 40
2.566002660597602
 40
2.566002660597602
 40
2.566002660597602
 10
1287.112475603983
 20
984.6282065086388
 30
0.0
 10
1287.292336837175
 20
984.5836351754142
 30
0.0
 10
1287.46143645855
 20
984.5257418789959
 30
0.0
 10
1287.612475603983
 20
984.4532413894722
 30
0.0
  0
SPLINE
  5
6AA8
330
1F
100
AcDbEntity
  8
AM_VIS
100
AcDbSpline
210
0.0
220
0.0
230
1.0
 70
     8
 71
     3
 72
     8
 73
     4
 74
     0
 42
0.0000000001
 43
0.0000000001
 40
7.860869802063071
 40
7.860869802063071
 40
7.860869802063071
 40
7.860869802063071
 40
8.796716660561775
 40
8.796716660561775
 40
8.796716660561775
 40
8.796716660561775
 10
1287.612475603983
 20
997.7466090205192
 30
0.0
 10
1287.461436567949
 20
997.6741085835083
 30
0.0
 10
1287.292336952205
 20
997.6162152630825
 30
0.0
 10
1287.112475603983
 20
997.5716439013526
 30
0.0
  0
LINE
  5
6AA9
330
1F
100
AcDbEntity
  8
AM_VIS
100
AcDbLine
 10
1287.112475603983
 20
997.5716439013526
 30
0.0
 11
1285.962475603983
 21
997.5716439013526
 31
0.0
  0
LINE
  5
6AAA
330
1F
100
AcDbEntity
  8
AM_VIS
100
AcDbLine
 10
1281.612475603983
 20
984.6282065086388
 30
0.0
 11
1284.462475603983
 21
984.6282065086388
 31
0.0
  0
LINE
  5
6AAB
330
1F
100
AcDbEntity
  8
AM_VIS
100
AcDbLine
 10
1281.612475603983
 20
994.4661596789632
 30
0.0
 11
1284.462475603983
 21
994.4661596789632
 31
0.0
  0
LINE
  5
6AAC
330
1F
100
AcDbEntity
  8
AM_VIS
100
AcDbLine
 10
1284.462475603983
 20
987.7336907310281
 30
0.0
 11
1281.612475603983
 21
987.7336907310281
 31
0.0
  0
LINE
  5
6AAD
330
1F
100
AcDbEntity
  8
AM_VIS
100
AcDbLine
 10
1284.462475603983
 20
997.5716439013526
 30
0.0
 11
1281.612475603983
 21
997.5716439013526
 31
0.0
  0
ARC
  5
6AAE
330
1F
100
AcDbEntity
  8
AM_VIS
100
AcDbCircle
 10
1294.834933814141
 20
999.2547611383363
 30
0.0
 40
13.32915168916665
100
AcDbArc
 50
172.7457013204759
 51
187.254298679524
  0
SPLINE
  5
6AAF
330
1F
100
AcDbEntity
  8
AM_VIS
100
AcDbSpline
210
0.0
220
0.0
230
1.0
 70
     8
 71
     3
 72
    14
 73
    10
 74
     0
 42
0.0000000001
 43
0.0000000001
 40
13.28006742556184
 40
13.28006742556184
 40
13.28006742556184
 40
13.28006742556184
 40
14.27448381305596
 40
14.27448381305596
 40
16.65382904986482
 40
16.65382904986482
 40
19.03317428667365
 40
19.03317428667365
 40
20.02759067416773
 40
20.02759067416773
 40
20.02759067416773
 40
20.02759067416773
 10
1281.612475603983
 20
987.7336907310281
 30
0.0
 10
1281.594729628865
 20
988.0535829998979
 30
0.0
 10
1281.578954035161
 20
988.3795514537988
 30
0.0
 10
1281.53374522325
 20
989.4975447854266
 30
0.0
 10
1281.516475603983
 20
990.3068101260595
 30
0.0
 10
1281.516475603983
 20
991.893040283932
 30
0.0
 10
1281.53374522325
 20
992.702305624565
 30
0.0
 10
1281.578954035161
 20
993.8202989561926
 30
0.0
 10
1281.594729628865
 20
994.1462674100934
 30
0.0
 10
1281.612475603983
 20
994.4661596789632
 30
0.0
  0
ARC
  5
6AB0
330
1F
100
AcDbEntity
  8
AM_VIS
100
AcDbCircle
 10
1294.834933814143
 20
982.9450892716549
 30
0.0
 40
13.32915168916832
100
AcDbArc
 50
172.7457013204759
 51
187.2542986795225
  0
CIRCLE
  5
6AB1
330
1F
100
AcDbEntity
  8
AM_VIS
100
AcDbCircle
 10
1285.212475603983
 20
989.8499252049957
 30
0.0
 40
0.5
  0
CIRCLE
  5
6AB2
330
1F
100
AcDbEntity
  8
AM_VIS
100
AcDbCircle
 10
1285.212475603983
 20
992.3499252049957
 30
0.0
 40
0.5000000000000006
  0
ARC
  5
6AB3
330
1F
100
AcDbEntity
  8
AM_VIS
100
AcDbCircle
 10
1285.212475603983
 20
984.172062339287
 30
0.0
 40
0.697891107663042
100
AcDbArc
 50
44.23832232199877
 51
135.761677678015
  0
ARC
  5
6AB4
330
1F
100
AcDbEntity
  8
AM_VIS
100
AcDbCircle
 10
1285.212475603983
 20
998.0278064487086
 30
0.0
 40
0.6979039290997723
100
AcDbArc
 50
224.2394032771287
 51
315.7605967228724
  0
LINE
  5
6AB5
330
1F
100
AcDbEntity
  8
AM_VIS
100
AcDbLine
 10
1287.612475603983
 20
981.5999252049957
 30
0.0
 11
1287.112475603983
 21
981.0999252049958
 31
0.0
  0
LINE
  5
6AB6
330
1F
100
AcDbEntity
  8
AM_VIS
100
AcDbLine
 10
1287.612475603983
 20
1000.599925204996
 30
0.0
 11
1287.112475603983
 21
1001.099925204996
 31
0.0
  0
LINE
  5
6AB7
330
1F
100
AcDbEntity
  8
AM_VIS
100
AcDbLine
 10
1285.962475603983
 20
981.0999252049958
 30
0.0
 11
1287.112475603983
 21
981.0999252049958
 31
0.0
  0
LINE
  5
6AB8
330
1F
100
AcDbEntity
  8
AM_VIS
100
AcDbLine
 10
1285.962475603983
 20
1001.099925204996
 30
0.0
 11
1287.112475603983
 21
1001.099925204996
 31
0.0
  0
LINE
  5
6AB9
330
1F
100
AcDbEntity
  8
AM_VIS
100
AcDbLine
 10
1281.612475603983
 20
981.0999252049958
 30
0.0
 11
1284.462475603983
 21
981.0999252049958
 31
0.0
  0
LINE
  5
6ABA
330
1F
100
AcDbEntity
  8
AM_VIS
100
AcDbLine
 10
1281.612475603983
 20
1001.099925204996
 30
0.0
 11
1284.462475603983
 21
1001.099925204996
 31
0.0
  0
LINE
  5
6ABB
330
1F
100
AcDbEntity
  8
AM_VIS
100
AcDbLine
 10
1281.412475603983
 20
983.5999252049957
 30
0.0
 11
1281.612475603983
 21
981.0999252049958
 31
0.0
  0
LINE
  5
6ABC
330
1F
100
AcDbEntity
  8
AM_VIS
100
AcDbLine
 10
1281.412475603983
 20
998.5999252049957
 30
0.0
 11
1281.612475603983
 21
1001.099925204996
 31
0.0
  0
LINE
  5
6ABD
330
1F
100
AcDbEntity
  8
AM_VIS
100
AcDbLine
 10
1280.612475603983
 20
998.5999252049957
 30
0.0
 11
1280.112475603983
 21
1001.099925204996
 31
0.0
  0
LINE
  5
6ABE
330
1F
100
AcDbEntity
  8
AM_VIS
100
AcDbLine
 10
1280.612475603983
 20
983.5999252049957
 30
0.0
 11
1280.112475603983
 21
981.0999252049958
 31
0.0
  0
LINE
  5
6ABF
330
1F
100
AcDbEntity
  8
AM_VIS
100
AcDbLine
 10
1280.612475603983
 20
983.5999252049957
 30
0.0
 11
1281.412475603983
 21
983.5999252049957
 31
0.0
  0
LINE
  5
6AC0
330
1F
100
AcDbEntity
  8
AM_VIS
100
AcDbLine
 10
1280.612475603983
 20
998.5999252049957
 30
0.0
 11
1281.412475603983
 21
998.5999252049957
 31
0.0
  0
LINE
  5
6AC1
330
1F
100
AcDbEntity
  8
AM_VIS
100
AcDbLine
 10
1279.612475603983
 20
981.0999252049958
 30
0.0
 11
1280.112475603983
 21
981.0999252049958
 31
0.0
  0
LINE
  5
6AC2
330
1F
100
AcDbEntity
  8
AM_VIS
100
AcDbLine
 10
1279.612475603983
 20
1001.099925204996
 30
0.0
 11
1280.112475603983
 21
1001.099925204996
 31
0.0
  0
LINE
  5
6AC3
330
1F
100
AcDbEntity
  8
AM_VIS
100
AcDbLine
 10
1287.112475603983
 20
984.6282065086388
 30
0.0
 11
1287.112475603983
 21
987.7336907310281
 31
0.0
  0
LINE
  5
6AC4
330
1F
100
AcDbEntity
  8
AM_VIS
100
AcDbLine
 10
1287.112475603983
 20
994.4661596789632
 30
0.0
 11
1287.112475603983
 21
997.5716439013526
 31
0.0
  0
LINE
  5
6AC5
330
1F
100
AcDbEntity
  8
AM_VIS
100
AcDbLine
 10
1285.962475603983
 20
1000.93787837532
 30
0.0
 11
1285.962475603983
 21
1001.099925204996
 31
0.0
  0
LINE
  5
6AC6
330
1F
100
AcDbEntity
  8
AM_VIS
100
AcDbLine
 10
1285.962475603983
 20
1000.93787837532
 30
0.0
 11
1285.962475603983
 21
997.5716439013526
 31
0.0
  0
LINE
  5
6AC7
330
1F
100
AcDbEntity
  8
AM_VIS
100
AcDbLine
 10
1285.962475603983
 20
994.4661596789632
 30
0.0
 11
1285.962475603983
 21
997.5716439013526
 31
0.0
  0
LINE
  5
6AC8
330
1F
100
AcDbEntity
  8
AM_VIS
100
AcDbLine
 10
1285.962475603983
 20
994.4661596789632
 30
0.0
 11
1285.962475603983
 21
987.7336907310281
 31
0.0
  0
LINE
  5
6AC9
330
1F
100
AcDbEntity
  8
AM_VIS
100
AcDbLine
 10
1285.962475603983
 20
984.6282065086388
 30
0.0
 11
1285.962475603983
 21
987.7336907310281
 31
0.0
  0
LINE
  5
6ACA
330
1F
100
AcDbEntity
  8
AM_VIS
100
AcDbLine
 10
1285.962475603983
 20
984.6282065086388
 30
0.0
 11
1285.962475603983
 21
981.2619720346711
 31
0.0
  0
LINE
  5
6ACB
330
1F
100
AcDbEntity
  8
AM_VIS
100
AcDbLine
 10
1285.962475603983
 20
981.0999252049958
 30
0.0
 11
1285.962475603983
 21
981.2619720346713
 31
0.0
  0
LINE
  5
6ACC
330
1F
100
AcDbEntity
  8
AM_VIS
100
AcDbLine
 10
1284.462475603983
 20
981.2619720346713
 30
0.0
 11
1284.462475603983
 21
984.6282065086388
 31
0.0
  0
LINE
  5
6ACD
330
1F
100
AcDbEntity
  8
AM_VIS
100
AcDbLine
 10
1284.462475603983
 20
981.2619720346713
 30
0.0
 11
1284.462475603983
 21
981.0999252049958
 31
0.0
  0
LINE
  5
6ACE
330
1F
100
AcDbEntity
  8
AM_VIS
100
AcDbLine
 10
1284.462475603983
 20
987.7336907310281
 30
0.0
 11
1284.462475603983
 21
984.6282065086388
 31
0.0
  0
LINE
  5
6ACF
330
1F
100
AcDbEntity
  8
AM_VIS
100
AcDbLine
 10
1284.462475603983
 20
997.5716439013526
 30
0.0
 11
1284.462475603983
 21
994.4661596789632
 31
0.0
  0
LINE
  5
6AD0
330
1F
100
AcDbEntity
  8
AM_VIS
100
AcDbLine
 10
1284.462475603983
 20
1001.099925204996
 30
0.0
 11
1284.462475603983
 21
1000.93787837532
 31
0.0
  0
LINE
  5
6AD1
330
1F
100
AcDbEntity
  8
AM_VIS
100
AcDbLine
 10
1284.462475603983
 20
987.7336907310281
 30
0.0
 11
1284.462475603983
 21
994.4661596789634
 31
0.0
  0
LINE
  5
6AD2
330
1F
100
AcDbEntity
  8
AM_VIS
100
AcDbLine
 10
1284.462475603983
 20
997.5716439013526
 30
0.0
 11
1284.462475603983
 21
1000.93787837532
 31
0.0
  0
LINE
  5
6AD3
330
1F
100
AcDbEntity
  8
AM_VIS
100
AcDbLine
 10
1281.612475603983
 20
1000.93787837532
 30
0.0
 11
1281.612475603983
 21
1001.099925204996
 31
0.0
  0
LINE
  5
6AD4
330
1F
100
AcDbEntity
  8
AM_VIS
100
AcDbLine
 10
1281.612475603983
 20
994.4661596789632
 30
0.0
 11
1281.612475603983
 21
997.5716439013526
 31
0.0
  0
LINE
  5
6AD5
330
1F
100
AcDbEntity
  8
AM_VIS
100
AcDbLine
 10
1281.612475603983
 20
984.6282065086388
 30
0.0
 11
1281.612475603983
 21
987.7336907310281
 31
0.0
  0
LINE
  5
6AD6
330
1F
100
AcDbEntity
  8
AM_VIS
100
AcDbLine
 10
1281.612475603983
 20
981.0999252049958
 30
0.0
 11
1281.612475603983
 21
981.2619720346713
 31
0.0
  0
LINE
  5
6AD7
330
1F
100
AcDbEntity
  8
AM_VIS
100
AcDbLine
 10
1281.412475603983
 20
983.5999252049957
 30
0.0
 11
1281.412475603983
 21
998.5999252049957
 31
0.0
  0
LINE
  5
6AD8
330
1F
100
AcDbEntity
  8
AM_VIS
100
AcDbLine
 10
1280.612475603983
 20
983.5999252049957
 30
0.0
 11
1280.612475603983
 21
998.5999252049957
 31
0.0
  0
LINE
  5
6AD9
330
1F
100
AcDbEntity
  8
AM_VIS
100
AcDbLine
 10
1287.612475603983
 20
1000.599925204996
 30
0.0
 11
1287.612475603983
 21
1000.301506278727
 31
0.0
  0
LINE
  5
6ADA
330
1F
100
AcDbEntity
  8
AM_VIS
100
AcDbLine
 10
1287.612475603983
 20
981.898344131264
 30
0.0
 11
1287.612475603983
 21
981.5999252049957
 31
0.0
  0
LINE
  5
6ADB
330
1F
100
AcDbEntity
  8
AM_VIS
100
AcDbLine
 10
1287.612475603983
 20
984.4532413894722
 30
0.0
 11
1287.612475603983
 21
981.8983441312639
 31
0.0
  0
LINE
  5
6ADC
330
1F
100
AcDbEntity
  8
AM_VIS
100
AcDbLine
 10
1287.612475603983
 20
988.5450279467875
 30
0.0
 11
1287.612475603983
 21
984.4532413894722
 31
0.0
  0
LINE
  5
6ADD
330
1F
100
AcDbEntity
  8
AM_VIS
100
AcDbLine
 10
1287.612475603983
 20
993.6548224632041
 30
0.0
 11
1287.612475603983
 21
988.5450279467873
 31
0.0
  0
LINE
  5
6ADE
330
1F
100
AcDbEntity
  8
AM_VIS
100
AcDbLine
 10
1287.612475603983
 20
997.7466090205192
 30
0.0
 11
1287.612475603983
 21
993.6548224632041
 31
0.0
  0
LINE
  5
6ADF
330
1F
100
AcDbEntity
  8
AM_VIS
100
AcDbLine
 10
1287.612475603983
 20
1000.301506278727
 30
0.0
 11
1287.612475603983
 21
997.7466090205192
 31
0.0
  0
ARC
  5
6AE0
330
1F
100
AcDbEntity
  8
AM_VIS
100
AcDbCircle
 10
1285.212475603983
 20
998.0999252049958
 30
0.0
 40
0.75
100
AcDbArc
 50
180.0
 51
228.1896851042216
  0
ARC
  5
6AE1
330
1F
100
AcDbEntity
  8
AM_VIS
100
AcDbCircle
 10
1285.212475603983
 20
998.0999252049958
 30
0.0
 40
0.75
100
AcDbArc
 50
311.8103148957784
 51
0.0
  0
ARC
  5
6AE2
330
1F
100
AcDbEntity
  8
AM_VIS
100
AcDbCircle
 10
1285.212475603983
 20
984.0999252049957
 30
0.0
 40
0.75
100
AcDbArc
 50
0.0
 51
48.18968510422619
  0
ARC
  5
6AE3
330
1F
100
AcDbEntity
  8
AM_VIS
100
AcDbCircle
 10
1285.212475603983
 20
984.0999252049957
 30
0.0
 40
0.75
100
AcDbArc
 50
131.8103148957796
 51
180.0
  0
LINE
  5
6AE4
330
1F
100
AcDbEntity
  8
0
100
AcDbLine
 10
1279.112475603983
 20
1008.599925204995
 30
0.0
 11
1250.112475603983
 21
1008.599925204995
 31
0.0
  0
ARC
  5
6AE5
330
1F
100
AcDbEntity
  8
AM_VIS
100
AcDbCircle
 10
1308.325236854451
 20
1031.200117551237
 30
0.0
 40
29.68201406216515
100
AcDbArc
 50
172.450295946057
 51
190.2015981703575
  0
ARC
  5
6AE6
330
1F
100
AcDbEntity
  8
AM_VIS
100
AcDbCircle
 10
1276.139705822351
 20
1035.581259793303
 30
0.0
 40
2.802467679762879
100
AcDbArc
 50
350.1101932448585
 51
28.63378411756118
  0
LINE
  5
6AE7
330
1F
100
AcDbEntity
  8
AM_VIS
100
AcDbLine
 10
1279.112475603983
 20
1025.943070955503
 30
0.0
 11
1279.112475603983
 21
1008.599925204995
 31
0.0
  0
LINE
  5
6AE8
330
1F
100
AcDbEntity
  8
AM_VIS
100
AcDbLine
 10
1253.612475603983
 20
1038.599925204995
 30
0.0
 11
1275.612475603983
 21
1038.599925204995
 31
0.0
  0
LINE
  5
6AE9
330
1F
100
AcDbEntity
  8
AM_VIS
100
AcDbLine
 10
1250.112475603983
 20
1008.599925204995
 30
0.0
 11
1250.112475603983
 21
1035.099925204995
 31
0.0
  0
LINE
  5
6AEA
330
1F
100
AcDbEntity
  8
AM_VIS
100
AcDbLine
 10
1274.112475603983
 20
1038.599925204995
 30
0.0
 11
1279.112475603983
 21
1040.599925204996
 31
0.0
  0
LINE
  5
6AEB
330
1F
100
AcDbEntity
  8
AM_VIS
100
AcDbLine
 10
1279.112475603983
 20
1040.599925204996
 30
0.0
 11
1293.112475603983
 21
1040.599925204996
 31
0.0
  0
LINE
  5
6AEC
330
1F
100
AcDbEntity
  8
AM_VIS
100
AcDbLine
 10
1279.112475603983
 20
1022.599925204995
 30
0.0
 11
1293.112475603983
 21
1022.599925204995
 31
0.0
  0
LINE
  5
6AED
330
1F
100
AcDbEntity
  8
AM_VIS
100
AcDbLine
 10
1279.112475603983
 20
1040.599925204996
 30
0.0
 11
1279.112475603983
 21
1025.943070955503
 31
0.0
  0
LINE
  5
6AEE
330
1F
100
AcDbEntity
  8
AM_VIS
100
AcDbLine
 10
1293.112475603983
 20
1022.599925204995
 30
0.0
 11
1293.112475603983
 21
1031.599925204996
 31
0.0
  0
LINE
  5
6AEF
330
1F
100
AcDbEntity
  8
AM_VIS
100
AcDbLine
 10
1293.112475603983
 20
1031.599925204996
 30
0.0
 11
1293.112475603983
 21
1040.599925204996
 31
0.0
  0
ARC
  5
6AF0
330
1F
100
AcDbEntity
  8
AM_VIS
100
AcDbCircle
 10
1253.612475603983
 20
1035.099925204995
 30
0.0
 40
3.5
100
AcDbArc
 50
90.0
 51
180.0
  0
ARC
  5
6AF1
330
1F
100
AcDbEntity
  8
AM_VIS
100
AcDbCircle
 10
1275.612475603983
 20
1035.099925204995
 30
0.0
 40
3.5
100
AcDbArc
 50
31.41476770924168
 51
90.0
  0
LINE
  5
6AF2
330
1F
100
AcDbEntity
  8
AM_VIS
100
AcDbLine
 10
1300.612475603983
 20
1023.599925204996
 30
0.0
 11
1295.112475603983
 21
1023.599925204996
 31
0.0
  0
LINE
  5
6AF3
330
1F
100
AcDbEntity
  8
AM_VIS
100
AcDbLine
 10
1300.612475603983
 20
1031.599925204996
 30
0.0
 11
1295.112475603983
 21
1031.599925204996
 31
0.0
  0
LINE
  5
6AF4
330
1F
100
AcDbEntity
  8
AM_VIS
100
AcDbLine
 10
1300.612475603983
 20
1028.932456959726
 30
0.0
 11
1295.112475603983
 21
1028.932456959726
 31
0.0
  0
LINE
  5
6AF5
330
1F
100
AcDbEntity
  8
AM_VIS
100
AcDbLine
 10
1295.112475603983
 20
1026.084380748373
 30
0.0
 11
1300.612475603983
 21
1026.084380748373
 31
0.0
  0
LINE
  5
6AF6
330
1F
100
AcDbEntity
  8
AM_VIS
100
AcDbLine
 10
1300.612475603983
 20
1026.767393450265
 30
0.0
 11
1295.112475603983
 21
1026.767393450265
 31
0.0
  0
LINE
  5
6AF7
330
1F
100
AcDbEntity
  8
AM_VIS
100
AcDbLine
 10
1300.612475603983
 20
1039.599925204996
 30
0.0
 11
1295.112475603983
 21
1039.599925204996
 31
0.0
  0
LINE
  5
6AF8
330
1F
100
AcDbEntity
  8
AM_VIS
100
AcDbLine
 10
1300.612475603983
 20
1037.115469661618
 30
0.0
 11
1295.112475603983
 21
1037.115469661618
 31
0.0
  0
LINE
  5
6AF9
330
1F
100
AcDbEntity
  8
AM_VIS
100
AcDbLine
 10
1300.612475603983
 20
1034.267393450265
 30
0.0
 11
1295.112475603983
 21
1034.267393450265
 31
0.0
  0
LINE
  5
6AFA
330
1F
100
AcDbEntity
  8
AM_VIS
100
AcDbLine
 10
1300.612475603983
 20
1036.432456959726
 30
0.0
 11
1295.112475603983
 21
1036.432456959726
 31
0.0
  0
LINE
  5
6AFB
330
1F
100
AcDbEntity
  8
AM_VIS
100
AcDbLine
 10
1295.112475603983
 20
1023.599925204996
 30
0.0
 11
1295.112475603983
 21
1026.084380748373
 31
0.0
  0
LINE
  5
6AFC
330
1F
100
AcDbEntity
  8
AM_VIS
100
AcDbLine
 10
1295.112475603983
 20
1026.767393450265
 30
0.0
 11
1295.112475603983
 21
1026.084380748373
 31
0.0
  0
LINE
  5
6AFD
330
1F
100
AcDbEntity
  8
AM_VIS
100
AcDbLine
 10
1295.112475603983
 20
1028.932456959726
 30
0.0
 11
1295.112475603983
 21
1026.767393450265
 31
0.0
  0
LINE
  5
6AFE
330
1F
100
AcDbEntity
  8
AM_VIS
100
AcDbLine
 10
1295.112475603983
 20
1029.115469661618
 30
0.0
 11
1295.112475603983
 21
1028.932456959726
 31
0.0
  0
LINE
  5
6AFF
330
1F
100
AcDbEntity
  8
AM_VIS
100
AcDbLine
 10
1295.112475603983
 20
1029.115469661618
 30
0.0
 11
1295.112475603983
 21
1031.599925204996
 31
0.0
  0
LINE
  5
6B00
330
1F
100
AcDbEntity
  8
AM_VIS
100
AcDbLine
 10
1295.112475603983
 20
1031.599925204996
 30
0.0
 11
1295.112475603983
 21
1034.084380748373
 31
0.0
  0
LINE
  5
6B01
330
1F
100
AcDbEntity
  8
AM_VIS
100
AcDbLine
 10
1295.112475603983
 20
1034.267393450265
 30
0.0
 11
1295.112475603983
 21
1034.084380748373
 31
0.0
  0
LINE
  5
6B02
330
1F
100
AcDbEntity
  8
AM_VIS
100
AcDbLine
 10
1295.112475603983
 20
1036.432456959726
 30
0.0
 11
1295.112475603983
 21
1034.267393450265
 31
0.0
  0
LINE
  5
6B03
330
1F
100
AcDbEntity
  8
AM_VIS
100
AcDbLine
 10
1295.112475603983
 20
1037.115469661618
 30
0.0
 11
1295.112475603983
 21
1036.432456959726
 31
0.0
  0
LINE
  5
6B04
330
1F
100
AcDbEntity
  8
AM_VIS
100
AcDbLine
 10
1295.112475603983
 20
1037.115469661618
 30
0.0
 11
1295.112475603983
 21
1039.599925204996
 31
0.0
  0
LINE
  5
6B05
330
1F
100
AcDbEntity
  8
AM_VIS
100
AcDbLine
 10
1300.612475603983
 20
1037.115469661618
 30
0.0
 11
1300.612475603983
 21
1039.599925204996
 31
0.0
  0
LINE
  5
6B06
330
1F
100
AcDbEntity
  8
AM_VIS
100
AcDbLine
 10
1300.612475603983
 20
1036.432456959726
 30
0.0
 11
1300.612475603983
 21
1037.115469661618
 31
0.0
  0
LINE
  5
6B07
330
1F
100
AcDbEntity
  8
AM_VIS
100
AcDbLine
 10
1300.612475603983
 20
1034.267393450265
 30
0.0
 11
1300.612475603983
 21
1036.432456959726
 31
0.0
  0
LINE
  5
6B08
330
1F
100
AcDbEntity
  8
AM_VIS
100
AcDbLine
 10
1300.612475603983
 20
1034.084380748373
 30
0.0
 11
1300.612475603983
 21
1034.267393450265
 31
0.0
  0
LINE
  5
6B09
330
1F
100
AcDbEntity
  8
AM_VIS
100
AcDbLine
 10
1300.612475603983
 20
1031.599925204996
 30
0.0
 11
1300.612475603983
 21
1034.084380748373
 31
0.0
  0
LINE
  5
6B0A
330
1F
100
AcDbEntity
  8
AM_VIS
100
AcDbLine
 10
1300.612475603983
 20
1029.115469661618
 30
0.0
 11
1300.612475603983
 21
1031.599925204996
 31
0.0
  0
LINE
  5
6B0B
330
1F
100
AcDbEntity
  8
AM_VIS
100
AcDbLine
 10
1300.612475603983
 20
1028.932456959726
 30
0.0
 11
1300.612475603983
 21
1029.115469661618
 31
0.0
  0
LINE
  5
6B0C
330
1F
100
AcDbEntity
  8
AM_VIS
100
AcDbLine
 10
1300.612475603983
 20
1026.767393450265
 30
0.0
 11
1300.612475603983
 21
1028.932456959726
 31
0.0
  0
LINE
  5
6B0D
330
1F
100
AcDbEntity
  8
AM_VIS
100
AcDbLine
 10
1300.612475603983
 20
1026.084380748373
 30
0.0
 11
1300.612475603983
 21
1026.767393450265
 31
0.0
  0
LINE
  5
6B0E
330
1F
100
AcDbEntity
  8
AM_VIS
100
AcDbLine
 10
1300.612475603983
 20
1023.599925204996
 30
0.0
 11
1300.612475603983
 21
1026.084380748373
 31
0.0
  0
LINE
  5
6B0F
330
1F
100
AcDbEntity
  8
AM_VIS
100
AcDbLine
 10
1295.112475603983
 20
1024.849925204996
 30
0.0
 11
1293.112475603983
 21
1024.849925204996
 31
0.0
  0
LINE
  5
6B10
330
1F
100
AcDbEntity
  8
AM_VIS
100
AcDbLine
 10
1295.112475603983
 20
1038.349925204996
 30
0.0
 11
1293.112475603983
 21
1038.349925204995
 31
0.0
  0
LINE
  5
6B11
330
1F
100
AcDbEntity
  8
0
100
AcDbLine
 10
1279.112475603983
 20
1008.599925204995
 30
0.0
 11
1250.112475603983
 21
1008.599925204995
 31
0.0
  0
LINE
  5
6B12
330
1F
100
AcDbEntity
  8
0
100
AcDbLine
 10
1279.112475603983
 20
1010.099925204996
 30
0.0
 11
1250.112475603983
 21
1010.099925204996
 31
0.0
  0
LINE
  5
6B13
330
1F
100
AcDbEntity
  8
AM_7
100
AcDbLine
 10
1302.462737872515
 20
1031.599925204996
 30
0.0
 11
1291.691591952471
 21
1031.599925204996
 31
0.0
  0
LINE
  5
6B14
330
1F
100
AcDbEntity
  8
AM_7
  6
AM_ISO08W050x2
100
AcDbLine
 10
1289.112475603983
 20
991.0999252049958
 30
0.0
 11
1277.304819492312
 21
991.0999252049958
 31
0.0
1001
GENIUS_GENOBJ-N-CEN_13
1002
{
1000
OWNER
1000
GEN
1002
}
1001
GENIUS_GENODEF_13
1002
{
1000
HIER
1070
     0
1002
}
1002
{
1000
MANEDIT
1070
     0
1002
}
1002
{
1000
NOSEL
1070
     0
1002
}
1002
{
1000
BEHIND
1070
     0
1002
}
1002
{
1000
OTHER
1070
     0
1002
}
1002
{
1000
REACTOR
1002
}
1001
GENIUS_GENCEN_19
1002
{
1040
1.5
1002
}
  0
LINE
  5
6B1F
330
1F
100
AcDbEntity
  8
BORDER
100
AcDbLine
 10
1280.312475603983
 20
901.7025506639411
 30
0.0
 11
1281.548326461272
 21
901.7025506639411
 31
0.0
  0
LINE
  5
6B20
330
1F
100
AcDbEntity
  8
BORDER
100
AcDbLine
 10
1284.462475603983
 20
901.7025506639411
 30
0.0
 11
1285.962475603983
 21
901.7025506639411
 31
0.0
  0
LINE
  5
6B21
330
1F
100
AcDbEntity
  8
BORDER
100
AcDbLine
 10
1287.612475603983
 20
901.7025506639411
 30
0.0
 11
1293.112475603983
 21
901.7025506639411
 31
0.0
  0
LINE
  5
6B22
330
1F
100
AcDbEntity
  8
BORDER
100
AcDbLine
 10
1293.112475603983
 20
883.7025506639411
 30
0.0
 11
1293.112475603983
 21
901.7025506639411
 31
0.0
  0
LINE
  5
6B23
330
1F
100
AcDbEntity
  8
BORDER
100
AcDbLine
 10
1300.612475603983
 20
894.4525506639411
 30
0.0
 11
1295.112475603983
 21
894.4525506639411
 31
0.0
  0
LINE
  5
6B24
330
1F
100
AcDbEntity
  8
BORDER
100
AcDbLine
 10
1295.112475603983
 20
890.9525506639411
 30
0.0
 11
1300.612475603983
 21
890.9525506639411
 31
0.0
  0
LINE
  5
6B25
330
1F
100
AcDbEntity
  8
BORDER
100
AcDbLine
 10
1300.612475603983
 20
897.3213528174582
 30
0.0
 11
1295.112475603983
 21
897.3213528174582
 31
0.0
  0
LINE
  5
6B26
330
1F
100
AcDbEntity
  8
BORDER
100
AcDbLine
 10
1300.612475603983
 20
901.9401549709751
 30
0.0
 11
1295.112475603983
 21
901.9401549709751
 31
0.0
  0
LINE
  5
6B27
330
1F
100
AcDbEntity
  8
BORDER
100
AcDbLine
 10
1300.612475603983
 20
899.8227411923243
 30
0.0
 11
1295.112475603983
 21
899.8227411923243
 31
0.0
  0
LINE
  5
6B28
330
1F
100
AcDbEntity
  8
BORDER
100
AcDbLine
 10
1300.612475603983
 20
900.5057538942166
 30
0.0
 11
1295.112475603983
 21
900.5057538942166
 31
0.0
  0
LINE
  5
6B29
330
1F
100
AcDbEntity
  8
BORDER
100
AcDbLine
 10
1295.112475603983
 20
898.7557538942168
 30
0.0
 11
1300.612475603983
 21
898.7557538942168
 31
0.0
  0
LINE
  5
6B2A
330
1F
100
AcDbEntity
  8
BORDER
100
AcDbLine
 10
1300.612475603983
 20
883.4649463569069
 30
0.0
 11
1295.112475603983
 21
883.4649463569069
 31
0.0
  0
LINE
  5
6B2B
330
1F
100
AcDbEntity
  8
BORDER
100
AcDbLine
 10
1295.112475603983
 20
888.083748510424
 30
0.0
 11
1295.112475603983
 21
890.9525506639411
 31
0.0
  0
LINE
  5
6B2C
330
1F
100
AcDbEntity
  8
BORDER
100
AcDbLine
 10
1295.112475603983
 20
891.4525506639412
 30
0.0
 11
1295.112475603983
 21
890.9525506639411
 31
0.0
  0
LINE
  5
6B2D
330
1F
100
AcDbEntity
  8
BORDER
100
AcDbLine
 10
1295.112475603983
 20
893.9525506639412
 30
0.0
 11
1295.112475603983
 21
891.4525506639412
 31
0.0
  0
LINE
  5
6B2E
330
1F
100
AcDbEntity
  8
BORDER
100
AcDbLine
 10
1295.112475603983
 20
894.4525506639411
 30
0.0
 11
1295.112475603983
 21
893.9525506639412
 31
0.0
  0
LINE
  5
6B2F
330
1F
100
AcDbEntity
  8
BORDER
100
AcDbLine
 10
1295.112475603983
 20
894.4525506639411
 30
0.0
 11
1295.112475603983
 21
897.3213528174582
 31
0.0
  0
LINE
  5
6B30
330
1F
100
AcDbEntity
  8
BORDER
100
AcDbLine
 10
1295.112475603983
 20
897.3213528174582
 30
0.0
 11
1295.112475603983
 21
898.7557538942168
 31
0.0
  0
LINE
  5
6B31
330
1F
100
AcDbEntity
  8
BORDER
100
AcDbLine
 10
1295.112475603983
 20
899.8227411923243
 30
0.0
 11
1295.112475603983
 21
898.7557538942166
 31
0.0
  0
LINE
  5
6B32
330
1F
100
AcDbEntity
  8
BORDER
100
AcDbLine
 10
1295.112475603983
 20
900.5057538942166
 30
0.0
 11
1295.112475603983
 21
899.8227411923243
 31
0.0
  0
LINE
  5
6B33
330
1F
100
AcDbEntity
  8
BORDER
100
AcDbLine
 10
1295.112475603983
 20
900.5057538942166
 30
0.0
 11
1295.112475603983
 21
901.9401549709751
 31
0.0
  0
LINE
  5
6B34
330
1F
100
AcDbEntity
  8
BORDER
100
AcDbLine
 10
1295.112475603983
 20
883.4649463569071
 30
0.0
 11
1295.112475603983
 21
884.8993474336657
 31
0.0
  0
LINE
  5
6B35
330
1F
100
AcDbEntity
  8
BORDER
100
AcDbLine
 10
1300.612475603983
 20
888.083748510424
 30
0.0
 11
1295.112475603983
 21
888.083748510424
 31
0.0
  0
LINE
  5
6B36
330
1F
100
AcDbEntity
  8
BORDER
100
AcDbLine
 10
1295.112475603983
 20
886.6493474336657
 30
0.0
 11
1295.112475603983
 21
888.083748510424
 31
0.0
  0
LINE
  5
6B37
330
1F
100
AcDbEntity
  8
BORDER
100
AcDbLine
 10
1300.612475603983
 20
883.4649463569071
 30
0.0
 11
1300.612475603983
 21
884.8993474336657
 31
0.0
  0
LINE
  5
6B38
330
1F
100
AcDbEntity
  8
BORDER
100
AcDbLine
 10
1300.612475603983
 20
900.5057538942166
 30
0.0
 11
1300.612475603983
 21
901.9401549709751
 31
0.0
  0
LINE
  5
6B39
330
1F
100
AcDbEntity
  8
BORDER
100
AcDbLine
 10
1300.612475603983
 20
899.8227411923243
 30
0.0
 11
1300.612475603983
 21
900.5057538942166
 31
0.0
  0
LINE
  5
6B3A
330
1F
100
AcDbEntity
  8
BORDER
100
AcDbLine
 10
1300.612475603983
 20
898.7557538942166
 30
0.0
 11
1300.612475603983
 21
899.8227411923243
 31
0.0
  0
LINE
  5
6B3B
330
1F
100
AcDbEntity
  8
BORDER
100
AcDbLine
 10
1300.612475603983
 20
897.3213528174582
 30
0.0
 11
1300.612475603983
 21
898.7557538942168
 31
0.0
  0
LINE
  5
6B3C
330
1F
100
AcDbEntity
  8
BORDER
100
AcDbLine
 10
1300.612475603983
 20
894.4525506639411
 30
0.0
 11
1300.612475603983
 21
897.3213528174582
 31
0.0
  0
LINE
  5
6B3D
330
1F
100
AcDbEntity
  8
BORDER
100
AcDbLine
 10
1300.612475603983
 20
893.9525506639412
 30
0.0
 11
1300.612475603983
 21
894.4525506639411
 31
0.0
  0
LINE
  5
6B3E
330
1F
100
AcDbEntity
  8
BORDER
100
AcDbLine
 10
1300.612475603983
 20
891.4525506639412
 30
0.0
 11
1300.612475603983
 21
893.9525506639412
 31
0.0
  0
LINE
  5
6B3F
330
1F
100
AcDbEntity
  8
BORDER
100
AcDbLine
 10
1300.612475603983
 20
890.9525506639411
 30
0.0
 11
1300.612475603983
 21
891.4525506639412
 31
0.0
  0
LINE
  5
6B40
330
1F
100
AcDbEntity
  8
BORDER
100
AcDbLine
 10
1300.612475603983
 20
888.083748510424
 30
0.0
 11
1300.612475603983
 21
890.9525506639411
 31
0.0
  0
LINE
  5
6B41
330
1F
100
AcDbEntity
  8
BORDER
100
AcDbLine
 10
1300.612475603983
 20
886.6493474336657
 30
0.0
 11
1300.612475603983
 21
888.083748510424
 31
0.0
  0
LINE
  5
6B42
330
1F
100
AcDbEntity
  8
BORDER
100
AcDbLine
 10
1300.612475603983
 20
886.6493474336657
 30
0.0
 11
1295.112475603983
 21
886.6493474336657
 31
0.0
  0
LINE
  5
6B43
330
1F
100
AcDbEntity
  8
BORDER
100
AcDbLine
 10
1295.112475603983
 20
884.8993474336657
 30
0.0
 11
1300.612475603983
 21
884.8993474336657
 31
0.0
  0
LINE
  5
6B44
330
1F
100
AcDbEntity
  8
BORDER
100
AcDbLine
 10
1300.612475603983
 20
884.8993474336657
 30
0.0
 11
1300.612475603983
 21
885.5823601355579
 31
0.0
  0
LINE
  5
6B45
330
1F
100
AcDbEntity
  8
BORDER
100
AcDbLine
 10
1295.112475603983
 20
885.5823601355579
 30
0.0
 11
1295.112475603983
 21
884.8993474336657
 31
0.0
  0
LINE
  5
6B46
330
1F
100
AcDbEntity
  8
BORDER
100
AcDbLine
 10
1300.612475603983
 20
885.5823601355579
 30
0.0
 11
1295.112475603983
 21
885.5823601355579
 31
0.0
  0
LINE
  5
6B47
330
1F
100
AcDbEntity
  8
BORDER
100
AcDbLine
 10
1300.612475603983
 20
885.5823601355579
 30
0.0
 11
1300.612475603983
 21
886.6493474336657
 31
0.0
  0
LINE
  5
6B48
330
1F
100
AcDbEntity
  8
BORDER
100
AcDbLine
 10
1295.112475603983
 20
886.6493474336657
 30
0.0
 11
1295.112475603983
 21
885.5823601355579
 31
0.0
  0
LINE
  5
6B49
330
1F
100
AcDbEntity
  8
BORDER
100
AcDbLine
 10
1295.112475603983
 20
885.952550663941
 30
0.0
 11
1293.112475603983
 21
885.952550663941
 31
0.0
  0
LINE
  5
6B4A
330
1F
100
AcDbEntity
  8
BORDER
100
AcDbLine
 10
1295.112475603983
 20
899.452550663941
 30
0.0
 11
1293.112475603983
 21
899.452550663941
 31
0.0
  0
LINE
  5
6B4B
330
1F
100
AcDbEntity
  8
AM_VIS
100
AcDbLine
 10
1279.612475603983
 20
903.7025506639409
 30
0.0
 11
1250.112475603983
 21
903.7025506639409
 31
0.0
  0
LINE
  5
6B4C
330
1F
100
AcDbEntity
  8
AM_VIS
100
AcDbLine
 10
1279.612475603983
 20
885.7025506639409
 30
0.0
 11
1279.612475603983
 21
899.7025506639408
 31
0.0
  0
LINE
  5
6B4D
330
1F
100
AcDbEntity
  8
AM_VIS
100
AcDbLine
 10
1250.112475603983
 20
881.7025506639408
 30
0.0
 11
1279.612475603983
 21
881.7025506639408
 31
0.0
  0
LINE
  5
6B4E
330
1F
100
AcDbEntity
  8
AM_VIS
100
AcDbLine
 10
1279.612475603983
 20
903.7025506639409
 30
0.0
 11
1279.612475603983
 21
899.7025506639408
 31
0.0
  0
LINE
  5
6B4F
330
1F
100
AcDbEntity
  8
AM_VIS
100
AcDbLine
 10
1279.612475603983
 20
885.7025506639409
 30
0.0
 11
1279.612475603983
 21
881.7025506639408
 31
0.0
  0
LINE
  5
6B50
330
1F
100
AcDbEntity
  8
AM_VIS
100
AcDbLine
 10
1287.112034094981
 20
902.1181158300892
 30
0.0
 11
1287.611980430886
 21
901.8516217129441
 31
0.0
  0
LINE
  5
6B51
330
1F
100
AcDbEntity
  8
AM_VIS
100
AcDbLine
 10
1287.112475603983
 20
902.118944106564
 30
0.0
 11
1285.962475603983
 21
902.118944106564
 31
0.0
  0
LINE
  5
6B52
330
1F
100
AcDbEntity
  8
AM_VIS
100
AcDbLine
 10
1285.962475603983
 20
900.3259919548032
 30
0.0
 11
1287.112475603983
 21
900.3259919548032
 31
0.0
  0
LINE
  5
6B53
330
1F
100
AcDbEntity
  8
AM_VIS
100
AcDbLine
 10
1287.118443025579
 20
900.3295672218655
 30
0.0
 11
1287.619013202858
 21
899.4940734715342
 31
0.0
  0
SPLINE
  5
6B54
330
1F
100
AcDbEntity
  8
AM_VIS
100
AcDbSpline
210
0.0
220
0.0
230
1.0
 70
     8
 71
     3
 72
     8
 73
     4
 74
     0
 42
0.0000000001
 43
0.0000000001
 40
7.860869800051694
 40
7.860869800051694
 40
7.860869800051694
 40
7.860869800051694
 40
8.796716658530822
 40
8.796716658530822
 40
8.796716658530822
 40
8.796716658530822
 10
1287.612475603983
 20
895.0649447342735
 30
0.0
 10
1287.461436567947
 20
894.8609620510469
 30
0.0
 10
1287.292336952202
 20
894.6709875685156
 30
0.0
 10
1287.112475603983
 20
894.4955028157016
 30
0.0
  0
LINE
  5
6B55
330
1F
100
AcDbEntity
  8
AM_VIS
100
AcDbLine
 10
1287.112475603983
 20
894.4955028157016
 30
0.0
 11
1285.962475603983
 21
894.4955028157016
 31
0.0
  0
LINE
  5
6B56
330
1F
100
AcDbEntity
  8
AM_VIS
100
AcDbLine
 10
1285.962475603983
 20
890.9095985121803
 30
0.0
 11
1287.112475603983
 21
890.9095985121803
 31
0.0
  0
SPLINE
  5
6B57
330
1F
100
AcDbEntity
  8
AM_VIS
100
AcDbSpline
210
0.0
220
0.0
230
1.0
 70
     8
 71
     3
 72
     8
 73
     4
 74
     0
 42
0.0000000001
 43
0.0000000001
 40
1.630155803927018
 40
1.630155803927018
 40
1.630155803927018
 40
1.630155803927018
 40
2.566002662426991
 40
2.566002662426991
 40
2.566002662426991
 40
2.566002662426991
 10
1287.112475603983
 20
890.9095985121803
 30
0.0
 10
1287.292336837178
 20
890.7341138715903
 30
0.0
 10
1287.461436458552
 20
890.5441394245762
 30
0.0
 10
1287.612475603983
 20
890.3401565936086
 30
0.0
  0
LINE
  5
6B58
330
1F
100
AcDbEntity
  8
AM_VIS
100
AcDbLine
 10
1287.118443022481
 20
885.0755341078238
 30
0.0
 11
1287.619013204782
 21
885.9110278551414
 31
0.0
  0
LINE
  5
6B59
330
1F
100
AcDbEntity
  8
AM_VIS
100
AcDbLine
 10
1287.112475603983
 20
885.0791093730787
 30
0.0
 11
1285.962475603983
 21
885.0791093730787
 31
0.0
  0
LINE
  5
6B5A
330
1F
100
AcDbEntity
  8
AM_VIS
100
AcDbLine
 10
1285.962475603983
 20
883.2861572213181
 30
0.0
 11
1287.112475603983
 21
883.2861572213181
 31
0.0
  0
LINE
  5
6B5B
330
1F
100
AcDbEntity
  8
AM_VIS
100
AcDbLine
 10
1287.112034095166
 20
883.286985497441
 30
0.0
 11
1287.611980430396
 21
883.5534796158498
 31
0.0
  0
LINE
  5
6B5C
330
1F
100
AcDbEntity
  8
AM_VIS
100
AcDbLine
 10
1284.462475603983
 20
885.0791093730787
 30
0.0
 11
1281.612475603983
 21
885.0791093730787
 31
0.0
  0
LINE
  5
6B5D
330
1F
100
AcDbEntity
  8
AM_VIS
100
AcDbLine
 10
1281.612475603983
 20
883.2861572213181
 30
0.0
 11
1284.462475603983
 21
883.2861572213181
 31
0.0
  0
LINE
  5
6B5E
330
1F
100
AcDbEntity
  8
AM_VIS
100
AcDbLine
 10
1284.462475603983
 20
894.4955028157016
 30
0.0
 11
1281.612475603983
 21
894.4955028157016
 31
0.0
  0
LINE
  5
6B5F
330
1F
100
AcDbEntity
  8
AM_VIS
100
AcDbLine
 10
1281.612475603983
 20
890.9095985121803
 30
0.0
 11
1284.462475603983
 21
890.9095985121803
 31
0.0
  0
LINE
  5
6B60
330
1F
100
AcDbEntity
  8
AM_VIS
100
AcDbLine
 10
1281.612475603983
 20
900.3259919548032
 30
0.0
 11
1284.462475603983
 21
900.3259919548032
 31
0.0
  0
LINE
  5
6B61
330
1F
100
AcDbEntity
  8
AM_VIS
100
AcDbLine
 10
1284.462475603983
 20
902.118944106564
 30
0.0
 11
1281.612475603983
 21
902.118944106564
 31
0.0
  0
LINE
  5
6B62
330
1F
100
AcDbEntity
  8
AM_VIS
100
AcDbLine
 10
1281.517155231254
 20
901.5024447958913
 30
0.0
 11
1281.613172690379
 21
902.1188355188417
 31
0.0
  0
LINE
  5
6B63
330
1F
100
AcDbEntity
  8
AM_VIS
100
AcDbLine
 10
1281.565016053439
 20
894.4955415731948
 30
0.0
 11
1281.569777476366
 21
900.3260268239154
 31
0.0
  0
LINE
  5
6B64
330
1F
100
AcDbEntity
  8
AM_VIS
100
AcDbLine
 10
1281.565016053439
 20
890.9095597546871
 30
0.0
 11
1281.569777476366
 21
885.0790745039665
 31
0.0
  0
LINE
  5
6B65
330
1F
100
AcDbEntity
  8
AM_VIS
100
AcDbLine
 10
1281.517155231254
 20
883.9026565319906
 30
0.0
 11
1281.613172690379
 21
883.2862658090402
 31
0.0
  0
CIRCLE
  5
6B66
330
1F
100
AcDbEntity
  8
AM_VIS
100
AcDbCircle
 10
1285.212475603983
 20
890.702550663941
 30
0.0
 40
0.5000000000000008
  0
CIRCLE
  5
6B67
330
1F
100
AcDbEntity
  8
AM_VIS
100
AcDbCircle
 10
1285.212475603983
 20
894.7025506639409
 30
0.0
 40
0.5000000000000028
  0
CIRCLE
  5
6B68
330
1F
100
AcDbEntity
  8
AM_VIS
100
AcDbCircle
 10
1285.212475603983
 20
892.7025506639409
 30
0.0
 40
0.4999999999999996
  0
LINE
  5
6B69
330
1F
100
AcDbEntity
  8
AM_VIS
100
AcDbLine
 10
1281.412475603983
 20
885.202550663941
 30
0.0
 11
1281.516475603983
 21
883.902550663941
 31
0.0
  0
LINE
  5
6B6A
330
1F
100
AcDbEntity
  8
AM_VIS
100
AcDbLine
 10
1281.412475603983
 20
900.2025506639411
 30
0.0
 11
1281.516475603983
 21
901.5025506639409
 31
0.0
  0
LINE
  5
6B6B
330
1F
100
AcDbEntity
  8
AM_VIS
100
AcDbLine
 10
1280.612475603983
 20
900.2025506639411
 30
0.0
 11
1280.112475603983
 21
902.7025506639409
 31
0.0
  0
LINE
  5
6B6C
330
1F
100
AcDbEntity
  8
AM_VIS
100
AcDbLine
 10
1280.612475603983
 20
885.202550663941
 30
0.0
 11
1280.112475603983
 21
882.702550663941
 31
0.0
  0
LINE
  5
6B6D
330
1F
100
AcDbEntity
  8
AM_VIS
100
AcDbLine
 10
1280.612475603983
 20
885.202550663941
 30
0.0
 11
1281.412475603983
 21
885.202550663941
 31
0.0
  0
LINE
  5
6B6E
330
1F
100
AcDbEntity
  8
AM_VIS
100
AcDbLine
 10
1280.612475603983
 20
900.2025506639411
 30
0.0
 11
1281.412475603983
 21
900.2025506639411
 31
0.0
  0
LINE
  5
6B6F
330
1F
100
AcDbEntity
  8
AM_VIS
100
AcDbLine
 10
1279.612475603983
 20
882.702550663941
 30
0.0
 11
1280.112475603983
 21
882.702550663941
 31
0.0
  0
LINE
  5
6B70
330
1F
100
AcDbEntity
  8
AM_VIS
100
AcDbLine
 10
1279.612475603983
 20
902.7025506639409
 30
0.0
 11
1280.112475603983
 21
902.7025506639409
 31
0.0
  0
LINE
  5
6B71
330
1F
100
AcDbEntity
  8
AM_VIS
100
AcDbLine
 10
1287.112475603983
 20
883.2861572213181
 30
0.0
 11
1287.112475603983
 21
885.0791093730787
 31
0.0
  0
LINE
  5
6B72
330
1F
100
AcDbEntity
  8
AM_VIS
100
AcDbLine
 10
1287.112475603983
 20
890.9095985121803
 30
0.0
 11
1287.112475603983
 21
894.4955028157016
 31
0.0
  0
LINE
  5
6B73
330
1F
100
AcDbEntity
  8
AM_VIS
100
AcDbLine
 10
1287.112475603983
 20
900.3259919548032
 30
0.0
 11
1287.112475603983
 21
902.118944106564
 31
0.0
  0
LINE
  5
6B74
330
1F
100
AcDbEntity
  8
AM_VIS
100
AcDbLine
 10
1285.962475603983
 20
900.3259919548032
 30
0.0
 11
1285.962475603983
 21
902.118944106564
 31
0.0
  0
LINE
  5
6B75
330
1F
100
AcDbEntity
  8
AM_VIS
100
AcDbLine
 10
1285.962475603983
 20
900.3259919548032
 30
0.0
 11
1285.962475603983
 21
894.4955028157016
 31
0.0
  0
LINE
  5
6B76
330
1F
100
AcDbEntity
  8
AM_VIS
100
AcDbLine
 10
1285.962475603983
 20
890.9095985121803
 30
0.0
 11
1285.962475603983
 21
894.4955028157016
 31
0.0
  0
LINE
  5
6B77
330
1F
100
AcDbEntity
  8
AM_VIS
100
AcDbLine
 10
1285.962475603983
 20
890.9095985121803
 30
0.0
 11
1285.962475603983
 21
885.0791093730787
 31
0.0
  0
LINE
  5
6B78
330
1F
100
AcDbEntity
  8
AM_VIS
100
AcDbLine
 10
1285.962475603983
 20
883.2861572213181
 30
0.0
 11
1285.962475603983
 21
885.0791093730787
 31
0.0
  0
LINE
  5
6B79
330
1F
100
AcDbEntity
  8
AM_VIS
100
AcDbLine
 10
1284.462475603983
 20
885.0791093730787
 30
0.0
 11
1284.462475603983
 21
890.9095985121803
 31
0.0
  0
LINE
  5
6B7A
330
1F
100
AcDbEntity
  8
AM_VIS
100
AcDbLine
 10
1284.462475603983
 20
894.4955028157016
 30
0.0
 11
1284.462475603983
 21
900.3259919548034
 31
0.0
  0
LINE
  5
6B7B
330
1F
100
AcDbEntity
  8
AM_VIS
100
AcDbLine
 10
1284.462475603983
 20
885.0791093730787
 30
0.0
 11
1284.462475603983
 21
883.2861572213181
 31
0.0
  0
LINE
  5
6B7C
330
1F
100
AcDbEntity
  8
AM_VIS
100
AcDbLine
 10
1284.462475603983
 20
894.4955028157016
 30
0.0
 11
1284.462475603983
 21
890.9095985121803
 31
0.0
  0
LINE
  5
6B7D
330
1F
100
AcDbEntity
  8
AM_VIS
100
AcDbLine
 10
1284.462475603983
 20
902.118944106564
 30
0.0
 11
1284.462475603983
 21
900.3259919548032
 31
0.0
  0
LINE
  5
6B7E
330
1F
100
AcDbEntity
  8
AM_VIS
100
AcDbLine
 10
1281.612475603983
 20
900.3259919548032
 30
0.0
 11
1281.612475603983
 21
902.118944106564
 31
0.0
  0
LINE
  5
6B7F
330
1F
100
AcDbEntity
  8
AM_VIS
100
AcDbLine
 10
1281.612475603983
 20
890.9095985121803
 30
0.0
 11
1281.612475603983
 21
894.4955028157016
 31
0.0
  0
LINE
  5
6B80
330
1F
100
AcDbEntity
  8
AM_VIS
100
AcDbLine
 10
1281.612475603983
 20
883.2861572213181
 30
0.0
 11
1281.612475603983
 21
885.0791093730787
 31
0.0
  0
LINE
  5
6B81
330
1F
100
AcDbEntity
  8
AM_VIS
100
AcDbLine
 10
1281.412475603983
 20
885.202550663941
 30
0.0
 11
1281.412475603983
 21
900.2025506639411
 31
0.0
  0
LINE
  5
6B82
330
1F
100
AcDbEntity
  8
AM_VIS
100
AcDbLine
 10
1280.612475603983
 20
885.202550663941
 30
0.0
 11
1280.612475603983
 21
900.2025506639411
 31
0.0
  0
LINE
  5
6B83
330
1F
100
AcDbEntity
  8
AM_VIS
100
AcDbLine
 10
1287.612475603983
 20
885.9149447342735
 30
0.0
 11
1287.612475603983
 21
883.552550663941
 31
0.0
  0
LINE
  5
6B84
330
1F
100
AcDbEntity
  8
AM_VIS
100
AcDbLine
 10
1287.612475603983
 20
890.3401565936084
 30
0.0
 11
1287.612475603983
 21
885.9149447342735
 31
0.0
  0
LINE
  5
6B85
330
1F
100
AcDbEntity
  8
AM_VIS
100
AcDbLine
 10
1287.612475603983
 20
895.0649447342735
 30
0.0
 11
1287.612475603983
 21
890.3401565936084
 31
0.0
  0
LINE
  5
6B86
330
1F
100
AcDbEntity
  8
AM_VIS
100
AcDbLine
 10
1287.612475603983
 20
899.4901565936086
 30
0.0
 11
1287.612475603983
 21
895.0649447342733
 31
0.0
  0
LINE
  5
6B87
330
1F
100
AcDbEntity
  8
AM_VIS
100
AcDbLine
 10
1287.612475603983
 20
901.8525506639409
 30
0.0
 11
1287.612475603983
 21
899.4901565936086
 31
0.0
  0
ARC
  5
6B88
330
1F
100
AcDbEntity
  8
AM_VIS
100
AcDbCircle
 10
1285.212475603983
 20
899.702550663941
 30
0.0
 40
0.75
100
AcDbArc
 50
180.0
 51
0.0
  0
ARC
  5
6B89
330
1F
100
AcDbEntity
  8
AM_VIS
100
AcDbCircle
 10
1285.212475603983
 20
885.7025506639409
 30
0.0
 40
0.75
100
AcDbArc
 50
0.0
 51
180.0
  0
LINE
  5
6B8A
330
1F
100
AcDbEntity
  8
BORDER
100
AcDbLine
 10
1280.312475603983
 20
883.7025506639411
 30
0.0
 11
1281.548326461272
 21
883.7025506639411
 31
0.0
  0
LINE
  5
6B8B
330
1F
100
AcDbEntity
  8
BORDER
100
AcDbLine
 10
1284.462475603983
 20
883.7025506639411
 30
0.0
 11
1285.962475603983
 21
883.7025506639411
 31
0.0
  0
LINE
  5
6B8C
330
1F
100
AcDbEntity
  8
BORDER
100
AcDbLine
 10
1287.612475603983
 20
883.7025506639411
 30
0.0
 11
1293.112475603983
 21
883.7025506639411
 31
0.0
  0
LINE
  5
6B8E
330
1F
100
AcDbEntity
  8
AM_VIS
100
AcDbLine
 10
1371.601526134272
 20
980.3999252049957
 30
0.0
 11
1371.911657718915
 21
980.3999252049957
 31
0.0
  0
LINE
  5
6B8F
330
1F
100
AcDbEntity
  8
AM_VIS
100
AcDbLine
 10
1352.081657718916
 20
984.0999252049957
 30
0.0
 11
1352.081657718916
 21
1008.599925204995
 31
0.0
  0
LINE
  5
6B90
330
1F
100
AcDbEntity
  8
AM_VIS
100
AcDbLine
 10
1352.081657718916
 20
1008.599925204995
 30
0.0
 11
1374.081657718916
 21
1008.599925204995
 31
0.0
  0
LINE
  5
6B91
330
1F
100
AcDbEntity
  8
AM_VIS
100
AcDbLine
 10
1374.081657718916
 20
1008.599925204995
 30
0.0
 11
1374.081657718916
 21
984.0999252049957
 31
0.0
  0
LINE
  5
6B92
330
1F
100
AcDbEntity
  8
AM_VIS
100
AcDbLine
 10
1370.081657718916
 20
980.0999252049958
 30
0.0
 11
1356.081657718916
 21
980.0999252049958
 31
0.0
  0
ARC
  5
6B93
330
1F
100
AcDbEntity
  8
AM_VIS
100
AcDbCircle
 10
1356.081657718916
 20
984.0999252049957
 30
0.0
 40
3.999999999999999
100
AcDbArc
 50
180.0
 51
270.0
  0
ARC
  5
6B94
330
1F
100
AcDbEntity
  8
AM_VIS
100
AcDbCircle
 10
1370.081657718916
 20
984.0999252049957
 30
0.0
 40
3.999999999999999
100
AcDbArc
 50
270.0
 51
0.0
  0
LINE
  5
6B95
330
1F
100
AcDbEntity
  8
AM_VIS
100
AcDbLine
 10
1353.671427699392
 20
994.468181851731
 30
0.0
 11
1353.937640755934
 21
993.6567854526549
 31
0.0
  0
LINE
  5
6B96
330
1F
100
AcDbEntity
  8
AM_VIS
100
AcDbLine
 10
1353.67142769656
 20
987.7316685591477
 30
0.0
 11
1353.937640758102
 21
988.5430649565844
 31
0.0
  0
LINE
  5
6B97
330
1F
100
AcDbEntity
  8
AM_VIS
100
AcDbLine
 10
1355.459546885431
 20
984.6345552708346
 30
0.0
 11
1356.295343310542
 21
984.4594043539593
 31
0.0
  0
LINE
  5
6B98
330
1F
100
AcDbEntity
  8
AM_VIS
100
AcDbLine
 10
1360.723955173476
 20
981.9025441052557
 30
0.0
 11
1361.293538525631
 21
981.2662986236514
 31
0.0
  0
LINE
  5
6B99
330
1F
100
AcDbEntity
  8
AM_VIS
100
AcDbLine
 10
1360.723955171744
 20
1000.297306306234
 30
0.0
 11
1361.29353852781
 21
1000.933551784335
 31
0.0
  0
LINE
  5
6B9A
330
1F
100
AcDbEntity
  8
AM_VIS
100
AcDbLine
 10
1355.459546884784
 20
997.5652951420469
 30
0.0
 11
1356.295343310974
 21
997.7404460537835
 31
0.0
  0
LINE
  5
6B9B
330
1F
100
AcDbEntity
  8
AM_VIS
100
AcDbLine
 10
1364.86977691002
 20
981.2662986256567
 30
0.0
 11
1365.439360266086
 21
981.9025441037579
 31
0.0
  0
LINE
  5
6B9C
330
1F
100
AcDbEntity
  8
AM_VIS
100
AcDbLine
 10
1369.867972126857
 20
984.4594043562079
 30
0.0
 11
1370.703768553047
 21
984.6345552679443
 31
0.0
  0
LINE
  5
6B9D
330
1F
100
AcDbEntity
  8
AM_VIS
100
AcDbLine
 10
1369.867972127289
 20
997.7404460560322
 30
0.0
 11
1370.703768552401
 21
997.5652951391568
 31
0.0
  0
LINE
  5
6B9E
330
1F
100
AcDbEntity
  8
AM_VIS
100
AcDbLine
 10
1364.869776912201
 20
1000.93355178634
 30
0.0
 11
1365.439360264355
 21
1000.297306304736
 31
0.0
  0
LINE
  5
6B9F
330
1F
100
AcDbEntity
  8
AM_VIS
100
AcDbLine
 10
1372.22567467446
 20
988.5430649547942
 30
0.0
 11
1372.491887743506
 21
987.7316685598175
 31
0.0
  0
LINE
  5
6BA0
330
1F
100
AcDbEntity
  8
AM_VIS
100
AcDbLine
 10
1372.225674672297
 20
993.6567854559477
 30
0.0
 11
1372.491887746332
 21
994.4681818492886
 31
0.0
  0
ARC
  5
6BA1
330
1F
100
AcDbEntity
  8
AM_VIS
100
AcDbCircle
 10
1363.081657718916
 20
991.0999252049958
 30
0.0
 40
10.0
100
AcDbArc
 50
19.67128921670644
 51
40.32871078329621
  0
ARC
  5
6BA2
330
1F
100
AcDbEntity
  8
AM_VIS
100
AcDbCircle
 10
1363.081657718916
 20
991.0999252049958
 30
0.0
 40
10.0
100
AcDbArc
 50
319.6712892167038
 51
340.3287107832936
  0
ARC
  5
6BA3
330
1F
100
AcDbEntity
  8
AM_VIS
100
AcDbCircle
 10
1363.081657718916
 20
991.0999252049958
 30
0.0
 40
10.0
100
AcDbArc
 50
259.6712892167039
 51
280.3287107832961
  0
ARC
  5
6BA4
330
1F
100
AcDbEntity
  8
AM_VIS
100
AcDbCircle
 10
1363.081657718916
 20
991.0999252049958
 30
0.0
 40
10.0
100
AcDbArc
 50
79.67128921670393
 51
100.328710783296
  0
ARC
  5
6BA5
330
1F
100
AcDbEntity
  8
AM_VIS
100
AcDbCircle
 10
1363.081657718916
 20
991.0999252049958
 30
0.0
 40
10.0
100
AcDbArc
 50
199.6712892167064
 51
220.3287107832962
  0
ARC
  5
6BA6
330
1F
100
AcDbEntity
  8
AM_VIS
100
AcDbCircle
 10
1363.081657718916
 20
991.0999252049958
 30
0.0
 40
10.0
100
AcDbArc
 50
139.6712892167037
 51
160.3287107832935
  0
ARC
  5
6BA7
330
1F
100
AcDbEntity
  8
AM_VIS
100
AcDbCircle
 10
1363.081657718916
 20
991.0999252049958
 30
0.0
 40
10.0
100
AcDbArc
 50
280.3287107832961
 51
319.6712892167038
  0
ARC
  5
6BA8
330
1F
100
AcDbEntity
  8
AM_VIS
100
AcDbCircle
 10
1363.081657718916
 20
991.0999252049958
 30
0.0
 40
10.0
100
AcDbArc
 50
220.3287107832962
 51
259.6712892167039
  0
ARC
  5
6BA9
330
1F
100
AcDbEntity
  8
AM_VIS
100
AcDbCircle
 10
1363.081657718916
 20
991.0999252049958
 30
0.0
 40
10.0
100
AcDbArc
 50
160.3287107832935
 51
199.6712892167064
  0
ARC
  5
6BAA
330
1F
100
AcDbEntity
  8
AM_VIS
100
AcDbCircle
 10
1363.081657718916
 20
991.0999252049958
 30
0.0
 40
10.0
100
AcDbArc
 50
100.328710783296
 51
139.6712892167037
  0
ARC
  5
6BAB
330
1F
100
AcDbEntity
  8
AM_VIS
100
AcDbCircle
 10
1363.081657718916
 20
991.0999252049958
 30
0.0
 40
10.0
100
AcDbArc
 50
40.32871078329621
 51
79.67128921670393
  0
ARC
  5
6BAC
330
1F
100
AcDbEntity
  8
AM_VIS
100
AcDbCircle
 10
1363.081657718916
 20
991.0999252049958
 30
0.0
 40
10.0
100
AcDbArc
 50
340.3287107832936
 51
19.67128921670644
  0
ARC
  5
6BAD
330
1F
100
AcDbEntity
  8
AM_VIS
100
AcDbCircle
 10
1363.081657718916
 20
991.0999252049958
 30
0.0
 40
9.5
100
AcDbArc
 50
75.6009953934959
 51
104.3990046065183
  0
ARC
  5
6BAE
330
1F
100
AcDbEntity
  8
AM_VIS
100
AcDbCircle
 10
1372.231657718915
 20
1006.948190094251
 30
0.0
 40
9.5
100
AcDbArc
 50
224.3990046065129
 51
255.6009953934959
  0
ARC
  5
6BAF
330
1F
100
AcDbEntity
  8
AM_VIS
100
AcDbCircle
 10
1363.081657718916
 20
991.0999252049958
 30
0.0
 40
9.5
100
AcDbArc
 50
15.60099539348718
 51
44.39900460651293
  0
ARC
  5
6BB0
330
1F
100
AcDbEntity
  8
AM_VIS
100
AcDbCircle
 10
1381.381657718916
 20
991.0999252049959
 30
0.0
 40
9.5
100
AcDbArc
 50
164.3990046065065
 51
195.6009953934872
  0
ARC
  5
6BB1
330
1F
100
AcDbEntity
  8
AM_VIS
100
AcDbCircle
 10
1363.081657718916
 20
991.0999252049958
 30
0.0
 40
9.5
100
AcDbArc
 50
315.6009953934871
 51
344.3990046065128
  0
ARC
  5
6BB2
330
1F
100
AcDbEntity
  8
AM_VIS
100
AcDbCircle
 10
1372.231657718916
 20
975.2516603157404
 30
0.0
 40
9.500000000000001
100
AcDbArc
 50
104.3990046065183
 51
135.600995393487
  0
ARC
  5
6BB3
330
1F
100
AcDbEntity
  8
AM_VIS
100
AcDbCircle
 10
1363.081657718916
 20
991.0999252049958
 30
0.0
 40
9.5
100
AcDbArc
 50
255.6009953934817
 51
284.3990046065183
  0
ARC
  5
6BB4
330
1F
100
AcDbEntity
  8
AM_VIS
100
AcDbCircle
 10
1353.931657718915
 20
975.2516603157404
 30
0.0
 40
9.5
100
AcDbArc
 50
44.39900460651293
 51
75.60099539348167
  0
ARC
  5
6BB5
330
1F
100
AcDbEntity
  8
AM_VIS
100
AcDbCircle
 10
1363.081657718916
 20
991.0999252049958
 30
0.0
 40
9.5
100
AcDbArc
 50
195.6009953934872
 51
224.3990046065129
  0
ARC
  5
6BB6
330
1F
100
AcDbEntity
  8
AM_VIS
100
AcDbCircle
 10
1344.781657718916
 20
991.0999252049958
 30
0.0
 40
9.5
100
AcDbArc
 50
344.3990046065128
 51
15.60099539348718
  0
ARC
  5
6BB7
330
1F
100
AcDbEntity
  8
AM_VIS
100
AcDbCircle
 10
1363.081657718916
 20
991.0999252049958
 30
0.0
 40
9.5
100
AcDbArc
 50
135.600995393487
 51
164.3990046065065
  0
ARC
  5
6BB8
330
1F
100
AcDbEntity
  8
AM_VIS
100
AcDbCircle
 10
1353.931657718915
 20
1006.948190094251
 30
0.0
 40
9.5
100
AcDbArc
 50
284.3990046065041
 51
315.6009953934871
  0
CIRCLE
  5
6BB9
330
1F
100
AcDbEntity
  8
AM_VIS
100
AcDbCircle
 10
1363.081657718916
 20
991.0999252049958
 30
0.0
 40
1.25
  0
LINE
  5
6BBA
330
1F
100
AcDbEntity
  8
0
100
AcDbLine
 10
1373.581657718915
 20
1008.599925204995
 30
0.0
 11
1352.581657718916
 21
1008.599925204995
 31
0.0
  0
LINE
  5
6BBB
330
1F
100
AcDbEntity
  8
AM_VIS
100
AcDbLine
 10
1373.581657718915
 20
1035.099925204995
 30
0.0
 11
1373.581657718915
 21
1008.599925204995
 31
0.0
  0
LINE
  5
6BBC
330
1F
100
AcDbEntity
  8
AM_VIS
100
AcDbLine
 10
1368.738511968408
 20
1038.599925204995
 30
0.0
 11
1370.081657718916
 21
1038.599925204995
 31
0.0
  0
LINE
  5
6BBD
330
1F
100
AcDbEntity
  8
AM_VIS
100
AcDbLine
 10
1356.081657718916
 20
1038.599925204995
 30
0.0
 11
1357.424803469423
 21
1038.599925204995
 31
0.0
  0
LINE
  5
6BBE
330
1F
100
AcDbEntity
  8
AM_VIS
100
AcDbLine
 10
1352.581657718916
 20
1008.599925204995
 30
0.0
 11
1352.581657718916
 21
1035.099925204995
 31
0.0
  0
LINE
  5
6BBF
330
1F
100
AcDbEntity
  8
AM_VIS
100
AcDbLine
 10
1371.373219694804
 20
1035.099925204995
 30
0.0
 11
1373.581657718915
 21
1035.099925204995
 31
0.0
  0
LINE
  5
6BC0
330
1F
100
AcDbEntity
  8
AM_VIS
100
AcDbLine
 10
1370.081657718916
 20
1038.599925204995
 30
0.0
 11
1370.081657718916
 21
1037.256779454488
 31
0.0
  0
ARC
  5
6BC1
330
1F
100
AcDbEntity
  8
AM_VIS
100
AcDbCircle
 10
1363.081657718916
 20
1031.599925204996
 30
0.0
 40
9.0
100
AcDbArc
 50
182.7339555492662
 51
237.2660444507367
  0
ARC
  5
6BC2
330
1F
100
AcDbEntity
  8
AM_VIS
100
AcDbCircle
 10
1363.081657718916
 20
1031.599925204996
 30
0.0
 40
9.0
100
AcDbArc
 50
242.7339555492597
 51
297.2660444507403
  0
ARC
  5
6BC3
330
1F
100
AcDbEntity
  8
AM_VIS
100
AcDbCircle
 10
1363.081657718916
 20
1031.599925204996
 30
0.0
 40
9.0
100
AcDbArc
 50
302.7339555492633
 51
357.2660444507338
  0
ARC
  5
6BC4
330
1F
100
AcDbEntity
  8
AM_VIS
100
AcDbCircle
 10
1363.081657718916
 20
1031.599925204996
 30
0.0
 40
9.0
100
AcDbArc
 50
2.733955549266189
 51
57.26604445073669
  0
ARC
  5
6BC5
330
1F
100
AcDbEntity
  8
AM_VIS
100
AcDbCircle
 10
1363.081657718916
 20
1031.599925204996
 30
0.0
 40
9.0
100
AcDbArc
 50
62.73395554925976
 51
117.2660444507402
  0
ARC
  5
6BC6
330
1F
100
AcDbEntity
  8
AM_VIS
100
AcDbCircle
 10
1363.081657718916
 20
1031.599925204996
 30
0.0
 40
9.0
100
AcDbArc
 50
122.7339555492633
 51
177.2660444507338
  0
ARC
  5
6BC7
330
1F
100
AcDbEntity
  8
AM_VIS
100
AcDbCircle
 10
1356.081657718916
 20
1035.099925204995
 30
0.0
 40
3.5
100
AcDbArc
 50
90.0
 51
180.0
  0
LINE
  5
6BC8
330
1F
100
AcDbEntity
  8
AM_VIS
100
AcDbLine
 10
1352.581657718916
 20
1035.099925204995
 30
0.0
 11
1354.790095743027
 21
1035.099925204995
 31
0.0
  0
LINE
  5
6BC9
330
1F
100
AcDbEntity
  8
AM_VIS
100
AcDbLine
 10
1356.081657718916
 20
1038.599925204995
 30
0.0
 11
1356.081657718916
 21
1037.256779454488
 31
0.0
  0
ARC
  5
6BCA
330
1F
100
AcDbEntity
  8
AM_VIS
100
AcDbCircle
 10
1370.081657718916
 20
1035.099925204995
 30
0.0
 40
3.5
100
AcDbArc
 50
0.0
 51
90.0
  0
CIRCLE
  5
6BCB
330
1F
100
AcDbEntity
  8
AM_VIS
100
AcDbCircle
 10
1363.081657718916
 20
1031.599925204996
 30
0.0
 40
5.0
  0
LINE
  5
6BCC
330
1F
100
AcDbEntity
  8
AM_VIS
100
AcDbLine
 10
1372.31926202595
 20
1031.599925204996
 30
0.0
 11
1370.884860949191
 21
1029.115469661618
 31
0.0
  0
LINE
  5
6BCD
330
1F
100
AcDbEntity
  8
AM_VIS
100
AcDbLine
 10
1370.884860949191
 20
1034.084380748373
 30
0.0
 11
1372.31926202595
 21
1031.599925204996
 31
0.0
  0
LINE
  5
6BCE
330
1F
100
AcDbEntity
  8
AM_VIS
100
AcDbLine
 10
1370.201848247299
 20
1034.267393450265
 30
0.0
 11
1370.884860949191
 21
1034.084380748373
 31
0.0
  0
LINE
  5
6BCF
330
1F
100
AcDbEntity
  8
AM_VIS
100
AcDbLine
 10
1368.951848247299
 20
1036.432456959726
 30
0.0
 11
1370.201848247299
 21
1034.267393450265
 31
0.0
  0
LINE
  5
6BD0
330
1F
100
AcDbEntity
  8
AM_VIS
100
AcDbLine
 10
1369.134860949191
 20
1037.115469661618
 30
0.0
 11
1368.951848247299
 21
1036.432456959726
 31
0.0
  0
LINE
  5
6BD1
330
1F
100
AcDbEntity
  8
AM_VIS
100
AcDbLine
 10
1367.700459872433
 20
1039.599925204996
 30
0.0
 11
1369.134860949191
 21
1037.115469661618
 31
0.0
  0
LINE
  5
6BD2
330
1F
100
AcDbEntity
  8
AM_VIS
100
AcDbLine
 10
1364.831657718916
 20
1039.599925204996
 30
0.0
 11
1367.700459872433
 21
1039.599925204996
 31
0.0
  0
LINE
  5
6BD3
330
1F
100
AcDbEntity
  8
AM_VIS
100
AcDbLine
 10
1364.331657718916
 20
1039.099925204996
 30
0.0
 11
1364.831657718916
 21
1039.599925204996
 31
0.0
  0
LINE
  5
6BD4
330
1F
100
AcDbEntity
  8
AM_VIS
100
AcDbLine
 10
1361.831657718916
 20
1039.099925204996
 30
0.0
 11
1364.331657718916
 21
1039.099925204996
 31
0.0
  0
LINE
  5
6BD5
330
1F
100
AcDbEntity
  8
AM_VIS
100
AcDbLine
 10
1361.331657718916
 20
1039.599925204996
 30
0.0
 11
1361.831657718916
 21
1039.099925204996
 31
0.0
  0
LINE
  5
6BD6
330
1F
100
AcDbEntity
  8
AM_VIS
100
AcDbLine
 10
1358.462855565399
 20
1039.599925204996
 30
0.0
 11
1361.331657718916
 21
1039.599925204996
 31
0.0
  0
LINE
  5
6BD7
330
1F
100
AcDbEntity
  8
AM_VIS
100
AcDbLine
 10
1357.02845448864
 20
1037.115469661618
 30
0.0
 11
1358.462855565399
 21
1039.599925204996
 31
0.0
  0
LINE
  5
6BD8
330
1F
100
AcDbEntity
  8
AM_VIS
100
AcDbLine
 10
1357.211467190533
 20
1036.432456959726
 30
0.0
 11
1357.02845448864
 21
1037.115469661618
 31
0.0
  0
LINE
  5
6BD9
330
1F
100
AcDbEntity
  8
AM_VIS
100
AcDbLine
 10
1355.961467190532
 20
1034.267393450265
 30
0.0
 11
1357.211467190533
 21
1036.432456959726
 31
0.0
  0
LINE
  5
6BDA
330
1F
100
AcDbEntity
  8
AM_VIS
100
AcDbLine
 10
1355.27845448864
 20
1034.084380748373
 30
0.0
 11
1355.961467190532
 21
1034.267393450265
 31
0.0
  0
LINE
  5
6BDB
330
1F
100
AcDbEntity
  8
AM_VIS
100
AcDbLine
 10
1353.844053411882
 20
1031.599925204996
 30
0.0
 11
1355.27845448864
 21
1034.084380748373
 31
0.0
  0
LINE
  5
6BDC
330
1F
100
AcDbEntity
  8
AM_VIS
100
AcDbLine
 10
1355.27845448864
 20
1029.115469661618
 30
0.0
 11
1353.844053411882
 21
1031.599925204996
 31
0.0
  0
LINE
  5
6BDD
330
1F
100
AcDbEntity
  8
AM_VIS
100
AcDbLine
 10
1355.961467190532
 20
1028.932456959726
 30
0.0
 11
1355.27845448864
 21
1029.115469661618
 31
0.0
  0
LINE
  5
6BDE
330
1F
100
AcDbEntity
  8
AM_VIS
100
AcDbLine
 10
1357.211467190533
 20
1026.767393450265
 30
0.0
 11
1355.961467190532
 21
1028.932456959726
 31
0.0
  0
LINE
  5
6BDF
330
1F
100
AcDbEntity
  8
AM_VIS
100
AcDbLine
 10
1357.02845448864
 20
1026.084380748373
 30
0.0
 11
1357.211467190533
 21
1026.767393450265
 31
0.0
  0
LINE
  5
6BE0
330
1F
100
AcDbEntity
  8
AM_VIS
100
AcDbLine
 10
1358.462855565399
 20
1023.599925204996
 30
0.0
 11
1357.02845448864
 21
1026.084380748373
 31
0.0
  0
LINE
  5
6BE1
330
1F
100
AcDbEntity
  8
AM_VIS
100
AcDbLine
 10
1361.331657718916
 20
1023.599925204996
 30
0.0
 11
1358.462855565399
 21
1023.599925204996
 31
0.0
  0
LINE
  5
6BE2
330
1F
100
AcDbEntity
  8
AM_VIS
100
AcDbLine
 10
1361.831657718916
 20
1024.099925204996
 30
0.0
 11
1361.331657718916
 21
1023.599925204996
 31
0.0
  0
LINE
  5
6BE3
330
1F
100
AcDbEntity
  8
AM_VIS
100
AcDbLine
 10
1364.331657718915
 20
1024.099925204996
 30
0.0
 11
1361.831657718916
 21
1024.099925204996
 31
0.0
  0
LINE
  5
6BE4
330
1F
100
AcDbEntity
  8
AM_VIS
100
AcDbLine
 10
1364.831657718916
 20
1023.599925204996
 30
0.0
 11
1364.331657718915
 21
1024.099925204996
 31
0.0
  0
LINE
  5
6BE5
330
1F
100
AcDbEntity
  8
AM_VIS
100
AcDbLine
 10
1367.700459872433
 20
1023.599925204996
 30
0.0
 11
1364.831657718916
 21
1023.599925204996
 31
0.0
  0
LINE
  5
6BE6
330
1F
100
AcDbEntity
  8
AM_VIS
100
AcDbLine
 10
1369.134860949191
 20
1026.084380748373
 30
0.0
 11
1367.700459872433
 21
1023.599925204996
 31
0.0
  0
LINE
  5
6BE7
330
1F
100
AcDbEntity
  8
AM_VIS
100
AcDbLine
 10
1368.951848247299
 20
1026.767393450265
 30
0.0
 11
1369.134860949191
 21
1026.084380748373
 31
0.0
  0
LINE
  5
6BE8
330
1F
100
AcDbEntity
  8
AM_VIS
100
AcDbLine
 10
1370.884860949191
 20
1029.115469661618
 30
0.0
 11
1370.201848247299
 21
1028.932456959726
 31
0.0
  0
LINE
  5
6BE9
330
1F
100
AcDbEntity
  8
AM_VIS
100
AcDbLine
 10
1370.201848247299
 20
1028.932456959726
 30
0.0
 11
1368.951848247299
 21
1026.767393450265
 31
0.0
  0
LINE
  5
6BEA
330
1F
100
AcDbEntity
  8
0
100
AcDbLine
 10
1373.581657718915
 20
1008.599925204995
 30
0.0
 11
1352.581657718916
 21
1008.599925204995
 31
0.0
  0
LINE
  5
6BEB
330
1F
100
AcDbEntity
  8
0
100
AcDbLine
 10
1373.581657718915
 20
1010.099925204996
 30
0.0
 11
1352.581657718916
 21
1010.099925204996
 31
0.0
  0
LINE
  5
6BEC
330
1F
100
AcDbEntity
  8
AM_7
100
AcDbLine
 10
1363.081657718916
 20
1031.599925204996
 30
0.0
 11
1353.034579110034
 21
1031.599925204996
 31
0.0
1001
GENIUS_GENOREF_13
1005
6BF5
  0
LINE
  5
6BED
330
1F
100
AcDbEntity
  8
AM_7
100
AcDbLine
 10
1363.081657718916
 20
1031.599925204996
 30
0.0
 11
1363.081657718916
 21
1041.647003813877
 31
0.0
1001
GENIUS_GENOREF_13
1005
6BF5
  0
LINE
  5
6BEE
330
1F
100
AcDbEntity
  8
AM_7
100
AcDbLine
 10
1363.081657718916
 20
1031.599925204996
 30
0.0
 11
1373.128736327797
 21
1031.599925204996
 31
0.0
1001
GENIUS_GENOREF_13
1005
6BF5
  0
LINE
  5
6BEF
330
1F
100
AcDbEntity
  8
AM_7
100
AcDbLine
 10
1363.081657718916
 20
1031.599925204996
 30
0.0
 11
1363.081657718916
 21
1021.552846596114
 31
0.0
1001
GENIUS_GENOREF_13
1005
6BF5
  0
LINE
  5
6BF0
330
1F
100
AcDbEntity
  8
AM_7
100
AcDbLine
 10
1363.081657718916
 20
991.0999252049958
 30
0.0
 11
1375.398932587404
 21
991.0999252049958
 31
0.0
1001
GENIUS_GENOREF_13
1005
6BF4
  0
LINE
  5
6BF1
330
1F
100
AcDbEntity
  8
AM_7
100
AcDbLine
 10
1363.081657718916
 20
991.0999252049958
 30
0.0
 11
1363.081657718916
 21
1003.417200073484
 31
0.0
1001
GENIUS_GENOREF_13
1005
6BF4
  0
LINE
  5
6BF2
330
1F
100
AcDbEntity
  8
AM_7
100
AcDbLine
 10
1363.081657718916
 20
991.0999252049958
 30
0.0
 11
1350.764382850427
 21
991.0999252049958
 31
0.0
1001
GENIUS_GENOREF_13
1005
6BF4
  0
LINE
  5
6BF3
330
1F
100
AcDbEntity
  8
AM_7
100
AcDbLine
 10
1363.081657718916
 20
991.0999252049958
 30
0.0
 11
1363.081657718916
 21
978.7826503365071
 31
0.0
1001
GENIUS_GENOREF_13
1005
6BF4
  0
POINT
  5
6BF4
330
1F
100
AcDbEntity
  8
0
 60
     1
100
AcDbPoint
 10
325.1470996469386
 20
9.490251353128769
 30
0.0
1001
GENIUS_GENOBJ-N-CRS_13
1002
{
1000
OWNER
1000
GEN
1002
}
1001
GENIUS_GENOENT_13
1002
{
1000
MYREF
1005
6BF4
1002
}
1002
{
1000
GRP
1005
0
1002
}
1001
GENIUS_GENOLIS_13
1002
{
1000
ENT
1005
6BF3
1005
6BF2
1005
6BF1
1005
6BF0
1002
}
1001
GENIUS_GENODEF_13
1002
{
1000
HIER
1070
    10
1002
}
1002
{
1000
MANEDIT
1070
     0
1002
}
1002
{
1000
NOSEL
1070
     0
1002
}
1002
{
1000
BEHIND
1070
     0
1002
}
1002
{
1000
OTHER
1070
     0
1002
}
1002
{
1000
REACTOR
1002
}
  0
POINT
  5
6BF5
330
1F
100
AcDbEntity
  8
0
 60
     1
100
AcDbPoint
 10
689.5898242875813
 20
21.22002688613861
 30
0.0
1001
GENIUS_GENODEF_13
1002
{
1000
HIER
1070
    10
1002
}
1002
{
1000
MANEDIT
1070
     0
1002
}
1002
{
1000
NOSEL
1070
     0
1002
}
1002
{
1000
BEHIND
1070
     0
1002
}
1002
{
1000
OTHER
1070
     0
1002
}
1002
{
1000
REACTOR
1002
}
1001
GENIUS_GENOBJ-N-CRS_13
1002
{
1000
OWNER
1000
GEN
1002
}
1001
GENIUS_GENOLIS_13
1002
{
1000
ENT
1005
6BEF
1005
6BEE
1005
6BED
1005
6BEC
1002
}
1001
GENIUS_GENOENT_13
1002
{
1000
MYREF
1005
6BF5
1002
}
1002
{
1000
GRP
1005
0
1002
}
  0
LINE
  5
6C04
330
1F
100
AcDbEntity
  8
AM_7
100
AcDbLine
 10
1161.112475603983
 20
892.7025506639411
 30
0.0
 11
1171.262475603984
 21
892.7025506639411
 31
0.0
1001
GENIUS_GENOREF_13
1005
6C08
  0
LINE
  5
6C05
330
1F
100
AcDbEntity
  8
AM_7
100
AcDbLine
 10
1161.112475603983
 20
892.7025506639411
 30
0.0
 11
1161.112475603983
 21
902.8525506639413
 31
0.0
1001
GENIUS_GENOREF_13
1005
6C08
  0
LINE
  5
6C06
330
1F
100
AcDbEntity
  8
AM_7
100
AcDbLine
 10
1161.112475603983
 20
892.7025506639411
 30
0.0
 11
1150.962475603984
 21
892.7025506639411
 31
0.0
1001
GENIUS_GENOREF_13
1005
6C08
  0
LINE
  5
6C07
330
1F
100
AcDbEntity
  8
AM_7
100
AcDbLine
 10
1161.112475603983
 20
892.7025506639411
 30
0.0
 11
1161.112475603983
 21
882.5525506639412
 31
0.0
1001
GENIUS_GENOREF_13
1005
6C08
  0
POINT
  5
6C08
330
1F
100
AcDbEntity
  8
0
 60
     1
100
AcDbPoint
 10
0.0
 20
0.0
 30
0.0
1001
GENIUS_GENOLIS_13
1002
{
1000
ENT
1005
6C07
1005
6C06
1005
6C05
1005
6C04
1002
}
1001
GENIUS_GENOBJ-N-CRS_13
1002
{
1000
OWNER
1000
GEN
1002
}
1001
GENIUS_GENOENT_13
1002
{
1000
MYREF
1005
6C08
1002
}
1002
{
1000
GRP
1005
0
1002
}
1001
GENIUS_GENODEF_13
1002
{
1000
HIER
1070
    10
1002
}
1002
{
1000
MANEDIT
1070
     0
1002
}
1002
{
1000
NOSEL
1070
     0
1002
}
1002
{
1000
BEHIND
1070
     0
1002
}
1002
{
1000
OTHER
1070
     0
1002
}
1002
{
1000
REACTOR
1002
}
  0
LINE
  5
6C16
330
1F
100
AcDbEntity
  8
AM_7
100
AcDbLine
 10
1187.112475603983
 20
892.7025506639411
 30
0.0
 11
1197.262475603984
 21
892.7025506639411
 31
0.0
1001
GENIUS_GENOREF_13
1005
6C1A
  0
LINE
  5
6C17
330
1F
100
AcDbEntity
  8
AM_7
100
AcDbLine
 10
1187.112475603983
 20
892.7025506639411
 30
0.0
 11
1187.112475603983
 21
902.8525506639413
 31
0.0
1001
GENIUS_GENOREF_13
1005
6C1A
  0
LINE
  5
6C18
330
1F
100
AcDbEntity
  8
AM_7
100
AcDbLine
 10
1187.112475603983
 20
892.7025506639411
 30
0.0
 11
1176.962475603984
 21
892.7025506639411
 31
0.0
1001
GENIUS_GENOREF_13
1005
6C1A
  0
LINE
  5
6C19
330
1F
100
AcDbEntity
  8
AM_7
100
AcDbLine
 10
1187.112475603983
 20
892.7025506639411
 30
0.0
 11
1187.112475603983
 21
882.5525506639412
 31
0.0
1001
GENIUS_GENOREF_13
1005
6C1A
  0
POINT
  5
6C1A
330
1F
100
AcDbEntity
  8
0
 60
     1
100
AcDbPoint
 10
0.0
 20
0.0
 30
0.0
1001
GENIUS_GENOLIS_13
1002
{
1000
ENT
1005
6C19
1005
6C18
1005
6C17
1005
6C16
1002
}
1001
GENIUS_GENOENT_13
1002
{
1000
MYREF
1005
6C1A
1002
}
1002
{
1000
GRP
1005
0
1002
}
1001
GENIUS_GENOBJ-N-CRS_13
1002
{
1000
OWNER
1000
GEN
1002
}
1001
GENIUS_GENODEF_13
1002
{
1000
HIER
1070
    10
1002
}
1002
{
1000
MANEDIT
1070
     0
1002
}
1002
{
1000
NOSEL
1070
     0
1002
}
1002
{
1000
BEHIND
1070
     0
1002
}
1002
{
1000
OTHER
1070
     0
1002
}
1002
{
1000
REACTOR
1002
}
  0
LINE
  5
6C28
330
1F
100
AcDbEntity
  8
AM_7
100
AcDbLine
 10
1213.112475603984
 20
892.7025506639411
 30
0.0
 11
1223.262475603984
 21
892.7025506639411
 31
0.0
1001
GENIUS_GENOREF_13
1005
6C2C
  0
LINE
  5
6C29
330
1F
100
AcDbEntity
  8
AM_7
100
AcDbLine
 10
1213.112475603984
 20
892.7025506639411
 30
0.0
 11
1213.112475603984
 21
902.8525506639413
 31
0.0
1001
GENIUS_GENOREF_13
1005
6C2C
  0
LINE
  5
6C2A
330
1F
100
AcDbEntity
  8
AM_7
100
AcDbLine
 10
1213.112475603984
 20
892.7025506639411
 30
0.0
 11
1202.962475603984
 21
892.7025506639411
 31
0.0
1001
GENIUS_GENOREF_13
1005
6C2C
  0
LINE
  5
6C2B
330
1F
100
AcDbEntity
  8
AM_7
100
AcDbLine
 10
1213.112475603984
 20
892.7025506639411
 30
0.0
 11
1213.112475603984
 21
882.5525506639412
 31
0.0
1001
GENIUS_GENOREF_13
1005
6C2C
  0
POINT
  5
6C2C
330
1F
100
AcDbEntity
  8
0
 60
     1
100
AcDbPoint
 10
0.0
 20
0.0
 30
0.0
1001
GENIUS_GENOBJ-N-CRS_13
1002
{
1000
OWNER
1000
GEN
1002
}
1001
GENIUS_GENOENT_13
1002
{
1000
MYREF
1005
6C2C
1002
}
1002
{
1000
GRP
1005
0
1002
}
1001
GENIUS_GENODEF_13
1002
{
1000
HIER
1070
    10
1002
}
1002
{
1000
MANEDIT
1070
     0
1002
}
1002
{
1000
NOSEL
1070
     0
1002
}
1002
{
1000
BEHIND
1070
     0
1002
}
1002
{
1000
OTHER
1070
     0
1002
}
1002
{
1000
REACTOR
1002
}
1001
GENIUS_GENOLIS_13
1002
{
1000
ENT
1005
6C2B
1005
6C2A
1005
6C29
1005
6C28
1002
}
  0
LINE
  5
6F76
330
1F
100
AcDbEntity
  8
AM_VIS
100
AcDbLine
 10
1221.612475603984
 20
975.2499252049958
 30
0.0
 11
1216.612475603984
 21
975.2499252049958
 31
0.0
  0
LINE
  5
6F77
330
1F
100
AcDbEntity
  8
AM_VIS
100
AcDbLine
 10
1153.612475603984
 20
998.5999252049957
 30
0.0
 11
1187.112475603983
 21
998.5999252049957
 31
0.0
  0
LINE
  5
6F78
330
1F
100
AcDbEntity
  8
AM_VIS
100
AcDbLine
 10
1158.901167454425
 20
1006.599925204995
 30
0.0
 11
1153.612475603984
 21
1006.599925204995
 31
0.0
  0
LINE
  5
6F79
330
1F
100
AcDbEntity
  8
AM_VIS
100
AcDbLine
 10
1162.112475603984
 20
1008.563696055422
 30
0.0
 11
1152.612475603984
 21
1008.563696055422
 31
0.0
  0
LINE
  5
6F7A
330
1F
100
AcDbEntity
  8
AM_VIS
100
AcDbLine
 10
1197.612475603984
 20
1010.299925204996
 30
0.0
 11
1189.612475603984
 21
1010.299925204996
 31
0.0
  0
LINE
  5
6F7B
330
1F
100
AcDbEntity
  8
AM_VIS
100
AcDbLine
 10
1197.612475603984
 20
1014.299925204996
 30
0.0
 11
1197.612475603984
 21
1010.299925204996
 31
0.0
  0
LINE
  5
6F7C
330
1F
100
AcDbEntity
  8
AM_VIS
100
AcDbLine
 10
1189.612475603984
 20
1010.299925204996
 30
0.0
 11
1189.612475603984
 21
1014.299925204996
 31
0.0
  0
LINE
  5
6F7D
330
1F
100
AcDbEntity
  8
AM_VIS
100
AcDbLine
 10
1152.612475603984
 20
1011.299925204996
 30
0.0
 11
1152.612475603984
 21
1006.099925204996
 31
0.0
  0
LINE
  5
6F7E
330
1F
100
AcDbEntity
  8
AM_VIS
100
AcDbLine
 10
1152.612475603984
 20
1006.099925204996
 30
0.0
 11
1152.612475603984
 21
999.0999252049958
 31
0.0
  0
LINE
  5
6F7F
330
1F
100
AcDbEntity
  8
AM_VIS
100
AcDbLine
 10
1152.612475603984
 20
999.0999252049958
 30
0.0
 11
1152.612475603984
 21
970.8999252049958
 31
0.0
  0
LINE
  5
6F80
330
1F
100
AcDbEntity
  8
AM_VIS
100
AcDbLine
 10
1168.862475603984
 20
970.8999252049958
 30
0.0
 11
1152.612475603984
 21
970.8999252049958
 31
0.0
  0
LINE
  5
6F81
330
1F
100
AcDbEntity
  8
AM_VIS
100
AcDbLine
 10
1169.862475603983
 20
971.8999252049957
 30
0.0
 11
1169.862475603983
 21
972.5999252049957
 31
0.0
  0
LINE
  5
6F82
330
1F
100
AcDbEntity
  8
AM_VIS
100
AcDbLine
 10
1178.362475603984
 20
972.5999252049957
 30
0.0
 11
1178.362475603984
 21
971.8999252049957
 31
0.0
  0
LINE
  5
6F83
330
1F
100
AcDbEntity
  8
AM_VIS
100
AcDbLine
 10
1195.80405361908
 20
974.5999252049957
 30
0.0
 11
1190.112475603984
 21
974.5999252049957
 31
0.0
  0
LINE
  5
6F84
330
1F
100
AcDbEntity
  8
AM_VIS
100
AcDbLine
 10
1221.612475603984
 20
970.8999252049958
 30
0.0
 11
1205.362475603984
 21
970.8999252049958
 31
0.0
  0
LINE
  5
6F85
330
1F
100
AcDbEntity
  8
AM_VIS
100
AcDbLine
 10
1221.612475603984
 20
970.8999252049958
 30
0.0
 11
1221.612475603984
 21
1010.299925204996
 31
0.0
  0
LINE
  5
6F86
330
1F
100
AcDbEntity
  8
AM_VIS
100
AcDbLine
 10
1191.112475603984
 20
1006.049925204996
 30
0.0
 11
1191.112475603984
 21
1002.599925204996
 31
0.0
  0
SPLINE
  5
6F87
330
1F
100
AcDbEntity
  8
AM_VIS
100
AcDbSpline
210
0.0
220
0.0
230
1.0
 70
     8
 71
     3
 72
    10
 73
     6
 74
     0
 42
0.0000000001
 43
0.0000000001
 40
-1.896800349551322
 40
-1.896800349551322
 40
-1.896800349551322
 40
-1.896800349551322
 40
-1.895154008054369
 40
-1.895154008054369
 40
-1.888306925220645
 40
-1.888306925220645
 40
-1.888306925220645
 40
-1.888306925220645
 10
1191.112487284009
 20
1002.740091416254
 30
0.0
 10
1191.112485765204
 20
1002.740091343848
 30
0.0
 10
1191.112484395089
 20
1002.740089726188
 30
0.0
 10
1191.112478092013
 20
1002.74007341278
 30
0.0
 10
1191.112475603984
 20
1002.740033622209
 30
0.0
 10
1191.112475603984
 20
1002.739968121294
 30
0.0
  0
LINE
  5
6F88
330
1F
100
AcDbEntity
  8
AM_VIS
100
AcDbLine
 10
1200.612475603984
 20
1011.299925204996
 30
0.0
 11
1220.612475603984
 21
1011.299925204996
 31
0.0
  0
LINE
  5
6F89
330
1F
100
AcDbEntity
  8
AM_VIS
100
AcDbLine
 10
1199.612475603983
 20
1007.299925204995
 30
0.0
 11
1199.612475603983
 21
1010.299925204996
 31
0.0
  0
LINE
  5
6F8A
330
1F
100
AcDbEntity
  8
AM_VIS
100
AcDbLine
 10
1191.362475603984
 20
1006.299925204996
 30
0.0
 11
1198.612475603983
 21
1006.299925204996
 31
0.0
  0
LINE
  5
6F8B
330
1F
100
AcDbEntity
  8
AM_VIS
100
AcDbLine
 10
1188.112475603984
 20
970.8999252049958
 30
0.0
 11
1179.362475603983
 21
970.8999252049958
 31
0.0
  0
LINE
  5
6F8C
330
1F
100
AcDbEntity
  8
AM_VIS
100
AcDbLine
 10
1189.112475603984
 20
973.5999252049957
 30
0.0
 11
1189.112475603984
 21
971.8999252049957
 31
0.0
  0
LINE
  5
6F8D
330
1F
100
AcDbEntity
  8
AM_VIS
100
AcDbLine
 10
1215.612475603984
 20
972.0999252049958
 30
0.0
 11
1215.612475603984
 21
970.8999252049958
 31
0.0
  0
LINE
  5
6F8E
330
1F
100
AcDbEntity
  8
AM_VIS
100
AcDbLine
 10
1204.362475603984
 20
972.5999252049957
 30
0.0
 11
1204.362475603984
 21
971.8999252049957
 31
0.0
  0
LINE
  5
6F8F
330
1F
100
AcDbEntity
  8
AM_VIS
100
AcDbLine
 10
1152.612475603984
 20
975.2499252049958
 30
0.0
 11
1157.612475603984
 21
975.2499252049958
 31
0.0
  0
LINE
  5
6F90
330
1F
100
AcDbEntity
  8
AM_VIS
100
AcDbLine
 10
1158.612475603983
 20
970.8999252049958
 30
0.0
 11
1158.612475603983
 21
972.0999252049958
 31
0.0
  0
LINE
  5
6F91
330
1F
100
AcDbEntity
  8
AM_VIS
100
AcDbLine
 10
1182.258353644247
 20
1006.599925204995
 30
0.0
 11
1165.32378374865
 21
1006.599925204995
 31
0.0
  0
LINE
  5
6F92
330
1F
100
AcDbEntity
  8
AM_VIS
100
AcDbLine
 10
1152.612475603984
 20
1011.299925204996
 30
0.0
 11
1181.909351542422
 21
1011.299925204996
 31
0.0
  0
LINE
  5
6F93
330
1F
100
AcDbEntity
  8
AM_VIS
100
AcDbLine
 10
1162.112475603984
 20
1011.16595060878
 30
0.0
 11
1162.112475603984
 21
1008.563696055422
 31
0.0
  0
ARC
  5
6F94
330
1F
100
AcDbEntity
  8
AM_VIS
100
AcDbCircle
 10
1162.28169952618
 20
1002.694380882337
 30
0.0
 40
5.203755826916125
100
AcDbArc
 50
91.86356289479123
 51
113.3076277541154
  0
LINE
  5
6F95
330
1F
100
AcDbEntity
  8
AM_VIS
100
AcDbLine
 10
1165.862475603984
 20
1010.299925204996
 30
0.0
 11
1165.862475603984
 21
1007.599925204996
 31
0.0
  0
ARC
  5
6F96
330
1F
100
AcDbEntity
  8
AM_VIS
100
AcDbCircle
 10
1160.328767410384
 20
1005.677705357409
 30
0.0
 40
1.730897325113616
100
AcDbArc
 50
107.6505983135952
 51
147.8052524131148
  0
LINE
  5
6F97
330
1F
100
AcDbEntity
  8
AM_VIS
100
AcDbLine
 10
1159.804436457293
 20
1007.325688593728
 30
0.0
 11
1160.223450839226
 21
1007.471436957183
 31
0.0
  0
LINE
  5
6F98
330
1F
100
AcDbEntity
  8
AM_VIS
100
AcDbLine
 10
1161.142941130988
 20
1011.300176556202
 30
0.0
 11
1162.112472526719
 21
1011.294396472384
 31
0.0
  0
ARC
  5
6F99
330
1F
100
AcDbEntity
  8
AM_VIS
100
AcDbCircle
 10
1158.755293061835
 20
1006.762060515434
 30
0.0
 40
0.1804820260397376
100
AcDbArc
 50
296.0584960283259
 51
321.1893515986233
  0
ARC
  5
6F9A
330
1F
100
AcDbEntity
  8
AM_VIS
100
AcDbCircle
 10
1153.612475603984
 20
1007.599925204996
 30
0.0
 40
1.0
100
AcDbArc
 50
180.0
 51
270.0
  0
ARC
  5
6F9B
330
1F
100
AcDbEntity
  8
AM_VIS
100
AcDbCircle
 10
1153.612475603984
 20
997.5999252049957
 30
0.0
 40
1.0
100
AcDbArc
 50
90.0
 51
180.0
  0
LINE
  5
6F9C
330
1F
100
AcDbEntity
  8
AM_VIS
100
AcDbLine
 10
1189.612475603984
 20
1014.299925204996
 30
0.0
 11
1197.612475603984
 21
1014.299925204996
 31
0.0
  0
CIRCLE
  5
6F9D
330
1F
100
AcDbEntity
  8
AM_VIS
100
AcDbCircle
 10
1187.112475603983
 20
1002.599925204996
 30
0.0
 40
1.35
  0
CIRCLE
  5
6F9E
330
1F
100
AcDbEntity
  8
AM_VIS
100
AcDbCircle
 10
1200.112475603984
 20
972.5999252049957
 30
0.0
 40
2.75
  0
CIRCLE
  5
6F9F
330
1F
100
AcDbEntity
  8
AM_VIS
100
AcDbCircle
 10
1174.112475603984
 20
972.5999252049957
 30
0.0
 40
2.75
  0
ARC
  5
6FA0
330
1F
100
AcDbEntity
  8
AM_VIS
100
AcDbCircle
 10
1183.371119175187
 20
1005.91688949071
 30
0.0
 40
1.0
100
AcDbArc
 50
318.4408524081284
 51
44.54993459296135
  0
ARC
  5
6FA1
330
1F
100
AcDbEntity
  8
AM_VIS
100
AcDbCircle
 10
1187.112475603983
 20
1009.599925204996
 30
0.0
 40
4.25
100
AcDbArc
 50
221.810314895775
 51
224.5499345929614
  0
ARC
  5
6FA2
330
1F
100
AcDbEntity
  8
AM_VIS
100
AcDbCircle
 10
1181.909351542422
 20
1010.299925204996
 30
0.0
 40
0.9999999999999998
100
AcDbArc
 50
352.3377443392348
 51
90.0
  0
ARC
  5
6FA3
330
1F
100
AcDbEntity
  8
AM_VIS
100
AcDbCircle
 10
1168.862475603984
 20
971.8999252049957
 30
0.0
 40
0.9999999999999998
100
AcDbArc
 50
270.0
 51
0.0
  0
ARC
  5
6FA4
330
1F
100
AcDbEntity
  8
AM_VIS
100
AcDbCircle
 10
1174.112475603984
 20
972.5999252049957
 30
0.0
 40
4.25
100
AcDbArc
 50
0.0
 51
180.0
  0
ARC
  5
6FA5
330
1F
100
AcDbEntity
  8
AM_VIS
100
AcDbCircle
 10
1179.362475603983
 20
971.8999252049957
 30
0.0
 40
0.9999999999999998
100
AcDbArc
 50
180.0
 51
270.0
  0
ARC
  5
6FA6
330
1F
100
AcDbEntity
  8
AM_VIS
100
AcDbCircle
 10
1195.80405361908
 20
975.5999252049958
 30
0.0
 40
1.0
100
AcDbArc
 50
270.0
 51
325.1500954209565
  0
ARC
  5
6FA7
330
1F
100
AcDbEntity
  8
AM_VIS
100
AcDbCircle
 10
1187.112475603983
 20
1002.599925204996
 30
0.0
 40
4.0
100
AcDbArc
 50
138.4408524081283
 51
0.0
  0
ARC
  5
6FA8
330
1F
100
AcDbEntity
  8
AM_VIS
100
AcDbCircle
 10
1191.362475603984
 20
1006.049925204996
 30
0.0
 40
0.25
100
AcDbArc
 50
90.0
 51
180.0
  0
ARC
  5
6FA9
330
1F
100
AcDbEntity
  8
AM_VIS
100
AcDbCircle
 10
1200.612475603984
 20
1010.299925204996
 30
0.0
 40
0.9999999999999998
100
AcDbArc
 50
90.0
 51
180.0
  0
ARC
  5
6FAA
330
1F
100
AcDbEntity
  8
AM_VIS
100
AcDbCircle
 10
1198.612475603983
 20
1007.299925204995
 30
0.0
 40
0.9999999999999998
100
AcDbArc
 50
270.0
 51
0.0
  0
ARC
  5
6FAB
330
1F
100
AcDbEntity
  8
AM_VIS
100
AcDbCircle
 10
1190.112475603984
 20
973.5999252049957
 30
0.0
 40
0.9999999999999998
100
AcDbArc
 50
90.0
 51
180.0
  0
ARC
  5
6FAC
330
1F
100
AcDbEntity
  8
AM_VIS
100
AcDbCircle
 10
1188.112475603984
 20
971.8999252049957
 30
0.0
 40
1.0
100
AcDbArc
 50
270.0
 51
0.0
  0
LINE
  5
6FAD
330
1F
100
AcDbEntity
  8
AM_VIS
100
AcDbLine
 10
1215.612475603984
 20
972.0999252049958
 30
0.0
 11
1215.612475603984
 21
974.2499252049958
 31
0.0
  0
ARC
  5
6FAE
330
1F
100
AcDbEntity
  8
AM_VIS
100
AcDbCircle
 10
1216.612475603984
 20
974.2499252049958
 30
0.0
 40
1.0
100
AcDbArc
 50
90.0
 51
180.0
  0
ARC
  5
6FAF
330
1F
100
AcDbEntity
  8
AM_VIS
100
AcDbCircle
 10
1200.112475603984
 20
972.5999252049957
 30
0.0
 40
4.25
100
AcDbArc
 50
0.0
 51
145.1500954209564
  0
ARC
  5
6FB0
330
1F
100
AcDbEntity
  8
AM_VIS
100
AcDbCircle
 10
1205.362475603984
 20
971.8999252049957
 30
0.0
 40
0.9999999999999998
100
AcDbArc
 50
180.0
 51
270.0
  0
ARC
  5
6FB1
330
1F
100
AcDbEntity
  8
AM_VIS
100
AcDbCircle
 10
1157.612475603984
 20
974.2499252049958
 30
0.0
 40
1.0
100
AcDbArc
 50
0.0
 51
90.0
  0
LINE
  5
6FB2
330
1F
100
AcDbEntity
  8
AM_VIS
100
AcDbLine
 10
1158.612475603983
 20
974.2499252049958
 30
0.0
 11
1158.612475603983
 21
972.0999252049958
 31
0.0
  0
ARC
  5
6FB3
330
1F
100
AcDbEntity
  8
AM_VIS
100
AcDbCircle
 10
1220.612475603984
 20
1010.299925204996
 30
0.0
 40
0.9999999999999998
100
AcDbArc
 50
0.0
 51
90.0
  0
ARC
  5
6FB4
330
1F
100
AcDbEntity
  8
AM_VIS
100
AcDbCircle
 10
1187.112475603983
 20
1009.599925204996
 30
0.0
 40
4.25
100
AcDbArc
 50
172.3377443392348
 51
221.810314895775
  0
ARC
  5
6FB5
330
1F
100
AcDbEntity
  8
AM_VIS
100
AcDbCircle
 10
1182.258353644247
 20
1007.599925204996
 30
0.0
 40
1.0
100
AcDbArc
 50
270.0
 51
22.39268780540489
  0
LINE
  5
6FB6
330
1F
100
AcDbEntity
  8
AM_VIS
100
AcDbLine
 10
1162.112475603984
 20
1008.563696055422
 30
0.0
 11
1162.112475603984
 21
1007.895384436491
 31
0.0
  0
LINE
  5
6FB7
330
1F
100
AcDbEntity
  8
AM_VIS
100
AcDbLine
 10
1162.112475603984
 20
1011.294912642102
 30
0.0
 11
1162.112475603984
 21
1011.16595060878
 31
0.0
  0
ARC
  5
6FB8
330
1F
100
AcDbEntity
  8
AM_VIS
100
AcDbCircle
 10
1166.862475603984
 20
1010.299925204996
 30
0.0
 40
1.0
100
AcDbArc
 50
90.0
 51
180.0
  0
ARC
  5
6FB9
330
1F
100
AcDbEntity
  8
AM_VIS
100
AcDbCircle
 10
1166.862475603984
 20
1007.599925204996
 30
0.0
 40
0.9999999999999996
100
AcDbArc
 50
180.0
 51
270.0
  0
LINE
  5
6FBA
330
1F
100
AcDbEntity
  8
AM_VIS
100
AcDbLine
 10
1176.612475603984
 20
1105.925682723581
 30
0.0
 11
1184.612475603984
 21
1105.925682723581
 31
0.0
  0
LINE
  5
6FBB
330
1F
100
AcDbEntity
  8
AM_VIS
100
AcDbLine
 10
1176.612475603984
 20
1102.425682723581
 30
0.0
 11
1176.612475603984
 21
1105.925682723581
 31
0.0
  0
LINE
  5
6FBC
330
1F
100
AcDbEntity
  8
AM_VIS
100
AcDbLine
 10
1184.612475603984
 20
1105.925682723581
 30
0.0
 11
1184.612475603984
 21
1102.425682723581
 31
0.0
  0
LINE
  5
6FBD
330
1F
100
AcDbEntity
  8
AM_VIS
100
AcDbLine
 10
1189.612475603984
 20
1075.925682723581
 30
0.0
 11
1189.612475603984
 21
1079.425682723581
 31
0.0
  0
LINE
  5
6FBE
330
1F
100
AcDbEntity
  8
AM_VIS
100
AcDbLine
 10
1197.612475603984
 20
1079.425682723581
 30
0.0
 11
1197.612475603984
 21
1075.925682723581
 31
0.0
  0
LINE
  5
6FBF
330
1F
100
AcDbEntity
  8
AM_VIS
100
AcDbLine
 10
1197.612475603984
 20
1075.925682723581
 30
0.0
 11
1189.612475603984
 21
1075.925682723581
 31
0.0
  0
CIRCLE
  5
6FC2
330
1F
100
AcDbEntity
  8
AM_VIS
100
AcDbCircle
 10
1180.612475603983
 20
1102.425682723581
 30
0.0
 40
2.25
  0
ARC
  5
6FC3
330
1F
100
AcDbEntity
  8
AM_VIS
100
AcDbCircle
 10
1180.612475603983
 20
1102.425682723581
 30
0.0
 40
4.0
100
AcDbArc
 50
180.0
 51
0.0
  0
ARC
  5
6FC4
330
1F
100
AcDbEntity
  8
AM_VIS
100
AcDbCircle
 10
1193.612475603984
 20
1079.425682723581
 30
0.0
 40
4.0
100
AcDbArc
 50
0.0
 51
180.0
  0
CIRCLE
  5
6FC5
330
1F
100
AcDbEntity
  8
AM_VIS
100
AcDbCircle
 10
1193.612475603984
 20
1079.425682723581
 30
0.0
 40
2.25
  0
LINE
  5
6FD3
330
1F
100
AcDbEntity
  8
AM_7
100
AcDbLine
 10
1172.112475603984
 20
1090.925682723581
 30
0.0
 11
1182.262475603984
 21
1090.925682723581
 31
0.0
1001
GENIUS_GENOREF_13
1005
6FD7
  0
LINE
  5
6FD4
330
1F
100
AcDbEntity
  8
AM_7
100
AcDbLine
 10
1172.112475603984
 20
1090.925682723581
 30
0.0
 11
1172.112475603984
 21
1101.075682723581
 31
0.0
1001
GENIUS_GENOREF_13
1005
6FD7
  0
LINE
  5
6FD5
330
1F
100
AcDbEntity
  8
AM_7
100
AcDbLine
 10
1172.112475603984
 20
1090.925682723581
 30
0.0
 11
1161.962475603983
 21
1090.925682723581
 31
0.0
1001
GENIUS_GENOREF_13
1005
6FD7
  0
LINE
  5
6FD6
330
1F
100
AcDbEntity
  8
AM_7
100
AcDbLine
 10
1172.112475603984
 20
1090.925682723581
 30
0.0
 11
1172.112475603984
 21
1080.775682723581
 31
0.0
1001
GENIUS_GENOREF_13
1005
6FD7
  0
POINT
  5
6FD7
330
1F
100
AcDbEntity
  8
0
 60
     1
100
AcDbPoint
 10
0.0
 20
0.0
 30
0.0
1001
GENIUS_GENODEF_13
1002
{
1000
HIER
1070
    10
1002
}
1002
{
1000
MANEDIT
1070
     0
1002
}
1002
{
1000
NOSEL
1070
     0
1002
}
1002
{
1000
BEHIND
1070
     0
1002
}
1002
{
1000
OTHER
1070
     0
1002
}
1002
{
1000
REACTOR
1002
}
1001
GENIUS_GENOBJ-N-CRS_13
1002
{
1000
OWNER
1000
GEN
1002
}
1001
GENIUS_GENOENT_13
1002
{
1000
MYREF
1005
6FD7
1002
}
1002
{
1000
GRP
1005
0
1002
}
1001
GENIUS_GENOLIS_13
1002
{
1000
ENT
1005
6FD6
1005
6FD5
1005
6FD4
1005
6FD3
1002
}
  0
LINE
  5
6FE5
330
1F
100
AcDbEntity
  8
AM_7
100
AcDbLine
 10
1202.112475603984
 20
1090.925682723581
 30
0.0
 11
1212.262475603984
 21
1090.925682723581
 31
0.0
1001
GENIUS_GENOREF_13
1005
6FE9
  0
LINE
  5
6FE6
330
1F
100
AcDbEntity
  8
AM_7
100
AcDbLine
 10
1202.112475603984
 20
1090.925682723581
 30
0.0
 11
1202.112475603984
 21
1101.075682723581
 31
0.0
1001
GENIUS_GENOREF_13
1005
6FE9
  0
LINE
  5
6FE7
330
1F
100
AcDbEntity
  8
AM_7
100
AcDbLine
 10
1202.112475603984
 20
1090.925682723581
 30
0.0
 11
1191.962475603983
 21
1090.925682723581
 31
0.0
1001
GENIUS_GENOREF_13
1005
6FE9
  0
LINE
  5
6FE8
330
1F
100
AcDbEntity
  8
AM_7
100
AcDbLine
 10
1202.112475603984
 20
1090.925682723581
 30
0.0
 11
1202.112475603984
 21
1080.775682723581
 31
0.0
1001
GENIUS_GENOREF_13
1005
6FE9
  0
POINT
  5
6FE9
330
1F
100
AcDbEntity
  8
0
 60
     1
100
AcDbPoint
 10
0.0
 20
0.0
 30
0.0
1001
GENIUS_GENODEF_13
1002
{
1000
HIER
1070
    10
1002
}
1002
{
1000
MANEDIT
1070
     0
1002
}
1002
{
1000
NOSEL
1070
     0
1002
}
1002
{
1000
BEHIND
1070
     0
1002
}
1002
{
1000
OTHER
1070
     0
1002
}
1002
{
1000
REACTOR
1002
}
1001
GENIUS_GENOENT_13
1002
{
1000
MYREF
1005
6FE9
1002
}
1002
{
1000
GRP
1005
0
1002
}
1001
GENIUS_GENOBJ-N-CRS_13
1002
{
1000
OWNER
1000
GEN
1002
}
1001
GENIUS_GENOLIS_13
1002
{
1000
ENT
1005
6FE8
1005
6FE7
1005
6FE6
1005
6FE5
1002
}
  0
LINE
  5
6FF7
330
1F
100
AcDbEntity
  8
AM_7
  6
AM_ISO08W050x2
100
AcDbLine
 10
1193.612475603984
 20
1079.425682723581
 30
0.0
 11
1199.112475603984
 21
1079.425682723581
 31
0.0
1001
GENIUS_GENOREF_13
1005
6FFB
  0
LINE
  5
6FF8
330
1F
100
AcDbEntity
  8
AM_7
  6
AM_ISO08W050x2
100
AcDbLine
 10
1193.612475603984
 20
1079.425682723581
 30
0.0
 11
1193.612475603984
 21
1084.925682723581
 31
0.0
1001
GENIUS_GENOREF_13
1005
6FFB
  0
LINE
  5
6FF9
330
1F
100
AcDbEntity
  8
AM_7
  6
AM_ISO08W050x2
100
AcDbLine
 10
1193.612475603984
 20
1079.425682723581
 30
0.0
 11
1188.112475603984
 21
1079.425682723581
 31
0.0
1001
GENIUS_GENOREF_13
1005
6FFB
  0
LINE
  5
6FFA
330
1F
100
AcDbEntity
  8
AM_7
  6
AM_ISO08W050x2
100
AcDbLine
 10
1193.612475603984
 20
1079.425682723581
 30
0.0
 11
1193.612475603984
 21
1073.925682723581
 31
0.0
1001
GENIUS_GENOREF_13
1005
6FFB
  0
POINT
  5
6FFB
330
1F
100
AcDbEntity
  8
0
 60
     1
100
AcDbPoint
 10
0.0
 20
0.0
 30
0.0
1001
GENIUS_GENOLIS_13
1002
{
1000
ENT
1005
6FFA
1005
6FF9
1005
6FF8
1005
6FF7
1002
}
1001
GENIUS_GENODEF_13
1002
{
1000
HIER
1070
    10
1002
}
1002
{
1000
MANEDIT
1070
     0
1002
}
1002
{
1000
NOSEL
1070
     0
1002
}
1002
{
1000
BEHIND
1070
     0
1002
}
1002
{
1000
OTHER
1070
     0
1002
}
1002
{
1000
REACTOR
1002
}
1001
GENIUS_GENOENT_13
1002
{
1000
MYREF
1005
6FFB
1002
}
1002
{
1000
GRP
1005
0
1002
}
1001
GENIUS_GENOBJ-N-CRS_13
1002
{
1000
OWNER
1000
GEN
1002
}
  0
LINE
  5
7009
330
1F
100
AcDbEntity
  8
AM_7
  6
AM_ISO08W050x2
100
AcDbLine
 10
1180.612475603983
 20
1102.425682723581
 30
0.0
 11
1186.112475603984
 21
1102.425682723581
 31
0.0
1001
GENIUS_GENOREF_13
1005
700D
  0
LINE
  5
700A
330
1F
100
AcDbEntity
  8
AM_7
  6
AM_ISO08W050x2
100
AcDbLine
 10
1180.612475603983
 20
1102.425682723581
 30
0.0
 11
1180.612475603983
 21
1107.925682723581
 31
0.0
1001
GENIUS_GENOREF_13
1005
700D
  0
LINE
  5
700B
330
1F
100
AcDbEntity
  8
AM_7
  6
AM_ISO08W050x2
100
AcDbLine
 10
1180.612475603983
 20
1102.425682723581
 30
0.0
 11
1175.112475603984
 21
1102.425682723581
 31
0.0
1001
GENIUS_GENOREF_13
1005
700D
  0
LINE
  5
700C
330
1F
100
AcDbEntity
  8
AM_7
  6
AM_ISO08W050x2
100
AcDbLine
 10
1180.612475603983
 20
1102.425682723581
 30
0.0
 11
1180.612475603983
 21
1096.925682723581
 31
0.0
1001
GENIUS_GENOREF_13
1005
700D
  0
POINT
  5
700D
330
1F
100
AcDbEntity
  8
0
 60
     1
100
AcDbPoint
 10
0.0
 20
0.0
 30
0.0
1001
GENIUS_GENOLIS_13
1002
{
1000
ENT
1005
700C
1005
700B
1005
700A
1005
7009
1002
}
1001
GENIUS_GENOENT_13
1002
{
1000
MYREF
1005
700D
1002
}
1002
{
1000
GRP
1005
0
1002
}
1001
GENIUS_GENOBJ-N-CRS_13
1002
{
1000
OWNER
1000
GEN
1002
}
1001
GENIUS_GENODEF_13
1002
{
1000
HIER
1070
    10
1002
}
1002
{
1000
MANEDIT
1070
     0
1002
}
1002
{
1000
NOSEL
1070
     0
1002
}
1002
{
1000
BEHIND
1070
     0
1002
}
1002
{
1000
OTHER
1070
     0
1002
}
1002
{
1000
REACTOR
1002
}
  0
LINE
  5
701B
330
1F
100
AcDbEntity
  8
AM_7
  6
AM_ISO08W050x2
100
AcDbLine
 10
1174.112475603984
 20
972.5999252049957
 30
0.0
 11
1179.862475603983
 21
972.5999252049957
 31
0.0
1001
GENIUS_GENOREF_13
1005
701F
  0
LINE
  5
701C
330
1F
100
AcDbEntity
  8
AM_7
  6
AM_ISO08W050x2
100
AcDbLine
 10
1174.112475603984
 20
972.5999252049957
 30
0.0
 11
1174.112475603984
 21
978.3499252049958
 31
0.0
1001
GENIUS_GENOREF_13
1005
701F
  0
LINE
  5
701D
330
1F
100
AcDbEntity
  8
AM_7
  6
AM_ISO08W050x2
100
AcDbLine
 10
1174.112475603984
 20
972.5999252049957
 30
0.0
 11
1168.362475603983
 21
972.5999252049957
 31
0.0
1001
GENIUS_GENOREF_13
1005
701F
  0
LINE
  5
701E
330
1F
100
AcDbEntity
  8
AM_7
  6
AM_ISO08W050x2
100
AcDbLine
 10
1174.112475603984
 20
972.5999252049957
 30
0.0
 11
1174.112475603984
 21
966.8499252049958
 31
0.0
1001
GENIUS_GENOREF_13
1005
701F
  0
POINT
  5
701F
330
1F
100
AcDbEntity
  8
0
 60
     1
100
AcDbPoint
 10
0.0
 20
0.0
 30
0.0
1001
GENIUS_GENODEF_13
1002
{
1000
HIER
1070
    10
1002
}
1002
{
1000
MANEDIT
1070
     0
1002
}
1002
{
1000
NOSEL
1070
     0
1002
}
1002
{
1000
BEHIND
1070
     0
1002
}
1002
{
1000
OTHER
1070
     0
1002
}
1002
{
1000
REACTOR
1002
}
1001
GENIUS_GENOENT_13
1002
{
1000
MYREF
1005
701F
1002
}
1002
{
1000
GRP
1005
0
1002
}
1001
GENIUS_GENOBJ-N-CRS_13
1002
{
1000
OWNER
1000
GEN
1002
}
1001
GENIUS_GENOLIS_13
1002
{
1000
ENT
1005
701E
1005
701D
1005
701C
1005
701B
1002
}
  0
LINE
  5
702D
330
1F
100
AcDbEntity
  8
AM_7
  6
AM_ISO08W050x2
100
AcDbLine
 10
1200.112475603984
 20
972.5999252049957
 30
0.0
 11
1205.862475603983
 21
972.5999252049957
 31
0.0
1001
GENIUS_GENOREF_13
1005
7031
  0
LINE
  5
702E
330
1F
100
AcDbEntity
  8
AM_7
  6
AM_ISO08W050x2
100
AcDbLine
 10
1200.112475603984
 20
972.5999252049957
 30
0.0
 11
1200.112475603984
 21
978.3499252049958
 31
0.0
1001
GENIUS_GENOREF_13
1005
7031
  0
LINE
  5
702F
330
1F
100
AcDbEntity
  8
AM_7
  6
AM_ISO08W050x2
100
AcDbLine
 10
1200.112475603984
 20
972.5999252049957
 30
0.0
 11
1194.362475603983
 21
972.5999252049957
 31
0.0
1001
GENIUS_GENOREF_13
1005
7031
  0
LINE
  5
7030
330
1F
100
AcDbEntity
  8
AM_7
  6
AM_ISO08W050x2
100
AcDbLine
 10
1200.112475603984
 20
972.5999252049957
 30
0.0
 11
1200.112475603984
 21
966.8499252049958
 31
0.0
1001
GENIUS_GENOREF_13
1005
7031
  0
POINT
  5
7031
330
1F
100
AcDbEntity
  8
0
 60
     1
100
AcDbPoint
 10
0.0
 20
0.0
 30
0.0
1001
GENIUS_GENOBJ-N-CRS_13
1002
{
1000
OWNER
1000
GEN
1002
}
1001
GENIUS_GENOLIS_13
1002
{
1000
ENT
1005
7030
1005
702F
1005
702E
1005
702D
1002
}
1001
GENIUS_GENOENT_13
1002
{
1000
MYREF
1005
7031
1002
}
1002
{
1000
GRP
1005
0
1002
}
1001
GENIUS_GENODEF_13
1002
{
1000
HIER
1070
    10
1002
}
1002
{
1000
MANEDIT
1070
     0
1002
}
1002
{
1000
NOSEL
1070
     0
1002
}
1002
{
1000
BEHIND
1070
     0
1002
}
1002
{
1000
OTHER
1070
     0
1002
}
1002
{
1000
REACTOR
1002
}
  0
DIMENSION
  5
7033
330
1F
100
AcDbEntity
  8
AM_5
100
AcDbDimension
  2
*D4
 10
1161.112475603983
 20
862.7025506639412
 30
0.0
 11
1151.612475603984
 21
866.8675506639411
 31
0.0
 70
    32
 71
     5
 42
19.0
  3
AM_ISO$0
100
AcDbAlignedDimension
 13
1142.112475603983
 23
878.7025506639412
 33
0.0
 14
1161.112475603983
 24
882.5525506639412
 34
0.0
 50
0.0000000000002036
100
AcDbRotatedDimension
1001
ACAD
1000
DSTYLE
1002
{
1070
    40
1040
1.7
1070
   272
1070
     8
1002
}
  0
DIMENSION
  5
7036
330
1F
100
AcDbEntity
  8
AM_5
100
AcDbDimension
  2
*D5
 10
1187.112475603983
 20
862.7025506639412
 30
0.0
 11
1174.112475603984
 21
866.8681362938624
 31
0.0
 70
    32
 71
     5
 42
26.0
  3
AM_ISO$0
100
AcDbAlignedDimension
 13
1161.112475603983
 23
882.5525506639412
 33
0.0
 14
1187.112475603983
 24
882.5525506639412
 34
0.0
 50
0.0000000000002036
100
AcDbRotatedDimension
1001
ACAD
1000
DSTYLE
1002
{
1070
    40
1040
1.7
1070
   272
1070
     8
1002
}
  0
DIMENSION
  5
7039
330
1F
100
AcDbEntity
  8
AM_5
100
AcDbDimension
  2
*D6
 10
1213.112475603984
 20
862.7025506639412
 30
0.0
 11
1200.112475603984
 21
866.8681362938624
 31
0.0
 70
    32
 71
     5
 42
26.0
  3
AM_ISO$0
100
AcDbAlignedDimension
 13
1187.112475603983
 23
882.5525506639412
 33
0.0
 14
1213.112475603984
 24
882.5525506639412
 34
0.0
 50
0.0000000000002036
100
AcDbRotatedDimension
1001
ACAD
1000
DSTYLE
1002
{
1070
    40
1040
1.7
1070
   272
1070
     8
1002
}
  0
DIMENSION
  5
703C
330
1F
100
AcDbEntity
  8
AM_5
100
AcDbDimension
  2
*D3
 10
1250.112475603984
 20
850.7025506639413
 30
0.0
 11
1196.112475603984
 21
854.8675506639412
 31
0.0
 70
    32
 71
     5
 42
108.0
  3
AM_ISO$0
100
AcDbAlignedDimension
 13
1142.112475603983
 23
878.7025506639412
 33
0.0
 14
1250.112475603984
 24
878.1025506639412
 34
0.0
 50
0.0000000000002036
100
AcDbRotatedDimension
1001
ACAD
1000
DSTYLE
1002
{
1070
    40
1040
1.7
1070
   272
1070
     8
1002
}
  0
LINE
  5
70AD
330
1F
100
AcDbEntity
  8
AM_7
  6
AM_ISO08W050x2
100
AcDbLine
 10
1180.612475603983
 20
881.2025506639413
 30
0.0
 11
1184.362475603983
 21
881.2025506639413
 31
0.0
1001
GENIUS_GENOREF_13
1005
70B1
  0
LINE
  5
70AE
330
1F
100
AcDbEntity
  8
AM_7
  6
AM_ISO08W050x2
100
AcDbLine
 10
1180.612475603983
 20
881.2025506639413
 30
0.0
 11
1180.612475603983
 21
884.9525506639412
 31
0.0
1001
GENIUS_GENOREF_13
1005
70B1
  0
LINE
  5
70AF
330
1F
100
AcDbEntity
  8
AM_7
  6
AM_ISO08W050x2
100
AcDbLine
 10
1180.612475603983
 20
881.2025506639413
 30
0.0
 11
1176.862475603984
 21
881.2025506639413
 31
0.0
1001
GENIUS_GENOREF_13
1005
70B1
  0
LINE
  5
70B0
330
1F
100
AcDbEntity
  8
AM_7
  6
AM_ISO08W050x2
100
AcDbLine
 10
1180.612475603983
 20
881.2025506639413
 30
0.0
 11
1180.612475603983
 21
877.4525506639411
 31
0.0
1001
GENIUS_GENOREF_13
1005
70B1
  0
POINT
  5
70B1
330
1F
100
AcDbEntity
  8
0
 60
     1
100
AcDbPoint
 10
0.0
 20
0.0
 30
0.0
1001
GENIUS_GENOENT_13
1002
{
1000
MYREF
1005
70B1
1002
}
1002
{
1000
GRP
1005
0
1002
}
1001
GENIUS_GENOLIS_13
1002
{
1000
ENT
1005
70B0
1005
70AF
1005
70AE
1005
70AD
1002
}
1001
GENIUS_GENOBJ-N-CRS_13
1002
{
1000
OWNER
1000
GEN
1002
}
1001
GENIUS_GENODEF_13
1002
{
1000
HIER
1070
    10
1002
}
1002
{
1000
MANEDIT
1070
     0
1002
}
1002
{
1000
NOSEL
1070
     0
1002
}
1002
{
1000
BEHIND
1070
     0
1002
}
1002
{
1000
OTHER
1070
     0
1002
}
1002
{
1000
REACTOR
1002
}
  0
LINE
  5
70BF
330
1F
100
AcDbEntity
  8
AM_7
  6
AM_ISO08W050x2
100
AcDbLine
 10
1193.612475603984
 20
904.2025506639411
 30
0.0
 11
1197.362475603984
 21
904.2025506639411
 31
0.0
1001
GENIUS_GENOREF_13
1005
70C3
  0
LINE
  5
70C0
330
1F
100
AcDbEntity
  8
AM_7
  6
AM_ISO08W050x2
100
AcDbLine
 10
1193.612475603984
 20
904.2025506639411
 30
0.0
 11
1193.612475603984
 21
907.9525506639411
 31
0.0
1001
GENIUS_GENOREF_13
1005
70C3
  0
LINE
  5
70C1
330
1F
100
AcDbEntity
  8
AM_7
  6
AM_ISO08W050x2
100
AcDbLine
 10
1193.612475603984
 20
904.2025506639411
 30
0.0
 11
1189.862475603983
 21
904.2025506639411
 31
0.0
1001
GENIUS_GENOREF_13
1005
70C3
  0
LINE
  5
70C2
330
1F
100
AcDbEntity
  8
AM_7
  6
AM_ISO08W050x2
100
AcDbLine
 10
1193.612475603984
 20
904.2025506639411
 30
0.0
 11
1193.612475603984
 21
900.4525506639412
 31
0.0
1001
GENIUS_GENOREF_13
1005
70C3
  0
POINT
  5
70C3
330
1F
100
AcDbEntity
  8
0
 60
     1
100
AcDbPoint
 10
0.0
 20
0.0
 30
0.0
1001
GENIUS_GENODEF_13
1002
{
1000
HIER
1070
    10
1002
}
1002
{
1000
MANEDIT
1070
     0
1002
}
1002
{
1000
NOSEL
1070
     0
1002
}
1002
{
1000
BEHIND
1070
     0
1002
}
1002
{
1000
OTHER
1070
     0
1002
}
1002
{
1000
REACTOR
1002
}
1001
GENIUS_GENOLIS_13
1002
{
1000
ENT
1005
70C2
1005
70C1
1005
70C0
1005
70BF
1002
}
1001
GENIUS_GENOBJ-N-CRS_13
1002
{
1000
OWNER
1000
GEN
1002
}
1001
GENIUS_GENOENT_13
1002
{
1000
MYREF
1005
70C3
1002
}
1002
{
1000
GRP
1005
0
1002
}
  0
TEXT
  5
70FA
330
1F
100
AcDbEntity
  8
AM_5
100
AcDbText
 10
1233.418663641823
 20
920.7482081726675
 30
0.0
 40
5.95
  1
3-PT3/8
100
AcDbText
  0
INSERT
  5
70FB
330
1F
100
AcDbEntity
  8
AM_5
100
AcDbBlockReference
  2
*S21
 10
0.0
 20
0.0
 30
0.0
  0
DIMENSION
  5
7122
330
1F
100
AcDbEntity
  8
AM_5
100
AcDbDimension
  2
*D7
 10
1317.517041298414
 20
1040.599925204996
 30
0.0
 11
1313.054541298413
 21
1004.249925204996
 31
0.0
 70
    32
  1
(<>)
 71
     5
 42
72.70000000000004
  3
AM_ISO$0
100
AcDbAlignedDimension
 13
1224.112475603984
 23
967.8999252049957
 33
0.0
 14
1293.112475603983
 24
1040.599925204996
 34
0.0
 50
90.0
100
AcDbRotatedDimension
1001
ACAD
1000
DSTYLE
1002
{
1070
    40
1040
1.7
1070
   271
1070
     1
1070
   272
1070
     8
1002
}
  0
DIMENSION
  5
7125
330
1F
100
AcDbEntity
  8
AM_5
100
AcDbDimension
  2
*D8
 10
1174.112475603984
 20
952.8999252049956
 30
0.0
 11
1158.112475603984
 21
957.0655108349169
 31
0.0
 70
    32
 71
     5
 42
32.0
  3
AM_ISO$0
100
AcDbAlignedDimension
 13
1142.112475603983
 23
968.8999252049956
 33
0.0
 14
1174.112475603984
 24
966.8499252049958
 34
0.0
 50
0.0000000000002036
100
AcDbRotatedDimension
1001
ACAD
1000
DSTYLE
1002
{
1070
    40
1040
1.7
1070
   272
1070
     8
1002
}
  0
DIMENSION
  5
7128
330
1F
100
AcDbEntity
  8
AM_5
100
AcDbDimension
  2
*D9
 10
1200.112475603984
 20
952.8999252049958
 30
0.0
 11
1187.112475603983
 21
957.0655108349169
 31
0.0
 70
    32
 71
     5
 42
26.0
  3
AM_ISO$0
100
AcDbAlignedDimension
 13
1174.112475603984
 23
966.8499252049958
 33
0.0
 14
1200.112475603984
 24
966.8499252049958
 34
0.0
 50
0.0000000000002036
100
AcDbRotatedDimension
1001
ACAD
1000
DSTYLE
1002
{
1070
    40
1040
1.7
1070
   272
1070
     8
1002
}
  0
DIMENSION
  5
712B
330
1F
100
AcDbEntity
  8
AM_5
100
AcDbDimension
  2
*D10
 10
1131.777155844057
 20
972.5999252049957
 30
0.0
 11
1127.612155844057
 21
988.4524252049958
 31
0.0
 70
    32
 71
     5
 42
4.700000000000045
  3
AM_ISO$0
100
AcDbAlignedDimension
 13
1143.112475603984
 23
967.8999252049957
 33
0.0
 14
1168.362475603983
 24
972.5999252049957
 34
0.0
 50
90.0
100
AcDbRotatedDimension
1001
ACAD
1000
DSTYLE
1002
{
1070
    40
1040
1.7
1070
   271
1070
     1
1070
   272
1070
     8
1002
}
  0
DIMENSION
  5
712E
330
1F
100
AcDbEntity
  8
AM_5
100
AcDbDimension
  2
*D11
 10
1287.612475603983
 20
940.8999252049959
 30
0.0
 11
1214.862475603983
 21
945.0649252049959
 31
0.0
 70
    32
 71
     5
 42
145.4999999999998
  3
AM_ISO$0
100
AcDbAlignedDimension
 13
1142.112475603983
 23
968.8999252049956
 33
0.0
 14
1287.612475603983
 24
981.5999252049957
 34
0.0
 50
0.0000000000002036
100
AcDbRotatedDimension
1001
ACAD
1000
DSTYLE
1002
{
1070
    40
1040
1.7
1070
   272
1070
     8
1002
}
  0
DIMENSION
  5
7131
330
1F
100
AcDbEntity
  8
AM_5
100
AcDbDimension
  2
*D12
 10
1117.120197324628
 20
1014.299925204996
 30
0.0
 11
1112.955197324628
 21
991.0999252049959
 31
0.0
 70
    32
 71
     5
 42
46.39999999999997
  3
AM_ISO$0
100
AcDbAlignedDimension
 13
1143.112475603984
 23
967.8999252049957
 33
0.0
 14
1143.112475603984
 24
1014.299925204996
 34
0.0
 50
90.0
100
AcDbRotatedDimension
1001
ACAD
1000
DSTYLE
1002
{
1070
    40
1040
1.7
1070
   272
1070
     8
1002
}
  0
DIMENSION
  5
7134
330
1F
100
AcDbEntity
  8
AM_5
100
AcDbDimension
  2
*D13
 10
1210.902741447735
 20
1010.299925204996
 30
0.0
 11
1210.902741447735
 21
1027.177425204996
 31
0.0
 70
   160
 71
     5
 42
4.0
  3
AM_ISO$0
100
AcDbAlignedDimension
 13
1197.612475603984
 23
1014.299925204996
 33
0.0
 14
1197.612475603984
 24
1010.299925204996
 34
0.0
 50
90.0
100
AcDbRotatedDimension
1001
ACAD
1000
DSTYLE
1002
{
1070
    40
1040
1.7
1070
   272
1070
     8
1002
}
  0
TEXT
  5
7264
330
1F
100
AcDbEntity
  8
AM_5
100
AcDbText
 10
1219.244760509878
 20
954.6122237837524
 30
0.0
 40
5.95
  1
2-%%c5.5thru
100
AcDbText
  0
INSERT
  5
7265
330
1F
100
AcDbEntity
  8
AM_5
100
AcDbBlockReference
  2
*S22
 10
0.0
 20
0.0
 30
0.0
  0
LINE
  5
72AB
330
1F
100
AcDbEntity
  8
AM_7
100
AcDbLine
 10
1140.090046534798
 20
1090.925682723581
 30
0.0
 11
1303.477677525655
 21
1090.925682723581
 31
0.0
1001
GENIUS_GENODEF_13
1002
{
1000
HIER
1070
     0
1002
}
1002
{
1000
MANEDIT
1070
     0
1002
}
1002
{
1000
NOSEL
1070
     0
1002
}
1002
{
1000
BEHIND
1070
     0
1002
}
1002
{
1000
OTHER
1070
     0
1002
}
1002
{
1000
REACTOR
1002
}
1001
GENIUS_GENOBJ-N-CEN_13
1002
{
1000
OWNER
1000
GEN
1002
}
1001
GENIUS_GENCEN_19
1002
{
1040
1.5
1002
}
  0
DIMENSION
  5
72AC
330
1F
100
AcDbEntity
  8
AM_5
100
AcDbDimension
  2
*D15
 10
1127.112475603984
 20
1079.425682723581
 30
0.0
 11
1122.946889974062
 21
1090.925682723581
 31
0.0
 70
    32
 71
     5
 42
23.0
  3
AM_ISO$0
100
AcDbAlignedDimension
 13
1175.112475603984
 23
1102.425682723581
 33
0.0
 14
1188.112475603984
 24
1079.425682723581
 34
0.0
 50
90.0
100
AcDbRotatedDimension
1001
ACAD
1000
DSTYLE
1002
{
1070
    40
1040
1.7
1070
   272
1070
     8
1002
}
  0
DIMENSION
  5
72AF
330
1F
100
AcDbEntity
  8
AM_5
100
AcDbDimension
  2
*D16
 10
1115.112475603984
 20
1075.925682723581
 30
0.0
 11
1110.947475603983
 21
1090.925682723581
 31
0.0
 70
    32
 71
     5
 42
30.0
  3
AM_ISO$0
100
AcDbAlignedDimension
 13
1143.112475603984
 23
1105.925682723581
 33
0.0
 14
1143.112475603984
 24
1075.925682723581
 34
0.0
 50
90.0
100
AcDbRotatedDimension
1001
ACAD
1000
DSTYLE
1002
{
1070
    40
1040
1.7
1070
   144
1040
1.0
1070
   272
1070
     8
1002
}
  0
DIMENSION
  5
72B2
330
1F
100
AcDbEntity
  8
AM_5
100
AcDbDimension
  2
*D17
 10
1172.112475603984
 20
1062.725682723581
 30
0.0
 11
1157.112475603984
 21
1066.890682723581
 31
0.0
 70
    32
 71
     5
 42
30.0
  3
AM_ISO$0
100
AcDbAlignedDimension
 13
1142.112475603983
 23
1078.725682723581
 33
0.0
 14
1172.112475603984
 24
1080.775682723581
 34
0.0
100
AcDbRotatedDimension
1001
ACAD
1000
DSTYLE
1002
{
1070
    40
1040
1.7
1070
   272
1070
     8
1002
}
  0
DIMENSION
  5
72B5
330
1F
100
AcDbEntity
  8
AM_5
100
AcDbDimension
  2
*D18
 10
1202.112475603984
 20
1062.725682723581
 30
0.0
 11
1187.112475603983
 21
1066.890682723581
 31
0.0
 70
    32
 71
     5
 42
30.0
  3
AM_ISO$0
100
AcDbAlignedDimension
 13
1172.112475603984
 23
1080.775682723581
 33
0.0
 14
1202.112475603984
 24
1080.775682723581
 34
0.0
100
AcDbRotatedDimension
1001
ACAD
1000
DSTYLE
1002
{
1070
    40
1040
1.7
1070
   272
1070
     8
1002
}
  0
DIMENSION
  5
72B8
330
1F
100
AcDbEntity
  8
AM_5
100
AcDbDimension
  2
*D19
 10
1193.612475603984
 20
1119.125682723581
 30
0.0
 11
1187.112475603983
 21
1123.290682723581
 31
0.0
 70
    32
 71
     5
 42
13.0
  3
AM_ISO$0
100
AcDbAlignedDimension
 13
1180.612475603983
 23
1107.925682723581
 33
0.0
 14
1193.612475603984
 24
1084.925682723581
 34
0.0
100
AcDbRotatedDimension
1001
ACAD
1000
DSTYLE
1002
{
1070
    40
1040
1.7
1070
   272
1070
     8
1002
}
  0
DIMENSION
  5
72BB
330
1F
100
AcDbEntity
  8
AM_5
100
AcDbDimension
  2
*D20
 10
1180.612475603983
 20
1119.125682723581
 30
0.0
 11
1161.362475603984
 21
1123.290682723581
 31
0.0
 70
    32
 71
     5
 42
38.5
  3
AM_ISO$0
100
AcDbAlignedDimension
 13
1142.112475603983
 23
1104.925682723581
 33
0.0
 14
1180.612475603983
 24
1107.925682723581
 34
0.0
100
AcDbRotatedDimension
1001
ACAD
1000
DSTYLE
1002
{
1070
    40
1040
1.7
1070
   272
1070
     8
1002
}
  0
DIMENSION
  5
72BE
330
1F
100
AcDbEntity
  8
AM_5
100
AcDbDimension
  2
*D14
 10
1300.612475603983
 20
1131.125682723581
 30
0.0
 11
1221.362475603983
 21
1135.290682723581
 31
0.0
 70
    32
 71
     5
 42
158.4999999999998
  3
AM_ISO$0
100
AcDbAlignedDimension
 13
1142.112475603983
 23
1104.825682723581
 33
0.0
 14
1300.612475603983
 24
1100.163287030615
 34
0.0
100
AcDbRotatedDimension
1001
ACAD
1000
DSTYLE
1002
{
1070
    40
1040
1.7
1070
   272
1070
     8
1002
}
  0
TEXT
  5
73DD
330
1F
100
AcDbEntity
  8
AM_5
100
AcDbText
 10
1225.861494411509
 20
1119.507187628049
 30
0.0
 40
5.95
  1
2-PT3/8
100
AcDbText
  0
INSERT
  5
73DE
330
1F
100
AcDbEntity
  8
AM_5
100
AcDbBlockReference
  2
*S23
 10
0.0
 20
0.0
 30
0.0
  0
TEXT
  5
73E0
330
1F
100
AcDbEntity
  8
AM_5
100
AcDbText
 10
1215.20228161151
 20
1064.565544481599
 30
0.0
 40
5.95
  1
2-%%c4.5thru
100
AcDbText
  0
INSERT
  5
73E1
330
1F
100
AcDbEntity
  8
AM_5
100
AcDbBlockReference
  2
*S24
 10
0.0
 20
0.0
 30
0.0
  0
LINE
  5
7431
330
1F
100
AcDbEntity
  8
AM_7
100
AcDbLine
 10
1139.243982206917
 20
892.7025506639411
 30
0.0
 11
1305.421029665142
 21
892.7025506639411
 31
0.0
1001
GENIUS_GENOBJ-N-CEN_13
1002
{
1000
OWNER
1000
GEN
1002
}
1001
GENIUS_GENODEF_13
1002
{
1000
HIER
1070
     0
1002
}
1002
{
1000
MANEDIT
1070
     0
1002
}
1002
{
1000
NOSEL
1070
     0
1002
}
1002
{
1000
BEHIND
1070
     0
1002
}
1002
{
1000
OTHER
1070
     0
1002
}
1002
{
1000
REACTOR
1002
}
1001
GENIUS_GENCEN_19
1002
{
1040
1.5
1002
}
  0
LINE
  5
766A
330
1F
100
AcDbEntity
  8
AM_VIS
100
AcDbLine
 10
1163.222016619609
 20
1078.37489157668
 30
0.0
 11
1162.610862880769
 21
1080.250903016412
 31
0.0
  0
LINE
  5
766B
330
1F
100
AcDbEntity
  8
AM_VIS
100
AcDbLine
 10
1162.002603952198
 20
1078.37489157668
 30
0.0
 11
1163.222016619609
 21
1078.37489157668
 31
0.0
  0
LINE
  5
766C
330
1F
100
AcDbEntity
  8
AM_VIS
100
AcDbLine
 10
1162.610862880769
 20
1080.250903016412
 30
0.0
 11
1162.002603952198
 21
1078.37489157668
 31
0.0
  0
LINE
  5
766D
330
1F
100
AcDbEntity
  8
AM_VIS
100
AcDbLine
 10
1163.657144967823
 20
1077.468920594537
 30
0.0
 11
1163.519693795948
 21
1077.440844422662
 31
0.0
  0
LINE
  5
766E
330
1F
100
AcDbEntity
  8
AM_VIS
100
AcDbLine
 10
1162.678838606216
 20
1080.440844422662
 30
0.0
 11
1163.657144967823
 21
1077.468920594537
 31
0.0
  0
LINE
  5
766F
330
1F
100
AcDbEntity
  8
AM_VIS
100
AcDbLine
 10
1162.544944912019
 20
1080.440844422662
 30
0.0
 11
1162.678838606216
 21
1080.440844422662
 31
0.0
  0
LINE
  5
7670
330
1F
100
AcDbEntity
  8
AM_VIS
100
AcDbLine
 10
1161.567475603984
 20
1077.468536944983
 30
0.0
 11
1162.544944912019
 21
1080.440844422662
 31
0.0
  0
LINE
  5
7671
330
1F
100
AcDbEntity
  8
AM_VIS
100
AcDbLine
 10
1161.703985090591
 20
1077.440844422662
 30
0.0
 11
1161.567475603984
 21
1077.468536944983
 31
0.0
  0
LINE
  5
7672
330
1F
100
AcDbEntity
  8
AM_VIS
100
AcDbLine
 10
1161.969889108448
 20
1078.222164177126
 30
0.0
 11
1161.703985090591
 21
1077.440844422662
 31
0.0
  0
LINE
  5
7673
330
1F
100
AcDbEntity
  8
AM_VIS
100
AcDbLine
 10
1163.253894409787
 20
1078.222164177126
 30
0.0
 11
1161.969889108448
 21
1078.222164177126
 31
0.0
  0
LINE
  5
7674
330
1F
100
AcDbEntity
  8
AM_VIS
100
AcDbLine
 10
1163.519693795948
 20
1077.440844422662
 30
0.0
 11
1163.253894409787
 21
1078.222164177126
 31
0.0
  0
SPLINE
  5
7675
330
1F
100
AcDbEntity
  8
AM_VIS
100
AcDbSpline
210
0.0
220
0.0
230
1.0
 70
     8
 71
     3
 72
     8
 73
     4
 74
     0
 42
0.0000000001
 43
0.0000000001
 40
0.0
 40
0.0
 40
0.0
 40
0.0
 40
80.0
 40
80.0
 40
80.0
 40
80.0
 10
1209.896840560156
 20
1103.075694221785
 30
0.0
 10
1209.896840560156
 20
1102.67245739236
 30
0.0
 10
1210.113205151098
 20
1102.433539831909
 30
0.0
 10
1210.545934332983
 20
1102.358941573867
 30
0.0
  0
SPLINE
  5
7676
330
1F
100
AcDbEntity
  8
AM_VIS
100
AcDbSpline
210
0.0
220
0.0
230
1.0
 70
     8
 71
     3
 72
     8
 73
     4
 74
     0
 42
0.0000000001
 43
0.0000000001
 40
0.0
 40
0.0
 40
0.0
 40
0.0
 40
80.0
 40
80.0
 40
80.0
 40
80.0
 10
1210.212947207344
 20
1103.676851544649
 30
0.0
 10
1210.002209464844
 20
1103.550664557986
 30
0.0
 10
1209.896840560156
 20
1103.350278794844
 30
0.0
 10
1209.896840560156
 20
1103.075694221785
 30
0.0
  0
SPLINE
  5
7677
330
1F
100
AcDbEntity
  8
AM_VIS
100
AcDbSpline
210
0.0
220
0.0
230
1.0
 70
     8
 71
     3
 72
     8
 73
     4
 74
     0
 42
0.0000000001
 43
0.0000000001
 40
0.0
 40
0.0
 40
0.0
 40
0.0
 40
80.0
 40
80.0
 40
80.0
 40
80.0
 10
1210.615750348323
 20
1103.794604009951
 30
0.0
 10
1210.478515140142
 20
1103.794604009951
 30
0.0
 10
1210.344247437628
 20
1103.75535319933
 30
0.0
 10
1210.212947207344
 20
1103.676851544649
 30
0.0
  0
LINE
  5
7678
330
1F
100
AcDbEntity
  8
AM_VIS
100
AcDbLine
 10
1211.328188715744
 20
1103.794604009951
 30
0.0
 11
1210.615750348323
 21
1103.794604009951
 31
0.0
  0
LINE
  5
7679
330
1F
100
AcDbEntity
  8
AM_VIS
100
AcDbLine
 10
1211.328188715744
 20
1102.358941573867
 30
0.0
 11
1211.328188715744
 21
1103.794604009951
 31
0.0
  0
LINE
  5
767A
330
1F
100
AcDbEntity
  8
AM_VIS
100
AcDbLine
 10
1210.545934332983
 20
1102.358941573867
 30
0.0
 11
1211.328188715744
 21
1102.358941573867
 31
0.0
  0
SPLINE
  5
767B
330
1F
100
AcDbEntity
  8
AM_VIS
100
AcDbSpline
210
0.0
220
0.0
230
1.0
 70
     8
 71
     3
 72
     8
 73
     4
 74
     0
 42
0.0000000001
 43
0.0000000001
 40
0.0
 40
0.0
 40
0.0
 40
0.0
 40
80.0
 40
80.0
 40
80.0
 40
80.0
 10
1210.036506831157
 20
1101.651194130478
 30
0.0
 10
1210.036506864595
 20
1101.430572337387
 30
0.0
 10
1210.11393563358
 20
1101.274333750827
 30
0.0
 10
1210.268793171551
 20
1101.182478370799
 30
0.0
  0
SPLINE
  5
767C
330
1F
100
AcDbEntity
  8
AM_VIS
100
AcDbSpline
210
0.0
220
0.0
230
1.0
 70
     8
 71
     3
 72
     8
 73
     4
 74
     0
 42
0.0000000001
 43
0.0000000001
 40
0.0
 40
0.0
 40
0.0
 40
0.0
 40
80.0
 40
80.0
 40
80.0
 40
80.0
 10
1210.191581246789
 20
1102.086491336467
 30
0.0
 10
1210.08819831418
 20
1101.983519287716
 30
0.0
 10
1210.036506864595
 20
1101.838420241344
 30
0.0
 10
1210.036506831157
 20
1101.651194130478
 30
0.0
  0
SPLINE
  5
767D
330
1F
100
AcDbEntity
  8
AM_VIS
100
AcDbSpline
210
0.0
220
0.0
230
1.0
 70
     8
 71
     3
 72
     8
 73
     4
 74
     0
 42
0.0000000001
 43
0.0000000001
 40
0.0
 40
0.0
 40
0.0
 40
0.0
 40
80.0
 40
80.0
 40
80.0
 40
80.0
 10
1210.536244322026
 20
1102.208968966124
 30
0.0
 10
1210.46139497944
 20
1102.208968999562
 30
0.0
 10
1210.34650729884
 20
1102.168143100718
 30
0.0
 10
1210.191581246789
 20
1102.086491336467
 30
0.0
  0
LINE
  5
767E
330
1F
100
AcDbEntity
  8
AM_VIS
100
AcDbLine
 10
1211.328188715744
 20
1102.208968966124
 30
0.0
 11
1210.536244322026
 21
1102.208968966124
 31
0.0
  0
LINE
  5
767F
330
1F
100
AcDbEntity
  8
AM_VIS
100
AcDbLine
 10
1211.328188715744
 20
1101.093419294831
 30
0.0
 11
1211.328188715744
 21
1102.208968966124
 31
0.0
  0
LINE
  5
7680
330
1F
100
AcDbEntity
  8
AM_VIS
100
AcDbLine
 10
1210.615750348323
 20
1101.093419294831
 30
0.0
 11
1211.328188715744
 21
1101.093419294831
 31
0.0
  0
SPLINE
  5
7681
330
1F
100
AcDbEntity
  8
AM_VIS
100
AcDbSpline
210
0.0
220
0.0
230
1.0
 70
     8
 71
     3
 72
     8
 73
     4
 74
     0
 42
0.0000000001
 43
0.0000000001
 40
0.0
 40
0.0
 40
0.0
 40
0.0
 40
80.0
 40
80.0
 40
80.0
 40
80.0
 10
1210.268793171551
 20
1101.182478370799
 30
0.0
 10
1210.368637948761
 20
1101.123105653487
 30
0.0
 10
1210.484290352164
 20
1101.093419294831
 30
0.0
 10
1210.615750348323
 20
1101.093419294831
 30
0.0
  0
SPLINE
  5
7682
330
1F
100
AcDbEntity
  8
AM_VIS
100
AcDbSpline
210
0.0
220
0.0
230
1.0
 70
     8
 71
     3
 72
     8
 73
     4
 74
     0
 42
0.0000000001
 43
0.0000000001
 40
0.0
 40
0.0
 40
0.0
 40
0.0
 40
80.0
 40
80.0
 40
80.0
 40
80.0
 10
1209.744676571843
 20
1103.075968144357
 30
0.0
 10
1209.744676605281
 20
1103.409240628299
 30
0.0
 10
1209.8748126312
 20
1103.652004507043
 30
0.0
 10
1210.135084716475
 20
1103.804259780587
 30
0.0
  0
SPLINE
  5
7683
330
1F
100
AcDbEntity
  8
AM_VIS
100
AcDbSpline
210
0.0
220
0.0
230
1.0
 70
     8
 71
     3
 72
     8
 73
     4
 74
     0
 42
0.0000000001
 43
0.0000000001
 40
0.0
 40
0.0
 40
0.0
 40
0.0
 40
80.0
 40
80.0
 40
80.0
 40
80.0
 10
1210.344121878637
 20
1102.272929886504
 30
0.0
 10
1209.944491685254
 20
1102.357526318395
 30
0.0
 10
1209.744676605281
 20
1102.625205748825
 30
0.0
 10
1209.744676571843
 20
1103.075968144357
 30
0.0
  0
SPLINE
  5
7684
330
1F
100
AcDbEntity
  8
AM_VIS
100
AcDbSpline
210
0.0
220
0.0
230
1.0
 70
     8
 71
     3
 72
     8
 73
     4
 74
     0
 42
0.0000000001
 43
0.0000000001
 40
0.0
 40
0.0
 40
0.0
 40
0.0
 40
80.0
 40
80.0
 40
80.0
 40
80.0
 10
1209.882185702596
 20
1101.650954448228
 30
0.0
 10
1209.882185702596
 20
1101.97605489765
 30
0.0
 10
1210.036164427943
 20
1102.183380043742
 30
0.0
 10
1210.344121878637
 20
1102.272929886504
 30
0.0
  0
SPLINE
  5
7685
330
1F
100
AcDbEntity
  8
AM_VIS
100
AcDbSpline
210
0.0
220
0.0
230
1.0
 70
     8
 71
     3
 72
     8
 73
     4
 74
     0
 42
0.0000000001
 43
0.0000000001
 40
0.0
 40
0.0
 40
0.0
 40
0.0
 40
80.0
 40
80.0
 40
80.0
 40
80.0
 10
1210.188807780755
 20
1101.0501737689
 30
0.0
 10
1209.984393061982
 20
1101.170996460835
 30
0.0
 10
1209.882185702596
 20
1101.371256698423
 30
0.0
 10
1209.882185702596
 20
1101.650954448228
 30
0.0
  0
SPLINE
  5
7686
330
1F
100
AcDbEntity
  8
AM_VIS
100
AcDbSpline
210
0.0
220
0.0
230
1.0
 70
     8
 71
     3
 72
     8
 73
     4
 74
     0
 42
0.0000000001
 43
0.0000000001
 40
0.0
 40
0.0
 40
0.0
 40
0.0
 40
80.0
 40
80.0
 40
80.0
 40
80.0
 10
1210.615750348323
 20
1100.940844422662
 30
0.0
 10
1210.454090388687
 20
1100.940844422662
 30
0.0
 10
1210.311776210644
 20
1100.977287560366
 30
0.0
 10
1210.188807780755
 20
1101.0501737689
 30
0.0
  0
LINE
  5
7687
330
1F
100
AcDbEntity
  8
AM_VIS
100
AcDbLine
 10
1211.482475603984
 20
1100.940844422662
 30
0.0
 11
1210.615750348323
 21
1100.940844422662
 31
0.0
  0
LINE
  5
7688
330
1F
100
AcDbEntity
  8
AM_VIS
100
AcDbLine
 10
1211.482475603984
 20
1103.940844422662
 30
0.0
 11
1211.482475603984
 21
1100.940844422662
 31
0.0
  0
LINE
  5
7689
330
1F
100
AcDbEntity
  8
AM_VIS
100
AcDbLine
 10
1210.615750348323
 20
1103.940844422662
 30
0.0
 11
1211.482475603984
 21
1103.940844422662
 31
0.0
  0
SPLINE
  5
768A
330
1F
100
AcDbEntity
  8
AM_VIS
100
AcDbSpline
210
0.0
220
0.0
230
1.0
 70
     8
 71
     3
 72
     8
 73
     4
 74
     0
 42
0.0000000001
 43
0.0000000001
 40
0.0
 40
0.0
 40
0.0
 40
0.0
 40
80.0
 40
80.0
 40
80.0
 40
80.0
 10
1210.135084716475
 20
1103.804259780587
 30
0.0
 10
1210.288800954983
 20
1103.895316230929
 30
0.0
 10
1210.449022821119
 20
1103.940844422662
 30
0.0
 10
1210.615750348323
 20
1103.940844422662
 30
0.0
  0
LINE
  5
76A7
330
1F
100
AcDbEntity
  8
AM_VIS
100
AcDbLine
 10
1159.612475603984
 20
1077.190844422662
 30
0.0
 11
1159.612475603984
 21
1080.690844422662
 31
0.0
  0
LINE
  5
76A8
330
1F
100
AcDbEntity
  8
AM_VIS
100
AcDbLine
 10
1165.612475603984
 20
1077.190844422662
 30
0.0
 11
1159.612475603984
 21
1077.190844422662
 31
0.0
  0
LINE
  5
76A9
330
1F
100
AcDbEntity
  8
AM_VIS
100
AcDbLine
 10
1165.612475603984
 20
1080.690844422662
 30
0.0
 11
1165.612475603984
 21
1077.190844422662
 31
0.0
  0
LINE
  5
76AA
330
1F
100
AcDbEntity
  8
AM_VIS
100
AcDbLine
 10
1159.612475603984
 20
1080.690844422662
 30
0.0
 11
1165.612475603984
 21
1080.690844422662
 31
0.0
  0
LINE
  5
76AB
330
1F
100
AcDbEntity
  8
AM_VIS
100
AcDbLine
 10
1213.612475603984
 20
1104.190844422662
 30
0.0
 11
1213.612475603984
 21
1100.690844422662
 31
0.0
  0
LINE
  5
76AC
330
1F
100
AcDbEntity
  8
AM_VIS
100
AcDbLine
 10
1207.612475603984
 20
1104.190844422662
 30
0.0
 11
1213.612475603984
 21
1104.190844422662
 31
0.0
  0
LINE
  5
76AD
330
1F
100
AcDbEntity
  8
AM_VIS
100
AcDbLine
 10
1207.612475603984
 20
1100.690844422662
 30
0.0
 11
1207.612475603984
 21
1104.190844422662
 31
0.0
  0
LINE
  5
76AE
330
1F
100
AcDbEntity
  8
AM_VIS
100
AcDbLine
 10
1213.612475603984
 20
1100.690844422662
 30
0.0
 11
1207.612475603984
 21
1100.690844422662
 31
0.0
  0
LINE
  5
7807
330
1F
100
AcDbEntity
  8
AM_VIS
100
AcDbLine
 10
1171.312475603982
 20
879.463571971803
 30
0.0
 11
1171.157281812652
 21
879.463571971803
 31
0.0
  0
LINE
  5
7808
330
1F
100
AcDbEntity
  8
AM_VIS
100
AcDbLine
 10
1171.312475603982
 20
882.4194867403557
 30
0.0
 11
1171.312475603982
 21
879.463571971803
 31
0.0
  0
LINE
  5
7809
330
1F
100
AcDbEntity
  8
AM_VIS
100
AcDbLine
 10
1171.171953928743
 20
882.4194867403557
 30
0.0
 11
1171.312475603982
 21
882.4194867403557
 31
0.0
  0
LINE
  5
780A
330
1F
100
AcDbEntity
  8
AM_VIS
100
AcDbLine
 10
1170.530513811182
 20
881.7598959064099
 30
0.0
 11
1171.171953928743
 21
882.4194867403557
 31
0.0
  0
LINE
  5
780B
330
1F
100
AcDbEntity
  8
AM_VIS
100
AcDbLine
 10
1170.617444376942
 20
881.6700033641616
 30
0.0
 11
1170.530513811182
 21
881.7598959064101
 31
0.0
  0
LINE
  5
780C
330
1F
100
AcDbEntity
  8
AM_VIS
100
AcDbLine
 10
1171.157281812652
 20
882.2535127322733
 30
0.0
 11
1170.617444376942
 21
881.6700033641616
 31
0.0
  0
LINE
  5
780D
330
1F
100
AcDbEntity
  8
AM_VIS
100
AcDbLine
 10
1171.157281812652
 20
879.463571971803
 30
0.0
 11
1171.157281812652
 21
882.2535127322733
 31
0.0
  0
SPLINE
  5
780E
330
1F
100
AcDbEntity
  8
AM_VIS
100
AcDbSpline
210
0.0
220
0.0
230
1.0
 70
     8
 71
     3
 72
     8
 73
     4
 74
     0
 42
0.0000000001
 43
0.0000000001
 40
0.0
 40
0.0
 40
0.0
 40
0.0
 40
80.0
 40
80.0
 40
80.0
 40
80.0
 10
1169.511456133004
 20
881.5781132098633
 30
0.0
 10
1169.511456133004
 20
881.8474923316424
 30
0.0
 10
1169.422562396781
 20
882.0427991025892
 30
0.0
 10
1169.244774924334
 20
882.1640334890698
 30
0.0
  0
SPLINE
  5
780F
330
1F
100
AcDbEntity
  8
AM_VIS
100
AcDbSpline
210
0.0
220
0.0
230
1.0
 70
     8
 71
     3
 72
     8
 73
     4
 74
     0
 42
0.0000000001
 43
0.0000000001
 40
0.0
 40
0.0
 40
0.0
 40
0.0
 40
80.0
 40
80.0
 40
80.0
 40
80.0
 10
1169.259963664231
 20
880.9976002598267
 30
0.0
 10
1169.42762531008
 20
881.1107752812986
 30
0.0
 10
1169.511456133004
 20
881.3042796204006
 30
0.0
 10
1169.511456133004
 20
881.5781132098633
 30
0.0
  0
SPLINE
  5
7810
330
1F
100
AcDbEntity
  8
AM_VIS
100
AcDbSpline
210
0.0
220
0.0
230
1.0
 70
     8
 71
     3
 72
     8
 73
     4
 74
     0
 42
0.0000000001
 43
0.0000000001
 40
0.0
 40
0.0
 40
0.0
 40
0.0
 40
80.0
 40
80.0
 40
80.0
 40
80.0
 10
1168.74940157753
 20
880.8592828461602
 30
0.0
 10
1168.952308436267
 20
880.8592828461602
 30
0.0
 10
1169.12249578729
 20
880.9053886282926
 30
0.0
 10
1169.259963664231
 20
880.9976002598267
 30
0.0
  0
LINE
  5
7811
330
1F
100
AcDbEntity
  8
AM_VIS
100
AcDbLine
 10
1168.071694468787
 20
880.8592828461602
 30
0.0
 11
1168.74940157753
 21
880.8592828461602
 31
0.0
  0
LINE
  5
7812
330
1F
100
AcDbEntity
  8
AM_VIS
100
AcDbLine
 10
1168.071694468787
 20
882.2990789519646
 30
0.0
 11
1168.071694468787
 21
880.85928284616
 31
0.0
  0
LINE
  5
7813
330
1F
100
AcDbEntity
  8
AM_VIS
100
AcDbLine
 10
1168.74940157753
 20
882.2990789519646
 30
0.0
 11
1168.071694468787
 21
882.2990789519646
 31
0.0
  0
SPLINE
  5
7814
330
1F
100
AcDbEntity
  8
AM_VIS
100
AcDbSpline
210
0.0
220
0.0
230
1.0
 70
     8
 71
     3
 72
     8
 73
     4
 74
     0
 42
0.0000000001
 43
0.0000000001
 40
0.0
 40
0.0
 40
0.0
 40
0.0
 40
80.0
 40
80.0
 40
80.0
 40
80.0
 10
1169.244774924334
 20
882.1640334890698
 30
0.0
 10
1169.113805038031
 20
882.2540637976663
 30
0.0
 10
1168.948680600307
 20
882.2990789519646
 30
0.0
 10
1168.74940157753
 20
882.2990789519646
 30
0.0
  0
SPLINE
  5
7815
330
1F
100
AcDbEntity
  8
AM_VIS
100
AcDbSpline
210
0.0
220
0.0
230
1.0
 70
     8
 71
     3
 72
     8
 73
     4
 74
     0
 42
0.0000000001
 43
0.0000000001
 40
0.0
 40
0.0
 40
0.0
 40
0.0
 40
80.0
 40
80.0
 40
80.0
 40
80.0
 10
1169.664514545936
 20
881.5783543009727
 30
0.0
 10
1169.664514512302
 20
881.1063897304235
 30
0.0
 10
1169.45776166513
 20
880.8285609504952
 30
0.0
 10
1169.044256004422
 20
880.7448678939191
 30
0.0
  0
SPLINE
  5
7816
330
1F
100
AcDbEntity
  8
AM_VIS
100
AcDbSpline
210
0.0
220
0.0
230
1.0
 70
     8
 71
     3
 72
     8
 73
     4
 74
     0
 42
0.0000000001
 43
0.0000000001
 40
0.0
 40
0.0
 40
0.0
 40
0.0
 40
80.0
 40
80.0
 40
80.0
 40
80.0
 10
1169.330878892005
 20
882.2908129710683
 30
0.0
 10
1169.553302627658
 20
882.1389025998275
 30
0.0
 10
1169.664514512302
 20
881.9014163876737
 30
0.0
 10
1169.664514545936
 20
881.5783543009727
 30
0.0
  0
SPLINE
  5
7817
330
1F
100
AcDbEntity
  8
AM_VIS
100
AcDbSpline
210
0.0
220
0.0
230
1.0
 70
     8
 71
     3
 72
     8
 73
     4
 74
     0
 42
0.0000000001
 43
0.0000000001
 40
0.0
 40
0.0
 40
0.0
 40
0.0
 40
80.0
 40
80.0
 40
80.0
 40
80.0
 10
1168.74940157753
 20
882.4525506639412
 30
0.0
 10
1168.979149901911
 20
882.4525506639412
 30
0.0
 10
1169.172975684614
 20
882.3986380772273
 30
0.0
 10
1169.330878892005
 20
882.2908129710683
 30
0.0
  0
LINE
  5
7818
330
1F
100
AcDbEntity
  8
AM_VIS
100
AcDbLine
 10
1167.916500677457
 20
882.4525506639412
 30
0.0
 11
1168.74940157753
 21
882.4525506639412
 31
0.0
  0
LINE
  5
7819
330
1F
100
AcDbEntity
  8
AM_VIS
100
AcDbLine
 10
1167.916500677457
 20
879.463571971803
 30
0.0
 11
1167.916500677457
 21
882.4525506639412
 31
0.0
  0
LINE
  5
781A
330
1F
100
AcDbEntity
  8
AM_VIS
100
AcDbLine
 10
1168.071694468787
 20
879.463571971803
 30
0.0
 11
1167.916500677457
 21
879.463571971803
 31
0.0
  0
LINE
  5
781B
330
1F
100
AcDbEntity
  8
AM_VIS
100
AcDbLine
 10
1168.071694468787
 20
880.7062588748156
 30
0.0
 11
1168.071694468787
 21
879.463571971803
 31
0.0
  0
LINE
  5
781C
330
1F
100
AcDbEntity
  8
AM_VIS
100
AcDbLine
 10
1168.74940157753
 20
880.7062588748156
 30
0.0
 11
1168.071694468787
 21
880.7062588748156
 31
0.0
  0
SPLINE
  5
781D
330
1F
100
AcDbEntity
  8
AM_VIS
100
AcDbSpline
210
0.0
220
0.0
230
1.0
 70
     8
 71
     3
 72
     8
 73
     4
 74
     0
 42
0.0000000001
 43
0.0000000001
 40
0.0
 40
0.0
 40
0.0
 40
0.0
 40
80.0
 40
80.0
 40
80.0
 40
80.0
 10
1168.907385137413
 20
880.7192433531403
 30
0.0
 10
1168.869843807508
 20
880.7105870118343
 30
0.0
 10
1168.817182620881
 20
880.7062588748156
 30
0.0
 10
1168.74940157753
 20
880.7062588748156
 30
0.0
  0
LINE
  5
781E
330
1F
100
AcDbEntity
  8
AM_VIS
100
AcDbLine
 10
1169.536116309345
 20
879.4525506639413
 30
0.0
 11
1168.907385137413
 21
880.7192433531403
 31
0.0
  0
LINE
  5
781F
330
1F
100
AcDbEntity
  8
AM_VIS
100
AcDbLine
 10
1169.662344725951
 20
879.4972902855429
 30
0.0
 11
1169.536116309345
 21
879.4525506639413
 31
0.0
  0
LINE
  5
7820
330
1F
100
AcDbEntity
  8
AM_VIS
100
AcDbLine
 10
1169.044256004422
 20
880.7448678939191
 30
0.0
 11
1169.66234472595
 21
879.4972902855429
 31
0.0
  0
SPLINE
  5
7821
330
1F
100
AcDbEntity
  8
AM_VIS
100
AcDbSpline
210
0.0
220
0.0
230
1.0
 70
     8
 71
     3
 72
     8
 73
     4
 74
     0
 42
0.0000000001
 43
0.0000000001
 40
0.0
 40
0.0
 40
0.0
 40
0.0
 40
80.0
 40
80.0
 40
80.0
 40
80.0
 10
1178.333852816379
 20
905.0748888829678
 30
0.0
 10
1178.333852816379
 20
905.3452612905941
 30
0.0
 10
1178.244631300892
 20
905.5412882192509
 30
0.0
 10
1178.066188269919
 20
905.6629696351802
 30
0.0
  0
SPLINE
  5
7822
330
1F
100
AcDbEntity
  8
AM_VIS
100
AcDbSpline
210
0.0
220
0.0
230
1.0
 70
     8
 71
     3
 72
     8
 73
     4
 74
     0
 42
0.0000000001
 43
0.0000000001
 40
0.0
 40
0.0
 40
0.0
 40
0.0
 40
80.0
 40
80.0
 40
80.0
 40
80.0
 10
1178.081433015494
 20
904.4922353984546
 30
0.0
 10
1178.24971288275
 20
904.6058277319527
 30
0.0
 10
1178.333852816379
 20
904.8000455826294
 30
0.0
 10
1178.333852816379
 20
905.0748888829678
 30
0.0
  0
SPLINE
  5
7823
330
1F
100
AcDbEntity
  8
AM_VIS
100
AcDbSpline
210
0.0
220
0.0
230
1.0
 70
     8
 71
     3
 72
     8
 73
     4
 74
     0
 42
0.0000000001
 43
0.0000000001
 40
0.0
 40
0.0
 40
0.0
 40
0.0
 40
80.0
 40
80.0
 40
80.0
 40
80.0
 10
1177.568988325228
 20
904.3534079648262
 30
0.0
 10
1177.772643365598
 20
904.3534079648262
 30
0.0
 10
1177.9434582511
 20
904.3996837535301
 30
0.0
 10
1178.081433015494
 20
904.4922353984546
 30
0.0
  0
LINE
  5
7824
330
1F
100
AcDbEntity
  8
AM_VIS
100
AcDbLine
 10
1176.888782296467
 20
904.3534079648262
 30
0.0
 11
1177.568988325228
 21
904.3534079648262
 31
0.0
  0
LINE
  5
7825
330
1F
100
AcDbEntity
  8
AM_VIS
100
AcDbLine
 10
1176.888782296467
 20
905.7985130533218
 30
0.0
 11
1176.888782296467
 21
904.3534079648262
 31
0.0
  0
LINE
  5
7826
330
1F
100
AcDbEntity
  8
AM_VIS
100
AcDbLine
 10
1177.568988325228
 20
905.7985130533218
 30
0.0
 11
1176.888782296467
 21
905.7985130533218
 31
0.0
  0
SPLINE
  5
7827
330
1F
100
AcDbEntity
  8
AM_VIS
100
AcDbSpline
210
0.0
220
0.0
230
1.0
 70
     8
 71
     3
 72
     8
 73
     4
 74
     0
 42
0.0000000001
 43
0.0000000001
 40
0.0
 40
0.0
 40
0.0
 40
0.0
 40
80.0
 40
80.0
 40
80.0
 40
80.0
 10
1178.066188269919
 20
905.6629696351802
 30
0.0
 10
1177.934735456306
 20
905.7533319139412
 30
0.0
 10
1177.769002152662
 20
905.7985130533218
 30
0.0
 10
1177.568988325228
 20
905.7985130533218
 30
0.0
  0
SPLINE
  5
7828
330
1F
100
AcDbEntity
  8
AM_VIS
100
AcDbSpline
210
0.0
220
0.0
230
1.0
 70
     8
 71
     3
 72
     8
 73
     4
 74
     0
 42
0.0000000001
 43
0.0000000001
 40
0.0
 40
0.0
 40
0.0
 40
0.0
 40
80.0
 40
80.0
 40
80.0
 40
80.0
 10
1178.487475603989
 20
905.0752000002244
 30
0.0
 10
1178.487475570231
 20
904.7458305311979
 30
0.0
 10
1178.375611632178
 20
904.5063048121713
 30
0.0
 10
1178.15188378983
 20
904.3566228431448
 30
0.0
  0
SPLINE
  5
7829
330
1F
100
AcDbEntity
  8
AM_VIS
100
AcDbSpline
210
0.0
220
0.0
230
1.0
 70
     8
 71
     3
 72
     8
 73
     4
 74
     0
 42
0.0000000001
 43
0.0000000001
 40
0.0
 40
0.0
 40
0.0
 40
0.0
 40
80.0
 40
80.0
 40
80.0
 40
80.0
 10
1178.152609730096
 20
905.7902165931448
 30
0.0
 10
1178.375853612267
 20
905.6377921606097
 30
0.0
 10
1178.487475570231
 20
905.3994533188085
 30
0.0
 10
1178.487475603989
 20
905.0752000002244
 30
0.0
  0
SPLINE
  5
782A
330
1F
100
AcDbEntity
  8
AM_VIS
100
AcDbSpline
210
0.0
220
0.0
230
1.0
 70
     8
 71
     3
 72
     8
 73
     4
 74
     0
 42
0.0000000001
 43
0.0000000001
 40
0.0
 40
0.0
 40
0.0
 40
0.0
 40
80.0
 40
80.0
 40
80.0
 40
80.0
 10
1177.568988325228
 20
905.9525506639412
 30
0.0
 10
1177.799583804198
 20
905.9525506639412
 30
0.0
 10
1177.994124283739
 20
905.8984392845035
 30
0.0
 10
1178.152609730096
 20
905.7902165931448
 30
0.0
  0
LINE
  5
782B
330
1F
100
AcDbEntity
  8
AM_VIS
100
AcDbLine
 10
1176.733016256644
 20
905.9525506639412
 30
0.0
 11
1177.568988325228
 21
905.9525506639412
 31
0.0
  0
LINE
  5
782C
330
1F
100
AcDbEntity
  8
AM_VIS
100
AcDbLine
 10
1176.733016256644
 20
902.9525506639412
 30
0.0
 11
1176.733016256644
 21
905.9525506639412
 31
0.0
  0
LINE
  5
782D
330
1F
100
AcDbEntity
  8
AM_VIS
100
AcDbLine
 10
1176.888782296467
 20
902.9525506639412
 30
0.0
 11
1176.733016256644
 21
902.9525506639412
 31
0.0
  0
LINE
  5
782E
330
1F
100
AcDbEntity
  8
AM_VIS
100
AcDbLine
 10
1176.888782296467
 20
904.2000271573041
 30
0.0
 11
1176.888782296467
 21
902.9525506639412
 31
0.0
  0
LINE
  5
782F
330
1F
100
AcDbEntity
  8
AM_VIS
100
AcDbLine
 10
1177.568988325228
 20
904.2000271573041
 30
0.0
 11
1176.888782296467
 21
904.2000271573041
 31
0.0
  0
SPLINE
  5
7830
330
1F
100
AcDbEntity
  8
AM_VIS
100
AcDbSpline
210
0.0
220
0.0
230
1.0
 70
     8
 71
     3
 72
     8
 73
     4
 74
     0
 42
0.0000000001
 43
0.0000000001
 40
0.0
 40
0.0
 40
0.0
 40
0.0
 40
80.0
 40
80.0
 40
80.0
 40
80.0
 10
1178.15188378983
 20
904.3566228431448
 30
0.0
 10
1177.997569630538
 20
904.252225719251
 30
0.0
 10
1177.803271131085
 20
904.2000271573041
 30
0.0
 10
1177.568988325228
 20
904.2000271573041
 30
0.0
  0
LINE
  5
7831
330
1F
100
AcDbEntity
  8
AM_VIS
100
AcDbLine
 10
1205.601724143038
 20
879.4525506639413
 30
0.0
 11
1204.18622925626
 21
879.4525506639413
 31
0.0
  0
LINE
  5
7832
330
1F
100
AcDbEntity
  8
AM_VIS
100
AcDbLine
 10
1205.601724143038
 20
879.5982432315089
 30
0.0
 11
1205.601724143038
 21
879.4525506639413
 31
0.0
  0
LINE
  5
7833
330
1F
100
AcDbEntity
  8
AM_VIS
100
AcDbLine
 10
1204.389924928283
 20
879.5982432315089
 30
0.0
 11
1205.601724143038
 21
879.5982432315089
 31
0.0
  0
LINE
  5
7834
330
1F
100
AcDbEntity
  8
AM_VIS
100
AcDbLine
 10
1205.495716107976
 20
881.3344329685431
 30
0.0
 11
1204.389924928283
 21
879.5982432315089
 31
0.0
  0
SPLINE
  5
7835
330
1F
100
AcDbEntity
  8
AM_VIS
100
AcDbSpline
210
0.0
220
0.0
230
1.0
 70
     8
 71
     3
 72
     8
 73
     4
 74
     0
 42
0.0000000001
 43
0.0000000001
 40
0.0
 40
0.0
 40
0.0
 40
0.0
 40
80.0
 40
80.0
 40
80.0
 40
80.0
 10
1205.612475603959
 20
881.7467206785504
 30
0.0
 10
1205.612475570521
 20
881.5970676359947
 30
0.0
 10
1205.573555760819
 20
881.4596383881797
 30
0.0
 10
1205.495716107976
 20
881.3344329685431
 30
0.0
  0
SPLINE
  5
7836
330
1F
100
AcDbEntity
  8
AM_VIS
100
AcDbSpline
210
0.0
220
0.0
230
1.0
 70
     8
 71
     3
 72
     8
 73
     4
 74
     0
 42
0.0000000001
 43
0.0000000001
 40
0.0
 40
0.0
 40
0.0
 40
0.0
 40
80.0
 40
80.0
 40
80.0
 40
80.0
 10
1205.361904931935
 20
882.2634071285138
 30
0.0
 10
1205.528952024325
 20
882.1171324754825
 30
0.0
 10
1205.612475570521
 20
881.9449036588279
 30
0.0
 10
1205.612475603959
 20
881.7467206785504
 30
0.0
  0
SPLINE
  5
7837
330
1F
100
AcDbEntity
  8
AM_VIS
100
AcDbSpline
210
0.0
220
0.0
230
1.0
 70
     8
 71
     3
 72
     8
 73
     4
 74
     0
 42
0.0000000001
 43
0.0000000001
 40
0.0
 40
0.0
 40
0.0
 40
0.0
 40
80.0
 40
80.0
 40
80.0
 40
80.0
 10
1204.921882561592
 20
882.4525506639412
 30
0.0
 10
1205.124288503697
 20
882.4525506639412
 30
0.0
 10
1205.27096263829
 20
882.3895027965068
 30
0.0
 10
1205.361904931935
 20
882.2634071285138
 30
0.0
  0
SPLINE
  5
7838
330
1F
100
AcDbEntity
  8
AM_VIS
100
AcDbSpline
210
0.0
220
0.0
230
1.0
 70
     8
 71
     3
 72
     8
 73
     4
 74
     0
 42
0.0000000001
 43
0.0000000001
 40
0.0
 40
0.0
 40
0.0
 40
0.0
 40
80.0
 40
80.0
 40
80.0
 40
80.0
 10
1204.480490578393
 20
882.3061048093029
 30
0.0
 10
1204.610147239811
 20
882.4037353679157
 30
0.0
 10
1204.757277900878
 20
882.4525506639412
 30
0.0
 10
1204.921882561592
 20
882.4525506639412
 30
0.0
  0
SPLINE
  5
7839
330
1F
100
AcDbEntity
  8
AM_VIS
100
AcDbSpline
210
0.0
220
0.0
230
1.0
 70
     8
 71
     3
 72
     8
 73
     4
 74
     0
 42
0.0000000001
 43
0.0000000001
 40
0.0
 40
0.0
 40
0.0
 40
0.0
 40
80.0
 40
80.0
 40
80.0
 40
80.0
 10
1204.214135118203
 20
881.8857363834444
 30
0.0
 10
1204.260770402515
 20
882.0669361643064
 30
0.0
 10
1204.349555589349
 20
882.2070589617799
 30
0.0
 10
1204.480490578393
 20
882.3061048093029
 30
0.0
  0
LINE
  5
783A
330
1F
100
AcDbEntity
  8
AM_VIS
100
AcDbLine
 10
1204.349384387742
 20
881.8512221394708
 30
0.0
 11
1204.214135118203
 21
881.8857363834444
 31
0.0
  0
LINE
  5
783B
330
1F
100
AcDbEntity
  8
AM_VIS
100
AcDbLine
 10
1204.349375055796
 20
881.8512255213667
 30
0.0
 11
1204.37132616119
 21
881.9117970340792
 31
0.0
  0
LINE
  5
783C
330
1F
100
AcDbEntity
  8
AM_VIS
100
AcDbLine
 10
1204.371038990434
 20
881.9119342833699
 30
0.0
 11
1204.386897932109
 21
881.9465136380845
 31
0.0
  0
SPLINE
  5
783D
330
1F
100
AcDbEntity
  8
AM_VIS
100
AcDbSpline
210
0.0
220
0.0
230
1.0
 70
     8
 71
     3
 72
     8
 73
     4
 74
     0
 42
0.0000000001
 43
0.0000000001
 40
0.0
 40
0.0
 40
0.0
 40
0.0
 40
80.0
 40
80.0
 40
80.0
 40
80.0
 10
1204.921882561592
 20
882.3004209159499
 30
0.0
 10
1204.677794712608
 20
882.3004209159499
 30
0.0
 10
1204.49951676136
 20
882.182428768397
 30
0.0
 10
1204.387048741285
 20
881.9464444732911
 30
0.0
  0
SPLINE
  5
783E
330
1F
100
AcDbEntity
  8
AM_VIS
100
AcDbSpline
210
0.0
220
0.0
230
1.0
 70
     8
 71
     3
 72
     8
 73
     4
 74
     0
 42
0.0000000001
 43
0.0000000001
 40
0.0
 40
0.0
 40
0.0
 40
0.0
 40
80.0
 40
80.0
 40
80.0
 40
80.0
 10
1205.306966336245
 20
882.1410150996607
 30
0.0
 10
1205.204736138832
 20
882.2472856215616
 30
0.0
 10
1205.07637489176
 20
882.3004209159499
 30
0.0
 10
1204.921882561592
 20
882.3004209159499
 30
0.0
  0
SPLINE
  5
783F
330
1F
100
AcDbEntity
  8
AM_VIS
100
AcDbSpline
210
0.0
220
0.0
230
1.0
 70
     8
 71
     3
 72
     8
 73
     4
 74
     0
 42
0.0000000001
 43
0.0000000001
 40
0.0
 40
0.0
 40
0.0
 40
0.0
 40
80.0
 40
80.0
 40
80.0
 40
80.0
 10
1205.460311615646
 20
881.7467206785504
 30
0.0
 10
1205.460311615646
 20
881.9033130706186
 30
0.0
 10
1205.40919650022
 20
882.034744544322
 30
0.0
 10
1205.306966336245
 20
882.1410150996607
 30
0.0
  0
SPLINE
  5
7840
330
1F
100
AcDbEntity
  8
AM_VIS
100
AcDbSpline
210
0.0
220
0.0
230
1.0
 70
     8
 71
     3
 72
     8
 73
     4
 74
     0
 42
0.0000000001
 43
0.0000000001
 40
0.0
 40
0.0
 40
0.0
 40
0.0
 40
80.0
 40
80.0
 40
80.0
 40
80.0
 10
1205.365500165683
 20
881.412535141662
 30
0.0
 10
1205.428707798992
 20
881.5161691588151
 30
0.0
 10
1205.460311615646
 20
881.6275643266319
 30
0.0
 10
1205.460311615646
 20
881.7467206785504
 30
0.0
  0
LINE
  5
7841
330
1F
100
AcDbEntity
  8
AM_VIS
100
AcDbLine
 10
1204.18622925626
 20
879.4525506639413
 30
0.0
 11
1205.365500165683
 21
881.412535141662
 31
0.0
  0
SPLINE
  5
7842
330
1F
100
AcDbEntity
  8
AM_VIS
100
AcDbSpline
210
0.0
220
0.0
230
1.0
 70
     8
 71
     3
 72
     8
 73
     4
 74
     0
 42
0.0000000001
 43
0.0000000001
 40
0.0
 40
0.0
 40
0.0
 40
0.0
 40
80.0
 40
80.0
 40
80.0
 40
80.0
 10
1203.209626809218
 20
881.5832231438536
 30
0.0
 10
1203.209626809218
 20
881.8510280998369
 30
0.0
 10
1203.121252539678
 20
882.0451935602159
 30
0.0
 10
1202.944504000599
 20
882.1657194915527
 30
0.0
  0
SPLINE
  5
7843
330
1F
100
AcDbEntity
  8
AM_VIS
100
AcDbSpline
210
0.0
220
0.0
230
1.0
 70
     8
 71
     3
 72
     8
 73
     4
 74
     0
 42
0.0000000001
 43
0.0000000001
 40
0.0
 40
0.0
 40
0.0
 40
0.0
 40
80.0
 40
80.0
 40
80.0
 40
80.0
 10
1202.959603982337
 20
881.0061025266147
 30
0.0
 10
1203.126285866924
 20
881.1186161893054
 30
0.0
 10
1203.209626809218
 20
881.310989750677
 30
0.0
 10
1203.209626809218
 20
881.5832231438536
 30
0.0
  0
SPLINE
  5
7844
330
1F
100
AcDbEntity
  8
AM_VIS
100
AcDbSpline
210
0.0
220
0.0
230
1.0
 70
     8
 71
     3
 72
     8
 73
     4
 74
     0
 42
0.0000000001
 43
0.0000000001
 40
0.0
 40
0.0
 40
0.0
 40
0.0
 40
80.0
 40
80.0
 40
80.0
 40
80.0
 10
1202.452025457867
 20
880.8685933958624
 30
0.0
 10
1202.653746593543
 20
880.8685933958624
 30
0.0
 10
1202.822939423888
 20
880.9144297504879
 30
0.0
 10
1202.959603982337
 20
881.0061025266147
 30
0.0
  0
LINE
  5
7845
330
1F
100
AcDbEntity
  8
AM_VIS
100
AcDbLine
 10
1201.77827865363
 20
880.8685933958624
 30
0.0
 11
1202.452025457867
 21
880.8685933958624
 31
0.0
  0
LINE
  5
7846
330
1F
100
AcDbEntity
  8
AM_VIS
100
AcDbLine
 10
1201.77827865363
 20
882.2999757917717
 30
0.0
 11
1201.77827865363
 21
880.8685933958624
 31
0.0
  0
LINE
  5
7847
330
1F
100
AcDbEntity
  8
AM_VIS
100
AcDbLine
 10
1202.452025457867
 20
882.2999757917717
 30
0.0
 11
1201.77827865363
 21
882.2999757917717
 31
0.0
  0
SPLINE
  5
7848
330
1F
100
AcDbEntity
  8
AM_VIS
100
AcDbSpline
210
0.0
220
0.0
230
1.0
 70
     8
 71
     3
 72
     8
 73
     4
 74
     0
 42
0.0000000001
 43
0.0000000001
 40
0.0
 40
0.0
 40
0.0
 40
0.0
 40
80.0
 40
80.0
 40
80.0
 40
80.0
 10
1202.944504000599
 20
882.1657194915527
 30
0.0
 10
1202.814299460599
 20
882.2552236916987
 30
0.0
 10
1202.650139957502
 20
882.2999757917717
 30
0.0
 10
1202.452025457867
 20
882.2999757917717
 30
0.0
  0
SPLINE
  5
7849
330
1F
100
AcDbEntity
  8
AM_VIS
100
AcDbSpline
210
0.0
220
0.0
230
1.0
 70
     8
 71
     3
 72
     8
 73
     4
 74
     0
 42
0.0000000001
 43
0.0000000001
 40
0.0
 40
0.0
 40
0.0
 40
0.0
 40
80.0
 40
80.0
 40
80.0
 40
80.0
 10
1203.36179079753
 20
881.5834628261034
 30
0.0
 10
1203.361790764093
 20
881.1142562661927
 30
0.0
 10
1203.156246114714
 20
880.8380510291712
 30
0.0
 10
1202.745156849393
 20
880.7548470481632
 30
0.0
  0
SPLINE
  5
784A
330
1F
100
AcDbEntity
  8
AM_VIS
100
AcDbSpline
210
0.0
220
0.0
230
1.0
 70
     8
 71
     3
 72
     8
 73
     4
 74
     0
 42
0.0000000001
 43
0.0000000001
 40
0.0
 40
0.0
 40
0.0
 40
0.0
 40
80.0
 40
80.0
 40
80.0
 40
80.0
 10
1203.030104804105
 20
882.2917581146352
 30
0.0
 10
1203.251228766284
 20
882.1407354592233
 30
0.0
 10
1203.361790764093
 20
881.9046370408587
 30
0.0
 10
1203.36179079753
 20
881.5834628261034
 30
0.0
  0
SPLINE
  5
784B
330
1F
100
AcDbEntity
  8
AM_VIS
100
AcDbSpline
210
0.0
220
0.0
230
1.0
 70
     8
 71
     3
 72
     8
 73
     4
 74
     0
 42
0.0000000001
 43
0.0000000001
 40
0.0
 40
0.0
 40
0.0
 40
0.0
 40
80.0
 40
80.0
 40
80.0
 40
80.0
 10
1202.452025457867
 20
882.4525506639412
 30
0.0
 10
1202.68043120621
 20
882.4525506639412
 30
0.0
 10
1202.873124332769
 20
882.398953125214
 30
0.0
 10
1203.030104804105
 20
882.2917581146352
 30
0.0
  0
LINE
  5
784C
330
1F
100
AcDbEntity
  8
AM_VIS
100
AcDbLine
 10
1201.62399176539
 20
882.4525506639412
 30
0.0
 11
1202.452025457867
 21
882.4525506639412
 31
0.0
  0
LINE
  5
784D
330
1F
100
AcDbEntity
  8
AM_VIS
100
AcDbLine
 10
1201.62399176539
 20
879.481038611348
 30
0.0
 11
1201.62399176539
 21
882.4525506639412
 31
0.0
  0
LINE
  5
784E
330
1F
100
AcDbEntity
  8
AM_VIS
100
AcDbLine
 10
1201.77827865363
 20
879.481038611348
 30
0.0
 11
1201.62399176539
 21
879.481038611348
 31
0.0
  0
LINE
  5
784F
330
1F
100
AcDbEntity
  8
AM_VIS
100
AcDbLine
 10
1201.77827865363
 20
880.7164636478711
 30
0.0
 11
1201.77827865363
 21
879.481038611348
 31
0.0
  0
LINE
  5
7850
330
1F
100
AcDbEntity
  8
AM_VIS
100
AcDbLine
 10
1202.452025457867
 20
880.7164636478711
 30
0.0
 11
1201.77827865363
 21
880.7164636478711
 31
0.0
  0
SPLINE
  5
7851
330
1F
100
AcDbEntity
  8
AM_VIS
100
AcDbSpline
210
0.0
220
0.0
230
1.0
 70
     8
 71
     3
 72
     8
 73
     4
 74
     0
 42
0.0000000001
 43
0.0000000001
 40
0.0
 40
0.0
 40
0.0
 40
0.0
 40
80.0
 40
80.0
 40
80.0
 40
80.0
 10
1202.60908581214
 20
880.7293722490399
 30
0.0
 10
1202.571763861811
 20
880.7207664926353
 30
0.0
 10
1202.519410410387
 20
880.7164636478711
 30
0.0
 10
1202.452025457867
 20
880.7164636478711
 30
0.0
  0
LINE
  5
7852
330
1F
100
AcDbEntity
  8
AM_VIS
100
AcDbLine
 10
1203.234142879342
 20
879.4700817084992
 30
0.0
 11
1202.60908581214
 21
880.7293722490397
 31
0.0
  0
LINE
  5
7853
330
1F
100
AcDbEntity
  8
AM_VIS
100
AcDbLine
 10
1203.359633657282
 20
879.5145598860012
 30
0.0
 11
1203.234142879342
 21
879.4700817084992
 31
0.0
  0
LINE
  5
7854
330
1F
100
AcDbEntity
  8
AM_VIS
100
AcDbLine
 10
1202.745156849393
 20
880.7548470481632
 30
0.0
 11
1203.359633657282
 21
879.5145598860012
 31
0.0
  0
LINE
  5
7855
330
1F
100
AcDbEntity
  8
AM_VIS
100
AcDbLine
 10
1200.612475603984
 20
879.2025506639411
 30
0.0
 11
1200.612475603984
 21
882.7025506639412
 31
0.0
  0
LINE
  5
7856
330
1F
100
AcDbEntity
  8
AM_VIS
100
AcDbLine
 10
1206.612475603983
 20
879.2025506639411
 30
0.0
 11
1200.612475603984
 21
879.2025506639411
 31
0.0
  0
LINE
  5
7857
330
1F
100
AcDbEntity
  8
AM_VIS
100
AcDbLine
 10
1206.612475603983
 20
882.7025506639412
 30
0.0
 11
1206.612475603983
 21
879.2025506639411
 31
0.0
  0
LINE
  5
7858
330
1F
100
AcDbEntity
  8
AM_VIS
100
AcDbLine
 10
1200.612475603984
 20
882.7025506639412
 30
0.0
 11
1206.612475603983
 21
882.7025506639412
 31
0.0
  0
LINE
  5
7859
330
1F
100
AcDbEntity
  8
AM_VIS
100
AcDbLine
 10
1172.612475603983
 20
882.7025506639412
 30
0.0
 11
1172.612475603983
 21
879.2025506639411
 31
0.0
  0
LINE
  5
785A
330
1F
100
AcDbEntity
  8
AM_VIS
100
AcDbLine
 10
1166.612475603983
 20
882.7025506639412
 30
0.0
 11
1172.612475603983
 21
882.7025506639412
 31
0.0
  0
LINE
  5
785B
330
1F
100
AcDbEntity
  8
AM_VIS
100
AcDbLine
 10
1166.612475603983
 20
879.2025506639411
 30
0.0
 11
1166.612475603983
 21
882.7025506639412
 31
0.0
  0
LINE
  5
785C
330
1F
100
AcDbEntity
  8
AM_VIS
100
AcDbLine
 10
1172.612475603983
 20
879.2025506639411
 30
0.0
 11
1166.612475603983
 21
879.2025506639411
 31
0.0
  0
LINE
  5
785D
330
1F
100
AcDbEntity
  8
AM_VIS
100
AcDbLine
 10
1180.612475603983
 20
906.2025506639413
 30
0.0
 11
1180.612475603983
 21
902.7025506639413
 31
0.0
  0
LINE
  5
785E
330
1F
100
AcDbEntity
  8
AM_VIS
100
AcDbLine
 10
1174.612475603983
 20
906.2025506639413
 30
0.0
 11
1180.612475603983
 21
906.2025506639413
 31
0.0
  0
LINE
  5
785F
330
1F
100
AcDbEntity
  8
AM_VIS
100
AcDbLine
 10
1174.612475603983
 20
902.7025506639413
 30
0.0
 11
1174.612475603983
 21
906.2025506639413
 31
0.0
  0
LINE
  5
7860
330
1F
100
AcDbEntity
  8
AM_VIS
100
AcDbLine
 10
1180.612475603983
 20
902.7025506639413
 30
0.0
 11
1174.612475603983
 21
902.7025506639413
 31
0.0
  0
ENDSEC
  0
SECTION
  2
OBJECTS
  0
DICTIONARY
  5
C
330
0
100
AcDbDictionary
281
     1
  3
ACAD_COLOR
350
BE
  3
ACAD_GROUP
350
D
  3
ACAD_LAYOUT
350
1A
  3
ACAD_MATERIAL
350
BD
  3
ACAD_MLINESTYLE
350
17
  3
ACAD_PLOTSETTINGS
350
19
  3
ACAD_PLOTSTYLENAME
350
E
  3
ACAD_TABLESTYLE
350
11A
  3
ACDBHEADERROUNDTRIPXREC
350
78AF
  3
AcDbVariableDictionary
350
94
  3
AcmDictionary
350
5B
  3
AMG
350
41
  3
AMGSNAPSETTINGS
350
1B8
  3
DWGPROPS
350
78AE
  0
DICTIONARY
  5
3F9
330
2
100
AcDbDictionary
280
     1
281
     1
  3
ACAD_LAYERFILTERS
360
5F07
  3
ACAD_LAYERSTATES
360
A94
  3
ACLYDICTIONARY
360
5F06
  0
DICTIONARY
  5
8F
330
1F
100
AcDbDictionary
280
     1
281
     1
  0
DICTIONARY
  5
7562
330
7561
100
AcDbDictionary
280
     1
281
     1
  0
DICTIONARY
  5
BE
102
{ACAD_REACTORS
330
C
102
}
330
C
100
AcDbDictionary
281
     1
  0
DICTIONARY
  5
D
102
{ACAD_REACTORS
330
C
102
}
330
C
100
AcDbDictionary
281
     1
  0
DICTIONARY
  5
1A
102
{ACAD_REACTORS
330
C
102
}
330
C
100
AcDbDictionary
281
     1
  3
Model
350
22
  3
配置1
350
1E
  3
配置2
350
26
  0
DICTIONARY
  5
BD
102
{ACAD_REACTORS
330
C
102
}
330
C
100
AcDbDictionary
281
     1
  0
DICTIONARY
  5
17
102
{ACAD_REACTORS
330
C
102
}
330
C
100
AcDbDictionary
281
     1
  3
Standard
350
18
  0
DICTIONARY
  5
19
102
{ACAD_REACTORS
330
C
102
}
330
C
100
AcDbDictionary
281
     1
  0
ACDBDICTIONARYWDFLT
  5
E
102
{ACAD_REACTORS
330
C
102
}
330
C
100
AcDbDictionary
281
     1
  3
Normal
350
F
100
AcDbDictionaryWithDefault
340
F
  0
DICTIONARY
  5
11A
102
{ACAD_REACTORS
330
C
102
}
330
C
100
AcDbDictionary
281
     1
  3
Standard
350
11B
  0
DICTIONARY
  5
78AF
102
{ACAD_REACTORS
330
C
102
}
330
C
100
AcDbDictionary
281
     1
  0
DICTIONARY
  5
94
102
{ACAD_REACTORS
330
C
102
}
330
C
100
AcDbDictionary
281
     1
  3
CTABLESTYLE
350
138
  3
DIMASSOC
350
96
  3
INDEXCTL
350
95
  3
PROJECTNAME
350
74E5
  0
DICTIONARY
  5
5B
102
{ACAD_REACTORS
330
C
102
}
330
C
100
AcDbDictionary
281
     1
  3
AcmBOM
350
1B5
  3
AcmStdDictionary
350
61
  3
AMDTSECTSYM_ARROWCOLOR
350
123
  0
DICTIONARY
  5
41
102
{ACAD_REACTORS
330
C
102
}
330
C
100
AcDbDictionary
281
     1
  0
DICTIONARY
  5
1B8
102
{ACAD_REACTORS
330
C
102
}
330
C
100
AcDbDictionary
281
     1
  0
XRECORD
  5
78AE
102
{ACAD_REACTORS
330
C
102
}
330
C
100
AcDbXrecord
280
     1
  1
DWGPROPS COOKIE
  2

  3

  4

  6

  7

  8

  9

300
AmdtFileType=84
301
=
302
=
303
=
304
=
305
=
306
=
307
=
308
=
309
=
 40
0.5884341666666667
 41
2454098.708838426
 42
2454789.46073706
  1

 90
        1
  0
DICTIONARY
  5
5F07
102
{ACAD_REACTORS
330
3F9
102
}
330
3F9
100
AcDbDictionary
281
     1
  0
DICTIONARY
  5
A94
102
{ACAD_REACTORS
330
3F9
102
}
330
3F9
100
AcDbDictionary
281
     1
  0
DICTIONARY
  5
5F06
102
{ACAD_REACTORS
330
3F9
102
}
330
3F9
100
AcDbDictionary
281
     1
1001
ACAD
1000
<All
  0
LAYOUT
  5
22
102
{ACAD_XDICTIONARY
360
78B2
102
}
102
{ACAD_REACTORS
330
1A
102
}
330
1A
100
AcDbPlotSettings
  1

  2
\\RD\EPSON Stylus C63 Series單色
  4
A4
  6

 40
3.757083177566528
 41
3.757076978683471
 42
3.757080078125
 43
3.757080078125
 44
209.9733276367187
 45
296.9683227539062
 46
0.0
 47
0.0
 48
0.0
 49
0.0
140
0.0
141
0.0
142
1.0
143
0.3405120737814363
 70
 11952
 72
     1
 73
     0
 74
     0
  7
單色出圖.ctb
 75
     0
147
2.936753428137963
148
-2047.07469463503
149
-1261.649717473083
100
AcDbLayout
  1
Model
 70
     1
 71
     0
 10
0.0
 20
0.0
 11
12.0
 21
9.0
 12
0.0
 22
0.0
 32
0.0
 14
0.0
 24
0.0
 34
0.0
 15
0.0
 25
0.0
 35
0.0
146
0.0
 13
0.0
 23
0.0
 33
0.0
 16
1.0
 26
0.0
 36
0.0
 17
0.0
 27
1.0
 37
0.0
 76
     0
330
1F
1001
ACAD_PSEXT
1000
\\RD\EPSON Stylus C63 Series單色
1000
EPSON Stylus C63 Series
1000
\\RD
1000

1070
     0
  0
LAYOUT
  5
1E
102
{ACAD_XDICTIONARY
360
78B0
102
}
102
{ACAD_REACTORS
330
1A
102
}
330
1A
100
AcDbPlotSettings
  1

  2

  4

  6

 40
0.0
 41
0.0
 42
0.0
 43
0.0
 44
0.0
 45
0.0
 46
0.0
 47
0.0
 48
0.0
 49
0.0
140
0.0
141
0.0
142
1.0
143
1.0
 70
   688
 72
     0
 73
     0
 74
     5
  7
單色出圖.ctb
 75
    16
147
1.0
148
0.0
149
0.0
100
AcDbLayout
  1
配置1
 70
     1
 71
     1
 10
0.0
 20
0.0
 11
420.0
 21
297.0
 12
0.0
 22
0.0
 32
0.0
 14
1.000000000000000E+20
 24
1.000000000000000E+20
 34
1.000000000000000E+20
 15
-1.000000000000000E+20
 25
-1.000000000000000E+20
 35
-1.000000000000000E+20
146
0.0
 13
0.0
 23
0.0
 33
0.0
 16
1.0
 26
0.0
 36
0.0
 17
0.0
 27
1.0
 37
0.0
 76
     0
330
1B
  0
LAYOUT
  5
26
102
{ACAD_XDICTIONARY
360
78B4
102
}
102
{ACAD_REACTORS
330
1A
102
}
330
1A
100
AcDbPlotSettings
  1

  2

  4

  6

 40
0.0
 41
0.0
 42
0.0
 43
0.0
 44
0.0
 45
0.0
 46
0.0
 47
0.0
 48
0.0
 49
0.0
140
0.0
141
0.0
142
1.0
143
1.0
 70
   688
 72
     0
 73
     0
 74
     5
  7
單色出圖.ctb
 75
    16
147
1.0
148
0.0
149
0.0
100
AcDbLayout
  1
配置2
 70
     1
 71
     2
 10
0.0
 20
0.0
 11
12.0
 21
9.0
 12
0.0
 22
0.0
 32
0.0
 14
0.0
 24
0.0
 34
0.0
 15
0.0
 25
0.0
 35
0.0
146
0.0
 13
0.0
 23
0.0
 33
0.0
 16
1.0
 26
0.0
 36
0.0
 17
0.0
 27
1.0
 37
0.0
 76
     0
330
23
  0
MLINESTYLE
  5
18
102
{ACAD_REACTORS
330
17
102
}
330
17
100
AcDbMlineStyle
  2
STANDARD
 70
     0
  3

 62
   256
 51
90.0
 52
90.0
 71
     2
 49
0.5
 62
   256
  6
BYLAYER
 49
-0.5
 62
   256
  6
BYLAYER
  0
ACDBPLACEHOLDER
  5
F
102
{ACAD_REACTORS
330
E
102
}
330
E
  0
TABLESTYLE
  5
11B
102
{ACAD_REACTORS
330
11A
102
}
330
11A
100
AcDbTableStyle
  3
Standard
 70
     0
 71
     0
 40
1.5
 41
1.5
280
     0
281
     0
  7
STANDARD
140
4.5
170
     2
 62
     0
 63
     7
283
     0
274
    -2
284
     1
 64
     0
275
    -2
285
     1
 65
     0
276
    -2
286
     1
 66
     0
277
    -2
287
     1
 67
     0
278
    -2
288
     1
 68
     0
279
    -2
289
     1
 69
     0
  7
STANDARD
140
6.0
170
     5
 62
     0
 63
     7
283
     0
274
    -2
284
     1
 64
     0
275
    -2
285
     1
 65
     0
276
    -2
286
     1
 66
     0
277
    -2
287
     1
 67
     0
278
    -2
288
     1
 68
     0
279
    -2
289
     1
 69
     0
  7
STANDARD
140
4.5
170
     5
 62
     0
 63
     7
283
     0
274
    -2
284
     1
 64
     0
275
    -2
285
     1
 65
     0
276
    -2
286
     1
 66
     0
277
    -2
287
     1
 67
     0
278
    -2
288
     1
 68
     0
279
    -2
289
     1
 69
     0
  0
DICTIONARYVAR
  5
138
102
{ACAD_REACTORS
330
94
102
}
330
94
100
DictionaryVariables
280
     0
  1
STANDARD
  0
DICTIONARYVAR
  5
96
102
{ACAD_REACTORS
330
94
102
}
330
94
100
DictionaryVariables
280
     0
  1
2
  0
DICTIONARYVAR
  5
95
102
{ACAD_REACTORS
330
94
102
}
330
94
100
DictionaryVariables
280
     0
  1
0
  0
DICTIONARYVAR
  5
74E5
102
{ACAD_REACTORS
330
94
102
}
330
94
100
DictionaryVariables
280
     0
  1

  0
DICTIONARY
  5
1B5
102
{ACAD_REACTORS
330
5B
102
}
330
5B
100
AcDbDictionary
281
     1
  0
DICTIONARY
  5
61
102
{ACAD_REACTORS
330
5B
102
}
330
5B
100
AcDbDictionary
281
     1
  0
XRECORD
  5
123
102
{ACAD_REACTORS
330
5B
102
}
330
5B
100
AcDbXrecord
280
     1
 90
-1023410169
  0
DICTIONARY
  5
78B2
330
22
100
AcDbDictionary
280
     1
281
     1
  3
ACAD_XREC_ROUNDTRIP
360
78B3
  0
DICTIONARY
  5
78B0
330
1E
100
AcDbDictionary
280
     1
281
     1
  3
ACAD_XREC_ROUNDTRIP
360
78B1
  0
DICTIONARY
  5
78B4
330
26
100
AcDbDictionary
280
     1
281
     1
  3
ACAD_XREC_ROUNDTRIP
360
78B5
  0
XRECORD
  5
78B3
102
{ACAD_REACTORS
330
78B2
102
}
330
78B2
100
AcDbXrecord
280
     1
102
SHADEPLOT
 70
     0
102
SHADEPLOTRESLEVEL
 70
     2
102
SHADEPLOTCUSTOMDPI
 70
   300
  0
XRECORD
  5
78B1
102
{ACAD_REACTORS
330
78B0
102
}
330
78B0
100
AcDbXrecord
280
     1
102
SHADEPLOT
 70
     0
102
SHADEPLOTRESLEVEL
 70
     2
102
SHADEPLOTCUSTOMDPI
 70
   300
  0
XRECORD
  5
78B5
102
{ACAD_REACTORS
330
78B4
102
}
330
78B4
100
AcDbXrecord
280
     1
102
SHADEPLOT
 70
     0
102
SHADEPLOTRESLEVEL
 70
     2
102
SHADEPLOTCUSTOMDPI
 70
   300
  0
ENDSEC
  0
EOF
