  0
SECTION
  2
HEADER
  9
$ACADVER
  1
AC1015
  9
$ACADMAINTVER
 70
    20
  9
$DWGCODEPAGE
  3
ANSI_950
  9
$INSBASE
 10
0.0
 20
0.0
 30
0.0
  9
$EXTMIN
 10
453.5786637336641
 20
61.60513499697924
 30
-0.0079987625891818
  9
$EXTMAX
 10
653.5988940879599
 20
336.6271379214468
 30
131.0657257432464
  9
$LIMMIN
 10
0.0
 20
0.0
  9
$LIMMAX
 10
420.0
 20
297.0
  9
$ORTHOMODE
 70
     0
  9
$REGENMODE
 70
     1
  9
$FILLMODE
 70
     1
  9
$QTEXTMODE
 70
     0
  9
$MIRRTEXT
 70
     1
  9
$LTSCALE
 40
2.0
  9
$ATTMODE
 70
     1
  9
$TEXTSIZE
 40
3.0
  9
$TRACEWID
 40
1.0
  9
$TEXTSTYLE
  7
CHINESET
  9
$CLAYER
  8
0
  9
$CELTYPE
  6
ByLayer
  9
$CECOLOR
 62
   256
  9
$CELTSCALE
 40
1.0
  9
$DISPSILH
 70
     0
  9
$DIMSCALE
 40
1.0
  9
$DIMASZ
 40
3.0
  9
$DIMEXO
 40
1.0
  9
$DIMDLI
 40
8.0
  9
$DIMRND
 40
0.0
  9
$DIMDLE
 40
0.0
  9
$DIMEXE
 40
1.5
  9
$DIMTP
 40
0.1
  9
$DIMTM
 40
0.1
  9
$DIMTXT
 40
3.5
  9
$DIMCEN
 40
0.0
  9
$DIMTSZ
 40
0.0
  9
$DIMTOL
 70
     0
  9
$DIMLIM
 70
     0
  9
$DIMTIH
 70
     0
  9
$DIMTOH
 70
     0
  9
$DIMSE1
 70
     0
  9
$DIMSE2
 70
     0
  9
$DIMTAD
 70
     1
  9
$DIMZIN
 70
     8
  9
$DIMBLK
  1

  9
$DIMASO
 70
     1
  9
$DIMSHO
 70
     1
  9
$DIMPOST
  1

  9
$DIMAPOST
  1
"
  9
$DIMALT
 70
     0
  9
$DIMALTD
 70
     2
  9
$DIMALTF
 40
0.0393701
  9
$DIMLFAC
 40
1.0
  9
$DIMTOFL
 70
     1
  9
$DIMTVP
 40
0.0
  9
$DIMTIX
 70
     0
  9
$DIMSOXD
 70
     0
  9
$DIMSAH
 70
     0
  9
$DIMBLK1
  1

  9
$DIMBLK2
  1

  9
$DIMSTYLE
  2
AM_ISO
  9
$DIMCLRD
 70
   256
  9
$DIMCLRE
 70
   256
  9
$DIMCLRT
 70
   256
  9
$DIMTFAC
 40
0.6
  9
$DIMGAP
 40
0.8
  9
$DIMJUST
 70
     0
  9
$DIMSD1
 70
     0
  9
$DIMSD2
 70
     0
  9
$DIMTOLJ
 70
     0
  9
$DIMTZIN
 70
     8
  9
$DIMALTZ
 70
     0
  9
$DIMALTTZ
 70
     0
  9
$DIMUPT
 70
     0
  9
$DIMDEC
 70
     2
  9
$DIMTDEC
 70
     8
  9
$DIMALTU
 70
     2
  9
$DIMALTTD
 70
     2
  9
$DIMTXSTY
  7
CHINESET
  9
$DIMAUNIT
 70
     0
  9
$DIMADEC
 70
     0
  9
$DIMALTRND
 40
0.0
  9
$DIMAZIN
 70
     2
  9
$DIMDSEP
 70
    46
  9
$DIMATFIT
 70
     3
  9
$DIMFRAC
 70
     0
  9
$DIMLDRBLK
  1

  9
$DIMLUNIT
 70
     2
  9
$DIMLWD
 70
    -1
  9
$DIMLWE
 70
    -1
  9
$DIMTMOVE
 70
     0
  9
$LUNITS
 70
     2
  9
$LUPREC
 70
     2
  9
$SKETCHINC
 40
1.0
  9
$FILLETRAD
 40
2.5
  9
$AUNITS
 70
     0
  9
$AUPREC
 70
     0
  9
$MENU
  1
.
  9
$ELEVATION
 40
0.0
  9
$PELEVATION
 40
0.0
  9
$THICKNESS
 40
0.0
  9
$LIMCHECK
 70
     0
  9
$CHAMFERA
 40
2.5
  9
$CHAMFERB
 40
2.5
  9
$CHAMFERC
 40
20.0
  9
$CHAMFERD
 40
0.0
  9
$SKPOLY
 70
     0
  9
$TDCREATE
 40
2454005.546031713
  9
$TDUCREATE
 40
2454005.212698380
  9
$TDUPDATE
 40
2454005.586104410
  9
$TDUUPDATE
 40
2454005.252771076
  9
$TDINDWG
 40
0.0398401273
  9
$TDUSRTIMER
 40
0.0398401273
  9
$USRTIMER
 70
     1
  9
$ANGBASE
 50
0.0
  9
$ANGDIR
 70
     0
  9
$PDMODE
 70
     0
  9
$PDSIZE
 40
0.0
  9
$PLINEWID
 40
0.0
  9
$SPLFRAME
 70
     0
  9
$SPLINETYPE
 70
     6
  9
$SPLINESEGS
 70
     8
  9
$HANDSEED
  5
1657
  9
$SURFTAB1
 70
     6
  9
$SURFTAB2
 70
     6
  9
$SURFTYPE
 70
     6
  9
$SURFU
 70
     6
  9
$SURFV
 70
     6
  9
$UCSBASE
  2

  9
$UCSNAME
  2

  9
$UCSORG
 10
0.0
 20
0.0
 30
0.0
  9
$UCSXDIR
 10
1.0
 20
0.0
 30
0.0
  9
$UCSYDIR
 10
0.0
 20
1.0
 30
0.0
  9
$UCSORTHOREF
  2

  9
$UCSORTHOVIEW
 70
     0
  9
$UCSORGTOP
 10
0.0
 20
0.0
 30
0.0
  9
$UCSORGBOTTOM
 10
0.0
 20
0.0
 30
0.0
  9
$UCSORGLEFT
 10
0.0
 20
0.0
 30
0.0
  9
$UCSORGRIGHT
 10
0.0
 20
0.0
 30
0.0
  9
$UCSORGFRONT
 10
0.0
 20
0.0
 30
0.0
  9
$UCSORGBACK
 10
0.0
 20
0.0
 30
0.0
  9
$PUCSBASE
  2

  9
$PUCSNAME
  2

  9
$PUCSORG
 10
0.0
 20
0.0
 30
0.0
  9
$PUCSXDIR
 10
1.0
 20
0.0
 30
0.0
  9
$PUCSYDIR
 10
0.0
 20
1.0
 30
0.0
  9
$PUCSORTHOREF
  2

  9
$PUCSORTHOVIEW
 70
     0
  9
$PUCSORGTOP
 10
0.0
 20
0.0
 30
0.0
  9
$PUCSORGBOTTOM
 10
0.0
 20
0.0
 30
0.0
  9
$PUCSORGLEFT
 10
0.0
 20
0.0
 30
0.0
  9
$PUCSORGRIGHT
 10
0.0
 20
0.0
 30
0.0
  9
$PUCSORGFRONT
 10
0.0
 20
0.0
 30
0.0
  9
$PUCSORGBACK
 10
0.0
 20
0.0
 30
0.0
  9
$USERI1
 70
     0
  9
$USERI2
 70
     0
  9
$USERI3
 70
     0
  9
$USERI4
 70
     0
  9
$USERI5
 70
     0
  9
$USERR1
 40
0.0
  9
$USERR2
 40
0.0
  9
$USERR3
 40
0.0
  9
$USERR4
 40
0.0
  9
$USERR5
 40
0.0
  9
$WORLDVIEW
 70
     1
  9
$SHADEDGE
 70
     3
  9
$SHADEDIF
 70
    70
  9
$TILEMODE
 70
     1
  9
$MAXACTVP
 70
    64
  9
$PINSBASE
 10
0.0
 20
0.0
 30
0.0
  9
$PLIMCHECK
 70
     0
  9
$PEXTMIN
 10
1.000000000000000E+20
 20
1.000000000000000E+20
 30
1.000000000000000E+20
  9
$PEXTMAX
 10
-1.000000000000000E+20
 20
-1.000000000000000E+20
 30
-1.000000000000000E+20
  9
$PLIMMIN
 10
0.0
 20
0.0
  9
$PLIMMAX
 10
420.0
 20
297.0
  9
$UNITMODE
 70
     0
  9
$VISRETAIN
 70
     1
  9
$PLINEGEN
 70
     0
  9
$PSLTSCALE
 70
     1
  9
$TREEDEPTH
 70
  3020
  9
$CMLSTYLE
  2
Standard
  9
$CMLJUST
 70
     0
  9
$CMLSCALE
 40
20.0
  9
$PROXYGRAPHICS
 70
     1
  9
$MEASUREMENT
 70
     1
  9
$CELWEIGHT
370
    -1
  9
$ENDCAPS
280
     0
  9
$JOINSTYLE
280
     0
  9
$LWDISPLAY
290
     0
  9
$INSUNITS
 70
     4
  9
$HYPERLINKBASE
  1

  9
$STYLESHEET
  1
彩色出圖.ctb
  9
$XEDIT
290
     1
  9
$CEPSNTYPE
380
     0
  9
$PSTYLEMODE
290
     1
  9
$FINGERPRINTGUID
  2
{625603C2-C575-496C-90FD-817C408CB50C}
  9
$VERSIONGUID
  2
{B497CC3E-9671-4D0C-9DCD-E3C39A550537}
  9
$EXTNAMES
290
     1
  9
$PSVPSCALE
 40
0.0
  9
$OLESTARTUP
290
     0
  0
ENDSEC
  0
SECTION
  2
CLASSES
  0
CLASS
  1
ACDBDICTIONARYWDFLT
  2
AcDbDictionaryWithDefault
  3
ObjectDBX Classes
 90
        0
280
     0
281
     0
  0
CLASS
  1
ACDBPLACEHOLDER
  2
AcDbPlaceHolder
  3
ObjectDBX Classes
 90
        0
280
     0
281
     0
  0
CLASS
  1
LAYOUT
  2
AcDbLayout
  3
ObjectDBX Classes
 90
        0
280
     0
281
     0
  0
CLASS
  1
ACME_DOCUMENT
  2
AcMeDbDoc
  3
AcMeServices
 90
        0
280
     0
281
     0
  0
CLASS
  1
AMGSETTINGSOBJ
  2
AmgSettingsObj
  3
"AcadM|Product Description: AutoCAD Mechanical 2000|Company: Autodesk"
 90
        0
280
     0
281
     0
  0
CLASS
  1
ACMESCOPE
  2
AcMeScope
  3
AcMeServices
 90
        0
280
     0
281
     0
  0
CLASS
  1
ACMECOMMANDHISTORY
  2
AcMeCommandHistory
  3
AcMeServices
 90
        0
280
     0
281
     0
  0
CLASS
  1
ACIMSYSVARMAN
  2
AcImSysVarManager
  3
AcMeServices
 90
        0
280
     0
281
     0
  0
CLASS
  1
ACIMREALSYSVAR
  2
AcImRealSysVar
  3
AcMeServices
 90
        0
280
     0
281
     0
  0
CLASS
  1
ACIMINTSYSVAR
  2
AcImIntSysVar
  3
AcMeServices
 90
        0
280
     0
281
     0
  0
CLASS
  1
ACMEDRAWINGMAN
  2
AcMeDrawingMan
  3
AcMeServices
 90
        0
280
     0
281
     0
  0
CLASS
  1
ACMEVIEW
  2
AcMeView
  3
AcMeServices
 90
        0
280
     0
281
     0
  0
CLASS
  1
ACDBENTITYCACHE
  2
AcMeEntityCache
  3
AcMeServices
 90
        0
280
     0
281
     0
  0
CLASS
  1
GSMANAGER
  2
AcMeGSManager
  3
AcMeServices
 90
        0
280
     0
281
     0
  0
CLASS
  1
AMDTINTERNALREACTOR
  2
AmdtInternalReactor
  3
AcMeServices
 90
        0
280
     0
281
     0
  0
CLASS
  1
ACMESTATEMGR
  2
AcMeStateMgr
  3
AcMeServices
 90
        0
280
     0
281
     0
  0
CLASS
  1
ACGREFMASTER
  2
AcGrefMaster
  3
AcAttribServices
 90
        0
280
     0
281
     0
  0
CLASS
  1
ACME_DATABASE
  2
AcMeDbDatabase
  3
AcMeServices
 90
        0
280
     0
281
     0
  0
CLASS
  1
ACRFINSADJUSTERMGR
  2
AcRfInsAdjusterMgr
  3
AcMeServices
 90
        0
280
     0
281
     0
  0
CLASS
  1
ACGREFACADMASTER
  2
AcGrefacadMaster
  3
AcGrefServices
 90
        0
280
     0
281
     0
  0
CLASS
  1
AMIMASTER
  2
AmiMaster
  3
AmiServices
 90
        0
280
     0
281
     0
  0
CLASS
  1
ACMDATADICTIONARY
  2
AcmDataDictionary
  3
"AcmSymBB|Product Description: AutoCAD Mechanical 2004 DX|Company: Autodesk"
 90
        0
280
     0
281
     0
  0
CLASS
  1
ACMDATAENTRYBLOCK
  2
AcmDataEntryBlock
  3
"AcmSymBB|Product Description: AutoCAD Mechanical 2004 DX|Company: Autodesk"
 90
        0
280
     0
281
     0
  0
CLASS
  1
ACIMSTRSYSVAR
  2
AcImStrSysVar
  3
AcMeServices
 90
        0
280
     0
281
     0
  0
CLASS
  1
ACMSTANDARDISO
  2
AcmStandardISO
  3
"Amdt_StdImp|Product Description: AutoCAD Mechanical 2004 DX|Company: Autodesk"
 90
        0
280
     0
281
     0
  0
CLASS
  1
AMGOBJPROPCFG
  2
AmgObjPropCfg
  3
"AmgLay|Product Description: AutoCAD Mechanical 2000|Company: Autodesk"
 90
        1
280
     0
281
     0
  0
CLASS
  1
AMDTEDGESTANDARDISO
  2
AmdtEdgeStdISO
  3
"Amdt_StdImp|Product Description: AutoCAD Mechanical 2004 DX|Company: Autodesk"
 90
        0
280
     0
281
     0
  0
CLASS
  1
ACMSURFSTANDARDISO
  2
AcmSurfTextStdISO
  3
"Amdt_StdImp|Product Description: AutoCAD Mechanical 2004 DX|Company: Autodesk"
 90
        0
280
     0
281
     0
  0
CLASS
  1
ACMFCFSTANDARDISO
  2
AcmFCFStdISO
  3
"Amdt_StdImp|Product Description: AutoCAD Mechanical 2004 DX|Company: Autodesk"
 90
        0
280
     0
281
     0
  0
CLASS
  1
ACMWELDSTANDARDISO
  2
AcmWeldingStdISO
  3
"Amdt_StdImp|Product Description: AutoCAD Mechanical 2004 DX|Company: Autodesk"
 90
        0
280
     0
281
     0
  0
CLASS
  1
ACMIDSTANDARDISO
  2
AcmIdStdISO
  3
"Amdt_StdImp|Product Description: AutoCAD Mechanical 2004 DX|Company: Autodesk"
 90
        0
280
     0
281
     0
  0
CLASS
  1
ACMDATUMSTANDARDISO
  2
AcmDatumStdISO
  3
"Amdt_StdImp|Product Description: AutoCAD Mechanical 2004 DX|Company: Autodesk"
 90
        0
280
     0
281
     0
  0
CLASS
  1
ACMBOMSTANDARDISO
  2
AcmBOMStdISO
  3
"Amdt_StdImp|Product Description: AutoCAD Mechanical 2004 DX|Company: Autodesk"
 90
        0
280
     0
281
     0
  0
CLASS
  1
ACMDETAILSTANDARDISO
  2
AmdtDetailSymStdISO
  3
"Amdt_StdImp|Product Description: AutoCAD Mechanical 2004 DX|Company: Autodesk"
 90
        0
280
     0
281
     0
  0
CLASS
  1
ACMSECTIONSTANDARDISO
  2
AmdtSectionSymStdISO
  3
"Amdt_StdImp|Product Description: AutoCAD Mechanical 2004 DX|Company: Autodesk"
 90
        0
280
     0
281
     0
  0
CLASS
  1
ACMCENTERLINESTANDARDISO
  2
AmdtCenterLineStdISO
  3
"Amdt_StdImp|Product Description: AutoCAD Mechanical 2004 DX|Company: Autodesk"
 90
        0
280
     0
281
     0
  0
CLASS
  1
ACMNOTESTANDARDISO
  2
AmdtNoteStdISO
  3
"Amdt_StdImp|Product Description: AutoCAD Mechanical 2004 DX|Company: Autodesk"
 90
        0
280
     0
281
     0
  0
CLASS
  1
ACAMGLAYSTD
  2
AcAmgLayStd
  3
"AcAmgLayStd|Product Description: AutoCAD Mechanical 2000|Company: Autodesk"
 90
        0
280
     0
281
     0
  0
CLASS
  1
ACAMGDIMSTD
  2
AcAmgDimStd
  3
"AcAmgDimStd|Product Description: AutoCAD Mechanical 2000|Company: Autodesk"
 90
        0
280
     0
281
     0
  0
CLASS
  1
ACAMGHOLECHARTSTDISO
  2
AcAmgHoleChartStdISO
  3
ACMSYMBB_MODULE_NAME
 90
        0
280
     0
281
     0
  0
CLASS
  1
ACAMGTITLESTD
  2
AcAmgTitleStd
  3
"TITLEAPP"
 90
        0
280
     0
281
     0
  0
CLASS
  1
LAYER_INDEX
  2
AcDbLayerIndex
  3
ObjectDBX Classes
 90
    32768
280
     0
281
     0
  0
CLASS
  1
IDBUFFER
  2
AcDbIdBuffer
  3
ObjectDBX Classes
 90
    32768
280
     0
281
     0
  0
CLASS
  1
DICTIONARYVAR
  2
AcDbDictionaryVar
  3
ObjectDBX Classes
 90
        0
280
     0
281
     0
  0
CLASS
  1
AM_DRAWING_MGR
  2
AcDmDwgMgr
  3
AcMechDwgViewMgmt
 90
        0
280
     0
281
     0
  0
CLASS
  1
AM_DWG_DOCUMENT
  2
AcDmDwgDocument
  3
AcMechDwgViewMgmt
 90
        0
280
     0
281
     0
  0
CLASS
  1
AM_DWG_SHEET
  2
AcDmSheet
  3
AcMechDwgViewMgmt
 90
        0
280
     0
281
     0
  0
CLASS
  1
AM_VIEWDIMPARMAP
  2
AcDmViewDimParMap
  3
AcMechDwgViewMgmt
 90
        0
280
     0
281
     0
  0
CLASS
  1
AM_DWGMGR_NAME
  2
AcDmDwgMgrName
  3
AcMechDwgViewMgmt
 90
        0
280
     0
281
     0
  0
CLASS
  1
AMDTMENUSTATEMGR
  2
AmdtMenuStateMgr
  3
McadcomServices
 90
        0
280
     0
281
     0
  0
CLASS
  1
AMDTMCOMMENUSTATE
  2
AmdtMcomMenuState
  3
McadcomServices
 90
        0
280
     0
281
     0
  0
CLASS
  1
MAPIAMMOUDLE
  2
MApiAmModule
  3
MApiAmServices
 90
        0
280
     0
281
     0
  0
CLASS
  1
AMDTADMENUSTATE
  2
AmdtAdMenuState
  3
DesignerServices
 90
        0
280
     0
281
     0
  0
CLASS
  1
ADAPPL
  2
AcAdAppl
  3
DesignerServices
 90
        0
280
     0
281
     0
  0
CLASS
  1
DEPMGR
  2
AcAdDepMgr
  3
DesignerServices
 90
        0
280
     0
281
     0
  0
CLASS
  1
PARAMMGR
  2
AcAdParamMgr
  3
DesignerServices
 90
        0
280
     0
281
     0
  0
CLASS
  1
PARAMSCOPE
  2
AcAdParamScope
  3
DesignerServices
 90
        0
280
     0
281
     0
  0
CLASS
  1
NAMEDAPPL
  2
AcAdNamedAppl
  3
DesignerServices
 90
        0
280
     0
281
     0
  0
CLASS
  1
AMDTDMMENUSTATE
  2
AmdtDmMenuState
  3
AcMechDwgViewMgmt
 90
        0
280
     0
281
     0
  0
CLASS
  1
AMDTAMMENUSTATE
  2
AmdtAmMenuState
  3
DesignerAssemblies
 90
        0
280
     0
281
     0
  0
CLASS
  1
ACAMPROJECT
  2
AcAmProject
  3
DesignerAssemblies
 90
        0
280
     0
281
     0
  0
CLASS
  1
ACAMGRCOMPDEF
  2
AcAmGrCompDef
  3
DesignerAssemblies
 90
        0
280
     0
281
     0
  0
CLASS
  1
ACCMCONTEXT
  2
AcCmContext
  3
DesignerAssemblies
 90
        0
280
     0
281
     0
  0
CLASS
  1
ACAMCOMPDEF
  2
AcAmCompDef
  3
DesignerAssemblies
 90
        0
280
     0
281
     0
  0
CLASS
  1
ACAMCOMPDEFMGR
  2
AcAmCompDefMgr
  3
DesignerAssemblies
 90
        0
280
     0
281
     0
  0
CLASS
  1
AMCONTEXTMGR
  2
AcAmContextMgr
  3
DesignerAssemblies
 90
        0
280
     0
281
     0
  0
CLASS
  1
ACAMCONTEXTMODELER
  2
AcAmContextModeler
  3
DesignerAssemblies
 90
        0
280
     0
281
     0
  0
CLASS
  1
ACMTHREADLINESTANDARDISO
  2
AmdtThreadLineStdISO
  3
"Amdt_StdImp|Product Description: AutoCAD Mechanical 2004 DX|Company: Autodesk"
 90
        0
280
     0
281
     0
  0
CLASS
  1
CATALOGSTATE
  2
AcAmCatalogState
  3
DesignerAssemblies
 90
        0
280
     0
281
     0
  0
CLASS
  1
ACAMGRCOMPDEFSET
  2
AcAmGrCompDefSet
  3
DesignerAssemblies
 90
        0
280
     0
281
     0
  0
CLASS
  1
AMDTBROWSERDBTAB
  2
AmdtBrowserDbTab
  3
McadcomServices
 90
        0
280
     0
281
     0
  0
CLASS
  1
CBROWSERAPPOBJECT
  2
CBrowserAppObject
  3
McadcomServices
 90
        0
280
     0
281
     0
  0
CLASS
  1
DM_PLACEHOLDER
  2
AcDmSelsetPlaceholder
  3
AcMechDwgViewMgmt
 90
        0
280
     0
281
     0
  0
CLASS
  1
TABLESTYLE
  2
AcDbTableStyle
  3
ObjectDBX Classes
 90
     2047
280
     0
281
     0
  0
CLASS
  1
VAACXREFPANELOBJECT
  2
VaAcXREFPanelObject
  3
VAAC_ADDIN
 90
    32768
280
     0
281
     0
  0
CLASS
  1
VAACIMAGEINVENTORY
  2
VaAcImageInventory
  3
VAAC_ADDIN
 90
    32768
280
     0
281
     0
  0
CLASS
  1
AMDTNOTETEMPLATEDB
  2
AmdtNoteTemplateDB
  3
AMDT_STDIMP_MODULE_NAME
 90
        0
280
     0
281
     0
  0
CLASS
  1
ACMBOM
  2
AcmBom
  3
"AcmSymBB|Product Description: AutoCAD Mechanical 2004 DX|Company: Autodesk"
 90
    32768
280
     0
281
     0
  0
CLASS
  1
AMDTFORMULAUPDATEDISPATCHER
  2
AmdtFormulaUpdateDispatcher
  3
AcMeServices
 90
    32768
280
     0
281
     0
  0
CLASS
  1
ACMPARTLIST
  2
AcmPartList
  3
"AcmSymBB|Product Description: AutoCAD Mechanical 2004 DX|Company: Autodesk"
 90
    33791
280
     0
281
     1
  0
CLASS
  1
ACAMGFILTERDAT
  2
AcAmgFilterDat
  3
"AcadM|Product Description: AutoCAD Mechanical 2000|Company: Autodesk"
 90
        0
280
     0
281
     0
  0
CLASS
  1
DIMASSOC
  2
AcDbDimAssoc
  3
"AcDbDimAssoc|Product Desc:     AcDim ARX App For Dimension|Company:          Autodesk, Inc.|WEB Address:      www.autodesk.com"
 90
        0
280
     0
281
     0
  0
CLASS
  1
STDPART2D
  2
AmgStdPart
  3
"AmgStdPart|Product Description: AutoCAD Mechanical 2000|Company: Autodesk"
 90
    33791
280
     0
281
     1
  0
CLASS
  1
ACAMSTDPCOMPDEF
  2
AcAmStdpCompDef
  3
DesignerAssemblies
 90
    32768
280
     0
281
     0
  0
CLASS
  1
ACRFATTGENMGR
  2
AcRfAttGeneralMgr
  3
AcAttribServices
 90
        0
280
     0
281
     0
  0
CLASS
  1
ACRFOBJATTMGR
  2
AcRfObjAttGroupMgr
  3
AcAttribServices
 90
    32768
280
     0
281
     0
  0
CLASS
  1
ACRFMCADAPIATTHOLDER
  2
AcRfMCADAPIAttHolder
  3
AcAttribServices
 90
    32768
280
     0
281
     0
  0
CLASS
  1
AMDTSYSATTR
  2
AmdtSystemAttribute
  3
AcAttribServices
 90
    32768
280
     0
281
     0
  0
CLASS
  1
ACAMCOMP
  2
AcAmComp
  3
DesignerAssemblies
 90
    32768
280
     0
281
     0
  0
CLASS
  1
AC_AM_STDP_VIEW_DEF
  2
AcAmStdpViewDef
  3
DesignerAssemblies
 90
    32768
280
     0
281
     0
  0
CLASS
  1
AC_AM_MVD_DEP_MGR
  2
AcAmMVDdepMgr
  3
DesignerAssemblies
 90
        0
280
     0
281
     0
  0
CLASS
  1
AC_AM_MASTER_VIEW_DEF
  2
AcAmMasterViewDef
  3
DesignerAssemblies
 90
        0
280
     0
281
     0
  0
CLASS
  1
AC_AM_DIRTY_NODES
  2
AcAmDirtyNodes
  3
DesignerAssemblies
 90
        0
280
     0
281
     0
  0
CLASS
  1
AC_AM_MAPPER_CACHE
  2
AcAmMapperCache
  3
DesignerAssemblies
 90
        0
280
     0
281
     0
  0
CLASS
  1
ACAMMVDBACKUPOBJECT
  2
AcAmMVDBackupObject
  3
DesignerAssemblies
 90
        0
280
     0
281
     0
  0
CLASS
  1
AC_AM_COMP_VIEW_INST
  2
AcAmCompView
  3
DesignerAssemblies
 90
    32768
280
     0
281
     0
  0
CLASS
  1
AC_AM_2D_XREF_MGR
  2
AcAmXrefMgr2d
  3
DesignerAssemblies
 90
        0
280
     0
281
     0
  0
CLASS
  1
SORTENTSTABLE
  2
AcDbSortentsTable
  3
ObjectDBX Classes
 90
        0
280
     0
281
     0
  0
ENDSEC
  0
SECTION
  2
TABLES
  0
TABLE
  2
VPORT
  5
8
330
0
100
AcDbSymbolTable
 70
     6
  0
VPORT
  5
164E
330
8
100
AcDbSymbolTableRecord
100
AcDbViewportTableRecord
  2
*Active
 70
     0
 10
0.0
 20
0.0
 11
1.0
 21
1.0
 12
553.5887789108119
 22
199.116136459213
 13
0.0
 23
0.0
 14
2.5
 24
2.5
 15
10.0
 25
10.0
 16
0.0
 26
0.0
 36
1.0
 17
0.0
 27
0.0
 37
0.0
 40
277.190376140692
 41
1.609210526315789
 42
50.0
 43
0.0
 44
0.0
 50
0.0
 51
0.0
 71
     0
 72
   100
 73
     1
 74
     3
 75
     0
 76
     0
 77
     0
 78
     0
281
     0
 65
     1
110
0.0
120
0.0
130
0.0
111
1.0
121
0.0
131
0.0
112
0.0
122
1.0
132
0.0
 79
     0
146
0.0
  0
ENDTAB
  0
TABLE
  2
LTYPE
  5
5
330
0
100
AcDbSymbolTable
 70
    14
  0
LTYPE
  5
14
330
5
100
AcDbSymbolTableRecord
100
AcDbLinetypeTableRecord
  2
ByBlock
 70
     0
  3

 72
    65
 73
     0
 40
0.0
  0
LTYPE
  5
15
330
5
100
AcDbSymbolTableRecord
100
AcDbLinetypeTableRecord
  2
ByLayer
 70
     0
  3

 72
    65
 73
     0
 40
0.0
  0
LTYPE
  5
16
330
5
100
AcDbSymbolTableRecord
100
AcDbLinetypeTableRecord
  2
Continuous
 70
     0
  3
Solid line
 72
    65
 73
     0
 40
0.0
  0
LTYPE
  5
64
330
5
100
AcDbSymbolTableRecord
100
AcDbLinetypeTableRecord
  2
AM_ISO02W050
 70
     0
  3
__ __ __ __ __ __ __ __ __ __ __ __ __ __ __
 72
    65
 73
     2
 40
7.5
 49
6.0
 74
     0
 49
-1.5
 74
     0
  0
LTYPE
  5
65
330
5
100
AcDbSymbolTableRecord
100
AcDbLinetypeTableRecord
  2
AM_ISO08W050
 70
     0
  3
____ . ____ . ____ . ____ . ____ . ____ . ____
 72
    65
 73
     4
 40
18.0
 49
12.0
 74
     0
 49
-1.5
 74
     0
 49
3.0
 74
     0
 49
-1.5
 74
     0
  0
LTYPE
  5
66
330
5
100
AcDbSymbolTableRecord
100
AcDbLinetypeTableRecord
  2
AM_ISO09W050
 70
     0
  3
_____ . . _____ . . _____ . . ____ .. ____
 72
    65
 73
     6
 40
22.5
 49
12.0
 74
     0
 49
-1.5
 74
     0
 49
3.0
 74
     0
 49
-1.5
 74
     0
 49
3.0
 74
     0
 49
-1.5
 74
     0
  0
LTYPE
  5
67
330
5
100
AcDbSymbolTableRecord
100
AcDbLinetypeTableRecord
  2
Amconstr
 70
     0
  3
_______________________
 72
    65
 73
     2
 40
9999.0
 49
9999.0
 74
     0
 49
0.0
 74
     0
  0
LTYPE
  5
68
330
5
100
AcDbSymbolTableRecord
100
AcDbLinetypeTableRecord
  2
AM_ISO08W050x2
 70
     0
  3
__ . __ . __ . __ . __ . __
 72
    65
 73
     4
 40
9.0
 49
6.0
 74
     0
 49
-0.75
 74
     0
 49
1.5
 74
     0
 49
-0.75
 74
     0
  0
LTYPE
  5
69
330
5
100
AcDbSymbolTableRecord
100
AcDbLinetypeTableRecord
  2
AM_ISO02W050x2
 70
     0
  3
 _ _ _ _ _ _ _ _ _ _ _ _
 72
    65
 73
     2
 40
3.75
 49
3.0
 74
     0
 49
-0.75
 74
     0
  0
LTYPE
  5
6C
330
5
100
AcDbSymbolTableRecord
100
AcDbLinetypeTableRecord
  2
Amzigzag
 70
     0
  3
/\/-/\/-/\/-/\/-/\/-/\/
 72
    65
 73
     2
 40
11.0001
 49
0.0001
 74
     4
 75
   135
340
6B
 46
0.04
 50
0.0
 44
0.0
 45
0.0
 49
-11.0
 74
     0
  0
LTYPE
  5
7A
330
5
100
AcDbSymbolTableRecord
100
AcDbLinetypeTableRecord
  2
ACISOWELD
 70
     0
  3
_ _ _ _ _
 72
    65
 73
     2
 40
2.0
 49
2.0
 74
     0
 49
-1.0
 74
     0
  0
LTYPE
  5
7B
330
5
100
AcDbSymbolTableRecord
100
AcDbLinetypeTableRecord
  2
ACISOTGB
 70
     0
  3
__ . . __ . .
 72
    65
 73
     6
 40
9.0
 49
4.0
 74
     0
 49
-1.0
 74
     0
 49
1.0
 74
     0
 49
-1.0
 74
     0
 49
1.0
 74
     0
 49
-1.0
 74
     0
  0
LTYPE
  5
7C
330
5
100
AcDbSymbolTableRecord
100
AcDbLinetypeTableRecord
  2
ACISOTGL
 70
     0
  3
_ _ _ _ _
 72
    65
 73
     2
 40
3.0
 49
2.0
 74
     0
 49
-1.0
 74
     0
  0
LTYPE
  5
7E
330
5
100
AcDbSymbolTableRecord
100
AcDbLinetypeTableRecord
  2
CENTER
 70
     0
  3
__ . __
 72
    65
 73
     4
 40
7.0
 49
4.0
 74
     0
 49
-1.0
 74
     0
 49
1.0
 74
     0
 49
-1.0
 74
     0
  0
LTYPE
  5
D8
330
5
100
AcDbSymbolTableRecord
100
AcDbLinetypeTableRecord
  2
HIDDEN
 70
     0
  3
Hidden __ __ __ __ __ __ __ __ __ __ __ __ __ _
 72
    65
 73
     2
 40
9.524999999999998
 49
6.349999999999999
 74
     0
 49
-3.174999999999999
 74
     0
  0
LTYPE
  5
D9
330
5
100
AcDbSymbolTableRecord
100
AcDbLinetypeTableRecord
  2
PHANTOM2
 70
     0
  3
Phantom (.5x) ___ _ _ ___ _ _ ___ _ _ ___ _ _
 72
    65
 73
     6
 40
31.75
 49
15.875
 74
     0
 49
-3.174999999999999
 74
     0
 49
3.174999999999999
 74
     0
 49
-3.174999999999999
 74
     0
 49
3.174999999999999
 74
     0
 49
-3.174999999999999
 74
     0
  0
ENDTAB
  0
TABLE
  2
LAYER
  5
2
102
{ACAD_XDICTIONARY
360
3F9
102
}
330
0
100
AcDbSymbolTable
 70
     8
  0
LAYER
  5
10
330
2
100
AcDbSymbolTableRecord
100
AcDbLayerTableRecord
  2
0
 70
     0
 62
     7
  6
Continuous
370
    -3
390
F
  0
LAYER
  5
8CB
330
2
100
AcDbSymbolTableRecord
100
AcDbLayerTableRecord
  2
AM_5
 70
     0
 62
     5
  6
Continuous
370
    50
390
F
  0
LAYER
  5
939
330
2
100
AcDbSymbolTableRecord
100
AcDbLayerTableRecord
  2
Defpoints
 70
     0
 62
     7
  6
Continuous
290
     0
370
    -3
390
F
  0
LAYER
  5
C2D
330
2
100
AcDbSymbolTableRecord
100
AcDbLayerTableRecord
  2
LOGO
 70
     0
 62
     7
  6
Continuous
370
    -3
390
F
  0
LAYER
  5
D9E
330
2
100
AcDbSymbolTableRecord
100
AcDbLayerTableRecord
  2
AM_VIS
 70
     0
 62
     7
  6
Continuous
370
    50
390
F
  0
LAYER
  5
DA0
330
2
100
AcDbSymbolTableRecord
100
AcDbLayerTableRecord
  2
AM_7
 70
     0
 62
     1
  6
CENTER
370
    25
390
F
  0
LAYER
  5
DA1
330
2
100
AcDbSymbolTableRecord
100
AcDbLayerTableRecord
  2
AM_4
 70
     0
 62
     3
  6
Continuous
370
    25
390
F
  0
LAYER
  5
103B
330
2
100
AcDbSymbolTableRecord
100
AcDbLayerTableRecord
  2
AM_0
 70
     0
 62
     7
  6
Continuous
370
    50
390
F
  0
ENDTAB
  0
TABLE
  2
STYLE
  5
3
330
0
100
AcDbSymbolTable
 70
     6
  0
STYLE
  5
11
330
3
100
AcDbSymbolTableRecord
100
AcDbTextStyleTableRecord
  2
STANDARD
 70
     0
 40
0.0
 41
1.0
 50
0.0
 71
     0
 42
3.0
  3
ISOCP.SHX
  4
CHINESET.SHX
  0
STYLE
  5
6B
330
3
100
AcDbSymbolTableRecord
100
AcDbTextStyleTableRecord
  2

 70
     1
 40
0.0
 41
1.0
 50
0.0
 71
     0
 42
2.5
  3
ltypeshp.shx
  4

  0
STYLE
  5
6D
330
3
100
AcDbSymbolTableRecord
100
AcDbTextStyleTableRecord
  2
ACISOTS
 70
     0
 40
1.0
 41
1.0
 50
0.0
 71
     0
 42
1.0
  3
isocp.shx
  4
chineset.shx
  0
STYLE
  5
79
330
3
100
AcDbSymbolTableRecord
100
AcDbTextStyleTableRecord
  2
ACISOGDT
 70
     0
 40
0.0
 41
1.0
 50
0.0
 71
     0
 42
2.5
  3
amgdt.shx
  4
chineset.shx
  0
STYLE
  5
60C
330
3
100
AcDbSymbolTableRecord
100
AcDbTextStyleTableRecord
  2
CHINESET
 70
     0
 40
0.0
 41
0.75
 50
0.0
 71
     0
 42
3.0
  3
simplex.shx
  4
CHINESET.SHX
  0
ENDTAB
  0
TABLE
  2
VIEW
  5
6
330
0
100
AcDbSymbolTable
 70
     0
  0
ENDTAB
  0
TABLE
  2
UCS
  5
7
330
0
100
AcDbSymbolTable
 70
     0
  0
ENDTAB
  0
TABLE
  2
APPID
  5
9
330
0
100
AcDbSymbolTable
 70
    24
  0
APPID
  5
12
330
9
100
AcDbSymbolTableRecord
100
AcDbRegAppTableRecord
  2
ACAD
 70
     0
  0
APPID
  5
46
330
9
100
AcDbSymbolTableRecord
100
AcDbRegAppTableRecord
  2
MCAD_NO_VIS
 70
     0
  0
APPID
  5
47
330
9
100
AcDbSymbolTableRecord
100
AcDbRegAppTableRecord
  2
ACAD_TEMP_GRAPHIC
 70
     0
  0
APPID
  5
58
330
9
100
AcDbSymbolTableRecord
100
AcDbRegAppTableRecord
  2
ACATTRIBSERVICES
 70
     0
  0
APPID
  5
EE
330
9
100
AcDbSymbolTableRecord
100
AcDbRegAppTableRecord
  2
AD_DRAW
 70
     0
  0
APPID
  5
10C
330
9
100
AcDbSymbolTableRecord
100
AcDbRegAppTableRecord
  2
DESIGNERASSEMBLIES
 70
     0
  0
APPID
  5
111
330
9
100
AcDbSymbolTableRecord
100
AcDbRegAppTableRecord
  2
ACADM_DIM_EDIT
 70
     0
  0
APPID
  5
112
330
9
100
AcDbSymbolTableRecord
100
AcDbRegAppTableRecord
  2
AMDT_DM_ADJ
 70
     0
  0
APPID
  5
22C
330
9
100
AcDbSymbolTableRecord
100
AcDbRegAppTableRecord
  2
ACAD_DSTYLE_DIMTEXT_FILL
 70
     0
  0
APPID
  5
452
330
9
100
AcDbSymbolTableRecord
100
AcDbRegAppTableRecord
  2
GENIUS_GENOENT_13
 70
     0
  0
APPID
  5
453
330
9
100
AcDbSymbolTableRecord
100
AcDbRegAppTableRecord
  2
GENIUS_GENOBJ-N-CRS_13
 70
     0
  0
APPID
  5
454
330
9
100
AcDbSymbolTableRecord
100
AcDbRegAppTableRecord
  2
GENIUS_GENOLIS_13
 70
     0
  0
APPID
  5
455
330
9
100
AcDbSymbolTableRecord
100
AcDbRegAppTableRecord
  2
GENIUS_GENODEF_13
 70
     0
  0
APPID
  5
456
330
9
100
AcDbSymbolTableRecord
100
AcDbRegAppTableRecord
  2
GENIUS_GENOREF_13
 70
     0
  0
APPID
  5
6F3
330
9
100
AcDbSymbolTableRecord
100
AcDbRegAppTableRecord
  2
ACAD_PSEXT
 70
     0
  0
APPID
  5
808
330
9
100
AcDbSymbolTableRecord
100
AcDbRegAppTableRecord
  2
GENIUS_GENDTOL_13
 70
     0
  0
APPID
  5
C2E
330
9
100
AcDbSymbolTableRecord
100
AcDbRegAppTableRecord
  2
GENIUS_GENREC_14
 70
     0
  0
APPID
  5
C2F
330
9
100
AcDbSymbolTableRecord
100
AcDbRegAppTableRecord
  2
GENIUS_GENOBJ-N-REC_13
 70
     0
  0
APPID
  5
1042
330
9
100
AcDbSymbolTableRecord
100
AcDbRegAppTableRecord
  2
GEVID1159231017
 70
     0
  0
APPID
  5
1043
330
9
100
AcDbSymbolTableRecord
100
AcDbRegAppTableRecord
  2
GEVDC
 70
     0
  0
APPID
  5
1044
330
9
100
AcDbSymbolTableRecord
100
AcDbRegAppTableRecord
  2
GEVRADREF
 70
     0
  0
APPID
  5
104D
330
9
100
AcDbSymbolTableRecord
100
AcDbRegAppTableRecord
  2
AMG_2DHIDE
 70
     0
  0
APPID
  5
104E
330
9
100
AcDbSymbolTableRecord
100
AcDbRegAppTableRecord
  2
AMG_2DSTRUCT_BTR
 70
     0
  0
APPID
  5
105F
330
9
100
AcDbSymbolTableRecord
100
AcDbRegAppTableRecord
  2
ACADM_2DVIEW_IGN_NOTIFY
 70
     0
  0
ENDTAB
  0
TABLE
  2
DIMSTYLE
  5
A
330
0
100
AcDbSymbolTable
 70
     9
100
AcDbDimStyleTable
 71
     3
340
81
340
8B
340
86
  0
DIMSTYLE
105
81
330
A
100
AcDbSymbolTableRecord
100
AcDbDimStyleTableRecord
  2
AM_ISO
 70
     0
  4
"
 41
3.0
 42
1.0
 43
8.0
 44
1.5
 47
0.1
 48
0.1
 73
     0
 74
     0
 77
     1
 78
     8
 79
     2
140
3.5
141
0.0
143
0.0393701
146
0.6
147
0.8
172
     1
176
   256
177
   256
178
   256
271
     2
272
     2
283
     0
284
     8
340
60C
371
    -1
372
    -1
  0
DIMSTYLE
105
82
330
A
100
AcDbSymbolTableRecord
100
AcDbDimStyleTableRecord
  2
AM_ISO$3
 70
     0
  4
"
 41
3.0
 42
1.0
 43
8.0
 44
1.5
 47
0.1
 48
0.1
 73
     0
 77
     1
 78
     8
 79
     2
140
3.5
141
0.0
143
0.0393701
146
0.6
147
0.8
176
   256
177
   256
178
   256
271
     2
272
     2
283
     0
284
     8
288
     1
289
     0
340
60C
371
    -1
372
    -1
  0
DIMSTYLE
105
83
330
A
100
AcDbSymbolTableRecord
100
AcDbDimStyleTableRecord
  2
AM_ISO$4
 70
     0
  4
"
 41
3.0
 42
1.0
 43
8.0
 44
1.5
 47
0.1
 48
0.1
 73
     0
 77
     1
 78
     8
 79
     2
140
3.5
141
0.0
143
0.0393701
146
0.6
147
0.8
176
   256
177
   256
178
   256
271
     2
272
     2
283
     0
284
     8
288
     1
289
     0
340
60C
371
    -1
372
    -1
  0
DIMSTYLE
105
84
330
A
100
AcDbSymbolTableRecord
100
AcDbDimStyleTableRecord
  2
AM_ISO$6
 70
     0
  4
"
 41
3.0
 42
1.0
 43
8.0
 44
1.5
 47
0.1
 48
0.1
 73
     0
 74
     0
 78
     8
 79
     2
140
3.5
141
0.0
143
0.0393701
146
0.6
147
0.8
172
     1
176
   256
177
   256
178
   256
271
     2
272
     2
283
     0
284
     8
340
60C
371
    -1
372
    -1
  0
DIMSTYLE
105
85
330
A
100
AcDbSymbolTableRecord
100
AcDbDimStyleTableRecord
  2
AM_ISO$7
 70
     0
  4
"
 41
3.0
 42
1.0
 43
8.0
 44
1.5
 47
0.1
 48
0.1
 73
     0
 74
     0
 77
     1
 78
     8
 79
     2
140
5.0
141
0.0
143
0.0393701
146
0.6
147
0.8
172
     1
176
   256
177
   256
178
   256
271
     2
272
     2
283
     0
284
     8
340
60C
371
    -1
372
    -1
  0
DIMSTYLE
105
86
330
A
100
AcDbSymbolTableRecord
100
AcDbDimStyleTableRecord
  2
AM_ISO$SF
 70
     0
  4
"
 41
2.5
 42
1.0
 43
10.0
 44
1.0
 47
0.1
 48
0.1
 73
     0
 74
     0
 75
     1
 76
     1
 77
     1
 78
     8
 79
     2
140
3.5
141
0.0
143
0.0393701
146
0.71
147
1.5
172
     1
176
   256
177
   256
178
     2
271
     2
272
     3
274
     4
283
     0
284
     8
340
11
371
    -1
372
    -1
  0
DIMSTYLE
105
8B
330
A
100
AcDbSymbolTableRecord
100
AcDbDimStyleTableRecord
  2
AM_ISO$SH
 70
     0
  4
"
 41
2.5
 42
1.0
 43
10.0
 44
1.0
 47
0.1
 48
0.1
 73
     0
 74
     0
 75
     1
 76
     1
 77
     1
 78
     8
 79
     2
140
3.5
141
0.0
143
0.0393701
144
2.0
146
0.71
147
1.5
172
     1
173
     1
176
   256
177
   256
178
     2
271
     2
272
     3
274
     4
283
     0
284
     8
340
11
343
87
371
    -1
372
    -1
  0
DIMSTYLE
105
40B
102
{ACAD_REACTORS
330
12DE
330
1304
330
132A
330
1350
330
1376
330
139C
330
13C6
330
1445
330
146B
102
}
330
A
100
AcDbSymbolTableRecord
100
AcDbDimStyleTableRecord
  2
AM_ISO$0
 70
     0
  4
"
 41
3.0
 42
1.0
 43
8.0
 44
1.5
 47
0.1
 48
0.1
 73
     0
 74
     0
 77
     1
 78
     8
 79
     2
140
3.5
141
0.0
143
0.0393701
146
0.6
147
0.8
172
     1
176
   256
177
   256
178
   256
271
     2
272
     2
283
     0
284
     8
340
60C
371
    -1
372
    -1
  0
ENDTAB
  0
TABLE
  2
BLOCK_RECORD
  5
1
330
0
100
AcDbSymbolTable
 70
    16
  0
BLOCK_RECORD
  5
1F
102
{ACAD_XDICTIONARY
360
8F
102
}
330
1
100
AcDbSymbolTableRecord
100
AcDbBlockTableRecord
  2
*Model_Space
340
22
  0
BLOCK_RECORD
  5
1B
330
1
100
AcDbSymbolTableRecord
100
AcDbBlockTableRecord
  2
*Paper_Space
340
1E
  0
BLOCK_RECORD
  5
23
330
1
100
AcDbSymbolTableRecord
100
AcDbBlockTableRecord
  2
*Paper_Space0
340
26
  0
BLOCK_RECORD
  5
87
330
1
100
AcDbSymbolTableRecord
100
AcDbBlockTableRecord
  2
GENAXEH
340
0
  0
BLOCK_RECORD
  5
1063
330
1
100
AcDbSymbolTableRecord
100
AcDbBlockTableRecord
  2
*U4
340
0
  0
BLOCK_RECORD
  5
1112
330
1
100
AcDbSymbolTableRecord
100
AcDbBlockTableRecord
  2
*S5
340
0
102
{BLKREFS
331
1546
102
}
  0
BLOCK_RECORD
  5
12DF
330
1
100
AcDbSymbolTableRecord
100
AcDbBlockTableRecord
  2
*D6
340
0
  0
BLOCK_RECORD
  5
1305
330
1
100
AcDbSymbolTableRecord
100
AcDbBlockTableRecord
  2
*D7
340
0
  0
BLOCK_RECORD
  5
132B
330
1
100
AcDbSymbolTableRecord
100
AcDbBlockTableRecord
  2
*D8
340
0
  0
BLOCK_RECORD
  5
1351
330
1
100
AcDbSymbolTableRecord
100
AcDbBlockTableRecord
  2
*D9
340
0
  0
BLOCK_RECORD
  5
1377
330
1
100
AcDbSymbolTableRecord
100
AcDbBlockTableRecord
  2
*D10
340
0
  0
BLOCK_RECORD
  5
139D
330
1
100
AcDbSymbolTableRecord
100
AcDbBlockTableRecord
  2
*D11
340
0
  0
BLOCK_RECORD
  5
13C7
330
1
100
AcDbSymbolTableRecord
100
AcDbBlockTableRecord
  2
*D12
340
0
  0
BLOCK_RECORD
  5
1446
330
1
100
AcDbSymbolTableRecord
100
AcDbBlockTableRecord
  2
*D13
340
0
  0
BLOCK_RECORD
  5
146C
330
1
100
AcDbSymbolTableRecord
100
AcDbBlockTableRecord
  2
*D14
340
0
  0
ENDTAB
  0
ENDSEC
  0
SECTION
  2
BLOCKS
  0
BLOCK
  5
20
330
1F
100
AcDbEntity
  8
0
100
AcDbBlockBegin
  2
*Model_Space
 70
     0
 10
0.0
 20
0.0
 30
0.0
  3
*Model_Space
  1

  0
ENDBLK
  5
21
330
1F
100
AcDbEntity
  8
0
100
AcDbBlockEnd
  0
BLOCK
  5
1C
330
1B
100
AcDbEntity
 67
     1
  8
0
100
AcDbBlockBegin
  2
*Paper_Space
 70
     0
 10
0.0
 20
0.0
 30
0.0
  3
*Paper_Space
  1

  0
ENDBLK
  5
1D
330
1B
100
AcDbEntity
 67
     1
  8
0
100
AcDbBlockEnd
  0
BLOCK
  5
24
330
23
100
AcDbEntity
  8
0
100
AcDbBlockBegin
  2
*Paper_Space0
 70
     0
 10
0.0
 20
0.0
 30
0.0
  3
*Paper_Space0
  1

  0
ENDBLK
  5
25
330
23
100
AcDbEntity
  8
0
100
AcDbBlockEnd
  0
BLOCK
  5
89
330
87
100
AcDbEntity
  8
0
100
AcDbBlockBegin
  2
GENAXEH
 70
     0
 10
0.0
 20
0.0
 30
0.0
  3
GENAXEH
  1

  0
LINE
  5
88
330
87
100
AcDbEntity
  8
0
100
AcDbLine
 10
-1.0
 20
0.0
 30
0.0
 11
1.0
 21
0.0
 31
0.0
  0
ENDBLK
  5
8A
330
87
100
AcDbEntity
  8
0
100
AcDbBlockEnd
  0
BLOCK
  5
1064
330
1063
100
AcDbEntity
  8
0
100
AcDbBlockBegin
  2
*U4
 70
     1
 10
0.0
 20
0.0
 30
0.0
  3
*U4
  1

  0
ENDBLK
  5
1065
330
1063
100
AcDbEntity
  8
0
100
AcDbBlockEnd
  0
BLOCK
  5
1113
330
1112
100
AcDbEntity
  8
0
100
AcDbBlockBegin
  2
*S5
 70
     1
 10
0.0
 20
0.0
 30
0.0
  3
*S5
  1

  0
LINE
  5
1114
330
1112
100
AcDbEntity
  8
AM_5
 62
     5
100
AcDbLine
 10
254.140587304677
 20
137.4391456099043
 30
0.0
 11
239.1782170591544
 21
137.4391456099043
 31
0.0
  0
LINE
  5
1115
330
1112
100
AcDbEntity
  8
AM_5
 62
     5
100
AcDbLine
 10
239.1782170591544
 20
137.4391456099043
 30
0.0
 11
220.3866597972087
 21
152.445744011149
 31
0.0
  0
TRACE
  5
1116
330
1112
100
AcDbEntity
  8
AM_5
 62
     5
370
    35
100
AcDbTrace
 10
220.6741976773899
 20
152.8058045922302
 30
0.0
 11
220.0991219170274
 21
152.0856834300679
 31
0.0
 12
217.6517281454287
 22
154.6298110568444
 32
0.0
 13
217.6517281454287
 23
154.6298110568444
 33
0.0
  0
MTEXT
  5
1117
330
1112
100
AcDbEntity
  8
AM_5
 62
     2
100
AcDbMText
 10
254.140587304677
 20
134.2198603337917
 30
0.0
 40
3.5
 41
0.0
 71
     9
 72
     5
  1

  7
ACISOTS
210
0.0
220
0.0
230
-1.0
 11
-1.0
 21
0.0
 31
0.0
 73
     1
 44
1.0
1001
ACAD
1000
MTEXTBEGIN
1070
    73
1070
     1
1070
    44
1040
1.0
1070
    74
1070
     0
1000
MTEXTEND
  0
ENDBLK
  5
1118
330
1112
100
AcDbEntity
  8
0
100
AcDbBlockEnd
  0
BLOCK
  5
12E9
330
12DF
100
AcDbEntity
  8
0
100
AcDbBlockBegin
  2
*D6
 70
     1
 10
0.0
 20
0.0
 30
0.0
  3
*D6
  1

  0
LINE
  5
152D
330
12DF
100
AcDbEntity
  8
AM_5
100
AcDbLine
 10
499.5845313877716
 20
146.4305303489705
 30
0.0
 11
499.5845313877716
 21
131.7805303489705
 31
0.0
  0
LINE
  5
152E
330
12DF
100
AcDbEntity
  8
AM_5
100
AcDbLine
 10
529.5845313877716
 20
146.4305303489705
 30
0.0
 11
529.5845313877716
 21
131.7805303489705
 31
0.0
  0
LINE
  5
152F
330
12DF
100
AcDbEntity
  8
AM_5
100
AcDbLine
 10
502.5845313877717
 20
133.2805303489705
 30
0.0
 11
526.5845313877717
 21
133.2805303489705
 31
0.0
  0
SOLID
  5
1530
330
12DF
100
AcDbEntity
  8
AM_5
100
AcDbTrace
 10
502.5845313877717
 20
133.7805303489705
 30
0.0
 11
502.5845313877717
 21
132.7805303489705
 31
0.0
 12
499.5845313877716
 22
133.2805303489705
 32
0.0
 13
499.5845313877716
 23
133.2805303489705
 33
0.0
  0
SOLID
  5
1531
330
12DF
100
AcDbEntity
  8
AM_5
100
AcDbTrace
 10
526.5845313877717
 20
133.7805303489705
 30
0.0
 11
526.5845313877717
 21
132.7805303489705
 31
0.0
 12
529.5845313877716
 22
133.2805303489705
 32
0.0
 13
529.5845313877716
 23
133.2805303489705
 33
0.0
  0
MTEXT
  5
1532
330
12DF
100
AcDbEntity
  8
AM_5
100
AcDbMText
 10
514.5845313877717
 20
135.8305303489705
 30
0.0
 40
3.5
 41
0.0
 71
     5
 72
     1
  1
30
  7
CHINESET
 73
     1
 44
1.0
1001
ACAD
1000
MTEXTBEGIN
1070
    73
1070
     1
1070
    44
1040
1.0
1070
    74
1070
     0
1000
MTEXTEND
  0
POINT
  5
1533
330
12DF
100
AcDbEntity
  8
Defpoints
 62
     0
100
AcDbPoint
 10
499.5845313877716
 20
147.4305303489705
 30
0.0
  0
POINT
  5
1534
330
12DF
100
AcDbEntity
  8
Defpoints
 62
     0
100
AcDbPoint
 10
529.5845313877716
 20
147.4305303489705
 30
0.0
  0
POINT
  5
1535
330
12DF
100
AcDbEntity
  8
Defpoints
 62
     0
100
AcDbPoint
 10
529.5845313877716
 20
133.2805303489705
 30
0.0
  0
ENDBLK
  5
12EA
330
12DF
100
AcDbEntity
  8
0
100
AcDbBlockEnd
  0
BLOCK
  5
130F
330
1305
100
AcDbEntity
  8
0
100
AcDbBlockBegin
  2
*D7
 70
     1
 10
0.0
 20
0.0
 30
0.0
  3
*D7
  1

  0
LINE
  5
1524
330
1305
100
AcDbEntity
  8
AM_5
100
AcDbLine
 10
478.5845313877717
 20
144.2805303489705
 30
0.0
 11
478.5845313877717
 21
123.7805303489706
 31
0.0
  0
LINE
  5
1525
330
1305
100
AcDbEntity
  8
AM_5
100
AcDbLine
 10
550.5845313877716
 20
144.2805303489705
 30
0.0
 11
550.5845313877716
 21
123.7805303489706
 31
0.0
  0
LINE
  5
1526
330
1305
100
AcDbEntity
  8
AM_5
100
AcDbLine
 10
481.5845313877717
 20
125.2805303489706
 30
0.0
 11
547.5845313877717
 21
125.2805303489706
 31
0.0
  0
SOLID
  5
1527
330
1305
100
AcDbEntity
  8
AM_5
100
AcDbTrace
 10
481.5845313877717
 20
125.7805303489706
 30
0.0
 11
481.5845313877717
 21
124.7805303489706
 31
0.0
 12
478.5845313877717
 22
125.2805303489706
 32
0.0
 13
478.5845313877717
 23
125.2805303489706
 33
0.0
  0
SOLID
  5
1528
330
1305
100
AcDbEntity
  8
AM_5
100
AcDbTrace
 10
547.5845313877717
 20
125.7805303489706
 30
0.0
 11
547.5845313877717
 21
124.7805303489706
 31
0.0
 12
550.5845313877716
 22
125.2805303489706
 32
0.0
 13
550.5845313877716
 23
125.2805303489706
 33
0.0
  0
MTEXT
  5
1529
330
1305
100
AcDbEntity
  8
AM_5
100
AcDbMText
 10
514.5845313877717
 20
127.8305303489706
 30
0.0
 40
3.5
 41
0.0
 71
     5
 72
     1
  1
72
  7
CHINESET
 73
     1
 44
1.0
1001
ACAD
1000
MTEXTBEGIN
1070
    73
1070
     1
1070
    44
1040
1.0
1070
    74
1070
     0
1000
MTEXTEND
  0
POINT
  5
152A
330
1305
100
AcDbEntity
  8
Defpoints
 62
     0
100
AcDbPoint
 10
478.5845313877717
 20
145.2805303489705
 30
0.0
  0
POINT
  5
152B
330
1305
100
AcDbEntity
  8
Defpoints
 62
     0
100
AcDbPoint
 10
550.5845313877716
 20
145.2805303489705
 30
0.0
  0
POINT
  5
152C
330
1305
100
AcDbEntity
  8
Defpoints
 62
     0
100
AcDbPoint
 10
550.5845313877716
 20
125.2805303489706
 30
0.0
  0
ENDBLK
  5
1310
330
1305
100
AcDbEntity
  8
0
100
AcDbBlockEnd
  0
BLOCK
  5
1335
330
132B
100
AcDbEntity
  8
0
100
AcDbBlockBegin
  2
*D8
 70
     1
 10
0.0
 20
0.0
 30
0.0
  3
*D8
  1

  0
LINE
  5
153C
330
132B
100
AcDbEntity
  8
AM_5
100
AcDbLine
 10
484.5845313877717
 20
206.3583136712437
 30
0.0
 11
484.5845313877717
 21
192.7083136712438
 31
0.0
  0
LINE
  5
153D
330
132B
100
AcDbEntity
  8
AM_5
100
AcDbLine
 10
544.5845313877716
 20
206.3583136712437
 30
0.0
 11
544.5845313877716
 21
192.7083136712438
 31
0.0
  0
LINE
  5
153E
330
132B
100
AcDbEntity
  8
AM_5
100
AcDbLine
 10
487.5845313877717
 20
194.2083136712437
 30
0.0
 11
541.5845313877716
 21
194.2083136712437
 31
0.0
  0
SOLID
  5
153F
330
132B
100
AcDbEntity
  8
AM_5
100
AcDbTrace
 10
487.5845313877717
 20
194.7083136712437
 30
0.0
 11
487.5845313877717
 21
193.7083136712437
 31
0.0
 12
484.5845313877717
 22
194.2083136712437
 32
0.0
 13
484.5845313877717
 23
194.2083136712437
 33
0.0
  0
SOLID
  5
1540
330
132B
100
AcDbEntity
  8
AM_5
100
AcDbTrace
 10
541.5845313877716
 20
194.7083136712437
 30
0.0
 11
541.5845313877716
 21
193.7083136712437
 31
0.0
 12
544.5845313877716
 22
194.2083136712437
 32
0.0
 13
544.5845313877716
 23
194.2083136712437
 33
0.0
  0
MTEXT
  5
1541
330
132B
100
AcDbEntity
  8
AM_5
100
AcDbMText
 10
514.5845313877717
 20
196.7583136712437
 30
0.0
 40
3.5
 41
0.0
 71
     5
 72
     1
  1
60
  7
CHINESET
 73
     1
 44
1.0
1001
ACAD
1000
MTEXTBEGIN
1070
    73
1070
     1
1070
    44
1040
1.0
1070
    74
1070
     0
1000
MTEXTEND
  0
POINT
  5
1542
330
132B
100
AcDbEntity
  8
Defpoints
 62
     0
100
AcDbPoint
 10
484.5845313877717
 20
207.3583136712437
 30
0.0
  0
POINT
  5
1543
330
132B
100
AcDbEntity
  8
Defpoints
 62
     0
100
AcDbPoint
 10
544.5845313877716
 20
207.3583136712437
 30
0.0
  0
POINT
  5
1544
330
132B
100
AcDbEntity
  8
Defpoints
 62
     0
100
AcDbPoint
 10
544.5845313877716
 20
194.2083136712437
 30
0.0
  0
ENDBLK
  5
1336
330
132B
100
AcDbEntity
  8
0
100
AcDbBlockEnd
  0
BLOCK
  5
135B
330
1351
100
AcDbEntity
  8
0
100
AcDbBlockBegin
  2
*D9
 70
     1
 10
0.0
 20
0.0
 30
0.0
  3
*D9
  1

  0
LINE
  5
135F
330
1351
100
AcDbEntity
  8
AM_5
100
AcDbLine
 10
551.5845313877717
 20
145.2805303489705
 30
0.0
 11
564.0845313877717
 21
145.2805303489705
 31
0.0
  0
LINE
  5
1360
330
1351
100
AcDbEntity
  8
AM_5
100
AcDbLine
 10
543.4345313877717
 20
160.2805303489705
 30
0.0
 11
564.0845313877717
 21
160.2805303489705
 31
0.0
  0
LINE
  5
1361
330
1351
100
AcDbEntity
  8
AM_5
100
AcDbLine
 10
562.5845313877716
 20
148.2805303489705
 30
0.0
 11
562.5845313877716
 21
157.2805303489705
 31
0.0
  0
SOLID
  5
1362
330
1351
100
AcDbEntity
  8
AM_5
100
AcDbTrace
 10
562.0845313877716
 20
148.2805303489705
 30
0.0
 11
563.0845313877716
 21
148.2805303489705
 31
0.0
 12
562.5845313877716
 22
145.2805303489705
 32
0.0
 13
562.5845313877716
 23
145.2805303489705
 33
0.0
  0
SOLID
  5
1363
330
1351
100
AcDbEntity
  8
AM_5
100
AcDbTrace
 10
562.0845313877716
 20
157.2805303489705
 30
0.0
 11
563.0845313877716
 21
157.2805303489705
 31
0.0
 12
562.5845313877716
 22
160.2805303489705
 32
0.0
 13
562.5845313877716
 23
160.2805303489705
 33
0.0
  0
MTEXT
  5
1364
330
1351
100
AcDbEntity
  8
AM_5
100
AcDbMText
 10
560.0345313877717
 20
152.7805303489706
 30
0.0
 40
3.5
 41
0.0
 71
     5
 72
     1
  1
15
  7
CHINESET
 11
0.0000000000000001
 21
1.0
 31
0.0
 73
     1
 44
1.0
1001
ACAD
1000
MTEXTBEGIN
1070
    73
1070
     1
1070
    44
1040
1.0
1070
    74
1070
     0
1000
MTEXTEND
  0
POINT
  5
1365
330
1351
100
AcDbEntity
  8
Defpoints
 62
     0
100
AcDbPoint
 10
550.5845313877716
 20
145.2805303489705
 30
0.0
  0
POINT
  5
1366
330
1351
100
AcDbEntity
  8
Defpoints
 62
     0
100
AcDbPoint
 10
542.4345313877717
 20
160.2805303489705
 30
0.0
  0
POINT
  5
1367
330
1351
100
AcDbEntity
  8
Defpoints
 62
     0
100
AcDbPoint
 10
562.5845313877716
 20
160.2805303489705
 30
0.0
  0
ENDBLK
  5
135C
330
1351
100
AcDbEntity
  8
0
100
AcDbBlockEnd
  0
BLOCK
  5
1381
330
1377
100
AcDbEntity
  8
0
100
AcDbBlockBegin
  2
*D10
 70
     1
 10
0.0
 20
0.0
 30
0.0
  3
*D10
  1

  0
LINE
  5
1515
330
1377
100
AcDbEntity
  8
AM_5
100
AcDbLine
 10
551.5845313877717
 20
145.2805303489705
 30
0.0
 11
572.0845313877718
 21
145.2805303489705
 31
0.0
  0
LINE
  5
1516
330
1377
100
AcDbEntity
  8
AM_5
100
AcDbLine
 10
551.5845313877717
 20
177.2805303489705
 30
0.0
 11
572.0845313877718
 21
177.2805303489705
 31
0.0
  0
LINE
  5
1517
330
1377
100
AcDbEntity
  8
AM_5
100
AcDbLine
 10
570.5845313877717
 20
148.2805303489705
 30
0.0
 11
570.5845313877717
 21
174.2805303489705
 31
0.0
  0
SOLID
  5
1518
330
1377
100
AcDbEntity
  8
AM_5
100
AcDbTrace
 10
570.0845313877717
 20
148.2805303489705
 30
0.0
 11
571.0845313877718
 21
148.2805303489705
 31
0.0
 12
570.5845313877717
 22
145.2805303489705
 32
0.0
 13
570.5845313877717
 23
145.2805303489705
 33
0.0
  0
SOLID
  5
1519
330
1377
100
AcDbEntity
  8
AM_5
100
AcDbTrace
 10
570.0845313877717
 20
174.2805303489705
 30
0.0
 11
571.0845313877718
 21
174.2805303489705
 31
0.0
 12
570.5845313877717
 22
177.2805303489705
 32
0.0
 13
570.5845313877717
 23
177.2805303489705
 33
0.0
  0
MTEXT
  5
151A
330
1377
100
AcDbEntity
  8
AM_5
100
AcDbMText
 10
568.0345313877718
 20
161.2805303489706
 30
0.0
 40
3.5
 41
0.0
 71
     5
 72
     1
  1
32
  7
CHINESET
 11
0.0000000000000001
 21
1.0
 31
0.0
 73
     1
 44
1.0
1001
ACAD
1000
MTEXTBEGIN
1070
    73
1070
     1
1070
    44
1040
1.0
1070
    74
1070
     0
1000
MTEXTEND
  0
POINT
  5
151B
330
1377
100
AcDbEntity
  8
Defpoints
 62
     0
100
AcDbPoint
 10
550.5845313877716
 20
145.2805303489705
 30
0.0
  0
POINT
  5
151C
330
1377
100
AcDbEntity
  8
Defpoints
 62
     0
100
AcDbPoint
 10
550.5845313877716
 20
177.2805303489705
 30
0.0
  0
POINT
  5
151D
330
1377
100
AcDbEntity
  8
Defpoints
 62
     0
100
AcDbPoint
 10
570.5845313877717
 20
177.2805303489705
 30
0.0
  0
ENDBLK
  5
1382
330
1377
100
AcDbEntity
  8
0
100
AcDbBlockEnd
  0
BLOCK
  5
13A9
330
139D
100
AcDbEntity
  8
0
100
AcDbBlockBegin
  2
*D11
 70
     1
 10
0.0
 20
0.0
 30
0.0
  3
*D11
  1

  0
LINE
  5
13AD
330
139D
100
AcDbEntity
  8
AM_5
100
AcDbLine
 10
551.5845313877717
 20
206.2083136712437
 30
0.0
 11
564.0845313877717
 21
206.2083136712437
 31
0.0
  0
LINE
  5
13AE
330
139D
100
AcDbEntity
  8
AM_5
100
AcDbLine
 10
549.4345313877716
 20
211.2083136712437
 30
0.0
 11
564.0845313877717
 21
211.2083136712437
 31
0.0
  0
LINE
  5
13AF
330
139D
100
AcDbEntity
  8
AM_5
100
AcDbLine
 10
562.5845313877716
 20
203.2083136712437
 30
0.0
 11
562.5845313877716
 21
200.2083136712437
 31
0.0
  0
LINE
  5
13B0
330
139D
100
AcDbEntity
  8
AM_5
100
AcDbLine
 10
562.5845313877716
 20
214.2083136712437
 30
0.0
 11
562.5845313877716
 21
217.2083136712437
 31
0.0
  0
LINE
  5
13B1
330
139D
100
AcDbEntity
  8
AM_5
100
AcDbLine
 10
562.5845313877716
 20
206.2083136712437
 30
0.0
 11
562.5845313877716
 21
211.2083136712437
 31
0.0
  0
SOLID
  5
13B2
330
139D
100
AcDbEntity
  8
AM_5
100
AcDbTrace
 10
562.0845313877716
 20
203.2083136712437
 30
0.0
 11
563.0845313877716
 21
203.2083136712437
 31
0.0
 12
562.5845313877716
 22
206.2083136712437
 32
0.0
 13
562.5845313877716
 23
206.2083136712437
 33
0.0
  0
SOLID
  5
13B3
330
139D
100
AcDbEntity
  8
AM_5
100
AcDbTrace
 10
562.0845313877716
 20
214.2083136712437
 30
0.0
 11
563.0845313877716
 21
214.2083136712437
 31
0.0
 12
562.5845313877716
 22
211.2083136712437
 32
0.0
 13
562.5845313877716
 23
211.2083136712437
 33
0.0
  0
MTEXT
  5
13B4
330
139D
100
AcDbEntity
  8
AM_5
100
AcDbMText
 10
560.0345313877717
 20
208.7083136712438
 30
0.0
 40
3.5
 41
0.0
 71
     5
 72
     1
  1
5
  7
CHINESET
 11
0.0000000000000001
 21
1.0
 31
0.0
 73
     1
 44
1.0
1001
ACAD
1000
MTEXTBEGIN
1070
    73
1070
     1
1070
    44
1040
1.0
1070
    74
1070
     0
1000
MTEXTEND
  0
POINT
  5
13B5
330
139D
100
AcDbEntity
  8
Defpoints
 62
     0
100
AcDbPoint
 10
550.5845313877716
 20
206.2083136712437
 30
0.0
  0
POINT
  5
13B6
330
139D
100
AcDbEntity
  8
Defpoints
 62
     0
100
AcDbPoint
 10
548.4345313877716
 20
211.2083136712437
 30
0.0
  0
POINT
  5
13B7
330
139D
100
AcDbEntity
  8
Defpoints
 62
     0
100
AcDbPoint
 10
562.5845313877716
 20
211.2083136712437
 30
0.0
  0
ENDBLK
  5
13AA
330
139D
100
AcDbEntity
  8
0
100
AcDbBlockEnd
  0
BLOCK
  5
13D3
330
13C7
100
AcDbEntity
  8
0
100
AcDbBlockBegin
  2
*D12
 70
     1
 10
0.0
 20
0.0
 30
0.0
  3
*D12
  1

  0
LINE
  5
13D7
330
13C7
100
AcDbEntity
  8
AM_5
100
AcDbLine
 10
551.5845313877717
 20
287.2083136712437
 30
0.0
 11
564.0845323877717
 21
287.2083136712437
 31
0.0
  0
LINE
  5
13D8
330
13C7
100
AcDbEntity
  8
AM_5
100
AcDbLine
 10
549.4345313877716
 20
282.2083136712437
 30
0.0
 11
564.0845323877717
 21
282.2083136712437
 31
0.0
  0
LINE
  5
13D9
330
13C7
100
AcDbEntity
  8
AM_5
100
AcDbLine
 10
562.5845323877716
 20
290.2083136712437
 30
0.0
 11
562.5845323877716
 21
293.2083136712437
 31
0.0
  0
LINE
  5
13DA
330
13C7
100
AcDbEntity
  8
AM_5
100
AcDbLine
 10
562.5845323877716
 20
279.2083136712437
 30
0.0
 11
562.5845323877716
 21
276.2083136712437
 31
0.0
  0
LINE
  5
13DB
330
13C7
100
AcDbEntity
  8
AM_5
100
AcDbLine
 10
562.5845323877716
 20
287.2083136712437
 30
0.0
 11
562.5845323877716
 21
282.2083136712437
 31
0.0
  0
SOLID
  5
13DC
330
13C7
100
AcDbEntity
  8
AM_5
100
AcDbTrace
 10
562.0845323877716
 20
290.2083136712437
 30
0.0
 11
563.0845323877716
 21
290.2083136712437
 31
0.0
 12
562.5845323877716
 22
287.2083136712437
 32
0.0
 13
562.5845323877716
 23
287.2083136712437
 33
0.0
  0
SOLID
  5
13DD
330
13C7
100
AcDbEntity
  8
AM_5
100
AcDbTrace
 10
562.0845323877716
 20
279.2083136712437
 30
0.0
 11
563.0845323877716
 21
279.2083136712437
 31
0.0
 12
562.5845323877716
 22
282.2083136712437
 32
0.0
 13
562.5845323877716
 23
282.2083136712437
 33
0.0
  0
MTEXT
  5
13DE
330
13C7
100
AcDbEntity
  8
AM_5
100
AcDbMText
 10
560.0345323877716
 20
284.7083136712437
 30
0.0
 40
3.5
 41
0.0
 71
     5
 72
     1
  1
5
  7
CHINESET
 11
0.0000000000000001
 21
1.0
 31
0.0
 73
     1
 44
1.0
1001
ACAD
1000
MTEXTBEGIN
1070
    73
1070
     1
1070
    44
1040
1.0
1070
    74
1070
     0
1000
MTEXTEND
  0
POINT
  5
13DF
330
13C7
100
AcDbEntity
  8
Defpoints
 62
     0
100
AcDbPoint
 10
550.5845313877716
 20
287.2083136712437
 30
0.0
  0
POINT
  5
13E0
330
13C7
100
AcDbEntity
  8
Defpoints
 62
     0
100
AcDbPoint
 10
548.4345313877716
 20
282.2083136712437
 30
0.0
  0
POINT
  5
13E1
330
13C7
100
AcDbEntity
  8
Defpoints
 62
     0
100
AcDbPoint
 10
562.5845323877716
 20
282.2083136712437
 30
0.0
  0
ENDBLK
  5
13D4
330
13C7
100
AcDbEntity
  8
0
100
AcDbBlockEnd
  0
BLOCK
  5
1450
330
1446
100
AcDbEntity
  8
0
100
AcDbBlockBegin
  2
*D13
 70
     1
 10
0.0
 20
0.0
 30
0.0
  3
*D13
  1

  0
LINE
  5
14FC
330
1446
100
AcDbEntity
  8
AM_5
100
AcDbLine
 10
549.4345313877716
 20
211.2083136712437
 30
0.0
 11
564.0845313877715
 21
211.2083136712437
 31
0.0
  0
LINE
  5
14FD
330
1446
100
AcDbEntity
  8
AM_5
100
AcDbLine
 10
549.4345313877716
 20
282.2083136712437
 30
0.0
 11
564.0845313877717
 21
282.2083136712437
 31
0.0
  0
LINE
  5
14FE
330
1446
100
AcDbEntity
  8
AM_5
100
AcDbLine
 10
562.5845313877715
 20
214.2083136712437
 30
0.0
 11
562.5845313877716
 21
279.2083136712437
 31
0.0
  0
SOLID
  5
14FF
330
1446
100
AcDbEntity
  8
AM_5
100
AcDbTrace
 10
562.0845313877715
 20
214.2083136712437
 30
0.0
 11
563.0845313877715
 21
214.2083136712437
 31
0.0
 12
562.5845313877715
 22
211.2083136712437
 32
0.0
 13
562.5845313877715
 23
211.2083136712437
 33
0.0
  0
SOLID
  5
1500
330
1446
100
AcDbEntity
  8
AM_5
100
AcDbTrace
 10
562.0845313877716
 20
279.2083136712437
 30
0.0
 11
563.0845313877716
 21
279.2083136712437
 31
0.0
 12
562.5845313877716
 22
282.2083136712437
 32
0.0
 13
562.5845313877716
 23
282.2083136712437
 33
0.0
  0
MTEXT
  5
1501
330
1446
100
AcDbEntity
  8
AM_5
100
AcDbMText
 10
560.0345313877716
 20
246.7083136712437
 30
0.0
 40
3.5
 41
0.0
 71
     5
 72
     1
  1
P
  7
CHINESET
 11
0.0000000000000001
 21
1.0
 31
0.0
 73
     1
 44
1.0
1001
ACAD
1000
MTEXTBEGIN
1070
    73
1070
     1
1070
    44
1040
1.0
1070
    74
1070
     0
1000
MTEXTEND
  0
POINT
  5
1502
330
1446
100
AcDbEntity
  8
Defpoints
 62
     0
100
AcDbPoint
 10
548.4345313877716
 20
211.2083136712437
 30
0.0
  0
POINT
  5
1503
330
1446
100
AcDbEntity
  8
Defpoints
 62
     0
100
AcDbPoint
 10
548.4345313877716
 20
282.2083136712437
 30
0.0
  0
POINT
  5
1504
330
1446
100
AcDbEntity
  8
Defpoints
 62
     0
100
AcDbPoint
 10
562.5845313877716
 20
282.2083136712437
 30
0.0
  0
ENDBLK
  5
1451
330
1446
100
AcDbEntity
  8
0
100
AcDbBlockEnd
  0
BLOCK
  5
1476
330
146C
100
AcDbEntity
  8
0
100
AcDbBlockBegin
  2
*D14
 70
     1
 10
0.0
 20
0.0
 30
0.0
  3
*D14
  1

  0
LINE
  5
1506
330
146C
100
AcDbEntity
  8
AM_5
100
AcDbLine
 10
551.5845313877717
 20
206.2083136712437
 30
0.0
 11
572.0845323877715
 21
206.2083136712437
 31
0.0
  0
LINE
  5
1507
330
146C
100
AcDbEntity
  8
AM_5
100
AcDbLine
 10
551.5845313877717
 20
287.2083136712437
 30
0.0
 11
572.0845323877717
 21
287.2083136712437
 31
0.0
  0
LINE
  5
1508
330
146C
100
AcDbEntity
  8
AM_5
100
AcDbLine
 10
570.5845323877715
 20
209.2083136712437
 30
0.0
 11
570.5845323877716
 21
284.2083136712437
 31
0.0
  0
SOLID
  5
1509
330
146C
100
AcDbEntity
  8
AM_5
100
AcDbTrace
 10
570.0845323877715
 20
209.2083136712437
 30
0.0
 11
571.0845323877715
 21
209.2083136712437
 31
0.0
 12
570.5845323877715
 22
206.2083136712437
 32
0.0
 13
570.5845323877715
 23
206.2083136712437
 33
0.0
  0
SOLID
  5
150A
330
146C
100
AcDbEntity
  8
AM_5
100
AcDbTrace
 10
570.0845323877716
 20
284.2083136712437
 30
0.0
 11
571.0845323877716
 21
284.2083136712437
 31
0.0
 12
570.5845323877716
 22
287.2083136712437
 32
0.0
 13
570.5845323877716
 23
287.2083136712437
 33
0.0
  0
MTEXT
  5
150B
330
146C
100
AcDbEntity
  8
AM_5
100
AcDbMText
 10
568.0345323877715
 20
246.7083136712437
 30
0.0
 40
3.5
 41
0.0
 71
     5
 72
     1
  1
L
  7
CHINESET
 11
0.0000000000000001
 21
1.0
 31
0.0
 73
     1
 44
1.0
1001
ACAD
1000
MTEXTBEGIN
1070
    73
1070
     1
1070
    44
1040
1.0
1070
    74
1070
     0
1000
MTEXTEND
  0
POINT
  5
150C
330
146C
100
AcDbEntity
  8
Defpoints
 62
     0
100
AcDbPoint
 10
550.5845313877716
 20
206.2083136712437
 30
0.0
  0
POINT
  5
150D
330
146C
100
AcDbEntity
  8
Defpoints
 62
     0
100
AcDbPoint
 10
550.5845313877716
 20
287.2083136712437
 30
0.0
  0
POINT
  5
150E
330
146C
100
AcDbEntity
  8
Defpoints
 62
     0
100
AcDbPoint
 10
570.5845323877716
 20
287.2083136712437
 30
0.0
  0
ENDBLK
  5
1477
330
146C
100
AcDbEntity
  8
0
100
AcDbBlockEnd
  0
ENDSEC
  0
SECTION
  2
ENTITIES
  0
LINE
  5
E61
330
1F
100
AcDbEntity
  8
AM_7
100
AcDbLine
 10
483.5845313877717
 20
211.2083136712437
 30
0.0
 11
485.5845313877717
 21
211.2083136712437
 31
0.0
  0
LINE
  5
E62
330
1F
100
AcDbEntity
  8
AM_7
100
AcDbLine
 10
484.5845313877717
 20
210.2083136712437
 30
0.0
 11
484.5845313877717
 21
212.2083136712437
 31
0.0
  0
LINE
  5
E63
330
1F
100
AcDbEntity
  8
AM_7
100
AcDbLine
 10
480.7345313877717
 20
211.2083136712437
 30
0.0
 11
482.7845313877717
 21
211.2083136712437
 31
0.0
  0
LINE
  5
E64
330
1F
100
AcDbEntity
  8
AM_7
100
AcDbLine
 10
486.3845313877717
 20
211.2083136712437
 30
0.0
 11
488.4345313877717
 21
211.2083136712437
 31
0.0
  0
LINE
  5
E65
102
{ACAD_REACTORS
330
1338
102
}
330
1F
100
AcDbEntity
  8
AM_7
100
AcDbLine
 10
484.5845313877717
 20
207.3583136712437
 30
0.0
 11
484.5845313877717
 21
209.4083136712437
 31
0.0
  0
LINE
  5
E66
330
1F
100
AcDbEntity
  8
AM_7
100
AcDbLine
 10
484.5845313877717
 20
213.0083136712437
 30
0.0
 11
484.5845313877717
 21
215.0583136712437
 31
0.0
  0
LINE
  5
E83
330
1F
100
AcDbEntity
  8
AM_7
100
AcDbLine
 10
543.5845313877717
 20
282.2083136712437
 30
0.0
 11
545.5845313877716
 21
282.2083136712437
 31
0.0
  0
LINE
  5
E84
330
1F
100
AcDbEntity
  8
AM_7
100
AcDbLine
 10
544.5845313877716
 20
281.2083136712437
 30
0.0
 11
544.5845313877716
 21
283.2083136712437
 31
0.0
  0
LINE
  5
E85
330
1F
100
AcDbEntity
  8
AM_7
100
AcDbLine
 10
540.7345313877717
 20
282.2083136712437
 30
0.0
 11
542.7845313877717
 21
282.2083136712437
 31
0.0
  0
LINE
  5
E86
102
{ACAD_REACTORS
330
13D6
330
1453
102
}
330
1F
100
AcDbEntity
  8
AM_7
100
AcDbLine
 10
546.3845313877717
 20
282.2083136712437
 30
0.0
 11
548.4345313877716
 21
282.2083136712437
 31
0.0
  0
LINE
  5
E87
330
1F
100
AcDbEntity
  8
AM_7
100
AcDbLine
 10
544.5845313877716
 20
278.3583136712437
 30
0.0
 11
544.5845313877716
 21
280.4083136712437
 31
0.0
  0
LINE
  5
E88
330
1F
100
AcDbEntity
  8
AM_7
100
AcDbLine
 10
544.5845313877716
 20
284.0083136712437
 30
0.0
 11
544.5845313877716
 21
286.0583136712437
 31
0.0
  0
LINE
  5
E89
330
1F
100
AcDbEntity
  8
AM_7
100
AcDbLine
 10
543.5845313877717
 20
211.2083136712437
 30
0.0
 11
545.5845313877716
 21
211.2083136712437
 31
0.0
  0
LINE
  5
E8A
330
1F
100
AcDbEntity
  8
AM_7
100
AcDbLine
 10
544.5845313877716
 20
210.2083136712437
 30
0.0
 11
544.5845313877716
 21
212.2083136712437
 31
0.0
  0
LINE
  5
E8B
330
1F
100
AcDbEntity
  8
AM_7
100
AcDbLine
 10
540.7345313877717
 20
211.2083136712437
 30
0.0
 11
542.7845313877717
 21
211.2083136712437
 31
0.0
  0
LINE
  5
E8C
102
{ACAD_REACTORS
330
13AC
330
1453
102
}
330
1F
100
AcDbEntity
  8
AM_7
100
AcDbLine
 10
546.3845313877717
 20
211.2083136712437
 30
0.0
 11
548.4345313877716
 21
211.2083136712437
 31
0.0
  0
LINE
  5
E8D
102
{ACAD_REACTORS
330
1338
102
}
330
1F
100
AcDbEntity
  8
AM_7
100
AcDbLine
 10
544.5845313877716
 20
207.3583136712437
 30
0.0
 11
544.5845313877716
 21
209.4083136712437
 31
0.0
  0
LINE
  5
E8E
330
1F
100
AcDbEntity
  8
AM_7
100
AcDbLine
 10
544.5845313877716
 20
213.0083136712437
 30
0.0
 11
544.5845313877716
 21
215.0583136712437
 31
0.0
  0
LINE
  5
E8F
330
1F
100
AcDbEntity
  8
AM_7
100
AcDbLine
 10
483.5845313877717
 20
282.2083136712437
 30
0.0
 11
485.5845313877717
 21
282.2083136712437
 31
0.0
  0
LINE
  5
E90
330
1F
100
AcDbEntity
  8
AM_7
100
AcDbLine
 10
484.5845313877717
 20
281.2083136712437
 30
0.0
 11
484.5845313877717
 21
283.2083136712437
 31
0.0
  0
LINE
  5
E91
330
1F
100
AcDbEntity
  8
AM_7
100
AcDbLine
 10
480.7345313877717
 20
282.2083136712437
 30
0.0
 11
482.7845313877717
 21
282.2083136712437
 31
0.0
  0
LINE
  5
E92
330
1F
100
AcDbEntity
  8
AM_7
100
AcDbLine
 10
486.3845313877717
 20
282.2083136712437
 30
0.0
 11
488.4345313877717
 21
282.2083136712437
 31
0.0
  0
LINE
  5
E93
330
1F
100
AcDbEntity
  8
AM_7
100
AcDbLine
 10
484.5845313877717
 20
278.3583136712437
 30
0.0
 11
484.5845313877717
 21
280.4083136712437
 31
0.0
  0
LINE
  5
E94
330
1F
100
AcDbEntity
  8
AM_7
100
AcDbLine
 10
484.5845313877717
 20
284.0083136712437
 30
0.0
 11
484.5845313877717
 21
286.0583136712437
 31
0.0
  0
LINE
  5
E95
330
1F
100
AcDbEntity
  8
AM_7
100
AcDbLine
 10
514.5845313877717
 20
201.872646553165
 30
0.0
 11
514.5845313877717
 21
289.5935421751874
 31
0.0
  0
LINE
  5
E96
330
1F
100
AcDbEntity
  8
AM_7
100
AcDbLine
 10
514.5845313877717
 20
181.9074783585302
 30
0.0
 11
514.5845313877717
 21
141.7552431121502
 31
0.0
  0
LINE
  5
EBD
330
1F
100
AcDbEntity
  8
AM_VIS
100
AcDbLine
 10
550.5845313877716
 20
177.2805303489705
 30
0.0
 11
550.5845313877716
 21
145.2805303489705
 31
0.0
  0
LINE
  5
EBE
102
{ACAD_REACTORS
330
1312
330
135E
330
1384
102
}
330
1F
100
AcDbEntity
  8
AM_VIS
100
AcDbLine
 10
550.5845313877716
 20
145.2805303489705
 30
0.0
 11
478.5845313877717
 21
145.2805303489705
 31
0.0
  0
LINE
  5
EBF
102
{ACAD_REACTORS
330
1312
102
}
330
1F
100
AcDbEntity
  8
AM_VIS
100
AcDbLine
 10
478.5845313877717
 20
145.2805303489705
 30
0.0
 11
478.5845313877717
 21
177.2805303489705
 31
0.0
  0
LINE
  5
EC0
102
{ACAD_REACTORS
330
1384
102
}
330
1F
100
AcDbEntity
  8
AM_VIS
100
AcDbLine
 10
478.5845313877717
 20
177.2805303489705
 30
0.0
 11
550.5845313877716
 21
177.2805303489705
 31
0.0
  0
LINE
  5
EEB
330
1F
100
AcDbEntity
  8
AM_VIS
100
AcDbLine
 10
478.5845313877717
 20
287.2083136712437
 30
0.0
 11
478.5845313877717
 21
206.2083136712437
 31
0.0
  0
LINE
  5
EEC
330
1F
100
AcDbEntity
  8
AM_VIS
100
AcDbLine
 10
550.5845313877716
 20
287.2083136712437
 30
0.0
 11
478.5845313877717
 21
287.2083136712437
 31
0.0
  0
LINE
  5
EED
102
{ACAD_REACTORS
330
13D6
330
1479
102
}
330
1F
100
AcDbEntity
  8
AM_VIS
100
AcDbLine
 10
550.5845313877716
 20
287.2083136712437
 30
0.0
 11
550.5845313877716
 21
206.2083136712437
 31
0.0
  0
LINE
  5
EEE
102
{ACAD_REACTORS
330
13AC
330
1479
102
}
330
1F
100
AcDbEntity
  8
AM_VIS
100
AcDbLine
 10
478.5845313877717
 20
206.2083136712437
 30
0.0
 11
550.5845313877716
 21
206.2083136712437
 31
0.0
  0
CIRCLE
  5
EF3
330
1F
100
AcDbEntity
  8
AM_VIS
100
AcDbCircle
 10
484.5845313877717
 20
211.2083136712437
 30
0.0
 40
2.25
  0
CIRCLE
  5
EF4
330
1F
100
AcDbEntity
  8
AM_VIS
100
AcDbCircle
 10
484.5845313877717
 20
282.2083136712437
 30
0.0
 40
2.25
  0
CIRCLE
  5
EF5
330
1F
100
AcDbEntity
  8
AM_VIS
100
AcDbCircle
 10
544.5845313877716
 20
211.2083136712437
 30
0.0
 40
2.25
  0
CIRCLE
  5
EF6
330
1F
100
AcDbEntity
  8
AM_VIS
100
AcDbCircle
 10
544.5845313877716
 20
282.2083136712437
 30
0.0
 40
2.25
  0
LINE
  5
1072
330
1F
100
AcDbEntity
  8
AM_7
  6
AM_ISO08W050x2
100
AcDbLine
 10
534.5845313877716
 20
219.7083136712437
 30
0.0
 11
542.5845313877716
 21
219.7083136712437
 31
0.0
  0
LINE
  5
1073
330
1F
100
AcDbEntity
  8
AM_7
  6
AM_ISO08W050x2
100
AcDbLine
 10
538.5845313877716
 20
215.7083136712437
 30
0.0
 11
538.5845313877716
 21
223.7083136712437
 31
0.0
  0
LINE
  5
1078
330
1F
100
AcDbEntity
  8
AM_7
  6
AM_ISO08W050x2
100
AcDbLine
 10
486.5845313877717
 20
242.7083136712437
 30
0.0
 11
494.5845313877717
 21
242.7083136712437
 31
0.0
  0
LINE
  5
1079
330
1F
100
AcDbEntity
  8
AM_7
  6
AM_ISO08W050x2
100
AcDbLine
 10
490.5845313877717
 20
238.7083136712437
 30
0.0
 11
490.5845313877717
 21
246.7083136712437
 31
0.0
  0
LINE
  5
107C
330
1F
100
AcDbEntity
  8
AM_7
  6
AM_ISO08W050x2
100
AcDbLine
 10
534.5845313877716
 20
250.7083136712437
 30
0.0
 11
542.5845313877716
 21
250.7083136712437
 31
0.0
  0
LINE
  5
107D
330
1F
100
AcDbEntity
  8
AM_7
  6
AM_ISO08W050x2
100
AcDbLine
 10
538.5845313877716
 20
246.7083136712437
 30
0.0
 11
538.5845313877716
 21
254.7083136712437
 31
0.0
  0
LINE
  5
1080
330
1F
100
AcDbEntity
  8
AM_7
  6
AM_ISO08W050x2
100
AcDbLine
 10
486.5845313877717
 20
273.7083136712437
 30
0.0
 11
494.5845313877717
 21
273.7083136712437
 31
0.0
  0
LINE
  5
1081
330
1F
100
AcDbEntity
  8
AM_7
  6
AM_ISO08W050x2
100
AcDbLine
 10
490.5845313877717
 20
269.7083136712437
 30
0.0
 11
490.5845313877717
 21
277.7083136712437
 31
0.0
  0
ARC
  5
108D
330
1F
100
AcDbEntity
  8
AM_4
100
AcDbCircle
 10
529.5845313877716
 20
160.2805303489705
 30
0.0
 40
10.84999999999999
100
AcDbArc
 50
260.0000000000014
 51
169.9999999999997
  0
CIRCLE
  5
108E
330
1F
100
AcDbEntity
  8
AM_0
100
AcDbCircle
 10
529.5845313877716
 20
160.2805303489705
 30
0.0
 40
9.3155
  0
LINE
  5
109C
102
{ACAD_REACTORS
330
135E
102
}
330
1F
100
AcDbEntity
  8
AM_7
100
AcDbLine
 10
529.5845313877716
 20
160.2805303489705
 30
0.0
 11
542.4345313877717
 21
160.2805303489705
 31
0.0
1001
GENIUS_GENOREF_13
1005
10A0
  0
LINE
  5
109D
330
1F
100
AcDbEntity
  8
AM_7
100
AcDbLine
 10
529.5845313877716
 20
160.2805303489705
 30
0.0
 11
529.5845313877716
 21
173.1305303489705
 31
0.0
1001
GENIUS_GENOREF_13
1005
10A0
  0
LINE
  5
109E
330
1F
100
AcDbEntity
  8
AM_7
100
AcDbLine
 10
529.5845313877716
 20
160.2805303489705
 30
0.0
 11
516.7345313877716
 21
160.2805303489705
 31
0.0
1001
GENIUS_GENOREF_13
1005
10A0
  0
LINE
  5
109F
102
{ACAD_REACTORS
330
12EC
102
}
330
1F
100
AcDbEntity
  8
AM_7
100
AcDbLine
 10
529.5845313877716
 20
160.2805303489705
 30
0.0
 11
529.5845313877716
 21
147.4305303489705
 31
0.0
1001
GENIUS_GENOREF_13
1005
10A0
  0
POINT
  5
10A0
330
1F
100
AcDbEntity
  8
0
 60
     1
100
AcDbPoint
 10
0.0
 20
0.0
 30
0.0
1001
GENIUS_GENODEF_13
1002
{
1000
HIER
1070
    10
1002
}
1002
{
1000
MANEDIT
1070
     0
1002
}
1002
{
1000
NOSEL
1070
     0
1002
}
1002
{
1000
BEHIND
1070
     0
1002
}
1002
{
1000
OTHER
1070
     0
1002
}
1002
{
1000
REACTOR
1002
}
1001
GENIUS_GENOLIS_13
1002
{
1000
ENT
1005
109F
1005
109E
1005
109D
1005
109C
1002
}
1001
GENIUS_GENOENT_13
1002
{
1000
MYREF
1005
10A0
1002
}
1002
{
1000
GRP
1005
0
1002
}
1001
GENIUS_GENOBJ-N-CRS_13
1002
{
1000
OWNER
1000
GEN
1002
}
  0
ARC
  5
10A1
330
1F
100
AcDbEntity
  8
AM_4
100
AcDbCircle
 10
499.5845313877716
 20
160.2805303489705
 30
0.0
 40
10.84999999999999
100
AcDbArc
 50
260.0000000000014
 51
169.9999999999997
  0
CIRCLE
  5
10A2
330
1F
100
AcDbEntity
  8
AM_0
100
AcDbCircle
 10
499.5845313877716
 20
160.2805303489705
 30
0.0
 40
9.3155
  0
LINE
  5
10A3
330
1F
100
AcDbEntity
  8
AM_7
100
AcDbLine
 10
499.5845313877716
 20
160.2805303489705
 30
0.0
 11
512.4345313877717
 21
160.2805303489705
 31
0.0
1001
GENIUS_GENOREF_13
1005
10A7
  0
LINE
  5
10A4
330
1F
100
AcDbEntity
  8
AM_7
100
AcDbLine
 10
499.5845313877716
 20
160.2805303489705
 30
0.0
 11
499.5845313877716
 21
173.1305303489705
 31
0.0
1001
GENIUS_GENOREF_13
1005
10A7
  0
LINE
  5
10A5
330
1F
100
AcDbEntity
  8
AM_7
100
AcDbLine
 10
499.5845313877716
 20
160.2805303489705
 30
0.0
 11
486.7345313877716
 21
160.2805303489705
 31
0.0
1001
GENIUS_GENOREF_13
1005
10A7
  0
LINE
  5
10A6
102
{ACAD_REACTORS
330
12EC
102
}
330
1F
100
AcDbEntity
  8
AM_7
100
AcDbLine
 10
499.5845313877716
 20
160.2805303489705
 30
0.0
 11
499.5845313877716
 21
147.4305303489705
 31
0.0
1001
GENIUS_GENOREF_13
1005
10A7
  0
POINT
  5
10A7
330
1F
100
AcDbEntity
  8
0
 60
     1
100
AcDbPoint
 10
-30.0
 20
0.0
 30
0.0
1001
GENIUS_GENODEF_13
1002
{
1000
HIER
1070
    10
1002
}
1002
{
1000
MANEDIT
1070
     0
1002
}
1002
{
1000
NOSEL
1070
     0
1002
}
1002
{
1000
BEHIND
1070
     0
1002
}
1002
{
1000
OTHER
1070
     0
1002
}
1002
{
1000
REACTOR
1002
}
1001
GENIUS_GENOLIS_13
1002
{
1000
ENT
1005
10A6
1005
10A5
1005
10A4
1005
10A3
1002
}
1001
GENIUS_GENOENT_13
1002
{
1000
MYREF
1005
10A7
1002
}
1002
{
1000
GRP
1005
0
1002
}
1001
GENIUS_GENOBJ-N-CRS_13
1002
{
1000
OWNER
1000
GEN
1002
}
  0
LINE
  5
10A9
330
1F
100
AcDbEntity
  8
AM_VIS
100
AcDbLine
 10
588.9774869278039
 20
287.2083136712437
 30
0.0
 11
588.9774869278039
 21
206.2083136712437
 31
0.0
  0
LINE
  5
10AA
330
1F
100
AcDbEntity
  8
AM_VIS
100
AcDbLine
 10
620.977486927804
 20
287.2083136712437
 30
0.0
 11
620.977486927804
 21
206.2083136712437
 31
0.0
  0
LINE
  5
10AB
330
1F
100
AcDbEntity
  8
AM_VIS
100
AcDbLine
 10
588.9774869278039
 20
206.2083136712437
 30
0.0
 11
620.977486927804
 21
206.2083136712437
 31
0.0
  0
LINE
  5
10AC
330
1F
100
AcDbEntity
  8
AM_VIS
100
AcDbLine
 10
588.9774869278039
 20
287.2083136712437
 30
0.0
 11
620.977486927804
 21
287.2083136712437
 31
0.0
  0
DIMENSION
  5
12DE
102
{ACAD_XDICTIONARY
360
12EB
102
}
102
{ACAD_REACTORS
330
12EC
102
}
330
1F
100
AcDbEntity
  8
AM_5
100
AcDbDimension
  2
*D6
 10
529.5845313877716
 20
133.2805303489705
 30
0.0
 11
514.5845313877717
 21
135.8305303489705
 31
0.0
 70
    32
 71
     5
 42
30.0
  3
AM_ISO$0
100
AcDbAlignedDimension
 13
499.5845313877716
 23
147.4305303489705
 33
0.0
 14
529.5845313877716
 24
147.4305303489705
 34
0.0
 50
0.0000000000001132
100
AcDbRotatedDimension
1001
ACAD
1000
DSTYLE
1002
{
1070
    40
1040
1.0
1070
   144
1040
1.0
1070
   272
1070
     8
1002
}
  0
DIMENSION
  5
1304
102
{ACAD_XDICTIONARY
360
1311
102
}
102
{ACAD_REACTORS
330
1312
102
}
330
1F
100
AcDbEntity
  8
AM_5
100
AcDbDimension
  2
*D7
 10
550.5845313877716
 20
125.2805303489706
 30
0.0
 11
514.5845313877717
 21
127.8305303489706
 31
0.0
 70
    32
 71
     5
 42
71.99999999999994
  3
AM_ISO$0
100
AcDbAlignedDimension
 13
478.5845313877717
 23
145.2805303489705
 33
0.0
 14
550.5845313877716
 24
145.2805303489705
 34
0.0
 50
0.0000000000001132
100
AcDbRotatedDimension
1001
ACAD
1000
DSTYLE
1002
{
1070
    40
1040
1.0
1070
   144
1040
1.0
1070
   272
1070
     8
1002
}
  0
DIMENSION
  5
132A
102
{ACAD_XDICTIONARY
360
1337
102
}
102
{ACAD_REACTORS
330
1338
102
}
330
1F
100
AcDbEntity
  8
AM_5
100
AcDbDimension
  2
*D8
 10
544.5845313877716
 20
194.2083136712437
 30
0.0
 11
514.5845313877717
 21
196.7583136712437
 31
0.0
 70
    32
 71
     5
 42
59.99999999999994
  3
AM_ISO$0
100
AcDbAlignedDimension
 13
484.5845313877717
 23
207.3583136712437
 33
0.0
 14
544.5845313877716
 24
207.3583136712437
 34
0.0
 50
0.0000000000001132
100
AcDbRotatedDimension
1001
ACAD
1000
DSTYLE
1002
{
1070
    40
1040
1.0
1070
   144
1040
1.0
1070
   272
1070
     8
1002
}
  0
DIMENSION
  5
1350
102
{ACAD_XDICTIONARY
360
135D
102
}
102
{ACAD_REACTORS
330
135E
102
}
330
1F
100
AcDbEntity
  8
AM_5
100
AcDbDimension
  2
*D9
 10
562.5845313877716
 20
160.2805303489705
 30
0.0
 11
560.0345313877717
 21
152.7805303489706
 31
0.0
 70
    32
 71
     5
 42
15.0
  3
AM_ISO$0
100
AcDbAlignedDimension
 13
550.5845313877716
 23
145.2805303489705
 33
0.0
 14
542.4345313877717
 24
160.2805303489705
 34
0.0
 50
90.00000000000003
100
AcDbRotatedDimension
1001
ACAD
1000
DSTYLE
1002
{
1070
    40
1040
1.0
1070
   144
1040
1.0
1070
   272
1070
     8
1002
}
  0
DIMENSION
  5
1376
102
{ACAD_XDICTIONARY
360
1383
102
}
102
{ACAD_REACTORS
330
1384
102
}
330
1F
100
AcDbEntity
  8
AM_5
100
AcDbDimension
  2
*D10
 10
570.5845313877717
 20
177.2805303489705
 30
0.0
 11
568.0345313877718
 21
161.2805303489706
 31
0.0
 70
    32
 71
     5
 42
32.0
  3
AM_ISO$0
100
AcDbAlignedDimension
 13
550.5845313877716
 23
145.2805303489705
 33
0.0
 14
550.5845313877716
 24
177.2805303489705
 34
0.0
 50
90.00000000000003
100
AcDbRotatedDimension
1001
ACAD
1000
DSTYLE
1002
{
1070
    40
1040
1.0
1070
   144
1040
1.0
1070
   272
1070
     8
1002
}
  0
DIMENSION
  5
139C
102
{ACAD_XDICTIONARY
360
13AB
102
}
102
{ACAD_REACTORS
330
13AC
102
}
330
1F
100
AcDbEntity
  8
AM_5
100
AcDbDimension
  2
*D11
 10
562.5845313877716
 20
211.2083136712437
 30
0.0
 11
560.0345313877717
 21
208.7083136712438
 31
0.0
 70
    32
 71
     5
 42
5.0
  3
AM_ISO$0
100
AcDbAlignedDimension
 13
550.5845313877716
 23
206.2083136712437
 33
0.0
 14
548.4345313877716
 24
211.2083136712437
 34
0.0
 50
90.00000000000003
100
AcDbRotatedDimension
1001
ACAD
1000
DSTYLE
1002
{
1070
    40
1040
1.0
1070
   144
1040
1.0
1070
   272
1070
     8
1002
}
  0
DIMENSION
  5
13C6
102
{ACAD_XDICTIONARY
360
13D5
102
}
102
{ACAD_REACTORS
330
13D6
102
}
330
1F
100
AcDbEntity
  8
AM_5
100
AcDbDimension
  2
*D12
 10
562.5845323877716
 20
282.2083136712437
 30
0.0
 11
560.0345323877716
 21
284.7083136712437
 31
0.0
 70
    32
 71
     5
 42
5.0
  3
AM_ISO$0
100
AcDbAlignedDimension
 13
550.5845313877716
 23
287.2083136712437
 33
0.0
 14
548.4345313877716
 24
282.2083136712437
 34
0.0
 50
90.0
100
AcDbRotatedDimension
1001
ACAD
1000
DSTYLE
1002
{
1070
    40
1040
1.0
1070
   144
1040
1.0
1070
   272
1070
     8
1002
}
  0
DIMENSION
  5
1445
102
{ACAD_XDICTIONARY
360
1452
102
}
102
{ACAD_REACTORS
330
1453
102
}
330
1F
100
AcDbEntity
  8
AM_5
100
AcDbDimension
  2
*D13
 10
562.5845313877716
 20
282.2083136712437
 30
0.0
 11
560.0345313877716
 21
246.7083136712437
 31
0.0
 70
    32
  1
P
 71
     5
 42
70.99999999999997
  3
AM_ISO$0
100
AcDbAlignedDimension
 13
548.4345313877716
 23
211.2083136712437
 33
0.0
 14
548.4345313877716
 24
282.2083136712437
 34
0.0
 50
90.00000000000003
100
AcDbRotatedDimension
1001
ACAD
1000
DSTYLE
1002
{
1070
    40
1040
1.0
1070
   144
1040
1.0
1070
   272
1070
     8
1002
}
  0
DIMENSION
  5
146B
102
{ACAD_XDICTIONARY
360
1478
102
}
102
{ACAD_REACTORS
330
1479
102
}
330
1F
100
AcDbEntity
  8
AM_5
100
AcDbDimension
  2
*D14
 10
570.5845323877716
 20
287.2083136712437
 30
0.0
 11
568.0345323877715
 21
246.7083136712437
 31
0.0
 70
    32
  1
L
 71
     5
 42
80.99999999999997
  3
AM_ISO$0
100
AcDbAlignedDimension
 13
550.5845313877716
 23
206.2083136712437
 33
0.0
 14
550.5845313877716
 24
287.2083136712437
 34
0.0
 50
90.00000000000003
100
AcDbRotatedDimension
1001
ACAD
1000
DSTYLE
1002
{
1070
    40
1040
1.0
1070
   144
1040
1.0
1070
   272
1070
     8
1002
}
  0
LINE
  5
14CB
330
1F
100
AcDbEntity
  8
0
100
AcDbLine
 10
589.9355175745567
 20
175.1923750975138
 30
0.0
 11
589.9355175745567
 21
134.872375097514
 31
0.0
  0
LINE
  5
14CC
330
1F
100
AcDbEntity
  8
0
100
AcDbLine
 10
627.908374346185
 20
175.192375097514
 30
0.0
 11
627.908374346185
 21
167.128375097514
 31
0.0
  0
LINE
  5
14CD
330
1F
100
AcDbEntity
  8
0
100
AcDbLine
 10
643.028374346185
 20
175.192375097514
 30
0.0
 11
643.028374346185
 21
167.1283750975142
 31
0.0
  0
LINE
  5
14CE
330
1F
100
AcDbEntity
  8
0
100
AcDbLine
 10
612.7883743461845
 20
175.1923750975138
 30
0.0
 11
612.7883743461869
 21
134.872375097514
 31
0.0
  0
LINE
  5
14CF
330
1F
100
AcDbEntity
  8
0
100
AcDbLine
 10
589.9355175745567
 20
167.128375097514
 30
0.0
 11
643.028374346185
 21
167.128375097514
 31
0.0
  0
LINE
  5
14D0
330
1F
100
AcDbEntity
  8
0
100
AcDbLine
 10
589.9355175745567
 20
171.160375097514
 30
0.0
 11
643.028374346185
 21
171.160375097514
 31
0.0
  0
TEXT
  5
14D1
330
1F
100
AcDbEntity
  8
0
100
AcDbText
 10
600.7547983240595
 20
167.8137566795755
 30
0.0
 40
2.531438691876864
  1
2
 41
0.8
  7
CHINESET
 72
     4
 11
601.4298486418932
 21
169.079476025514
 31
0.0
100
AcDbText
  0
TEXT
  5
14D2
330
1F
100
AcDbEntity
  8
0
100
AcDbText
 10
591.4090342623239
 20
172.3953948561618
 30
0.0
 40
2.016
  1
No. of stations
 41
0.8
  7
CHINESET
100
AcDbText
  0
TEXT
  5
14D3
330
1F
100
AcDbEntity
  8
0
100
AcDbText
 10
616.5558651926922
 20
167.834644442807
 30
0.0
 40
2.519999999999999
  1
71
 41
0.8
  7
CHINESET
100
AcDbText
  0
TEXT
  5
14D4
330
1F
100
AcDbEntity
  8
0
100
AcDbText
 10
619.0057630441945
 20
171.8849260628362
 30
0.0
 40
2.519999999999999
  1
P
 41
0.8
  7
CHINESET
100
AcDbText
  0
LINE
  5
14D5
330
1F
100
AcDbEntity
  8
0
100
AcDbLine
 10
589.9355175745567
 20
175.192375097514
 30
0.0
 11
643.028374346185
 21
175.192375097514
 31
0.0
  0
LINE
  5
14D6
330
1F
100
AcDbEntity
  8
0
100
AcDbLine
 10
627.9083743461846
 20
175.1923750975138
 30
0.0
 11
627.9083743461869
 21
134.872375097514
 31
0.0
  0
LINE
  5
14D7
330
1F
100
AcDbEntity
  8
0
100
AcDbLine
 10
643.0283743461846
 20
175.1923750975138
 30
0.0
 11
643.0283743461869
 21
134.872375097514
 31
0.0
  0
LINE
  5
14D8
330
1F
100
AcDbEntity
  8
0
100
AcDbLine
 10
589.9355175745567
 20
163.096375097514
 30
0.0
 11
643.028374346185
 21
163.096375097514
 31
0.0
  0
LINE
  5
14D9
330
1F
100
AcDbEntity
  8
0
100
AcDbLine
 10
589.9355175745567
 20
159.064375097514
 30
0.0
 11
643.028374346185
 21
159.064375097514
 31
0.0
  0
LINE
  5
14DA
330
1F
100
AcDbEntity
  8
0
100
AcDbLine
 10
589.9355175745567
 20
155.032375097514
 30
0.0
 11
643.028374346185
 21
155.032375097514
 31
0.0
  0
LINE
  5
14DB
330
1F
100
AcDbEntity
  8
0
100
AcDbLine
 10
589.9355175745567
 20
151.000375097514
 30
0.0
 11
643.028374346185
 21
151.000375097514
 31
0.0
  0
LINE
  5
14DC
330
1F
100
AcDbEntity
  8
0
100
AcDbLine
 10
589.9355175745567
 20
146.968375097514
 30
0.0
 11
643.028374346185
 21
146.968375097514
 31
0.0
  0
LINE
  5
14DD
330
1F
100
AcDbEntity
  8
0
100
AcDbLine
 10
589.9355175745567
 20
142.936375097514
 30
0.0
 11
643.028374346185
 21
142.936375097514
 31
0.0
  0
LINE
  5
14DE
330
1F
100
AcDbEntity
  8
0
100
AcDbLine
 10
589.9355175745567
 20
138.904375097514
 30
0.0
 11
643.028374346185
 21
138.904375097514
 31
0.0
  0
LINE
  5
14DF
330
1F
100
AcDbEntity
  8
0
100
AcDbLine
 10
589.9355175745567
 20
134.872375097514
 30
0.0
 11
643.028374346185
 21
134.872375097514
 31
0.0
  0
TEXT
  5
14E0
330
1F
100
AcDbEntity
  8
0
100
AcDbText
 10
600.7547983240595
 20
163.7817566795755
 30
0.0
 40
2.531438691876864
  1
3
 41
0.8
  7
CHINESET
 72
     4
 11
601.4298486418932
 21
165.047476025514
 31
0.0
100
AcDbText
  0
TEXT
  5
14E1
330
1F
100
AcDbEntity
  8
0
100
AcDbText
 10
600.7065804442147
 20
159.7497566795756
 30
0.0
 40
2.531438691876864
  1
4
 41
0.8
  7
CHINESET
 72
     4
 11
601.4298486418938
 21
161.015476025514
 31
0.0
100
AcDbText
  0
TEXT
  5
14E2
330
1F
100
AcDbEntity
  8
0
100
AcDbText
 10
600.7547983240605
 20
155.7177566795756
 30
0.0
 40
2.531438691876864
  1
5
 41
0.8
  7
CHINESET
 72
     4
 11
601.4298486418943
 21
156.983476025514
 31
0.0
100
AcDbText
  0
TEXT
  5
14E3
330
1F
100
AcDbEntity
  8
0
100
AcDbText
 10
600.8030162039057
 20
151.6857566795756
 30
0.0
 40
2.531438691876864
  1
6
 41
0.8
  7
CHINESET
 72
     4
 11
601.4298486418943
 21
152.951476025514
 31
0.0
100
AcDbText
  0
TEXT
  5
14E4
330
1F
100
AcDbEntity
  8
0
100
AcDbText
 10
600.7547983240605
 20
147.6537566795756
 30
0.0
 40
2.531438691876864
  1
7
 41
0.8
  7
CHINESET
 72
     4
 11
601.4298486418943
 21
148.919476025514
 31
0.0
100
AcDbText
  0
TEXT
  5
14E5
330
1F
100
AcDbEntity
  8
0
100
AcDbText
 10
600.7547983240608
 20
143.6217566795756
 30
0.0
 40
2.531438691876864
  1
8
 41
0.8
  7
CHINESET
 72
     4
 11
601.4298486418946
 21
144.887476025514
 31
0.0
100
AcDbText
  0
TEXT
  5
14E6
330
1F
100
AcDbEntity
  8
0
100
AcDbText
 10
600.8030162039066
 20
139.5897566795756
 30
0.0
 40
2.531438691876864
  1
9
 41
0.8
  7
CHINESET
 72
     4
 11
601.4298486418952
 21
140.855476025514
 31
0.0
100
AcDbText
  0
TEXT
  5
14E7
330
1F
100
AcDbEntity
  8
0
100
AcDbText
 10
599.983312246537
 20
135.5577566795756
 30
0.0
 40
2.531438691876864
  1
10
 41
0.8
  7
CHINESET
 72
     4
 11
601.4298486418952
 21
136.823476025514
 31
0.0
100
AcDbText
  0
TEXT
  5
14E8
330
1F
100
AcDbEntity
  8
0
100
AcDbText
 10
631.6758651926923
 20
167.834644442807
 30
0.0
 40
2.519999999999999
  1
81
 41
0.8
  7
CHINESET
100
AcDbText
  0
TEXT
  5
14E9
330
1F
100
AcDbEntity
  8
0
100
AcDbText
 10
616.5558651926922
 20
163.802644442807
 30
0.0
 40
2.519999999999999
  1
102
 41
0.8
  7
CHINESET
100
AcDbText
  0
TEXT
  5
14EA
330
1F
100
AcDbEntity
  8
0
100
AcDbText
 10
631.6758651926923
 20
163.802644442807
 30
0.0
 40
2.519999999999999
  1
112
 41
0.8
  7
CHINESET
100
AcDbText
  0
TEXT
  5
14EB
330
1F
100
AcDbEntity
  8
0
100
AcDbText
 10
616.5558651926927
 20
159.7706444428069
 30
0.0
 40
2.519999999999999
  1
133
 41
0.8
  7
CHINESET
100
AcDbText
  0
TEXT
  5
14EC
330
1F
100
AcDbEntity
  8
0
100
AcDbText
 10
631.6758651926927
 20
159.7706444428069
 30
0.0
 40
2.519999999999999
  1
143
 41
0.8
  7
CHINESET
100
AcDbText
  0
TEXT
  5
14ED
330
1F
100
AcDbEntity
  8
0
100
AcDbText
 10
616.5558651926931
 20
155.7386444428069
 30
0.0
 40
2.519999999999999
  1
164
 41
0.8
  7
CHINESET
100
AcDbText
  0
TEXT
  5
14EE
330
1F
100
AcDbEntity
  8
0
100
AcDbText
 10
631.6758651926932
 20
155.7386444428069
 30
0.0
 40
2.519999999999999
  1
174
 41
0.8
  7
CHINESET
100
AcDbText
  0
TEXT
  5
14EF
330
1F
100
AcDbEntity
  8
0
100
AcDbText
 10
616.5558651926931
 20
151.706644442807
 30
0.0
 40
2.519999999999999
  1
195
 41
0.8
  7
CHINESET
100
AcDbText
  0
TEXT
  5
14F0
330
1F
100
AcDbEntity
  8
0
100
AcDbText
 10
631.6758651926932
 20
151.706644442807
 30
0.0
 40
2.519999999999999
  1
205
 41
0.8
  7
CHINESET
100
AcDbText
  0
TEXT
  5
14F1
330
1F
100
AcDbEntity
  8
0
100
AcDbText
 10
616.5558651926931
 20
147.674644442807
 30
0.0
 40
2.519999999999999
  1
226
 41
0.8
  7
CHINESET
100
AcDbText
  0
TEXT
  5
14F2
330
1F
100
AcDbEntity
  8
0
100
AcDbText
 10
631.6758651926932
 20
147.674644442807
 30
0.0
 40
2.519999999999999
  1
236
 41
0.8
  7
CHINESET
100
AcDbText
  0
TEXT
  5
14F3
330
1F
100
AcDbEntity
  8
0
100
AcDbText
 10
616.5558651926938
 20
143.6426444428069
 30
0.0
 40
2.519999999999999
  1
257
 41
0.8
  7
CHINESET
100
AcDbText
  0
TEXT
  5
14F4
330
1F
100
AcDbEntity
  8
0
100
AcDbText
 10
631.6758651926936
 20
143.6426444428069
 30
0.0
 40
2.519999999999999
  1
267
 41
0.8
  7
CHINESET
100
AcDbText
  0
TEXT
  5
14F5
330
1F
100
AcDbEntity
  8
0
100
AcDbText
 10
616.5558651926941
 20
139.6106444428069
 30
0.0
 40
2.519999999999999
  1
288
 41
0.8
  7
CHINESET
100
AcDbText
  0
TEXT
  5
14F6
330
1F
100
AcDbEntity
  8
0
100
AcDbText
 10
631.675865192694
 20
139.6106444428069
 30
0.0
 40
2.519999999999999
  1
298
 41
0.8
  7
CHINESET
100
AcDbText
  0
TEXT
  5
14F7
330
1F
100
AcDbEntity
  8
0
100
AcDbText
 10
616.5558651926941
 20
135.5786444428069
 30
0.0
 40
2.519999999999999
  1
319
 41
0.8
  7
CHINESET
100
AcDbText
  0
TEXT
  5
14F8
330
1F
100
AcDbEntity
  8
0
100
AcDbText
 10
631.675865192694
 20
135.5786444428069
 30
0.0
 40
2.519999999999999
  1
329
 41
0.8
  7
CHINESET
100
AcDbText
  0
TEXT
  5
14F9
330
1F
100
AcDbEntity
  8
0
100
AcDbText
 10
634.1257630441944
 20
171.8849260628362
 30
0.0
 40
2.519999999999999
  1
L
 41
0.8
  7
CHINESET
100
AcDbText
  0
TEXT
  5
1545
330
1F
100
AcDbEntity
  8
AM_5
100
AcDbText
 10
558.2800984957835
 20
135.6655825211643
 30
0.0
 40
3.5
  1
2-G1/2
100
AcDbText
  0
INSERT
  5
1546
330
1F
100
AcDbEntity
  8
AM_5
100
AcDbBlockReference
  2
*S5
 10
318.5951508202231
 20
-2.582130557730522
 30
0.0
  0
LINE
  5
1548
330
1F
100
AcDbEntity
  8
AM_7
100
AcDbLine
 10
471.3774683929472
 20
231.2083136712437
 30
0.0
 11
556.5874491757108
 21
231.2083136712437
 31
0.0
  0
LINE
  5
154A
330
1F
100
AcDbEntity
  8
AM_7
100
AcDbLine
 10
471.3774683929472
 20
262.2083136712437
 30
0.0
 11
556.5874491757108
 21
262.2083136712437
 31
0.0
  0
LWPOLYLINE
  5
154B
330
1F
100
AcDbEntity
  8
LOGO
 62
     4
100
AcDbPolyline
 90
        4
 70
     1
 43
0.0
 10
453.5797390029555
 20
81.62051133876421
 10
653.5797390029555
 20
81.62051133876421
 10
653.5797390029555
 20
336.6234072663657
 10
453.5797390029555
 20
336.6234072663657
1001
GENIUS_GENREC_14
1002
{
1000
PYDIR
1011
453.5797390029555
1021
336.6234072663657
1031
0.0
1002
}
1002
{
1000
PXDIR
1011
653.5797390029555
1021
81.62051133876421
1031
0.0
1002
}
1002
{
1000
PORI
1011
453.5797390029555
1021
81.62051133876421
1031
0.0
1002
}
1002
{
1000
PINS
1011
453.5797390029555
1021
81.62051133876421
1031
0.0
1002
}
1002
{
1000
PINS2
1011
653.5797390029555
1021
336.6234072663657
1031
0.0
1002
}
1002
{
1000
C
1070
     1
1002
}
1001
GENIUS_GENODEF_13
1002
{
1000
HIER
1070
     0
1002
}
1002
{
1000
MANEDIT
1070
     0
1002
}
1002
{
1000
NOSEL
1070
     0
1002
}
1002
{
1000
BEHIND
1070
     0
1002
}
1002
{
1000
OTHER
1070
     0
1002
}
1002
{
1000
REACTOR
1002
}
1001
GENIUS_GENOBJ-N-REC_13
1002
{
1000
OWNER
1000
GEN
1002
}
  0
LWPOLYLINE
  5
154C
330
1F
100
AcDbEntity
  8
LOGO
 62
     4
100
AcDbPolyline
 90
        4
 70
     1
 43
0.0
 10
453.5797390029555
 20
81.62051133876421
 10
653.5797390029555
 20
81.62051133876421
 10
653.5797390029555
 20
61.62340726636566
 10
453.5797390029555
 20
61.62340726636566
1001
GENIUS_GENREC_14
1002
{
1000
PYDIR
1011
453.5797390029555
1021
61.62340726636566
1031
0.0
1002
}
1002
{
1000
PXDIR
1011
653.5797390029555
1021
81.62051133876421
1031
0.0
1002
}
1002
{
1000
PORI
1011
453.5797390029555
1021
81.62051133876421
1031
0.0
1002
}
1002
{
1000
PINS
1011
453.5797390029555
1021
81.62051133876421
1031
0.0
1002
}
1002
{
1000
PINS2
1011
653.5797390029555
1021
61.62340726636566
1031
0.0
1002
}
1002
{
1000
C
1070
     1
1002
}
1001
GENIUS_GENOBJ-N-REC_13
1002
{
1000
OWNER
1000
GEN
1002
}
1001
GENIUS_GENODEF_13
1002
{
1000
HIER
1070
     0
1002
}
1002
{
1000
MANEDIT
1070
     0
1002
}
1002
{
1000
NOSEL
1070
     0
1002
}
1002
{
1000
BEHIND
1070
     0
1002
}
1002
{
1000
OTHER
1070
     0
1002
}
1002
{
1000
REACTOR
1002
}
  0
TEXT
  5
154D
330
1F
100
AcDbEntity
  8
LOGO
 62
     7
100
AcDbText
 10
498.7318759016629
 20
72.86012032444919
 30
0.0
 40
2.666280542986425
  1
Order example:
 41
0.8
  7
CHINESET
100
AcDbText
  0
TEXT
  5
154E
330
1F
100
AcDbEntity
  8
LOGO
 62
     7
100
AcDbText
 10
499.2102286803177
 20
76.61369126854342
 30
0.0
 40
3.999420814479637
  1
訂購代號：
  7
CHINESET
100
AcDbText
  0
LINE
  5
154F
330
1F
100
AcDbEntity
  8
LOGO
 62
     4
100
AcDbLine
 10
497.5733679622315
 20
61.62340726636589
 30
0.0
 11
497.5733679622315
 21
81.62051133876421
 31
0.0
  0
TEXT
  5
1550
330
1F
100
AcDbEntity
  8
LOGO
  6
Continuous
100
AcDbText
 10
460.7627886744829
 20
65.55180818312724
 30
0.0
 40
2.999565610859728
  1
金器工業股份有限公司
  7
CHINESET
100
AcDbText
  0
TEXT
  5
1551
330
1F
100
AcDbEntity
  8
LOGO
  6
Continuous
100
AcDbText
 10
455.2531800821246
 20
62.55165489258283
 30
0.0
 40
1.999710407239818
  1
MINDMAN INDUSTRIAL CO., LTD.
 41
0.85
  7
CHINESET
100
AcDbText
  0
LINE
  5
1552
330
1F
100
AcDbEntity
  8
LOGO
 62
     4
100
AcDbLine
 10
497.5733679622315
 20
77.62109052428454
 30
0.0
 11
468.2442819893807
 21
77.62109052428454
 31
0.0
  0
LINE
  5
1553
330
1F
100
AcDbEntity
  8
LOGO
 62
     4
100
AcDbLine
 10
497.5733679622315
 20
73.62166970980488
 30
0.0
 11
468.2442819893807
 21
73.62166970980488
 31
0.0
  0
LINE
  5
1554
330
1F
100
AcDbEntity
  8
LOGO
 62
     4
100
AcDbLine
 10
497.5733679622315
 20
69.62224889532544
 30
0.0
 11
453.5797390029555
 21
69.62224889532544
 31
0.0
  0
LINE
  5
1555
330
1F
100
AcDbEntity
  8
LOGO
 62
     4
100
AcDbLine
 10
468.2442819893807
 20
69.62224889532544
 30
0.0
 11
468.2442819893807
 21
81.62051133876421
 31
0.0
  0
TEXT
  5
1556
330
1F
100
AcDbEntity
  8
LOGO
100
AcDbText
 10
488.289327940052
 20
70.62210409894501
 30
0.0
 40
1.999710407239818
  1
mm
  7
CHINESET
 72
     1
 11
490.7651598728251
 21
71.62195930256493
 31
0.0
100
AcDbText
 73
     2
  0
TEXT
  5
1557
330
1F
100
AcDbEntity
  8
LOGO
100
AcDbText
 10
487.2418605838787
 20
78.62094572790434
 30
0.0
 40
1.999710407239818
  1
1 : 1
  7
CHINESET
 72
     1
 11
490.7651598728251
 21
79.62080093152426
 31
0.0
100
AcDbText
 73
     2
  0
LINE
  5
1558
330
1F
100
AcDbEntity
  8
LOGO
 62
     4
100
AcDbLine
 10
484.2419652472994
 20
69.62224889532544
 30
0.0
 11
484.2419652472994
 21
81.62051133876421
 31
0.0
  0
CIRCLE
  5
1559
330
1F
100
AcDbEntity
  8
LOGO
  6
Continuous
100
AcDbCircle
 10
487.9446791861276
 20
75.62565751223937
 30
0.0
 40
1.161078930320631
  0
CIRCLE
  5
155A
330
1F
100
AcDbEntity
  8
LOGO
  6
Continuous
100
AcDbCircle
 10
487.9446791861276
 20
75.62565751223937
 30
0.0
 40
0.6802894686655972
  0
LINE
  5
155B
330
1F
100
AcDbEntity
  8
LOGO
100
AcDbLine
 10
495.2410339101642
 20
74.46457858191852
 30
0.0
 11
495.2410339101642
 21
76.78673644256022
 31
0.0
  0
LINE
  5
155C
330
1F
100
AcDbEntity
  8
LOGO
100
AcDbLine
 10
491.6011181127199
 20
74.94536804357389
 30
0.0
 11
491.6011181127199
 21
76.30594698090508
 31
0.0
  0
LINE
  5
155D
330
1F
100
AcDbEntity
  8
LOGO
  6
Continuous
100
AcDbLine
 10
491.6011181127199
 20
76.30594698090508
 30
0.0
 11
495.2410339101642
 21
76.78673644256022
 31
0.0
  0
LINE
  5
155E
330
1F
100
AcDbEntity
  8
LOGO
  6
Continuous
100
AcDbLine
 10
491.6011181127199
 20
74.94536804357389
 30
0.0
 11
495.2410339101642
 21
74.46457858191852
 31
0.0
  0
TEXT
  5
155F
330
1F
100
AcDbEntity
  8
LOGO
100
AcDbText
 10
469.8931503474932
 20
78.62192983735673
 30
131.0577257600498
 40
1.999710407239818
  1
比例 Scale:
 41
0.9
  7
CHINESET
 72
     4
 11
476.2431236183401
 21
79.62080093152426
 31
131.0577257600498
100
AcDbText
  0
TEXT
  5
1560
330
1F
100
AcDbEntity
  8
LOGO
100
AcDbText
 10
469.7779884535049
 20
74.6496540419386
 30
131.0577257600498
 40
1.999710407239818
  1
投影  View:
 41
0.9
  7
CHINESET
 72
     4
 11
476.2431236183401
 21
75.62138011704459
 31
131.0577257600498
100
AcDbText
  0
TEXT
  5
1561
330
1F
100
AcDbEntity
  8
LOGO
100
AcDbText
 10
469.973495854927
 20
70.62210409894501
 30
131.0577257600498
 40
1.999710407239818
  1
單位  Unit:
 41
0.9
  7
CHINESET
 72
     4
 11
476.2431236183401
 21
71.62195930256493
 31
131.0577257600498
100
AcDbText
  0
SOLID
  5
1562
330
1F
100
AcDbEntity
  8
LOGO
 62
     5
100
AcDbTrace
 10
455.6544706433777
 20
72.94648281099885
 30
0.0
 11
456.5190929510671
 21
72.94648281099862
 31
0.0
 12
460.1266549934952
 22
81.14548745288137
 32
0.0
 13
460.991277301185
 23
81.14548745288093
 33
0.0
  0
SOLID
  5
1563
330
1F
100
AcDbEntity
  8
LOGO
 62
     5
100
AcDbTrace
 10
456.8768676990774
 20
72.94648281099885
 30
0.0
 11
457.7414900067668
 21
72.94648281099885
 31
0.0
 12
460.991277301185
 22
80.48956708153045
 32
0.0
 13
460.1266549934952
 23
77.31928528666921
 33
0.0
  0
SOLID
  5
1564
330
1F
100
AcDbEntity
  8
LOGO
 62
     2
100
AcDbTrace
 10
456.5190929510671
 20
72.94648281099862
 30
0.0
 11
456.8768676990774
 21
72.94648281099885
 31
0.0
 12
460.991277301185
 22
81.14548745288093
 32
0.0
 13
461.3490520491949
 23
81.14548745288093
 33
0.0
  0
SOLID
  5
1565
330
1F
100
AcDbEntity
  8
LOGO
 62
     5
100
AcDbTrace
 10
454.2682690527893
 20
69.96502657758728
 30
0.0
 11
454.5664146761309
 21
69.96502657758728
 31
0.0
 12
455.4060159572603
 22
71.45575469429295
 32
0.0
 13
455.7041615806009
 23
71.45575469429295
 33
0.0
  0
SOLID
  5
1566
330
1F
100
AcDbEntity
  8
LOGO
 62
     5
100
AcDbTrace
 10
455.4060159572603
 20
71.45575469429295
 30
0.0
 11
455.7041615806009
 21
71.45575469429295
 31
0.0
 12
455.4060159572603
 22
69.96502657758728
 32
0.0
 13
455.7041615806009
 23
69.96502657758728
 33
0.0
  0
SOLID
  5
1567
330
1F
100
AcDbEntity
  8
LOGO
 62
     5
100
AcDbTrace
 10
455.4060159572603
 20
69.96502657758728
 30
0.0
 11
455.7041615806009
 21
69.96502657758728
 31
0.0
 12
456.5437628617318
 22
71.45575469429295
 32
0.0
 13
456.8419084850728
 23
71.45575469429295
 33
0.0
  0
SOLID
  5
1568
330
1F
100
AcDbEntity
  8
LOGO
 62
     5
100
AcDbTrace
 10
456.5437628617318
 20
71.45575469429295
 30
0.0
 11
456.8419084850728
 21
71.45575469429295
 31
0.0
 12
456.5437628617318
 22
69.96502657758728
 32
0.0
 13
456.8419084850728
 23
69.96502657758728
 33
0.0
  0
POLYLINE
  5
1569
330
1F
100
AcDbEntity
  8
LOGO
 62
     5
100
AcDb2dPolyline
 66
     1
 10
0.0
 20
0.0
 30
0.0
 40
0.2986234208144796
 41
0.2986234208144796
  0
VERTEX
  5
156A
330
1569
100
AcDbEntity
  8
LOGO
 62
     5
100
AcDbVertex
100
AcDb2dVertex
 10
466.5375025915412
 20
70.85946344761063
 30
0.0
 42
1.0
  0
VERTEX
  5
156B
330
1569
100
AcDbEntity
  8
LOGO
 62
     5
100
AcDbVertex
100
AcDb2dVertex
 10
465.6416323290976
 20
70.85946344761063
 30
0.0
 42
1.0
  0
SEQEND
  5
156C
330
1569
100
AcDbEntity
  8
LOGO
 62
     5
  0
POLYLINE
  5
156D
330
1F
100
AcDbEntity
  8
LOGO
 62
     5
100
AcDb2dPolyline
 66
     1
 10
0.0
 20
0.0
 30
0.0
 70
     1
  0
VERTEX
  5
156E
330
156D
100
AcDbEntity
  8
LOGO
 62
     5
100
AcDbVertex
100
AcDb2dVertex
 10
463.9528770360819
 20
70.71039063593989
 30
0.0
 42
1.000000057330635
  0
VERTEX
  5
156F
330
156D
100
AcDbEntity
  8
LOGO
 62
     5
100
AcDbVertex
100
AcDb2dVertex
 10
464.8473139061056
 20
70.71039063593989
 30
0.0
 42
1.000000057330635
  0
SEQEND
  5
1570
330
156D
100
AcDbEntity
  8
LOGO
 62
     5
  0
CIRCLE
  5
1571
330
1F
100
AcDbEntity
  8
LOGO
 62
     5
100
AcDbCircle
 10
464.4000954710945
 20
70.71039063593989
 30
0.0
 40
0.4472184350117648
  0
POLYLINE
  5
1572
330
1F
100
AcDbEntity
  8
LOGO
 62
     5
100
AcDb2dPolyline
 66
     1
 10
0.0
 20
0.0
 30
0.0
 70
     1
 40
0.2986234208144796
 41
0.2986234208144796
  0
VERTEX
  5
1573
330
1572
100
AcDbEntity
  8
LOGO
 62
     5
100
AcDbVertex
100
AcDb2dVertex
 10
463.8028486294651
 20
70.71039063593989
 30
0.0
 42
1.0
  0
VERTEX
  5
1574
330
1572
100
AcDbEntity
  8
LOGO
 62
     5
100
AcDbVertex
100
AcDb2dVertex
 10
464.9973423127229
 20
70.71039063593989
 30
0.0
 42
1.0
  0
SEQEND
  5
1575
330
1572
100
AcDbEntity
  8
LOGO
 62
     5
  0
LINE
  5
1576
330
1F
100
AcDbEntity
  8
LOGO
100
AcDbLine
 10
466.6858587070013
 20
69.96502657758728
 30
0.0
 11
466.6858587070013
 21
70.85946344761063
 31
0.0
  0
SOLID
  5
1577
330
1F
100
AcDbEntity
  8
LOGO
 62
     5
100
AcDbTrace
 10
464.8472840915445
 20
71.45575469429295
 30
0.0
 11
465.1454297148851
 21
71.45575469429295
 31
0.0
 12
464.8472840915445
 22
69.96502657758728
 32
0.0
 13
465.1454297148851
 23
69.96502657758728
 33
0.0
  0
SOLID
  5
1578
330
1F
100
AcDbEntity
  8
LOGO
 62
     5
100
AcDbTrace
 10
465.4932762136366
 20
69.96502657758728
 30
0.0
 11
465.7914218369781
 21
69.96502657758728
 31
0.0
 12
465.4932762136366
 22
71.45575469429295
 32
0.0
 13
465.7914218369781
 23
71.45575469429295
 33
0.0
  0
SOLID
  5
1579
330
1F
100
AcDbEntity
  8
LOGO
 62
     5
100
AcDbTrace
 10
466.3877130836607
 20
70.85946344761063
 30
0.0
 11
466.6858587070013
 21
70.85946344761063
 31
0.0
 12
466.3877130836607
 22
69.96502657758728
 32
0.0
 13
466.6858587070013
 23
69.96502657758728
 33
0.0
  0
SOLID
  5
157A
330
1F
100
AcDbEntity
  8
LOGO
 62
     5
100
AcDbTrace
 10
465.4634616513025
 20
80.48956708153045
 30
0.0
 11
464.5988393436136
 21
77.31928528666921
 31
0.0
 12
465.4634616513025
 22
72.94648281099862
 32
0.0
 13
464.5988393436136
 23
72.94648281099862
 33
0.0
  0
SOLID
  5
157B
330
1F
100
AcDbEntity
  8
LOGO
 62
     5
100
AcDbTrace
 10
465.8212363993124
 20
72.94648281099862
 30
0.0
 11
466.6858587070013
 21
72.94648281099862
 31
0.0
 12
465.8212363993124
 22
81.14548745288093
 32
0.0
 13
466.6858587070013
 23
81.14548745288137
 33
0.0
  0
SOLID
  5
157C
330
1F
100
AcDbEntity
  8
LOGO
 62
     2
100
AcDbTrace
 10
465.4634616513025
 20
81.14548745288137
 30
0.0
 11
465.8212363993124
 21
81.14548745288093
 31
0.0
 12
465.4634616513025
 22
72.94648281099862
 32
0.0
 13
465.8212363993124
 23
72.94648281099862
 33
0.0
  0
POLYLINE
  5
157D
330
1F
100
AcDbEntity
  8
LOGO
 62
     5
100
AcDb2dPolyline
 66
     1
 10
0.0
 20
0.0
 30
0.0
 40
0.2986234208144796
 41
0.2986234208144796
  0
VERTEX
  5
157E
330
157D
100
AcDbEntity
  8
LOGO
 62
     5
100
AcDbVertex
100
AcDb2dVertex
 10
462.2640621139429
 20
70.85946344761063
 30
0.0
 42
1.0
  0
VERTEX
  5
157F
330
157D
100
AcDbEntity
  8
LOGO
 62
     5
100
AcDbVertex
100
AcDb2dVertex
 10
461.3681918514993
 20
70.85946344761063
 30
0.0
 42
1.0
  0
SEQEND
  5
1580
330
157D
100
AcDbEntity
  8
LOGO
 62
     5
  0
POLYLINE
  5
1581
330
1F
100
AcDbEntity
  8
LOGO
 62
     5
100
AcDb2dPolyline
 66
     1
 10
0.0
 20
0.0
 30
0.0
 40
0.2986234208144796
 41
0.2986234208144796
  0
VERTEX
  5
1582
330
1581
100
AcDbEntity
  8
LOGO
 62
     5
100
AcDbVertex
100
AcDb2dVertex
 10
463.1584989839656
 20
70.85946344761063
 30
0.0
 42
1.0
  0
VERTEX
  5
1583
330
1581
100
AcDbEntity
  8
LOGO
 62
     5
100
AcDbVertex
100
AcDb2dVertex
 10
462.2626287215224
 20
70.85946344761063
 30
0.0
 42
1.0
  0
SEQEND
  5
1584
330
1581
100
AcDbEntity
  8
LOGO
 62
     5
  0
POLYLINE
  5
1585
330
1F
100
AcDbEntity
  8
LOGO
 62
     5
100
AcDb2dPolyline
 66
     1
 10
0.0
 20
0.0
 30
0.0
 40
0.2986234208144796
 41
0.2986234208144796
  0
VERTEX
  5
1586
330
1585
100
AcDbEntity
  8
LOGO
 62
     5
100
AcDbVertex
100
AcDb2dVertex
 10
458.8850585063672
 20
70.85946344761063
 30
0.0
 42
1.0
  0
VERTEX
  5
1587
330
1585
100
AcDbEntity
  8
LOGO
 62
     5
100
AcDbVertex
100
AcDb2dVertex
 10
457.989188243924
 20
70.85946344761063
 30
0.0
 42
1.0
  0
SEQEND
  5
1588
330
1585
100
AcDbEntity
  8
LOGO
 62
     5
  0
SOLID
  5
1589
330
1F
100
AcDbEntity
  8
LOGO
 62
     5
100
AcDbTrace
 10
457.8408321284635
 20
71.45575469429295
 30
0.0
 11
458.1389777518041
 21
71.45575469429295
 31
0.0
 12
457.8408321284635
 22
69.96502657758728
 32
0.0
 13
458.1389777518041
 23
69.96502657758728
 33
0.0
  0
SOLID
  5
158A
330
1F
100
AcDbEntity
  8
LOGO
 62
     5
100
AcDbTrace
 10
458.7352689984872
 20
70.85946344761063
 30
0.0
 11
459.0334146218286
 21
70.85946344761063
 31
0.0
 12
458.7352689984872
 22
69.96502657758728
 32
0.0
 13
459.0334146218286
 23
69.96502657758728
 33
0.0
  0
POLYLINE
  5
158B
330
1F
100
AcDbEntity
  8
LOGO
 62
     5
100
AcDb2dPolyline
 66
     1
 10
0.0
 20
0.0
 30
0.0
 70
     1
 40
0.2986234208144796
 41
0.2986234208144796
  0
VERTEX
  5
158C
330
158B
100
AcDbEntity
  8
LOGO
 62
     5
100
AcDbVertex
100
AcDb2dVertex
 10
459.5294081518662
 20
70.71039063593989
 30
0.0
 42
1.0
  0
VERTEX
  5
158D
330
158B
100
AcDbEntity
  8
LOGO
 62
     5
100
AcDbVertex
100
AcDb2dVertex
 10
460.7239018351245
 20
70.71039063593989
 30
0.0
 42
1.0
  0
SEQEND
  5
158E
330
158B
100
AcDbEntity
  8
LOGO
 62
     5
  0
SOLID
  5
158F
330
1F
100
AcDbEntity
  8
LOGO
 62
     5
100
AcDbTrace
 10
460.5738436139453
 20
71.90297312930496
 30
0.0
 11
460.8719892372863
 21
71.90297312930496
 31
0.0
 12
460.5738436139453
 22
69.96502657758728
 32
0.0
 13
460.8719892372863
 23
69.96502657758728
 33
0.0
  0
SOLID
  5
1590
330
1F
100
AcDbEntity
  8
LOGO
 62
     5
100
AcDbTrace
 10
461.2198357360393
 20
71.45575469429295
 30
0.0
 11
461.5179813593798
 21
71.45575469429295
 31
0.0
 12
461.2198357360393
 22
69.96502657758728
 32
0.0
 13
461.5179813593798
 23
69.96502657758728
 33
0.0
  0
SOLID
  5
1591
330
1F
100
AcDbEntity
  8
LOGO
 62
     5
100
AcDbTrace
 10
462.1142726060619
 20
70.85946344761063
 30
0.0
 11
462.4124182294034
 21
70.85946344761063
 31
0.0
 12
462.1142726060619
 22
69.96502657758728
 32
0.0
 13
462.4124182294034
 23
69.96502657758728
 33
0.0
  0
SOLID
  5
1592
330
1F
100
AcDbEntity
  8
LOGO
 62
     5
100
AcDbTrace
 10
463.0087094760855
 20
70.85946344761063
 30
0.0
 11
463.3068550994265
 21
70.85946344761063
 31
0.0
 12
463.0087094760855
 22
69.96502657758682
 32
0.0
 13
463.3068550994265
 23
69.96502657758682
 33
0.0
  0
SOLID
  5
1593
330
1F
100
AcDbEntity
  8
LOGO
 62
     5
100
AcDbTrace
 10
457.1948400063701
 20
71.66445663063186
 30
0.0
 11
457.492985629712
 21
71.66445663063186
 31
0.0
 12
457.1948400063701
 22
71.90297312930496
 32
0.0
 13
457.492985629712
 23
71.90297312930496
 33
0.0
  0
SOLID
  5
1594
330
1F
100
AcDbEntity
  8
LOGO
 62
     5
100
AcDbTrace
 10
457.1948400063701
 20
71.45575469429295
 30
0.0
 11
457.492985629712
 21
71.45575469429295
 31
0.0
 12
457.1948400063701
 22
69.96502657758682
 32
0.0
 13
457.492985629712
 23
69.96502657758728
 33
0.0
  0
SOLID
  5
1595
330
1F
100
AcDbEntity
  8
LOGO
 62
     5
100
AcDbTrace
 10
460.1266549934952
 20
72.94648281099885
 30
0.0
 11
460.991277301185
 21
72.94648281099885
 31
0.0
 12
460.1266549934952
 22
77.31928528666921
 32
0.0
 13
460.991277301185
 23
80.48956708153045
 33
0.0
  0
SOLID
  5
1596
330
1F
100
AcDbEntity
  8
LOGO
 62
     5
100
AcDbTrace
 10
461.3490520491949
 20
81.14548745288093
 30
0.0
 11
462.2136743568838
 21
81.14548745288137
 31
0.0
 12
461.3490520491949
 22
73.60240318234932
 32
0.0
 13
462.2136743568838
 23
76.77268497721056
 33
0.0
  0
SOLID
  5
1597
330
1F
100
AcDbEntity
  8
LOGO
 62
     2
100
AcDbTrace
 10
460.991277301185
 20
81.14548745288093
 30
0.0
 11
461.3490520491949
 21
81.14548745288093
 31
0.0
 12
460.991277301185
 22
72.94648281099885
 32
0.0
 13
461.3490520491949
 23
72.94648281099885
 33
0.0
  0
SOLID
  5
1598
330
1F
100
AcDbEntity
  8
LOGO
 62
     5
100
AcDbTrace
 10
461.3490520491949
 20
73.60240318234932
 30
0.0
 11
462.2136743568838
 21
76.77268497721056
 31
0.0
 12
465.4634616513025
 22
81.14548745288137
 32
0.0
 13
464.5988393436136
 23
81.14548745288137
 33
0.0
  0
SOLID
  5
1599
330
1F
100
AcDbEntity
  8
LOGO
 62
     5
100
AcDbTrace
 10
461.3490520491949
 20
72.94648281099885
 30
0.0
 11
462.2136743568838
 21
72.94648281099885
 31
0.0
 12
465.4634616513025
 22
80.48956708153045
 32
0.0
 13
464.5988393436136
 23
77.31928528666921
 33
0.0
  0
SOLID
  5
159A
330
1F
100
AcDbEntity
  8
LOGO
 62
     2
100
AcDbTrace
 10
460.991277301185
 20
72.94648281099885
 30
0.0
 11
461.3490520491949
 21
72.94648281099885
 31
0.0
 12
465.4634616513025
 22
81.14548745288137
 32
0.0
 13
465.8212363993124
 23
81.14548745288093
 33
0.0
  0
TEXT
  5
15DA
330
1F
100
AcDbEntity
  8
LOGO
100
AcDbText
 10
498.3665702201359
 20
62.68724531028723
 30
0.0
 40
2.0
  1
10609265
 41
0.7
  7
CHINESET
 72
     1
 11
503.3665702201359
 21
62.68724531028723
 31
0.0
100
AcDbText
  0
LINE
  5
15DB
330
1F
100
AcDbEntity
  8
LOGO
 62
     4
100
AcDbLine
 10
509.5733679622306
 20
65.622828080846
 30
0.0
 11
509.5733679622315
 21
61.62340726636611
 31
0.0
  0
LINE
  5
15DC
330
1F
100
AcDbEntity
  8
LOGO
 62
     4
100
AcDbLine
 10
509.5733679622306
 20
65.622828080846
 30
0.0
 11
497.5733679622315
 21
65.622828080846
 31
0.0
  0
LINE
  5
15DD
330
1F
100
AcDbEntity
  8
LOGO
  6
AM_ISO08W050x2
 48
0.3
100
AcDbLine
 10
486.3441144948928
 20
75.62565751223937
 30
0.0
 11
489.5452438773626
 21
75.62565751223937
 31
0.0
1001
GENIUS_GENOREF_13
1005
15E2
  0
LINE
  5
15DE
330
1F
100
AcDbEntity
  8
LOGO
  6
AM_ISO08W050x2
 48
0.3
100
AcDbLine
 10
487.9446791861276
 20
74.02509282100445
 30
0.0
 11
487.9446791861276
 21
77.22622220347429
 31
0.0
1001
GENIUS_GENOREF_13
1005
15E1
  0
LINE
  5
15DF
330
1F
100
AcDbEntity
  8
LOGO
  6
CENTER
 48
0.5
100
AcDbLine
 10
491.3100260199106
 20
75.62565751223937
 30
0.0
 11
495.6075616479519
 21
75.62565751223937
 31
0.0
1001
GENIUS_GENOREF_13
1005
15E0
  0
POINT
  5
15E0
330
1F
100
AcDbEntity
  8
0
 60
     1
100
AcDbPoint
 10
-1618.761420737027
 20
-877.6435559200816
 30
0.0
1001
GENIUS_GENOBJ-N-CRS_13
1002
{
1000
OWNER
1000
GEN
1002
}
1001
GENIUS_GENOLIS_13
1002
{
1000
ENT
1005
0
1005
0
1005
0
1005
15DF
1002
}
1001
GENIUS_GENOENT_13
1002
{
1000
MYREF
1005
15E0
1002
}
1002
{
1000
GRP
1005
0
1002
}
1001
GENIUS_GENODEF_13
1002
{
1000
HIER
1070
    10
1002
}
1002
{
1000
MANEDIT
1070
     1
1002
}
1002
{
1000
NOSEL
1070
     0
1002
}
1002
{
1000
BEHIND
1070
     0
1002
}
1002
{
1000
OTHER
1070
     0
1002
}
1002
{
1000
REACTOR
1002
}
  0
POINT
  5
15E1
330
1F
100
AcDbEntity
  8
0
 60
     1
100
AcDbPoint
 10
-1630.086005959882
 20
-868.7679694414454
 30
0.0
1001
GENIUS_GENOBJ-N-CRS_13
1002
{
1000
OWNER
1000
GEN
1002
}
1001
GENIUS_GENOLIS_13
1002
{
1000
ENT
1005
0
1005
0
1005
0
1005
15DE
1002
}
1001
GENIUS_GENOENT_13
1002
{
1000
MYREF
1005
15E1
1002
}
1002
{
1000
GRP
1005
0
1002
}
1001
GENIUS_GENODEF_13
1002
{
1000
HIER
1070
    10
1002
}
1002
{
1000
MANEDIT
1070
     1
1002
}
1002
{
1000
NOSEL
1070
     0
1002
}
1002
{
1000
BEHIND
1070
     0
1002
}
1002
{
1000
OTHER
1070
     0
1002
}
1002
{
1000
REACTOR
1002
}
  0
POINT
  5
15E2
330
1F
100
AcDbEntity
  8
0
 60
     1
100
AcDbPoint
 10
-1623.727332262045
 20
-877.6435559200816
 30
0.0
1001
GENIUS_GENOBJ-N-CRS_13
1002
{
1000
OWNER
1000
GEN
1002
}
1001
GENIUS_GENOLIS_13
1002
{
1000
ENT
1005
0
1005
0
1005
0
1005
15DD
1002
}
1001
GENIUS_GENOENT_13
1002
{
1000
MYREF
1005
15E2
1002
}
1002
{
1000
GRP
1005
0
1002
}
1001
GENIUS_GENODEF_13
1002
{
1000
HIER
1070
    10
1002
}
1002
{
1000
MANEDIT
1070
     1
1002
}
1002
{
1000
NOSEL
1070
     0
1002
}
1002
{
1000
BEHIND
1070
     0
1002
}
1002
{
1000
OTHER
1070
     0
1002
}
1002
{
1000
REACTOR
1002
}
  0
LINE
  5
15E3
330
1F
100
AcDbEntity
  8
LOGO
 62
     4
100
AcDbLine
 10
538.4098998122139
 20
70.62210409894541
 30
0.0
 11
538.4098998122139
 21
63.28983260573258
 31
0.0
  0
LINE
  5
15E4
330
1F
100
AcDbEntity
  8
LOGO
 62
     4
100
AcDbLine
 10
525.0784970972817
 20
70.62210409894541
 30
0.0
 11
525.0784970972817
 21
63.28983260573258
 31
0.0
  0
LINE
  5
15E5
330
1F
100
AcDbEntity
  8
LOGO
 62
     4
100
AcDbLine
 10
538.4098998122139
 20
63.28983260573258
 30
0.0
 11
525.0784970972817
 21
63.28983260573258
 31
0.0
  0
LINE
  5
15E6
330
1F
100
AcDbEntity
  8
LOGO
 62
     4
100
AcDbLine
 10
540.8811351373578
 20
79.62080093152426
 30
0.0
 11
525.0784970972817
 21
79.62080093152426
 31
0.0
  0
LINE
  5
15E7
330
1F
100
AcDbEntity
  8
LOGO
 62
     4
100
AcDbLine
 10
540.8811351373578
 20
73.62166970980488
 30
0.0
 11
525.0784970972817
 21
73.62166970980488
 31
0.0
  0
LINE
  5
15E8
330
1F
100
AcDbEntity
  8
LOGO
 62
     4
100
AcDbLine
 10
525.0784970972817
 20
79.62080093152426
 30
0.0
 11
525.0784970972817
 21
73.62166970980488
 31
0.0
  0
LINE
  5
15E9
330
1F
100
AcDbEntity
  8
LOGO
 62
     4
100
AcDbLine
 10
540.8811351373578
 20
79.62080093152426
 30
0.0
 11
540.8811351373578
 21
73.62166970980488
 31
0.0
  0
LINE
  5
15EA
330
1F
100
AcDbEntity
  8
LOGO
 62
     4
100
AcDbLine
 10
532.4397628329842
 20
73.62166970980488
 30
0.0
 11
532.4397628329842
 21
70.62210409894541
 31
0.0
  0
TEXT
  5
15EB
330
1F
100
AcDbEntity
  8
LOGO
  6
Continuous
 62
     7
100
AcDbText
 10
526.1444487605616
 20
74.87397958161008
 30
0.0
 40
3.5
  1
MVSC
  7
CHINESET
100
AcDbText
  0
LINE
  5
15EC
330
1F
100
AcDbEntity
  8
LOGO
 62
     4
100
AcDbLine
 10
538.4098998122139
 20
70.62210409894541
 30
0.0
 11
525.0784970972817
 21
70.62210409894541
 31
0.0
  0
TEXT
  5
15ED
330
1F
100
AcDbEntity
  8
LOGO
  6
Continuous
100
AcDbText
 10
529.3565020219246
 20
64.3247671785567
 30
131.0577257600498
 40
1.5
  1
Model
 41
0.8
  7
CHINESET
100
AcDbText
  0
TEXT
  5
15EE
330
1F
100
AcDbEntity
  8
LOGO
100
AcDbText
 10
528.9572507839255
 20
67.10544390548384
 30
131.0577257600498
 40
2.5
  1
型號
  7
CHINESET
100
AcDbText
  0
LINE
  5
15EF
330
1F
100
AcDbEntity
  8
LOGO
  6
Continuous
 62
     7
100
AcDbLine
 10
541.5188923683635
 20
76.59998544979052
 30
0.0
 11
544.167889817303
 21
76.59998544979052
 31
0.0
  0
TEXT
  5
15F0
330
1F
100
AcDbEntity
  8
LOGO
  6
Continuous
 62
     7
100
AcDbText
 10
545.3009186197272
 20
74.87397958161008
 30
0.0
 40
3.5
  1
460
  7
CHINESET
100
AcDbText
  0
LINE
  5
15F1
330
1F
100
AcDbEntity
  8
LOGO
  6
Continuous
 62
     7
100
AcDbLine
 10
554.7337927146672
 20
76.59998544979052
 30
0.0
 11
557.3827901636067
 21
76.59998544979052
 31
0.0
  0
LINE
  5
15F2
330
1F
100
AcDbEntity
  8
LOGO
 62
     4
100
AcDbLine
 10
556.5806177316047
 20
70.62210409894541
 30
0.0
 11
556.5806177316047
 21
63.28983260573258
 31
0.0
  0
LINE
  5
15F3
330
1F
100
AcDbEntity
  8
LOGO
 62
     4
100
AcDbLine
 10
544.4039023439667
 20
70.62210409894541
 30
0.0
 11
544.4039023439667
 21
63.28983260573258
 31
0.0
  0
LINE
  5
15F4
330
1F
100
AcDbEntity
  8
LOGO
 62
     4
100
AcDbLine
 10
556.5806177316047
 20
63.28983260573258
 30
0.0
 11
544.4039023439667
 21
63.28983260573258
 31
0.0
  0
LINE
  5
15F5
330
1F
100
AcDbEntity
  8
LOGO
 62
     4
100
AcDbLine
 10
565.805124940607
 20
79.62080093152426
 30
0.0
 11
558.2184092217584
 21
79.62080093152426
 31
0.0
  0
LINE
  5
15F6
330
1F
100
AcDbEntity
  8
LOGO
 62
     4
100
AcDbLine
 10
565.805124940607
 20
73.62166970980488
 30
0.0
 11
558.2184092217584
 21
73.62166970980488
 31
0.0
  0
LINE
  5
15F7
330
1F
100
AcDbEntity
  8
LOGO
 62
     4
100
AcDbLine
 10
558.2184092217584
 20
79.62080093152426
 30
0.0
 11
558.2184092217584
 21
73.62166970980488
 31
0.0
  0
LINE
  5
15F8
330
1F
100
AcDbEntity
  8
LOGO
 62
     4
100
AcDbLine
 10
565.805124940607
 20
79.62080093152426
 30
0.0
 11
565.805124940607
 21
73.62166970980488
 31
0.0
  0
LINE
  5
15F9
330
1F
100
AcDbEntity
  8
LOGO
 62
     4
100
AcDbLine
 10
562.8276527831893
 20
73.62166970980488
 30
0.0
 11
562.8276527831893
 21
72.12188690437514
 31
0.0
  0
TEXT
  5
15FA
330
1F
100
AcDbEntity
  8
LOGO
  6
Continuous
 62
     7
100
AcDbText
 10
559.0168775457031
 20
74.87397958161008
 30
0.0
 40
3.5
  1
3B
  7
CHINESET
100
AcDbText
  0
LINE
  5
15FB
330
1F
100
AcDbEntity
  8
LOGO
 62
     4
100
AcDbLine
 10
556.5806177316047
 20
70.62210409894541
 30
0.0
 11
544.4039023439667
 21
70.62210409894541
 31
0.0
  0
LINE
  5
15FC
330
1F
100
AcDbEntity
  8
LOGO
 62
     4
100
AcDbLine
 10
571.7081482399106
 20
70.62210409894541
 30
0.0
 11
571.7081482399106
 21
63.28983260573258
 31
0.0
  0
LINE
  5
15FD
330
1F
100
AcDbEntity
  8
LOGO
 62
     4
100
AcDbLine
 10
560.8475954214894
 20
70.62210409894541
 30
0.0
 11
560.8475954214894
 21
63.28983260573258
 31
0.0
  0
LINE
  5
15FE
330
1F
100
AcDbEntity
  8
LOGO
 62
     4
100
AcDbLine
 10
571.7081482399106
 20
63.28983260573258
 30
0.0
 11
560.8475954214894
 21
63.28983260573258
 31
0.0
  0
LINE
  5
15FF
330
1F
100
AcDbEntity
  8
LOGO
 62
     4
100
AcDbLine
 10
571.7020460351039
 20
79.62080093152426
 30
0.0
 11
566.6157313283828
 21
79.62080093152426
 31
0.0
  0
LINE
  5
1600
330
1F
100
AcDbEntity
  8
LOGO
 62
     4
100
AcDbLine
 10
571.7020460351039
 20
73.62166970980488
 30
0.0
 11
566.6157313283828
 21
73.62166970980488
 31
0.0
  0
LINE
  5
1601
330
1F
100
AcDbEntity
  8
LOGO
 62
     4
100
AcDbLine
 10
566.6157313283828
 20
79.62080093152426
 30
0.0
 11
566.6157313283828
 21
73.62166970980488
 31
0.0
  0
LINE
  5
1602
330
1F
100
AcDbEntity
  8
LOGO
 62
     4
100
AcDbLine
 10
571.7020460351039
 20
79.62080093152426
 30
0.0
 11
571.7020460351039
 21
73.62166970980488
 31
0.0
  0
LINE
  5
1603
330
1F
100
AcDbEntity
  8
LOGO
 62
     4
100
AcDbLine
 10
569.8071858409947
 20
73.62166970980488
 30
0.0
 11
569.8071858409942
 21
72.12188690437514
 31
0.0
  0
TEXT
  5
1604
330
1F
100
AcDbEntity
  8
LOGO
  6
Continuous
 62
     7
100
AcDbText
 10
567.9567029309159
 20
74.87397958161008
 30
0.0
 40
3.5
  1
2
  7
CHINESET
100
AcDbText
  0
LINE
  5
1605
330
1F
100
AcDbEntity
  8
LOGO
 62
     4
100
AcDbLine
 10
571.7081482399106
 20
70.62210409894541
 30
0.0
 11
560.8475954214894
 21
70.62210409894541
 31
0.0
  0
TEXT
  5
1606
330
1F
100
AcDbEntity
  8
LOGO
  6
Continuous
100
AcDbText
 10
547.1962863438256
 20
64.3247671785567
 30
131.0577257600498
 40
1.5
  1
Manifold
 41
0.8
  7
CHINESET
100
AcDbText
  0
TEXT
  5
1607
330
1F
100
AcDbEntity
  8
LOGO
100
AcDbText
 10
547.8011025048012
 20
67.10544390548384
 30
131.0577257600498
 40
2.5
  1
連座
  7
CHINESET
100
AcDbText
  0
TEXT
  5
1608
330
1F
100
AcDbEntity
  8
LOGO
  6
Continuous
100
AcDbText
 10
562.6767595651057
 20
64.3247671785567
 30
131.0577257600498
 40
1.5
  1
Number
 41
0.8
  7
CHINESET
100
AcDbText
  0
TEXT
  5
1609
330
1F
100
AcDbEntity
  8
LOGO
100
AcDbText
 10
562.5727544960194
 20
67.10544390548384
 30
131.0577257600498
 40
2.5
  1
連座數
  7
CHINESET
100
AcDbText
  0
LINE
  5
160A
330
1F
100
AcDbEntity
  8
LOGO
 62
     4
100
AcDbLine
 10
562.8276527831893
 20
72.12188690437514
 30
0.0
 11
551.069603701433
 21
72.12188690437514
 31
0.0
  0
LINE
  5
160B
330
1F
100
AcDbEntity
  8
LOGO
 62
     4
100
AcDbLine
 10
551.069603701433
 20
70.62210409894541
 30
0.0
 11
551.069603701433
 21
72.12188690437514
 31
0.0
  0
LINE
  5
160C
330
1F
100
AcDbEntity
  8
LOGO
 62
     4
100
AcDbLine
 10
566.2778718306998
 20
70.62210409894541
 30
0.0
 11
566.2778718306998
 21
72.12188690437514
 31
0.0
  0
LINE
  5
160D
330
1F
100
AcDbEntity
  8
LOGO
 62
     4
100
AcDbLine
 10
569.8071858409947
 20
72.12188690437514
 30
0.0
 11
566.2778718306998
 21
72.12188690437514
 31
0.0
  0
TEXT
  5
1612
330
1F
100
AcDbEntity
  8
0
100
AcDbText
 10
461.2972931057487
 20
322.5849488199323
 30
0.0
 40
4.8
  1
MVSC-460-3B2
 41
0.75
  7
CHINESET
100
AcDbText
  0
CIRCLE
  5
1614
330
1F
100
AcDbEntity
  8
0
100
AcDbCircle
 10
588.0199083138673
 20
168.9294472157758
 30
0.0
 40
1.026978008781671
  0
CIRCLE
  5
1615
330
1F
100
AcDbEntity
  8
0
100
AcDbCircle
 10
588.0199083138673
 20
168.9294472157758
 30
0.0
 40
0.6682580190975268
  0
ENDSEC
  0
SECTION
  2
OBJECTS
  0
DICTIONARY
  5
C
330
0
100
AcDbDictionary
281
     1
  3
ACAD_COLOR
350
BE
  3
ACAD_GROUP
350
D
  3
ACAD_LAYOUT
350
1A
  3
ACAD_MATERIAL
350
BD
  3
ACAD_MLINESTYLE
350
17
  3
ACAD_PLOTSETTINGS
350
19
  3
ACAD_PLOTSTYLENAME
350
E
  3
ACAD_TABLESTYLE
350
11A
  3
ACDBHEADERROUNDTRIPXREC
350
1650
  3
AcDbVariableDictionary
350
94
  3
AcmDictionary
350
5B
  3
AMG
350
41
  3
AMGSNAPSETTINGS
350
1B8
  3
DWGPROPS
350
164F
  0
DICTIONARY
  5
3F9
330
2
100
AcDbDictionary
280
     1
281
     1
  3
ACAD_LAYERFILTERS
360
5B7
  3
ACAD_LAYERSTATES
360
C30
  3
ACLYDICTIONARY
360
5B6
  3
AMLAYER_GROUPCOLORS
360
103C
  0
DICTIONARY
  5
8F
330
1F
100
AcDbDictionary
280
     1
281
     1
  3
ACAD_SORTENTS
360
106E
  0
DICTIONARY
  5
12EB
330
12DE
100
AcDbDictionary
280
     1
281
     1
  3
ACAD_DIMASSOC
360
12EC
  0
DICTIONARY
  5
1311
330
1304
100
AcDbDictionary
280
     1
281
     1
  3
ACAD_DIMASSOC
360
1312
  0
DICTIONARY
  5
1337
330
132A
100
AcDbDictionary
280
     1
281
     1
  3
ACAD_DIMASSOC
360
1338
  0
DICTIONARY
  5
135D
330
1350
100
AcDbDictionary
280
     1
281
     1
  3
ACAD_DIMASSOC
360
135E
  0
DICTIONARY
  5
1383
330
1376
100
AcDbDictionary
280
     1
281
     1
  3
ACAD_DIMASSOC
360
1384
  0
DICTIONARY
  5
13AB
330
139C
100
AcDbDictionary
280
     1
281
     1
  3
ACAD_DIMASSOC
360
13AC
  0
DICTIONARY
  5
13D5
330
13C6
100
AcDbDictionary
280
     1
281
     1
  3
ACAD_DIMASSOC
360
13D6
  0
DICTIONARY
  5
1452
330
1445
100
AcDbDictionary
280
     1
281
     1
  3
ACAD_DIMASSOC
360
1453
  0
DICTIONARY
  5
1478
330
146B
100
AcDbDictionary
280
     1
281
     1
  3
ACAD_DIMASSOC
360
1479
  0
DICTIONARY
  5
BE
102
{ACAD_REACTORS
330
C
102
}
330
C
100
AcDbDictionary
281
     1
  0
DICTIONARY
  5
D
102
{ACAD_REACTORS
330
C
102
}
330
C
100
AcDbDictionary
281
     1
  0
DICTIONARY
  5
1A
102
{ACAD_REACTORS
330
C
102
}
330
C
100
AcDbDictionary
281
     1
  3
Model
350
22
  3
配置1
350
1E
  3
配置2
350
26
  0
DICTIONARY
  5
BD
102
{ACAD_REACTORS
330
C
102
}
330
C
100
AcDbDictionary
281
     1
  0
DICTIONARY
  5
17
102
{ACAD_REACTORS
330
C
102
}
330
C
100
AcDbDictionary
281
     1
  3
Standard
350
18
  0
DICTIONARY
  5
19
102
{ACAD_REACTORS
330
C
102
}
330
C
100
AcDbDictionary
281
     1
  0
ACDBDICTIONARYWDFLT
  5
E
102
{ACAD_REACTORS
330
C
102
}
330
C
100
AcDbDictionary
281
     1
  3
Normal
350
F
100
AcDbDictionaryWithDefault
340
F
  0
DICTIONARY
  5
11A
102
{ACAD_REACTORS
330
C
102
}
330
C
100
AcDbDictionary
281
     1
  3
Standard
350
11B
  0
DICTIONARY
  5
1650
102
{ACAD_REACTORS
330
C
102
}
330
C
100
AcDbDictionary
281
     1
  0
DICTIONARY
  5
94
102
{ACAD_REACTORS
330
C
102
}
330
C
100
AcDbDictionary
281
     1
  3
CTABLESTYLE
350
138
  3
DIMASSOC
350
96
  3
INDEXCTL
350
95
  3
PROJECTNAME
350
164D
  0
DICTIONARY
  5
5B
102
{ACAD_REACTORS
330
C
102
}
330
C
100
AcDbDictionary
281
     1
  3
AcmBOM
350
1B5
  3
AcmStdDictionary
350
61
  3
AMDTSECTSYM_ARROWCOLOR
350
123
  0
DICTIONARY
  5
41
102
{ACAD_REACTORS
330
C
102
}
330
C
100
AcDbDictionary
281
     1
  0
DICTIONARY
  5
1B8
102
{ACAD_REACTORS
330
C
102
}
330
C
100
AcDbDictionary
281
     1
  0
XRECORD
  5
164F
102
{ACAD_REACTORS
330
C
102
}
330
C
100
AcDbXrecord
280
     1
  1
DWGPROPS COOKIE
  2

  3

  4

  6

  7

  8

  9

300
AmdtFileType=84
301
=
302
=
303
=
304
=
305
=
306
=
307
=
308
=
309
=
 40
0.0398399537037037
 41
2454005.546031713
 42
2454005.58610441
  1

 90
        1
  0
DICTIONARY
  5
5B7
102
{ACAD_REACTORS
330
3F9
102
}
330
3F9
100
AcDbDictionary
281
     1
  0
DICTIONARY
  5
C30
102
{ACAD_REACTORS
330
3F9
102
}
330
3F9
100
AcDbDictionary
281
     1
  0
DICTIONARY
  5
5B6
102
{ACAD_REACTORS
330
3F9
102
}
330
3F9
100
AcDbDictionary
281
     1
1001
ACAD
1000
<All
  0
DICTIONARY
  5
103C
102
{ACAD_REACTORS
330
3F9
102
}
330
3F9
100
AcDbDictionary
280
     1
281
     1
  0
SORTENTSTABLE
  5
106E
102
{ACAD_REACTORS
330
8F
102
}
330
8F
100
AcDbSortentsTable
330
1F
331
E90
  5
E90
331
EC0
  5
EC0
331
E61
  5
E61
331
E89
  5
E89
331
E91
  5
E91
331
E62
  5
E62
331
E8A
  5
E8A
331
E92
  5
E92
331
E63
  5
E63
331
E83
  5
E83
331
E8B
  5
E8B
331
E93
  5
E93
331
EEB
  5
EEB
331
EF3
  5
EF3
331
E64
  5
E64
331
1072
  5
1072
331
E84
  5
E84
331
E8C
  5
E8C
331
E94
  5
E94
331
EEC
  5
EEC
331
EF4
  5
EF4
331
1073
  5
1073
331
E65
  5
E65
331
E85
  5
E85
331
E8D
  5
E8D
331
E95
  5
E95
331
EBD
  5
EBD
331
EED
  5
EED
331
EF5
  5
EF5
331
E66
  5
E66
331
E86
  5
E86
331
E8E
  5
E8E
331
E96
  5
E96
331
EBE
  5
EBE
331
EEE
  5
EEE
331
EF6
  5
EF6
331
E87
  5
E87
331
E8F
  5
E8F
331
EBF
  5
EBF
331
E88
  5
E88
  0
DIMASSOC
  5
12EC
102
{ACAD_REACTORS
330
12EB
102
}
330
12EB
100
AcDbDimAssoc
330
12DE
 90
        3
 70
     0
 71
     0
  1
AcDbOsnapPointRef
 72
     1
331
10A6
 73
     0
 91
        0
 40
0.0
 10
0.0
 20
0.0
 30
2.000000000000000E+50
 75
     0
  1
AcDbOsnapPointRef
 72
     1
331
109F
 73
     0
 91
        0
 40
0.0
 10
0.0
 20
0.0
 30
2.000000000000000E+50
 75
     0
  0
DIMASSOC
  5
1312
102
{ACAD_REACTORS
330
1311
102
}
330
1311
100
AcDbDimAssoc
330
1304
 90
        3
 70
     0
 71
     0
  1
AcDbOsnapPointRef
 72
    13
331
EBF
 73
     0
 91
        0
 40
0.0
 10
0.0
 20
0.0
 30
2.000000000000000E+50
 75
     0
  1
AcDbOsnapPointRef
 72
    13
331
EBE
 73
     0
 91
        0
 40
0.0
 10
0.0
 20
0.0
 30
2.000000000000000E+50
 75
     0
  0
DIMASSOC
  5
1338
102
{ACAD_REACTORS
330
1337
102
}
330
1337
100
AcDbDimAssoc
330
132A
 90
        3
 70
     0
 71
     0
  1
AcDbOsnapPointRef
 72
    13
331
E65
 73
     0
 91
        0
 40
0.0
 10
0.0
 20
0.0
 30
2.000000000000000E+50
 75
     0
  1
AcDbOsnapPointRef
 72
    13
331
E8D
 73
     0
 91
        0
 40
0.0
 10
0.0
 20
0.0
 30
2.000000000000000E+50
 75
     0
  0
DIMASSOC
  5
135E
102
{ACAD_REACTORS
330
135D
102
}
330
135D
100
AcDbDimAssoc
330
1350
 90
        3
 70
     0
 71
     0
  1
AcDbOsnapPointRef
 72
    13
331
EBE
 73
     0
 91
        0
 40
0.0
 10
0.0
 20
0.0
 30
2.000000000000000E+50
 75
     0
  1
AcDbOsnapPointRef
 72
     1
331
109C
 73
     0
 91
        0
 40
0.0
 10
0.0
 20
0.0
 30
2.000000000000000E+50
 75
     0
  0
DIMASSOC
  5
1384
102
{ACAD_REACTORS
330
1383
102
}
330
1383
100
AcDbDimAssoc
330
1376
 90
        3
 70
     0
 71
     0
  1
AcDbOsnapPointRef
 72
    13
331
EBE
 73
     0
 91
        0
 40
0.0
 10
0.0
 20
0.0
 30
2.000000000000000E+50
 75
     0
  1
AcDbOsnapPointRef
 72
     1
331
EC0
 73
     0
 91
        0
 40
0.0
 10
0.0
 20
0.0
 30
2.000000000000000E+50
 75
     0
  0
DIMASSOC
  5
13AC
102
{ACAD_REACTORS
330
13AB
102
}
330
13AB
100
AcDbDimAssoc
330
139C
 90
        3
 70
     0
 71
     0
  1
AcDbOsnapPointRef
 72
     1
331
EEE
 73
     0
 91
        0
 40
0.0
 10
0.0
 20
0.0
 30
2.000000000000000E+50
 75
     0
  1
AcDbOsnapPointRef
 72
     1
331
E8C
 73
     0
 91
        0
 40
0.0
 10
0.0
 20
0.0
 30
2.000000000000000E+50
 75
     0
  0
DIMASSOC
  5
13D6
102
{ACAD_REACTORS
330
13D5
102
}
330
13D5
100
AcDbDimAssoc
330
13C6
 90
        3
 70
     0
 71
     0
  1
AcDbOsnapPointRef
 72
    13
331
EED
 73
     0
 91
        0
 40
0.0
 10
0.0
 20
0.0
 30
2.000000000000000E+50
 75
     0
  1
AcDbOsnapPointRef
 72
     1
331
E86
 73
     0
 91
        0
 40
0.0
 10
0.0
 20
0.0
 30
2.000000000000000E+50
 75
     0
  0
DIMASSOC
  5
1453
102
{ACAD_REACTORS
330
1452
102
}
330
1452
100
AcDbDimAssoc
330
1445
 90
        3
 70
     0
 71
     0
  1
AcDbOsnapPointRef
 72
     1
331
E8C
 73
     0
 91
        0
 40
0.0
 10
0.0
 20
0.0
 30
2.000000000000000E+50
 75
     0
  1
AcDbOsnapPointRef
 72
     1
331
E86
 73
     0
 91
        0
 40
0.0
 10
0.0
 20
0.0
 30
2.000000000000000E+50
 75
     0
  0
DIMASSOC
  5
1479
102
{ACAD_REACTORS
330
1478
102
}
330
1478
100
AcDbDimAssoc
330
146B
 90
        3
 70
     0
 71
     0
  1
AcDbOsnapPointRef
 72
     1
331
EEE
 73
     0
 91
        0
 40
0.0
 10
0.0
 20
0.0
 30
2.000000000000000E+50
 75
     0
  1
AcDbOsnapPointRef
 72
    13
331
EED
 73
     0
 91
        0
 40
0.0
 10
0.0
 20
0.0
 30
2.000000000000000E+50
 75
     0
  0
LAYOUT
  5
22
102
{ACAD_XDICTIONARY
360
1653
102
}
102
{ACAD_REACTORS
330
1A
102
}
330
1A
100
AcDbPlotSettings
  1

  2
\\RD\EPSON Stylus C63 Series單色
  4
A4
  6

 40
3.757083177566528
 41
3.757076978683471
 42
3.757080078125
 43
3.757080078125
 44
209.9733276367187
 45
296.9683227539062
 46
0.0
 47
0.0
 48
0.0
 49
0.0
140
0.0
141
0.0
142
1.0
143
0.3405120737814363
 70
 11952
 72
     1
 73
     0
 74
     0
  7
彩色出圖.ctb
 75
     0
147
2.936753428137963
148
-2047.07469463503
149
-1261.649717473083
100
AcDbLayout
  1
Model
 70
     1
 71
     0
 10
0.0
 20
0.0
 11
12.0
 21
9.0
 12
0.0
 22
0.0
 32
0.0
 14
0.0
 24
0.0
 34
0.0
 15
0.0
 25
0.0
 35
0.0
146
0.0
 13
0.0
 23
0.0
 33
0.0
 16
1.0
 26
0.0
 36
0.0
 17
0.0
 27
1.0
 37
0.0
 76
     0
330
1F
1001
ACAD_PSEXT
1000
\\RD\EPSON Stylus C63 Series單色
1000
EPSON Stylus C63 Series
1000
\\RD
1000

1070
     0
  0
LAYOUT
  5
1E
102
{ACAD_XDICTIONARY
360
1651
102
}
102
{ACAD_REACTORS
330
1A
102
}
330
1A
100
AcDbPlotSettings
  1

  2

  4

  6

 40
0.0
 41
0.0
 42
0.0
 43
0.0
 44
0.0
 45
0.0
 46
0.0
 47
0.0
 48
0.0
 49
0.0
140
0.0
141
0.0
142
1.0
143
1.0
 70
   688
 72
     0
 73
     0
 74
     5
  7
彩色出圖.ctb
 75
    16
147
1.0
148
0.0
149
0.0
100
AcDbLayout
  1
配置1
 70
     1
 71
     1
 10
0.0
 20
0.0
 11
420.0
 21
297.0
 12
0.0
 22
0.0
 32
0.0
 14
1.000000000000000E+20
 24
1.000000000000000E+20
 34
1.000000000000000E+20
 15
-1.000000000000000E+20
 25
-1.000000000000000E+20
 35
-1.000000000000000E+20
146
0.0
 13
0.0
 23
0.0
 33
0.0
 16
1.0
 26
0.0
 36
0.0
 17
0.0
 27
1.0
 37
0.0
 76
     0
330
1B
  0
LAYOUT
  5
26
102
{ACAD_XDICTIONARY
360
1655
102
}
102
{ACAD_REACTORS
330
1A
102
}
330
1A
100
AcDbPlotSettings
  1

  2

  4

  6

 40
0.0
 41
0.0
 42
0.0
 43
0.0
 44
0.0
 45
0.0
 46
0.0
 47
0.0
 48
0.0
 49
0.0
140
0.0
141
0.0
142
1.0
143
1.0
 70
   688
 72
     0
 73
     0
 74
     5
  7
彩色出圖.ctb
 75
    16
147
1.0
148
0.0
149
0.0
100
AcDbLayout
  1
配置2
 70
     1
 71
     2
 10
0.0
 20
0.0
 11
12.0
 21
9.0
 12
0.0
 22
0.0
 32
0.0
 14
0.0
 24
0.0
 34
0.0
 15
0.0
 25
0.0
 35
0.0
146
0.0
 13
0.0
 23
0.0
 33
0.0
 16
1.0
 26
0.0
 36
0.0
 17
0.0
 27
1.0
 37
0.0
 76
     0
330
23
  0
MLINESTYLE
  5
18
102
{ACAD_REACTORS
330
17
102
}
330
17
100
AcDbMlineStyle
  2
STANDARD
 70
     0
  3

 62
   256
 51
90.0
 52
90.0
 71
     2
 49
0.5
 62
   256
  6
BYLAYER
 49
-0.5
 62
   256
  6
BYLAYER
  0
ACDBPLACEHOLDER
  5
F
102
{ACAD_REACTORS
330
E
102
}
330
E
  0
TABLESTYLE
  5
11B
102
{ACAD_REACTORS
330
11A
102
}
330
11A
100
AcDbTableStyle
  3
Standard
 70
     0
 71
     0
 40
1.5
 41
1.5
280
     0
281
     0
  7
STANDARD
140
4.5
170
     2
 62
     0
 63
     7
283
     0
274
    -2
284
     1
 64
     0
275
    -2
285
     1
 65
     0
276
    -2
286
     1
 66
     0
277
    -2
287
     1
 67
     0
278
    -2
288
     1
 68
     0
279
    -2
289
     1
 69
     0
  7
STANDARD
140
6.0
170
     5
 62
     0
 63
     7
283
     0
274
    -2
284
     1
 64
     0
275
    -2
285
     1
 65
     0
276
    -2
286
     1
 66
     0
277
    -2
287
     1
 67
     0
278
    -2
288
     1
 68
     0
279
    -2
289
     1
 69
     0
  7
STANDARD
140
4.5
170
     5
 62
     0
 63
     7
283
     0
274
    -2
284
     1
 64
     0
275
    -2
285
     1
 65
     0
276
    -2
286
     1
 66
     0
277
    -2
287
     1
 67
     0
278
    -2
288
     1
 68
     0
279
    -2
289
     1
 69
     0
  0
DICTIONARYVAR
  5
138
102
{ACAD_REACTORS
330
94
102
}
330
94
100
DictionaryVariables
280
     0
  1
STANDARD
  0
DICTIONARYVAR
  5
96
102
{ACAD_REACTORS
330
94
102
}
330
94
100
DictionaryVariables
280
     0
  1
2
  0
DICTIONARYVAR
  5
95
102
{ACAD_REACTORS
330
94
102
}
330
94
100
DictionaryVariables
280
     0
  1
0
  0
DICTIONARYVAR
  5
164D
102
{ACAD_REACTORS
330
94
102
}
330
94
100
DictionaryVariables
280
     0
  1

  0
DICTIONARY
  5
1B5
102
{ACAD_REACTORS
330
5B
102
}
330
5B
100
AcDbDictionary
281
     1
  0
DICTIONARY
  5
61
102
{ACAD_REACTORS
330
5B
102
}
330
5B
100
AcDbDictionary
281
     1
  0
XRECORD
  5
123
102
{ACAD_REACTORS
330
5B
102
}
330
5B
100
AcDbXrecord
280
     1
 90
-1023410169
  0
DICTIONARY
  5
1653
330
22
100
AcDbDictionary
280
     1
281
     1
  3
ACAD_XREC_ROUNDTRIP
360
1654
  0
DICTIONARY
  5
1651
330
1E
100
AcDbDictionary
280
     1
281
     1
  3
ACAD_XREC_ROUNDTRIP
360
1652
  0
DICTIONARY
  5
1655
330
26
100
AcDbDictionary
280
     1
281
     1
  3
ACAD_XREC_ROUNDTRIP
360
1656
  0
XRECORD
  5
1654
102
{ACAD_REACTORS
330
1653
102
}
330
1653
100
AcDbXrecord
280
     1
102
SHADEPLOT
 70
     0
102
SHADEPLOTRESLEVEL
 70
     2
102
SHADEPLOTCUSTOMDPI
 70
   300
  0
XRECORD
  5
1652
102
{ACAD_REACTORS
330
1651
102
}
330
1651
100
AcDbXrecord
280
     1
102
SHADEPLOT
 70
     0
102
SHADEPLOTRESLEVEL
 70
     2
102
SHADEPLOTCUSTOMDPI
 70
   300
  0
XRECORD
  5
1656
102
{ACAD_REACTORS
330
1655
102
}
330
1655
100
AcDbXrecord
280
     1
102
SHADEPLOT
 70
     0
102
SHADEPLOTRESLEVEL
 70
     2
102
SHADEPLOTCUSTOMDPI
 70
   300
  0
ENDSEC
  0
EOF
