  0
SECTION
  2
HEADER
  9
$ACADVER
  1
AC1015
  9
$ACADMAINTVER
 70
    20
  9
$DWGCODEPAGE
  3
ANSI_950
  9
$INSBASE
 10
0.0
 20
0.0
 30
0.0
  9
$EXTMIN
 10
109.8641978831313
 20
93.89116212331851
 30
-0.0115216664035529
  9
$EXTMAX
 10
320.3576668775147
 20
326.4521161278714
 30
151.0398357946529
  9
$LIMMIN
 10
0.0
 20
0.0
  9
$LIMMAX
 10
420.0
 20
297.0
  9
$ORTHOMODE
 70
     1
  9
$REGENMODE
 70
     1
  9
$FILLMODE
 70
     1
  9
$QTEXTMODE
 70
     0
  9
$MIRRTEXT
 70
     1
  9
$LTSCALE
 40
1.0
  9
$ATTMODE
 70
     1
  9
$TEXTSIZE
 40
3.5
  9
$TRACEWID
 40
1.0
  9
$TEXTSTYLE
  7
STANDARD
  9
$CLAYER
  8
0
  9
$CELTYPE
  6
ByLayer
  9
$CECOLOR
 62
   256
  9
$CELTSCALE
 40
1.0
  9
$DISPSILH
 70
     0
  9
$DIMSCALE
 40
1.0
  9
$DIMASZ
 40
3.0
  9
$DIMEXO
 40
1.0
  9
$DIMDLI
 40
8.0
  9
$DIMRND
 40
0.0
  9
$DIMDLE
 40
0.0
  9
$DIMEXE
 40
1.5
  9
$DIMTP
 40
0.1
  9
$DIMTM
 40
0.1
  9
$DIMTXT
 40
3.5
  9
$DIMCEN
 40
3.0
  9
$DIMTSZ
 40
0.0
  9
$DIMTOL
 70
     0
  9
$DIMLIM
 70
     0
  9
$DIMTIH
 70
     0
  9
$DIMTOH
 70
     0
  9
$DIMSE1
 70
     0
  9
$DIMSE2
 70
     0
  9
$DIMTAD
 70
     1
  9
$DIMZIN
 70
     8
  9
$DIMBLK
  1

  9
$DIMASO
 70
     1
  9
$DIMSHO
 70
     1
  9
$DIMPOST
  1

  9
$DIMAPOST
  1
"
  9
$DIMALT
 70
     0
  9
$DIMALTD
 70
     2
  9
$DIMALTF
 40
0.0393701
  9
$DIMLFAC
 40
1.0
  9
$DIMTOFL
 70
     1
  9
$DIMTVP
 40
0.0
  9
$DIMTIX
 70
     0
  9
$DIMSOXD
 70
     0
  9
$DIMSAH
 70
     0
  9
$DIMBLK1
  1

  9
$DIMBLK2
  1

  9
$DIMSTYLE
  2
AM_ISO
  9
$DIMCLRD
 70
   256
  9
$DIMCLRE
 70
   256
  9
$DIMCLRT
 70
   256
  9
$DIMTFAC
 40
0.71
  9
$DIMGAP
 40
0.8
  9
$DIMJUST
 70
     0
  9
$DIMSD1
 70
     0
  9
$DIMSD2
 70
     0
  9
$DIMTOLJ
 70
     0
  9
$DIMTZIN
 70
     8
  9
$DIMALTZ
 70
     0
  9
$DIMALTTZ
 70
     0
  9
$DIMUPT
 70
     0
  9
$DIMDEC
 70
     2
  9
$DIMTDEC
 70
     8
  9
$DIMALTU
 70
     2
  9
$DIMALTTD
 70
     2
  9
$DIMTXSTY
  7
STANDARD
  9
$DIMAUNIT
 70
     0
  9
$DIMADEC
 70
     0
  9
$DIMALTRND
 40
0.0
  9
$DIMAZIN
 70
     2
  9
$DIMDSEP
 70
    46
  9
$DIMATFIT
 70
     3
  9
$DIMFRAC
 70
     0
  9
$DIMLDRBLK
  1

  9
$DIMLUNIT
 70
     2
  9
$DIMLWD
 70
    -1
  9
$DIMLWE
 70
    -1
  9
$DIMTMOVE
 70
     0
  9
$LUNITS
 70
     2
  9
$LUPREC
 70
     2
  9
$SKETCHINC
 40
1.0
  9
$FILLETRAD
 40
2.5
  9
$AUNITS
 70
     0
  9
$AUPREC
 70
     0
  9
$MENU
  1
.
  9
$ELEVATION
 40
0.0
  9
$PELEVATION
 40
0.0
  9
$THICKNESS
 40
0.0
  9
$LIMCHECK
 70
     0
  9
$CHAMFERA
 40
2.5
  9
$CHAMFERB
 40
2.5
  9
$CHAMFERC
 40
20.0
  9
$CHAMFERD
 40
0.0
  9
$SKPOLY
 70
     0
  9
$TDCREATE
 40
2453021.369367211
  9
$TDUCREATE
 40
2453021.036033877
  9
$TDUPDATE
 40
2453514.593235486
  9
$TDUUPDATE
 40
2453514.259902153
  9
$TDINDWG
 40
0.4644235185
  9
$TDUSRTIMER
 40
0.4644231713
  9
$USRTIMER
 70
     1
  9
$ANGBASE
 50
0.0
  9
$ANGDIR
 70
     0
  9
$PDMODE
 70
     0
  9
$PDSIZE
 40
0.0
  9
$PLINEWID
 40
0.0
  9
$SPLFRAME
 70
     0
  9
$SPLINETYPE
 70
     6
  9
$SPLINESEGS
 70
     8
  9
$HANDSEED
  5
34CF
  9
$SURFTAB1
 70
     6
  9
$SURFTAB2
 70
     6
  9
$SURFTYPE
 70
     6
  9
$SURFU
 70
     6
  9
$SURFV
 70
     6
  9
$UCSBASE
  2

  9
$UCSNAME
  2

  9
$UCSORG
 10
0.0
 20
0.0
 30
0.0
  9
$UCSXDIR
 10
1.0
 20
0.0
 30
0.0
  9
$UCSYDIR
 10
0.0
 20
1.0
 30
0.0
  9
$UCSORTHOREF
  2

  9
$UCSORTHOVIEW
 70
     0
  9
$UCSORGTOP
 10
0.0
 20
0.0
 30
0.0
  9
$UCSORGBOTTOM
 10
0.0
 20
0.0
 30
0.0
  9
$UCSORGLEFT
 10
0.0
 20
0.0
 30
0.0
  9
$UCSORGRIGHT
 10
0.0
 20
0.0
 30
0.0
  9
$UCSORGFRONT
 10
0.0
 20
0.0
 30
0.0
  9
$UCSORGBACK
 10
0.0
 20
0.0
 30
0.0
  9
$PUCSBASE
  2

  9
$PUCSNAME
  2

  9
$PUCSORG
 10
0.0
 20
0.0
 30
0.0
  9
$PUCSXDIR
 10
1.0
 20
0.0
 30
0.0
  9
$PUCSYDIR
 10
0.0
 20
1.0
 30
0.0
  9
$PUCSORTHOREF
  2

  9
$PUCSORTHOVIEW
 70
     0
  9
$PUCSORGTOP
 10
0.0
 20
0.0
 30
0.0
  9
$PUCSORGBOTTOM
 10
0.0
 20
0.0
 30
0.0
  9
$PUCSORGLEFT
 10
0.0
 20
0.0
 30
0.0
  9
$PUCSORGRIGHT
 10
0.0
 20
0.0
 30
0.0
  9
$PUCSORGFRONT
 10
0.0
 20
0.0
 30
0.0
  9
$PUCSORGBACK
 10
0.0
 20
0.0
 30
0.0
  9
$USERI1
 70
     0
  9
$USERI2
 70
     0
  9
$USERI3
 70
     0
  9
$USERI4
 70
     0
  9
$USERI5
 70
     0
  9
$USERR1
 40
0.0
  9
$USERR2
 40
0.0
  9
$USERR3
 40
0.0
  9
$USERR4
 40
0.0
  9
$USERR5
 40
0.0
  9
$WORLDVIEW
 70
     1
  9
$SHADEDGE
 70
     3
  9
$SHADEDIF
 70
    70
  9
$TILEMODE
 70
     1
  9
$MAXACTVP
 70
    64
  9
$PINSBASE
 10
0.0
 20
0.0
 30
0.0
  9
$PLIMCHECK
 70
     0
  9
$PEXTMIN
 10
1.000000000000000E+20
 20
1.000000000000000E+20
 30
1.000000000000000E+20
  9
$PEXTMAX
 10
-1.000000000000000E+20
 20
-1.000000000000000E+20
 30
-1.000000000000000E+20
  9
$PLIMMIN
 10
0.0
 20
0.0
  9
$PLIMMAX
 10
420.0
 20
297.0
  9
$UNITMODE
 70
     0
  9
$VISRETAIN
 70
     1
  9
$PLINEGEN
 70
     0
  9
$PSLTSCALE
 70
     1
  9
$TREEDEPTH
 70
  3020
  9
$CMLSTYLE
  2
Standard
  9
$CMLJUST
 70
     0
  9
$CMLSCALE
 40
20.0
  9
$PROXYGRAPHICS
 70
     1
  9
$MEASUREMENT
 70
     1
  9
$CELWEIGHT
370
    -1
  9
$ENDCAPS
280
     0
  9
$JOINSTYLE
280
     0
  9
$LWDISPLAY
290
     0
  9
$INSUNITS
 70
     4
  9
$HYPERLINKBASE
  1

  9
$STYLESHEET
  1
彩色出圖.ctb
  9
$XEDIT
290
     1
  9
$CEPSNTYPE
380
     0
  9
$PSTYLEMODE
290
     1
  9
$FINGERPRINTGUID
  2
{6C02722A-18D3-491A-897A-B8025DE410A9}
  9
$VERSIONGUID
  2
{3879855A-6C5F-4598-B7B0-A2316532892A}
  9
$EXTNAMES
290
     1
  9
$PSVPSCALE
 40
0.0
  9
$OLESTARTUP
290
     0
  0
ENDSEC
  0
SECTION
  2
CLASSES
  0
CLASS
  1
ACDBDICTIONARYWDFLT
  2
AcDbDictionaryWithDefault
  3
ObjectDBX Classes
 90
        0
280
     0
281
     0
  0
CLASS
  1
ACDBPLACEHOLDER
  2
AcDbPlaceHolder
  3
ObjectDBX Classes
 90
        0
280
     0
281
     0
  0
CLASS
  1
LAYOUT
  2
AcDbLayout
  3
ObjectDBX Classes
 90
        0
280
     0
281
     0
  0
CLASS
  1
AMGSETTINGSOBJ
  2
AmgSettingsObj
  3
"AcadM|Product Description: AutoCAD Mechanical 2000|Company: Autodesk"
 90
        0
280
     0
281
     0
  0
CLASS
  1
ACME_DOCUMENT
  2
AcMeDbDoc
  3
AcMeServices
 90
        0
280
     0
281
     0
  0
CLASS
  1
ACMESCOPE
  2
AcMeScope
  3
AcMeServices
 90
        0
280
     0
281
     0
  0
CLASS
  1
ACMECOMMANDHISTORY
  2
AcMeCommandHistory
  3
AcMeServices
 90
        0
280
     0
281
     0
  0
CLASS
  1
ACIMSYSVARMAN
  2
AcImSysVarManager
  3
AcMeServices
 90
        0
280
     0
281
     0
  0
CLASS
  1
ACIMREALSYSVAR
  2
AcImRealSysVar
  3
AcMeServices
 90
        0
280
     0
281
     0
  0
CLASS
  1
ACIMINTSYSVAR
  2
AcImIntSysVar
  3
AcMeServices
 90
        0
280
     0
281
     0
  0
CLASS
  1
ACMEDRAWINGMAN
  2
AcMeDrawingMan
  3
AcMeServices
 90
        0
280
     0
281
     0
  0
CLASS
  1
ACMEVIEW
  2
AcMeView
  3
AcMeServices
 90
        0
280
     0
281
     0
  0
CLASS
  1
ACDBENTITYCACHE
  2
AcMeEntityCache
  3
AcMeServices
 90
        0
280
     0
281
     0
  0
CLASS
  1
GSMANAGER
  2
AcMeGSManager
  3
AcMeServices
 90
        0
280
     0
281
     0
  0
CLASS
  1
AMDTINTERNALREACTOR
  2
AmdtInternalReactor
  3
AcMeServices
 90
        0
280
     0
281
     0
  0
CLASS
  1
ACMESTATEMGR
  2
AcMeStateMgr
  3
AcMeServices
 90
        0
280
     0
281
     0
  0
CLASS
  1
ACGREFMASTER
  2
AcGrefMaster
  3
AcAttribServices
 90
        0
280
     0
281
     0
  0
CLASS
  1
ACME_DATABASE
  2
AcMeDbDatabase
  3
AcMeServices
 90
        0
280
     0
281
     0
  0
CLASS
  1
ACRFINSADJUSTERMGR
  2
AcRfInsAdjusterMgr
  3
AcMeServices
 90
        0
280
     0
281
     0
  0
CLASS
  1
ACGREFACADMASTER
  2
AcGrefacadMaster
  3
AcGrefServices
 90
        0
280
     0
281
     0
  0
CLASS
  1
AMIMASTER
  2
AmiMaster
  3
AmiServices
 90
        0
280
     0
281
     0
  0
CLASS
  1
ACMDATADICTIONARY
  2
AcmDataDictionary
  3
"AcmSymBB|Product Description: AutoCAD Mechanical 2004 DX|Company: Autodesk"
 90
        0
280
     0
281
     0
  0
CLASS
  1
ACMDATAENTRYBLOCK
  2
AcmDataEntryBlock
  3
"AcmSymBB|Product Description: AutoCAD Mechanical 2004 DX|Company: Autodesk"
 90
    32768
280
     0
281
     0
  0
CLASS
  1
ACIMSTRSYSVAR
  2
AcImStrSysVar
  3
AcMeServices
 90
        0
280
     0
281
     0
  0
CLASS
  1
ACMSTANDARDISO
  2
AcmStandardISO
  3
"Amdt_StdImp|Product Description: AutoCAD Mechanical 2004 DX|Company: Autodesk"
 90
        0
280
     0
281
     0
  0
CLASS
  1
AMGOBJPROPCFG
  2
AmgObjPropCfg
  3
"AmgLay|Product Description: AutoCAD Mechanical 2000|Company: Autodesk"
 90
        1
280
     0
281
     0
  0
CLASS
  1
AMDTEDGESTANDARDISO
  2
AmdtEdgeStdISO
  3
"Amdt_StdImp|Product Description: AutoCAD Mechanical 2004 DX|Company: Autodesk"
 90
    32768
280
     0
281
     0
  0
CLASS
  1
ACMSURFSTANDARDISO
  2
AcmSurfTextStdISO
  3
"Amdt_StdImp|Product Description: AutoCAD Mechanical 2004 DX|Company: Autodesk"
 90
        0
280
     0
281
     0
  0
CLASS
  1
ACMFCFSTANDARDISO
  2
AcmFCFStdISO
  3
"Amdt_StdImp|Product Description: AutoCAD Mechanical 2004 DX|Company: Autodesk"
 90
        0
280
     0
281
     0
  0
CLASS
  1
ACMWELDSTANDARDISO
  2
AcmWeldingStdISO
  3
"Amdt_StdImp|Product Description: AutoCAD Mechanical 2004 DX|Company: Autodesk"
 90
        0
280
     0
281
     0
  0
CLASS
  1
ACMIDSTANDARDISO
  2
AcmIdStdISO
  3
"Amdt_StdImp|Product Description: AutoCAD Mechanical 2004 DX|Company: Autodesk"
 90
        0
280
     0
281
     0
  0
CLASS
  1
ACMDATUMSTANDARDISO
  2
AcmDatumStdISO
  3
"Amdt_StdImp|Product Description: AutoCAD Mechanical 2004 DX|Company: Autodesk"
 90
        0
280
     0
281
     0
  0
CLASS
  1
ACMBOMSTANDARDISO
  2
AcmBOMStdISO
  3
"Amdt_StdImp|Product Description: AutoCAD Mechanical 2004 DX|Company: Autodesk"
 90
        0
280
     0
281
     0
  0
CLASS
  1
ACMDETAILSTANDARDISO
  2
AmdtDetailSymStdISO
  3
"Amdt_StdImp|Product Description: AutoCAD Mechanical 2004 DX|Company: Autodesk"
 90
        0
280
     0
281
     0
  0
CLASS
  1
ACMSECTIONSTANDARDISO
  2
AmdtSectionSymStdISO
  3
"Amdt_StdImp|Product Description: AutoCAD Mechanical 2004 DX|Company: Autodesk"
 90
        0
280
     0
281
     0
  0
CLASS
  1
ACMCENTERLINESTANDARDISO
  2
AmdtCenterLineStdISO
  3
"Amdt_StdImp|Product Description: AutoCAD Mechanical 2004 DX|Company: Autodesk"
 90
        0
280
     0
281
     0
  0
CLASS
  1
ACMNOTESTANDARDISO
  2
AmdtNoteStdISO
  3
"Amdt_StdImp|Product Description: AutoCAD Mechanical 2004 DX|Company: Autodesk"
 90
        0
280
     0
281
     0
  0
CLASS
  1
ACAMGLAYSTD
  2
AcAmgLayStd
  3
"AcAmgLayStd|Product Description: AutoCAD Mechanical 2000|Company: Autodesk"
 90
        0
280
     0
281
     0
  0
CLASS
  1
ACAMGDIMSTD
  2
AcAmgDimStd
  3
"AcAmgDimStd|Product Description: AutoCAD Mechanical 2000|Company: Autodesk"
 90
        0
280
     0
281
     0
  0
CLASS
  1
ACAMGHOLECHARTSTDISO
  2
AcAmgHoleChartStdISO
  3
ACMSYMBB_MODULE_NAME
 90
        0
280
     0
281
     0
  0
CLASS
  1
ACAMGTITLESTD
  2
AcAmgTitleStd
  3
"TITLEAPP"
 90
        0
280
     0
281
     0
  0
CLASS
  1
LAYER_INDEX
  2
AcDbLayerIndex
  3
ObjectDBX Classes
 90
    32768
280
     0
281
     0
  0
CLASS
  1
IDBUFFER
  2
AcDbIdBuffer
  3
ObjectDBX Classes
 90
    32768
280
     0
281
     0
  0
CLASS
  1
DICTIONARYVAR
  2
AcDbDictionaryVar
  3
ObjectDBX Classes
 90
        0
280
     0
281
     0
  0
CLASS
  1
ACAMGFILTERDAT
  2
AcAmgFilterDat
  3
"AcadM|Product Description: AutoCAD Mechanical 2000|Company: Autodesk"
 90
    32768
280
     0
281
     0
  0
CLASS
  1
AMDTFORMULAUPDATEDISPATCHER
  2
AmdtFormulaUpdateDispatcher
  3
AcMeServices
 90
    32768
280
     0
281
     0
  0
CLASS
  1
DIMASSOC
  2
AcDbDimAssoc
  3
"AcDbDimAssoc|Product Desc:     AcDim ARX App For Dimension|Company:          Autodesk, Inc.|WEB Address:      www.autodesk.com"
 90
        0
280
     0
281
     0
  0
CLASS
  1
AMDTNOTE
  2
AmdtNote
  3
"AcmSymBB|Product Description: AutoCAD Mechanical 2004 DX|Company: Autodesk"
 90
    33791
280
     0
281
     1
  0
CLASS
  1
TABLESTYLE
  2
AcDbTableStyle
  3
ObjectDBX Classes
 90
     2047
280
     0
281
     0
  0
CLASS
  1
AM_DRAWING_MGR
  2
AcDmDwgMgr
  3
AcMechDwgViewMgmt
 90
        0
280
     0
281
     0
  0
CLASS
  1
AM_DWG_DOCUMENT
  2
AcDmDwgDocument
  3
AcMechDwgViewMgmt
 90
        0
280
     0
281
     0
  0
CLASS
  1
AM_DWG_SHEET
  2
AcDmSheet
  3
AcMechDwgViewMgmt
 90
        0
280
     0
281
     0
  0
CLASS
  1
AM_VIEWDIMPARMAP
  2
AcDmViewDimParMap
  3
AcMechDwgViewMgmt
 90
        0
280
     0
281
     0
  0
CLASS
  1
AM_DWGMGR_NAME
  2
AcDmDwgMgrName
  3
AcMechDwgViewMgmt
 90
        0
280
     0
281
     0
  0
CLASS
  1
AMDTMENUSTATEMGR
  2
AmdtMenuStateMgr
  3
McadcomServices
 90
        0
280
     0
281
     0
  0
CLASS
  1
AMDTMCOMMENUSTATE
  2
AmdtMcomMenuState
  3
McadcomServices
 90
        0
280
     0
281
     0
  0
CLASS
  1
MAPIAMMOUDLE
  2
MApiAmModule
  3
MApiAmServices
 90
        0
280
     0
281
     0
  0
CLASS
  1
AMDTADMENUSTATE
  2
AmdtAdMenuState
  3
DesignerServices
 90
        0
280
     0
281
     0
  0
CLASS
  1
ADAPPL
  2
AcAdAppl
  3
DesignerServices
 90
        0
280
     0
281
     0
  0
CLASS
  1
DEPMGR
  2
AcAdDepMgr
  3
DesignerServices
 90
        0
280
     0
281
     0
  0
CLASS
  1
PARAMMGR
  2
AcAdParamMgr
  3
DesignerServices
 90
        0
280
     0
281
     0
  0
CLASS
  1
PARAMSCOPE
  2
AcAdParamScope
  3
DesignerServices
 90
        0
280
     0
281
     0
  0
CLASS
  1
NAMEDAPPL
  2
AcAdNamedAppl
  3
DesignerServices
 90
        0
280
     0
281
     0
  0
CLASS
  1
AMDTDMMENUSTATE
  2
AmdtDmMenuState
  3
AcMechDwgViewMgmt
 90
        0
280
     0
281
     0
  0
CLASS
  1
AMDTAMMENUSTATE
  2
AmdtAmMenuState
  3
DesignerAssemblies
 90
        0
280
     0
281
     0
  0
CLASS
  1
ACAMPROJECT
  2
AcAmProject
  3
DesignerAssemblies
 90
        0
280
     0
281
     0
  0
CLASS
  1
ACAMGRCOMPDEF
  2
AcAmGrCompDef
  3
DesignerAssemblies
 90
        0
280
     0
281
     0
  0
CLASS
  1
ACCMCONTEXT
  2
AcCmContext
  3
DesignerAssemblies
 90
        0
280
     0
281
     0
  0
CLASS
  1
ACAMCOMPDEF
  2
AcAmCompDef
  3
DesignerAssemblies
 90
        0
280
     0
281
     0
  0
CLASS
  1
ACAMCOMPDEFMGR
  2
AcAmCompDefMgr
  3
DesignerAssemblies
 90
        0
280
     0
281
     0
  0
CLASS
  1
AMCONTEXTMGR
  2
AcAmContextMgr
  3
DesignerAssemblies
 90
        0
280
     0
281
     0
  0
CLASS
  1
ACAMCONTEXTMODELER
  2
AcAmContextModeler
  3
DesignerAssemblies
 90
        0
280
     0
281
     0
  0
CLASS
  1
ACMTHREADLINESTANDARDISO
  2
AmdtThreadLineStdISO
  3
"Amdt_StdImp|Product Description: AutoCAD Mechanical 2004 DX|Company: Autodesk"
 90
        0
280
     0
281
     0
  0
CLASS
  1
CATALOGSTATE
  2
AcAmCatalogState
  3
DesignerAssemblies
 90
        0
280
     0
281
     0
  0
CLASS
  1
ACAMGRCOMPDEFSET
  2
AcAmGrCompDefSet
  3
DesignerAssemblies
 90
        0
280
     0
281
     0
  0
CLASS
  1
AMDTBROWSERDBTAB
  2
AmdtBrowserDbTab
  3
McadcomServices
 90
        0
280
     0
281
     0
  0
CLASS
  1
CBROWSERAPPOBJECT
  2
CBrowserAppObject
  3
McadcomServices
 90
        0
280
     0
281
     0
  0
CLASS
  1
DM_PLACEHOLDER
  2
AcDmSelsetPlaceholder
  3
AcMechDwgViewMgmt
 90
        0
280
     0
281
     0
  0
CLASS
  1
VAACXREFPANELOBJECT
  2
VaAcXREFPanelObject
  3
VAAC_ADDIN
 90
        0
280
     0
281
     0
  0
CLASS
  1
VAACIMAGEINVENTORY
  2
VaAcImageInventory
  3
VAAC_ADDIN
 90
        0
280
     0
281
     0
  0
CLASS
  1
AMDTEDGESTANDARDISO13715
  2
AmdtEdgeStdISO13715
  3
"Amdt_StdImp|Product Description: AutoCAD Mechanical 2004 DX|Company: Autodesk"
 90
        0
280
     0
281
     0
  0
CLASS
  1
AMDTNOTETEMPLATEDB
  2
AmdtNoteTemplateDB
  3
AMDT_STDIMP_MODULE_NAME
 90
        0
280
     0
281
     0
  0
CLASS
  1
ACRFATTGENMGR
  2
AcRfAttGeneralMgr
  3
AcAttribServices
 90
        0
280
     0
281
     0
  0
CLASS
  1
SORTENTSTABLE
  2
AcDbSortentsTable
  3
ObjectDBX Classes
 90
        0
280
     0
281
     0
  0
CLASS
  1
STDPART2D
  2
AmgStdPart
  3
"AmgStdPart|Product Description: AutoCAD Mechanical 2000|Company: Autodesk"
 90
    33791
280
     0
281
     1
  0
CLASS
  1
ACAMSTDPCOMPDEF
  2
AcAmStdpCompDef
  3
DesignerAssemblies
 90
    32768
280
     0
281
     0
  0
CLASS
  1
ACRFOBJATTMGR
  2
AcRfObjAttGroupMgr
  3
AcAttribServices
 90
    32768
280
     0
281
     0
  0
CLASS
  1
ACRFMCADAPIATTHOLDER
  2
AcRfMCADAPIAttHolder
  3
AcAttribServices
 90
    32768
280
     0
281
     0
  0
CLASS
  1
AMDTSYSATTR
  2
AmdtSystemAttribute
  3
AcAttribServices
 90
    32768
280
     0
281
     0
  0
CLASS
  1
ACAMCOMP
  2
AcAmComp
  3
DesignerAssemblies
 90
    32768
280
     0
281
     0
  0
CLASS
  1
AC_AM_STDP_VIEW_DEF
  2
AcAmStdpViewDef
  3
DesignerAssemblies
 90
    32768
280
     0
281
     0
  0
CLASS
  1
AC_AM_MVD_DEP_MGR
  2
AcAmMVDdepMgr
  3
DesignerAssemblies
 90
    32768
280
     0
281
     0
  0
CLASS
  1
AC_AM_MASTER_VIEW_DEF
  2
AcAmMasterViewDef
  3
DesignerAssemblies
 90
    32768
280
     0
281
     0
  0
CLASS
  1
AC_AM_DIRTY_NODES
  2
AcAmDirtyNodes
  3
DesignerAssemblies
 90
    32768
280
     0
281
     0
  0
CLASS
  1
AC_AM_MAPPER_CACHE
  2
AcAmMapperCache
  3
DesignerAssemblies
 90
    32768
280
     0
281
     0
  0
CLASS
  1
ACAMMVDBACKUPOBJECT
  2
AcAmMVDBackupObject
  3
DesignerAssemblies
 90
    32768
280
     0
281
     0
  0
CLASS
  1
AC_AM_COMP_VIEW_INST
  2
AcAmCompView
  3
DesignerAssemblies
 90
    32768
280
     0
281
     0
  0
CLASS
  1
AC_AM_2D_XREF_MGR
  2
AcAmXrefMgr2d
  3
DesignerAssemblies
 90
    32768
280
     0
281
     0
  0
CLASS
  1
ACMSTANDARDANSI
  2
AcmStandardANSI
  3
"Amdt_StdImp|Product Description: AutoCAD Mechanical 2004 DX|Company: Autodesk"
 90
    32768
280
     0
281
     0
  0
CLASS
  1
ACMSURFSTANDARDANSI
  2
AcmSurfTextStdANSI
  3
"Amdt_StdImp|Product Description: AutoCAD Mechanical 2004 DX|Company: Autodesk"
 90
    32768
280
     0
281
     0
  0
CLASS
  1
ACMFCFSTANDARDANSI
  2
AcmFCFStdANSI
  3
"Amdt_StdImp|Product Description: AutoCAD Mechanical 2004 DX|Company: Autodesk"
 90
    32768
280
     0
281
     0
  0
CLASS
  1
ACMWELDSTANDARDANSI
  2
AcmWeldingStdANSI
  3
"Amdt_StdImp|Product Description: AutoCAD Mechanical 2004 DX|Company: Autodesk"
 90
    32768
280
     0
281
     0
  0
CLASS
  1
ACMIDSTANDARDANSI
  2
AcmIdStdANSI
  3
"Amdt_StdImp|Product Description: AutoCAD Mechanical 2004 DX|Company: Autodesk"
 90
    32768
280
     0
281
     0
  0
CLASS
  1
ACMDATUMSTANDARDANSI
  2
AcmDatumStdANSI
  3
"Amdt_StdImp|Product Description: AutoCAD Mechanical 2004 DX|Company: Autodesk"
 90
    32768
280
     0
281
     0
  0
CLASS
  1
ACMBOMSTANDARDANSI
  2
AcmBOMStdANSI
  3
"Amdt_StdImp|Product Description: AutoCAD Mechanical 2004 DX|Company: Autodesk"
 90
    32768
280
     0
281
     0
  0
CLASS
  1
ACMDETAILSTANDARDANSI
  2
AmdtDetailSymStdANSI
  3
"Amdt_StdImp|Product Description: AutoCAD Mechanical 2004 DX|Company: Autodesk"
 90
    32768
280
     0
281
     0
  0
CLASS
  1
ACMSECTIONSTANDARDANSI
  2
AmdtSectionSymStdANSI
  3
"Amdt_StdImp|Product Description: AutoCAD Mechanical 2004 DX|Company: Autodesk"
 90
    32768
280
     0
281
     0
  0
CLASS
  1
ACMCENTERLINESTANDARDANSI
  2
AmdtCenterLineStdANSI
  3
"Amdt_StdImp|Product Description: AutoCAD Mechanical 2004 DX|Company: Autodesk"
 90
    32768
280
     0
281
     0
  0
CLASS
  1
ACMTHREADLINESTANDARDANSI
  2
AmdtThreadLineStdANSI
  3
"Amdt_StdImp|Product Description: AutoCAD Mechanical 2004 DX|Company: Autodesk"
 90
    32768
280
     0
281
     0
  0
CLASS
  1
ACMNOTESTANDARDANSI
  2
AmdtNoteStdANSI
  3
"Amdt_StdImp|Product Description: AutoCAD Mechanical 2004 DX|Company: Autodesk"
 90
    32768
280
     0
281
     0
  0
CLASS
  1
ACAMGHOLECHARTSTDANSI
  2
AcAmgHoleChartStdANSI
  3
ACMSYMBB_MODULE_NAME
 90
    32768
280
     0
281
     0
  0
ENDSEC
  0
SECTION
  2
TABLES
  0
TABLE
  2
VPORT
  5
8
330
0
100
AcDbSymbolTable
 70
     3
  0
VPORT
  5
34C6
330
8
100
AcDbSymbolTableRecord
100
AcDbViewportTableRecord
  2
*Active
 70
     0
 10
0.0
 20
0.0
 11
1.0
 21
1.0
 12
215.1109323803229
 22
210.1776782525328
 13
0.0
 23
0.0
 14
2.5
 24
2.5
 15
10.0
 25
10.0
 16
0.0
 26
0.0
 36
1.0
 17
0.0
 27
0.0
 37
0.0
 40
235.2306453098191
 41
1.81766917293233
 42
50.0
 43
0.0
 44
0.0
 50
0.0
 51
0.0
 71
     0
 72
   100
 73
     1
 74
     3
 75
     0
 76
     0
 77
     0
 78
     0
281
     0
 65
     1
110
0.0
120
0.0
130
0.0
111
1.0
121
0.0
131
0.0
112
0.0
122
1.0
132
0.0
 79
     0
146
0.0
  0
ENDTAB
  0
TABLE
  2
LTYPE
  5
5
330
0
100
AcDbSymbolTable
 70
    14
  0
LTYPE
  5
14
330
5
100
AcDbSymbolTableRecord
100
AcDbLinetypeTableRecord
  2
ByBlock
 70
     0
  3

 72
    65
 73
     0
 40
0.0
  0
LTYPE
  5
15
330
5
100
AcDbSymbolTableRecord
100
AcDbLinetypeTableRecord
  2
ByLayer
 70
     0
  3

 72
    65
 73
     0
 40
0.0
  0
LTYPE
  5
16
330
5
100
AcDbSymbolTableRecord
100
AcDbLinetypeTableRecord
  2
Continuous
 70
     0
  3
Solid line
 72
    65
 73
     0
 40
0.0
  0
LTYPE
  5
4D
330
5
100
AcDbSymbolTableRecord
100
AcDbLinetypeTableRecord
  2
AM_ISO02W050
 70
     0
  3
__ __ __ __ __ __ __ __ __ __ __ __ __ __ __
 72
    65
 73
     2
 40
7.5
 49
6.0
 74
     0
 49
-1.5
 74
     0
  0
LTYPE
  5
4E
330
5
100
AcDbSymbolTableRecord
100
AcDbLinetypeTableRecord
  2
AM_ISO08W050
 70
     0
  3
____ . ____ . ____ . ____ . ____ . ____ . ____
 72
    65
 73
     4
 40
18.0
 49
12.0
 74
     0
 49
-1.5
 74
     0
 49
3.0
 74
     0
 49
-1.5
 74
     0
  0
LTYPE
  5
4F
330
5
100
AcDbSymbolTableRecord
100
AcDbLinetypeTableRecord
  2
AM_ISO09W050
 70
     0
  3
_____ . . _____ . . _____ . . ____ .. ____
 72
    65
 73
     6
 40
22.5
 49
12.0
 74
     0
 49
-1.5
 74
     0
 49
3.0
 74
     0
 49
-1.5
 74
     0
 49
3.0
 74
     0
 49
-1.5
 74
     0
  0
LTYPE
  5
50
330
5
100
AcDbSymbolTableRecord
100
AcDbLinetypeTableRecord
  2
Amconstr
 70
     0
  3
_______________________
 72
    65
 73
     2
 40
9999.0
 49
9999.0
 74
     0
 49
0.0
 74
     0
  0
LTYPE
  5
51
330
5
100
AcDbSymbolTableRecord
100
AcDbLinetypeTableRecord
  2
AM_ISO08W050x2
 70
     0
  3
__ . __ . __ . __ . __ . __
 72
    65
 73
     4
 40
9.0
 49
6.0
 74
     0
 49
-0.75
 74
     0
 49
1.5
 74
     0
 49
-0.75
 74
     0
  0
LTYPE
  5
52
330
5
100
AcDbSymbolTableRecord
100
AcDbLinetypeTableRecord
  2
AM_ISO02W050x2
 70
     0
  3
 _ _ _ _ _ _ _ _ _ _ _ _
 72
    65
 73
     2
 40
3.75
 49
3.0
 74
     0
 49
-0.75
 74
     0
  0
LTYPE
  5
55
330
5
100
AcDbSymbolTableRecord
100
AcDbLinetypeTableRecord
  2
Amzigzag
 70
     0
  3
/\/-/\/-/\/-/\/-/\/-/\/
 72
    65
 73
     2
 40
11.0001
 49
0.0001
 74
     4
 75
   135
340
54
 46
0.04
 50
0.0
 44
0.0
 45
0.0
 49
-11.0
 74
     0
  0
LTYPE
  5
63
330
5
100
AcDbSymbolTableRecord
100
AcDbLinetypeTableRecord
  2
ACISOWELD
 70
     0
  3
_ _ _ _ _
 72
    65
 73
     2
 40
2.0
 49
2.0
 74
     0
 49
-1.0
 74
     0
  0
LTYPE
  5
64
330
5
100
AcDbSymbolTableRecord
100
AcDbLinetypeTableRecord
  2
ACISOTGB
 70
     0
  3
__ . . __ . .
 72
    65
 73
     6
 40
9.0
 49
4.0
 74
     0
 49
-1.0
 74
     0
 49
1.0
 74
     0
 49
-1.0
 74
     0
 49
1.0
 74
     0
 49
-1.0
 74
     0
  0
LTYPE
  5
65
330
5
100
AcDbSymbolTableRecord
100
AcDbLinetypeTableRecord
  2
ACISOTGL
 70
     0
  3
_ _ _ _ _
 72
    65
 73
     2
 40
3.0
 49
2.0
 74
     0
 49
-1.0
 74
     0
  0
LTYPE
  5
68
330
5
100
AcDbSymbolTableRecord
100
AcDbLinetypeTableRecord
  2
CENTER
 70
     0
  3
__ . __
 72
    65
 73
     4
 40
7.0
 49
4.0
 74
     0
 49
-1.0
 74
     0
 49
1.0
 74
     0
 49
-1.0
 74
     0
  0
LTYPE
  5
806
330
5
100
AcDbSymbolTableRecord
100
AcDbLinetypeTableRecord
  2
HIDDEN
 70
     0
  3
Hidden __ __ __ __ __ __ __ __ __ __ __ __ __ _
 72
    65
 73
     2
 40
9.524999999999998
 49
6.349999999999999
 74
     0
 49
-3.174999999999999
 74
     0
  0
LTYPE
  5
807
330
5
100
AcDbSymbolTableRecord
100
AcDbLinetypeTableRecord
  2
PHANTOM2
 70
     0
  3
Phantom (.5x) ___ _ _ ___ _ _ ___ _ _ ___ _ _
 72
    65
 73
     6
 40
31.75
 49
15.875
 74
     0
 49
-3.174999999999999
 74
     0
 49
3.174999999999999
 74
     0
 49
-3.174999999999999
 74
     0
 49
3.174999999999999
 74
     0
 49
-3.174999999999999
 74
     0
  0
ENDTAB
  0
TABLE
  2
LAYER
  5
2
102
{ACAD_XDICTIONARY
360
AAB
102
}
330
0
100
AcDbSymbolTable
 70
     8
  0
LAYER
  5
10
330
2
100
AcDbSymbolTableRecord
100
AcDbLayerTableRecord
  2
0
 70
     0
 62
     7
  6
Continuous
370
    -3
390
F
  0
LAYER
  5
42A
330
2
100
AcDbSymbolTableRecord
100
AcDbLayerTableRecord
  2
AM_5
 70
     0
 62
     5
  6
Continuous
370
    50
390
F
  0
LAYER
  5
43E
330
2
100
AcDbSymbolTableRecord
100
AcDbLayerTableRecord
  2
Defpoints
 70
     0
 62
     7
  6
Continuous
290
     0
370
    -3
390
F
  0
LAYER
  5
CD5
330
2
100
AcDbSymbolTableRecord
100
AcDbLayerTableRecord
  2
AM_7
 70
     0
 62
     1
  6
CENTER
370
    25
390
F
  0
LAYER
  5
CD6
330
2
100
AcDbSymbolTableRecord
100
AcDbLayerTableRecord
  2
AM_VIS
 70
     0
 62
     7
  6
Continuous
370
    50
390
F
  0
LAYER
  5
CD7
330
2
100
AcDbSymbolTableRecord
100
AcDbLayerTableRecord
  2
AM_4
 70
     0
 62
     3
  6
Continuous
370
    25
390
F
  0
LAYER
  5
CD9
330
2
100
AcDbSymbolTableRecord
100
AcDbLayerTableRecord
  2
AM_0
 70
     0
 62
     7
  6
Continuous
370
    50
390
F
  0
LAYER
  5
135E
330
2
100
AcDbSymbolTableRecord
100
AcDbLayerTableRecord
  2
LOGO
 70
     0
 62
     7
  6
Continuous
370
    -3
390
F
  0
ENDTAB
  0
TABLE
  2
STYLE
  5
3
330
0
100
AcDbSymbolTable
 70
     6
  0
STYLE
  5
11
330
3
100
AcDbSymbolTableRecord
100
AcDbTextStyleTableRecord
  2
STANDARD
 70
     0
 40
0.0
 41
1.0
 50
0.0
 71
     0
 42
3.5
  3
ISOCP.SHX
  4
CHINESET.SHX
  0
STYLE
  5
54
330
3
100
AcDbSymbolTableRecord
100
AcDbTextStyleTableRecord
  2

 70
     1
 40
0.0
 41
1.0
 50
0.0
 71
     0
 42
2.5
  3
ltypeshp.shx
  4

  0
STYLE
  5
56
330
3
100
AcDbSymbolTableRecord
100
AcDbTextStyleTableRecord
  2
ACISOTS
 70
     0
 40
1.0
 41
1.0
 50
0.0
 71
     0
 42
2.5
  3
isocp.shx
  4
chineset.shx
  0
STYLE
  5
62
330
3
100
AcDbSymbolTableRecord
100
AcDbTextStyleTableRecord
  2
ACISOGDT
 70
     0
 40
0.0
 41
1.0
 50
0.0
 71
     0
 42
3.5
  3
amgdt.shx
  4

  0
STYLE
  5
1360
330
3
100
AcDbSymbolTableRecord
100
AcDbTextStyleTableRecord
  2
CHINESET
 70
     0
 40
0.0
 41
1.0
 50
0.0
 71
     0
 42
4.0
  3
simplex.shx
  4
chineset.shx
  0
ENDTAB
  0
TABLE
  2
VIEW
  5
6
330
0
100
AcDbSymbolTable
 70
     0
  0
ENDTAB
  0
TABLE
  2
UCS
  5
7
330
0
100
AcDbSymbolTable
 70
     0
  0
ENDTAB
  0
TABLE
  2
APPID
  5
9
330
0
100
AcDbSymbolTable
 70
    26
  0
APPID
  5
12
330
9
100
AcDbSymbolTableRecord
100
AcDbRegAppTableRecord
  2
ACAD
 70
     0
  0
APPID
  5
30
330
9
100
AcDbSymbolTableRecord
100
AcDbRegAppTableRecord
  2
MCAD_NO_VIS
 70
     0
  0
APPID
  5
31
330
9
100
AcDbSymbolTableRecord
100
AcDbRegAppTableRecord
  2
ACAD_TEMP_GRAPHIC
 70
     0
  0
APPID
  5
42
330
9
100
AcDbSymbolTableRecord
100
AcDbRegAppTableRecord
  2
ACATTRIBSERVICES
 70
     0
  0
APPID
  5
20A
330
9
100
AcDbSymbolTableRecord
100
AcDbRegAppTableRecord
  2
GENIUS_GENODEF_13
 70
     0
  0
APPID
  5
20B
330
9
100
AcDbSymbolTableRecord
100
AcDbRegAppTableRecord
  2
GENIUS_GENOBJ-N-HTC_13
 70
     0
  0
APPID
  5
20C
330
9
100
AcDbSymbolTableRecord
100
AcDbRegAppTableRecord
  2
GENIUS_GENHATCH_13
 70
     0
  0
APPID
  5
809
330
9
100
AcDbSymbolTableRecord
100
AcDbRegAppTableRecord
  2
AD_DRAW
 70
     0
  0
APPID
  5
827
330
9
100
AcDbSymbolTableRecord
100
AcDbRegAppTableRecord
  2
DESIGNERASSEMBLIES
 70
     0
  0
APPID
  5
82C
330
9
100
AcDbSymbolTableRecord
100
AcDbRegAppTableRecord
  2
ACADM_DIM_EDIT
 70
     0
  0
APPID
  5
82D
330
9
100
AcDbSymbolTableRecord
100
AcDbRegAppTableRecord
  2
AMDT_DM_ADJ
 70
     0
  0
APPID
  5
FE4
330
9
100
AcDbSymbolTableRecord
100
AcDbRegAppTableRecord
  2
GENIUS_GENDTOL_13
 70
     0
  0
APPID
  5
108C
330
9
100
AcDbSymbolTableRecord
100
AcDbRegAppTableRecord
  2
ACAD_DSTYLE_DIMTEXT_FILL
 70
     0
  0
APPID
  5
1201
330
9
100
AcDbSymbolTableRecord
100
AcDbRegAppTableRecord
  2
GEVID1116400677
 70
     0
  0
APPID
  5
1202
330
9
100
AcDbSymbolTableRecord
100
AcDbRegAppTableRecord
  2
GEVDC
 70
     0
  0
APPID
  5
1203
330
9
100
AcDbSymbolTableRecord
100
AcDbRegAppTableRecord
  2
GEVRADREF
 70
     0
  0
APPID
  5
120C
330
9
100
AcDbSymbolTableRecord
100
AcDbRegAppTableRecord
  2
AMG_2DHIDE
 70
     0
  0
APPID
  5
120D
330
9
100
AcDbSymbolTableRecord
100
AcDbRegAppTableRecord
  2
AMG_2DSTRUCT_BTR
 70
     0
  0
APPID
  5
121E
330
9
100
AcDbSymbolTableRecord
100
AcDbRegAppTableRecord
  2
ACADM_2DVIEW_IGN_NOTIFY
 70
     0
  0
APPID
  5
1361
330
9
100
AcDbSymbolTableRecord
100
AcDbRegAppTableRecord
  2
GENIUS_GENREC_14
 70
     0
  0
APPID
  5
1362
330
9
100
AcDbSymbolTableRecord
100
AcDbRegAppTableRecord
  2
GENIUS_GENOBJ-N-REC_13
 70
     0
  0
APPID
  5
1E31
330
9
100
AcDbSymbolTableRecord
100
AcDbRegAppTableRecord
  2
ACAD_PSEXT
 70
     0
  0
APPID
  5
1F6E
330
9
100
AcDbSymbolTableRecord
100
AcDbRegAppTableRecord
  2
GEVID1116471484
 70
     0
  0
APPID
  5
2915
330
9
100
AcDbSymbolTableRecord
100
AcDbRegAppTableRecord
  2
GENIUS_GENOBJ-N-CEN_13
 70
     0
  0
APPID
  5
2916
330
9
100
AcDbSymbolTableRecord
100
AcDbRegAppTableRecord
  2
GENIUS_GENCEN_19
 70
     0
  0
APPID
  5
30B7
330
9
100
AcDbSymbolTableRecord
100
AcDbRegAppTableRecord
  2
GEVID1116471485
 70
     0
  0
ENDTAB
  0
TABLE
  2
DIMSTYLE
  5
A
330
0
100
AcDbSymbolTable
 70
    10
100
AcDbDimStyleTable
 71
     2
340
6B
340
75
  0
DIMSTYLE
105
6B
330
A
100
AcDbSymbolTableRecord
100
AcDbDimStyleTableRecord
  2
AM_ISO
 70
     0
  4
"
 41
3.0
 42
1.0
 43
8.0
 44
1.5
 47
0.1
 48
0.1
 73
     0
 74
     0
 77
     1
 78
     8
 79
     2
140
3.5
141
3.0
143
0.0393701
146
0.71
147
0.8
172
     1
176
   256
177
   256
178
   256
271
     2
272
     2
283
     0
284
     8
340
11
371
    -1
372
    -1
  0
DIMSTYLE
105
6C
330
A
100
AcDbSymbolTableRecord
100
AcDbDimStyleTableRecord
  2
AM_ISO$3
 70
     0
  4
"
 41
3.0
 42
1.0
 43
8.0
 44
1.5
 47
0.1
 48
0.1
 73
     0
 77
     1
 78
     8
 79
     2
140
3.5
141
3.0
143
0.0393701
146
0.71
147
0.8
176
   256
177
   256
178
   256
271
     2
272
     2
283
     0
284
     8
288
     1
289
     0
340
11
371
    -1
372
    -1
  0
DIMSTYLE
105
6D
330
A
100
AcDbSymbolTableRecord
100
AcDbDimStyleTableRecord
  2
AM_ISO$4
 70
     0
  4
"
 41
3.0
 42
1.0
 43
8.0
 44
1.5
 47
0.1
 48
0.1
 73
     0
 77
     1
 78
     8
 79
     2
140
3.5
141
3.0
143
0.0393701
146
0.71
147
0.8
176
   256
177
   256
178
   256
271
     2
272
     2
283
     0
284
     8
288
     1
289
     0
340
11
371
    -1
372
    -1
  0
DIMSTYLE
105
6E
330
A
100
AcDbSymbolTableRecord
100
AcDbDimStyleTableRecord
  2
AM_ISO$6
 70
     0
  4
"
 41
3.0
 42
1.0
 43
8.0
 44
1.5
 47
0.1
 48
0.1
 73
     0
 74
     0
 78
     8
 79
     2
140
3.5
141
3.0
143
0.0393701
146
0.71
147
0.8
172
     1
176
   256
177
   256
178
   256
271
     2
272
     2
283
     0
284
     8
340
11
371
    -1
372
    -1
  0
DIMSTYLE
105
6F
330
A
100
AcDbSymbolTableRecord
100
AcDbDimStyleTableRecord
  2
AM_ISO$7
 70
     0
  4
"
 41
3.0
 42
1.0
 43
8.0
 44
1.5
 47
0.1
 48
0.1
 73
     0
 74
     0
 77
     1
 78
     8
 79
     2
140
5.0
141
3.0
143
0.0393701
146
0.71
147
0.8
172
     1
176
   256
177
   256
178
   256
271
     2
272
     2
283
     0
284
     8
340
11
371
    -1
372
    -1
  0
DIMSTYLE
105
70
330
A
100
AcDbSymbolTableRecord
100
AcDbDimStyleTableRecord
  2
AM_ISO$SF
 70
     0
  4
"
 41
2.5
 42
1.0
 43
10.0
 44
1.0
 47
0.1
 48
0.1
 73
     0
 74
     0
 75
     1
 76
     1
 77
     1
 78
     8
 79
     2
140
3.5
141
0.0
143
0.0393701
146
0.71
147
1.5
172
     1
176
   256
177
   256
178
     2
271
     2
272
     3
274
     4
283
     0
284
     8
340
11
371
    -1
372
    -1
  0
DIMSTYLE
105
75
330
A
100
AcDbSymbolTableRecord
100
AcDbDimStyleTableRecord
  2
AM_ISO$SH
 70
     0
  4
"
 41
2.5
 42
1.0
 43
10.0
 44
1.0
 47
0.1
 48
0.1
 73
     0
 74
     0
 75
     1
 76
     1
 77
     1
 78
     8
 79
     2
140
3.5
141
0.0
143
0.0393701
144
2.0
146
0.71
147
1.5
172
     1
173
     1
176
   256
177
   256
178
     2
271
     2
272
     3
274
     4
283
     0
284
     8
340
11
343
71
371
    -1
372
    -1
  0
DIMSTYLE
105
AAA
102
{ACAD_REACTORS
330
2B4D
330
2B73
330
2B99
330
2BE5
330
31CD
330
31F3
330
321D
330
2C57
102
}
330
A
100
AcDbSymbolTableRecord
100
AcDbDimStyleTableRecord
  2
AM_ISO$0
 70
     0
  4
"
 41
3.0
 42
1.0
 43
8.0
 44
1.5
 47
0.1
 48
0.1000000001
 73
     0
 74
     0
 77
     1
 78
     8
 79
     2
140
3.0
141
0.0
143
0.0393701
146
0.71
147
1.0
172
     1
176
   256
177
   256
178
   256
271
     2
272
     2
283
     2
284
     8
340
11
371
    -1
372
    -1
  0
DIMSTYLE
105
157A
330
A
100
AcDbSymbolTableRecord
100
AcDbDimStyleTableRecord
  2
STANDARD
 70
     0
 41
3.0
 42
2.0
 43
8.0
 44
2.0
 73
     0
 74
     0
 77
     1
 78
     8
 79
     2
140
3.0
141
5.0
147
1.0
176
   256
177
   256
178
   256
271
     2
272
     2
279
     2
284
     8
285
     8
286
     8
340
1360
  0
ENDTAB
  0
TABLE
  2
BLOCK_RECORD
  5
1
330
0
100
AcDbSymbolTable
 70
    14
  0
BLOCK_RECORD
  5
1F
102
{ACAD_XDICTIONARY
360
7D
102
}
330
1
100
AcDbSymbolTableRecord
100
AcDbBlockTableRecord
  2
*Model_Space
340
22
  0
BLOCK_RECORD
  5
1B
330
1
100
AcDbSymbolTableRecord
100
AcDbBlockTableRecord
  2
*Paper_Space
340
1E
  0
BLOCK_RECORD
  5
23
330
1
100
AcDbSymbolTableRecord
100
AcDbBlockTableRecord
  2
*Paper_Space0
340
26
  0
BLOCK_RECORD
  5
71
330
1
100
AcDbSymbolTableRecord
100
AcDbBlockTableRecord
  2
GENAXEH
340
0
  0
BLOCK_RECORD
  5
2B4E
330
1
100
AcDbSymbolTableRecord
100
AcDbBlockTableRecord
  2
*D2
340
0
  0
BLOCK_RECORD
  5
2B74
330
1
100
AcDbSymbolTableRecord
100
AcDbBlockTableRecord
  2
*D3
340
0
  0
BLOCK_RECORD
  5
2B9A
330
1
100
AcDbSymbolTableRecord
100
AcDbBlockTableRecord
  2
*D4
340
0
  0
BLOCK_RECORD
  5
2BE6
330
1
100
AcDbSymbolTableRecord
100
AcDbBlockTableRecord
  2
*D5
340
0
  0
BLOCK_RECORD
  5
2C58
330
1
100
AcDbSymbolTableRecord
100
AcDbBlockTableRecord
  2
*D6
340
0
  0
BLOCK_RECORD
  5
31CE
330
1
100
AcDbSymbolTableRecord
100
AcDbBlockTableRecord
  2
*D7
340
0
  0
BLOCK_RECORD
  5
31F4
330
1
100
AcDbSymbolTableRecord
100
AcDbBlockTableRecord
  2
*D8
340
0
  0
BLOCK_RECORD
  5
321E
330
1
100
AcDbSymbolTableRecord
100
AcDbBlockTableRecord
  2
*D9
340
0
  0
BLOCK_RECORD
  5
33FC
330
1
100
AcDbSymbolTableRecord
100
AcDbBlockTableRecord
  2
*S10
340
0
102
{BLKREFS
331
2CCB
102
}
  0
BLOCK_RECORD
  5
3404
330
1
100
AcDbSymbolTableRecord
100
AcDbBlockTableRecord
  2
*S11
340
0
102
{BLKREFS
331
2CCD
102
}
  0
ENDTAB
  0
ENDSEC
  0
SECTION
  2
BLOCKS
  0
BLOCK
  5
20
330
1F
100
AcDbEntity
  8
0
100
AcDbBlockBegin
  2
*Model_Space
 70
     0
 10
0.0
 20
0.0
 30
0.0
  3
*Model_Space
  1

  0
ENDBLK
  5
21
330
1F
100
AcDbEntity
  8
0
100
AcDbBlockEnd
  0
BLOCK
  5
1C
330
1B
100
AcDbEntity
 67
     1
  8
0
100
AcDbBlockBegin
  2
*Paper_Space
 70
     0
 10
0.0
 20
0.0
 30
0.0
  3
*Paper_Space
  1

  0
ENDBLK
  5
1D
330
1B
100
AcDbEntity
 67
     1
  8
0
100
AcDbBlockEnd
  0
BLOCK
  5
24
330
23
100
AcDbEntity
  8
0
100
AcDbBlockBegin
  2
*Paper_Space0
 70
     0
 10
0.0
 20
0.0
 30
0.0
  3
*Paper_Space0
  1

  0
ENDBLK
  5
25
330
23
100
AcDbEntity
  8
0
100
AcDbBlockEnd
  0
BLOCK
  5
73
330
71
100
AcDbEntity
  8
0
100
AcDbBlockBegin
  2
GENAXEH
 70
     0
 10
0.0
 20
0.0
 30
0.0
  3
GENAXEH
  1

  0
LINE
  5
72
330
71
100
AcDbEntity
  8
0
100
AcDbLine
 10
-1.0
 20
0.0
 30
0.0
 11
1.0
 21
0.0
 31
0.0
  0
ENDBLK
  5
74
330
71
100
AcDbEntity
  8
0
100
AcDbBlockEnd
  0
BLOCK
  5
2B58
330
2B4E
100
AcDbEntity
  8
0
100
AcDbBlockBegin
  2
*D2
 70
     1
 10
0.0
 20
0.0
 30
0.0
  3
*D2
  1

  0
LINE
  5
332F
330
2B4E
100
AcDbEntity
  8
AM_5
100
AcDbLine
 10
151.6857160023363
 20
146.9787299106834
 30
0.0
 11
151.6857160023363
 21
136.3287299106834
 31
0.0
  0
LINE
  5
3330
330
2B4E
100
AcDbEntity
  8
AM_5
100
AcDbLine
 10
180.6857160023362
 20
146.9787299106834
 30
0.0
 11
180.6857160023362
 21
136.3287299106834
 31
0.0
  0
LINE
  5
3331
330
2B4E
100
AcDbEntity
  8
AM_5
100
AcDbLine
 10
154.6857160023362
 20
137.8287299106834
 30
0.0
 11
177.6857160023363
 21
137.8287299106834
 31
0.0
  0
SOLID
  5
3332
330
2B4E
100
AcDbEntity
  8
AM_5
100
AcDbTrace
 10
154.6857160023362
 20
138.3287299106834
 30
0.0
 11
154.6857160023362
 21
137.3287299106834
 31
0.0
 12
151.6857160023363
 22
137.8287299106834
 32
0.0
 13
151.6857160023363
 23
137.8287299106834
 33
0.0
  0
SOLID
  5
3333
330
2B4E
100
AcDbEntity
  8
AM_5
100
AcDbTrace
 10
177.6857160023363
 20
138.3287299106834
 30
0.0
 11
177.6857160023363
 21
137.3287299106834
 31
0.0
 12
180.6857160023362
 22
137.8287299106834
 32
0.0
 13
180.6857160023362
 23
137.8287299106834
 33
0.0
  0
MTEXT
  5
3334
330
2B4E
100
AcDbEntity
  8
AM_5
100
AcDbMText
 10
166.1857160023363
 20
140.329025186274
 30
0.0
 40
3.0
 41
0.0
 71
     5
 72
     1
  1
\A2;29
 73
     1
 44
1.0
1001
ACAD
1000
MTEXTBEGIN
1070
    73
1070
     1
1070
    44
1040
1.0
1070
    74
1070
     0
1000
MTEXTEND
  0
POINT
  5
3335
330
2B4E
100
AcDbEntity
  8
Defpoints
 62
     0
100
AcDbPoint
 10
151.6857160023363
 20
147.9787299106834
 30
0.0
  0
POINT
  5
3336
330
2B4E
100
AcDbEntity
  8
Defpoints
 62
     0
100
AcDbPoint
 10
180.6857160023362
 20
147.9787299106834
 30
0.0
  0
POINT
  5
3337
330
2B4E
100
AcDbEntity
  8
Defpoints
 62
     0
100
AcDbPoint
 10
180.6857160023362
 20
137.8287299106834
 30
0.0
  0
ENDBLK
  5
2B59
330
2B4E
100
AcDbEntity
  8
0
100
AcDbBlockEnd
  0
BLOCK
  5
2B7E
330
2B74
100
AcDbEntity
  8
0
100
AcDbBlockBegin
  2
*D3
 70
     1
 10
0.0
 20
0.0
 30
0.0
  3
*D3
  1

  0
LINE
  5
3338
330
2B74
100
AcDbEntity
  8
AM_5
100
AcDbLine
 10
180.6857160023362
 20
146.9787299106834
 30
0.0
 11
180.6857160023362
 21
136.3287299106834
 31
0.0
  0
LINE
  5
3339
330
2B74
100
AcDbEntity
  8
AM_5
100
AcDbLine
 10
209.6857160023363
 20
146.9787299106834
 30
0.0
 11
209.6857160023363
 21
136.3287299106834
 31
0.0
  0
LINE
  5
333A
330
2B74
100
AcDbEntity
  8
AM_5
100
AcDbLine
 10
183.6857160023362
 20
137.8287299106834
 30
0.0
 11
206.6857160023363
 21
137.8287299106834
 31
0.0
  0
SOLID
  5
333B
330
2B74
100
AcDbEntity
  8
AM_5
100
AcDbTrace
 10
183.6857160023362
 20
138.3287299106834
 30
0.0
 11
183.6857160023362
 21
137.3287299106834
 31
0.0
 12
180.6857160023362
 22
137.8287299106834
 32
0.0
 13
180.6857160023362
 23
137.8287299106834
 33
0.0
  0
SOLID
  5
333C
330
2B74
100
AcDbEntity
  8
AM_5
100
AcDbTrace
 10
206.6857160023363
 20
138.3287299106834
 30
0.0
 11
206.6857160023363
 21
137.3287299106834
 31
0.0
 12
209.6857160023363
 22
137.8287299106834
 32
0.0
 13
209.6857160023363
 23
137.8287299106834
 33
0.0
  0
MTEXT
  5
333D
330
2B74
100
AcDbEntity
  8
AM_5
100
AcDbMText
 10
195.1857160023362
 20
140.329025186274
 30
0.0
 40
3.0
 41
0.0
 71
     5
 72
     1
  1
\A2;29
 73
     1
 44
1.0
1001
ACAD
1000
MTEXTBEGIN
1070
    73
1070
     1
1070
    44
1040
1.0
1070
    74
1070
     0
1000
MTEXTEND
  0
POINT
  5
333E
330
2B74
100
AcDbEntity
  8
Defpoints
 62
     0
100
AcDbPoint
 10
180.6857160023362
 20
147.9787299106834
 30
0.0
  0
POINT
  5
333F
330
2B74
100
AcDbEntity
  8
Defpoints
 62
     0
100
AcDbPoint
 10
209.6857160023363
 20
147.9787299106834
 30
0.0
  0
POINT
  5
3340
330
2B74
100
AcDbEntity
  8
Defpoints
 62
     0
100
AcDbPoint
 10
209.6857160023363
 20
137.8287299106834
 30
0.0
  0
ENDBLK
  5
2B7F
330
2B74
100
AcDbEntity
  8
0
100
AcDbBlockEnd
  0
BLOCK
  5
2BA4
330
2B9A
100
AcDbEntity
  8
0
100
AcDbBlockBegin
  2
*D4
 70
     1
 10
0.0
 20
0.0
 30
0.0
  3
*D4
  1

  0
LINE
  5
3341
330
2B9A
100
AcDbEntity
  8
AM_5
100
AcDbLine
 10
228.6857160023363
 20
148.8287299106834
 30
0.0
 11
243.1857160023363
 21
148.8287299106834
 31
0.0
  0
LINE
  5
3342
330
2B9A
100
AcDbEntity
  8
AM_5
100
AcDbLine
 10
224.5357160023363
 20
161.8287299106834
 30
0.0
 11
243.1857160023363
 21
161.8287299106834
 31
0.0
  0
LINE
  5
3343
330
2B9A
100
AcDbEntity
  8
AM_5
100
AcDbLine
 10
241.6857160023363
 20
151.8287299106834
 30
0.0
 11
241.6857160023363
 21
158.8287299106834
 31
0.0
  0
SOLID
  5
3344
330
2B9A
100
AcDbEntity
  8
AM_5
100
AcDbTrace
 10
241.1857160023363
 20
151.8287299106834
 30
0.0
 11
242.1857160023363
 21
151.8287299106834
 31
0.0
 12
241.6857160023363
 22
148.8287299106834
 32
0.0
 13
241.6857160023363
 23
148.8287299106834
 33
0.0
  0
SOLID
  5
3345
330
2B9A
100
AcDbEntity
  8
AM_5
100
AcDbTrace
 10
241.1857160023363
 20
158.8287299106834
 30
0.0
 11
242.1857160023363
 21
158.8287299106834
 31
0.0
 12
241.6857160023363
 22
161.8287299106834
 32
0.0
 13
241.6857160023363
 23
161.8287299106834
 33
0.0
  0
MTEXT
  5
3346
330
2B9A
100
AcDbEntity
  8
AM_5
100
AcDbMText
 10
239.1857160023362
 20
155.3287299106834
 30
0.0
 40
3.0
 41
0.0
 71
     5
 72
     1
  1
\A2;13
 11
0.0000000000000001
 21
1.0
 31
0.0
 73
     1
 44
1.0
1001
ACAD
1000
MTEXTBEGIN
1070
    73
1070
     1
1070
    44
1040
1.0
1070
    74
1070
     0
1000
MTEXTEND
  0
POINT
  5
3347
330
2B9A
100
AcDbEntity
  8
Defpoints
 62
     0
100
AcDbPoint
 10
227.6857160023363
 20
148.8287299106834
 30
0.0
  0
POINT
  5
3348
330
2B9A
100
AcDbEntity
  8
Defpoints
 62
     0
100
AcDbPoint
 10
223.5357160023363
 20
161.8287299106834
 30
0.0
  0
POINT
  5
3349
330
2B9A
100
AcDbEntity
  8
Defpoints
 62
     0
100
AcDbPoint
 10
241.6857160023363
 20
161.8287299106834
 30
0.0
  0
ENDBLK
  5
2BA5
330
2B9A
100
AcDbEntity
  8
0
100
AcDbBlockEnd
  0
BLOCK
  5
2BF0
330
2BE6
100
AcDbEntity
  8
0
100
AcDbBlockBegin
  2
*D5
 70
     1
 10
0.0
 20
0.0
 30
0.0
  3
*D5
  1

  0
LINE
  5
334A
330
2BE6
100
AcDbEntity
  8
AM_5
100
AcDbLine
 10
228.6857160023363
 20
148.8287299106834
 30
0.0
 11
251.1857160023363
 21
148.8287299106834
 31
0.0
  0
LINE
  5
334B
330
2BE6
100
AcDbEntity
  8
AM_5
100
AcDbLine
 10
224.6857160023363
 20
178.8287299106834
 30
0.0
 11
251.1857160023363
 21
178.8287299106834
 31
0.0
  0
LINE
  5
334C
330
2BE6
100
AcDbEntity
  8
AM_5
100
AcDbLine
 10
249.6857160023363
 20
151.8287299106834
 30
0.0
 11
249.6857160023363
 21
175.8287299106834
 31
0.0
  0
SOLID
  5
334D
330
2BE6
100
AcDbEntity
  8
AM_5
100
AcDbTrace
 10
249.1857160023363
 20
151.8287299106834
 30
0.0
 11
250.1857160023363
 21
151.8287299106834
 31
0.0
 12
249.6857160023363
 22
148.8287299106834
 32
0.0
 13
249.6857160023363
 23
148.8287299106834
 33
0.0
  0
SOLID
  5
334E
330
2BE6
100
AcDbEntity
  8
AM_5
100
AcDbTrace
 10
249.1857160023363
 20
175.8287299106834
 30
0.0
 11
250.1857160023363
 21
175.8287299106834
 31
0.0
 12
249.6857160023363
 22
178.8287299106834
 32
0.0
 13
249.6857160023363
 23
178.8287299106834
 33
0.0
  0
MTEXT
  5
334F
330
2BE6
100
AcDbEntity
  8
AM_5
100
AcDbMText
 10
247.1857160023362
 20
163.8287299106834
 30
0.0
 40
3.0
 41
0.0
 71
     5
 72
     1
  1
\A2;30
 11
0.0000000000000001
 21
1.0
 31
0.0
 73
     1
 44
1.0
1001
ACAD
1000
MTEXTBEGIN
1070
    73
1070
     1
1070
    44
1040
1.0
1070
    74
1070
     0
1000
MTEXTEND
  0
POINT
  5
3350
330
2BE6
100
AcDbEntity
  8
Defpoints
 62
     0
100
AcDbPoint
 10
227.6857160023363
 20
148.8287299106834
 30
0.0
  0
POINT
  5
3351
330
2BE6
100
AcDbEntity
  8
Defpoints
 62
     0
100
AcDbPoint
 10
223.6857160023363
 20
178.8287299106834
 30
0.0
  0
POINT
  5
3352
330
2BE6
100
AcDbEntity
  8
Defpoints
 62
     0
100
AcDbPoint
 10
249.6857160023363
 20
178.8287299106834
 30
0.0
  0
ENDBLK
  5
2BF1
330
2BE6
100
AcDbEntity
  8
0
100
AcDbBlockEnd
  0
BLOCK
  5
2C62
330
2C58
100
AcDbEntity
  8
0
100
AcDbBlockBegin
  2
*D6
 70
     1
 10
0.0
 20
0.0
 30
0.0
  3
*D6
  1

  0
LINE
  5
3353
330
2C58
100
AcDbEntity
  8
AM_5
100
AcDbLine
 10
133.6857160023363
 20
149.8287299106834
 30
0.0
 11
133.6857160023363
 21
128.3287299106834
 31
0.0
  0
LINE
  5
3354
330
2C58
100
AcDbEntity
  8
AM_5
100
AcDbLine
 10
229.6857160023363
 20
149.8287299106834
 30
0.0
 11
229.6857160023363
 21
128.3287299106834
 31
0.0
  0
LINE
  5
3355
330
2C58
100
AcDbEntity
  8
AM_5
100
AcDbLine
 10
136.6857160023363
 20
129.8287299106834
 30
0.0
 11
226.6857160023363
 21
129.8287299106834
 31
0.0
  0
SOLID
  5
3356
330
2C58
100
AcDbEntity
  8
AM_5
100
AcDbTrace
 10
136.6857160023363
 20
130.3287299106834
 30
0.0
 11
136.6857160023363
 21
129.3287299106834
 31
0.0
 12
133.6857160023363
 22
129.8287299106834
 32
0.0
 13
133.6857160023363
 23
129.8287299106834
 33
0.0
  0
SOLID
  5
3357
330
2C58
100
AcDbEntity
  8
AM_5
100
AcDbTrace
 10
226.6857160023363
 20
130.3287299106834
 30
0.0
 11
226.6857160023363
 21
129.3287299106834
 31
0.0
 12
229.6857160023363
 22
129.8287299106834
 32
0.0
 13
229.6857160023363
 23
129.8287299106834
 33
0.0
  0
MTEXT
  5
3358
330
2C58
100
AcDbEntity
  8
AM_5
100
AcDbMText
 10
181.6857160023363
 20
132.3287299106834
 30
0.0
 40
3.0
 41
0.0
 71
     5
 72
     1
  1
\A2;96
 73
     1
 44
1.0
1001
ACAD
1000
MTEXTBEGIN
1070
    73
1070
     1
1070
    44
1040
1.0
1070
    74
1070
     0
1000
MTEXTEND
  0
POINT
  5
3359
330
2C58
100
AcDbEntity
  8
Defpoints
 62
     0
100
AcDbPoint
 10
133.6857160023363
 20
150.8287299106834
 30
0.0
  0
POINT
  5
335A
330
2C58
100
AcDbEntity
  8
Defpoints
 62
     0
100
AcDbPoint
 10
229.6857160023363
 20
150.8287299106834
 30
0.0
  0
POINT
  5
335B
330
2C58
100
AcDbEntity
  8
Defpoints
 62
     0
100
AcDbPoint
 10
229.6857160023363
 20
129.8287299106834
 30
0.0
  0
ENDBLK
  5
2C63
330
2C58
100
AcDbEntity
  8
0
100
AcDbBlockEnd
  0
BLOCK
  5
31D8
330
31CE
100
AcDbEntity
  8
0
100
AcDbBlockBegin
  2
*D7
 70
     1
 10
0.0
 20
0.0
 30
0.0
  3
*D7
  1

  0
LINE
  5
335C
330
31CE
100
AcDbEntity
  8
AM_5
100
AcDbLine
 10
166.6857160023362
 20
211.2157176553207
 30
0.0
 11
166.6857160023362
 21
197.5657176553207
 31
0.0
  0
LINE
  5
335D
330
31CE
100
AcDbEntity
  8
AM_5
100
AcDbLine
 10
196.6857160023362
 20
211.2157176553207
 30
0.0
 11
196.6857160023362
 21
197.5657176553207
 31
0.0
  0
LINE
  5
335E
330
31CE
100
AcDbEntity
  8
AM_5
100
AcDbLine
 10
169.6857160023363
 20
199.0657176553207
 30
0.0
 11
193.6857160023363
 21
199.0657176553207
 31
0.0
  0
SOLID
  5
335F
330
31CE
100
AcDbEntity
  8
AM_5
100
AcDbTrace
 10
169.6857160023363
 20
199.5657176553207
 30
0.0
 11
169.6857160023363
 21
198.5657176553207
 31
0.0
 12
166.6857160023362
 22
199.0657176553207
 32
0.0
 13
166.6857160023362
 23
199.0657176553207
 33
0.0
  0
SOLID
  5
3360
330
31CE
100
AcDbEntity
  8
AM_5
100
AcDbTrace
 10
193.6857160023363
 20
199.5657176553207
 30
0.0
 11
193.6857160023363
 21
198.5657176553207
 31
0.0
 12
196.6857160023362
 22
199.0657176553207
 32
0.0
 13
196.6857160023362
 23
199.0657176553207
 33
0.0
  0
MTEXT
  5
3361
330
31CE
100
AcDbEntity
  8
AM_5
100
AcDbMText
 10
181.6857160023362
 20
201.5657176553208
 30
0.0
 40
3.0
 41
0.0
 71
     5
 72
     1
  1
\A2;30
 73
     1
 44
1.0
1001
ACAD
1000
MTEXTBEGIN
1070
    73
1070
     1
1070
    44
1040
1.0
1070
    74
1070
     0
1000
MTEXTEND
  0
POINT
  5
3362
330
31CE
100
AcDbEntity
  8
Defpoints
 62
     0
100
AcDbPoint
 10
166.6857160023362
 20
212.2157176553207
 30
0.0
  0
POINT
  5
3363
330
31CE
100
AcDbEntity
  8
Defpoints
 62
     0
100
AcDbPoint
 10
196.6857160023362
 20
212.2157176553207
 30
0.0
  0
POINT
  5
3364
330
31CE
100
AcDbEntity
  8
Defpoints
 62
     0
100
AcDbPoint
 10
196.6857160023362
 20
199.0657176553207
 30
0.0
  0
ENDBLK
  5
31D9
330
31CE
100
AcDbEntity
  8
0
100
AcDbBlockEnd
  0
BLOCK
  5
3200
330
31F4
100
AcDbEntity
  8
0
100
AcDbBlockBegin
  2
*D8
 70
     1
 10
0.0
 20
0.0
 30
0.0
  3
*D8
  1

  0
LINE
  5
3365
330
31F4
100
AcDbEntity
  8
AM_5
100
AcDbLine
 10
230.6857160023363
 20
211.0657176553207
 30
0.0
 11
243.1857170023363
 21
211.0657176553207
 31
0.0
  0
LINE
  5
3366
330
31F4
100
AcDbEntity
  8
AM_5
100
AcDbLine
 10
201.5357160023363
 20
216.0657176553207
 30
0.0
 11
243.1857170023363
 21
216.0657176553207
 31
0.0
  0
LINE
  5
3367
330
31F4
100
AcDbEntity
  8
AM_5
100
AcDbLine
 10
241.6857170023363
 20
208.0657176553207
 30
0.0
 11
241.6857170023363
 21
205.0657176553207
 31
0.0
  0
LINE
  5
3368
330
31F4
100
AcDbEntity
  8
AM_5
100
AcDbLine
 10
241.6857170023363
 20
219.0657176553207
 30
0.0
 11
241.6857170023363
 21
222.0657176553207
 31
0.0
  0
LINE
  5
3369
330
31F4
100
AcDbEntity
  8
AM_5
100
AcDbLine
 10
241.6857170023363
 20
211.0657176553207
 30
0.0
 11
241.6857170023363
 21
216.0657176553207
 31
0.0
  0
SOLID
  5
336A
330
31F4
100
AcDbEntity
  8
AM_5
100
AcDbTrace
 10
241.1857170023363
 20
208.0657176553207
 30
0.0
 11
242.1857170023363
 21
208.0657176553207
 31
0.0
 12
241.6857170023363
 22
211.0657176553207
 32
0.0
 13
241.6857170023363
 23
211.0657176553207
 33
0.0
  0
SOLID
  5
336B
330
31F4
100
AcDbEntity
  8
AM_5
100
AcDbTrace
 10
241.1857170023363
 20
219.0657176553207
 30
0.0
 11
242.1857170023363
 21
219.0657176553207
 31
0.0
 12
241.6857170023363
 22
216.0657176553207
 32
0.0
 13
241.6857170023363
 23
216.0657176553207
 33
0.0
  0
MTEXT
  5
336C
330
31F4
100
AcDbEntity
  8
AM_5
100
AcDbMText
 10
239.1857170023362
 20
213.5657176553208
 30
0.0
 40
3.0
 41
0.0
 71
     5
 72
     1
  1
\A2;5
 11
0.0000000000000001
 21
1.0
 31
0.0
 73
     1
 44
1.0
1001
ACAD
1000
MTEXTBEGIN
1070
    73
1070
     1
1070
    44
1040
1.0
1070
    74
1070
     0
1000
MTEXTEND
  0
POINT
  5
336D
330
31F4
100
AcDbEntity
  8
Defpoints
 62
     0
100
AcDbPoint
 10
229.6857160023363
 20
211.0657176553207
 30
0.0
  0
POINT
  5
336E
330
31F4
100
AcDbEntity
  8
Defpoints
 62
     0
100
AcDbPoint
 10
200.5357160023363
 20
216.0657176553207
 30
0.0
  0
POINT
  5
336F
330
31F4
100
AcDbEntity
  8
Defpoints
 62
     0
100
AcDbPoint
 10
241.6857170023363
 20
216.0657176553207
 30
0.0
  0
ENDBLK
  5
3201
330
31F4
100
AcDbEntity
  8
0
100
AcDbBlockEnd
  0
BLOCK
  5
322A
330
321E
100
AcDbEntity
  8
0
100
AcDbBlockBegin
  2
*D9
 70
     1
 10
0.0
 20
0.0
 30
0.0
  3
*D9
  1

  0
LINE
  5
3370
330
321E
100
AcDbEntity
  8
AM_5
100
AcDbLine
 10
201.5357160023363
 20
287.0657176553207
 30
0.0
 11
243.1857170023362
 21
287.0657176553207
 31
0.0
  0
LINE
  5
3371
330
321E
100
AcDbEntity
  8
AM_5
100
AcDbLine
 10
230.2463761741161
 20
292.0657176553207
 30
0.0
 11
243.1857170023362
 21
292.0657176553207
 31
0.0
  0
LINE
  5
3372
330
321E
100
AcDbEntity
  8
AM_5
100
AcDbLine
 10
241.6857170023362
 20
284.0657176553207
 30
0.0
 11
241.6857170023362
 21
281.0657176553207
 31
0.0
  0
LINE
  5
3373
330
321E
100
AcDbEntity
  8
AM_5
100
AcDbLine
 10
241.6857170023362
 20
295.0657176553207
 30
0.0
 11
241.6857170023362
 21
298.0657176553208
 31
0.0
  0
LINE
  5
3374
330
321E
100
AcDbEntity
  8
AM_5
100
AcDbLine
 10
241.6857170023362
 20
287.0657176553207
 30
0.0
 11
241.6857170023362
 21
292.0657176553207
 31
0.0
  0
SOLID
  5
3375
330
321E
100
AcDbEntity
  8
AM_5
100
AcDbTrace
 10
241.1857170023362
 20
284.0657176553207
 30
0.0
 11
242.1857170023362
 21
284.0657176553207
 31
0.0
 12
241.6857170023362
 22
287.0657176553207
 32
0.0
 13
241.6857170023362
 23
287.0657176553207
 33
0.0
  0
SOLID
  5
3376
330
321E
100
AcDbEntity
  8
AM_5
100
AcDbTrace
 10
241.1857170023362
 20
295.0657176553207
 30
0.0
 11
242.1857170023362
 21
295.0657176553207
 31
0.0
 12
241.6857170023362
 22
292.0657176553207
 32
0.0
 13
241.6857170023362
 23
292.0657176553207
 33
0.0
  0
MTEXT
  5
3377
330
321E
100
AcDbEntity
  8
AM_5
100
AcDbMText
 10
239.1857170023362
 20
289.5657176553208
 30
0.0
 40
3.0
 41
0.0
 71
     5
 72
     1
  1
\A2;5
 11
0.0000000000000001
 21
1.0
 31
0.0
 73
     1
 44
1.0
1001
ACAD
1000
MTEXTBEGIN
1070
    73
1070
     1
1070
    44
1040
1.0
1070
    74
1070
     0
1000
MTEXTEND
  0
POINT
  5
3378
330
321E
100
AcDbEntity
  8
Defpoints
 62
     0
100
AcDbPoint
 10
200.5357160023363
 20
287.0657176553207
 30
0.0
  0
POINT
  5
3379
330
321E
100
AcDbEntity
  8
Defpoints
 62
     0
100
AcDbPoint
 10
229.2463761741161
 20
292.0657176553207
 30
0.0
  0
POINT
  5
337A
330
321E
100
AcDbEntity
  8
Defpoints
 62
     0
100
AcDbPoint
 10
241.6857170023362
 20
292.0657176553207
 30
0.0
  0
ENDBLK
  5
322B
330
321E
100
AcDbEntity
  8
0
100
AcDbBlockEnd
  0
BLOCK
  5
3401
330
33FC
100
AcDbEntity
  8
0
100
AcDbBlockBegin
  2
*S10
 70
     1
 10
0.0
 20
0.0
 30
0.0
  3
*S10
  1

  0
LINE
  5
33FD
330
33FC
100
AcDbEntity
  8
AM_5
 62
     5
100
AcDbLine
 10
254.140587304677
 20
137.4391456099043
 30
0.0
 11
239.1782170591544
 21
137.4391456099043
 31
0.0
  0
LINE
  5
33FE
330
33FC
100
AcDbEntity
  8
AM_5
 62
     5
100
AcDbLine
 10
239.1782170591544
 20
137.4391456099043
 30
0.0
 11
220.3866597972087
 21
152.445744011149
 31
0.0
  0
TRACE
  5
33FF
330
33FC
100
AcDbEntity
  8
AM_5
 62
     5
370
    35
100
AcDbTrace
 10
220.6741976773899
 20
152.8058045922302
 30
0.0
 11
220.0991219170274
 21
152.0856834300679
 31
0.0
 12
217.6517281454287
 22
154.6298110568444
 32
0.0
 13
217.6517281454287
 23
154.6298110568444
 33
0.0
  0
MTEXT
  5
3400
330
33FC
100
AcDbEntity
  8
AM_5
 62
     2
100
AcDbMText
 10
254.140587304677
 20
134.2198603337917
 30
0.0
 40
3.5
 41
0.0
 71
     9
 72
     5
  1

  7
ACISOTS
210
0.0
220
0.0
230
-1.0
 11
-1.0
 21
0.0
 31
0.0
 73
     1
 44
1.0
1001
ACAD
1000
MTEXTBEGIN
1070
    73
1070
     1
1070
    44
1040
1.0
1070
    74
1070
     0
1000
MTEXTEND
  0
ENDBLK
  5
3402
330
33FC
100
AcDbEntity
  8
0
100
AcDbBlockEnd
  0
BLOCK
  5
3409
330
3404
100
AcDbEntity
  8
0
100
AcDbBlockBegin
  2
*S11
 70
     1
 10
0.0
 20
0.0
 30
0.0
  3
*S11
  1

  0
LINE
  5
3405
330
3404
100
AcDbEntity
  8
AM_5
 62
     5
100
AcDbLine
 10
224.9108112476936
 20
202.0007211354437
 30
0.0
 11
209.2631130107071
 21
202.0007211354437
 31
0.0
  0
LINE
  5
3406
330
3404
100
AcDbEntity
  8
AM_5
 62
     5
100
AcDbLine
 10
209.2631130107071
 20
202.0007211354437
 30
0.0
 11
200.6898698251671
 21
211.9636549721452
 31
0.0
  0
TRACE
  5
3407
330
3404
100
AcDbEntity
  8
AM_5
 62
     5
370
    35
100
AcDbTrace
 10
201.0391404836514
 20
212.2642072333404
 30
0.0
 11
200.3405991666828
 21
211.66310271095
 31
0.0
 12
198.4069487409188
 22
214.6166290246181
 32
0.0
 13
198.4069487409188
 23
214.6166290246181
 33
0.0
  0
MTEXT
  5
3408
330
3404
100
AcDbEntity
  8
AM_5
 62
     2
100
AcDbMText
 10
224.9108112476936
 20
196.9887684481173
 30
0.0
 40
3.5
 41
0.0
 71
     9
 72
     5
  1

  7
ACISOTS
210
0.0
220
0.0
230
-1.0
 11
-1.0
 21
0.0
 31
0.0
 73
     1
 44
1.0
1001
ACAD
1000
MTEXTBEGIN
1070
    73
1070
     1
1070
    44
1040
1.0
1070
    74
1070
     0
1000
MTEXTEND
  0
ENDBLK
  5
340A
330
3404
100
AcDbEntity
  8
0
100
AcDbBlockEnd
  0
ENDSEC
  0
SECTION
  2
ENTITIES
  0
TEXT
  5
13F1
330
1F
100
AcDbEntity
  8
LOGO
 62
     7
100
AcDbText
 10
161.921196391571
 20
106.8450682624471
 30
0.0
 40
3.072803004814478
  1
Order example:
 41
0.8
  7
CHINESET
100
AcDbText
  0
TEXT
  5
13F2
330
1F
100
AcDbEntity
  8
LOGO
 62
     7
100
AcDbText
 10
162.4724826616815
 20
111.1709386612455
 30
0.0
 40
4.609204507221718
  1
訂購代號:
  7
CHINESET
100
AcDbText
  0
LINE
  5
13F3
330
1F
100
AcDbEntity
  8
LOGO
 62
     1
100
AcDbLine
 10
320.3303750460031
 20
116.9411385739325
 30
0.0
 11
109.8848034841913
 21
116.9411385739325
 31
0.0
  0
LINE
  5
13F4
330
1F
100
AcDbEntity
  8
LOGO
 62
     1
100
AcDbLine
 10
320.3303750460031
 20
93.89511603782393
 30
0.0
 11
109.8848034841913
 21
93.89511603782393
 31
0.0
  0
LINE
  5
13F5
330
1F
100
AcDbEntity
  8
LOGO
 62
     1
100
AcDbLine
 10
160.5860530636304
 20
93.89511603782393
 30
0.0
 11
160.5860530636304
 21
116.9411385739325
 31
0.0
  0
LINE
  5
13F6
330
1F
100
AcDbEntity
  8
LOGO
 62
     1
100
AcDbLine
 10
109.8848034841913
 20
93.89511603782393
 30
0.0
 11
109.8848034841913
 21
116.9411385739325
 31
0.0
  0
TEXT
  5
13F7
330
1F
100
AcDbEntity
  8
LOGO
  6
Continuous
 62
     5
100
AcDbText
 10
118.1630383730374
 20
98.422472385562
 30
0.0
 40
3.456903380416289
  1
金器工業股份有限公司
  7
CHINESET
100
AcDbText
  0
TEXT
  5
13F8
330
1F
100
AcDbEntity
  8
LOGO
  6
Continuous
 62
     5
100
AcDbText
 10
111.8133907778193
 20
94.96489172311491
 30
0.0
 40
2.304602253610859
  1
MINDMAN INDUSTRIAL CO., LTD.
 41
0.85
  7
CHINESET
100
AcDbText
  0
LINE
  5
13F9
330
1F
100
AcDbEntity
  8
LOGO
 62
     1
100
AcDbLine
 10
160.5860530636304
 20
112.3319340667109
 30
0.0
 11
126.7852200106711
 21
112.3319340667109
 31
0.0
  0
LINE
  5
13FA
330
1F
100
AcDbEntity
  8
LOGO
 62
     1
100
AcDbLine
 10
160.5860530636304
 20
107.7227295594891
 30
0.0
 11
126.7852200106711
 21
107.7227295594891
 31
0.0
  0
LINE
  5
13FB
330
1F
100
AcDbEntity
  8
LOGO
 62
     1
100
AcDbLine
 10
160.5860530636304
 20
103.1135250522674
 30
0.0
 11
109.8848034841913
 21
103.1135250522674
 31
0.0
  0
LINE
  5
13FC
330
1F
100
AcDbEntity
  8
LOGO
 62
     1
100
AcDbLine
 10
126.7852200106711
 20
103.1135250522674
 30
0.0
 11
126.7852200106711
 21
116.9411385739325
 31
0.0
  0
TEXT
  5
13FD
330
1F
100
AcDbEntity
  8
LOGO
 62
     6
100
AcDbText
 10
148.6793214183156
 20
104.2658261790728
 30
0.0
 40
2.304602253610859
  1
m/m
  7
CHINESET
 72
     1
 11
152.739811103249
 21
105.4181273058782
 31
0.0
100
AcDbText
 73
     2
  0
TEXT
  5
13FE
330
1F
100
AcDbEntity
  8
LOGO
 62
     6
100
AcDbText
 10
148.6793214183156
 20
113.4842351935163
 30
0.0
 40
2.304602253610859
  1
1 : 1
  7
CHINESET
 72
     1
 11
152.739811103249
 21
114.6365363203218
 31
0.0
100
AcDbText
 73
     2
  0
LINE
  5
13FF
330
1F
100
AcDbEntity
  8
LOGO
 62
     1
100
AcDbLine
 10
145.2220380395578
 20
103.1135250522674
 30
0.0
 11
145.2220380395578
 21
116.9411385739325
 31
0.0
  0
CIRCLE
  5
1400
330
1F
100
AcDbEntity
  8
LOGO
  6
Continuous
 62
     6
100
AcDbCircle
 10
149.4892973672116
 20
110.0322613741851
 30
0.0
 40
1.338106312668757
  0
CIRCLE
  5
1401
330
1F
100
AcDbEntity
  8
LOGO
  6
Continuous
 62
     6
100
AcDbCircle
 10
149.4892973672116
 20
110.0322613741851
 30
0.0
 40
0.7840118433741034
  0
LINE
  5
1402
330
1F
100
AcDbEntity
  8
LOGO
 62
     6
100
AcDbLine
 10
157.8981127033129
 20
108.6941550615162
 30
0.0
 11
157.8981127033129
 21
111.3703676868539
 31
0.0
  0
LINE
  5
1403
330
1F
100
AcDbEntity
  8
LOGO
 62
     6
100
AcDbLine
 10
153.7032262240635
 20
109.248249530811
 30
0.0
 11
153.7032262240635
 21
110.8162732175593
 31
0.0
  0
LINE
  5
1404
330
1F
100
AcDbEntity
  8
LOGO
  6
Continuous
 62
     6
100
AcDbLine
 10
153.7032262240635
 20
110.8162732175593
 30
0.0
 11
157.8981127033129
 21
111.3703676868539
 31
0.0
  0
LINE
  5
1405
330
1F
100
AcDbEntity
  8
LOGO
  6
Continuous
 62
     6
100
AcDbLine
 10
153.7032262240635
 20
109.248249530811
 30
0.0
 11
157.8981127033129
 21
108.6941550615162
 31
0.0
  0
TEXT
  5
1432
330
1F
100
AcDbEntity
  8
LOGO
 62
     6
100
AcDbText
 10
128.6854880296083
 20
113.4853693481687
 30
151.039835091233
 40
2.304602253610859
  1
比例 Scale:
 41
0.9
  7
CHINESET
 72
     4
 11
136.0036290251146
 21
114.6365363203218
 31
151.039835091233
100
AcDbText
  0
TEXT
  5
1433
330
1F
100
AcDbEntity
  8
LOGO
 62
     6
100
AcDbText
 10
129.4910699780803
 20
108.9074486067746
 30
151.039835091233
 40
2.304602253610859
  1
投影 View:
 41
0.9
  7
CHINESET
 72
     4
 11
136.0036290251146
 21
110.0273318130999
 31
151.039835091233
100
AcDbText
  0
TEXT
  5
1434
330
1F
100
AcDbEntity
  8
LOGO
 62
     6
100
AcDbText
 10
129.7163860019824
 20
104.2658261790728
 30
151.039835091233
 40
2.304602253610859
  1
單位 Unit:
 41
0.9
  7
CHINESET
 72
     4
 11
136.0036290251146
 21
105.4181273058782
 31
151.039835091233
100
AcDbText
  0
LWPOLYLINE
  5
143D
330
1F
100
AcDbEntity
  8
0
 62
     4
100
AcDbPolyline
 90
        4
 70
     1
 43
0.0
 10
109.8848034841914
 20
116.9411385739325
 10
320.3303750460031
 20
116.9411385739325
 10
320.3303750460031
 20
326.4481059509833
 10
109.8848034841914
 20
326.4481059509833
1001
GENIUS_GENREC_14
1002
{
1000
PYDIR
1011
109.8848034841914
1021
326.4481059509833
1031
0.0
1002
}
1002
{
1000
PXDIR
1011
320.3303750460031
1021
116.9411385739325
1031
0.0
1002
}
1002
{
1000
PORI
1011
109.8848034841914
1021
116.9411385739325
1031
0.0
1002
}
1002
{
1000
PINS
1011
109.8848034841914
1021
116.9411385739325
1031
0.0
1002
}
1002
{
1000
PINS2
1011
320.3303750460031
1021
326.4481059509833
1031
0.0
1002
}
1002
{
1000
C
1070
     1
1002
}
1001
GENIUS_GENODEF_13
1002
{
1000
HIER
1070
     0
1002
}
1002
{
1000
MANEDIT
1070
     0
1002
}
1002
{
1000
NOSEL
1070
     0
1002
}
1002
{
1000
BEHIND
1070
     0
1002
}
1002
{
1000
OTHER
1070
     0
1002
}
1002
{
1000
REACTOR
1002
}
1001
GENIUS_GENOBJ-N-REC_13
1002
{
1000
OWNER
1000
GEN
1002
}
  0
SOLID
  5
143E
330
1F
100
AcDbEntity
  8
LOGO
 62
     5
100
AcDbTrace
 10
112.2758653083657
 20
106.9445982645959
 30
0.0
 11
113.2723148500639
 21
106.9445982645956
 31
0.0
 12
117.4299146619774
 22
116.3936887462171
 32
0.0
 13
118.4263642036756
 23
116.3936887462163
 33
0.0
  0
SOLID
  5
143F
330
1F
100
AcDbEntity
  8
LOGO
 62
     5
100
AcDbTrace
 10
113.6846387983534
 20
106.9445982645959
 30
0.0
 11
114.6810883400514
 21
106.9445982645959
 31
0.0
 12
118.4263642036756
 22
115.6377615076869
 32
0.0
 13
117.4299146619774
 23
111.9841131881266
 33
0.0
  0
SOLID
  5
1440
330
1F
100
AcDbEntity
  8
LOGO
 62
     2
100
AcDbTrace
 10
113.2723148500639
 20
106.9445982645956
 30
0.0
 11
113.6846387983534
 21
106.9445982645959
 31
0.0
 12
118.4263642036756
 22
116.3936887462163
 32
0.0
 13
118.8386881519648
 23
116.3936887462163
 33
0.0
  0
SOLID
  5
1441
330
1F
100
AcDbEntity
  8
LOGO
 62
     5
100
AcDbTrace
 10
110.6783123336636
 20
103.5085653621886
 30
0.0
 11
111.0219156239049
 21
103.5085653621886
 31
0.0
 12
111.9895292331653
 22
105.226581813392
 32
0.0
 13
112.3331325234059
 23
105.226581813392
 33
0.0
  0
SOLID
  5
1442
330
1F
100
AcDbEntity
  8
LOGO
 62
     5
100
AcDbTrace
 10
111.9895292331653
 20
105.226581813392
 30
0.0
 11
112.3331325234059
 21
105.226581813392
 31
0.0
 12
111.9895292331653
 22
103.5085653621886
 32
0.0
 13
112.3331325234059
 23
103.5085653621886
 33
0.0
  0
SOLID
  5
1443
330
1F
100
AcDbEntity
  8
LOGO
 62
     5
100
AcDbTrace
 10
111.9895292331653
 20
103.5085653621886
 30
0.0
 11
112.3331325234059
 21
103.5085653621886
 31
0.0
 12
113.3007461326676
 22
105.226581813392
 32
0.0
 13
113.6443494229079
 23
105.226581813392
 33
0.0
  0
SOLID
  5
1444
330
1F
100
AcDbEntity
  8
LOGO
 62
     5
100
AcDbTrace
 10
113.3007461326676
 20
105.226581813392
 30
0.0
 11
113.6443494229079
 21
105.226581813392
 31
0.0
 12
113.3007461326676
 22
103.5085653621886
 32
0.0
 13
113.6443494229079
 23
103.5085653621886
 33
0.0
  0
POLYLINE
  5
1445
330
1F
100
AcDbEntity
  8
LOGO
 62
     5
100
AcDb2dPolyline
 66
     1
 10
0.0
 20
0.0
 30
0.0
 40
0.3441539365392216
 41
0.3441539365392216
  0
VERTEX
  5
1446
330
1445
100
AcDbEntity
  8
LOGO
 62
     5
100
AcDbVertex
100
AcDb2dVertex
 10
124.8182113716018
 20
104.5393752329105
 30
0.0
 42
1.0
  0
VERTEX
  5
1447
330
1445
100
AcDbEntity
  8
LOGO
 62
     5
100
AcDbVertex
100
AcDb2dVertex
 10
123.7857495619839
 20
104.5393752329105
 30
0.0
 42
1.0
  0
SEQEND
  5
1448
330
1445
100
AcDbEntity
  8
LOGO
 62
     5
  0
POLYLINE
  5
1449
330
1F
100
AcDbEntity
  8
LOGO
 62
     5
100
AcDb2dPolyline
 66
     1
 10
0.0
 20
0.0
 30
0.0
 70
     1
  0
VERTEX
  5
144A
330
1449
100
AcDbEntity
  8
LOGO
 62
     5
100
AcDbVertex
100
AcDb2dVertex
 10
121.8395131269529
 20
104.3675735877902
 30
0.0
 42
1.000000057330635
  0
VERTEX
  5
144B
330
1449
100
AcDbEntity
  8
LOGO
 62
     5
100
AcDbVertex
100
AcDb2dVertex
 10
122.8703229976754
 20
104.3675735877902
 30
0.0
 42
1.000000057330635
  0
SEQEND
  5
144C
330
1449
100
AcDbEntity
  8
LOGO
 62
     5
  0
CIRCLE
  5
144D
330
1F
100
AcDbEntity
  8
LOGO
 62
     5
100
AcDbCircle
 10
122.3549180623143
 20
104.3675735877902
 30
0.0
 40
0.5154049353611385
  0
POLYLINE
  5
144E
330
1F
100
AcDbEntity
  8
LOGO
 62
     5
100
AcDb2dPolyline
 66
     1
 10
0.0
 20
0.0
 30
0.0
 70
     1
 40
0.3441539365392216
 41
0.3441539365392216
  0
VERTEX
  5
144F
330
144E
100
AcDbEntity
  8
LOGO
 62
     5
100
AcDbVertex
100
AcDb2dVertex
 10
121.6666101892357
 20
104.3675735877902
 30
0.0
 42
1.0
  0
VERTEX
  5
1450
330
144E
100
AcDbEntity
  8
LOGO
 62
     5
100
AcDbVertex
100
AcDb2dVertex
 10
123.0432259353926
 20
104.3675735877902
 30
0.0
 42
1.0
  0
SEQEND
  5
1451
330
144E
100
AcDbEntity
  8
LOGO
 62
     5
  0
LINE
  5
1452
330
1F
100
AcDbEntity
  8
LOGO
 62
     5
100
AcDbLine
 10
124.9891870472741
 20
103.5085653621886
 30
0.0
 11
124.9891870472741
 21
104.5393752329105
 31
0.0
  0
SOLID
  5
1453
330
1F
100
AcDbEntity
  8
LOGO
 62
     5
100
AcDbTrace
 10
122.8702886373471
 20
105.226581813392
 30
0.0
 11
123.2138919275874
 21
105.226581813392
 31
0.0
 12
122.8702886373471
 22
103.5085653621886
 32
0.0
 13
123.2138919275874
 23
103.5085653621886
 33
0.0
  0
SOLID
  5
1454
330
1F
100
AcDbEntity
  8
LOGO
 62
     5
100
AcDbTrace
 10
123.6147738863108
 20
103.5085653621886
 30
0.0
 11
123.9583771765521
 21
103.5085653621886
 31
0.0
 12
123.6147738863108
 22
105.226581813392
 32
0.0
 13
123.9583771765521
 23
105.226581813392
 33
0.0
  0
SOLID
  5
1455
330
1F
100
AcDbEntity
  8
LOGO
 62
     5
100
AcDbTrace
 10
124.6455837570336
 20
104.5393752329105
 30
0.0
 11
124.9891870472741
 21
104.5393752329105
 31
0.0
 12
124.6455837570336
 22
103.5085653621886
 32
0.0
 13
124.9891870472741
 23
103.5085653621886
 33
0.0
  0
SOLID
  5
1456
330
1F
100
AcDbEntity
  8
LOGO
 62
     5
100
AcDbTrace
 10
123.5804135572869
 20
115.6377615076869
 30
0.0
 11
122.5839640155886
 21
111.9841131881266
 31
0.0
 12
123.5804135572869
 22
106.9445982645956
 32
0.0
 13
122.5839640155886
 23
106.9445982645956
 33
0.0
  0
SOLID
  5
1457
330
1F
100
AcDbEntity
  8
LOGO
 62
     5
100
AcDbTrace
 10
123.992737505576
 20
106.9445982645956
 30
0.0
 11
124.9891870472741
 21
106.9445982645956
 31
0.0
 12
123.992737505576
 22
116.3936887462163
 32
0.0
 13
124.9891870472741
 23
116.3936887462171
 33
0.0
  0
SOLID
  5
1458
330
1F
100
AcDbEntity
  8
LOGO
 62
     2
100
AcDbTrace
 10
123.5804135572869
 20
116.3936887462171
 30
0.0
 11
123.992737505576
 21
116.3936887462163
 31
0.0
 12
123.5804135572869
 22
106.9445982645956
 32
0.0
 13
123.992737505576
 23
106.9445982645956
 33
0.0
  0
POLYLINE
  5
1459
330
1F
100
AcDbEntity
  8
LOGO
 62
     5
100
AcDb2dPolyline
 66
     1
 10
0.0
 20
0.0
 30
0.0
 40
0.3441539365392216
 41
0.3441539365392216
  0
VERTEX
  5
145A
330
1459
100
AcDbEntity
  8
LOGO
 62
     5
100
AcDbVertex
100
AcDb2dVertex
 10
119.8932079712647
 20
104.5393752329105
 30
0.0
 42
1.0
  0
VERTEX
  5
145B
330
1459
100
AcDbEntity
  8
LOGO
 62
     5
100
AcDbVertex
100
AcDb2dVertex
 10
118.8607461616469
 20
104.5393752329105
 30
0.0
 42
1.0
  0
SEQEND
  5
145C
330
1459
100
AcDbEntity
  8
LOGO
 62
     5
  0
POLYLINE
  5
145D
330
1F
100
AcDbEntity
  8
LOGO
 62
     5
100
AcDb2dPolyline
 66
     1
 10
0.0
 20
0.0
 30
0.0
 40
0.3441539365392216
 41
0.3441539365392216
  0
VERTEX
  5
145E
330
145D
100
AcDbEntity
  8
LOGO
 62
     5
100
AcDbVertex
100
AcDb2dVertex
 10
120.9240178419867
 20
104.5393752329105
 30
0.0
 42
1.0
  0
VERTEX
  5
145F
330
145D
100
AcDbEntity
  8
LOGO
 62
     5
100
AcDbVertex
100
AcDb2dVertex
 10
119.8915560323688
 20
104.5393752329105
 30
0.0
 42
1.0
  0
SEQEND
  5
1460
330
145D
100
AcDbEntity
  8
LOGO
 62
     5
  0
POLYLINE
  5
1461
330
1F
100
AcDbEntity
  8
LOGO
 62
     5
100
AcDb2dPolyline
 66
     1
 10
0.0
 20
0.0
 30
0.0
 40
0.3441539365392216
 41
0.3441539365392216
  0
VERTEX
  5
1462
330
1461
100
AcDbEntity
  8
LOGO
 62
     5
100
AcDbVertex
100
AcDb2dVertex
 10
115.9990144416498
 20
104.5393752329105
 30
0.0
 42
1.0
  0
VERTEX
  5
1463
330
1461
100
AcDbEntity
  8
LOGO
 62
     5
100
AcDbVertex
100
AcDb2dVertex
 10
114.9665526320322
 20
104.5393752329105
 30
0.0
 42
1.0
  0
SEQEND
  5
1464
330
1461
100
AcDbEntity
  8
LOGO
 62
     5
  0
SOLID
  5
1465
330
1F
100
AcDbEntity
  8
LOGO
 62
     5
100
AcDbTrace
 10
114.7955769563598
 20
105.226581813392
 30
0.0
 11
115.1391802466001
 21
105.226581813392
 31
0.0
 12
114.7955769563598
 22
103.5085653621886
 32
0.0
 13
115.1391802466001
 23
103.5085653621886
 33
0.0
  0
SOLID
  5
1466
330
1F
100
AcDbEntity
  8
LOGO
 62
     5
100
AcDbTrace
 10
115.8263868270818
 20
104.5393752329105
 30
0.0
 11
116.1699901173228
 21
104.5393752329105
 31
0.0
 12
115.8263868270818
 22
103.5085653621886
 32
0.0
 13
116.1699901173228
 23
103.5085653621886
 33
0.0
  0
POLYLINE
  5
1467
330
1F
100
AcDbEntity
  8
LOGO
 62
     5
100
AcDb2dPolyline
 66
     1
 10
0.0
 20
0.0
 30
0.0
 70
     1
 40
0.3441539365392216
 41
0.3441539365392216
  0
VERTEX
  5
1468
330
1467
100
AcDbEntity
  8
LOGO
 62
     5
100
AcDbVertex
100
AcDb2dVertex
 10
116.7416067888986
 20
104.3675735877902
 30
0.0
 42
1.0
  0
VERTEX
  5
1469
330
1467
100
AcDbEntity
  8
LOGO
 62
     5
100
AcDbVertex
100
AcDb2dVertex
 10
118.1182225350555
 20
104.3675735877902
 30
0.0
 42
1.0
  0
SEQEND
  5
146A
330
1467
100
AcDbEntity
  8
LOGO
 62
     5
  0
SOLID
  5
146B
330
1F
100
AcDbEntity
  8
LOGO
 62
     5
100
AcDbTrace
 10
117.9452852370099
 20
105.7419867487534
 30
0.0
 11
118.2888885272502
 21
105.7419867487534
 31
0.0
 12
117.9452852370099
 22
103.5085653621886
 32
0.0
 13
118.2888885272502
 23
103.5085653621886
 33
0.0
  0
SOLID
  5
146C
330
1F
100
AcDbEntity
  8
LOGO
 62
     5
100
AcDbTrace
 10
118.6897704859745
 20
105.226581813392
 30
0.0
 11
119.0333737762152
 21
105.226581813392
 31
0.0
 12
118.6897704859745
 22
103.5085653621886
 32
0.0
 13
119.0333737762152
 23
103.5085653621886
 33
0.0
  0
SOLID
  5
146D
330
1F
100
AcDbEntity
  8
LOGO
 62
     5
100
AcDbTrace
 10
119.7205803566967
 20
104.5393752329105
 30
0.0
 11
120.0641836469372
 21
104.5393752329105
 31
0.0
 12
119.7205803566967
 22
103.5085653621886
 32
0.0
 13
120.0641836469372
 23
103.5085653621886
 33
0.0
  0
SOLID
  5
146E
330
1F
100
AcDbEntity
  8
LOGO
 62
     5
100
AcDbTrace
 10
120.7513902274188
 20
104.5393752329105
 30
0.0
 11
121.0949935176591
 21
104.5393752329105
 31
0.0
 12
120.7513902274188
 22
103.5085653621878
 32
0.0
 13
121.0949935176591
 23
103.5085653621878
 33
0.0
  0
SOLID
  5
146F
330
1F
100
AcDbEntity
  8
LOGO
 62
     5
100
AcDbTrace
 10
114.0510917073948
 20
105.4671041165604
 30
0.0
 11
114.3946949976363
 21
105.4671041165604
 31
0.0
 12
114.0510917073948
 22
105.7419867487534
 32
0.0
 13
114.3946949976363
 23
105.7419867487534
 33
0.0
  0
SOLID
  5
1470
330
1F
100
AcDbEntity
  8
LOGO
 62
     5
100
AcDbTrace
 10
114.0510917073948
 20
105.226581813392
 30
0.0
 11
114.3946949976363
 21
105.226581813392
 31
0.0
 12
114.0510917073948
 22
103.5085653621878
 32
0.0
 13
114.3946949976363
 23
103.5085653621886
 33
0.0
  0
SOLID
  5
1471
330
1F
100
AcDbEntity
  8
LOGO
 62
     5
100
AcDbTrace
 10
117.4299146619774
 20
106.9445982645959
 30
0.0
 11
118.4263642036756
 21
106.9445982645959
 31
0.0
 12
117.4299146619774
 22
111.9841131881266
 32
0.0
 13
118.4263642036756
 23
115.6377615076869
 33
0.0
  0
SOLID
  5
1472
330
1F
100
AcDbEntity
  8
LOGO
 62
     5
100
AcDbTrace
 10
118.8386881519648
 20
116.3936887462163
 30
0.0
 11
119.835137693663
 21
116.3936887462171
 31
0.0
 12
118.8386881519648
 22
107.7005255031254
 32
0.0
 13
119.835137693663
 23
111.3541738226856
 33
0.0
  0
SOLID
  5
1473
330
1F
100
AcDbEntity
  8
LOGO
 62
     2
100
AcDbTrace
 10
118.4263642036756
 20
116.3936887462163
 30
0.0
 11
118.8386881519648
 21
116.3936887462163
 31
0.0
 12
118.4263642036756
 22
106.9445982645959
 32
0.0
 13
118.8386881519648
 23
106.9445982645959
 33
0.0
  0
SOLID
  5
1474
330
1F
100
AcDbEntity
  8
LOGO
 62
     5
100
AcDbTrace
 10
118.8386881519648
 20
107.7005255031254
 30
0.0
 11
119.835137693663
 21
111.3541738226856
 31
0.0
 12
123.5804135572869
 22
116.3936887462171
 32
0.0
 13
122.5839640155886
 23
116.3936887462171
 33
0.0
  0
SOLID
  5
1475
330
1F
100
AcDbEntity
  8
LOGO
 62
     5
100
AcDbTrace
 10
118.8386881519648
 20
106.9445982645959
 30
0.0
 11
119.835137693663
 21
106.9445982645959
 31
0.0
 12
123.5804135572869
 22
115.6377615076869
 32
0.0
 13
122.5839640155886
 23
111.9841131881266
 33
0.0
  0
SOLID
  5
1476
330
1F
100
AcDbEntity
  8
LOGO
 62
     2
100
AcDbTrace
 10
118.4263642036756
 20
106.9445982645959
 30
0.0
 11
118.8386881519648
 21
106.9445982645959
 31
0.0
 12
123.5804135572869
 22
116.3936887462171
 32
0.0
 13
123.992737505576
 23
116.3936887462163
 33
0.0
  0
TEXT
  5
1477
330
1F
100
AcDbEntity
  8
0
100
AcDbText
 10
161.753675557131
 20
95.12115534062553
 30
0.0
 40
1.921728865319999
  1
1050519
 41
0.8
  7
CHINESET
 72
     1
 11
166.3292204745595
 21
95.12115534062553
 31
0.0
100
AcDbText
  0
LINE
  5
1478
330
1F
100
AcDbEntity
  8
LOGO
 62
     1
100
AcDbLine
 10
172.2585471728087
 20
98.5043205450458
 30
0.0
 11
172.2585471728089
 21
93.89511603782393
 31
0.0
  0
LINE
  5
1479
330
1F
100
AcDbEntity
  8
LOGO
 62
     1
100
AcDbLine
 10
172.2585471728087
 20
98.5043205450458
 30
0.0
 11
160.5860530636304
 21
98.5043205450458
 31
0.0
  0
LINE
  5
1602
330
1F
100
AcDbEntity
  8
LOGO
 62
     6
100
AcDbLine
 10
253.5634903459253
 20
104.2695251806802
 30
0.0
 11
242.5231953870115
 21
104.2695251806802
 31
0.0
  0
LINE
  5
1603
330
1F
100
AcDbEntity
  8
LOGO
 62
     6
100
AcDbLine
 10
242.5962591951507
 20
107.7276615616322
 30
0.0
 11
238.1360578173406
 21
107.7276615616322
 31
0.0
  0
LINE
  5
1604
330
1F
100
AcDbEntity
  8
LOGO
 62
     6
100
AcDbLine
 10
253.5634903459253
 20
95.81630291613072
 30
0.0
 11
242.5231953870115
 21
95.81630291613068
 31
0.0
  0
LINE
  5
1605
330
1F
100
AcDbEntity
  8
LOGO
 62
     6
100
AcDbLine
 10
253.5634903459253
 20
104.2695251806802
 30
0.0
 11
253.5634903459253
 21
95.78442866304735
 31
0.0
  0
TEXT
  5
160A
330
1F
100
AcDbEntity
  8
LOGO
 62
     6
100
AcDbText
 10
198.4439384883157
 20
100.1215768182258
 30
0.0
 40
3.073899005290723
  1
型式
  7
CHINESET
 72
     4
 11
201.5178374936064
 21
101.5798635510507
 31
0.0
100
AcDbText
  0
LINE
  5
160B
330
1F
100
AcDbEntity
  8
LOGO
 62
     6
100
AcDbLine
 10
242.5231953870115
 20
104.2695251806802
 30
0.0
 11
242.5231953870115
 21
95.81630291613068
 31
0.0
  0
LINE
  5
160F
330
1F
100
AcDbEntity
  8
LOGO
 62
     6
100
AcDbLine
 10
240.3661585062457
 20
107.7276615616322
 30
0.0
 11
240.3661585062457
 21
105.9985933711562
 31
0.0
  0
TEXT
  5
1610
330
1F
100
AcDbEntity
  8
LOGO
 62
     6
100
AcDbText
 10
243.7929184654815
 20
100.1200640726524
 30
0.0
 40
3.073899005290723
  1
連座數
 41
0.9
  7
CHINESET
 72
     4
 11
247.9980486106129
 21
101.5798635510508
 31
0.0
100
AcDbText
  0
LINE
  5
1615
330
1F
100
AcDbEntity
  8
LOGO
 62
     6
100
AcDbLine
 10
201.5178374936064
 20
107.7276615616322
 30
0.0
 11
201.5178374936064
 21
104.2695251806801
 31
0.0
  0
LINE
  5
1616
330
1F
100
AcDbEntity
  8
LOGO
 62
     6
100
AcDbLine
 10
193.8330899803796
 20
104.2695251806801
 30
0.0
 11
193.8330899803796
 21
95.81630291613059
 31
0.0
  0
LINE
  5
161A
330
1F
100
AcDbEntity
  8
LOGO
 62
     6
100
AcDbLine
 10
242.5962591951507
 20
114.6439343235364
 30
0.0
 11
238.1360578173406
 21
114.6439343235364
 31
0.0
  0
LINE
  5
161D
330
1F
100
AcDbEntity
  8
LOGO
 62
     6
100
AcDbLine
 10
192.2961404777343
 20
114.6439343235363
 30
0.0
 11
192.2961404777343
 21
107.7276615616322
 31
0.0
  0
LINE
  5
1620
330
1F
100
AcDbEntity
  8
LOGO
 62
     6
100
AcDbLine
 10
242.5962591951507
 20
114.6439343235364
 30
0.0
 11
242.5962591951507
 21
107.7276615616322
 31
0.0
  0
TEXT
  5
1623
330
1F
100
AcDbEntity
  8
LOGO
  6
Continuous
 62
     6
100
AcDbText
 10
243.7531404604496
 20
96.77689635528402
 30
0.0
 40
1.921186878306702
  1
Number
 41
0.8
  7
CHINESET
 72
     4
 11
247.9980486106129
 21
97.73748979443737
 31
0.0
100
AcDbText
  0
TEXT
  5
1626
330
1F
100
AcDbEntity
  8
LOGO
  6
Continuous
 62
     6
100
AcDbText
 10
197.8584339158793
 20
96.77689635528397
 30
0.0
 40
1.921186878306702
  1
Model
  7
CHINESET
 72
     4
 11
201.5178374936064
 21
97.73748979443732
 31
0.0
100
AcDbText
  0
TEXT
  5
1627
330
1F
100
AcDbEntity
  8
LOGO
  6
Continuous
 62
     7
100
AcDbText
 10
238.7917214900967
 20
109.221038303759
 30
0.0
 40
3.842373756613404
  1
2
  7
CHINESET
 72
     1
 11
240.0725127423011
 21
111.1422251820657
 31
0.0
100
AcDbText
 73
     2
  0
TEXT
  5
1628
330
1F
100
AcDbEntity
  8
LOGO
  6
Continuous
 62
     7
100
AcDbText
 10
215.7323039141376
 20
109.2210383037589
 30
0.0
 40
3.842373756613404
  1
460
  7
CHINESET
 72
     1
 11
220.6724987440691
 21
111.1422251820656
 31
0.0
100
AcDbText
 73
     2
  0
TEXT
  5
1629
330
1F
100
AcDbEntity
  8
LOGO
  6
Continuous
 62
     7
100
AcDbText
 10
194.2905154275955
 20
109.2646110642775
 30
0.0
 40
3.842373756613404
  1
MVSC
  7
CHINESET
 72
     1
 11
201.5178374936064
 21
111.1857979425842
 31
0.0
100
AcDbText
 73
     2
  0
LINE
  5
162D
330
1F
100
AcDbEntity
  8
LOGO
 62
     6
100
AcDbLine
 10
210.7395345094786
 20
114.6439343235363
 30
0.0
 11
210.7395345094786
 21
107.7276615616322
 31
0.0
  0
LINE
  5
162E
330
1F
100
AcDbEntity
  8
LOGO
 62
     6
100
AcDbLine
 10
209.2025850068334
 20
104.2695251806801
 30
0.0
 11
209.2025850068334
 21
95.81630291613061
 31
0.0
  0
LINE
  5
162F
330
1F
100
AcDbEntity
  8
LOGO
 62
     6
100
AcDbLine
 10
210.7395345094786
 20
114.6439343235363
 30
0.0
 11
192.2961404777343
 21
114.6439343235363
 31
0.0
  0
LINE
  5
1630
330
1F
100
AcDbEntity
  8
LOGO
 62
     6
100
AcDbLine
 10
210.7395345094786
 20
107.7276615616322
 30
0.0
 11
192.2961404777343
 21
107.7276615616322
 31
0.0
  0
LINE
  5
1631
330
1F
100
AcDbEntity
  8
LOGO
 62
     6
100
AcDbLine
 10
209.2025850068333
 20
104.2695251806801
 30
0.0
 11
193.8330899803796
 21
104.2695251806801
 31
0.0
  0
LINE
  5
1632
330
1F
100
AcDbEntity
  8
LOGO
 62
     6
100
AcDbLine
 10
209.2025850068333
 20
95.81630291613061
 30
0.0
 11
193.8330899803796
 21
95.81630291613059
 31
0.0
  0
TEXT
  5
1634
330
1F
100
AcDbEntity
  8
LOGO
  6
Continuous
 62
     7
100
AcDbText
 10
230.9593016618478
 20
109.2646110642776
 30
0.0
 40
3.842373756613404
  1
5B
  7
CHINESET
 72
     1
 11
234.0697947029158
 21
111.1857979425843
 31
0.0
100
AcDbText
 73
     2
  0
LINE
  5
1635
330
1F
100
AcDbEntity
  8
LOGO
 62
     6
100
AcDbLine
 10
237.8558412967749
 20
114.6439343235364
 30
0.0
 11
230.2041819602469
 21
114.6439343235363
 31
0.0
  0
LINE
  5
1636
330
1F
100
AcDbEntity
  8
LOGO
 62
     6
100
AcDbLine
 10
240.8364312084531
 20
104.2695251806801
 30
0.0
 11
228.4982585990038
 21
104.2695251806801
 31
0.0
  0
LINE
  5
1637
330
1F
100
AcDbEntity
  8
LOGO
 62
     6
100
AcDbLine
 10
237.8558412967749
 20
107.7276615616322
 30
0.0
 11
230.2041819602469
 21
107.7276615616322
 31
0.0
  0
TEXT
  5
1638
330
1F
100
AcDbEntity
  8
LOGO
 62
     6
100
AcDbText
 10
231.9065085948672
 20
100.1354436526493
 30
0.0
 40
3.073899005290723
  1
連座
 41
0.9
  7
CHINESET
 72
     4
 11
234.6673449037283
 21
101.5798635510507
 31
0.0
100
AcDbText
  0
LINE
  5
1639
330
1F
100
AcDbEntity
  8
LOGO
 62
     6
100
AcDbLine
 10
240.8364312084531
 20
95.81630291613066
 30
0.0
 11
228.4982585990038
 21
95.81630291613064
 31
0.0
  0
TEXT
  5
163A
330
1F
100
AcDbEntity
  8
LOGO
  6
Continuous
 62
     6
100
AcDbText
 10
230.2394665746786
 20
96.77689635528398
 30
0.0
 40
1.921186878306702
  1
Manifold
 41
0.8
  7
CHINESET
 72
     4
 11
234.6673449037283
 21
97.73748979443734
 31
0.0
100
AcDbText
  0
LINE
  5
163B
330
1F
100
AcDbEntity
  8
LOGO
 62
     6
100
AcDbLine
 10
230.2041819602469
 20
114.6439343235363
 30
0.0
 11
230.2041819602469
 21
107.7276615616322
 31
0.0
  0
LINE
  5
163C
330
1F
100
AcDbEntity
  8
LOGO
 62
     6
100
AcDbLine
 10
228.4982585990038
 20
104.2695251806801
 30
0.0
 11
228.4982585990038
 21
95.81630291613066
 31
0.0
  0
LINE
  5
163D
330
1F
100
AcDbEntity
  8
LOGO
 62
     6
100
AcDbLine
 10
237.8558412967749
 20
114.6439343235364
 30
0.0
 11
237.8558412967749
 21
107.7276615616322
 31
0.0
  0
LINE
  5
163E
330
1F
100
AcDbEntity
  8
LOGO
 62
     6
100
AcDbLine
 10
240.8364312084531
 20
104.2695251806801
 30
0.0
 11
240.8364312084531
 21
95.81630291613068
 31
0.0
  0
LINE
  5
1640
330
1F
100
AcDbEntity
  8
LOGO
  6
Continuous
 62
     7
100
AcDbLine
 10
211.9311043651886
 20
111.1612994114321
 30
0.0
 11
214.9850780532662
 21
111.1612994114321
 31
0.0
  0
LINE
  5
1641
330
1F
100
AcDbEntity
  8
LOGO
  6
Continuous
 62
     7
100
AcDbLine
 10
226.7150671301447
 20
111.1612994114321
 30
0.0
 11
229.7690408182223
 21
111.1612994114321
 31
0.0
  0
LINE
  5
1642
330
1F
100
AcDbEntity
  8
LOGO
 62
     6
100
AcDbLine
 10
238.1360578173406
 20
114.6439343235364
 30
0.0
 11
238.1360578173406
 21
107.7276615616322
 31
0.0
  0
LINE
  5
1644
330
1F
100
AcDbEntity
  8
LOGO
 62
     6
100
AcDbLine
 10
234.0300116285109
 20
104.2695251806801
 30
0.0
 11
234.0300116285109
 21
107.7276615616322
 31
0.0
  0
LINE
  5
1647
330
1F
100
AcDbEntity
  8
LOGO
 62
     6
100
AcDbLine
 10
240.3661585062457
 20
105.9985933711562
 30
0.0
 11
247.9980486106129
 21
105.9985933711562
 31
0.0
  0
LINE
  5
1648
330
1F
100
AcDbEntity
  8
LOGO
 62
     6
100
AcDbLine
 10
247.9980486106129
 20
104.2695251806802
 30
0.0
 11
247.9980486106129
 21
105.9985933711562
 31
0.0
  0
TEXT
  5
1664
330
1F
100
AcDbEntity
  8
0
100
AcDbText
 10
116.1952891884706
 20
315.0946835603027
 30
0.0
 40
4.0
  1
MVSC-460-5B2
100
AcDbText
  0
DIMENSION
  5
2B4D
330
1F
100
AcDbEntity
  8
AM_5
100
AcDbDimension
  2
*D2
 10
180.6857160023362
 20
137.8287299106834
 30
0.0
 11
166.1857160023363
 21
140.329025186274
 31
0.0
 70
    32
 71
     5
 42
29.0
  3
AM_ISO$0
100
AcDbAlignedDimension
 13
151.6857160023363
 23
147.9787299106834
 33
0.0
 14
180.6857160023362
 24
147.9787299106834
 34
0.0
100
AcDbRotatedDimension
1001
ACAD
1000
DSTYLE
1002
{
1070
    40
1040
1.0
1070
   144
1040
1.0
1070
   272
1070
     8
1002
}
  0
DIMENSION
  5
2B73
330
1F
100
AcDbEntity
  8
AM_5
100
AcDbDimension
  2
*D3
 10
209.6857160023363
 20
137.8287299106834
 30
0.0
 11
195.1857160023362
 21
140.329025186274
 31
0.0
 70
    32
 71
     5
 42
29.0
  3
AM_ISO$0
100
AcDbAlignedDimension
 13
180.6857160023362
 23
147.9787299106834
 33
0.0
 14
209.6857160023363
 24
147.9787299106834
 34
0.0
100
AcDbRotatedDimension
1001
ACAD
1000
DSTYLE
1002
{
1070
    40
1040
1.0
1070
   144
1040
1.0
1070
   272
1070
     8
1002
}
  0
DIMENSION
  5
2B99
330
1F
100
AcDbEntity
  8
AM_5
100
AcDbDimension
  2
*D4
 10
241.6857160023363
 20
161.8287299106834
 30
0.0
 11
239.1857160023362
 21
155.3287299106834
 31
0.0
 70
    32
 71
     5
 42
13.0
  3
AM_ISO$0
100
AcDbAlignedDimension
 13
227.6857160023363
 23
148.8287299106834
 33
0.0
 14
223.5357160023363
 24
161.8287299106834
 34
0.0
 50
90.0
100
AcDbRotatedDimension
1001
ACAD
1000
DSTYLE
1002
{
1070
    40
1040
1.0
1070
   144
1040
1.0
1070
   272
1070
     8
1002
}
  0
DIMENSION
  5
2BE5
330
1F
100
AcDbEntity
  8
AM_5
100
AcDbDimension
  2
*D5
 10
249.6857160023363
 20
178.8287299106834
 30
0.0
 11
247.1857160023362
 21
163.8287299106834
 31
0.0
 70
    32
 71
     5
 42
30.0
  3
AM_ISO$0
100
AcDbAlignedDimension
 13
227.6857160023363
 23
148.8287299106834
 33
0.0
 14
223.6857160023363
 24
178.8287299106834
 34
0.0
 50
90.0
100
AcDbRotatedDimension
1001
ACAD
1000
DSTYLE
1002
{
1070
    40
1040
1.0
1070
   144
1040
1.0
1070
   272
1070
     8
1002
}
  0
DIMENSION
  5
2C57
330
1F
100
AcDbEntity
  8
AM_5
100
AcDbDimension
  2
*D6
 10
229.6857160023363
 20
129.8287299106834
 30
0.0
 11
181.6857160023363
 21
132.3287299106834
 31
0.0
 70
    32
 71
     5
 42
95.99999999999994
  3
AM_ISO$0
100
AcDbAlignedDimension
 13
133.6857160023363
 23
150.8287299106834
 33
0.0
 14
229.6857160023363
 24
150.8287299106834
 34
0.0
100
AcDbRotatedDimension
1001
ACAD
1000
DSTYLE
1002
{
1070
    40
1040
1.0
1070
   144
1040
1.0
1070
   272
1070
     8
1002
}
  0
TEXT
  5
2CCA
330
1F
100
AcDbEntity
  8
AM_5
100
AcDbText
 10
239.6849476755604
 20
138.2477130788948
 30
0.0
 40
3.5
  1
3-G1/2
100
AcDbText
  0
INSERT
  5
2CCB
330
1F
100
AcDbEntity
  8
AM_5
100
AcDbBlockReference
  2
*S10
 10
0.0
 20
0.0
 30
0.0
  0
TEXT
  5
2CCC
330
1F
100
AcDbEntity
  8
AM_5
100
AcDbText
 10
209.7698436271131
 20
202.8092886044342
 30
0.0
 40
3.5
  1
4-%%c4.5
100
AcDbText
  0
INSERT
  5
2CCD
330
1F
100
AcDbEntity
  8
AM_5
100
AcDbBlockReference
  2
*S11
 10
0.0
 20
0.0
 30
0.0
  0
LINE
  5
2D18
330
1F
100
AcDbEntity
  8
LOGO
 62
     1
100
AcDbLine
 10
320.3303750460031
 20
93.89511603782393
 30
0.0
 11
320.3303750460031
 21
116.9411385739325
 31
0.0
  0
LINE
  5
3007
330
1F
100
AcDbEntity
  8
AM_7
100
AcDbLine
 10
165.6857160023363
 20
216.0657176553207
 30
0.0
 11
167.6857160023363
 21
216.0657176553207
 31
0.0
  0
LINE
  5
3008
330
1F
100
AcDbEntity
  8
AM_7
100
AcDbLine
 10
166.6857160023362
 20
215.0657176553207
 30
0.0
 11
166.6857160023362
 21
217.0657176553207
 31
0.0
  0
LINE
  5
3009
330
1F
100
AcDbEntity
  8
AM_7
100
AcDbLine
 10
162.8357160023363
 20
216.0657176553207
 30
0.0
 11
164.8857160023363
 21
216.0657176553207
 31
0.0
  0
LINE
  5
300A
330
1F
100
AcDbEntity
  8
AM_7
100
AcDbLine
 10
168.4857160023363
 20
216.0657176553207
 30
0.0
 11
170.5357160023363
 21
216.0657176553207
 31
0.0
  0
LINE
  5
300B
102
{ACAD_REACTORS
330
31DB
102
}
330
1F
100
AcDbEntity
  8
AM_7
100
AcDbLine
 10
166.6857160023362
 20
212.2157176553207
 30
0.0
 11
166.6857160023362
 21
214.2657176553207
 31
0.0
  0
LINE
  5
300C
330
1F
100
AcDbEntity
  8
AM_7
100
AcDbLine
 10
166.6857160023362
 20
217.8657176553207
 30
0.0
 11
166.6857160023362
 21
219.9157176553207
 31
0.0
  0
LINE
  5
300D
330
1F
100
AcDbEntity
  8
AM_7
100
AcDbLine
 10
165.6857160023363
 20
287.0657176553207
 30
0.0
 11
167.6857160023363
 21
287.0657176553207
 31
0.0
  0
LINE
  5
300E
330
1F
100
AcDbEntity
  8
AM_7
100
AcDbLine
 10
166.6857160023362
 20
286.0657176553207
 30
0.0
 11
166.6857160023362
 21
288.0657176553207
 31
0.0
  0
LINE
  5
300F
330
1F
100
AcDbEntity
  8
AM_7
100
AcDbLine
 10
162.8357160023363
 20
287.0657176553207
 30
0.0
 11
164.8857160023363
 21
287.0657176553207
 31
0.0
  0
LINE
  5
3010
330
1F
100
AcDbEntity
  8
AM_7
100
AcDbLine
 10
168.4857160023363
 20
287.0657176553207
 30
0.0
 11
170.5357160023363
 21
287.0657176553207
 31
0.0
  0
LINE
  5
3011
330
1F
100
AcDbEntity
  8
AM_7
100
AcDbLine
 10
166.6857160023362
 20
283.2157176553207
 30
0.0
 11
166.6857160023362
 21
285.2657176553207
 31
0.0
  0
LINE
  5
3012
330
1F
100
AcDbEntity
  8
AM_7
100
AcDbLine
 10
166.6857160023362
 20
288.8657176553207
 30
0.0
 11
166.6857160023362
 21
290.9157176553208
 31
0.0
  0
LINE
  5
3013
330
1F
100
AcDbEntity
  8
AM_7
100
AcDbLine
 10
195.6857160023363
 20
216.0657176553207
 30
0.0
 11
197.6857160023363
 21
216.0657176553207
 31
0.0
  0
LINE
  5
3014
330
1F
100
AcDbEntity
  8
AM_7
100
AcDbLine
 10
196.6857160023362
 20
215.0657176553207
 30
0.0
 11
196.6857160023362
 21
217.0657176553207
 31
0.0
  0
LINE
  5
3015
330
1F
100
AcDbEntity
  8
AM_7
100
AcDbLine
 10
192.8357160023363
 20
216.0657176553207
 30
0.0
 11
194.8857160023363
 21
216.0657176553207
 31
0.0
  0
LINE
  5
3016
102
{ACAD_REACTORS
330
3203
102
}
330
1F
100
AcDbEntity
  8
AM_7
100
AcDbLine
 10
198.4857160023363
 20
216.0657176553207
 30
0.0
 11
200.5357160023363
 21
216.0657176553207
 31
0.0
  0
LINE
  5
3017
102
{ACAD_REACTORS
330
31DB
102
}
330
1F
100
AcDbEntity
  8
AM_7
100
AcDbLine
 10
196.6857160023362
 20
212.2157176553207
 30
0.0
 11
196.6857160023362
 21
214.2657176553207
 31
0.0
  0
LINE
  5
3018
330
1F
100
AcDbEntity
  8
AM_7
100
AcDbLine
 10
196.6857160023362
 20
217.8657176553207
 30
0.0
 11
196.6857160023362
 21
219.9157176553207
 31
0.0
  0
LINE
  5
3019
330
1F
100
AcDbEntity
  8
AM_7
100
AcDbLine
 10
195.6857160023363
 20
287.0657176553207
 30
0.0
 11
197.6857160023363
 21
287.0657176553207
 31
0.0
  0
LINE
  5
301A
330
1F
100
AcDbEntity
  8
AM_7
100
AcDbLine
 10
196.6857160023362
 20
286.0657176553207
 30
0.0
 11
196.6857160023362
 21
288.0657176553207
 31
0.0
  0
LINE
  5
301B
330
1F
100
AcDbEntity
  8
AM_7
100
AcDbLine
 10
192.8357160023363
 20
287.0657176553207
 30
0.0
 11
194.8857160023363
 21
287.0657176553207
 31
0.0
  0
LINE
  5
301C
102
{ACAD_REACTORS
330
322D
102
}
330
1F
100
AcDbEntity
  8
AM_7
100
AcDbLine
 10
198.4857160023363
 20
287.0657176553207
 30
0.0
 11
200.5357160023363
 21
287.0657176553207
 31
0.0
  0
LINE
  5
301D
330
1F
100
AcDbEntity
  8
AM_7
100
AcDbLine
 10
196.6857160023362
 20
283.2157176553207
 30
0.0
 11
196.6857160023362
 21
285.2657176553207
 31
0.0
  0
LINE
  5
301E
330
1F
100
AcDbEntity
  8
AM_7
100
AcDbLine
 10
196.6857160023362
 20
288.8657176553207
 30
0.0
 11
196.6857160023362
 21
290.9157176553208
 31
0.0
  0
LINE
  5
301F
330
1F
100
AcDbEntity
  8
AM_7
100
AcDbLine
 10
144.6857160023363
 20
247.5657176553207
 30
0.0
 11
146.6857160023363
 21
247.5657176553207
 31
0.0
  0
LINE
  5
3020
330
1F
100
AcDbEntity
  8
AM_7
100
AcDbLine
 10
145.6857160023363
 20
246.5657176553207
 30
0.0
 11
145.6857160023363
 21
248.5657176553207
 31
0.0
  0
LINE
  5
3021
330
1F
100
AcDbEntity
  8
AM_7
100
AcDbLine
 10
142.4357160023363
 20
247.5657176553207
 30
0.0
 11
143.8857160023362
 21
247.5657176553207
 31
0.0
  0
LINE
  5
3022
330
1F
100
AcDbEntity
  8
AM_7
100
AcDbLine
 10
147.4857160023363
 20
247.5657176553207
 30
0.0
 11
148.9357160023363
 21
247.5657176553207
 31
0.0
  0
LINE
  5
3023
330
1F
100
AcDbEntity
  8
AM_7
100
AcDbLine
 10
145.6857160023363
 20
244.3157176553207
 30
0.0
 11
145.6857160023363
 21
245.7657176553207
 31
0.0
  0
LINE
  5
3024
330
1F
100
AcDbEntity
  8
AM_7
100
AcDbLine
 10
145.6857160023363
 20
249.3657176553207
 30
0.0
 11
145.6857160023363
 21
250.8157176553207
 31
0.0
  0
LINE
  5
3025
330
1F
100
AcDbEntity
  8
AM_7
100
AcDbLine
 10
216.6857160023363
 20
224.5657176553207
 30
0.0
 11
218.6857160023363
 21
224.5657176553207
 31
0.0
  0
LINE
  5
3026
330
1F
100
AcDbEntity
  8
AM_7
100
AcDbLine
 10
217.6857160023363
 20
223.5657176553207
 30
0.0
 11
217.6857160023363
 21
225.5657176553207
 31
0.0
  0
LINE
  5
3027
330
1F
100
AcDbEntity
  8
AM_7
100
AcDbLine
 10
214.4357160023363
 20
224.5657176553207
 30
0.0
 11
215.8857160023363
 21
224.5657176553207
 31
0.0
  0
LINE
  5
3028
330
1F
100
AcDbEntity
  8
AM_7
100
AcDbLine
 10
219.4857160023363
 20
224.5657176553207
 30
0.0
 11
220.9357160023363
 21
224.5657176553207
 31
0.0
  0
LINE
  5
3029
330
1F
100
AcDbEntity
  8
AM_7
100
AcDbLine
 10
217.6857160023363
 20
221.3157176553207
 30
0.0
 11
217.6857160023363
 21
222.7657176553207
 31
0.0
  0
LINE
  5
302A
330
1F
100
AcDbEntity
  8
AM_7
100
AcDbLine
 10
217.6857160023363
 20
226.3657176553207
 30
0.0
 11
217.6857160023363
 21
227.8157176553207
 31
0.0
  0
LINE
  5
302B
330
1F
100
AcDbEntity
  8
AM_7
100
AcDbLine
 10
144.6857160023363
 20
278.5657176553207
 30
0.0
 11
146.6857160023363
 21
278.5657176553207
 31
0.0
  0
LINE
  5
302C
330
1F
100
AcDbEntity
  8
AM_7
100
AcDbLine
 10
145.6857160023363
 20
277.5657176553207
 30
0.0
 11
145.6857160023363
 21
279.5657176553207
 31
0.0
  0
LINE
  5
302D
330
1F
100
AcDbEntity
  8
AM_7
100
AcDbLine
 10
142.4357160023363
 20
278.5657176553207
 30
0.0
 11
143.8857160023362
 21
278.5657176553207
 31
0.0
  0
LINE
  5
302E
330
1F
100
AcDbEntity
  8
AM_7
100
AcDbLine
 10
147.4857160023363
 20
278.5657176553207
 30
0.0
 11
148.9357160023363
 21
278.5657176553207
 31
0.0
  0
LINE
  5
302F
330
1F
100
AcDbEntity
  8
AM_7
100
AcDbLine
 10
145.6857160023363
 20
275.3157176553207
 30
0.0
 11
145.6857160023363
 21
276.7657176553207
 31
0.0
  0
LINE
  5
3030
330
1F
100
AcDbEntity
  8
AM_7
100
AcDbLine
 10
145.6857160023363
 20
280.3657176553207
 30
0.0
 11
145.6857160023363
 21
281.8157176553207
 31
0.0
  0
LINE
  5
3031
330
1F
100
AcDbEntity
  8
AM_7
100
AcDbLine
 10
216.6857160023363
 20
255.5657176553207
 30
0.0
 11
218.6857160023363
 21
255.5657176553207
 31
0.0
  0
LINE
  5
3032
330
1F
100
AcDbEntity
  8
AM_7
100
AcDbLine
 10
217.6857160023363
 20
254.5657176553207
 30
0.0
 11
217.6857160023363
 21
256.5657176553207
 31
0.0
  0
LINE
  5
3033
330
1F
100
AcDbEntity
  8
AM_7
100
AcDbLine
 10
214.4357160023363
 20
255.5657176553207
 30
0.0
 11
215.8857160023363
 21
255.5657176553207
 31
0.0
  0
LINE
  5
3034
330
1F
100
AcDbEntity
  8
AM_7
100
AcDbLine
 10
219.4857160023363
 20
255.5657176553207
 30
0.0
 11
220.9357160023363
 21
255.5657176553207
 31
0.0
  0
LINE
  5
3035
330
1F
100
AcDbEntity
  8
AM_7
100
AcDbLine
 10
217.6857160023363
 20
252.3157176553207
 30
0.0
 11
217.6857160023363
 21
253.7657176553207
 31
0.0
  0
LINE
  5
3036
330
1F
100
AcDbEntity
  8
AM_7
100
AcDbLine
 10
217.6857160023363
 20
257.3657176553207
 30
0.0
 11
217.6857160023363
 21
258.8157176553207
 31
0.0
  0
LINE
  5
303B
330
1F
100
AcDbEntity
  8
AM_VIS
100
AcDbLine
 10
229.6857160023363
 20
150.8287299106834
 30
0.0
 11
229.6857160023363
 21
167.2074095671237
 31
0.0
  0
LINE
  5
303C
330
1F
100
AcDbEntity
  8
AM_VIS
100
AcDbLine
 10
214.6857160023363
 20
148.8287299106834
 30
0.0
 11
227.6857160023363
 21
148.8287299106834
 31
0.0
  0
LINE
  5
303D
330
1F
100
AcDbEntity
  8
AM_VIS
100
AcDbLine
 10
213.6857160023363
 20
149.8287299106834
 30
0.0
 11
214.6857160023363
 21
148.8287299106834
 31
0.0
  0
LINE
  5
303E
330
1F
100
AcDbEntity
  8
AM_VIS
100
AcDbLine
 10
149.6857160023363
 20
149.8287299106834
 30
0.0
 11
213.6857160023363
 21
149.8287299106834
 31
0.0
  0
LINE
  5
303F
330
1F
100
AcDbEntity
  8
AM_VIS
100
AcDbLine
 10
148.6857160023363
 20
148.8287299106834
 30
0.0
 11
149.6857160023363
 21
149.8287299106834
 31
0.0
  0
LINE
  5
3040
330
1F
100
AcDbEntity
  8
AM_VIS
100
AcDbLine
 10
135.6857160023362
 20
148.8287299106834
 30
0.0
 11
148.6857160023363
 21
148.8287299106834
 31
0.0
  0
LINE
  5
3041
330
1F
100
AcDbEntity
  8
AM_VIS
100
AcDbLine
 10
133.6857160023362
 20
167.2074095671237
 30
0.0
 11
133.6857160023362
 21
150.8287299106834
 31
0.0
  0
LINE
  5
3042
330
1F
100
AcDbEntity
  8
AM_VIS
100
AcDbLine
 10
138.6857160023363
 20
177.8287299106834
 30
0.0
 11
138.6857160023363
 21
173.2429434730565
 31
0.0
  0
LINE
  5
3043
330
1F
100
AcDbEntity
  8
AM_VIS
100
AcDbLine
 10
223.6857160023363
 20
178.8287299106834
 30
0.0
 11
139.6857160023363
 21
178.8287299106834
 31
0.0
  0
LINE
  5
3044
330
1F
100
AcDbEntity
  8
AM_VIS
100
AcDbLine
 10
224.6857160023363
 20
173.2429434730565
 30
0.0
 11
224.6857160023363
 21
177.8287299106834
 31
0.0
  0
LINE
  5
3045
330
1F
100
AcDbEntity
  8
AM_VIS
100
AcDbLine
 10
138.3928227835228
 20
172.5358366918699
 30
0.0
 11
134.1250558305565
 21
168.2680697389036
 31
0.0
  0
LINE
  5
3046
330
1F
100
AcDbEntity
  8
AM_VIS
100
AcDbLine
 10
229.2463761741161
 20
168.2680697389036
 30
0.0
 11
224.9786092211497
 21
172.5358366918699
 31
0.0
  0
ARC
  5
304D
330
1F
100
AcDbEntity
  8
AM_VIS
100
AcDbCircle
 10
227.6857160023363
 20
150.8287299106834
 30
0.0
 40
1.999999999999999
100
AcDbArc
 50
270.0
 51
0.0
  0
ARC
  5
304E
330
1F
100
AcDbEntity
  8
AM_VIS
100
AcDbCircle
 10
135.6857160023362
 20
150.8287299106834
 30
0.0
 40
1.999999999999999
100
AcDbArc
 50
180.0
 51
270.0
  0
ARC
  5
304F
330
1F
100
AcDbEntity
  8
AM_VIS
100
AcDbCircle
 10
137.6857160023363
 20
173.2429434730565
 30
0.0
 40
1.0
100
AcDbArc
 50
315.0
 51
0.0
  0
ARC
  5
3050
330
1F
100
AcDbEntity
  8
AM_VIS
100
AcDbCircle
 10
139.6857160023363
 20
177.8287299106834
 30
0.0
 40
1.0
100
AcDbArc
 50
90.0
 51
180.0
  0
ARC
  5
3051
330
1F
100
AcDbEntity
  8
AM_VIS
100
AcDbCircle
 10
223.6857160023363
 20
177.8287299106834
 30
0.0
 40
0.9999999999999998
100
AcDbArc
 50
0.0
 51
90.0
  0
ARC
  5
3052
330
1F
100
AcDbEntity
  8
AM_VIS
100
AcDbCircle
 10
225.6857160023363
 20
173.2429434730565
 30
0.0
 40
1.0
100
AcDbArc
 50
180.0
 51
225.0
  0
ARC
  5
3053
330
1F
100
AcDbEntity
  8
AM_VIS
100
AcDbCircle
 10
135.1857160023363
 20
167.2074095671237
 30
0.0
 40
1.5
100
AcDbArc
 50
135.0
 51
180.0
  0
ARC
  5
3054
330
1F
100
AcDbEntity
  8
AM_VIS
100
AcDbCircle
 10
228.1857160023363
 20
167.2074095671237
 30
0.0
 40
1.499999999999999
100
AcDbArc
 50
0.0
 51
45.0
  0
LINE
  5
3059
330
1F
100
AcDbEntity
  8
AM_VIS
100
AcDbLine
 10
224.6857160023363
 20
211.0657176553207
 30
0.0
 11
224.6857160023363
 21
292.0657176553207
 31
0.0
  0
LINE
  5
305A
330
1F
100
AcDbEntity
  8
AM_VIS
100
AcDbLine
 10
138.6857160023363
 20
292.0657176553207
 30
0.0
 11
138.6857160023363
 21
211.0657176553207
 31
0.0
  0
LINE
  5
305B
330
1F
100
AcDbEntity
  8
AM_VIS
100
AcDbLine
 10
223.6857160023363
 20
211.0657176553207
 30
0.0
 11
139.6857160023363
 21
211.0657176553207
 31
0.0
  0
LINE
  5
305C
330
1F
100
AcDbEntity
  8
AM_VIS
100
AcDbLine
 10
138.3928227835228
 20
211.0657176553207
 30
0.0
 11
134.1250558305565
 21
211.0657176553207
 31
0.0
  0
LINE
  5
305D
330
1F
100
AcDbEntity
  8
AM_VIS
100
AcDbLine
 10
133.6857160023362
 20
292.0657176553207
 30
0.0
 11
133.6857160023362
 21
211.0657176553207
 31
0.0
  0
LINE
  5
305E
330
1F
100
AcDbEntity
  8
AM_VIS
100
AcDbLine
 10
223.6857160023363
 20
292.0657176553207
 30
0.0
 11
139.6857160023363
 21
292.0657176553207
 31
0.0
  0
LINE
  5
305F
330
1F
100
AcDbEntity
  8
AM_VIS
100
AcDbLine
 10
138.3928227835228
 20
292.0657176553207
 30
0.0
 11
134.1250558305565
 21
292.0657176553207
 31
0.0
  0
LINE
  5
3060
330
1F
100
AcDbEntity
  8
AM_VIS
100
AcDbLine
 10
229.2463761741161
 20
211.0657176553207
 30
0.0
 11
224.9786092211497
 21
211.0657176553207
 31
0.0
  0
LINE
  5
3061
330
1F
100
AcDbEntity
  8
AM_VIS
100
AcDbLine
 10
229.2463761741161
 20
292.0657176553207
 30
0.0
 11
224.9786092211497
 21
292.0657176553207
 31
0.0
  0
LINE
  5
3062
330
1F
100
AcDbEntity
  8
AM_VIS
100
AcDbLine
 10
229.6857160023363
 20
211.0657176553207
 30
0.0
 11
229.6857160023363
 21
292.0657176553207
 31
0.0
  0
CIRCLE
  5
3063
330
1F
100
AcDbEntity
  8
AM_VIS
100
AcDbCircle
 10
166.6857160023362
 20
216.0657176553207
 30
0.0
 40
2.25
  0
CIRCLE
  5
3064
330
1F
100
AcDbEntity
  8
AM_VIS
100
AcDbCircle
 10
166.6857160023362
 20
287.0657176553207
 30
0.0
 40
2.25
  0
CIRCLE
  5
3065
330
1F
100
AcDbEntity
  8
AM_VIS
100
AcDbCircle
 10
196.6857160023362
 20
216.0657176553207
 30
0.0
 40
2.25
  0
CIRCLE
  5
3066
330
1F
100
AcDbEntity
  8
AM_VIS
100
AcDbCircle
 10
196.6857160023362
 20
287.0657176553207
 30
0.0
 40
2.25
  0
LINE
  5
3071
330
1F
100
AcDbEntity
  8
AM_VIS
100
AcDbLine
 10
138.3928227835228
 20
211.0657176553207
 30
0.0
 11
138.6857160023363
 21
211.0657176553207
 31
0.0
  0
LINE
  5
3072
330
1F
100
AcDbEntity
  8
AM_VIS
100
AcDbLine
 10
139.6857160023363
 20
211.0657176553207
 30
0.0
 11
138.6857160023363
 21
211.0657176553207
 31
0.0
  0
LINE
  5
3073
330
1F
100
AcDbEntity
  8
AM_VIS
100
AcDbLine
 10
224.6857160023363
 20
211.0657176553207
 30
0.0
 11
223.6857160023363
 21
211.0657176553207
 31
0.0
  0
LINE
  5
3074
330
1F
100
AcDbEntity
  8
AM_VIS
100
AcDbLine
 10
224.6857160023363
 20
211.0657176553207
 30
0.0
 11
224.9786092211497
 21
211.0657176553207
 31
0.0
  0
LINE
  5
3075
330
1F
100
AcDbEntity
  8
AM_VIS
100
AcDbLine
 10
134.1250558305564
 20
211.0657176553207
 30
0.0
 11
133.6857160023362
 21
211.0657176553207
 31
0.0
  0
LINE
  5
3076
330
1F
100
AcDbEntity
  8
AM_VIS
100
AcDbLine
 10
224.9786092211497
 20
292.0657176553207
 30
0.0
 11
224.6857160023363
 21
292.0657176553207
 31
0.0
  0
LINE
  5
3077
330
1F
100
AcDbEntity
  8
AM_VIS
100
AcDbLine
 10
223.6857160023363
 20
292.0657176553207
 30
0.0
 11
224.6857160023363
 21
292.0657176553207
 31
0.0
  0
LINE
  5
3078
330
1F
100
AcDbEntity
  8
AM_VIS
100
AcDbLine
 10
138.6857160023363
 20
292.0657176553207
 30
0.0
 11
139.6857160023363
 21
292.0657176553207
 31
0.0
  0
LINE
  5
3079
330
1F
100
AcDbEntity
  8
AM_VIS
100
AcDbLine
 10
138.6857160023363
 20
292.0657176553207
 30
0.0
 11
138.3928227835228
 21
292.0657176553207
 31
0.0
  0
LINE
  5
307A
330
1F
100
AcDbEntity
  8
AM_VIS
100
AcDbLine
 10
133.6857160023362
 20
292.0657176553207
 30
0.0
 11
134.1250558305564
 21
292.0657176553207
 31
0.0
  0
LINE
  5
307B
102
{ACAD_REACTORS
330
3203
102
}
330
1F
100
AcDbEntity
  8
AM_VIS
100
AcDbLine
 10
229.6857160023363
 20
211.0657176553207
 30
0.0
 11
229.2463761741161
 21
211.0657176553207
 31
0.0
  0
LINE
  5
307C
102
{ACAD_REACTORS
330
322D
102
}
330
1F
100
AcDbEntity
  8
AM_VIS
100
AcDbLine
 10
229.2463761741161
 20
292.0657176553207
 30
0.0
 11
229.6857160023363
 21
292.0657176553207
 31
0.0
  0
LINE
  5
307D
330
1F
100
AcDbEntity
  8
AM_VIS
100
AcDbLine
 10
296.3621941938269
 20
211.0657176553207
 30
0.0
 11
296.3621941938269
 21
292.0657176553207
 31
0.0
  0
LINE
  5
307E
330
1F
100
AcDbEntity
  8
AM_VIS
100
AcDbLine
 10
266.3621941938268
 20
292.0657176553207
 30
0.0
 11
266.3621941938268
 21
211.0657176553207
 31
0.0
  0
LINE
  5
307F
330
1F
100
AcDbEntity
  8
AM_VIS
100
AcDbLine
 10
294.3621941938268
 20
211.0657176553207
 30
0.0
 11
277.9835145373865
 21
211.0657176553207
 31
0.0
  0
LINE
  5
3080
330
1F
100
AcDbEntity
  8
AM_VIS
100
AcDbLine
 10
271.9479806314538
 20
211.0657176553207
 30
0.0
 11
267.3621941938268
 21
211.0657176553207
 31
0.0
  0
LINE
  5
3081
330
1F
100
AcDbEntity
  8
AM_VIS
100
AcDbLine
 10
271.9479806314538
 20
292.0657176553207
 30
0.0
 11
267.3621941938268
 21
292.0657176553207
 31
0.0
  0
LINE
  5
3082
330
1F
100
AcDbEntity
  8
AM_VIS
100
AcDbLine
 10
294.3621941938268
 20
292.0657176553207
 30
0.0
 11
277.9835145373865
 21
292.0657176553207
 31
0.0
  0
LINE
  5
3083
330
1F
100
AcDbEntity
  8
AM_VIS
100
AcDbLine
 10
276.9228543656067
 20
211.0657176553207
 30
0.0
 11
272.6550874126403
 21
211.0657176553207
 31
0.0
  0
LINE
  5
3084
330
1F
100
AcDbEntity
  8
AM_VIS
100
AcDbLine
 10
276.9228543656067
 20
292.0657176553207
 30
0.0
 11
272.6550874126403
 21
292.0657176553207
 31
0.0
  0
LINE
  5
3085
330
1F
100
AcDbEntity
  8
AM_VIS
100
AcDbLine
 10
296.3621941938269
 20
211.0657176553207
 30
0.0
 11
294.3621941938268
 21
211.0657176553207
 31
0.0
  0
LINE
  5
3086
330
1F
100
AcDbEntity
  8
AM_VIS
100
AcDbLine
 10
267.3621941938268
 20
211.0657176553207
 30
0.0
 11
266.3621941938268
 21
211.0657176553207
 31
0.0
  0
LINE
  5
3087
330
1F
100
AcDbEntity
  8
AM_VIS
100
AcDbLine
 10
271.9479806314538
 20
211.0657176553207
 30
0.0
 11
272.6550874126403
 21
211.0657176553207
 31
0.0
  0
LINE
  5
3088
330
1F
100
AcDbEntity
  8
AM_VIS
100
AcDbLine
 10
272.6550874126403
 20
292.0657176553207
 30
0.0
 11
271.9479806314538
 21
292.0657176553207
 31
0.0
  0
LINE
  5
3089
330
1F
100
AcDbEntity
  8
AM_VIS
100
AcDbLine
 10
266.3621941938268
 20
292.0657176553207
 30
0.0
 11
267.3621941938268
 21
292.0657176553207
 31
0.0
  0
LINE
  5
308A
330
1F
100
AcDbEntity
  8
AM_VIS
100
AcDbLine
 10
294.3621941938268
 20
292.0657176553207
 30
0.0
 11
296.3621941938269
 21
292.0657176553207
 31
0.0
  0
LINE
  5
308B
330
1F
100
AcDbEntity
  8
AM_VIS
100
AcDbLine
 10
277.9835145373865
 20
211.0657176553207
 30
0.0
 11
276.9228543656067
 21
211.0657176553207
 31
0.0
  0
LINE
  5
308C
330
1F
100
AcDbEntity
  8
AM_VIS
100
AcDbLine
 10
276.9228543656067
 20
292.0657176553207
 30
0.0
 11
277.9835145373865
 21
292.0657176553207
 31
0.0
  0
ARC
  5
30D1
330
1F
100
AcDbEntity
  8
AM_4
100
AcDbCircle
 10
151.6857160023363
 20
161.8287299106834
 30
0.0
 40
10.84999999999999
100
AcDbArc
 50
260.0
 51
170.0
  0
LINE
  5
30D2
330
1F
100
AcDbEntity
  8
AM_7
  6
AM_ISO08W050x2
100
AcDbLine
 10
151.6857160023363
 20
175.6787299106834
 30
0.0
 11
151.6857160023363
 21
147.9787299106834
 31
0.0
  0
CIRCLE
  5
30D3
330
1F
100
AcDbEntity
  8
AM_0
100
AcDbCircle
 10
151.6857160023363
 20
161.8287299106834
 30
0.0
 40
9.3155
  0
LINE
  5
30D4
330
1F
100
AcDbEntity
  8
AM_7
  6
AM_ISO08W050x2
100
AcDbLine
 10
137.8357160023362
 20
161.8287299106834
 30
0.0
 11
165.5357160023363
 21
161.8287299106834
 31
0.0
  0
ARC
  5
30DD
330
1F
100
AcDbEntity
  8
AM_4
100
AcDbCircle
 10
180.6857160023362
 20
161.8287299106834
 30
0.0
 40
10.84999999999999
100
AcDbArc
 50
260.0
 51
170.0
  0
LINE
  5
30DE
330
1F
100
AcDbEntity
  8
AM_7
  6
AM_ISO08W050x2
100
AcDbLine
 10
180.6857160023362
 20
175.6787299106834
 30
0.0
 11
180.6857160023362
 21
147.9787299106834
 31
0.0
  0
CIRCLE
  5
30DF
330
1F
100
AcDbEntity
  8
AM_0
100
AcDbCircle
 10
180.6857160023362
 20
161.8287299106834
 30
0.0
 40
9.3155
  0
LINE
  5
30E0
330
1F
100
AcDbEntity
  8
AM_7
  6
AM_ISO08W050x2
100
AcDbLine
 10
166.8357160023362
 20
161.8287299106834
 30
0.0
 11
194.5357160023363
 21
161.8287299106834
 31
0.0
  0
ARC
  5
30E1
330
1F
100
AcDbEntity
  8
AM_4
100
AcDbCircle
 10
209.6857160023363
 20
161.8287299106834
 30
0.0
 40
10.84999999999999
100
AcDbArc
 50
260.0
 51
170.0
  0
LINE
  5
30E2
330
1F
100
AcDbEntity
  8
AM_7
  6
AM_ISO08W050x2
100
AcDbLine
 10
209.6857160023363
 20
175.6787299106834
 30
0.0
 11
209.6857160023363
 21
147.9787299106834
 31
0.0
  0
CIRCLE
  5
30E3
330
1F
100
AcDbEntity
  8
AM_0
100
AcDbCircle
 10
209.6857160023363
 20
161.8287299106834
 30
0.0
 40
9.3155
  0
LINE
  5
30E4
330
1F
100
AcDbEntity
  8
AM_7
  6
AM_ISO08W050x2
100
AcDbLine
 10
195.8357160023362
 20
161.8287299106834
 30
0.0
 11
223.5357160023363
 21
161.8287299106834
 31
0.0
  0
DIMENSION
  5
31CD
102
{ACAD_XDICTIONARY
360
31DA
102
}
102
{ACAD_REACTORS
330
31DB
102
}
330
1F
100
AcDbEntity
  8
AM_5
100
AcDbDimension
  2
*D7
 10
196.6857160023362
 20
199.0657176553207
 30
0.0
 11
181.6857160023362
 21
201.5657176553208
 31
0.0
 70
    32
 71
     5
 42
30.0
  3
AM_ISO$0
100
AcDbAlignedDimension
 13
166.6857160023362
 23
212.2157176553207
 33
0.0
 14
196.6857160023362
 24
212.2157176553207
 34
0.0
 50
0.0000000000002036
100
AcDbRotatedDimension
1001
ACAD
1000
DSTYLE
1002
{
1070
    40
1040
1.0
1070
   144
1040
1.0
1070
   272
1070
     8
1002
}
  0
DIMENSION
  5
31F3
102
{ACAD_XDICTIONARY
360
3202
102
}
102
{ACAD_REACTORS
330
3203
102
}
330
1F
100
AcDbEntity
  8
AM_5
100
AcDbDimension
  2
*D8
 10
241.6857170023363
 20
216.0657176553207
 30
0.0
 11
239.1857170023362
 21
213.5657176553208
 31
0.0
 70
    32
 71
     5
 42
5.0
  3
AM_ISO$0
100
AcDbAlignedDimension
 13
229.6857160023363
 23
211.0657176553207
 33
0.0
 14
200.5357160023363
 24
216.0657176553207
 34
0.0
 50
90.0
100
AcDbRotatedDimension
1001
ACAD
1000
DSTYLE
1002
{
1070
    40
1040
1.0
1070
   144
1040
1.0
1070
   272
1070
     8
1002
}
  0
DIMENSION
  5
321D
102
{ACAD_XDICTIONARY
360
322C
102
}
102
{ACAD_REACTORS
330
322D
102
}
330
1F
100
AcDbEntity
  8
AM_5
100
AcDbDimension
  2
*D9
 10
241.6857170023362
 20
292.0657176553207
 30
0.0
 11
239.1857170023362
 21
289.5657176553208
 31
0.0
 70
    32
 71
     5
 42
5.0
  3
AM_ISO$0
100
AcDbAlignedDimension
 13
200.5357160023363
 23
287.0657176553207
 33
0.0
 14
229.2463761741161
 24
292.0657176553207
 34
0.0
 50
90.0
100
AcDbRotatedDimension
1001
ACAD
1000
DSTYLE
1002
{
1070
    40
1040
1.0
1070
   144
1040
1.0
1070
   272
1070
     8
1002
}
  0
ENDSEC
  0
SECTION
  2
OBJECTS
  0
DICTIONARY
  5
C
330
0
100
AcDbDictionary
281
     1
  3
ACAD_COLOR
350
7D1
  3
ACAD_GROUP
350
D
  3
ACAD_LAYOUT
350
1A
  3
ACAD_MATERIAL
350
7D0
  3
ACAD_MLINESTYLE
350
17
  3
ACAD_PLOTSETTINGS
350
19
  3
ACAD_PLOTSTYLENAME
350
E
  3
ACAD_TABLESTYLE
350
7D2
  3
ACDBHEADERROUNDTRIPXREC
350
34C8
  3
AcDbVariableDictionary
350
82
  3
AcmDictionary
350
45
  3
AMG
350
2B
  3
AMGSNAPSETTINGS
350
87
  3
DWGPROPS
350
34C7
  0
DICTIONARY
  5
AAB
330
2
100
AcDbDictionary
280
     1
281
     1
  3
ACAD_LAYERSTATES
360
AAC
  0
DICTIONARY
  5
7D
330
1F
100
AcDbDictionary
280
     1
281
     1
  3
ACAD_SORTENTS
360
EEA
  0
DICTIONARY
  5
31DA
330
31CD
100
AcDbDictionary
280
     1
281
     1
  3
ACAD_DIMASSOC
360
31DB
  0
DICTIONARY
  5
3202
330
31F3
100
AcDbDictionary
280
     1
281
     1
  3
ACAD_DIMASSOC
360
3203
  0
DICTIONARY
  5
322C
330
321D
100
AcDbDictionary
280
     1
281
     1
  3
ACAD_DIMASSOC
360
322D
  0
DICTIONARY
  5
7D1
102
{ACAD_REACTORS
330
C
102
}
330
C
100
AcDbDictionary
281
     1
  0
DICTIONARY
  5
D
102
{ACAD_REACTORS
330
C
102
}
330
C
100
AcDbDictionary
281
     1
  0
DICTIONARY
  5
1A
102
{ACAD_REACTORS
330
C
102
}
330
C
100
AcDbDictionary
281
     1
  3
Layout1
350
1E
  3
Layout2
350
26
  3
Model
350
22
  0
DICTIONARY
  5
7D0
102
{ACAD_REACTORS
330
C
102
}
330
C
100
AcDbDictionary
281
     1
  0
DICTIONARY
  5
17
102
{ACAD_REACTORS
330
C
102
}
330
C
100
AcDbDictionary
281
     1
  3
Standard
350
18
  0
DICTIONARY
  5
19
102
{ACAD_REACTORS
330
C
102
}
330
C
100
AcDbDictionary
281
     1
  0
ACDBDICTIONARYWDFLT
  5
E
102
{ACAD_REACTORS
330
C
102
}
330
C
100
AcDbDictionary
281
     1
  3
Normal
350
F
100
AcDbDictionaryWithDefault
340
F
  0
DICTIONARY
  5
7D2
102
{ACAD_REACTORS
330
C
102
}
330
C
100
AcDbDictionary
281
     1
  3
Standard
350
7D3
  0
DICTIONARY
  5
34C8
102
{ACAD_REACTORS
330
C
102
}
330
C
100
AcDbDictionary
281
     1
  0
DICTIONARY
  5
82
102
{ACAD_REACTORS
330
C
102
}
330
C
100
AcDbDictionary
281
     1
  3
CTABLESTYLE
350
847
  3
DIMASSOC
350
85
  3
HIDETEXT
350
84
  3
INDEXCTL
350
83
  3
PROJECTNAME
350
848
  0
DICTIONARY
  5
45
102
{ACAD_REACTORS
330
C
102
}
330
C
100
AcDbDictionary
281
     1
  3
AcmStdDictionary
350
4A
  3
AMDTSECTSYM_ARROWCOLOR
350
7DF
  0
DICTIONARY
  5
2B
102
{ACAD_REACTORS
330
C
102
}
330
C
100
AcDbDictionary
281
     1
  0
DICTIONARY
  5
87
102
{ACAD_REACTORS
330
C
102
}
330
C
100
AcDbDictionary
281
     1
  0
XRECORD
  5
34C7
102
{ACAD_REACTORS
330
C
102
}
330
C
100
AcDbXrecord
280
     1
  1
DWGPROPS COOKIE
  2

  3

  4

  6

  7

  8

  9

300
AmdtFileType=84
301
=
302
=
303
=
304
=
305
=
306
=
307
=
308
=
309
=
 40
0.4644233449074074
 41
2453021.369367211
 42
2453514.593235486
  1

 90
        1
  0
DICTIONARY
  5
AAC
102
{ACAD_REACTORS
330
AAB
102
}
330
AAB
100
AcDbDictionary
281
     1
  0
SORTENTSTABLE
  5
EEA
102
{ACAD_REACTORS
330
7D
102
}
330
7D
100
AcDbSortentsTable
330
1F
331
1445
  5
1445
331
144D
  5
144D
331
163B
  5
163B
331
1604
  5
1604
331
1455
  5
1455
331
3088
  5
3088
331
300A
  5
300A
331
13F6
  5
13F6
331
3051
  5
3051
331
3012
  5
3012
331
3059
  5
3059
331
301A
  5
301A
331
3022
  5
3022
331
13FE
  5
13FE
331
145D
  5
145D
331
1465
  5
1465
331
146D
  5
146D
331
3061
  5
3061
331
302A
  5
302A
331
1475
  5
1475
331
143E
  5
143E
331
3071
  5
3071
331
2CCB
  5
2CCB
331
3032
  5
3032
331
3079
  5
3079
331
3042
  5
3042
331
3081
  5
3081
331
1634
  5
1634
331
163C
  5
163C
331
144E
  5
144E
331
1644
  5
1644
331
1605
  5
1605
331
1456
  5
1456
331
3089
  5
3089
331
300B
  5
300B
331
2B73
  5
2B73
331
13F7
  5
13F7
331
3052
  5
3052
331
3013
  5
3013
331
305A
  5
305A
331
301B
  5
301B
331
30D1
  5
30D1
331
3023
  5
3023
331
1615
  5
1615
331
13FF
  5
13FF
331
1664
  5
1664
331
161D
  5
161D
331
1466
  5
1466
331
146E
  5
146E
331
3062
  5
3062
331
302B
  5
302B
331
162D
  5
162D
331
1476
  5
1476
331
143F
  5
143F
331
3072
  5
3072
331
2CCC
  5
2CCC
331
3033
  5
3033
331
307A
  5
307A
331
303B
  5
303B
331
3043
  5
3043
331
3082
  5
3082
331
1635
  5
1635
331
163D
  5
163D
331
1457
  5
1457
331
308A
  5
308A
331
300C
  5
300C
331
3053
  5
3053
331
3014
  5
3014
331
305B
  5
305B
331
301C
  5
301C
331
30D2
  5
30D2
331
3024
  5
3024
331
13F8
  5
13F8
331
1616
  5
1616
331
1400
  5
1400
331
1467
  5
1467
331
1626
  5
1626
331
146F
  5
146F
331
3063
  5
3063
331
302C
  5
302C
331
162E
  5
162E
331
1477
  5
1477
331
3073
  5
3073
331
2CCD
  5
2CCD
331
3034
  5
3034
331
307B
  5
307B
331
303C
  5
303C
331
3044
  5
3044
331
3083
  5
3083
331
1440
  5
1440
331
1636
  5
1636
331
163E
  5
163E
331
2B4D
  5
2B4D
331
13F1
  5
13F1
331
308B
  5
308B
331
300D
  5
300D
331
160F
  5
160F
331
3054
  5
3054
331
3015
  5
3015
331
305C
  5
305C
331
301D
  5
301D
331
30D3
  5
30D3
331
3025
  5
3025
331
13F9
  5
13F9
331
1458
  5
1458
331
1401
  5
1401
331
1627
  5
1627
331
1470
  5
1470
331
3064
  5
3064
331
302D
  5
302D
331
2BE5
  5
2BE5
331
162F
  5
162F
331
3074
  5
3074
331
3035
  5
3035
331
307C
  5
307C
331
303D
  5
303D
331
3045
  5
3045
331
3084
  5
3084
331
1478
  5
1478
331
1441
  5
1441
331
1637
  5
1637
331
1449
  5
1449
331
1647
  5
1647
331
13F2
  5
13F2
331
304D
  5
304D
331
308C
  5
308C
331
300E
  5
300E
331
3016
  5
3016
331
305D
  5
305D
331
301E
  5
301E
331
30D4
  5
30D4
331
3026
  5
3026
331
1610
  5
1610
331
13FA
  5
13FA
331
1459
  5
1459
331
1402
  5
1402
331
1461
  5
1461
331
1620
  5
1620
331
1432
  5
1432
331
1628
  5
1628
331
1471
  5
1471
331
3065
  5
3065
331
302E
  5
302E
331
3075
  5
3075
331
3036
  5
3036
331
307D
  5
307D
331
303E
  5
303E
331
3046
  5
3046
331
3007
  5
3007
331
3085
  5
3085
331
1630
  5
1630
331
1479
  5
1479
331
1442
  5
1442
331
1638
  5
1638
331
1640
  5
1640
331
1452
  5
1452
331
13F3
  5
13F3
331
304E
  5
304E
331
300F
  5
300F
331
3017
  5
3017
331
305E
  5
305E
331
301F
  5
301F
331
3027
  5
3027
331
1648
  5
1648
331
13FB
  5
13FB
331
1403
  5
1403
331
1433
  5
1433
331
1629
  5
1629
331
1472
  5
1472
331
3066
  5
3066
331
302F
  5
302F
331
3076
  5
3076
331
2D18
  5
2D18
331
307E
  5
307E
331
303F
  5
303F
331
3086
  5
3086
331
1631
  5
1631
331
1443
  5
1443
331
1639
  5
1639
331
2C57
  5
2C57
331
1641
  5
1641
331
1602
  5
1602
331
1453
  5
1453
331
160A
  5
160A
331
13F4
  5
13F4
331
3008
  5
3008
331
304F
  5
304F
331
3010
  5
3010
331
3018
  5
3018
331
305F
  5
305F
331
3020
  5
3020
331
13FC
  5
13FC
331
161A
  5
161A
331
1404
  5
1404
331
146B
  5
146B
331
1434
  5
1434
331
1473
  5
1473
331
3028
  5
3028
331
3030
  5
3030
331
3077
  5
3077
331
3040
  5
3040
331
307F
  5
307F
331
3087
  5
3087
331
1632
  5
1632
331
1444
  5
1444
331
163A
  5
163A
331
1642
  5
1642
331
1603
  5
1603
331
1454
  5
1454
331
160B
  5
160B
331
13F5
  5
13F5
331
3009
  5
3009
331
3050
  5
3050
331
3011
  5
3011
331
3019
  5
3019
331
3021
  5
3021
331
13FD
  5
13FD
331
2B99
  5
2B99
331
1405
  5
1405
331
1623
  5
1623
331
146C
  5
146C
331
3060
  5
3060
331
1474
  5
1474
331
143D
  5
143D
331
3029
  5
3029
331
2CCA
  5
2CCA
331
3031
  5
3031
331
3078
  5
3078
331
3041
  5
3041
331
3080
  5
3080
  0
DIMASSOC
  5
31DB
102
{ACAD_REACTORS
330
31DA
102
}
330
31DA
100
AcDbDimAssoc
330
31CD
 90
        3
 70
     0
 71
     0
  1
AcDbOsnapPointRef
 72
    13
331
300B
 73
     0
 91
        0
 40
0.0
 10
0.0
 20
0.0
 30
2.000000000000000E+50
 75
     0
  1
AcDbOsnapPointRef
 72
    13
331
3017
 73
     0
 91
        0
 40
0.0
 10
0.0
 20
0.0
 30
2.000000000000000E+50
 75
     0
  0
DIMASSOC
  5
3203
102
{ACAD_REACTORS
330
3202
102
}
330
3202
100
AcDbDimAssoc
330
31F3
 90
        3
 70
     0
 71
     0
  1
AcDbOsnapPointRef
 72
    13
331
307B
 73
     0
 91
        0
 40
0.0
 10
0.0
 20
0.0
 30
2.000000000000000E+50
 75
     0
  1
AcDbOsnapPointRef
 72
     1
331
3016
 73
     0
 91
        0
 40
0.0
 10
0.0
 20
0.0
 30
2.000000000000000E+50
 75
     0
  0
DIMASSOC
  5
322D
102
{ACAD_REACTORS
330
322C
102
}
330
322C
100
AcDbDimAssoc
330
321D
 90
        3
 70
     0
 71
     0
  1
AcDbOsnapPointRef
 72
     1
331
301C
 73
     0
 91
        0
 40
0.0
 10
0.0
 20
0.0
 30
2.000000000000000E+50
 75
     0
  1
AcDbOsnapPointRef
 72
    13
331
307C
 73
     0
 91
        0
 40
0.0
 10
0.0
 20
0.0
 30
2.000000000000000E+50
 75
     0
  0
LAYOUT
  5
1E
102
{ACAD_XDICTIONARY
360
34C9
102
}
102
{ACAD_REACTORS
330
1A
102
}
330
1A
100
AcDbPlotSettings
  1

  2
自動 RD 上的 Epson Stylus Photo 750 單色
  4

  6

 40
0.0
 41
0.0
 42
0.0
 43
0.0
 44
0.0
 45
0.0
 46
0.0
 47
0.0
 48
0.0
 49
0.0
140
0.0
141
0.0
142
1.0
143
1.0
 70
   688
 72
     0
 73
     0
 74
     5
  7
彩色出圖.ctb
 75
    16
147
1.0
148
0.0
149
0.0
100
AcDbLayout
  1
Layout1
 70
     1
 71
     1
 10
0.0
 20
0.0
 11
420.0
 21
297.0
 12
0.0
 22
0.0
 32
0.0
 14
1.000000000000000E+20
 24
1.000000000000000E+20
 34
1.000000000000000E+20
 15
-1.000000000000000E+20
 25
-1.000000000000000E+20
 35
-1.000000000000000E+20
146
0.0
 13
0.0
 23
0.0
 33
0.0
 16
1.0
 26
0.0
 36
0.0
 17
0.0
 27
1.0
 37
0.0
 76
     0
330
1B
  0
LAYOUT
  5
26
102
{ACAD_XDICTIONARY
360
34CD
102
}
102
{ACAD_REACTORS
330
1A
102
}
330
1A
100
AcDbPlotSettings
  1

  2
自動 RD 上的 Epson Stylus Photo 750 單色
  4

  6

 40
0.0
 41
0.0
 42
0.0
 43
0.0
 44
0.0
 45
0.0
 46
0.0
 47
0.0
 48
0.0
 49
0.0
140
0.0
141
0.0
142
1.0
143
1.0
 70
   688
 72
     0
 73
     0
 74
     5
  7
彩色出圖.ctb
 75
    16
147
1.0
148
0.0
149
0.0
100
AcDbLayout
  1
Layout2
 70
     1
 71
     2
 10
0.0
 20
0.0
 11
12.0
 21
9.0
 12
0.0
 22
0.0
 32
0.0
 14
0.0
 24
0.0
 34
0.0
 15
0.0
 25
0.0
 35
0.0
146
0.0
 13
0.0
 23
0.0
 33
0.0
 16
1.0
 26
0.0
 36
0.0
 17
0.0
 27
1.0
 37
0.0
 76
     0
330
23
  0
LAYOUT
  5
22
102
{ACAD_XDICTIONARY
360
34CB
102
}
102
{ACAD_REACTORS
330
1A
102
}
330
1A
100
AcDbPlotSettings
  1

  2
自動 RD 上的 Epson Stylus Photo 750 單色
  4
A4
  6

 40
3.757083177566528
 41
14.7637300491333
 42
3.757080078125
 43
3.757080078125
 44
209.9733276367187
 45
296.9683227539062
 46
7.54
 47
0.0
 48
0.0
 49
0.0
140
0.0
141
0.0
142
1.0
143
1.817317462545654
 70
 11956
 72
     1
 73
     0
 74
     1
  7
彩色出圖.ctb
 75
     0
147
0.5502615919395967
148
-125.5654918467224
149
222.8859553785132
100
AcDbLayout
  1
Model
 70
     1
 71
     0
 10
0.0
 20
0.0
 11
12.0
 21
9.0
 12
0.0
 22
0.0
 32
0.0
 14
0.0
 24
0.0
 34
0.0
 15
0.0
 25
0.0
 35
0.0
146
0.0
 13
0.0
 23
0.0
 33
0.0
 16
1.0
 26
0.0
 36
0.0
 17
0.0
 27
1.0
 37
0.0
 76
     0
330
1F
  0
MLINESTYLE
  5
18
102
{ACAD_REACTORS
330
17
102
}
330
17
100
AcDbMlineStyle
  2
STANDARD
 70
     0
  3

 62
   256
 51
90.0
 52
90.0
 71
     2
 49
0.5
 62
   256
  6
BYLAYER
 49
-0.5
 62
   256
  6
BYLAYER
  0
ACDBPLACEHOLDER
  5
F
102
{ACAD_REACTORS
330
E
102
}
330
E
  0
TABLESTYLE
  5
7D3
102
{ACAD_REACTORS
330
7D2
102
}
330
7D2
100
AcDbTableStyle
  3
Standard
 70
     0
 71
     0
 40
1.5
 41
1.5
280
     0
281
     0
  7
STANDARD
140
4.5
170
     2
 62
     0
 63
     7
283
     0
274
    -2
284
     1
 64
     0
275
    -2
285
     1
 65
     0
276
    -2
286
     1
 66
     0
277
    -2
287
     1
 67
     0
278
    -2
288
     1
 68
     0
279
    -2
289
     1
 69
     0
  7
STANDARD
140
6.0
170
     5
 62
     0
 63
     7
283
     0
274
    -2
284
     1
 64
     0
275
    -2
285
     1
 65
     0
276
    -2
286
     1
 66
     0
277
    -2
287
     1
 67
     0
278
    -2
288
     1
 68
     0
279
    -2
289
     1
 69
     0
  7
STANDARD
140
4.5
170
     5
 62
     0
 63
     7
283
     0
274
    -2
284
     1
 64
     0
275
    -2
285
     1
 65
     0
276
    -2
286
     1
 66
     0
277
    -2
287
     1
 67
     0
278
    -2
288
     1
 68
     0
279
    -2
289
     1
 69
     0
  0
DICTIONARYVAR
  5
847
102
{ACAD_REACTORS
330
82
102
}
330
82
100
DictionaryVariables
280
     0
  1
STANDARD
  0
DICTIONARYVAR
  5
85
102
{ACAD_REACTORS
330
82
102
}
330
82
100
DictionaryVariables
280
     0
  1
2
  0
DICTIONARYVAR
  5
84
102
{ACAD_REACTORS
330
82
102
}
330
82
100
DictionaryVariables
280
     0
  1
1
  0
DICTIONARYVAR
  5
83
102
{ACAD_REACTORS
330
82
102
}
330
82
100
DictionaryVariables
280
     0
  1
0
  0
DICTIONARYVAR
  5
848
102
{ACAD_REACTORS
330
82
102
}
330
82
100
DictionaryVariables
280
     0
  1

  0
DICTIONARY
  5
4A
102
{ACAD_REACTORS
330
45
102
}
330
45
100
AcDbDictionary
281
     1
  0
XRECORD
  5
7DF
102
{ACAD_REACTORS
330
45
102
}
330
45
100
AcDbXrecord
280
     1
 90
-1023410169
  0
DICTIONARY
  5
34C9
330
1E
100
AcDbDictionary
280
     1
281
     1
  3
ACAD_XREC_ROUNDTRIP
360
34CA
  0
DICTIONARY
  5
34CD
330
26
100
AcDbDictionary
280
     1
281
     1
  3
ACAD_XREC_ROUNDTRIP
360
34CE
  0
DICTIONARY
  5
34CB
330
22
100
AcDbDictionary
280
     1
281
     1
  3
ACAD_XREC_ROUNDTRIP
360
34CC
  0
XRECORD
  5
34CA
102
{ACAD_REACTORS
330
34C9
102
}
330
34C9
100
AcDbXrecord
280
     1
102
SHADEPLOT
 70
     0
102
SHADEPLOTRESLEVEL
 70
     2
102
SHADEPLOTCUSTOMDPI
 70
   300
  0
XRECORD
  5
34CE
102
{ACAD_REACTORS
330
34CD
102
}
330
34CD
100
AcDbXrecord
280
     1
102
SHADEPLOT
 70
     0
102
SHADEPLOTRESLEVEL
 70
     2
102
SHADEPLOTCUSTOMDPI
 70
   300
  0
XRECORD
  5
34CC
102
{ACAD_REACTORS
330
34CB
102
}
330
34CB
100
AcDbXrecord
280
     1
102
SHADEPLOT
 70
     0
102
SHADEPLOTRESLEVEL
 70
     2
102
SHADEPLOTCUSTOMDPI
 70
   300
  0
ENDSEC
  0
EOF
