  0
SECTION
  2
HEADER
  9
$ACADVER
  1
AC1012
  9
$DWGCODEPAGE
  3
big5
  9
$INSBASE
 10
0.0
 20
0.0
 30
0.0
  9
$EXTMIN
 10
2031.090767221406
 20
309.3326987579632
 30
-0.0000000000000011
  9
$EXTMAX
 10
2288.630684591564
 20
553.5605043369737
 30
0.0000000000000295
  9
$LIMMIN
 10
0.0
 20
0.0
  9
$LIMMAX
 10
420.0
 20
297.0
  9
$ORTHOMODE
 70
     0
  9
$REGENMODE
 70
     1
  9
$FILLMODE
 70
     1
  9
$QTEXTMODE
 70
     0
  9
$MIRRTEXT
 70
     1
  9
$DRAGMODE
 70
     2
  9
$LTSCALE
 40
7.0
  9
$OSMODE
 70
    55
  9
$ATTMODE
 70
     1
  9
$TEXTSIZE
 40
10.0
  9
$TRACEWID
 40
1.0
  9
$TEXTSTYLE
  7
DAYUS
  9
$CLAYER
  8
0
  9
$CELTYPE
  6
BYLAYER
  9
$CECOLOR
 62
   256
  9
$CELTSCALE
 40
1.0
  9
$DELOBJ
 70
     1
  9
$DISPSILH
 70
     0
  9
$DIMSCALE
 40
1.0
  9
$DIMASZ
 40
3.0
  9
$DIMEXO
 40
1.5
  9
$DIMDLI
 40
7.0
  9
$DIMRND
 40
0.0
  9
$DIMDLE
 40
0.0
  9
$DIMEXE
 40
2.0
  9
$DIMTP
 40
0.01
  9
$DIMTM
 40
0.01
  9
$DIMTXT
 40
3.0
  9
$DIMCEN
 40
3.0
  9
$DIMTSZ
 40
0.0
  9
$DIMTOL
 70
     0
  9
$DIMLIM
 70
     0
  9
$DIMTIH
 70
     0
  9
$DIMTOH
 70
     0
  9
$DIMSE1
 70
     0
  9
$DIMSE2
 70
     0
  9
$DIMTAD
 70
     3
  9
$DIMZIN
 70
     8
  9
$DIMBLK
  1

  9
$DIMASO
 70
     1
  9
$DIMSHO
 70
     1
  9
$DIMPOST
  1

  9
$DIMAPOST
  1

  9
$DIMALT
 70
     0
  9
$DIMALTD
 70
     2
  9
$DIMALTF
 40
25.4
  9
$DIMLFAC
 40
1.0
  9
$DIMTOFL
 70
     1
  9
$DIMTVP
 40
0.0
  9
$DIMTIX
 70
     0
  9
$DIMSOXD
 70
     0
  9
$DIMSAH
 70
     0
  9
$DIMBLK1
  1

  9
$DIMBLK2
  1

  9
$DIMSTYLE
  2
STANDARD
  9
$DIMCLRD
 70
     5
  9
$DIMCLRE
 70
     5
  9
$DIMCLRT
 70
     5
  9
$DIMTFAC
 40
0.6
  9
$DIMGAP
 40
0.8
  9
$DIMJUST
 70
     0
  9
$DIMSD1
 70
     0
  9
$DIMSD2
 70
     0
  9
$DIMTOLJ
 70
     1
  9
$DIMTZIN
 70
     8
  9
$DIMALTZ
 70
     0
  9
$DIMALTTZ
 70
     0
  9
$DIMFIT
 70
     3
  9
$DIMUPT
 70
     0
  9
$DIMUNIT
 70
     2
  9
$DIMDEC
 70
     2
  9
$DIMTDEC
 70
     2
  9
$DIMALTU
 70
     2
  9
$DIMALTTD
 70
     2
  9
$DIMTXSTY
  7
DAYUS
  9
$DIMAUNIT
 70
     0
  9
$LUNITS
 70
     2
  9
$LUPREC
 70
     2
  9
$SKETCHINC
 40
1.0
  9
$FILLETRAD
 40
2.5
  9
$AUNITS
 70
     0
  9
$AUPREC
 70
     0
  9
$MENU
  1
.
  9
$ELEVATION
 40
0.0
  9
$PELEVATION
 40
0.0
  9
$THICKNESS
 40
0.0
  9
$LIMCHECK
 70
     0
  9
$BLIPMODE
 70
     0
  9
$CHAMFERA
 40
2.5
  9
$CHAMFERB
 40
2.5
  9
$CHAMFERC
 40
20.0
  9
$CHAMFERD
 40
0.0
  9
$SKPOLY
 70
     0
  9
$TDCREATE
 40
2452292.457678333
  9
$TDUPDATE
 40
2452705.592369467
  9
$TDINDWG
 40
1.9654536227
  9
$TDUSRTIMER
 40
1.9654535069
  9
$USRTIMER
 70
     1
  9
$ANGBASE
 50
0.0
  9
$ANGDIR
 70
     0
  9
$PDMODE
 70
     0
  9
$PDSIZE
 40
0.0
  9
$PLINEWID
 40
0.0
  9
$COORDS
 70
     0
  9
$SPLFRAME
 70
     0
  9
$SPLINETYPE
 70
     6
  9
$SPLINESEGS
 70
     8
  9
$ATTDIA
 70
     1
  9
$ATTREQ
 70
     1
  9
$HANDLING
 70
 22529
  9
$HANDSEED
  5
26B64
  9
$SURFTAB1
 70
     6
  9
$SURFTAB2
 70
     6
  9
$SURFTYPE
 70
     6
  9
$SURFU
 70
     6
  9
$SURFV
 70
     6
  9
$UCSNAME
  2

  9
$UCSORG
 10
0.0
 20
0.0
 30
0.0
  9
$UCSXDIR
 10
1.0
 20
0.0
 30
0.0
  9
$UCSYDIR
 10
0.0
 20
1.0
 30
0.0
  9
$PUCSNAME
  2

  9
$PUCSORG
 10
0.0
 20
0.0
 30
0.0
  9
$PUCSXDIR
 10
1.0
 20
0.0
 30
0.0
  9
$PUCSYDIR
 10
0.0
 20
1.0
 30
0.0
  9
$USERI1
 70
     0
  9
$USERI2
 70
     0
  9
$USERI3
 70
     0
  9
$USERI4
 70
     0
  9
$USERI5
 70
     0
  9
$USERR1
 40
0.0
  9
$USERR2
 40
0.0
  9
$USERR3
 40
0.0
  9
$USERR4
 40
0.0
  9
$USERR5
 40
0.0
  9
$WORLDVIEW
 70
     1
  9
$SHADEDGE
 70
     3
  9
$SHADEDIF
 70
    70
  9
$TILEMODE
 70
     1
  9
$MAXACTVP
 70
    48
  9
$PINSBASE
 10
0.0
 20
0.0
 30
0.0
  9
$PLIMCHECK
 70
     0
  9
$PEXTMIN
 10
1.000000000000000E+20
 20
1.000000000000000E+20
 30
1.000000000000000E+20
  9
$PEXTMAX
 10
-1.000000000000000E+20
 20
-1.000000000000000E+20
 30
-1.000000000000000E+20
  9
$PLIMMIN
 10
0.0
 20
0.0
  9
$PLIMMAX
 10
420.0
 20
297.0
  9
$UNITMODE
 70
     0
  9
$VISRETAIN
 70
     1
  9
$PLINEGEN
 70
     0
  9
$PSLTSCALE
 70
     1
  9
$TREEDEPTH
 70
  3020
  9
$PICKSTYLE
 70
     0
  9
$CMLSTYLE
  2
STANDARD
  9
$CMLJUST
 70
     0
  9
$CMLSCALE
 40
20.0
  9
$SAVEIMAGES
 70
     1
  0
ENDSEC
  0
SECTION
  2
CLASSES
  0
CLASS
  1
ACDBDICTIONARYWDFLT
  2
AcDbDictionaryWithDefault
  3
AutoCAD 2000
 90
    32768
280
     0
281
     0
  0
CLASS
  1
ACDBPLACEHOLDER
  2
AcDbPlaceHolder
  3
AutoCAD 2000
 90
    32768
280
     0
281
     0
  0
CLASS
  1
LAYOUT
  2
AcDbLayout
  3
AutoCAD 2000
 90
    32768
280
     0
281
     0
  0
CLASS
  1
AMGSETTINGSOBJ
  2
AmgSettingsObj
  3
"AcadM|Product Description: AutoCAD Mechanical 2000|Company: Autodesk"
 90
    32768
280
     0
281
     0
  0
CLASS
  1
ACME_DOCUMENT
  2
AcMeDbDoc
  3
AcMeServices
 90
    32768
280
     0
281
     0
  0
CLASS
  1
ACMESCOPE
  2
AcMeScope
  3
AcMeServices
 90
    32768
280
     0
281
     0
  0
CLASS
  1
ACMECOMMANDHISTORY
  2
AcMeCommandHistory
  3
AcMeServices
 90
    32768
280
     0
281
     0
  0
CLASS
  1
DICTIONARYVAR
  2
AcDbDictionaryVar
  3
AutoCAD 2000
 90
    32768
280
     0
281
     0
  0
CLASS
  1
ACIMSYSVARMAN
  2
AcImSysVarManager
  3
AcMeServices
 90
    32768
280
     0
281
     0
  0
CLASS
  1
ACIMREALSYSVAR
  2
AcImRealSysVar
  3
AcMeServices
 90
    32768
280
     0
281
     0
  0
CLASS
  1
ACIMINTSYSVAR
  2
AcImIntSysVar
  3
AcMeServices
 90
    32768
280
     0
281
     0
  0
CLASS
  1
ACMEDRAWINGMAN
  2
AcMeDrawingMan
  3
AcMeServices
 90
    32768
280
     0
281
     0
  0
CLASS
  1
ACMEVIEW
  2
AcMeView
  3
AcMeServices
 90
    32768
280
     0
281
     0
  0
CLASS
  1
ACDBENTITYCACHE
  2
AcMeEntityCache
  3
AcMeServices
 90
    32768
280
     0
281
     0
  0
CLASS
  1
GSMANAGER
  2
AcMeGSManager
  3
AcMeServices
 90
    32768
280
     0
281
     0
  0
CLASS
  1
AMDTINTERNALREACTOR
  2
AmdtInternalReactor
  3
AcMeServices
 90
    32768
280
     0
281
     0
  0
CLASS
  1
ACMESTATEMGR
  2
AcMeStateMgr
  3
AcMeServices
 90
    32768
280
     0
281
     0
  0
CLASS
  1
ACME_DATABASE
  2
AcMeDbDatabase
  3
AcMeServices
 90
    32768
280
     0
281
     0
  0
CLASS
  1
ACRFINSADJUSTERMGR
  2
AcRfInsAdjusterMgr
  3
AcMeServices
 90
    32768
280
     0
281
     0
  0
CLASS
  1
ACMDATADICTIONARY
  2
AcmDataDictionary
  3
"AcmSymBB|Product Description: AutoCAD Mechanical 2000|Company: Autodesk"
 90
    32768
280
     0
281
     0
  0
CLASS
  1
ACMDATAENTRYBLOCK
  2
AcmDataEntryBlock
  3
"AcmSymBB|Product Description: AutoCAD Mechanical 2000|Company: Autodesk"
 90
    32768
280
     0
281
     0
  0
CLASS
  1
AMGOBJPROPCFG
  2
AmgObjPropCfg
  3
"AmgLay|Product Description: AutoCAD Mechanical 2000|Company: Autodesk"
 90
    32769
280
     0
281
     0
  0
CLASS
  1
ACAMGFILTERDAT
  2
AcAmgFilterDat
  3
"AcadM|Product Description: AutoCAD Mechanical 2000|Company: Autodesk"
 90
    32768
280
     0
281
     0
  0
CLASS
  1
LAYER_INDEX
  2
AcDbLayerIndex
  3
AutoCAD 2000
 90
    32768
280
     0
281
     0
  0
CLASS
  1
IDBUFFER
  2
AcDbIdBuffer
  3
AutoCAD 2000
 90
    32768
280
     0
281
     0
  0
CLASS
  1
ACIMSTRSYSVAR
  2
AcImStrSysVar
  3
AcMeServices
 90
    32768
280
     0
281
     0
  0
CLASS
  1
ACMSTANDARDISO
  2
AcmStandardISO
  3
"Amdt_StdImp|Product Description: AutoCAD Mechanical 2000|Company: Autodesk"
 90
    32768
280
     0
281
     0
  0
CLASS
  1
AMDTEDGESTANDARDISO
  2
AmdtEdgeStdISO
  3
"Amdt_StdImp|Product Description: AutoCAD Mechanical 2000|Company: Autodesk"
 90
    32768
280
     0
281
     0
  0
CLASS
  1
ACMSURFSTANDARDISO
  2
AcmSurfTextStdISO
  3
"Amdt_StdImp|Product Description: AutoCAD Mechanical 2000|Company: Autodesk"
 90
    32768
280
     0
281
     0
  0
CLASS
  1
ACMFCFSTANDARDISO
  2
AcmFCFStdISO
  3
"Amdt_StdImp|Product Description: AutoCAD Mechanical 2000|Company: Autodesk"
 90
    32768
280
     0
281
     0
  0
CLASS
  1
ACMWELDSTANDARDISO
  2
AcmWeldingStdISO
  3
"Amdt_StdImp|Product Description: AutoCAD Mechanical 2000|Company: Autodesk"
 90
    32768
280
     0
281
     0
  0
CLASS
  1
ACMIDSTANDARDISO
  2
AcmIdStdISO
  3
"Amdt_StdImp|Product Description: AutoCAD Mechanical 2000|Company: Autodesk"
 90
    32768
280
     0
281
     0
  0
CLASS
  1
ACMDATUMSTANDARDISO
  2
AcmDatumStdISO
  3
"Amdt_StdImp|Product Description: AutoCAD Mechanical 2000|Company: Autodesk"
 90
    32768
280
     0
281
     0
  0
CLASS
  1
ACMBOMSTANDARDISO
  2
AcmBOMStdISO
  3
"Amdt_StdImp|Product Description: AutoCAD Mechanical 2000|Company: Autodesk"
 90
    32768
280
     0
281
     0
  0
CLASS
  1
AMDTNOTE
  2
AmdtNote
  3
"AcmSymBB|Product Description: AutoCAD Mechanical 2000|Company: Autodesk"
 90
    33791
280
     0
281
     1
  0
CLASS
  1
ACGREFMASTER
  2
AcGrefMaster
  3
AcAttribServices
 90
    32768
280
     0
281
     0
  0
CLASS
  1
ACGREFACADMASTER
  2
AcGrefacadMaster
  3
AcGrefServices
 90
    32768
280
     0
281
     0
  0
CLASS
  1
AMIMASTER
  2
AmiMaster
  3
AmiServices
 90
    32768
280
     0
281
     0
  0
CLASS
  1
ACAMGTITLESTD
  2
AcAmgTitleStd
  3
"TITLEAPP"
 90
    32768
280
     0
281
     0
  0
CLASS
  1
ACMDETAILSTANDARDISO
  2
AmdtDetailSymStdISO
  3
"Amdt_StdImp|Product Description: AutoCAD Mechanical 2000|Company: Autodesk"
 90
    32768
280
     0
281
     0
  0
CLASS
  1
ACMSECTIONSTANDARDISO
  2
AmdtSectionSymStdISO
  3
"Amdt_StdImp|Product Description: AutoCAD Mechanical 2000|Company: Autodesk"
 90
    32768
280
     0
281
     0
  0
CLASS
  1
ACMCENTERLINESTANDARDISO
  2
AmdtCenterLineStdISO
  3
"Amdt_StdImp|Product Description: AutoCAD Mechanical 2000|Company: Autodesk"
 90
    32768
280
     0
281
     0
  0
CLASS
  1
ACMNOTESTANDARDISO
  2
AmdtNoteStdISO
  3
"Amdt_StdImp|Product Description: AutoCAD Mechanical 2000|Company: Autodesk"
 90
    32768
280
     0
281
     0
  0
CLASS
  1
ACAMGLAYSTD
  2
AcAmgLayStd
  3
"AcAmgLayStd|Product Description: AutoCAD Mechanical 2000|Company: Autodesk"
 90
    32768
280
     0
281
     0
  0
CLASS
  1
ACAMGDIMSTD
  2
AcAmgDimStd
  3
"AcAmgDimStd|Product Description: AutoCAD Mechanical 2000|Company: Autodesk"
 90
    32768
280
     0
281
     0
  0
CLASS
  1
ACAMGHOLECHARTSTDISO
  2
AcAmgHoleChartStdISO
  3
ACMSYMBB_MODULE_NAME
 90
    32768
280
     0
281
     0
  0
CLASS
  1
AMDTFORMULAUPDATEDISPATCHER
  2
AmdtFormulaUpdateDispatcher
  3
AcMeServices
 90
    32768
280
     0
281
     0
  0
CLASS
  1
ACMSTANDARDANSI
  2
AcmStandardANSI
  3
"Amdt_StdImp|Product Description: AutoCAD Mechanical 2000|Company: Autodesk"
 90
    32768
280
     0
281
     0
  0
CLASS
  1
ACMSURFSTANDARDANSI
  2
AcmSurfTextStdANSI
  3
"Amdt_StdImp|Product Description: AutoCAD Mechanical 2000|Company: Autodesk"
 90
    32768
280
     0
281
     0
  0
CLASS
  1
ACMFCFSTANDARDANSI
  2
AcmFCFStdANSI
  3
"Amdt_StdImp|Product Description: AutoCAD Mechanical 2000|Company: Autodesk"
 90
    32768
280
     0
281
     0
  0
CLASS
  1
ACMWELDSTANDARDANSI
  2
AcmWeldingStdANSI
  3
"Amdt_StdImp|Product Description: AutoCAD Mechanical 2000|Company: Autodesk"
 90
    32768
280
     0
281
     0
  0
CLASS
  1
ACMIDSTANDARDANSI
  2
AcmIdStdANSI
  3
"Amdt_StdImp|Product Description: AutoCAD Mechanical 2000|Company: Autodesk"
 90
    32768
280
     0
281
     0
  0
CLASS
  1
ACMDATUMSTANDARDANSI
  2
AcmDatumStdANSI
  3
"Amdt_StdImp|Product Description: AutoCAD Mechanical 2000|Company: Autodesk"
 90
    32768
280
     0
281
     0
  0
CLASS
  1
ACMBOMSTANDARDANSI
  2
AcmBOMStdANSI
  3
"Amdt_StdImp|Product Description: AutoCAD Mechanical 2000|Company: Autodesk"
 90
    32768
280
     0
281
     0
  0
CLASS
  1
ACMDETAILSTANDARDANSI
  2
AmdtDetailSymStdANSI
  3
"Amdt_StdImp|Product Description: AutoCAD Mechanical 2000|Company: Autodesk"
 90
    32768
280
     0
281
     0
  0
CLASS
  1
ACMSECTIONSTANDARDANSI
  2
AmdtSectionSymStdANSI
  3
"Amdt_StdImp|Product Description: AutoCAD Mechanical 2000|Company: Autodesk"
 90
    32768
280
     0
281
     0
  0
CLASS
  1
ACMCENTERLINESTANDARDANSI
  2
AmdtCenterLineStdANSI
  3
"Amdt_StdImp|Product Description: AutoCAD Mechanical 2000|Company: Autodesk"
 90
    32768
280
     0
281
     0
  0
CLASS
  1
ACMNOTESTANDARDANSI
  2
AmdtNoteStdANSI
  3
"Amdt_StdImp|Product Description: AutoCAD Mechanical 2000|Company: Autodesk"
 90
    32768
280
     0
281
     0
  0
CLASS
  1
ACAMGHOLECHARTSTDANSI
  2
AcAmgHoleChartStdANSI
  3
ACMSYMBB_MODULE_NAME
 90
    32768
280
     0
281
     0
  0
CLASS
  1
DIMASSOC
  2
AcDbDimAssoc
  3
"AcDbDimAssoc|Product Desc:     AcDim ARX App For Dimension|Company:          Autodesk, Inc.|WEB Address:      www.autodesk.com"
 90
    32768
280
     0
281
     0
  0
CLASS
  1
ACDB_PROXY_ENTITY_DATA
  2
AcDbProxyEntityData
  3
AutoCAD 2000
 90
    32768
280
     0
281
     0
  0
CLASS
  1
ACAD_PROXY_OBJECT_WRAPPER
  2
AcDbProxyObjectWrapper
  3
AutoCAD 2000
 90
    32768
280
     0
281
     0
  0
CLASS
  1
ACAD_PROXY_ENTITY_WRAPPER
  2
AcDbProxyEntityWrapper
  3
AutoCAD 2000
 90
    32768
280
     0
281
     1
  0
CLASS
  1
LONG_TRANSACTION
  2
AcDbLongTransaction
  3
AutoCAD 2000
 90
    32768
280
     0
281
     0
  0
CLASS
  1
LWPOLYLINE
  2
AcDbPolyline
  3
AutoCAD 2000
 90
    32768
280
     0
281
     1
  0
CLASS
  1
HATCH
  2
AcDbHatch
  3
AutoCAD 2000
 90
    32768
280
     0
281
     1
  0
CLASS
  1
XRECORD
  2
AcDbXrecord
  3
AutoCAD 2000
 90
    32768
280
     0
281
     0
  0
CLASS
  1
LONG_TRANSACTION
  2
AcDbLongTransaction
  3
AutoCAD 2000
 90
    32768
280
     0
281
     0
  0
CLASS
  1
LWPOLYLINE
  2
AcDbPolyline
  3
AutoCAD 2000
 90
    32768
280
     0
281
     1
  0
CLASS
  1
HATCH
  2
AcDbHatch
  3
AutoCAD 2000
 90
    32768
280
     0
281
     1
  0
CLASS
  1
XRECORD
  2
AcDbXrecord
  3
AutoCAD 2000
 90
    32768
280
     0
281
     0
  0
ENDSEC
  0
SECTION
  2
TABLES
  0
TABLE
  2
VPORT
  5
8
330
0
100
AcDbSymbolTable
 70
     5
  0
VPORT
  5
26B4B
330
8
100
AcDbSymbolTableRecord
100
AcDbViewportTableRecord
  2
*ACTIVE
 70
     0
 10
0.0
 20
0.0
 11
1.0
 21
1.0
 12
2159.860725906485
 22
431.4466015474685
 13
0.0
 23
0.0
 14
2.5
 24
2.5
 15
10.0
 25
10.0
 16
0.0
 26
0.0
 36
1.0
 17
0.0
 27
0.0
 37
0.0
 40
246.8305885869572
 41
1.765124555160142
 42
50.0
 43
0.0
 44
0.0
 50
0.0
 51
0.0
 71
     0
 72
   100
 73
     1
 74
     3
 75
     0
 76
     0
 77
     0
 78
     1
  0
ENDTAB
  0
TABLE
  2
LTYPE
  5
5
330
0
100
AcDbSymbolTable
 70
    17
  0
LTYPE
  5
14
330
5
100
AcDbSymbolTableRecord
100
AcDbLinetypeTableRecord
  2
BYBLOCK
 70
     0
  3

 72
    65
 73
     0
 40
0.0
  0
LTYPE
  5
15
330
5
100
AcDbSymbolTableRecord
100
AcDbLinetypeTableRecord
  2
BYLAYER
 70
     0
  3

 72
    65
 73
     0
 40
0.0
  0
LTYPE
  5
16
330
5
100
AcDbSymbolTableRecord
100
AcDbLinetypeTableRecord
  2
CONTINUOUS
 70
     0
  3
Solid line
 72
    65
 73
     0
 40
0.0
  0
LTYPE
  5
4B
330
5
100
AcDbSymbolTableRecord
100
AcDbLinetypeTableRecord
  2
AM_ISO02W050
 70
     0
  3
__ __ __ __ __ __ __ __ __ __ __ __ __ __ __
 72
    65
 73
     2
 40
7.5
 49
6.0
 74
     0
 49
-1.5
 74
     0
  0
LTYPE
  5
4C
330
5
100
AcDbSymbolTableRecord
100
AcDbLinetypeTableRecord
  2
AM_ISO08W050
 70
     0
  3
____ . ____ . ____ . ____ . ____ . ____ . ____
 72
    65
 73
     4
 40
18.0
 49
12.0
 74
     0
 49
-1.5
 74
     0
 49
3.0
 74
     0
 49
-1.5
 74
     0
  0
LTYPE
  5
4D
330
5
100
AcDbSymbolTableRecord
100
AcDbLinetypeTableRecord
  2
AM_ISO09W050
 70
     0
  3
_____ . . _____ . . _____ . . ____ .. ____
 72
    65
 73
     6
 40
22.5
 49
12.0
 74
     0
 49
-1.5
 74
     0
 49
3.0
 74
     0
 49
-1.5
 74
     0
 49
3.0
 74
     0
 49
-1.5
 74
     0
  0
LTYPE
  5
4E
330
5
100
AcDbSymbolTableRecord
100
AcDbLinetypeTableRecord
  2
AMCONSTR
 70
     0
  3
_______________________
 72
    65
 73
     2
 40
9999.0
 49
9999.0
 74
     0
 49
0.0
 74
     0
  0
LTYPE
  5
4F
330
5
100
AcDbSymbolTableRecord
100
AcDbLinetypeTableRecord
  2
AM_ISO02W050X2
 70
     0
  3
 _ _ _ _ _ _ _ _ _ _ _ _
 72
    65
 73
     2
 40
3.75
 49
3.0
 74
     0
 49
-0.75
 74
     0
  0
LTYPE
  5
50
330
5
100
AcDbSymbolTableRecord
100
AcDbLinetypeTableRecord
  2
AM_ISO08W050X2
 70
     0
  3
__ . __ . __ . __ . __ . __
 72
    65
 73
     4
 40
9.0
 49
6.0
 74
     0
 49
-0.75
 74
     0
 49
1.5
 74
     0
 49
-0.75
 74
     0
  0
LTYPE
  5
53
330
5
100
AcDbSymbolTableRecord
100
AcDbLinetypeTableRecord
  2
AMZIGZAG
 70
     0
  3
/\/-/\/-/\/-/\/-/\/-/\/
 72
    65
 73
     2
 40
11.00009999999999
 49
0.0001
 74
     4
 75
   135
340
52
 46
0.04
 50
0.0
 44
0.0
 45
0.0
 49
-11.0
 74
     0
  0
LTYPE
  5
144B
330
5
100
AcDbSymbolTableRecord
100
AcDbLinetypeTableRecord
  2
ACISOWELD
 70
     0
  3
_ _ _ _ _
 72
    65
 73
     2
 40
2.0
 49
2.0
 74
     0
 49
-1.0
 74
     0
  0
LTYPE
  5
144C
330
5
100
AcDbSymbolTableRecord
100
AcDbLinetypeTableRecord
  2
ACISOTGB
 70
     0
  3
__ . . __ . .
 72
    65
 73
     6
 40
9.0
 49
4.0
 74
     0
 49
-1.0
 74
     0
 49
1.0
 74
     0
 49
-1.0
 74
     0
 49
1.0
 74
     0
 49
-1.0
 74
     0
  0
LTYPE
  5
144D
330
5
100
AcDbSymbolTableRecord
100
AcDbLinetypeTableRecord
  2
ACISOTGL
 70
     0
  3
_ _ _ _ _
 72
    65
 73
     2
 40
3.0
 49
2.0
 74
     0
 49
-1.0
 74
     0
  0
LTYPE
  5
1C34
330
5
100
AcDbSymbolTableRecord
100
AcDbLinetypeTableRecord
  2
HIDDEN
 70
     0
  3
Hidden __ __ __ __ __ __ __ __ __ __ __ __ __ _
 72
    65
 73
     2
 40
0.375
 49
0.25
 74
     0
 49
-0.125
 74
     0
  0
LTYPE
  5
1C35
330
5
100
AcDbSymbolTableRecord
100
AcDbLinetypeTableRecord
  2
CENTER
 70
     0
  3
Center ____ _ ____ _ ____ _ ____ _ ____ _ ____
 72
    65
 73
     4
 40
2.0
 49
1.25
 74
     0
 49
-0.25
 74
     0
 49
0.25
 74
     0
 49
-0.25
 74
     0
  0
LTYPE
  5
B899
330
5
100
AcDbSymbolTableRecord
100
AcDbLinetypeTableRecord
  2
PHANTOM2
 70
     0
  3
Phantom (.5x) ___ _ _ ___ _ _ ___ _ _ ___ _ _
 72
    65
 73
     6
 40
31.75
 49
15.875
 74
     0
 49
-3.174999999999999
 74
     0
 49
3.174999999999999
 74
     0
 49
-3.174999999999999
 74
     0
 49
3.174999999999999
 74
     0
 49
-3.174999999999999
 74
     0
  0
LTYPE
  5
BE57
330
5
100
AcDbSymbolTableRecord
100
AcDbLinetypeTableRecord
  2
HIDDEN2
 70
     0
  3
Hidden (.5x) _ _ _ _ _ _ _ _ _ _ _ _ _ _ _ _ _
 72
    65
 73
     2
 40
0.1875
 49
0.125
 74
     0
 49
-0.0625
 74
     0
  0
LTYPE
  5
BE5A
330
5
100
AcDbSymbolTableRecord
100
AcDbLinetypeTableRecord
  2
ACANSTGB
 70
     0
  3
__ . . __ . .
 72
    65
 73
     6
 40
0.35433070866
 49
0.15748031496
 74
     0
 49
-0.03937007874
 74
     0
 49
0.03937007874
 74
     0
 49
-0.03937007874
 74
     0
 49
0.03937007874
 74
     0
 49
-0.03937007874
 74
     0
  0
LTYPE
  5
BE5B
330
5
100
AcDbSymbolTableRecord
100
AcDbLinetypeTableRecord
  2
ACANSTGL
 70
     0
  3
_ _ _ _ _
 72
    65
 73
     2
 40
0.11811023622
 49
0.07874015748
 74
     0
 49
-0.03937007874
 74
     0
  0
ENDTAB
  0
TABLE
  2
LAYER
  5
2
330
0
100
AcDbSymbolTable
 70
     9
  0
LAYER
  5
10
330
2
100
AcDbSymbolTableRecord
100
AcDbLayerTableRecord
  2
0
 70
     0
 62
     7
  6
CONTINUOUS
  0
LAYER
  5
D1
330
2
100
AcDbSymbolTableRecord
100
AcDbLayerTableRecord
  2
AM_VIS
 70
     2
 62
     7
  6
CONTINUOUS
  0
LAYER
  5
450
330
2
100
AcDbSymbolTableRecord
100
AcDbLayerTableRecord
  2
DEFPOINTS
 70
     0
 62
    -7
  6
CONTINUOUS
  0
LAYER
  5
451
330
2
100
AcDbSymbolTableRecord
100
AcDbLayerTableRecord
  2
AM_7
 70
     0
 62
     1
  6
CENTER
  0
LAYER
  5
989
330
2
100
AcDbSymbolTableRecord
100
AcDbLayerTableRecord
  2
AM_5
 70
     0
 62
     5
  6
CONTINUOUS
  0
LAYER
  5
1C3A
330
2
100
AcDbSymbolTableRecord
100
AcDbLayerTableRecord
  2
AM_REFDIM
 70
     0
 62
     5
  6
CONTINUOUS
  0
LAYER
  5
188F9
330
2
100
AcDbSymbolTableRecord
100
AcDbLayerTableRecord
  2
LOGO
 70
     0
 62
     7
  6
CONTINUOUS
  0
LAYER
  5
188FB
330
2
100
AcDbSymbolTableRecord
100
AcDbLayerTableRecord
  2
AM_HID
 70
     0
 62
     5
  6
HIDDEN
  0
LAYER
  5
18900
330
2
100
AcDbSymbolTableRecord
100
AcDbLayerTableRecord
  2
AM_0N
 70
     0
 62
     7
  6
CONTINUOUS
  0
ENDTAB
  0
TABLE
  2
STYLE
  5
3
330
0
100
AcDbSymbolTable
 70
     9
  0
STYLE
  5
11
330
3
100
AcDbSymbolTableRecord
100
AcDbTextStyleTableRecord
  2
STANDARD
 70
     0
 40
0.0
 41
1.0
 50
0.0
 71
     0
 42
3.0
  3
ISOCP.SHX
  4
CHINESET.SHX
  0
STYLE
  5
52
330
3
100
AcDbSymbolTableRecord
100
AcDbTextStyleTableRecord
  2

 70
     1
 40
0.0
 41
1.0
 50
0.0
 71
     0
 42
2.5
  3
ltypeshp.shx
  4

  0
STYLE
  5
1442
330
3
100
AcDbSymbolTableRecord
100
AcDbTextStyleTableRecord
  2
ACISOTS
 70
     0
 40
1.0
 41
1.0
 50
0.0
 71
     0
 42
1.0
  3
isocp.shx
  4
chineset.shx
  0
STYLE
  5
144A
330
3
100
AcDbSymbolTableRecord
100
AcDbTextStyleTableRecord
  2
ACISOGDT
 70
     0
 40
0.0
 41
1.0
 50
0.0
 71
     0
 42
2.5
  3
amgdt.shx
  4

  0
STYLE
  5
167B
330
3
100
AcDbSymbolTableRecord
100
AcDbTextStyleTableRecord
  2
DAYUS
 70
     0
 40
0.0
 41
1.0
 50
0.0
 71
     0
 42
10.0
  3
simplex
  4
dayus
  0
STYLE
  5
BE5D
330
3
100
AcDbSymbolTableRecord
100
AcDbTextStyleTableRecord
  2
CHINESET
 70
     0
 40
0.0
 41
1.0
 50
0.0
 71
     0
 42
4.0
  3
simplex.shx
  4
chineset.shx
  0
STYLE
  5
BE5E
330
3
100
AcDbSymbolTableRecord
100
AcDbTextStyleTableRecord
  2
ACANSTS
 70
     0
 40
1.0
 41
1.0
 50
0.0
 71
     0
 42
1.5
  3
romans.shx
  4
chineset.shx
  0
STYLE
  5
BE5F
330
3
100
AcDbSymbolTableRecord
100
AcDbTextStyleTableRecord
  2
ACANSGDT
 70
     0
 40
0.0
 41
1.0
 50
0.0
 71
     0
 42
1.5
  3
amgdtans.shx
  4

  0
STYLE
  5
18905
330
3
100
AcDbSymbolTableRecord
100
AcDbTextStyleTableRecord
  2
LOGO
 70
     0
 40
0.0
 41
1.0
 50
0.0
 71
     0
 42
5.0
  3
LEI00DP.TTF
  4

1001
ACAD
1000
文鼎中粗隸
1071
    34865
  0
ENDTAB
  0
TABLE
  2
VIEW
  5
6
330
0
100
AcDbSymbolTable
 70
     0
  0
ENDTAB
  0
TABLE
  2
UCS
  5
7
330
0
100
AcDbSymbolTable
 70
     0
  0
ENDTAB
  0
TABLE
  2
APPID
  5
9
330
0
100
AcDbSymbolTable
 70
    39
  0
APPID
  5
12
330
9
100
AcDbSymbolTableRecord
100
AcDbRegAppTableRecord
  2
ACAD
 70
     0
  0
APPID
  5
30
330
9
100
AcDbSymbolTableRecord
100
AcDbRegAppTableRecord
  2
MCAD_NO_VIS
 70
     0
  0
APPID
  5
31
330
9
100
AcDbSymbolTableRecord
100
AcDbRegAppTableRecord
  2
ACAD_TEMP_GRAPHIC
 70
     0
  0
APPID
  5
455
330
9
100
AcDbSymbolTableRecord
100
AcDbRegAppTableRecord
  2
GENIUS_GENDTOL_13
 70
     0
  0
APPID
  5
6B34
330
9
100
AcDbSymbolTableRecord
100
AcDbRegAppTableRecord
  2
ACATTRIBSERVICES
 70
     0
  0
APPID
  5
F2C8
330
9
100
AcDbSymbolTableRecord
100
AcDbRegAppTableRecord
  2
GENIUS_GENDIMSH_14
 70
     0
  0
APPID
  5
12FCC
330
9
100
AcDbSymbolTableRecord
100
AcDbRegAppTableRecord
  2
GENIUS_GENREC_14
 70
     0
  0
APPID
  5
12FCD
330
9
100
AcDbSymbolTableRecord
100
AcDbRegAppTableRecord
  2
GENIUS_GENOBJ-N-REC_13
 70
     0
  0
APPID
  5
12FCE
330
9
100
AcDbSymbolTableRecord
100
AcDbRegAppTableRecord
  2
GENIUS_GENODEF_13
 70
     0
  0
APPID
  5
1890C
330
9
100
AcDbSymbolTableRecord
100
AcDbRegAppTableRecord
  2
GENIUS_GENFIL_13
 70
     0
  0
APPID
  5
1890D
330
9
100
AcDbSymbolTableRecord
100
AcDbRegAppTableRecord
  2
GENIUS_GENOBJ-N-CHA_13
 70
     0
  0
APPID
  5
1890E
330
9
100
AcDbSymbolTableRecord
100
AcDbRegAppTableRecord
  2
GENIUS_GENOBJ-N-FIL_13
 70
     0
  0
APPID
  5
1890F
330
9
100
AcDbSymbolTableRecord
100
AcDbRegAppTableRecord
  2
GENIUS_GENOBJ-N-CEN_13
 70
     0
  0
APPID
  5
18910
330
9
100
AcDbSymbolTableRecord
100
AcDbRegAppTableRecord
  2
GENIUS_GENOBJ-N-HTC_13
 70
     0
  0
APPID
  5
18911
330
9
100
AcDbSymbolTableRecord
100
AcDbRegAppTableRecord
  2
GENIUS_GENHATCH_13
 70
     0
  0
APPID
  5
18912
330
9
100
AcDbSymbolTableRecord
100
AcDbRegAppTableRecord
  2
GEVID1040951320
 70
     0
  0
APPID
  5
18913
330
9
100
AcDbSymbolTableRecord
100
AcDbRegAppTableRecord
  2
GEVDC
 70
     0
  0
APPID
  5
18914
330
9
100
AcDbSymbolTableRecord
100
AcDbRegAppTableRecord
  2
GENIUS_GENBH_13
 70
     0
  0
APPID
  5
18915
330
9
100
AcDbSymbolTableRecord
100
AcDbRegAppTableRecord
  2
GENIUS_GENOENT_13
 70
     0
  0
APPID
  5
18916
330
9
100
AcDbSymbolTableRecord
100
AcDbRegAppTableRecord
  2
GENIUS_GENOBJ-NBEHI-BHF_13
 70
     0
  0
APPID
  5
18917
330
9
100
AcDbSymbolTableRecord
100
AcDbRegAppTableRecord
  2
GENIUS_GENOLIS_13
 70
     0
  0
APPID
  5
18918
330
9
100
AcDbSymbolTableRecord
100
AcDbRegAppTableRecord
  2
GENIUS_GENOREF_13
 70
     0
  0
APPID
  5
18919
330
9
100
AcDbSymbolTableRecord
100
AcDbRegAppTableRecord
  2
GENIUS_GENOBJ-NBEHI-BHB_13
 70
     0
  0
APPID
  5
1891A
330
9
100
AcDbSymbolTableRecord
100
AcDbRegAppTableRecord
  2
GEVID1040951321
 70
     0
  0
APPID
  5
1891B
330
9
100
AcDbSymbolTableRecord
100
AcDbRegAppTableRecord
  2
GEVID1040951322
 70
     0
  0
APPID
  5
1891C
330
9
100
AcDbSymbolTableRecord
100
AcDbRegAppTableRecord
  2
GEVID1040951323
 70
     0
  0
APPID
  5
200C7
330
9
100
AcDbSymbolTableRecord
100
AcDbRegAppTableRecord
  2
GENIUS_GENOBJ-N-CRS_13
 70
     0
  0
APPID
  5
200C8
330
9
100
AcDbSymbolTableRecord
100
AcDbRegAppTableRecord
  2
ACAD_DIMASSOC_DIMLFAC
 70
     0
  0
APPID
  5
200C9
330
9
100
AcDbSymbolTableRecord
100
AcDbRegAppTableRecord
  2
ACAD_DIMASSOC_CALC_DIMLFAC
 70
     0
  0
APPID
  5
200CA
330
9
100
AcDbSymbolTableRecord
100
AcDbRegAppTableRecord
  2
GEVID1036112518
 70
     0
  0
APPID
  5
200CB
330
9
100
AcDbSymbolTableRecord
100
AcDbRegAppTableRecord
  2
GEVRADREF
 70
     0
  0
APPID
  5
200CC
330
9
100
AcDbSymbolTableRecord
100
AcDbRegAppTableRecord
  2
GEVID1040267100
 70
     0
  0
APPID
  5
2210A
330
9
100
AcDbSymbolTableRecord
100
AcDbRegAppTableRecord
  2
GEVID1036112519
 70
     0
  0
APPID
  5
2210B
330
9
100
AcDbSymbolTableRecord
100
AcDbRegAppTableRecord
  2
GEVID1036112520
 70
     0
  0
APPID
  5
2210C
330
9
100
AcDbSymbolTableRecord
100
AcDbRegAppTableRecord
  2
GEVID1036112521
 70
     0
  0
APPID
  5
2210D
330
9
100
AcDbSymbolTableRecord
100
AcDbRegAppTableRecord
  2
GEVID1036112522
 70
     0
  0
APPID
  5
2210E
330
9
100
AcDbSymbolTableRecord
100
AcDbRegAppTableRecord
  2
GEVID1036112523
 70
     0
  0
APPID
  5
2210F
330
9
100
AcDbSymbolTableRecord
100
AcDbRegAppTableRecord
  2
GEVID1040267101
 70
     0
  0
APPID
  5
24EFB
330
9
100
AcDbSymbolTableRecord
100
AcDbRegAppTableRecord
  2
TCAD
 70
     0
  0
ENDTAB
  0
TABLE
  2
DIMSTYLE
  5
A
330
0
100
AcDbSymbolTable
 70
    15
  0
DIMSTYLE
105
98A
330
A
100
AcDbSymbolTableRecord
100
AcDbDimStyleTableRecord
  2
AM_ISO
 70
     0
  3

  4
"
  5

  6

  7

 40
0.6
 41
3.0
 42
2.0
 43
10.0
 44
1.5
 45
0.0
 46
0.0
 47
0.1
 48
0.1
140
3.0
141
0.0
142
0.0
143
0.0393701
144
2.0
145
0.0
146
0.71
147
0.8
 71
     0
 72
     0
 73
     0
 74
     0
 75
     0
 76
     0
 77
     1
 78
     8
170
     0
171
     2
172
     1
173
     0
174
     0
175
     0
176
     5
177
   256
178
     5
270
     2
271
     2
272
     2
273
     2
274
     2
340
11
275
     0
280
     0
281
     0
282
     0
283
     0
284
     0
285
     0
286
     0
287
     3
288
     0
  0
DIMSTYLE
105
98B
330
A
100
AcDbSymbolTableRecord
100
AcDbDimStyleTableRecord
  2
AM_ISO$3
 70
     0
  3

  4
"
  5

  6

  7

 40
0.6
 41
3.0
 42
2.0
 43
10.0
 44
1.5
 45
0.0
 46
0.0
 47
0.1
 48
0.1
140
3.0
141
0.0
142
0.0
143
0.0393701
144
2.0
145
0.0
146
0.71
147
0.8
 71
     0
 72
     0
 73
     0
 74
     1
 75
     0
 76
     0
 77
     1
 78
     8
170
     0
171
     2
172
     0
173
     0
174
     0
175
     0
176
     5
177
   256
178
     5
270
     2
271
     2
272
     2
273
     2
274
     2
340
11
275
     0
280
     0
281
     0
282
     0
283
     0
284
     0
285
     0
286
     0
287
     0
288
     1
  0
DIMSTYLE
105
98C
330
A
100
AcDbSymbolTableRecord
100
AcDbDimStyleTableRecord
  2
AM_ISO$4
 70
     0
  3

  4
"
  5

  6

  7

 40
0.6
 41
3.0
 42
2.0
 43
10.0
 44
1.5
 45
0.0
 46
0.0
 47
0.1
 48
0.1
140
3.0
141
0.0
142
0.0
143
0.0393701
144
2.0
145
0.0
146
0.71
147
0.8
 71
     0
 72
     0
 73
     0
 74
     1
 75
     0
 76
     0
 77
     1
 78
     8
170
     0
171
     2
172
     0
173
     0
174
     0
175
     0
176
     5
177
   256
178
     5
270
     2
271
     2
272
     2
273
     2
274
     2
340
11
275
     0
280
     0
281
     0
282
     0
283
     0
284
     0
285
     0
286
     0
287
     0
288
     1
  0
DIMSTYLE
105
98D
330
A
100
AcDbSymbolTableRecord
100
AcDbDimStyleTableRecord
  2
AM_ISO$6
 70
     0
  3

  4
"
  5

  6

  7

 40
0.6
 41
3.0
 42
2.0
 43
10.0
 44
1.5
 45
0.0
 46
0.0
 47
0.1
 48
0.1
140
3.0
141
0.0
142
0.0
143
0.0393701
144
2.0
145
0.0
146
0.71
147
0.8
 71
     0
 72
     0
 73
     0
 74
     0
 75
     0
 76
     0
 77
     0
 78
     8
170
     0
171
     2
172
     1
173
     0
174
     0
175
     0
176
     5
177
   256
178
     5
270
     2
271
     2
272
     2
273
     2
274
     2
340
11
275
     0
280
     0
281
     0
282
     0
283
     0
284
     0
285
     0
286
     0
287
     3
288
     0
  0
DIMSTYLE
105
98E
330
A
100
AcDbSymbolTableRecord
100
AcDbDimStyleTableRecord
  2
AM_ISO$7
 70
     0
  3

  4
"
  5

  6

  7

 40
0.6
 41
3.0
 42
2.0
 43
10.0
 44
1.5
 45
0.0
 46
0.0
 47
0.1
 48
0.1
140
5.0
141
0.0
142
0.0
143
0.0393701
144
2.0
145
0.0
146
0.71
147
0.8
 71
     0
 72
     0
 73
     0
 74
     0
 75
     0
 76
     0
 77
     1
 78
     8
170
     0
171
     2
172
     1
173
     0
174
     0
175
     0
176
     5
177
   256
178
     5
270
     2
271
     2
272
     2
273
     2
274
     2
340
11
275
     0
280
     0
281
     0
282
     0
283
     0
284
     0
285
     0
286
     0
287
     3
288
     0
  0
DIMSTYLE
105
98F
330
A
100
AcDbSymbolTableRecord
100
AcDbDimStyleTableRecord
  2
AM_ISO$SF
 70
     0
  3

  4
"
  5

  6

  7

 40
0.5
 41
2.5
 42
1.0
 43
10.0
 44
1.0
 45
0.0
 46
0.0
 47
0.1
 48
0.1
140
3.5
141
0.0
142
0.0
143
0.0393701
144
1.0
145
0.0
146
0.71
147
1.5
 71
     0
 72
     0
 73
     0
 74
     0
 75
     1
 76
     1
 77
     1
 78
     8
170
     0
171
     2
172
     1
173
     0
174
     0
175
     0
176
   256
177
   256
178
     2
270
     2
271
     2
272
     2
273
     2
274
     2
340
11
275
     0
280
     0
281
     0
282
     0
283
     0
284
     0
285
     0
286
     0
287
     3
288
     0
  0
DIMSTYLE
105
994
330
A
100
AcDbSymbolTableRecord
100
AcDbDimStyleTableRecord
  2
AM_ISO$SH
 70
     0
  3

  4
"
  5

  6
GENAXEH
  7

 40
0.5
 41
2.5
 42
1.0
 43
10.0
 44
1.0
 45
0.0
 46
0.0
 47
0.1
 48
0.1
140
3.5
141
0.0
142
0.0
143
0.0393701
144
2.0
145
0.0
146
0.71
147
1.5
 71
     0
 72
     0
 73
     0
 74
     0
 75
     1
 76
     1
 77
     1
 78
     8
170
     0
171
     2
172
     1
173
     1
174
     0
175
     0
176
   256
177
   256
178
     2
270
     2
271
     2
272
     2
273
     2
274
     2
340
11
275
     0
280
     0
281
     0
282
     0
283
     0
284
     0
285
     0
286
     0
287
     3
288
     0
  0
DIMSTYLE
105
6E5D
330
A
100
AcDbSymbolTableRecord
100
AcDbDimStyleTableRecord
  2
AM_ANSI
 70
     0
  3

  4
"
  5

  6

  7

 40
0.8
 41
3.0
 42
1.5
 43
5.0
 44
2.0
 45
0.0
 46
0.0
 47
0.1
 48
0.1
140
3.0
141
-1.5
142
0.0
143
0.0393701
144
1.0
145
0.0
146
0.6
147
0.8
 71
     0
 72
     0
 73
     0
 74
     0
 75
     0
 76
     0
 77
     1
 78
     8
170
     0
171
     2
172
     1
173
     0
174
     0
175
     0
176
   256
177
   256
178
   256
270
     2
271
     2
272
     2
273
     2
274
     2
340
167B
275
     0
280
     0
281
     0
282
     0
283
     1
284
     8
285
     0
286
     0
287
     3
288
     0
  0
DIMSTYLE
105
6E5E
330
A
100
AcDbSymbolTableRecord
100
AcDbDimStyleTableRecord
  2
AM_ANSI$3
 70
     0
  3

  4
"
  5

  6

  7

 40
0.8
 41
3.0
 42
1.5
 43
5.0
 44
2.0
 45
0.0
 46
0.0
 47
0.1
 48
0.1
140
3.0
141
-1.5
142
0.0
143
0.0393701
144
1.0
145
0.0
146
0.6
147
0.8
 71
     0
 72
     0
 73
     0
 74
     0
 75
     0
 76
     0
 77
     1
 78
     8
170
     0
171
     2
172
     1
173
     0
174
     0
175
     0
176
   256
177
   256
178
   256
270
     2
271
     2
272
     2
273
     2
274
     2
340
167B
275
     0
280
     0
281
     0
282
     0
283
     1
284
     8
285
     0
286
     0
287
     0
288
     1
  0
DIMSTYLE
105
6E5F
330
A
100
AcDbSymbolTableRecord
100
AcDbDimStyleTableRecord
  2
AM_ANSI$7
 70
     0
  3

  4
"
  5

  6

  7

 40
0.8
 41
3.0
 42
1.5
 43
5.0
 44
2.0
 45
0.0
 46
0.0
 47
0.1
 48
0.1
140
5.0
141
-1.5
142
0.0
143
0.0393701
144
1.0
145
0.0
146
0.6
147
0.8
 71
     0
 72
     0
 73
     0
 74
     0
 75
     0
 76
     0
 77
     1
 78
     8
170
     0
171
     2
172
     1
173
     0
174
     0
175
     0
176
   256
177
   256
178
   256
270
     2
271
     2
272
     2
273
     2
274
     2
340
167B
275
     0
280
     0
281
     0
282
     0
283
     1
284
     8
285
     0
286
     0
287
     3
288
     0
  0
DIMSTYLE
105
B991
102
{ACAD_REACTORS
330
24D23
330
24D30
330
24D3D
330
24D4C
330
24D59
330
24D66
330
24D73
330
24D80
330
24D9A
330
24DA7
330
24DB4
102
}
330
A
100
AcDbSymbolTableRecord
100
AcDbDimStyleTableRecord
  2
STANDARD
 70
     0
  3

  4

  5

  6

  7

 40
1.0
 41
3.0
 42
1.5
 43
7.0
 44
2.0
 45
0.0
 46
0.0
 47
0.01
 48
0.01
140
3.0
141
3.0
142
0.0
143
25.4
144
1.0
145
0.0
146
0.6
147
0.8
 71
     0
 72
     0
 73
     0
 74
     0
 75
     0
 76
     0
 77
     3
 78
     8
170
     0
171
     2
172
     1
173
     0
174
     0
175
     0
176
     5
177
     5
178
     5
270
     2
271
     2
272
     2
273
     2
274
     2
340
167B
275
     0
280
     0
281
     0
282
     0
283
     1
284
     8
285
     0
286
     0
287
     3
288
     0
  0
DIMSTYLE
105
BE61
330
A
100
AcDbSymbolTableRecord
100
AcDbDimStyleTableRecord
  2
AM_ANSI$4
 70
     0
  3

  4
mm
  5

  6

  7

 40
1.0
 41
0.1
 42
0.05
 43
0.5
 44
0.1
 45
0.0
 46
0.0
 47
0.1
 48
0.1
140
0.12
141
0.0
142
0.0
143
25.4
144
1.0
145
0.0
146
0.71
147
0.06
 71
     0
 72
     0
 73
     1
 74
     1
 75
     0
 76
     0
 77
     0
 78
     7
170
     0
171
     2
172
     0
173
     0
174
     0
175
     0
176
   256
177
   256
178
     2
270
     2
271
     4
272
     4
273
     2
274
     4
340
11
275
     0
280
     0
281
     0
282
     0
283
     1
284
     7
285
     0
286
     0
287
     0
288
     1
  0
DIMSTYLE
105
BE62
330
A
100
AcDbSymbolTableRecord
100
AcDbDimStyleTableRecord
  2
AM_ANSI$SF
 70
     0
  3

  4
mm
  5

  6

  7

 40
1.0
 41
0.1
 42
0.05
 43
0.5
 44
0.1
 45
0.0
 46
0.0
 47
0.1
 48
0.1
140
0.12
141
0.0
142
0.0
143
25.4
144
1.0
145
0.0
146
0.71
147
0.06
 71
     0
 72
     0
 73
     1
 74
     1
 75
     1
 76
     1
 77
     0
 78
     7
170
     0
171
     2
172
     0
173
     0
174
     0
175
     0
176
   256
177
   256
178
     2
270
     2
271
     4
272
     4
273
     2
274
     4
340
11
275
     0
280
     0
281
     0
282
     0
283
     1
284
     7
285
     0
286
     0
287
     3
288
     0
  0
DIMSTYLE
105
BE63
330
A
100
AcDbSymbolTableRecord
100
AcDbDimStyleTableRecord
  2
AM_ANSI$SH
 70
     0
  3

  4
mm
  5

  6
GENAXEH
  7

 40
1.0
 41
0.1
 42
0.05
 43
0.5
 44
0.1
 45
0.0
 46
0.0
 47
0.1
 48
0.1
140
0.12
141
0.0
142
0.0
143
25.4
144
1.0
145
0.0
146
0.71
147
0.06
 71
     0
 72
     0
 73
     1
 74
     1
 75
     1
 76
     1
 77
     0
 78
     7
170
     0
171
     2
172
     0
173
     1
174
     0
175
     0
176
   256
177
   256
178
     2
270
     2
271
     4
272
     4
273
     2
274
     4
340
11
275
     0
280
     0
281
     0
282
     0
283
     1
284
     7
285
     0
286
     0
287
     3
288
     0
  0
DIMSTYLE
105
18909
330
A
100
AcDbSymbolTableRecord
100
AcDbDimStyleTableRecord
  2
AUDIT_I_030306140827-5
 70
     0
  3

  4

  5

  6

  7

 40
1.0
 41
3.0
 42
2.0
 43
8.0
 44
2.0
 45
0.0
 46
0.0
 47
0.0
 48
0.0
140
3.0
141
-1.0
142
0.0
143
25.4
144
1.0
145
0.0
146
1.0
147
1.5
 71
     0
 72
     0
 73
     1
 74
     1
 75
     0
 76
     0
 77
     0
 78
     0
170
     0
171
     2
172
     0
173
     0
174
     0
175
     0
176
     0
177
     0
178
     0
270
     2
271
     2
272
     2
273
     2
274
     2
340
11
275
     0
280
     0
281
     0
282
     0
283
     1
284
     0
285
     0
286
     0
287
     5
288
     0
  0
ENDTAB
  0
TABLE
  2
BLOCK_RECORD
  5
1
330
0
100
AcDbSymbolTable
 70
    14
  0
BLOCK_RECORD
  5
1F
102
{ACAD_XDICTIONARY
360
3A4
102
}
330
1
100
AcDbSymbolTableRecord
100
AcDbBlockTableRecord
  2
*MODEL_SPACE
  0
BLOCK_RECORD
  5
1B
102
{ACAD_XDICTIONARY
360
26A58
102
}
330
1
100
AcDbSymbolTableRecord
100
AcDbBlockTableRecord
  2
*PAPER_SPACE
  0
BLOCK_RECORD
  5
990
330
1
100
AcDbSymbolTableRecord
100
AcDbBlockTableRecord
  2
GENAXEH
  0
BLOCK_RECORD
  5
23D5D
330
1
100
AcDbSymbolTableRecord
100
AcDbBlockTableRecord
  2
A$C75484636
  0
BLOCK_RECORD
  5
24D24
330
1
100
AcDbSymbolTableRecord
100
AcDbBlockTableRecord
  2
*D3
  0
BLOCK_RECORD
  5
24D31
330
1
100
AcDbSymbolTableRecord
100
AcDbBlockTableRecord
  2
*D4
  0
BLOCK_RECORD
  5
24D3E
330
1
100
AcDbSymbolTableRecord
100
AcDbBlockTableRecord
  2
*D5
  0
BLOCK_RECORD
  5
24D4D
330
1
100
AcDbSymbolTableRecord
100
AcDbBlockTableRecord
  2
*D6
  0
BLOCK_RECORD
  5
24D5A
330
1
100
AcDbSymbolTableRecord
100
AcDbBlockTableRecord
  2
*D7
  0
BLOCK_RECORD
  5
24D67
330
1
100
AcDbSymbolTableRecord
100
AcDbBlockTableRecord
  2
*D8
  0
BLOCK_RECORD
  5
24D74
330
1
100
AcDbSymbolTableRecord
100
AcDbBlockTableRecord
  2
*D9
  0
BLOCK_RECORD
  5
24D81
330
1
100
AcDbSymbolTableRecord
100
AcDbBlockTableRecord
  2
*D10
  0
BLOCK_RECORD
  5
24D9B
330
1
100
AcDbSymbolTableRecord
100
AcDbBlockTableRecord
  2
*D11
  0
BLOCK_RECORD
  5
24DA8
330
1
100
AcDbSymbolTableRecord
100
AcDbBlockTableRecord
  2
*D12
  0
BLOCK_RECORD
  5
24DB5
330
1
100
AcDbSymbolTableRecord
100
AcDbBlockTableRecord
  2
*D13
  0
ENDTAB
  0
ENDSEC
  0
SECTION
  2
BLOCKS
  0
BLOCK
  5
20
330
1F
100
AcDbEntity
  8
0
100
AcDbBlockBegin
  2
*MODEL_SPACE
 70
     0
 10
0.0
 20
0.0
 30
0.0
  3
*MODEL_SPACE
  1

  0
ENDBLK
  5
21
330
1F
100
AcDbEntity
  8
0
100
AcDbBlockEnd
  0
BLOCK
  5
1C
330
1B
100
AcDbEntity
 67
     1
  8
0
100
AcDbBlockBegin
  2
*PAPER_SPACE
 70
     0
 10
0.0
 20
0.0
 30
0.0
  3
*PAPER_SPACE
  1

  0
ENDBLK
  5
1D
330
1B
100
AcDbEntity
 67
     1
  8
0
100
AcDbBlockEnd
  0
BLOCK
  5
992
330
990
100
AcDbEntity
  8
0
100
AcDbBlockBegin
  2
GENAXEH
 70
     0
 10
0.0
 20
0.0
 30
0.0
  3
GENAXEH
  1

  0
LINE
  5
991
330
990
100
AcDbEntity
  8
0
100
AcDbLine
 10
-1.0
 20
0.0
 30
0.0
 11
1.0
 21
0.0
 31
0.0
  0
ENDBLK
  5
993
330
990
100
AcDbEntity
  8
0
100
AcDbBlockEnd
  0
BLOCK
  5
23D6B
330
23D5D
100
AcDbEntity
  8
0
100
AcDbBlockBegin
  2
A$C75484636
 70
     0
 10
0.0
 20
0.0
 30
0.0
  3
A$C75484636
  1

  0
LINE
  5
23D5E
330
23D5D
100
AcDbEntity
  8
AM_0N
100
AcDbLine
 10
1.149999754443911
 20
3.005000206466093
 30
0.0
 11
2.494999754443938
 21
3.005000206466093
 31
0.0
1001
GENIUS_GENOREF_13
1005
0
  0
LINE
  5
23D5F
330
23D5D
100
AcDbEntity
  8
AM_0N
100
AcDbLine
 10
1.149999754443911
 20
2.495000206466102
 30
0.0
 11
2.494999754443938
 21
2.495000206466102
 31
0.0
1001
GENIUS_GENOREF_13
1005
0
  0
CIRCLE
  5
23D60
330
23D5D
100
AcDbEntity
  8
AM_0N
100
AcDbCircle
 10
2.749999754443933
 20
2.750000206466097
 30
0.0
 40
2.75
1001
GENIUS_GENOREF_13
1005
0
  0
LINE
  5
23D61
330
23D5D
100
AcDbEntity
  8
AM_0N
100
AcDbLine
 10
1.149999754443911
 20
3.005000206466093
 30
0.0
 11
1.149999754443911
 21
2.495000206466102
 31
0.0
1001
GENIUS_GENOREF_13
1005
0
  0
LINE
  5
23D62
330
23D5D
100
AcDbEntity
  8
AM_0N
100
AcDbLine
 10
3.004999754443929
 20
4.35000020646612
 30
0.0
 11
2.494999754443938
 21
4.35000020646612
 31
0.0
1001
GENIUS_GENOREF_13
1005
0
  0
LINE
  5
23D63
330
23D5D
100
AcDbEntity
  8
AM_0N
100
AcDbLine
 10
3.004999754443929
 20
2.495000206466102
 30
0.0
 11
4.349999754443956
 21
2.495000206466102
 31
0.0
1001
GENIUS_GENOREF_13
1005
0
  0
LINE
  5
23D64
330
23D5D
100
AcDbEntity
  8
AM_0N
100
AcDbLine
 10
3.004999754443929
 20
3.005000206466093
 30
0.0
 11
4.349999754443956
 21
3.005000206466093
 31
0.0
1001
GENIUS_GENOREF_13
1005
0
  0
LINE
  5
23D65
330
23D5D
100
AcDbEntity
  8
AM_0N
100
AcDbLine
 10
3.004999754443929
 20
1.150000206466074
 30
0.0
 11
2.494999754443938
 21
1.150000206466074
 31
0.0
1001
GENIUS_GENOREF_13
1005
0
  0
LINE
  5
23D66
330
23D5D
100
AcDbEntity
  8
AM_0N
100
AcDbLine
 10
2.494999754443938
 20
2.495000206466102
 30
0.0
 11
2.494999754443938
 21
1.150000206466074
 31
0.0
1001
GENIUS_GENOREF_13
1005
0
  0
LINE
  5
23D67
330
23D5D
100
AcDbEntity
  8
AM_0N
100
AcDbLine
 10
3.004999754443929
 20
2.495000206466102
 30
0.0
 11
3.004999754443929
 21
1.150000206466074
 31
0.0
1001
GENIUS_GENOREF_13
1005
0
  0
LINE
  5
23D68
330
23D5D
100
AcDbEntity
  8
AM_0N
100
AcDbLine
 10
4.349999754443956
 20
3.005000206466093
 30
0.0
 11
4.349999754443956
 21
2.495000206466102
 31
0.0
1001
GENIUS_GENOREF_13
1005
0
  0
LINE
  5
23D69
330
23D5D
100
AcDbEntity
  8
AM_0N
100
AcDbLine
 10
2.494999754443938
 20
4.35000020646612
 30
0.0
 11
2.494999754443938
 21
3.005000206466093
 31
0.0
1001
GENIUS_GENOREF_13
1005
0
  0
LINE
  5
23D6A
330
23D5D
100
AcDbEntity
  8
AM_0N
100
AcDbLine
 10
3.004999754443929
 20
4.35000020646612
 30
0.0
 11
3.004999754443929
 21
3.005000206466093
 31
0.0
1001
GENIUS_GENOREF_13
1005
0
  0
ENDBLK
  5
23D6C
330
23D5D
100
AcDbEntity
  8
0
100
AcDbBlockEnd
  0
BLOCK
  5
24D2E
330
24D24
100
AcDbEntity
  8
0
 62
     1
100
AcDbBlockBegin
  2
*D3
 70
     1
 10
0.0
 20
0.0
 30
0.0
  3
*D3
  1

  0
LINE
  5
2561F
330
24D24
100
AcDbEntity
  8
AM_REFDIM
 62
     5
100
AcDbLine
 10
2120.388140685954
 20
388.4173816967052
 30
0.0
 11
2120.388140685954
 21
377.6853119793718
 31
0.0
  0
LINE
  5
25620
330
24D24
100
AcDbEntity
  8
AM_REFDIM
 62
     5
100
AcDbLine
 10
2140.388140685954
 20
388.4173816967052
 30
0.0
 11
2140.388140685954
 21
377.6853119793718
 31
0.0
  0
LINE
  5
25621
330
24D24
100
AcDbEntity
  8
AM_REFDIM
 62
     5
100
AcDbLine
 10
2123.388140685954
 20
379.6853119793718
 30
0.0
 11
2137.388140685954
 21
379.6853119793718
 31
0.0
  0
SOLID
  5
25622
330
24D24
100
AcDbEntity
  8
AM_REFDIM
 62
     5
100
AcDbTrace
 10
2123.388140685954
 20
380.1853119793718
 30
0.0
 11
2123.388140685954
 21
379.1853119793718
 31
0.0
 12
2120.388140685954
 22
379.6853119793718
 32
0.0
 13
2120.388140685954
 23
379.6853119793718
 33
0.0
  0
SOLID
  5
25623
330
24D24
100
AcDbEntity
  8
AM_REFDIM
 62
     5
100
AcDbTrace
 10
2137.388140685954
 20
380.1853119793718
 30
0.0
 11
2137.388140685954
 21
379.1853119793718
 31
0.0
 12
2140.388140685954
 22
379.6853119793718
 32
0.0
 13
2140.388140685954
 23
379.6853119793718
 33
0.0
  0
MTEXT
  5
25624
330
24D24
100
AcDbEntity
  8
AM_REFDIM
 62
     5
100
AcDbMText
 10
2130.388140685954
 20
381.9853119793718
 30
0.0
 40
3.0
 41
0.0
 71
     5
 72
     1
  1
\A1;20
  7
DAYUS
1001
ACAD
1000
MTEXTBEGIN
1070
    73
1070
     1
1070
    44
1040
1.0
1070
    74
1070
     0
1000
MTEXTEND
  0
POINT
  5
25625
330
24D24
100
AcDbEntity
  8
DEFPOINTS
 62
     0
100
AcDbPoint
 10
2120.388140685954
 20
389.9173816967051
 30
0.0
  0
POINT
  5
25626
330
24D24
100
AcDbEntity
  8
DEFPOINTS
 62
     0
100
AcDbPoint
 10
2140.388140685954
 20
389.9173816967051
 30
0.0
  0
POINT
  5
25627
330
24D24
100
AcDbEntity
  8
DEFPOINTS
 62
     0
100
AcDbPoint
 10
2140.388140685954
 20
379.6853119793718
 30
0.0
  0
ENDBLK
  5
24D2F
330
24D24
100
AcDbEntity
  8
0
 62
     1
100
AcDbBlockEnd
  0
BLOCK
  5
24D3B
330
24D31
100
AcDbEntity
  8
0
 62
     1
100
AcDbBlockBegin
  2
*D4
 70
     1
 10
0.0
 20
0.0
 30
0.0
  3
*D4
  1

  0
LINE
  5
25628
330
24D31
100
AcDbEntity
  8
AM_REFDIM
 62
     5
100
AcDbLine
 10
2112.388140685954
 20
383.6005626133962
 30
0.0
 11
2112.388140685954
 21
371.0297204125004
 31
0.0
  0
LINE
  5
25629
330
24D31
100
AcDbEntity
  8
AM_REFDIM
 62
     5
100
AcDbLine
 10
2148.388140685954
 20
383.6005626133962
 30
0.0
 11
2148.388140685954
 21
371.0297204125004
 31
0.0
  0
LINE
  5
2562A
330
24D31
100
AcDbEntity
  8
AM_REFDIM
 62
     5
100
AcDbLine
 10
2115.388140685954
 20
373.0297204125004
 30
0.0
 11
2145.388140685954
 21
373.0297204125004
 31
0.0
  0
SOLID
  5
2562B
330
24D31
100
AcDbEntity
  8
AM_REFDIM
 62
     5
100
AcDbTrace
 10
2115.388140685954
 20
373.5297204125004
 30
0.0
 11
2115.388140685954
 21
372.5297204125004
 31
0.0
 12
2112.388140685954
 22
373.0297204125004
 32
0.0
 13
2112.388140685954
 23
373.0297204125004
 33
0.0
  0
SOLID
  5
2562C
330
24D31
100
AcDbEntity
  8
AM_REFDIM
 62
     5
100
AcDbTrace
 10
2145.388140685954
 20
373.5297204125004
 30
0.0
 11
2145.388140685954
 21
372.5297204125004
 31
0.0
 12
2148.388140685954
 22
373.0297204125004
 32
0.0
 13
2148.388140685954
 23
373.0297204125004
 33
0.0
  0
MTEXT
  5
2562D
330
24D31
100
AcDbEntity
  8
AM_REFDIM
 62
     5
100
AcDbMText
 10
2130.388140685954
 20
375.3297204125004
 30
0.0
 40
3.0
 41
0.0
 71
     5
 72
     1
  1
\A1;36
  7
DAYUS
1001
ACAD
1000
MTEXTBEGIN
1070
    73
1070
     1
1070
    44
1040
1.0
1070
    74
1070
     0
1000
MTEXTEND
  0
POINT
  5
2562E
330
24D31
100
AcDbEntity
  8
DEFPOINTS
 62
     0
100
AcDbPoint
 10
2112.388140685954
 20
385.1005626133962
 30
0.0
  0
POINT
  5
2562F
330
24D31
100
AcDbEntity
  8
DEFPOINTS
 62
     0
100
AcDbPoint
 10
2148.388140685954
 20
385.1005626133962
 30
0.0
  0
POINT
  5
25630
330
24D31
100
AcDbEntity
  8
DEFPOINTS
 62
     0
100
AcDbPoint
 10
2148.388140685954
 20
373.0297204125004
 30
0.0
  0
ENDBLK
  5
24D3C
330
24D31
100
AcDbEntity
  8
0
 62
     1
100
AcDbBlockEnd
  0
BLOCK
  5
24D4A
330
24D3E
100
AcDbEntity
  8
0
 62
     1
100
AcDbBlockBegin
  2
*D5
 70
     1
 10
0.0
 20
0.0
 30
0.0
  3
*D5
  1

  0
LINE
  5
25631
330
24D3E
100
AcDbEntity
  8
AM_REFDIM
 62
     5
100
AcDbLine
 10
2098.388140685954
 20
385.8673816967052
 30
0.0
 11
2090.325004283035
 21
385.8673816967052
 31
0.0
  0
LINE
  5
25632
330
24D3E
100
AcDbEntity
  8
AM_REFDIM
 62
     5
100
AcDbLine
 10
2106.538140685954
 20
392.8673816967052
 30
0.0
 11
2090.325004283035
 21
392.8673816967052
 31
0.0
  0
LINE
  5
25633
330
24D3E
100
AcDbEntity
  8
AM_REFDIM
 62
     5
100
AcDbLine
 10
2092.325004283035
 20
382.8673816967052
 30
0.0
 11
2092.325004283035
 21
379.8673816967052
 31
0.0
  0
LINE
  5
25634
330
24D3E
100
AcDbEntity
  8
AM_REFDIM
 62
     5
100
AcDbLine
 10
2092.325004283035
 20
395.8673816967052
 30
0.0
 11
2092.325004283035
 21
398.8673816967052
 31
0.0
  0
LINE
  5
25635
330
24D3E
100
AcDbEntity
  8
AM_REFDIM
 62
     5
100
AcDbLine
 10
2092.325004283035
 20
385.8673816967052
 30
0.0
 11
2092.325004283035
 21
392.8673816967052
 31
0.0
  0
SOLID
  5
25636
330
24D3E
100
AcDbEntity
  8
AM_REFDIM
 62
     5
100
AcDbTrace
 10
2091.825004283035
 20
382.8673816967052
 30
0.0
 11
2092.825004283035
 21
382.8673816967052
 31
0.0
 12
2092.325004283035
 22
385.8673816967052
 32
0.0
 13
2092.325004283035
 23
385.8673816967052
 33
0.0
  0
SOLID
  5
25637
330
24D3E
100
AcDbEntity
  8
AM_REFDIM
 62
     5
100
AcDbTrace
 10
2091.825004283035
 20
395.8673816967052
 30
0.0
 11
2092.825004283035
 21
395.8673816967052
 31
0.0
 12
2092.325004283035
 22
392.8673816967052
 32
0.0
 13
2092.325004283035
 23
392.8673816967052
 33
0.0
  0
MTEXT
  5
25638
330
24D3E
100
AcDbEntity
  8
AM_REFDIM
 62
     5
100
AcDbMText
 10
2090.025004283034
 20
389.3673816967055
 30
0.0
 40
3.0
 41
0.0
 71
     5
 72
     1
  1
\A1;7
  7
DAYUS
 11
0.0000000000000001
 21
1.0
 31
0.0
1001
ACAD
1000
MTEXTBEGIN
1070
    73
1070
     1
1070
    44
1040
1.0
1070
    74
1070
     0
1000
MTEXTEND
  0
POINT
  5
25639
330
24D3E
100
AcDbEntity
  8
DEFPOINTS
 62
     0
100
AcDbPoint
 10
2099.888140685954
 20
385.8673816967052
 30
0.0
  0
POINT
  5
2563A
330
24D3E
100
AcDbEntity
  8
DEFPOINTS
 62
     0
100
AcDbPoint
 10
2108.038140685954
 20
392.8673816967052
 30
0.0
  0
POINT
  5
2563B
330
24D3E
100
AcDbEntity
  8
DEFPOINTS
 62
     0
100
AcDbPoint
 10
2092.325004283035
 20
392.8673816967052
 30
0.0
  0
ENDBLK
  5
24D4B
330
24D3E
100
AcDbEntity
  8
0
 62
     1
100
AcDbBlockEnd
  0
BLOCK
  5
24D57
330
24D4D
100
AcDbEntity
  8
0
 62
     1
100
AcDbBlockBegin
  2
*D6
 70
     1
 10
0.0
 20
0.0
 30
0.0
  3
*D6
  1

  0
LINE
  5
2563C
330
24D4D
100
AcDbEntity
  8
AM_REFDIM
 62
     5
100
AcDbLine
 10
2098.388140685954
 20
385.8673816967052
 30
0.0
 11
2082.741290094735
 21
385.8673816967052
 31
0.0
  0
LINE
  5
2563D
330
24D4D
100
AcDbEntity
  8
AM_REFDIM
 62
     5
100
AcDbLine
 10
2098.388140685954
 20
421.1673816967052
 30
0.0
 11
2082.741290094735
 21
421.1673816967052
 31
0.0
  0
LINE
  5
2563E
330
24D4D
100
AcDbEntity
  8
AM_REFDIM
 62
     5
100
AcDbLine
 10
2084.741290094735
 20
388.8673816967052
 30
0.0
 11
2084.741290094735
 21
418.1673816967052
 31
0.0
  0
SOLID
  5
2563F
330
24D4D
100
AcDbEntity
  8
AM_REFDIM
 62
     5
100
AcDbTrace
 10
2084.241290094735
 20
388.8673816967052
 30
0.0
 11
2085.241290094735
 21
388.8673816967052
 31
0.0
 12
2084.741290094735
 22
385.8673816967052
 32
0.0
 13
2084.741290094735
 23
385.8673816967052
 33
0.0
  0
SOLID
  5
25640
330
24D4D
100
AcDbEntity
  8
AM_REFDIM
 62
     5
100
AcDbTrace
 10
2084.241290094735
 20
418.1673816967052
 30
0.0
 11
2085.241290094735
 21
418.1673816967052
 31
0.0
 12
2084.741290094735
 22
421.1673816967052
 32
0.0
 13
2084.741290094735
 23
421.1673816967052
 33
0.0
  0
MTEXT
  5
25641
330
24D4D
100
AcDbEntity
  8
AM_REFDIM
 62
     5
100
AcDbMText
 10
2082.441290094735
 20
403.5173816967056
 30
0.0
 40
3.0
 41
0.0
 71
     5
 72
     1
  1
\A1;35.3
  7
DAYUS
 11
0.0000000000000001
 21
1.0
 31
0.0
1001
ACAD
1000
MTEXTBEGIN
1070
    73
1070
     1
1070
    44
1040
1.0
1070
    74
1070
     0
1000
MTEXTEND
  0
POINT
  5
25642
330
24D4D
100
AcDbEntity
  8
DEFPOINTS
 62
     0
100
AcDbPoint
 10
2099.888140685954
 20
385.8673816967052
 30
0.0
  0
POINT
  5
25643
330
24D4D
100
AcDbEntity
  8
DEFPOINTS
 62
     0
100
AcDbPoint
 10
2099.888140685954
 20
421.1673816967052
 30
0.0
  0
POINT
  5
25644
330
24D4D
100
AcDbEntity
  8
DEFPOINTS
 62
     0
100
AcDbPoint
 10
2084.741290094735
 20
421.1673816967052
 30
0.0
  0
ENDBLK
  5
24D58
330
24D4D
100
AcDbEntity
  8
0
 62
     1
100
AcDbBlockEnd
  0
BLOCK
  5
24D64
330
24D5A
100
AcDbEntity
  8
0
 62
     1
100
AcDbBlockBegin
  2
*D7
 70
     1
 10
0.0
 20
0.0
 30
0.0
  3
*D7
  1

  0
LINE
  5
25645
330
24D5A
100
AcDbEntity
  8
AM_REFDIM
 62
     5
100
AcDbLine
 10
2156.888140685954
 20
385.8673816967052
 30
0.0
 11
2240.978363613978
 21
385.8673816967052
 31
0.0
  0
LINE
  5
25646
330
24D5A
100
AcDbEntity
  8
AM_REFDIM
 62
     5
100
AcDbLine
 10
2222.388140685954
 20
451.5173816967052
 30
0.0
 11
2240.978363613978
 21
451.5173816967052
 31
0.0
  0
LINE
  5
25647
330
24D5A
100
AcDbEntity
  8
AM_REFDIM
 62
     5
100
AcDbLine
 10
2238.978363613978
 20
388.8673816967052
 30
0.0
 11
2238.978363613978
 21
448.5173816967052
 31
0.0
  0
SOLID
  5
25648
330
24D5A
100
AcDbEntity
  8
AM_REFDIM
 62
     5
100
AcDbTrace
 10
2238.478363613978
 20
388.8673816967052
 30
0.0
 11
2239.478363613978
 21
388.8673816967052
 31
0.0
 12
2238.978363613978
 22
385.8673816967052
 32
0.0
 13
2238.978363613978
 23
385.8673816967052
 33
0.0
  0
SOLID
  5
25649
330
24D5A
100
AcDbEntity
  8
AM_REFDIM
 62
     5
100
AcDbTrace
 10
2238.478363613978
 20
448.5173816967052
 30
0.0
 11
2239.478363613978
 21
448.5173816967052
 31
0.0
 12
2238.978363613978
 22
451.5173816967052
 32
0.0
 13
2238.978363613978
 23
451.5173816967052
 33
0.0
  0
MTEXT
  5
2564A
330
24D5A
100
AcDbEntity
  8
AM_REFDIM
 62
     5
100
AcDbMText
 10
2236.678363613978
 20
418.6923816967056
 30
0.0
 40
3.0
 41
0.0
 71
     5
 72
     1
  1
\A1;66
  7
DAYUS
 11
0.0000000000000001
 21
1.0
 31
0.0
1001
ACAD
1000
MTEXTBEGIN
1070
    73
1070
     1
1070
    44
1040
1.0
1070
    74
1070
     0
1000
MTEXTEND
  0
POINT
  5
2564B
330
24D5A
100
AcDbEntity
  8
DEFPOINTS
 62
     0
100
AcDbPoint
 10
2155.388140685954
 20
385.8673816967052
 30
0.0
  0
POINT
  5
2564C
330
24D5A
100
AcDbEntity
  8
DEFPOINTS
 62
     0
100
AcDbPoint
 10
2220.888140685954
 20
451.5173816967052
 30
0.0
  0
POINT
  5
2564D
330
24D5A
100
AcDbEntity
  8
DEFPOINTS
 62
     0
100
AcDbPoint
 10
2238.978363613978
 20
451.5173816967052
 30
0.0
  0
ENDBLK
  5
24D65
330
24D5A
100
AcDbEntity
  8
0
 62
     1
100
AcDbBlockEnd
  0
BLOCK
  5
24D71
330
24D67
100
AcDbEntity
  8
0
 62
     1
100
AcDbBlockBegin
  2
*D8
 70
     1
 10
0.0
 20
0.0
 30
0.0
  3
*D8
  1

  0
LINE
  5
2564E
330
24D67
100
AcDbEntity
  8
AM_REFDIM
 62
     5
100
AcDbLine
 10
2098.888140685954
 20
385.3673816967052
 30
0.0
 11
2098.888140685954
 21
352.2494441646413
 31
0.0
  0
LINE
  5
2564F
330
24D67
100
AcDbEntity
  8
AM_REFDIM
 62
     5
100
AcDbLine
 10
2216.888140685953
 20
392.5173816967051
 30
0.0
 11
2216.888140685953
 21
352.2494441646413
 31
0.0
  0
LINE
  5
25650
330
24D67
100
AcDbEntity
  8
AM_REFDIM
 62
     5
100
AcDbLine
 10
2101.888140685954
 20
354.2494441646413
 30
0.0
 11
2213.888140685954
 21
354.2494441646413
 31
0.0
  0
SOLID
  5
25651
330
24D67
100
AcDbEntity
  8
AM_REFDIM
 62
     5
100
AcDbTrace
 10
2101.888140685954
 20
354.7494441646413
 30
0.0
 11
2101.888140685954
 21
353.7494441646413
 31
0.0
 12
2098.888140685954
 22
354.2494441646413
 32
0.0
 13
2098.888140685954
 23
354.2494441646413
 33
0.0
  0
SOLID
  5
25652
330
24D67
100
AcDbEntity
  8
AM_REFDIM
 62
     5
100
AcDbTrace
 10
2213.888140685954
 20
354.7494441646413
 30
0.0
 11
2213.888140685954
 21
353.7494441646413
 31
0.0
 12
2216.888140685953
 22
354.2494441646413
 32
0.0
 13
2216.888140685953
 23
354.2494441646413
 33
0.0
  0
MTEXT
  5
25653
330
24D67
100
AcDbEntity
  8
AM_REFDIM
 62
     5
100
AcDbMText
 10
2157.888140685954
 20
356.5494441646413
 30
0.0
 40
3.0
 41
0.0
 71
     5
 72
     1
  1
\A1;118
  7
DAYUS
1001
ACAD
1000
MTEXTBEGIN
1070
    73
1070
     1
1070
    44
1040
1.0
1070
    74
1070
     0
1000
MTEXTEND
  0
POINT
  5
25654
330
24D67
100
AcDbEntity
  8
DEFPOINTS
 62
     0
100
AcDbPoint
 10
2098.888140685954
 20
386.8673816967052
 30
0.0
  0
POINT
  5
25655
330
24D67
100
AcDbEntity
  8
DEFPOINTS
 62
     0
100
AcDbPoint
 10
2216.888140685953
 20
394.0173816967051
 30
0.0
  0
POINT
  5
25656
330
24D67
100
AcDbEntity
  8
DEFPOINTS
 62
     0
100
AcDbPoint
 10
2216.888140685953
 20
354.2494441646413
 30
0.0
  0
ENDBLK
  5
24D72
330
24D67
100
AcDbEntity
  8
0
 62
     1
100
AcDbBlockEnd
  0
BLOCK
  5
24D7E
330
24D74
100
AcDbEntity
  8
0
 62
     1
100
AcDbBlockBegin
  2
*D9
 70
     1
 10
0.0
 20
0.0
 30
0.0
  3
*D9
  1

  0
LINE
  5
25657
330
24D74
100
AcDbEntity
  8
AM_REFDIM
 62
     5
100
AcDbLine
 10
2119.888140685954
 20
488.0931531604435
 30
0.0
 11
2119.888140685954
 21
475.115535275946
 31
0.0
  0
LINE
  5
25658
330
24D74
100
AcDbEntity
  8
AM_REFDIM
 62
     5
100
AcDbLine
 10
2140.888140685954
 20
488.0931531604435
 30
0.0
 11
2140.888140685954
 21
475.115535275946
 31
0.0
  0
LINE
  5
25659
330
24D74
100
AcDbEntity
  8
AM_REFDIM
 62
     5
100
AcDbLine
 10
2122.888140685954
 20
477.1155352759461
 30
0.0
 11
2137.888140685954
 21
477.1155352759461
 31
0.0
  0
SOLID
  5
2565A
330
24D74
100
AcDbEntity
  8
AM_REFDIM
 62
     5
100
AcDbTrace
 10
2122.888140685954
 20
477.615535275946
 30
0.0
 11
2122.888140685954
 21
476.6155352759461
 31
0.0
 12
2119.888140685954
 22
477.1155352759461
 32
0.0
 13
2119.888140685954
 23
477.1155352759461
 33
0.0
  0
SOLID
  5
2565B
330
24D74
100
AcDbEntity
  8
AM_REFDIM
 62
     5
100
AcDbTrace
 10
2137.888140685954
 20
477.615535275946
 30
0.0
 11
2137.888140685954
 21
476.6155352759461
 31
0.0
 12
2140.888140685954
 22
477.1155352759461
 32
0.0
 13
2140.888140685954
 23
477.1155352759461
 33
0.0
  0
MTEXT
  5
2565C
330
24D74
100
AcDbEntity
  8
AM_REFDIM
 62
     5
100
AcDbMText
 10
2130.388140685954
 20
479.415535275946
 30
0.0
 40
3.0
 41
0.0
 71
     5
 72
     1
  1
\A1;21
  7
DAYUS
1001
ACAD
1000
MTEXTBEGIN
1070
    73
1070
     1
1070
    44
1040
1.0
1070
    74
1070
     0
1000
MTEXTEND
  0
POINT
  5
2565D
330
24D74
100
AcDbEntity
  8
DEFPOINTS
 62
     0
100
AcDbPoint
 10
2119.888140685954
 20
489.5931531604435
 30
0.0
  0
POINT
  5
2565E
330
24D74
100
AcDbEntity
  8
DEFPOINTS
 62
     0
100
AcDbPoint
 10
2140.888140685954
 20
489.5931531604435
 30
0.0
  0
POINT
  5
2565F
330
24D74
100
AcDbEntity
  8
DEFPOINTS
 62
     0
100
AcDbPoint
 10
2140.888140685954
 20
477.1155352759461
 30
0.0
  0
ENDBLK
  5
24D7F
330
24D74
100
AcDbEntity
  8
0
 62
     1
100
AcDbBlockEnd
  0
BLOCK
  5
24D8B
330
24D81
100
AcDbEntity
  8
0
 62
     1
100
AcDbBlockBegin
  2
*D10
 70
     1
 10
0.0
 20
0.0
 30
0.0
  3
*D10
  1

  0
LINE
  5
25660
330
24D81
100
AcDbEntity
  8
AM_REFDIM
 62
     5
100
AcDbLine
 10
2098.888140685954
 20
483.5931531604434
 30
0.0
 11
2098.888140685954
 21
468.8985009340922
 31
0.0
  0
LINE
  5
25661
330
24D81
100
AcDbEntity
  8
AM_REFDIM
 62
     5
100
AcDbLine
 10
2230.388140685954
 20
486.5555488534096
 30
0.0
 11
2230.388140685954
 21
468.8985009340922
 31
0.0
  0
LINE
  5
25662
330
24D81
100
AcDbEntity
  8
AM_REFDIM
 62
     5
100
AcDbLine
 10
2101.888140685954
 20
470.8985009340922
 30
0.0
 11
2227.388140685954
 21
470.8985009340922
 31
0.0
  0
SOLID
  5
25663
330
24D81
100
AcDbEntity
  8
AM_REFDIM
 62
     5
100
AcDbTrace
 10
2101.888140685954
 20
471.3985009340922
 30
0.0
 11
2101.888140685954
 21
470.3985009340922
 31
0.0
 12
2098.888140685954
 22
470.8985009340922
 32
0.0
 13
2098.888140685954
 23
470.8985009340922
 33
0.0
  0
SOLID
  5
25664
330
24D81
100
AcDbEntity
  8
AM_REFDIM
 62
     5
100
AcDbTrace
 10
2227.388140685954
 20
471.3985009340922
 30
0.0
 11
2227.388140685954
 21
470.3985009340922
 31
0.0
 12
2230.388140685954
 22
470.8985009340922
 32
0.0
 13
2230.388140685954
 23
470.8985009340922
 33
0.0
  0
MTEXT
  5
25665
330
24D81
100
AcDbEntity
  8
AM_REFDIM
 62
     5
100
AcDbMText
 10
2164.638140685954
 20
473.1985009340922
 30
0.0
 40
3.0
 41
0.0
 71
     5
 72
     1
  1
\A1;131.5
  7
DAYUS
1001
ACAD
1000
MTEXTBEGIN
1070
    73
1070
     1
1070
    44
1040
1.0
1070
    74
1070
     0
1000
MTEXTEND
  0
POINT
  5
25666
330
24D81
100
AcDbEntity
  8
DEFPOINTS
 62
     0
100
AcDbPoint
 10
2098.888140685954
 20
485.0931531604434
 30
0.0
  0
POINT
  5
25667
330
24D81
100
AcDbEntity
  8
DEFPOINTS
 62
     0
100
AcDbPoint
 10
2230.388140685954
 20
488.0555488534096
 30
0.0
  0
POINT
  5
25668
330
24D81
100
AcDbEntity
  8
DEFPOINTS
 62
     0
100
AcDbPoint
 10
2230.388140685954
 20
470.8985009340922
 30
0.0
  0
ENDBLK
  5
24D8C
330
24D81
100
AcDbEntity
  8
0
 62
     1
100
AcDbBlockEnd
  0
BLOCK
  5
24DA5
330
24D9B
100
AcDbEntity
  8
0
 62
     1
100
AcDbBlockBegin
  2
*D11
 70
     1
 10
0.0
 20
0.0
 30
0.0
  3
*D11
  1

  0
LINE
  5
25669
330
24D9B
100
AcDbEntity
  8
AM_REFDIM
 62
     5
100
AcDbLine
 10
2125.388140685954
 20
512.3931531604434
 30
0.0
 11
2125.388140685954
 21
517.9137639392684
 31
0.0
  0
LINE
  5
2566A
330
24D9B
100
AcDbEntity
  8
AM_REFDIM
 62
     5
100
AcDbLine
 10
2135.388140685954
 20
491.3931531604434
 30
0.0
 11
2135.388140685954
 21
517.9137639392684
 31
0.0
  0
LINE
  5
2566B
330
24D9B
100
AcDbEntity
  8
AM_REFDIM
 62
     5
100
AcDbLine
 10
2128.388140685954
 20
515.9137639392683
 30
0.0
 11
2132.388140685954
 21
515.9137639392683
 31
0.0
  0
SOLID
  5
2566C
330
24D9B
100
AcDbEntity
  8
AM_REFDIM
 62
     5
100
AcDbTrace
 10
2128.388140685954
 20
516.4137639392683
 30
0.0
 11
2128.388140685954
 21
515.4137639392684
 31
0.0
 12
2125.388140685954
 22
515.9137639392683
 32
0.0
 13
2125.388140685954
 23
515.9137639392683
 33
0.0
  0
SOLID
  5
2566D
330
24D9B
100
AcDbEntity
  8
AM_REFDIM
 62
     5
100
AcDbTrace
 10
2132.388140685954
 20
516.4137639392683
 30
0.0
 11
2132.388140685954
 21
515.4137639392684
 31
0.0
 12
2135.388140685954
 22
515.9137639392683
 32
0.0
 13
2135.388140685954
 23
515.9137639392683
 33
0.0
  0
MTEXT
  5
2566E
330
24D9B
100
AcDbEntity
  8
AM_REFDIM
 62
     5
100
AcDbMText
 10
2130.388140685954
 20
518.2137639392683
 30
0.0
 40
3.0
 41
0.0
 71
     5
 72
     1
  1
\A1;10
  7
DAYUS
1001
ACAD
1000
MTEXTBEGIN
1070
    73
1070
     1
1070
    44
1040
1.0
1070
    74
1070
     0
1000
MTEXTEND
  0
POINT
  5
2566F
330
24D9B
100
AcDbEntity
  8
DEFPOINTS
 62
     0
100
AcDbPoint
 10
2125.388140685954
 20
510.8931531604435
 30
0.0
  0
POINT
  5
25670
330
24D9B
100
AcDbEntity
  8
DEFPOINTS
 62
     0
100
AcDbPoint
 10
2135.388140685954
 20
489.8931531604435
 30
0.0
  0
POINT
  5
25671
330
24D9B
100
AcDbEntity
  8
DEFPOINTS
 62
     0
100
AcDbPoint
 10
2135.388140685954
 20
515.9137639392683
 30
0.0
  0
ENDBLK
  5
24DA6
330
24D9B
100
AcDbEntity
  8
0
 62
     1
100
AcDbBlockEnd
  0
BLOCK
  5
24DB2
330
24DA8
100
AcDbEntity
  8
0
 62
     1
100
AcDbBlockBegin
  2
*D12
 70
     1
 10
0.0
 20
0.0
 30
0.0
  3
*D12
  1

  0
LINE
  5
25672
330
24DA8
100
AcDbEntity
  8
AM_REFDIM
 62
     5
100
AcDbLine
 10
2120.788140685954
 20
507.7931531604434
 30
0.0
 11
2092.470568414053
 21
507.7931531604434
 31
0.0
  0
LINE
  5
25673
330
24DA8
100
AcDbEntity
  8
AM_REFDIM
 62
     5
100
AcDbLine
 10
2130.788140685954
 20
486.7931531604434
 30
0.0
 11
2092.470568414053
 21
486.7931531604434
 31
0.0
  0
LINE
  5
25674
330
24DA8
100
AcDbEntity
  8
AM_REFDIM
 62
     5
100
AcDbLine
 10
2094.470568414053
 20
504.7931531604434
 30
0.0
 11
2094.470568414053
 21
489.7931531604434
 31
0.0
  0
SOLID
  5
25675
330
24DA8
100
AcDbEntity
  8
AM_REFDIM
 62
     5
100
AcDbTrace
 10
2093.970568414053
 20
504.7931531604434
 30
0.0
 11
2094.970568414053
 21
504.7931531604434
 31
0.0
 12
2094.470568414053
 22
507.7931531604434
 32
0.0
 13
2094.470568414053
 23
507.7931531604434
 33
0.0
  0
SOLID
  5
25676
330
24DA8
100
AcDbEntity
  8
AM_REFDIM
 62
     5
100
AcDbTrace
 10
2093.970568414053
 20
489.7931531604434
 30
0.0
 11
2094.970568414053
 21
489.7931531604434
 31
0.0
 12
2094.470568414053
 22
486.7931531604434
 32
0.0
 13
2094.470568414053
 23
486.7931531604434
 33
0.0
  0
MTEXT
  5
25677
330
24DA8
100
AcDbEntity
  8
AM_REFDIM
 62
     5
100
AcDbMText
 10
2092.170568414053
 20
497.2931531604437
 30
0.0
 40
3.0
 41
0.0
 71
     5
 72
     1
  1
\A1;21
  7
DAYUS
 11
0.0000000000000001
 21
1.0
 31
0.0
1001
ACAD
1000
MTEXTBEGIN
1070
    73
1070
     1
1070
    44
1040
1.0
1070
    74
1070
     0
1000
MTEXTEND
  0
POINT
  5
25678
330
24DA8
100
AcDbEntity
  8
DEFPOINTS
 62
     0
100
AcDbPoint
 10
2122.288140685954
 20
507.7931531604434
 30
0.0
  0
POINT
  5
25679
330
24DA8
100
AcDbEntity
  8
DEFPOINTS
 62
     0
100
AcDbPoint
 10
2132.288140685954
 20
486.7931531604434
 30
0.0
  0
POINT
  5
2567A
330
24DA8
100
AcDbEntity
  8
DEFPOINTS
 62
     0
100
AcDbPoint
 10
2094.470568414053
 20
486.7931531604434
 30
0.0
  0
ENDBLK
  5
24DB3
330
24DA8
100
AcDbEntity
  8
0
 62
     1
100
AcDbBlockEnd
  0
BLOCK
  5
24DBF
330
24DB5
100
AcDbEntity
  8
0
 62
     1
100
AcDbBlockBegin
  2
*D13
 70
     1
 10
0.0
 20
0.0
 30
0.0
  3
*D13
  1

  0
LINE
  5
2567B
330
24DB5
100
AcDbEntity
  8
AM_REFDIM
 62
     5
100
AcDbLine
 10
2098.388140685954
 20
510.4931531604433
 30
0.0
 11
2085.289948894349
 21
510.4931531604433
 31
0.0
  0
LINE
  5
2567C
330
24DB5
100
AcDbEntity
  8
AM_REFDIM
 62
     5
100
AcDbLine
 10
2098.388140685954
 20
484.0931531604434
 30
0.0
 11
2085.289948894349
 21
484.0931531604434
 31
0.0
  0
LINE
  5
2567D
330
24DB5
100
AcDbEntity
  8
AM_REFDIM
 62
     5
100
AcDbLine
 10
2087.289948894349
 20
507.4931531604433
 30
0.0
 11
2087.289948894349
 21
487.0931531604433
 31
0.0
  0
SOLID
  5
2567E
330
24DB5
100
AcDbEntity
  8
AM_REFDIM
 62
     5
100
AcDbTrace
 10
2086.789948894349
 20
507.4931531604433
 30
0.0
 11
2087.789948894349
 21
507.4931531604433
 31
0.0
 12
2087.289948894349
 22
510.4931531604433
 32
0.0
 13
2087.289948894349
 23
510.4931531604433
 33
0.0
  0
SOLID
  5
2567F
330
24DB5
100
AcDbEntity
  8
AM_REFDIM
 62
     5
100
AcDbTrace
 10
2086.789948894349
 20
487.0931531604433
 30
0.0
 11
2087.789948894349
 21
487.0931531604433
 31
0.0
 12
2087.289948894349
 22
484.0931531604434
 32
0.0
 13
2087.289948894349
 23
484.0931531604434
 33
0.0
  0
MTEXT
  5
25680
330
24DB5
100
AcDbEntity
  8
AM_REFDIM
 62
     5
100
AcDbMText
 10
2084.989948894349
 20
497.2931531604437
 30
0.0
 40
3.0
 41
0.0
 71
     5
 72
     1
  1
\A1;26.4
  7
DAYUS
 11
0.0000000000000001
 21
1.0
 31
0.0
1001
ACAD
1000
MTEXTBEGIN
1070
    73
1070
     1
1070
    44
1040
1.0
1070
    74
1070
     0
1000
MTEXTEND
  0
POINT
  5
25681
330
24DB5
100
AcDbEntity
  8
DEFPOINTS
 62
     0
100
AcDbPoint
 10
2099.888140685954
 20
510.4931531604433
 30
0.0
  0
POINT
  5
25682
330
24DB5
100
AcDbEntity
  8
DEFPOINTS
 62
     0
100
AcDbPoint
 10
2099.888140685954
 20
484.0931531604434
 30
0.0
  0
POINT
  5
25683
330
24DB5
100
AcDbEntity
  8
DEFPOINTS
 62
     0
100
AcDbPoint
 10
2087.289948894349
 20
484.0931531604434
 30
0.0
  0
ENDBLK
  5
24DC0
330
24DB5
100
AcDbEntity
  8
0
 62
     1
100
AcDbBlockEnd
  0
ENDSEC
  0
SECTION
  2
ENTITIES
  0
MTEXT
  5
20A1
330
1F
100
AcDbEntity
  8
AM_REFDIM
100
AcDbMText
 10
561.1885018225272
 20
211.9777653808241
 30
0.0
 40
5.0
 41
0.0
 71
     9
 72
     1
  1

  7
DAYUS
1001
ACAD
1000
MTEXTBEGIN
1070
    73
1070
     1
1070
    44
1040
1.0
1070
    74
1070
     0
1000
MTEXTEND
  0
MTEXT
  5
21E1
330
1F
100
AcDbEntity
  8
AM_REFDIM
100
AcDbMText
 10
755.6608394056113
 20
277.1617022919267
 30
0.0
 40
5.0
 41
0.0
 71
     9
 72
     1
  1

  7
DAYUS
1001
ACAD
1000
MTEXTBEGIN
1070
    73
1070
     1
1070
    44
1040
1.0
1070
    74
1070
     0
1000
MTEXTEND
  0
MTEXT
  5
21E8
330
1F
100
AcDbEntity
  8
AM_REFDIM
100
AcDbMText
 10
749.57448324194
 20
209.4269307825009
 30
0.0
 40
5.0
 41
0.0
 71
     9
 72
     1
  1

  7
DAYUS
1001
ACAD
1000
MTEXTBEGIN
1070
    73
1070
     1
1070
    44
1040
1.0
1070
    74
1070
     0
1000
MTEXTEND
  0
MTEXT
  5
950E
330
1F
100
AcDbEntity
  8
AM_REFDIM
100
AcDbMText
 10
883.1481342807478
 20
-16.56429920726827
 30
0.0
 40
5.0
 41
0.0
 71
     9
 72
     1
  1

  7
DAYUS
1001
ACAD
1000
MTEXTBEGIN
1070
    73
1070
     1
1070
    44
1040
1.0
1070
    74
1070
     0
1000
MTEXTEND
  0
MTEXT
  5
9515
330
1F
100
AcDbEntity
  8
AM_REFDIM
100
AcDbMText
 10
877.0617781170765
 20
-84.29907071669413
 30
0.0
 40
5.0
 41
0.0
 71
     9
 72
     1
  1

  7
DAYUS
1001
ACAD
1000
MTEXTBEGIN
1070
    73
1070
     1
1070
    44
1040
1.0
1070
    74
1070
     0
1000
MTEXTEND
  0
MTEXT
  5
9538
330
1F
100
AcDbEntity
  8
AM_REFDIM
100
AcDbMText
 10
688.6757966976639
 20
-81.74823611837087
 30
0.0
 40
5.0
 41
0.0
 71
     9
 72
     1
  1

  7
DAYUS
1001
ACAD
1000
MTEXTBEGIN
1070
    73
1070
     1
1070
    44
1040
1.0
1070
    74
1070
     0
1000
MTEXTEND
  0
MTEXT
  5
D622
330
1F
100
AcDbEntity
  8
AM_5
 62
     2
100
AcDbMText
 10
364.1980009625231
 20
217.5933376591914
 30
0.0
 40
3.5
 41
0.0
 71
     7
 72
     1
  1

  7
ACISOTS
1001
ACAD
1000
MTEXTBEGIN
1070
    73
1070
     1
1070
    44
1040
1.0
1070
    74
1070
     0
1000
MTEXTEND
  0
MTEXT
  5
D62D
330
1F
100
AcDbEntity
  8
AM_5
 62
     2
100
AcDbMText
 10
375.2854589832454
 20
224.3263974052412
 30
0.0
 40
3.5
 41
0.0
 71
     9
 72
     1
  1

  7
ACISOTS
1001
ACAD
1000
MTEXTBEGIN
1070
    73
1070
     1
1070
    44
1040
1.0
1070
    74
1070
     0
1000
MTEXTEND
  0
TEXT
  5
18C6F
330
1F
100
AcDbEntity
  8
LOGO
  6
CONTINUOUS
 62
     6
100
AcDbText
 10
1607.053940236462
 20
18.56092768566134
 30
0.0
 40
2.164502164502164
  1

  7
CHINESET
 72
     4
 11
1607.053940236462
 21
18.56092768566134
 31
0.0
100
AcDbText
  0
LINE
  5
18C70
330
1F
100
AcDbEntity
  8
AM_7
 60
     1
100
AcDbLine
 10
1703.42710757797
 20
494.4380328974459
 30
0.0
 11
1667.027107577969
 21
494.4380328974459
 31
0.0
  0
LINE
  5
18C71
330
1F
100
AcDbEntity
  8
AM_7
 60
     1
100
AcDbLine
 10
1598.77373621326
 20
494.4380328974459
 30
0.0
 11
1601.77373621326
 21
494.4380328974459
 31
0.0
  0
LINE
  5
18C72
330
1F
100
AcDbEntity
  8
AM_7
 60
     1
100
AcDbLine
 10
1600.27373621326
 20
492.9380328974458
 30
0.0
 11
1600.27373621326
 21
495.9380328974458
 31
0.0
  0
LINE
  5
18C73
330
1F
100
AcDbEntity
  8
AM_7
 60
     1
100
AcDbLine
 10
1591.27373621326
 20
494.4380328974459
 30
0.0
 11
1597.77373621326
 21
494.4380328974459
 31
0.0
  0
LINE
  5
18C74
330
1F
100
AcDbEntity
  8
AM_7
 60
     1
100
AcDbLine
 10
1602.77373621326
 20
494.4380328974459
 30
0.0
 11
1609.27373621326
 21
494.4380328974459
 31
0.0
  0
LINE
  5
18C75
330
1F
100
AcDbEntity
  8
AM_7
 60
     1
100
AcDbLine
 10
1600.27373621326
 20
485.4380328974458
 30
0.0
 11
1600.27373621326
 21
491.9380328974458
 31
0.0
  0
LINE
  5
18C76
330
1F
100
AcDbEntity
  8
AM_7
 60
     1
100
AcDbLine
 10
1600.27373621326
 20
496.9380328974458
 30
0.0
 11
1600.27373621326
 21
503.4380328974458
 31
0.0
  0
LINE
  5
18C77
330
1F
100
AcDbEntity
  8
AM_7
 60
     1
100
AcDbLine
 10
1590.52373621326
 20
486.1880328974458
 30
0.0
 11
1593.52373621326
 21
486.1880328974458
 31
0.0
  0
LINE
  5
18C78
330
1F
100
AcDbEntity
  8
AM_7
 60
     1
100
AcDbLine
 10
1592.02373621326
 20
484.6880328974458
 30
0.0
 11
1592.02373621326
 21
487.6880328974458
 31
0.0
  0
LINE
  5
18C79
330
1F
100
AcDbEntity
  8
AM_7
 60
     1
100
AcDbLine
 10
1588.25843621326
 20
486.1880328974458
 30
0.0
 11
1589.52373621326
 21
486.1880328974458
 31
0.0
  0
LINE
  5
18C7A
330
1F
100
AcDbEntity
  8
AM_7
 60
     1
100
AcDbLine
 10
1594.52373621326
 20
486.1880328974458
 30
0.0
 11
1595.78903621326
 21
486.1880328974458
 31
0.0
  0
LINE
  5
18C7B
330
1F
100
AcDbEntity
  8
AM_7
 60
     1
100
AcDbLine
 10
1592.02373621326
 20
482.4227328974457
 30
0.0
 11
1592.02373621326
 21
483.6880328974458
 31
0.0
  0
LINE
  5
18C7C
330
1F
100
AcDbEntity
  8
AM_7
 60
     1
100
AcDbLine
 10
1592.02373621326
 20
488.6880328974458
 30
0.0
 11
1592.02373621326
 21
489.9533328974459
 31
0.0
  0
LINE
  5
18C7D
330
1F
100
AcDbEntity
  8
AM_7
 60
     1
100
AcDbLine
 10
1607.02373621326
 20
486.1880328974458
 30
0.0
 11
1610.02373621326
 21
486.1880328974458
 31
0.0
  0
LINE
  5
18C7E
330
1F
100
AcDbEntity
  8
AM_7
 60
     1
100
AcDbLine
 10
1608.52373621326
 20
484.6880328974458
 30
0.0
 11
1608.52373621326
 21
487.6880328974458
 31
0.0
  0
LINE
  5
18C7F
330
1F
100
AcDbEntity
  8
AM_7
 60
     1
100
AcDbLine
 10
1604.75843621326
 20
486.1880328974458
 30
0.0
 11
1606.02373621326
 21
486.1880328974458
 31
0.0
  0
LINE
  5
18C80
330
1F
100
AcDbEntity
  8
AM_7
 60
     1
100
AcDbLine
 10
1611.02373621326
 20
486.1880328974458
 30
0.0
 11
1612.28903621326
 21
486.1880328974458
 31
0.0
  0
LINE
  5
18C81
330
1F
100
AcDbEntity
  8
AM_7
 60
     1
100
AcDbLine
 10
1608.52373621326
 20
482.4227328974457
 30
0.0
 11
1608.52373621326
 21
483.6880328974458
 31
0.0
  0
LINE
  5
18C82
330
1F
100
AcDbEntity
  8
AM_7
 60
     1
100
AcDbLine
 10
1608.52373621326
 20
488.6880328974458
 30
0.0
 11
1608.52373621326
 21
489.9533328974459
 31
0.0
  0
LINE
  5
18C83
330
1F
100
AcDbEntity
  8
AM_7
 60
     1
100
AcDbLine
 10
1607.02373621326
 20
502.6880328974458
 30
0.0
 11
1610.02373621326
 21
502.6880328974458
 31
0.0
  0
LINE
  5
18C84
330
1F
100
AcDbEntity
  8
AM_7
 60
     1
100
AcDbLine
 10
1608.52373621326
 20
501.1880328974458
 30
0.0
 11
1608.52373621326
 21
504.1880328974458
 31
0.0
  0
LINE
  5
18C85
330
1F
100
AcDbEntity
  8
AM_7
 60
     1
100
AcDbLine
 10
1604.75843621326
 20
502.6880328974458
 30
0.0
 11
1606.02373621326
 21
502.6880328974458
 31
0.0
  0
LINE
  5
18C86
330
1F
100
AcDbEntity
  8
AM_7
 60
     1
100
AcDbLine
 10
1611.02373621326
 20
502.6880328974458
 30
0.0
 11
1612.28903621326
 21
502.6880328974458
 31
0.0
  0
LINE
  5
18C87
330
1F
100
AcDbEntity
  8
AM_7
 60
     1
100
AcDbLine
 10
1608.52373621326
 20
498.9227328974457
 30
0.0
 11
1608.52373621326
 21
500.1880328974458
 31
0.0
  0
LINE
  5
18C88
330
1F
100
AcDbEntity
  8
AM_7
 60
     1
100
AcDbLine
 10
1608.52373621326
 20
505.1880328974458
 30
0.0
 11
1608.52373621326
 21
506.4533328974459
 31
0.0
  0
LINE
  5
18C89
330
1F
100
AcDbEntity
  8
AM_7
 60
     1
100
AcDbLine
 10
1590.52373621326
 20
502.6880328974458
 30
0.0
 11
1593.52373621326
 21
502.6880328974458
 31
0.0
  0
LINE
  5
18C8A
330
1F
100
AcDbEntity
  8
AM_7
 60
     1
100
AcDbLine
 10
1592.02373621326
 20
501.1880328974458
 30
0.0
 11
1592.02373621326
 21
504.1880328974458
 31
0.0
  0
LINE
  5
18C8B
330
1F
100
AcDbEntity
  8
AM_7
 60
     1
100
AcDbLine
 10
1588.25843621326
 20
502.6880328974458
 30
0.0
 11
1589.52373621326
 21
502.6880328974458
 31
0.0
  0
LINE
  5
18C8C
330
1F
100
AcDbEntity
  8
AM_7
 60
     1
100
AcDbLine
 10
1594.52373621326
 20
502.6880328974458
 30
0.0
 11
1595.78903621326
 21
502.6880328974458
 31
0.0
  0
LINE
  5
18C8D
330
1F
100
AcDbEntity
  8
AM_7
 60
     1
100
AcDbLine
 10
1592.02373621326
 20
498.9227328974457
 30
0.0
 11
1592.02373621326
 21
500.1880328974458
 31
0.0
  0
LINE
  5
18C8E
330
1F
100
AcDbEntity
  8
AM_7
 60
     1
100
AcDbLine
 10
1592.02373621326
 20
505.1880328974458
 30
0.0
 11
1592.02373621326
 21
506.4533328974459
 31
0.0
  0
MTEXT
  5
18CB4
330
1F
100
AcDbEntity
  8
AM_REFDIM
100
AcDbMText
 10
1962.037796887762
 20
861.6686719008741
 30
0.0
 40
5.0
 41
0.0
 71
     9
 72
     1
  1

  7
DAYUS
1001
ACAD
1000
MTEXTBEGIN
1070
    73
1070
     1
1070
    44
1040
1.0
1070
    74
1070
     0
1000
MTEXTEND
  0
MTEXT
  5
18CB5
330
1F
100
AcDbEntity
  8
AM_REFDIM
100
AcDbMText
 10
2156.510134470846
 20
926.8526088119768
 30
0.0
 40
5.0
 41
0.0
 71
     9
 72
     1
  1

  7
DAYUS
1001
ACAD
1000
MTEXTBEGIN
1070
    73
1070
     1
1070
    44
1040
1.0
1070
    74
1070
     0
1000
MTEXTEND
  0
MTEXT
  5
18CB6
330
1F
100
AcDbEntity
  8
AM_REFDIM
100
AcDbMText
 10
2150.423778307174
 20
859.117837302551
 30
0.0
 40
5.0
 41
0.0
 71
     9
 72
     1
  1

  7
DAYUS
1001
ACAD
1000
MTEXTBEGIN
1070
    73
1070
     1
1070
    44
1040
1.0
1070
    74
1070
     0
1000
MTEXTEND
  0
MTEXT
  5
1A473
330
1F
100
AcDbEntity
  8
AM_REFDIM
100
AcDbMText
 10
1486.199220780581
 20
243.3414529416031
 30
0.0
 40
5.0
 41
0.0
 71
     9
 72
     1
  1

  7
DAYUS
1001
ACAD
1000
MTEXTBEGIN
1070
    73
1070
     1
1070
    44
1040
1.0
1070
    74
1070
     0
1000
MTEXTEND
  0
MTEXT
  5
1A474
330
1F
100
AcDbEntity
  8
AM_REFDIM
100
AcDbMText
 10
1680.671558363665
 20
308.5253898527057
 30
0.0
 40
5.0
 41
0.0
 71
     9
 72
     1
  1

  7
DAYUS
1001
ACAD
1000
MTEXTBEGIN
1070
    73
1070
     1
1070
    44
1040
1.0
1070
    74
1070
     0
1000
MTEXTEND
  0
MTEXT
  5
1A475
330
1F
100
AcDbEntity
  8
AM_REFDIM
100
AcDbMText
 10
1674.585202199994
 20
240.7906183432799
 30
0.0
 40
5.0
 41
0.0
 71
     9
 72
     1
  1

  7
DAYUS
1001
ACAD
1000
MTEXTBEGIN
1070
    73
1070
     1
1070
    44
1040
1.0
1070
    74
1070
     0
1000
MTEXTEND
  0
MTEXT
  5
1A476
330
1F
100
AcDbEntity
  8
AM_REFDIM
100
AcDbMText
 10
1808.158853238802
 20
14.79938835351072
 30
0.0
 40
5.0
 41
0.0
 71
     9
 72
     1
  1

  7
DAYUS
1001
ACAD
1000
MTEXTBEGIN
1070
    73
1070
     1
1070
    44
1040
1.0
1070
    74
1070
     0
1000
MTEXTEND
  0
MTEXT
  5
1A477
330
1F
100
AcDbEntity
  8
AM_REFDIM
100
AcDbMText
 10
1802.07249707513
 20
-52.93538315591513
 30
0.0
 40
5.0
 41
0.0
 71
     9
 72
     1
  1

  7
DAYUS
1001
ACAD
1000
MTEXTBEGIN
1070
    73
1070
     1
1070
    44
1040
1.0
1070
    74
1070
     0
1000
MTEXTEND
  0
MTEXT
  5
1A478
330
1F
100
AcDbEntity
  8
AM_REFDIM
100
AcDbMText
 10
1613.686515655718
 20
-50.38454855759187
 30
0.0
 40
5.0
 41
0.0
 71
     9
 72
     1
  1

  7
DAYUS
1001
ACAD
1000
MTEXTBEGIN
1070
    73
1070
     1
1070
    44
1040
1.0
1070
    74
1070
     0
1000
MTEXTEND
  0
MTEXT
  5
1A47B
330
1F
100
AcDbEntity
  8
AM_5
 62
     2
100
AcDbMText
 10
1289.208719920577
 20
248.9570252199704
 30
0.0
 40
3.5
 41
0.0
 71
     7
 72
     1
  1

  7
ACISOTS
1001
ACAD
1000
MTEXTBEGIN
1070
    73
1070
     1
1070
    44
1040
1.0
1070
    74
1070
     0
1000
MTEXTEND
  0
MTEXT
  5
1A47C
330
1F
100
AcDbEntity
  8
AM_5
 62
     2
100
AcDbMText
 10
1300.296177941299
 20
255.6900849660201
 30
0.0
 40
3.5
 41
0.0
 71
     9
 72
     1
  1

  7
ACISOTS
1001
ACAD
1000
MTEXTBEGIN
1070
    73
1070
     1
1070
    44
1040
1.0
1070
    74
1070
     0
1000
MTEXTEND
  0
MTEXT
  5
1C43E
330
1F
100
AcDbEntity
  8
AM_REFDIM
100
AcDbMText
 10
2160.859216838797
 20
117.5837066786887
 30
0.0
 40
5.0
 41
0.0
 71
     9
 72
     1
  1

  7
DAYUS
1001
ACAD
1000
MTEXTBEGIN
1070
    73
1070
     1
1070
    44
1040
1.0
1070
    74
1070
     0
1000
MTEXTEND
  0
MTEXT
  5
1C43F
330
1F
100
AcDbEntity
  8
AM_REFDIM
100
AcDbMText
 10
2355.331554421881
 20
182.7676435897913
 30
0.0
 40
5.0
 41
0.0
 71
     9
 72
     1
  1

  7
DAYUS
1001
ACAD
1000
MTEXTBEGIN
1070
    73
1070
     1
1070
    44
1040
1.0
1070
    74
1070
     0
1000
MTEXTEND
  0
MTEXT
  5
1C440
330
1F
100
AcDbEntity
  8
AM_REFDIM
100
AcDbMText
 10
2349.24519825821
 20
115.0328720803654
 30
0.0
 40
5.0
 41
0.0
 71
     9
 72
     1
  1

  7
DAYUS
1001
ACAD
1000
MTEXTBEGIN
1070
    73
1070
     1
1070
    44
1040
1.0
1070
    74
1070
     0
1000
MTEXTEND
  0
MTEXT
  5
1C441
330
1F
100
AcDbEntity
  8
AM_REFDIM
100
AcDbMText
 10
2482.818849297018
 20
-110.9583579094037
 30
0.0
 40
5.0
 41
0.0
 71
     9
 72
     1
  1

  7
DAYUS
1001
ACAD
1000
MTEXTBEGIN
1070
    73
1070
     1
1070
    44
1040
1.0
1070
    74
1070
     0
1000
MTEXTEND
  0
MTEXT
  5
1C442
330
1F
100
AcDbEntity
  8
AM_REFDIM
100
AcDbMText
 10
2476.732493133347
 20
-178.6931294188295
 30
0.0
 40
5.0
 41
0.0
 71
     9
 72
     1
  1

  7
DAYUS
1001
ACAD
1000
MTEXTBEGIN
1070
    73
1070
     1
1070
    44
1040
1.0
1070
    74
1070
     0
1000
MTEXTEND
  0
MTEXT
  5
1C443
330
1F
100
AcDbEntity
  8
AM_REFDIM
100
AcDbMText
 10
2288.346511713934
 20
-176.1422948205063
 30
0.0
 40
5.0
 41
0.0
 71
     9
 72
     1
  1

  7
DAYUS
1001
ACAD
1000
MTEXTBEGIN
1070
    73
1070
     1
1070
    44
1040
1.0
1070
    74
1070
     0
1000
MTEXTEND
  0
MTEXT
  5
1C446
330
1F
100
AcDbEntity
  8
AM_5
 62
     2
100
AcDbMText
 10
1963.868715978793
 20
123.1992789570559
 30
0.0
 40
3.5
 41
0.0
 71
     7
 72
     1
  1

  7
ACISOTS
1001
ACAD
1000
MTEXTBEGIN
1070
    73
1070
     1
1070
    44
1040
1.0
1070
    74
1070
     0
1000
MTEXTEND
  0
MTEXT
  5
1C447
330
1F
100
AcDbEntity
  8
AM_5
 62
     2
100
AcDbMText
 10
1974.956173999515
 20
129.9323387031057
 30
0.0
 40
3.5
 41
0.0
 71
     9
 72
     1
  1

  7
ACISOTS
1001
ACAD
1000
MTEXTBEGIN
1070
    73
1070
     1
1070
    44
1040
1.0
1070
    74
1070
     0
1000
MTEXTEND
  0
MTEXT
  5
1ECB6
330
1F
100
AcDbEntity
  8
AM_REFDIM
100
AcDbMText
 10
2016.847215832031
 20
341.3268402916074
 30
0.0
 40
5.0
 41
0.0
 71
     9
 72
     1
  1

  7
DAYUS
1001
ACAD
1000
MTEXTBEGIN
1070
    73
1070
     1
1070
    44
1040
1.0
1070
    74
1070
     0
1000
MTEXTEND
  0
MTEXT
  5
1ECB7
330
1F
100
AcDbEntity
  8
AM_REFDIM
100
AcDbMText
 10
2211.319553415114
 20
406.51077720271
 30
0.0
 40
5.0
 41
0.0
 71
     9
 72
     1
  1

  7
DAYUS
1001
ACAD
1000
MTEXTBEGIN
1070
    73
1070
     1
1070
    44
1040
1.0
1070
    74
1070
     0
1000
MTEXTEND
  0
MTEXT
  5
1ECB8
330
1F
100
AcDbEntity
  8
AM_REFDIM
100
AcDbMText
 10
2205.233197251443
 20
338.7760056932841
 30
0.0
 40
5.0
 41
0.0
 71
     9
 72
     1
  1

  7
DAYUS
1001
ACAD
1000
MTEXTBEGIN
1070
    73
1070
     1
1070
    44
1040
1.0
1070
    74
1070
     0
1000
MTEXTEND
  0
MTEXT
  5
1ECB9
330
1F
100
AcDbEntity
  8
AM_REFDIM
100
AcDbMText
 10
2338.806848290251
 20
112.7847757035149
 30
0.0
 40
5.0
 41
0.0
 71
     9
 72
     1
  1

  7
DAYUS
1001
ACAD
1000
MTEXTBEGIN
1070
    73
1070
     1
1070
    44
1040
1.0
1070
    74
1070
     0
1000
MTEXTEND
  0
MTEXT
  5
1ECBA
330
1F
100
AcDbEntity
  8
AM_REFDIM
100
AcDbMText
 10
2332.72049212658
 20
45.05000419408912
 30
0.0
 40
5.0
 41
0.0
 71
     9
 72
     1
  1

  7
DAYUS
1001
ACAD
1000
MTEXTBEGIN
1070
    73
1070
     1
1070
    44
1040
1.0
1070
    74
1070
     0
1000
MTEXTEND
  0
MTEXT
  5
1ECBB
330
1F
100
AcDbEntity
  8
AM_REFDIM
100
AcDbMText
 10
2144.334510707167
 20
47.60083879241238
 30
0.0
 40
5.0
 41
0.0
 71
     9
 72
     1
  1

  7
DAYUS
1001
ACAD
1000
MTEXTBEGIN
1070
    73
1070
     1
1070
    44
1040
1.0
1070
    74
1070
     0
1000
MTEXTEND
  0
MTEXT
  5
1ECBE
330
1F
100
AcDbEntity
  8
AM_5
 62
     2
100
AcDbMText
 10
1819.856714972026
 20
346.9424125699747
 30
0.0
 40
3.5
 41
0.0
 71
     7
 72
     1
  1

  7
ACISOTS
1001
ACAD
1000
MTEXTBEGIN
1070
    73
1070
     1
1070
    44
1040
1.0
1070
    74
1070
     0
1000
MTEXTEND
  0
MTEXT
  5
1ECBF
330
1F
100
AcDbEntity
  8
AM_5
 62
     2
100
AcDbMText
 10
1830.944172992748
 20
353.6754723160244
 30
0.0
 40
3.5
 41
0.0
 71
     9
 72
     1
  1

  7
ACISOTS
1001
ACAD
1000
MTEXTBEGIN
1070
    73
1070
     1
1070
    44
1040
1.0
1070
    74
1070
     0
1000
MTEXTEND
  0
MTEXT
  5
20AE0
330
1F
100
AcDbEntity
  8
AM_REFDIM
100
AcDbMText
 10
1383.757666486758
 20
149.0809547151989
 30
0.0
 40
5.0
 41
0.0
 71
     9
 72
     1
  1

  7
DAYUS
1001
ACAD
1000
MTEXTBEGIN
1070
    73
1070
     1
1070
    44
1040
1.0
1070
    74
1070
     0
1000
MTEXTEND
  0
MTEXT
  5
20AE1
330
1F
100
AcDbEntity
  8
AM_REFDIM
100
AcDbMText
 10
1578.230004069842
 20
214.2648916263015
 30
0.0
 40
5.0
 41
0.0
 71
     9
 72
     1
  1

  7
DAYUS
1001
ACAD
1000
MTEXTBEGIN
1070
    73
1070
     1
1070
    44
1040
1.0
1070
    74
1070
     0
1000
MTEXTEND
  0
MTEXT
  5
20AE2
330
1F
100
AcDbEntity
  8
AM_REFDIM
100
AcDbMText
 10
1572.143647906171
 20
146.5301201168756
 30
0.0
 40
5.0
 41
0.0
 71
     9
 72
     1
  1

  7
DAYUS
1001
ACAD
1000
MTEXTBEGIN
1070
    73
1070
     1
1070
    44
1040
1.0
1070
    74
1070
     0
1000
MTEXTEND
  0
MTEXT
  5
20AE3
330
1F
100
AcDbEntity
  8
AM_REFDIM
100
AcDbMText
 10
1705.717298944978
 20
-79.46110987289353
 30
0.0
 40
5.0
 41
0.0
 71
     9
 72
     1
  1

  7
DAYUS
1001
ACAD
1000
MTEXTBEGIN
1070
    73
1070
     1
1070
    44
1040
1.0
1070
    74
1070
     0
1000
MTEXTEND
  0
MTEXT
  5
20AE4
330
1F
100
AcDbEntity
  8
AM_REFDIM
100
AcDbMText
 10
1699.630942781307
 20
-147.1958813823193
 30
0.0
 40
5.0
 41
0.0
 71
     9
 72
     1
  1

  7
DAYUS
1001
ACAD
1000
MTEXTBEGIN
1070
    73
1070
     1
1070
    44
1040
1.0
1070
    74
1070
     0
1000
MTEXTEND
  0
MTEXT
  5
20AE5
330
1F
100
AcDbEntity
  8
AM_REFDIM
100
AcDbMText
 10
1511.244961361894
 20
-144.6450467839961
 30
0.0
 40
5.0
 41
0.0
 71
     9
 72
     1
  1

  7
DAYUS
1001
ACAD
1000
MTEXTBEGIN
1070
    73
1070
     1
1070
    44
1040
1.0
1070
    74
1070
     0
1000
MTEXTEND
  0
MTEXT
  5
20AE8
330
1F
100
AcDbEntity
  8
AM_5
 62
     2
100
AcDbMText
 10
1186.767165626753
 20
154.6965269935661
 30
0.0
 40
3.5
 41
0.0
 71
     7
 72
     1
  1

  7
ACISOTS
1001
ACAD
1000
MTEXTBEGIN
1070
    73
1070
     1
1070
    44
1040
1.0
1070
    74
1070
     0
1000
MTEXTEND
  0
MTEXT
  5
20AE9
330
1F
100
AcDbEntity
  8
AM_5
 62
     2
100
AcDbMText
 10
1197.854623647476
 20
161.4295867396159
 30
0.0
 40
3.5
 41
0.0
 71
     9
 72
     1
  1

  7
ACISOTS
1001
ACAD
1000
MTEXTBEGIN
1070
    73
1070
     1
1070
    44
1040
1.0
1070
    74
1070
     0
1000
MTEXTEND
  0
MTEXT
  5
20B74
330
1F
100
AcDbEntity
  8
AM_5
100
AcDbMText
 10
1061.789127488471
 20
-105.2088951336404
 30
0.0
 40
5.0
 41
0.0
 71
     6
 72
     1
  1

  7
DAYUS
1001
ACAD
1000
MTEXTBEGIN
1070
    73
1070
     1
1070
    44
1040
1.0
1070
    74
1070
     0
1000
MTEXTEND
  0
POINT
  5
20CBD
330
1F
100
AcDbEntity
  8
0
 60
     1
100
AcDbPoint
 10
822.5691646642308
 20
-62.89681066562526
 30
0.0
1001
GENIUS_GENODEF_13
1002
{
1000
HIER
1070
    10
1002
}
1002
{
1000
MANEDIT
1070
     0
1002
}
1002
{
1000
NOSEL
1070
     0
1002
}
1002
{
1000
BEHIND
1070
     0
1002
}
1002
{
1000
OTHER
1070
     0
1002
}
1002
{
1000
REACTOR
1002
}
1001
GENIUS_GENOBJ-N-CRS_13
1002
{
1000
OWNER
1000
GEN
1002
}
1001
GENIUS_GENOLIS_13
1002
{
1000
ENT
1005
20CBC
1005
20CBB
1005
20CBA
1005
20CB9
1002
}
1001
GENIUS_GENOENT_13
1002
{
1000
MYREF
1005
20CBD
1002
}
1002
{
1000
GRP
1005
0
1002
}
  0
POINT
  5
20CC2
330
1F
100
AcDbEntity
  8
0
 60
     1
100
AcDbPoint
 10
822.5691646642308
 20
-62.89681066562526
 30
0.0
1001
GENIUS_GENOBJ-N-CRS_13
1002
{
1000
OWNER
1000
GEN
1002
}
1001
GENIUS_GENODEF_13
1002
{
1000
HIER
1070
    10
1002
}
1002
{
1000
MANEDIT
1070
     0
1002
}
1002
{
1000
NOSEL
1070
     0
1002
}
1002
{
1000
BEHIND
1070
     0
1002
}
1002
{
1000
OTHER
1070
     0
1002
}
1002
{
1000
REACTOR
1002
}
1001
GENIUS_GENOLIS_13
1002
{
1000
ENT
1005
20CC1
1005
20CC0
1005
20CBF
1005
20CBE
1002
}
1001
GENIUS_GENOENT_13
1002
{
1000
MYREF
1005
20CC2
1002
}
1002
{
1000
GRP
1005
0
1002
}
  0
POINT
  5
20CC7
330
1F
100
AcDbEntity
  8
0
 60
     1
100
AcDbPoint
 10
822.5691646642308
 20
-62.89681066562526
 30
0.0
1001
GENIUS_GENODEF_13
1002
{
1000
HIER
1070
    10
1002
}
1002
{
1000
MANEDIT
1070
     0
1002
}
1002
{
1000
NOSEL
1070
     0
1002
}
1002
{
1000
BEHIND
1070
     0
1002
}
1002
{
1000
OTHER
1070
     0
1002
}
1002
{
1000
REACTOR
1002
}
1001
GENIUS_GENOLIS_13
1002
{
1000
ENT
1005
20CC6
1005
20CC5
1005
20CC4
1005
20CC3
1002
}
1001
GENIUS_GENOENT_13
1002
{
1000
MYREF
1005
20CC7
1002
}
1002
{
1000
GRP
1005
0
1002
}
1001
GENIUS_GENOBJ-N-CRS_13
1002
{
1000
OWNER
1000
GEN
1002
}
  0
POINT
  5
20CCC
330
1F
100
AcDbEntity
  8
0
 60
     1
100
AcDbPoint
 10
822.5691646642308
 20
-62.89681066562526
 30
0.0
1001
GENIUS_GENOLIS_13
1002
{
1000
ENT
1005
20CCB
1005
20CCA
1005
20CC9
1005
20CC8
1002
}
1001
GENIUS_GENOENT_13
1002
{
1000
MYREF
1005
20CCC
1002
}
1002
{
1000
GRP
1005
0
1002
}
1001
GENIUS_GENODEF_13
1002
{
1000
HIER
1070
    10
1002
}
1002
{
1000
MANEDIT
1070
     0
1002
}
1002
{
1000
NOSEL
1070
     0
1002
}
1002
{
1000
BEHIND
1070
     0
1002
}
1002
{
1000
OTHER
1070
     0
1002
}
1002
{
1000
REACTOR
1002
}
1001
GENIUS_GENOBJ-N-CRS_13
1002
{
1000
OWNER
1000
GEN
1002
}
  0
POINT
  5
21053
330
1F
100
AcDbEntity
  8
0
 60
     1
100
AcDbPoint
 10
822.5691646642308
 20
-62.89681066562526
 30
0.0
1001
GENIUS_GENODEF_13
1002
{
1000
HIER
1070
    10
1002
}
1002
{
1000
MANEDIT
1070
     0
1002
}
1002
{
1000
NOSEL
1070
     0
1002
}
1002
{
1000
BEHIND
1070
     0
1002
}
1002
{
1000
OTHER
1070
     0
1002
}
1002
{
1000
REACTOR
1002
}
1001
GENIUS_GENOENT_13
1002
{
1000
MYREF
1005
21053
1002
}
1002
{
1000
GRP
1005
0
1002
}
1001
GENIUS_GENOBJ-N-CRS_13
1002
{
1000
OWNER
1000
GEN
1002
}
1001
GENIUS_GENOLIS_13
1002
{
1000
ENT
1005
21052
1005
21051
1005
21050
1005
2104F
1002
}
  0
POINT
  5
21058
330
1F
100
AcDbEntity
  8
0
 60
     1
100
AcDbPoint
 10
822.5691646642308
 20
-62.89681066562526
 30
0.0
1001
GENIUS_GENOENT_13
1002
{
1000
MYREF
1005
21058
1002
}
1002
{
1000
GRP
1005
0
1002
}
1001
GENIUS_GENOBJ-N-CRS_13
1002
{
1000
OWNER
1000
GEN
1002
}
1001
GENIUS_GENODEF_13
1002
{
1000
HIER
1070
    10
1002
}
1002
{
1000
MANEDIT
1070
     0
1002
}
1002
{
1000
NOSEL
1070
     0
1002
}
1002
{
1000
BEHIND
1070
     0
1002
}
1002
{
1000
OTHER
1070
     0
1002
}
1002
{
1000
REACTOR
1002
}
1001
GENIUS_GENOLIS_13
1002
{
1000
ENT
1005
21057
1005
21056
1005
21055
1005
21054
1002
}
  0
POINT
  5
2105D
330
1F
100
AcDbEntity
  8
0
 60
     1
100
AcDbPoint
 10
822.5691646642308
 20
-62.89681066562526
 30
0.0
1001
GENIUS_GENOLIS_13
1002
{
1000
ENT
1005
2105C
1005
2105B
1005
2105A
1005
21059
1002
}
1001
GENIUS_GENOENT_13
1002
{
1000
MYREF
1005
2105D
1002
}
1002
{
1000
GRP
1005
0
1002
}
1001
GENIUS_GENOBJ-N-CRS_13
1002
{
1000
OWNER
1000
GEN
1002
}
1001
GENIUS_GENODEF_13
1002
{
1000
HIER
1070
    10
1002
}
1002
{
1000
MANEDIT
1070
     0
1002
}
1002
{
1000
NOSEL
1070
     0
1002
}
1002
{
1000
BEHIND
1070
     0
1002
}
1002
{
1000
OTHER
1070
     0
1002
}
1002
{
1000
REACTOR
1002
}
  0
POINT
  5
21062
330
1F
100
AcDbEntity
  8
0
 60
     1
100
AcDbPoint
 10
822.5691646642308
 20
-62.89681066562526
 30
0.0
1001
GENIUS_GENODEF_13
1002
{
1000
HIER
1070
    10
1002
}
1002
{
1000
MANEDIT
1070
     0
1002
}
1002
{
1000
NOSEL
1070
     0
1002
}
1002
{
1000
BEHIND
1070
     0
1002
}
1002
{
1000
OTHER
1070
     0
1002
}
1002
{
1000
REACTOR
1002
}
1001
GENIUS_GENOLIS_13
1002
{
1000
ENT
1005
21061
1005
21060
1005
2105F
1005
2105E
1002
}
1001
GENIUS_GENOENT_13
1002
{
1000
MYREF
1005
21062
1002
}
1002
{
1000
GRP
1005
0
1002
}
1001
GENIUS_GENOBJ-N-CRS_13
1002
{
1000
OWNER
1000
GEN
1002
}
  0
POINT
  5
21067
330
1F
100
AcDbEntity
  8
0
 60
     1
100
AcDbPoint
 10
822.5691646642308
 20
-62.89681066562526
 30
0.0
1001
GENIUS_GENODEF_13
1002
{
1000
HIER
1070
    10
1002
}
1002
{
1000
MANEDIT
1070
     0
1002
}
1002
{
1000
NOSEL
1070
     0
1002
}
1002
{
1000
BEHIND
1070
     0
1002
}
1002
{
1000
OTHER
1070
     0
1002
}
1002
{
1000
REACTOR
1002
}
1001
GENIUS_GENOLIS_13
1002
{
1000
ENT
1005
21066
1005
21065
1005
21064
1005
21063
1002
}
1001
GENIUS_GENOENT_13
1002
{
1000
MYREF
1005
21067
1002
}
1002
{
1000
GRP
1005
0
1002
}
1001
GENIUS_GENOBJ-N-CRS_13
1002
{
1000
OWNER
1000
GEN
1002
}
  0
POINT
  5
2106C
330
1F
100
AcDbEntity
  8
0
 60
     1
100
AcDbPoint
 10
822.5691646642308
 20
-62.89681066562526
 30
0.0
1001
GENIUS_GENOLIS_13
1002
{
1000
ENT
1005
2106B
1005
2106A
1005
21069
1005
21068
1002
}
1001
GENIUS_GENOENT_13
1002
{
1000
MYREF
1005
2106C
1002
}
1002
{
1000
GRP
1005
0
1002
}
1001
GENIUS_GENOBJ-N-CRS_13
1002
{
1000
OWNER
1000
GEN
1002
}
1001
GENIUS_GENODEF_13
1002
{
1000
HIER
1070
    10
1002
}
1002
{
1000
MANEDIT
1070
     0
1002
}
1002
{
1000
NOSEL
1070
     0
1002
}
1002
{
1000
BEHIND
1070
     0
1002
}
1002
{
1000
OTHER
1070
     0
1002
}
1002
{
1000
REACTOR
1002
}
  0
POINT
  5
21071
330
1F
100
AcDbEntity
  8
0
 60
     1
100
AcDbPoint
 10
822.5691646642308
 20
-62.89681066562526
 30
0.0
1001
GENIUS_GENODEF_13
1002
{
1000
HIER
1070
    10
1002
}
1002
{
1000
MANEDIT
1070
     0
1002
}
1002
{
1000
NOSEL
1070
     0
1002
}
1002
{
1000
BEHIND
1070
     0
1002
}
1002
{
1000
OTHER
1070
     0
1002
}
1002
{
1000
REACTOR
1002
}
1001
GENIUS_GENOBJ-N-CRS_13
1002
{
1000
OWNER
1000
GEN
1002
}
1001
GENIUS_GENOLIS_13
1002
{
1000
ENT
1005
21070
1005
2106F
1005
2106E
1005
2106D
1002
}
1001
GENIUS_GENOENT_13
1002
{
1000
MYREF
1005
21071
1002
}
1002
{
1000
GRP
1005
0
1002
}
  0
POINT
  5
21285
330
1F
100
AcDbEntity
  8
0
 60
     1
100
AcDbPoint
 10
1611.527595759198
 20
-62.89681066562526
 30
0.0
1001
GENIUS_GENODEF_13
1002
{
1000
HIER
1070
    10
1002
}
1002
{
1000
MANEDIT
1070
     0
1002
}
1002
{
1000
NOSEL
1070
     0
1002
}
1002
{
1000
BEHIND
1070
     0
1002
}
1002
{
1000
OTHER
1070
     0
1002
}
1002
{
1000
REACTOR
1002
}
1001
GENIUS_GENOLIS_13
1002
{
1000
ENT
1005
210DD
1005
210DC
1005
210D2
1005
210DB
1002
}
1001
GENIUS_GENOENT_13
1002
{
1000
MYREF
1005
21285
1002
}
1002
{
1000
GRP
1005
0
1002
}
1001
GENIUS_GENOBJ-N-CRS_13
1002
{
1000
OWNER
1000
GEN
1002
}
  0
POINT
  5
21286
330
1F
100
AcDbEntity
  8
0
 60
     1
100
AcDbPoint
 10
1611.527595759198
 20
-62.89681066562526
 30
0.0
1001
GENIUS_GENOLIS_13
1002
{
1000
ENT
1005
2110C
1005
2110D
1005
210FB
1005
2110B
1002
}
1001
GENIUS_GENOENT_13
1002
{
1000
MYREF
1005
21286
1002
}
1002
{
1000
GRP
1005
0
1002
}
1001
GENIUS_GENOBJ-N-CRS_13
1002
{
1000
OWNER
1000
GEN
1002
}
1001
GENIUS_GENODEF_13
1002
{
1000
HIER
1070
    10
1002
}
1002
{
1000
MANEDIT
1070
     0
1002
}
1002
{
1000
NOSEL
1070
     0
1002
}
1002
{
1000
BEHIND
1070
     0
1002
}
1002
{
1000
OTHER
1070
     0
1002
}
1002
{
1000
REACTOR
1002
}
  0
POINT
  5
21287
330
1F
100
AcDbEntity
  8
0
 60
     1
100
AcDbPoint
 10
1611.527595759198
 20
-62.89681066562526
 30
0.0
1001
GENIUS_GENOENT_13
1002
{
1000
MYREF
1005
21287
1002
}
1002
{
1000
GRP
1005
0
1002
}
1001
GENIUS_GENOBJ-N-CRS_13
1002
{
1000
OWNER
1000
GEN
1002
}
1001
GENIUS_GENODEF_13
1002
{
1000
HIER
1070
    10
1002
}
1002
{
1000
MANEDIT
1070
     0
1002
}
1002
{
1000
NOSEL
1070
     0
1002
}
1002
{
1000
BEHIND
1070
     0
1002
}
1002
{
1000
OTHER
1070
     0
1002
}
1002
{
1000
REACTOR
1002
}
1001
GENIUS_GENOLIS_13
1002
{
1000
ENT
1005
21106
1005
21105
1005
21100
1005
21104
1002
}
  0
POINT
  5
21288
330
1F
100
AcDbEntity
  8
0
 60
     1
100
AcDbPoint
 10
1611.527595759198
 20
-62.89681066562526
 30
0.0
1001
GENIUS_GENODEF_13
1002
{
1000
HIER
1070
    10
1002
}
1002
{
1000
MANEDIT
1070
     0
1002
}
1002
{
1000
NOSEL
1070
     0
1002
}
1002
{
1000
BEHIND
1070
     0
1002
}
1002
{
1000
OTHER
1070
     0
1002
}
1002
{
1000
REACTOR
1002
}
1001
GENIUS_GENOENT_13
1002
{
1000
MYREF
1005
21288
1002
}
1002
{
1000
GRP
1005
0
1002
}
1001
GENIUS_GENOBJ-N-CRS_13
1002
{
1000
OWNER
1000
GEN
1002
}
1001
GENIUS_GENOLIS_13
1002
{
1000
ENT
1005
210BA
1005
210B9
1005
210B6
1005
2109E
1002
}
  0
POINT
  5
21289
330
1F
100
AcDbEntity
  8
0
 60
     1
100
AcDbPoint
 10
1611.527595759198
 20
-62.89681066562526
 30
0.0
1001
GENIUS_GENODEF_13
1002
{
1000
HIER
1070
    10
1002
}
1002
{
1000
MANEDIT
1070
     0
1002
}
1002
{
1000
NOSEL
1070
     0
1002
}
1002
{
1000
BEHIND
1070
     0
1002
}
1002
{
1000
OTHER
1070
     0
1002
}
1002
{
1000
REACTOR
1002
}
1001
GENIUS_GENOBJ-N-CRS_13
1002
{
1000
OWNER
1000
GEN
1002
}
1001
GENIUS_GENOLIS_13
1002
{
1000
ENT
1005
211B7
1005
211AA
1005
21196
1005
211B8
1002
}
1001
GENIUS_GENOENT_13
1002
{
1000
MYREF
1005
21289
1002
}
1002
{
1000
GRP
1005
0
1002
}
  0
POINT
  5
2128A
330
1F
100
AcDbEntity
  8
0
 60
     1
100
AcDbPoint
 10
1611.527595759198
 20
-62.89681066562526
 30
0.0
1001
GENIUS_GENOLIS_13
1002
{
1000
ENT
1005
21195
1005
21094
1005
21263
1005
21262
1002
}
1001
GENIUS_GENOENT_13
1002
{
1000
MYREF
1005
2128A
1002
}
1002
{
1000
GRP
1005
0
1002
}
1001
GENIUS_GENOBJ-N-CRS_13
1002
{
1000
OWNER
1000
GEN
1002
}
1001
GENIUS_GENODEF_13
1002
{
1000
HIER
1070
    10
1002
}
1002
{
1000
MANEDIT
1070
     0
1002
}
1002
{
1000
NOSEL
1070
     0
1002
}
1002
{
1000
BEHIND
1070
     0
1002
}
1002
{
1000
OTHER
1070
     0
1002
}
1002
{
1000
REACTOR
1002
}
  0
POINT
  5
2128B
330
1F
100
AcDbEntity
  8
0
 60
     1
100
AcDbPoint
 10
1611.527595759198
 20
-62.89681066562526
 30
0.0
1001
GENIUS_GENODEF_13
1002
{
1000
HIER
1070
    10
1002
}
1002
{
1000
MANEDIT
1070
     0
1002
}
1002
{
1000
NOSEL
1070
     0
1002
}
1002
{
1000
BEHIND
1070
     0
1002
}
1002
{
1000
OTHER
1070
     0
1002
}
1002
{
1000
REACTOR
1002
}
1001
GENIUS_GENOLIS_13
1002
{
1000
ENT
1005
211B6
1005
211B5
1005
211B4
1005
211B3
1002
}
1001
GENIUS_GENOENT_13
1002
{
1000
MYREF
1005
2128B
1002
}
1002
{
1000
GRP
1005
0
1002
}
1001
GENIUS_GENOBJ-N-CRS_13
1002
{
1000
OWNER
1000
GEN
1002
}
  0
POINT
  5
212FC
330
1F
100
AcDbEntity
  8
0
 60
     1
100
AcDbPoint
 10
1254.090389336294
 20
7.872046492952847
 30
0.0
1001
GENIUS_GENOENT_13
1002
{
1000
MYREF
1005
212FC
1002
}
1002
{
1000
GRP
1005
0
1002
}
1001
GENIUS_GENOBJ-N-CRS_13
1002
{
1000
OWNER
1000
GEN
1002
}
1001
GENIUS_GENODEF_13
1002
{
1000
HIER
1070
    10
1002
}
1002
{
1000
MANEDIT
1070
     0
1002
}
1002
{
1000
NOSEL
1070
     0
1002
}
1002
{
1000
BEHIND
1070
     0
1002
}
1002
{
1000
OTHER
1070
     0
1002
}
1002
{
1000
REACTOR
1002
}
1001
GENIUS_GENOLIS_13
1002
{
1000
ENT
1005
212B8
1005
212CF
1005
212C8
1005
212D5
1002
}
  0
POINT
  5
212FD
330
1F
100
AcDbEntity
  8
0
 60
     1
100
AcDbPoint
 10
1254.090389336294
 20
7.872046492952847
 30
0.0
1001
GENIUS_GENOBJ-N-CRS_13
1002
{
1000
OWNER
1000
GEN
1002
}
1001
GENIUS_GENOLIS_13
1002
{
1000
ENT
1005
212E7
1005
212D4
1005
212C7
1005
212E8
1002
}
1001
GENIUS_GENOENT_13
1002
{
1000
MYREF
1005
212FD
1002
}
1002
{
1000
GRP
1005
0
1002
}
1001
GENIUS_GENODEF_13
1002
{
1000
HIER
1070
    10
1002
}
1002
{
1000
MANEDIT
1070
     0
1002
}
1002
{
1000
NOSEL
1070
     0
1002
}
1002
{
1000
BEHIND
1070
     0
1002
}
1002
{
1000
OTHER
1070
     0
1002
}
1002
{
1000
REACTOR
1002
}
  0
POINT
  5
212FE
330
1F
100
AcDbEntity
  8
0
 60
     1
100
AcDbPoint
 10
1254.090389336294
 20
7.872046492952847
 30
0.0
1001
GENIUS_GENODEF_13
1002
{
1000
HIER
1070
    10
1002
}
1002
{
1000
MANEDIT
1070
     0
1002
}
1002
{
1000
NOSEL
1070
     0
1002
}
1002
{
1000
BEHIND
1070
     0
1002
}
1002
{
1000
OTHER
1070
     0
1002
}
1002
{
1000
REACTOR
1002
}
1001
GENIUS_GENOLIS_13
1002
{
1000
ENT
1005
212C1
1005
2128D
1005
212BF
1005
212C5
1002
}
1001
GENIUS_GENOENT_13
1002
{
1000
MYREF
1005
212FE
1002
}
1002
{
1000
GRP
1005
0
1002
}
1001
GENIUS_GENOBJ-N-CRS_13
1002
{
1000
OWNER
1000
GEN
1002
}
  0
POINT
  5
212FF
330
1F
100
AcDbEntity
  8
0
 60
     1
100
AcDbPoint
 10
1254.090389336294
 20
7.872046492952847
 30
0.0
1001
GENIUS_GENOBJ-N-CRS_13
1002
{
1000
OWNER
1000
GEN
1002
}
1001
GENIUS_GENOLIS_13
1002
{
1000
ENT
1005
212B9
1005
2128C
1005
212BE
1005
212C4
1002
}
1001
GENIUS_GENOENT_13
1002
{
1000
MYREF
1005
212FF
1002
}
1002
{
1000
GRP
1005
0
1002
}
1001
GENIUS_GENODEF_13
1002
{
1000
HIER
1070
    10
1002
}
1002
{
1000
MANEDIT
1070
     0
1002
}
1002
{
1000
NOSEL
1070
     0
1002
}
1002
{
1000
BEHIND
1070
     0
1002
}
1002
{
1000
OTHER
1070
     0
1002
}
1002
{
1000
REACTOR
1002
}
  0
POINT
  5
2148E
330
1F
100
AcDbEntity
  8
0
 60
     1
100
AcDbPoint
 10
1141.121855987868
 20
-227.7185993099247
 30
0.0
1001
GENIUS_GENOBJ-N-CRS_13
1002
{
1000
OWNER
1000
GEN
1002
}
1001
GENIUS_GENOLIS_13
1002
{
1000
ENT
1005
21473
1005
21485
1005
21468
1005
2148A
1002
}
1001
GENIUS_GENOENT_13
1002
{
1000
MYREF
1005
2148E
1002
}
1002
{
1000
GRP
1005
0
1002
}
1001
GENIUS_GENODEF_13
1002
{
1000
HIER
1070
    10
1002
}
1002
{
1000
MANEDIT
1070
     0
1002
}
1002
{
1000
NOSEL
1070
     0
1002
}
1002
{
1000
BEHIND
1070
     0
1002
}
1002
{
1000
OTHER
1070
     0
1002
}
1002
{
1000
REACTOR
1002
}
  0
POINT
  5
2148F
330
1F
100
AcDbEntity
  8
0
 60
     1
100
AcDbPoint
 10
1141.121855987868
 20
-227.7185993099247
 30
0.0
1001
GENIUS_GENOENT_13
1002
{
1000
MYREF
1005
2148F
1002
}
1002
{
1000
GRP
1005
0
1002
}
1001
GENIUS_GENOBJ-N-CRS_13
1002
{
1000
OWNER
1000
GEN
1002
}
1001
GENIUS_GENODEF_13
1002
{
1000
HIER
1070
    10
1002
}
1002
{
1000
MANEDIT
1070
     0
1002
}
1002
{
1000
NOSEL
1070
     0
1002
}
1002
{
1000
BEHIND
1070
     0
1002
}
1002
{
1000
OTHER
1070
     0
1002
}
1002
{
1000
REACTOR
1002
}
1001
GENIUS_GENOLIS_13
1002
{
1000
ENT
1005
21476
1005
2141F
1005
21467
1005
21484
1002
}
  0
POINT
  5
21490
330
1F
100
AcDbEntity
  8
0
 60
     1
100
AcDbPoint
 10
1141.121855987868
 20
-227.7185993099247
 30
0.0
1001
GENIUS_GENODEF_13
1002
{
1000
HIER
1070
    10
1002
}
1002
{
1000
MANEDIT
1070
     0
1002
}
1002
{
1000
NOSEL
1070
     0
1002
}
1002
{
1000
BEHIND
1070
     0
1002
}
1002
{
1000
OTHER
1070
     0
1002
}
1002
{
1000
REACTOR
1002
}
1001
GENIUS_GENOLIS_13
1002
{
1000
ENT
1005
21424
1005
2143B
1005
2143A
1005
21437
1002
}
1001
GENIUS_GENOENT_13
1002
{
1000
MYREF
1005
21490
1002
}
1002
{
1000
GRP
1005
0
1002
}
1001
GENIUS_GENOBJ-N-CRS_13
1002
{
1000
OWNER
1000
GEN
1002
}
  0
POINT
  5
21491
330
1F
100
AcDbEntity
  8
0
 60
     1
100
AcDbPoint
 10
1141.121855987868
 20
-227.7185993099247
 30
0.0
1001
GENIUS_GENOBJ-N-CRS_13
1002
{
1000
OWNER
1000
GEN
1002
}
1001
GENIUS_GENOLIS_13
1002
{
1000
ENT
1005
2142E
1005
21430
1005
21425
1005
2142B
1002
}
1001
GENIUS_GENOENT_13
1002
{
1000
MYREF
1005
21491
1002
}
1002
{
1000
GRP
1005
0
1002
}
1001
GENIUS_GENODEF_13
1002
{
1000
HIER
1070
    10
1002
}
1002
{
1000
MANEDIT
1070
     0
1002
}
1002
{
1000
NOSEL
1070
     0
1002
}
1002
{
1000
BEHIND
1070
     0
1002
}
1002
{
1000
OTHER
1070
     0
1002
}
1002
{
1000
REACTOR
1002
}
  0
POINT
  5
214A8
330
1F
100
AcDbEntity
  8
0
 60
     1
100
AcDbPoint
 10
822.5691646642308
 20
-62.89681066562526
 30
0.0
1001
GENIUS_GENOENT_13
1002
{
1000
MYREF
1005
214A8
1002
}
1002
{
1000
GRP
1005
0
1002
}
1001
GENIUS_GENOLIS_13
1002
{
1000
ENT
1005
214A7
1005
214A6
1005
214A5
1005
214A4
1002
}
1001
GENIUS_GENOBJ-N-CRS_13
1002
{
1000
OWNER
1000
GEN
1002
}
1001
GENIUS_GENODEF_13
1002
{
1000
HIER
1070
    10
1002
}
1002
{
1000
MANEDIT
1070
     0
1002
}
1002
{
1000
NOSEL
1070
     0
1002
}
1002
{
1000
BEHIND
1070
     0
1002
}
1002
{
1000
OTHER
1070
     0
1002
}
1002
{
1000
REACTOR
1002
}
  0
POINT
  5
214AD
330
1F
100
AcDbEntity
  8
0
 60
     1
100
AcDbPoint
 10
822.5691646642308
 20
-62.89681066562526
 30
0.0
1001
GENIUS_GENOBJ-N-CRS_13
1002
{
1000
OWNER
1000
GEN
1002
}
1001
GENIUS_GENOENT_13
1002
{
1000
MYREF
1005
214AD
1002
}
1002
{
1000
GRP
1005
0
1002
}
1001
GENIUS_GENOLIS_13
1002
{
1000
ENT
1005
214AC
1005
214AB
1005
214AA
1005
214A9
1002
}
1001
GENIUS_GENODEF_13
1002
{
1000
HIER
1070
    10
1002
}
1002
{
1000
MANEDIT
1070
     0
1002
}
1002
{
1000
NOSEL
1070
     0
1002
}
1002
{
1000
BEHIND
1070
     0
1002
}
1002
{
1000
OTHER
1070
     0
1002
}
1002
{
1000
REACTOR
1002
}
  0
POINT
  5
214B2
330
1F
100
AcDbEntity
  8
0
 60
     1
100
AcDbPoint
 10
822.5691646642308
 20
-62.89681066562526
 30
0.0
1001
GENIUS_GENOLIS_13
1002
{
1000
ENT
1005
214B1
1005
214B0
1005
214AF
1005
214AE
1002
}
1001
GENIUS_GENODEF_13
1002
{
1000
HIER
1070
    10
1002
}
1002
{
1000
MANEDIT
1070
     0
1002
}
1002
{
1000
NOSEL
1070
     0
1002
}
1002
{
1000
BEHIND
1070
     0
1002
}
1002
{
1000
OTHER
1070
     0
1002
}
1002
{
1000
REACTOR
1002
}
1001
GENIUS_GENOENT_13
1002
{
1000
MYREF
1005
214B2
1002
}
1002
{
1000
GRP
1005
0
1002
}
1001
GENIUS_GENOBJ-N-CRS_13
1002
{
1000
OWNER
1000
GEN
1002
}
  0
POINT
  5
214B7
330
1F
100
AcDbEntity
  8
0
 60
     1
100
AcDbPoint
 10
822.5691646642308
 20
-62.89681066562526
 30
0.0
1001
GENIUS_GENOLIS_13
1002
{
1000
ENT
1005
214B6
1005
214B5
1005
214B4
1005
214B3
1002
}
1001
GENIUS_GENODEF_13
1002
{
1000
HIER
1070
    10
1002
}
1002
{
1000
MANEDIT
1070
     0
1002
}
1002
{
1000
NOSEL
1070
     0
1002
}
1002
{
1000
BEHIND
1070
     0
1002
}
1002
{
1000
OTHER
1070
     0
1002
}
1002
{
1000
REACTOR
1002
}
1001
GENIUS_GENOENT_13
1002
{
1000
MYREF
1005
214B7
1002
}
1002
{
1000
GRP
1005
0
1002
}
1001
GENIUS_GENOBJ-N-CRS_13
1002
{
1000
OWNER
1000
GEN
1002
}
  0
POINT
  5
214DD
330
1F
100
AcDbEntity
  8
0
 60
     1
100
AcDbPoint
 10
822.5691646642308
 20
-62.89681066562526
 30
0.0
1001
GENIUS_GENOBJ-NBEHI-BHB_13
1002
{
1000
OWNER
1000
genbehi
1002
}
1001
GENIUS_GENODEF_13
1002
{
1000
HIER
1070
     1
1002
}
1002
{
1000
MANEDIT
1070
     0
1002
}
1002
{
1000
NOSEL
1070
     1
1002
}
1002
{
1000
BEHIND
1070
     0
1002
}
1002
{
1000
OTHER
1070
     1
1002
}
1002
{
1000
REACTOR
1002
}
1001
GENIUS_GENOLIS_13
1002
{
1000
ENT
1002
}
1001
GENIUS_GENOENT_13
1002
{
1000
MYREF
1005
214DD
1002
}
1002
{
1000
GRP
1005
0
1002
}
1001
GENIUS_GENBH_13
1002
{
1000
FGO
1005
0
1002
}
  0
POINT
  5
214DE
330
1F
100
AcDbEntity
  8
0
 60
     1
100
AcDbPoint
 10
828.7668060465394
 20
-62.89681066562526
 30
0.0
1001
GENIUS_GENOENT_13
1002
{
1000
MYREF
1005
214DE
1002
}
1002
{
1000
GRP
1005
0
1002
}
1001
GENIUS_GENOBJ-NBEHI-BHF_13
1002
{
1000
OWNER
1000
genbehi
1002
}
1001
GENIUS_GENOLIS_13
1002
{
1000
ENT
1005
0
1002
}
1001
GENIUS_GENBH_13
1002
{
1000
OIUMAP
1000
OIU
1002
}
1002
{
1000
FLAGS
1070
    32
1002
}
1002
{
1000
FGLEVEL
1040
3.14159265359
1002
}
1002
{
1000
BGO
1005
214DD
1002
}
1001
GENIUS_GENODEF_13
1002
{
1000
HIER
1070
     1
1002
}
1002
{
1000
MANEDIT
1070
     1
1002
}
1002
{
1000
NOSEL
1070
     1
1002
}
1002
{
1000
BEHIND
1070
     0
1002
}
1002
{
1000
OTHER
1070
     0
1002
}
1002
{
1000
REACTOR
1002
}
  0
TEXT
  5
21EA1
330
1F
100
AcDbEntity
  8
LOGO
 62
     6
100
AcDbText
 10
2041.583629966336
 20
536.4575447618475
 30
0.0
 40
10.0
  1
MVSE-260-4E1
  7
DAYUS
100
AcDbText
  0
MTEXT
  5
22CD5
330
1F
100
AcDbEntity
  8
AM_REFDIM
100
AcDbMText
 10
1722.566548732013
 20
649.9475444420231
 30
0.0
 40
5.0
 41
0.0
 71
     9
 72
     1
  1

  7
DAYUS
1001
ACAD
1000
MTEXTBEGIN
1070
    73
1070
     1
1070
    44
1040
1.0
1070
    74
1070
     0
1000
MTEXTEND
  0
MTEXT
  5
22CD6
330
1F
100
AcDbEntity
  8
AM_REFDIM
100
AcDbMText
 10
1917.038886315096
 20
715.1314813531257
 30
0.0
 40
5.0
 41
0.0
 71
     9
 72
     1
  1

  7
DAYUS
1001
ACAD
1000
MTEXTBEGIN
1070
    73
1070
     1
1070
    44
1040
1.0
1070
    74
1070
     0
1000
MTEXTEND
  0
MTEXT
  5
22CD7
330
1F
100
AcDbEntity
  8
AM_REFDIM
100
AcDbMText
 10
1910.952530151425
 20
647.3967098436999
 30
0.0
 40
5.0
 41
0.0
 71
     9
 72
     1
  1

  7
DAYUS
1001
ACAD
1000
MTEXTBEGIN
1070
    73
1070
     1
1070
    44
1040
1.0
1070
    74
1070
     0
1000
MTEXTEND
  0
MTEXT
  5
22CD8
330
1F
100
AcDbEntity
  8
AM_REFDIM
100
AcDbMText
 10
2044.526181190233
 20
421.4054798539307
 30
0.0
 40
5.0
 41
0.0
 71
     9
 72
     1
  1

  7
DAYUS
1001
ACAD
1000
MTEXTBEGIN
1070
    73
1070
     1
1070
    44
1040
1.0
1070
    74
1070
     0
1000
MTEXTEND
  0
MTEXT
  5
22CD9
330
1F
100
AcDbEntity
  8
AM_REFDIM
100
AcDbMText
 10
2038.439825026562
 20
353.6707083445048
 30
0.0
 40
5.0
 41
0.0
 71
     9
 72
     1
  1

  7
DAYUS
1001
ACAD
1000
MTEXTBEGIN
1070
    73
1070
     1
1070
    44
1040
1.0
1070
    74
1070
     0
1000
MTEXTEND
  0
MTEXT
  5
22CDA
330
1F
100
AcDbEntity
  8
AM_REFDIM
100
AcDbMText
 10
1850.053843607149
 20
356.2215429428281
 30
0.0
 40
5.0
 41
0.0
 71
     9
 72
     1
  1

  7
DAYUS
1001
ACAD
1000
MTEXTBEGIN
1070
    73
1070
     1
1070
    44
1040
1.0
1070
    74
1070
     0
1000
MTEXTEND
  0
MTEXT
  5
22CDD
330
1F
100
AcDbEntity
  8
AM_5
 62
     2
100
AcDbMText
 10
1525.576047872008
 20
655.5631167203904
 30
0.0
 40
3.5
 41
0.0
 71
     7
 72
     1
  1

  7
ACISOTS
1001
ACAD
1000
MTEXTBEGIN
1070
    73
1070
     1
1070
    44
1040
1.0
1070
    74
1070
     0
1000
MTEXTEND
  0
MTEXT
  5
22CDE
330
1F
100
AcDbEntity
  8
AM_5
 62
     2
100
AcDbMText
 10
1536.663505892731
 20
662.2961764664402
 30
0.0
 40
3.5
 41
0.0
 71
     9
 72
     1
  1

  7
ACISOTS
1001
ACAD
1000
MTEXTBEGIN
1070
    73
1070
     1
1070
    44
1040
1.0
1070
    74
1070
     0
1000
MTEXTEND
  0
MTEXT
  5
22CDF
330
1F
100
AcDbEntity
  8
AM_5
100
AcDbMText
 10
1400.598009733726
 20
395.6576945931838
 30
0.0
 40
5.0
 41
0.0
 71
     6
 72
     1
  1

  7
DAYUS
1001
ACAD
1000
MTEXTBEGIN
1070
    73
1070
     1
1070
    44
1040
1.0
1070
    74
1070
     0
1000
MTEXTEND
  0
POINT
  5
2335F
330
1F
100
AcDbEntity
  8
0
 60
     1
100
AcDbPoint
 10
1161.378046909485
 20
437.969779061199
 30
0.0
1001
GENIUS_GENOENT_13
1002
{
1000
MYREF
1005
2335F
1002
}
1002
{
1000
GRP
1005
0
1002
}
1001
GENIUS_GENOBJ-N-CRS_13
1002
{
1000
OWNER
1000
GEN
1002
}
1001
GENIUS_GENODEF_13
1002
{
1000
HIER
1070
    10
1002
}
1002
{
1000
MANEDIT
1070
     0
1002
}
1002
{
1000
NOSEL
1070
     0
1002
}
1002
{
1000
BEHIND
1070
     0
1002
}
1002
{
1000
OTHER
1070
     0
1002
}
1002
{
1000
REACTOR
1002
}
1001
GENIUS_GENOLIS_13
1002
{
1000
ENT
1005
2335E
1005
2335D
1005
2335C
1005
2335B
1002
}
  0
POINT
  5
23364
330
1F
100
AcDbEntity
  8
0
 60
     1
100
AcDbPoint
 10
1161.378046909485
 20
437.969779061199
 30
0.0
1001
GENIUS_GENOLIS_13
1002
{
1000
ENT
1005
23363
1005
23362
1005
23361
1005
23360
1002
}
1001
GENIUS_GENOENT_13
1002
{
1000
MYREF
1005
23364
1002
}
1002
{
1000
GRP
1005
0
1002
}
1001
GENIUS_GENOBJ-N-CRS_13
1002
{
1000
OWNER
1000
GEN
1002
}
1001
GENIUS_GENODEF_13
1002
{
1000
HIER
1070
    10
1002
}
1002
{
1000
MANEDIT
1070
     0
1002
}
1002
{
1000
NOSEL
1070
     0
1002
}
1002
{
1000
BEHIND
1070
     0
1002
}
1002
{
1000
OTHER
1070
     0
1002
}
1002
{
1000
REACTOR
1002
}
  0
POINT
  5
23369
330
1F
100
AcDbEntity
  8
0
 60
     1
100
AcDbPoint
 10
1161.378046909485
 20
437.969779061199
 30
0.0
1001
GENIUS_GENODEF_13
1002
{
1000
HIER
1070
    10
1002
}
1002
{
1000
MANEDIT
1070
     0
1002
}
1002
{
1000
NOSEL
1070
     0
1002
}
1002
{
1000
BEHIND
1070
     0
1002
}
1002
{
1000
OTHER
1070
     0
1002
}
1002
{
1000
REACTOR
1002
}
1001
GENIUS_GENOLIS_13
1002
{
1000
ENT
1005
23368
1005
23367
1005
23366
1005
23365
1002
}
1001
GENIUS_GENOENT_13
1002
{
1000
MYREF
1005
23369
1002
}
1002
{
1000
GRP
1005
0
1002
}
1001
GENIUS_GENOBJ-N-CRS_13
1002
{
1000
OWNER
1000
GEN
1002
}
  0
POINT
  5
2336E
330
1F
100
AcDbEntity
  8
0
 60
     1
100
AcDbPoint
 10
1161.378046909485
 20
437.969779061199
 30
0.0
1001
GENIUS_GENOENT_13
1002
{
1000
MYREF
1005
2336E
1002
}
1002
{
1000
GRP
1005
0
1002
}
1001
GENIUS_GENOLIS_13
1002
{
1000
ENT
1005
2336D
1005
2336C
1005
2336B
1005
2336A
1002
}
1001
GENIUS_GENOBJ-N-CRS_13
1002
{
1000
OWNER
1000
GEN
1002
}
1001
GENIUS_GENODEF_13
1002
{
1000
HIER
1070
    10
1002
}
1002
{
1000
MANEDIT
1070
     0
1002
}
1002
{
1000
NOSEL
1070
     0
1002
}
1002
{
1000
BEHIND
1070
     0
1002
}
1002
{
1000
OTHER
1070
     0
1002
}
1002
{
1000
REACTOR
1002
}
  0
POINT
  5
23373
330
1F
100
AcDbEntity
  8
0
 60
     1
100
AcDbPoint
 10
1161.378046909485
 20
437.969779061199
 30
0.0
1001
GENIUS_GENOLIS_13
1002
{
1000
ENT
1005
23372
1005
23371
1005
23370
1005
2336F
1002
}
1001
GENIUS_GENOBJ-N-CRS_13
1002
{
1000
OWNER
1000
GEN
1002
}
1001
GENIUS_GENOENT_13
1002
{
1000
MYREF
1005
23373
1002
}
1002
{
1000
GRP
1005
0
1002
}
1001
GENIUS_GENODEF_13
1002
{
1000
HIER
1070
    10
1002
}
1002
{
1000
MANEDIT
1070
     0
1002
}
1002
{
1000
NOSEL
1070
     0
1002
}
1002
{
1000
BEHIND
1070
     0
1002
}
1002
{
1000
OTHER
1070
     0
1002
}
1002
{
1000
REACTOR
1002
}
  0
POINT
  5
23378
330
1F
100
AcDbEntity
  8
0
 60
     1
100
AcDbPoint
 10
1161.378046909485
 20
437.969779061199
 30
0.0
1001
GENIUS_GENOBJ-N-CRS_13
1002
{
1000
OWNER
1000
GEN
1002
}
1001
GENIUS_GENODEF_13
1002
{
1000
HIER
1070
    10
1002
}
1002
{
1000
MANEDIT
1070
     0
1002
}
1002
{
1000
NOSEL
1070
     0
1002
}
1002
{
1000
BEHIND
1070
     0
1002
}
1002
{
1000
OTHER
1070
     0
1002
}
1002
{
1000
REACTOR
1002
}
1001
GENIUS_GENOENT_13
1002
{
1000
MYREF
1005
23378
1002
}
1002
{
1000
GRP
1005
0
1002
}
1001
GENIUS_GENOLIS_13
1002
{
1000
ENT
1005
23377
1005
23376
1005
23375
1005
23374
1002
}
  0
POINT
  5
2337D
330
1F
100
AcDbEntity
  8
0
 60
     1
100
AcDbPoint
 10
1161.378046909485
 20
437.969779061199
 30
0.0
1001
GENIUS_GENOENT_13
1002
{
1000
MYREF
1005
2337D
1002
}
1002
{
1000
GRP
1005
0
1002
}
1001
GENIUS_GENOLIS_13
1002
{
1000
ENT
1005
2337C
1005
2337B
1005
2337A
1005
23379
1002
}
1001
GENIUS_GENOBJ-N-CRS_13
1002
{
1000
OWNER
1000
GEN
1002
}
1001
GENIUS_GENODEF_13
1002
{
1000
HIER
1070
    10
1002
}
1002
{
1000
MANEDIT
1070
     0
1002
}
1002
{
1000
NOSEL
1070
     0
1002
}
1002
{
1000
BEHIND
1070
     0
1002
}
1002
{
1000
OTHER
1070
     0
1002
}
1002
{
1000
REACTOR
1002
}
  0
POINT
  5
23382
330
1F
100
AcDbEntity
  8
0
 60
     1
100
AcDbPoint
 10
1161.378046909485
 20
437.969779061199
 30
0.0
1001
GENIUS_GENOENT_13
1002
{
1000
MYREF
1005
23382
1002
}
1002
{
1000
GRP
1005
0
1002
}
1001
GENIUS_GENOLIS_13
1002
{
1000
ENT
1005
23381
1005
23380
1005
2337F
1005
2337E
1002
}
1001
GENIUS_GENOBJ-N-CRS_13
1002
{
1000
OWNER
1000
GEN
1002
}
1001
GENIUS_GENODEF_13
1002
{
1000
HIER
1070
    10
1002
}
1002
{
1000
MANEDIT
1070
     0
1002
}
1002
{
1000
NOSEL
1070
     0
1002
}
1002
{
1000
BEHIND
1070
     0
1002
}
1002
{
1000
OTHER
1070
     0
1002
}
1002
{
1000
REACTOR
1002
}
  0
POINT
  5
23387
330
1F
100
AcDbEntity
  8
0
 60
     1
100
AcDbPoint
 10
1161.378046909485
 20
437.969779061199
 30
0.0
1001
GENIUS_GENOBJ-N-CRS_13
1002
{
1000
OWNER
1000
GEN
1002
}
1001
GENIUS_GENOLIS_13
1002
{
1000
ENT
1005
23386
1005
23385
1005
23384
1005
23383
1002
}
1001
GENIUS_GENOENT_13
1002
{
1000
MYREF
1005
23387
1002
}
1002
{
1000
GRP
1005
0
1002
}
1001
GENIUS_GENODEF_13
1002
{
1000
HIER
1070
    10
1002
}
1002
{
1000
MANEDIT
1070
     0
1002
}
1002
{
1000
NOSEL
1070
     0
1002
}
1002
{
1000
BEHIND
1070
     0
1002
}
1002
{
1000
OTHER
1070
     0
1002
}
1002
{
1000
REACTOR
1002
}
  0
POINT
  5
2338C
330
1F
100
AcDbEntity
  8
0
 60
     1
100
AcDbPoint
 10
1161.378046909485
 20
437.969779061199
 30
0.0
1001
GENIUS_GENOLIS_13
1002
{
1000
ENT
1005
2338B
1005
2338A
1005
23389
1005
23388
1002
}
1001
GENIUS_GENOENT_13
1002
{
1000
MYREF
1005
2338C
1002
}
1002
{
1000
GRP
1005
0
1002
}
1001
GENIUS_GENODEF_13
1002
{
1000
HIER
1070
    10
1002
}
1002
{
1000
MANEDIT
1070
     0
1002
}
1002
{
1000
NOSEL
1070
     0
1002
}
1002
{
1000
BEHIND
1070
     0
1002
}
1002
{
1000
OTHER
1070
     0
1002
}
1002
{
1000
REACTOR
1002
}
1001
GENIUS_GENOBJ-N-CRS_13
1002
{
1000
OWNER
1000
GEN
1002
}
  0
POINT
  5
23391
330
1F
100
AcDbEntity
  8
0
 60
     1
100
AcDbPoint
 10
1161.378046909485
 20
437.969779061199
 30
0.0
1001
GENIUS_GENOBJ-N-CRS_13
1002
{
1000
OWNER
1000
GEN
1002
}
1001
GENIUS_GENODEF_13
1002
{
1000
HIER
1070
    10
1002
}
1002
{
1000
MANEDIT
1070
     0
1002
}
1002
{
1000
NOSEL
1070
     0
1002
}
1002
{
1000
BEHIND
1070
     0
1002
}
1002
{
1000
OTHER
1070
     0
1002
}
1002
{
1000
REACTOR
1002
}
1001
GENIUS_GENOENT_13
1002
{
1000
MYREF
1005
23391
1002
}
1002
{
1000
GRP
1005
0
1002
}
1001
GENIUS_GENOLIS_13
1002
{
1000
ENT
1005
23390
1005
2338F
1005
2338E
1005
2338D
1002
}
  0
POINT
  5
23396
330
1F
100
AcDbEntity
  8
0
 60
     1
100
AcDbPoint
 10
1161.378046909485
 20
437.969779061199
 30
0.0
1001
GENIUS_GENODEF_13
1002
{
1000
HIER
1070
    10
1002
}
1002
{
1000
MANEDIT
1070
     0
1002
}
1002
{
1000
NOSEL
1070
     0
1002
}
1002
{
1000
BEHIND
1070
     0
1002
}
1002
{
1000
OTHER
1070
     0
1002
}
1002
{
1000
REACTOR
1002
}
1001
GENIUS_GENOBJ-N-CRS_13
1002
{
1000
OWNER
1000
GEN
1002
}
1001
GENIUS_GENOLIS_13
1002
{
1000
ENT
1005
23395
1005
23394
1005
23393
1005
23392
1002
}
1001
GENIUS_GENOENT_13
1002
{
1000
MYREF
1005
23396
1002
}
1002
{
1000
GRP
1005
0
1002
}
  0
POINT
  5
2339B
330
1F
100
AcDbEntity
  8
0
 60
     1
100
AcDbPoint
 10
1161.378046909485
 20
437.969779061199
 30
0.0
1001
GENIUS_GENOLIS_13
1002
{
1000
ENT
1005
2339A
1005
23399
1005
23398
1005
23397
1002
}
1001
GENIUS_GENOENT_13
1002
{
1000
MYREF
1005
2339B
1002
}
1002
{
1000
GRP
1005
0
1002
}
1001
GENIUS_GENOBJ-N-CRS_13
1002
{
1000
OWNER
1000
GEN
1002
}
1001
GENIUS_GENODEF_13
1002
{
1000
HIER
1070
    10
1002
}
1002
{
1000
MANEDIT
1070
     0
1002
}
1002
{
1000
NOSEL
1070
     0
1002
}
1002
{
1000
BEHIND
1070
     0
1002
}
1002
{
1000
OTHER
1070
     0
1002
}
1002
{
1000
REACTOR
1002
}
  0
POINT
  5
233A0
330
1F
100
AcDbEntity
  8
0
 60
     1
100
AcDbPoint
 10
1161.378046909485
 20
437.969779061199
 30
0.0
1001
GENIUS_GENODEF_13
1002
{
1000
HIER
1070
    10
1002
}
1002
{
1000
MANEDIT
1070
     0
1002
}
1002
{
1000
NOSEL
1070
     0
1002
}
1002
{
1000
BEHIND
1070
     0
1002
}
1002
{
1000
OTHER
1070
     0
1002
}
1002
{
1000
REACTOR
1002
}
1001
GENIUS_GENOLIS_13
1002
{
1000
ENT
1005
2339F
1005
2339E
1005
2339D
1005
2339C
1002
}
1001
GENIUS_GENOENT_13
1002
{
1000
MYREF
1005
233A0
1002
}
1002
{
1000
GRP
1005
0
1002
}
1001
GENIUS_GENOBJ-N-CRS_13
1002
{
1000
OWNER
1000
GEN
1002
}
  0
POINT
  5
233A5
330
1F
100
AcDbEntity
  8
0
 60
     1
100
AcDbPoint
 10
1161.378046909485
 20
437.969779061199
 30
0.0
1001
GENIUS_GENOBJ-N-CRS_13
1002
{
1000
OWNER
1000
GEN
1002
}
1001
GENIUS_GENOLIS_13
1002
{
1000
ENT
1005
233A4
1005
233A3
1005
233A2
1005
233A1
1002
}
1001
GENIUS_GENOENT_13
1002
{
1000
MYREF
1005
233A5
1002
}
1002
{
1000
GRP
1005
0
1002
}
1001
GENIUS_GENODEF_13
1002
{
1000
HIER
1070
    10
1002
}
1002
{
1000
MANEDIT
1070
     0
1002
}
1002
{
1000
NOSEL
1070
     0
1002
}
1002
{
1000
BEHIND
1070
     0
1002
}
1002
{
1000
OTHER
1070
     0
1002
}
1002
{
1000
REACTOR
1002
}
  0
POINT
  5
233AA
330
1F
100
AcDbEntity
  8
0
 60
     1
100
AcDbPoint
 10
1161.378046909485
 20
437.969779061199
 30
0.0
1001
GENIUS_GENOENT_13
1002
{
1000
MYREF
1005
233AA
1002
}
1002
{
1000
GRP
1005
0
1002
}
1001
GENIUS_GENOBJ-N-CRS_13
1002
{
1000
OWNER
1000
GEN
1002
}
1001
GENIUS_GENOLIS_13
1002
{
1000
ENT
1005
233A9
1005
233A8
1005
233A7
1005
233A6
1002
}
1001
GENIUS_GENODEF_13
1002
{
1000
HIER
1070
    10
1002
}
1002
{
1000
MANEDIT
1070
     0
1002
}
1002
{
1000
NOSEL
1070
     0
1002
}
1002
{
1000
BEHIND
1070
     0
1002
}
1002
{
1000
OTHER
1070
     0
1002
}
1002
{
1000
REACTOR
1002
}
  0
POINT
  5
233AF
330
1F
100
AcDbEntity
  8
0
 60
     1
100
AcDbPoint
 10
1161.378046909485
 20
437.969779061199
 30
0.0
1001
GENIUS_GENOBJ-N-CRS_13
1002
{
1000
OWNER
1000
GEN
1002
}
1001
GENIUS_GENODEF_13
1002
{
1000
HIER
1070
    10
1002
}
1002
{
1000
MANEDIT
1070
     0
1002
}
1002
{
1000
NOSEL
1070
     0
1002
}
1002
{
1000
BEHIND
1070
     0
1002
}
1002
{
1000
OTHER
1070
     0
1002
}
1002
{
1000
REACTOR
1002
}
1001
GENIUS_GENOLIS_13
1002
{
1000
ENT
1005
233AE
1005
233AD
1005
233AC
1005
233AB
1002
}
1001
GENIUS_GENOENT_13
1002
{
1000
MYREF
1005
233AF
1002
}
1002
{
1000
GRP
1005
0
1002
}
  0
POINT
  5
233B4
330
1F
100
AcDbEntity
  8
0
 60
     1
100
AcDbPoint
 10
1161.378046909485
 20
437.969779061199
 30
0.0
1001
GENIUS_GENODEF_13
1002
{
1000
HIER
1070
    10
1002
}
1002
{
1000
MANEDIT
1070
     0
1002
}
1002
{
1000
NOSEL
1070
     0
1002
}
1002
{
1000
BEHIND
1070
     0
1002
}
1002
{
1000
OTHER
1070
     0
1002
}
1002
{
1000
REACTOR
1002
}
1001
GENIUS_GENOLIS_13
1002
{
1000
ENT
1005
233B3
1005
233B2
1005
233B1
1005
233B0
1002
}
1001
GENIUS_GENOENT_13
1002
{
1000
MYREF
1005
233B4
1002
}
1002
{
1000
GRP
1005
0
1002
}
1001
GENIUS_GENOBJ-N-CRS_13
1002
{
1000
OWNER
1000
GEN
1002
}
  0
POINT
  5
233B9
330
1F
100
AcDbEntity
  8
0
 60
     1
100
AcDbPoint
 10
1161.378046909485
 20
437.969779061199
 30
0.0
1001
GENIUS_GENODEF_13
1002
{
1000
HIER
1070
    10
1002
}
1002
{
1000
MANEDIT
1070
     0
1002
}
1002
{
1000
NOSEL
1070
     0
1002
}
1002
{
1000
BEHIND
1070
     0
1002
}
1002
{
1000
OTHER
1070
     0
1002
}
1002
{
1000
REACTOR
1002
}
1001
GENIUS_GENOLIS_13
1002
{
1000
ENT
1005
233B8
1005
233B7
1005
233B6
1005
233B5
1002
}
1001
GENIUS_GENOENT_13
1002
{
1000
MYREF
1005
233B9
1002
}
1002
{
1000
GRP
1005
0
1002
}
1001
GENIUS_GENOBJ-N-CRS_13
1002
{
1000
OWNER
1000
GEN
1002
}
  0
POINT
  5
233BE
330
1F
100
AcDbEntity
  8
0
 60
     1
100
AcDbPoint
 10
1161.378046909485
 20
437.969779061199
 30
0.0
1001
GENIUS_GENODEF_13
1002
{
1000
HIER
1070
    10
1002
}
1002
{
1000
MANEDIT
1070
     0
1002
}
1002
{
1000
NOSEL
1070
     0
1002
}
1002
{
1000
BEHIND
1070
     0
1002
}
1002
{
1000
OTHER
1070
     0
1002
}
1002
{
1000
REACTOR
1002
}
1001
GENIUS_GENOENT_13
1002
{
1000
MYREF
1005
233BE
1002
}
1002
{
1000
GRP
1005
0
1002
}
1001
GENIUS_GENOBJ-N-CRS_13
1002
{
1000
OWNER
1000
GEN
1002
}
1001
GENIUS_GENOLIS_13
1002
{
1000
ENT
1005
233BD
1005
233BC
1005
233BB
1005
233BA
1002
}
  0
POINT
  5
233C4
330
1F
100
AcDbEntity
  8
0
 60
     1
100
AcDbPoint
 10
1161.378046909485
 20
437.969779061199
 30
0.0
1001
GENIUS_GENOBJ-N-CRS_13
1002
{
1000
OWNER
1000
GEN
1002
}
1001
GENIUS_GENOLIS_13
1002
{
1000
ENT
1005
233C3
1005
233C2
1005
233C1
1005
233C0
1002
}
1001
GENIUS_GENODEF_13
1002
{
1000
HIER
1070
    10
1002
}
1002
{
1000
MANEDIT
1070
     0
1002
}
1002
{
1000
NOSEL
1070
     0
1002
}
1002
{
1000
BEHIND
1070
     0
1002
}
1002
{
1000
OTHER
1070
     0
1002
}
1002
{
1000
REACTOR
1002
}
1001
GENIUS_GENOENT_13
1002
{
1000
MYREF
1005
233C4
1002
}
1002
{
1000
GRP
1005
0
1002
}
  0
POINT
  5
233C9
330
1F
100
AcDbEntity
  8
0
 60
     1
100
AcDbPoint
 10
1161.378046909485
 20
437.969779061199
 30
0.0
1001
GENIUS_GENOBJ-N-CRS_13
1002
{
1000
OWNER
1000
GEN
1002
}
1001
GENIUS_GENOENT_13
1002
{
1000
MYREF
1005
233C9
1002
}
1002
{
1000
GRP
1005
0
1002
}
1001
GENIUS_GENODEF_13
1002
{
1000
HIER
1070
    10
1002
}
1002
{
1000
MANEDIT
1070
     0
1002
}
1002
{
1000
NOSEL
1070
     0
1002
}
1002
{
1000
BEHIND
1070
     0
1002
}
1002
{
1000
OTHER
1070
     0
1002
}
1002
{
1000
REACTOR
1002
}
1001
GENIUS_GENOLIS_13
1002
{
1000
ENT
1005
233C8
1005
233C7
1005
233C6
1005
233C5
1002
}
  0
POINT
  5
23599
330
1F
100
AcDbEntity
  8
0
 60
     1
100
AcDbPoint
 10
1482.387885762583
 20
437.969779061199
 30
0.0
1001
GENIUS_GENOBJ-N-CRS_13
1002
{
1000
OWNER
1000
GEN
1002
}
1001
GENIUS_GENOENT_13
1002
{
1000
MYREF
1005
23599
1002
}
1002
{
1000
GRP
1005
0
1002
}
1001
GENIUS_GENODEF_13
1002
{
1000
HIER
1070
    10
1002
}
1002
{
1000
MANEDIT
1070
     0
1002
}
1002
{
1000
NOSEL
1070
     0
1002
}
1002
{
1000
BEHIND
1070
     0
1002
}
1002
{
1000
OTHER
1070
     0
1002
}
1002
{
1000
REACTOR
1002
}
1001
GENIUS_GENOLIS_13
1002
{
1000
ENT
1005
23473
1005
23474
1005
23475
1005
23476
1002
}
  0
POINT
  5
2359A
330
1F
100
AcDbEntity
  8
0
 60
     1
100
AcDbPoint
 10
1482.387885762583
 20
437.969779061199
 30
0.0
1001
GENIUS_GENOBJ-N-CRS_13
1002
{
1000
OWNER
1000
GEN
1002
}
1001
GENIUS_GENOLIS_13
1002
{
1000
ENT
1005
233E6
1005
233EB
1005
233EE
1005
233EF
1002
}
1001
GENIUS_GENODEF_13
1002
{
1000
HIER
1070
    10
1002
}
1002
{
1000
MANEDIT
1070
     0
1002
}
1002
{
1000
NOSEL
1070
     0
1002
}
1002
{
1000
BEHIND
1070
     0
1002
}
1002
{
1000
OTHER
1070
     0
1002
}
1002
{
1000
REACTOR
1002
}
1001
GENIUS_GENOENT_13
1002
{
1000
MYREF
1005
2359A
1002
}
1002
{
1000
GRP
1005
0
1002
}
  0
POINT
  5
2359B
330
1F
100
AcDbEntity
  8
0
 60
     1
100
AcDbPoint
 10
1482.387885762583
 20
437.969779061199
 30
0.0
1001
GENIUS_GENODEF_13
1002
{
1000
HIER
1070
    10
1002
}
1002
{
1000
MANEDIT
1070
     0
1002
}
1002
{
1000
NOSEL
1070
     0
1002
}
1002
{
1000
BEHIND
1070
     0
1002
}
1002
{
1000
OTHER
1070
     0
1002
}
1002
{
1000
REACTOR
1002
}
1001
GENIUS_GENOENT_13
1002
{
1000
MYREF
1005
2359B
1002
}
1002
{
1000
GRP
1005
0
1002
}
1001
GENIUS_GENOBJ-N-CRS_13
1002
{
1000
OWNER
1000
GEN
1002
}
1001
GENIUS_GENOLIS_13
1002
{
1000
ENT
1005
23517
1005
23518
1005
23510
1005
2350E
1002
}
  0
POINT
  5
2359C
330
1F
100
AcDbEntity
  8
0
 60
     1
100
AcDbPoint
 10
1482.387885762583
 20
437.969779061199
 30
0.0
1001
GENIUS_GENODEF_13
1002
{
1000
HIER
1070
    10
1002
}
1002
{
1000
MANEDIT
1070
     0
1002
}
1002
{
1000
NOSEL
1070
     0
1002
}
1002
{
1000
BEHIND
1070
     0
1002
}
1002
{
1000
OTHER
1070
     0
1002
}
1002
{
1000
REACTOR
1002
}
1001
GENIUS_GENOLIS_13
1002
{
1000
ENT
1005
23400
1005
23410
1005
23415
1005
23416
1002
}
1001
GENIUS_GENOENT_13
1002
{
1000
MYREF
1005
2359C
1002
}
1002
{
1000
GRP
1005
0
1002
}
1001
GENIUS_GENOBJ-N-CRS_13
1002
{
1000
OWNER
1000
GEN
1002
}
  0
POINT
  5
2359D
330
1F
100
AcDbEntity
  8
0
 60
     1
100
AcDbPoint
 10
1482.387885762583
 20
437.969779061199
 30
0.0
1001
GENIUS_GENODEF_13
1002
{
1000
HIER
1070
    10
1002
}
1002
{
1000
MANEDIT
1070
     0
1002
}
1002
{
1000
NOSEL
1070
     0
1002
}
1002
{
1000
BEHIND
1070
     0
1002
}
1002
{
1000
OTHER
1070
     0
1002
}
1002
{
1000
REACTOR
1002
}
1001
GENIUS_GENOLIS_13
1002
{
1000
ENT
1005
23407
1005
2340C
1005
23401
1005
233CB
1002
}
1001
GENIUS_GENOENT_13
1002
{
1000
MYREF
1005
2359D
1002
}
1002
{
1000
GRP
1005
0
1002
}
1001
GENIUS_GENOBJ-N-CRS_13
1002
{
1000
OWNER
1000
GEN
1002
}
  0
POINT
  5
2359E
330
1F
100
AcDbEntity
  8
0
 60
     1
100
AcDbPoint
 10
1482.387885762583
 20
437.969779061199
 30
0.0
1001
GENIUS_GENOBJ-N-CRS_13
1002
{
1000
OWNER
1000
GEN
1002
}
1001
GENIUS_GENODEF_13
1002
{
1000
HIER
1070
    10
1002
}
1002
{
1000
MANEDIT
1070
     0
1002
}
1002
{
1000
NOSEL
1070
     0
1002
}
1002
{
1000
BEHIND
1070
     0
1002
}
1002
{
1000
OTHER
1070
     0
1002
}
1002
{
1000
REACTOR
1002
}
1001
GENIUS_GENOLIS_13
1002
{
1000
ENT
1005
23511
1005
2351F
1005
23506
1005
23522
1002
}
1001
GENIUS_GENOENT_13
1002
{
1000
MYREF
1005
2359E
1002
}
1002
{
1000
GRP
1005
0
1002
}
  0
POINT
  5
2359F
330
1F
100
AcDbEntity
  8
0
 60
     1
100
AcDbPoint
 10
1482.387885762583
 20
437.969779061199
 30
0.0
1001
GENIUS_GENODEF_13
1002
{
1000
HIER
1070
    10
1002
}
1002
{
1000
MANEDIT
1070
     0
1002
}
1002
{
1000
NOSEL
1070
     0
1002
}
1002
{
1000
BEHIND
1070
     0
1002
}
1002
{
1000
OTHER
1070
     0
1002
}
1002
{
1000
REACTOR
1002
}
1001
GENIUS_GENOLIS_13
1002
{
1000
ENT
1005
2343F
1005
23440
1005
23426
1005
23441
1002
}
1001
GENIUS_GENOENT_13
1002
{
1000
MYREF
1005
2359F
1002
}
1002
{
1000
GRP
1005
0
1002
}
1001
GENIUS_GENOBJ-N-CRS_13
1002
{
1000
OWNER
1000
GEN
1002
}
  0
POINT
  5
235A0
330
1F
100
AcDbEntity
  8
0
 60
     1
100
AcDbPoint
 10
1482.387885762583
 20
437.969779061199
 30
0.0
1001
GENIUS_GENOLIS_13
1002
{
1000
ENT
1005
2343C
1005
233CC
1005
23427
1005
2343D
1002
}
1001
GENIUS_GENOENT_13
1002
{
1000
MYREF
1005
235A0
1002
}
1002
{
1000
GRP
1005
0
1002
}
1001
GENIUS_GENOBJ-N-CRS_13
1002
{
1000
OWNER
1000
GEN
1002
}
1001
GENIUS_GENODEF_13
1002
{
1000
HIER
1070
    10
1002
}
1002
{
1000
MANEDIT
1070
     0
1002
}
1002
{
1000
NOSEL
1070
     0
1002
}
1002
{
1000
BEHIND
1070
     0
1002
}
1002
{
1000
OTHER
1070
     0
1002
}
1002
{
1000
REACTOR
1002
}
  0
POINT
  5
235A1
330
1F
100
AcDbEntity
  8
0
 60
     1
100
AcDbPoint
 10
1482.387885762583
 20
437.969779061199
 30
0.0
1001
GENIUS_GENOENT_13
1002
{
1000
MYREF
1005
235A1
1002
}
1002
{
1000
GRP
1005
0
1002
}
1001
GENIUS_GENOBJ-N-CRS_13
1002
{
1000
OWNER
1000
GEN
1002
}
1001
GENIUS_GENODEF_13
1002
{
1000
HIER
1070
    10
1002
}
1002
{
1000
MANEDIT
1070
     0
1002
}
1002
{
1000
NOSEL
1070
     0
1002
}
1002
{
1000
BEHIND
1070
     0
1002
}
1002
{
1000
OTHER
1070
     0
1002
}
1002
{
1000
REACTOR
1002
}
1001
GENIUS_GENOLIS_13
1002
{
1000
ENT
1005
233F0
1005
233EC
1005
233DE
1005
233F1
1002
}
  0
POINT
  5
23865
330
1F
100
AcDbEntity
  8
0
 60
     1
100
AcDbPoint
 10
1161.378046909485
 20
437.969779061199
 30
0.0
1001
GENIUS_GENOBJ-NBEHI-BHF_13
1002
{
1000
OWNER
1000
genbehi
1002
}
1001
GENIUS_GENOLIS_13
1002
{
1000
ENT
1005
0
1002
}
1001
GENIUS_GENOENT_13
1002
{
1000
MYREF
1005
23865
1002
}
1002
{
1000
GRP
1005
0
1002
}
1001
GENIUS_GENBH_13
1002
{
1000
OIUMAP
1000
OIU
1002
}
1002
{
1000
FLAGS
1070
    32
1002
}
1002
{
1000
FGLEVEL
1040
3.14159265359
1002
}
1002
{
1000
BGO
1005
23866
1002
}
1001
GENIUS_GENODEF_13
1002
{
1000
HIER
1070
     1
1002
}
1002
{
1000
MANEDIT
1070
     1
1002
}
1002
{
1000
NOSEL
1070
     1
1002
}
1002
{
1000
BEHIND
1070
     0
1002
}
1002
{
1000
OTHER
1070
     0
1002
}
1002
{
1000
REACTOR
1002
}
  0
POINT
  5
23866
330
1F
100
AcDbEntity
  8
0
 60
     1
100
AcDbPoint
 10
1161.378046909485
 20
437.969779061199
 30
0.0
1001
GENIUS_GENOENT_13
1002
{
1000
MYREF
1005
23866
1002
}
1002
{
1000
GRP
1005
0
1002
}
1001
GENIUS_GENOBJ-NBEHI-BHB_13
1002
{
1000
OWNER
1000
genbehi
1002
}
1001
GENIUS_GENOLIS_13
1002
{
1000
ENT
1002
}
1001
GENIUS_GENODEF_13
1002
{
1000
HIER
1070
     1
1002
}
1002
{
1000
MANEDIT
1070
     0
1002
}
1002
{
1000
NOSEL
1070
     1
1002
}
1002
{
1000
BEHIND
1070
     0
1002
}
1002
{
1000
OTHER
1070
     1
1002
}
1002
{
1000
REACTOR
1002
}
1001
GENIUS_GENBH_13
1002
{
1000
FGO
1005
23865
1002
}
  0
MTEXT
  5
244E5
330
1F
100
AcDbEntity
  8
AM_REFDIM
100
AcDbMText
 10
3087.033910283869
 20
638.8029419536624
 30
0.0
 40
5.0
 41
0.0
 71
     9
 72
     1
  1

  7
DAYUS
1001
ACAD
1000
MTEXTBEGIN
1070
    73
1070
     1
1070
    44
1040
1.0
1070
    74
1070
     0
1000
MTEXTEND
  0
MTEXT
  5
244E6
330
1F
100
AcDbEntity
  8
AM_REFDIM
100
AcDbMText
 10
3281.506247866952
 20
703.986878864765
 30
0.0
 40
5.0
 41
0.0
 71
     9
 72
     1
  1

  7
DAYUS
1001
ACAD
1000
MTEXTBEGIN
1070
    73
1070
     1
1070
    44
1040
1.0
1070
    74
1070
     0
1000
MTEXTEND
  0
MTEXT
  5
244E7
330
1F
100
AcDbEntity
  8
AM_REFDIM
100
AcDbMText
 10
3275.419891703281
 20
636.2521073553391
 30
0.0
 40
5.0
 41
0.0
 71
     9
 72
     1
  1

  7
DAYUS
1001
ACAD
1000
MTEXTBEGIN
1070
    73
1070
     1
1070
    44
1040
1.0
1070
    74
1070
     0
1000
MTEXTEND
  0
MTEXT
  5
244EA
330
1F
100
AcDbEntity
  8
AM_REFDIM
100
AcDbMText
 10
3408.993542742089
 20
410.2608773655699
 30
0.0
 40
5.0
 41
0.0
 71
     9
 72
     1
  1

  7
DAYUS
1001
ACAD
1000
MTEXTBEGIN
1070
    73
1070
     1
1070
    44
1040
1.0
1070
    74
1070
     0
1000
MTEXTEND
  0
MTEXT
  5
244EB
330
1F
100
AcDbEntity
  8
AM_REFDIM
100
AcDbMText
 10
3402.907186578418
 20
342.5261058561441
 30
0.0
 40
5.0
 41
0.0
 71
     9
 72
     1
  1

  7
DAYUS
1001
ACAD
1000
MTEXTBEGIN
1070
    73
1070
     1
1070
    44
1040
1.0
1070
    74
1070
     0
1000
MTEXTEND
  0
MTEXT
  5
244EC
330
1F
100
AcDbEntity
  8
AM_REFDIM
100
AcDbMText
 10
3214.521205159005
 20
345.0769404544673
 30
0.0
 40
5.0
 41
0.0
 71
     9
 72
     1
  1

  7
DAYUS
1001
ACAD
1000
MTEXTBEGIN
1070
    73
1070
     1
1070
    44
1040
1.0
1070
    74
1070
     0
1000
MTEXTEND
  0
MTEXT
  5
244F2
330
1F
100
AcDbEntity
  8
AM_5
 62
     2
100
AcDbMText
 10
2890.043409423864
 20
644.4185142320296
 30
0.0
 40
3.5
 41
0.0
 71
     7
 72
     1
  1

  7
ACISOTS
1001
ACAD
1000
MTEXTBEGIN
1070
    73
1070
     1
1070
    44
1040
1.0
1070
    74
1070
     0
1000
MTEXTEND
  0
MTEXT
  5
244F3
330
1F
100
AcDbEntity
  8
AM_5
 62
     2
100
AcDbMText
 10
2901.130867444587
 20
651.1515739780795
 30
0.0
 40
3.5
 41
0.0
 71
     9
 72
     1
  1

  7
ACISOTS
1001
ACAD
1000
MTEXTBEGIN
1070
    73
1070
     1
1070
    44
1040
1.0
1070
    74
1070
     0
1000
MTEXTEND
  0
TEXT
  5
2454A
330
1F
100
AcDbEntity
  8
AM_REFDIM
100
AcDbText
 10
2093.153785367212
 20
432.5185962956147
 30
0.0
 40
4.0
  1
3-PT1/4
100
AcDbText
  0
LINE
  5
2454C
330
1F
100
AcDbEntity
  8
AM_VIS
100
AcDbLine
 10
2183.388140685954
 20
486.7931531604435
 30
0.0
 11
2205.388140685954
 21
486.7931531604435
 31
0.0
  0
LINE
  5
2454D
330
1F
100
AcDbEntity
  8
AM_VIS
100
AcDbLine
 10
2205.388140685954
 20
507.7931531604435
 30
0.0
 11
2183.388140685954
 21
507.7931531604435
 31
0.0
  0
LINE
  5
2454E
330
1F
100
AcDbEntity
  8
AM_VIS
100
AcDbLine
 10
2179.388140685954
 20
508.2931531604434
 30
0.0
 11
2208.888140685954
 21
508.2931531604434
 31
0.0
  0
LINE
  5
2454F
330
1F
100
AcDbEntity
  8
AM_VIS
100
AcDbLine
 10
2179.388140685954
 20
486.2931531604434
 30
0.0
 11
2208.888140685954
 21
486.2931531604434
 31
0.0
  0
LINE
  5
24550
330
1F
100
AcDbEntity
  8
AM_VIS
100
AcDbLine
 10
2205.388140685954
 20
449.5173816967052
 30
0.0
 11
2183.388140685954
 21
449.5173816967052
 31
0.0
  0
LINE
  5
24551
330
1F
100
AcDbEntity
  8
AM_VIS
100
AcDbLine
 10
2179.388140685954
 20
421.0173816967051
 30
0.0
 11
2208.888140685954
 21
421.0173816967051
 31
0.0
  0
LINE
  5
24552
330
1F
100
AcDbEntity
  8
AM_VIS
100
AcDbLine
 10
2179.388140685954
 20
392.5173816967051
 30
0.0
 11
2208.888140685954
 21
392.5173816967051
 31
0.0
  0
CIRCLE
  5
24553
330
1F
100
AcDbEntity
  8
AM_VIS
100
AcDbCircle
 10
2120.388140685954
 20
393.0173816967052
 30
0.0
 40
2.1
  0
LINE
  5
24554
330
1F
100
AcDbEntity
  8
AM_VIS
100
AcDbLine
 10
2105.388140685954
 20
421.1673816967052
 30
0.0
 11
2155.388140685954
 21
421.1673816967052
 31
0.0
  0
LINE
  5
24555
330
1F
100
AcDbEntity
  8
AM_VIS
100
AcDbLine
 10
2105.388140685954
 20
385.8673816967052
 30
0.0
 11
2155.388140685954
 21
385.8673816967052
 31
0.0
  0
LINE
  5
24556
330
1F
100
AcDbEntity
  8
AM_VIS
100
AcDbLine
 10
2105.388140685954
 20
385.8673816967052
 30
0.0
 11
2105.388140685954
 21
421.1673816967052
 31
0.0
  0
LINE
  5
24557
330
1F
100
AcDbEntity
  8
AM_VIS
100
AcDbLine
 10
2105.388140685954
 20
386.8673816967052
 30
0.0
 11
2105.388140685954
 21
420.1673816967051
 31
0.0
  0
LINE
  5
24558
330
1F
100
AcDbEntity
  8
AM_VIS
100
AcDbLine
 10
2098.888140685954
 20
420.1673816967051
 30
0.0
 11
2098.888140685954
 21
395.0173816967052
 31
0.0
  0
LINE
  5
24559
330
1F
100
AcDbEntity
  8
AM_VIS
100
AcDbLine
 10
2102.888140685954
 20
386.7173816967051
 30
0.0
 11
2101.888140685954
 21
386.7173816967051
 31
0.0
  0
ELLIPSE
  5
2455A
330
1F
100
AcDbEntity
  8
AM_VIS
100
AcDbEllipse
 10
2102.437636169845
 20
390.5173816967052
 30
0.0
 11
-10.44041419392711
 21
-0.0000000000000013
 31
-0.0000000000000001
210
0.0
220
0.0
230
1.0
 40
0.363970234266219
 41
4.712388980384689
 42
4.765044888646255
  0
LINE
  5
2455B
330
1F
100
AcDbEntity
  8
AM_VIS
100
AcDbLine
 10
2099.888140685954
 20
385.8673816967052
 30
0.0
 11
2102.388140685954
 21
385.8673816967052
 31
0.0
  0
LINE
  5
2455C
330
1F
100
AcDbEntity
  8
AM_VIS
100
AcDbLine
 10
2099.388140685954
 20
394.5173816967052
 30
0.0
 11
2102.388140685954
 21
394.5173816967052
 31
0.0
  0
LINE
  5
2455D
330
1F
100
AcDbEntity
  8
AM_VIS
100
AcDbLine
 10
2101.888140685954
 20
390.5173816967052
 30
0.0
 11
2101.888140685954
 21
386.5173816967052
 31
0.0
  0
ELLIPSE
  5
2455E
330
1F
100
AcDbEntity
  8
AM_VIS
100
AcDbEllipse
 10
2103.779169356929
 20
390.5173816967052
 30
0.0
 11
0.0
 21
-6.073381703024882
 31
0.0
210
0.0
220
0.0
230
1.0
 40
0.7586218633400584
 41
4.630795282261959
 42
4.793982678507418
  0
LINE
  5
2455F
330
1F
100
AcDbEntity
  8
AM_VIS
100
AcDbLine
 10
2098.888140685954
 20
390.5173816967052
 30
0.0
 11
2098.888140685954
 21
386.8673816967052
 31
0.0
  0
ARC
  5
24560
330
1F
100
AcDbEntity
  8
AM_VIS
100
AcDbCircle
 10
2100.968652362222
 20
388.2039382413454
 30
0.0
 40
1.6
100
AcDbArc
 50
208.172734131862
 51
265.0000000000003
  0
ARC
  5
24561
330
1F
100
AcDbEntity
  8
AM_VIS
100
AcDbCircle
 10
2105.288140685954
 20
390.5173816967052
 30
0.0
 40
6.499999999999998
100
AcDbArc
 50
199.7831703726593
 51
208.172734131862
  0
LINE
  5
24562
330
1F
100
AcDbEntity
  8
AM_VIS
100
AcDbLine
 10
2098.897627717498
 20
390.0223816967052
 30
0.0
 11
2099.187097661603
 21
390.0223816967052
 31
0.0
  0
LINE
  5
24563
330
1F
100
AcDbEntity
  8
AM_VIS
100
AcDbLine
 10
2099.171769212604
 20
388.3173816967052
 30
0.0
 11
2099.187097661602
 21
388.33054630852
 31
0.0
  0
ARC
  5
24564
330
1F
100
AcDbEntity
  8
AM_VIS
100
AcDbCircle
 10
2105.288140685954
 20
390.5173816967052
 30
0.0
 40
6.481124516625332
100
AcDbArc
 50
189.592051642251
 51
199.7195234153005
  0
LINE
  5
24565
330
1F
100
AcDbEntity
  8
AM_VIS
100
AcDbLine
 10
2098.897627717498
 20
389.4374191973554
 30
0.0
 11
2098.897627717498
 21
390.0223816967052
 31
0.0
  0
LINE
  5
24566
330
1F
100
AcDbEntity
  8
AM_VIS
100
AcDbLine
 10
2100.829203173826
 20
386.6100267243987
 30
0.0
 11
2101.888140685954
 21
386.5173816967052
 31
0.0
  0
ARC
  5
24567
330
1F
100
AcDbEntity
  8
AM_VIS
100
AcDbCircle
 10
2099.888140685954
 20
386.8673816967052
 30
0.0
 40
1.0
100
AcDbArc
 50
180.0
 51
270.0
  0
ARC
  5
24568
330
1F
100
AcDbEntity
  8
AM_VIS
100
AcDbCircle
 10
2100.968652362222
 20
392.830825152065
 30
0.0
 40
1.599999999999999
100
AcDbArc
 50
94.99999999999975
 51
151.8272658681378
  0
ARC
  5
24569
330
1F
100
AcDbEntity
  8
AM_VIS
100
AcDbCircle
 10
2105.288140685954
 20
390.5173816967052
 30
0.0
 40
6.5
100
AcDbArc
 50
151.827265868135
 51
160.2168296273406
  0
LINE
  5
2456A
330
1F
100
AcDbEntity
  8
AM_VIS
100
AcDbLine
 10
2101.888140685954
 20
394.5173816967052
 30
0.0
 11
2101.888140685954
 21
390.5173816967052
 31
0.0
  0
ARC
  5
2456B
330
1F
100
AcDbEntity
  8
AM_VIS
100
AcDbCircle
 10
2105.288140685954
 20
390.5173816967052
 30
0.0
 40
6.481124516625332
100
AcDbArc
 50
160.2804765846994
 51
170.4079483577457
  0
LINE
  5
2456C
330
1F
100
AcDbEntity
  8
AM_VIS
100
AcDbLine
 10
2099.187097661602
 20
392.7042170848904
 30
0.0
 11
2099.171769212604
 21
392.7173816967051
 31
0.0
  0
LINE
  5
2456D
330
1F
100
AcDbEntity
  8
AM_VIS
100
AcDbLine
 10
2099.187097661603
 20
391.0123816967052
 30
0.0
 11
2098.897627717498
 21
391.0123816967052
 31
0.0
  0
LINE
  5
2456E
330
1F
100
AcDbEntity
  8
AM_VIS
100
AcDbLine
 10
2098.897627717498
 20
391.0123816967052
 30
0.0
 11
2098.897627717498
 21
391.597344196055
 31
0.0
  0
LINE
  5
2456F
330
1F
100
AcDbEntity
  8
AM_VIS
100
AcDbLine
 10
2100.829203173826
 20
394.4247366690117
 30
0.0
 11
2101.888140685954
 21
394.5173816967052
 31
0.0
  0
LINE
  5
24570
330
1F
100
AcDbEntity
  8
AM_VIS
100
AcDbLine
 10
2098.888140685954
 20
395.0173816967052
 30
0.0
 11
2098.888140685954
 21
390.5173816967052
 31
0.0
  0
ARC
  5
24571
330
1F
100
AcDbEntity
  8
AM_VIS
100
AcDbCircle
 10
2099.388140685954
 20
395.0173816967052
 30
0.0
 40
0.5
100
AcDbArc
 50
180.0
 51
270.0
  0
LINE
  5
24572
330
1F
100
AcDbEntity
  8
AM_VIS
100
AcDbLine
 10
2102.888140685954
 20
391.3834071004897
 30
0.0
 11
2102.888140685954
 21
389.6513562929206
 31
0.0
  0
LINE
  5
24573
330
1F
100
AcDbEntity
  8
AM_VIS
100
AcDbLine
 10
2102.888140685954
 20
386.8673816967052
 30
0.0
 11
2102.888140685954
 21
386.7173816967051
 31
0.0
  0
ARC
  5
24574
330
1F
100
AcDbEntity
  8
AM_VIS
100
AcDbCircle
 10
2103.888140685954
 20
386.8673816967052
 30
0.0
 40
1.0
100
AcDbArc
 50
180.0
 51
270.0
  0
LINE
  5
24575
330
1F
100
AcDbEntity
  8
AM_VIS
100
AcDbLine
 10
2102.388140685954
 20
385.8673816967052
 30
0.0
 11
2103.888140685954
 21
385.8673816967052
 31
0.0
  0
LINE
  5
24576
330
1F
100
AcDbEntity
  8
AM_VIS
100
AcDbLine
 10
2103.888140685954
 20
385.8673816967052
 30
0.0
 11
2105.388140685954
 21
385.8673816967052
 31
0.0
  0
LINE
  5
24577
330
1F
100
AcDbEntity
  8
AM_VIS
100
AcDbLine
 10
2102.888140685954
 20
389.6513562929206
 30
0.0
 11
2102.888140685954
 21
386.8673816967052
 31
0.0
  0
LINE
  5
24578
330
1F
100
AcDbEntity
  8
AM_VIS
100
AcDbLine
 10
2102.788140685954
 20
394.3173816967052
 30
0.0
 11
2102.437636169845
 21
394.3173816967052
 31
0.0
  0
ARC
  5
24579
330
1F
100
AcDbEntity
  8
AM_VIS
100
AcDbCircle
 10
2102.388140685954
 20
394.0173816967052
 30
0.0
 40
0.5
100
AcDbArc
 50
0.0
 51
90.0
  0
LINE
  5
2457A
330
1F
100
AcDbEntity
  8
AM_VIS
100
AcDbLine
 10
2102.888140685954
 20
394.0173816967052
 30
0.0
 11
2102.888140685954
 21
391.3834071004897
 31
0.0
  0
LINE
  5
2457B
330
1F
100
AcDbEntity
  8
AM_VIS
100
AcDbLine
 10
2105.388140685954
 20
421.1673816967052
 30
0.0
 11
2099.888140685954
 21
421.1673816967052
 31
0.0
  0
ARC
  5
2457C
330
1F
100
AcDbEntity
  8
AM_VIS
100
AcDbCircle
 10
2099.888140685954
 20
420.1673816967051
 30
0.0
 40
1.0
100
AcDbArc
 50
90.0
 51
180.0
  0
LINE
  5
2457D
330
1F
100
AcDbEntity
  8
AM_VIS
100
AcDbLine
 10
2155.388140685954
 20
385.8673816967052
 30
0.0
 11
2155.388140685954
 21
421.1673816967052
 31
0.0
  0
LINE
  5
2457E
330
1F
100
AcDbEntity
  8
AM_VIS
100
AcDbLine
 10
2179.388140685954
 20
387.2673816967051
 30
0.0
 11
2179.388140685954
 21
419.7673816967051
 31
0.0
  0
LINE
  5
2457F
330
1F
100
AcDbEntity
  8
AM_VIS
100
AcDbLine
 10
2177.388140685954
 20
386.251393125126
 30
0.0
 11
2177.388140685954
 21
420.7833702682844
 31
0.0
  0
LINE
  5
24580
330
1F
100
AcDbEntity
  8
AM_VIS
100
AcDbLine
 10
2155.388140685954
 20
421.1673816967052
 30
0.0
 11
2155.388140685954
 21
385.8673816967052
 31
0.0
  0
CIRCLE
  5
24581
330
1F
100
AcDbEntity
  8
AM_VIS
100
AcDbCircle
 10
2140.388140685954
 20
393.0173816967052
 30
0.0
 40
2.1
  0
LINE
  5
24582
330
1F
100
AcDbEntity
  8
AM_VIS
100
AcDbLine
 10
2155.388140685954
 20
385.8673816967052
 30
0.0
 11
2177.388140685954
 21
386.251393125126
 31
0.0
  0
LINE
  5
24583
330
1F
100
AcDbEntity
  8
AM_VIS
100
AcDbLine
 10
2179.388140685954
 20
387.2673816967051
 30
0.0
 11
2179.388140685954
 21
386.2673816967051
 31
0.0
  0
LINE
  5
24584
330
1F
100
AcDbEntity
  8
AM_VIS
100
AcDbLine
 10
2177.388140685954
 20
386.2673816967051
 30
0.0
 11
2179.388140685954
 21
386.2673816967051
 31
0.0
  0
LINE
  5
24585
330
1F
100
AcDbEntity
  8
AM_VIS
100
AcDbLine
 10
2179.888140685954
 20
446.0173816967052
 30
0.0
 11
2179.888140685954
 21
421.0173816967052
 31
0.0
  0
LINE
  5
24586
330
1F
100
AcDbEntity
  8
AM_VIS
100
AcDbLine
 10
2165.138140685954
 20
422.0173816967052
 30
0.0
 11
2172.038140685954
 21
422.0173816967052
 31
0.0
  0
LINE
  5
24587
330
1F
100
AcDbEntity
  8
AM_VIS
100
AcDbLine
 10
2155.388140685954
 20
421.1673816967052
 30
0.0
 11
2177.388140685954
 21
420.7833702682844
 31
0.0
  0
LINE
  5
24588
330
1F
100
AcDbEntity
  8
AM_VIS
100
AcDbLine
 10
2165.138140685954
 20
420.9971948136551
 30
0.0
 11
2165.138140685954
 21
422.0173816967052
 31
0.0
  0
LINE
  5
24589
330
1F
100
AcDbEntity
  8
AM_VIS
100
AcDbLine
 10
2172.038140685954
 20
420.8767548656503
 30
0.0
 11
2172.038140685954
 21
422.0173816967052
 31
0.0
  0
LINE
  5
2458A
330
1F
100
AcDbEntity
  8
AM_VIS
100
AcDbLine
 10
2179.388140685954
 20
421.0173816967051
 30
0.0
 11
2179.388140685954
 21
420.7673816967051
 31
0.0
  0
LINE
  5
2458B
330
1F
100
AcDbEntity
  8
AM_VIS
100
AcDbLine
 10
2179.388140685954
 20
420.7673816967051
 30
0.0
 11
2179.388140685954
 21
419.7673816967051
 31
0.0
  0
LINE
  5
2458C
330
1F
100
AcDbEntity
  8
AM_VIS
100
AcDbLine
 10
2179.388140685954
 20
420.7673816967051
 30
0.0
 11
2177.388140685954
 21
420.7673816967051
 31
0.0
  0
ARC
  5
2458D
330
1F
100
AcDbEntity
  8
AM_VIS
100
AcDbCircle
 10
2183.388140685954
 20
446.0173816967052
 30
0.0
 40
3.5
100
AcDbArc
 50
90.0
 51
180.0
  0
CIRCLE
  5
2458E
330
1F
100
AcDbEntity
  8
AM_VIS
100
AcDbCircle
 10
2119.888140685954
 20
497.2931531604435
 30
0.0
 40
6.699999999999999
  0
CIRCLE
  5
2458F
330
1F
100
AcDbEntity
  8
AM_VIS
100
AcDbCircle
 10
2119.888140685954
 20
497.2931531604435
 30
0.0
 40
5.349999999999999
  0
LINE
  5
24590
330
1F
100
AcDbEntity
  8
AM_VIS
100
AcDbLine
 10
2105.388140685954
 20
484.0931531604434
 30
0.0
 11
2155.388140685954
 21
484.0931531604434
 31
0.0
  0
LINE
  5
24591
330
1F
100
AcDbEntity
  8
AM_VIS
100
AcDbLine
 10
2105.388140685954
 20
510.4931531604433
 30
0.0
 11
2155.388140685954
 21
510.4931531604433
 31
0.0
  0
LINE
  5
24592
330
1F
100
AcDbEntity
  8
AM_VIS
100
AcDbLine
 10
2105.388140685954
 20
484.0931531604434
 30
0.0
 11
2105.388140685954
 21
510.4931531604433
 31
0.0
  0
ARC
  5
24593
330
1F
100
AcDbEntity
  8
AM_VIS
100
AcDbCircle
 10
2099.888140685954
 20
485.0931531604434
 30
0.0
 40
1.0
100
AcDbArc
 50
180.0
 51
270.0
  0
LINE
  5
24594
330
1F
100
AcDbEntity
  8
AM_VIS
100
AcDbLine
 10
2099.888140685954
 20
484.0931531604434
 30
0.0
 11
2105.388140685954
 21
484.0931531604434
 31
0.0
  0
LINE
  5
24595
330
1F
100
AcDbEntity
  8
AM_VIS
100
AcDbLine
 10
2105.388140685954
 20
510.4931531604433
 30
0.0
 11
2099.888140685954
 21
510.4931531604433
 31
0.0
  0
LINE
  5
24596
330
1F
100
AcDbEntity
  8
AM_VIS
100
AcDbLine
 10
2098.888140685954
 20
509.4931531604434
 30
0.0
 11
2098.888140685954
 21
485.0931531604434
 31
0.0
  0
ARC
  5
24597
330
1F
100
AcDbEntity
  8
AM_VIS
100
AcDbCircle
 10
2099.888140685954
 20
509.4931531604434
 30
0.0
 40
1.0
100
AcDbArc
 50
90.0
 51
180.0
  0
LINE
  5
24598
330
1F
100
AcDbEntity
  8
AM_VIS
100
AcDbLine
 10
2105.388140685954
 20
485.0931531604434
 30
0.0
 11
2105.388140685954
 21
509.4931531604434
 31
0.0
  0
CIRCLE
  5
24599
330
1F
100
AcDbEntity
  8
AM_VIS
100
AcDbCircle
 10
2135.388140685954
 20
486.7931531604434
 30
0.0
 40
2.1
  0
CIRCLE
  5
2459A
330
1F
100
AcDbEntity
  8
AM_VIS
100
AcDbCircle
 10
2140.888140685954
 20
497.2931531604435
 30
0.0
 40
6.699999999999999
  0
LINE
  5
2459B
330
1F
100
AcDbEntity
  8
AM_VIS
100
AcDbLine
 10
2119.388140685954
 20
495.5431531604435
 30
0.0
 11
2119.388140685954
 21
499.0431531604435
 31
0.0
  0
LINE
  5
2459C
330
1F
100
AcDbEntity
  8
AM_VIS
100
AcDbLine
 10
2124.388140685954
 20
499.0431531604435
 30
0.0
 11
2124.388140685954
 21
495.5431531604435
 31
0.0
  0
ARC
  5
2459D
330
1F
100
AcDbEntity
  8
AM_VIS
100
AcDbCircle
 10
2121.888140685954
 20
495.5431531604435
 30
0.0
 40
2.5
100
AcDbArc
 50
180.0
 51
0.0
  0
CIRCLE
  5
2459E
330
1F
100
AcDbEntity
  8
AM_VIS
100
AcDbCircle
 10
2125.388140685954
 20
507.7931531604434
 30
0.0
 40
2.1
  0
ARC
  5
2459F
330
1F
100
AcDbEntity
  8
AM_VIS
100
AcDbCircle
 10
2121.888140685954
 20
499.0431531604435
 30
0.0
 40
2.5
100
AcDbArc
 50
0.0
 51
180.0
  0
CIRCLE
  5
245A0
330
1F
100
AcDbEntity
  8
AM_VIS
100
AcDbCircle
 10
2140.888140685954
 20
497.2931531604435
 30
0.0
 40
5.349999999999999
  0
LINE
  5
245A1
330
1F
100
AcDbEntity
  8
AM_VIS
100
AcDbLine
 10
2136.388140685954
 20
495.5431531604435
 30
0.0
 11
2136.388140685954
 21
499.0431531604435
 31
0.0
  0
LINE
  5
245A2
330
1F
100
AcDbEntity
  8
AM_VIS
100
AcDbLine
 10
2141.388140685954
 20
499.0431531604435
 30
0.0
 11
2141.388140685954
 21
495.5431531604435
 31
0.0
  0
ARC
  5
245A3
330
1F
100
AcDbEntity
  8
AM_VIS
100
AcDbCircle
 10
2138.888140685954
 20
495.5431531604435
 30
0.0
 40
2.5
100
AcDbArc
 50
180.0
 51
0.0
  0
ARC
  5
245A4
330
1F
100
AcDbEntity
  8
AM_VIS
100
AcDbCircle
 10
2138.888140685954
 20
499.0431531604435
 30
0.0
 40
2.5
100
AcDbArc
 50
0.0
 51
180.0
  0
LINE
  5
245A5
330
1F
100
AcDbEntity
  8
AM_VIS
100
AcDbLine
 10
2155.388140685954
 20
484.0931531604435
 30
0.0
 11
2155.388140685954
 21
510.4931531604434
 31
0.0
  0
LINE
  5
245A6
330
1F
100
AcDbEntity
  8
AM_VIS
100
AcDbLine
 10
2179.388140685954
 20
485.4931531604433
 30
0.0
 11
2179.388140685954
 21
484.4931531604434
 31
0.0
  0
LINE
  5
245A7
330
1F
100
AcDbEntity
  8
AM_VIS
100
AcDbLine
 10
2177.388140685954
 20
484.4771645888642
 30
0.0
 11
2177.388140685954
 21
510.1091417320226
 31
0.0
  0
LINE
  5
245A8
330
1F
100
AcDbEntity
  8
AM_VIS
100
AcDbLine
 10
2155.388140685954
 20
510.4931531604433
 30
0.0
 11
2155.388140685954
 21
484.0931531604435
 31
0.0
  0
LINE
  5
245A9
330
1F
100
AcDbEntity
  8
AM_VIS
100
AcDbLine
 10
2155.388140685954
 20
484.0931531604435
 30
0.0
 11
2177.388140685954
 21
484.4771645888642
 31
0.0
  0
LINE
  5
245AA
330
1F
100
AcDbEntity
  8
AM_VIS
100
AcDbLine
 10
2177.388140685954
 20
484.4931531604434
 30
0.0
 11
2179.388140685954
 21
484.4931531604434
 31
0.0
  0
CIRCLE
  5
245AB
330
1F
100
AcDbEntity
  8
AM_VIS
100
AcDbCircle
 10
2168.588140685954
 20
497.2931531604435
 30
0.0
 40
3.45
  0
LINE
  5
245AC
330
1F
100
AcDbEntity
  8
AM_VIS
100
AcDbLine
 10
2177.388140685954
 20
510.1091417320226
 30
0.0
 11
2155.388140685954
 21
510.4931531604434
 31
0.0
  0
CIRCLE
  5
245AD
330
1F
100
AcDbEntity
  8
AM_VIS
100
AcDbCircle
 10
2168.588140685954
 20
497.2931531604435
 30
0.0
 40
3.5
  0
LINE
  5
245AE
330
1F
100
AcDbEntity
  8
AM_VIS
100
AcDbLine
 10
2179.888140685954
 20
504.2931531604436
 30
0.0
 11
2179.888140685954
 21
490.2931531604435
 31
0.0
  0
LINE
  5
245AF
330
1F
100
AcDbEntity
  8
AM_VIS
100
AcDbLine
 10
2179.388140685954
 20
508.2931531604434
 30
0.0
 11
2179.388140685954
 21
486.2931531604434
 31
0.0
  0
LINE
  5
245B0
330
1F
100
AcDbEntity
  8
AM_VIS
100
AcDbLine
 10
2168.088140685954
 20
495.4931531604435
 30
0.0
 11
2168.088140685954
 21
499.0931531604435
 31
0.0
  0
LINE
  5
245B1
330
1F
100
AcDbEntity
  8
AM_VIS
100
AcDbLine
 10
2169.088140685954
 20
499.0931531604435
 30
0.0
 11
2169.088140685954
 21
495.4931531604435
 31
0.0
  0
LINE
  5
245B2
330
1F
100
AcDbEntity
  8
AM_VIS
100
AcDbLine
 10
2171.135688526525
 20
494.8931531604435
 30
0.0
 11
2171.066547432232
 21
494.8931531604435
 31
0.0
  0
LINE
  5
245B3
330
1F
100
AcDbEntity
  8
AM_VIS
100
AcDbLine
 10
2169.088140685954
 20
495.4931531604435
 30
0.0
 11
2168.088140685954
 21
495.4931531604435
 31
0.0
  0
LINE
  5
245B4
330
1F
100
AcDbEntity
  8
AM_VIS
100
AcDbLine
 10
2171.037630428737
 20
494.7931531604434
 30
0.0
 11
2170.965639371547
 21
494.7931531604434
 31
0.0
  0
ARC
  5
245B5
330
1F
100
AcDbEntity
  8
AM_VIS
100
AcDbCircle
 10
2183.388140685954
 20
490.2931531604435
 30
0.0
 40
3.5
100
AcDbArc
 50
180.0
 51
270.0
  0
LINE
  5
245B6
330
1F
100
AcDbEntity
  8
AM_VIS
100
AcDbLine
 10
2179.388140685954
 20
485.4931531604433
 30
0.0
 11
2179.388140685954
 21
486.2931531604434
 31
0.0
  0
LINE
  5
245B7
330
1F
100
AcDbEntity
  8
AM_VIS
100
AcDbLine
 10
2168.088140685954
 20
499.0931531604435
 30
0.0
 11
2169.088140685954
 21
499.0931531604435
 31
0.0
  0
LINE
  5
245B8
330
1F
100
AcDbEntity
  8
AM_VIS
100
AcDbLine
 10
2170.965639371547
 20
499.7931531604434
 30
0.0
 11
2171.037630428737
 21
499.7931531604434
 31
0.0
  0
ARC
  5
245B9
330
1F
100
AcDbEntity
  8
AM_VIS
100
AcDbCircle
 10
2183.388140685954
 20
504.2931531604436
 30
0.0
 40
3.5
100
AcDbArc
 50
90.0
 51
180.0
  0
LINE
  5
245BA
330
1F
100
AcDbEntity
  8
AM_VIS
100
AcDbLine
 10
2179.388140685954
 20
510.0931531604435
 30
0.0
 11
2179.388140685954
 21
509.0931531604435
 31
0.0
  0
LINE
  5
245BB
330
1F
100
AcDbEntity
  8
AM_VIS
100
AcDbLine
 10
2179.388140685954
 20
508.2931531604434
 30
0.0
 11
2179.388140685954
 21
509.0931531604435
 31
0.0
  0
LINE
  5
245BC
330
1F
100
AcDbEntity
  8
AM_VIS
100
AcDbLine
 10
2179.388140685954
 20
510.0931531604435
 30
0.0
 11
2177.388140685954
 21
510.0931531604435
 31
0.0
  0
LINE
  5
245BD
330
1F
100
AcDbEntity
  8
AM_VIS
100
AcDbLine
 10
2208.888140685954
 20
396.5173816967051
 30
0.0
 11
2208.888140685954
 21
421.0173816967051
 31
0.0
  0
LINE
  5
245BE
330
1F
100
AcDbEntity
  8
AM_VIS
100
AcDbLine
 10
2215.238140685954
 20
406.8836161706726
 30
0.0
 11
2215.238140685954
 21
400.1511472227376
 31
0.0
  0
LINE
  5
245BF
330
1F
100
AcDbEntity
  8
AM_VIS
100
AcDbLine
 10
2213.738140685954
 20
400.1511472227376
 30
0.0
 11
2213.738140685954
 21
406.8836161706729
 31
0.0
  0
LINE
  5
245C0
330
1F
100
AcDbEntity
  8
AM_VIS
100
AcDbLine
 10
2210.688140685954
 20
396.0173816967051
 30
0.0
 11
2210.688140685954
 21
411.017381696705
 31
0.0
  0
LINE
  5
245C1
330
1F
100
AcDbEntity
  8
AM_VIS
100
AcDbLine
 10
2209.888140685954
 20
396.0173816967051
 30
0.0
 11
2209.888140685954
 21
411.017381696705
 31
0.0
  0
LINE
  5
245C2
330
1F
100
AcDbEntity
  8
AM_VIS
100
AcDbLine
 10
2209.388140685954
 20
413.5173816967051
 30
0.0
 11
2209.388140685954
 21
393.5173816967051
 31
0.0
  0
LINE
  5
245C3
330
1F
100
AcDbEntity
  8
AM_VIS
100
AcDbLine
 10
2216.888140685953
 20
406.0722789549133
 30
0.0
 11
2216.888140685953
 21
400.9624844384967
 31
0.0
  0
ARC
  5
245C4
330
1F
100
AcDbEntity
  8
AM_VIS
100
AcDbCircle
 10
2270.063945517177
 20
403.5173816967052
 30
0.0
 40
59.27135386823091
100
AcDbArc
 50
176.7442201741574
 51
183.2557798258425
  0
LINE
  5
245C5
330
1F
100
AcDbEntity
  8
AM_VIS
100
AcDbLine
 10
2216.888140685953
 20
394.0173816967051
 30
0.0
 11
2216.388140685954
 21
393.5173816967051
 31
0.0
  0
SPLINE
  5
245C6
330
1F
100
AcDbEntity
  8
AM_VIS
100
AcDbSpline
210
0.0
220
0.0
230
1.0
 70
     8
 71
     3
 72
     8
 73
     4
 74
     0
 42
0.0000000001
 43
0.0000000001
 40
7.8606508081159
 40
7.8606508081159
 40
7.8606508081159
 40
7.8606508081159
 40
8.796495530230886
 40
8.796495530230886
 40
8.796495530230886
 40
8.796495530230886
 10
2216.888140685953
 20
400.9624844384968
 30
0.0
 10
2216.737101419501
 20
400.6816760759138
 30
0.0
 10
2216.568001678206
 20
400.4105238554998
 30
0.0
 10
2216.388140685954
 20
400.1511472227376
 30
0.0
  0
SPLINE
  5
245C7
330
1F
100
AcDbEntity
  8
AM_VIS
100
AcDbSpline
210
0.0
220
0.0
230
1.0
 70
     8
 71
     3
 72
     8
 73
     4
 74
     0
 42
0.0000000001
 43
0.0000000001
 40
1.630155802117218
 40
1.630155802117218
 40
1.630155802117218
 40
1.630155802117218
 40
2.566002660597602
 40
2.566002660597602
 40
2.566002660597602
 40
2.566002660597602
 10
2216.388140685954
 20
397.0456630003482
 30
0.0
 10
2216.568001919146
 20
397.0010916671236
 30
0.0
 10
2216.737101540521
 20
396.9431983707053
 30
0.0
 10
2216.888140685953
 20
396.8706978811816
 30
0.0
  0
SPLINE
  5
245C8
330
1F
100
AcDbEntity
  8
AM_VIS
100
AcDbSpline
210
0.0
220
0.0
230
1.0
 70
     8
 71
     3
 72
     8
 73
     4
 74
     0
 42
0.0000000001
 43
0.0000000001
 40
7.860869800051694
 40
7.860869800051694
 40
7.860869800051694
 40
7.860869800051694
 40
8.796716658530822
 40
8.796716658530822
 40
8.796716658530822
 40
8.796716658530822
 10
2216.888140685953
 20
394.3158006229734
 30
0.0
 10
2216.737101649917
 20
394.1074931257843
 30
0.0
 10
2216.568002034172
 20
393.89423431075
 30
0.0
 10
2216.388140685954
 20
393.6794285263806
 30
0.0
  0
ARC
  5
245C9
330
1F
100
AcDbEntity
  8
AM_VIS
100
AcDbCircle
 10
2214.488140685954
 20
396.5173816967051
 30
0.0
 40
0.75
100
AcDbArc
 50
0.0
 51
48.18968510422982
  0
ARC
  5
245CA
330
1F
100
AcDbEntity
  8
AM_VIS
100
AcDbCircle
 10
2214.488140685954
 20
396.5173816967051
 30
0.0
 40
0.75
100
AcDbArc
 50
131.8103148957701
 51
180.0
  0
LINE
  5
245CB
330
1F
100
AcDbEntity
  8
AM_VIS
100
AcDbLine
 10
2216.388140685954
 20
397.0456630003482
 30
0.0
 11
2216.388140685954
 21
400.1511472227376
 31
0.0
  0
LINE
  5
245CC
330
1F
100
AcDbEntity
  8
AM_VIS
100
AcDbLine
 10
2215.238140685954
 20
397.0456630003482
 30
0.0
 11
2215.238140685954
 21
400.1511472227376
 31
0.0
  0
LINE
  5
245CD
330
1F
100
AcDbEntity
  8
AM_VIS
100
AcDbLine
 10
2213.738140685954
 20
400.1511472227376
 30
0.0
 11
2213.738140685954
 21
397.0456630003482
 31
0.0
  0
LINE
  5
245CE
330
1F
100
AcDbEntity
  8
AM_VIS
100
AcDbLine
 10
2210.888140685954
 20
397.0456630003482
 30
0.0
 11
2210.888140685954
 21
400.1511472227376
 31
0.0
  0
LINE
  5
245CF
330
1F
100
AcDbEntity
  8
AM_VIS
100
AcDbLine
 10
2210.888140685954
 20
393.5173816967051
 30
0.0
 11
2213.738140685954
 21
393.5173816967051
 31
0.0
  0
LINE
  5
245D0
330
1F
100
AcDbEntity
  8
AM_VIS
100
AcDbLine
 10
2213.738140685954
 20
393.6794285263806
 30
0.0
 11
2210.888140685954
 21
393.6794285263806
 31
0.0
  0
LINE
  5
245D1
330
1F
100
AcDbEntity
  8
AM_VIS
100
AcDbLine
 10
2210.888140685954
 20
397.0456630003482
 30
0.0
 11
2213.738140685954
 21
397.0456630003482
 31
0.0
  0
LINE
  5
245D2
330
1F
100
AcDbEntity
  8
AM_VIS
100
AcDbLine
 10
2208.888140685954
 20
396.5173816967051
 30
0.0
 11
2208.888140685954
 21
392.5173816967051
 31
0.0
  0
LINE
  5
245D3
330
1F
100
AcDbEntity
  8
AM_VIS
100
AcDbLine
 10
2210.888140685954
 20
393.5173816967051
 30
0.0
 11
2210.888140685954
 21
393.6794285263806
 31
0.0
  0
LINE
  5
245D4
330
1F
100
AcDbEntity
  8
AM_VIS
100
AcDbLine
 10
2210.688140685954
 20
396.0173816967051
 30
0.0
 11
2210.888140685954
 21
393.5173816967051
 31
0.0
  0
LINE
  5
245D5
330
1F
100
AcDbEntity
  8
AM_VIS
100
AcDbLine
 10
2209.888140685954
 20
396.0173816967051
 30
0.0
 11
2209.388140685954
 21
393.5173816967051
 31
0.0
  0
LINE
  5
245D6
330
1F
100
AcDbEntity
  8
AM_VIS
100
AcDbLine
 10
2209.888140685954
 20
396.0173816967051
 30
0.0
 11
2210.688140685954
 21
396.0173816967051
 31
0.0
  0
LINE
  5
245D7
330
1F
100
AcDbEntity
  8
AM_VIS
100
AcDbLine
 10
2208.888140685954
 20
393.5173816967051
 30
0.0
 11
2209.388140685954
 21
393.5173816967051
 31
0.0
  0
SPLINE
  5
245D8
330
1F
100
AcDbEntity
  8
AM_VIS
100
AcDbSpline
210
0.0
220
0.0
230
1.0
 70
     8
 71
     3
 72
    14
 73
    10
 74
     0
 42
0.0000000001
 43
0.0000000001
 40
13.28006742556176
 40
13.28006742556176
 40
13.28006742556176
 40
13.28006742556176
 40
14.27448381305588
 40
14.27448381305588
 40
16.65382904986474
 40
16.65382904986474
 40
19.03317428667358
 40
19.03317428667358
 40
20.02759067416758
 40
20.02759067416758
 40
20.02759067416758
 40
20.02759067416758
 10
2210.888140685954
 20
393.6794285263806
 30
0.0
 10
2210.870394710835
 20
393.9443505164706
 30
0.0
 10
2210.854619117132
 20
394.1971568469275
 30
0.0
 10
2210.809410305221
 20
395.0079246538573
 30
0.0
 10
2210.792140685953
 20
395.4998006039339
 30
0.0
 10
2210.792140685953
 20
396.2929156828702
 30
0.0
 10
2210.809410305221
 20
396.6103050734265
 30
0.0
 10
2210.854619117132
 20
396.9175305981243
 30
0.0
 10
2210.870394710835
 20
396.9906927215684
 30
0.0
 10
2210.888140685954
 20
397.0456630003482
 30
0.0
  0
LINE
  5
245D9
330
1F
100
AcDbEntity
  8
AM_VIS
100
AcDbLine
 10
2216.388140685954
 20
393.5173816967051
 30
0.0
 11
2216.388140685954
 21
393.6794285263806
 31
0.0
  0
LINE
  5
245DA
330
1F
100
AcDbEntity
  8
AM_VIS
100
AcDbLine
 10
2215.238140685954
 20
397.0456630003482
 30
0.0
 11
2215.238140685954
 21
393.6794285263806
 31
0.0
  0
LINE
  5
245DB
330
1F
100
AcDbEntity
  8
AM_VIS
100
AcDbLine
 10
2215.238140685954
 20
393.5173816967051
 30
0.0
 11
2215.238140685954
 21
393.6794285263806
 31
0.0
  0
LINE
  5
245DC
330
1F
100
AcDbEntity
  8
AM_VIS
100
AcDbLine
 10
2213.738140685954
 20
393.6794285263806
 30
0.0
 11
2213.738140685954
 21
397.0456630003482
 31
0.0
  0
LINE
  5
245DD
330
1F
100
AcDbEntity
  8
AM_VIS
100
AcDbLine
 10
2213.738140685954
 20
393.6794285263806
 30
0.0
 11
2213.738140685954
 21
393.5173816967051
 31
0.0
  0
LINE
  5
245DE
330
1F
100
AcDbEntity
  8
AM_VIS
100
AcDbLine
 10
2215.238140685954
 20
393.5173816967051
 30
0.0
 11
2216.388140685954
 21
393.5173816967051
 31
0.0
  0
LINE
  5
245DF
330
1F
100
AcDbEntity
  8
AM_VIS
100
AcDbLine
 10
2215.238140685954
 20
397.0456630003482
 30
0.0
 11
2216.388140685954
 21
397.0456630003482
 31
0.0
  0
LINE
  5
245E0
330
1F
100
AcDbEntity
  8
AM_VIS
100
AcDbLine
 10
2216.388140685954
 20
393.6794285263806
 30
0.0
 11
2215.238140685954
 21
393.6794285263806
 31
0.0
  0
LINE
  5
245E1
330
1F
100
AcDbEntity
  8
AM_VIS
100
AcDbLine
 10
2213.738140685954
 20
400.1511472227376
 30
0.0
 11
2210.888140685954
 21
400.1511472227376
 31
0.0
  0
LINE
  5
245E2
330
1F
100
AcDbEntity
  8
AM_VIS
100
AcDbLine
 10
2216.388140685954
 20
400.1511472227376
 30
0.0
 11
2215.238140685954
 21
400.1511472227376
 31
0.0
  0
SPLINE
  5
245E3
330
1F
100
AcDbEntity
  8
AM_VIS
100
AcDbSpline
210
0.0
220
0.0
230
1.0
 70
    11
 71
     3
 72
    58
 73
    54
 74
     0
 42
0.0000000001
 43
0.0000000001
 40
-3.310941722041909
 40
-3.310941722041909
 40
-3.310941722041909
 40
-3.310941722041909
 40
-3.295630163526127
 40
-3.295630163526127
 40
-3.258885216857127
 40
-3.258885216857127
 40
-3.197166102530552
 40
-3.197166102530552
 40
-3.038165220187092
 40
-3.038165220187092
 40
-2.856291614874425
 40
-2.856291614874425
 40
-2.666842086900363
 40
-2.666842086900363
 40
-2.492578752010307
 40
-2.492578752010307
 40
-2.312125783734306
 40
-2.312125783734306
 40
-2.134512493780222
 40
-2.134512493780222
 40
-1.991913706755022
 40
-1.991913706755022
 40
-1.842368186772041
 40
-1.842368186772041
 40
-1.791323432474765
 40
-1.791323432474765
 40
-1.757111173267642
 40
-1.757111173267642
 40
-1.723565230360897
 40
-1.723565230360897
 40
-1.676146471110933
 40
-1.676146471110933
 40
-1.559264165848294
 40
-1.559264165848294
 40
-1.304423753582546
 40
-1.304423753582546
 40
-1.102534997057311
 40
-1.102534997057311
 40
-0.9616332280766684
 40
-0.9616332280766684
 40
-0.8335600122348491
 40
-0.8335600122348491
 40
-0.6887403587823754
 40
-0.6887403587823754
 40
-0.4760113448005606
 40
-0.4760113448005606
 40
-0.2570316117940582
 40
-0.2570316117940582
 40
-0.0905362468526998
 40
-0.0905362468526998
 40
-0.0354113089024487
 40
-0.0354113089024487
 40
0.0
 40
0.0
 40
0.0
 40
0.0
 10
2214.988140685953
 20
397.3947791390708
 30
0.0
 10
2214.988140685953
 20
397.3931943335111
 30
0.0
 10
2214.988070086089
 20
397.3916758206738
 30
0.0
 10
2214.987583815331
 20
397.3867441972288
 30
0.0
 10
2214.986825337236
 20
397.383670389122
 30
0.0
 10
2214.983631979242
 20
397.376545168296
 30
0.0
 10
2214.980428774967
 20
397.3732925454492
 30
0.0
 10
2214.964488564459
 20
397.3657602140156
 30
0.0
 10
2214.945141172013
 20
397.3682099176387
 30
0.0
 10
2214.888566555474
 20
397.3822058629083
 30
0.0
 10
2214.848853119368
 20
397.3949833013108
 30
0.0
 10
2214.750443395999
 20
397.4208707481898
 30
0.0
 10
2214.692630262189
 20
397.4334053323955
 30
0.0
 10
2214.572633788303
 20
397.4483606062305
 30
0.0
 10
2214.512651213505
 20
397.4513705831299
 30
0.0
 10
2214.39047083249
 20
397.4475565264622
 30
0.0
 10
2214.33043037189
 20
397.4404414590742
 30
0.0
 10
2214.220520805102
 20
397.4199992832442
 30
0.0
 10
2214.171395473359
 20
397.4069213035902
 30
0.0
 10
2214.096585814226
 20
397.3855171850538
 30
0.0
 10
2214.068171094287
 20
397.3768036111109
 30
0.0
 10
2214.022184497431
 20
397.3669604917628
 30
0.0
 10
2214.005665198763
 20
397.3664566940667
 30
0.0
 10
2213.99338100043
 20
397.3758920592197
 30
0.0
 10
2213.991163058242
 20
397.3791242845411
 30
0.0
 10
2213.988882490943
 20
397.3859210329391
 30
0.0
 10
2213.988355844176
 20
397.3890089204163
 30
0.0
 10
2213.988036076796
 20
397.3958057361846
 30
0.0
 10
2213.988229410061
 20
397.3994910454284
 30
0.0
 10
2213.989486519698
 20
397.4090959211815
 30
0.0
 10
2213.990875101639
 20
397.4152955832196
 30
0.0
 10
2213.997713297126
 20
397.4384362644782
 30
0.0
 10
2214.006132772278
 20
397.4578343113273
 30
0.0
 10
2214.041486160954
 20
397.5236889069689
 30
0.0
 10
2214.080066505953
 20
397.5778617594997
 30
0.0
 10
2214.170200842367
 20
397.6673630316496
 30
0.0
 10
2214.218705020374
 20
397.7056229173456
 30
0.0
 10
2214.314568726113
 20
397.7556031365683
 30
0.0
 10
2214.357824013974
 20
397.77180796969
 30
0.0
 10
2214.446411395257
 20
397.7892365662723
 30
0.0
 10
2214.489403580926
 20
397.791322658398
 30
0.0
 10
2214.581108938864
 20
397.7818470649148
 30
0.0
 10
2214.626999780761
 20
397.768776265769
 30
0.0
 10
2214.731429752341
 20
397.7231472016164
 30
0.0
 10
2214.784718666011
 20
397.6849021715143
 30
0.0
 10
2214.873378029798
 20
397.6030600189623
 30
0.0
 10
2214.910099660277
 20
397.5574469278333
 30
0.0
 10
2214.957313213679
 20
397.4842891129973
 30
0.0
 10
2214.972734788474
 20
397.4539024269879
 30
0.0
 10
2214.983884500605
 20
397.4211092155016
 30
0.0
 10
2214.985886432493
 20
397.4135760628652
 30
0.0
 10
2214.987763294231
 20
397.4024630976021
 30
0.0
 10
2214.988140685953
 20
397.3984443465783
 30
0.0
 10
2214.988140685953
 20
397.3947791390708
 30
0.0
  0
CIRCLE
  5
245E4
330
1F
100
AcDbEntity
  8
AM_VIS
100
AcDbCircle
 10
2214.488140685954
 20
402.2673816967051
 30
0.0
 40
0.4999999999999999
  0
ARC
  5
245E5
330
1F
100
AcDbEntity
  8
AM_VIS
100
AcDbCircle
 10
2214.488102261435
 20
396.5863537665145
 30
0.0
 40
0.6998062945020416
100
AcDbArc
 50
44.42169926757007
 51
135.5738984971954
  0
LINE
  5
245E7
330
1F
100
AcDbEntity
  8
AM_VIS
100
AcDbLine
 10
2216.888140685953
 20
394.3158006229734
 30
0.0
 11
2216.888140685953
 21
394.0173816967051
 31
0.0
  0
LINE
  5
245E8
330
1F
100
AcDbEntity
  8
AM_VIS
100
AcDbLine
 10
2216.888140685953
 20
396.8706978811816
 30
0.0
 11
2216.888140685953
 21
394.3158006229733
 31
0.0
  0
LINE
  5
245E9
330
1F
100
AcDbEntity
  8
AM_VIS
100
AcDbLine
 10
2208.888140685954
 20
433.5173816967052
 30
0.0
 11
2220.888140685954
 21
433.5173816967052
 31
0.0
  0
LINE
  5
245EA
330
1F
100
AcDbEntity
  8
AM_VIS
100
AcDbLine
 10
2208.888140685954
 20
451.5173816967052
 30
0.0
 11
2220.888140685954
 21
451.5173816967052
 31
0.0
  0
LINE
  5
245EB
330
1F
100
AcDbEntity
  8
AM_VIS
100
AcDbLine
 10
2216.888140685953
 20
413.0173816967051
 30
0.0
 11
2216.388140685954
 21
413.5173816967051
 31
0.0
  0
SPLINE
  5
245EC
330
1F
100
AcDbEntity
  8
AM_VIS
100
AcDbSpline
210
0.0
220
0.0
230
1.0
 70
     8
 71
     3
 72
     8
 73
     4
 74
     0
 42
0.0000000001
 43
0.0000000001
 40
1.629958734905461
 40
1.629958734905461
 40
1.629958734905461
 40
1.629958734905461
 40
2.565803457021723
 40
2.565803457021723
 40
2.565803457021723
 40
2.565803457021723
 10
2216.388140685954
 20
406.8836161706726
 30
0.0
 10
2216.568001562909
 20
406.6242397041787
 30
0.0
 10
2216.737101309867
 20
406.3530875213266
 30
0.0
 10
2216.888140685953
 20
406.0722789549133
 30
0.0
  0
SPLINE
  5
245ED
330
1F
100
AcDbEntity
  8
AM_VIS
100
AcDbSpline
210
0.0
220
0.0
230
1.0
 70
     8
 71
     3
 72
     8
 73
     4
 74
     0
 42
0.0000000001
 43
0.0000000001
 40
1.630155803927002
 40
1.630155803927002
 40
1.630155803927002
 40
1.630155803927002
 40
2.566002662426968
 40
2.566002662426968
 40
2.566002662426968
 40
2.566002662426968
 10
2216.388140685954
 20
413.3553348670295
 30
0.0
 10
2216.56800191915
 20
413.1405292200303
 30
0.0
 10
2216.737101540523
 20
412.9272704184993
 30
0.0
 10
2216.888140685953
 20
412.7189627704369
 30
0.0
  0
SPLINE
  5
245EE
330
1F
100
AcDbEntity
  8
AM_VIS
100
AcDbSpline
210
0.0
220
0.0
230
1.0
 70
     8
 71
     3
 72
     8
 73
     4
 74
     0
 42
0.0000000001
 43
0.0000000001
 40
7.860869802063071
 40
7.860869802063071
 40
7.860869802063071
 40
7.860869802063071
 40
8.796716660561775
 40
8.796716660561775
 40
8.796716660561775
 40
8.796716660561775
 10
2216.888140685953
 20
410.1640655122285
 30
0.0
 10
2216.73710164992
 20
410.0915650752176
 30
0.0
 10
2216.568002034175
 20
410.0336717547918
 30
0.0
 10
2216.388140685954
 20
409.989100393062
 30
0.0
  0
LINE
  5
245EF
330
1F
100
AcDbEntity
  8
AM_VIS
100
AcDbLine
 10
2208.888140685954
 20
421.0173816967052
 30
0.0
 11
2208.888140685954
 21
436.8605274472128
 31
0.0
  0
ARC
  5
245F0
330
1F
100
AcDbEntity
  8
AM_VIS
100
AcDbCircle
 10
2214.488140685954
 20
410.5173816967051
 30
0.0
 40
0.75
100
AcDbArc
 50
180.0
 51
228.1896851042276
  0
ARC
  5
245F1
330
1F
100
AcDbEntity
  8
AM_VIS
100
AcDbCircle
 10
2214.488140685954
 20
410.5173816967051
 30
0.0
 40
0.75
100
AcDbArc
 50
311.8103148957701
 51
0.0
  0
LINE
  5
245F2
330
1F
100
AcDbEntity
  8
AM_VIS
100
AcDbLine
 10
2215.238140685954
 20
413.3553348670295
 30
0.0
 11
2215.238140685954
 21
409.9891003930618
 31
0.0
  0
LINE
  5
245F3
330
1F
100
AcDbEntity
  8
AM_VIS
100
AcDbLine
 10
2213.738140685954
 20
409.989100393062
 30
0.0
 11
2213.738140685954
 21
413.3553348670297
 31
0.0
  0
SPLINE
  5
245F4
330
1F
100
AcDbEntity
  8
AM_VIS
100
AcDbSpline
210
0.0
220
0.0
230
1.0
 70
     8
 71
     3
 72
    14
 73
    10
 74
     0
 42
0.0000000001
 43
0.0000000001
 40
13.28006742556183
 40
13.28006742556183
 40
13.28006742556183
 40
13.28006742556183
 40
14.274483813056
 40
14.274483813056
 40
16.65382904986486
 40
16.65382904986486
 40
19.03317428667369
 40
19.03317428667369
 40
20.02759067416779
 40
20.02759067416779
 40
20.02759067416779
 40
20.02759067416779
 10
2210.888140685954
 20
409.989100393062
 30
0.0
 10
2210.870394710835
 20
410.0440706718416
 30
0.0
 10
2210.854619117132
 20
410.1172327952857
 30
0.0
 10
2210.809410305221
 20
410.4244583199837
 30
0.0
 10
2210.792140685953
 20
410.74184771054
 30
0.0
 10
2210.792140685953
 20
411.5349627894763
 30
0.0
 10
2210.809410305221
 20
412.026838739553
 30
0.0
 10
2210.854619117132
 20
412.8376065464826
 30
0.0
 10
2210.870394710835
 20
413.0904128769396
 30
0.0
 10
2210.888140685954
 20
413.3553348670295
 30
0.0
  0
LINE
  5
245F5
330
1F
100
AcDbEntity
  8
AM_VIS
100
AcDbLine
 10
2210.888140685954
 20
406.8836161706726
 30
0.0
 11
2213.738140685954
 21
406.8836161706726
 31
0.0
  0
LINE
  5
245F6
330
1F
100
AcDbEntity
  8
AM_VIS
100
AcDbLine
 10
2213.738140685954
 20
409.989100393062
 30
0.0
 11
2210.888140685954
 21
409.989100393062
 31
0.0
  0
LINE
  5
245F7
330
1F
100
AcDbEntity
  8
AM_VIS
100
AcDbLine
 10
2210.888140685954
 20
406.8836161706726
 30
0.0
 11
2210.888140685954
 21
409.989100393062
 31
0.0
  0
LINE
  5
245F8
330
1F
100
AcDbEntity
  8
AM_VIS
100
AcDbLine
 10
2216.388140685954
 20
406.8836161706726
 30
0.0
 11
2216.388140685954
 21
409.989100393062
 31
0.0
  0
LINE
  5
245F9
330
1F
100
AcDbEntity
  8
AM_VIS
100
AcDbLine
 10
2215.238140685954
 20
406.8836161706726
 30
0.0
 11
2215.238140685954
 21
409.989100393062
 31
0.0
  0
LINE
  5
245FA
330
1F
100
AcDbEntity
  8
AM_VIS
100
AcDbLine
 10
2213.738140685954
 20
409.989100393062
 30
0.0
 11
2213.738140685954
 21
406.8836161706726
 31
0.0
  0
LINE
  5
245FB
330
1F
100
AcDbEntity
  8
AM_VIS
100
AcDbLine
 10
2215.238140685954
 20
406.8836161706726
 30
0.0
 11
2216.388140685954
 21
406.8836161706726
 31
0.0
  0
LINE
  5
245FC
330
1F
100
AcDbEntity
  8
AM_VIS
100
AcDbLine
 10
2216.388140685954
 20
409.989100393062
 30
0.0
 11
2215.238140685954
 21
409.989100393062
 31
0.0
  0
SPLINE
  5
245FD
330
1F
100
AcDbEntity
  8
AM_VIS
100
AcDbSpline
210
0.0
220
0.0
230
1.0
 70
    11
 71
     3
 72
    58
 73
    54
 74
     0
 42
0.0000000001
 43
0.0000000001
 40
-3.363896419206848
 40
-3.363896419206848
 40
-3.363896419206848
 40
-3.363896419206848
 40
-3.330080057161157
 40
-3.330080057161157
 40
-3.276087946130379
 40
-3.276087946130379
 40
-3.130129325352126
 40
-3.130129325352126
 40
-2.864475625688879
 40
-2.864475625688879
 40
-2.670984402665324
 40
-2.670984402665324
 40
-2.529876972570241
 40
-2.529876972570241
 40
-2.394146079242185
 40
-2.394146079242185
 40
-2.234845146626472
 40
-2.234845146626472
 40
-1.995446372912342
 40
-1.995446372912342
 40
-1.792732498438366
 40
-1.792732498438366
 40
-1.655061185971928
 40
-1.655061185971928
 40
-1.604023047287223
 40
-1.604023047287223
 40
-1.569394244699424
 40
-1.569394244699424
 40
-1.535224675006395
 40
-1.535224675006395
 40
-1.486406948944837
 40
-1.486406948944837
 40
-1.367760828093762
 40
-1.367760828093762
 40
-1.211422564665596
 40
-1.211422564665596
 40
-1.00947781377736
 40
-1.00947781377736
 40
-0.8308451466681658
 40
-0.8308451466681658
 40
-0.6546659190334039
 40
-0.6546659190334039
 40
-0.4706948991975911
 40
-0.4706948991975911
 40
-0.3083260207092203
 40
-0.3083260207092203
 40
-0.1833529844650886
 40
-0.1833529844650886
 40
-0.0782943285699142
 40
-0.0782943285699142
 40
-0.0333492537438367
 40
-0.0333492537438367
 40
0.0
 40
0.0
 40
0.0
 40
0.0
 10
2214.988140685953
 20
409.6399842543395
 30
0.0
 10
2214.988140685953
 20
409.6364841300038
 30
0.0
 10
2214.98779653222
 20
409.6326669472673
 30
0.0
 10
2214.986063829683
 20
409.6219966024866
 30
0.0
 10
2214.984181025386
 20
409.6147253589286
 30
0.0
 10
2214.974543706794
 20
409.5857030281702
 30
0.0
 10
2214.962214628549
 20
409.5602504233011
 30
0.0
 10
2214.916762276244
 20
409.4849941249044
 30
0.0
 10
2214.873222229035
 20
409.4296811711851
 30
0.0
 10
2214.778394284984
 20
409.345721079859
 30
0.0
 10
2214.730994404236
 20
409.3125655547543
 30
0.0
 10
2214.637352290805
 20
409.2698075878717
 30
0.0
 10
2214.594617603969
 20
409.2564442747294
 30
0.0
 10
2214.505805420717
 20
409.2437422828526
 30
0.0
 10
2214.462055412931
 20
409.2442054689663
 30
0.0
 10
2214.368258317703
 20
409.259396494966
 30
0.0
 10
2214.321266110623
 20
409.2760983672251
 30
0.0
 10
2214.214841801197
 20
409.330552061998
 30
0.0
 10
2214.159947904842
 20
409.3752435233585
 30
0.0
 10
2214.078328271884
 20
409.4614481727266
 30
0.0
 10
2214.047913422541
 20
409.5031058231686
 30
0.0
 10
2214.011322730776
 20
409.5657299549372
 30
0.0
 10
2214.000158567635
 20
409.5896088886409
 30
0.0
 10
2213.991545158706
 20
409.6167914550562
 30
0.0
 10
2213.989889128745
 20
409.6235819229457
 30
0.0
 10
2213.988351763177
 20
409.6338582103116
 30
0.0
 10
2213.988072936896
 20
409.6376929820335
 30
0.0
 10
2213.988235119094
 20
409.6446348237694
 30
0.0
 10
2213.988666349954
 20
409.6477407140461
 30
0.0
 10
2213.990600114911
 20
409.6544309328383
 30
0.0
 10
2213.992475565639
 20
409.6576269444744
 30
0.0
 10
2214.001546476739
 20
409.6661004833542
 30
0.0
 10
2214.012329805537
 20
409.6676265264942
 30
0.0
 10
2214.047260301
 20
409.6636203261565
 30
0.0
 10
2214.074067929558
 20
409.655858114552
 30
0.0
 10
2214.14833551692
 20
409.6343516010912
 30
0.0
 10
2214.200834592288
 20
409.6191516945491
 30
0.0
 10
2214.316714305906
 20
409.5963591623251
 30
0.0
 10
2214.375830115681
 20
409.5886039019643
 30
0.0
 10
2214.497605020728
 20
409.5831448075634
 30
0.0
 10
2214.55818346333
 20
409.5853831860189
 30
0.0
 10
2214.677172543508
 20
409.5987841577206
 30
0.0
 10
2214.733647742657
 20
409.6101594481078
 30
0.0
 10
2214.827230652947
 20
409.6336760197736
 30
0.0
 10
2214.865512522109
 20
409.6454671538197
 30
0.0
 10
2214.920864240359
 20
409.6609065509126
 30
0.0
 10
2214.940681054764
 20
409.6657175635126
 30
0.0
 10
2214.968189432819
 20
409.6670963891693
 30
0.0
 10
2214.977060865785
 20
409.664813750757
 30
0.0
 10
2214.984606698317
 20
409.6563485406546
 30
0.0
 10
2214.98618165334
 20
409.6531802660831
 30
0.0
 10
2214.987806056948
 20
409.6465774036131
 30
0.0
 10
2214.988140685953
 20
409.6434360311583
 30
0.0
 10
2214.988140685953
 20
409.6399842543395
 30
0.0
  0
CIRCLE
  5
245FE
330
1F
100
AcDbEntity
  8
AM_VIS
100
AcDbCircle
 10
2214.488140685954
 20
404.767381696705
 30
0.0
 40
0.500000000000004
  0
ARC
  5
245FF
330
1F
100
AcDbEntity
  8
AM_VIS
100
AcDbCircle
 10
2214.488160214645
 20
410.4484042991824
 30
0.0
 40
0.6997982445397714
100
AcDbArc
 50
224.4224702407834
 51
315.575292389035
  0
LINE
  5
24600
330
1F
100
AcDbEntity
  8
AM_VIS
100
AcDbLine
 10
2210.888140685954
 20
413.5173816967051
 30
0.0
 11
2213.738140685954
 21
413.5173816967051
 31
0.0
  0
LINE
  5
24601
330
1F
100
AcDbEntity
  8
AM_VIS
100
AcDbLine
 10
2210.888140685954
 20
413.3553348670295
 30
0.0
 11
2213.738140685954
 21
413.3553348670295
 31
0.0
  0
LINE
  5
24602
330
1F
100
AcDbEntity
  8
AM_VIS
100
AcDbLine
 10
2210.888140685954
 20
413.3553348670295
 30
0.0
 11
2210.888140685954
 21
413.5173816967051
 31
0.0
  0
LINE
  5
24603
330
1F
100
AcDbEntity
  8
AM_VIS
100
AcDbLine
 10
2210.688140685954
 20
411.017381696705
 30
0.0
 11
2210.888140685954
 21
413.5173816967051
 31
0.0
  0
LINE
  5
24604
330
1F
100
AcDbEntity
  8
AM_VIS
100
AcDbLine
 10
2209.888140685954
 20
411.017381696705
 30
0.0
 11
2209.388140685954
 21
413.5173816967051
 31
0.0
  0
LINE
  5
24605
330
1F
100
AcDbEntity
  8
AM_VIS
100
AcDbLine
 10
2209.888140685954
 20
411.017381696705
 30
0.0
 11
2210.688140685954
 21
411.017381696705
 31
0.0
  0
LINE
  5
24606
330
1F
100
AcDbEntity
  8
AM_VIS
100
AcDbLine
 10
2208.888140685954
 20
413.5173816967051
 30
0.0
 11
2209.388140685954
 21
413.5173816967051
 31
0.0
  0
LINE
  5
24607
330
1F
100
AcDbEntity
  8
AM_VIS
100
AcDbLine
 10
2216.388140685954
 20
413.3553348670295
 30
0.0
 11
2216.388140685954
 21
413.5173816967051
 31
0.0
  0
LINE
  5
24608
330
1F
100
AcDbEntity
  8
AM_VIS
100
AcDbLine
 10
2215.238140685954
 20
413.3553348670295
 30
0.0
 11
2215.238140685954
 21
413.5173816967051
 31
0.0
  0
LINE
  5
24609
330
1F
100
AcDbEntity
  8
AM_VIS
100
AcDbLine
 10
2213.738140685954
 20
413.5173816967051
 30
0.0
 11
2213.738140685954
 21
413.3553348670295
 31
0.0
  0
LINE
  5
2460A
330
1F
100
AcDbEntity
  8
AM_VIS
100
AcDbLine
 10
2215.238140685954
 20
413.5173816967051
 30
0.0
 11
2216.388140685954
 21
413.5173816967051
 31
0.0
  0
LINE
  5
2460B
330
1F
100
AcDbEntity
  8
AM_VIS
100
AcDbLine
 10
2215.238140685954
 20
413.3553348670295
 30
0.0
 11
2216.388140685954
 21
413.3553348670295
 31
0.0
  0
LINE
  5
2460C
330
1F
100
AcDbEntity
  8
AM_VIS
100
AcDbLine
 10
2208.888140685954
 20
436.8605274472128
 30
0.0
 11
2208.888140685954
 21
451.5173816967052
 31
0.0
  0
ARC
  5
2460D
330
1F
100
AcDbEntity
  8
AM_VIS
100
AcDbCircle
 10
2205.388140685954
 20
446.0173816967052
 30
0.0
 40
3.5
100
AcDbArc
 50
31.41476770923211
 51
90.0
  0
LINE
  5
2460E
330
1F
100
AcDbEntity
  8
AM_VIS
100
AcDbLine
 10
2203.888140685954
 20
449.5173816967052
 30
0.0
 11
2208.888140685954
 21
451.5173816967052
 31
0.0
  0
LINE
  5
2460F
330
1F
100
AcDbEntity
  8
AM_VIS
100
AcDbLine
 10
2216.888140685953
 20
412.7189627704369
 30
0.0
 11
2216.888140685953
 21
410.1640655122285
 31
0.0
  0
LINE
  5
24610
330
1F
100
AcDbEntity
  8
AM_VIS
100
AcDbLine
 10
2216.888140685953
 20
410.1640655122285
 30
0.0
 11
2216.888140685953
 21
406.0722789549133
 31
0.0
  0
LINE
  5
24611
330
1F
100
AcDbEntity
  8
AM_VIS
100
AcDbLine
 10
2216.888140685953
 20
413.0173816967051
 30
0.0
 11
2216.888140685953
 21
412.7189627704368
 31
0.0
  0
LINE
  5
24612
330
1F
100
AcDbEntity
  8
AM_VIS
100
AcDbLine
 10
2223.288140685954
 20
449.5173816967052
 30
0.0
 11
2223.288140685954
 21
435.5173816967051
 31
0.0
  0
LINE
  5
24613
330
1F
100
AcDbEntity
  8
AM_VIS
100
AcDbLine
 10
2224.888140685954
 20
445.0018372400823
 30
0.0
 11
2224.888140685954
 21
442.5173816967052
 31
0.0
  0
LINE
  5
24614
330
1F
100
AcDbEntity
  8
AM_VIS
100
AcDbLine
 10
2230.388140685954
 20
445.0018372400823
 30
0.0
 11
2230.388140685954
 21
442.5173816967052
 31
0.0
  0
LINE
  5
24615
330
1F
100
AcDbEntity
  8
AM_VIS
100
AcDbLine
 10
2220.888140685954
 20
451.5173816967052
 30
0.0
 11
2220.888140685954
 21
433.5173816967052
 31
0.0
  0
LINE
  5
24616
330
1F
100
AcDbEntity
  8
AM_VIS
100
AcDbLine
 10
2224.888140685954
 20
435.7673816967052
 30
0.0
 11
2223.288140685954
 21
435.7673816967052
 31
0.0
  0
LINE
  5
24617
330
1F
100
AcDbEntity
  8
AM_VIS
100
AcDbLine
 10
2223.288140685954
 20
435.5173816967051
 30
0.0
 11
2220.888140685954
 21
435.5173816967051
 31
0.0
  0
LINE
  5
24618
330
1F
100
AcDbEntity
  8
AM_VIS
100
AcDbLine
 10
2224.888140685954
 20
437.0018372400823
 30
0.0
 11
2224.888140685954
 21
434.5173816967052
 31
0.0
  0
LINE
  5
24619
330
1F
100
AcDbEntity
  8
AM_VIS
100
AcDbLine
 10
2230.388140685954
 20
437.0018372400823
 30
0.0
 11
2230.388140685954
 21
434.5173816967052
 31
0.0
  0
LINE
  5
2461A
330
1F
100
AcDbEntity
  8
AM_VIS
100
AcDbLine
 10
2230.388140685954
 20
434.5173816967052
 30
0.0
 11
2224.888140685954
 21
434.5173816967052
 31
0.0
  0
LINE
  5
2461B
330
1F
100
AcDbEntity
  8
AM_VIS
100
AcDbLine
 10
2230.388140685954
 20
442.5173816967052
 30
0.0
 11
2224.888140685954
 21
442.5173816967052
 31
0.0
  0
LINE
  5
2461C
330
1F
100
AcDbEntity
  8
AM_VIS
100
AcDbLine
 10
2230.388140685954
 20
437.0018372400823
 30
0.0
 11
2224.888140685954
 21
437.0018372400823
 31
0.0
  0
LINE
  5
2461D
330
1F
100
AcDbEntity
  8
AM_VIS
100
AcDbLine
 10
2224.888140685954
 20
440.0329261533279
 30
0.0
 11
2230.388140685954
 21
440.0329261533279
 31
0.0
  0
LINE
  5
2461E
330
1F
100
AcDbEntity
  8
AM_VIS
100
AcDbLine
 10
2230.388140685954
 20
439.8499134514357
 30
0.0
 11
2224.888140685954
 21
439.8499134514357
 31
0.0
  0
LINE
  5
2461F
330
1F
100
AcDbEntity
  8
AM_VIS
100
AcDbLine
 10
2230.388140685954
 20
437.6848499419747
 30
0.0
 11
2224.888140685954
 21
437.6848499419747
 31
0.0
  0
LINE
  5
24620
330
1F
100
AcDbEntity
  8
AM_VIS
100
AcDbLine
 10
2224.888140685954
 20
442.5173816967052
 30
0.0
 11
2224.888140685954
 21
440.0329261533279
 31
0.0
  0
LINE
  5
24621
330
1F
100
AcDbEntity
  8
AM_VIS
100
AcDbLine
 10
2224.888140685954
 20
439.8499134514357
 30
0.0
 11
2224.888140685954
 21
440.0329261533279
 31
0.0
  0
LINE
  5
24622
330
1F
100
AcDbEntity
  8
AM_VIS
100
AcDbLine
 10
2224.888140685954
 20
437.6848499419747
 30
0.0
 11
2224.888140685954
 21
439.8499134514357
 31
0.0
  0
LINE
  5
24623
330
1F
100
AcDbEntity
  8
AM_VIS
100
AcDbLine
 10
2224.888140685954
 20
437.0018372400823
 30
0.0
 11
2224.888140685954
 21
437.6848499419747
 31
0.0
  0
LINE
  5
24624
330
1F
100
AcDbEntity
  8
AM_VIS
100
AcDbLine
 10
2230.388140685954
 20
437.6848499419747
 30
0.0
 11
2230.388140685954
 21
437.0018372400823
 31
0.0
  0
LINE
  5
24625
330
1F
100
AcDbEntity
  8
AM_VIS
100
AcDbLine
 10
2230.388140685954
 20
439.8499134514357
 30
0.0
 11
2230.388140685954
 21
437.6848499419747
 31
0.0
  0
LINE
  5
24626
330
1F
100
AcDbEntity
  8
AM_VIS
100
AcDbLine
 10
2230.388140685954
 20
440.0329261533279
 30
0.0
 11
2230.388140685954
 21
439.8499134514357
 31
0.0
  0
LINE
  5
24627
330
1F
100
AcDbEntity
  8
AM_VIS
100
AcDbLine
 10
2230.388140685954
 20
442.5173816967052
 30
0.0
 11
2230.388140685954
 21
440.0329261533279
 31
0.0
  0
LINE
  5
24628
330
1F
100
AcDbEntity
  8
AM_VIS
100
AcDbLine
 10
2224.888140685954
 20
449.2673816967052
 30
0.0
 11
2223.288140685954
 21
449.2673816967052
 31
0.0
  0
LINE
  5
24629
330
1F
100
AcDbEntity
  8
AM_VIS
100
AcDbLine
 10
2223.288140685954
 20
449.5173816967052
 30
0.0
 11
2220.888140685954
 21
449.5173816967052
 31
0.0
  0
LINE
  5
2462A
330
1F
100
AcDbEntity
  8
AM_VIS
100
AcDbLine
 10
2224.888140685954
 20
450.5173816967052
 30
0.0
 11
2224.888140685954
 21
448.0329261533279
 31
0.0
  0
LINE
  5
2462B
330
1F
100
AcDbEntity
  8
AM_VIS
100
AcDbLine
 10
2230.388140685954
 20
450.5173816967052
 30
0.0
 11
2230.388140685954
 21
448.0329261533279
 31
0.0
  0
LINE
  5
2462C
330
1F
100
AcDbEntity
  8
AM_VIS
100
AcDbLine
 10
2230.388140685954
 20
445.1848499419745
 30
0.0
 11
2224.888140685954
 21
445.1848499419745
 31
0.0
  0
LINE
  5
2462D
330
1F
100
AcDbEntity
  8
AM_VIS
100
AcDbLine
 10
2230.388140685954
 20
445.0018372400823
 30
0.0
 11
2224.888140685954
 21
445.0018372400823
 31
0.0
  0
LINE
  5
2462E
330
1F
100
AcDbEntity
  8
AM_VIS
100
AcDbLine
 10
2224.888140685954
 20
448.0329261533279
 30
0.0
 11
2230.388140685954
 21
448.0329261533279
 31
0.0
  0
LINE
  5
2462F
330
1F
100
AcDbEntity
  8
AM_VIS
100
AcDbLine
 10
2230.388140685954
 20
447.3499134514356
 30
0.0
 11
2224.888140685954
 21
447.3499134514356
 31
0.0
  0
LINE
  5
24630
330
1F
100
AcDbEntity
  8
AM_VIS
100
AcDbLine
 10
2224.888140685954
 20
447.3499134514356
 30
0.0
 11
2224.888140685954
 21
448.0329261533279
 31
0.0
  0
LINE
  5
24631
330
1F
100
AcDbEntity
  8
AM_VIS
100
AcDbLine
 10
2224.888140685954
 20
445.1848499419745
 30
0.0
 11
2224.888140685954
 21
447.3499134514356
 31
0.0
  0
LINE
  5
24632
330
1F
100
AcDbEntity
  8
AM_VIS
100
AcDbLine
 10
2224.888140685954
 20
445.0018372400823
 30
0.0
 11
2224.888140685954
 21
445.1848499419745
 31
0.0
  0
LINE
  5
24633
330
1F
100
AcDbEntity
  8
AM_VIS
100
AcDbLine
 10
2230.388140685954
 20
445.1848499419745
 30
0.0
 11
2230.388140685954
 21
445.0018372400823
 31
0.0
  0
LINE
  5
24634
330
1F
100
AcDbEntity
  8
AM_VIS
100
AcDbLine
 10
2230.388140685954
 20
447.3499134514356
 30
0.0
 11
2230.388140685954
 21
445.1848499419745
 31
0.0
  0
LINE
  5
24635
330
1F
100
AcDbEntity
  8
AM_VIS
100
AcDbLine
 10
2230.388140685954
 20
448.0329261533279
 30
0.0
 11
2230.388140685954
 21
447.3499134514356
 31
0.0
  0
LINE
  5
24636
330
1F
100
AcDbEntity
  8
AM_VIS
100
AcDbLine
 10
2230.388140685954
 20
450.5173816967052
 30
0.0
 11
2224.888140685954
 21
450.5173816967052
 31
0.0
  0
SPLINE
  5
24637
330
1F
100
AcDbEntity
  8
AM_VIS
100
AcDbSpline
210
0.0
220
0.0
230
1.0
 70
     8
 71
     3
 72
    22
 73
    18
 74
     0
 42
0.0000000001
 43
0.0000000001
 40
6.922974191987643
 40
6.922974191987643
 40
6.922974191987643
 40
6.922974191987643
 40
7.242870958922999
 40
7.242870958922999
 40
8.615360666179645
 40
8.615360666179645
 40
9.987850373436291
 40
9.987850373436291
 40
11.36034008069293
 40
11.36034008069293
 40
12.73282978794958
 40
12.73282978794958
 40
14.10531949520622
 40
14.10531949520622
 40
15.47780920246286
 40
15.47780920246286
 40
16.1364483476482
 40
16.1364483476482
 40
16.1364483476482
 40
16.1364483476482
 10
2208.888140685954
 20
436.8605274472128
 30
0.0000000000000284
 10
2208.888140685954
 20
436.9474160153646
 30
0.0000000000000284
 10
2208.886026673276
 20
437.0346301248164
 30
0.0000000000000284
 10
2208.867051350406
 20
437.4902836665618
 30
0.0000000000000284
 10
2208.822449753419
 20
437.8961407948548
 30
0.0000000000000284
 10
2208.712870589644
 20
438.7576293799579
 30
0.0000000000000284
 10
2208.647963031022
 20
439.2133001949708
 30
0.0000000000000284
 10
2208.530496740181
 20
440.1486726310476
 30
0.0000000000000284
 10
2208.478186535538
 20
440.6287411238625
 30
0.0000000000000284
 10
2208.407601644594
 20
441.5843403689755
 30
0.0000000000000284
 10
2208.389484490424
 20
442.0598851276196
 30
0.0000000000000284
 10
2208.389484490424
 20
442.9748782657907
 30
0.0000000000000284
 10
2208.407601644594
 20
443.4504230244348
 30
0.0000000000000284
 10
2208.478186535538
 20
444.4060222695478
 30
0.0000000000000284
 10
2208.530496740181
 20
444.8860907623624
 30
0.0000000000000284
 10
2208.617415123341
 20
445.5782132360869
 30
0.0000000000000284
 10
2208.646966376899
 20
445.7999053846741
 30
0.0000000000000284
 10
2208.676193627753
 20
446.0173816967051
 30
0.0000000000000284
  0
SPLINE
  5
24638
330
1F
100
AcDbEntity
  8
AM_VIS
100
AcDbSpline
210
0.0
220
0.0
230
1.0
 70
     8
 71
     3
 72
    18
 73
    14
 74
     0
 42
0.0000000001
 43
0.0000000001
 40
6.072258403086962
 40
6.072258403086962
 40
6.072258403086962
 40
6.072258403086962
 40
6.091519998582311
 40
6.091519998582311
 40
6.594079983681931
 40
6.594079983681931
 40
7.096639968781531
 40
7.096639968781531
 40
7.59919995388113
 40
7.59919995388113
 40
8.101759938980729
 40
8.101759938980729
 40
8.212872863102431
 40
8.212872863102431
 40
8.212872863102431
 40
8.212872863102431
 10
2208.676193627753
 20
446.0173816967051
 30
0.0000000000000284
 10
2208.677043497953
 20
446.0237054743998
 30
0.0000000000000284
 10
2208.677876872545
 20
446.0300222735996
 30
0.0000000000000284
 10
2208.700007931093
 20
446.2009557504873
 30
0.0000000000000284
 10
2208.709964341971
 20
446.360596464241
 30
0.0000000000000284
 10
2208.709964341971
 20
446.6602653414288
 30
0.0000000000000284
 10
2208.700007931093
 20
446.8120387780343
 30
0.0000000000000284
 10
2208.657379627216
 20
447.1078804844546
 30
0.0000000000000284
 10
2208.624709885775
 20
447.2519511563994
 30
0.0000000000000284
 10
2208.537344553026
 20
447.5232156175628
 30
0.0000000000000284
 10
2208.482591992292
 20
447.6505714809266
 30
0.0000000000000284
 10
2208.404618110304
 20
447.7921113276184
 30
0.0000000000000284
 10
2208.390061316208
 20
447.817186303414
 30
0.0000000000000284
 10
2208.375098370223
 20
447.8416853425892
 30
0.0000000000000284
  0
LINE
  5
24639
330
1F
100
AcDbEntity
  8
AM_VIS
100
AcDbLine
 10
2208.888140685954
 20
488.2931531604436
 30
0.0
 11
2220.888140685954
 21
488.2931531604436
 31
0.0
  0
LINE
  5
2463A
330
1F
100
AcDbEntity
  8
AM_VIS
100
AcDbLine
 10
2208.888140685954
 20
506.2931531604435
 30
0.0
 11
2220.888140685954
 21
506.2931531604435
 31
0.0
  0
SPLINE
  5
2463B
330
1F
100
AcDbEntity
  8
AM_VIS
100
AcDbSpline
210
0.0
220
0.0
230
1.0
 70
     8
 71
     3
 72
     8
 73
     4
 74
     0
 42
0.0000000001
 43
0.0000000001
 40
1.629958734905461
 40
1.629958734905461
 40
1.629958734905461
 40
1.629958734905461
 40
2.565803457021723
 40
2.565803457021723
 40
2.565803457021723
 40
2.565803457021723
 10
2216.388140685954
 20
487.8767597178205
 30
0.0
 10
2216.568001562909
 20
487.975044350037
 30
0.0
 10
2216.737101309867
 20
488.0647447411636
 30
0.0
 10
2216.888140685953
 20
488.1431531604435
 30
0.0
  0
SPLINE
  5
2463C
330
1F
100
AcDbEntity
  8
AM_VIS
100
AcDbSpline
210
0.0
220
0.0
230
1.0
 70
     8
 71
     3
 72
     8
 73
     4
 74
     0
 42
0.0000000001
 43
0.0000000001
 40
7.860869802062977
 40
7.860869802062977
 40
7.860869802062977
 40
7.860869802062977
 40
8.796716660561656
 40
8.796716660561656
 40
8.796716660561656
 40
8.796716660561656
 10
2216.888140685953
 20
506.4431531604434
 30
0.0
 10
2216.73710164992
 20
506.5215614031935
 30
0.0
 10
2216.568002034175
 20
506.6112617133279
 30
0.0
 10
2216.388140685954
 20
506.7095466030663
 30
0.0
  0
CIRCLE
  5
2463D
330
1F
100
AcDbEntity
  8
AM_VIS
100
AcDbCircle
 10
2194.388140685954
 20
497.2931531604436
 30
0.0
 40
3.5
  0
LINE
  5
2463E
330
1F
100
AcDbEntity
  8
AM_VIS
100
AcDbLine
 10
2208.888140685954
 20
488.2931531604436
 30
0.0
 11
2208.888140685954
 21
506.2931531604435
 31
0.0
  0
SPLINE
  5
2463F
330
1F
100
AcDbEntity
  8
AM_VIS
100
AcDbSpline
210
0.0
220
0.0
230
1.0
 70
    12
 71
     2
 72
     6
 73
     3
 74
     0
 42
0.0000000001
 43
0.0000000001
 40
3.381727793507036
 40
3.381727793507036
 40
3.381727793507036
 40
6.763455587014078
 40
6.763455587014078
 40
6.763455587014078
 10
2203.888140685954
 20
497.2931531604436
 30
0.0
 41
1.0
 10
2203.888140685954
 20
498.7122016550824
 30
0.0
 41
1.021203771466384
 10
2205.388140685954
 20
500.2528828778333
 30
0.0
 41
1.0
  0
ARC
  5
24640
330
1F
100
AcDbEntity
  8
AM_VIS
100
AcDbCircle
 10
2205.388140685954
 20
490.2931531604435
 30
0.0
 40
3.5
100
AcDbArc
 50
270.0
 51
339.9583415914294
  0
LINE
  5
24641
330
1F
100
AcDbEntity
  8
AM_VIS
100
AcDbLine
 10
2208.389484490424
 20
488.4926156386554
 30
0.0
 11
2208.888140685954
 21
488.2931531604436
 31
0.0
  0
SPLINE
  5
24642
330
1F
100
AcDbEntity
  8
AM_VIS
100
AcDbSpline
210
0.0
220
0.0
230
1.0
 70
     8
 71
     3
 72
    18
 73
    14
 74
     0
 42
0.0000000001
 43
0.0000000001
 40
6.072258403086962
 40
6.072258403086962
 40
6.072258403086962
 40
6.072258403086962
 40
6.091519998582311
 40
6.091519998582311
 40
6.594079983681931
 40
6.594079983681931
 40
7.096639968781531
 40
7.096639968781531
 40
7.59919995388113
 40
7.59919995388113
 40
8.101759938980729
 40
8.101759938980729
 40
8.212872863102431
 40
8.212872863102431
 40
8.212872863102431
 40
8.212872863102431
 10
2208.676193627753
 20
489.0936916763076
 30
0.0
 10
2208.677043497953
 20
489.096021403649
 30
0.0
 10
2208.677876872545
 20
489.0983636141692
 30
0.0
 10
2208.700007931093
 20
489.1621512684463
 30
0.0
 10
2208.709964341971
 20
489.232137528888
 30
0.0
 10
2208.709964341971
 20
489.3819719674819
 30
0.0
 10
2208.700007931093
 20
489.4676927822199
 30
0.0
 10
2208.657379627216
 20
489.6573713573066
 30
0.0
 10
2208.624709885775
 20
489.7613258545653
 30
0.0
 10
2208.537344553026
 20
489.9811252358419
 30
0.0
 10
2208.482591992292
 20
490.0970863750897
 30
0.0
 10
2208.404618110304
 20
490.2408787368206
 30
0.0
 10
2208.390061316208
 20
490.2669990648389
 30
0.0
 10
2208.375098370223
 20
490.2931531604435
 30
0.0
  0
SPLINE
  5
24643
330
1F
100
AcDbEntity
  8
AM_VIS
100
AcDbSpline
210
0.0
220
0.0
230
1.0
 70
     8
 71
     3
 72
    16
 73
    12
 74
     0
 42
0.0000000001
 43
0.0000000001
 40
1.626271716229691
 40
1.626271716229691
 40
1.626271716229691
 40
1.626271716229691
 40
2.044102946506439
 40
2.044102946506439
 40
3.066154419759659
 40
3.066154419759659
 40
4.088205893012879
 40
4.088205893012879
 40
5.443002653861024
 40
5.443002653861024
 40
6.738847868840626
 40
6.738847868840626
 40
6.738847868840626
 40
6.738847868840626
 10
2208.375098370223
 20
490.2931531604435
 30
0.0
 10
2208.318485121821
 20
490.3921088281775
 30
0.0
 10
2208.258306841926
 20
490.4937491290097
 30
0.0
 10
2208.040708131839
 20
490.8510848759768
 30
0.0
 10
2207.868389147519
 20
491.1172467141491
 30
0.0
 10
2207.506145007261
 20
491.6541825700005
 30
0.0
 10
2207.316211916676
 20
491.9249522815467
 30
0.0
 10
2206.876015057465
 20
492.5335927145741
 30
0.0
 10
2206.587932506547
 20
492.9179605536107
 30
0.0
 10
2205.99467413439
 20
493.6615568215834
 30
0.0
 10
2205.691674854437
 20
494.0216571804897
 30
0.0
 10
2205.388140685954
 20
494.3334234430539
 30
0.0
  0
SPLINE
  5
24644
330
1F
100
AcDbEntity
  8
AM_VIS
100
AcDbSpline
210
0.0
220
0.0
230
1.0
 70
    12
 71
     2
 72
     6
 73
     3
 74
     0
 42
0.0000000001
 43
0.0000000001
 40
0.0
 40
0.0
 40
0.0
 40
3.381727793507036
 40
3.381727793507036
 40
3.381727793507036
 10
2205.388140685954
 20
494.3334234430539
 30
0.0
 41
1.0
 10
2203.888140685954
 20
495.8741046658047
 30
0.0
 41
1.021203771466384
 10
2203.888140685954
 20
497.2931531604436
 30
0.0
 41
1.0
  0
LINE
  5
24645
330
1F
100
AcDbEntity
  8
AM_VIS
100
AcDbLine
 10
2210.888140685954
 20
487.8767597178205
 30
0.0
 11
2213.738140685954
 21
487.8767597178205
 31
0.0
  0
LINE
  5
24646
330
1F
100
AcDbEntity
  8
AM_VIS
100
AcDbLine
 10
2208.888140685954
 20
486.2931531604434
 30
0.0
 11
2208.888140685954
 21
488.2931531604436
 31
0.0
  0
LINE
  5
24647
330
1F
100
AcDbEntity
  8
AM_VIS
100
AcDbLine
 10
2210.888140685954
 20
487.8767597178206
 30
0.0
 11
2210.888140685954
 21
488.2931531604436
 31
0.0
  0
LINE
  5
24648
330
1F
100
AcDbEntity
  8
AM_VIS
100
AcDbLine
 10
2209.388140685954
 20
488.2931531604436
 30
0.0
 11
2209.388140685954
 21
487.2931531604435
 31
0.0
  0
LINE
  5
24649
330
1F
100
AcDbEntity
  8
AM_VIS
100
AcDbLine
 10
2209.588140685954
 20
488.2931531604436
 30
0.0
 11
2209.388140685954
 21
487.2931531604435
 31
0.0
  0
LINE
  5
2464A
330
1F
100
AcDbEntity
  8
AM_VIS
100
AcDbLine
 10
2208.888140685954
 20
487.2931531604435
 30
0.0
 11
2209.388140685954
 21
487.2931531604435
 31
0.0
  0
ARC
  5
2464B
330
1F
100
AcDbEntity
  8
AM_VIS
100
AcDbCircle
 10
2177.692076019819
 20
483.0291135387044
 30
0.0
 40
33.54815021422394
100
AcDbArc
 50
8.308220181147175
 51
9.02758573914312
  0
LINE
  5
2464C
330
1F
100
AcDbEntity
  8
AM_VIS
100
AcDbLine
 10
2216.388140685954
 20
487.8767597178206
 30
0.0
 11
2216.388140685954
 21
488.2931531604436
 31
0.0
  0
LINE
  5
2464D
330
1F
100
AcDbEntity
  8
AM_VIS
100
AcDbLine
 10
2215.238140685954
 20
487.8767597178206
 30
0.0
 11
2215.238140685954
 21
488.2931531604436
 31
0.0
  0
LINE
  5
2464E
330
1F
100
AcDbEntity
  8
AM_VIS
100
AcDbLine
 10
2213.738140685954
 20
488.2931531604436
 30
0.0
 11
2213.738140685954
 21
487.8767597178205
 31
0.0
  0
LINE
  5
2464F
330
1F
100
AcDbEntity
  8
AM_VIS
100
AcDbLine
 10
2215.238140685954
 20
487.8767597178205
 30
0.0
 11
2216.388140685954
 21
487.8767597178205
 31
0.0
  0
ARC
  5
24650
330
1F
100
AcDbEntity
  8
AM_VIS
100
AcDbCircle
 10
2205.388140685954
 20
504.2931531604436
 30
0.0
 40
3.499999999999999
100
AcDbArc
 50
20.04165840857048
 51
90.0
  0
LINE
  5
24651
330
1F
100
AcDbEntity
  8
AM_VIS
100
AcDbLine
 10
2208.389484490424
 20
506.0936906822318
 30
0.0
 11
2208.888140685954
 21
506.2931531604435
 31
0.0
  0
SPLINE
  5
24652
330
1F
100
AcDbEntity
  8
AM_VIS
100
AcDbSpline
210
0.0
220
0.0
230
1.0
 70
     8
 71
     3
 72
    18
 73
    14
 74
     0
 42
0.0000000001
 43
0.0000000001
 40
4.975287104260677
 40
4.975287104260677
 40
4.975287104260677
 40
4.975287104260677
 40
5.086400028382842
 40
5.086400028382842
 40
5.588960013482415
 40
5.588960013482415
 40
6.091519998581987
 40
6.091519998581987
 40
6.59407998368156
 40
6.59407998368156
 40
7.096639968781131
 40
7.096639968781131
 40
7.11590156427612
 40
7.11590156427612
 40
7.11590156427612
 40
7.11590156427612
 10
2208.375098370223
 20
504.2931531604436
 30
0.0
 10
2208.390061316208
 20
504.3193072560484
 30
0.0
 10
2208.404618110304
 20
504.3454275840669
 30
0.0
 10
2208.482591992292
 20
504.4892199457978
 30
0.0
 10
2208.537344553026
 20
504.6051810850456
 30
0.0
 10
2208.624709885775
 20
504.8249804663221
 30
0.0
 10
2208.657379627216
 20
504.9289349635808
 30
0.0
 10
2208.700007931093
 20
505.1186135386675
 30
0.0
 10
2208.709964341971
 20
505.2043343534054
 30
0.0
 10
2208.709964341971
 20
505.3541687919993
 30
0.0
 10
2208.700007931093
 20
505.4241550524409
 30
0.0
 10
2208.677876872545
 20
505.487942706718
 30
0.0
 10
2208.677043497953
 20
505.4902849172381
 30
0.0
 10
2208.676193627753
 20
505.4926146445796
 30
0.0
  0
SPLINE
  5
24653
330
1F
100
AcDbEntity
  8
AM_VIS
100
AcDbSpline
210
0.0
220
0.0
230
1.0
 70
     8
 71
     3
 72
    16
 73
    12
 74
     0
 42
0.0000000001
 43
0.0000000001
 40
13.44245735600753
 40
13.44245735600753
 40
13.44245735600753
 40
13.44245735600753
 40
14.73830257098713
 40
14.73830257098713
 40
16.09309933183528
 40
16.09309933183528
 40
17.1151508050885
 40
17.1151508050885
 40
18.13720227834172
 40
18.13720227834172
 40
18.55503350861849
 40
18.55503350861849
 40
18.55503350861849
 40
18.55503350861849
 10
2205.388140685954
 20
500.2528828778333
 30
0.0
 10
2205.691674854437
 20
500.5646491403974
 30
0.0
 10
2205.99467413439
 20
500.9247494993038
 30
0.0
 10
2206.587932506547
 20
501.6683457672765
 30
0.0
 10
2206.876015057465
 20
502.0527136063131
 30
0.0
 10
2207.316211916676
 20
502.6613540393404
 30
0.0
 10
2207.506145007261
 20
502.9321237508867
 30
0.0
 10
2207.868389147519
 20
503.4690596067381
 30
0.0
 10
2208.040708131839
 20
503.7352214449104
 30
0.0
 10
2208.258306841926
 20
504.0925571918774
 30
0.0
 10
2208.318485121821
 20
504.1941974927097
 30
0.0
 10
2208.375098370223
 20
504.2931531604436
 30
0.0
  0
LINE
  5
24654
330
1F
100
AcDbEntity
  8
AM_VIS
100
AcDbLine
 10
2213.738140685954
 20
506.7095466030663
 30
0.0
 11
2210.888140685954
 21
506.7095466030663
 31
0.0
  0
LINE
  5
24655
330
1F
100
AcDbEntity
  8
AM_VIS
100
AcDbLine
 10
2208.888140685954
 20
506.2931531604435
 30
0.0
 11
2208.888140685954
 21
508.2931531604434
 31
0.0
  0
LINE
  5
24656
330
1F
100
AcDbEntity
  8
AM_VIS
100
AcDbLine
 10
2210.888140685954
 20
506.2931531604435
 30
0.0
 11
2210.888140685954
 21
506.7095466030663
 31
0.0
  0
LINE
  5
24657
330
1F
100
AcDbEntity
  8
AM_VIS
100
AcDbLine
 10
2209.388140685954
 20
507.2931531604435
 30
0.0
 11
2209.388140685954
 21
506.2931531604435
 31
0.0
  0
LINE
  5
24658
330
1F
100
AcDbEntity
  8
AM_VIS
100
AcDbLine
 10
2209.588140685954
 20
506.2931531604435
 30
0.0
 11
2209.388140685954
 21
507.2931531604435
 31
0.0
  0
LINE
  5
24659
330
1F
100
AcDbEntity
  8
AM_VIS
100
AcDbLine
 10
2208.888140685954
 20
507.2931531604435
 30
0.0
 11
2209.388140685954
 21
507.2931531604435
 31
0.0
  0
ARC
  5
2465A
330
1F
100
AcDbEntity
  8
AM_VIS
100
AcDbCircle
 10
2177.692076020171
 20
511.5571927821295
 30
0.0
 40
33.54815021386715
100
AcDbArc
 50
350.9724142608536
 51
351.691779818856
  0
LINE
  5
2465B
330
1F
100
AcDbEntity
  8
AM_VIS
100
AcDbLine
 10
2216.388140685954
 20
506.2931531604435
 30
0.0
 11
2216.388140685954
 21
506.7095466030663
 31
0.0
  0
LINE
  5
2465C
330
1F
100
AcDbEntity
  8
AM_VIS
100
AcDbLine
 10
2215.238140685954
 20
506.2931531604435
 30
0.0
 11
2215.238140685954
 21
506.7095466030663
 31
0.0
  0
LINE
  5
2465D
330
1F
100
AcDbEntity
  8
AM_VIS
100
AcDbLine
 10
2213.738140685954
 20
506.7095466030663
 30
0.0
 11
2213.738140685954
 21
506.2931531604435
 31
0.0
  0
LINE
  5
2465E
330
1F
100
AcDbEntity
  8
AM_VIS
100
AcDbLine
 10
2216.388140685954
 20
506.7095466030663
 30
0.0
 11
2215.238140685954
 21
506.7095466030663
 31
0.0
  0
LINE
  5
2465F
330
1F
100
AcDbEntity
  8
AM_VIS
100
AcDbLine
 10
2223.288140685954
 20
504.2931531604436
 30
0.0
 11
2223.288140685954
 21
490.2931531604435
 31
0.0
  0
LINE
  5
24660
330
1F
100
AcDbEntity
  8
AM_VIS
100
AcDbLine
 10
2224.888140685954
 20
496.0431531604435
 30
0.0
 11
2224.888140685954
 21
498.5431531604436
 31
0.0
  0
LINE
  5
24661
330
1F
100
AcDbEntity
  8
AM_VIS
100
AcDbLine
 10
2230.388140685954
 20
498.5431531604436
 30
0.0
 11
2230.388140685954
 21
496.0431531604435
 31
0.0
  0
LINE
  5
24662
330
1F
100
AcDbEntity
  8
AM_VIS
100
AcDbLine
 10
2220.888140685954
 20
506.2931531604435
 30
0.0
 11
2220.888140685954
 21
488.2931531604436
 31
0.0
  0
LINE
  5
24663
330
1F
100
AcDbEntity
  8
AM_VIS
100
AcDbLine
 10
2224.888140685954
 20
490.5431531604436
 30
0.0
 11
2223.288140685954
 21
490.5431531604436
 31
0.0
  0
LINE
  5
24664
330
1F
100
AcDbEntity
  8
AM_VIS
100
AcDbLine
 10
2216.888140685953
 20
488.2931531604436
 30
0.0
 11
2216.888140685953
 21
488.1431531604435
 31
0.0
  0
LINE
  5
24665
330
1F
100
AcDbEntity
  8
AM_VIS
100
AcDbLine
 10
2223.288140685954
 20
490.2931531604435
 30
0.0
 11
2220.888140685954
 21
490.2931531604435
 31
0.0
  0
LINE
  5
24666
330
1F
100
AcDbEntity
  8
AM_VIS
100
AcDbLine
 10
2224.888140685954
 20
492.6743510069266
 30
0.0
 11
2224.888140685954
 21
491.2399499301681
 31
0.0
  0
LINE
  5
24667
330
1F
100
AcDbEntity
  8
AM_VIS
100
AcDbLine
 10
2230.388140685954
 20
492.6743510069266
 30
0.0
 11
2230.388140685954
 21
491.2399499301681
 31
0.0
  0
LINE
  5
24668
330
1F
100
AcDbEntity
  8
AM_VIS
100
AcDbLine
 10
2230.388140685954
 20
488.0555488534096
 30
0.0
 11
2224.888140685954
 21
488.0555488534096
 31
0.0
  0
LINE
  5
24669
330
1F
100
AcDbEntity
  8
AM_VIS
100
AcDbLine
 10
2230.388140685954
 20
490.1729626320603
 30
0.0
 11
2224.888140685954
 21
490.1729626320603
 31
0.0
  0
LINE
  5
2466A
330
1F
100
AcDbEntity
  8
AM_VIS
100
AcDbLine
 10
2230.388140685954
 20
489.4899499301681
 30
0.0
 11
2224.888140685954
 21
489.4899499301681
 31
0.0
  0
LINE
  5
2466B
330
1F
100
AcDbEntity
  8
AM_VIS
100
AcDbLine
 10
2224.888140685954
 20
491.2399499301681
 30
0.0
 11
2230.388140685954
 21
491.2399499301681
 31
0.0
  0
LINE
  5
2466C
330
1F
100
AcDbEntity
  8
AM_VIS
100
AcDbLine
 10
2224.888140685954
 20
490.1729626320603
 30
0.0
 11
2224.888140685954
 21
491.2399499301681
 31
0.0
  0
LINE
  5
2466D
330
1F
100
AcDbEntity
  8
AM_VIS
100
AcDbLine
 10
2224.888140685954
 20
489.4899499301681
 30
0.0
 11
2224.888140685954
 21
490.1729626320603
 31
0.0
  0
LINE
  5
2466E
330
1F
100
AcDbEntity
  8
AM_VIS
100
AcDbLine
 10
2224.888140685954
 20
489.4899499301681
 30
0.0
 11
2224.888140685954
 21
488.0555488534096
 31
0.0
  0
LINE
  5
2466F
330
1F
100
AcDbEntity
  8
AM_VIS
100
AcDbLine
 10
2230.388140685954
 20
489.4899499301681
 30
0.0
 11
2230.388140685954
 21
488.0555488534096
 31
0.0
  0
LINE
  5
24670
330
1F
100
AcDbEntity
  8
AM_VIS
100
AcDbLine
 10
2230.388140685954
 20
490.1729626320603
 30
0.0
 11
2230.388140685954
 21
489.4899499301681
 31
0.0
  0
LINE
  5
24671
330
1F
100
AcDbEntity
  8
AM_VIS
100
AcDbLine
 10
2230.388140685954
 20
491.2399499301681
 30
0.0
 11
2230.388140685954
 21
490.1729626320603
 31
0.0
  0
LINE
  5
24672
330
1F
100
AcDbEntity
  8
AM_VIS
100
AcDbLine
 10
2230.388140685954
 20
495.5431531604435
 30
0.0
 11
2224.888140685954
 21
495.5431531604435
 31
0.0
  0
LINE
  5
24673
330
1F
100
AcDbEntity
  8
AM_VIS
100
AcDbLine
 10
2230.388140685954
 20
496.0431531604435
 30
0.0
 11
2224.888140685954
 21
496.0431531604435
 31
0.0
  0
LINE
  5
24674
330
1F
100
AcDbEntity
  8
AM_VIS
100
AcDbLine
 10
2230.388140685954
 20
492.6743510069266
 30
0.0
 11
2224.888140685954
 21
492.6743510069266
 31
0.0
  0
LINE
  5
24675
330
1F
100
AcDbEntity
  8
AM_VIS
100
AcDbLine
 10
2224.888140685954
 20
495.5431531604435
 30
0.0
 11
2224.888140685954
 21
496.0431531604435
 31
0.0
  0
LINE
  5
24676
330
1F
100
AcDbEntity
  8
AM_VIS
100
AcDbLine
 10
2224.888140685954
 20
495.5431531604435
 30
0.0
 11
2224.888140685954
 21
492.6743510069266
 31
0.0
  0
LINE
  5
24677
330
1F
100
AcDbEntity
  8
AM_VIS
100
AcDbLine
 10
2230.388140685954
 20
495.5431531604435
 30
0.0
 11
2230.388140685954
 21
492.6743510069266
 31
0.0
  0
LINE
  5
24678
330
1F
100
AcDbEntity
  8
AM_VIS
100
AcDbLine
 10
2230.388140685954
 20
496.0431531604435
 30
0.0
 11
2230.388140685954
 21
495.5431531604435
 31
0.0
  0
LINE
  5
24679
330
1F
100
AcDbEntity
  8
AM_VIS
100
AcDbLine
 10
2224.888140685954
 20
504.0431531604435
 30
0.0
 11
2223.288140685954
 21
504.0431531604435
 31
0.0
  0
LINE
  5
2467A
330
1F
100
AcDbEntity
  8
AM_VIS
100
AcDbLine
 10
2223.288140685954
 20
504.2931531604436
 30
0.0
 11
2220.888140685954
 21
504.2931531604436
 31
0.0
  0
LINE
  5
2467B
330
1F
100
AcDbEntity
  8
AM_VIS
100
AcDbLine
 10
2216.888140685953
 20
506.4431531604434
 30
0.0
 11
2216.888140685953
 21
506.2931531604435
 31
0.0
  0
LINE
  5
2467C
330
1F
100
AcDbEntity
  8
AM_VIS
100
AcDbLine
 10
2230.388140685954
 20
505.096356390719
 30
0.0
 11
2230.388140685954
 21
504.4133436888269
 31
0.0
  0
LINE
  5
2467D
330
1F
100
AcDbEntity
  8
AM_VIS
100
AcDbLine
 10
2224.888140685954
 20
504.4133436888269
 30
0.0
 11
2224.888140685954
 21
505.096356390719
 31
0.0
  0
LINE
  5
2467E
330
1F
100
AcDbEntity
  8
AM_VIS
100
AcDbLine
 10
2224.888140685954
 20
499.0431531604436
 30
0.0
 11
2230.388140685954
 21
499.0431531604436
 31
0.0
  0
LINE
  5
2467F
330
1F
100
AcDbEntity
  8
AM_VIS
100
AcDbLine
 10
2230.388140685954
 20
498.5431531604436
 30
0.0
 11
2224.888140685954
 21
498.5431531604436
 31
0.0
  0
LINE
  5
24680
330
1F
100
AcDbEntity
  8
AM_VIS
100
AcDbLine
 10
2230.388140685954
 20
501.9119553139606
 30
0.0
 11
2224.888140685954
 21
501.9119553139606
 31
0.0
  0
LINE
  5
24681
330
1F
100
AcDbEntity
  8
AM_VIS
100
AcDbLine
 10
2230.388140685954
 20
503.346356390719
 30
0.0
 11
2224.888140685954
 21
503.346356390719
 31
0.0
  0
LINE
  5
24682
330
1F
100
AcDbEntity
  8
AM_VIS
100
AcDbLine
 10
2230.388140685954
 20
504.4133436888269
 30
0.0
 11
2224.888140685954
 21
504.4133436888269
 31
0.0
  0
LINE
  5
24683
330
1F
100
AcDbEntity
  8
AM_VIS
100
AcDbLine
 10
2224.888140685954
 20
501.9119553139606
 30
0.0
 11
2224.888140685954
 21
499.0431531604436
 31
0.0
  0
LINE
  5
24684
330
1F
100
AcDbEntity
  8
AM_VIS
100
AcDbLine
 10
2224.888140685954
 20
498.5431531604436
 30
0.0
 11
2224.888140685954
 21
499.0431531604436
 31
0.0
  0
LINE
  5
24685
330
1F
100
AcDbEntity
  8
AM_VIS
100
AcDbLine
 10
2224.888140685954
 20
503.346356390719
 30
0.0
 11
2224.888140685954
 21
501.9119553139606
 31
0.0
  0
LINE
  5
24686
330
1F
100
AcDbEntity
  8
AM_VIS
100
AcDbLine
 10
2224.888140685954
 20
503.346356390719
 30
0.0
 11
2224.888140685954
 21
504.4133436888269
 31
0.0
  0
LINE
  5
24687
330
1F
100
AcDbEntity
  8
AM_VIS
100
AcDbLine
 10
2230.388140685954
 20
499.0431531604436
 30
0.0
 11
2230.388140685954
 21
498.5431531604436
 31
0.0
  0
LINE
  5
24688
330
1F
100
AcDbEntity
  8
AM_VIS
100
AcDbLine
 10
2230.388140685954
 20
501.9119553139606
 30
0.0
 11
2230.388140685954
 21
499.0431531604436
 31
0.0
  0
LINE
  5
24689
330
1F
100
AcDbEntity
  8
AM_VIS
100
AcDbLine
 10
2230.388140685954
 20
503.346356390719
 30
0.0
 11
2230.388140685954
 21
501.9119553139606
 31
0.0
  0
LINE
  5
2468A
330
1F
100
AcDbEntity
  8
AM_VIS
100
AcDbLine
 10
2230.388140685954
 20
504.4133436888269
 30
0.0
 11
2230.388140685954
 21
503.346356390719
 31
0.0
  0
LINE
  5
2468B
330
1F
100
AcDbEntity
  8
AM_VIS
100
AcDbLine
 10
2230.388140685954
 20
506.5307574674776
 30
0.0
 11
2224.888140685954
 21
506.5307574674776
 31
0.0
  0
LINE
  5
2468C
330
1F
100
AcDbEntity
  8
AM_VIS
100
AcDbLine
 10
2224.888140685954
 20
505.0963563907191
 30
0.0
 11
2230.388140685954
 21
505.0963563907191
 31
0.0
  0
LINE
  5
2468D
330
1F
100
AcDbEntity
  8
AM_VIS
100
AcDbLine
 10
2224.888140685954
 20
506.5307574674776
 30
0.0
 11
2224.888140685954
 21
505.096356390719
 31
0.0
  0
LINE
  5
2468E
330
1F
100
AcDbEntity
  8
AM_VIS
100
AcDbLine
 10
2230.388140685954
 20
506.5307574674776
 30
0.0
 11
2230.388140685954
 21
505.096356390719
 31
0.0
  0
INSERT
  5
2468F
330
1F
100
AcDbEntity
  8
0
100
AcDbBlockReference
  2
A$C75484636
 10
2191.63814093151
 20
494.5431529539775
 30
0.0
  0
LINE
  5
24690
330
1F
100
AcDbEntity
  8
AM_7
100
AcDbLine
 10
2140.888140685954
 20
497.2931531604435
 30
0.0
 11
2132.688140685953
 21
497.2931531604435
 31
0.0
1001
GENIUS_GENOREF_13
1005
24691
  0
POINT
  5
24691
330
1F
100
AcDbEntity
  8
0
 60
     1
100
AcDbPoint
 10
2525.845408461341
 20
426.8251765728382
 30
0.0
1001
GENIUS_GENOENT_13
1002
{
1000
MYREF
1005
24691
1002
}
1002
{
1000
GRP
1005
0
1002
}
1001
GENIUS_GENOBJ-N-CRS_13
1002
{
1000
OWNER
1000
GEN
1002
}
1001
GENIUS_GENOLIS_13
1002
{
1000
ENT
1005
0
1005
24690
1005
0
1005
0
1002
}
1001
GENIUS_GENODEF_13
1002
{
1000
HIER
1070
    10
1002
}
1002
{
1000
MANEDIT
1070
     1
1002
}
1002
{
1000
NOSEL
1070
     0
1002
}
1002
{
1000
BEHIND
1070
     0
1002
}
1002
{
1000
OTHER
1070
     0
1002
}
1002
{
1000
REACTOR
1002
}
  0
LINE
  5
24692
330
1F
100
AcDbEntity
  8
AM_7
  6
AM_ISO08W050X2
100
AcDbLine
 10
2096.713058562401
 20
497.2931531604435
 30
0.0
 11
2231.822196852179
 21
497.2931531604435
 31
0.0
1001
GENIUS_GENOBJ-N-CEN_13
1002
{
1000
OWNER
1000
GEN
1002
}
1001
GENIUS_GENODEF_13
1002
{
1000
HIER
1070
     0
1002
}
1002
{
1000
MANEDIT
1070
     0
1002
}
1002
{
1000
NOSEL
1070
     0
1002
}
1002
{
1000
BEHIND
1070
     0
1002
}
1002
{
1000
OTHER
1070
     0
1002
}
1002
{
1000
REACTOR
1002
}
  0
LINE
  5
24695
330
1F
100
AcDbEntity
  8
AM_7
  6
AM_ISO08W050X2
100
AcDbLine
 10
2140.388140685954
 20
393.0173816967052
 30
0.0
 11
2143.488140685954
 21
393.0173816967052
 31
0.0
1001
GENIUS_GENOREF_13
1005
24699
  0
LINE
  5
24696
330
1F
100
AcDbEntity
  8
AM_7
  6
AM_ISO08W050X2
100
AcDbLine
 10
2140.388140685954
 20
393.0173816967052
 30
0.0
 11
2140.388140685954
 21
396.1173816967052
 31
0.0
1001
GENIUS_GENOREF_13
1005
24699
  0
LINE
  5
24697
330
1F
100
AcDbEntity
  8
AM_7
  6
AM_ISO08W050X2
100
AcDbLine
 10
2140.388140685954
 20
393.0173816967052
 30
0.0
 11
2137.288140685954
 21
393.0173816967052
 31
0.0
1001
GENIUS_GENOREF_13
1005
24699
  0
LINE
  5
24698
330
1F
100
AcDbEntity
  8
AM_7
  6
AM_ISO08W050X2
100
AcDbLine
 10
2140.388140685954
 20
393.0173816967052
 30
0.0
 11
2140.388140685954
 21
389.9173816967051
 31
0.0
1001
GENIUS_GENOREF_13
1005
24699
  0
POINT
  5
24699
330
1F
100
AcDbEntity
  8
0
 60
     1
100
AcDbPoint
 10
2525.845408461341
 20
426.8251765728382
 30
0.0
1001
GENIUS_GENOLIS_13
1002
{
1000
ENT
1005
24698
1005
24697
1005
24696
1005
24695
1002
}
1001
GENIUS_GENOENT_13
1002
{
1000
MYREF
1005
24699
1002
}
1002
{
1000
GRP
1005
0
1002
}
1001
GENIUS_GENOBJ-N-CRS_13
1002
{
1000
OWNER
1000
GEN
1002
}
1001
GENIUS_GENODEF_13
1002
{
1000
HIER
1070
    10
1002
}
1002
{
1000
MANEDIT
1070
     0
1002
}
1002
{
1000
NOSEL
1070
     0
1002
}
1002
{
1000
BEHIND
1070
     0
1002
}
1002
{
1000
OTHER
1070
     0
1002
}
1002
{
1000
REACTOR
1002
}
  0
LINE
  5
2469A
330
1F
100
AcDbEntity
  8
AM_7
  6
AM_ISO08W050X2
100
AcDbLine
 10
2120.388140685954
 20
393.0173816967052
 30
0.0
 11
2123.488140685954
 21
393.0173816967052
 31
0.0
1001
GENIUS_GENOREF_13
1005
2469E
  0
LINE
  5
2469B
330
1F
100
AcDbEntity
  8
AM_7
  6
AM_ISO08W050X2
100
AcDbLine
 10
2120.388140685954
 20
393.0173816967052
 30
0.0
 11
2120.388140685954
 21
396.1173816967052
 31
0.0
1001
GENIUS_GENOREF_13
1005
2469E
  0
LINE
  5
2469C
330
1F
100
AcDbEntity
  8
AM_7
  6
AM_ISO08W050X2
100
AcDbLine
 10
2120.388140685954
 20
393.0173816967052
 30
0.0
 11
2117.288140685954
 21
393.0173816967052
 31
0.0
1001
GENIUS_GENOREF_13
1005
2469E
  0
LINE
  5
2469D
330
1F
100
AcDbEntity
  8
AM_7
  6
AM_ISO08W050X2
100
AcDbLine
 10
2120.388140685954
 20
393.0173816967052
 30
0.0
 11
2120.388140685954
 21
389.9173816967051
 31
0.0
1001
GENIUS_GENOREF_13
1005
2469E
  0
POINT
  5
2469E
330
1F
100
AcDbEntity
  8
0
 60
     1
100
AcDbPoint
 10
2525.845408461341
 20
426.8251765728382
 30
0.0
1001
GENIUS_GENOLIS_13
1002
{
1000
ENT
1005
2469D
1005
2469C
1005
2469B
1005
2469A
1002
}
1001
GENIUS_GENOENT_13
1002
{
1000
MYREF
1005
2469E
1002
}
1002
{
1000
GRP
1005
0
1002
}
1001
GENIUS_GENOBJ-N-CRS_13
1002
{
1000
OWNER
1000
GEN
1002
}
1001
GENIUS_GENODEF_13
1002
{
1000
HIER
1070
    10
1002
}
1002
{
1000
MANEDIT
1070
     0
1002
}
1002
{
1000
NOSEL
1070
     0
1002
}
1002
{
1000
BEHIND
1070
     0
1002
}
1002
{
1000
OTHER
1070
     0
1002
}
1002
{
1000
REACTOR
1002
}
  0
LINE
  5
2469F
330
1F
100
AcDbEntity
  8
AM_7
  6
AM_ISO08W050X2
100
AcDbLine
 10
2135.388140685954
 20
486.7931531604434
 30
0.0
 11
2138.488140685954
 21
486.7931531604434
 31
0.0
1001
GENIUS_GENOREF_13
1005
246A3
  0
LINE
  5
246A0
330
1F
100
AcDbEntity
  8
AM_7
  6
AM_ISO08W050X2
100
AcDbLine
 10
2135.388140685954
 20
486.7931531604434
 30
0.0
 11
2135.388140685954
 21
489.8931531604435
 31
0.0
1001
GENIUS_GENOREF_13
1005
246A3
  0
LINE
  5
246A1
330
1F
100
AcDbEntity
  8
AM_7
  6
AM_ISO08W050X2
100
AcDbLine
 10
2135.388140685954
 20
486.7931531604434
 30
0.0
 11
2132.288140685954
 21
486.7931531604434
 31
0.0
1001
GENIUS_GENOREF_13
1005
246A3
  0
LINE
  5
246A2
330
1F
100
AcDbEntity
  8
AM_7
  6
AM_ISO08W050X2
100
AcDbLine
 10
2135.388140685954
 20
486.7931531604434
 30
0.0
 11
2135.388140685954
 21
483.6931531604434
 31
0.0
1001
GENIUS_GENOREF_13
1005
246A3
  0
POINT
  5
246A3
330
1F
100
AcDbEntity
  8
0
 60
     1
100
AcDbPoint
 10
2525.845408461341
 20
426.8251765728382
 30
0.0
1001
GENIUS_GENOLIS_13
1002
{
1000
ENT
1005
246A2
1005
246A1
1005
246A0
1005
2469F
1002
}
1001
GENIUS_GENOENT_13
1002
{
1000
MYREF
1005
246A3
1002
}
1002
{
1000
GRP
1005
0
1002
}
1001
GENIUS_GENODEF_13
1002
{
1000
HIER
1070
    10
1002
}
1002
{
1000
MANEDIT
1070
     0
1002
}
1002
{
1000
NOSEL
1070
     0
1002
}
1002
{
1000
BEHIND
1070
     0
1002
}
1002
{
1000
OTHER
1070
     0
1002
}
1002
{
1000
REACTOR
1002
}
1001
GENIUS_GENOBJ-N-CRS_13
1002
{
1000
OWNER
1000
GEN
1002
}
  0
LINE
  5
246A4
330
1F
100
AcDbEntity
  8
AM_7
  6
AM_ISO08W050X2
100
AcDbLine
 10
2125.388140685954
 20
507.7931531604434
 30
0.0
 11
2128.488140685953
 21
507.7931531604434
 31
0.0
1001
GENIUS_GENOREF_13
1005
246A8
  0
LINE
  5
246A5
330
1F
100
AcDbEntity
  8
AM_7
  6
AM_ISO08W050X2
100
AcDbLine
 10
2125.388140685954
 20
507.7931531604434
 30
0.0
 11
2125.388140685954
 21
510.8931531604435
 31
0.0
1001
GENIUS_GENOREF_13
1005
246A8
  0
LINE
  5
246A6
330
1F
100
AcDbEntity
  8
AM_7
  6
AM_ISO08W050X2
100
AcDbLine
 10
2125.388140685954
 20
507.7931531604434
 30
0.0
 11
2122.288140685954
 21
507.7931531604434
 31
0.0
1001
GENIUS_GENOREF_13
1005
246A8
  0
LINE
  5
246A7
330
1F
100
AcDbEntity
  8
AM_7
  6
AM_ISO08W050X2
100
AcDbLine
 10
2125.388140685954
 20
507.7931531604434
 30
0.0
 11
2125.388140685954
 21
504.6931531604434
 31
0.0
1001
GENIUS_GENOREF_13
1005
246A8
  0
POINT
  5
246A8
330
1F
100
AcDbEntity
  8
0
 60
     1
100
AcDbPoint
 10
2525.845408461341
 20
426.8251765728382
 30
0.0
1001
GENIUS_GENODEF_13
1002
{
1000
HIER
1070
    10
1002
}
1002
{
1000
MANEDIT
1070
     0
1002
}
1002
{
1000
NOSEL
1070
     0
1002
}
1002
{
1000
BEHIND
1070
     0
1002
}
1002
{
1000
OTHER
1070
     0
1002
}
1002
{
1000
REACTOR
1002
}
1001
GENIUS_GENOBJ-N-CRS_13
1002
{
1000
OWNER
1000
GEN
1002
}
1001
GENIUS_GENOLIS_13
1002
{
1000
ENT
1005
246A7
1005
246A6
1005
246A5
1005
246A4
1002
}
1001
GENIUS_GENOENT_13
1002
{
1000
MYREF
1005
246A8
1002
}
1002
{
1000
GRP
1005
0
1002
}
  0
LINE
  5
246A9
330
1F
100
AcDbEntity
  8
AM_7
100
AcDbLine
 10
2119.888140685954
 20
497.2931531604435
 30
0.0
 11
2127.588140685954
 21
497.2931531604435
 31
0.0
1001
GENIUS_GENOREF_13
1005
246AD
  0
LINE
  5
246AA
330
1F
100
AcDbEntity
  8
AM_7
100
AcDbLine
 10
2119.888140685954
 20
497.2931531604435
 30
0.0
 11
2119.888140685954
 21
504.9931531604434
 31
0.0
1001
GENIUS_GENOREF_13
1005
246AD
  0
LINE
  5
246AB
330
1F
100
AcDbEntity
  8
AM_7
100
AcDbLine
 10
2119.888140685954
 20
497.2931531604435
 30
0.0
 11
2112.188140685954
 21
497.2931531604435
 31
0.0
1001
GENIUS_GENOREF_13
1005
246AD
  0
LINE
  5
246AC
330
1F
100
AcDbEntity
  8
AM_7
100
AcDbLine
 10
2119.888140685954
 20
497.2931531604435
 30
0.0
 11
2119.888140685954
 21
489.5931531604435
 31
0.0
1001
GENIUS_GENOREF_13
1005
246AD
  0
POINT
  5
246AD
330
1F
100
AcDbEntity
  8
0
 60
     1
100
AcDbPoint
 10
2525.845408461341
 20
426.8251765728382
 30
0.0
1001
GENIUS_GENOENT_13
1002
{
1000
MYREF
1005
246AD
1002
}
1002
{
1000
GRP
1005
0
1002
}
1001
GENIUS_GENOBJ-N-CRS_13
1002
{
1000
OWNER
1000
GEN
1002
}
1001
GENIUS_GENOLIS_13
1002
{
1000
ENT
1005
246AC
1005
246AB
1005
246AA
1005
246A9
1002
}
1001
GENIUS_GENODEF_13
1002
{
1000
HIER
1070
    10
1002
}
1002
{
1000
MANEDIT
1070
     0
1002
}
1002
{
1000
NOSEL
1070
     0
1002
}
1002
{
1000
BEHIND
1070
     0
1002
}
1002
{
1000
OTHER
1070
     0
1002
}
1002
{
1000
REACTOR
1002
}
  0
LINE
  5
246AE
330
1F
100
AcDbEntity
  8
AM_7
100
AcDbLine
 10
2140.888140685954
 20
497.2931531604435
 30
0.0
 11
2148.588140685954
 21
497.2931531604435
 31
0.0
1001
GENIUS_GENOREF_13
1005
246B2
  0
LINE
  5
246AF
330
1F
100
AcDbEntity
  8
AM_7
100
AcDbLine
 10
2140.888140685954
 20
497.2931531604435
 30
0.0
 11
2140.888140685954
 21
504.9931531604434
 31
0.0
1001
GENIUS_GENOREF_13
1005
246B2
  0
LINE
  5
246B0
330
1F
100
AcDbEntity
  8
AM_7
100
AcDbLine
 10
2140.888140685954
 20
497.2931531604435
 30
0.0
 11
2133.188140685953
 21
497.2931531604435
 31
0.0
1001
GENIUS_GENOREF_13
1005
246B2
  0
LINE
  5
246B1
330
1F
100
AcDbEntity
  8
AM_7
100
AcDbLine
 10
2140.888140685954
 20
497.2931531604435
 30
0.0
 11
2140.888140685954
 21
489.5931531604435
 31
0.0
1001
GENIUS_GENOREF_13
1005
246B2
  0
POINT
  5
246B2
330
1F
100
AcDbEntity
  8
0
 60
     1
100
AcDbPoint
 10
2525.845408461341
 20
426.8251765728382
 30
0.0
1001
GENIUS_GENOBJ-N-CRS_13
1002
{
1000
OWNER
1000
GEN
1002
}
1001
GENIUS_GENOLIS_13
1002
{
1000
ENT
1005
246B1
1005
246B0
1005
246AF
1005
246AE
1002
}
1001
GENIUS_GENOENT_13
1002
{
1000
MYREF
1005
246B2
1002
}
1002
{
1000
GRP
1005
0
1002
}
1001
GENIUS_GENODEF_13
1002
{
1000
HIER
1070
    10
1002
}
1002
{
1000
MANEDIT
1070
     0
1002
}
1002
{
1000
NOSEL
1070
     0
1002
}
1002
{
1000
BEHIND
1070
     0
1002
}
1002
{
1000
OTHER
1070
     0
1002
}
1002
{
1000
REACTOR
1002
}
  0
POINT
  5
24805
330
1F
100
AcDbEntity
  8
0
 60
     1
100
AcDbPoint
 10
2525.845408461341
 20
209.039644567388
 30
0.0
1001
GENIUS_GENOBJ-N-CRS_13
1002
{
1000
OWNER
1000
GEN
1002
}
1001
GENIUS_GENOLIS_13
1002
{
1000
ENT
1005
24739
1005
2471B
1005
24738
1005
2473A
1002
}
1001
GENIUS_GENOENT_13
1002
{
1000
MYREF
1005
24805
1002
}
1002
{
1000
GRP
1005
0
1002
}
1001
GENIUS_GENODEF_13
1002
{
1000
HIER
1070
    10
1002
}
1002
{
1000
MANEDIT
1070
     0
1002
}
1002
{
1000
NOSEL
1070
     0
1002
}
1002
{
1000
BEHIND
1070
     0
1002
}
1002
{
1000
OTHER
1070
     0
1002
}
1002
{
1000
REACTOR
1002
}
  0
POINT
  5
24806
330
1F
100
AcDbEntity
  8
0
 60
     1
100
AcDbPoint
 10
2525.845408461341
 20
209.039644567388
 30
0.0
1001
GENIUS_GENOENT_13
1002
{
1000
MYREF
1005
24806
1002
}
1002
{
1000
GRP
1005
0
1002
}
1001
GENIUS_GENOBJ-N-CRS_13
1002
{
1000
OWNER
1000
GEN
1002
}
1001
GENIUS_GENOLIS_13
1002
{
1000
ENT
1005
24729
1005
2472A
1005
24723
1005
24727
1002
}
1001
GENIUS_GENODEF_13
1002
{
1000
HIER
1070
    10
1002
}
1002
{
1000
MANEDIT
1070
     0
1002
}
1002
{
1000
NOSEL
1070
     0
1002
}
1002
{
1000
BEHIND
1070
     0
1002
}
1002
{
1000
OTHER
1070
     0
1002
}
1002
{
1000
REACTOR
1002
}
  0
POINT
  5
24807
330
1F
100
AcDbEntity
  8
0
 60
     1
100
AcDbPoint
 10
2525.845408461341
 20
209.039644567388
 30
0.0
1001
GENIUS_GENODEF_13
1002
{
1000
HIER
1070
    10
1002
}
1002
{
1000
MANEDIT
1070
     0
1002
}
1002
{
1000
NOSEL
1070
     0
1002
}
1002
{
1000
BEHIND
1070
     0
1002
}
1002
{
1000
OTHER
1070
     0
1002
}
1002
{
1000
REACTOR
1002
}
1001
GENIUS_GENOBJ-N-CRS_13
1002
{
1000
OWNER
1000
GEN
1002
}
1001
GENIUS_GENOLIS_13
1002
{
1000
ENT
1005
24734
1005
24731
1005
24733
1005
24735
1002
}
1001
GENIUS_GENOENT_13
1002
{
1000
MYREF
1005
24807
1002
}
1002
{
1000
GRP
1005
0
1002
}
  0
POINT
  5
24808
330
1F
100
AcDbEntity
  8
0
 60
     1
100
AcDbPoint
 10
2525.845408461341
 20
209.039644567388
 30
0.0
1001
GENIUS_GENOLIS_13
1002
{
1000
ENT
1005
2472C
1005
2472E
1005
2472D
1005
2471C
1002
}
1001
GENIUS_GENOENT_13
1002
{
1000
MYREF
1005
24808
1002
}
1002
{
1000
GRP
1005
0
1002
}
1001
GENIUS_GENODEF_13
1002
{
1000
HIER
1070
    10
1002
}
1002
{
1000
MANEDIT
1070
     0
1002
}
1002
{
1000
NOSEL
1070
     0
1002
}
1002
{
1000
BEHIND
1070
     0
1002
}
1002
{
1000
OTHER
1070
     0
1002
}
1002
{
1000
REACTOR
1002
}
1001
GENIUS_GENOBJ-N-CRS_13
1002
{
1000
OWNER
1000
GEN
1002
}
  0
POINT
  5
24809
330
1F
100
AcDbEntity
  8
0
 60
     1
100
AcDbPoint
 10
2525.845408461341
 20
209.039644567388
 30
0.0
1001
GENIUS_GENOLIS_13
1002
{
1000
ENT
1005
246EA
1005
246E9
1005
246EB
1005
246EC
1002
}
1001
GENIUS_GENOENT_13
1002
{
1000
MYREF
1005
24809
1002
}
1002
{
1000
GRP
1005
0
1002
}
1001
GENIUS_GENOBJ-N-CRS_13
1002
{
1000
OWNER
1000
GEN
1002
}
1001
GENIUS_GENODEF_13
1002
{
1000
HIER
1070
    10
1002
}
1002
{
1000
MANEDIT
1070
     0
1002
}
1002
{
1000
NOSEL
1070
     0
1002
}
1002
{
1000
BEHIND
1070
     0
1002
}
1002
{
1000
OTHER
1070
     0
1002
}
1002
{
1000
REACTOR
1002
}
  0
POINT
  5
2480A
330
1F
100
AcDbEntity
  8
0
 60
     1
100
AcDbPoint
 10
2525.845408461341
 20
209.039644567388
 30
0.0
1001
GENIUS_GENOLIS_13
1002
{
1000
ENT
1005
246F0
1005
246F3
1005
246F1
1005
246EF
1002
}
1001
GENIUS_GENOENT_13
1002
{
1000
MYREF
1005
2480A
1002
}
1002
{
1000
GRP
1005
0
1002
}
1001
GENIUS_GENOBJ-N-CRS_13
1002
{
1000
OWNER
1000
GEN
1002
}
1001
GENIUS_GENODEF_13
1002
{
1000
HIER
1070
    10
1002
}
1002
{
1000
MANEDIT
1070
     0
1002
}
1002
{
1000
NOSEL
1070
     0
1002
}
1002
{
1000
BEHIND
1070
     0
1002
}
1002
{
1000
OTHER
1070
     0
1002
}
1002
{
1000
REACTOR
1002
}
  0
POINT
  5
2480B
330
1F
100
AcDbEntity
  8
0
 60
     1
100
AcDbPoint
 10
2525.845408461341
 20
209.039644567388
 30
0.0
1001
GENIUS_GENOENT_13
1002
{
1000
MYREF
1005
2480B
1002
}
1002
{
1000
GRP
1005
0
1002
}
1001
GENIUS_GENOBJ-N-CRS_13
1002
{
1000
OWNER
1000
GEN
1002
}
1001
GENIUS_GENOLIS_13
1002
{
1000
ENT
1005
0
1005
2471D
1005
0
1005
0
1002
}
1001
GENIUS_GENODEF_13
1002
{
1000
HIER
1070
    10
1002
}
1002
{
1000
MANEDIT
1070
     1
1002
}
1002
{
1000
NOSEL
1070
     0
1002
}
1002
{
1000
BEHIND
1070
     0
1002
}
1002
{
1000
OTHER
1070
     0
1002
}
1002
{
1000
REACTOR
1002
}
  0
TEXT
  5
2490D
330
1F
100
AcDbEntity
  8
AM_REFDIM
100
AcDbText
 10
2154.195934447901
 20
376.8789957198105
 30
0.0
 40
4.0
  1
2-%%c4.2
100
AcDbText
  0
TEXT
  5
2490E
330
1F
100
AcDbEntity
  8
AM_REFDIM
100
AcDbText
 10
2072.084749832235
 20
370.9505901053144
 30
0.0
 40
4.0
  1
2-PT1/8
100
AcDbText
  0
TEXT
  5
24910
330
1F
100
AcDbEntity
  8
AM_REFDIM
100
AcDbText
 10
2099.00674551399
 20
516.7440983304837
 30
0.0
 40
4.0
  1
2-%%c4.2
100
AcDbText
  0
LINE
  5
24C9C
330
1F
100
AcDbEntity
  8
LOGO
 62
     6
100
AcDbLine
 10
2031.16648716882
 20
553.5307893392219
 30
0.0
 11
2031.16648716882
 21
341.0113818191311
 31
0.0
  0
DIMENSION
  5
24D23
330
1F
100
AcDbEntity
  8
AM_REFDIM
100
AcDbDimension
  2
*D3
 10
2140.388140685954
 20
379.6853119793718
 30
0.0
 11
2130.388140685954
 21
381.9853119793718
 31
0.0
 70
    32
  3
STANDARD
100
AcDbAlignedDimension
 13
2120.388140685954
 23
389.9173816967051
 33
0.0
 14
2140.388140685954
 24
389.9173816967051
 34
0.0
100
AcDbRotatedDimension
  0
DIMENSION
  5
24D30
330
1F
100
AcDbEntity
  8
AM_REFDIM
100
AcDbDimension
  2
*D4
 10
2148.388140685954
 20
373.0297204125004
 30
0.0
 11
2130.388140685954
 21
375.3297204125004
 31
0.0
 70
    32
  3
STANDARD
100
AcDbAlignedDimension
 13
2112.388140685954
 23
385.1005626133962
 33
0.0
 14
2148.388140685954
 24
385.1005626133962
 34
0.0
100
AcDbRotatedDimension
  0
DIMENSION
  5
24D3D
330
1F
100
AcDbEntity
  8
AM_REFDIM
100
AcDbDimension
  2
*D5
 10
2092.325004283035
 20
392.8673816967052
 30
0.0
 11
2090.025004283034
 21
389.3673816967055
 31
0.0
 70
    32
  3
STANDARD
100
AcDbAlignedDimension
 13
2099.888140685954
 23
385.8673816967052
 33
0.0
 14
2108.038140685954
 24
392.8673816967052
 34
0.0
 50
90.0
100
AcDbRotatedDimension
  0
DIMENSION
  5
24D4C
330
1F
100
AcDbEntity
  8
AM_REFDIM
100
AcDbDimension
  2
*D6
 10
2084.741290094735
 20
421.1673816967052
 30
0.0
 11
2082.441290094735
 21
403.5173816967056
 31
0.0
 70
    32
  3
STANDARD
100
AcDbAlignedDimension
 13
2099.888140685954
 23
385.8673816967052
 33
0.0
 14
2099.888140685954
 24
421.1673816967052
 34
0.0
 50
90.0
100
AcDbRotatedDimension
  0
DIMENSION
  5
24D59
330
1F
100
AcDbEntity
  8
AM_REFDIM
100
AcDbDimension
  2
*D7
 10
2238.978363613978
 20
451.5173816967052
 30
0.0
 11
2236.678363613978
 21
418.6923816967056
 31
0.0
 70
    32
  1
66
  3
STANDARD
100
AcDbAlignedDimension
 13
2155.388140685954
 23
385.8673816967052
 33
0.0
 14
2220.888140685954
 24
451.5173816967052
 34
0.0
 50
90.0
100
AcDbRotatedDimension
  0
DIMENSION
  5
24D66
330
1F
100
AcDbEntity
  8
AM_REFDIM
100
AcDbDimension
  2
*D8
 10
2216.888140685953
 20
354.2494441646413
 30
0.0
 11
2157.888140685954
 21
356.5494441646413
 31
0.0
 70
    32
  3
STANDARD
100
AcDbAlignedDimension
 13
2098.888140685954
 23
386.8673816967052
 33
0.0
 14
2216.888140685953
 24
394.0173816967051
 34
0.0
100
AcDbRotatedDimension
  0
DIMENSION
  5
24D73
330
1F
100
AcDbEntity
  8
AM_REFDIM
100
AcDbDimension
  2
*D9
 10
2140.888140685954
 20
477.1155352759461
 30
0.0
 11
2130.388140685954
 21
479.415535275946
 31
0.0
 70
    32
  3
STANDARD
100
AcDbAlignedDimension
 13
2119.888140685954
 23
489.5931531604435
 33
0.0
 14
2140.888140685954
 24
489.5931531604435
 34
0.0
100
AcDbRotatedDimension
  0
DIMENSION
  5
24D80
330
1F
100
AcDbEntity
  8
AM_REFDIM
100
AcDbDimension
  2
*D10
 10
2230.388140685954
 20
470.8985009340922
 30
0.0
 11
2164.638140685954
 21
473.1985009340922
 31
0.0
 70
    32
  3
STANDARD
100
AcDbAlignedDimension
 13
2098.888140685954
 23
485.0931531604434
 33
0.0
 14
2230.388140685954
 24
488.0555488534096
 34
0.0
100
AcDbRotatedDimension
  0
DIMENSION
  5
24D9A
330
1F
100
AcDbEntity
  8
AM_REFDIM
100
AcDbDimension
  2
*D11
 10
2135.388140685954
 20
515.9137639392683
 30
0.0
 11
2130.388140685954
 21
518.2137639392683
 31
0.0
 70
    32
  3
STANDARD
100
AcDbAlignedDimension
 13
2125.388140685954
 23
510.8931531604435
 33
0.0
 14
2135.388140685954
 24
489.8931531604435
 34
0.0
100
AcDbRotatedDimension
  0
DIMENSION
  5
24DA7
330
1F
100
AcDbEntity
  8
AM_REFDIM
100
AcDbDimension
  2
*D12
 10
2094.470568414053
 20
486.7931531604434
 30
0.0
 11
2092.170568414053
 21
497.2931531604437
 31
0.0
 70
    32
  3
STANDARD
100
AcDbAlignedDimension
 13
2122.288140685954
 23
507.7931531604434
 33
0.0
 14
2132.288140685954
 24
486.7931531604434
 34
0.0
 50
90.0
100
AcDbRotatedDimension
  0
DIMENSION
  5
24DB4
330
1F
100
AcDbEntity
  8
AM_REFDIM
100
AcDbDimension
  2
*D13
 10
2087.289948894349
 20
484.0931531604434
 30
0.0
 11
2084.989948894349
 21
497.2931531604437
 31
0.0
 70
    32
  3
STANDARD
100
AcDbAlignedDimension
 13
2099.888140685954
 23
510.4931531604433
 33
0.0
 14
2099.888140685954
 24
484.0931531604434
 34
0.0
 50
90.0
100
AcDbRotatedDimension
  0
LEADER
  5
24DC1
330
1F
100
AcDbEntity
  8
AM_REFDIM
 62
     1
100
AcDbLeader
  3
STANDARD
 40
3.0
 76
     3
 10
2124.114311828728
 20
509.4626920316584
 30
0.0
 10
2116.774447864372
 20
515.7481157842717
 30
0.0
 10
2098.406806991109
 20
515.7481157842717
 30
0.0
213
0.0
223
1.5
233
0.0
1001
ACAD
1000
DSTYLE
1002
{
1070
     5
1000

1070
    77
1070
     0
1070
   147
1040
0.8
1070
   342
1005
0
1002
}
1000
LEANOF
1010
0.0
1020
1.5
1030
0.0
  0
LEADER
  5
24DC5
330
1F
100
AcDbEntity
  8
AM_REFDIM
 62
     1
100
AcDbLeader
  3
STANDARD
 40
3.0
 76
     3
 10
2112.388140685954
 20
385.8673816967052
 30
0.0
 10
2092.302486915594
 20
369.56487870105
 30
0.0
 10
2071.774647158448
 20
369.56487870105
 30
0.0
213
0.0
223
1.5
233
0.0
1001
ACAD
1000
DSTYLE
1002
{
1070
     5
1000

1070
    77
1070
     0
1070
   147
1040
0.8
1070
   342
1005
0
1002
}
1000
LEANOF
1010
0.0
1020
1.5
1030
0.0
  0
LEADER
  5
24DC7
330
1F
100
AcDbEntity
  8
AM_REFDIM
 62
     1
100
AcDbLeader
  3
STANDARD
 40
3.0
 76
     3
 10
2141.539704707808
 20
391.2612779686838
 30
0.0
 10
2153.064008613437
 20
376.0174686368604
 30
0.0
 10
2170.284216050635
 20
376.0174686368604
 30
0.0
213
0.0
223
-1.5
233
0.0
1001
ACAD
1000
DSTYLE
1002
{
1070
     5
1000

1070
    77
1070
     0
1070
   147
1040
0.8
1070
   342
1005
0
1002
}
1000
LEANOF
1010
0.0
1020
-1.5
1030
0.0
  0
LEADER
  5
24DC9
330
1F
100
AcDbEntity
  8
AM_REFDIM
 62
     1
100
AcDbLeader
  3
STANDARD
 40
3.0
 76
     3
 10
2119.888140685954
 20
421.1673816967052
 30
0.0
 10
2113.116122138286
 20
431.5790259972927
 30
0.0
 10
2093.176584700893
 20
431.5790259972927
 30
0.0
213
0.0
223
1.5
233
0.0
1001
ACAD
1000
DSTYLE
1002
{
1070
     5
1000

1070
    77
1070
     0
1070
   147
1040
0.8
1070
   342
1005
0
1002
}
1000
LEANOF
1010
0.0
1020
1.5
1030
0.0
  0
TEXT
  5
252A1
330
1F
100
AcDbEntity
  8
LOGO
 62
     6
100
AcDbText
 10
2084.428850732907
 20
323.6089978480301
 30
0.0
 40
3.164069812927456
  1
m/m
  7
CHINESET
 72
     1
 11
2090.003640403303
 21
325.1910327544939
 31
0.0
100
AcDbText
 73
     2
  0
TEXT
  5
252A2
330
1F
100
AcDbEntity
  8
LOGO
 62
     6
100
AcDbText
 10
2084.428850732907
 20
336.26527709974
 30
0.0
 40
3.164069812927456
  1
1 : 1
  7
CHINESET
 72
     1
 11
2090.003640403303
 21
337.8473120062037
 31
0.0
100
AcDbText
 73
     2
  0
TEXT
  5
252A3
330
1F
100
AcDbEntity
  8
LOGO
 62
     6
100
AcDbText
 10
2058.393967090272
 20
323.6089978480301
 30
0.0
 40
3.164069812927456
  1
單位 Unit:
 41
0.9
  7
CHINESET
 72
     4
 11
2067.025945048664
 21
325.1910327544939
 31
0.0
100
AcDbText
  0
TEXT
  5
252A4
330
1F
100
AcDbEntity
  8
LOGO
 62
     6
100
AcDbText
 10
2056.978610861453
 20
336.2668342207109
 30
0.0
 40
3.164069812927456
  1
比例 Scale:
 41
0.9
  7
CHINESET
 72
     4
 11
2067.025945048664
 21
337.8473120062037
 31
0.0
100
AcDbText
  0
LINE
  5
252A5
330
1F
100
AcDbEntity
  8
LOGO
 62
     1
100
AcDbLine
 10
2288.510831953586
 20
309.3706836898566
 30
0.0
 11
2288.510831953586
 21
341.0113818191311
 31
0.0
  0
LINE
  5
252A6
330
1F
100
AcDbEntity
  8
LOGO
 62
     1
100
AcDbLine
 10
2079.682224300374
 20
322.0269629415664
 30
0.0
 11
2079.682224300374
 21
341.0113818191311
 31
0.0
  0
LINE
  5
252A7
330
1F
100
AcDbEntity
  8
LOGO
 62
     1
100
AcDbLine
 10
2100.776023053224
 20
334.6832421932763
 30
0.0
 11
2054.369665796954
 21
334.6832421932763
 31
0.0
  0
LINE
  5
252A8
330
1F
100
AcDbEntity
  8
LOGO
 62
     1
100
AcDbLine
 10
2100.776023053224
 20
328.3551025674213
 30
0.0
 11
2054.369665796954
 21
328.3551025674213
 31
0.0
  0
LINE
  5
252A9
330
1F
100
AcDbEntity
  8
LOGO
 62
     1
100
AcDbLine
 10
2031.16648716882
 20
309.3706836898566
 30
0.0
 11
2031.16648716882
 21
341.0113818191311
 31
0.0
  0
LINE
  5
252AA
330
1F
100
AcDbEntity
  8
LOGO
 62
     1
100
AcDbLine
 10
2100.776023053224
 20
322.0269629415665
 30
0.0
 11
2031.16648716882
 21
322.0269629415665
 31
0.0
  0
TEXT
  5
252AB
330
1F
100
AcDbEntity
  8
LOGO
 62
     6
100
AcDbText
 10
2058.084622764811
 20
329.9816451816374
 30
0.0
 40
3.164069812927456
  1
投影 View:
 41
0.9
  7
CHINESET
 72
     4
 11
2067.025945048664
 21
331.5191723803487
 31
0.0
100
AcDbText
  0
CIRCLE
  5
252AC
330
1F
100
AcDbEntity
  8
LOGO
  6
CONTINUOUS
 62
     6
100
AcDbCircle
 10
2085.540895314605
 20
331.5259403488327
 30
0.0
 40
1.83713340719391
  0
CIRCLE
  5
252AD
330
1F
100
AcDbEntity
  8
LOGO
  6
CONTINUOUS
 62
     6
100
AcDbCircle
 10
2085.540895314605
 20
331.5259403488327
 30
0.0
 40
1.076397544396604
  0
LINE
  5
252AE
330
1F
100
AcDbEntity
  8
LOGO
  6
CONTINUOUS
 62
     6
100
AcDbLine
 10
2091.326347042294
 20
332.6023378932293
 30
0.0
 11
2097.085654817358
 21
333.3630737560266
 31
0.0
  0
LINE
  5
252AF
330
1F
100
AcDbEntity
  8
LOGO
  6
CONTINUOUS
 62
     6
100
AcDbLine
 10
2091.326347042294
 20
330.4495428044361
 30
0.0
 11
2097.085654817358
 21
329.6888069416388
 31
0.0
  0
LINE
  5
252B0
330
1F
100
AcDbEntity
  8
LOGO
 62
     6
100
AcDbLine
 10
2091.326347042294
 20
330.4495428044361
 30
0.0
 11
2091.326347042294
 21
332.6023378932293
 31
0.0
  0
LINE
  5
252B1
330
1F
100
AcDbEntity
  8
LOGO
 62
     6
100
AcDbLine
 10
2097.085654817358
 20
329.6888069416388
 30
0.0
 11
2097.085654817358
 21
333.3630737560266
 31
0.0
  0
LINE
  5
252B2
330
1F
100
AcDbEntity
  8
LOGO
 62
     6
100
AcDbLine
 10
2240.200748203233
 20
323.6089978480303
 30
0.0
 11
2215.24845262965
 21
323.6089978480303
 31
0.0
  0
LINE
  5
252B3
330
1F
100
AcDbEntity
  8
LOGO
 62
     6
100
AcDbLine
 10
2226.489779013881
 20
328.3551025674215
 30
0.0
 11
2215.24845262965
 21
328.3551025674215
 31
0.0
  0
LINE
  5
252B4
330
1F
100
AcDbEntity
  8
LOGO
 62
     6
100
AcDbLine
 10
2240.200748203233
 20
312.0074085339629
 30
0.0
 11
2215.24845262965
 21
312.0074085339629
 31
0.0
  0
LINE
  5
252B5
330
1F
100
AcDbEntity
  8
LOGO
 62
     6
100
AcDbLine
 10
2240.200748203233
 20
323.6089978480303
 30
0.0
 11
2240.200748203233
 21
311.9636628494899
 31
0.0
  0
LINE
  5
252B6
330
1F
100
AcDbEntity
  8
LOGO
 62
     6
100
AcDbLine
 10
2258.03388669773
 20
312.007408533963
 30
0.0
 11
2244.059245023967
 21
312.0074085339629
 31
0.0
  0
TEXT
  5
252B7
330
1F
100
AcDbEntity
  8
LOGO
 62
     6
100
AcDbText
 10
2247.210131212674
 20
317.8531866857123
 30
0.0
 40
4.21875975056994
  1
電壓
 41
0.9
  7
CHINESET
 72
     4
 11
2251.046565860848
 21
319.9175830662815
 31
0.0
100
AcDbText
  0
LINE
  5
252B8
330
1F
100
AcDbEntity
  8
LOGO
 62
     6
100
AcDbLine
 10
2262.085564409315
 20
328.3551025674215
 30
0.0
 11
2235.025757988748
 21
328.3551025674215
 31
0.0
  0
LINE
  5
252B9
330
1F
100
AcDbEntity
  8
LOGO
 62
     6
100
AcDbLine
 10
2258.03388669773
 20
323.6089978480303
 30
0.0
 11
2244.059245023967
 21
323.6089978480303
 31
0.0
  0
TEXT
  5
252BA
330
1F
100
AcDbEntity
  8
LOGO
 62
     6
100
AcDbText
 10
2152.733918545709
 20
317.9161635783143
 30
0.0
 40
4.21875975056994
  1
型式
  7
CHINESET
 72
     4
 11
2156.952678296279
 21
319.9175830662815
 31
0.0
100
AcDbText
  0
TEXT
  5
252BB
330
1F
100
AcDbEntity
  8
LOGO
 62
     7
100
AcDbText
 10
2102.609088474057
 20
327.150130381182
 30
0.0
 40
4.21875975056994
  1
Order example:
 41
0.8
  7
CHINESET
100
AcDbText
  0
LINE
  5
252BC
330
1F
100
AcDbEntity
  8
LOGO
 62
     6
100
AcDbLine
 10
2215.24845262965
 20
323.6089978480303
 30
0.0
 11
2215.24845262965
 21
312.0074085339629
 31
0.0
  0
LINE
  5
252BD
330
1F
100
AcDbEntity
  8
LOGO
 62
     6
100
AcDbLine
 10
2194.010739995284
 20
323.6089978480302
 30
0.0
 11
2194.010739995284
 21
312.0074085339628
 31
0.0
  0
LINE
  5
252BE
330
1F
100
AcDbEntity
  8
LOGO
 62
     6
100
AcDbLine
 10
2170.749127307777
 20
323.6089978480302
 30
0.0
 11
2170.749127307777
 21
312.0074085339628
 31
0.0
  0
LINE
  5
252BF
330
1F
100
AcDbEntity
  8
LOGO
 62
     6
100
AcDbLine
 10
2194.010739995284
 20
312.0074085339628
 30
0.0
 11
2170.749127307777
 21
312.0074085339628
 31
0.0
  0
LINE
  5
252C0
330
1F
100
AcDbEntity
  8
LOGO
 62
     6
100
AcDbLine
 10
2220.869115821765
 20
328.3551025674215
 30
0.0
 11
2220.869115821765
 21
325.9820502077258
 31
0.0
  0
TEXT
  5
252C1
330
1F
100
AcDbEntity
  8
LOGO
 62
     6
100
AcDbText
 10
2222.108376498495
 20
317.8082031909966
 30
0.0
 40
4.21875975056994
  1
單線圈
 41
0.9
  7
CHINESET
 72
     4
 11
2227.724600416441
 21
319.9175830662815
 31
0.0
100
AcDbText
  0
LINE
  5
252C2
330
1F
100
AcDbEntity
  8
LOGO
 62
     6
100
AcDbLine
 10
2194.010739995284
 20
323.6089978480302
 30
0.0
 11
2170.749127307777
 21
323.6089978480302
 31
0.0
  0
LINE
  5
252C3
330
1F
100
AcDbEntity
  8
LOGO
 62
     6
100
AcDbLine
 10
2200.338879621138
 20
328.3551025674213
 30
0.0
 11
2177.077266933631
 21
328.3551025674213
 31
0.0
  0
LINE
  5
252C4
330
1F
100
AcDbEntity
  8
LOGO
 62
     6
100
AcDbLine
 10
2188.708073277385
 20
328.3551025674213
 30
0.0
 11
2188.708073277385
 21
325.9820502077257
 31
0.0
  0
TEXT
  5
252C5
330
1F
100
AcDbEntity
  8
LOGO
 62
     6
100
AcDbText
 10
2173.94241415039
 20
317.8824259572774
 30
0.0
 40
4.21875975056994
  1
本體寬幅
  7
CHINESET
 72
     4
 11
2182.37993365153
 21
319.9175830662815
 31
0.0
100
AcDbText
  0
LINE
  5
252C6
330
1F
100
AcDbEntity
  8
LOGO
 62
     6
100
AcDbLine
 10
2156.952678296279
 20
328.3551025674213
 30
0.0
 11
2156.952678296279
 21
323.6089978480302
 31
0.0
  0
LINE
  5
252C7
330
1F
100
AcDbEntity
  8
LOGO
 62
     6
100
AcDbLine
 10
2146.405778919854
 20
323.6089978480302
 30
0.0
 11
2146.405778919854
 21
312.0074085339628
 31
0.0
  0
TEXT
  5
252C8
330
1F
100
AcDbEntity
  8
LOGO
 62
     7
100
AcDbText
 10
2103.365968861033
 20
333.0892706046322
 30
0.0
 40
6.328139625854912
  1
訂購代號:
  7
CHINESET
100
AcDbText
  0
LINE
  5
252C9
330
1F
100
AcDbEntity
  8
LOGO
 62
     6
100
AcDbLine
 10
2258.03388669773
 20
323.6089978480303
 30
0.0
 11
2258.03388669773
 21
312.007408533963
 31
0.0
  0
LINE
  5
252CA
330
1F
100
AcDbEntity
  8
LOGO
  6
CONTINUOUS
 62
     7
100
AcDbLine
 10
2229.274182218489
 20
333.1012072868127
 30
0.0
 11
2233.465595551323
 21
333.1012072868127
 31
0.0
  0
LINE
  5
252CB
330
1F
100
AcDbEntity
  8
LOGO
 62
     6
100
AcDbLine
 10
2251.046565860848
 20
325.9820502077258
 30
0.0
 11
2251.046565860848
 21
323.6089978480303
 31
0.0
  0
LINE
  5
252CC
330
1F
100
AcDbEntity
  8
LOGO
 62
     6
100
AcDbLine
 10
2226.489779013881
 20
337.8473120062039
 30
0.0
 11
2215.24845262965
 21
337.8473120062039
 31
0.0
  0
LINE
  5
252CD
330
1F
100
AcDbEntity
  8
LOGO
 62
     6
100
AcDbLine
 10
2262.085564409315
 20
337.8473120062039
 30
0.0
 11
2235.025757988748
 21
337.8473120062039
 31
0.0
  0
LINE
  5
252CE
330
1F
100
AcDbEntity
  8
LOGO
 62
     6
100
AcDbLine
 10
2200.338879621138
 20
337.8473120062038
 30
0.0
 11
2177.077266933631
 21
337.8473120062037
 31
0.0
  0
LINE
  5
252CF
330
1F
100
AcDbEntity
  8
LOGO
 62
     6
100
AcDbLine
 10
2144.29639904457
 20
337.8473120062037
 30
0.0
 11
2144.29639904457
 21
328.3551025674213
 31
0.0
  0
LINE
  5
252D0
330
1F
100
AcDbEntity
  8
LOGO
 62
     6
100
AcDbLine
 10
2177.077266933631
 20
337.8473120062037
 30
0.0
 11
2177.077266933631
 21
328.3551025674213
 31
0.0
  0
LINE
  5
252D1
330
1F
100
AcDbEntity
  8
LOGO
 62
     6
100
AcDbLine
 10
2200.338879621138
 20
337.8473120062038
 30
0.0
 11
2200.338879621138
 21
328.3551025674213
 31
0.0
  0
LINE
  5
252D2
330
1F
100
AcDbEntity
  8
LOGO
 62
     6
100
AcDbLine
 10
2226.489779013881
 20
337.8473120062039
 30
0.0
 11
2226.489779013881
 21
328.3551025674215
 31
0.0
  0
LINE
  5
252D3
330
1F
100
AcDbEntity
  8
LOGO
 62
     6
100
AcDbLine
 10
2235.025757988748
 20
337.8809349121597
 30
0.0
 11
2235.025757988748
 21
328.3887254733773
 31
0.0
  0
LINE
  5
252D4
330
1F
100
AcDbEntity
  8
LOGO
 62
     6
100
AcDbLine
 10
2262.085564409315
 20
337.8473120062039
 30
0.0
 11
2262.085564409315
 21
328.3551025674215
 31
0.0
  0
TEXT
  5
252D5
330
1F
100
AcDbEntity
  8
LOGO
  6
CONTINUOUS
 62
     6
100
AcDbText
 10
2216.123011102374
 20
313.7652250967003
 30
0.0
 40
2.636724844106213
  1
Single solenoid
 41
0.8
  7
CHINESET
 72
     4
 11
2227.724600416441
 21
314.6441333780691
 31
0.0
100
AcDbText
  0
TEXT
  5
252D6
330
1F
100
AcDbEntity
  8
LOGO
  6
CONTINUOUS
 62
     6
100
AcDbText
 10
2245.471776190452
 20
313.7652250967004
 30
0.0
 40
2.636724844106213
  1
Voltage
 41
0.8
  7
CHINESET
 72
     4
 11
2251.046565860848
 21
314.6441333780692
 31
0.0
100
AcDbText
  0
TEXT
  5
252D7
330
1F
100
AcDbEntity
  8
LOGO
  6
CONTINUOUS
 62
     6
100
AcDbText
 10
2171.833034275105
 20
313.7652250967003
 30
0.0
 40
2.636724844106213
  1
Body width
  7
CHINESET
 72
     4
 11
2182.37993365153
 21
314.644133378069
 31
0.0
100
AcDbText
  0
TEXT
  5
252D8
330
1F
100
AcDbEntity
  8
LOGO
  6
CONTINUOUS
 62
     6
100
AcDbText
 10
2151.930345259886
 20
313.3257709560159
 30
0.0
 40
2.636724844106213
  1
Model
  7
CHINESET
 72
     4
 11
2156.952678296279
 21
314.644133378069
 31
0.0
100
AcDbText
  0
TEXT
  5
252D9
330
1F
100
AcDbEntity
  8
LOGO
  6
CONTINUOUS
 62
     7
100
AcDbText
 10
2218.34790477333
 20
330.4046811909474
 30
0.0
 40
5.273449688212426
  1
E1
  7
CHINESET
 72
     1
 11
2221.361304595166
 21
333.0414060350536
 31
0.0
100
AcDbText
 73
     2
  0
TEXT
  5
252DA
330
1F
100
AcDbEntity
  8
LOGO
  6
CONTINUOUS
 62
     7
100
AcDbText
 10
2181.927923678255
 20
330.4046811909473
 30
0.0
 40
5.273449688212426
  1
260
  7
CHINESET
 72
     1
 11
2188.708073277385
 21
333.0414060350534
 31
0.0
100
AcDbText
 73
     2
  0
TEXT
  5
252DB
330
1F
100
AcDbEntity
  8
LOGO
  6
CONTINUOUS
 62
     7
100
AcDbText
 10
2147.284687201223
 20
330.4644824427063
 30
0.0
 40
5.273449688212426
  1
MVSE
  7
CHINESET
 72
     1
 11
2156.952678296279
 21
333.1012072868125
 31
0.0
100
AcDbText
 73
     2
  0
LINE
  5
252DC
330
1F
100
AcDbEntity
  8
LOGO
 62
     1
100
AcDbLine
 10
2100.776023053224
 20
309.3706836898566
 30
0.0
 11
2100.776023053224
 21
341.0113818191311
 31
0.0
  0
LINE
  5
252DD
330
1F
100
AcDbEntity
  8
LOGO
 62
     1
100
AcDbLine
 10
2288.510831953586
 20
341.0113818191311
 30
0.0
 11
2031.16648716882
 21
341.0113818191311
 31
0.0
  0
LINE
  5
252DE
330
1F
100
AcDbEntity
  8
LOGO
 62
     1
100
AcDbLine
 10
2288.510831953586
 20
309.3706836898566
 30
0.0
 11
2031.16648716882
 21
309.3706836898566
 31
0.0
  0
LINE
  5
252DF
330
1F
100
AcDbEntity
  8
LOGO
 62
     6
100
AcDbLine
 10
2169.608957547989
 20
337.8473120062037
 30
0.0
 11
2169.608957547989
 21
328.3551025674213
 31
0.0
  0
LINE
  5
252E0
330
1F
100
AcDbEntity
  8
LOGO
 62
     6
100
AcDbLine
 10
2167.499577672705
 20
323.6089978480302
 30
0.0
 11
2167.499577672705
 21
312.0074085339628
 31
0.0
  0
LINE
  5
252E1
330
1F
100
AcDbEntity
  8
LOGO
 62
     6
100
AcDbLine
 10
2169.608957547989
 20
337.8473120062037
 30
0.0
 11
2144.29639904457
 21
337.8473120062037
 31
0.0
  0
LINE
  5
252E2
330
1F
100
AcDbEntity
  8
LOGO
 62
     6
100
AcDbLine
 10
2169.608957547989
 20
328.3551025674213
 30
0.0
 11
2144.29639904457
 21
328.3551025674213
 31
0.0
  0
LINE
  5
252E3
330
1F
100
AcDbEntity
  8
LOGO
 62
     6
100
AcDbLine
 10
2167.499577672705
 20
323.6089978480302
 30
0.0
 11
2146.405778919854
 21
323.6089978480302
 31
0.0
  0
LINE
  5
252E4
330
1F
100
AcDbEntity
  8
LOGO
 62
     6
100
AcDbLine
 10
2167.499577672705
 20
312.0074085339628
 30
0.0
 11
2146.405778919854
 21
312.0074085339628
 31
0.0
  0
TEXT
  5
252E5
330
1F
100
AcDbEntity
  8
LOGO
  6
CONTINUOUS
 62
     7
100
AcDbText
 10
2247.594355554985
 20
330.4046811909474
 30
0.0
 40
5.273449688212426
  1
?
  7
CHINESET
 72
     1
 11
2248.975497139994
 21
333.0414060350536
 31
0.0
100
AcDbText
 73
     2
  0
TEXT
  5
252E6
330
1F
100
AcDbEntity
  8
LOGO
  6
CONTINUOUS
 62
     7
100
AcDbText
 10
2209.117100960746
 20
330.4644824427064
 30
0.0
 40
5.273449688212426
  1
4
  7
CHINESET
 72
     1
 11
2211.000475849393
 21
333.1012072868126
 31
0.0
100
AcDbText
 73
     2
  0
LINE
  5
252E7
330
1F
100
AcDbEntity
  8
LOGO
 62
     6
100
AcDbLine
 10
2214.193762692007
 20
337.8473120062039
 30
0.0
 11
2207.80718900678
 21
337.8473120062038
 31
0.0
  0
LINE
  5
252E8
330
1F
100
AcDbEntity
  8
LOGO
 62
     6
100
AcDbLine
 10
2214.193762692007
 20
323.6089978480302
 30
0.0
 11
2197.260289630355
 21
323.6089978480302
 31
0.0
  0
LINE
  5
252E9
330
1F
100
AcDbEntity
  8
LOGO
 62
     6
100
AcDbLine
 10
2214.193762692007
 20
328.3551025674213
 30
0.0
 11
2207.80718900678
 21
328.3551025674213
 31
0.0
  0
TEXT
  5
252EA
330
1F
100
AcDbEntity
  8
LOGO
 62
     6
100
AcDbText
 10
2198.602218957428
 20
317.8227363200585
 30
0.0
 40
4.21875975056994
  1
4 方向
 41
0.9
  7
CHINESET
 72
     4
 11
2205.727026161181
 21
319.9175830662815
 31
0.0
100
AcDbText
  0
LINE
  5
252EB
330
1F
100
AcDbEntity
  8
LOGO
 62
     6
100
AcDbLine
 10
2214.193762692007
 20
312.0074085339629
 30
0.0
 11
2197.260289630355
 21
312.0074085339628
 31
0.0
  0
TEXT
  5
252EC
330
1F
100
AcDbEntity
  8
LOGO
  6
CONTINUOUS
 62
     6
100
AcDbText
 10
2200.955809776608
 20
313.7652250967003
 30
0.0
 40
2.636724844106213
  1
4 Way
 41
0.8
  7
CHINESET
 72
     4
 11
2205.727026161181
 21
314.644133378069
 31
0.0
100
AcDbText
  0
LINE
  5
252ED
330
1F
100
AcDbEntity
  8
LOGO
 62
     6
100
AcDbLine
 10
2207.80718900678
 20
337.8473120062038
 30
0.0
 11
2207.80718900678
 21
328.3551025674213
 31
0.0
  0
LINE
  5
252EE
330
1F
100
AcDbEntity
  8
LOGO
 62
     6
100
AcDbLine
 10
2197.260289630355
 20
323.6089978480302
 30
0.0
 11
2197.260289630355
 21
312.0074085339629
 31
0.0
  0
LINE
  5
252EF
330
1F
100
AcDbEntity
  8
LOGO
 62
     6
100
AcDbLine
 10
2214.193762692007
 20
337.8473120062039
 30
0.0
 11
2214.193762692007
 21
328.3551025674213
 31
0.0
  0
LINE
  5
252F0
330
1F
100
AcDbEntity
  8
LOGO
 62
     6
100
AcDbLine
 10
2214.193762692007
 20
323.6089978480302
 30
0.0
 11
2214.193762692007
 21
312.0074085339629
 31
0.0
  0
LINE
  5
252F1
330
1F
100
AcDbEntity
  8
LOGO
 62
     6
100
AcDbLine
 10
2211.000475606198
 20
328.3551025674213
 30
0.0
 11
2211.000475606198
 21
325.9820502077258
 31
0.0
  0
LINE
  5
252F2
330
1F
100
AcDbEntity
  8
LOGO
  6
CONTINUOUS
 62
     7
100
AcDbLine
 10
2171.244322580675
 20
333.0675843808567
 30
0.0
 11
2175.43573591351
 21
333.0675843808567
 31
0.0
  0
LINE
  5
252F3
330
1F
100
AcDbEntity
  8
LOGO
  6
CONTINUOUS
 62
     7
100
AcDbLine
 10
2201.974244653825
 20
333.0675843808568
 30
0.0
 11
2206.165657986658
 21
333.0675843808568
 31
0.0
  0
LINE
  5
252F4
330
1F
100
AcDbEntity
  8
LOGO
 62
     1
100
AcDbLine
 10
2054.369665796954
 20
322.0269629415664
 30
0.0
 11
2054.369665796954
 21
341.0113818191311
 31
0.0
  0
POLYLINE
  5
252F5
330
1F
100
AcDbEntity
  8
LOGO
 62
     5
100
AcDb2dPolyline
 66
     1
 10
0.0
 20
0.0
 30
0.0
 70
     1
  0
VERTEX
  5
26B4F
330
252F5
100
AcDbEntity
  8
LOGO
 62
     5
100
AcDbVertex
100
AcDb2dVertex
 10
2047.579530176006
 20
323.7486904583112
 30
0.0
 42
1.000000057330635
  0
VERTEX
  5
26B50
330
252F5
100
AcDbEntity
  8
LOGO
 62
     5
100
AcDbVertex
100
AcDb2dVertex
 10
2048.994765446957
 20
323.7486904583112
 30
0.0
 42
1.000000057330635
  0
SEQEND
  5
26B51
330
252F5
100
AcDbEntity
  8
LOGO
 62
     5
  0
CIRCLE
  5
252F6
330
1F
100
AcDbEntity
  8
LOGO
 62
     5
100
AcDbCircle
 10
2048.287147811481
 20
323.7486904583112
 30
0.0
 40
0.7076176354747971
  0
SOLID
  5
252F7
330
1F
100
AcDbEntity
  8
LOGO
 62
     5
100
AcDbTrace
 10
2034.449260379191
 20
327.2867786356851
 30
0.0
 11
2035.817321141109
 21
327.2867786356846
 31
0.0
 12
2041.525436733939
 22
340.25976861939
 32
0.0
 13
2042.893497495857
 23
340.2597686193891
 33
0.0
  0
SOLID
  5
252F8
330
1F
100
AcDbEntity
  8
LOGO
 62
     5
100
AcDbTrace
 10
2036.383415249489
 20
327.2867786356851
 30
0.0
 11
2037.751476011407
 21
327.2867786356851
 31
0.0
 12
2042.893497495857
 22
339.2219294206931
 32
0.0
 13
2041.525436733939
 23
334.2057066269937
 33
0.0
  0
SOLID
  5
252F9
330
1F
100
AcDbEntity
  8
LOGO
 62
     5
100
AcDbTrace
 10
2041.525436733939
 20
327.2867786356851
 30
0.0
 11
2042.893497495857
 21
327.2867786356851
 31
0.0
 12
2041.525436733939
 22
334.2057066269937
 32
0.0
 13
2042.893497495857
 23
339.2219294206931
 33
0.0
  0
SOLID
  5
252FA
330
1F
100
AcDbEntity
  8
LOGO
 62
     5
100
AcDbTrace
 10
2043.459591604237
 20
340.2597686193891
 30
0.0
 11
2044.827652366154
 21
340.25976861939
 31
0.0
 12
2043.459591604237
 22
328.3246178343811
 32
0.0
 13
2044.827652366154
 23
333.3408406280805
 33
0.0
  0
SOLID
  5
252FB
330
1F
100
AcDbEntity
  8
LOGO
 62
     5
100
AcDbTrace
 10
2043.459591604237
 20
328.3246178343811
 30
0.0
 11
2044.827652366154
 21
333.3408406280805
 31
0.0
 12
2049.969673850604
 22
340.25976861939
 32
0.0
 13
2048.601613088687
 23
340.25976861939
 33
0.0
  0
SOLID
  5
252FC
330
1F
100
AcDbEntity
  8
LOGO
 62
     5
100
AcDbTrace
 10
2043.459591604237
 20
327.2867786356851
 30
0.0
 11
2044.827652366154
 21
327.2867786356851
 31
0.0
 12
2049.969673850604
 22
339.2219294206931
 32
0.0
 13
2048.601613088687
 23
334.2057066269937
 33
0.0
  0
SOLID
  5
252FD
330
1F
100
AcDbEntity
  8
LOGO
 62
     5
100
AcDbTrace
 10
2049.969673850604
 20
339.2219294206931
 30
0.0
 11
2048.601613088687
 21
334.2057066269937
 31
0.0
 12
2049.969673850604
 22
327.2867786356846
 32
0.0
 13
2048.601613088687
 23
327.2867786356846
 33
0.0
  0
SOLID
  5
252FE
330
1F
100
AcDbEntity
  8
LOGO
 62
     5
100
AcDbTrace
 10
2050.535767958984
 20
327.2867786356846
 30
0.0
 11
2051.903828720902
 21
327.2867786356846
 31
0.0
 12
2050.535767958984
 22
340.2597686193891
 32
0.0
 13
2051.903828720902
 23
340.25976861939
 33
0.0
  0
SOLID
  5
252FF
330
1F
100
AcDbEntity
  8
LOGO
 62
     5
100
AcDbTrace
 10
2032.255923488242
 20
322.5693277325201
 30
0.0
 11
2032.72766857856
 21
322.5693277325201
 31
0.0
 12
2034.056139470594
 22
324.9280531841024
 32
0.0
 13
2034.52788456091
 23
324.9280531841024
 33
0.0
  0
SOLID
  5
25300
330
1F
100
AcDbEntity
  8
LOGO
 62
     5
100
AcDbTrace
 10
2034.056139470594
 20
324.9280531841024
 30
0.0
 11
2034.52788456091
 21
324.9280531841024
 31
0.0
 12
2034.056139470594
 22
322.5693277325201
 32
0.0
 13
2034.52788456091
 23
322.5693277325201
 33
0.0
  0
SOLID
  5
25301
330
1F
100
AcDbEntity
  8
LOGO
 62
     5
100
AcDbTrace
 10
2034.056139470594
 20
322.5693277325201
 30
0.0
 11
2034.52788456091
 21
322.5693277325201
 31
0.0
 12
2035.856355452946
 22
324.9280531841024
 32
0.0
 13
2036.328100543262
 23
324.9280531841024
 33
0.0
  0
SOLID
  5
25302
330
1F
100
AcDbEntity
  8
LOGO
 62
     5
100
AcDbTrace
 10
2035.856355452946
 20
324.9280531841024
 30
0.0
 11
2036.328100543262
 21
324.9280531841024
 31
0.0
 12
2035.856355452946
 22
322.5693277325201
 32
0.0
 13
2036.328100543262
 23
322.5693277325201
 33
0.0
  0
SOLID
  5
25303
330
1F
100
AcDbEntity
  8
LOGO
 62
     5
100
AcDbTrace
 10
2036.886531388311
 20
325.2582747473237
 30
0.0
 11
2037.358276478629
 21
325.2582747473237
 31
0.0
 12
2036.886531388311
 22
325.6356708195774
 32
0.0
 13
2037.358276478629
 23
325.6356708195774
 33
0.0
  0
SOLID
  5
25304
330
1F
100
AcDbEntity
  8
LOGO
 62
     5
100
AcDbTrace
 10
2036.886531388311
 20
324.9280531841024
 30
0.0
 11
2037.358276478629
 21
324.9280531841024
 31
0.0
 12
2036.886531388311
 22
322.5693277325192
 32
0.0
 13
2037.358276478629
 23
322.5693277325201
 33
0.0
  0
POLYLINE
  5
25305
330
1F
100
AcDbEntity
  8
LOGO
 62
     5
100
AcDb2dPolyline
 66
     1
 10
0.0
 20
0.0
 30
0.0
 40
0.4725010920638334
 41
0.4725010920638334
  0
VERTEX
  5
26B52
330
25305
100
AcDbEntity
  8
LOGO
 62
     5
100
AcDbVertex
100
AcDb2dVertex
 10
2039.560903294229
 20
323.9845630034693
 30
0.0
 42
1.0
  0
VERTEX
  5
26B53
330
25305
100
AcDbEntity
  8
LOGO
 62
     5
100
AcDbVertex
100
AcDb2dVertex
 10
2038.143400018038
 20
323.9845630034693
 30
0.0
 42
1.0
  0
SEQEND
  5
26B54
330
25305
100
AcDbEntity
  8
LOGO
 62
     5
  0
SOLID
  5
25306
330
1F
100
AcDbEntity
  8
LOGO
 62
     5
100
AcDbTrace
 10
2037.9086614755
 20
324.9280531841024
 30
0.0
 11
2038.380406565817
 21
324.9280531841024
 31
0.0
 12
2037.9086614755
 22
322.5693277325201
 32
0.0
 13
2038.380406565817
 23
322.5693277325201
 33
0.0
  0
SOLID
  5
25307
330
1F
100
AcDbEntity
  8
LOGO
 62
     5
100
AcDbTrace
 10
2039.323896746449
 20
323.9845630034693
 30
0.0
 11
2039.795641836767
 21
323.9845630034693
 31
0.0
 12
2039.323896746449
 22
322.5693277325201
 32
0.0
 13
2039.795641836767
 23
322.5693277325201
 33
0.0
  0
POLYLINE
  5
25308
330
1F
100
AcDbEntity
  8
LOGO
 62
     5
100
AcDb2dPolyline
 66
     1
 10
0.0
 20
0.0
 30
0.0
 70
     1
 40
0.4725010920638334
 41
0.4725010920638334
  0
VERTEX
  5
26B55
330
25308
100
AcDbEntity
  8
LOGO
 62
     5
100
AcDbVertex
100
AcDb2dVertex
 10
2040.580434549811
 20
323.7486904583109
 30
0.0
 42
1.0
  0
VERTEX
  5
26B56
330
25308
100
AcDbEntity
  8
LOGO
 62
     5
100
AcDbVertex
100
AcDb2dVertex
 10
2042.470438918066
 20
323.7486904583109
 30
0.0
 42
1.0
  0
SEQEND
  5
26B57
330
25308
100
AcDbEntity
  8
LOGO
 62
     5
  0
SOLID
  5
25309
330
1F
100
AcDbEntity
  8
LOGO
 62
     5
100
AcDbTrace
 10
2042.233007194905
 20
325.6356708195774
 30
0.0
 11
2042.704752285221
 21
325.6356708195774
 31
0.0
 12
2042.233007194905
 22
322.5693277325201
 32
0.0
 13
2042.704752285221
 23
322.5693277325201
 33
0.0
  0
SOLID
  5
2530A
330
1F
100
AcDbEntity
  8
LOGO
 62
     5
100
AcDbTrace
 10
2043.255137282094
 20
324.9280531841024
 30
0.0
 11
2043.72688237241
 21
324.9280531841024
 31
0.0
 12
2043.255137282094
 22
322.5693277325201
 32
0.0
 13
2043.72688237241
 23
322.5693277325201
 33
0.0
  0
POLYLINE
  5
2530B
330
1F
100
AcDbEntity
  8
LOGO
 62
     5
100
AcDb2dPolyline
 66
     1
 10
0.0
 20
0.0
 30
0.0
 40
0.4725010920638334
 41
0.4725010920638334
  0
VERTEX
  5
26B58
330
2530B
100
AcDbEntity
  8
LOGO
 62
     5
100
AcDbVertex
100
AcDb2dVertex
 10
2044.907379100822
 20
323.9845630034693
 30
0.0
 42
1.0
  0
VERTEX
  5
26B59
330
2530B
100
AcDbEntity
  8
LOGO
 62
     5
100
AcDbVertex
100
AcDb2dVertex
 10
2043.489875824631
 20
323.9845630034693
 30
0.0
 42
1.0
  0
SEQEND
  5
26B5A
330
2530B
100
AcDbEntity
  8
LOGO
 62
     5
  0
POLYLINE
  5
2530C
330
1F
100
AcDbEntity
  8
LOGO
 62
     5
100
AcDb2dPolyline
 66
     1
 10
0.0
 20
0.0
 30
0.0
 40
0.4725010920638334
 41
0.4725010920638334
  0
VERTEX
  5
26B5B
330
2530C
100
AcDbEntity
  8
LOGO
 62
     5
100
AcDbVertex
100
AcDb2dVertex
 10
2046.322614371772
 20
323.9845630034693
 30
0.0
 42
1.0
  0
VERTEX
  5
26B5C
330
2530C
100
AcDbEntity
  8
LOGO
 62
     5
100
AcDbVertex
100
AcDb2dVertex
 10
2044.90511109558
 20
323.9845630034693
 30
0.0
 42
1.0
  0
SEQEND
  5
26B5D
330
2530C
100
AcDbEntity
  8
LOGO
 62
     5
  0
SOLID
  5
2530D
330
1F
100
AcDbEntity
  8
LOGO
 62
     5
100
AcDbTrace
 10
2044.670372553043
 20
323.9845630034693
 30
0.0
 11
2045.142117643359
 21
323.9845630034693
 31
0.0
 12
2044.670372553043
 22
322.5693277325201
 32
0.0
 13
2045.142117643359
 23
322.5693277325201
 33
0.0
  0
SOLID
  5
2530E
330
1F
100
AcDbEntity
  8
LOGO
 62
     5
100
AcDbTrace
 10
2046.085607823993
 20
323.9845630034693
 30
0.0
 11
2046.557352914309
 21
323.9845630034693
 31
0.0
 12
2046.085607823993
 22
322.5693277325192
 32
0.0
 13
2046.557352914309
 23
322.5693277325192
 33
0.0
  0
POLYLINE
  5
2530F
330
1F
100
AcDbEntity
  8
LOGO
 62
     5
100
AcDb2dPolyline
 66
     1
 10
0.0
 20
0.0
 30
0.0
 70
     1
 40
0.4725010920638334
 41
0.4725010920638334
  0
VERTEX
  5
26B5E
330
2530F
100
AcDbEntity
  8
LOGO
 62
     5
100
AcDbVertex
100
AcDb2dVertex
 10
2047.342145627354
 20
323.7486904583109
 30
0.0
 42
1.0
  0
VERTEX
  5
26B5F
330
2530F
100
AcDbEntity
  8
LOGO
 62
     5
100
AcDbVertex
100
AcDb2dVertex
 10
2049.232149995609
 20
323.7486904583109
 30
0.0
 42
1.0
  0
SEQEND
  5
26B60
330
2530F
100
AcDbEntity
  8
LOGO
 62
     5
  0
LINE
  5
25310
330
1F
100
AcDbEntity
  8
LOGO
 62
     5
100
AcDbLine
 10
2051.903828720902
 20
322.5693277325201
 30
0.0
 11
2051.903828720902
 21
323.9845630034693
 31
0.0
  0
POLYLINE
  5
25311
330
1F
100
AcDbEntity
  8
LOGO
 62
     5
100
AcDb2dPolyline
 66
     1
 10
0.0
 20
0.0
 30
0.0
 40
0.4725010920638334
 41
0.4725010920638334
  0
VERTEX
  5
26B61
330
25311
100
AcDbEntity
  8
LOGO
 62
     5
100
AcDbVertex
100
AcDb2dVertex
 10
2051.669090178366
 20
323.9845630034693
 30
0.0
 42
1.0
  0
VERTEX
  5
26B62
330
25311
100
AcDbEntity
  8
LOGO
 62
     5
100
AcDbVertex
100
AcDb2dVertex
 10
2050.251586902174
 20
323.9845630034693
 30
0.0
 42
1.0
  0
SEQEND
  5
26B63
330
25311
100
AcDbEntity
  8
LOGO
 62
     5
  0
SOLID
  5
25312
330
1F
100
AcDbEntity
  8
LOGO
 62
     5
100
AcDbTrace
 10
2048.994718272448
 20
324.9280531841024
 30
0.0
 11
2049.466463362765
 21
324.9280531841024
 31
0.0
 12
2048.994718272448
 22
322.5693277325201
 32
0.0
 13
2049.466463362765
 23
322.5693277325201
 33
0.0
  0
SOLID
  5
25313
330
1F
100
AcDbEntity
  8
LOGO
 62
     5
100
AcDbTrace
 10
2050.016848359637
 20
322.5693277325201
 30
0.0
 11
2050.488593449953
 21
322.5693277325201
 31
0.0
 12
2050.016848359637
 22
324.9280531841024
 32
0.0
 13
2050.488593449953
 23
324.9280531841024
 33
0.0
  0
SOLID
  5
25314
330
1F
100
AcDbEntity
  8
LOGO
 62
     5
100
AcDbTrace
 10
2051.432083630587
 20
323.9845630034693
 30
0.0
 11
2051.903828720902
 21
323.9845630034692
 31
0.0
 12
2051.432083630587
 22
322.5693277325201
 32
0.0
 13
2051.903828720902
 23
322.5693277325201
 33
0.0
  0
SOLID
  5
25315
330
1F
100
AcDbEntity
  8
LOGO
 62
     2
100
AcDbTrace
 10
2035.817321141109
 20
327.2867786356846
 30
0.0
 11
2036.383415249489
 21
327.2867786356851
 31
0.0
 12
2042.893497495857
 22
340.2597686193891
 32
0.0
 13
2043.459591604237
 23
340.2597686193891
 33
0.0
  0
SOLID
  5
25316
330
1F
100
AcDbEntity
  8
LOGO
 62
     2
100
AcDbTrace
 10
2042.893497495857
 20
340.2597686193891
 30
0.0
 11
2043.459591604237
 21
340.2597686193891
 31
0.0
 12
2042.893497495857
 22
327.2867786356851
 32
0.0
 13
2043.459591604237
 23
327.2867786356851
 33
0.0
  0
SOLID
  5
25317
330
1F
100
AcDbEntity
  8
LOGO
 62
     2
100
AcDbTrace
 10
2042.893497495857
 20
327.2867786356851
 30
0.0
 11
2043.459591604237
 21
327.2867786356851
 31
0.0
 12
2049.969673850604
 22
340.25976861939
 32
0.0
 13
2050.535767958984
 23
340.2597686193891
 33
0.0
  0
SOLID
  5
25318
330
1F
100
AcDbEntity
  8
LOGO
 62
     2
100
AcDbTrace
 10
2049.969673850604
 20
340.25976861939
 30
0.0
 11
2050.535767958984
 21
340.2597686193891
 31
0.0
 12
2049.969673850604
 22
327.2867786356846
 32
0.0
 13
2050.535767958984
 23
327.2867786356846
 33
0.0
  0
TEXT
  5
25319
330
1F
100
AcDbEntity
  8
LOGO
  6
CONTINUOUS
 62
     5
100
AcDbText
 10
2032.202140641082
 20
315.5864510873758
 30
0.0
 40
4.746104719391183
  1
金器工業股份有限公司
 41
0.8
  7
LOGO
100
AcDbText
  0
TEXT
  5
2531A
330
1F
100
AcDbEntity
  8
LOGO
  6
CONTINUOUS
 62
     5
100
AcDbText
 10
2033.561138774973
 20
310.8394165035685
 30
0.0
 40
3.164069812927456
  1
MINDMAN INDUSTRIAL CO.,LTD
 41
0.85
  7
CHINESET
100
AcDbText
  0
LINE
  5
2531B
330
1F
100
AcDbEntity
  8
LOGO
 62
     6
100
AcDbLine
 10
2215.24845262965
 20
337.8473120062039
 30
0.0
 11
2215.24845262965
 21
328.3551025674213
 31
0.0
  0
LINE
  5
2531C
330
1F
100
AcDbEntity
  8
LOGO
 62
     6
100
AcDbLine
 10
2211.000475606198
 20
325.9820502077258
 30
0.0
 11
2205.727026161181
 21
325.9820502077258
 31
0.0
  0
LINE
  5
2531D
330
1F
100
AcDbEntity
  8
LOGO
 62
     6
100
AcDbLine
 10
2205.727026161181
 20
323.6089978480302
 30
0.0
 11
2205.727026161181
 21
325.9820502077258
 31
0.0
  0
LINE
  5
2531E
330
1F
100
AcDbEntity
  8
LOGO
 62
     6
100
AcDbLine
 10
2188.708073277385
 20
325.9820502077257
 30
0.0
 11
2182.37993365153
 21
325.9820502077257
 31
0.0
  0
LINE
  5
2531F
330
1F
100
AcDbEntity
  8
LOGO
 62
     6
100
AcDbLine
 10
2182.37993365153
 20
323.6089978480302
 30
0.0
 11
2182.37993365153
 21
325.9820502077257
 31
0.0
  0
LINE
  5
25320
330
1F
100
AcDbEntity
  8
LOGO
 62
     6
100
AcDbLine
 10
2220.869115821765
 20
325.9820502077258
 30
0.0
 11
2227.724600416441
 21
325.9820502077258
 31
0.0
  0
LINE
  5
25321
330
1F
100
AcDbEntity
  8
LOGO
 62
     6
100
AcDbLine
 10
2227.724600416441
 20
323.6089978480303
 30
0.0
 11
2227.724600416441
 21
325.9820502077258
 31
0.0
  0
LINE
  5
25322
330
1F
100
AcDbEntity
  8
LOGO
 62
     6
100
AcDbLine
 10
2244.059245023967
 20
323.6089978480303
 30
0.0
 11
2244.059245023967
 21
311.9636628494899
 31
0.0
  0
LINE
  5
25323
330
1F
100
AcDbEntity
  8
LOGO
 62
     6
100
AcDbLine
 10
2248.555661199032
 20
325.9820502077258
 30
0.0
 11
2251.046565860848
 21
325.9820502077258
 31
0.0
  0
LINE
  5
25324
330
1F
100
AcDbEntity
  8
LOGO
 62
     6
100
AcDbLine
 10
2248.555661199032
 20
328.3551025674215
 30
0.0
 11
2248.555661199032
 21
325.9820502077258
 31
0.0
  0
LINE
  5
25325
330
1F
100
AcDbEntity
  8
LOGO
 62
     6
100
AcDbLine
 10
2269.553873794957
 20
337.8473120062039
 30
0.0
 11
2269.553873794957
 21
328.3551025674215
 31
0.0
  0
LINE
  5
25326
330
1F
100
AcDbEntity
  8
LOGO
 62
     6
100
AcDbLine
 10
2275.940447480184
 20
328.3551025674215
 30
0.0
 11
2269.553873794957
 21
328.3551025674215
 31
0.0
  0
LINE
  5
25327
330
1F
100
AcDbEntity
  8
LOGO
 62
     6
100
AcDbLine
 10
2272.747160637571
 20
328.3551025674215
 30
0.0
 11
2272.747160637571
 21
323.6089978480303
 31
0.0
  0
LINE
  5
25328
330
1F
100
AcDbEntity
  8
LOGO
 62
     6
100
AcDbLine
 10
2275.940447480184
 20
337.847312006204
 30
0.0
 11
2269.553873794957
 21
337.8473120062039
 31
0.0
  0
TEXT
  5
25329
330
1F
100
AcDbEntity
  8
LOGO
  6
CONTINUOUS
 62
     7
100
AcDbText
 10
2271.240460726653
 20
330.4644824427065
 30
0.0
 40
5.273449688212426
  1
L
  7
CHINESET
 72
     1
 11
2272.747160637571
 21
333.1012072868127
 31
0.0
100
AcDbText
 73
     2
  0
LINE
  5
2532A
330
1F
100
AcDbEntity
  8
LOGO
 62
     6
100
AcDbLine
 10
2275.940447480184
 20
337.847312006204
 30
0.0
 11
2275.940447480184
 21
328.3551025674215
 31
0.0
  0
TEXT
  5
2532B
330
1F
100
AcDbEntity
  8
LOGO
 62
     6
100
AcDbText
 10
2267.618730572589
 20
317.8521486050651
 30
0.0
 40
4.21875975056994
  1
附燈型
 41
0.9
  7
CHINESET
 72
     4
 11
2273.274505363196
 21
319.9175830662817
 31
0.0
100
AcDbText
  0
LINE
  5
2532C
330
1F
100
AcDbEntity
  8
LOGO
 62
     6
100
AcDbLine
 10
2284.377966738129
 20
323.6089978480303
 30
0.0
 11
2262.171043988264
 21
323.6089978480303
 31
0.0
  0
LINE
  5
2532D
330
1F
100
AcDbEntity
  8
LOGO
 62
     6
100
AcDbLine
 10
2284.377966738129
 20
312.007408533963
 30
0.0
 11
2262.171043988264
 21
312.007408533963
 31
0.0
  0
TEXT
  5
2532E
330
1F
100
AcDbEntity
  8
LOGO
  6
CONTINUOUS
 62
     6
100
AcDbText
 10
2262.8280526475
 20
313.3257709560161
 30
0.0
 40
2.636724844106213
  1
LED indicator
 41
0.8
  7
CHINESET
 72
     4
 11
2273.274505363196
 21
314.6441333780692
 31
0.0
100
AcDbText
  0
LINE
  5
2532F
330
1F
100
AcDbEntity
  8
LOGO
 62
     6
100
AcDbLine
 10
2284.377966738129
 20
323.6089978480303
 30
0.0
 11
2284.377966738129
 21
312.0074085339631
 31
0.0
  0
LINE
  5
25330
330
1F
100
AcDbEntity
  8
LOGO
  6
CONTINUOUS
 62
     7
100
AcDbLine
 10
2263.720929442001
 20
333.0675843808569
 30
0.0
 11
2267.912342774835
 21
333.0675843808569
 31
0.0
  0
LINE
  5
25331
330
1F
100
AcDbEntity
  8
LOGO
 62
     6
100
AcDbLine
 10
2262.171043988264
 20
323.6089978480303
 30
0.0
 11
2262.171043988264
 21
312.007408533963
 31
0.0
  0
LINE
  5
2548C
330
1F
100
AcDbEntity
  8
LOGO
 62
     6
100
AcDbLine
 10
2288.510831953586
 20
341.0113818191311
 30
0.0
 11
2288.510831953588
 21
553.5307893392219
 31
0.0
  0
LINE
  5
25578
330
1F
100
AcDbEntity
  8
LOGO
 62
     6
100
AcDbLine
 10
2031.16648716882
 20
553.5307893392219
 30
0.0
 11
2288.510831953588
 21
553.5307893392219
 31
0.0
  0
LINE
  5
25684
330
1F
100
AcDbEntity
  8
AM_HID
  6
HIDDEN
100
AcDbLine
 10
2116.738140685954
 20
392.8673816967052
 30
0.0
 11
2115.788140685954
 21
393.8173816967052
 31
0.0
  0
LINE
  5
25685
330
1F
100
AcDbEntity
  8
AM_HID
  6
HIDDEN
100
AcDbLine
 10
2108.038140685954
 20
392.8673816967052
 30
0.0
 11
2108.988140685954
 21
393.8173816967052
 31
0.0
  0
LINE
  5
25686
330
1F
100
AcDbEntity
  8
AM_HID
  6
HIDDEN
100
AcDbLine
 10
2108.338140685954
 20
386.8173816967052
 30
0.0
 11
2108.988140685954
 21
393.8173816967052
 31
0.0
  0
LINE
  5
25687
330
1F
100
AcDbEntity
  8
AM_HID
  6
HIDDEN
100
AcDbLine
 10
2116.438140685954
 20
386.8173816967052
 30
0.0
 11
2115.788140685954
 21
393.8173816967052
 31
0.0
  0
LINE
  5
25688
330
1F
100
AcDbEntity
  8
AM_7
100
AcDbLine
 10
2112.388140685954
 20
385.1005626133962
 30
0.0
 11
2112.388140685954
 21
395.0080691725906
 31
0.0
  0
LINE
  5
25689
330
1F
100
AcDbEntity
  8
AM_HID
  6
HIDDEN
100
AcDbLine
 10
2115.783497828811
 20
393.8673816967052
 30
0.0
 11
2108.992783543097
 21
393.8673816967052
 31
0.0
  0
LINE
  5
2568A
330
1F
100
AcDbEntity
  8
AM_HID
  6
HIDDEN
100
AcDbLine
 10
2116.738140685954
 20
392.8673816967052
 30
0.0
 11
2108.038140685954
 21
392.8673816967052
 31
0.0
  0
LINE
  5
2568B
330
1F
100
AcDbEntity
  8
AM_HID
  6
HIDDEN
100
AcDbLine
 10
2116.438140685954
 20
386.8173816967052
 30
0.0
 11
2108.338140685954
 21
386.8173816967052
 31
0.0
  0
LINE
  5
2568C
330
1F
100
AcDbEntity
  8
AM_HID
  6
HIDDEN
100
AcDbLine
 10
2108.338140685954
 20
386.8173816967052
 30
0.0
 11
2107.388140685954
 21
385.8673816967052
 31
0.0
  0
LINE
  5
2568D
330
1F
100
AcDbEntity
  8
AM_HID
  6
HIDDEN
100
AcDbLine
 10
2107.388140685954
 20
385.8673816967052
 30
0.0
 11
2108.038140685954
 21
392.8673816967052
 31
0.0
  0
LINE
  5
2568E
330
1F
100
AcDbEntity
  8
AM_HID
  6
HIDDEN
100
AcDbLine
 10
2117.388140685954
 20
385.8673816967052
 30
0.0
 11
2116.438140685954
 21
386.8173816967052
 31
0.0
  0
LINE
  5
2568F
330
1F
100
AcDbEntity
  8
AM_HID
  6
HIDDEN
100
AcDbLine
 10
2117.388140685954
 20
385.8673816967052
 30
0.0
 11
2116.738140685954
 21
392.8673816967052
 31
0.0
  0
LINE
  5
25690
330
1F
100
AcDbEntity
  8
AM_HID
100
AcDbLine
 10
2114.538140685954
 20
419.8173816967052
 30
0.0
 11
2125.238140685954
 21
419.8173816967052
 31
0.0
  0
LINE
  5
25691
330
1F
100
AcDbEntity
  8
AM_HID
100
AcDbLine
 10
2113.888140685954
 20
414.1673816967052
 30
0.0
 11
2125.888140685954
 21
414.1673816967053
 31
0.0
  0
LINE
  5
25692
330
1F
100
AcDbEntity
  8
AM_HID
100
AcDbLine
 10
2115.203140685954
 20
413.1673816967052
 30
0.0
 11
2124.573140685954
 21
413.1673816967052
 31
0.0
  0
LINE
  5
25693
330
1F
100
AcDbEntity
  8
AM_7
100
AcDbLine
 10
2119.888140685954
 20
412.1673816967051
 30
0.0
 11
2119.888140685954
 21
422.1673816967052
 31
0.0
1001
GENIUS_GENOBJ-N-CEN_13
1002
{
1000
OWNER
1000
GEN
1002
}
1001
GENIUS_GENODEF_13
1002
{
1000
HIER
1070
     0
1002
}
1002
{
1000
MANEDIT
1070
     0
1002
}
1002
{
1000
NOSEL
1070
     0
1002
}
1002
{
1000
BEHIND
1070
     0
1002
}
1002
{
1000
OTHER
1070
     0
1002
}
1002
{
1000
REACTOR
1002
}
  0
LINE
  5
25694
330
1F
100
AcDbEntity
  8
AM_HID
100
AcDbLine
 10
2113.188140685954
 20
421.1673816967052
 30
0.0
 11
2113.888140685954
 21
414.1673816967052
 31
0.0
  0
LINE
  5
25695
330
1F
100
AcDbEntity
  8
AM_HID
100
AcDbLine
 10
2114.538140685954
 20
419.8173816967052
 30
0.0
 11
2115.203140685954
 21
413.1673816967052
 31
0.0
  0
LINE
  5
25696
330
1F
100
AcDbEntity
  8
AM_HID
  6
HIDDEN2
100
AcDbLine
 10
2113.188140685954
 20
421.1673816967052
 30
0.0
 11
2114.538140685954
 21
419.8173816967052
 31
0.0
  0
LINE
  5
25697
330
1F
100
AcDbEntity
  8
AM_HID
100
AcDbLine
 10
2113.888140685954
 20
414.1673816967052
 30
0.0
 11
2115.203140685954
 21
413.1673816967052
 31
0.0
  0
LINE
  5
25698
330
1F
100
AcDbEntity
  8
AM_HID
100
AcDbLine
 10
2125.238140685954
 20
419.8173816967052
 30
0.0
 11
2124.573140685954
 21
413.1673816967052
 31
0.0
  0
LINE
  5
25699
330
1F
100
AcDbEntity
  8
AM_HID
100
AcDbLine
 10
2126.588140685954
 20
421.1673816967052
 30
0.0
 11
2125.888140685954
 21
414.1673816967052
 31
0.0
  0
LINE
  5
2569A
330
1F
100
AcDbEntity
  8
AM_HID
  6
HIDDEN2
100
AcDbLine
 10
2126.588140685954
 20
421.1673816967052
 30
0.0
 11
2125.238140685954
 21
419.8173816967052
 31
0.0
  0
LINE
  5
2569B
330
1F
100
AcDbEntity
  8
AM_HID
100
AcDbLine
 10
2125.888140685954
 20
414.1673816967052
 30
0.0
 11
2124.573140685954
 21
413.1673816967052
 31
0.0
  0
LINE
  5
2569C
330
1F
100
AcDbEntity
  8
AM_HID
100
AcDbLine
 10
2135.538140685954
 20
419.8173816967052
 30
0.0
 11
2146.238140685954
 21
419.8173816967052
 31
0.0
  0
LINE
  5
2569D
330
1F
100
AcDbEntity
  8
AM_HID
100
AcDbLine
 10
2134.888140685954
 20
414.1673816967052
 30
0.0
 11
2146.888140685954
 21
414.1673816967053
 31
0.0
  0
LINE
  5
2569E
330
1F
100
AcDbEntity
  8
AM_HID
100
AcDbLine
 10
2136.203140685953
 20
413.1673816967052
 30
0.0
 11
2145.573140685954
 21
413.1673816967052
 31
0.0
  0
LINE
  5
2569F
330
1F
100
AcDbEntity
  8
AM_7
100
AcDbLine
 10
2140.888140685954
 20
412.1673816967051
 30
0.0
 11
2140.888140685954
 21
422.1673816967052
 31
0.0
1001
GENIUS_GENOBJ-N-CEN_13
1002
{
1000
OWNER
1000
GEN
1002
}
1001
GENIUS_GENODEF_13
1002
{
1000
HIER
1070
     0
1002
}
1002
{
1000
MANEDIT
1070
     0
1002
}
1002
{
1000
NOSEL
1070
     0
1002
}
1002
{
1000
BEHIND
1070
     0
1002
}
1002
{
1000
OTHER
1070
     0
1002
}
1002
{
1000
REACTOR
1002
}
  0
LINE
  5
256A0
330
1F
100
AcDbEntity
  8
AM_HID
100
AcDbLine
 10
2134.188140685953
 20
421.1673816967052
 30
0.0
 11
2134.888140685954
 21
414.1673816967052
 31
0.0
  0
LINE
  5
256A1
330
1F
100
AcDbEntity
  8
AM_HID
100
AcDbLine
 10
2135.538140685954
 20
419.8173816967052
 30
0.0
 11
2136.203140685953
 21
413.1673816967052
 31
0.0
  0
LINE
  5
256A2
330
1F
100
AcDbEntity
  8
AM_HID
  6
HIDDEN2
100
AcDbLine
 10
2134.188140685953
 20
421.1673816967052
 30
0.0
 11
2135.538140685954
 21
419.8173816967052
 31
0.0
  0
LINE
  5
256A3
330
1F
100
AcDbEntity
  8
AM_HID
100
AcDbLine
 10
2134.888140685954
 20
414.1673816967052
 30
0.0
 11
2136.203140685954
 21
413.1673816967052
 31
0.0
  0
LINE
  5
256A4
330
1F
100
AcDbEntity
  8
AM_HID
100
AcDbLine
 10
2146.238140685954
 20
419.8173816967052
 30
0.0
 11
2145.573140685954
 21
413.1673816967052
 31
0.0
  0
LINE
  5
256A5
330
1F
100
AcDbEntity
  8
AM_HID
100
AcDbLine
 10
2147.588140685954
 20
421.1673816967052
 30
0.0
 11
2146.888140685954
 21
414.1673816967052
 31
0.0
  0
LINE
  5
256A6
330
1F
100
AcDbEntity
  8
AM_HID
  6
HIDDEN2
100
AcDbLine
 10
2147.588140685954
 20
421.1673816967052
 30
0.0
 11
2146.238140685954
 21
419.8173816967052
 31
0.0
  0
LINE
  5
256A7
330
1F
100
AcDbEntity
  8
AM_HID
100
AcDbLine
 10
2146.888140685954
 20
414.1673816967052
 30
0.0
 11
2145.573140685954
 21
413.1673816967052
 31
0.0
  0
LINE
  5
256A8
330
1F
100
AcDbEntity
  8
AM_HID
100
AcDbLine
 10
2125.038140685954
 20
387.2173816967052
 30
0.0
 11
2135.738140685954
 21
387.2173816967052
 31
0.0
  0
LINE
  5
256A9
330
1F
100
AcDbEntity
  8
AM_HID
100
AcDbLine
 10
2124.388140685954
 20
392.8673816967052
 30
0.0
 11
2136.388140685954
 21
392.8673816967052
 31
0.0
  0
LINE
  5
256AA
330
1F
100
AcDbEntity
  8
AM_HID
100
AcDbLine
 10
2125.703140685954
 20
393.8673816967052
 30
0.0
 11
2135.073140685954
 21
393.8673816967052
 31
0.0
  0
LINE
  5
256AB
330
1F
100
AcDbEntity
  8
AM_7
100
AcDbLine
 10
2130.388140685954
 20
394.8673816967052
 30
0.0
 11
2130.388140685954
 21
384.8673816967052
 31
0.0
1001
GENIUS_GENOBJ-N-CEN_13
1002
{
1000
OWNER
1000
GEN
1002
}
1001
GENIUS_GENODEF_13
1002
{
1000
HIER
1070
     0
1002
}
1002
{
1000
MANEDIT
1070
     0
1002
}
1002
{
1000
NOSEL
1070
     0
1002
}
1002
{
1000
BEHIND
1070
     0
1002
}
1002
{
1000
OTHER
1070
     0
1002
}
1002
{
1000
REACTOR
1002
}
  0
LINE
  5
256AC
330
1F
100
AcDbEntity
  8
AM_HID
100
AcDbLine
 10
2123.688140685954
 20
385.8673816967052
 30
0.0
 11
2124.388140685954
 21
392.8673816967052
 31
0.0
  0
LINE
  5
256AD
330
1F
100
AcDbEntity
  8
AM_HID
100
AcDbLine
 10
2125.038140685954
 20
387.2173816967052
 30
0.0
 11
2125.703140685954
 21
393.8673816967052
 31
0.0
  0
LINE
  5
256AE
330
1F
100
AcDbEntity
  8
AM_HID
  6
HIDDEN2
100
AcDbLine
 10
2123.688140685954
 20
385.8673816967052
 30
0.0
 11
2125.038140685954
 21
387.2173816967052
 31
0.0
  0
LINE
  5
256AF
330
1F
100
AcDbEntity
  8
AM_HID
100
AcDbLine
 10
2124.388140685954
 20
392.8673816967052
 30
0.0
 11
2125.703140685954
 21
393.8673816967052
 31
0.0
  0
LINE
  5
256B0
330
1F
100
AcDbEntity
  8
AM_HID
100
AcDbLine
 10
2135.738140685954
 20
387.2173816967052
 30
0.0
 11
2135.073140685954
 21
393.8673816967052
 31
0.0
  0
LINE
  5
256B1
330
1F
100
AcDbEntity
  8
AM_HID
100
AcDbLine
 10
2137.088140685954
 20
385.8673816967052
 30
0.0
 11
2136.388140685954
 21
392.8673816967052
 31
0.0
  0
LINE
  5
256B2
330
1F
100
AcDbEntity
  8
AM_HID
  6
HIDDEN2
100
AcDbLine
 10
2137.088140685954
 20
385.8673816967052
 30
0.0
 11
2135.738140685954
 21
387.2173816967052
 31
0.0
  0
LINE
  5
256B3
330
1F
100
AcDbEntity
  8
AM_HID
100
AcDbLine
 10
2136.388140685954
 20
392.8673816967052
 30
0.0
 11
2135.073140685954
 21
393.8673816967052
 31
0.0
  0
LINE
  5
256B4
330
1F
100
AcDbEntity
  8
AM_HID
  6
HIDDEN
100
AcDbLine
 10
2152.738140685954
 20
392.8673816967052
 30
0.0
 11
2151.788140685954
 21
393.8173816967052
 31
0.0
  0
LINE
  5
256B5
330
1F
100
AcDbEntity
  8
AM_HID
  6
HIDDEN
100
AcDbLine
 10
2144.038140685954
 20
392.8673816967052
 30
0.0
 11
2144.988140685954
 21
393.8173816967052
 31
0.0
  0
LINE
  5
256B6
330
1F
100
AcDbEntity
  8
AM_HID
  6
HIDDEN
100
AcDbLine
 10
2144.338140685954
 20
386.8173816967052
 30
0.0
 11
2144.988140685954
 21
393.8173816967052
 31
0.0
  0
LINE
  5
256B7
330
1F
100
AcDbEntity
  8
AM_HID
  6
HIDDEN
100
AcDbLine
 10
2152.438140685954
 20
386.8173816967052
 30
0.0
 11
2151.788140685954
 21
393.8173816967052
 31
0.0
  0
LINE
  5
256B8
330
1F
100
AcDbEntity
  8
AM_7
100
AcDbLine
 10
2148.388140685954
 20
385.1005626133962
 30
0.0
 11
2148.388140685954
 21
395.0080691725906
 31
0.0
  0
LINE
  5
256B9
330
1F
100
AcDbEntity
  8
AM_HID
  6
HIDDEN
100
AcDbLine
 10
2151.783497828811
 20
393.8673816967052
 30
0.0
 11
2144.992783543097
 21
393.8673816967052
 31
0.0
  0
LINE
  5
256BA
330
1F
100
AcDbEntity
  8
AM_HID
  6
HIDDEN
100
AcDbLine
 10
2152.738140685954
 20
392.8673816967052
 30
0.0
 11
2144.038140685954
 21
392.8673816967052
 31
0.0
  0
LINE
  5
256BB
330
1F
100
AcDbEntity
  8
AM_HID
  6
HIDDEN
100
AcDbLine
 10
2152.438140685954
 20
386.8173816967052
 30
0.0
 11
2144.338140685954
 21
386.8173816967052
 31
0.0
  0
LINE
  5
256BC
330
1F
100
AcDbEntity
  8
AM_HID
  6
HIDDEN
100
AcDbLine
 10
2144.338140685954
 20
386.8173816967052
 30
0.0
 11
2143.388140685954
 21
385.8673816967052
 31
0.0
  0
LINE
  5
256BD
330
1F
100
AcDbEntity
  8
AM_HID
  6
HIDDEN
100
AcDbLine
 10
2143.388140685954
 20
385.8673816967052
 30
0.0
 11
2144.038140685954
 21
392.8673816967052
 31
0.0
  0
LINE
  5
256BE
330
1F
100
AcDbEntity
  8
AM_HID
  6
HIDDEN
100
AcDbLine
 10
2153.388140685954
 20
385.8673816967052
 30
0.0
 11
2152.438140685954
 21
386.8173816967052
 31
0.0
  0
LINE
  5
256BF
330
1F
100
AcDbEntity
  8
AM_HID
  6
HIDDEN
100
AcDbLine
 10
2153.388140685954
 20
385.8673816967052
 30
0.0
 11
2152.738140685954
 21
392.8673816967052
 31
0.0
  0
ENDSEC
  0
SECTION
  2
OBJECTS
  0
DICTIONARY
  5
C
330
0
100
AcDbDictionary
  3
ACAD_GROUP
350
D
  3
ACAD_LAYOUT
350
1A
  3
ACAD_MLINESTYLE
350
17
  3
ACAD_PLOTSETTINGS
350
19
  3
ACMDICTIONARY
350
43
  3
AMG
350
2B
  3
AMGSNAPSETTINGS
350
240
  3
DWGPROPS
350
26AD8
1001
ACAD
1000
TREAT_AS_HARD
1070
     0
  0
DICTIONARY
  5
3A4
330
1F
100
AcDbDictionary
  3
ACAD_INDEX
350
21C6B
  3
ACAD_LAYOUTSELFREF
350
26B4D
1001
ACAD
1000
TREAT_AS_HARD
1070
     1
  0
DICTIONARY
  5
26A58
330
1B
100
AcDbDictionary
  3
ACAD_LAYOUTSELFREF
350
26B4C
1001
ACAD
1000
TREAT_AS_HARD
1070
     1
  0
DICTIONARY
  5
D
102
{ACAD_REACTORS
330
C
102
}
330
C
100
AcDbDictionary
1001
ACAD
1000
TREAT_AS_HARD
1070
     0
  0
DICTIONARY
  5
1A
102
{ACAD_REACTORS
330
C
102
}
330
C
100
AcDbDictionary
1001
ACAD
1000
TREAT_AS_HARD
1070
     0
  0
DICTIONARY
  5
17
102
{ACAD_REACTORS
330
C
102
}
330
C
100
AcDbDictionary
  3
STANDARD
350
18
1001
ACAD
1000
TREAT_AS_HARD
1070
     0
  0
DICTIONARY
  5
19
102
{ACAD_REACTORS
330
C
102
}
330
C
100
AcDbDictionary
1001
ACAD
1000
TREAT_AS_HARD
1070
     0
  0
DICTIONARY
  5
43
102
{ACAD_REACTORS
330
C
102
}
330
C
100
AcDbDictionary
  3
ACMSTDDICTIONARY
350
1440
1001
ACAD
1000
TREAT_AS_HARD
1070
     0
  0
DICTIONARY
  5
2B
102
{ACAD_REACTORS
330
C
102
}
330
C
100
AcDbDictionary
  3
ACMGSETTINGS
350
2C
1001
ACAD
1000
TREAT_AS_HARD
1070
     0
  0
DICTIONARY
  5
240
102
{ACAD_REACTORS
330
C
102
}
330
C
100
AcDbDictionary
1001
ACAD
1000
TREAT_AS_HARD
1070
     0
  0
XRECORD
  5
26AD8
102
{ACAD_REACTORS
330
C
102
}
330
C
100
AcDbXrecord
  1
DWGPROPS COOKIE
  2

  3

  4

  6

  7

  8

  9

300
AmdtFileType=84
301
=
302
=
303
=
304
=
305
=
306
=
307
=
308
=
309
=
 40
1.954370671296296
 41
2452292.457678333
 42
2452655.364578993
  1

 90
        1
  0
DICTIONARY
  5
21C6B
102
{ACAD_REACTORS
330
3A4
102
}
330
3A4
100
AcDbDictionary
  3
*A1
350
21C6C
1001
ACAD
1000
TREAT_AS_HARD
1070
     0
  0
XRECORD
  5
26B4D
102
{ACAD_REACTORS
330
3A4
102
}
330
3A4
100
AcDbXrecord
340
1F
  0
XRECORD
  5
26B4C
102
{ACAD_REACTORS
330
26A58
102
}
330
26A58
100
AcDbXrecord
340
1B
  0
MLINESTYLE
  5
18
102
{ACAD_REACTORS
330
17
102
}
330
17
100
AcDbMlineStyle
  2
STANDARD
 70
     0
  3

 62
   256
 51
90.0
 52
90.0
 71
     2
 49
0.5
 62
   256
  6
BYLAYER
 49
-0.5
 62
   256
  6
BYLAYER
  0
DICTIONARY
  5
1440
102
{ACAD_REACTORS
330
43
102
}
330
43
100
AcDbDictionary
1001
ACAD
1000
TREAT_AS_HARD
1070
     0
  0
DICTIONARY
  5
2C
102
{ACAD_REACTORS
330
2B
102
}
330
2B
100
AcDbDictionary
1001
ACAD
1000
TREAT_AS_HARD
1070
     0
  0
LAYER_INDEX
  5
21C6C
102
{ACAD_REACTORS
330
21C6B
102
}
330
21C6B
100
AcDbIndex
 40
2452705.592243471
100
AcDbLayerIndex
  8
0
360
21C6D
 90
       80
  8
AM_VIS
360
21C70
 90
      322
  8
Defpoints
360
21C71
 90
        0
  8
AM_7
360
21C72
 90
       62
  8
AM_5
360
21C73
 90
       16
  8
AM_REFDIM
360
21C74
 90
       64
  8
LOGO
360
21C7D
 90
      150
  8
AM_HID
360
21C7F
 90
       55
  8
AM_0N
360
21C84
 90
        0
  0
IDBUFFER
  5
21C6D
330
0
100
AcDbIdBuffer
330
20CBD
330
20CC2
330
20CC7
330
20CCC
330
21053
330
21058
330
2105D
330
21062
330
21067
330
2106C
330
21071
330
21285
330
21286
330
21287
330
21288
330
21289
330
2128A
330
2128B
330
212FC
330
212FD
330
212FE
330
212FF
330
2148E
330
2148F
330
21490
330
21491
330
214A8
330
214AD
330
214B2
330
214B7
330
214DD
330
214DE
330
2335F
330
23364
330
23369
330
2336E
330
23373
330
23378
330
2337D
330
23382
330
23387
330
2338C
330
23391
330
23396
330
2339B
330
233A0
330
233A5
330
233AA
330
233AF
330
233B4
330
233B9
330
233BE
330
233C4
330
233C9
330
23599
330
2359A
330
2359B
330
2359C
330
2359D
330
2359E
330
2359F
330
235A0
330
235A1
330
23865
330
23866
330
2468F
330
24691
330
24699
330
2469E
330
246A3
330
246A8
330
246AD
330
246B2
330
24805
330
24806
330
24807
330
24808
330
24809
330
2480A
330
2480B
  0
IDBUFFER
  5
21C70
330
0
100
AcDbIdBuffer
330
2454C
330
2454D
330
2454E
330
2454F
330
24550
330
24551
330
24552
330
24553
330
24554
330
24555
330
24556
330
24557
330
24558
330
24559
330
2455A
330
2455B
330
2455C
330
2455D
330
2455E
330
2455F
330
24560
330
24561
330
24562
330
24563
330
24564
330
24565
330
24566
330
24567
330
24568
330
24569
330
2456A
330
2456B
330
2456C
330
2456D
330
2456E
330
2456F
330
24570
330
24571
330
24572
330
24573
330
24574
330
24575
330
24576
330
24577
330
24578
330
24579
330
2457A
330
2457B
330
2457C
330
2457D
330
2457E
330
2457F
330
24580
330
24581
330
24582
330
24583
330
24584
330
24585
330
24586
330
24587
330
24588
330
24589
330
2458A
330
2458B
330
2458C
330
2458D
330
2458E
330
2458F
330
24590
330
24591
330
24592
330
24593
330
24594
330
24595
330
24596
330
24597
330
24598
330
24599
330
2459A
330
2459B
330
2459C
330
2459D
330
2459E
330
2459F
330
245A0
330
245A1
330
245A2
330
245A3
330
245A4
330
245A5
330
245A6
330
245A7
330
245A8
330
245A9
330
245AA
330
245AB
330
245AC
330
245AD
330
245AE
330
245AF
330
245B0
330
245B1
330
245B2
330
245B3
330
245B4
330
245B5
330
245B6
330
245B7
330
245B8
330
245B9
330
245BA
330
245BB
330
245BC
330
245BD
330
245BE
330
245BF
330
245C0
330
245C1
330
245C2
330
245C3
330
245C4
330
245C5
330
245C6
330
245C7
330
245C8
330
245C9
330
245CA
330
245CB
330
245CC
330
245CD
330
245CE
330
245CF
330
245D0
330
245D1
330
245D2
330
245D3
330
245D4
330
245D5
330
245D6
330
245D7
330
245D8
330
245D9
330
245DA
330
245DB
330
245DC
330
245DD
330
245DE
330
245DF
330
245E0
330
245E1
330
245E2
330
245E3
330
245E4
330
245E5
330
245E7
330
245E8
330
245E9
330
245EA
330
245EB
330
245EC
330
245ED
330
245EE
330
245EF
330
245F0
330
245F1
330
245F2
330
245F3
330
245F4
330
245F5
330
245F6
330
245F7
330
245F8
330
245F9
330
245FA
330
245FB
330
245FC
330
245FD
330
245FE
330
245FF
330
24600
330
24601
330
24602
330
24603
330
24604
330
24605
330
24606
330
24607
330
24608
330
24609
330
2460A
330
2460B
330
2460C
330
2460D
330
2460E
330
2460F
330
24610
330
24611
330
24612
330
24613
330
24614
330
24615
330
24616
330
24617
330
24618
330
24619
330
2461A
330
2461B
330
2461C
330
2461D
330
2461E
330
2461F
330
24620
330
24621
330
24622
330
24623
330
24624
330
24625
330
24626
330
24627
330
24628
330
24629
330
2462A
330
2462B
330
2462C
330
2462D
330
2462E
330
2462F
330
24630
330
24631
330
24632
330
24633
330
24634
330
24635
330
24636
330
24637
330
24638
330
24639
330
2463A
330
2463B
330
2463C
330
2463D
330
2463E
330
2463F
330
24640
330
24641
330
24642
330
24643
330
24644
330
24645
330
24646
330
24647
330
24648
330
24649
330
2464A
330
2464B
330
2464C
330
2464D
330
2464E
330
2464F
330
24650
330
24651
330
24652
330
24653
330
24654
330
24655
330
24656
330
24657
330
24658
330
24659
330
2465A
330
2465B
330
2465C
330
2465D
330
2465E
330
2465F
330
24660
330
24661
330
24662
330
24663
330
24664
330
24665
330
24666
330
24667
330
24668
330
24669
330
2466A
330
2466B
330
2466C
330
2466D
330
2466E
330
2466F
330
24670
330
24671
330
24672
330
24673
330
24674
330
24675
330
24676
330
24677
330
24678
330
24679
330
2467A
330
2467B
330
2467C
330
2467D
330
2467E
330
2467F
330
24680
330
24681
330
24682
330
24683
330
24684
330
24685
330
24686
330
24687
330
24688
330
24689
330
2468A
330
2468B
330
2468C
330
2468D
330
2468E
  0
IDBUFFER
  5
21C71
330
0
100
AcDbIdBuffer
  0
IDBUFFER
  5
21C72
330
0
100
AcDbIdBuffer
330
18C70
330
18C71
330
18C72
330
18C73
330
18C74
330
18C75
330
18C76
330
18C77
330
18C78
330
18C79
330
18C7A
330
18C7B
330
18C7C
330
18C7D
330
18C7E
330
18C7F
330
18C80
330
18C81
330
18C82
330
18C83
330
18C84
330
18C85
330
18C86
330
18C87
330
18C88
330
18C89
330
18C8A
330
18C8B
330
18C8C
330
18C8D
330
18C8E
330
24690
330
24692
330
24695
330
24696
330
24697
330
24698
330
2469A
330
2469B
330
2469C
330
2469D
330
2469F
330
246A0
330
246A1
330
246A2
330
246A4
330
246A5
330
246A6
330
246A7
330
246A9
330
246AA
330
246AB
330
246AC
330
246AE
330
246AF
330
246B0
330
246B1
330
25688
330
25693
330
2569F
330
256AB
330
256B8
  0
IDBUFFER
  5
21C73
330
0
100
AcDbIdBuffer
330
D622
330
D62D
330
1A47B
330
1A47C
330
1C446
330
1C447
330
1ECBE
330
1ECBF
330
20AE8
330
20AE9
330
20B74
330
22CDD
330
22CDE
330
22CDF
330
244F2
330
244F3
  0
IDBUFFER
  5
21C74
330
0
100
AcDbIdBuffer
330
20A1
330
21E1
330
21E8
330
950E
330
9515
330
9538
330
18CB4
330
18CB5
330
18CB6
330
1A473
330
1A474
330
1A475
330
1A476
330
1A477
330
1A478
330
1C43E
330
1C43F
330
1C440
330
1C441
330
1C442
330
1C443
330
1ECB6
330
1ECB7
330
1ECB8
330
1ECB9
330
1ECBA
330
1ECBB
330
20AE0
330
20AE1
330
20AE2
330
20AE3
330
20AE4
330
20AE5
330
22CD5
330
22CD6
330
22CD7
330
22CD8
330
22CD9
330
22CDA
330
244E5
330
244E6
330
244E7
330
244EA
330
244EB
330
244EC
330
2454A
330
2490D
330
2490E
330
24910
330
24D23
330
24D30
330
24D3D
330
24D4C
330
24D59
330
24D66
330
24D73
330
24D80
330
24D9A
330
24DA7
330
24DB4
330
24DC1
330
24DC5
330
24DC7
330
24DC9
  0
IDBUFFER
  5
21C7D
330
0
100
AcDbIdBuffer
330
18C6F
330
21EA1
330
24C9C
330
252A1
330
252A2
330
252A3
330
252A4
330
252A5
330
252A6
330
252A7
330
252A8
330
252A9
330
252AA
330
252AB
330
252AC
330
252AD
330
252AE
330
252AF
330
252B0
330
252B1
330
252B2
330
252B3
330
252B4
330
252B5
330
252B6
330
252B7
330
252B8
330
252B9
330
252BA
330
252BB
330
252BC
330
252BD
330
252BE
330
252BF
330
252C0
330
252C1
330
252C2
330
252C3
330
252C4
330
252C5
330
252C6
330
252C7
330
252C8
330
252C9
330
252CA
330
252CB
330
252CC
330
252CD
330
252CE
330
252CF
330
252D0
330
252D1
330
252D2
330
252D3
330
252D4
330
252D5
330
252D6
330
252D7
330
252D8
330
252D9
330
252DA
330
252DB
330
252DC
330
252DD
330
252DE
330
252DF
330
252E0
330
252E1
330
252E2
330
252E3
330
252E4
330
252E5
330
252E6
330
252E7
330
252E8
330
252E9
330
252EA
330
252EB
330
252EC
330
252ED
330
252EE
330
252EF
330
252F0
330
252F1
330
252F2
330
252F3
330
252F4
330
252F5
330
252F6
330
252F7
330
252F8
330
252F9
330
252FA
330
252FB
330
252FC
330
252FD
330
252FE
330
252FF
330
25300
330
25301
330
25302
330
25303
330
25304
330
25305
330
25306
330
25307
330
25308
330
25309
330
2530A
330
2530B
330
2530C
330
2530D
330
2530E
330
2530F
330
25310
330
25311
330
25312
330
25313
330
25314
330
25315
330
25316
330
25317
330
25318
330
25319
330
2531A
330
2531B
330
2531C
330
2531D
330
2531E
330
2531F
330
25320
330
25321
330
25322
330
25323
330
25324
330
25325
330
25326
330
25327
330
25328
330
25329
330
2532A
330
2532B
330
2532C
330
2532D
330
2532E
330
2532F
330
25330
330
25331
330
2548C
330
25578
  0
IDBUFFER
  5
21C7F
330
0
100
AcDbIdBuffer
330
25684
330
25685
330
25686
330
25687
330
25689
330
2568A
330
2568B
330
2568C
330
2568D
330
2568E
330
2568F
330
25690
330
25691
330
25692
330
25694
330
25695
330
25696
330
25697
330
25698
330
25699
330
2569A
330
2569B
330
2569C
330
2569D
330
2569E
330
256A0
330
256A1
330
256A2
330
256A3
330
256A4
330
256A5
330
256A6
330
256A7
330
256A8
330
256A9
330
256AA
330
256AC
330
256AD
330
256AE
330
256AF
330
256B0
330
256B1
330
256B2
330
256B3
330
256B4
330
256B5
330
256B6
330
256B7
330
256B9
330
256BA
330
256BB
330
256BC
330
256BD
330
256BE
330
256BF
  0
IDBUFFER
  5
21C84
330
0
100
AcDbIdBuffer
  0
ENDSEC
  0
EOF
