  0
SECTION
  2
HEADER
  9
$ACADVER
  1
AC1012
  9
$DWGCODEPAGE
  3
big5
  9
$INSBASE
 10
0.0
 20
0.0
 30
0.0
  9
$EXTMIN
 10
2288.510831953589
 20
-119.0877837781733
 30
0.0
  9
$EXTMAX
 10
2545.855176738358
 20
125.0723218711918
 30
0.0000000000000284
  9
$LIMMIN
 10
0.0
 20
0.0
  9
$LIMMAX
 10
420.0
 20
297.0
  9
$ORTHOMODE
 70
     0
  9
$REGENMODE
 70
     1
  9
$FILLMODE
 70
     1
  9
$QTEXTMODE
 70
     0
  9
$MIRRTEXT
 70
     1
  9
$DRAGMODE
 70
     2
  9
$LTSCALE
 40
7.0
  9
$OSMODE
 70
    55
  9
$ATTMODE
 70
     1
  9
$TEXTSIZE
 40
10.0
  9
$TRACEWID
 40
1.0
  9
$TEXTSTYLE
  7
DAYUS
  9
$CLAYER
  8
0
  9
$CELTYPE
  6
BYLAYER
  9
$CECOLOR
 62
   256
  9
$CELTSCALE
 40
1.0
  9
$DELOBJ
 70
     1
  9
$DISPSILH
 70
     0
  9
$DIMSCALE
 40
1.0
  9
$DIMASZ
 40
3.0
  9
$DIMEXO
 40
1.5
  9
$DIMDLI
 40
7.0
  9
$DIMRND
 40
0.0
  9
$DIMDLE
 40
0.0
  9
$DIMEXE
 40
2.0
  9
$DIMTP
 40
0.01
  9
$DIMTM
 40
0.01
  9
$DIMTXT
 40
3.0
  9
$DIMCEN
 40
3.0
  9
$DIMTSZ
 40
0.0
  9
$DIMTOL
 70
     0
  9
$DIMLIM
 70
     0
  9
$DIMTIH
 70
     0
  9
$DIMTOH
 70
     0
  9
$DIMSE1
 70
     0
  9
$DIMSE2
 70
     0
  9
$DIMTAD
 70
     3
  9
$DIMZIN
 70
     8
  9
$DIMBLK
  1

  9
$DIMASO
 70
     1
  9
$DIMSHO
 70
     1
  9
$DIMPOST
  1

  9
$DIMAPOST
  1

  9
$DIMALT
 70
     0
  9
$DIMALTD
 70
     2
  9
$DIMALTF
 40
25.4
  9
$DIMLFAC
 40
1.0
  9
$DIMTOFL
 70
     1
  9
$DIMTVP
 40
0.0
  9
$DIMTIX
 70
     0
  9
$DIMSOXD
 70
     0
  9
$DIMSAH
 70
     0
  9
$DIMBLK1
  1

  9
$DIMBLK2
  1

  9
$DIMSTYLE
  2
STANDARD
  9
$DIMCLRD
 70
     5
  9
$DIMCLRE
 70
     5
  9
$DIMCLRT
 70
     5
  9
$DIMTFAC
 40
0.6
  9
$DIMGAP
 40
0.8
  9
$DIMJUST
 70
     0
  9
$DIMSD1
 70
     0
  9
$DIMSD2
 70
     0
  9
$DIMTOLJ
 70
     1
  9
$DIMTZIN
 70
     8
  9
$DIMALTZ
 70
     0
  9
$DIMALTTZ
 70
     0
  9
$DIMFIT
 70
     3
  9
$DIMUPT
 70
     0
  9
$DIMUNIT
 70
     2
  9
$DIMDEC
 70
     2
  9
$DIMTDEC
 70
     2
  9
$DIMALTU
 70
     2
  9
$DIMALTTD
 70
     2
  9
$DIMTXSTY
  7
DAYUS
  9
$DIMAUNIT
 70
     0
  9
$LUNITS
 70
     2
  9
$LUPREC
 70
     2
  9
$SKETCHINC
 40
1.0
  9
$FILLETRAD
 40
2.5
  9
$AUNITS
 70
     0
  9
$AUPREC
 70
     0
  9
$MENU
  1
.
  9
$ELEVATION
 40
0.0
  9
$PELEVATION
 40
0.0
  9
$THICKNESS
 40
0.0
  9
$LIMCHECK
 70
     0
  9
$BLIPMODE
 70
     0
  9
$CHAMFERA
 40
2.5
  9
$CHAMFERB
 40
2.5
  9
$CHAMFERC
 40
20.0
  9
$CHAMFERD
 40
0.0
  9
$SKPOLY
 70
     0
  9
$TDCREATE
 40
2452292.457678333
  9
$TDUPDATE
 40
2452705.592027419
  9
$TDINDWG
 40
1.9614968634
  9
$TDUSRTIMER
 40
1.9614967477
  9
$USRTIMER
 70
     1
  9
$ANGBASE
 50
0.0
  9
$ANGDIR
 70
     0
  9
$PDMODE
 70
     0
  9
$PDSIZE
 40
0.0
  9
$PLINEWID
 40
0.0
  9
$COORDS
 70
     0
  9
$SPLFRAME
 70
     0
  9
$SPLINETYPE
 70
     6
  9
$SPLINESEGS
 70
     8
  9
$ATTDIA
 70
     1
  9
$ATTREQ
 70
     1
  9
$HANDLING
 70
 22529
  9
$HANDSEED
  5
26B2B
  9
$SURFTAB1
 70
     6
  9
$SURFTAB2
 70
     6
  9
$SURFTYPE
 70
     6
  9
$SURFU
 70
     6
  9
$SURFV
 70
     6
  9
$UCSNAME
  2

  9
$UCSORG
 10
0.0
 20
0.0
 30
0.0
  9
$UCSXDIR
 10
1.0
 20
0.0
 30
0.0
  9
$UCSYDIR
 10
0.0
 20
1.0
 30
0.0
  9
$PUCSNAME
  2

  9
$PUCSORG
 10
0.0
 20
0.0
 30
0.0
  9
$PUCSXDIR
 10
1.0
 20
0.0
 30
0.0
  9
$PUCSYDIR
 10
0.0
 20
1.0
 30
0.0
  9
$USERI1
 70
     0
  9
$USERI2
 70
     0
  9
$USERI3
 70
     0
  9
$USERI4
 70
     0
  9
$USERI5
 70
     0
  9
$USERR1
 40
0.0
  9
$USERR2
 40
0.0
  9
$USERR3
 40
0.0
  9
$USERR4
 40
0.0
  9
$USERR5
 40
0.0
  9
$WORLDVIEW
 70
     1
  9
$SHADEDGE
 70
     3
  9
$SHADEDIF
 70
    70
  9
$TILEMODE
 70
     1
  9
$MAXACTVP
 70
    48
  9
$PINSBASE
 10
0.0
 20
0.0
 30
0.0
  9
$PLIMCHECK
 70
     0
  9
$PEXTMIN
 10
1.000000000000000E+20
 20
1.000000000000000E+20
 30
1.000000000000000E+20
  9
$PEXTMAX
 10
-1.000000000000000E+20
 20
-1.000000000000000E+20
 30
-1.000000000000000E+20
  9
$PLIMMIN
 10
0.0
 20
0.0
  9
$PLIMMAX
 10
420.0
 20
297.0
  9
$UNITMODE
 70
     0
  9
$VISRETAIN
 70
     1
  9
$PLINEGEN
 70
     0
  9
$PSLTSCALE
 70
     1
  9
$TREEDEPTH
 70
  3020
  9
$PICKSTYLE
 70
     0
  9
$CMLSTYLE
  2
STANDARD
  9
$CMLJUST
 70
     0
  9
$CMLSCALE
 40
20.0
  9
$SAVEIMAGES
 70
     1
  0
ENDSEC
  0
SECTION
  2
CLASSES
  0
CLASS
  1
ACDBDICTIONARYWDFLT
  2
AcDbDictionaryWithDefault
  3
AutoCAD 2000
 90
    32768
280
     0
281
     0
  0
CLASS
  1
ACDBPLACEHOLDER
  2
AcDbPlaceHolder
  3
AutoCAD 2000
 90
    32768
280
     0
281
     0
  0
CLASS
  1
LAYOUT
  2
AcDbLayout
  3
AutoCAD 2000
 90
    32768
280
     0
281
     0
  0
CLASS
  1
AMGSETTINGSOBJ
  2
AmgSettingsObj
  3
"AcadM|Product Description: AutoCAD Mechanical 2000|Company: Autodesk"
 90
    32768
280
     0
281
     0
  0
CLASS
  1
ACME_DOCUMENT
  2
AcMeDbDoc
  3
AcMeServices
 90
    32768
280
     0
281
     0
  0
CLASS
  1
ACMESCOPE
  2
AcMeScope
  3
AcMeServices
 90
    32768
280
     0
281
     0
  0
CLASS
  1
ACMECOMMANDHISTORY
  2
AcMeCommandHistory
  3
AcMeServices
 90
    32768
280
     0
281
     0
  0
CLASS
  1
DICTIONARYVAR
  2
AcDbDictionaryVar
  3
AutoCAD 2000
 90
    32768
280
     0
281
     0
  0
CLASS
  1
ACIMSYSVARMAN
  2
AcImSysVarManager
  3
AcMeServices
 90
    32768
280
     0
281
     0
  0
CLASS
  1
ACIMREALSYSVAR
  2
AcImRealSysVar
  3
AcMeServices
 90
    32768
280
     0
281
     0
  0
CLASS
  1
ACIMINTSYSVAR
  2
AcImIntSysVar
  3
AcMeServices
 90
    32768
280
     0
281
     0
  0
CLASS
  1
ACMEDRAWINGMAN
  2
AcMeDrawingMan
  3
AcMeServices
 90
    32768
280
     0
281
     0
  0
CLASS
  1
ACMEVIEW
  2
AcMeView
  3
AcMeServices
 90
    32768
280
     0
281
     0
  0
CLASS
  1
ACDBENTITYCACHE
  2
AcMeEntityCache
  3
AcMeServices
 90
    32768
280
     0
281
     0
  0
CLASS
  1
GSMANAGER
  2
AcMeGSManager
  3
AcMeServices
 90
    32768
280
     0
281
     0
  0
CLASS
  1
AMDTINTERNALREACTOR
  2
AmdtInternalReactor
  3
AcMeServices
 90
    32768
280
     0
281
     0
  0
CLASS
  1
ACMESTATEMGR
  2
AcMeStateMgr
  3
AcMeServices
 90
    32768
280
     0
281
     0
  0
CLASS
  1
ACME_DATABASE
  2
AcMeDbDatabase
  3
AcMeServices
 90
    32768
280
     0
281
     0
  0
CLASS
  1
ACRFINSADJUSTERMGR
  2
AcRfInsAdjusterMgr
  3
AcMeServices
 90
    32768
280
     0
281
     0
  0
CLASS
  1
ACMDATADICTIONARY
  2
AcmDataDictionary
  3
"AcmSymBB|Product Description: AutoCAD Mechanical 2000|Company: Autodesk"
 90
    32768
280
     0
281
     0
  0
CLASS
  1
ACMDATAENTRYBLOCK
  2
AcmDataEntryBlock
  3
"AcmSymBB|Product Description: AutoCAD Mechanical 2000|Company: Autodesk"
 90
    32768
280
     0
281
     0
  0
CLASS
  1
AMGOBJPROPCFG
  2
AmgObjPropCfg
  3
"AmgLay|Product Description: AutoCAD Mechanical 2000|Company: Autodesk"
 90
    32769
280
     0
281
     0
  0
CLASS
  1
ACAMGFILTERDAT
  2
AcAmgFilterDat
  3
"AcadM|Product Description: AutoCAD Mechanical 2000|Company: Autodesk"
 90
    32768
280
     0
281
     0
  0
CLASS
  1
LAYER_INDEX
  2
AcDbLayerIndex
  3
AutoCAD 2000
 90
    32768
280
     0
281
     0
  0
CLASS
  1
IDBUFFER
  2
AcDbIdBuffer
  3
AutoCAD 2000
 90
    32768
280
     0
281
     0
  0
CLASS
  1
ACIMSTRSYSVAR
  2
AcImStrSysVar
  3
AcMeServices
 90
    32768
280
     0
281
     0
  0
CLASS
  1
ACMSTANDARDISO
  2
AcmStandardISO
  3
"Amdt_StdImp|Product Description: AutoCAD Mechanical 2000|Company: Autodesk"
 90
    32768
280
     0
281
     0
  0
CLASS
  1
AMDTEDGESTANDARDISO
  2
AmdtEdgeStdISO
  3
"Amdt_StdImp|Product Description: AutoCAD Mechanical 2000|Company: Autodesk"
 90
    32768
280
     0
281
     0
  0
CLASS
  1
ACMSURFSTANDARDISO
  2
AcmSurfTextStdISO
  3
"Amdt_StdImp|Product Description: AutoCAD Mechanical 2000|Company: Autodesk"
 90
    32768
280
     0
281
     0
  0
CLASS
  1
ACMFCFSTANDARDISO
  2
AcmFCFStdISO
  3
"Amdt_StdImp|Product Description: AutoCAD Mechanical 2000|Company: Autodesk"
 90
    32768
280
     0
281
     0
  0
CLASS
  1
ACMWELDSTANDARDISO
  2
AcmWeldingStdISO
  3
"Amdt_StdImp|Product Description: AutoCAD Mechanical 2000|Company: Autodesk"
 90
    32768
280
     0
281
     0
  0
CLASS
  1
ACMIDSTANDARDISO
  2
AcmIdStdISO
  3
"Amdt_StdImp|Product Description: AutoCAD Mechanical 2000|Company: Autodesk"
 90
    32768
280
     0
281
     0
  0
CLASS
  1
ACMDATUMSTANDARDISO
  2
AcmDatumStdISO
  3
"Amdt_StdImp|Product Description: AutoCAD Mechanical 2000|Company: Autodesk"
 90
    32768
280
     0
281
     0
  0
CLASS
  1
ACMBOMSTANDARDISO
  2
AcmBOMStdISO
  3
"Amdt_StdImp|Product Description: AutoCAD Mechanical 2000|Company: Autodesk"
 90
    32768
280
     0
281
     0
  0
CLASS
  1
AMDTNOTE
  2
AmdtNote
  3
"AcmSymBB|Product Description: AutoCAD Mechanical 2000|Company: Autodesk"
 90
    33791
280
     0
281
     1
  0
CLASS
  1
ACGREFMASTER
  2
AcGrefMaster
  3
AcAttribServices
 90
    32768
280
     0
281
     0
  0
CLASS
  1
ACGREFACADMASTER
  2
AcGrefacadMaster
  3
AcGrefServices
 90
    32768
280
     0
281
     0
  0
CLASS
  1
AMIMASTER
  2
AmiMaster
  3
AmiServices
 90
    32768
280
     0
281
     0
  0
CLASS
  1
ACAMGTITLESTD
  2
AcAmgTitleStd
  3
"TITLEAPP"
 90
    32768
280
     0
281
     0
  0
CLASS
  1
ACMDETAILSTANDARDISO
  2
AmdtDetailSymStdISO
  3
"Amdt_StdImp|Product Description: AutoCAD Mechanical 2000|Company: Autodesk"
 90
    32768
280
     0
281
     0
  0
CLASS
  1
ACMSECTIONSTANDARDISO
  2
AmdtSectionSymStdISO
  3
"Amdt_StdImp|Product Description: AutoCAD Mechanical 2000|Company: Autodesk"
 90
    32768
280
     0
281
     0
  0
CLASS
  1
ACMCENTERLINESTANDARDISO
  2
AmdtCenterLineStdISO
  3
"Amdt_StdImp|Product Description: AutoCAD Mechanical 2000|Company: Autodesk"
 90
    32768
280
     0
281
     0
  0
CLASS
  1
ACMNOTESTANDARDISO
  2
AmdtNoteStdISO
  3
"Amdt_StdImp|Product Description: AutoCAD Mechanical 2000|Company: Autodesk"
 90
    32768
280
     0
281
     0
  0
CLASS
  1
ACAMGLAYSTD
  2
AcAmgLayStd
  3
"AcAmgLayStd|Product Description: AutoCAD Mechanical 2000|Company: Autodesk"
 90
    32768
280
     0
281
     0
  0
CLASS
  1
ACAMGDIMSTD
  2
AcAmgDimStd
  3
"AcAmgDimStd|Product Description: AutoCAD Mechanical 2000|Company: Autodesk"
 90
    32768
280
     0
281
     0
  0
CLASS
  1
ACAMGHOLECHARTSTDISO
  2
AcAmgHoleChartStdISO
  3
ACMSYMBB_MODULE_NAME
 90
    32768
280
     0
281
     0
  0
CLASS
  1
AMDTFORMULAUPDATEDISPATCHER
  2
AmdtFormulaUpdateDispatcher
  3
AcMeServices
 90
    32768
280
     0
281
     0
  0
CLASS
  1
ACMSTANDARDANSI
  2
AcmStandardANSI
  3
"Amdt_StdImp|Product Description: AutoCAD Mechanical 2000|Company: Autodesk"
 90
    32768
280
     0
281
     0
  0
CLASS
  1
ACMSURFSTANDARDANSI
  2
AcmSurfTextStdANSI
  3
"Amdt_StdImp|Product Description: AutoCAD Mechanical 2000|Company: Autodesk"
 90
    32768
280
     0
281
     0
  0
CLASS
  1
ACMFCFSTANDARDANSI
  2
AcmFCFStdANSI
  3
"Amdt_StdImp|Product Description: AutoCAD Mechanical 2000|Company: Autodesk"
 90
    32768
280
     0
281
     0
  0
CLASS
  1
ACMWELDSTANDARDANSI
  2
AcmWeldingStdANSI
  3
"Amdt_StdImp|Product Description: AutoCAD Mechanical 2000|Company: Autodesk"
 90
    32768
280
     0
281
     0
  0
CLASS
  1
ACMIDSTANDARDANSI
  2
AcmIdStdANSI
  3
"Amdt_StdImp|Product Description: AutoCAD Mechanical 2000|Company: Autodesk"
 90
    32768
280
     0
281
     0
  0
CLASS
  1
ACMDATUMSTANDARDANSI
  2
AcmDatumStdANSI
  3
"Amdt_StdImp|Product Description: AutoCAD Mechanical 2000|Company: Autodesk"
 90
    32768
280
     0
281
     0
  0
CLASS
  1
ACMBOMSTANDARDANSI
  2
AcmBOMStdANSI
  3
"Amdt_StdImp|Product Description: AutoCAD Mechanical 2000|Company: Autodesk"
 90
    32768
280
     0
281
     0
  0
CLASS
  1
ACMDETAILSTANDARDANSI
  2
AmdtDetailSymStdANSI
  3
"Amdt_StdImp|Product Description: AutoCAD Mechanical 2000|Company: Autodesk"
 90
    32768
280
     0
281
     0
  0
CLASS
  1
ACMSECTIONSTANDARDANSI
  2
AmdtSectionSymStdANSI
  3
"Amdt_StdImp|Product Description: AutoCAD Mechanical 2000|Company: Autodesk"
 90
    32768
280
     0
281
     0
  0
CLASS
  1
ACMCENTERLINESTANDARDANSI
  2
AmdtCenterLineStdANSI
  3
"Amdt_StdImp|Product Description: AutoCAD Mechanical 2000|Company: Autodesk"
 90
    32768
280
     0
281
     0
  0
CLASS
  1
ACMNOTESTANDARDANSI
  2
AmdtNoteStdANSI
  3
"Amdt_StdImp|Product Description: AutoCAD Mechanical 2000|Company: Autodesk"
 90
    32768
280
     0
281
     0
  0
CLASS
  1
ACAMGHOLECHARTSTDANSI
  2
AcAmgHoleChartStdANSI
  3
ACMSYMBB_MODULE_NAME
 90
    32768
280
     0
281
     0
  0
CLASS
  1
DIMASSOC
  2
AcDbDimAssoc
  3
"AcDbDimAssoc|Product Desc:     AcDim ARX App For Dimension|Company:          Autodesk, Inc.|WEB Address:      www.autodesk.com"
 90
    32768
280
     0
281
     0
  0
CLASS
  1
ACDB_PROXY_ENTITY_DATA
  2
AcDbProxyEntityData
  3
AutoCAD 2000
 90
    32768
280
     0
281
     0
  0
CLASS
  1
ACAD_PROXY_OBJECT_WRAPPER
  2
AcDbProxyObjectWrapper
  3
AutoCAD 2000
 90
    32768
280
     0
281
     0
  0
CLASS
  1
ACAD_PROXY_ENTITY_WRAPPER
  2
AcDbProxyEntityWrapper
  3
AutoCAD 2000
 90
    32768
280
     0
281
     1
  0
CLASS
  1
LONG_TRANSACTION
  2
AcDbLongTransaction
  3
AutoCAD 2000
 90
    32768
280
     0
281
     0
  0
CLASS
  1
LWPOLYLINE
  2
AcDbPolyline
  3
AutoCAD 2000
 90
    32768
280
     0
281
     1
  0
CLASS
  1
HATCH
  2
AcDbHatch
  3
AutoCAD 2000
 90
    32768
280
     0
281
     1
  0
CLASS
  1
XRECORD
  2
AcDbXrecord
  3
AutoCAD 2000
 90
    32768
280
     0
281
     0
  0
CLASS
  1
LONG_TRANSACTION
  2
AcDbLongTransaction
  3
AutoCAD 2000
 90
    32768
280
     0
281
     0
  0
CLASS
  1
LWPOLYLINE
  2
AcDbPolyline
  3
AutoCAD 2000
 90
    32768
280
     0
281
     1
  0
CLASS
  1
HATCH
  2
AcDbHatch
  3
AutoCAD 2000
 90
    32768
280
     0
281
     1
  0
CLASS
  1
XRECORD
  2
AcDbXrecord
  3
AutoCAD 2000
 90
    32768
280
     0
281
     0
  0
ENDSEC
  0
SECTION
  2
TABLES
  0
TABLE
  2
VPORT
  5
8
330
0
100
AcDbSymbolTable
 70
     5
  0
VPORT
  5
26B12
330
8
100
AcDbSymbolTableRecord
100
AcDbViewportTableRecord
  2
*ACTIVE
 70
     0
 10
0.0
 20
0.0
 11
1.0
 21
1.0
 12
2417.269345318338
 22
5.691305936993927
 13
0.0
 23
0.0
 14
2.5
 24
2.5
 15
10.0
 25
10.0
 16
0.0
 26
0.0
 36
1.0
 17
0.0
 27
0.0
 37
0.0
 40
252.5813096253003
 41
1.765124555160142
 42
50.0
 43
0.0
 44
0.0
 50
0.0
 51
0.0
 71
     0
 72
   100
 73
     1
 74
     3
 75
     0
 76
     0
 77
     0
 78
     1
  0
ENDTAB
  0
TABLE
  2
LTYPE
  5
5
330
0
100
AcDbSymbolTable
 70
    17
  0
LTYPE
  5
14
330
5
100
AcDbSymbolTableRecord
100
AcDbLinetypeTableRecord
  2
BYBLOCK
 70
     0
  3

 72
    65
 73
     0
 40
0.0
  0
LTYPE
  5
15
330
5
100
AcDbSymbolTableRecord
100
AcDbLinetypeTableRecord
  2
BYLAYER
 70
     0
  3

 72
    65
 73
     0
 40
0.0
  0
LTYPE
  5
16
330
5
100
AcDbSymbolTableRecord
100
AcDbLinetypeTableRecord
  2
CONTINUOUS
 70
     0
  3
Solid line
 72
    65
 73
     0
 40
0.0
  0
LTYPE
  5
4B
330
5
100
AcDbSymbolTableRecord
100
AcDbLinetypeTableRecord
  2
AM_ISO02W050
 70
     0
  3
__ __ __ __ __ __ __ __ __ __ __ __ __ __ __
 72
    65
 73
     2
 40
7.5
 49
6.0
 74
     0
 49
-1.5
 74
     0
  0
LTYPE
  5
4C
330
5
100
AcDbSymbolTableRecord
100
AcDbLinetypeTableRecord
  2
AM_ISO08W050
 70
     0
  3
____ . ____ . ____ . ____ . ____ . ____ . ____
 72
    65
 73
     4
 40
18.0
 49
12.0
 74
     0
 49
-1.5
 74
     0
 49
3.0
 74
     0
 49
-1.5
 74
     0
  0
LTYPE
  5
4D
330
5
100
AcDbSymbolTableRecord
100
AcDbLinetypeTableRecord
  2
AM_ISO09W050
 70
     0
  3
_____ . . _____ . . _____ . . ____ .. ____
 72
    65
 73
     6
 40
22.5
 49
12.0
 74
     0
 49
-1.5
 74
     0
 49
3.0
 74
     0
 49
-1.5
 74
     0
 49
3.0
 74
     0
 49
-1.5
 74
     0
  0
LTYPE
  5
4E
330
5
100
AcDbSymbolTableRecord
100
AcDbLinetypeTableRecord
  2
AMCONSTR
 70
     0
  3
_______________________
 72
    65
 73
     2
 40
9999.0
 49
9999.0
 74
     0
 49
0.0
 74
     0
  0
LTYPE
  5
4F
330
5
100
AcDbSymbolTableRecord
100
AcDbLinetypeTableRecord
  2
AM_ISO02W050X2
 70
     0
  3
 _ _ _ _ _ _ _ _ _ _ _ _
 72
    65
 73
     2
 40
3.75
 49
3.0
 74
     0
 49
-0.75
 74
     0
  0
LTYPE
  5
50
330
5
100
AcDbSymbolTableRecord
100
AcDbLinetypeTableRecord
  2
AM_ISO08W050X2
 70
     0
  3
__ . __ . __ . __ . __ . __
 72
    65
 73
     4
 40
9.0
 49
6.0
 74
     0
 49
-0.75
 74
     0
 49
1.5
 74
     0
 49
-0.75
 74
     0
  0
LTYPE
  5
53
330
5
100
AcDbSymbolTableRecord
100
AcDbLinetypeTableRecord
  2
AMZIGZAG
 70
     0
  3
/\/-/\/-/\/-/\/-/\/-/\/
 72
    65
 73
     2
 40
11.00009999999999
 49
0.0001
 74
     4
 75
   135
340
52
 46
0.04
 50
0.0
 44
0.0
 45
0.0
 49
-11.0
 74
     0
  0
LTYPE
  5
144B
330
5
100
AcDbSymbolTableRecord
100
AcDbLinetypeTableRecord
  2
ACISOWELD
 70
     0
  3
_ _ _ _ _
 72
    65
 73
     2
 40
2.0
 49
2.0
 74
     0
 49
-1.0
 74
     0
  0
LTYPE
  5
144C
330
5
100
AcDbSymbolTableRecord
100
AcDbLinetypeTableRecord
  2
ACISOTGB
 70
     0
  3
__ . . __ . .
 72
    65
 73
     6
 40
9.0
 49
4.0
 74
     0
 49
-1.0
 74
     0
 49
1.0
 74
     0
 49
-1.0
 74
     0
 49
1.0
 74
     0
 49
-1.0
 74
     0
  0
LTYPE
  5
144D
330
5
100
AcDbSymbolTableRecord
100
AcDbLinetypeTableRecord
  2
ACISOTGL
 70
     0
  3
_ _ _ _ _
 72
    65
 73
     2
 40
3.0
 49
2.0
 74
     0
 49
-1.0
 74
     0
  0
LTYPE
  5
1C34
330
5
100
AcDbSymbolTableRecord
100
AcDbLinetypeTableRecord
  2
HIDDEN
 70
     0
  3
Hidden __ __ __ __ __ __ __ __ __ __ __ __ __ _
 72
    65
 73
     2
 40
0.375
 49
0.25
 74
     0
 49
-0.125
 74
     0
  0
LTYPE
  5
1C35
330
5
100
AcDbSymbolTableRecord
100
AcDbLinetypeTableRecord
  2
CENTER
 70
     0
  3
Center ____ _ ____ _ ____ _ ____ _ ____ _ ____
 72
    65
 73
     4
 40
2.0
 49
1.25
 74
     0
 49
-0.25
 74
     0
 49
0.25
 74
     0
 49
-0.25
 74
     0
  0
LTYPE
  5
B899
330
5
100
AcDbSymbolTableRecord
100
AcDbLinetypeTableRecord
  2
PHANTOM2
 70
     0
  3
Phantom (.5x) ___ _ _ ___ _ _ ___ _ _ ___ _ _
 72
    65
 73
     6
 40
31.75
 49
15.875
 74
     0
 49
-3.174999999999999
 74
     0
 49
3.174999999999999
 74
     0
 49
-3.174999999999999
 74
     0
 49
3.174999999999999
 74
     0
 49
-3.174999999999999
 74
     0
  0
LTYPE
  5
BE57
330
5
100
AcDbSymbolTableRecord
100
AcDbLinetypeTableRecord
  2
HIDDEN2
 70
     0
  3
Hidden (.5x) _ _ _ _ _ _ _ _ _ _ _ _ _ _ _ _ _
 72
    65
 73
     2
 40
0.1875
 49
0.125
 74
     0
 49
-0.0625
 74
     0
  0
LTYPE
  5
BE5A
330
5
100
AcDbSymbolTableRecord
100
AcDbLinetypeTableRecord
  2
ACANSTGB
 70
     0
  3
__ . . __ . .
 72
    65
 73
     6
 40
0.35433070866
 49
0.15748031496
 74
     0
 49
-0.03937007874
 74
     0
 49
0.03937007874
 74
     0
 49
-0.03937007874
 74
     0
 49
0.03937007874
 74
     0
 49
-0.03937007874
 74
     0
  0
LTYPE
  5
BE5B
330
5
100
AcDbSymbolTableRecord
100
AcDbLinetypeTableRecord
  2
ACANSTGL
 70
     0
  3
_ _ _ _ _
 72
    65
 73
     2
 40
0.11811023622
 49
0.07874015748
 74
     0
 49
-0.03937007874
 74
     0
  0
ENDTAB
  0
TABLE
  2
LAYER
  5
2
330
0
100
AcDbSymbolTable
 70
     9
  0
LAYER
  5
10
330
2
100
AcDbSymbolTableRecord
100
AcDbLayerTableRecord
  2
0
 70
     0
 62
     7
  6
CONTINUOUS
  0
LAYER
  5
D1
330
2
100
AcDbSymbolTableRecord
100
AcDbLayerTableRecord
  2
AM_VIS
 70
     2
 62
     7
  6
CONTINUOUS
  0
LAYER
  5
450
330
2
100
AcDbSymbolTableRecord
100
AcDbLayerTableRecord
  2
DEFPOINTS
 70
     0
 62
    -7
  6
CONTINUOUS
  0
LAYER
  5
451
330
2
100
AcDbSymbolTableRecord
100
AcDbLayerTableRecord
  2
AM_7
 70
     0
 62
     1
  6
CENTER
  0
LAYER
  5
989
330
2
100
AcDbSymbolTableRecord
100
AcDbLayerTableRecord
  2
AM_5
 70
     0
 62
     5
  6
CONTINUOUS
  0
LAYER
  5
1C3A
330
2
100
AcDbSymbolTableRecord
100
AcDbLayerTableRecord
  2
AM_REFDIM
 70
     0
 62
     5
  6
CONTINUOUS
  0
LAYER
  5
188F9
330
2
100
AcDbSymbolTableRecord
100
AcDbLayerTableRecord
  2
LOGO
 70
     0
 62
     7
  6
CONTINUOUS
  0
LAYER
  5
188FB
330
2
100
AcDbSymbolTableRecord
100
AcDbLayerTableRecord
  2
AM_HID
 70
     0
 62
     5
  6
HIDDEN
  0
LAYER
  5
18900
330
2
100
AcDbSymbolTableRecord
100
AcDbLayerTableRecord
  2
AM_0N
 70
     0
 62
     7
  6
CONTINUOUS
  0
ENDTAB
  0
TABLE
  2
STYLE
  5
3
330
0
100
AcDbSymbolTable
 70
     9
  0
STYLE
  5
11
330
3
100
AcDbSymbolTableRecord
100
AcDbTextStyleTableRecord
  2
STANDARD
 70
     0
 40
0.0
 41
1.0
 50
0.0
 71
     0
 42
3.0
  3
ISOCP.SHX
  4
CHINESET.SHX
  0
STYLE
  5
52
330
3
100
AcDbSymbolTableRecord
100
AcDbTextStyleTableRecord
  2

 70
     1
 40
0.0
 41
1.0
 50
0.0
 71
     0
 42
2.5
  3
ltypeshp.shx
  4

  0
STYLE
  5
1442
330
3
100
AcDbSymbolTableRecord
100
AcDbTextStyleTableRecord
  2
ACISOTS
 70
     0
 40
1.0
 41
1.0
 50
0.0
 71
     0
 42
1.0
  3
isocp.shx
  4
chineset.shx
  0
STYLE
  5
144A
330
3
100
AcDbSymbolTableRecord
100
AcDbTextStyleTableRecord
  2
ACISOGDT
 70
     0
 40
0.0
 41
1.0
 50
0.0
 71
     0
 42
2.5
  3
amgdt.shx
  4

  0
STYLE
  5
167B
330
3
100
AcDbSymbolTableRecord
100
AcDbTextStyleTableRecord
  2
DAYUS
 70
     0
 40
0.0
 41
1.0
 50
0.0
 71
     0
 42
10.0
  3
simplex
  4
dayus
  0
STYLE
  5
BE5D
330
3
100
AcDbSymbolTableRecord
100
AcDbTextStyleTableRecord
  2
CHINESET
 70
     0
 40
0.0
 41
1.0
 50
0.0
 71
     0
 42
4.0
  3
simplex.shx
  4
chineset.shx
  0
STYLE
  5
BE5E
330
3
100
AcDbSymbolTableRecord
100
AcDbTextStyleTableRecord
  2
ACANSTS
 70
     0
 40
1.0
 41
1.0
 50
0.0
 71
     0
 42
1.5
  3
romans.shx
  4
chineset.shx
  0
STYLE
  5
BE5F
330
3
100
AcDbSymbolTableRecord
100
AcDbTextStyleTableRecord
  2
ACANSGDT
 70
     0
 40
0.0
 41
1.0
 50
0.0
 71
     0
 42
1.5
  3
amgdtans.shx
  4

  0
STYLE
  5
18905
330
3
100
AcDbSymbolTableRecord
100
AcDbTextStyleTableRecord
  2
LOGO
 70
     0
 40
0.0
 41
1.0
 50
0.0
 71
     0
 42
5.0
  3
LEI00DP.TTF
  4

1001
ACAD
1000
文鼎中粗隸
1071
    34865
  0
ENDTAB
  0
TABLE
  2
VIEW
  5
6
330
0
100
AcDbSymbolTable
 70
     0
  0
ENDTAB
  0
TABLE
  2
UCS
  5
7
330
0
100
AcDbSymbolTable
 70
     0
  0
ENDTAB
  0
TABLE
  2
APPID
  5
9
330
0
100
AcDbSymbolTable
 70
    39
  0
APPID
  5
12
330
9
100
AcDbSymbolTableRecord
100
AcDbRegAppTableRecord
  2
ACAD
 70
     0
  0
APPID
  5
30
330
9
100
AcDbSymbolTableRecord
100
AcDbRegAppTableRecord
  2
MCAD_NO_VIS
 70
     0
  0
APPID
  5
31
330
9
100
AcDbSymbolTableRecord
100
AcDbRegAppTableRecord
  2
ACAD_TEMP_GRAPHIC
 70
     0
  0
APPID
  5
455
330
9
100
AcDbSymbolTableRecord
100
AcDbRegAppTableRecord
  2
GENIUS_GENDTOL_13
 70
     0
  0
APPID
  5
6B34
330
9
100
AcDbSymbolTableRecord
100
AcDbRegAppTableRecord
  2
ACATTRIBSERVICES
 70
     0
  0
APPID
  5
F2C8
330
9
100
AcDbSymbolTableRecord
100
AcDbRegAppTableRecord
  2
GENIUS_GENDIMSH_14
 70
     0
  0
APPID
  5
12FCC
330
9
100
AcDbSymbolTableRecord
100
AcDbRegAppTableRecord
  2
GENIUS_GENREC_14
 70
     0
  0
APPID
  5
12FCD
330
9
100
AcDbSymbolTableRecord
100
AcDbRegAppTableRecord
  2
GENIUS_GENOBJ-N-REC_13
 70
     0
  0
APPID
  5
12FCE
330
9
100
AcDbSymbolTableRecord
100
AcDbRegAppTableRecord
  2
GENIUS_GENODEF_13
 70
     0
  0
APPID
  5
1890C
330
9
100
AcDbSymbolTableRecord
100
AcDbRegAppTableRecord
  2
GENIUS_GENFIL_13
 70
     0
  0
APPID
  5
1890D
330
9
100
AcDbSymbolTableRecord
100
AcDbRegAppTableRecord
  2
GENIUS_GENOBJ-N-CHA_13
 70
     0
  0
APPID
  5
1890E
330
9
100
AcDbSymbolTableRecord
100
AcDbRegAppTableRecord
  2
GENIUS_GENOBJ-N-FIL_13
 70
     0
  0
APPID
  5
1890F
330
9
100
AcDbSymbolTableRecord
100
AcDbRegAppTableRecord
  2
GENIUS_GENOBJ-N-CEN_13
 70
     0
  0
APPID
  5
18910
330
9
100
AcDbSymbolTableRecord
100
AcDbRegAppTableRecord
  2
GENIUS_GENOBJ-N-HTC_13
 70
     0
  0
APPID
  5
18911
330
9
100
AcDbSymbolTableRecord
100
AcDbRegAppTableRecord
  2
GENIUS_GENHATCH_13
 70
     0
  0
APPID
  5
18912
330
9
100
AcDbSymbolTableRecord
100
AcDbRegAppTableRecord
  2
GEVID1040951320
 70
     0
  0
APPID
  5
18913
330
9
100
AcDbSymbolTableRecord
100
AcDbRegAppTableRecord
  2
GEVDC
 70
     0
  0
APPID
  5
18914
330
9
100
AcDbSymbolTableRecord
100
AcDbRegAppTableRecord
  2
GENIUS_GENBH_13
 70
     0
  0
APPID
  5
18915
330
9
100
AcDbSymbolTableRecord
100
AcDbRegAppTableRecord
  2
GENIUS_GENOENT_13
 70
     0
  0
APPID
  5
18916
330
9
100
AcDbSymbolTableRecord
100
AcDbRegAppTableRecord
  2
GENIUS_GENOBJ-NBEHI-BHF_13
 70
     0
  0
APPID
  5
18917
330
9
100
AcDbSymbolTableRecord
100
AcDbRegAppTableRecord
  2
GENIUS_GENOLIS_13
 70
     0
  0
APPID
  5
18918
330
9
100
AcDbSymbolTableRecord
100
AcDbRegAppTableRecord
  2
GENIUS_GENOREF_13
 70
     0
  0
APPID
  5
18919
330
9
100
AcDbSymbolTableRecord
100
AcDbRegAppTableRecord
  2
GENIUS_GENOBJ-NBEHI-BHB_13
 70
     0
  0
APPID
  5
1891A
330
9
100
AcDbSymbolTableRecord
100
AcDbRegAppTableRecord
  2
GEVID1040951321
 70
     0
  0
APPID
  5
1891B
330
9
100
AcDbSymbolTableRecord
100
AcDbRegAppTableRecord
  2
GEVID1040951322
 70
     0
  0
APPID
  5
1891C
330
9
100
AcDbSymbolTableRecord
100
AcDbRegAppTableRecord
  2
GEVID1040951323
 70
     0
  0
APPID
  5
200C7
330
9
100
AcDbSymbolTableRecord
100
AcDbRegAppTableRecord
  2
GENIUS_GENOBJ-N-CRS_13
 70
     0
  0
APPID
  5
200C8
330
9
100
AcDbSymbolTableRecord
100
AcDbRegAppTableRecord
  2
ACAD_DIMASSOC_DIMLFAC
 70
     0
  0
APPID
  5
200C9
330
9
100
AcDbSymbolTableRecord
100
AcDbRegAppTableRecord
  2
ACAD_DIMASSOC_CALC_DIMLFAC
 70
     0
  0
APPID
  5
200CA
330
9
100
AcDbSymbolTableRecord
100
AcDbRegAppTableRecord
  2
GEVID1036112518
 70
     0
  0
APPID
  5
200CB
330
9
100
AcDbSymbolTableRecord
100
AcDbRegAppTableRecord
  2
GEVRADREF
 70
     0
  0
APPID
  5
200CC
330
9
100
AcDbSymbolTableRecord
100
AcDbRegAppTableRecord
  2
GEVID1040267100
 70
     0
  0
APPID
  5
2210A
330
9
100
AcDbSymbolTableRecord
100
AcDbRegAppTableRecord
  2
GEVID1036112519
 70
     0
  0
APPID
  5
2210B
330
9
100
AcDbSymbolTableRecord
100
AcDbRegAppTableRecord
  2
GEVID1036112520
 70
     0
  0
APPID
  5
2210C
330
9
100
AcDbSymbolTableRecord
100
AcDbRegAppTableRecord
  2
GEVID1036112521
 70
     0
  0
APPID
  5
2210D
330
9
100
AcDbSymbolTableRecord
100
AcDbRegAppTableRecord
  2
GEVID1036112522
 70
     0
  0
APPID
  5
2210E
330
9
100
AcDbSymbolTableRecord
100
AcDbRegAppTableRecord
  2
GEVID1036112523
 70
     0
  0
APPID
  5
2210F
330
9
100
AcDbSymbolTableRecord
100
AcDbRegAppTableRecord
  2
GEVID1040267101
 70
     0
  0
APPID
  5
24EFB
330
9
100
AcDbSymbolTableRecord
100
AcDbRegAppTableRecord
  2
TCAD
 70
     0
  0
ENDTAB
  0
TABLE
  2
DIMSTYLE
  5
A
330
0
100
AcDbSymbolTable
 70
    15
  0
DIMSTYLE
105
98A
330
A
100
AcDbSymbolTableRecord
100
AcDbDimStyleTableRecord
  2
AM_ISO
 70
     0
  3

  4
"
  5

  6

  7

 40
0.6
 41
3.0
 42
2.0
 43
10.0
 44
1.5
 45
0.0
 46
0.0
 47
0.1
 48
0.1
140
3.0
141
0.0
142
0.0
143
0.0393701
144
2.0
145
0.0
146
0.71
147
0.8
 71
     0
 72
     0
 73
     0
 74
     0
 75
     0
 76
     0
 77
     1
 78
     8
170
     0
171
     2
172
     1
173
     0
174
     0
175
     0
176
     5
177
   256
178
     5
270
     2
271
     2
272
     2
273
     2
274
     2
340
11
275
     0
280
     0
281
     0
282
     0
283
     0
284
     0
285
     0
286
     0
287
     3
288
     0
  0
DIMSTYLE
105
98B
330
A
100
AcDbSymbolTableRecord
100
AcDbDimStyleTableRecord
  2
AM_ISO$3
 70
     0
  3

  4
"
  5

  6

  7

 40
0.6
 41
3.0
 42
2.0
 43
10.0
 44
1.5
 45
0.0
 46
0.0
 47
0.1
 48
0.1
140
3.0
141
0.0
142
0.0
143
0.0393701
144
2.0
145
0.0
146
0.71
147
0.8
 71
     0
 72
     0
 73
     0
 74
     1
 75
     0
 76
     0
 77
     1
 78
     8
170
     0
171
     2
172
     0
173
     0
174
     0
175
     0
176
     5
177
   256
178
     5
270
     2
271
     2
272
     2
273
     2
274
     2
340
11
275
     0
280
     0
281
     0
282
     0
283
     0
284
     0
285
     0
286
     0
287
     0
288
     1
  0
DIMSTYLE
105
98C
330
A
100
AcDbSymbolTableRecord
100
AcDbDimStyleTableRecord
  2
AM_ISO$4
 70
     0
  3

  4
"
  5

  6

  7

 40
0.6
 41
3.0
 42
2.0
 43
10.0
 44
1.5
 45
0.0
 46
0.0
 47
0.1
 48
0.1
140
3.0
141
0.0
142
0.0
143
0.0393701
144
2.0
145
0.0
146
0.71
147
0.8
 71
     0
 72
     0
 73
     0
 74
     1
 75
     0
 76
     0
 77
     1
 78
     8
170
     0
171
     2
172
     0
173
     0
174
     0
175
     0
176
     5
177
   256
178
     5
270
     2
271
     2
272
     2
273
     2
274
     2
340
11
275
     0
280
     0
281
     0
282
     0
283
     0
284
     0
285
     0
286
     0
287
     0
288
     1
  0
DIMSTYLE
105
98D
330
A
100
AcDbSymbolTableRecord
100
AcDbDimStyleTableRecord
  2
AM_ISO$6
 70
     0
  3

  4
"
  5

  6

  7

 40
0.6
 41
3.0
 42
2.0
 43
10.0
 44
1.5
 45
0.0
 46
0.0
 47
0.1
 48
0.1
140
3.0
141
0.0
142
0.0
143
0.0393701
144
2.0
145
0.0
146
0.71
147
0.8
 71
     0
 72
     0
 73
     0
 74
     0
 75
     0
 76
     0
 77
     0
 78
     8
170
     0
171
     2
172
     1
173
     0
174
     0
175
     0
176
     5
177
   256
178
     5
270
     2
271
     2
272
     2
273
     2
274
     2
340
11
275
     0
280
     0
281
     0
282
     0
283
     0
284
     0
285
     0
286
     0
287
     3
288
     0
  0
DIMSTYLE
105
98E
330
A
100
AcDbSymbolTableRecord
100
AcDbDimStyleTableRecord
  2
AM_ISO$7
 70
     0
  3

  4
"
  5

  6

  7

 40
0.6
 41
3.0
 42
2.0
 43
10.0
 44
1.5
 45
0.0
 46
0.0
 47
0.1
 48
0.1
140
5.0
141
0.0
142
0.0
143
0.0393701
144
2.0
145
0.0
146
0.71
147
0.8
 71
     0
 72
     0
 73
     0
 74
     0
 75
     0
 76
     0
 77
     1
 78
     8
170
     0
171
     2
172
     1
173
     0
174
     0
175
     0
176
     5
177
   256
178
     5
270
     2
271
     2
272
     2
273
     2
274
     2
340
11
275
     0
280
     0
281
     0
282
     0
283
     0
284
     0
285
     0
286
     0
287
     3
288
     0
  0
DIMSTYLE
105
98F
330
A
100
AcDbSymbolTableRecord
100
AcDbDimStyleTableRecord
  2
AM_ISO$SF
 70
     0
  3

  4
"
  5

  6

  7

 40
0.5
 41
2.5
 42
1.0
 43
10.0
 44
1.0
 45
0.0
 46
0.0
 47
0.1
 48
0.1
140
3.5
141
0.0
142
0.0
143
0.0393701
144
1.0
145
0.0
146
0.71
147
1.5
 71
     0
 72
     0
 73
     0
 74
     0
 75
     1
 76
     1
 77
     1
 78
     8
170
     0
171
     2
172
     1
173
     0
174
     0
175
     0
176
   256
177
   256
178
     2
270
     2
271
     2
272
     2
273
     2
274
     2
340
11
275
     0
280
     0
281
     0
282
     0
283
     0
284
     0
285
     0
286
     0
287
     3
288
     0
  0
DIMSTYLE
105
994
330
A
100
AcDbSymbolTableRecord
100
AcDbDimStyleTableRecord
  2
AM_ISO$SH
 70
     0
  3

  4
"
  5

  6
GENAXEH
  7

 40
0.5
 41
2.5
 42
1.0
 43
10.0
 44
1.0
 45
0.0
 46
0.0
 47
0.1
 48
0.1
140
3.5
141
0.0
142
0.0
143
0.0393701
144
2.0
145
0.0
146
0.71
147
1.5
 71
     0
 72
     0
 73
     0
 74
     0
 75
     1
 76
     1
 77
     1
 78
     8
170
     0
171
     2
172
     1
173
     1
174
     0
175
     0
176
   256
177
   256
178
     2
270
     2
271
     2
272
     2
273
     2
274
     2
340
11
275
     0
280
     0
281
     0
282
     0
283
     0
284
     0
285
     0
286
     0
287
     3
288
     0
  0
DIMSTYLE
105
6E5D
330
A
100
AcDbSymbolTableRecord
100
AcDbDimStyleTableRecord
  2
AM_ANSI
 70
     0
  3

  4
"
  5

  6

  7

 40
0.8
 41
3.0
 42
1.5
 43
5.0
 44
2.0
 45
0.0
 46
0.0
 47
0.1
 48
0.1
140
3.0
141
-1.5
142
0.0
143
0.0393701
144
1.0
145
0.0
146
0.6
147
0.8
 71
     0
 72
     0
 73
     0
 74
     0
 75
     0
 76
     0
 77
     1
 78
     8
170
     0
171
     2
172
     1
173
     0
174
     0
175
     0
176
   256
177
   256
178
   256
270
     2
271
     2
272
     2
273
     2
274
     2
340
167B
275
     0
280
     0
281
     0
282
     0
283
     1
284
     8
285
     0
286
     0
287
     3
288
     0
  0
DIMSTYLE
105
6E5E
330
A
100
AcDbSymbolTableRecord
100
AcDbDimStyleTableRecord
  2
AM_ANSI$3
 70
     0
  3

  4
"
  5

  6

  7

 40
0.8
 41
3.0
 42
1.5
 43
5.0
 44
2.0
 45
0.0
 46
0.0
 47
0.1
 48
0.1
140
3.0
141
-1.5
142
0.0
143
0.0393701
144
1.0
145
0.0
146
0.6
147
0.8
 71
     0
 72
     0
 73
     0
 74
     0
 75
     0
 76
     0
 77
     1
 78
     8
170
     0
171
     2
172
     1
173
     0
174
     0
175
     0
176
   256
177
   256
178
   256
270
     2
271
     2
272
     2
273
     2
274
     2
340
167B
275
     0
280
     0
281
     0
282
     0
283
     1
284
     8
285
     0
286
     0
287
     0
288
     1
  0
DIMSTYLE
105
6E5F
330
A
100
AcDbSymbolTableRecord
100
AcDbDimStyleTableRecord
  2
AM_ANSI$7
 70
     0
  3

  4
"
  5

  6

  7

 40
0.8
 41
3.0
 42
1.5
 43
5.0
 44
2.0
 45
0.0
 46
0.0
 47
0.1
 48
0.1
140
5.0
141
-1.5
142
0.0
143
0.0393701
144
1.0
145
0.0
146
0.6
147
0.8
 71
     0
 72
     0
 73
     0
 74
     0
 75
     0
 76
     0
 77
     1
 78
     8
170
     0
171
     2
172
     1
173
     0
174
     0
175
     0
176
   256
177
   256
178
   256
270
     2
271
     2
272
     2
273
     2
274
     2
340
167B
275
     0
280
     0
281
     0
282
     0
283
     1
284
     8
285
     0
286
     0
287
     3
288
     0
  0
DIMSTYLE
105
B991
102
{ACAD_REACTORS
330
24DCB
330
24DD8
330
24DE5
330
24DF2
330
24DFF
330
24E0C
330
24E19
330
24E26
330
24E33
330
24E40
102
}
330
A
100
AcDbSymbolTableRecord
100
AcDbDimStyleTableRecord
  2
STANDARD
 70
     0
  3

  4

  5

  6

  7

 40
1.0
 41
3.0
 42
1.5
 43
7.0
 44
2.0
 45
0.0
 46
0.0
 47
0.01
 48
0.01
140
3.0
141
3.0
142
0.0
143
25.4
144
1.0
145
0.0
146
0.6
147
0.8
 71
     0
 72
     0
 73
     0
 74
     0
 75
     0
 76
     0
 77
     3
 78
     8
170
     0
171
     2
172
     1
173
     0
174
     0
175
     0
176
     5
177
     5
178
     5
270
     2
271
     2
272
     2
273
     2
274
     2
340
167B
275
     0
280
     0
281
     0
282
     0
283
     1
284
     8
285
     0
286
     0
287
     3
288
     0
  0
DIMSTYLE
105
BE61
330
A
100
AcDbSymbolTableRecord
100
AcDbDimStyleTableRecord
  2
AM_ANSI$4
 70
     0
  3

  4
mm
  5

  6

  7

 40
1.0
 41
0.1
 42
0.05
 43
0.5
 44
0.1
 45
0.0
 46
0.0
 47
0.1
 48
0.1
140
0.12
141
0.0
142
0.0
143
25.4
144
1.0
145
0.0
146
0.71
147
0.06
 71
     0
 72
     0
 73
     1
 74
     1
 75
     0
 76
     0
 77
     0
 78
     7
170
     0
171
     2
172
     0
173
     0
174
     0
175
     0
176
   256
177
   256
178
     2
270
     2
271
     4
272
     4
273
     2
274
     4
340
11
275
     0
280
     0
281
     0
282
     0
283
     1
284
     7
285
     0
286
     0
287
     0
288
     1
  0
DIMSTYLE
105
BE62
330
A
100
AcDbSymbolTableRecord
100
AcDbDimStyleTableRecord
  2
AM_ANSI$SF
 70
     0
  3

  4
mm
  5

  6

  7

 40
1.0
 41
0.1
 42
0.05
 43
0.5
 44
0.1
 45
0.0
 46
0.0
 47
0.1
 48
0.1
140
0.12
141
0.0
142
0.0
143
25.4
144
1.0
145
0.0
146
0.71
147
0.06
 71
     0
 72
     0
 73
     1
 74
     1
 75
     1
 76
     1
 77
     0
 78
     7
170
     0
171
     2
172
     0
173
     0
174
     0
175
     0
176
   256
177
   256
178
     2
270
     2
271
     4
272
     4
273
     2
274
     4
340
11
275
     0
280
     0
281
     0
282
     0
283
     1
284
     7
285
     0
286
     0
287
     3
288
     0
  0
DIMSTYLE
105
BE63
330
A
100
AcDbSymbolTableRecord
100
AcDbDimStyleTableRecord
  2
AM_ANSI$SH
 70
     0
  3

  4
mm
  5

  6
GENAXEH
  7

 40
1.0
 41
0.1
 42
0.05
 43
0.5
 44
0.1
 45
0.0
 46
0.0
 47
0.1
 48
0.1
140
0.12
141
0.0
142
0.0
143
25.4
144
1.0
145
0.0
146
0.71
147
0.06
 71
     0
 72
     0
 73
     1
 74
     1
 75
     1
 76
     1
 77
     0
 78
     7
170
     0
171
     2
172
     0
173
     1
174
     0
175
     0
176
   256
177
   256
178
     2
270
     2
271
     4
272
     4
273
     2
274
     4
340
11
275
     0
280
     0
281
     0
282
     0
283
     1
284
     7
285
     0
286
     0
287
     3
288
     0
  0
DIMSTYLE
105
18909
330
A
100
AcDbSymbolTableRecord
100
AcDbDimStyleTableRecord
  2
AUDIT_I_030306140827-4
 70
     0
  3

  4

  5

  6

  7

 40
1.0
 41
3.0
 42
2.0
 43
8.0
 44
2.0
 45
0.0
 46
0.0
 47
0.0
 48
0.0
140
3.0
141
-1.0
142
0.0
143
25.4
144
1.0
145
0.0
146
1.0
147
1.5
 71
     0
 72
     0
 73
     1
 74
     1
 75
     0
 76
     0
 77
     0
 78
     0
170
     0
171
     2
172
     0
173
     0
174
     0
175
     0
176
     0
177
     0
178
     0
270
     2
271
     2
272
     2
273
     2
274
     2
340
11
275
     0
280
     0
281
     0
282
     0
283
     1
284
     0
285
     0
286
     0
287
     5
288
     0
  0
ENDTAB
  0
TABLE
  2
BLOCK_RECORD
  5
1
330
0
100
AcDbSymbolTable
 70
    13
  0
BLOCK_RECORD
  5
1F
102
{ACAD_XDICTIONARY
360
3A4
102
}
330
1
100
AcDbSymbolTableRecord
100
AcDbBlockTableRecord
  2
*MODEL_SPACE
  0
BLOCK_RECORD
  5
1B
102
{ACAD_XDICTIONARY
360
26A1F
102
}
330
1
100
AcDbSymbolTableRecord
100
AcDbBlockTableRecord
  2
*PAPER_SPACE
  0
BLOCK_RECORD
  5
990
330
1
100
AcDbSymbolTableRecord
100
AcDbBlockTableRecord
  2
GENAXEH
  0
BLOCK_RECORD
  5
23D5D
330
1
100
AcDbSymbolTableRecord
100
AcDbBlockTableRecord
  2
A$C75484636
  0
BLOCK_RECORD
  5
24DCC
330
1
100
AcDbSymbolTableRecord
100
AcDbBlockTableRecord
  2
*D3
  0
BLOCK_RECORD
  5
24DD9
330
1
100
AcDbSymbolTableRecord
100
AcDbBlockTableRecord
  2
*D4
  0
BLOCK_RECORD
  5
24DE6
330
1
100
AcDbSymbolTableRecord
100
AcDbBlockTableRecord
  2
*D5
  0
BLOCK_RECORD
  5
24DF3
330
1
100
AcDbSymbolTableRecord
100
AcDbBlockTableRecord
  2
*D6
  0
BLOCK_RECORD
  5
24E00
330
1
100
AcDbSymbolTableRecord
100
AcDbBlockTableRecord
  2
*D7
  0
BLOCK_RECORD
  5
24E0D
330
1
100
AcDbSymbolTableRecord
100
AcDbBlockTableRecord
  2
*D8
  0
BLOCK_RECORD
  5
24E1A
330
1
100
AcDbSymbolTableRecord
100
AcDbBlockTableRecord
  2
*D9
  0
BLOCK_RECORD
  5
24E27
330
1
100
AcDbSymbolTableRecord
100
AcDbBlockTableRecord
  2
*D10
  0
BLOCK_RECORD
  5
24E34
330
1
100
AcDbSymbolTableRecord
100
AcDbBlockTableRecord
  2
*D11
  0
BLOCK_RECORD
  5
24E41
330
1
100
AcDbSymbolTableRecord
100
AcDbBlockTableRecord
  2
*D12
  0
ENDTAB
  0
ENDSEC
  0
SECTION
  2
BLOCKS
  0
BLOCK
  5
20
330
1F
100
AcDbEntity
  8
0
100
AcDbBlockBegin
  2
*MODEL_SPACE
 70
     0
 10
0.0
 20
0.0
 30
0.0
  3
*MODEL_SPACE
  1

  0
ENDBLK
  5
21
330
1F
100
AcDbEntity
  8
0
100
AcDbBlockEnd
  0
BLOCK
  5
1C
330
1B
100
AcDbEntity
 67
     1
  8
0
100
AcDbBlockBegin
  2
*PAPER_SPACE
 70
     0
 10
0.0
 20
0.0
 30
0.0
  3
*PAPER_SPACE
  1

  0
ENDBLK
  5
1D
330
1B
100
AcDbEntity
 67
     1
  8
0
100
AcDbBlockEnd
  0
BLOCK
  5
992
330
990
100
AcDbEntity
  8
0
100
AcDbBlockBegin
  2
GENAXEH
 70
     0
 10
0.0
 20
0.0
 30
0.0
  3
GENAXEH
  1

  0
LINE
  5
991
330
990
100
AcDbEntity
  8
0
100
AcDbLine
 10
-1.0
 20
0.0
 30
0.0
 11
1.0
 21
0.0
 31
0.0
  0
ENDBLK
  5
993
330
990
100
AcDbEntity
  8
0
100
AcDbBlockEnd
  0
BLOCK
  5
23D6B
330
23D5D
100
AcDbEntity
  8
0
100
AcDbBlockBegin
  2
A$C75484636
 70
     0
 10
0.0
 20
0.0
 30
0.0
  3
A$C75484636
  1

  0
LINE
  5
23D5E
330
23D5D
100
AcDbEntity
  8
AM_0N
100
AcDbLine
 10
1.149999754443911
 20
3.005000206466093
 30
0.0
 11
2.494999754443938
 21
3.005000206466093
 31
0.0
1001
GENIUS_GENOREF_13
1005
0
  0
LINE
  5
23D5F
330
23D5D
100
AcDbEntity
  8
AM_0N
100
AcDbLine
 10
1.149999754443911
 20
2.495000206466102
 30
0.0
 11
2.494999754443938
 21
2.495000206466102
 31
0.0
1001
GENIUS_GENOREF_13
1005
0
  0
CIRCLE
  5
23D60
330
23D5D
100
AcDbEntity
  8
AM_0N
100
AcDbCircle
 10
2.749999754443933
 20
2.750000206466097
 30
0.0
 40
2.75
1001
GENIUS_GENOREF_13
1005
0
  0
LINE
  5
23D61
330
23D5D
100
AcDbEntity
  8
AM_0N
100
AcDbLine
 10
1.149999754443911
 20
3.005000206466093
 30
0.0
 11
1.149999754443911
 21
2.495000206466102
 31
0.0
1001
GENIUS_GENOREF_13
1005
0
  0
LINE
  5
23D62
330
23D5D
100
AcDbEntity
  8
AM_0N
100
AcDbLine
 10
3.004999754443929
 20
4.35000020646612
 30
0.0
 11
2.494999754443938
 21
4.35000020646612
 31
0.0
1001
GENIUS_GENOREF_13
1005
0
  0
LINE
  5
23D63
330
23D5D
100
AcDbEntity
  8
AM_0N
100
AcDbLine
 10
3.004999754443929
 20
2.495000206466102
 30
0.0
 11
4.349999754443956
 21
2.495000206466102
 31
0.0
1001
GENIUS_GENOREF_13
1005
0
  0
LINE
  5
23D64
330
23D5D
100
AcDbEntity
  8
AM_0N
100
AcDbLine
 10
3.004999754443929
 20
3.005000206466093
 30
0.0
 11
4.349999754443956
 21
3.005000206466093
 31
0.0
1001
GENIUS_GENOREF_13
1005
0
  0
LINE
  5
23D65
330
23D5D
100
AcDbEntity
  8
AM_0N
100
AcDbLine
 10
3.004999754443929
 20
1.150000206466074
 30
0.0
 11
2.494999754443938
 21
1.150000206466074
 31
0.0
1001
GENIUS_GENOREF_13
1005
0
  0
LINE
  5
23D66
330
23D5D
100
AcDbEntity
  8
AM_0N
100
AcDbLine
 10
2.494999754443938
 20
2.495000206466102
 30
0.0
 11
2.494999754443938
 21
1.150000206466074
 31
0.0
1001
GENIUS_GENOREF_13
1005
0
  0
LINE
  5
23D67
330
23D5D
100
AcDbEntity
  8
AM_0N
100
AcDbLine
 10
3.004999754443929
 20
2.495000206466102
 30
0.0
 11
3.004999754443929
 21
1.150000206466074
 31
0.0
1001
GENIUS_GENOREF_13
1005
0
  0
LINE
  5
23D68
330
23D5D
100
AcDbEntity
  8
AM_0N
100
AcDbLine
 10
4.349999754443956
 20
3.005000206466093
 30
0.0
 11
4.349999754443956
 21
2.495000206466102
 31
0.0
1001
GENIUS_GENOREF_13
1005
0
  0
LINE
  5
23D69
330
23D5D
100
AcDbEntity
  8
AM_0N
100
AcDbLine
 10
2.494999754443938
 20
4.35000020646612
 30
0.0
 11
2.494999754443938
 21
3.005000206466093
 31
0.0
1001
GENIUS_GENOREF_13
1005
0
  0
LINE
  5
23D6A
330
23D5D
100
AcDbEntity
  8
AM_0N
100
AcDbLine
 10
3.004999754443929
 20
4.35000020646612
 30
0.0
 11
3.004999754443929
 21
3.005000206466093
 31
0.0
1001
GENIUS_GENOREF_13
1005
0
  0
ENDBLK
  5
23D6C
330
23D5D
100
AcDbEntity
  8
0
100
AcDbBlockEnd
  0
BLOCK
  5
24DD6
330
24DCC
100
AcDbEntity
  8
0
 62
     1
100
AcDbBlockBegin
  2
*D3
 70
     1
 10
0.0
 20
0.0
 30
0.0
  3
*D3
  1

  0
LINE
  5
255F1
330
24DCC
100
AcDbEntity
  8
AM_REFDIM
 62
     5
100
AcDbLine
 10
2407.545647511126
 20
86.48395373259109
 30
0.0
 11
2407.545647511126
 21
90.99525992551026
 31
0.0
  0
LINE
  5
255F2
330
24DCC
100
AcDbEntity
  8
AM_REFDIM
 62
     5
100
AcDbLine
 10
2417.545647511126
 20
65.48395373259109
 30
0.0
 11
2417.545647511126
 21
90.99525992551026
 31
0.0
  0
LINE
  5
255F3
330
24DCC
100
AcDbEntity
  8
AM_REFDIM
 62
     5
100
AcDbLine
 10
2410.545647511126
 20
88.99525992551025
 30
0.0
 11
2414.545647511126
 21
88.99525992551025
 31
0.0
  0
SOLID
  5
255F4
330
24DCC
100
AcDbEntity
  8
AM_REFDIM
 62
     5
100
AcDbTrace
 10
2410.545647511126
 20
89.49525992551025
 30
0.0
 11
2410.545647511126
 21
88.49525992551026
 31
0.0
 12
2407.545647511126
 22
88.99525992551025
 32
0.0
 13
2407.545647511126
 23
88.99525992551025
 33
0.0
  0
SOLID
  5
255F5
330
24DCC
100
AcDbEntity
  8
AM_REFDIM
 62
     5
100
AcDbTrace
 10
2414.545647511126
 20
89.49525992551025
 30
0.0
 11
2414.545647511126
 21
88.49525992551026
 31
0.0
 12
2417.545647511126
 22
88.99525992551025
 32
0.0
 13
2417.545647511126
 23
88.99525992551025
 33
0.0
  0
MTEXT
  5
255F6
330
24DCC
100
AcDbEntity
  8
AM_REFDIM
 62
     5
100
AcDbMText
 10
2412.545647511126
 20
91.29525992551025
 30
0.0
 40
3.0
 41
0.0
 71
     5
 72
     1
  1
\A1;10
  7
DAYUS
1001
ACAD
1000
MTEXTBEGIN
1070
    73
1070
     1
1070
    44
1040
1.0
1070
    74
1070
     0
1000
MTEXTEND
  0
POINT
  5
255F7
330
24DCC
100
AcDbEntity
  8
DEFPOINTS
 62
     0
100
AcDbPoint
 10
2407.545647511126
 20
84.98395373259109
 30
0.0
  0
POINT
  5
255F8
330
24DCC
100
AcDbEntity
  8
DEFPOINTS
 62
     0
100
AcDbPoint
 10
2417.545647511126
 20
63.98395373259109
 30
0.0
  0
POINT
  5
255F9
330
24DCC
100
AcDbEntity
  8
DEFPOINTS
 62
     0
100
AcDbPoint
 10
2417.545647511126
 20
88.99525992551025
 30
0.0
  0
ENDBLK
  5
24DD7
330
24DCC
100
AcDbEntity
  8
0
 62
     1
100
AcDbBlockEnd
  0
BLOCK
  5
24DE3
330
24DD9
100
AcDbEntity
  8
0
 62
     1
100
AcDbBlockBegin
  2
*D4
 70
     1
 10
0.0
 20
0.0
 30
0.0
  3
*D4
  1

  0
LINE
  5
255FA
330
24DD9
100
AcDbEntity
  8
AM_REFDIM
 62
     5
100
AcDbLine
 10
2402.045647511126
 20
62.18395373259113
 30
0.0
 11
2402.045647511126
 21
50.99295962726364
 31
0.0
  0
LINE
  5
255FB
330
24DD9
100
AcDbEntity
  8
AM_REFDIM
 62
     5
100
AcDbLine
 10
2423.045647511126
 20
62.18395373259113
 30
0.0
 11
2423.045647511126
 21
50.99295962726364
 31
0.0
  0
LINE
  5
255FC
330
24DD9
100
AcDbEntity
  8
AM_REFDIM
 62
     5
100
AcDbLine
 10
2405.045647511126
 20
52.99295962726365
 30
0.0
 11
2420.045647511126
 21
52.99295962726365
 31
0.0
  0
SOLID
  5
255FD
330
24DD9
100
AcDbEntity
  8
AM_REFDIM
 62
     5
100
AcDbTrace
 10
2405.045647511126
 20
53.49295962726364
 30
0.0
 11
2405.045647511126
 21
52.49295962726364
 31
0.0
 12
2402.045647511126
 22
52.99295962726365
 32
0.0
 13
2402.045647511126
 23
52.99295962726365
 33
0.0
  0
SOLID
  5
255FE
330
24DD9
100
AcDbEntity
  8
AM_REFDIM
 62
     5
100
AcDbTrace
 10
2420.045647511126
 20
53.49295962726364
 30
0.0
 11
2420.045647511126
 21
52.49295962726364
 31
0.0
 12
2423.045647511126
 22
52.99295962726365
 32
0.0
 13
2423.045647511126
 23
52.99295962726365
 33
0.0
  0
MTEXT
  5
255FF
330
24DD9
100
AcDbEntity
  8
AM_REFDIM
 62
     5
100
AcDbMText
 10
2412.545647511126
 20
55.29295962726364
 30
0.0
 40
3.0
 41
0.0
 71
     5
 72
     1
  1
\A1;21
  7
DAYUS
1001
ACAD
1000
MTEXTBEGIN
1070
    73
1070
     1
1070
    44
1040
1.0
1070
    74
1070
     0
1000
MTEXTEND
  0
POINT
  5
25600
330
24DD9
100
AcDbEntity
  8
DEFPOINTS
 62
     0
100
AcDbPoint
 10
2402.045647511126
 20
63.68395373259113
 30
0.0
  0
POINT
  5
25601
330
24DD9
100
AcDbEntity
  8
DEFPOINTS
 62
     0
100
AcDbPoint
 10
2423.045647511126
 20
63.68395373259113
 30
0.0
  0
POINT
  5
25602
330
24DD9
100
AcDbEntity
  8
DEFPOINTS
 62
     0
100
AcDbPoint
 10
2423.045647511126
 20
52.99295962726365
 30
0.0
  0
ENDBLK
  5
24DE4
330
24DD9
100
AcDbEntity
  8
0
 62
     1
100
AcDbBlockEnd
  0
BLOCK
  5
24DF0
330
24DE6
100
AcDbEntity
  8
0
 62
     1
100
AcDbBlockBegin
  2
*D5
 70
     1
 10
0.0
 20
0.0
 30
0.0
  3
*D5
  1

  0
LINE
  5
25603
330
24DE6
100
AcDbEntity
  8
AM_REFDIM
 62
     5
100
AcDbLine
 10
2402.945647511126
 20
81.88395373259107
 30
0.0
 11
2380.999740669939
 21
81.88395373259108
 31
0.0
  0
LINE
  5
25604
330
24DE6
100
AcDbEntity
  8
AM_REFDIM
 62
     5
100
AcDbLine
 10
2412.945647511126
 20
60.88395373259107
 30
0.0
 11
2380.999740669939
 21
60.88395373259107
 31
0.0
  0
LINE
  5
25605
330
24DE6
100
AcDbEntity
  8
AM_REFDIM
 62
     5
100
AcDbLine
 10
2382.999740669939
 20
78.88395373259108
 30
0.0
 11
2382.999740669939
 21
63.88395373259108
 31
0.0
  0
SOLID
  5
25606
330
24DE6
100
AcDbEntity
  8
AM_REFDIM
 62
     5
100
AcDbTrace
 10
2382.499740669939
 20
78.88395373259108
 30
0.0
 11
2383.499740669939
 21
78.88395373259108
 31
0.0
 12
2382.999740669939
 22
81.88395373259108
 32
0.0
 13
2382.999740669939
 23
81.88395373259108
 33
0.0
  0
SOLID
  5
25607
330
24DE6
100
AcDbEntity
  8
AM_REFDIM
 62
     5
100
AcDbTrace
 10
2382.499740669939
 20
63.88395373259108
 30
0.0
 11
2383.499740669939
 21
63.88395373259108
 31
0.0
 12
2382.999740669939
 22
60.88395373259107
 32
0.0
 13
2382.999740669939
 23
60.88395373259107
 33
0.0
  0
MTEXT
  5
25608
330
24DE6
100
AcDbEntity
  8
AM_REFDIM
 62
     5
100
AcDbMText
 10
2380.699740669939
 20
71.38395373259147
 30
0.0
 40
3.0
 41
0.0
 71
     5
 72
     1
  1
\A1;21
  7
DAYUS
 11
0.0000000000000001
 21
1.0
 31
0.0
1001
ACAD
1000
MTEXTBEGIN
1070
    73
1070
     1
1070
    44
1040
1.0
1070
    74
1070
     0
1000
MTEXTEND
  0
POINT
  5
25609
330
24DE6
100
AcDbEntity
  8
DEFPOINTS
 62
     0
100
AcDbPoint
 10
2404.445647511126
 20
81.88395373259107
 30
0.0
  0
POINT
  5
2560A
330
24DE6
100
AcDbEntity
  8
DEFPOINTS
 62
     0
100
AcDbPoint
 10
2414.445647511126
 20
60.88395373259107
 30
0.0
  0
POINT
  5
2560B
330
24DE6
100
AcDbEntity
  8
DEFPOINTS
 62
     0
100
AcDbPoint
 10
2382.999740669939
 20
60.88395373259107
 30
0.0
  0
ENDBLK
  5
24DF1
330
24DE6
100
AcDbEntity
  8
0
 62
     1
100
AcDbBlockEnd
  0
BLOCK
  5
24DFD
330
24DF3
100
AcDbEntity
  8
0
 62
     1
100
AcDbBlockBegin
  2
*D6
 70
     1
 10
0.0
 20
0.0
 30
0.0
  3
*D6
  1

  0
LINE
  5
2560C
330
24DF3
100
AcDbEntity
  8
AM_REFDIM
 62
     5
100
AcDbLine
 10
2386.04564751112
 20
84.58395373259099
 30
0.0
 11
2304.456364443179
 21
84.58395373259101
 31
0.0
  0
LINE
  5
2560D
330
24DF3
100
AcDbEntity
  8
AM_REFDIM
 62
     5
100
AcDbLine
 10
2386.045647511132
 20
58.18395373259102
 30
0.0
 11
2304.456364443179
 21
58.18395373259105
 31
0.0
  0
LINE
  5
2560E
330
24DF3
100
AcDbEntity
  8
AM_REFDIM
 62
     5
100
AcDbLine
 10
2306.456364443179
 20
81.58395373259102
 30
0.0
 11
2306.456364443179
 21
61.18395373259104
 31
0.0
  0
SOLID
  5
2560F
330
24DF3
100
AcDbEntity
  8
AM_REFDIM
 62
     5
100
AcDbTrace
 10
2305.956364443179
 20
81.58395373259102
 30
0.0
 11
2306.956364443179
 21
81.58395373259102
 31
0.0
 12
2306.456364443179
 22
84.58395373259101
 32
0.0
 13
2306.456364443179
 23
84.58395373259101
 33
0.0
  0
SOLID
  5
25610
330
24DF3
100
AcDbEntity
  8
AM_REFDIM
 62
     5
100
AcDbTrace
 10
2305.956364443179
 20
61.18395373259104
 30
0.0
 11
2306.956364443179
 21
61.18395373259104
 31
0.0
 12
2306.456364443179
 22
58.18395373259105
 32
0.0
 13
2306.456364443179
 23
58.18395373259105
 33
0.0
  0
MTEXT
  5
25611
330
24DF3
100
AcDbEntity
  8
AM_REFDIM
 62
     5
100
AcDbMText
 10
2304.156364443179
 20
71.3839537325914
 30
0.0
 40
3.0
 41
0.0
 71
     5
 72
     1
  1
\A1;26.4
  7
DAYUS
 11
0.0000000000000001
 21
1.0
 31
0.0
1001
ACAD
1000
MTEXTBEGIN
1070
    73
1070
     1
1070
    44
1040
1.0
1070
    74
1070
     0
1000
MTEXTEND
  0
POINT
  5
25612
330
24DF3
100
AcDbEntity
  8
DEFPOINTS
 62
     0
100
AcDbPoint
 10
2387.54564751112
 20
84.58395373259099
 30
0.0
  0
POINT
  5
25613
330
24DF3
100
AcDbEntity
  8
DEFPOINTS
 62
     0
100
AcDbPoint
 10
2387.545647511132
 20
58.18395373259102
 30
0.0
  0
POINT
  5
25614
330
24DF3
100
AcDbEntity
  8
DEFPOINTS
 62
     0
100
AcDbPoint
 10
2306.456364443179
 20
58.18395373259105
 30
0.0
  0
ENDBLK
  5
24DFE
330
24DF3
100
AcDbEntity
  8
0
 62
     1
100
AcDbBlockEnd
  0
BLOCK
  5
24E0A
330
24E00
100
AcDbEntity
  8
0
 62
     1
100
AcDbBlockBegin
  2
*D7
 70
     1
 10
0.0
 20
0.0
 30
0.0
  3
*D7
  1

  0
LINE
  5
25615
330
24E00
100
AcDbEntity
  8
AM_REFDIM
 62
     5
100
AcDbLine
 10
2312.545647511126
 20
60.64634942555722
 30
0.0
 11
2312.545647511126
 21
43.95351639751061
 31
0.0
  0
LINE
  5
25616
330
24E00
100
AcDbEntity
  8
AM_REFDIM
 62
     5
100
AcDbLine
 10
2512.545647511126
 20
60.64634942555722
 30
0.0
 11
2512.545647511126
 21
43.95351639751061
 31
0.0
  0
LINE
  5
25617
330
24E00
100
AcDbEntity
  8
AM_REFDIM
 62
     5
100
AcDbLine
 10
2315.545647511126
 20
45.9535163975106
 30
0.0
 11
2509.545647511126
 21
45.9535163975106
 31
0.0
  0
SOLID
  5
25618
330
24E00
100
AcDbEntity
  8
AM_REFDIM
 62
     5
100
AcDbTrace
 10
2315.545647511126
 20
46.45351639751061
 30
0.0
 11
2315.545647511126
 21
45.45351639751061
 31
0.0
 12
2312.545647511126
 22
45.9535163975106
 32
0.0
 13
2312.545647511126
 23
45.9535163975106
 33
0.0
  0
SOLID
  5
25619
330
24E00
100
AcDbEntity
  8
AM_REFDIM
 62
     5
100
AcDbTrace
 10
2509.545647511126
 20
46.45351639751061
 30
0.0
 11
2509.545647511126
 21
45.45351639751061
 31
0.0
 12
2512.545647511126
 22
45.9535163975106
 32
0.0
 13
2512.545647511126
 23
45.9535163975106
 33
0.0
  0
MTEXT
  5
2561A
330
24E00
100
AcDbEntity
  8
AM_REFDIM
 62
     5
100
AcDbMText
 10
2412.545647511126
 20
48.25351639751061
 30
0.0
 40
3.0
 41
0.0
 71
     5
 72
     1
  1
\A1;200
  7
DAYUS
1001
ACAD
1000
MTEXTBEGIN
1070
    73
1070
     1
1070
    44
1040
1.0
1070
    74
1070
     0
1000
MTEXTEND
  0
POINT
  5
2561B
330
24E00
100
AcDbEntity
  8
DEFPOINTS
 62
     0
100
AcDbPoint
 10
2312.545647511126
 20
62.14634942555722
 30
0.0
  0
POINT
  5
2561C
330
24E00
100
AcDbEntity
  8
DEFPOINTS
 62
     0
100
AcDbPoint
 10
2512.545647511126
 20
62.14634942555722
 30
0.0
  0
POINT
  5
2561D
330
24E00
100
AcDbEntity
  8
DEFPOINTS
 62
     0
100
AcDbPoint
 10
2512.545647511126
 20
45.9535163975106
 30
0.0
  0
ENDBLK
  5
24E0B
330
24E00
100
AcDbEntity
  8
0
 62
     1
100
AcDbBlockEnd
  0
BLOCK
  5
24E17
330
24E0D
100
AcDbEntity
  8
0
 62
     1
100
AcDbBlockBegin
  2
*D8
 70
     1
 10
0.0
 20
0.0
 30
0.0
  3
*D8
  1

  0
LINE
  5
2561E
330
24E0D
100
AcDbEntity
  8
AM_REFDIM
 62
     5
100
AcDbLine
 10
2402.545647511126
 20
-37.49181773114719
 30
0.0
 11
2402.545647511126
 21
-47.43769210690516
 31
0.0
  0
LINE
  5
2561F
330
24E0D
100
AcDbEntity
  8
AM_REFDIM
 62
     5
100
AcDbLine
 10
2422.545647511126
 20
-37.49181773114719
 30
0.0
 11
2422.545647511126
 21
-47.43769210690516
 31
0.0
  0
LINE
  5
25620
330
24E0D
100
AcDbEntity
  8
AM_REFDIM
 62
     5
100
AcDbLine
 10
2405.545647511126
 20
-45.43769210690515
 30
0.0
 11
2419.545647511126
 21
-45.43769210690515
 31
0.0
  0
SOLID
  5
25621
330
24E0D
100
AcDbEntity
  8
AM_REFDIM
 62
     5
100
AcDbTrace
 10
2405.545647511126
 20
-44.93769210690516
 30
0.0
 11
2405.545647511126
 21
-45.93769210690516
 31
0.0
 12
2402.545647511126
 22
-45.43769210690515
 32
0.0
 13
2402.545647511126
 23
-45.43769210690515
 33
0.0
  0
SOLID
  5
25622
330
24E0D
100
AcDbEntity
  8
AM_REFDIM
 62
     5
100
AcDbTrace
 10
2419.545647511126
 20
-44.93769210690516
 30
0.0
 11
2419.545647511126
 21
-45.93769210690516
 31
0.0
 12
2422.545647511126
 22
-45.43769210690515
 32
0.0
 13
2422.545647511126
 23
-45.43769210690515
 33
0.0
  0
MTEXT
  5
25623
330
24E0D
100
AcDbEntity
  8
AM_REFDIM
 62
     5
100
AcDbMText
 10
2412.545647511126
 20
-43.13769210690516
 30
0.0
 40
3.0
 41
0.0
 71
     5
 72
     1
  1
\A1;20
  7
DAYUS
1001
ACAD
1000
MTEXTBEGIN
1070
    73
1070
     1
1070
    44
1040
1.0
1070
    74
1070
     0
1000
MTEXTEND
  0
POINT
  5
25624
330
24E0D
100
AcDbEntity
  8
DEFPOINTS
 62
     0
100
AcDbPoint
 10
2402.545647511126
 20
-35.99181773114719
 30
0.0
  0
POINT
  5
25625
330
24E0D
100
AcDbEntity
  8
DEFPOINTS
 62
     0
100
AcDbPoint
 10
2422.545647511126
 20
-35.99181773114719
 30
0.0
  0
POINT
  5
25626
330
24E0D
100
AcDbEntity
  8
DEFPOINTS
 62
     0
100
AcDbPoint
 10
2422.545647511126
 20
-45.43769210690515
 30
0.0
  0
ENDBLK
  5
24E18
330
24E0D
100
AcDbEntity
  8
0
 62
     1
100
AcDbBlockEnd
  0
BLOCK
  5
24E24
330
24E1A
100
AcDbEntity
  8
0
 62
     1
100
AcDbBlockBegin
  2
*D9
 70
     1
 10
0.0
 20
0.0
 30
0.0
  3
*D9
  1

  0
LINE
  5
25627
330
24E1A
100
AcDbEntity
  8
AM_REFDIM
 62
     5
100
AcDbLine
 10
2394.545647511126
 20
-42.30863681445618
 30
0.0
 11
2394.545647511126
 21
-53.13703195176504
 31
0.0
  0
LINE
  5
25628
330
24E1A
100
AcDbEntity
  8
AM_REFDIM
 62
     5
100
AcDbLine
 10
2430.545647511126
 20
-42.30863681445618
 30
0.0
 11
2430.545647511126
 21
-53.13703195176504
 31
0.0
  0
LINE
  5
25629
330
24E1A
100
AcDbEntity
  8
AM_REFDIM
 62
     5
100
AcDbLine
 10
2397.545647511126
 20
-51.13703195176504
 30
0.0
 11
2427.545647511126
 21
-51.13703195176504
 31
0.0
  0
SOLID
  5
2562A
330
24E1A
100
AcDbEntity
  8
AM_REFDIM
 62
     5
100
AcDbTrace
 10
2397.545647511126
 20
-50.63703195176504
 30
0.0
 11
2397.545647511126
 21
-51.63703195176504
 31
0.0
 12
2394.545647511126
 22
-51.13703195176504
 32
0.0
 13
2394.545647511126
 23
-51.13703195176504
 33
0.0
  0
SOLID
  5
2562B
330
24E1A
100
AcDbEntity
  8
AM_REFDIM
 62
     5
100
AcDbTrace
 10
2427.545647511126
 20
-50.63703195176504
 30
0.0
 11
2427.545647511126
 21
-51.63703195176504
 31
0.0
 12
2430.545647511126
 22
-51.13703195176504
 32
0.0
 13
2430.545647511126
 23
-51.13703195176504
 33
0.0
  0
MTEXT
  5
2562C
330
24E1A
100
AcDbEntity
  8
AM_REFDIM
 62
     5
100
AcDbMText
 10
2412.545647511126
 20
-48.83703195176504
 30
0.0
 40
3.0
 41
0.0
 71
     5
 72
     1
  1
\A1;36
  7
DAYUS
1001
ACAD
1000
MTEXTBEGIN
1070
    73
1070
     1
1070
    44
1040
1.0
1070
    74
1070
     0
1000
MTEXTEND
  0
POINT
  5
2562D
330
24E1A
100
AcDbEntity
  8
DEFPOINTS
 62
     0
100
AcDbPoint
 10
2394.545647511126
 20
-40.80863681445618
 30
0.0
  0
POINT
  5
2562E
330
24E1A
100
AcDbEntity
  8
DEFPOINTS
 62
     0
100
AcDbPoint
 10
2430.545647511126
 20
-40.80863681445618
 30
0.0
  0
POINT
  5
2562F
330
24E1A
100
AcDbEntity
  8
DEFPOINTS
 62
     0
100
AcDbPoint
 10
2430.545647511126
 20
-51.13703195176504
 30
0.0
  0
ENDBLK
  5
24E25
330
24E1A
100
AcDbEntity
  8
0
 62
     1
100
AcDbBlockEnd
  0
BLOCK
  5
24E31
330
24E27
100
AcDbEntity
  8
0
 62
     1
100
AcDbBlockBegin
  2
*D10
 70
     1
 10
0.0
 20
0.0
 30
0.0
  3
*D10
  1

  0
LINE
  5
25630
330
24E27
100
AcDbEntity
  8
AM_REFDIM
 62
     5
100
AcDbLine
 10
2326.045647511126
 20
-33.39181773114722
 30
0.0
 11
2326.045647511126
 21
-59.6166242768345
 31
0.0
  0
LINE
  5
25631
330
24E27
100
AcDbEntity
  8
AM_REFDIM
 62
     5
100
AcDbLine
 10
2499.045647511126
 20
-33.39181773114722
 30
0.0
 11
2499.045647511126
 21
-59.6166242768345
 31
0.0
  0
LINE
  5
25632
330
24E27
100
AcDbEntity
  8
AM_REFDIM
 62
     5
100
AcDbLine
 10
2329.045647511126
 20
-57.6166242768345
 30
0.0
 11
2496.045647511126
 21
-57.6166242768345
 31
0.0
  0
SOLID
  5
25633
330
24E27
100
AcDbEntity
  8
AM_REFDIM
 62
     5
100
AcDbTrace
 10
2329.045647511126
 20
-57.1166242768345
 30
0.0
 11
2329.045647511126
 21
-58.1166242768345
 31
0.0
 12
2326.045647511126
 22
-57.6166242768345
 32
0.0
 13
2326.045647511126
 23
-57.6166242768345
 33
0.0
  0
SOLID
  5
25634
330
24E27
100
AcDbEntity
  8
AM_REFDIM
 62
     5
100
AcDbTrace
 10
2496.045647511126
 20
-57.1166242768345
 30
0.0
 11
2496.045647511126
 21
-58.1166242768345
 31
0.0
 12
2499.045647511126
 22
-57.6166242768345
 32
0.0
 13
2499.045647511126
 23
-57.6166242768345
 33
0.0
  0
MTEXT
  5
25635
330
24E27
100
AcDbEntity
  8
AM_REFDIM
 62
     5
100
AcDbMText
 10
2412.545647511126
 20
-55.3166242768345
 30
0.0
 40
3.0
 41
0.0
 71
     5
 72
     1
  1
\A1;173
  7
DAYUS
1001
ACAD
1000
MTEXTBEGIN
1070
    73
1070
     1
1070
    44
1040
1.0
1070
    74
1070
     0
1000
MTEXTEND
  0
POINT
  5
25636
330
24E27
100
AcDbEntity
  8
DEFPOINTS
 62
     0
100
AcDbPoint
 10
2326.045647511126
 20
-31.89181773114722
 30
0.0
  0
POINT
  5
25637
330
24E27
100
AcDbEntity
  8
DEFPOINTS
 62
     0
100
AcDbPoint
 10
2499.045647511126
 20
-31.89181773114722
 30
0.0
  0
POINT
  5
25638
330
24E27
100
AcDbEntity
  8
DEFPOINTS
 62
     0
100
AcDbPoint
 10
2499.045647511126
 20
-57.6166242768345
 30
0.0
  0
ENDBLK
  5
24E32
330
24E27
100
AcDbEntity
  8
0
 62
     1
100
AcDbBlockEnd
  0
BLOCK
  5
24E3E
330
24E34
100
AcDbEntity
  8
0
 62
     1
100
AcDbBlockBegin
  2
*D11
 70
     1
 10
0.0
 20
0.0
 30
0.0
  3
*D11
  1

  0
LINE
  5
25639
330
24E34
100
AcDbEntity
  8
AM_REFDIM
 62
     5
100
AcDbLine
 10
2439.045647511126
 20
-40.0418177311472
 30
0.0
 11
2510.691384671765
 21
-40.04181773114722
 31
0.0
  0
LINE
  5
2563A
330
24E34
100
AcDbEntity
  8
AM_REFDIM
 62
     5
100
AcDbLine
 10
2439.045647511126
 20
-4.741817731147194
 30
0.0
 11
2510.691384671765
 21
-4.741817731147214
 31
0.0
  0
LINE
  5
2563B
330
24E34
100
AcDbEntity
  8
AM_REFDIM
 62
     5
100
AcDbLine
 10
2508.691384671765
 20
-37.04181773114722
 30
0.0
 11
2508.691384671765
 21
-7.741817731147214
 31
0.0
  0
SOLID
  5
2563C
330
24E34
100
AcDbEntity
  8
AM_REFDIM
 62
     5
100
AcDbTrace
 10
2508.191384671765
 20
-37.04181773114722
 30
0.0
 11
2509.191384671765
 21
-37.04181773114722
 31
0.0
 12
2508.691384671765
 22
-40.04181773114722
 32
0.0
 13
2508.691384671765
 23
-40.04181773114722
 33
0.0
  0
SOLID
  5
2563D
330
24E34
100
AcDbEntity
  8
AM_REFDIM
 62
     5
100
AcDbTrace
 10
2508.191384671765
 20
-7.741817731147214
 30
0.0
 11
2509.191384671765
 21
-7.741817731147214
 31
0.0
 12
2508.691384671765
 22
-4.741817731147214
 32
0.0
 13
2508.691384671765
 23
-4.741817731147214
 33
0.0
  0
MTEXT
  5
2563E
330
24E34
100
AcDbEntity
  8
AM_REFDIM
 62
     5
100
AcDbMText
 10
2506.391384671765
 20
-22.39181773114681
 30
0.0
 40
3.0
 41
0.0
 71
     5
 72
     1
  1
\A1;35.3
  7
DAYUS
 11
0.0000000000000001
 21
1.0
 31
0.0
1001
ACAD
1000
MTEXTBEGIN
1070
    73
1070
     1
1070
    44
1040
1.0
1070
    74
1070
     0
1000
MTEXTEND
  0
POINT
  5
2563F
330
24E34
100
AcDbEntity
  8
DEFPOINTS
 62
     0
100
AcDbPoint
 10
2437.545647511126
 20
-40.0418177311472
 30
0.0
  0
POINT
  5
25640
330
24E34
100
AcDbEntity
  8
DEFPOINTS
 62
     0
100
AcDbPoint
 10
2437.545647511126
 20
-4.741817731147193
 30
0.0
  0
POINT
  5
25641
330
24E34
100
AcDbEntity
  8
DEFPOINTS
 62
     0
100
AcDbPoint
 10
2508.691384671765
 20
-4.741817731147214
 30
0.0
  0
ENDBLK
  5
24E3F
330
24E34
100
AcDbEntity
  8
0
 62
     1
100
AcDbBlockEnd
  0
BLOCK
  5
24E4B
330
24E41
100
AcDbEntity
  8
0
 62
     1
100
AcDbBlockBegin
  2
*D12
 70
     1
 10
0.0
 20
0.0
 30
0.0
  3
*D12
  1

  0
LINE
  5
25642
330
24E41
100
AcDbEntity
  8
AM_REFDIM
 62
     5
100
AcDbLine
 10
2439.045647511126
 20
-40.04181773114715
 30
0.0
 11
2521.841038868771
 21
-40.04181773114718
 31
0.0
  0
LINE
  5
25643
330
24E41
100
AcDbEntity
  8
AM_REFDIM
 62
     5
100
AcDbLine
 10
2504.545647511126
 20
25.60818226885282
 30
0.0
 11
2521.841038868771
 21
25.60818226885282
 31
0.0
  0
LINE
  5
25644
330
24E41
100
AcDbEntity
  8
AM_REFDIM
 62
     5
100
AcDbLine
 10
2519.84103886877
 20
-37.04181773114717
 30
0.0
 11
2519.84103886877
 21
22.60818226885282
 31
0.0
  0
SOLID
  5
25645
330
24E41
100
AcDbEntity
  8
AM_REFDIM
 62
     5
100
AcDbTrace
 10
2519.341038868771
 20
-37.04181773114717
 30
0.0
 11
2520.341038868771
 21
-37.04181773114717
 31
0.0
 12
2519.84103886877
 22
-40.04181773114718
 32
0.0
 13
2519.84103886877
 23
-40.04181773114718
 33
0.0
  0
SOLID
  5
25646
330
24E41
100
AcDbEntity
  8
AM_REFDIM
 62
     5
100
AcDbTrace
 10
2519.341038868771
 20
22.60818226885282
 30
0.0
 11
2520.341038868771
 21
22.60818226885282
 31
0.0
 12
2519.84103886877
 22
25.60818226885282
 32
0.0
 13
2519.84103886877
 23
25.60818226885282
 33
0.0
  0
MTEXT
  5
25647
330
24E41
100
AcDbEntity
  8
AM_REFDIM
 62
     5
100
AcDbMText
 10
2517.54103886877
 20
-7.21681773114677
 30
0.0
 40
3.0
 41
0.0
 71
     5
 72
     1
  1
\A1;66
  7
DAYUS
 11
0.0000000000000001
 21
1.0
 31
0.0
1001
ACAD
1000
MTEXTBEGIN
1070
    73
1070
     1
1070
    44
1040
1.0
1070
    74
1070
     0
1000
MTEXTEND
  0
POINT
  5
25648
330
24E41
100
AcDbEntity
  8
DEFPOINTS
 62
     0
100
AcDbPoint
 10
2437.545647511126
 20
-40.04181773114715
 30
0.0
  0
POINT
  5
25649
330
24E41
100
AcDbEntity
  8
DEFPOINTS
 62
     0
100
AcDbPoint
 10
2503.045647511126
 20
25.60818226885283
 30
0.0
  0
POINT
  5
2564A
330
24E41
100
AcDbEntity
  8
DEFPOINTS
 62
     0
100
AcDbPoint
 10
2519.84103886877
 20
25.60818226885282
 30
0.0
  0
ENDBLK
  5
24E4C
330
24E41
100
AcDbEntity
  8
0
 62
     1
100
AcDbBlockEnd
  0
ENDSEC
  0
SECTION
  2
ENTITIES
  0
MTEXT
  5
20A1
330
1F
100
AcDbEntity
  8
AM_REFDIM
100
AcDbMText
 10
561.1885018225272
 20
211.9777653808241
 30
0.0
 40
5.0
 41
0.0
 71
     9
 72
     1
  1

  7
DAYUS
1001
ACAD
1000
MTEXTBEGIN
1070
    73
1070
     1
1070
    44
1040
1.0
1070
    74
1070
     0
1000
MTEXTEND
  0
MTEXT
  5
21E1
330
1F
100
AcDbEntity
  8
AM_REFDIM
100
AcDbMText
 10
755.6608394056113
 20
277.1617022919267
 30
0.0
 40
5.0
 41
0.0
 71
     9
 72
     1
  1

  7
DAYUS
1001
ACAD
1000
MTEXTBEGIN
1070
    73
1070
     1
1070
    44
1040
1.0
1070
    74
1070
     0
1000
MTEXTEND
  0
MTEXT
  5
21E8
330
1F
100
AcDbEntity
  8
AM_REFDIM
100
AcDbMText
 10
749.57448324194
 20
209.4269307825009
 30
0.0
 40
5.0
 41
0.0
 71
     9
 72
     1
  1

  7
DAYUS
1001
ACAD
1000
MTEXTBEGIN
1070
    73
1070
     1
1070
    44
1040
1.0
1070
    74
1070
     0
1000
MTEXTEND
  0
MTEXT
  5
950E
330
1F
100
AcDbEntity
  8
AM_REFDIM
100
AcDbMText
 10
883.1481342807478
 20
-16.56429920726827
 30
0.0
 40
5.0
 41
0.0
 71
     9
 72
     1
  1

  7
DAYUS
1001
ACAD
1000
MTEXTBEGIN
1070
    73
1070
     1
1070
    44
1040
1.0
1070
    74
1070
     0
1000
MTEXTEND
  0
MTEXT
  5
9515
330
1F
100
AcDbEntity
  8
AM_REFDIM
100
AcDbMText
 10
877.0617781170765
 20
-84.29907071669413
 30
0.0
 40
5.0
 41
0.0
 71
     9
 72
     1
  1

  7
DAYUS
1001
ACAD
1000
MTEXTBEGIN
1070
    73
1070
     1
1070
    44
1040
1.0
1070
    74
1070
     0
1000
MTEXTEND
  0
MTEXT
  5
9538
330
1F
100
AcDbEntity
  8
AM_REFDIM
100
AcDbMText
 10
688.6757966976639
 20
-81.74823611837087
 30
0.0
 40
5.0
 41
0.0
 71
     9
 72
     1
  1

  7
DAYUS
1001
ACAD
1000
MTEXTBEGIN
1070
    73
1070
     1
1070
    44
1040
1.0
1070
    74
1070
     0
1000
MTEXTEND
  0
MTEXT
  5
D622
330
1F
100
AcDbEntity
  8
AM_5
 62
     2
100
AcDbMText
 10
364.1980009625231
 20
217.5933376591914
 30
0.0
 40
3.5
 41
0.0
 71
     7
 72
     1
  1

  7
ACISOTS
1001
ACAD
1000
MTEXTBEGIN
1070
    73
1070
     1
1070
    44
1040
1.0
1070
    74
1070
     0
1000
MTEXTEND
  0
MTEXT
  5
D62D
330
1F
100
AcDbEntity
  8
AM_5
 62
     2
100
AcDbMText
 10
375.2854589832454
 20
224.3263974052412
 30
0.0
 40
3.5
 41
0.0
 71
     9
 72
     1
  1

  7
ACISOTS
1001
ACAD
1000
MTEXTBEGIN
1070
    73
1070
     1
1070
    44
1040
1.0
1070
    74
1070
     0
1000
MTEXTEND
  0
TEXT
  5
18C6F
330
1F
100
AcDbEntity
  8
LOGO
  6
CONTINUOUS
 62
     6
100
AcDbText
 10
1607.053940236462
 20
18.56092768566134
 30
0.0
 40
2.164502164502164
  1

  7
CHINESET
 72
     4
 11
1607.053940236462
 21
18.56092768566134
 31
0.0
100
AcDbText
  0
LINE
  5
18C70
330
1F
100
AcDbEntity
  8
AM_7
 60
     1
100
AcDbLine
 10
1703.42710757797
 20
494.4380328974459
 30
0.0
 11
1667.027107577969
 21
494.4380328974459
 31
0.0
  0
LINE
  5
18C71
330
1F
100
AcDbEntity
  8
AM_7
 60
     1
100
AcDbLine
 10
1598.77373621326
 20
494.4380328974459
 30
0.0
 11
1601.77373621326
 21
494.4380328974459
 31
0.0
  0
LINE
  5
18C72
330
1F
100
AcDbEntity
  8
AM_7
 60
     1
100
AcDbLine
 10
1600.27373621326
 20
492.9380328974458
 30
0.0
 11
1600.27373621326
 21
495.9380328974458
 31
0.0
  0
LINE
  5
18C73
330
1F
100
AcDbEntity
  8
AM_7
 60
     1
100
AcDbLine
 10
1591.27373621326
 20
494.4380328974459
 30
0.0
 11
1597.77373621326
 21
494.4380328974459
 31
0.0
  0
LINE
  5
18C74
330
1F
100
AcDbEntity
  8
AM_7
 60
     1
100
AcDbLine
 10
1602.77373621326
 20
494.4380328974459
 30
0.0
 11
1609.27373621326
 21
494.4380328974459
 31
0.0
  0
LINE
  5
18C75
330
1F
100
AcDbEntity
  8
AM_7
 60
     1
100
AcDbLine
 10
1600.27373621326
 20
485.4380328974458
 30
0.0
 11
1600.27373621326
 21
491.9380328974458
 31
0.0
  0
LINE
  5
18C76
330
1F
100
AcDbEntity
  8
AM_7
 60
     1
100
AcDbLine
 10
1600.27373621326
 20
496.9380328974458
 30
0.0
 11
1600.27373621326
 21
503.4380328974458
 31
0.0
  0
LINE
  5
18C77
330
1F
100
AcDbEntity
  8
AM_7
 60
     1
100
AcDbLine
 10
1590.52373621326
 20
486.1880328974458
 30
0.0
 11
1593.52373621326
 21
486.1880328974458
 31
0.0
  0
LINE
  5
18C78
330
1F
100
AcDbEntity
  8
AM_7
 60
     1
100
AcDbLine
 10
1592.02373621326
 20
484.6880328974458
 30
0.0
 11
1592.02373621326
 21
487.6880328974458
 31
0.0
  0
LINE
  5
18C79
330
1F
100
AcDbEntity
  8
AM_7
 60
     1
100
AcDbLine
 10
1588.25843621326
 20
486.1880328974458
 30
0.0
 11
1589.52373621326
 21
486.1880328974458
 31
0.0
  0
LINE
  5
18C7A
330
1F
100
AcDbEntity
  8
AM_7
 60
     1
100
AcDbLine
 10
1594.52373621326
 20
486.1880328974458
 30
0.0
 11
1595.78903621326
 21
486.1880328974458
 31
0.0
  0
LINE
  5
18C7B
330
1F
100
AcDbEntity
  8
AM_7
 60
     1
100
AcDbLine
 10
1592.02373621326
 20
482.4227328974457
 30
0.0
 11
1592.02373621326
 21
483.6880328974458
 31
0.0
  0
LINE
  5
18C7C
330
1F
100
AcDbEntity
  8
AM_7
 60
     1
100
AcDbLine
 10
1592.02373621326
 20
488.6880328974458
 30
0.0
 11
1592.02373621326
 21
489.9533328974459
 31
0.0
  0
LINE
  5
18C7D
330
1F
100
AcDbEntity
  8
AM_7
 60
     1
100
AcDbLine
 10
1607.02373621326
 20
486.1880328974458
 30
0.0
 11
1610.02373621326
 21
486.1880328974458
 31
0.0
  0
LINE
  5
18C7E
330
1F
100
AcDbEntity
  8
AM_7
 60
     1
100
AcDbLine
 10
1608.52373621326
 20
484.6880328974458
 30
0.0
 11
1608.52373621326
 21
487.6880328974458
 31
0.0
  0
LINE
  5
18C7F
330
1F
100
AcDbEntity
  8
AM_7
 60
     1
100
AcDbLine
 10
1604.75843621326
 20
486.1880328974458
 30
0.0
 11
1606.02373621326
 21
486.1880328974458
 31
0.0
  0
LINE
  5
18C80
330
1F
100
AcDbEntity
  8
AM_7
 60
     1
100
AcDbLine
 10
1611.02373621326
 20
486.1880328974458
 30
0.0
 11
1612.28903621326
 21
486.1880328974458
 31
0.0
  0
LINE
  5
18C81
330
1F
100
AcDbEntity
  8
AM_7
 60
     1
100
AcDbLine
 10
1608.52373621326
 20
482.4227328974457
 30
0.0
 11
1608.52373621326
 21
483.6880328974458
 31
0.0
  0
LINE
  5
18C82
330
1F
100
AcDbEntity
  8
AM_7
 60
     1
100
AcDbLine
 10
1608.52373621326
 20
488.6880328974458
 30
0.0
 11
1608.52373621326
 21
489.9533328974459
 31
0.0
  0
LINE
  5
18C83
330
1F
100
AcDbEntity
  8
AM_7
 60
     1
100
AcDbLine
 10
1607.02373621326
 20
502.6880328974458
 30
0.0
 11
1610.02373621326
 21
502.6880328974458
 31
0.0
  0
LINE
  5
18C84
330
1F
100
AcDbEntity
  8
AM_7
 60
     1
100
AcDbLine
 10
1608.52373621326
 20
501.1880328974458
 30
0.0
 11
1608.52373621326
 21
504.1880328974458
 31
0.0
  0
LINE
  5
18C85
330
1F
100
AcDbEntity
  8
AM_7
 60
     1
100
AcDbLine
 10
1604.75843621326
 20
502.6880328974458
 30
0.0
 11
1606.02373621326
 21
502.6880328974458
 31
0.0
  0
LINE
  5
18C86
330
1F
100
AcDbEntity
  8
AM_7
 60
     1
100
AcDbLine
 10
1611.02373621326
 20
502.6880328974458
 30
0.0
 11
1612.28903621326
 21
502.6880328974458
 31
0.0
  0
LINE
  5
18C87
330
1F
100
AcDbEntity
  8
AM_7
 60
     1
100
AcDbLine
 10
1608.52373621326
 20
498.9227328974457
 30
0.0
 11
1608.52373621326
 21
500.1880328974458
 31
0.0
  0
LINE
  5
18C88
330
1F
100
AcDbEntity
  8
AM_7
 60
     1
100
AcDbLine
 10
1608.52373621326
 20
505.1880328974458
 30
0.0
 11
1608.52373621326
 21
506.4533328974459
 31
0.0
  0
LINE
  5
18C89
330
1F
100
AcDbEntity
  8
AM_7
 60
     1
100
AcDbLine
 10
1590.52373621326
 20
502.6880328974458
 30
0.0
 11
1593.52373621326
 21
502.6880328974458
 31
0.0
  0
LINE
  5
18C8A
330
1F
100
AcDbEntity
  8
AM_7
 60
     1
100
AcDbLine
 10
1592.02373621326
 20
501.1880328974458
 30
0.0
 11
1592.02373621326
 21
504.1880328974458
 31
0.0
  0
LINE
  5
18C8B
330
1F
100
AcDbEntity
  8
AM_7
 60
     1
100
AcDbLine
 10
1588.25843621326
 20
502.6880328974458
 30
0.0
 11
1589.52373621326
 21
502.6880328974458
 31
0.0
  0
LINE
  5
18C8C
330
1F
100
AcDbEntity
  8
AM_7
 60
     1
100
AcDbLine
 10
1594.52373621326
 20
502.6880328974458
 30
0.0
 11
1595.78903621326
 21
502.6880328974458
 31
0.0
  0
LINE
  5
18C8D
330
1F
100
AcDbEntity
  8
AM_7
 60
     1
100
AcDbLine
 10
1592.02373621326
 20
498.9227328974457
 30
0.0
 11
1592.02373621326
 21
500.1880328974458
 31
0.0
  0
LINE
  5
18C8E
330
1F
100
AcDbEntity
  8
AM_7
 60
     1
100
AcDbLine
 10
1592.02373621326
 20
505.1880328974458
 30
0.0
 11
1592.02373621326
 21
506.4533328974459
 31
0.0
  0
MTEXT
  5
18CB4
330
1F
100
AcDbEntity
  8
AM_REFDIM
100
AcDbMText
 10
1962.037796887762
 20
861.6686719008741
 30
0.0
 40
5.0
 41
0.0
 71
     9
 72
     1
  1

  7
DAYUS
1001
ACAD
1000
MTEXTBEGIN
1070
    73
1070
     1
1070
    44
1040
1.0
1070
    74
1070
     0
1000
MTEXTEND
  0
MTEXT
  5
18CB5
330
1F
100
AcDbEntity
  8
AM_REFDIM
100
AcDbMText
 10
2156.510134470846
 20
926.8526088119768
 30
0.0
 40
5.0
 41
0.0
 71
     9
 72
     1
  1

  7
DAYUS
1001
ACAD
1000
MTEXTBEGIN
1070
    73
1070
     1
1070
    44
1040
1.0
1070
    74
1070
     0
1000
MTEXTEND
  0
MTEXT
  5
18CB6
330
1F
100
AcDbEntity
  8
AM_REFDIM
100
AcDbMText
 10
2150.423778307174
 20
859.117837302551
 30
0.0
 40
5.0
 41
0.0
 71
     9
 72
     1
  1

  7
DAYUS
1001
ACAD
1000
MTEXTBEGIN
1070
    73
1070
     1
1070
    44
1040
1.0
1070
    74
1070
     0
1000
MTEXTEND
  0
MTEXT
  5
1A473
330
1F
100
AcDbEntity
  8
AM_REFDIM
100
AcDbMText
 10
1486.199220780581
 20
243.3414529416031
 30
0.0
 40
5.0
 41
0.0
 71
     9
 72
     1
  1

  7
DAYUS
1001
ACAD
1000
MTEXTBEGIN
1070
    73
1070
     1
1070
    44
1040
1.0
1070
    74
1070
     0
1000
MTEXTEND
  0
MTEXT
  5
1A474
330
1F
100
AcDbEntity
  8
AM_REFDIM
100
AcDbMText
 10
1680.671558363665
 20
308.5253898527057
 30
0.0
 40
5.0
 41
0.0
 71
     9
 72
     1
  1

  7
DAYUS
1001
ACAD
1000
MTEXTBEGIN
1070
    73
1070
     1
1070
    44
1040
1.0
1070
    74
1070
     0
1000
MTEXTEND
  0
MTEXT
  5
1A475
330
1F
100
AcDbEntity
  8
AM_REFDIM
100
AcDbMText
 10
1674.585202199994
 20
240.7906183432799
 30
0.0
 40
5.0
 41
0.0
 71
     9
 72
     1
  1

  7
DAYUS
1001
ACAD
1000
MTEXTBEGIN
1070
    73
1070
     1
1070
    44
1040
1.0
1070
    74
1070
     0
1000
MTEXTEND
  0
MTEXT
  5
1A476
330
1F
100
AcDbEntity
  8
AM_REFDIM
100
AcDbMText
 10
1808.158853238802
 20
14.79938835351072
 30
0.0
 40
5.0
 41
0.0
 71
     9
 72
     1
  1

  7
DAYUS
1001
ACAD
1000
MTEXTBEGIN
1070
    73
1070
     1
1070
    44
1040
1.0
1070
    74
1070
     0
1000
MTEXTEND
  0
MTEXT
  5
1A477
330
1F
100
AcDbEntity
  8
AM_REFDIM
100
AcDbMText
 10
1802.07249707513
 20
-52.93538315591513
 30
0.0
 40
5.0
 41
0.0
 71
     9
 72
     1
  1

  7
DAYUS
1001
ACAD
1000
MTEXTBEGIN
1070
    73
1070
     1
1070
    44
1040
1.0
1070
    74
1070
     0
1000
MTEXTEND
  0
MTEXT
  5
1A478
330
1F
100
AcDbEntity
  8
AM_REFDIM
100
AcDbMText
 10
1613.686515655718
 20
-50.38454855759187
 30
0.0
 40
5.0
 41
0.0
 71
     9
 72
     1
  1

  7
DAYUS
1001
ACAD
1000
MTEXTBEGIN
1070
    73
1070
     1
1070
    44
1040
1.0
1070
    74
1070
     0
1000
MTEXTEND
  0
MTEXT
  5
1A47B
330
1F
100
AcDbEntity
  8
AM_5
 62
     2
100
AcDbMText
 10
1289.208719920577
 20
248.9570252199704
 30
0.0
 40
3.5
 41
0.0
 71
     7
 72
     1
  1

  7
ACISOTS
1001
ACAD
1000
MTEXTBEGIN
1070
    73
1070
     1
1070
    44
1040
1.0
1070
    74
1070
     0
1000
MTEXTEND
  0
MTEXT
  5
1A47C
330
1F
100
AcDbEntity
  8
AM_5
 62
     2
100
AcDbMText
 10
1300.296177941299
 20
255.6900849660201
 30
0.0
 40
3.5
 41
0.0
 71
     9
 72
     1
  1

  7
ACISOTS
1001
ACAD
1000
MTEXTBEGIN
1070
    73
1070
     1
1070
    44
1040
1.0
1070
    74
1070
     0
1000
MTEXTEND
  0
MTEXT
  5
1C43E
330
1F
100
AcDbEntity
  8
AM_REFDIM
100
AcDbMText
 10
2160.859216838797
 20
117.5837066786887
 30
0.0
 40
5.0
 41
0.0
 71
     9
 72
     1
  1

  7
DAYUS
1001
ACAD
1000
MTEXTBEGIN
1070
    73
1070
     1
1070
    44
1040
1.0
1070
    74
1070
     0
1000
MTEXTEND
  0
MTEXT
  5
1C43F
330
1F
100
AcDbEntity
  8
AM_REFDIM
100
AcDbMText
 10
2355.331554421881
 20
182.7676435897913
 30
0.0
 40
5.0
 41
0.0
 71
     9
 72
     1
  1

  7
DAYUS
1001
ACAD
1000
MTEXTBEGIN
1070
    73
1070
     1
1070
    44
1040
1.0
1070
    74
1070
     0
1000
MTEXTEND
  0
MTEXT
  5
1C440
330
1F
100
AcDbEntity
  8
AM_REFDIM
100
AcDbMText
 10
2349.24519825821
 20
115.0328720803654
 30
0.0
 40
5.0
 41
0.0
 71
     9
 72
     1
  1

  7
DAYUS
1001
ACAD
1000
MTEXTBEGIN
1070
    73
1070
     1
1070
    44
1040
1.0
1070
    74
1070
     0
1000
MTEXTEND
  0
MTEXT
  5
1C441
330
1F
100
AcDbEntity
  8
AM_REFDIM
100
AcDbMText
 10
2482.818849297018
 20
-110.9583579094037
 30
0.0
 40
5.0
 41
0.0
 71
     9
 72
     1
  1

  7
DAYUS
1001
ACAD
1000
MTEXTBEGIN
1070
    73
1070
     1
1070
    44
1040
1.0
1070
    74
1070
     0
1000
MTEXTEND
  0
MTEXT
  5
1C442
330
1F
100
AcDbEntity
  8
AM_REFDIM
100
AcDbMText
 10
2476.732493133347
 20
-178.6931294188295
 30
0.0
 40
5.0
 41
0.0
 71
     9
 72
     1
  1

  7
DAYUS
1001
ACAD
1000
MTEXTBEGIN
1070
    73
1070
     1
1070
    44
1040
1.0
1070
    74
1070
     0
1000
MTEXTEND
  0
MTEXT
  5
1C443
330
1F
100
AcDbEntity
  8
AM_REFDIM
100
AcDbMText
 10
2288.346511713934
 20
-176.1422948205063
 30
0.0
 40
5.0
 41
0.0
 71
     9
 72
     1
  1

  7
DAYUS
1001
ACAD
1000
MTEXTBEGIN
1070
    73
1070
     1
1070
    44
1040
1.0
1070
    74
1070
     0
1000
MTEXTEND
  0
MTEXT
  5
1C446
330
1F
100
AcDbEntity
  8
AM_5
 62
     2
100
AcDbMText
 10
1963.868715978793
 20
123.1992789570559
 30
0.0
 40
3.5
 41
0.0
 71
     7
 72
     1
  1

  7
ACISOTS
1001
ACAD
1000
MTEXTBEGIN
1070
    73
1070
     1
1070
    44
1040
1.0
1070
    74
1070
     0
1000
MTEXTEND
  0
MTEXT
  5
1C447
330
1F
100
AcDbEntity
  8
AM_5
 62
     2
100
AcDbMText
 10
1974.956173999515
 20
129.9323387031057
 30
0.0
 40
3.5
 41
0.0
 71
     9
 72
     1
  1

  7
ACISOTS
1001
ACAD
1000
MTEXTBEGIN
1070
    73
1070
     1
1070
    44
1040
1.0
1070
    74
1070
     0
1000
MTEXTEND
  0
MTEXT
  5
1ECB6
330
1F
100
AcDbEntity
  8
AM_REFDIM
100
AcDbMText
 10
2016.847215832031
 20
341.3268402916074
 30
0.0
 40
5.0
 41
0.0
 71
     9
 72
     1
  1

  7
DAYUS
1001
ACAD
1000
MTEXTBEGIN
1070
    73
1070
     1
1070
    44
1040
1.0
1070
    74
1070
     0
1000
MTEXTEND
  0
MTEXT
  5
1ECB7
330
1F
100
AcDbEntity
  8
AM_REFDIM
100
AcDbMText
 10
2211.319553415114
 20
406.51077720271
 30
0.0
 40
5.0
 41
0.0
 71
     9
 72
     1
  1

  7
DAYUS
1001
ACAD
1000
MTEXTBEGIN
1070
    73
1070
     1
1070
    44
1040
1.0
1070
    74
1070
     0
1000
MTEXTEND
  0
MTEXT
  5
1ECB8
330
1F
100
AcDbEntity
  8
AM_REFDIM
100
AcDbMText
 10
2205.233197251443
 20
338.7760056932841
 30
0.0
 40
5.0
 41
0.0
 71
     9
 72
     1
  1

  7
DAYUS
1001
ACAD
1000
MTEXTBEGIN
1070
    73
1070
     1
1070
    44
1040
1.0
1070
    74
1070
     0
1000
MTEXTEND
  0
MTEXT
  5
1ECB9
330
1F
100
AcDbEntity
  8
AM_REFDIM
100
AcDbMText
 10
2338.806848290251
 20
112.7847757035149
 30
0.0
 40
5.0
 41
0.0
 71
     9
 72
     1
  1

  7
DAYUS
1001
ACAD
1000
MTEXTBEGIN
1070
    73
1070
     1
1070
    44
1040
1.0
1070
    74
1070
     0
1000
MTEXTEND
  0
MTEXT
  5
1ECBA
330
1F
100
AcDbEntity
  8
AM_REFDIM
100
AcDbMText
 10
2332.72049212658
 20
45.05000419408912
 30
0.0
 40
5.0
 41
0.0
 71
     9
 72
     1
  1

  7
DAYUS
1001
ACAD
1000
MTEXTBEGIN
1070
    73
1070
     1
1070
    44
1040
1.0
1070
    74
1070
     0
1000
MTEXTEND
  0
MTEXT
  5
1ECBB
330
1F
100
AcDbEntity
  8
AM_REFDIM
100
AcDbMText
 10
2144.334510707167
 20
47.60083879241238
 30
0.0
 40
5.0
 41
0.0
 71
     9
 72
     1
  1

  7
DAYUS
1001
ACAD
1000
MTEXTBEGIN
1070
    73
1070
     1
1070
    44
1040
1.0
1070
    74
1070
     0
1000
MTEXTEND
  0
MTEXT
  5
1ECBE
330
1F
100
AcDbEntity
  8
AM_5
 62
     2
100
AcDbMText
 10
1819.856714972026
 20
346.9424125699747
 30
0.0
 40
3.5
 41
0.0
 71
     7
 72
     1
  1

  7
ACISOTS
1001
ACAD
1000
MTEXTBEGIN
1070
    73
1070
     1
1070
    44
1040
1.0
1070
    74
1070
     0
1000
MTEXTEND
  0
MTEXT
  5
1ECBF
330
1F
100
AcDbEntity
  8
AM_5
 62
     2
100
AcDbMText
 10
1830.944172992748
 20
353.6754723160244
 30
0.0
 40
3.5
 41
0.0
 71
     9
 72
     1
  1

  7
ACISOTS
1001
ACAD
1000
MTEXTBEGIN
1070
    73
1070
     1
1070
    44
1040
1.0
1070
    74
1070
     0
1000
MTEXTEND
  0
MTEXT
  5
20AE0
330
1F
100
AcDbEntity
  8
AM_REFDIM
100
AcDbMText
 10
1383.757666486758
 20
149.0809547151989
 30
0.0
 40
5.0
 41
0.0
 71
     9
 72
     1
  1

  7
DAYUS
1001
ACAD
1000
MTEXTBEGIN
1070
    73
1070
     1
1070
    44
1040
1.0
1070
    74
1070
     0
1000
MTEXTEND
  0
MTEXT
  5
20AE1
330
1F
100
AcDbEntity
  8
AM_REFDIM
100
AcDbMText
 10
1578.230004069842
 20
214.2648916263015
 30
0.0
 40
5.0
 41
0.0
 71
     9
 72
     1
  1

  7
DAYUS
1001
ACAD
1000
MTEXTBEGIN
1070
    73
1070
     1
1070
    44
1040
1.0
1070
    74
1070
     0
1000
MTEXTEND
  0
MTEXT
  5
20AE2
330
1F
100
AcDbEntity
  8
AM_REFDIM
100
AcDbMText
 10
1572.143647906171
 20
146.5301201168756
 30
0.0
 40
5.0
 41
0.0
 71
     9
 72
     1
  1

  7
DAYUS
1001
ACAD
1000
MTEXTBEGIN
1070
    73
1070
     1
1070
    44
1040
1.0
1070
    74
1070
     0
1000
MTEXTEND
  0
MTEXT
  5
20AE3
330
1F
100
AcDbEntity
  8
AM_REFDIM
100
AcDbMText
 10
1705.717298944978
 20
-79.46110987289353
 30
0.0
 40
5.0
 41
0.0
 71
     9
 72
     1
  1

  7
DAYUS
1001
ACAD
1000
MTEXTBEGIN
1070
    73
1070
     1
1070
    44
1040
1.0
1070
    74
1070
     0
1000
MTEXTEND
  0
MTEXT
  5
20AE4
330
1F
100
AcDbEntity
  8
AM_REFDIM
100
AcDbMText
 10
1699.630942781307
 20
-147.1958813823193
 30
0.0
 40
5.0
 41
0.0
 71
     9
 72
     1
  1

  7
DAYUS
1001
ACAD
1000
MTEXTBEGIN
1070
    73
1070
     1
1070
    44
1040
1.0
1070
    74
1070
     0
1000
MTEXTEND
  0
MTEXT
  5
20AE5
330
1F
100
AcDbEntity
  8
AM_REFDIM
100
AcDbMText
 10
1511.244961361894
 20
-144.6450467839961
 30
0.0
 40
5.0
 41
0.0
 71
     9
 72
     1
  1

  7
DAYUS
1001
ACAD
1000
MTEXTBEGIN
1070
    73
1070
     1
1070
    44
1040
1.0
1070
    74
1070
     0
1000
MTEXTEND
  0
MTEXT
  5
20AE8
330
1F
100
AcDbEntity
  8
AM_5
 62
     2
100
AcDbMText
 10
1186.767165626753
 20
154.6965269935661
 30
0.0
 40
3.5
 41
0.0
 71
     7
 72
     1
  1

  7
ACISOTS
1001
ACAD
1000
MTEXTBEGIN
1070
    73
1070
     1
1070
    44
1040
1.0
1070
    74
1070
     0
1000
MTEXTEND
  0
MTEXT
  5
20AE9
330
1F
100
AcDbEntity
  8
AM_5
 62
     2
100
AcDbMText
 10
1197.854623647476
 20
161.4295867396159
 30
0.0
 40
3.5
 41
0.0
 71
     9
 72
     1
  1

  7
ACISOTS
1001
ACAD
1000
MTEXTBEGIN
1070
    73
1070
     1
1070
    44
1040
1.0
1070
    74
1070
     0
1000
MTEXTEND
  0
MTEXT
  5
20B74
330
1F
100
AcDbEntity
  8
AM_5
100
AcDbMText
 10
1061.789127488471
 20
-105.2088951336404
 30
0.0
 40
5.0
 41
0.0
 71
     6
 72
     1
  1

  7
DAYUS
1001
ACAD
1000
MTEXTBEGIN
1070
    73
1070
     1
1070
    44
1040
1.0
1070
    74
1070
     0
1000
MTEXTEND
  0
POINT
  5
20CBD
330
1F
100
AcDbEntity
  8
0
 60
     1
100
AcDbPoint
 10
822.5691646642308
 20
-62.89681066562526
 30
0.0
1001
GENIUS_GENODEF_13
1002
{
1000
HIER
1070
    10
1002
}
1002
{
1000
MANEDIT
1070
     0
1002
}
1002
{
1000
NOSEL
1070
     0
1002
}
1002
{
1000
BEHIND
1070
     0
1002
}
1002
{
1000
OTHER
1070
     0
1002
}
1002
{
1000
REACTOR
1002
}
1001
GENIUS_GENOBJ-N-CRS_13
1002
{
1000
OWNER
1000
GEN
1002
}
1001
GENIUS_GENOLIS_13
1002
{
1000
ENT
1005
20CBC
1005
20CBB
1005
20CBA
1005
20CB9
1002
}
1001
GENIUS_GENOENT_13
1002
{
1000
MYREF
1005
20CBD
1002
}
1002
{
1000
GRP
1005
0
1002
}
  0
POINT
  5
20CC2
330
1F
100
AcDbEntity
  8
0
 60
     1
100
AcDbPoint
 10
822.5691646642308
 20
-62.89681066562526
 30
0.0
1001
GENIUS_GENOBJ-N-CRS_13
1002
{
1000
OWNER
1000
GEN
1002
}
1001
GENIUS_GENODEF_13
1002
{
1000
HIER
1070
    10
1002
}
1002
{
1000
MANEDIT
1070
     0
1002
}
1002
{
1000
NOSEL
1070
     0
1002
}
1002
{
1000
BEHIND
1070
     0
1002
}
1002
{
1000
OTHER
1070
     0
1002
}
1002
{
1000
REACTOR
1002
}
1001
GENIUS_GENOLIS_13
1002
{
1000
ENT
1005
20CC1
1005
20CC0
1005
20CBF
1005
20CBE
1002
}
1001
GENIUS_GENOENT_13
1002
{
1000
MYREF
1005
20CC2
1002
}
1002
{
1000
GRP
1005
0
1002
}
  0
POINT
  5
20CC7
330
1F
100
AcDbEntity
  8
0
 60
     1
100
AcDbPoint
 10
822.5691646642308
 20
-62.89681066562526
 30
0.0
1001
GENIUS_GENODEF_13
1002
{
1000
HIER
1070
    10
1002
}
1002
{
1000
MANEDIT
1070
     0
1002
}
1002
{
1000
NOSEL
1070
     0
1002
}
1002
{
1000
BEHIND
1070
     0
1002
}
1002
{
1000
OTHER
1070
     0
1002
}
1002
{
1000
REACTOR
1002
}
1001
GENIUS_GENOLIS_13
1002
{
1000
ENT
1005
20CC6
1005
20CC5
1005
20CC4
1005
20CC3
1002
}
1001
GENIUS_GENOENT_13
1002
{
1000
MYREF
1005
20CC7
1002
}
1002
{
1000
GRP
1005
0
1002
}
1001
GENIUS_GENOBJ-N-CRS_13
1002
{
1000
OWNER
1000
GEN
1002
}
  0
POINT
  5
20CCC
330
1F
100
AcDbEntity
  8
0
 60
     1
100
AcDbPoint
 10
822.5691646642308
 20
-62.89681066562526
 30
0.0
1001
GENIUS_GENOLIS_13
1002
{
1000
ENT
1005
20CCB
1005
20CCA
1005
20CC9
1005
20CC8
1002
}
1001
GENIUS_GENOENT_13
1002
{
1000
MYREF
1005
20CCC
1002
}
1002
{
1000
GRP
1005
0
1002
}
1001
GENIUS_GENODEF_13
1002
{
1000
HIER
1070
    10
1002
}
1002
{
1000
MANEDIT
1070
     0
1002
}
1002
{
1000
NOSEL
1070
     0
1002
}
1002
{
1000
BEHIND
1070
     0
1002
}
1002
{
1000
OTHER
1070
     0
1002
}
1002
{
1000
REACTOR
1002
}
1001
GENIUS_GENOBJ-N-CRS_13
1002
{
1000
OWNER
1000
GEN
1002
}
  0
POINT
  5
21053
330
1F
100
AcDbEntity
  8
0
 60
     1
100
AcDbPoint
 10
822.5691646642308
 20
-62.89681066562526
 30
0.0
1001
GENIUS_GENODEF_13
1002
{
1000
HIER
1070
    10
1002
}
1002
{
1000
MANEDIT
1070
     0
1002
}
1002
{
1000
NOSEL
1070
     0
1002
}
1002
{
1000
BEHIND
1070
     0
1002
}
1002
{
1000
OTHER
1070
     0
1002
}
1002
{
1000
REACTOR
1002
}
1001
GENIUS_GENOENT_13
1002
{
1000
MYREF
1005
21053
1002
}
1002
{
1000
GRP
1005
0
1002
}
1001
GENIUS_GENOBJ-N-CRS_13
1002
{
1000
OWNER
1000
GEN
1002
}
1001
GENIUS_GENOLIS_13
1002
{
1000
ENT
1005
21052
1005
21051
1005
21050
1005
2104F
1002
}
  0
POINT
  5
21058
330
1F
100
AcDbEntity
  8
0
 60
     1
100
AcDbPoint
 10
822.5691646642308
 20
-62.89681066562526
 30
0.0
1001
GENIUS_GENOENT_13
1002
{
1000
MYREF
1005
21058
1002
}
1002
{
1000
GRP
1005
0
1002
}
1001
GENIUS_GENOBJ-N-CRS_13
1002
{
1000
OWNER
1000
GEN
1002
}
1001
GENIUS_GENODEF_13
1002
{
1000
HIER
1070
    10
1002
}
1002
{
1000
MANEDIT
1070
     0
1002
}
1002
{
1000
NOSEL
1070
     0
1002
}
1002
{
1000
BEHIND
1070
     0
1002
}
1002
{
1000
OTHER
1070
     0
1002
}
1002
{
1000
REACTOR
1002
}
1001
GENIUS_GENOLIS_13
1002
{
1000
ENT
1005
21057
1005
21056
1005
21055
1005
21054
1002
}
  0
POINT
  5
2105D
330
1F
100
AcDbEntity
  8
0
 60
     1
100
AcDbPoint
 10
822.5691646642308
 20
-62.89681066562526
 30
0.0
1001
GENIUS_GENOLIS_13
1002
{
1000
ENT
1005
2105C
1005
2105B
1005
2105A
1005
21059
1002
}
1001
GENIUS_GENOENT_13
1002
{
1000
MYREF
1005
2105D
1002
}
1002
{
1000
GRP
1005
0
1002
}
1001
GENIUS_GENOBJ-N-CRS_13
1002
{
1000
OWNER
1000
GEN
1002
}
1001
GENIUS_GENODEF_13
1002
{
1000
HIER
1070
    10
1002
}
1002
{
1000
MANEDIT
1070
     0
1002
}
1002
{
1000
NOSEL
1070
     0
1002
}
1002
{
1000
BEHIND
1070
     0
1002
}
1002
{
1000
OTHER
1070
     0
1002
}
1002
{
1000
REACTOR
1002
}
  0
POINT
  5
21062
330
1F
100
AcDbEntity
  8
0
 60
     1
100
AcDbPoint
 10
822.5691646642308
 20
-62.89681066562526
 30
0.0
1001
GENIUS_GENODEF_13
1002
{
1000
HIER
1070
    10
1002
}
1002
{
1000
MANEDIT
1070
     0
1002
}
1002
{
1000
NOSEL
1070
     0
1002
}
1002
{
1000
BEHIND
1070
     0
1002
}
1002
{
1000
OTHER
1070
     0
1002
}
1002
{
1000
REACTOR
1002
}
1001
GENIUS_GENOLIS_13
1002
{
1000
ENT
1005
21061
1005
21060
1005
2105F
1005
2105E
1002
}
1001
GENIUS_GENOENT_13
1002
{
1000
MYREF
1005
21062
1002
}
1002
{
1000
GRP
1005
0
1002
}
1001
GENIUS_GENOBJ-N-CRS_13
1002
{
1000
OWNER
1000
GEN
1002
}
  0
POINT
  5
21067
330
1F
100
AcDbEntity
  8
0
 60
     1
100
AcDbPoint
 10
822.5691646642308
 20
-62.89681066562526
 30
0.0
1001
GENIUS_GENODEF_13
1002
{
1000
HIER
1070
    10
1002
}
1002
{
1000
MANEDIT
1070
     0
1002
}
1002
{
1000
NOSEL
1070
     0
1002
}
1002
{
1000
BEHIND
1070
     0
1002
}
1002
{
1000
OTHER
1070
     0
1002
}
1002
{
1000
REACTOR
1002
}
1001
GENIUS_GENOLIS_13
1002
{
1000
ENT
1005
21066
1005
21065
1005
21064
1005
21063
1002
}
1001
GENIUS_GENOENT_13
1002
{
1000
MYREF
1005
21067
1002
}
1002
{
1000
GRP
1005
0
1002
}
1001
GENIUS_GENOBJ-N-CRS_13
1002
{
1000
OWNER
1000
GEN
1002
}
  0
POINT
  5
2106C
330
1F
100
AcDbEntity
  8
0
 60
     1
100
AcDbPoint
 10
822.5691646642308
 20
-62.89681066562526
 30
0.0
1001
GENIUS_GENOLIS_13
1002
{
1000
ENT
1005
2106B
1005
2106A
1005
21069
1005
21068
1002
}
1001
GENIUS_GENOENT_13
1002
{
1000
MYREF
1005
2106C
1002
}
1002
{
1000
GRP
1005
0
1002
}
1001
GENIUS_GENOBJ-N-CRS_13
1002
{
1000
OWNER
1000
GEN
1002
}
1001
GENIUS_GENODEF_13
1002
{
1000
HIER
1070
    10
1002
}
1002
{
1000
MANEDIT
1070
     0
1002
}
1002
{
1000
NOSEL
1070
     0
1002
}
1002
{
1000
BEHIND
1070
     0
1002
}
1002
{
1000
OTHER
1070
     0
1002
}
1002
{
1000
REACTOR
1002
}
  0
POINT
  5
21071
330
1F
100
AcDbEntity
  8
0
 60
     1
100
AcDbPoint
 10
822.5691646642308
 20
-62.89681066562526
 30
0.0
1001
GENIUS_GENODEF_13
1002
{
1000
HIER
1070
    10
1002
}
1002
{
1000
MANEDIT
1070
     0
1002
}
1002
{
1000
NOSEL
1070
     0
1002
}
1002
{
1000
BEHIND
1070
     0
1002
}
1002
{
1000
OTHER
1070
     0
1002
}
1002
{
1000
REACTOR
1002
}
1001
GENIUS_GENOBJ-N-CRS_13
1002
{
1000
OWNER
1000
GEN
1002
}
1001
GENIUS_GENOLIS_13
1002
{
1000
ENT
1005
21070
1005
2106F
1005
2106E
1005
2106D
1002
}
1001
GENIUS_GENOENT_13
1002
{
1000
MYREF
1005
21071
1002
}
1002
{
1000
GRP
1005
0
1002
}
  0
POINT
  5
21285
330
1F
100
AcDbEntity
  8
0
 60
     1
100
AcDbPoint
 10
1611.527595759198
 20
-62.89681066562526
 30
0.0
1001
GENIUS_GENODEF_13
1002
{
1000
HIER
1070
    10
1002
}
1002
{
1000
MANEDIT
1070
     0
1002
}
1002
{
1000
NOSEL
1070
     0
1002
}
1002
{
1000
BEHIND
1070
     0
1002
}
1002
{
1000
OTHER
1070
     0
1002
}
1002
{
1000
REACTOR
1002
}
1001
GENIUS_GENOLIS_13
1002
{
1000
ENT
1005
210DD
1005
210DC
1005
210D2
1005
210DB
1002
}
1001
GENIUS_GENOENT_13
1002
{
1000
MYREF
1005
21285
1002
}
1002
{
1000
GRP
1005
0
1002
}
1001
GENIUS_GENOBJ-N-CRS_13
1002
{
1000
OWNER
1000
GEN
1002
}
  0
POINT
  5
21286
330
1F
100
AcDbEntity
  8
0
 60
     1
100
AcDbPoint
 10
1611.527595759198
 20
-62.89681066562526
 30
0.0
1001
GENIUS_GENOLIS_13
1002
{
1000
ENT
1005
2110C
1005
2110D
1005
210FB
1005
2110B
1002
}
1001
GENIUS_GENOENT_13
1002
{
1000
MYREF
1005
21286
1002
}
1002
{
1000
GRP
1005
0
1002
}
1001
GENIUS_GENOBJ-N-CRS_13
1002
{
1000
OWNER
1000
GEN
1002
}
1001
GENIUS_GENODEF_13
1002
{
1000
HIER
1070
    10
1002
}
1002
{
1000
MANEDIT
1070
     0
1002
}
1002
{
1000
NOSEL
1070
     0
1002
}
1002
{
1000
BEHIND
1070
     0
1002
}
1002
{
1000
OTHER
1070
     0
1002
}
1002
{
1000
REACTOR
1002
}
  0
POINT
  5
21287
330
1F
100
AcDbEntity
  8
0
 60
     1
100
AcDbPoint
 10
1611.527595759198
 20
-62.89681066562526
 30
0.0
1001
GENIUS_GENOENT_13
1002
{
1000
MYREF
1005
21287
1002
}
1002
{
1000
GRP
1005
0
1002
}
1001
GENIUS_GENOBJ-N-CRS_13
1002
{
1000
OWNER
1000
GEN
1002
}
1001
GENIUS_GENODEF_13
1002
{
1000
HIER
1070
    10
1002
}
1002
{
1000
MANEDIT
1070
     0
1002
}
1002
{
1000
NOSEL
1070
     0
1002
}
1002
{
1000
BEHIND
1070
     0
1002
}
1002
{
1000
OTHER
1070
     0
1002
}
1002
{
1000
REACTOR
1002
}
1001
GENIUS_GENOLIS_13
1002
{
1000
ENT
1005
21106
1005
21105
1005
21100
1005
21104
1002
}
  0
POINT
  5
21288
330
1F
100
AcDbEntity
  8
0
 60
     1
100
AcDbPoint
 10
1611.527595759198
 20
-62.89681066562526
 30
0.0
1001
GENIUS_GENODEF_13
1002
{
1000
HIER
1070
    10
1002
}
1002
{
1000
MANEDIT
1070
     0
1002
}
1002
{
1000
NOSEL
1070
     0
1002
}
1002
{
1000
BEHIND
1070
     0
1002
}
1002
{
1000
OTHER
1070
     0
1002
}
1002
{
1000
REACTOR
1002
}
1001
GENIUS_GENOENT_13
1002
{
1000
MYREF
1005
21288
1002
}
1002
{
1000
GRP
1005
0
1002
}
1001
GENIUS_GENOBJ-N-CRS_13
1002
{
1000
OWNER
1000
GEN
1002
}
1001
GENIUS_GENOLIS_13
1002
{
1000
ENT
1005
210BA
1005
210B9
1005
210B6
1005
2109E
1002
}
  0
POINT
  5
21289
330
1F
100
AcDbEntity
  8
0
 60
     1
100
AcDbPoint
 10
1611.527595759198
 20
-62.89681066562526
 30
0.0
1001
GENIUS_GENODEF_13
1002
{
1000
HIER
1070
    10
1002
}
1002
{
1000
MANEDIT
1070
     0
1002
}
1002
{
1000
NOSEL
1070
     0
1002
}
1002
{
1000
BEHIND
1070
     0
1002
}
1002
{
1000
OTHER
1070
     0
1002
}
1002
{
1000
REACTOR
1002
}
1001
GENIUS_GENOBJ-N-CRS_13
1002
{
1000
OWNER
1000
GEN
1002
}
1001
GENIUS_GENOLIS_13
1002
{
1000
ENT
1005
211B7
1005
211AA
1005
21196
1005
211B8
1002
}
1001
GENIUS_GENOENT_13
1002
{
1000
MYREF
1005
21289
1002
}
1002
{
1000
GRP
1005
0
1002
}
  0
POINT
  5
2128A
330
1F
100
AcDbEntity
  8
0
 60
     1
100
AcDbPoint
 10
1611.527595759198
 20
-62.89681066562526
 30
0.0
1001
GENIUS_GENOLIS_13
1002
{
1000
ENT
1005
21195
1005
21094
1005
21263
1005
21262
1002
}
1001
GENIUS_GENOENT_13
1002
{
1000
MYREF
1005
2128A
1002
}
1002
{
1000
GRP
1005
0
1002
}
1001
GENIUS_GENOBJ-N-CRS_13
1002
{
1000
OWNER
1000
GEN
1002
}
1001
GENIUS_GENODEF_13
1002
{
1000
HIER
1070
    10
1002
}
1002
{
1000
MANEDIT
1070
     0
1002
}
1002
{
1000
NOSEL
1070
     0
1002
}
1002
{
1000
BEHIND
1070
     0
1002
}
1002
{
1000
OTHER
1070
     0
1002
}
1002
{
1000
REACTOR
1002
}
  0
POINT
  5
2128B
330
1F
100
AcDbEntity
  8
0
 60
     1
100
AcDbPoint
 10
1611.527595759198
 20
-62.89681066562526
 30
0.0
1001
GENIUS_GENODEF_13
1002
{
1000
HIER
1070
    10
1002
}
1002
{
1000
MANEDIT
1070
     0
1002
}
1002
{
1000
NOSEL
1070
     0
1002
}
1002
{
1000
BEHIND
1070
     0
1002
}
1002
{
1000
OTHER
1070
     0
1002
}
1002
{
1000
REACTOR
1002
}
1001
GENIUS_GENOLIS_13
1002
{
1000
ENT
1005
211B6
1005
211B5
1005
211B4
1005
211B3
1002
}
1001
GENIUS_GENOENT_13
1002
{
1000
MYREF
1005
2128B
1002
}
1002
{
1000
GRP
1005
0
1002
}
1001
GENIUS_GENOBJ-N-CRS_13
1002
{
1000
OWNER
1000
GEN
1002
}
  0
POINT
  5
212FC
330
1F
100
AcDbEntity
  8
0
 60
     1
100
AcDbPoint
 10
1254.090389336294
 20
7.872046492952847
 30
0.0
1001
GENIUS_GENOENT_13
1002
{
1000
MYREF
1005
212FC
1002
}
1002
{
1000
GRP
1005
0
1002
}
1001
GENIUS_GENOBJ-N-CRS_13
1002
{
1000
OWNER
1000
GEN
1002
}
1001
GENIUS_GENODEF_13
1002
{
1000
HIER
1070
    10
1002
}
1002
{
1000
MANEDIT
1070
     0
1002
}
1002
{
1000
NOSEL
1070
     0
1002
}
1002
{
1000
BEHIND
1070
     0
1002
}
1002
{
1000
OTHER
1070
     0
1002
}
1002
{
1000
REACTOR
1002
}
1001
GENIUS_GENOLIS_13
1002
{
1000
ENT
1005
212B8
1005
212CF
1005
212C8
1005
212D5
1002
}
  0
POINT
  5
212FD
330
1F
100
AcDbEntity
  8
0
 60
     1
100
AcDbPoint
 10
1254.090389336294
 20
7.872046492952847
 30
0.0
1001
GENIUS_GENOBJ-N-CRS_13
1002
{
1000
OWNER
1000
GEN
1002
}
1001
GENIUS_GENOLIS_13
1002
{
1000
ENT
1005
212E7
1005
212D4
1005
212C7
1005
212E8
1002
}
1001
GENIUS_GENOENT_13
1002
{
1000
MYREF
1005
212FD
1002
}
1002
{
1000
GRP
1005
0
1002
}
1001
GENIUS_GENODEF_13
1002
{
1000
HIER
1070
    10
1002
}
1002
{
1000
MANEDIT
1070
     0
1002
}
1002
{
1000
NOSEL
1070
     0
1002
}
1002
{
1000
BEHIND
1070
     0
1002
}
1002
{
1000
OTHER
1070
     0
1002
}
1002
{
1000
REACTOR
1002
}
  0
POINT
  5
212FE
330
1F
100
AcDbEntity
  8
0
 60
     1
100
AcDbPoint
 10
1254.090389336294
 20
7.872046492952847
 30
0.0
1001
GENIUS_GENODEF_13
1002
{
1000
HIER
1070
    10
1002
}
1002
{
1000
MANEDIT
1070
     0
1002
}
1002
{
1000
NOSEL
1070
     0
1002
}
1002
{
1000
BEHIND
1070
     0
1002
}
1002
{
1000
OTHER
1070
     0
1002
}
1002
{
1000
REACTOR
1002
}
1001
GENIUS_GENOLIS_13
1002
{
1000
ENT
1005
212C1
1005
2128D
1005
212BF
1005
212C5
1002
}
1001
GENIUS_GENOENT_13
1002
{
1000
MYREF
1005
212FE
1002
}
1002
{
1000
GRP
1005
0
1002
}
1001
GENIUS_GENOBJ-N-CRS_13
1002
{
1000
OWNER
1000
GEN
1002
}
  0
POINT
  5
212FF
330
1F
100
AcDbEntity
  8
0
 60
     1
100
AcDbPoint
 10
1254.090389336294
 20
7.872046492952847
 30
0.0
1001
GENIUS_GENOBJ-N-CRS_13
1002
{
1000
OWNER
1000
GEN
1002
}
1001
GENIUS_GENOLIS_13
1002
{
1000
ENT
1005
212B9
1005
2128C
1005
212BE
1005
212C4
1002
}
1001
GENIUS_GENOENT_13
1002
{
1000
MYREF
1005
212FF
1002
}
1002
{
1000
GRP
1005
0
1002
}
1001
GENIUS_GENODEF_13
1002
{
1000
HIER
1070
    10
1002
}
1002
{
1000
MANEDIT
1070
     0
1002
}
1002
{
1000
NOSEL
1070
     0
1002
}
1002
{
1000
BEHIND
1070
     0
1002
}
1002
{
1000
OTHER
1070
     0
1002
}
1002
{
1000
REACTOR
1002
}
  0
POINT
  5
2148E
330
1F
100
AcDbEntity
  8
0
 60
     1
100
AcDbPoint
 10
1141.121855987868
 20
-227.7185993099247
 30
0.0
1001
GENIUS_GENOBJ-N-CRS_13
1002
{
1000
OWNER
1000
GEN
1002
}
1001
GENIUS_GENOLIS_13
1002
{
1000
ENT
1005
21473
1005
21485
1005
21468
1005
2148A
1002
}
1001
GENIUS_GENOENT_13
1002
{
1000
MYREF
1005
2148E
1002
}
1002
{
1000
GRP
1005
0
1002
}
1001
GENIUS_GENODEF_13
1002
{
1000
HIER
1070
    10
1002
}
1002
{
1000
MANEDIT
1070
     0
1002
}
1002
{
1000
NOSEL
1070
     0
1002
}
1002
{
1000
BEHIND
1070
     0
1002
}
1002
{
1000
OTHER
1070
     0
1002
}
1002
{
1000
REACTOR
1002
}
  0
POINT
  5
2148F
330
1F
100
AcDbEntity
  8
0
 60
     1
100
AcDbPoint
 10
1141.121855987868
 20
-227.7185993099247
 30
0.0
1001
GENIUS_GENOENT_13
1002
{
1000
MYREF
1005
2148F
1002
}
1002
{
1000
GRP
1005
0
1002
}
1001
GENIUS_GENOBJ-N-CRS_13
1002
{
1000
OWNER
1000
GEN
1002
}
1001
GENIUS_GENODEF_13
1002
{
1000
HIER
1070
    10
1002
}
1002
{
1000
MANEDIT
1070
     0
1002
}
1002
{
1000
NOSEL
1070
     0
1002
}
1002
{
1000
BEHIND
1070
     0
1002
}
1002
{
1000
OTHER
1070
     0
1002
}
1002
{
1000
REACTOR
1002
}
1001
GENIUS_GENOLIS_13
1002
{
1000
ENT
1005
21476
1005
2141F
1005
21467
1005
21484
1002
}
  0
POINT
  5
21490
330
1F
100
AcDbEntity
  8
0
 60
     1
100
AcDbPoint
 10
1141.121855987868
 20
-227.7185993099247
 30
0.0
1001
GENIUS_GENODEF_13
1002
{
1000
HIER
1070
    10
1002
}
1002
{
1000
MANEDIT
1070
     0
1002
}
1002
{
1000
NOSEL
1070
     0
1002
}
1002
{
1000
BEHIND
1070
     0
1002
}
1002
{
1000
OTHER
1070
     0
1002
}
1002
{
1000
REACTOR
1002
}
1001
GENIUS_GENOLIS_13
1002
{
1000
ENT
1005
21424
1005
2143B
1005
2143A
1005
21437
1002
}
1001
GENIUS_GENOENT_13
1002
{
1000
MYREF
1005
21490
1002
}
1002
{
1000
GRP
1005
0
1002
}
1001
GENIUS_GENOBJ-N-CRS_13
1002
{
1000
OWNER
1000
GEN
1002
}
  0
POINT
  5
21491
330
1F
100
AcDbEntity
  8
0
 60
     1
100
AcDbPoint
 10
1141.121855987868
 20
-227.7185993099247
 30
0.0
1001
GENIUS_GENOBJ-N-CRS_13
1002
{
1000
OWNER
1000
GEN
1002
}
1001
GENIUS_GENOLIS_13
1002
{
1000
ENT
1005
2142E
1005
21430
1005
21425
1005
2142B
1002
}
1001
GENIUS_GENOENT_13
1002
{
1000
MYREF
1005
21491
1002
}
1002
{
1000
GRP
1005
0
1002
}
1001
GENIUS_GENODEF_13
1002
{
1000
HIER
1070
    10
1002
}
1002
{
1000
MANEDIT
1070
     0
1002
}
1002
{
1000
NOSEL
1070
     0
1002
}
1002
{
1000
BEHIND
1070
     0
1002
}
1002
{
1000
OTHER
1070
     0
1002
}
1002
{
1000
REACTOR
1002
}
  0
POINT
  5
214A8
330
1F
100
AcDbEntity
  8
0
 60
     1
100
AcDbPoint
 10
822.5691646642308
 20
-62.89681066562526
 30
0.0
1001
GENIUS_GENOENT_13
1002
{
1000
MYREF
1005
214A8
1002
}
1002
{
1000
GRP
1005
0
1002
}
1001
GENIUS_GENOLIS_13
1002
{
1000
ENT
1005
214A7
1005
214A6
1005
214A5
1005
214A4
1002
}
1001
GENIUS_GENOBJ-N-CRS_13
1002
{
1000
OWNER
1000
GEN
1002
}
1001
GENIUS_GENODEF_13
1002
{
1000
HIER
1070
    10
1002
}
1002
{
1000
MANEDIT
1070
     0
1002
}
1002
{
1000
NOSEL
1070
     0
1002
}
1002
{
1000
BEHIND
1070
     0
1002
}
1002
{
1000
OTHER
1070
     0
1002
}
1002
{
1000
REACTOR
1002
}
  0
POINT
  5
214AD
330
1F
100
AcDbEntity
  8
0
 60
     1
100
AcDbPoint
 10
822.5691646642308
 20
-62.89681066562526
 30
0.0
1001
GENIUS_GENOBJ-N-CRS_13
1002
{
1000
OWNER
1000
GEN
1002
}
1001
GENIUS_GENOENT_13
1002
{
1000
MYREF
1005
214AD
1002
}
1002
{
1000
GRP
1005
0
1002
}
1001
GENIUS_GENOLIS_13
1002
{
1000
ENT
1005
214AC
1005
214AB
1005
214AA
1005
214A9
1002
}
1001
GENIUS_GENODEF_13
1002
{
1000
HIER
1070
    10
1002
}
1002
{
1000
MANEDIT
1070
     0
1002
}
1002
{
1000
NOSEL
1070
     0
1002
}
1002
{
1000
BEHIND
1070
     0
1002
}
1002
{
1000
OTHER
1070
     0
1002
}
1002
{
1000
REACTOR
1002
}
  0
POINT
  5
214B2
330
1F
100
AcDbEntity
  8
0
 60
     1
100
AcDbPoint
 10
822.5691646642308
 20
-62.89681066562526
 30
0.0
1001
GENIUS_GENOLIS_13
1002
{
1000
ENT
1005
214B1
1005
214B0
1005
214AF
1005
214AE
1002
}
1001
GENIUS_GENODEF_13
1002
{
1000
HIER
1070
    10
1002
}
1002
{
1000
MANEDIT
1070
     0
1002
}
1002
{
1000
NOSEL
1070
     0
1002
}
1002
{
1000
BEHIND
1070
     0
1002
}
1002
{
1000
OTHER
1070
     0
1002
}
1002
{
1000
REACTOR
1002
}
1001
GENIUS_GENOENT_13
1002
{
1000
MYREF
1005
214B2
1002
}
1002
{
1000
GRP
1005
0
1002
}
1001
GENIUS_GENOBJ-N-CRS_13
1002
{
1000
OWNER
1000
GEN
1002
}
  0
POINT
  5
214B7
330
1F
100
AcDbEntity
  8
0
 60
     1
100
AcDbPoint
 10
822.5691646642308
 20
-62.89681066562526
 30
0.0
1001
GENIUS_GENOLIS_13
1002
{
1000
ENT
1005
214B6
1005
214B5
1005
214B4
1005
214B3
1002
}
1001
GENIUS_GENODEF_13
1002
{
1000
HIER
1070
    10
1002
}
1002
{
1000
MANEDIT
1070
     0
1002
}
1002
{
1000
NOSEL
1070
     0
1002
}
1002
{
1000
BEHIND
1070
     0
1002
}
1002
{
1000
OTHER
1070
     0
1002
}
1002
{
1000
REACTOR
1002
}
1001
GENIUS_GENOENT_13
1002
{
1000
MYREF
1005
214B7
1002
}
1002
{
1000
GRP
1005
0
1002
}
1001
GENIUS_GENOBJ-N-CRS_13
1002
{
1000
OWNER
1000
GEN
1002
}
  0
POINT
  5
214DD
330
1F
100
AcDbEntity
  8
0
 60
     1
100
AcDbPoint
 10
822.5691646642308
 20
-62.89681066562526
 30
0.0
1001
GENIUS_GENOBJ-NBEHI-BHB_13
1002
{
1000
OWNER
1000
genbehi
1002
}
1001
GENIUS_GENODEF_13
1002
{
1000
HIER
1070
     1
1002
}
1002
{
1000
MANEDIT
1070
     0
1002
}
1002
{
1000
NOSEL
1070
     1
1002
}
1002
{
1000
BEHIND
1070
     0
1002
}
1002
{
1000
OTHER
1070
     1
1002
}
1002
{
1000
REACTOR
1002
}
1001
GENIUS_GENOLIS_13
1002
{
1000
ENT
1002
}
1001
GENIUS_GENOENT_13
1002
{
1000
MYREF
1005
214DD
1002
}
1002
{
1000
GRP
1005
0
1002
}
1001
GENIUS_GENBH_13
1002
{
1000
FGO
1005
0
1002
}
  0
POINT
  5
214DE
330
1F
100
AcDbEntity
  8
0
 60
     1
100
AcDbPoint
 10
828.7668060465394
 20
-62.89681066562526
 30
0.0
1001
GENIUS_GENOENT_13
1002
{
1000
MYREF
1005
214DE
1002
}
1002
{
1000
GRP
1005
0
1002
}
1001
GENIUS_GENOBJ-NBEHI-BHF_13
1002
{
1000
OWNER
1000
genbehi
1002
}
1001
GENIUS_GENOLIS_13
1002
{
1000
ENT
1005
0
1002
}
1001
GENIUS_GENBH_13
1002
{
1000
OIUMAP
1000
OIU
1002
}
1002
{
1000
FLAGS
1070
    32
1002
}
1002
{
1000
FGLEVEL
1040
3.14159265359
1002
}
1002
{
1000
BGO
1005
214DD
1002
}
1001
GENIUS_GENODEF_13
1002
{
1000
HIER
1070
     1
1002
}
1002
{
1000
MANEDIT
1070
     1
1002
}
1002
{
1000
NOSEL
1070
     1
1002
}
1002
{
1000
BEHIND
1070
     0
1002
}
1002
{
1000
OTHER
1070
     0
1002
}
1002
{
1000
REACTOR
1002
}
  0
TEXT
  5
21EA2
330
1F
100
AcDbEntity
  8
LOGO
 62
     6
100
AcDbText
 10
2300.793672622304
 20
106.8382753798717
 30
0.0
 40
10.0
  1
MVSE-260-4E2
  7
DAYUS
100
AcDbText
  0
MTEXT
  5
22CD5
330
1F
100
AcDbEntity
  8
AM_REFDIM
100
AcDbMText
 10
1722.566548732013
 20
649.9475444420231
 30
0.0
 40
5.0
 41
0.0
 71
     9
 72
     1
  1

  7
DAYUS
1001
ACAD
1000
MTEXTBEGIN
1070
    73
1070
     1
1070
    44
1040
1.0
1070
    74
1070
     0
1000
MTEXTEND
  0
MTEXT
  5
22CD6
330
1F
100
AcDbEntity
  8
AM_REFDIM
100
AcDbMText
 10
1917.038886315096
 20
715.1314813531257
 30
0.0
 40
5.0
 41
0.0
 71
     9
 72
     1
  1

  7
DAYUS
1001
ACAD
1000
MTEXTBEGIN
1070
    73
1070
     1
1070
    44
1040
1.0
1070
    74
1070
     0
1000
MTEXTEND
  0
MTEXT
  5
22CD7
330
1F
100
AcDbEntity
  8
AM_REFDIM
100
AcDbMText
 10
1910.952530151425
 20
647.3967098436999
 30
0.0
 40
5.0
 41
0.0
 71
     9
 72
     1
  1

  7
DAYUS
1001
ACAD
1000
MTEXTBEGIN
1070
    73
1070
     1
1070
    44
1040
1.0
1070
    74
1070
     0
1000
MTEXTEND
  0
MTEXT
  5
22CD8
330
1F
100
AcDbEntity
  8
AM_REFDIM
100
AcDbMText
 10
2044.526181190233
 20
421.4054798539307
 30
0.0
 40
5.0
 41
0.0
 71
     9
 72
     1
  1

  7
DAYUS
1001
ACAD
1000
MTEXTBEGIN
1070
    73
1070
     1
1070
    44
1040
1.0
1070
    74
1070
     0
1000
MTEXTEND
  0
MTEXT
  5
22CD9
330
1F
100
AcDbEntity
  8
AM_REFDIM
100
AcDbMText
 10
2038.439825026562
 20
353.6707083445048
 30
0.0
 40
5.0
 41
0.0
 71
     9
 72
     1
  1

  7
DAYUS
1001
ACAD
1000
MTEXTBEGIN
1070
    73
1070
     1
1070
    44
1040
1.0
1070
    74
1070
     0
1000
MTEXTEND
  0
MTEXT
  5
22CDA
330
1F
100
AcDbEntity
  8
AM_REFDIM
100
AcDbMText
 10
1850.053843607149
 20
356.2215429428281
 30
0.0
 40
5.0
 41
0.0
 71
     9
 72
     1
  1

  7
DAYUS
1001
ACAD
1000
MTEXTBEGIN
1070
    73
1070
     1
1070
    44
1040
1.0
1070
    74
1070
     0
1000
MTEXTEND
  0
MTEXT
  5
22CDD
330
1F
100
AcDbEntity
  8
AM_5
 62
     2
100
AcDbMText
 10
1525.576047872008
 20
655.5631167203904
 30
0.0
 40
3.5
 41
0.0
 71
     7
 72
     1
  1

  7
ACISOTS
1001
ACAD
1000
MTEXTBEGIN
1070
    73
1070
     1
1070
    44
1040
1.0
1070
    74
1070
     0
1000
MTEXTEND
  0
MTEXT
  5
22CDE
330
1F
100
AcDbEntity
  8
AM_5
 62
     2
100
AcDbMText
 10
1536.663505892731
 20
662.2961764664402
 30
0.0
 40
3.5
 41
0.0
 71
     9
 72
     1
  1

  7
ACISOTS
1001
ACAD
1000
MTEXTBEGIN
1070
    73
1070
     1
1070
    44
1040
1.0
1070
    74
1070
     0
1000
MTEXTEND
  0
MTEXT
  5
22CDF
330
1F
100
AcDbEntity
  8
AM_5
100
AcDbMText
 10
1400.598009733726
 20
395.6576945931838
 30
0.0
 40
5.0
 41
0.0
 71
     6
 72
     1
  1

  7
DAYUS
1001
ACAD
1000
MTEXTBEGIN
1070
    73
1070
     1
1070
    44
1040
1.0
1070
    74
1070
     0
1000
MTEXTEND
  0
POINT
  5
2335F
330
1F
100
AcDbEntity
  8
0
 60
     1
100
AcDbPoint
 10
1161.378046909485
 20
437.969779061199
 30
0.0
1001
GENIUS_GENOENT_13
1002
{
1000
MYREF
1005
2335F
1002
}
1002
{
1000
GRP
1005
0
1002
}
1001
GENIUS_GENOBJ-N-CRS_13
1002
{
1000
OWNER
1000
GEN
1002
}
1001
GENIUS_GENODEF_13
1002
{
1000
HIER
1070
    10
1002
}
1002
{
1000
MANEDIT
1070
     0
1002
}
1002
{
1000
NOSEL
1070
     0
1002
}
1002
{
1000
BEHIND
1070
     0
1002
}
1002
{
1000
OTHER
1070
     0
1002
}
1002
{
1000
REACTOR
1002
}
1001
GENIUS_GENOLIS_13
1002
{
1000
ENT
1005
2335E
1005
2335D
1005
2335C
1005
2335B
1002
}
  0
POINT
  5
23364
330
1F
100
AcDbEntity
  8
0
 60
     1
100
AcDbPoint
 10
1161.378046909485
 20
437.969779061199
 30
0.0
1001
GENIUS_GENOLIS_13
1002
{
1000
ENT
1005
23363
1005
23362
1005
23361
1005
23360
1002
}
1001
GENIUS_GENOENT_13
1002
{
1000
MYREF
1005
23364
1002
}
1002
{
1000
GRP
1005
0
1002
}
1001
GENIUS_GENOBJ-N-CRS_13
1002
{
1000
OWNER
1000
GEN
1002
}
1001
GENIUS_GENODEF_13
1002
{
1000
HIER
1070
    10
1002
}
1002
{
1000
MANEDIT
1070
     0
1002
}
1002
{
1000
NOSEL
1070
     0
1002
}
1002
{
1000
BEHIND
1070
     0
1002
}
1002
{
1000
OTHER
1070
     0
1002
}
1002
{
1000
REACTOR
1002
}
  0
POINT
  5
23369
330
1F
100
AcDbEntity
  8
0
 60
     1
100
AcDbPoint
 10
1161.378046909485
 20
437.969779061199
 30
0.0
1001
GENIUS_GENODEF_13
1002
{
1000
HIER
1070
    10
1002
}
1002
{
1000
MANEDIT
1070
     0
1002
}
1002
{
1000
NOSEL
1070
     0
1002
}
1002
{
1000
BEHIND
1070
     0
1002
}
1002
{
1000
OTHER
1070
     0
1002
}
1002
{
1000
REACTOR
1002
}
1001
GENIUS_GENOLIS_13
1002
{
1000
ENT
1005
23368
1005
23367
1005
23366
1005
23365
1002
}
1001
GENIUS_GENOENT_13
1002
{
1000
MYREF
1005
23369
1002
}
1002
{
1000
GRP
1005
0
1002
}
1001
GENIUS_GENOBJ-N-CRS_13
1002
{
1000
OWNER
1000
GEN
1002
}
  0
POINT
  5
2336E
330
1F
100
AcDbEntity
  8
0
 60
     1
100
AcDbPoint
 10
1161.378046909485
 20
437.969779061199
 30
0.0
1001
GENIUS_GENOENT_13
1002
{
1000
MYREF
1005
2336E
1002
}
1002
{
1000
GRP
1005
0
1002
}
1001
GENIUS_GENOLIS_13
1002
{
1000
ENT
1005
2336D
1005
2336C
1005
2336B
1005
2336A
1002
}
1001
GENIUS_GENOBJ-N-CRS_13
1002
{
1000
OWNER
1000
GEN
1002
}
1001
GENIUS_GENODEF_13
1002
{
1000
HIER
1070
    10
1002
}
1002
{
1000
MANEDIT
1070
     0
1002
}
1002
{
1000
NOSEL
1070
     0
1002
}
1002
{
1000
BEHIND
1070
     0
1002
}
1002
{
1000
OTHER
1070
     0
1002
}
1002
{
1000
REACTOR
1002
}
  0
POINT
  5
23373
330
1F
100
AcDbEntity
  8
0
 60
     1
100
AcDbPoint
 10
1161.378046909485
 20
437.969779061199
 30
0.0
1001
GENIUS_GENOLIS_13
1002
{
1000
ENT
1005
23372
1005
23371
1005
23370
1005
2336F
1002
}
1001
GENIUS_GENOBJ-N-CRS_13
1002
{
1000
OWNER
1000
GEN
1002
}
1001
GENIUS_GENOENT_13
1002
{
1000
MYREF
1005
23373
1002
}
1002
{
1000
GRP
1005
0
1002
}
1001
GENIUS_GENODEF_13
1002
{
1000
HIER
1070
    10
1002
}
1002
{
1000
MANEDIT
1070
     0
1002
}
1002
{
1000
NOSEL
1070
     0
1002
}
1002
{
1000
BEHIND
1070
     0
1002
}
1002
{
1000
OTHER
1070
     0
1002
}
1002
{
1000
REACTOR
1002
}
  0
POINT
  5
23378
330
1F
100
AcDbEntity
  8
0
 60
     1
100
AcDbPoint
 10
1161.378046909485
 20
437.969779061199
 30
0.0
1001
GENIUS_GENOBJ-N-CRS_13
1002
{
1000
OWNER
1000
GEN
1002
}
1001
GENIUS_GENODEF_13
1002
{
1000
HIER
1070
    10
1002
}
1002
{
1000
MANEDIT
1070
     0
1002
}
1002
{
1000
NOSEL
1070
     0
1002
}
1002
{
1000
BEHIND
1070
     0
1002
}
1002
{
1000
OTHER
1070
     0
1002
}
1002
{
1000
REACTOR
1002
}
1001
GENIUS_GENOENT_13
1002
{
1000
MYREF
1005
23378
1002
}
1002
{
1000
GRP
1005
0
1002
}
1001
GENIUS_GENOLIS_13
1002
{
1000
ENT
1005
23377
1005
23376
1005
23375
1005
23374
1002
}
  0
POINT
  5
2337D
330
1F
100
AcDbEntity
  8
0
 60
     1
100
AcDbPoint
 10
1161.378046909485
 20
437.969779061199
 30
0.0
1001
GENIUS_GENOENT_13
1002
{
1000
MYREF
1005
2337D
1002
}
1002
{
1000
GRP
1005
0
1002
}
1001
GENIUS_GENOLIS_13
1002
{
1000
ENT
1005
2337C
1005
2337B
1005
2337A
1005
23379
1002
}
1001
GENIUS_GENOBJ-N-CRS_13
1002
{
1000
OWNER
1000
GEN
1002
}
1001
GENIUS_GENODEF_13
1002
{
1000
HIER
1070
    10
1002
}
1002
{
1000
MANEDIT
1070
     0
1002
}
1002
{
1000
NOSEL
1070
     0
1002
}
1002
{
1000
BEHIND
1070
     0
1002
}
1002
{
1000
OTHER
1070
     0
1002
}
1002
{
1000
REACTOR
1002
}
  0
POINT
  5
23382
330
1F
100
AcDbEntity
  8
0
 60
     1
100
AcDbPoint
 10
1161.378046909485
 20
437.969779061199
 30
0.0
1001
GENIUS_GENOENT_13
1002
{
1000
MYREF
1005
23382
1002
}
1002
{
1000
GRP
1005
0
1002
}
1001
GENIUS_GENOLIS_13
1002
{
1000
ENT
1005
23381
1005
23380
1005
2337F
1005
2337E
1002
}
1001
GENIUS_GENOBJ-N-CRS_13
1002
{
1000
OWNER
1000
GEN
1002
}
1001
GENIUS_GENODEF_13
1002
{
1000
HIER
1070
    10
1002
}
1002
{
1000
MANEDIT
1070
     0
1002
}
1002
{
1000
NOSEL
1070
     0
1002
}
1002
{
1000
BEHIND
1070
     0
1002
}
1002
{
1000
OTHER
1070
     0
1002
}
1002
{
1000
REACTOR
1002
}
  0
POINT
  5
23387
330
1F
100
AcDbEntity
  8
0
 60
     1
100
AcDbPoint
 10
1161.378046909485
 20
437.969779061199
 30
0.0
1001
GENIUS_GENOBJ-N-CRS_13
1002
{
1000
OWNER
1000
GEN
1002
}
1001
GENIUS_GENOLIS_13
1002
{
1000
ENT
1005
23386
1005
23385
1005
23384
1005
23383
1002
}
1001
GENIUS_GENOENT_13
1002
{
1000
MYREF
1005
23387
1002
}
1002
{
1000
GRP
1005
0
1002
}
1001
GENIUS_GENODEF_13
1002
{
1000
HIER
1070
    10
1002
}
1002
{
1000
MANEDIT
1070
     0
1002
}
1002
{
1000
NOSEL
1070
     0
1002
}
1002
{
1000
BEHIND
1070
     0
1002
}
1002
{
1000
OTHER
1070
     0
1002
}
1002
{
1000
REACTOR
1002
}
  0
POINT
  5
2338C
330
1F
100
AcDbEntity
  8
0
 60
     1
100
AcDbPoint
 10
1161.378046909485
 20
437.969779061199
 30
0.0
1001
GENIUS_GENOLIS_13
1002
{
1000
ENT
1005
2338B
1005
2338A
1005
23389
1005
23388
1002
}
1001
GENIUS_GENOENT_13
1002
{
1000
MYREF
1005
2338C
1002
}
1002
{
1000
GRP
1005
0
1002
}
1001
GENIUS_GENODEF_13
1002
{
1000
HIER
1070
    10
1002
}
1002
{
1000
MANEDIT
1070
     0
1002
}
1002
{
1000
NOSEL
1070
     0
1002
}
1002
{
1000
BEHIND
1070
     0
1002
}
1002
{
1000
OTHER
1070
     0
1002
}
1002
{
1000
REACTOR
1002
}
1001
GENIUS_GENOBJ-N-CRS_13
1002
{
1000
OWNER
1000
GEN
1002
}
  0
POINT
  5
23391
330
1F
100
AcDbEntity
  8
0
 60
     1
100
AcDbPoint
 10
1161.378046909485
 20
437.969779061199
 30
0.0
1001
GENIUS_GENOBJ-N-CRS_13
1002
{
1000
OWNER
1000
GEN
1002
}
1001
GENIUS_GENODEF_13
1002
{
1000
HIER
1070
    10
1002
}
1002
{
1000
MANEDIT
1070
     0
1002
}
1002
{
1000
NOSEL
1070
     0
1002
}
1002
{
1000
BEHIND
1070
     0
1002
}
1002
{
1000
OTHER
1070
     0
1002
}
1002
{
1000
REACTOR
1002
}
1001
GENIUS_GENOENT_13
1002
{
1000
MYREF
1005
23391
1002
}
1002
{
1000
GRP
1005
0
1002
}
1001
GENIUS_GENOLIS_13
1002
{
1000
ENT
1005
23390
1005
2338F
1005
2338E
1005
2338D
1002
}
  0
POINT
  5
23396
330
1F
100
AcDbEntity
  8
0
 60
     1
100
AcDbPoint
 10
1161.378046909485
 20
437.969779061199
 30
0.0
1001
GENIUS_GENODEF_13
1002
{
1000
HIER
1070
    10
1002
}
1002
{
1000
MANEDIT
1070
     0
1002
}
1002
{
1000
NOSEL
1070
     0
1002
}
1002
{
1000
BEHIND
1070
     0
1002
}
1002
{
1000
OTHER
1070
     0
1002
}
1002
{
1000
REACTOR
1002
}
1001
GENIUS_GENOBJ-N-CRS_13
1002
{
1000
OWNER
1000
GEN
1002
}
1001
GENIUS_GENOLIS_13
1002
{
1000
ENT
1005
23395
1005
23394
1005
23393
1005
23392
1002
}
1001
GENIUS_GENOENT_13
1002
{
1000
MYREF
1005
23396
1002
}
1002
{
1000
GRP
1005
0
1002
}
  0
POINT
  5
2339B
330
1F
100
AcDbEntity
  8
0
 60
     1
100
AcDbPoint
 10
1161.378046909485
 20
437.969779061199
 30
0.0
1001
GENIUS_GENOLIS_13
1002
{
1000
ENT
1005
2339A
1005
23399
1005
23398
1005
23397
1002
}
1001
GENIUS_GENOENT_13
1002
{
1000
MYREF
1005
2339B
1002
}
1002
{
1000
GRP
1005
0
1002
}
1001
GENIUS_GENOBJ-N-CRS_13
1002
{
1000
OWNER
1000
GEN
1002
}
1001
GENIUS_GENODEF_13
1002
{
1000
HIER
1070
    10
1002
}
1002
{
1000
MANEDIT
1070
     0
1002
}
1002
{
1000
NOSEL
1070
     0
1002
}
1002
{
1000
BEHIND
1070
     0
1002
}
1002
{
1000
OTHER
1070
     0
1002
}
1002
{
1000
REACTOR
1002
}
  0
POINT
  5
233A0
330
1F
100
AcDbEntity
  8
0
 60
     1
100
AcDbPoint
 10
1161.378046909485
 20
437.969779061199
 30
0.0
1001
GENIUS_GENODEF_13
1002
{
1000
HIER
1070
    10
1002
}
1002
{
1000
MANEDIT
1070
     0
1002
}
1002
{
1000
NOSEL
1070
     0
1002
}
1002
{
1000
BEHIND
1070
     0
1002
}
1002
{
1000
OTHER
1070
     0
1002
}
1002
{
1000
REACTOR
1002
}
1001
GENIUS_GENOLIS_13
1002
{
1000
ENT
1005
2339F
1005
2339E
1005
2339D
1005
2339C
1002
}
1001
GENIUS_GENOENT_13
1002
{
1000
MYREF
1005
233A0
1002
}
1002
{
1000
GRP
1005
0
1002
}
1001
GENIUS_GENOBJ-N-CRS_13
1002
{
1000
OWNER
1000
GEN
1002
}
  0
POINT
  5
233A5
330
1F
100
AcDbEntity
  8
0
 60
     1
100
AcDbPoint
 10
1161.378046909485
 20
437.969779061199
 30
0.0
1001
GENIUS_GENOBJ-N-CRS_13
1002
{
1000
OWNER
1000
GEN
1002
}
1001
GENIUS_GENOLIS_13
1002
{
1000
ENT
1005
233A4
1005
233A3
1005
233A2
1005
233A1
1002
}
1001
GENIUS_GENOENT_13
1002
{
1000
MYREF
1005
233A5
1002
}
1002
{
1000
GRP
1005
0
1002
}
1001
GENIUS_GENODEF_13
1002
{
1000
HIER
1070
    10
1002
}
1002
{
1000
MANEDIT
1070
     0
1002
}
1002
{
1000
NOSEL
1070
     0
1002
}
1002
{
1000
BEHIND
1070
     0
1002
}
1002
{
1000
OTHER
1070
     0
1002
}
1002
{
1000
REACTOR
1002
}
  0
POINT
  5
233AA
330
1F
100
AcDbEntity
  8
0
 60
     1
100
AcDbPoint
 10
1161.378046909485
 20
437.969779061199
 30
0.0
1001
GENIUS_GENOENT_13
1002
{
1000
MYREF
1005
233AA
1002
}
1002
{
1000
GRP
1005
0
1002
}
1001
GENIUS_GENOBJ-N-CRS_13
1002
{
1000
OWNER
1000
GEN
1002
}
1001
GENIUS_GENOLIS_13
1002
{
1000
ENT
1005
233A9
1005
233A8
1005
233A7
1005
233A6
1002
}
1001
GENIUS_GENODEF_13
1002
{
1000
HIER
1070
    10
1002
}
1002
{
1000
MANEDIT
1070
     0
1002
}
1002
{
1000
NOSEL
1070
     0
1002
}
1002
{
1000
BEHIND
1070
     0
1002
}
1002
{
1000
OTHER
1070
     0
1002
}
1002
{
1000
REACTOR
1002
}
  0
POINT
  5
233AF
330
1F
100
AcDbEntity
  8
0
 60
     1
100
AcDbPoint
 10
1161.378046909485
 20
437.969779061199
 30
0.0
1001
GENIUS_GENOBJ-N-CRS_13
1002
{
1000
OWNER
1000
GEN
1002
}
1001
GENIUS_GENODEF_13
1002
{
1000
HIER
1070
    10
1002
}
1002
{
1000
MANEDIT
1070
     0
1002
}
1002
{
1000
NOSEL
1070
     0
1002
}
1002
{
1000
BEHIND
1070
     0
1002
}
1002
{
1000
OTHER
1070
     0
1002
}
1002
{
1000
REACTOR
1002
}
1001
GENIUS_GENOLIS_13
1002
{
1000
ENT
1005
233AE
1005
233AD
1005
233AC
1005
233AB
1002
}
1001
GENIUS_GENOENT_13
1002
{
1000
MYREF
1005
233AF
1002
}
1002
{
1000
GRP
1005
0
1002
}
  0
POINT
  5
233B4
330
1F
100
AcDbEntity
  8
0
 60
     1
100
AcDbPoint
 10
1161.378046909485
 20
437.969779061199
 30
0.0
1001
GENIUS_GENODEF_13
1002
{
1000
HIER
1070
    10
1002
}
1002
{
1000
MANEDIT
1070
     0
1002
}
1002
{
1000
NOSEL
1070
     0
1002
}
1002
{
1000
BEHIND
1070
     0
1002
}
1002
{
1000
OTHER
1070
     0
1002
}
1002
{
1000
REACTOR
1002
}
1001
GENIUS_GENOLIS_13
1002
{
1000
ENT
1005
233B3
1005
233B2
1005
233B1
1005
233B0
1002
}
1001
GENIUS_GENOENT_13
1002
{
1000
MYREF
1005
233B4
1002
}
1002
{
1000
GRP
1005
0
1002
}
1001
GENIUS_GENOBJ-N-CRS_13
1002
{
1000
OWNER
1000
GEN
1002
}
  0
POINT
  5
233B9
330
1F
100
AcDbEntity
  8
0
 60
     1
100
AcDbPoint
 10
1161.378046909485
 20
437.969779061199
 30
0.0
1001
GENIUS_GENODEF_13
1002
{
1000
HIER
1070
    10
1002
}
1002
{
1000
MANEDIT
1070
     0
1002
}
1002
{
1000
NOSEL
1070
     0
1002
}
1002
{
1000
BEHIND
1070
     0
1002
}
1002
{
1000
OTHER
1070
     0
1002
}
1002
{
1000
REACTOR
1002
}
1001
GENIUS_GENOLIS_13
1002
{
1000
ENT
1005
233B8
1005
233B7
1005
233B6
1005
233B5
1002
}
1001
GENIUS_GENOENT_13
1002
{
1000
MYREF
1005
233B9
1002
}
1002
{
1000
GRP
1005
0
1002
}
1001
GENIUS_GENOBJ-N-CRS_13
1002
{
1000
OWNER
1000
GEN
1002
}
  0
POINT
  5
233BE
330
1F
100
AcDbEntity
  8
0
 60
     1
100
AcDbPoint
 10
1161.378046909485
 20
437.969779061199
 30
0.0
1001
GENIUS_GENODEF_13
1002
{
1000
HIER
1070
    10
1002
}
1002
{
1000
MANEDIT
1070
     0
1002
}
1002
{
1000
NOSEL
1070
     0
1002
}
1002
{
1000
BEHIND
1070
     0
1002
}
1002
{
1000
OTHER
1070
     0
1002
}
1002
{
1000
REACTOR
1002
}
1001
GENIUS_GENOENT_13
1002
{
1000
MYREF
1005
233BE
1002
}
1002
{
1000
GRP
1005
0
1002
}
1001
GENIUS_GENOBJ-N-CRS_13
1002
{
1000
OWNER
1000
GEN
1002
}
1001
GENIUS_GENOLIS_13
1002
{
1000
ENT
1005
233BD
1005
233BC
1005
233BB
1005
233BA
1002
}
  0
POINT
  5
233C4
330
1F
100
AcDbEntity
  8
0
 60
     1
100
AcDbPoint
 10
1161.378046909485
 20
437.969779061199
 30
0.0
1001
GENIUS_GENOBJ-N-CRS_13
1002
{
1000
OWNER
1000
GEN
1002
}
1001
GENIUS_GENOLIS_13
1002
{
1000
ENT
1005
233C3
1005
233C2
1005
233C1
1005
233C0
1002
}
1001
GENIUS_GENODEF_13
1002
{
1000
HIER
1070
    10
1002
}
1002
{
1000
MANEDIT
1070
     0
1002
}
1002
{
1000
NOSEL
1070
     0
1002
}
1002
{
1000
BEHIND
1070
     0
1002
}
1002
{
1000
OTHER
1070
     0
1002
}
1002
{
1000
REACTOR
1002
}
1001
GENIUS_GENOENT_13
1002
{
1000
MYREF
1005
233C4
1002
}
1002
{
1000
GRP
1005
0
1002
}
  0
POINT
  5
233C9
330
1F
100
AcDbEntity
  8
0
 60
     1
100
AcDbPoint
 10
1161.378046909485
 20
437.969779061199
 30
0.0
1001
GENIUS_GENOBJ-N-CRS_13
1002
{
1000
OWNER
1000
GEN
1002
}
1001
GENIUS_GENOENT_13
1002
{
1000
MYREF
1005
233C9
1002
}
1002
{
1000
GRP
1005
0
1002
}
1001
GENIUS_GENODEF_13
1002
{
1000
HIER
1070
    10
1002
}
1002
{
1000
MANEDIT
1070
     0
1002
}
1002
{
1000
NOSEL
1070
     0
1002
}
1002
{
1000
BEHIND
1070
     0
1002
}
1002
{
1000
OTHER
1070
     0
1002
}
1002
{
1000
REACTOR
1002
}
1001
GENIUS_GENOLIS_13
1002
{
1000
ENT
1005
233C8
1005
233C7
1005
233C6
1005
233C5
1002
}
  0
POINT
  5
23599
330
1F
100
AcDbEntity
  8
0
 60
     1
100
AcDbPoint
 10
1482.387885762583
 20
437.969779061199
 30
0.0
1001
GENIUS_GENOBJ-N-CRS_13
1002
{
1000
OWNER
1000
GEN
1002
}
1001
GENIUS_GENOENT_13
1002
{
1000
MYREF
1005
23599
1002
}
1002
{
1000
GRP
1005
0
1002
}
1001
GENIUS_GENODEF_13
1002
{
1000
HIER
1070
    10
1002
}
1002
{
1000
MANEDIT
1070
     0
1002
}
1002
{
1000
NOSEL
1070
     0
1002
}
1002
{
1000
BEHIND
1070
     0
1002
}
1002
{
1000
OTHER
1070
     0
1002
}
1002
{
1000
REACTOR
1002
}
1001
GENIUS_GENOLIS_13
1002
{
1000
ENT
1005
23473
1005
23474
1005
23475
1005
23476
1002
}
  0
POINT
  5
2359A
330
1F
100
AcDbEntity
  8
0
 60
     1
100
AcDbPoint
 10
1482.387885762583
 20
437.969779061199
 30
0.0
1001
GENIUS_GENOBJ-N-CRS_13
1002
{
1000
OWNER
1000
GEN
1002
}
1001
GENIUS_GENOLIS_13
1002
{
1000
ENT
1005
233E6
1005
233EB
1005
233EE
1005
233EF
1002
}
1001
GENIUS_GENODEF_13
1002
{
1000
HIER
1070
    10
1002
}
1002
{
1000
MANEDIT
1070
     0
1002
}
1002
{
1000
NOSEL
1070
     0
1002
}
1002
{
1000
BEHIND
1070
     0
1002
}
1002
{
1000
OTHER
1070
     0
1002
}
1002
{
1000
REACTOR
1002
}
1001
GENIUS_GENOENT_13
1002
{
1000
MYREF
1005
2359A
1002
}
1002
{
1000
GRP
1005
0
1002
}
  0
POINT
  5
2359B
330
1F
100
AcDbEntity
  8
0
 60
     1
100
AcDbPoint
 10
1482.387885762583
 20
437.969779061199
 30
0.0
1001
GENIUS_GENODEF_13
1002
{
1000
HIER
1070
    10
1002
}
1002
{
1000
MANEDIT
1070
     0
1002
}
1002
{
1000
NOSEL
1070
     0
1002
}
1002
{
1000
BEHIND
1070
     0
1002
}
1002
{
1000
OTHER
1070
     0
1002
}
1002
{
1000
REACTOR
1002
}
1001
GENIUS_GENOENT_13
1002
{
1000
MYREF
1005
2359B
1002
}
1002
{
1000
GRP
1005
0
1002
}
1001
GENIUS_GENOBJ-N-CRS_13
1002
{
1000
OWNER
1000
GEN
1002
}
1001
GENIUS_GENOLIS_13
1002
{
1000
ENT
1005
23517
1005
23518
1005
23510
1005
2350E
1002
}
  0
POINT
  5
2359C
330
1F
100
AcDbEntity
  8
0
 60
     1
100
AcDbPoint
 10
1482.387885762583
 20
437.969779061199
 30
0.0
1001
GENIUS_GENODEF_13
1002
{
1000
HIER
1070
    10
1002
}
1002
{
1000
MANEDIT
1070
     0
1002
}
1002
{
1000
NOSEL
1070
     0
1002
}
1002
{
1000
BEHIND
1070
     0
1002
}
1002
{
1000
OTHER
1070
     0
1002
}
1002
{
1000
REACTOR
1002
}
1001
GENIUS_GENOLIS_13
1002
{
1000
ENT
1005
23400
1005
23410
1005
23415
1005
23416
1002
}
1001
GENIUS_GENOENT_13
1002
{
1000
MYREF
1005
2359C
1002
}
1002
{
1000
GRP
1005
0
1002
}
1001
GENIUS_GENOBJ-N-CRS_13
1002
{
1000
OWNER
1000
GEN
1002
}
  0
POINT
  5
2359D
330
1F
100
AcDbEntity
  8
0
 60
     1
100
AcDbPoint
 10
1482.387885762583
 20
437.969779061199
 30
0.0
1001
GENIUS_GENODEF_13
1002
{
1000
HIER
1070
    10
1002
}
1002
{
1000
MANEDIT
1070
     0
1002
}
1002
{
1000
NOSEL
1070
     0
1002
}
1002
{
1000
BEHIND
1070
     0
1002
}
1002
{
1000
OTHER
1070
     0
1002
}
1002
{
1000
REACTOR
1002
}
1001
GENIUS_GENOLIS_13
1002
{
1000
ENT
1005
23407
1005
2340C
1005
23401
1005
233CB
1002
}
1001
GENIUS_GENOENT_13
1002
{
1000
MYREF
1005
2359D
1002
}
1002
{
1000
GRP
1005
0
1002
}
1001
GENIUS_GENOBJ-N-CRS_13
1002
{
1000
OWNER
1000
GEN
1002
}
  0
POINT
  5
2359E
330
1F
100
AcDbEntity
  8
0
 60
     1
100
AcDbPoint
 10
1482.387885762583
 20
437.969779061199
 30
0.0
1001
GENIUS_GENOBJ-N-CRS_13
1002
{
1000
OWNER
1000
GEN
1002
}
1001
GENIUS_GENODEF_13
1002
{
1000
HIER
1070
    10
1002
}
1002
{
1000
MANEDIT
1070
     0
1002
}
1002
{
1000
NOSEL
1070
     0
1002
}
1002
{
1000
BEHIND
1070
     0
1002
}
1002
{
1000
OTHER
1070
     0
1002
}
1002
{
1000
REACTOR
1002
}
1001
GENIUS_GENOLIS_13
1002
{
1000
ENT
1005
23511
1005
2351F
1005
23506
1005
23522
1002
}
1001
GENIUS_GENOENT_13
1002
{
1000
MYREF
1005
2359E
1002
}
1002
{
1000
GRP
1005
0
1002
}
  0
POINT
  5
2359F
330
1F
100
AcDbEntity
  8
0
 60
     1
100
AcDbPoint
 10
1482.387885762583
 20
437.969779061199
 30
0.0
1001
GENIUS_GENODEF_13
1002
{
1000
HIER
1070
    10
1002
}
1002
{
1000
MANEDIT
1070
     0
1002
}
1002
{
1000
NOSEL
1070
     0
1002
}
1002
{
1000
BEHIND
1070
     0
1002
}
1002
{
1000
OTHER
1070
     0
1002
}
1002
{
1000
REACTOR
1002
}
1001
GENIUS_GENOLIS_13
1002
{
1000
ENT
1005
2343F
1005
23440
1005
23426
1005
23441
1002
}
1001
GENIUS_GENOENT_13
1002
{
1000
MYREF
1005
2359F
1002
}
1002
{
1000
GRP
1005
0
1002
}
1001
GENIUS_GENOBJ-N-CRS_13
1002
{
1000
OWNER
1000
GEN
1002
}
  0
POINT
  5
235A0
330
1F
100
AcDbEntity
  8
0
 60
     1
100
AcDbPoint
 10
1482.387885762583
 20
437.969779061199
 30
0.0
1001
GENIUS_GENOLIS_13
1002
{
1000
ENT
1005
2343C
1005
233CC
1005
23427
1005
2343D
1002
}
1001
GENIUS_GENOENT_13
1002
{
1000
MYREF
1005
235A0
1002
}
1002
{
1000
GRP
1005
0
1002
}
1001
GENIUS_GENOBJ-N-CRS_13
1002
{
1000
OWNER
1000
GEN
1002
}
1001
GENIUS_GENODEF_13
1002
{
1000
HIER
1070
    10
1002
}
1002
{
1000
MANEDIT
1070
     0
1002
}
1002
{
1000
NOSEL
1070
     0
1002
}
1002
{
1000
BEHIND
1070
     0
1002
}
1002
{
1000
OTHER
1070
     0
1002
}
1002
{
1000
REACTOR
1002
}
  0
POINT
  5
235A1
330
1F
100
AcDbEntity
  8
0
 60
     1
100
AcDbPoint
 10
1482.387885762583
 20
437.969779061199
 30
0.0
1001
GENIUS_GENOENT_13
1002
{
1000
MYREF
1005
235A1
1002
}
1002
{
1000
GRP
1005
0
1002
}
1001
GENIUS_GENOBJ-N-CRS_13
1002
{
1000
OWNER
1000
GEN
1002
}
1001
GENIUS_GENODEF_13
1002
{
1000
HIER
1070
    10
1002
}
1002
{
1000
MANEDIT
1070
     0
1002
}
1002
{
1000
NOSEL
1070
     0
1002
}
1002
{
1000
BEHIND
1070
     0
1002
}
1002
{
1000
OTHER
1070
     0
1002
}
1002
{
1000
REACTOR
1002
}
1001
GENIUS_GENOLIS_13
1002
{
1000
ENT
1005
233F0
1005
233EC
1005
233DE
1005
233F1
1002
}
  0
POINT
  5
23865
330
1F
100
AcDbEntity
  8
0
 60
     1
100
AcDbPoint
 10
1161.378046909485
 20
437.969779061199
 30
0.0
1001
GENIUS_GENOBJ-NBEHI-BHF_13
1002
{
1000
OWNER
1000
genbehi
1002
}
1001
GENIUS_GENOLIS_13
1002
{
1000
ENT
1005
0
1002
}
1001
GENIUS_GENOENT_13
1002
{
1000
MYREF
1005
23865
1002
}
1002
{
1000
GRP
1005
0
1002
}
1001
GENIUS_GENBH_13
1002
{
1000
OIUMAP
1000
OIU
1002
}
1002
{
1000
FLAGS
1070
    32
1002
}
1002
{
1000
FGLEVEL
1040
3.14159265359
1002
}
1002
{
1000
BGO
1005
23866
1002
}
1001
GENIUS_GENODEF_13
1002
{
1000
HIER
1070
     1
1002
}
1002
{
1000
MANEDIT
1070
     1
1002
}
1002
{
1000
NOSEL
1070
     1
1002
}
1002
{
1000
BEHIND
1070
     0
1002
}
1002
{
1000
OTHER
1070
     0
1002
}
1002
{
1000
REACTOR
1002
}
  0
POINT
  5
23866
330
1F
100
AcDbEntity
  8
0
 60
     1
100
AcDbPoint
 10
1161.378046909485
 20
437.969779061199
 30
0.0
1001
GENIUS_GENOENT_13
1002
{
1000
MYREF
1005
23866
1002
}
1002
{
1000
GRP
1005
0
1002
}
1001
GENIUS_GENOBJ-NBEHI-BHB_13
1002
{
1000
OWNER
1000
genbehi
1002
}
1001
GENIUS_GENOLIS_13
1002
{
1000
ENT
1002
}
1001
GENIUS_GENODEF_13
1002
{
1000
HIER
1070
     1
1002
}
1002
{
1000
MANEDIT
1070
     0
1002
}
1002
{
1000
NOSEL
1070
     1
1002
}
1002
{
1000
BEHIND
1070
     0
1002
}
1002
{
1000
OTHER
1070
     1
1002
}
1002
{
1000
REACTOR
1002
}
1001
GENIUS_GENBH_13
1002
{
1000
FGO
1005
23865
1002
}
  0
MTEXT
  5
244E5
330
1F
100
AcDbEntity
  8
AM_REFDIM
100
AcDbMText
 10
3087.033910283869
 20
638.8029419536624
 30
0.0
 40
5.0
 41
0.0
 71
     9
 72
     1
  1

  7
DAYUS
1001
ACAD
1000
MTEXTBEGIN
1070
    73
1070
     1
1070
    44
1040
1.0
1070
    74
1070
     0
1000
MTEXTEND
  0
MTEXT
  5
244E6
330
1F
100
AcDbEntity
  8
AM_REFDIM
100
AcDbMText
 10
3281.506247866952
 20
703.986878864765
 30
0.0
 40
5.0
 41
0.0
 71
     9
 72
     1
  1

  7
DAYUS
1001
ACAD
1000
MTEXTBEGIN
1070
    73
1070
     1
1070
    44
1040
1.0
1070
    74
1070
     0
1000
MTEXTEND
  0
MTEXT
  5
244E7
330
1F
100
AcDbEntity
  8
AM_REFDIM
100
AcDbMText
 10
3275.419891703281
 20
636.2521073553391
 30
0.0
 40
5.0
 41
0.0
 71
     9
 72
     1
  1

  7
DAYUS
1001
ACAD
1000
MTEXTBEGIN
1070
    73
1070
     1
1070
    44
1040
1.0
1070
    74
1070
     0
1000
MTEXTEND
  0
MTEXT
  5
244EA
330
1F
100
AcDbEntity
  8
AM_REFDIM
100
AcDbMText
 10
3408.993542742089
 20
410.2608773655699
 30
0.0
 40
5.0
 41
0.0
 71
     9
 72
     1
  1

  7
DAYUS
1001
ACAD
1000
MTEXTBEGIN
1070
    73
1070
     1
1070
    44
1040
1.0
1070
    74
1070
     0
1000
MTEXTEND
  0
MTEXT
  5
244EB
330
1F
100
AcDbEntity
  8
AM_REFDIM
100
AcDbMText
 10
3402.907186578418
 20
342.5261058561441
 30
0.0
 40
5.0
 41
0.0
 71
     9
 72
     1
  1

  7
DAYUS
1001
ACAD
1000
MTEXTBEGIN
1070
    73
1070
     1
1070
    44
1040
1.0
1070
    74
1070
     0
1000
MTEXTEND
  0
MTEXT
  5
244EC
330
1F
100
AcDbEntity
  8
AM_REFDIM
100
AcDbMText
 10
3214.521205159005
 20
345.0769404544673
 30
0.0
 40
5.0
 41
0.0
 71
     9
 72
     1
  1

  7
DAYUS
1001
ACAD
1000
MTEXTBEGIN
1070
    73
1070
     1
1070
    44
1040
1.0
1070
    74
1070
     0
1000
MTEXTEND
  0
MTEXT
  5
244F2
330
1F
100
AcDbEntity
  8
AM_5
 62
     2
100
AcDbMText
 10
2890.043409423864
 20
644.4185142320296
 30
0.0
 40
3.5
 41
0.0
 71
     7
 72
     1
  1

  7
ACISOTS
1001
ACAD
1000
MTEXTBEGIN
1070
    73
1070
     1
1070
    44
1040
1.0
1070
    74
1070
     0
1000
MTEXTEND
  0
MTEXT
  5
244F3
330
1F
100
AcDbEntity
  8
AM_5
 62
     2
100
AcDbMText
 10
2901.130867444587
 20
651.1515739780795
 30
0.0
 40
3.5
 41
0.0
 71
     9
 72
     1
  1

  7
ACISOTS
1001
ACAD
1000
MTEXTBEGIN
1070
    73
1070
     1
1070
    44
1040
1.0
1070
    74
1070
     0
1000
MTEXTEND
  0
POINT
  5
24691
330
1F
100
AcDbEntity
  8
0
 60
     1
100
AcDbPoint
 10
2525.845408461341
 20
426.8251765728382
 30
0.0
1001
GENIUS_GENOENT_13
1002
{
1000
MYREF
1005
24691
1002
}
1002
{
1000
GRP
1005
0
1002
}
1001
GENIUS_GENOBJ-N-CRS_13
1002
{
1000
OWNER
1000
GEN
1002
}
1001
GENIUS_GENOLIS_13
1002
{
1000
ENT
1005
0
1005
24690
1005
0
1005
0
1002
}
1001
GENIUS_GENODEF_13
1002
{
1000
HIER
1070
    10
1002
}
1002
{
1000
MANEDIT
1070
     1
1002
}
1002
{
1000
NOSEL
1070
     0
1002
}
1002
{
1000
BEHIND
1070
     0
1002
}
1002
{
1000
OTHER
1070
     0
1002
}
1002
{
1000
REACTOR
1002
}
  0
POINT
  5
24699
330
1F
100
AcDbEntity
  8
0
 60
     1
100
AcDbPoint
 10
2525.845408461341
 20
426.8251765728382
 30
0.0
1001
GENIUS_GENOLIS_13
1002
{
1000
ENT
1005
24698
1005
24697
1005
24696
1005
24695
1002
}
1001
GENIUS_GENOENT_13
1002
{
1000
MYREF
1005
24699
1002
}
1002
{
1000
GRP
1005
0
1002
}
1001
GENIUS_GENOBJ-N-CRS_13
1002
{
1000
OWNER
1000
GEN
1002
}
1001
GENIUS_GENODEF_13
1002
{
1000
HIER
1070
    10
1002
}
1002
{
1000
MANEDIT
1070
     0
1002
}
1002
{
1000
NOSEL
1070
     0
1002
}
1002
{
1000
BEHIND
1070
     0
1002
}
1002
{
1000
OTHER
1070
     0
1002
}
1002
{
1000
REACTOR
1002
}
  0
POINT
  5
2469E
330
1F
100
AcDbEntity
  8
0
 60
     1
100
AcDbPoint
 10
2525.845408461341
 20
426.8251765728382
 30
0.0
1001
GENIUS_GENOLIS_13
1002
{
1000
ENT
1005
2469D
1005
2469C
1005
2469B
1005
2469A
1002
}
1001
GENIUS_GENOENT_13
1002
{
1000
MYREF
1005
2469E
1002
}
1002
{
1000
GRP
1005
0
1002
}
1001
GENIUS_GENOBJ-N-CRS_13
1002
{
1000
OWNER
1000
GEN
1002
}
1001
GENIUS_GENODEF_13
1002
{
1000
HIER
1070
    10
1002
}
1002
{
1000
MANEDIT
1070
     0
1002
}
1002
{
1000
NOSEL
1070
     0
1002
}
1002
{
1000
BEHIND
1070
     0
1002
}
1002
{
1000
OTHER
1070
     0
1002
}
1002
{
1000
REACTOR
1002
}
  0
POINT
  5
246A3
330
1F
100
AcDbEntity
  8
0
 60
     1
100
AcDbPoint
 10
2525.845408461341
 20
426.8251765728382
 30
0.0
1001
GENIUS_GENOLIS_13
1002
{
1000
ENT
1005
246A2
1005
246A1
1005
246A0
1005
2469F
1002
}
1001
GENIUS_GENOENT_13
1002
{
1000
MYREF
1005
246A3
1002
}
1002
{
1000
GRP
1005
0
1002
}
1001
GENIUS_GENODEF_13
1002
{
1000
HIER
1070
    10
1002
}
1002
{
1000
MANEDIT
1070
     0
1002
}
1002
{
1000
NOSEL
1070
     0
1002
}
1002
{
1000
BEHIND
1070
     0
1002
}
1002
{
1000
OTHER
1070
     0
1002
}
1002
{
1000
REACTOR
1002
}
1001
GENIUS_GENOBJ-N-CRS_13
1002
{
1000
OWNER
1000
GEN
1002
}
  0
POINT
  5
246A8
330
1F
100
AcDbEntity
  8
0
 60
     1
100
AcDbPoint
 10
2525.845408461341
 20
426.8251765728382
 30
0.0
1001
GENIUS_GENODEF_13
1002
{
1000
HIER
1070
    10
1002
}
1002
{
1000
MANEDIT
1070
     0
1002
}
1002
{
1000
NOSEL
1070
     0
1002
}
1002
{
1000
BEHIND
1070
     0
1002
}
1002
{
1000
OTHER
1070
     0
1002
}
1002
{
1000
REACTOR
1002
}
1001
GENIUS_GENOBJ-N-CRS_13
1002
{
1000
OWNER
1000
GEN
1002
}
1001
GENIUS_GENOLIS_13
1002
{
1000
ENT
1005
246A7
1005
246A6
1005
246A5
1005
246A4
1002
}
1001
GENIUS_GENOENT_13
1002
{
1000
MYREF
1005
246A8
1002
}
1002
{
1000
GRP
1005
0
1002
}
  0
POINT
  5
246AD
330
1F
100
AcDbEntity
  8
0
 60
     1
100
AcDbPoint
 10
2525.845408461341
 20
426.8251765728382
 30
0.0
1001
GENIUS_GENOENT_13
1002
{
1000
MYREF
1005
246AD
1002
}
1002
{
1000
GRP
1005
0
1002
}
1001
GENIUS_GENOBJ-N-CRS_13
1002
{
1000
OWNER
1000
GEN
1002
}
1001
GENIUS_GENOLIS_13
1002
{
1000
ENT
1005
246AC
1005
246AB
1005
246AA
1005
246A9
1002
}
1001
GENIUS_GENODEF_13
1002
{
1000
HIER
1070
    10
1002
}
1002
{
1000
MANEDIT
1070
     0
1002
}
1002
{
1000
NOSEL
1070
     0
1002
}
1002
{
1000
BEHIND
1070
     0
1002
}
1002
{
1000
OTHER
1070
     0
1002
}
1002
{
1000
REACTOR
1002
}
  0
POINT
  5
246B2
330
1F
100
AcDbEntity
  8
0
 60
     1
100
AcDbPoint
 10
2525.845408461341
 20
426.8251765728382
 30
0.0
1001
GENIUS_GENOBJ-N-CRS_13
1002
{
1000
OWNER
1000
GEN
1002
}
1001
GENIUS_GENOLIS_13
1002
{
1000
ENT
1005
246B1
1005
246B0
1005
246AF
1005
246AE
1002
}
1001
GENIUS_GENOENT_13
1002
{
1000
MYREF
1005
246B2
1002
}
1002
{
1000
GRP
1005
0
1002
}
1001
GENIUS_GENODEF_13
1002
{
1000
HIER
1070
    10
1002
}
1002
{
1000
MANEDIT
1070
     0
1002
}
1002
{
1000
NOSEL
1070
     0
1002
}
1002
{
1000
BEHIND
1070
     0
1002
}
1002
{
1000
OTHER
1070
     0
1002
}
1002
{
1000
REACTOR
1002
}
  0
LINE
  5
246C6
330
1F
100
AcDbEntity
  8
AM_VIS
100
AcDbLine
 10
2387.545647511126
 20
84.58395373259099
 30
0.0
 11
2437.545647511126
 21
84.58395373259099
 31
0.0
  0
LINE
  5
246C7
330
1F
100
AcDbEntity
  8
AM_VIS
100
AcDbLine
 10
2387.545647511126
 20
58.18395373259102
 30
0.0
 11
2437.545647511126
 21
58.18395373259102
 31
0.0
  0
LINE
  5
246C8
330
1F
100
AcDbEntity
  8
AM_VIS
100
AcDbLine
 10
2387.545647511126
 20
-40.04181773114715
 30
0.0
 11
2437.545647511126
 21
-40.04181773114715
 31
0.0
  0
LINE
  5
246C9
330
1F
100
AcDbEntity
  8
AM_VIS
100
AcDbLine
 10
2387.545647511126
 20
-4.741817731147193
 30
0.0
 11
2437.545647511126
 21
-4.741817731147193
 31
0.0
  0
LINE
  5
246CA
330
1F
100
AcDbEntity
  8
AM_7
  6
AM_ISO08W050X2
100
AcDbLine
 10
2310.373439442319
 20
71.38395373259107
 30
0.0
 11
2513.979703677351
 21
71.38395373259107
 31
0.0
1001
GENIUS_GENOBJ-N-CEN_13
1002
{
1000
OWNER
1000
GEN
1002
}
1001
GENIUS_GENODEF_13
1002
{
1000
HIER
1070
     0
1002
}
1002
{
1000
MANEDIT
1070
     0
1002
}
1002
{
1000
NOSEL
1070
     0
1002
}
1002
{
1000
BEHIND
1070
     0
1002
}
1002
{
1000
OTHER
1070
     0
1002
}
1002
{
1000
REACTOR
1002
}
  0
LINE
  5
246CC
330
1F
100
AcDbEntity
  8
AM_VIS
100
AcDbLine
 10
2387.545647511126
 20
-39.04181773114714
 30
0.0
 11
2387.545647511126
 21
-5.741817731147193
 31
0.0
  0
LINE
  5
246CD
330
1F
100
AcDbEntity
  8
AM_VIS
100
AcDbLine
 10
2387.545647511126
 20
-40.04181773114715
 30
0.0
 11
2387.545647511126
 21
-4.741817731147193
 31
0.0
  0
LINE
  5
246CF
330
1F
100
AcDbEntity
  8
AM_VIS
100
AcDbLine
 10
2387.545647511126
 20
59.18395373259102
 30
0.0
 11
2387.545647511126
 21
83.58395373259099
 31
0.0
  0
LINE
  5
246D0
330
1F
100
AcDbEntity
  8
AM_VIS
100
AcDbLine
 10
2387.545647511126
 20
58.18395373259102
 30
0.0
 11
2387.545647511126
 21
84.58395373259099
 31
0.0
  0
LINE
  5
246D2
330
1F
100
AcDbEntity
  8
AM_VIS
100
AcDbLine
 10
2495.895647511126
 20
80.80034717521403
 30
0.0
 11
2493.045647511126
 21
80.80034717521403
 31
0.0
  0
LINE
  5
246D3
330
1F
100
AcDbEntity
  8
AM_VIS
100
AcDbLine
 10
2493.045647511126
 20
61.9675602899681
 30
0.0
 11
2495.895647511126
 21
61.9675602899681
 31
0.0
  0
LINE
  5
246D4
330
1F
100
AcDbEntity
  8
AM_VIS
100
AcDbLine
 10
2491.045647511126
 20
80.38395373259119
 30
0.0
 11
2503.045647511126
 21
80.38395373259119
 31
0.0
  0
LINE
  5
246D5
330
1F
100
AcDbEntity
  8
AM_VIS
100
AcDbLine
 10
2491.045647511126
 20
62.38395373259118
 30
0.0
 11
2503.045647511126
 21
62.38395373259118
 31
0.0
  0
LINE
  5
246D6
330
1F
100
AcDbEntity
  8
AM_VIS
100
AcDbLine
 10
2491.045647511126
 20
25.60818226885283
 30
0.0
 11
2503.045647511126
 21
25.60818226885283
 31
0.0
  0
LINE
  5
246D7
330
1F
100
AcDbEntity
  8
AM_VIS
100
AcDbLine
 10
2493.045647511126
 20
-12.55386456082277
 30
0.0
 11
2495.895647511126
 21
-12.55386456082277
 31
0.0
  0
LINE
  5
246D8
330
1F
100
AcDbEntity
  8
AM_VIS
100
AcDbLine
 10
2493.045647511126
 20
-12.39181773114722
 30
0.0
 11
2495.895647511126
 21
-12.39181773114722
 31
0.0
  0
LINE
  5
246D9
330
1F
100
AcDbEntity
  8
AM_VIS
100
AcDbLine
 10
2495.895647511126
 20
-15.92009903479044
 30
0.0
 11
2493.045647511126
 21
-15.92009903479044
 31
0.0
  0
LINE
  5
246DA
330
1F
100
AcDbEntity
  8
AM_VIS
100
AcDbLine
 10
2493.045647511126
 20
-19.02558325717967
 30
0.0
 11
2495.895647511126
 21
-19.02558325717967
 31
0.0
  0
LINE
  5
246DB
330
1F
100
AcDbEntity
  8
AM_VIS
100
AcDbLine
 10
2491.045647511126
 20
7.608182268852829
 30
0.0
 11
2503.045647511126
 21
7.608182268852829
 31
0.0
  0
LINE
  5
246DC
330
1F
100
AcDbEntity
  8
AM_VIS
100
AcDbLine
 10
2495.895647511126
 20
-25.75805220511478
 30
0.0
 11
2493.045647511126
 21
-25.75805220511478
 31
0.0
  0
LINE
  5
246DD
330
1F
100
AcDbEntity
  8
AM_VIS
100
AcDbLine
 10
2493.045647511126
 20
-28.86353642750418
 30
0.0
 11
2495.895647511126
 21
-28.86353642750418
 31
0.0
  0
LINE
  5
246DE
330
1F
100
AcDbEntity
  8
AM_VIS
100
AcDbLine
 10
2495.895647511126
 20
-32.22977090147173
 30
0.0
 11
2493.045647511126
 21
-32.22977090147173
 31
0.0
  0
LINE
  5
246DF
330
1F
100
AcDbEntity
  8
AM_VIS
100
AcDbLine
 10
2493.045647511126
 20
-32.39181773114722
 30
0.0
 11
2495.895647511126
 21
-32.39181773114722
 31
0.0
  0
LINE
  5
246E0
330
1F
100
AcDbEntity
  8
AM_VIS
100
AcDbLine
 10
2491.045647511126
 20
10.9513280193604
 30
0.0
 11
2491.045647511126
 21
25.60818226885283
 31
0.0
  0
LINE
  5
246E1
330
1F
100
AcDbEntity
  8
AM_VIS
100
AcDbLine
 10
2462.045647511126
 20
20.10818226885282
 30
0.0
 11
2462.045647511126
 21
-4.89181773114717
 31
0.0
  0
LINE
  5
246E2
330
1F
100
AcDbEntity
  8
AM_VIS
100
AcDbLine
 10
2437.545647511126
 20
-4.741817731147193
 30
0.0
 11
2459.545647511126
 21
-5.125829159567956
 31
0.0
  0
LINE
  5
246E3
330
1F
100
AcDbEntity
  8
AM_VIS
100
AcDbLine
 10
2437.545647511126
 20
-40.04181773114715
 30
0.0
 11
2459.545647511126
 21
-39.65780630272638
 31
0.0
  0
LINE
  5
246E4
330
1F
100
AcDbEntity
  8
AM_VIS
100
AcDbLine
 10
2437.545647511126
 20
-4.741817731147193
 30
0.0
 11
2437.545647511126
 21
-40.0418177311472
 31
0.0
  0
LINE
  5
246E5
330
1F
100
AcDbEntity
  8
AM_VIS
100
AcDbLine
 10
2437.545647511126
 20
-40.04181773114715
 30
0.0
 11
2437.545647511126
 21
-4.741817731147193
 31
0.0
  0
LINE
  5
246E9
330
1F
100
AcDbEntity
  8
AM_7
  6
AM_ISO08W050X2
100
AcDbLine
 10
2402.545647511126
 20
-32.89181773114717
 30
0.0
 11
2399.445647511126
 21
-32.89181773114717
 31
0.0
1001
GENIUS_GENOREF_13
1005
24809
  0
LINE
  5
246EA
330
1F
100
AcDbEntity
  8
AM_7
  6
AM_ISO08W050X2
100
AcDbLine
 10
2402.545647511126
 20
-32.89181773114717
 30
0.0
 11
2402.545647511126
 21
-35.99181773114719
 31
0.0
1001
GENIUS_GENOREF_13
1005
24809
  0
LINE
  5
246EB
330
1F
100
AcDbEntity
  8
AM_7
  6
AM_ISO08W050X2
100
AcDbLine
 10
2402.545647511126
 20
-32.89181773114717
 30
0.0
 11
2402.545647511126
 21
-29.79181773114714
 31
0.0
1001
GENIUS_GENOREF_13
1005
24809
  0
LINE
  5
246EC
330
1F
100
AcDbEntity
  8
AM_7
  6
AM_ISO08W050X2
100
AcDbLine
 10
2402.545647511126
 20
-32.89181773114717
 30
0.0
 11
2405.645647511126
 21
-32.89181773114717
 31
0.0
1001
GENIUS_GENOREF_13
1005
24809
  0
CIRCLE
  5
246ED
330
1F
100
AcDbEntity
  8
AM_VIS
100
AcDbCircle
 10
2402.545647511126
 20
-32.89181773114717
 30
0.0
 40
2.1
  0
LINE
  5
246EF
330
1F
100
AcDbEntity
  8
AM_7
  6
AM_ISO08W050X2
100
AcDbLine
 10
2422.545647511126
 20
-32.89181773114717
 30
0.0
 11
2425.645647511126
 21
-32.89181773114717
 31
0.0
1001
GENIUS_GENOREF_13
1005
2480A
  0
LINE
  5
246F0
330
1F
100
AcDbEntity
  8
AM_7
  6
AM_ISO08W050X2
100
AcDbLine
 10
2422.545647511126
 20
-32.89181773114717
 30
0.0
 11
2422.545647511126
 21
-35.99181773114719
 31
0.0
1001
GENIUS_GENOREF_13
1005
2480A
  0
LINE
  5
246F1
330
1F
100
AcDbEntity
  8
AM_7
  6
AM_ISO08W050X2
100
AcDbLine
 10
2422.545647511126
 20
-32.89181773114717
 30
0.0
 11
2422.545647511126
 21
-29.79181773114714
 31
0.0
1001
GENIUS_GENOREF_13
1005
2480A
  0
CIRCLE
  5
246F2
330
1F
100
AcDbEntity
  8
AM_VIS
100
AcDbCircle
 10
2422.545647511126
 20
-32.89181773114717
 30
0.0
 40
2.1
  0
LINE
  5
246F3
330
1F
100
AcDbEntity
  8
AM_7
  6
AM_ISO08W050X2
100
AcDbLine
 10
2422.545647511126
 20
-32.89181773114717
 30
0.0
 11
2419.445647511127
 21
-32.89181773114717
 31
0.0
1001
GENIUS_GENOREF_13
1005
2480A
  0
LINE
  5
246F6
330
1F
100
AcDbEntity
  8
AM_VIS
100
AcDbLine
 10
2493.045647511126
 20
-28.86353642750418
 30
0.0
 11
2493.045647511126
 21
-25.75805220511478
 31
0.0
  0
LINE
  5
246F7
330
1F
100
AcDbEntity
  8
AM_VIS
100
AcDbLine
 10
2491.545647511126
 20
-12.39181773114722
 30
0.0
 11
2491.545647511126
 21
-32.39181773114722
 31
0.0
  0
LINE
  5
246F8
330
1F
100
AcDbEntity
  8
AM_VIS
100
AcDbLine
 10
2492.045647511126
 20
-29.89181773114722
 30
0.0
 11
2492.045647511126
 21
-14.89181773114722
 31
0.0
  0
LINE
  5
246F9
330
1F
100
AcDbEntity
  8
AM_VIS
100
AcDbLine
 10
2492.845647511126
 20
-29.89181773114722
 30
0.0
 11
2492.845647511126
 21
-14.89181773114722
 31
0.0
  0
LINE
  5
246FA
330
1F
100
AcDbEntity
  8
AM_VIS
100
AcDbLine
 10
2491.045647511126
 20
-29.39181773114722
 30
0.0
 11
2491.045647511126
 21
-4.891817731147227
 31
0.0
  0
LINE
  5
246FB
330
1F
100
AcDbEntity
  8
AM_VIS
100
AcDbLine
 10
2459.545647511126
 20
-39.65780630272638
 30
0.0
 11
2459.545647511126
 21
-5.125829159567956
 31
0.0
  0
LINE
  5
246FC
330
1F
100
AcDbEntity
  8
AM_VIS
100
AcDbLine
 10
2461.545647511126
 20
-38.64181773114722
 30
0.0
 11
2461.545647511126
 21
-6.141817731147227
 31
0.0
  0
LINE
  5
246FD
330
1F
100
AcDbEntity
  8
AM_VIS
100
AcDbLine
 10
2461.545647511126
 20
-33.39181773114722
 30
0.0
 11
2491.045647511126
 21
-33.39181773114722
 31
0.0
  0
LINE
  5
246FE
330
1F
100
AcDbEntity
  8
AM_VIS
100
AcDbLine
 10
2461.545647511126
 20
-38.64181773114722
 30
0.0
 11
2461.545647511126
 21
-39.64181773114722
 31
0.0
  0
LINE
  5
246FF
330
1F
100
AcDbEntity
  8
AM_VIS
100
AcDbLine
 10
2459.545647511126
 20
-39.64181773114722
 30
0.0
 11
2461.545647511126
 21
-39.64181773114722
 31
0.0
  0
SPLINE
  5
24700
330
1F
100
AcDbEntity
  8
AM_VIS
100
AcDbSpline
210
0.0
220
0.0
230
1.0
 70
     8
 71
     3
 72
    14
 73
    10
 74
     0
 42
0.0000000001
 43
0.0000000001
 40
13.28006742556176
 40
13.28006742556176
 40
13.28006742556176
 40
13.28006742556176
 40
14.27448381305588
 40
14.27448381305588
 40
16.65382904986474
 40
16.65382904986474
 40
19.03317428667358
 40
19.03317428667358
 40
20.02759067416758
 40
20.02759067416758
 40
20.02759067416758
 40
20.02759067416758
 10
2493.045647511127
 20
-32.22977090147179
 30
0.0
 10
2493.027901536007
 20
-31.96484891138169
 30
0.0
 10
2493.012125942303
 20
-31.7120425809249
 30
0.0
 10
2492.966917130393
 20
-30.90127477399511
 30
0.0
 10
2492.949647511126
 20
-30.40939882391836
 30
0.0
 10
2492.949647511126
 20
-29.61628374498224
 30
0.0
 10
2492.966917130393
 20
-29.29889435442584
 30
0.0
 10
2493.012125942303
 20
-28.99166882972798
 30
0.0
 10
2493.027901536007
 20
-28.91850670628406
 30
0.0
 10
2493.045647511127
 20
-28.86353642750424
 30
0.0
  0
LINE
  5
24701
330
1F
100
AcDbEntity
  8
AM_VIS
100
AcDbLine
 10
2491.045647511126
 20
-32.39181773114722
 30
0.0
 11
2491.545647511126
 21
-32.39181773114722
 31
0.0
  0
LINE
  5
24702
330
1F
100
AcDbEntity
  8
AM_VIS
100
AcDbLine
 10
2492.045647511126
 20
-29.89181773114722
 30
0.0
 11
2492.845647511126
 21
-29.89181773114722
 31
0.0
  0
LINE
  5
24703
330
1F
100
AcDbEntity
  8
AM_VIS
100
AcDbLine
 10
2492.045647511126
 20
-29.89181773114722
 30
0.0
 11
2491.545647511126
 21
-32.39181773114722
 31
0.0
  0
LINE
  5
24704
330
1F
100
AcDbEntity
  8
AM_VIS
100
AcDbLine
 10
2492.845647511126
 20
-29.89181773114722
 30
0.0
 11
2493.045647511126
 21
-32.39181773114722
 31
0.0
  0
LINE
  5
24705
330
1F
100
AcDbEntity
  8
AM_VIS
100
AcDbLine
 10
2493.045647511126
 20
-32.39181773114722
 30
0.0
 11
2493.045647511126
 21
-32.22977090147168
 31
0.0
  0
LINE
  5
24706
330
1F
100
AcDbEntity
  8
AM_VIS
100
AcDbLine
 10
2491.045647511126
 20
-29.39181773114722
 30
0.0
 11
2491.045647511126
 21
-33.39181773114722
 31
0.0
  0
LINE
  5
24707
330
1F
100
AcDbEntity
  8
AM_VIS
100
AcDbLine
 10
2461.545647511126
 20
-4.891817731147227
 30
0.0
 11
2491.045647511126
 21
-4.891817731147227
 31
0.0
  0
LINE
  5
24708
330
1F
100
AcDbEntity
  8
AM_VIS
100
AcDbLine
 10
2447.295647511126
 20
-3.89181773114717
 30
0.0
 11
2454.195647511126
 21
-3.89181773114717
 31
0.0
  0
LINE
  5
24709
330
1F
100
AcDbEntity
  8
AM_VIS
100
AcDbLine
 10
2447.295647511126
 20
-4.912004614197314
 30
0.0
 11
2447.295647511126
 21
-3.89181773114717
 31
0.0
  0
LINE
  5
2470A
330
1F
100
AcDbEntity
  8
AM_VIS
100
AcDbLine
 10
2454.195647511126
 20
-5.032444562201987
 30
0.0
 11
2454.195647511126
 21
-3.89181773114717
 31
0.0
  0
LINE
  5
2470B
330
1F
100
AcDbEntity
  8
AM_VIS
100
AcDbLine
 10
2461.545647511126
 20
-5.141817731147227
 30
0.0
 11
2461.545647511126
 21
-6.141817731147227
 31
0.0
  0
LINE
  5
2470C
330
1F
100
AcDbEntity
  8
AM_VIS
100
AcDbLine
 10
2461.545647511126
 20
-4.891817731147227
 30
0.0
 11
2461.545647511126
 21
-5.141817731147227
 31
0.0
  0
LINE
  5
2470D
330
1F
100
AcDbEntity
  8
AM_VIS
100
AcDbLine
 10
2461.545647511126
 20
-5.141817731147227
 30
0.0
 11
2459.545647511126
 21
-5.141817731147227
 31
0.0
  0
LINE
  5
2470E
330
1F
100
AcDbEntity
  8
AM_VIS
100
AcDbLine
 10
2493.045647511126
 20
-19.02558325717967
 30
0.0
 11
2493.045647511126
 21
-15.92009903479044
 31
0.0
  0
ARC
  5
2470F
330
1F
100
AcDbEntity
  8
AM_VIS
100
AcDbCircle
 10
2552.221452342349
 20
-22.39181773114717
 30
0.0
 40
59.27135386823091
100
AcDbArc
 50
176.7442201741574
 51
183.2557798258425
  0
LINE
  5
24710
330
1F
100
AcDbEntity
  8
AM_VIS
100
AcDbLine
 10
2491.045647511126
 20
-12.39181773114722
 30
0.0
 11
2491.545647511126
 21
-12.39181773114722
 31
0.0
  0
LINE
  5
24711
330
1F
100
AcDbEntity
  8
AM_VIS
100
AcDbLine
 10
2492.045647511126
 20
-14.89181773114722
 30
0.0
 11
2492.845647511126
 21
-14.89181773114722
 31
0.0
  0
LINE
  5
24712
330
1F
100
AcDbEntity
  8
AM_VIS
100
AcDbLine
 10
2492.045647511126
 20
-14.89181773114722
 30
0.0
 11
2491.545647511126
 21
-12.39181773114722
 31
0.0
  0
LINE
  5
24713
330
1F
100
AcDbEntity
  8
AM_VIS
100
AcDbLine
 10
2492.845647511126
 20
-14.89181773114722
 30
0.0
 11
2493.045647511126
 21
-12.39181773114722
 31
0.0
  0
LINE
  5
24714
330
1F
100
AcDbEntity
  8
AM_VIS
100
AcDbLine
 10
2493.045647511126
 20
-12.55386456082283
 30
0.0
 11
2493.045647511126
 21
-12.39181773114722
 31
0.0
  0
SPLINE
  5
24715
330
1F
100
AcDbEntity
  8
AM_VIS
100
AcDbSpline
210
0.0
220
0.0
230
1.0
 70
     8
 71
     3
 72
    14
 73
    10
 74
     0
 42
0.0000000001
 43
0.0000000001
 40
13.28006742556183
 40
13.28006742556183
 40
13.28006742556183
 40
13.28006742556183
 40
14.274483813056
 40
14.274483813056
 40
16.65382904986486
 40
16.65382904986486
 40
19.03317428667369
 40
19.03317428667369
 40
20.02759067416779
 40
20.02759067416779
 40
20.02759067416779
 40
20.02759067416779
 10
2493.045647511127
 20
-15.92009903479044
 30
0.0
 10
2493.027901536007
 20
-15.86512875601061
 30
0.0
 10
2493.012125942303
 20
-15.79196663256658
 30
0.0
 10
2492.966917130393
 20
-15.48474110786861
 30
0.0
 10
2492.949647511126
 20
-15.16735171731244
 30
0.0
 10
2492.949647511126
 20
-14.37423663837608
 30
0.0
 10
2492.966917130393
 20
-13.88236068829934
 30
0.0
 10
2493.012125942303
 20
-13.07159288136966
 30
0.0
 10
2493.027901536007
 20
-12.81878655091287
 30
0.0
 10
2493.045647511127
 20
-12.55386456082277
 30
0.0
  0
LINE
  5
24716
330
1F
100
AcDbEntity
  8
AM_VIS
100
AcDbLine
 10
2491.045647511126
 20
-4.89181773114717
 30
0.0
 11
2491.045647511126
 21
10.9513280193604
 31
0.0
  0
LINE
  5
24717
330
1F
100
AcDbEntity
  8
AM_VIS
100
AcDbLine
 10
2459.545647511126
 20
84.19994230417023
 30
0.0
 11
2437.545647511126
 21
84.58395373259111
 31
0.0
  0
LINE
  5
24718
330
1F
100
AcDbEntity
  8
AM_VIS
100
AcDbLine
 10
2437.545647511126
 20
58.18395373259114
 30
0.0
 11
2459.545647511126
 21
58.5679651610119
 31
0.0
  0
CIRCLE
  5
2471A
330
1F
100
AcDbEntity
  8
AM_VIS
100
AcDbCircle
 10
2417.545647511126
 20
60.88395373259107
 30
0.0
 40
2.1
  0
LINE
  5
2471B
330
1F
100
AcDbEntity
  8
AM_7
100
AcDbLine
 10
2423.045647511126
 20
71.38395373259107
 30
0.0
 11
2415.345647511126
 21
71.38395373259107
 31
0.0
1001
GENIUS_GENOREF_13
1005
24805
  0
LINE
  5
2471C
330
1F
100
AcDbEntity
  8
AM_7
  6
AM_ISO08W050X2
100
AcDbLine
 10
2417.545647511126
 20
60.88395373259107
 30
0.0
 11
2420.645647511126
 21
60.88395373259107
 31
0.0
1001
GENIUS_GENOREF_13
1005
24808
  0
LINE
  5
2471D
330
1F
100
AcDbEntity
  8
AM_7
100
AcDbLine
 10
2423.045647511126
 20
71.38395373259107
 30
0.0
 11
2414.845647511126
 21
71.38395373259107
 31
0.0
1001
GENIUS_GENOREF_13
1005
2480B
  0
ARC
  5
2471E
330
1F
100
AcDbEntity
  8
AM_VIS
100
AcDbCircle
 10
2421.045647511126
 20
69.63395373259107
 30
0.0
 40
2.5
100
AcDbArc
 50
180.0
 51
0.0
  0
ARC
  5
2471F
330
1F
100
AcDbEntity
  8
AM_VIS
100
AcDbCircle
 10
2421.045647511126
 20
73.13395373259107
 30
0.0
 40
2.5
100
AcDbArc
 50
0.0
 51
180.0
  0
CIRCLE
  5
24720
330
1F
100
AcDbEntity
  8
AM_VIS
100
AcDbCircle
 10
2423.045647511126
 20
71.38395373259107
 30
0.0
 40
5.349999999999999
  0
CIRCLE
  5
24721
330
1F
100
AcDbEntity
  8
AM_VIS
100
AcDbCircle
 10
2423.045647511126
 20
71.38395373259107
 30
0.0
 40
6.699999999999999
  0
LINE
  5
24723
330
1F
100
AcDbEntity
  8
AM_7
100
AcDbLine
 10
2402.045647511126
 20
71.38395373259107
 30
0.0
 11
2402.045647511126
 21
79.083953732591
 31
0.0
1001
GENIUS_GENOREF_13
1005
24806
  0
ARC
  5
24724
330
1F
100
AcDbEntity
  8
AM_VIS
100
AcDbCircle
 10
2404.045647511126
 20
73.13395373259107
 30
0.0
 40
2.5
100
AcDbArc
 50
0.0
 51
180.0
  0
CIRCLE
  5
24725
330
1F
100
AcDbEntity
  8
AM_VIS
100
AcDbCircle
 10
2402.045647511126
 20
71.38395373259107
 30
0.0
 40
5.349999999999999
  0
CIRCLE
  5
24726
330
1F
100
AcDbEntity
  8
AM_VIS
100
AcDbCircle
 10
2402.045647511126
 20
71.38395373259107
 30
0.0
 40
6.699999999999999
  0
LINE
  5
24727
330
1F
100
AcDbEntity
  8
AM_7
100
AcDbLine
 10
2402.045647511126
 20
71.38395373259107
 30
0.0
 11
2409.745647511126
 21
71.38395373259107
 31
0.0
1001
GENIUS_GENOREF_13
1005
24806
  0
ARC
  5
24728
330
1F
100
AcDbEntity
  8
AM_VIS
100
AcDbCircle
 10
2404.045647511126
 20
69.63395373259107
 30
0.0
 40
2.5
100
AcDbArc
 50
180.0
 51
0.0
  0
LINE
  5
24729
330
1F
100
AcDbEntity
  8
AM_7
100
AcDbLine
 10
2402.045647511126
 20
71.38395373259107
 30
0.0
 11
2402.045647511126
 21
63.68395373259113
 31
0.0
1001
GENIUS_GENOREF_13
1005
24806
  0
LINE
  5
2472A
330
1F
100
AcDbEntity
  8
AM_7
100
AcDbLine
 10
2402.045647511126
 20
71.38395373259107
 30
0.0
 11
2394.345647511126
 21
71.38395373259107
 31
0.0
1001
GENIUS_GENOREF_13
1005
24806
  0
LINE
  5
2472B
330
1F
100
AcDbEntity
  8
AM_VIS
100
AcDbLine
 10
2401.545647511126
 20
69.63395373259107
 30
0.0
 11
2401.545647511126
 21
73.13395373259107
 31
0.0
  0
LINE
  5
2472C
330
1F
100
AcDbEntity
  8
AM_7
  6
AM_ISO08W050X2
100
AcDbLine
 10
2417.545647511126
 20
60.88395373259107
 30
0.0
 11
2417.545647511126
 21
57.78395373259105
 31
0.0
1001
GENIUS_GENOREF_13
1005
24808
  0
LINE
  5
2472D
330
1F
100
AcDbEntity
  8
AM_7
  6
AM_ISO08W050X2
100
AcDbLine
 10
2417.545647511126
 20
60.88395373259107
 30
0.0
 11
2417.545647511126
 21
63.98395373259109
 31
0.0
1001
GENIUS_GENOREF_13
1005
24808
  0
LINE
  5
2472E
330
1F
100
AcDbEntity
  8
AM_7
  6
AM_ISO08W050X2
100
AcDbLine
 10
2417.545647511126
 20
60.88395373259107
 30
0.0
 11
2414.445647511126
 21
60.88395373259107
 31
0.0
1001
GENIUS_GENOREF_13
1005
24808
  0
LINE
  5
2472F
330
1F
100
AcDbEntity
  8
AM_VIS
100
AcDbLine
 10
2406.545647511126
 20
73.13395373259107
 30
0.0
 11
2406.545647511126
 21
69.63395373259107
 31
0.0
  0
LINE
  5
24730
330
1F
100
AcDbEntity
  8
AM_VIS
100
AcDbLine
 10
2418.545647511126
 20
69.63395373259107
 30
0.0
 11
2418.545647511126
 21
73.13395373259107
 31
0.0
  0
LINE
  5
24731
330
1F
100
AcDbEntity
  8
AM_7
  6
AM_ISO08W050X2
100
AcDbLine
 10
2407.545647511126
 20
81.88395373259107
 30
0.0
 11
2404.445647511126
 21
81.88395373259107
 31
0.0
1001
GENIUS_GENOREF_13
1005
24807
  0
CIRCLE
  5
24732
330
1F
100
AcDbEntity
  8
AM_VIS
100
AcDbCircle
 10
2407.545647511126
 20
81.88395373259107
 30
0.0
 40
2.1
  0
LINE
  5
24733
330
1F
100
AcDbEntity
  8
AM_7
  6
AM_ISO08W050X2
100
AcDbLine
 10
2407.545647511126
 20
81.88395373259107
 30
0.0
 11
2407.545647511126
 21
84.98395373259109
 31
0.0
1001
GENIUS_GENOREF_13
1005
24807
  0
LINE
  5
24734
330
1F
100
AcDbEntity
  8
AM_7
  6
AM_ISO08W050X2
100
AcDbLine
 10
2407.545647511126
 20
81.88395373259107
 30
0.0
 11
2407.545647511126
 21
78.78395373259104
 31
0.0
1001
GENIUS_GENOREF_13
1005
24807
  0
LINE
  5
24735
330
1F
100
AcDbEntity
  8
AM_7
  6
AM_ISO08W050X2
100
AcDbLine
 10
2407.545647511126
 20
81.88395373259107
 30
0.0
 11
2410.645647511126
 21
81.88395373259107
 31
0.0
1001
GENIUS_GENOREF_13
1005
24807
  0
LINE
  5
24736
330
1F
100
AcDbEntity
  8
AM_VIS
100
AcDbLine
 10
2437.545647511126
 20
84.58395373259099
 30
0.0
 11
2437.545647511126
 21
58.18395373259114
 31
0.0
  0
LINE
  5
24737
330
1F
100
AcDbEntity
  8
AM_VIS
100
AcDbLine
 10
2437.545647511126
 20
58.18395373259114
 30
0.0
 11
2437.545647511126
 21
84.58395373259111
 31
0.0
  0
LINE
  5
24738
330
1F
100
AcDbEntity
  8
AM_7
100
AcDbLine
 10
2423.045647511126
 20
71.38395373259107
 30
0.0
 11
2423.045647511126
 21
79.083953732591
 31
0.0
1001
GENIUS_GENOREF_13
1005
24805
  0
LINE
  5
24739
330
1F
100
AcDbEntity
  8
AM_7
100
AcDbLine
 10
2423.045647511126
 20
71.38395373259107
 30
0.0
 11
2423.045647511126
 21
63.68395373259113
 31
0.0
1001
GENIUS_GENOREF_13
1005
24805
  0
LINE
  5
2473A
330
1F
100
AcDbEntity
  8
AM_7
100
AcDbLine
 10
2423.045647511126
 20
71.38395373259107
 30
0.0
 11
2430.745647511126
 21
71.38395373259107
 31
0.0
1001
GENIUS_GENOREF_13
1005
24805
  0
LINE
  5
2473B
330
1F
100
AcDbEntity
  8
AM_VIS
100
AcDbLine
 10
2423.545647511126
 20
73.13395373259107
 30
0.0
 11
2423.545647511126
 21
69.63395373259107
 31
0.0
  0
LINE
  5
2473C
330
1F
100
AcDbEntity
  8
AM_VIS
100
AcDbLine
 10
2487.545647511126
 20
23.60818226885283
 30
0.0
 11
2465.545647511126
 21
23.60818226885283
 31
0.0
  0
ARC
  5
2473D
330
1F
100
AcDbEntity
  8
AM_VIS
100
AcDbCircle
 10
2465.545647511126
 20
20.10818226885282
 30
0.0
 40
3.5
100
AcDbArc
 50
90.0
 51
180.0
  0
ARC
  5
2473E
330
1F
100
AcDbEntity
  8
AM_VIS
100
AcDbCircle
 10
2487.545647511126
 20
20.10818226885282
 30
0.0
 40
3.5
100
AcDbArc
 50
31.41476770923211
 51
90.0
  0
LINE
  5
2473F
330
1F
100
AcDbEntity
  8
AM_VIS
100
AcDbLine
 10
2486.045647511126
 20
23.60818226885283
 30
0.0
 11
2491.045647511126
 21
25.60818226885283
 31
0.0
  0
LINE
  5
24740
330
1F
100
AcDbEntity
  8
AM_VIS
100
AcDbLine
 10
2461.545647511126
 20
60.38395373259106
 30
0.0
 11
2491.045647511126
 21
60.38395373259106
 31
0.0
  0
LINE
  5
24741
330
1F
100
AcDbEntity
  8
AM_VIS
100
AcDbLine
 10
2461.545647511126
 20
82.38395373259107
 30
0.0
 11
2491.045647511126
 21
82.38395373259107
 31
0.0
  0
LINE
  5
24742
330
1F
100
AcDbEntity
  8
AM_VIS
100
AcDbLine
 10
2487.545647511126
 20
81.88395373259117
 30
0.0
 11
2465.545647511126
 21
81.88395373259117
 31
0.0
  0
LINE
  5
24743
330
1F
100
AcDbEntity
  8
AM_VIS
100
AcDbLine
 10
2465.545647511126
 20
60.88395373259118
 30
0.0
 11
2487.545647511126
 21
60.88395373259118
 31
0.0
  0
LINE
  5
24744
330
1F
100
AcDbEntity
  8
AM_VIS
100
AcDbLine
 10
2461.545647511126
 20
82.38395373259107
 30
0.0
 11
2461.545647511126
 21
60.38395373259106
 31
0.0
  0
LINE
  5
24745
330
1F
100
AcDbEntity
  8
AM_VIS
100
AcDbLine
 10
2462.045647511126
 20
78.38395373259118
 30
0.0
 11
2462.045647511126
 21
64.38395373259118
 31
0.0
  0
CIRCLE
  5
24746
330
1F
100
AcDbEntity
  8
AM_VIS
100
AcDbCircle
 10
2450.745647511126
 20
71.38395373259107
 30
0.0
 40
3.5
  0
CIRCLE
  5
24747
330
1F
100
AcDbEntity
  8
AM_VIS
100
AcDbCircle
 10
2450.745647511126
 20
71.38395373259107
 30
0.0
 40
3.45
  0
LINE
  5
24748
330
1F
100
AcDbEntity
  8
AM_VIS
100
AcDbLine
 10
2459.545647511126
 20
58.5679651610119
 30
0.0
 11
2459.545647511126
 21
84.19994230417023
 31
0.0
  0
LINE
  5
24749
330
1F
100
AcDbEntity
  8
AM_VIS
100
AcDbLine
 10
2453.12314619672
 20
73.88395373259107
 30
0.0
 11
2453.19513725391
 21
73.88395373259107
 31
0.0
  0
LINE
  5
2474A
330
1F
100
AcDbEntity
  8
AM_VIS
100
AcDbLine
 10
2453.19513725391
 20
68.88395373259107
 30
0.0
 11
2453.12314619672
 21
68.88395373259107
 31
0.0
  0
LINE
  5
2474B
330
1F
100
AcDbEntity
  8
AM_VIS
100
AcDbLine
 10
2453.293195351697
 20
68.98395373259109
 30
0.0
 11
2453.224054257405
 21
68.98395373259109
 31
0.0
  0
LINE
  5
2474C
330
1F
100
AcDbEntity
  8
AM_VIS
100
AcDbLine
 10
2450.245647511126
 20
73.18395373259114
 30
0.0
 11
2451.245647511127
 21
73.18395373259114
 31
0.0
  0
LINE
  5
2474D
330
1F
100
AcDbEntity
  8
AM_VIS
100
AcDbLine
 10
2451.245647511127
 20
69.58395373259111
 30
0.0
 11
2450.245647511126
 21
69.58395373259111
 31
0.0
  0
LINE
  5
2474E
330
1F
100
AcDbEntity
  8
AM_VIS
100
AcDbLine
 10
2451.245647511127
 20
73.18395373259114
 30
0.0
 11
2451.245647511127
 21
69.58395373259111
 31
0.0
  0
LINE
  5
2474F
330
1F
100
AcDbEntity
  8
AM_VIS
100
AcDbLine
 10
2450.245647511126
 20
69.58395373259111
 30
0.0
 11
2450.245647511126
 21
73.18395373259114
 31
0.0
  0
ARC
  5
24750
330
1F
100
AcDbEntity
  8
AM_VIS
100
AcDbCircle
 10
2465.545647511126
 20
64.38395373259118
 30
0.0
 40
3.5
100
AcDbArc
 50
180.0
 51
270.0
  0
LINE
  5
24751
330
1F
100
AcDbEntity
  8
AM_VIS
100
AcDbLine
 10
2461.545647511126
 20
59.583953732591
 30
0.0
 11
2461.545647511126
 21
60.38395373259106
 31
0.0
  0
LINE
  5
24752
330
1F
100
AcDbEntity
  8
AM_VIS
100
AcDbLine
 10
2461.545647511126
 20
59.583953732591
 30
0.0
 11
2461.545647511126
 21
58.58395373259099
 31
0.0
  0
LINE
  5
24753
330
1F
100
AcDbEntity
  8
AM_VIS
100
AcDbLine
 10
2459.545647511126
 20
58.58395373259099
 30
0.0
 11
2461.545647511126
 21
58.58395373259099
 31
0.0
  0
ARC
  5
24754
330
1F
100
AcDbEntity
  8
AM_VIS
100
AcDbCircle
 10
2465.545647511126
 20
78.38395373259118
 30
0.0
 40
3.5
100
AcDbArc
 50
90.0
 51
180.0
  0
LINE
  5
24755
330
1F
100
AcDbEntity
  8
AM_VIS
100
AcDbLine
 10
2461.545647511126
 20
82.38395373259107
 30
0.0
 11
2461.545647511126
 21
83.18395373259113
 31
0.0
  0
LINE
  5
24756
330
1F
100
AcDbEntity
  8
AM_VIS
100
AcDbLine
 10
2461.545647511126
 20
84.18395373259114
 30
0.0
 11
2461.545647511126
 21
83.18395373259113
 31
0.0
  0
LINE
  5
24757
330
1F
100
AcDbEntity
  8
AM_VIS
100
AcDbLine
 10
2461.545647511126
 20
84.18395373259114
 30
0.0
 11
2459.545647511126
 21
84.18395373259114
 31
0.0
  0
SPLINE
  5
24758
330
1F
100
AcDbEntity
  8
AM_VIS
100
AcDbSpline
210
0.0
220
0.0
230
1.0
 70
     8
 71
     3
 72
    16
 73
    12
 74
     0
 42
0.0000000001
 43
0.0000000001
 40
13.44245735600753
 40
13.44245735600753
 40
13.44245735600753
 40
13.44245735600753
 40
14.73830257098713
 40
14.73830257098713
 40
16.09309933183528
 40
16.09309933183528
 40
17.1151508050885
 40
17.1151508050885
 40
18.13720227834172
 40
18.13720227834172
 40
18.55503350861849
 40
18.55503350861849
 40
18.55503350861849
 40
18.55503350861849
 10
2487.545647511126
 20
74.34368344998091
 30
0.0
 10
2487.84918167961
 20
74.65544971254502
 30
0.0
 10
2488.152180959563
 20
75.01555007145151
 30
0.0
 10
2488.74543933172
 20
75.75914633942415
 30
0.0
 10
2489.033521882638
 20
76.14351417846086
 30
0.0
 10
2489.473718741849
 20
76.75215461148804
 30
0.0
 10
2489.663651832433
 20
77.02292432303437
 30
0.0
 10
2490.025895972691
 20
77.5598601788858
 30
0.0
 10
2490.198214957011
 20
77.82602201705794
 30
0.0
 10
2490.415813667099
 20
78.18335776402495
 30
0.0
 10
2490.475991946994
 20
78.28499806485746
 30
0.0
 10
2490.532605195395
 20
78.38395373259112
 30
0.0
  0
LINE
  5
24759
330
1F
100
AcDbEntity
  8
AM_VIS
100
AcDbLine
 10
2491.045647511126
 20
62.38395373259118
 30
0.0
 11
2491.045647511126
 21
80.38395373259119
 31
0.0
  0
CIRCLE
  5
2475A
330
1F
100
AcDbEntity
  8
AM_VIS
100
AcDbCircle
 10
2476.545647511126
 20
71.38395373259118
 30
0.0
 40
3.5
  0
INSERT
  5
2475B
330
1F
100
AcDbEntity
  8
0
100
AcDbBlockReference
  2
A$C75484636
 10
2473.795647756682
 20
68.6339535261252
 30
0.0
  0
SPLINE
  5
2475C
330
1F
100
AcDbEntity
  8
AM_VIS
100
AcDbSpline
210
0.0
220
0.0
230
1.0
 70
     8
 71
     3
 72
    16
 73
    12
 74
     0
 42
0.0000000001
 43
0.0000000001
 40
1.626271716229691
 40
1.626271716229691
 40
1.626271716229691
 40
1.626271716229691
 40
2.044102946506439
 40
2.044102946506439
 40
3.066154419759659
 40
3.066154419759659
 40
4.088205893012879
 40
4.088205893012879
 40
5.443002653861024
 40
5.443002653861024
 40
6.738847868840626
 40
6.738847868840626
 40
6.738847868840626
 40
6.738847868840626
 10
2490.532605195395
 20
64.38395373259112
 30
0.0
 10
2490.475991946994
 20
64.48290940032501
 30
0.0
 10
2490.415813667099
 20
64.5845497011573
 30
0.0
 10
2490.198214957011
 20
64.94188544812454
 30
0.0
 10
2490.025895972691
 20
65.20804728629667
 30
0.0
 10
2489.663651832433
 20
65.7449831421481
 30
0.0
 10
2489.473718741849
 20
66.0157528536942
 30
0.0
 10
2489.033521882638
 20
66.62439328672161
 30
0.0
 10
2488.74543933172
 20
67.00876112575833
 30
0.0
 10
2488.152180959563
 20
67.75235739373096
 30
0.0
 10
2487.84918167961
 20
68.11245775263722
 30
0.0
 10
2487.545647511126
 20
68.42422401520156
 30
0.0
  0
ARC
  5
2475D
330
1F
100
AcDbEntity
  8
AM_VIS
100
AcDbCircle
 10
2487.545647511126
 20
64.38395373259118
 30
0.0
 40
3.5
100
AcDbArc
 50
270.0
 51
339.9583415914294
  0
ARC
  5
2475E
330
1F
100
AcDbEntity
  8
AM_VIS
100
AcDbCircle
 10
2459.849582844991
 20
57.11991411085205
 30
0.0
 40
33.54815021422394
100
AcDbArc
 50
8.308220181147175
 51
9.02758573914312
  0
LINE
  5
2475F
330
1F
100
AcDbEntity
  8
AM_VIS
100
AcDbLine
 10
2491.045647511126
 20
61.38395373259118
 30
0.0
 11
2491.545647511126
 21
61.38395373259118
 31
0.0
  0
LINE
  5
24760
330
1F
100
AcDbEntity
  8
AM_VIS
100
AcDbLine
 10
2491.745647511126
 20
62.38395373259118
 30
0.0
 11
2491.545647511126
 21
61.38395373259118
 31
0.0
  0
LINE
  5
24761
330
1F
100
AcDbEntity
  8
AM_VIS
100
AcDbLine
 10
2491.545647511126
 20
62.38395373259118
 30
0.0
 11
2491.545647511126
 21
61.38395373259118
 31
0.0
  0
LINE
  5
24762
330
1F
100
AcDbEntity
  8
AM_VIS
100
AcDbLine
 10
2493.045647511126
 20
61.96756028996822
 30
0.0
 11
2493.045647511126
 21
62.38395373259118
 31
0.0
  0
LINE
  5
24763
330
1F
100
AcDbEntity
  8
AM_VIS
100
AcDbLine
 10
2491.045647511126
 20
60.38395373259106
 30
0.0
 11
2491.045647511126
 21
62.38395373259118
 31
0.0
  0
SPLINE
  5
24764
330
1F
100
AcDbEntity
  8
AM_VIS
100
AcDbSpline
210
0.0
220
0.0
230
1.0
 70
     8
 71
     3
 72
    18
 73
    14
 74
     0
 42
0.0000000001
 43
0.0000000001
 40
6.072258403086962
 40
6.072258403086962
 40
6.072258403086962
 40
6.072258403086962
 40
6.091519998582311
 40
6.091519998582311
 40
6.594079983681931
 40
6.594079983681931
 40
7.096639968781531
 40
7.096639968781531
 40
7.59919995388113
 40
7.59919995388113
 40
8.101759938980729
 40
8.101759938980729
 40
8.212872863102431
 40
8.212872863102431
 40
8.212872863102431
 40
8.212872863102431
 10
2490.833700452926
 20
63.18449224845512
 30
0.0
 10
2490.834550323127
 20
63.18682197579659
 30
0.0
 10
2490.835383697718
 20
63.18916418631687
 30
0.0
 10
2490.857514756265
 20
63.25295184059399
 30
0.0
 10
2490.867471167144
 20
63.32293810103573
 30
0.0
 10
2490.867471167144
 20
63.4727725396296
 30
0.0
 10
2490.857514756265
 20
63.5584933543675
 30
0.0
 10
2490.814886452389
 20
63.74817192945414
 30
0.0
 10
2490.782216710947
 20
63.8521264267128
 30
0.0
 10
2490.694851378198
 20
64.07192580798954
 30
0.0
 10
2490.640098817463
 20
64.18788694723724
 30
0.0
 10
2490.562124935476
 20
64.33167930896814
 30
0.0
 10
2490.54756814138
 20
64.35779963698649
 30
0.0
 10
2490.532605195395
 20
64.38395373259112
 30
0.0
  0
LINE
  5
24765
330
1F
100
AcDbEntity
  8
AM_VIS
100
AcDbLine
 10
2490.546991315596
 20
62.58341621080308
 30
0.0
 11
2491.045647511126
 21
62.38395373259118
 31
0.0
  0
SPLINE
  5
24766
330
1F
100
AcDbEntity
  8
AM_VIS
100
AcDbSpline
210
0.0
220
0.0
230
1.0
 70
    12
 71
     2
 72
     6
 73
     3
 74
     0
 42
0.0000000001
 43
0.0000000001
 40
0.0
 40
0.0
 40
0.0
 40
3.381727793507036
 40
3.381727793507036
 40
3.381727793507036
 10
2487.545647511126
 20
68.42422401520156
 30
0.0
 41
1.0
 10
2486.045647511127
 20
69.96490523795222
 30
0.0
 41
1.021203771466384
 10
2486.045647511127
 20
71.38395373259112
 30
0.0
 41
1.0
  0
SPLINE
  5
24767
330
1F
100
AcDbEntity
  8
AM_VIS
100
AcDbSpline
210
0.0
220
0.0
230
1.0
 70
    12
 71
     2
 72
     6
 73
     3
 74
     0
 42
0.0000000001
 43
0.0000000001
 40
3.381727793507036
 40
3.381727793507036
 40
3.381727793507036
 40
6.763455587014078
 40
6.763455587014078
 40
6.763455587014078
 10
2486.045647511127
 20
71.38395373259112
 30
0.0
 41
1.0
 10
2486.045647511127
 20
72.80300222723003
 30
0.0
 41
1.021203771466384
 10
2487.545647511126
 20
74.34368344998091
 30
0.0
 41
1.0
  0
ARC
  5
24768
330
1F
100
AcDbEntity
  8
AM_VIS
100
AcDbCircle
 10
2487.545647511126
 20
78.38395373259118
 30
0.0
 40
3.499999999999999
100
AcDbArc
 50
20.04165840857048
 51
90.0
  0
ARC
  5
24769
330
1F
100
AcDbEntity
  8
AM_VIS
100
AcDbCircle
 10
2459.849582845344
 20
85.64799335427711
 30
0.0
 40
33.54815021386715
100
AcDbArc
 50
350.9724142608536
 51
351.691779818856
  0
LINE
  5
2476A
330
1F
100
AcDbEntity
  8
AM_VIS
100
AcDbLine
 10
2491.045647511126
 20
81.38395373259118
 30
0.0
 11
2491.545647511126
 21
81.38395373259118
 31
0.0
  0
LINE
  5
2476B
330
1F
100
AcDbEntity
  8
AM_VIS
100
AcDbLine
 10
2491.745647511126
 20
80.38395373259119
 30
0.0
 11
2491.545647511126
 21
81.38395373259118
 31
0.0
  0
LINE
  5
2476C
330
1F
100
AcDbEntity
  8
AM_VIS
100
AcDbLine
 10
2491.545647511126
 20
81.38395373259118
 30
0.0
 11
2491.545647511126
 21
80.38395373259119
 31
0.0
  0
LINE
  5
2476D
330
1F
100
AcDbEntity
  8
AM_VIS
100
AcDbLine
 10
2493.045647511126
 20
80.38395373259119
 30
0.0
 11
2493.045647511126
 21
80.80034717521403
 31
0.0
  0
LINE
  5
2476E
330
1F
100
AcDbEntity
  8
AM_VIS
100
AcDbLine
 10
2491.045647511126
 20
80.38395373259119
 30
0.0
 11
2491.045647511126
 21
82.38395373259107
 31
0.0
  0
SPLINE
  5
2476F
330
1F
100
AcDbEntity
  8
AM_VIS
100
AcDbSpline
210
0.0
220
0.0
230
1.0
 70
     8
 71
     3
 72
    18
 73
    14
 74
     0
 42
0.0000000001
 43
0.0000000001
 40
4.975287104260677
 40
4.975287104260677
 40
4.975287104260677
 40
4.975287104260677
 40
5.086400028382842
 40
5.086400028382842
 40
5.588960013482415
 40
5.588960013482415
 40
6.091519998581987
 40
6.091519998581987
 40
6.59407998368156
 40
6.59407998368156
 40
7.096639968781131
 40
7.096639968781131
 40
7.11590156427612
 40
7.11590156427612
 40
7.11590156427612
 40
7.11590156427612
 10
2490.532605195395
 20
78.38395373259112
 30
0.0
 10
2490.54756814138
 20
78.41010782819598
 30
0.0
 10
2490.562124935476
 20
78.43622815621455
 30
0.0
 10
2490.640098817463
 20
78.58002051794546
 30
0.0
 10
2490.694851378198
 20
78.69598165719316
 30
0.0
 10
2490.782216710947
 20
78.91578103846967
 30
0.0
 10
2490.814886452389
 20
79.01973553572833
 30
0.0
 10
2490.857514756265
 20
79.2094141108152
 30
0.0
 10
2490.867471167144
 20
79.2951349255531
 30
0.0
 10
2490.867471167144
 20
79.44496936414697
 30
0.0
 10
2490.857514756265
 20
79.51495562458848
 30
0.0
 10
2490.835383697718
 20
79.5787432788656
 30
0.0
 10
2490.834550323127
 20
79.58108548938565
 30
0.0
 10
2490.833700452926
 20
79.58341521672736
 30
0.0
  0
LINE
  5
24770
330
1F
100
AcDbEntity
  8
AM_VIS
100
AcDbLine
 10
2490.546991315596
 20
80.18449125437939
 30
0.0
 11
2491.045647511126
 21
80.38395373259119
 31
0.0
  0
LINE
  5
24771
330
1F
100
AcDbEntity
  8
AM_VIS
100
AcDbLine
 10
2512.545647511126
 20
13.94071402358332
 30
0.0
 11
2512.545647511126
 21
11.77565051412227
 31
0.0
  0
LINE
  5
24772
330
1F
100
AcDbEntity
  8
AM_VIS
100
AcDbLine
 10
2507.045647511126
 20
11.77565051412227
 30
0.0
 11
2507.045647511126
 21
13.94071402358332
 31
0.0
  0
LINE
  5
24773
330
1F
100
AcDbEntity
  8
AM_VIS
100
AcDbLine
 10
2503.045647511126
 20
25.60818226885283
 30
0.0
 11
2503.045647511126
 21
7.608182268852829
 31
0.0
  0
LINE
  5
24774
330
1F
100
AcDbEntity
  8
AM_VIS
100
AcDbLine
 10
2505.445647511126
 20
23.60818226885283
 30
0.0
 11
2505.445647511126
 21
9.608182268852829
 31
0.0
  0
LINE
  5
24775
330
1F
100
AcDbEntity
  8
AM_VIS
100
AcDbLine
 10
2499.045647511126
 20
-24.94671498935548
 30
0.0
 11
2499.045647511126
 21
-29.03850154667077
 31
0.0
  0
LINE
  5
24776
330
1F
100
AcDbEntity
  8
AM_VIS
100
AcDbLine
 10
2495.895647511126
 20
-25.75805220511478
 30
0.0
 11
2495.895647511126
 21
-28.86353642750418
 31
0.0
  0
LINE
  5
24777
330
1F
100
AcDbEntity
  8
AM_VIS
100
AcDbLine
 10
2497.395647511126
 20
-28.86353642750418
 30
0.0
 11
2497.395647511126
 21
-25.75805220511478
 31
0.0
  0
LINE
  5
24778
330
1F
100
AcDbEntity
  8
AM_VIS
100
AcDbLine
 10
2498.545647511126
 20
-28.86353642750418
 30
0.0
 11
2498.545647511126
 21
-25.75805220511478
 31
0.0
  0
LINE
  5
24779
330
1F
100
AcDbEntity
  8
AM_VIS
100
AcDbLine
 10
2499.045647511126
 20
-29.03850154667077
 30
0.0
 11
2499.045647511126
 21
-31.59339880487903
 31
0.0
  0
LINE
  5
2477A
330
1F
100
AcDbEntity
  8
AM_VIS
100
AcDbLine
 10
2499.045647511126
 20
-31.59339880487897
 30
0.0
 11
2499.045647511126
 21
-31.89181773114722
 31
0.0
  0
LINE
  5
2477B
330
1F
100
AcDbEntity
  8
AM_VIS
100
AcDbLine
 10
2498.545647511126
 20
-32.39181773114722
 30
0.0
 11
2498.545647511126
 21
-32.22977090147168
 31
0.0
  0
SPLINE
  5
2477C
330
1F
100
AcDbEntity
  8
AM_VIS
100
AcDbSpline
210
0.0
220
0.0
230
1.0
 70
     8
 71
     3
 72
     8
 73
     4
 74
     0
 42
0.0000000001
 43
0.0000000001
 40
7.860869800051694
 40
7.860869800051694
 40
7.860869800051694
 40
7.860869800051694
 40
8.796716658530822
 40
8.796716658530822
 40
8.796716658530822
 40
8.796716658530822
 10
2499.045647511127
 20
-31.59339880487897
 30
0.0
 10
2498.89460847509
 20
-31.801706302068
 30
0.0
 10
2498.725508859344
 20
-32.01496511710235
 30
0.0
 10
2498.545647511127
 20
-32.22977090147179
 30
0.0
  0
SPLINE
  5
2477D
330
1F
100
AcDbEntity
  8
AM_VIS
100
AcDbSpline
210
0.0
220
0.0
230
1.0
 70
     8
 71
     3
 72
     8
 73
     4
 74
     0
 42
0.0000000001
 43
0.0000000001
 40
1.630155802117218
 40
1.630155802117218
 40
1.630155802117218
 40
1.630155802117218
 40
2.566002660597602
 40
2.566002660597602
 40
2.566002660597602
 40
2.566002660597602
 10
2498.545647511127
 20
-28.86353642750424
 30
0.0
 10
2498.725508744318
 20
-28.90810776072868
 30
0.0
 10
2498.894608365693
 20
-28.96600105714702
 30
0.0
 10
2499.045647511127
 20
-29.03850154667071
 30
0.0
  0
LINE
  5
2477E
330
1F
100
AcDbEntity
  8
AM_VIS
100
AcDbLine
 10
2499.045647511126
 20
-31.89181773114722
 30
0.0
 11
2498.545647511126
 21
-32.39181773114722
 31
0.0
  0
ARC
  5
2477F
330
1F
100
AcDbEntity
  8
AM_VIS
100
AcDbCircle
 10
2496.645609086607
 20
-29.32284566133791
 30
0.0
 40
0.6998062945020416
100
AcDbArc
 50
44.42169926757007
 51
135.5738984971954
  0
SPLINE
  5
24780
330
1F
100
AcDbEntity
  8
AM_VIS
100
AcDbSpline
210
0.0
220
0.0
230
1.0
 70
    11
 71
     3
 72
    58
 73
    54
 74
     0
 42
0.0000000001
 43
0.0000000001
 40
-3.310941722041909
 40
-3.310941722041909
 40
-3.310941722041909
 40
-3.310941722041909
 40
-3.295630163526127
 40
-3.295630163526127
 40
-3.258885216857127
 40
-3.258885216857127
 40
-3.197166102530552
 40
-3.197166102530552
 40
-3.038165220187092
 40
-3.038165220187092
 40
-2.856291614874425
 40
-2.856291614874425
 40
-2.666842086900363
 40
-2.666842086900363
 40
-2.492578752010307
 40
-2.492578752010307
 40
-2.312125783734306
 40
-2.312125783734306
 40
-2.134512493780222
 40
-2.134512493780222
 40
-1.991913706755022
 40
-1.991913706755022
 40
-1.842368186772041
 40
-1.842368186772041
 40
-1.791323432474765
 40
-1.791323432474765
 40
-1.757111173267642
 40
-1.757111173267642
 40
-1.723565230360897
 40
-1.723565230360897
 40
-1.676146471110933
 40
-1.676146471110933
 40
-1.559264165848294
 40
-1.559264165848294
 40
-1.304423753582546
 40
-1.304423753582546
 40
-1.102534997057311
 40
-1.102534997057311
 40
-0.9616332280766684
 40
-0.9616332280766684
 40
-0.8335600122348491
 40
-0.8335600122348491
 40
-0.6887403587823754
 40
-0.6887403587823754
 40
-0.4760113448005606
 40
-0.4760113448005606
 40
-0.2570316117940582
 40
-0.2570316117940582
 40
-0.0905362468526998
 40
-0.0905362468526998
 40
-0.0354113089024487
 40
-0.0354113089024487
 40
0.0
 40
0.0
 40
0.0
 40
0.0
 10
2497.145647511126
 20
-28.51442028878165
 30
0.0
 10
2497.145647511126
 20
-28.51600509434121
 30
0.0
 10
2497.145576911262
 20
-28.51752360717847
 30
0.0
 10
2497.145090640503
 20
-28.52245523062362
 30
0.0
 10
2497.144332162407
 20
-28.52552903873044
 30
0.0
 10
2497.141138804415
 20
-28.53265425955629
 30
0.0
 10
2497.137935600139
 20
-28.53590688240325
 30
0.0
 10
2497.121995389631
 20
-28.54343921383684
 30
0.0
 10
2497.102647997186
 20
-28.54098951021359
 30
0.0
 10
2497.046073380646
 20
-28.52699356494401
 30
0.0
 10
2497.006359944541
 20
-28.51421612654149
 30
0.0
 10
2496.907950221171
 20
-28.48832867966263
 30
0.0
 10
2496.850137087362
 20
-28.47579409545693
 30
0.0
 10
2496.730140613474
 20
-28.46083882162185
 30
0.0
 10
2496.670158038678
 20
-28.45782884472242
 30
0.0
 10
2496.547977657662
 20
-28.46164290139023
 30
0.0
 10
2496.487937197064
 20
-28.46875796877822
 30
0.0
 10
2496.378027630274
 20
-28.4892001446081
 30
0.0
 10
2496.328902298531
 20
-28.5022781242622
 30
0.0
 10
2496.254092639398
 20
-28.52368224279854
 30
0.0
 10
2496.22567791946
 20
-28.53239581674148
 30
0.0
 10
2496.179691322603
 20
-28.54223893608951
 30
0.0
 10
2496.163172023935
 20
-28.54274273378559
 30
0.0
 10
2496.150887825602
 20
-28.53330736863262
 30
0.0
 10
2496.148669883415
 20
-28.5300751433113
 30
0.0
 10
2496.146389316115
 20
-28.52327839491323
 30
0.0
 10
2496.145862669349
 20
-28.52019050743598
 30
0.0
 10
2496.145542901968
 20
-28.51339369166765
 30
0.0
 10
2496.145736235233
 20
-28.50970838242398
 30
0.0
 10
2496.14699334487
 20
-28.50010350667076
 30
0.0
 10
2496.148381926811
 20
-28.49390384463282
 30
0.0
 10
2496.155220122299
 20
-28.4707631633741
 30
0.0
 10
2496.16363959745
 20
-28.45136511652509
 30
0.0
 10
2496.198992986126
 20
-28.38551052088343
 30
0.0
 10
2496.237573331125
 20
-28.33133766835265
 30
0.0
 10
2496.327707667539
 20
-28.2418363962027
 30
0.0
 10
2496.376211845546
 20
-28.20357651050682
 30
0.0
 10
2496.472075551286
 20
-28.15359629128403
 30
0.0
 10
2496.515330839147
 20
-28.13739145816231
 30
0.0
 10
2496.603918220428
 20
-28.11996286158006
 30
0.0
 10
2496.646910406099
 20
-28.11787676945431
 30
0.0
 10
2496.738615764037
 20
-28.12735236293752
 30
0.0
 10
2496.784506605934
 20
-28.14042316208343
 30
0.0
 10
2496.888936577513
 20
-28.18605222623586
 30
0.0
 10
2496.942225491184
 20
-28.22429725633816
 30
0.0
 10
2497.03088485497
 20
-28.30613940889003
 30
0.0
 10
2497.06760648545
 20
-28.35175250001901
 30
0.0
 10
2497.114820038851
 20
-28.42491031485502
 30
0.0
 10
2497.130241613646
 20
-28.4552970008645
 30
0.0
 10
2497.141391325778
 20
-28.48809021235064
 30
0.0
 10
2497.143393257664
 20
-28.49562336498712
 30
0.0
 10
2497.145270119403
 20
-28.50673633025036
 30
0.0
 10
2497.145647511126
 20
-28.51075508127411
 30
0.0
 10
2497.145647511126
 20
-28.51442028878165
 30
0.0
  0
LINE
  5
24781
330
1F
100
AcDbEntity
  8
AM_VIS
100
AcDbLine
 10
2495.895647511126
 20
-32.22977090147168
 30
0.0
 11
2495.895647511126
 21
-32.39181773114722
 31
0.0
  0
LINE
  5
24782
330
1F
100
AcDbEntity
  8
AM_VIS
100
AcDbLine
 10
2495.895647511126
 20
-32.22977090147173
 30
0.0
 11
2495.895647511126
 21
-28.86353642750418
 31
0.0
  0
LINE
  5
24783
330
1F
100
AcDbEntity
  8
AM_VIS
100
AcDbLine
 10
2497.395647511126
 20
-32.39181773114722
 30
0.0
 11
2497.395647511126
 21
-32.22977090147168
 31
0.0
  0
LINE
  5
24784
330
1F
100
AcDbEntity
  8
AM_VIS
100
AcDbLine
 10
2497.395647511126
 20
-28.86353642750418
 30
0.0
 11
2497.395647511126
 21
-32.22977090147179
 31
0.0
  0
ARC
  5
24785
330
1F
100
AcDbEntity
  8
AM_VIS
100
AcDbCircle
 10
2496.645647511126
 20
-29.39181773114722
 30
0.0
 40
0.75
100
AcDbArc
 50
131.8103148957701
 51
180.0
  0
ARC
  5
24786
330
1F
100
AcDbEntity
  8
AM_VIS
100
AcDbCircle
 10
2496.645647511126
 20
-29.39181773114722
 30
0.0
 40
0.75
100
AcDbArc
 50
0.0
 51
48.18968510422982
  0
LINE
  5
24787
330
1F
100
AcDbEntity
  8
AM_VIS
100
AcDbLine
 10
2498.545647511126
 20
-32.22977090147173
 30
0.0
 11
2497.395647511126
 21
-32.22977090147173
 31
0.0
  0
LINE
  5
24788
330
1F
100
AcDbEntity
  8
AM_VIS
100
AcDbLine
 10
2497.395647511126
 20
-28.86353642750418
 30
0.0
 11
2498.545647511126
 21
-28.86353642750418
 31
0.0
  0
LINE
  5
24789
330
1F
100
AcDbEntity
  8
AM_VIS
100
AcDbLine
 10
2497.395647511126
 20
-32.39181773114722
 30
0.0
 11
2498.545647511126
 21
-32.39181773114722
 31
0.0
  0
LINE
  5
2478A
330
1F
100
AcDbEntity
  8
AM_VIS
100
AcDbLine
 10
2499.045647511126
 20
-15.74513391562385
 30
0.0
 11
2499.045647511126
 21
-19.83692047293897
 31
0.0
  0
LINE
  5
2478B
330
1F
100
AcDbEntity
  8
AM_VIS
100
AcDbLine
 10
2495.895647511126
 20
-15.92009903479044
 30
0.0
 11
2495.895647511126
 21
-19.02558325717967
 31
0.0
  0
LINE
  5
2478C
330
1F
100
AcDbEntity
  8
AM_VIS
100
AcDbLine
 10
2497.395647511126
 20
-19.02558325717967
 30
0.0
 11
2497.395647511126
 21
-15.92009903479044
 31
0.0
  0
LINE
  5
2478D
330
1F
100
AcDbEntity
  8
AM_VIS
100
AcDbLine
 10
2498.545647511126
 20
-19.02558325717967
 30
0.0
 11
2498.545647511126
 21
-15.92009903479044
 31
0.0
  0
SPLINE
  5
2478E
330
1F
100
AcDbEntity
  8
AM_VIS
100
AcDbSpline
210
0.0
220
0.0
230
1.0
 70
     8
 71
     3
 72
     8
 73
     4
 74
     0
 42
0.0000000001
 43
0.0000000001
 40
1.629958734905461
 40
1.629958734905461
 40
1.629958734905461
 40
1.629958734905461
 40
2.565803457021723
 40
2.565803457021723
 40
2.565803457021723
 40
2.565803457021723
 10
2498.545647511127
 20
-19.02558325717978
 30
0.0
 10
2498.725508388083
 20
-19.28495972367369
 30
0.0
 10
2498.894608135039
 20
-19.55611190652581
 30
0.0
 10
2499.045647511127
 20
-19.83692047293908
 30
0.0
  0
SPLINE
  5
2478F
330
1F
100
AcDbEntity
  8
AM_VIS
100
AcDbSpline
210
0.0
220
0.0
230
1.0
 70
     8
 71
     3
 72
     8
 73
     4
 74
     0
 42
0.0000000001
 43
0.0000000001
 40
7.8606508081159
 40
7.8606508081159
 40
7.8606508081159
 40
7.8606508081159
 40
8.796495530230886
 40
8.796495530230886
 40
8.796495530230886
 40
8.796495530230886
 10
2499.045647511127
 20
-24.94671498935559
 30
0.0
 10
2498.894608244674
 20
-25.2275233519386
 30
0.0
 10
2498.725508503378
 20
-25.49867557235262
 30
0.0
 10
2498.545647511127
 20
-25.75805220511489
 30
0.0
  0
LINE
  5
24790
330
1F
100
AcDbEntity
  8
AM_VIS
100
AcDbLine
 10
2499.045647511126
 20
-19.83692047293897
 30
0.0
 11
2499.045647511126
 21
-24.94671498935565
 31
0.0
  0
CIRCLE
  5
24791
330
1F
100
AcDbEntity
  8
AM_VIS
100
AcDbCircle
 10
2496.645647511126
 20
-21.14181773114722
 30
0.0
 40
0.500000000000004
  0
CIRCLE
  5
24792
330
1F
100
AcDbEntity
  8
AM_VIS
100
AcDbCircle
 10
2496.645647511126
 20
-23.64181773114722
 30
0.0
 40
0.4999999999999999
  0
LINE
  5
24793
330
1F
100
AcDbEntity
  8
AM_VIS
100
AcDbLine
 10
2495.895647511126
 20
-25.75805220511478
 30
0.0
 11
2495.895647511126
 21
-19.02558325717956
 31
0.0
  0
LINE
  5
24794
330
1F
100
AcDbEntity
  8
AM_VIS
100
AcDbLine
 10
2497.395647511126
 20
-19.02558325717967
 30
0.0
 11
2497.395647511126
 21
-25.75805220511489
 31
0.0
  0
LINE
  5
24795
330
1F
100
AcDbEntity
  8
AM_VIS
100
AcDbLine
 10
2497.395647511126
 20
-19.02558325717967
 30
0.0
 11
2498.545647511126
 21
-19.02558325717967
 31
0.0
  0
LINE
  5
24796
330
1F
100
AcDbEntity
  8
AM_VIS
100
AcDbLine
 10
2498.545647511126
 20
-25.75805220511478
 30
0.0
 11
2497.395647511126
 21
-25.75805220511478
 31
0.0
  0
LINE
  5
24797
330
1F
100
AcDbEntity
  8
AM_VIS
100
AcDbLine
 10
2499.045647511126
 20
-12.89181773114722
 30
0.0
 11
2499.045647511126
 21
-13.19023665741553
 31
0.0
  0
LINE
  5
24798
330
1F
100
AcDbEntity
  8
AM_VIS
100
AcDbLine
 10
2499.045647511126
 20
-13.19023665741548
 30
0.0
 11
2499.045647511126
 21
-15.74513391562391
 31
0.0
  0
LINE
  5
24799
330
1F
100
AcDbEntity
  8
AM_VIS
100
AcDbLine
 10
2498.545647511126
 20
-12.55386456082283
 30
0.0
 11
2498.545647511126
 21
-12.39181773114722
 31
0.0
  0
SPLINE
  5
2479A
330
1F
100
AcDbEntity
  8
AM_VIS
100
AcDbSpline
210
0.0
220
0.0
230
1.0
 70
     8
 71
     3
 72
     8
 73
     4
 74
     0
 42
0.0000000001
 43
0.0000000001
 40
7.860869802063071
 40
7.860869802063071
 40
7.860869802063071
 40
7.860869802063071
 40
8.796716660561775
 40
8.796716660561775
 40
8.796716660561775
 40
8.796716660561775
 10
2499.045647511127
 20
-15.74513391562385
 30
0.0
 10
2498.894608475092
 20
-15.81763435263479
 30
0.0
 10
2498.725508859347
 20
-15.87552767306061
 30
0.0
 10
2498.545647511127
 20
-15.92009903479044
 30
0.0
  0
SPLINE
  5
2479B
330
1F
100
AcDbEntity
  8
AM_VIS
100
AcDbSpline
210
0.0
220
0.0
230
1.0
 70
     8
 71
     3
 72
     8
 73
     4
 74
     0
 42
0.0000000001
 43
0.0000000001
 40
1.630155803927002
 40
1.630155803927002
 40
1.630155803927002
 40
1.630155803927002
 40
2.566002662426968
 40
2.566002662426968
 40
2.566002662426968
 40
2.566002662426968
 10
2498.545647511127
 20
-12.55386456082277
 30
0.0
 10
2498.725508744322
 20
-12.76867020782202
 30
0.0
 10
2498.894608365695
 20
-12.98192900935311
 30
0.0
 10
2499.045647511127
 20
-13.19023665741548
 30
0.0
  0
LINE
  5
2479C
330
1F
100
AcDbEntity
  8
AM_VIS
100
AcDbLine
 10
2499.045647511126
 20
-12.89181773114722
 30
0.0
 11
2498.545647511126
 21
-12.39181773114722
 31
0.0
  0
LINE
  5
2479D
330
1F
100
AcDbEntity
  8
AM_VIS
100
AcDbLine
 10
2495.895647511126
 20
-12.39181773114722
 30
0.0
 11
2495.895647511126
 21
-12.55386456082283
 31
0.0
  0
LINE
  5
2479E
330
1F
100
AcDbEntity
  8
AM_VIS
100
AcDbLine
 10
2497.395647511126
 20
-12.55386456082283
 30
0.0
 11
2497.395647511126
 21
-12.39181773114722
 31
0.0
  0
ARC
  5
2479F
330
1F
100
AcDbEntity
  8
AM_VIS
100
AcDbCircle
 10
2496.645667039817
 20
-15.46079512866993
 30
0.0
 40
0.6997982445397714
100
AcDbArc
 50
224.4224702407834
 51
315.575292389035
  0
SPLINE
  5
247A0
330
1F
100
AcDbEntity
  8
AM_VIS
100
AcDbSpline
210
0.0
220
0.0
230
1.0
 70
    11
 71
     3
 72
    58
 73
    54
 74
     0
 42
0.0000000001
 43
0.0000000001
 40
-3.363896419206848
 40
-3.363896419206848
 40
-3.363896419206848
 40
-3.363896419206848
 40
-3.330080057161157
 40
-3.330080057161157
 40
-3.276087946130379
 40
-3.276087946130379
 40
-3.130129325352126
 40
-3.130129325352126
 40
-2.864475625688879
 40
-2.864475625688879
 40
-2.670984402665324
 40
-2.670984402665324
 40
-2.529876972570241
 40
-2.529876972570241
 40
-2.394146079242185
 40
-2.394146079242185
 40
-2.234845146626472
 40
-2.234845146626472
 40
-1.995446372912342
 40
-1.995446372912342
 40
-1.792732498438366
 40
-1.792732498438366
 40
-1.655061185971928
 40
-1.655061185971928
 40
-1.604023047287223
 40
-1.604023047287223
 40
-1.569394244699424
 40
-1.569394244699424
 40
-1.535224675006395
 40
-1.535224675006395
 40
-1.486406948944837
 40
-1.486406948944837
 40
-1.367760828093762
 40
-1.367760828093762
 40
-1.211422564665596
 40
-1.211422564665596
 40
-1.00947781377736
 40
-1.00947781377736
 40
-0.8308451466681658
 40
-0.8308451466681658
 40
-0.6546659190334039
 40
-0.6546659190334039
 40
-0.4706948991975911
 40
-0.4706948991975911
 40
-0.3083260207092203
 40
-0.3083260207092203
 40
-0.1833529844650886
 40
-0.1833529844650886
 40
-0.0782943285699142
 40
-0.0782943285699142
 40
-0.0333492537438367
 40
-0.0333492537438367
 40
0.0
 40
0.0
 40
0.0
 40
0.0
 10
2497.145647511126
 20
-16.2692151735128
 30
0.0
 10
2497.145647511126
 20
-16.27271529784849
 30
0.0
 10
2497.145303357394
 20
-16.2765324805851
 30
0.0
 10
2497.143570654855
 20
-16.28720282536568
 30
0.0
 10
2497.141687850557
 20
-16.29447406892365
 30
0.0
 10
2497.132050531966
 20
-16.32349639968225
 30
0.0
 10
2497.119721453722
 20
-16.34894900455134
 30
0.0
 10
2497.074269101415
 20
-16.42420530294799
 30
0.0
 10
2497.030729054207
 20
-16.47951825666729
 30
0.0
 10
2496.935901110155
 20
-16.56347834799322
 30
0.0
 10
2496.888501229408
 20
-16.59663387309803
 30
0.0
 10
2496.794859115977
 20
-16.63939183998064
 30
0.0
 10
2496.752124429141
 20
-16.65275515312288
 30
0.0
 10
2496.663312245888
 20
-16.66545714499972
 30
0.0
 10
2496.619562238103
 20
-16.6649939588861
 30
0.0
 10
2496.525765142875
 20
-16.64980293288641
 30
0.0
 10
2496.478772935795
 20
-16.63310106062732
 30
0.0
 10
2496.37234862637
 20
-16.57864736585435
 30
0.0
 10
2496.317454730014
 20
-16.53395590449378
 30
0.0
 10
2496.235835097056
 20
-16.44775125512575
 30
0.0
 10
2496.205420247713
 20
-16.40609360468369
 30
0.0
 10
2496.168829555949
 20
-16.34346947291504
 30
0.0
 10
2496.157665392807
 20
-16.31959053921156
 30
0.0
 10
2496.149051983878
 20
-16.29240797279618
 30
0.0
 10
2496.147395953918
 20
-16.28561750490672
 30
0.0
 10
2496.145858588349
 20
-16.27534121754075
 30
0.0
 10
2496.145579762068
 20
-16.27150644581894
 30
0.0
 10
2496.145741944266
 20
-16.26456460408286
 30
0.0
 10
2496.146173175127
 20
-16.26145871380623
 30
0.0
 10
2496.148106940084
 20
-16.25476849501416
 30
0.0
 10
2496.149982390813
 20
-16.25157248337797
 30
0.0
 10
2496.159053301912
 20
-16.24309894449806
 30
0.0
 10
2496.16983663071
 20
-16.24157290135809
 30
0.0
 10
2496.204767126173
 20
-16.24557910169579
 30
0.0
 10
2496.23157475473
 20
-16.25334131330038
 30
0.0
 10
2496.305842342092
 20
-16.27484782676111
 30
0.0
 10
2496.35834141746
 20
-16.29004773330319
 30
0.0
 10
2496.474221131077
 20
-16.31284026552731
 30
0.0
 10
2496.533336940853
 20
-16.32059552588799
 30
0.0
 10
2496.6551118459
 20
-16.32605462028897
 30
0.0
 10
2496.715690288503
 20
-16.32381624183341
 30
0.0
 10
2496.834679368681
 20
-16.31041527013172
 30
0.0
 10
2496.89115456783
 20
-16.29903997974457
 30
0.0
 10
2496.984737478119
 20
-16.27552340807875
 30
0.0
 10
2497.023019347281
 20
-16.26373227403263
 30
0.0
 10
2497.078371065531
 20
-16.24829287693984
 30
0.0
 10
2497.098187879937
 20
-16.24348186433968
 30
0.0
 10
2497.125696257991
 20
-16.24210303868307
 30
0.0
 10
2497.134567690958
 20
-16.24438567709529
 30
0.0
 10
2497.14211352349
 20
-16.25285088719766
 30
0.0
 10
2497.143688478513
 20
-16.2560191617693
 30
0.0
 10
2497.145312882121
 20
-16.26262202423919
 30
0.0
 10
2497.145647511126
 20
-16.26576339669401
 30
0.0
 10
2497.145647511126
 20
-16.2692151735128
 30
0.0
  0
LINE
  5
247A1
330
1F
100
AcDbEntity
  8
AM_VIS
100
AcDbLine
 10
2495.895647511126
 20
-15.92009903479044
 30
0.0
 11
2495.895647511126
 21
-12.55386456082271
 31
0.0
  0
LINE
  5
247A2
330
1F
100
AcDbEntity
  8
AM_VIS
100
AcDbLine
 10
2497.395647511126
 20
-12.55386456082277
 30
0.0
 11
2497.395647511126
 21
-15.92009903479049
 31
0.0
  0
ARC
  5
247A3
330
1F
100
AcDbEntity
  8
AM_VIS
100
AcDbCircle
 10
2496.645647511126
 20
-15.39181773114722
 30
0.0
 40
0.75
100
AcDbArc
 50
311.8103148957701
 51
0.0
  0
ARC
  5
247A4
330
1F
100
AcDbEntity
  8
AM_VIS
100
AcDbCircle
 10
2496.645647511126
 20
-15.39181773114722
 30
0.0
 40
0.75
100
AcDbArc
 50
180.0
 51
228.1896851042276
  0
LINE
  5
247A5
330
1F
100
AcDbEntity
  8
AM_VIS
100
AcDbLine
 10
2497.395647511126
 20
-12.55386456082277
 30
0.0
 11
2498.545647511126
 21
-12.55386456082277
 31
0.0
  0
LINE
  5
247A6
330
1F
100
AcDbEntity
  8
AM_VIS
100
AcDbLine
 10
2497.395647511126
 20
-12.39181773114722
 30
0.0
 11
2498.545647511126
 21
-12.39181773114722
 31
0.0
  0
LINE
  5
247A7
330
1F
100
AcDbEntity
  8
AM_VIS
100
AcDbLine
 10
2498.545647511126
 20
-15.92009903479044
 30
0.0
 11
2497.395647511126
 21
-15.92009903479044
 31
0.0
  0
LINE
  5
247A8
330
1F
100
AcDbEntity
  8
AM_VIS
100
AcDbLine
 10
2507.045647511126
 20
9.858182268852829
 30
0.0
 11
2505.445647511126
 21
9.858182268852829
 31
0.0
  0
LINE
  5
247A9
330
1F
100
AcDbEntity
  8
AM_VIS
100
AcDbLine
 10
2505.445647511126
 20
9.608182268852829
 30
0.0
 11
2503.045647511126
 21
9.608182268852829
 31
0.0
  0
LINE
  5
247AA
330
1F
100
AcDbEntity
  8
AM_VIS
100
AcDbLine
 10
2512.545647511126
 20
11.77565051412227
 30
0.0
 11
2512.545647511126
 21
11.09263781223001
 31
0.0
  0
LINE
  5
247AB
330
1F
100
AcDbEntity
  8
AM_VIS
100
AcDbLine
 10
2512.545647511126
 20
11.09263781223001
 30
0.0
 11
2512.545647511126
 21
8.608182268852829
 31
0.0
  0
LINE
  5
247AC
330
1F
100
AcDbEntity
  8
AM_VIS
100
AcDbLine
 10
2507.045647511126
 20
11.09263781223001
 30
0.0
 11
2507.045647511126
 21
11.77565051412227
 31
0.0
  0
LINE
  5
247AD
330
1F
100
AcDbEntity
  8
AM_VIS
100
AcDbLine
 10
2507.045647511126
 20
11.09263781223001
 30
0.0
 11
2507.045647511126
 21
8.608182268852829
 31
0.0
  0
LINE
  5
247AE
330
1F
100
AcDbEntity
  8
AM_VIS
100
AcDbLine
 10
2512.545647511126
 20
11.77565051412227
 30
0.0
 11
2507.045647511126
 21
11.77565051412227
 31
0.0
  0
LINE
  5
247AF
330
1F
100
AcDbEntity
  8
AM_VIS
100
AcDbLine
 10
2512.545647511126
 20
11.09263781222989
 30
0.0
 11
2507.045647511126
 21
11.09263781222989
 31
0.0
  0
LINE
  5
247B0
330
1F
100
AcDbEntity
  8
AM_VIS
100
AcDbLine
 10
2512.545647511126
 20
8.608182268852829
 30
0.0
 11
2507.045647511126
 21
8.608182268852829
 31
0.0
  0
LINE
  5
247B1
330
1F
100
AcDbEntity
  8
AM_VIS
100
AcDbLine
 10
2507.045647511126
 20
23.35818226885283
 30
0.0
 11
2505.445647511126
 21
23.35818226885283
 31
0.0
  0
LINE
  5
247B2
330
1F
100
AcDbEntity
  8
AM_VIS
100
AcDbLine
 10
2505.445647511126
 20
23.60818226885283
 30
0.0
 11
2503.045647511126
 21
23.60818226885283
 31
0.0
  0
LINE
  5
247B3
330
1F
100
AcDbEntity
  8
AM_VIS
100
AcDbLine
 10
2512.545647511126
 20
24.60818226885283
 30
0.0
 11
2512.545647511126
 21
22.12372672547553
 31
0.0
  0
LINE
  5
247B4
330
1F
100
AcDbEntity
  8
AM_VIS
100
AcDbLine
 10
2507.045647511126
 20
24.60818226885283
 30
0.0
 11
2507.045647511126
 21
22.12372672547553
 31
0.0
  0
LINE
  5
247B5
330
1F
100
AcDbEntity
  8
AM_VIS
100
AcDbLine
 10
2512.545647511126
 20
22.12372672547553
 30
0.0
 11
2512.545647511126
 21
21.44071402358332
 31
0.0
  0
LINE
  5
247B6
330
1F
100
AcDbEntity
  8
AM_VIS
100
AcDbLine
 10
2512.545647511126
 20
21.44071402358332
 30
0.0
 11
2512.545647511126
 21
19.27565051412221
 31
0.0
  0
LINE
  5
247B7
330
1F
100
AcDbEntity
  8
AM_VIS
100
AcDbLine
 10
2512.545647511126
 20
19.27565051412216
 30
0.0
 11
2512.545647511126
 21
19.09263781223001
 31
0.0
  0
LINE
  5
247B8
330
1F
100
AcDbEntity
  8
AM_VIS
100
AcDbLine
 10
2512.545647511126
 20
16.60818226885282
 30
0.0
 11
2512.545647511126
 21
14.12372672547553
 31
0.0
  0
LINE
  5
247B9
330
1F
100
AcDbEntity
  8
AM_VIS
100
AcDbLine
 10
2512.545647511126
 20
14.12372672547553
 30
0.0
 11
2512.545647511126
 21
13.94071402358332
 31
0.0
  0
LINE
  5
247BA
330
1F
100
AcDbEntity
  8
AM_VIS
100
AcDbLine
 10
2512.545647511126
 20
19.09263781223001
 30
0.0
 11
2512.545647511126
 21
16.60818226885282
 31
0.0
  0
LINE
  5
247BB
330
1F
100
AcDbEntity
  8
AM_VIS
100
AcDbLine
 10
2507.045647511126
 20
19.09263781223001
 30
0.0
 11
2507.045647511126
 21
19.27565051412221
 31
0.0
  0
LINE
  5
247BC
330
1F
100
AcDbEntity
  8
AM_VIS
100
AcDbLine
 10
2507.045647511126
 20
19.27565051412221
 30
0.0
 11
2507.045647511126
 21
21.44071402358332
 31
0.0
  0
LINE
  5
247BD
330
1F
100
AcDbEntity
  8
AM_VIS
100
AcDbLine
 10
2507.045647511126
 20
21.44071402358332
 30
0.0
 11
2507.045647511126
 21
22.12372672547553
 31
0.0
  0
LINE
  5
247BE
330
1F
100
AcDbEntity
  8
AM_VIS
100
AcDbLine
 10
2507.045647511126
 20
13.94071402358332
 30
0.0
 11
2507.045647511126
 21
14.12372672547553
 31
0.0
  0
LINE
  5
247BF
330
1F
100
AcDbEntity
  8
AM_VIS
100
AcDbLine
 10
2507.045647511126
 20
16.60818226885282
 30
0.0
 11
2507.045647511126
 21
14.12372672547553
 31
0.0
  0
LINE
  5
247C0
330
1F
100
AcDbEntity
  8
AM_VIS
100
AcDbLine
 10
2507.045647511126
 20
19.09263781223001
 30
0.0
 11
2507.045647511126
 21
16.60818226885282
 31
0.0
  0
LINE
  5
247C1
330
1F
100
AcDbEntity
  8
AM_VIS
100
AcDbLine
 10
2512.545647511126
 20
21.44071402358332
 30
0.0
 11
2507.045647511126
 21
21.44071402358332
 31
0.0
  0
LINE
  5
247C2
330
1F
100
AcDbEntity
  8
AM_VIS
100
AcDbLine
 10
2507.045647511126
 20
22.12372672547553
 30
0.0
 11
2512.545647511126
 21
22.12372672547553
 31
0.0
  0
LINE
  5
247C3
330
1F
100
AcDbEntity
  8
AM_VIS
100
AcDbLine
 10
2512.545647511126
 20
19.09263781223001
 30
0.0
 11
2507.045647511126
 21
19.09263781223001
 31
0.0
  0
LINE
  5
247C4
330
1F
100
AcDbEntity
  8
AM_VIS
100
AcDbLine
 10
2512.545647511126
 20
19.27565051412221
 30
0.0
 11
2507.045647511126
 21
19.27565051412221
 31
0.0
  0
LINE
  5
247C5
330
1F
100
AcDbEntity
  8
AM_VIS
100
AcDbLine
 10
2512.545647511126
 20
13.94071402358332
 30
0.0
 11
2507.045647511126
 21
13.94071402358332
 31
0.0
  0
LINE
  5
247C6
330
1F
100
AcDbEntity
  8
AM_VIS
100
AcDbLine
 10
2507.045647511126
 20
14.12372672547553
 30
0.0
 11
2512.545647511126
 21
14.12372672547553
 31
0.0
  0
LINE
  5
247C7
330
1F
100
AcDbEntity
  8
AM_VIS
100
AcDbLine
 10
2512.545647511126
 20
16.60818226885282
 30
0.0
 11
2507.045647511126
 21
16.60818226885282
 31
0.0
  0
LINE
  5
247C8
330
1F
100
AcDbEntity
  8
AM_VIS
100
AcDbLine
 10
2512.545647511126
 20
24.60818226885283
 30
0.0
 11
2507.045647511126
 21
24.60818226885283
 31
0.0
  0
LINE
  5
247C9
330
1F
100
AcDbEntity
  8
AM_VIS
100
AcDbLine
 10
2512.545647511126
 20
76.00275588610827
 30
0.0
 11
2512.545647511126
 21
73.13395373259118
 31
0.0
  0
LINE
  5
247CA
330
1F
100
AcDbEntity
  8
AM_VIS
100
AcDbLine
 10
2507.045647511126
 20
76.00275588610827
 30
0.0
 11
2507.045647511126
 21
73.13395373259118
 31
0.0
  0
LINE
  5
247CB
330
1F
100
AcDbEntity
  8
AM_VIS
100
AcDbLine
 10
2503.045647511126
 20
80.38395373259119
 30
0.0
 11
2503.045647511126
 21
62.38395373259118
 31
0.0
  0
LINE
  5
247CC
330
1F
100
AcDbEntity
  8
AM_VIS
100
AcDbLine
 10
2505.445647511126
 20
78.38395373259118
 30
0.0
 11
2505.445647511126
 21
64.38395373259118
 31
0.0
  0
LINE
  5
247CD
330
1F
100
AcDbEntity
  8
AM_VIS
100
AcDbLine
 10
2507.045647511126
 20
64.63395373259118
 30
0.0
 11
2505.445647511126
 21
64.63395373259118
 31
0.0
  0
LINE
  5
247CE
330
1F
100
AcDbEntity
  8
AM_VIS
100
AcDbLine
 10
2499.045647511126
 20
62.38395373259118
 30
0.0
 11
2499.045647511126
 21
62.23395373259108
 31
0.0
  0
LINE
  5
247CF
330
1F
100
AcDbEntity
  8
AM_VIS
100
AcDbLine
 10
2498.545647511126
 20
61.96756028996822
 30
0.0
 11
2498.545647511126
 21
62.38395373259118
 31
0.0
  0
SPLINE
  5
247D0
330
1F
100
AcDbEntity
  8
AM_VIS
100
AcDbSpline
210
0.0
220
0.0
230
1.0
 70
     8
 71
     3
 72
     8
 73
     4
 74
     0
 42
0.0000000001
 43
0.0000000001
 40
1.629958734905461
 40
1.629958734905461
 40
1.629958734905461
 40
1.629958734905461
 40
2.565803457021723
 40
2.565803457021723
 40
2.565803457021723
 40
2.565803457021723
 10
2498.545647511127
 20
61.96756028996805
 30
0.0
 10
2498.725508388083
 20
62.06584492218457
 30
0.0
 10
2498.894608135039
 20
62.15554531331116
 30
0.0
 10
2499.045647511127
 20
62.23395373259103
 30
0.0
  0
LINE
  5
247D1
330
1F
100
AcDbEntity
  8
AM_VIS
100
AcDbLine
 10
2495.895647511126
 20
62.38395373259118
 30
0.0
 11
2495.895647511126
 21
61.9675602899681
 31
0.0
  0
LINE
  5
247D2
330
1F
100
AcDbEntity
  8
AM_VIS
100
AcDbLine
 10
2497.395647511126
 20
61.96756028996822
 30
0.0
 11
2497.395647511126
 21
62.38395373259118
 31
0.0
  0
LINE
  5
247D3
330
1F
100
AcDbEntity
  8
AM_VIS
100
AcDbLine
 10
2497.395647511126
 20
61.9675602899681
 30
0.0
 11
2498.545647511126
 21
61.9675602899681
 31
0.0
  0
LINE
  5
247D4
330
1F
100
AcDbEntity
  8
AM_VIS
100
AcDbLine
 10
2505.445647511126
 20
64.38395373259118
 30
0.0
 11
2503.045647511126
 21
64.38395373259118
 31
0.0
  0
LINE
  5
247D5
330
1F
100
AcDbEntity
  8
AM_VIS
100
AcDbLine
 10
2512.545647511126
 20
65.33075050231571
 30
0.0
 11
2512.545647511126
 21
64.26376320420797
 31
0.0
  0
LINE
  5
247D6
330
1F
100
AcDbEntity
  8
AM_VIS
100
AcDbLine
 10
2507.045647511126
 20
64.26376320420797
 30
0.0
 11
2507.045647511126
 21
65.33075050231571
 31
0.0
  0
LINE
  5
247D7
330
1F
100
AcDbEntity
  8
AM_VIS
100
AcDbLine
 10
2512.545647511126
 20
64.26376320420797
 30
0.0
 11
2512.545647511126
 21
63.58075050231571
 31
0.0
  0
LINE
  5
247D8
330
1F
100
AcDbEntity
  8
AM_VIS
100
AcDbLine
 10
2512.545647511126
 20
63.58075050231571
 30
0.0
 11
2512.545647511126
 21
62.14634942555722
 31
0.0
  0
LINE
  5
247D9
330
1F
100
AcDbEntity
  8
AM_VIS
100
AcDbLine
 10
2507.045647511126
 20
63.58075050231571
 30
0.0
 11
2507.045647511126
 21
62.14634942555722
 31
0.0
  0
LINE
  5
247DA
330
1F
100
AcDbEntity
  8
AM_VIS
100
AcDbLine
 10
2507.045647511126
 20
63.58075050231571
 30
0.0
 11
2507.045647511126
 21
64.26376320420797
 31
0.0
  0
LINE
  5
247DB
330
1F
100
AcDbEntity
  8
AM_VIS
100
AcDbLine
 10
2512.545647511126
 20
63.58075050231571
 30
0.0
 11
2507.045647511126
 21
63.58075050231571
 31
0.0
  0
LINE
  5
247DC
330
1F
100
AcDbEntity
  8
AM_VIS
100
AcDbLine
 10
2512.545647511126
 20
64.26376320420797
 30
0.0
 11
2507.045647511126
 21
64.26376320420797
 31
0.0
  0
LINE
  5
247DD
330
1F
100
AcDbEntity
  8
AM_VIS
100
AcDbLine
 10
2512.545647511126
 20
62.14634942555722
 30
0.0
 11
2507.045647511126
 21
62.14634942555722
 31
0.0
  0
LINE
  5
247DE
330
1F
100
AcDbEntity
  8
AM_VIS
100
AcDbLine
 10
2512.545647511126
 20
73.13395373259118
 30
0.0
 11
2512.545647511126
 21
72.63395373259118
 31
0.0
  0
LINE
  5
247DF
330
1F
100
AcDbEntity
  8
AM_VIS
100
AcDbLine
 10
2512.545647511126
 20
70.13395373259118
 30
0.0
 11
2512.545647511126
 21
69.63395373259118
 31
0.0
  0
LINE
  5
247E0
330
1F
100
AcDbEntity
  8
AM_VIS
100
AcDbLine
 10
2512.545647511126
 20
69.63395373259118
 30
0.0
 11
2512.545647511126
 21
66.7651515790742
 31
0.0
  0
LINE
  5
247E1
330
1F
100
AcDbEntity
  8
AM_VIS
100
AcDbLine
 10
2512.545647511126
 20
66.7651515790742
 30
0.0
 11
2512.545647511126
 21
65.33075050231571
 31
0.0
  0
LINE
  5
247E2
330
1F
100
AcDbEntity
  8
AM_VIS
100
AcDbLine
 10
2512.545647511126
 20
72.63395373259118
 30
0.0
 11
2512.545647511126
 21
70.13395373259118
 31
0.0
  0
LINE
  5
247E3
330
1F
100
AcDbEntity
  8
AM_VIS
100
AcDbLine
 10
2507.045647511126
 20
72.63395373259118
 30
0.0
 11
2507.045647511126
 21
73.13395373259118
 31
0.0
  0
LINE
  5
247E4
330
1F
100
AcDbEntity
  8
AM_VIS
100
AcDbLine
 10
2507.045647511126
 20
69.63395373259118
 30
0.0
 11
2507.045647511126
 21
66.7651515790742
 31
0.0
  0
LINE
  5
247E5
330
1F
100
AcDbEntity
  8
AM_VIS
100
AcDbLine
 10
2507.045647511126
 20
69.63395373259118
 30
0.0
 11
2507.045647511126
 21
70.13395373259118
 31
0.0
  0
LINE
  5
247E6
330
1F
100
AcDbEntity
  8
AM_VIS
100
AcDbLine
 10
2507.045647511126
 20
66.7651515790742
 30
0.0
 11
2507.045647511126
 21
65.33075050231571
 31
0.0
  0
LINE
  5
247E7
330
1F
100
AcDbEntity
  8
AM_VIS
100
AcDbLine
 10
2507.045647511126
 20
70.13395373259118
 30
0.0
 11
2507.045647511126
 21
72.63395373259118
 31
0.0
  0
LINE
  5
247E8
330
1F
100
AcDbEntity
  8
AM_VIS
100
AcDbLine
 10
2512.545647511126
 20
72.63395373259118
 30
0.0
 11
2507.045647511126
 21
72.63395373259118
 31
0.0
  0
LINE
  5
247E9
330
1F
100
AcDbEntity
  8
AM_VIS
100
AcDbLine
 10
2507.045647511126
 20
73.13395373259118
 30
0.0
 11
2512.545647511126
 21
73.13395373259118
 31
0.0
  0
LINE
  5
247EA
330
1F
100
AcDbEntity
  8
AM_VIS
100
AcDbLine
 10
2512.545647511126
 20
66.7651515790742
 30
0.0
 11
2507.045647511126
 21
66.7651515790742
 31
0.0
  0
LINE
  5
247EB
330
1F
100
AcDbEntity
  8
AM_VIS
100
AcDbLine
 10
2512.545647511126
 20
70.13395373259118
 30
0.0
 11
2507.045647511126
 21
70.13395373259118
 31
0.0
  0
LINE
  5
247EC
330
1F
100
AcDbEntity
  8
AM_VIS
100
AcDbLine
 10
2512.545647511126
 20
69.63395373259118
 30
0.0
 11
2507.045647511126
 21
69.63395373259118
 31
0.0
  0
LINE
  5
247ED
330
1F
100
AcDbEntity
  8
AM_VIS
100
AcDbLine
 10
2507.045647511126
 20
65.33075050231571
 30
0.0
 11
2512.545647511126
 21
65.33075050231571
 31
0.0
  0
LINE
  5
247EE
330
1F
100
AcDbEntity
  8
AM_VIS
100
AcDbLine
 10
2507.045647511126
 20
78.13395373259118
 30
0.0
 11
2505.445647511126
 21
78.13395373259118
 31
0.0
  0
LINE
  5
247EF
330
1F
100
AcDbEntity
  8
AM_VIS
100
AcDbLine
 10
2499.045647511126
 20
80.53395373259105
 30
0.0
 11
2499.045647511126
 21
80.38395373259119
 31
0.0
  0
LINE
  5
247F0
330
1F
100
AcDbEntity
  8
AM_VIS
100
AcDbLine
 10
2498.545647511126
 20
80.38395373259119
 30
0.0
 11
2498.545647511126
 21
80.80034717521403
 31
0.0
  0
SPLINE
  5
247F1
330
1F
100
AcDbEntity
  8
AM_VIS
100
AcDbSpline
210
0.0
220
0.0
230
1.0
 70
     8
 71
     3
 72
     8
 73
     4
 74
     0
 42
0.0000000001
 43
0.0000000001
 40
7.860869802062977
 40
7.860869802062977
 40
7.860869802062977
 40
7.860869802062977
 40
8.796716660561656
 40
8.796716660561656
 40
8.796716660561656
 40
8.796716660561656
 10
2499.045647511127
 20
80.53395373259098
 30
0.0
 10
2498.894608475092
 20
80.61236197534112
 30
0.0
 10
2498.725508859347
 20
80.70206228547561
 30
0.0
 10
2498.545647511127
 20
80.80034717521398
 30
0.0
  0
LINE
  5
247F2
330
1F
100
AcDbEntity
  8
AM_VIS
100
AcDbLine
 10
2495.895647511126
 20
80.80034717521403
 30
0.0
 11
2495.895647511126
 21
80.38395373259119
 31
0.0
  0
LINE
  5
247F3
330
1F
100
AcDbEntity
  8
AM_VIS
100
AcDbLine
 10
2497.395647511126
 20
80.38395373259119
 30
0.0
 11
2497.395647511126
 21
80.80034717521403
 31
0.0
  0
LINE
  5
247F4
330
1F
100
AcDbEntity
  8
AM_VIS
100
AcDbLine
 10
2498.545647511126
 20
80.80034717521403
 30
0.0
 11
2497.395647511126
 21
80.80034717521403
 31
0.0
  0
LINE
  5
247F5
330
1F
100
AcDbEntity
  8
AM_VIS
100
AcDbLine
 10
2505.445647511126
 20
78.38395373259118
 30
0.0
 11
2503.045647511126
 21
78.38395373259118
 31
0.0
  0
LINE
  5
247F6
330
1F
100
AcDbEntity
  8
AM_VIS
100
AcDbLine
 10
2512.545647511126
 20
80.62155803962525
 30
0.0
 11
2512.545647511126
 21
79.18715696286665
 31
0.0
  0
LINE
  5
247F7
330
1F
100
AcDbEntity
  8
AM_VIS
100
AcDbLine
 10
2512.545647511126
 20
78.5041442609745
 30
0.0
 11
2512.545647511126
 21
77.43715696286665
 31
0.0
  0
LINE
  5
247F8
330
1F
100
AcDbEntity
  8
AM_VIS
100
AcDbLine
 10
2512.545647511126
 20
77.43715696286665
 30
0.0
 11
2512.545647511126
 21
76.00275588610827
 31
0.0
  0
LINE
  5
247F9
330
1F
100
AcDbEntity
  8
AM_VIS
100
AcDbLine
 10
2512.545647511126
 20
79.18715696286665
 30
0.0
 11
2512.545647511126
 21
78.5041442609745
 31
0.0
  0
LINE
  5
247FA
330
1F
100
AcDbEntity
  8
AM_VIS
100
AcDbLine
 10
2507.045647511126
 20
80.62155803962525
 30
0.0
 11
2507.045647511126
 21
79.18715696286665
 31
0.0
  0
LINE
  5
247FB
330
1F
100
AcDbEntity
  8
AM_VIS
100
AcDbLine
 10
2507.045647511126
 20
77.43715696286665
 30
0.0
 11
2507.045647511126
 21
78.5041442609745
 31
0.0
  0
LINE
  5
247FC
330
1F
100
AcDbEntity
  8
AM_VIS
100
AcDbLine
 10
2507.045647511126
 20
77.43715696286665
 30
0.0
 11
2507.045647511126
 21
76.00275588610827
 31
0.0
  0
LINE
  5
247FD
330
1F
100
AcDbEntity
  8
AM_VIS
100
AcDbLine
 10
2507.045647511126
 20
78.5041442609745
 30
0.0
 11
2507.045647511126
 21
79.18715696286665
 31
0.0
  0
LINE
  5
247FE
330
1F
100
AcDbEntity
  8
AM_VIS
100
AcDbLine
 10
2507.045647511126
 20
79.18715696286676
 30
0.0
 11
2512.545647511126
 21
79.18715696286676
 31
0.0
  0
LINE
  5
247FF
330
1F
100
AcDbEntity
  8
AM_VIS
100
AcDbLine
 10
2512.545647511126
 20
80.62155803962525
 30
0.0
 11
2507.045647511126
 21
80.62155803962525
 31
0.0
  0
LINE
  5
24800
330
1F
100
AcDbEntity
  8
AM_VIS
100
AcDbLine
 10
2512.545647511126
 20
78.5041442609745
 30
0.0
 11
2507.045647511126
 21
78.5041442609745
 31
0.0
  0
LINE
  5
24801
330
1F
100
AcDbEntity
  8
AM_VIS
100
AcDbLine
 10
2512.545647511126
 20
77.43715696286665
 30
0.0
 11
2507.045647511126
 21
77.43715696286665
 31
0.0
  0
LINE
  5
24802
330
1F
100
AcDbEntity
  8
AM_VIS
100
AcDbLine
 10
2512.545647511126
 20
76.00275588610827
 30
0.0
 11
2507.045647511126
 21
76.00275588610827
 31
0.0
  0
SPLINE
  5
24803
330
1F
100
AcDbEntity
  8
AM_VIS
100
AcDbSpline
210
0.0
220
0.0
230
1.0
 70
     8
 71
     3
 72
    22
 73
    18
 74
     0
 42
0.0000000001
 43
0.0000000001
 40
6.922974191987643
 40
6.922974191987643
 40
6.922974191987643
 40
6.922974191987643
 40
7.242870958922999
 40
7.242870958922999
 40
8.615360666179645
 40
8.615360666179645
 40
9.987850373436291
 40
9.987850373436291
 40
11.36034008069293
 40
11.36034008069293
 40
12.73282978794958
 40
12.73282978794958
 40
14.10531949520622
 40
14.10531949520622
 40
15.47780920246286
 40
15.47780920246286
 40
16.1364483476482
 40
16.1364483476482
 40
16.1364483476482
 40
16.1364483476482
 10
2491.045647511127
 20
10.95132801936046
 30
0.0000000000000284
 10
2491.045647511127
 20
11.03821658751229
 30
0.0000000000000284
 10
2491.043533498448
 20
11.12543069696408
 30
0.0000000000000284
 10
2491.024558175578
 20
11.58108423870948
 30
0.0000000000000284
 10
2490.979956578591
 20
11.98694136700231
 30
0.0000000000000284
 10
2490.870377414817
 20
12.8484299521055
 30
0.0000000000000284
 10
2490.805469856195
 20
13.30410076711831
 30
0.0000000000000284
 10
2490.688003565352
 20
14.23947320319536
 30
0.0000000000000284
 10
2490.63569336071
 20
14.71954169601002
 30
0.0000000000000284
 10
2490.565108469766
 20
15.67514094112306
 30
0.0000000000000284
 10
2490.546991315596
 20
16.15068569976727
 30
0.0000000000000284
 10
2490.546991315596
 20
17.06567883793826
 30
0.0000000000000284
 10
2490.565108469766
 20
17.54122359658248
 30
0.0000000000000284
 10
2490.63569336071
 20
18.49682284169551
 30
0.0000000000000284
 10
2490.688003565352
 20
18.97689133451007
 30
0.0000000000000284
 10
2490.774921948514
 20
19.66901380823441
 30
0.0000000000000284
 10
2490.804473202071
 20
19.89070595682181
 30
0.0000000000000284
 10
2490.833700452926
 20
20.10818226885277
 30
0.0000000000000284
  0
SPLINE
  5
24804
330
1F
100
AcDbEntity
  8
AM_VIS
100
AcDbSpline
210
0.0
220
0.0
230
1.0
 70
     8
 71
     3
 72
    18
 73
    14
 74
     0
 42
0.0000000001
 43
0.0000000001
 40
6.072258403086962
 40
6.072258403086962
 40
6.072258403086962
 40
6.072258403086962
 40
6.091519998582311
 40
6.091519998582311
 40
6.594079983681931
 40
6.594079983681931
 40
7.096639968781531
 40
7.096639968781531
 40
7.59919995388113
 40
7.59919995388113
 40
8.101759938980729
 40
8.101759938980729
 40
8.212872863102431
 40
8.212872863102431
 40
8.212872863102431
 40
8.212872863102431
 10
2490.833700452926
 20
20.10818226885277
 30
0.0000000000000284
 10
2490.834550323127
 20
20.11450604654754
 30
0.0000000000000284
 10
2490.835383697718
 20
20.12082284574711
 30
0.0000000000000284
 10
2490.857514756265
 20
20.29175632263496
 30
0.0000000000000284
 10
2490.867471167144
 20
20.45139703638864
 30
0.0000000000000284
 10
2490.867471167144
 20
20.75106591357638
 30
0.0000000000000284
 10
2490.857514756265
 20
20.90283935018197
 30
0.0000000000000284
 10
2490.814886452389
 20
21.19868105660231
 30
0.0000000000000284
 10
2490.782216710947
 20
21.34275172854717
 30
0.0000000000000284
 10
2490.694851378198
 20
21.6140161897103
 30
0.0000000000000284
 10
2490.640098817463
 20
21.74137205307414
 30
0.0000000000000284
 10
2490.562124935476
 20
21.88291189976593
 30
0.0000000000000284
 10
2490.54756814138
 20
21.90798687556156
 30
0.0000000000000284
 10
2490.532605195395
 20
21.93248591473679
 30
0.0000000000000284
  0
POINT
  5
24805
330
1F
100
AcDbEntity
  8
0
 60
     1
100
AcDbPoint
 10
2525.845408461341
 20
209.039644567388
 30
0.0
1001
GENIUS_GENOBJ-N-CRS_13
1002
{
1000
OWNER
1000
GEN
1002
}
1001
GENIUS_GENOLIS_13
1002
{
1000
ENT
1005
24739
1005
2471B
1005
24738
1005
2473A
1002
}
1001
GENIUS_GENOENT_13
1002
{
1000
MYREF
1005
24805
1002
}
1002
{
1000
GRP
1005
0
1002
}
1001
GENIUS_GENODEF_13
1002
{
1000
HIER
1070
    10
1002
}
1002
{
1000
MANEDIT
1070
     0
1002
}
1002
{
1000
NOSEL
1070
     0
1002
}
1002
{
1000
BEHIND
1070
     0
1002
}
1002
{
1000
OTHER
1070
     0
1002
}
1002
{
1000
REACTOR
1002
}
  0
POINT
  5
24806
330
1F
100
AcDbEntity
  8
0
 60
     1
100
AcDbPoint
 10
2525.845408461341
 20
209.039644567388
 30
0.0
1001
GENIUS_GENOENT_13
1002
{
1000
MYREF
1005
24806
1002
}
1002
{
1000
GRP
1005
0
1002
}
1001
GENIUS_GENOBJ-N-CRS_13
1002
{
1000
OWNER
1000
GEN
1002
}
1001
GENIUS_GENOLIS_13
1002
{
1000
ENT
1005
24729
1005
2472A
1005
24723
1005
24727
1002
}
1001
GENIUS_GENODEF_13
1002
{
1000
HIER
1070
    10
1002
}
1002
{
1000
MANEDIT
1070
     0
1002
}
1002
{
1000
NOSEL
1070
     0
1002
}
1002
{
1000
BEHIND
1070
     0
1002
}
1002
{
1000
OTHER
1070
     0
1002
}
1002
{
1000
REACTOR
1002
}
  0
POINT
  5
24807
330
1F
100
AcDbEntity
  8
0
 60
     1
100
AcDbPoint
 10
2525.845408461341
 20
209.039644567388
 30
0.0
1001
GENIUS_GENODEF_13
1002
{
1000
HIER
1070
    10
1002
}
1002
{
1000
MANEDIT
1070
     0
1002
}
1002
{
1000
NOSEL
1070
     0
1002
}
1002
{
1000
BEHIND
1070
     0
1002
}
1002
{
1000
OTHER
1070
     0
1002
}
1002
{
1000
REACTOR
1002
}
1001
GENIUS_GENOBJ-N-CRS_13
1002
{
1000
OWNER
1000
GEN
1002
}
1001
GENIUS_GENOLIS_13
1002
{
1000
ENT
1005
24734
1005
24731
1005
24733
1005
24735
1002
}
1001
GENIUS_GENOENT_13
1002
{
1000
MYREF
1005
24807
1002
}
1002
{
1000
GRP
1005
0
1002
}
  0
POINT
  5
24808
330
1F
100
AcDbEntity
  8
0
 60
     1
100
AcDbPoint
 10
2525.845408461341
 20
209.039644567388
 30
0.0
1001
GENIUS_GENOLIS_13
1002
{
1000
ENT
1005
2472C
1005
2472E
1005
2472D
1005
2471C
1002
}
1001
GENIUS_GENOENT_13
1002
{
1000
MYREF
1005
24808
1002
}
1002
{
1000
GRP
1005
0
1002
}
1001
GENIUS_GENODEF_13
1002
{
1000
HIER
1070
    10
1002
}
1002
{
1000
MANEDIT
1070
     0
1002
}
1002
{
1000
NOSEL
1070
     0
1002
}
1002
{
1000
BEHIND
1070
     0
1002
}
1002
{
1000
OTHER
1070
     0
1002
}
1002
{
1000
REACTOR
1002
}
1001
GENIUS_GENOBJ-N-CRS_13
1002
{
1000
OWNER
1000
GEN
1002
}
  0
POINT
  5
24809
330
1F
100
AcDbEntity
  8
0
 60
     1
100
AcDbPoint
 10
2525.845408461341
 20
209.039644567388
 30
0.0
1001
GENIUS_GENOLIS_13
1002
{
1000
ENT
1005
246EA
1005
246E9
1005
246EB
1005
246EC
1002
}
1001
GENIUS_GENOENT_13
1002
{
1000
MYREF
1005
24809
1002
}
1002
{
1000
GRP
1005
0
1002
}
1001
GENIUS_GENOBJ-N-CRS_13
1002
{
1000
OWNER
1000
GEN
1002
}
1001
GENIUS_GENODEF_13
1002
{
1000
HIER
1070
    10
1002
}
1002
{
1000
MANEDIT
1070
     0
1002
}
1002
{
1000
NOSEL
1070
     0
1002
}
1002
{
1000
BEHIND
1070
     0
1002
}
1002
{
1000
OTHER
1070
     0
1002
}
1002
{
1000
REACTOR
1002
}
  0
POINT
  5
2480A
330
1F
100
AcDbEntity
  8
0
 60
     1
100
AcDbPoint
 10
2525.845408461341
 20
209.039644567388
 30
0.0
1001
GENIUS_GENOLIS_13
1002
{
1000
ENT
1005
246F0
1005
246F3
1005
246F1
1005
246EF
1002
}
1001
GENIUS_GENOENT_13
1002
{
1000
MYREF
1005
2480A
1002
}
1002
{
1000
GRP
1005
0
1002
}
1001
GENIUS_GENOBJ-N-CRS_13
1002
{
1000
OWNER
1000
GEN
1002
}
1001
GENIUS_GENODEF_13
1002
{
1000
HIER
1070
    10
1002
}
1002
{
1000
MANEDIT
1070
     0
1002
}
1002
{
1000
NOSEL
1070
     0
1002
}
1002
{
1000
BEHIND
1070
     0
1002
}
1002
{
1000
OTHER
1070
     0
1002
}
1002
{
1000
REACTOR
1002
}
  0
POINT
  5
2480B
330
1F
100
AcDbEntity
  8
0
 60
     1
100
AcDbPoint
 10
2525.845408461341
 20
209.039644567388
 30
0.0
1001
GENIUS_GENOENT_13
1002
{
1000
MYREF
1005
2480B
1002
}
1002
{
1000
GRP
1005
0
1002
}
1001
GENIUS_GENOBJ-N-CRS_13
1002
{
1000
OWNER
1000
GEN
1002
}
1001
GENIUS_GENOLIS_13
1002
{
1000
ENT
1005
0
1005
2471D
1005
0
1005
0
1002
}
1001
GENIUS_GENODEF_13
1002
{
1000
HIER
1070
    10
1002
}
1002
{
1000
MANEDIT
1070
     1
1002
}
1002
{
1000
NOSEL
1070
     0
1002
}
1002
{
1000
BEHIND
1070
     0
1002
}
1002
{
1000
OTHER
1070
     0
1002
}
1002
{
1000
REACTOR
1002
}
  0
LINE
  5
2480C
330
1F
100
AcDbEntity
  8
AM_VIS
100
AcDbLine
 10
2312.545647511126
 20
76.00275588610827
 30
0.0
 11
2312.545647511126
 21
73.13395373259118
 31
0.0
  0
LINE
  5
2480D
330
1F
100
AcDbEntity
  8
AM_VIS
100
AcDbLine
 10
2318.045647511126
 20
76.00275588610827
 30
0.0
 11
2318.045647511126
 21
73.13395373259118
 31
0.0
  0
LINE
  5
2480E
330
1F
100
AcDbEntity
  8
AM_VIS
100
AcDbLine
 10
2322.045647511126
 20
80.38395373259119
 30
0.0
 11
2322.045647511126
 21
62.38395373259118
 31
0.0
  0
LINE
  5
2480F
330
1F
100
AcDbEntity
  8
AM_VIS
100
AcDbLine
 10
2319.645647511126
 20
78.38395373259118
 30
0.0
 11
2319.645647511126
 21
64.38395373259118
 31
0.0
  0
LINE
  5
24810
330
1F
100
AcDbEntity
  8
AM_VIS
100
AcDbLine
 10
2387.545647511126
 20
84.58395373259099
 30
0.0
 11
2387.545647511126
 21
58.18395373259114
 31
0.0
  0
LINE
  5
24811
330
1F
100
AcDbEntity
  8
AM_VIS
100
AcDbLine
 10
2387.545647511126
 20
58.18395373259114
 30
0.0
 11
2387.545647511126
 21
84.58395373259111
 31
0.0
  0
LINE
  5
24812
330
1F
100
AcDbEntity
  8
AM_VIS
100
AcDbLine
 10
2363.545647511126
 20
82.38395373259107
 30
0.0
 11
2363.545647511126
 21
60.38395373259106
 31
0.0
  0
LINE
  5
24813
330
1F
100
AcDbEntity
  8
AM_VIS
100
AcDbLine
 10
2363.045647511126
 20
78.38395373259118
 30
0.0
 11
2363.045647511126
 21
64.38395373259118
 31
0.0
  0
CIRCLE
  5
24814
330
1F
100
AcDbEntity
  8
AM_VIS
100
AcDbCircle
 10
2374.345647511126
 20
71.38395373259107
 30
0.0
 40
3.5
  0
CIRCLE
  5
24815
330
1F
100
AcDbEntity
  8
AM_VIS
100
AcDbCircle
 10
2374.345647511126
 20
71.38395373259107
 30
0.0
 40
3.45
  0
LINE
  5
24816
330
1F
100
AcDbEntity
  8
AM_VIS
100
AcDbLine
 10
2365.545647511126
 20
58.5679651610119
 30
0.0
 11
2365.545647511126
 21
84.19994230417023
 31
0.0
  0
SPLINE
  5
24817
330
1F
100
AcDbEntity
  8
AM_VIS
100
AcDbSpline
210
0.0
220
0.0
230
1.0
 70
     8
 71
     3
 72
    16
 73
    12
 74
     0
 42
0.0000000001
 43
0.0000000001
 40
13.44245735600753
 40
13.44245735600753
 40
13.44245735600753
 40
13.44245735600753
 40
14.73830257098713
 40
14.73830257098713
 40
16.09309933183528
 40
16.09309933183528
 40
17.1151508050885
 40
17.1151508050885
 40
18.13720227834172
 40
18.13720227834172
 40
18.55503350861849
 40
18.55503350861849
 40
18.55503350861849
 40
18.55503350861849
 10
2337.545647511126
 20
74.34368344998091
 30
0.0
 10
2337.242113342642
 20
74.65544971254502
 30
0.0
 10
2336.939114062689
 20
75.01555007145151
 30
0.0
 10
2336.345855690532
 20
75.75914633942415
 30
0.0
 10
2336.057773139614
 20
76.14351417846086
 30
0.0
 10
2335.617576280404
 20
76.75215461148804
 30
0.0
 10
2335.427643189819
 20
77.02292432303437
 30
0.0
 10
2335.065399049562
 20
77.5598601788858
 30
0.0
 10
2334.89308006524
 20
77.82602201705794
 30
0.0
 10
2334.675481355153
 20
78.18335776402495
 30
0.0
 10
2334.615303075258
 20
78.28499806485746
 30
0.0
 10
2334.558689826857
 20
78.38395373259112
 30
0.0
  0
LINE
  5
24818
330
1F
100
AcDbEntity
  8
AM_VIS
100
AcDbLine
 10
2334.045647511126
 20
62.38395373259118
 30
0.0
 11
2334.045647511126
 21
80.38395373259119
 31
0.0
  0
CIRCLE
  5
24819
330
1F
100
AcDbEntity
  8
AM_VIS
100
AcDbCircle
 10
2348.545647511126
 20
71.38395373259118
 30
0.0
 40
3.5
  0
LINE
  5
2481A
330
1F
100
AcDbEntity
  8
AM_VIS
100
AcDbLine
 10
2363.545647511126
 20
60.38395373259106
 30
0.0
 11
2334.045647511126
 21
60.38395373259106
 31
0.0
  0
LINE
  5
2481B
330
1F
100
AcDbEntity
  8
AM_VIS
100
AcDbLine
 10
2359.545647511126
 20
60.88395373259118
 30
0.0
 11
2337.545647511126
 21
60.88395373259118
 31
0.0
  0
LINE
  5
2481C
330
1F
100
AcDbEntity
  8
AM_VIS
100
AcDbLine
 10
2387.545647511126
 20
58.18395373259114
 30
0.0
 11
2365.545647511126
 21
58.5679651610119
 31
0.0
  0
LINE
  5
2481D
330
1F
100
AcDbEntity
  8
AM_VIS
100
AcDbLine
 10
2374.845647511126
 20
73.18395373259114
 30
0.0
 11
2373.845647511126
 21
73.18395373259114
 31
0.0
  0
LINE
  5
2481E
330
1F
100
AcDbEntity
  8
AM_VIS
100
AcDbLine
 10
2373.845647511126
 20
69.58395373259111
 30
0.0
 11
2374.845647511126
 21
69.58395373259111
 31
0.0
  0
LINE
  5
2481F
330
1F
100
AcDbEntity
  8
AM_VIS
100
AcDbLine
 10
2373.845647511126
 20
73.18395373259114
 30
0.0
 11
2373.845647511126
 21
69.58395373259111
 31
0.0
  0
LINE
  5
24820
330
1F
100
AcDbEntity
  8
AM_VIS
100
AcDbLine
 10
2374.845647511126
 20
69.58395373259111
 30
0.0
 11
2374.845647511126
 21
73.18395373259114
 31
0.0
  0
LINE
  5
24821
330
1F
100
AcDbEntity
  8
AM_VIS
100
AcDbLine
 10
2371.968148825533
 20
73.88395373259107
 30
0.0
 11
2371.896157768343
 21
73.88395373259107
 31
0.0
  0
LINE
  5
24822
330
1F
100
AcDbEntity
  8
AM_VIS
100
AcDbLine
 10
2371.896157768343
 20
68.88395373259107
 30
0.0
 11
2371.968148825533
 21
68.88395373259107
 31
0.0
  0
LINE
  5
24823
330
1F
100
AcDbEntity
  8
AM_VIS
100
AcDbLine
 10
2371.798099670555
 20
68.98395373259109
 30
0.0
 11
2371.867240764848
 21
68.98395373259109
 31
0.0
  0
ARC
  5
24824
330
1F
100
AcDbEntity
  8
AM_VIS
100
AcDbCircle
 10
2359.545647511126
 20
64.38395373259118
 30
0.0
 40
3.5
100
AcDbArc
 50
270.0
 51
0.0
  0
LINE
  5
24825
330
1F
100
AcDbEntity
  8
AM_VIS
100
AcDbLine
 10
2363.545647511126
 20
59.583953732591
 30
0.0
 11
2363.545647511126
 21
60.38395373259106
 31
0.0
  0
LINE
  5
24826
330
1F
100
AcDbEntity
  8
AM_VIS
100
AcDbLine
 10
2363.545647511126
 20
59.583953732591
 30
0.0
 11
2363.545647511126
 21
58.58395373259099
 31
0.0
  0
LINE
  5
24827
330
1F
100
AcDbEntity
  8
AM_VIS
100
AcDbLine
 10
2365.545647511126
 20
58.58395373259099
 30
0.0
 11
2363.545647511126
 21
58.58395373259099
 31
0.0
  0
LINE
  5
24828
330
1F
100
AcDbEntity
  8
AM_VIS
100
AcDbLine
 10
2332.045647511126
 20
61.9675602899681
 30
0.0
 11
2329.195647511126
 21
61.9675602899681
 31
0.0
  0
LINE
  5
24829
330
1F
100
AcDbEntity
  8
AM_VIS
100
AcDbLine
 10
2334.045647511126
 20
62.38395373259118
 30
0.0
 11
2322.045647511126
 21
62.38395373259118
 31
0.0
  0
INSERT
  5
2482A
330
1F
100
AcDbEntity
  8
0
100
AcDbBlockReference
  2
A$C75484636
 10
2351.29564726557
 20
68.6339535261252
 30
0.0
 41
-1.0
  0
SPLINE
  5
2482B
330
1F
100
AcDbEntity
  8
AM_VIS
100
AcDbSpline
210
0.0
220
0.0
230
1.0
 70
     8
 71
     3
 72
    16
 73
    12
 74
     0
 42
0.0000000001
 43
0.0000000001
 40
1.626271716229691
 40
1.626271716229691
 40
1.626271716229691
 40
1.626271716229691
 40
2.044102946506439
 40
2.044102946506439
 40
3.066154419759659
 40
3.066154419759659
 40
4.088205893012879
 40
4.088205893012879
 40
5.443002653861024
 40
5.443002653861024
 40
6.738847868840626
 40
6.738847868840626
 40
6.738847868840626
 40
6.738847868840626
 10
2334.558689826857
 20
64.38395373259112
 30
0.0
 10
2334.615303075258
 20
64.48290940032501
 30
0.0
 10
2334.675481355153
 20
64.5845497011573
 30
0.0
 10
2334.89308006524
 20
64.94188544812454
 30
0.0
 10
2335.065399049562
 20
65.20804728629667
 30
0.0
 10
2335.427643189819
 20
65.7449831421481
 30
0.0
 10
2335.617576280404
 20
66.0157528536942
 30
0.0
 10
2336.057773139614
 20
66.62439328672161
 30
0.0
 10
2336.345855690532
 20
67.00876112575833
 30
0.0
 10
2336.939114062689
 20
67.75235739373096
 30
0.0
 10
2337.242113342642
 20
68.11245775263722
 30
0.0
 10
2337.545647511126
 20
68.42422401520156
 30
0.0
  0
ARC
  5
2482C
330
1F
100
AcDbEntity
  8
AM_VIS
100
AcDbCircle
 10
2337.545647511126
 20
64.38395373259118
 30
0.0
 40
3.5
100
AcDbArc
 50
200.0416584085705
 51
270.0
  0
ARC
  5
2482D
330
1F
100
AcDbEntity
  8
AM_VIS
100
AcDbCircle
 10
2365.241712177261
 20
57.11991411085205
 30
0.0
 40
33.54815021422394
100
AcDbArc
 50
170.9724142608568
 51
171.6917798188528
  0
LINE
  5
2482E
330
1F
100
AcDbEntity
  8
AM_VIS
100
AcDbLine
 10
2334.045647511126
 20
61.38395373259118
 30
0.0
 11
2333.545647511126
 21
61.38395373259118
 31
0.0
  0
LINE
  5
2482F
330
1F
100
AcDbEntity
  8
AM_VIS
100
AcDbLine
 10
2333.345647511126
 20
62.38395373259118
 30
0.0
 11
2333.545647511126
 21
61.38395373259118
 31
0.0
  0
LINE
  5
24830
330
1F
100
AcDbEntity
  8
AM_VIS
100
AcDbLine
 10
2333.545647511126
 20
62.38395373259118
 30
0.0
 11
2333.545647511126
 21
61.38395373259118
 31
0.0
  0
LINE
  5
24831
330
1F
100
AcDbEntity
  8
AM_VIS
100
AcDbLine
 10
2332.045647511126
 20
61.96756028996822
 30
0.0
 11
2332.045647511126
 21
62.38395373259118
 31
0.0
  0
LINE
  5
24832
330
1F
100
AcDbEntity
  8
AM_VIS
100
AcDbLine
 10
2334.045647511126
 20
60.38395373259106
 30
0.0
 11
2334.045647511126
 21
62.38395373259118
 31
0.0
  0
SPLINE
  5
24833
330
1F
100
AcDbEntity
  8
AM_VIS
100
AcDbSpline
210
0.0
220
0.0
230
1.0
 70
     8
 71
     3
 72
    18
 73
    14
 74
     0
 42
0.0000000001
 43
0.0000000001
 40
6.072258403086962
 40
6.072258403086962
 40
6.072258403086962
 40
6.072258403086962
 40
6.091519998582311
 40
6.091519998582311
 40
6.594079983681931
 40
6.594079983681931
 40
7.096639968781531
 40
7.096639968781531
 40
7.59919995388113
 40
7.59919995388113
 40
8.101759938980729
 40
8.101759938980729
 40
8.212872863102431
 40
8.212872863102431
 40
8.212872863102431
 40
8.212872863102431
 10
2334.257594569327
 20
63.18449224845512
 30
0.0
 10
2334.256744699126
 20
63.18682197579659
 30
0.0
 10
2334.255911324534
 20
63.18916418631687
 30
0.0
 10
2334.233780265986
 20
63.25295184059399
 30
0.0
 10
2334.223823855109
 20
63.32293810103573
 30
0.0
 10
2334.223823855109
 20
63.4727725396296
 30
0.0
 10
2334.233780265986
 20
63.5584933543675
 30
0.0
 10
2334.276408569864
 20
63.74817192945414
 30
0.0
 10
2334.309078311306
 20
63.8521264267128
 30
0.0
 10
2334.396443644054
 20
64.07192580798954
 30
0.0
 10
2334.451196204788
 20
64.18788694723724
 30
0.0
 10
2334.529170086776
 20
64.33167930896814
 30
0.0
 10
2334.543726880872
 20
64.35779963698649
 30
0.0
 10
2334.558689826857
 20
64.38395373259112
 30
0.0
  0
LINE
  5
24834
330
1F
100
AcDbEntity
  8
AM_VIS
100
AcDbLine
 10
2334.544303706656
 20
62.58341621080308
 30
0.0
 11
2334.045647511126
 21
62.38395373259118
 31
0.0
  0
SPLINE
  5
24835
330
1F
100
AcDbEntity
  8
AM_VIS
100
AcDbSpline
210
0.0
220
0.0
230
1.0
 70
    12
 71
     2
 72
     6
 73
     3
 74
     0
 42
0.0000000001
 43
0.0000000001
 40
0.0
 40
0.0
 40
0.0
 40
3.381727793507036
 40
3.381727793507036
 40
3.381727793507036
 10
2337.545647511126
 20
68.42422401520156
 30
0.0
 41
1.0
 10
2339.045647511126
 20
69.96490523795222
 30
0.0
 41
1.021203771466384
 10
2339.045647511126
 20
71.38395373259112
 30
0.0
 41
1.0
  0
SPLINE
  5
24836
330
1F
100
AcDbEntity
  8
AM_VIS
100
AcDbSpline
210
0.0
220
0.0
230
1.0
 70
    12
 71
     2
 72
     6
 73
     3
 74
     0
 42
0.0000000001
 43
0.0000000001
 40
3.381727793507036
 40
3.381727793507036
 40
3.381727793507036
 40
6.763455587014078
 40
6.763455587014078
 40
6.763455587014078
 10
2339.045647511126
 20
71.38395373259112
 30
0.0
 41
1.0
 10
2339.045647511126
 20
72.80300222723003
 30
0.0
 41
1.021203771466384
 10
2337.545647511126
 20
74.34368344998091
 30
0.0
 41
1.0
  0
LINE
  5
24837
330
1F
100
AcDbEntity
  8
AM_VIS
100
AcDbLine
 10
2312.545647511126
 20
72.63395373259118
 30
0.0
 11
2318.045647511126
 21
72.63395373259118
 31
0.0
  0
LINE
  5
24838
330
1F
100
AcDbEntity
  8
AM_VIS
100
AcDbLine
 10
2318.045647511126
 20
73.13395373259118
 30
0.0
 11
2312.545647511126
 21
73.13395373259118
 31
0.0
  0
LINE
  5
24839
330
1F
100
AcDbEntity
  8
AM_VIS
100
AcDbLine
 10
2312.545647511126
 20
66.7651515790742
 30
0.0
 11
2318.045647511126
 21
66.7651515790742
 31
0.0
  0
LINE
  5
2483A
330
1F
100
AcDbEntity
  8
AM_VIS
100
AcDbLine
 10
2312.545647511126
 20
70.13395373259118
 30
0.0
 11
2318.045647511126
 21
70.13395373259118
 31
0.0
  0
LINE
  5
2483B
330
1F
100
AcDbEntity
  8
AM_VIS
100
AcDbLine
 10
2312.545647511126
 20
69.63395373259118
 30
0.0
 11
2318.045647511126
 21
69.63395373259118
 31
0.0
  0
LINE
  5
2483C
330
1F
100
AcDbEntity
  8
AM_VIS
100
AcDbLine
 10
2318.045647511126
 20
65.33075050231571
 30
0.0
 11
2312.545647511126
 21
65.33075050231571
 31
0.0
  0
LINE
  5
2483D
330
1F
100
AcDbEntity
  8
AM_VIS
100
AcDbLine
 10
2312.545647511126
 20
63.58075050231571
 30
0.0
 11
2318.045647511126
 21
63.58075050231571
 31
0.0
  0
LINE
  5
2483E
330
1F
100
AcDbEntity
  8
AM_VIS
100
AcDbLine
 10
2312.545647511126
 20
64.26376320420797
 30
0.0
 11
2318.045647511126
 21
64.26376320420797
 31
0.0
  0
LINE
  5
2483F
330
1F
100
AcDbEntity
  8
AM_VIS
100
AcDbLine
 10
2312.545647511126
 20
62.14634942555722
 30
0.0
 11
2318.045647511126
 21
62.14634942555722
 31
0.0
  0
LINE
  5
24840
330
1F
100
AcDbEntity
  8
AM_VIS
100
AcDbLine
 10
2318.045647511126
 20
64.26376320420797
 30
0.0
 11
2318.045647511126
 21
65.33075050231571
 31
0.0
  0
LINE
  5
24841
330
1F
100
AcDbEntity
  8
AM_VIS
100
AcDbLine
 10
2326.045647511126
 20
62.38395373259118
 30
0.0
 11
2326.045647511126
 21
62.23395373259108
 31
0.0
  0
LINE
  5
24842
330
1F
100
AcDbEntity
  8
AM_VIS
100
AcDbLine
 10
2326.545647511126
 20
61.96756028996822
 30
0.0
 11
2326.545647511126
 21
62.38395373259118
 31
0.0
  0
SPLINE
  5
24843
330
1F
100
AcDbEntity
  8
AM_VIS
100
AcDbSpline
210
0.0
220
0.0
230
1.0
 70
     8
 71
     3
 72
     8
 73
     4
 74
     0
 42
0.0000000001
 43
0.0000000001
 40
1.629958734905461
 40
1.629958734905461
 40
1.629958734905461
 40
1.629958734905461
 40
2.565803457021723
 40
2.565803457021723
 40
2.565803457021723
 40
2.565803457021723
 10
2326.545647511126
 20
61.96756028996805
 30
0.0
 10
2326.365786634169
 20
62.06584492218457
 30
0.0
 10
2326.196686887212
 20
62.15554531331116
 30
0.0
 10
2326.045647511127
 20
62.23395373259103
 30
0.0
  0
LINE
  5
24844
330
1F
100
AcDbEntity
  8
AM_VIS
100
AcDbLine
 10
2329.195647511126
 20
62.38395373259118
 30
0.0
 11
2329.195647511126
 21
61.9675602899681
 31
0.0
  0
LINE
  5
24845
330
1F
100
AcDbEntity
  8
AM_VIS
100
AcDbLine
 10
2327.695647511126
 20
61.96756028996822
 30
0.0
 11
2327.695647511126
 21
62.38395373259118
 31
0.0
  0
LINE
  5
24846
330
1F
100
AcDbEntity
  8
AM_VIS
100
AcDbLine
 10
2327.695647511126
 20
61.9675602899681
 30
0.0
 11
2326.545647511126
 21
61.9675602899681
 31
0.0
  0
LINE
  5
24847
330
1F
100
AcDbEntity
  8
AM_VIS
100
AcDbLine
 10
2318.045647511126
 20
63.58075050231571
 30
0.0
 11
2318.045647511126
 21
62.14634942555722
 31
0.0
  0
LINE
  5
24848
330
1F
100
AcDbEntity
  8
AM_VIS
100
AcDbLine
 10
2318.045647511126
 20
63.58075050231571
 30
0.0
 11
2318.045647511126
 21
64.26376320420797
 31
0.0
  0
LINE
  5
24849
330
1F
100
AcDbEntity
  8
AM_VIS
100
AcDbLine
 10
2319.645647511126
 20
64.38395373259118
 30
0.0
 11
2322.045647511126
 21
64.38395373259118
 31
0.0
  0
LINE
  5
2484A
330
1F
100
AcDbEntity
  8
AM_VIS
100
AcDbLine
 10
2318.045647511126
 20
72.63395373259118
 30
0.0
 11
2318.045647511126
 21
73.13395373259118
 31
0.0
  0
LINE
  5
2484B
330
1F
100
AcDbEntity
  8
AM_VIS
100
AcDbLine
 10
2318.045647511126
 20
69.63395373259118
 30
0.0
 11
2318.045647511126
 21
66.7651515790742
 31
0.0
  0
LINE
  5
2484C
330
1F
100
AcDbEntity
  8
AM_VIS
100
AcDbLine
 10
2318.045647511126
 20
69.63395373259118
 30
0.0
 11
2318.045647511126
 21
70.13395373259118
 31
0.0
  0
LINE
  5
2484D
330
1F
100
AcDbEntity
  8
AM_VIS
100
AcDbLine
 10
2318.045647511126
 20
66.7651515790742
 30
0.0
 11
2318.045647511126
 21
65.33075050231571
 31
0.0
  0
LINE
  5
2484E
330
1F
100
AcDbEntity
  8
AM_VIS
100
AcDbLine
 10
2318.045647511126
 20
70.13395373259118
 30
0.0
 11
2318.045647511126
 21
72.63395373259118
 31
0.0
  0
LINE
  5
2484F
330
1F
100
AcDbEntity
  8
AM_VIS
100
AcDbLine
 10
2318.045647511126
 20
64.63395373259118
 30
0.0
 11
2319.645647511126
 21
64.63395373259118
 31
0.0
  0
LINE
  5
24850
330
1F
100
AcDbEntity
  8
AM_VIS
100
AcDbLine
 10
2312.545647511126
 20
65.33075050231571
 30
0.0
 11
2312.545647511126
 21
64.26376320420797
 31
0.0
  0
LINE
  5
24851
330
1F
100
AcDbEntity
  8
AM_VIS
100
AcDbLine
 10
2312.545647511126
 20
64.26376320420797
 30
0.0
 11
2312.545647511126
 21
63.58075050231571
 31
0.0
  0
LINE
  5
24852
330
1F
100
AcDbEntity
  8
AM_VIS
100
AcDbLine
 10
2312.545647511126
 20
63.58075050231571
 30
0.0
 11
2312.545647511126
 21
62.14634942555722
 31
0.0
  0
LINE
  5
24853
330
1F
100
AcDbEntity
  8
AM_VIS
100
AcDbLine
 10
2312.545647511126
 20
73.13395373259118
 30
0.0
 11
2312.545647511126
 21
72.63395373259118
 31
0.0
  0
LINE
  5
24854
330
1F
100
AcDbEntity
  8
AM_VIS
100
AcDbLine
 10
2312.545647511126
 20
70.13395373259118
 30
0.0
 11
2312.545647511126
 21
69.63395373259118
 31
0.0
  0
LINE
  5
24855
330
1F
100
AcDbEntity
  8
AM_VIS
100
AcDbLine
 10
2312.545647511126
 20
69.63395373259118
 30
0.0
 11
2312.545647511126
 21
66.7651515790742
 31
0.0
  0
LINE
  5
24856
330
1F
100
AcDbEntity
  8
AM_VIS
100
AcDbLine
 10
2312.545647511126
 20
66.7651515790742
 30
0.0
 11
2312.545647511126
 21
65.33075050231571
 31
0.0
  0
LINE
  5
24857
330
1F
100
AcDbEntity
  8
AM_VIS
100
AcDbLine
 10
2312.545647511126
 20
72.63395373259118
 30
0.0
 11
2312.545647511126
 21
70.13395373259118
 31
0.0
  0
LINE
  5
24858
330
1F
100
AcDbEntity
  8
AM_VIS
100
AcDbLine
 10
2363.545647511126
 20
82.38395373259107
 30
0.0
 11
2334.045647511126
 21
82.38395373259107
 31
0.0
  0
LINE
  5
24859
330
1F
100
AcDbEntity
  8
AM_VIS
100
AcDbLine
 10
2337.545647511126
 20
81.88395373259117
 30
0.0
 11
2359.545647511126
 21
81.88395373259117
 31
0.0
  0
LINE
  5
2485A
330
1F
100
AcDbEntity
  8
AM_VIS
100
AcDbLine
 10
2365.545647511126
 20
84.19994230417023
 30
0.0
 11
2387.545647511126
 21
84.58395373259111
 31
0.0
  0
ARC
  5
2485B
330
1F
100
AcDbEntity
  8
AM_VIS
100
AcDbCircle
 10
2359.545647511126
 20
78.38395373259118
 30
0.0
 40
3.5
100
AcDbArc
 50
0.0
 51
90.0
  0
LINE
  5
2485C
330
1F
100
AcDbEntity
  8
AM_VIS
100
AcDbLine
 10
2363.545647511126
 20
82.38395373259107
 30
0.0
 11
2363.545647511126
 21
83.18395373259113
 31
0.0
  0
LINE
  5
2485D
330
1F
100
AcDbEntity
  8
AM_VIS
100
AcDbLine
 10
2363.545647511126
 20
84.18395373259114
 30
0.0
 11
2363.545647511126
 21
83.18395373259113
 31
0.0
  0
LINE
  5
2485E
330
1F
100
AcDbEntity
  8
AM_VIS
100
AcDbLine
 10
2363.545647511126
 20
84.18395373259114
 30
0.0
 11
2365.545647511126
 21
84.18395373259114
 31
0.0
  0
LINE
  5
2485F
330
1F
100
AcDbEntity
  8
AM_VIS
100
AcDbLine
 10
2329.195647511126
 20
80.80034717521403
 30
0.0
 11
2332.045647511126
 21
80.80034717521403
 31
0.0
  0
LINE
  5
24860
330
1F
100
AcDbEntity
  8
AM_VIS
100
AcDbLine
 10
2334.045647511126
 20
80.38395373259119
 30
0.0
 11
2322.045647511126
 21
80.38395373259119
 31
0.0
  0
ARC
  5
24861
330
1F
100
AcDbEntity
  8
AM_VIS
100
AcDbCircle
 10
2337.545647511126
 20
78.38395373259118
 30
0.0
 40
3.499999999999999
100
AcDbArc
 50
90.0
 51
159.9583415914294
  0
ARC
  5
24862
330
1F
100
AcDbEntity
  8
AM_VIS
100
AcDbCircle
 10
2365.241712176908
 20
85.64799335427711
 30
0.0
 40
33.54815021386715
100
AcDbArc
 50
188.3082201811439
 51
189.0275857391463
  0
LINE
  5
24863
330
1F
100
AcDbEntity
  8
AM_VIS
100
AcDbLine
 10
2334.045647511126
 20
81.38395373259118
 30
0.0
 11
2333.545647511126
 21
81.38395373259118
 31
0.0
  0
LINE
  5
24864
330
1F
100
AcDbEntity
  8
AM_VIS
100
AcDbLine
 10
2333.345647511126
 20
80.38395373259119
 30
0.0
 11
2333.545647511126
 21
81.38395373259118
 31
0.0
  0
LINE
  5
24865
330
1F
100
AcDbEntity
  8
AM_VIS
100
AcDbLine
 10
2333.545647511126
 20
81.38395373259118
 30
0.0
 11
2333.545647511126
 21
80.38395373259119
 31
0.0
  0
LINE
  5
24866
330
1F
100
AcDbEntity
  8
AM_VIS
100
AcDbLine
 10
2332.045647511126
 20
80.38395373259119
 30
0.0
 11
2332.045647511126
 21
80.80034717521403
 31
0.0
  0
LINE
  5
24867
330
1F
100
AcDbEntity
  8
AM_VIS
100
AcDbLine
 10
2334.045647511126
 20
80.38395373259119
 30
0.0
 11
2334.045647511126
 21
82.38395373259107
 31
0.0
  0
SPLINE
  5
24868
330
1F
100
AcDbEntity
  8
AM_VIS
100
AcDbSpline
210
0.0
220
0.0
230
1.0
 70
     8
 71
     3
 72
    18
 73
    14
 74
     0
 42
0.0000000001
 43
0.0000000001
 40
4.975287104260677
 40
4.975287104260677
 40
4.975287104260677
 40
4.975287104260677
 40
5.086400028382842
 40
5.086400028382842
 40
5.588960013482415
 40
5.588960013482415
 40
6.091519998581987
 40
6.091519998581987
 40
6.59407998368156
 40
6.59407998368156
 40
7.096639968781131
 40
7.096639968781131
 40
7.11590156427612
 40
7.11590156427612
 40
7.11590156427612
 40
7.11590156427612
 10
2334.558689826857
 20
78.38395373259112
 30
0.0
 10
2334.543726880872
 20
78.41010782819598
 30
0.0
 10
2334.529170086776
 20
78.43622815621455
 30
0.0
 10
2334.451196204788
 20
78.58002051794546
 30
0.0
 10
2334.396443644054
 20
78.69598165719316
 30
0.0
 10
2334.309078311306
 20
78.91578103846967
 30
0.0
 10
2334.276408569864
 20
79.01973553572833
 30
0.0
 10
2334.233780265986
 20
79.2094141108152
 30
0.0
 10
2334.223823855109
 20
79.2951349255531
 30
0.0
 10
2334.223823855109
 20
79.44496936414697
 30
0.0
 10
2334.233780265986
 20
79.51495562458848
 30
0.0
 10
2334.255911324534
 20
79.5787432788656
 30
0.0
 10
2334.256744699126
 20
79.58108548938565
 30
0.0
 10
2334.257594569327
 20
79.58341521672736
 30
0.0
  0
LINE
  5
24869
330
1F
100
AcDbEntity
  8
AM_VIS
100
AcDbLine
 10
2334.544303706656
 20
80.18449125437939
 30
0.0
 11
2334.045647511126
 21
80.38395373259119
 31
0.0
  0
LINE
  5
2486A
330
1F
100
AcDbEntity
  8
AM_VIS
100
AcDbLine
 10
2318.045647511126
 20
79.18715696286676
 30
0.0
 11
2312.545647511126
 21
79.18715696286676
 31
0.0
  0
LINE
  5
2486B
330
1F
100
AcDbEntity
  8
AM_VIS
100
AcDbLine
 10
2312.545647511126
 20
80.62155803962525
 30
0.0
 11
2318.045647511126
 21
80.62155803962525
 31
0.0
  0
LINE
  5
2486C
330
1F
100
AcDbEntity
  8
AM_VIS
100
AcDbLine
 10
2312.545647511126
 20
78.5041442609745
 30
0.0
 11
2318.045647511126
 21
78.5041442609745
 31
0.0
  0
LINE
  5
2486D
330
1F
100
AcDbEntity
  8
AM_VIS
100
AcDbLine
 10
2312.545647511126
 20
77.43715696286665
 30
0.0
 11
2318.045647511126
 21
77.43715696286665
 31
0.0
  0
LINE
  5
2486E
330
1F
100
AcDbEntity
  8
AM_VIS
100
AcDbLine
 10
2312.545647511126
 20
76.00275588610827
 30
0.0
 11
2318.045647511126
 21
76.00275588610827
 31
0.0
  0
LINE
  5
2486F
330
1F
100
AcDbEntity
  8
AM_VIS
100
AcDbLine
 10
2326.045647511126
 20
80.53395373259105
 30
0.0
 11
2326.045647511126
 21
80.38395373259119
 31
0.0
  0
LINE
  5
24870
330
1F
100
AcDbEntity
  8
AM_VIS
100
AcDbLine
 10
2326.545647511126
 20
80.38395373259119
 30
0.0
 11
2326.545647511126
 21
80.80034717521403
 31
0.0
  0
SPLINE
  5
24871
330
1F
100
AcDbEntity
  8
AM_VIS
100
AcDbSpline
210
0.0
220
0.0
230
1.0
 70
     8
 71
     3
 72
     8
 73
     4
 74
     0
 42
0.0000000001
 43
0.0000000001
 40
7.860869802062977
 40
7.860869802062977
 40
7.860869802062977
 40
7.860869802062977
 40
8.796716660561656
 40
8.796716660561656
 40
8.796716660561656
 40
8.796716660561656
 10
2326.045647511127
 20
80.53395373259098
 30
0.0
 10
2326.19668654716
 20
80.61236197534112
 30
0.0
 10
2326.365786162904
 20
80.70206228547561
 30
0.0
 10
2326.545647511126
 20
80.80034717521398
 30
0.0
  0
LINE
  5
24872
330
1F
100
AcDbEntity
  8
AM_VIS
100
AcDbLine
 10
2329.195647511126
 20
80.80034717521403
 30
0.0
 11
2329.195647511126
 21
80.38395373259119
 31
0.0
  0
LINE
  5
24873
330
1F
100
AcDbEntity
  8
AM_VIS
100
AcDbLine
 10
2327.695647511126
 20
80.38395373259119
 30
0.0
 11
2327.695647511126
 21
80.80034717521403
 31
0.0
  0
LINE
  5
24874
330
1F
100
AcDbEntity
  8
AM_VIS
100
AcDbLine
 10
2326.545647511126
 20
80.80034717521403
 30
0.0
 11
2327.695647511126
 21
80.80034717521403
 31
0.0
  0
LINE
  5
24875
330
1F
100
AcDbEntity
  8
AM_VIS
100
AcDbLine
 10
2318.045647511126
 20
80.62155803962525
 30
0.0
 11
2318.045647511126
 21
79.18715696286665
 31
0.0
  0
LINE
  5
24876
330
1F
100
AcDbEntity
  8
AM_VIS
100
AcDbLine
 10
2318.045647511126
 20
77.43715696286665
 30
0.0
 11
2318.045647511126
 21
78.5041442609745
 31
0.0
  0
LINE
  5
24877
330
1F
100
AcDbEntity
  8
AM_VIS
100
AcDbLine
 10
2318.045647511126
 20
77.43715696286665
 30
0.0
 11
2318.045647511126
 21
76.00275588610827
 31
0.0
  0
LINE
  5
24878
330
1F
100
AcDbEntity
  8
AM_VIS
100
AcDbLine
 10
2318.045647511126
 20
78.5041442609745
 30
0.0
 11
2318.045647511126
 21
79.18715696286665
 31
0.0
  0
LINE
  5
24879
330
1F
100
AcDbEntity
  8
AM_VIS
100
AcDbLine
 10
2319.645647511126
 20
78.38395373259118
 30
0.0
 11
2322.045647511126
 21
78.38395373259118
 31
0.0
  0
LINE
  5
2487A
330
1F
100
AcDbEntity
  8
AM_VIS
100
AcDbLine
 10
2318.045647511126
 20
78.13395373259118
 30
0.0
 11
2319.645647511126
 21
78.13395373259118
 31
0.0
  0
LINE
  5
2487B
330
1F
100
AcDbEntity
  8
AM_VIS
100
AcDbLine
 10
2312.545647511126
 20
80.62155803962525
 30
0.0
 11
2312.545647511126
 21
79.18715696286665
 31
0.0
  0
LINE
  5
2487C
330
1F
100
AcDbEntity
  8
AM_VIS
100
AcDbLine
 10
2312.545647511126
 20
78.5041442609745
 30
0.0
 11
2312.545647511126
 21
77.43715696286665
 31
0.0
  0
LINE
  5
2487D
330
1F
100
AcDbEntity
  8
AM_VIS
100
AcDbLine
 10
2312.545647511126
 20
77.43715696286665
 30
0.0
 11
2312.545647511126
 21
76.00275588610827
 31
0.0
  0
LINE
  5
2487E
330
1F
100
AcDbEntity
  8
AM_VIS
100
AcDbLine
 10
2312.545647511126
 20
79.18715696286665
 30
0.0
 11
2312.545647511126
 21
78.5041442609745
 31
0.0
  0
LINE
  5
2487F
330
1F
100
AcDbEntity
  8
AM_VIS
100
AcDbLine
 10
2334.045647511126
 20
-29.39181773114722
 30
0.0
 11
2334.045647511126
 21
-4.891817731147227
 31
0.0
  0
LINE
  5
24880
330
1F
100
AcDbEntity
  8
AM_VIS
100
AcDbLine
 10
2365.545647511126
 20
-39.65780630272638
 30
0.0
 11
2365.545647511126
 21
-5.125829159567956
 31
0.0
  0
LINE
  5
24881
330
1F
100
AcDbEntity
  8
AM_VIS
100
AcDbLine
 10
2363.545647511126
 20
-38.64181773114722
 30
0.0
 11
2363.545647511126
 21
-6.141817731147227
 31
0.0
  0
LINE
  5
24882
330
1F
100
AcDbEntity
  8
AM_VIS
100
AcDbLine
 10
2363.545647511126
 20
-33.39181773114722
 30
0.0
 11
2334.045647511126
 21
-33.39181773114722
 31
0.0
  0
LINE
  5
24883
330
1F
100
AcDbEntity
  8
AM_VIS
100
AcDbLine
 10
2363.545647511126
 20
-38.64181773114722
 30
0.0
 11
2363.545647511126
 21
-39.64181773114722
 31
0.0
  0
LINE
  5
24884
330
1F
100
AcDbEntity
  8
AM_VIS
100
AcDbLine
 10
2365.545647511126
 20
-39.64181773114722
 30
0.0
 11
2363.545647511126
 21
-39.64181773114722
 31
0.0
  0
LINE
  5
24885
330
1F
100
AcDbEntity
  8
AM_VIS
100
AcDbLine
 10
2332.045647511126
 20
-12.55386456082277
 30
0.0
 11
2329.195647511126
 21
-12.55386456082277
 31
0.0
  0
LINE
  5
24886
330
1F
100
AcDbEntity
  8
AM_VIS
100
AcDbLine
 10
2332.045647511126
 20
-12.39181773114722
 30
0.0
 11
2329.195647511126
 21
-12.39181773114722
 31
0.0
  0
LINE
  5
24887
330
1F
100
AcDbEntity
  8
AM_VIS
100
AcDbLine
 10
2329.195647511126
 20
-15.92009903479044
 30
0.0
 11
2332.045647511126
 21
-15.92009903479044
 31
0.0
  0
LINE
  5
24888
330
1F
100
AcDbEntity
  8
AM_VIS
100
AcDbLine
 10
2332.045647511126
 20
-19.02558325717967
 30
0.0
 11
2329.195647511126
 21
-19.02558325717967
 31
0.0
  0
LINE
  5
24889
330
1F
100
AcDbEntity
  8
AM_VIS
100
AcDbLine
 10
2329.195647511126
 20
-25.75805220511478
 30
0.0
 11
2332.045647511126
 21
-25.75805220511478
 31
0.0
  0
LINE
  5
2488A
330
1F
100
AcDbEntity
  8
AM_VIS
100
AcDbLine
 10
2332.045647511126
 20
-28.86353642750418
 30
0.0
 11
2329.195647511126
 21
-28.86353642750418
 31
0.0
  0
LINE
  5
2488B
330
1F
100
AcDbEntity
  8
AM_VIS
100
AcDbLine
 10
2329.195647511126
 20
-32.22977090147173
 30
0.0
 11
2332.045647511126
 21
-32.22977090147173
 31
0.0
  0
LINE
  5
2488C
330
1F
100
AcDbEntity
  8
AM_VIS
100
AcDbLine
 10
2332.045647511126
 20
-32.39181773114722
 30
0.0
 11
2329.195647511126
 21
-32.39181773114722
 31
0.0
  0
LINE
  5
2488D
330
1F
100
AcDbEntity
  8
AM_VIS
100
AcDbLine
 10
2332.045647511126
 20
-28.86353642750418
 30
0.0
 11
2332.045647511126
 21
-25.75805220511478
 31
0.0
  0
LINE
  5
2488E
330
1F
100
AcDbEntity
  8
AM_VIS
100
AcDbLine
 10
2333.545647511126
 20
-12.39181773114722
 30
0.0
 11
2333.545647511126
 21
-32.39181773114722
 31
0.0
  0
LINE
  5
2488F
330
1F
100
AcDbEntity
  8
AM_VIS
100
AcDbLine
 10
2333.045647511126
 20
-29.89181773114722
 30
0.0
 11
2333.045647511126
 21
-14.89181773114722
 31
0.0
  0
LINE
  5
24890
330
1F
100
AcDbEntity
  8
AM_VIS
100
AcDbLine
 10
2332.245647511126
 20
-29.89181773114722
 30
0.0
 11
2332.245647511126
 21
-14.89181773114722
 31
0.0
  0
SPLINE
  5
24891
330
1F
100
AcDbEntity
  8
AM_VIS
100
AcDbSpline
210
0.0
220
0.0
230
1.0
 70
     8
 71
     3
 72
    14
 73
    10
 74
     0
 42
0.0000000001
 43
0.0000000001
 40
13.28006742556176
 40
13.28006742556176
 40
13.28006742556176
 40
13.28006742556176
 40
14.27448381305588
 40
14.27448381305588
 40
16.65382904986474
 40
16.65382904986474
 40
19.03317428667358
 40
19.03317428667358
 40
20.02759067416758
 40
20.02759067416758
 40
20.02759067416758
 40
20.02759067416758
 10
2332.045647511126
 20
-32.22977090147179
 30
0.0
 10
2332.063393486245
 20
-31.96484891138169
 30
0.0
 10
2332.079169079948
 20
-31.7120425809249
 30
0.0
 10
2332.124377891859
 20
-30.90127477399511
 30
0.0
 10
2332.141647511126
 20
-30.40939882391836
 30
0.0
 10
2332.141647511126
 20
-29.61628374498224
 30
0.0
 10
2332.124377891859
 20
-29.29889435442584
 30
0.0
 10
2332.079169079948
 20
-28.99166882972798
 30
0.0
 10
2332.063393486245
 20
-28.91850670628406
 30
0.0
 10
2332.045647511126
 20
-28.86353642750424
 30
0.0
  0
LINE
  5
24892
330
1F
100
AcDbEntity
  8
AM_VIS
100
AcDbLine
 10
2334.045647511126
 20
-32.39181773114722
 30
0.0
 11
2333.545647511126
 21
-32.39181773114722
 31
0.0
  0
LINE
  5
24893
330
1F
100
AcDbEntity
  8
AM_VIS
100
AcDbLine
 10
2333.045647511126
 20
-29.89181773114722
 30
0.0
 11
2332.245647511126
 21
-29.89181773114722
 31
0.0
  0
LINE
  5
24894
330
1F
100
AcDbEntity
  8
AM_VIS
100
AcDbLine
 10
2333.045647511126
 20
-29.89181773114722
 30
0.0
 11
2333.545647511126
 21
-32.39181773114722
 31
0.0
  0
LINE
  5
24895
330
1F
100
AcDbEntity
  8
AM_VIS
100
AcDbLine
 10
2332.245647511126
 20
-29.89181773114722
 30
0.0
 11
2332.045647511126
 21
-32.39181773114722
 31
0.0
  0
LINE
  5
24896
330
1F
100
AcDbEntity
  8
AM_VIS
100
AcDbLine
 10
2332.045647511126
 20
-32.39181773114722
 30
0.0
 11
2332.045647511126
 21
-32.22977090147168
 31
0.0
  0
LINE
  5
24897
330
1F
100
AcDbEntity
  8
AM_VIS
100
AcDbLine
 10
2334.045647511126
 20
-29.39181773114722
 30
0.0
 11
2334.045647511126
 21
-33.39181773114722
 31
0.0
  0
LINE
  5
24898
330
1F
100
AcDbEntity
  8
AM_VIS
100
AcDbLine
 10
2332.045647511126
 20
-19.02558325717967
 30
0.0
 11
2332.045647511126
 21
-15.92009903479044
 31
0.0
  0
ARC
  5
24899
330
1F
100
AcDbEntity
  8
AM_VIS
100
AcDbCircle
 10
2272.869842679903
 20
-22.39181773114717
 30
0.0
 40
59.27135386823091
100
AcDbArc
 50
356.7442201741574
 51
3.25577982584253
  0
LINE
  5
2489A
330
1F
100
AcDbEntity
  8
AM_VIS
100
AcDbLine
 10
2334.045647511126
 20
-12.39181773114722
 30
0.0
 11
2333.545647511126
 21
-12.39181773114722
 31
0.0
  0
LINE
  5
2489B
330
1F
100
AcDbEntity
  8
AM_VIS
100
AcDbLine
 10
2333.045647511126
 20
-14.89181773114722
 30
0.0
 11
2332.245647511126
 21
-14.89181773114722
 31
0.0
  0
LINE
  5
2489C
330
1F
100
AcDbEntity
  8
AM_VIS
100
AcDbLine
 10
2333.045647511126
 20
-14.89181773114722
 30
0.0
 11
2333.545647511126
 21
-12.39181773114722
 31
0.0
  0
LINE
  5
2489D
330
1F
100
AcDbEntity
  8
AM_VIS
100
AcDbLine
 10
2332.245647511126
 20
-14.89181773114722
 30
0.0
 11
2332.045647511126
 21
-12.39181773114722
 31
0.0
  0
LINE
  5
2489E
330
1F
100
AcDbEntity
  8
AM_VIS
100
AcDbLine
 10
2332.045647511126
 20
-12.55386456082283
 30
0.0
 11
2332.045647511126
 21
-12.39181773114722
 31
0.0
  0
SPLINE
  5
2489F
330
1F
100
AcDbEntity
  8
AM_VIS
100
AcDbSpline
210
0.0
220
0.0
230
1.0
 70
     8
 71
     3
 72
    14
 73
    10
 74
     0
 42
0.0000000001
 43
0.0000000001
 40
13.28006742556183
 40
13.28006742556183
 40
13.28006742556183
 40
13.28006742556183
 40
14.274483813056
 40
14.274483813056
 40
16.65382904986486
 40
16.65382904986486
 40
19.03317428667369
 40
19.03317428667369
 40
20.02759067416779
 40
20.02759067416779
 40
20.02759067416779
 40
20.02759067416779
 10
2332.045647511126
 20
-15.92009903479044
 30
0.0
 10
2332.063393486245
 20
-15.86512875601061
 30
0.0
 10
2332.079169079948
 20
-15.79196663256658
 30
0.0
 10
2332.124377891859
 20
-15.48474110786861
 30
0.0
 10
2332.141647511126
 20
-15.16735171731244
 30
0.0
 10
2332.141647511126
 20
-14.37423663837608
 30
0.0
 10
2332.124377891859
 20
-13.88236068829934
 30
0.0
 10
2332.079169079948
 20
-13.07159288136966
 30
0.0
 10
2332.063393486245
 20
-12.81878655091287
 30
0.0
 10
2332.045647511126
 20
-12.55386456082277
 30
0.0
  0
LINE
  5
248A0
330
1F
100
AcDbEntity
  8
AM_VIS
100
AcDbLine
 10
2326.045647511126
 20
-24.94671498935548
 30
0.0
 11
2326.045647511126
 21
-29.03850154667077
 31
0.0
  0
LINE
  5
248A1
330
1F
100
AcDbEntity
  8
AM_VIS
100
AcDbLine
 10
2329.195647511126
 20
-25.75805220511478
 30
0.0
 11
2329.195647511126
 21
-28.86353642750418
 31
0.0
  0
LINE
  5
248A2
330
1F
100
AcDbEntity
  8
AM_VIS
100
AcDbLine
 10
2327.695647511126
 20
-28.86353642750418
 30
0.0
 11
2327.695647511126
 21
-25.75805220511478
 31
0.0
  0
LINE
  5
248A3
330
1F
100
AcDbEntity
  8
AM_VIS
100
AcDbLine
 10
2326.545647511126
 20
-28.86353642750418
 30
0.0
 11
2326.545647511126
 21
-25.75805220511478
 31
0.0
  0
LINE
  5
248A4
330
1F
100
AcDbEntity
  8
AM_VIS
100
AcDbLine
 10
2326.045647511126
 20
-29.03850154667077
 30
0.0
 11
2326.045647511126
 21
-31.59339880487903
 31
0.0
  0
LINE
  5
248A5
330
1F
100
AcDbEntity
  8
AM_VIS
100
AcDbLine
 10
2326.045647511126
 20
-31.59339880487897
 30
0.0
 11
2326.045647511126
 21
-31.89181773114722
 31
0.0
  0
LINE
  5
248A6
330
1F
100
AcDbEntity
  8
AM_VIS
100
AcDbLine
 10
2326.545647511126
 20
-32.39181773114722
 30
0.0
 11
2326.545647511126
 21
-32.22977090147168
 31
0.0
  0
SPLINE
  5
248A7
330
1F
100
AcDbEntity
  8
AM_VIS
100
AcDbSpline
210
0.0
220
0.0
230
1.0
 70
     8
 71
     3
 72
     8
 73
     4
 74
     0
 42
0.0000000001
 43
0.0000000001
 40
7.860869800051694
 40
7.860869800051694
 40
7.860869800051694
 40
7.860869800051694
 40
8.796716658530822
 40
8.796716658530822
 40
8.796716658530822
 40
8.796716658530822
 10
2326.045647511127
 20
-31.59339880487897
 30
0.0
 10
2326.196686547163
 20
-31.801706302068
 30
0.0
 10
2326.365786162908
 20
-32.01496511710235
 30
0.0
 10
2326.545647511126
 20
-32.22977090147179
 30
0.0
  0
SPLINE
  5
248A8
330
1F
100
AcDbEntity
  8
AM_VIS
100
AcDbSpline
210
0.0
220
0.0
230
1.0
 70
     8
 71
     3
 72
     8
 73
     4
 74
     0
 42
0.0000000001
 43
0.0000000001
 40
1.630155802117218
 40
1.630155802117218
 40
1.630155802117218
 40
1.630155802117218
 40
2.566002660597602
 40
2.566002660597602
 40
2.566002660597602
 40
2.566002660597602
 10
2326.545647511126
 20
-28.86353642750424
 30
0.0
 10
2326.365786277934
 20
-28.90810776072868
 30
0.0
 10
2326.196686656559
 20
-28.96600105714702
 30
0.0
 10
2326.045647511127
 20
-29.03850154667071
 30
0.0
  0
LINE
  5
248A9
330
1F
100
AcDbEntity
  8
AM_VIS
100
AcDbLine
 10
2326.045647511126
 20
-31.89181773114722
 30
0.0
 11
2326.545647511126
 21
-32.39181773114722
 31
0.0
  0
ARC
  5
248AA
330
1F
100
AcDbEntity
  8
AM_VIS
100
AcDbCircle
 10
2328.445685935645
 20
-29.32284566133791
 30
0.0
 40
0.6998062945020416
100
AcDbArc
 50
44.42610150280454
 51
135.5783007324299
  0
SPLINE
  5
248AB
330
1F
100
AcDbEntity
  8
AM_VIS
100
AcDbSpline
210
0.0
220
0.0
230
1.0
 70
    11
 71
     3
 72
    58
 73
    54
 74
     0
 42
0.0000000001
 43
0.0000000001
 40
-3.310941722041909
 40
-3.310941722041909
 40
-3.310941722041909
 40
-3.310941722041909
 40
-3.295630163526127
 40
-3.295630163526127
 40
-3.258885216857127
 40
-3.258885216857127
 40
-3.197166102530552
 40
-3.197166102530552
 40
-3.038165220187092
 40
-3.038165220187092
 40
-2.856291614874425
 40
-2.856291614874425
 40
-2.666842086900363
 40
-2.666842086900363
 40
-2.492578752010307
 40
-2.492578752010307
 40
-2.312125783734306
 40
-2.312125783734306
 40
-2.134512493780222
 40
-2.134512493780222
 40
-1.991913706755022
 40
-1.991913706755022
 40
-1.842368186772041
 40
-1.842368186772041
 40
-1.791323432474765
 40
-1.791323432474765
 40
-1.757111173267642
 40
-1.757111173267642
 40
-1.723565230360897
 40
-1.723565230360897
 40
-1.676146471110933
 40
-1.676146471110933
 40
-1.559264165848294
 40
-1.559264165848294
 40
-1.304423753582546
 40
-1.304423753582546
 40
-1.102534997057311
 40
-1.102534997057311
 40
-0.9616332280766684
 40
-0.9616332280766684
 40
-0.8335600122348491
 40
-0.8335600122348491
 40
-0.6887403587823754
 40
-0.6887403587823754
 40
-0.4760113448005606
 40
-0.4760113448005606
 40
-0.2570316117940582
 40
-0.2570316117940582
 40
-0.0905362468526998
 40
-0.0905362468526998
 40
-0.0354113089024487
 40
-0.0354113089024487
 40
0.0
 40
0.0
 40
0.0
 40
0.0
 10
2327.945647511126
 20
-28.51442028878165
 30
0.0
 10
2327.945647511126
 20
-28.51600509434121
 30
0.0
 10
2327.945718110991
 20
-28.51752360717847
 30
0.0
 10
2327.946204381748
 20
-28.52245523062362
 30
0.0
 10
2327.946962859845
 20
-28.52552903873044
 30
0.0
 10
2327.950156217838
 20
-28.53265425955629
 30
0.0
 10
2327.953359422113
 20
-28.53590688240325
 30
0.0
 10
2327.96929963262
 20
-28.54343921383684
 30
0.0
 10
2327.988647025066
 20
-28.54098951021359
 30
0.0
 10
2328.045221641607
 20
-28.52699356494401
 30
0.0
 10
2328.084935077712
 20
-28.51421612654149
 30
0.0
 10
2328.183344801082
 20
-28.48832867966263
 30
0.0
 10
2328.241157934891
 20
-28.47579409545693
 30
0.0
 10
2328.361154408777
 20
-28.46083882162185
 30
0.0
 10
2328.421136983574
 20
-28.45782884472242
 30
0.0
 10
2328.54331736459
 20
-28.46164290139023
 30
0.0
 10
2328.603357825189
 20
-28.46875796877822
 30
0.0
 10
2328.713267391978
 20
-28.4892001446081
 30
0.0
 10
2328.76239272372
 20
-28.5022781242622
 30
0.0
 10
2328.837202382853
 20
-28.52368224279854
 30
0.0
 10
2328.865617102793
 20
-28.53239581674148
 30
0.0
 10
2328.911603699649
 20
-28.54223893608951
 30
0.0
 10
2328.928122998317
 20
-28.54274273378559
 30
0.0
 10
2328.94040719665
 20
-28.53330736863262
 30
0.0
 10
2328.942625138838
 20
-28.5300751433113
 30
0.0
 10
2328.944905706137
 20
-28.52327839491323
 30
0.0
 10
2328.945432352903
 20
-28.52019050743598
 30
0.0
 10
2328.945752120284
 20
-28.51339369166765
 30
0.0
 10
2328.945558787018
 20
-28.50970838242398
 30
0.0
 10
2328.944301677382
 20
-28.50010350667076
 30
0.0
 10
2328.942913095441
 20
-28.49390384463282
 30
0.0
 10
2328.936074899954
 20
-28.4707631633741
 30
0.0
 10
2328.927655424802
 20
-28.45136511652509
 30
0.0
 10
2328.892302036126
 20
-28.38551052088343
 30
0.0
 10
2328.853721691128
 20
-28.33133766835265
 30
0.0
 10
2328.763587354713
 20
-28.2418363962027
 30
0.0
 10
2328.715083176706
 20
-28.20357651050682
 30
0.0
 10
2328.619219470966
 20
-28.15359629128403
 30
0.0
 10
2328.575964183105
 20
-28.13739145816231
 30
0.0
 10
2328.487376801823
 20
-28.11996286158006
 30
0.0
 10
2328.444384616152
 20
-28.11787676945431
 30
0.0
 10
2328.352679258215
 20
-28.12735236293752
 30
0.0
 10
2328.306788416318
 20
-28.14042316208343
 30
0.0
 10
2328.202358444739
 20
-28.18605222623586
 30
0.0
 10
2328.149069531068
 20
-28.22429725633816
 30
0.0
 10
2328.060410167282
 20
-28.30613940889003
 30
0.0
 10
2328.023688536802
 20
-28.35175250001901
 30
0.0
 10
2327.976474983401
 20
-28.42491031485502
 30
0.0
 10
2327.961053408606
 20
-28.4552970008645
 30
0.0
 10
2327.949903696475
 20
-28.48809021235064
 30
0.0
 10
2327.947901764587
 20
-28.49562336498712
 30
0.0
 10
2327.946024902849
 20
-28.50673633025036
 30
0.0
 10
2327.945647511126
 20
-28.51075508127411
 30
0.0
 10
2327.945647511126
 20
-28.51442028878165
 30
0.0
  0
LINE
  5
248AC
330
1F
100
AcDbEntity
  8
AM_VIS
100
AcDbLine
 10
2329.195647511126
 20
-32.22977090147168
 30
0.0
 11
2329.195647511126
 21
-32.39181773114722
 31
0.0
  0
LINE
  5
248AD
330
1F
100
AcDbEntity
  8
AM_VIS
100
AcDbLine
 10
2329.195647511126
 20
-32.22977090147173
 30
0.0
 11
2329.195647511126
 21
-28.86353642750418
 31
0.0
  0
LINE
  5
248AE
330
1F
100
AcDbEntity
  8
AM_VIS
100
AcDbLine
 10
2327.695647511126
 20
-32.39181773114722
 30
0.0
 11
2327.695647511126
 21
-32.22977090147168
 31
0.0
  0
LINE
  5
248AF
330
1F
100
AcDbEntity
  8
AM_VIS
100
AcDbLine
 10
2327.695647511126
 20
-28.86353642750418
 30
0.0
 11
2327.695647511126
 21
-32.22977090147179
 31
0.0
  0
ARC
  5
248B0
330
1F
100
AcDbEntity
  8
AM_VIS
100
AcDbCircle
 10
2328.445647511126
 20
-29.39181773114722
 30
0.0
 40
0.75
100
AcDbArc
 50
0.0
 51
48.18968510422982
  0
ARC
  5
248B1
330
1F
100
AcDbEntity
  8
AM_VIS
100
AcDbCircle
 10
2328.445647511126
 20
-29.39181773114722
 30
0.0
 40
0.75
100
AcDbArc
 50
131.8103148957701
 51
180.0
  0
LINE
  5
248B2
330
1F
100
AcDbEntity
  8
AM_VIS
100
AcDbLine
 10
2326.545647511126
 20
-32.22977090147173
 30
0.0
 11
2327.695647511126
 21
-32.22977090147173
 31
0.0
  0
LINE
  5
248B3
330
1F
100
AcDbEntity
  8
AM_VIS
100
AcDbLine
 10
2327.695647511126
 20
-28.86353642750418
 30
0.0
 11
2326.545647511126
 21
-28.86353642750418
 31
0.0
  0
LINE
  5
248B4
330
1F
100
AcDbEntity
  8
AM_VIS
100
AcDbLine
 10
2327.695647511126
 20
-32.39181773114722
 30
0.0
 11
2326.545647511126
 21
-32.39181773114722
 31
0.0
  0
LINE
  5
248B5
330
1F
100
AcDbEntity
  8
AM_VIS
100
AcDbLine
 10
2326.045647511126
 20
-15.74513391562385
 30
0.0
 11
2326.045647511126
 21
-19.83692047293897
 31
0.0
  0
LINE
  5
248B6
330
1F
100
AcDbEntity
  8
AM_VIS
100
AcDbLine
 10
2329.195647511126
 20
-15.92009903479044
 30
0.0
 11
2329.195647511126
 21
-19.02558325717967
 31
0.0
  0
LINE
  5
248B7
330
1F
100
AcDbEntity
  8
AM_VIS
100
AcDbLine
 10
2327.695647511126
 20
-19.02558325717967
 30
0.0
 11
2327.695647511126
 21
-15.92009903479044
 31
0.0
  0
LINE
  5
248B8
330
1F
100
AcDbEntity
  8
AM_VIS
100
AcDbLine
 10
2326.545647511126
 20
-19.02558325717967
 30
0.0
 11
2326.545647511126
 21
-15.92009903479044
 31
0.0
  0
SPLINE
  5
248B9
330
1F
100
AcDbEntity
  8
AM_VIS
100
AcDbSpline
210
0.0
220
0.0
230
1.0
 70
     8
 71
     3
 72
     8
 73
     4
 74
     0
 42
0.0000000001
 43
0.0000000001
 40
1.629958734905461
 40
1.629958734905461
 40
1.629958734905461
 40
1.629958734905461
 40
2.565803457021723
 40
2.565803457021723
 40
2.565803457021723
 40
2.565803457021723
 10
2326.545647511126
 20
-19.02558325717978
 30
0.0
 10
2326.365786634169
 20
-19.28495972367369
 30
0.0
 10
2326.196686887212
 20
-19.55611190652581
 30
0.0
 10
2326.045647511127
 20
-19.83692047293908
 30
0.0
  0
SPLINE
  5
248BA
330
1F
100
AcDbEntity
  8
AM_VIS
100
AcDbSpline
210
0.0
220
0.0
230
1.0
 70
     8
 71
     3
 72
     8
 73
     4
 74
     0
 42
0.0000000001
 43
0.0000000001
 40
7.8606508081159
 40
7.8606508081159
 40
7.8606508081159
 40
7.8606508081159
 40
8.796495530230886
 40
8.796495530230886
 40
8.796495530230886
 40
8.796495530230886
 10
2326.045647511127
 20
-24.94671498935559
 30
0.0
 10
2326.196686777578
 20
-25.2275233519386
 30
0.0
 10
2326.365786518873
 20
-25.49867557235262
 30
0.0
 10
2326.545647511126
 20
-25.75805220511489
 30
0.0
  0
LINE
  5
248BB
330
1F
100
AcDbEntity
  8
AM_VIS
100
AcDbLine
 10
2326.045647511126
 20
-19.83692047293897
 30
0.0
 11
2326.045647511126
 21
-24.94671498935565
 31
0.0
  0
CIRCLE
  5
248BC
330
1F
100
AcDbEntity
  8
AM_VIS
100
AcDbCircle
 10
2328.445647511126
 20
-21.14181773114722
 30
0.0
 40
0.500000000000004
  0
CIRCLE
  5
248BD
330
1F
100
AcDbEntity
  8
AM_VIS
100
AcDbCircle
 10
2328.445647511126
 20
-23.64181773114722
 30
0.0
 40
0.4999999999999999
  0
LINE
  5
248BE
330
1F
100
AcDbEntity
  8
AM_VIS
100
AcDbLine
 10
2329.195647511126
 20
-25.75805220511478
 30
0.0
 11
2329.195647511126
 21
-19.02558325717956
 31
0.0
  0
LINE
  5
248BF
330
1F
100
AcDbEntity
  8
AM_VIS
100
AcDbLine
 10
2327.695647511126
 20
-19.02558325717967
 30
0.0
 11
2327.695647511126
 21
-25.75805220511489
 31
0.0
  0
LINE
  5
248C0
330
1F
100
AcDbEntity
  8
AM_VIS
100
AcDbLine
 10
2327.695647511126
 20
-19.02558325717967
 30
0.0
 11
2326.545647511126
 21
-19.02558325717967
 31
0.0
  0
LINE
  5
248C1
330
1F
100
AcDbEntity
  8
AM_VIS
100
AcDbLine
 10
2326.545647511126
 20
-25.75805220511478
 30
0.0
 11
2327.695647511126
 21
-25.75805220511478
 31
0.0
  0
LINE
  5
248C2
330
1F
100
AcDbEntity
  8
AM_VIS
100
AcDbLine
 10
2326.045647511126
 20
-12.89181773114722
 30
0.0
 11
2326.045647511126
 21
-13.19023665741553
 31
0.0
  0
LINE
  5
248C3
330
1F
100
AcDbEntity
  8
AM_VIS
100
AcDbLine
 10
2326.045647511126
 20
-13.19023665741548
 30
0.0
 11
2326.045647511126
 21
-15.74513391562391
 31
0.0
  0
LINE
  5
248C4
330
1F
100
AcDbEntity
  8
AM_VIS
100
AcDbLine
 10
2326.545647511126
 20
-12.55386456082283
 30
0.0
 11
2326.545647511126
 21
-12.39181773114722
 31
0.0
  0
SPLINE
  5
248C5
330
1F
100
AcDbEntity
  8
AM_VIS
100
AcDbSpline
210
0.0
220
0.0
230
1.0
 70
     8
 71
     3
 72
     8
 73
     4
 74
     0
 42
0.0000000001
 43
0.0000000001
 40
7.860869802063071
 40
7.860869802063071
 40
7.860869802063071
 40
7.860869802063071
 40
8.796716660561775
 40
8.796716660561775
 40
8.796716660561775
 40
8.796716660561775
 10
2326.045647511127
 20
-15.74513391562385
 30
0.0
 10
2326.19668654716
 20
-15.81763435263479
 30
0.0
 10
2326.365786162904
 20
-15.87552767306061
 30
0.0
 10
2326.545647511126
 20
-15.92009903479044
 30
0.0
  0
SPLINE
  5
248C6
330
1F
100
AcDbEntity
  8
AM_VIS
100
AcDbSpline
210
0.0
220
0.0
230
1.0
 70
     8
 71
     3
 72
     8
 73
     4
 74
     0
 42
0.0000000001
 43
0.0000000001
 40
1.630155803927002
 40
1.630155803927002
 40
1.630155803927002
 40
1.630155803927002
 40
2.566002662426968
 40
2.566002662426968
 40
2.566002662426968
 40
2.566002662426968
 10
2326.545647511126
 20
-12.55386456082277
 30
0.0
 10
2326.365786277931
 20
-12.76867020782202
 30
0.0
 10
2326.196686656557
 20
-12.98192900935311
 30
0.0
 10
2326.045647511127
 20
-13.19023665741548
 30
0.0
  0
LINE
  5
248C7
330
1F
100
AcDbEntity
  8
AM_VIS
100
AcDbLine
 10
2326.045647511126
 20
-12.89181773114722
 30
0.0
 11
2326.545647511126
 21
-12.39181773114722
 31
0.0
  0
LINE
  5
248C8
330
1F
100
AcDbEntity
  8
AM_VIS
100
AcDbLine
 10
2329.195647511126
 20
-12.39181773114722
 30
0.0
 11
2329.195647511126
 21
-12.55386456082283
 31
0.0
  0
LINE
  5
248C9
330
1F
100
AcDbEntity
  8
AM_VIS
100
AcDbLine
 10
2327.695647511126
 20
-12.55386456082283
 30
0.0
 11
2327.695647511126
 21
-12.39181773114722
 31
0.0
  0
ARC
  5
248CA
330
1F
100
AcDbEntity
  8
AM_VIS
100
AcDbCircle
 10
2328.445627982435
 20
-15.46079512866993
 30
0.0
 40
0.6997982445397714
100
AcDbArc
 50
224.4247076109649
 51
315.5775297592165
  0
SPLINE
  5
248CB
330
1F
100
AcDbEntity
  8
AM_VIS
100
AcDbSpline
210
0.0
220
0.0
230
1.0
 70
    11
 71
     3
 72
    58
 73
    54
 74
     0
 42
0.0000000001
 43
0.0000000001
 40
-3.363896419206848
 40
-3.363896419206848
 40
-3.363896419206848
 40
-3.363896419206848
 40
-3.330080057161157
 40
-3.330080057161157
 40
-3.276087946130379
 40
-3.276087946130379
 40
-3.130129325352126
 40
-3.130129325352126
 40
-2.864475625688879
 40
-2.864475625688879
 40
-2.670984402665324
 40
-2.670984402665324
 40
-2.529876972570241
 40
-2.529876972570241
 40
-2.394146079242185
 40
-2.394146079242185
 40
-2.234845146626472
 40
-2.234845146626472
 40
-1.995446372912342
 40
-1.995446372912342
 40
-1.792732498438366
 40
-1.792732498438366
 40
-1.655061185971928
 40
-1.655061185971928
 40
-1.604023047287223
 40
-1.604023047287223
 40
-1.569394244699424
 40
-1.569394244699424
 40
-1.535224675006395
 40
-1.535224675006395
 40
-1.486406948944837
 40
-1.486406948944837
 40
-1.367760828093762
 40
-1.367760828093762
 40
-1.211422564665596
 40
-1.211422564665596
 40
-1.00947781377736
 40
-1.00947781377736
 40
-0.8308451466681658
 40
-0.8308451466681658
 40
-0.6546659190334039
 40
-0.6546659190334039
 40
-0.4706948991975911
 40
-0.4706948991975911
 40
-0.3083260207092203
 40
-0.3083260207092203
 40
-0.1833529844650886
 40
-0.1833529844650886
 40
-0.0782943285699142
 40
-0.0782943285699142
 40
-0.0333492537438367
 40
-0.0333492537438367
 40
0.0
 40
0.0
 40
0.0
 40
0.0
 10
2327.945647511126
 20
-16.2692151735128
 30
0.0
 10
2327.945647511126
 20
-16.27271529784849
 30
0.0
 10
2327.94599166486
 20
-16.2765324805851
 30
0.0
 10
2327.947724367396
 20
-16.28720282536568
 30
0.0
 10
2327.949607171694
 20
-16.29447406892365
 30
0.0
 10
2327.959244490285
 20
-16.32349639968225
 30
0.0
 10
2327.97157356853
 20
-16.34894900455134
 30
0.0
 10
2328.017025920837
 20
-16.42420530294799
 30
0.0
 10
2328.060565968045
 20
-16.47951825666729
 30
0.0
 10
2328.155393912096
 20
-16.56347834799322
 30
0.0
 10
2328.202793792844
 20
-16.59663387309803
 30
0.0
 10
2328.296435906275
 20
-16.63939183998064
 30
0.0
 10
2328.33917059311
 20
-16.65275515312288
 30
0.0
 10
2328.427982776362
 20
-16.66545714499972
 30
0.0
 10
2328.471732784149
 20
-16.6649939588861
 30
0.0
 10
2328.565529879378
 20
-16.64980293288641
 30
0.0
 10
2328.612522086458
 20
-16.63310106062732
 30
0.0
 10
2328.718946395883
 20
-16.57864736585435
 30
0.0
 10
2328.773840292238
 20
-16.53395590449378
 30
0.0
 10
2328.855459925196
 20
-16.44775125512575
 30
0.0
 10
2328.885874774539
 20
-16.40609360468369
 30
0.0
 10
2328.922465466304
 20
-16.34346947291504
 30
0.0
 10
2328.933629629445
 20
-16.31959053921156
 30
0.0
 10
2328.942243038374
 20
-16.29240797279618
 30
0.0
 10
2328.943899068334
 20
-16.28561750490672
 30
0.0
 10
2328.945436433903
 20
-16.27534121754075
 30
0.0
 10
2328.945715260184
 20
-16.27150644581894
 30
0.0
 10
2328.945553077987
 20
-16.26456460408286
 30
0.0
 10
2328.945121847126
 20
-16.26145871380623
 30
0.0
 10
2328.943188082169
 20
-16.25476849501416
 30
0.0
 10
2328.94131263144
 20
-16.25157248337797
 30
0.0
 10
2328.932241720341
 20
-16.24309894449806
 30
0.0
 10
2328.921458391542
 20
-16.24157290135809
 30
0.0
 10
2328.886527896079
 20
-16.24557910169579
 30
0.0
 10
2328.859720267522
 20
-16.25334131330038
 30
0.0
 10
2328.78545268016
 20
-16.27484782676111
 30
0.0
 10
2328.732953604792
 20
-16.29004773330319
 30
0.0
 10
2328.617073891174
 20
-16.31284026552731
 30
0.0
 10
2328.557958081399
 20
-16.32059552588799
 30
0.0
 10
2328.436183176351
 20
-16.32605462028897
 30
0.0
 10
2328.375604733749
 20
-16.32381624183341
 30
0.0
 10
2328.256615653571
 20
-16.31041527013172
 30
0.0
 10
2328.200140454423
 20
-16.29903997974457
 30
0.0
 10
2328.106557544132
 20
-16.27552340807875
 30
0.0
 10
2328.068275674971
 20
-16.26373227403263
 30
0.0
 10
2328.012923956721
 20
-16.24829287693984
 30
0.0
 10
2327.993107142315
 20
-16.24348186433968
 30
0.0
 10
2327.965598764262
 20
-16.24210303868307
 30
0.0
 10
2327.956727331294
 20
-16.24438567709529
 30
0.0
 10
2327.949181498762
 20
-16.25285088719766
 30
0.0
 10
2327.94760654374
 20
-16.2560191617693
 30
0.0
 10
2327.945982140131
 20
-16.26262202423919
 30
0.0
 10
2327.945647511126
 20
-16.26576339669401
 30
0.0
 10
2327.945647511126
 20
-16.2692151735128
 30
0.0
  0
LINE
  5
248CC
330
1F
100
AcDbEntity
  8
AM_VIS
100
AcDbLine
 10
2329.195647511126
 20
-15.92009903479044
 30
0.0
 11
2329.195647511126
 21
-12.55386456082271
 31
0.0
  0
LINE
  5
248CD
330
1F
100
AcDbEntity
  8
AM_VIS
100
AcDbLine
 10
2327.695647511126
 20
-12.55386456082277
 30
0.0
 11
2327.695647511126
 21
-15.92009903479049
 31
0.0
  0
ARC
  5
248CE
330
1F
100
AcDbEntity
  8
AM_VIS
100
AcDbCircle
 10
2328.445647511126
 20
-15.39181773114722
 30
0.0
 40
0.75
100
AcDbArc
 50
180.0
 51
228.1896851042298
  0
ARC
  5
248CF
330
1F
100
AcDbEntity
  8
AM_VIS
100
AcDbCircle
 10
2328.445647511126
 20
-15.39181773114722
 30
0.0
 40
0.75
100
AcDbArc
 50
311.8103148957723
 51
0.0
  0
LINE
  5
248D0
330
1F
100
AcDbEntity
  8
AM_VIS
100
AcDbLine
 10
2327.695647511126
 20
-12.55386456082277
 30
0.0
 11
2326.545647511126
 21
-12.55386456082277
 31
0.0
  0
LINE
  5
248D1
330
1F
100
AcDbEntity
  8
AM_VIS
100
AcDbLine
 10
2327.695647511126
 20
-12.39181773114722
 30
0.0
 11
2326.545647511126
 21
-12.39181773114722
 31
0.0
  0
LINE
  5
248D2
330
1F
100
AcDbEntity
  8
AM_VIS
100
AcDbLine
 10
2326.545647511126
 20
-15.92009903479044
 30
0.0
 11
2327.695647511126
 21
-15.92009903479044
 31
0.0
  0
LINE
  5
248D3
330
1F
100
AcDbEntity
  8
AM_VIS
100
AcDbLine
 10
2363.545647511126
 20
-4.891817731147227
 30
0.0
 11
2334.045647511126
 21
-4.891817731147227
 31
0.0
  0
LINE
  5
248D4
330
1F
100
AcDbEntity
  8
AM_VIS
100
AcDbLine
 10
2337.545647511126
 20
23.60818226885283
 30
0.0
 11
2359.545647511126
 21
23.60818226885283
 31
0.0
  0
LINE
  5
248D5
330
1F
100
AcDbEntity
  8
AM_VIS
100
AcDbLine
 10
2363.045647511126
 20
20.10818226885282
 30
0.0
 11
2363.045647511126
 21
-4.89181773114717
 31
0.0
  0
LINE
  5
248D6
330
1F
100
AcDbEntity
  8
AM_VIS
100
AcDbLine
 10
2377.795647511126
 20
-3.89181773114717
 30
0.0
 11
2370.895647511126
 21
-3.89181773114717
 31
0.0
  0
LINE
  5
248D7
330
1F
100
AcDbEntity
  8
AM_VIS
100
AcDbLine
 10
2377.795647511126
 20
-4.912004614197314
 30
0.0
 11
2377.795647511126
 21
-3.89181773114717
 31
0.0
  0
LINE
  5
248D8
330
1F
100
AcDbEntity
  8
AM_VIS
100
AcDbLine
 10
2370.895647511126
 20
-5.032444562201987
 30
0.0
 11
2370.895647511126
 21
-3.89181773114717
 31
0.0
  0
LINE
  5
248D9
330
1F
100
AcDbEntity
  8
AM_VIS
100
AcDbLine
 10
2363.545647511126
 20
-5.141817731147227
 30
0.0
 11
2363.545647511126
 21
-6.141817731147227
 31
0.0
  0
LINE
  5
248DA
330
1F
100
AcDbEntity
  8
AM_VIS
100
AcDbLine
 10
2363.545647511126
 20
-4.891817731147227
 30
0.0
 11
2363.545647511126
 21
-5.141817731147227
 31
0.0
  0
LINE
  5
248DB
330
1F
100
AcDbEntity
  8
AM_VIS
100
AcDbLine
 10
2363.545647511126
 20
-5.141817731147227
 30
0.0
 11
2365.545647511126
 21
-5.141817731147227
 31
0.0
  0
ARC
  5
248DC
330
1F
100
AcDbEntity
  8
AM_VIS
100
AcDbCircle
 10
2359.545647511126
 20
20.10818226885282
 30
0.0
 40
3.5
100
AcDbArc
 50
0.0
 51
90.0
  0
LINE
  5
248DD
330
1F
100
AcDbEntity
  8
AM_VIS
100
AcDbLine
 10
2334.045647511126
 20
25.60818226885283
 30
0.0
 11
2322.045647511126
 21
25.60818226885283
 31
0.0
  0
LINE
  5
248DE
330
1F
100
AcDbEntity
  8
AM_VIS
100
AcDbLine
 10
2334.045647511126
 20
7.608182268852829
 30
0.0
 11
2322.045647511126
 21
7.608182268852829
 31
0.0
  0
LINE
  5
248DF
330
1F
100
AcDbEntity
  8
AM_VIS
100
AcDbLine
 10
2334.045647511126
 20
10.9513280193604
 30
0.0
 11
2334.045647511126
 21
25.60818226885283
 31
0.0
  0
LINE
  5
248E0
330
1F
100
AcDbEntity
  8
AM_VIS
100
AcDbLine
 10
2334.045647511126
 20
-4.89181773114717
 30
0.0
 11
2334.045647511126
 21
10.9513280193604
 31
0.0
  0
ARC
  5
248E1
330
1F
100
AcDbEntity
  8
AM_VIS
100
AcDbCircle
 10
2337.545647511126
 20
20.10818226885282
 30
0.0
 40
3.5
100
AcDbArc
 50
90.0
 51
148.5852322907678
  0
LINE
  5
248E2
330
1F
100
AcDbEntity
  8
AM_VIS
100
AcDbLine
 10
2339.045647511126
 20
23.60818226885283
 30
0.0
 11
2334.045647511126
 21
25.60818226885283
 31
0.0
  0
LINE
  5
248E3
330
1F
100
AcDbEntity
  8
AM_VIS
100
AcDbLine
 10
2312.545647511126
 20
13.94071402358332
 30
0.0
 11
2312.545647511126
 21
11.77565051412227
 31
0.0
  0
LINE
  5
248E4
330
1F
100
AcDbEntity
  8
AM_VIS
100
AcDbLine
 10
2318.045647511126
 20
11.77565051412227
 30
0.0
 11
2318.045647511126
 21
13.94071402358332
 31
0.0
  0
LINE
  5
248E5
330
1F
100
AcDbEntity
  8
AM_VIS
100
AcDbLine
 10
2322.045647511126
 20
25.60818226885283
 30
0.0
 11
2322.045647511126
 21
7.608182268852829
 31
0.0
  0
LINE
  5
248E6
330
1F
100
AcDbEntity
  8
AM_VIS
100
AcDbLine
 10
2319.645647511126
 20
23.60818226885283
 30
0.0
 11
2319.645647511126
 21
9.608182268852829
 31
0.0
  0
LINE
  5
248E7
330
1F
100
AcDbEntity
  8
AM_VIS
100
AcDbLine
 10
2312.545647511126
 20
11.77565051412227
 30
0.0
 11
2318.045647511126
 21
11.77565051412227
 31
0.0
  0
LINE
  5
248E8
330
1F
100
AcDbEntity
  8
AM_VIS
100
AcDbLine
 10
2312.545647511126
 20
11.09263781222989
 30
0.0
 11
2318.045647511126
 21
11.09263781222989
 31
0.0
  0
LINE
  5
248E9
330
1F
100
AcDbEntity
  8
AM_VIS
100
AcDbLine
 10
2312.545647511126
 20
8.608182268852829
 30
0.0
 11
2318.045647511126
 21
8.608182268852829
 31
0.0
  0
LINE
  5
248EA
330
1F
100
AcDbEntity
  8
AM_VIS
100
AcDbLine
 10
2318.045647511126
 20
11.09263781223001
 30
0.0
 11
2318.045647511126
 21
11.77565051412227
 31
0.0
  0
LINE
  5
248EB
330
1F
100
AcDbEntity
  8
AM_VIS
100
AcDbLine
 10
2318.045647511126
 20
11.09263781223001
 30
0.0
 11
2318.045647511126
 21
8.608182268852829
 31
0.0
  0
LINE
  5
248EC
330
1F
100
AcDbEntity
  8
AM_VIS
100
AcDbLine
 10
2319.645647511126
 20
9.608182268852829
 30
0.0
 11
2322.045647511126
 21
9.608182268852829
 31
0.0
  0
LINE
  5
248ED
330
1F
100
AcDbEntity
  8
AM_VIS
100
AcDbLine
 10
2318.045647511126
 20
9.858182268852829
 30
0.0
 11
2319.645647511126
 21
9.858182268852829
 31
0.0
  0
LINE
  5
248EE
330
1F
100
AcDbEntity
  8
AM_VIS
100
AcDbLine
 10
2312.545647511126
 20
11.77565051412227
 30
0.0
 11
2312.545647511126
 21
11.09263781223001
 31
0.0
  0
LINE
  5
248EF
330
1F
100
AcDbEntity
  8
AM_VIS
100
AcDbLine
 10
2312.545647511126
 20
11.09263781223001
 30
0.0
 11
2312.545647511126
 21
8.608182268852829
 31
0.0
  0
LINE
  5
248F0
330
1F
100
AcDbEntity
  8
AM_VIS
100
AcDbLine
 10
2312.545647511126
 20
24.60818226885283
 30
0.0
 11
2318.045647511126
 21
24.60818226885283
 31
0.0
  0
LINE
  5
248F1
330
1F
100
AcDbEntity
  8
AM_VIS
100
AcDbLine
 10
2312.545647511126
 20
21.44071402358332
 30
0.0
 11
2318.045647511126
 21
21.44071402358332
 31
0.0
  0
LINE
  5
248F2
330
1F
100
AcDbEntity
  8
AM_VIS
100
AcDbLine
 10
2318.045647511126
 20
22.12372672547553
 30
0.0
 11
2312.545647511126
 21
22.12372672547553
 31
0.0
  0
LINE
  5
248F3
330
1F
100
AcDbEntity
  8
AM_VIS
100
AcDbLine
 10
2312.545647511126
 20
19.09263781223001
 30
0.0
 11
2318.045647511126
 21
19.09263781223001
 31
0.0
  0
LINE
  5
248F4
330
1F
100
AcDbEntity
  8
AM_VIS
100
AcDbLine
 10
2312.545647511126
 20
19.27565051412221
 30
0.0
 11
2318.045647511126
 21
19.27565051412221
 31
0.0
  0
LINE
  5
248F5
330
1F
100
AcDbEntity
  8
AM_VIS
100
AcDbLine
 10
2312.545647511126
 20
13.94071402358332
 30
0.0
 11
2318.045647511126
 21
13.94071402358332
 31
0.0
  0
LINE
  5
248F6
330
1F
100
AcDbEntity
  8
AM_VIS
100
AcDbLine
 10
2318.045647511126
 20
14.12372672547553
 30
0.0
 11
2312.545647511126
 21
14.12372672547553
 31
0.0
  0
LINE
  5
248F7
330
1F
100
AcDbEntity
  8
AM_VIS
100
AcDbLine
 10
2312.545647511126
 20
16.60818226885282
 30
0.0
 11
2318.045647511126
 21
16.60818226885282
 31
0.0
  0
LINE
  5
248F8
330
1F
100
AcDbEntity
  8
AM_VIS
100
AcDbLine
 10
2318.045647511126
 20
24.60818226885283
 30
0.0
 11
2318.045647511126
 21
22.12372672547553
 31
0.0
  0
LINE
  5
248F9
330
1F
100
AcDbEntity
  8
AM_VIS
100
AcDbLine
 10
2318.045647511126
 20
19.09263781223001
 30
0.0
 11
2318.045647511126
 21
19.27565051412221
 31
0.0
  0
LINE
  5
248FA
330
1F
100
AcDbEntity
  8
AM_VIS
100
AcDbLine
 10
2318.045647511126
 20
19.27565051412221
 30
0.0
 11
2318.045647511126
 21
21.44071402358332
 31
0.0
  0
LINE
  5
248FB
330
1F
100
AcDbEntity
  8
AM_VIS
100
AcDbLine
 10
2318.045647511126
 20
21.44071402358332
 30
0.0
 11
2318.045647511126
 21
22.12372672547553
 31
0.0
  0
LINE
  5
248FC
330
1F
100
AcDbEntity
  8
AM_VIS
100
AcDbLine
 10
2318.045647511126
 20
13.94071402358332
 30
0.0
 11
2318.045647511126
 21
14.12372672547553
 31
0.0
  0
LINE
  5
248FD
330
1F
100
AcDbEntity
  8
AM_VIS
100
AcDbLine
 10
2318.045647511126
 20
16.60818226885282
 30
0.0
 11
2318.045647511126
 21
14.12372672547553
 31
0.0
  0
LINE
  5
248FE
330
1F
100
AcDbEntity
  8
AM_VIS
100
AcDbLine
 10
2318.045647511126
 20
19.09263781223001
 30
0.0
 11
2318.045647511126
 21
16.60818226885282
 31
0.0
  0
LINE
  5
248FF
330
1F
100
AcDbEntity
  8
AM_VIS
100
AcDbLine
 10
2319.645647511126
 20
23.60818226885283
 30
0.0
 11
2322.045647511126
 21
23.60818226885283
 31
0.0
  0
LINE
  5
24900
330
1F
100
AcDbEntity
  8
AM_VIS
100
AcDbLine
 10
2318.045647511126
 20
23.35818226885283
 30
0.0
 11
2319.645647511126
 21
23.35818226885283
 31
0.0
  0
LINE
  5
24901
330
1F
100
AcDbEntity
  8
AM_VIS
100
AcDbLine
 10
2312.545647511126
 20
24.60818226885283
 30
0.0
 11
2312.545647511126
 21
22.12372672547553
 31
0.0
  0
LINE
  5
24902
330
1F
100
AcDbEntity
  8
AM_VIS
100
AcDbLine
 10
2312.545647511126
 20
22.12372672547553
 30
0.0
 11
2312.545647511126
 21
21.44071402358332
 31
0.0
  0
LINE
  5
24903
330
1F
100
AcDbEntity
  8
AM_VIS
100
AcDbLine
 10
2312.545647511126
 20
21.44071402358332
 30
0.0
 11
2312.545647511126
 21
19.27565051412221
 31
0.0
  0
LINE
  5
24904
330
1F
100
AcDbEntity
  8
AM_VIS
100
AcDbLine
 10
2312.545647511126
 20
19.27565051412216
 30
0.0
 11
2312.545647511126
 21
19.09263781223001
 31
0.0
  0
LINE
  5
24905
330
1F
100
AcDbEntity
  8
AM_VIS
100
AcDbLine
 10
2312.545647511126
 20
16.60818226885282
 30
0.0
 11
2312.545647511126
 21
14.12372672547553
 31
0.0
  0
LINE
  5
24906
330
1F
100
AcDbEntity
  8
AM_VIS
100
AcDbLine
 10
2312.545647511126
 20
14.12372672547553
 30
0.0
 11
2312.545647511126
 21
13.94071402358332
 31
0.0
  0
LINE
  5
24907
330
1F
100
AcDbEntity
  8
AM_VIS
100
AcDbLine
 10
2312.545647511126
 20
19.09263781223001
 30
0.0
 11
2312.545647511126
 21
16.60818226885282
 31
0.0
  0
SPLINE
  5
24908
330
1F
100
AcDbEntity
  8
AM_VIS
100
AcDbSpline
210
0.0
220
0.0
230
1.0
 70
     8
 71
     3
 72
    22
 73
    18
 74
     0
 42
0.0000000001
 43
0.0000000001
 40
6.922974191987643
 40
6.922974191987643
 40
6.922974191987643
 40
6.922974191987643
 40
7.242870958922999
 40
7.242870958922999
 40
8.615360666179645
 40
8.615360666179645
 40
9.987850373436291
 40
9.987850373436291
 40
11.36034008069293
 40
11.36034008069293
 40
12.73282978794958
 40
12.73282978794958
 40
14.10531949520622
 40
14.10531949520622
 40
15.47780920246286
 40
15.47780920246286
 40
16.1364483476482
 40
16.1364483476482
 40
16.1364483476482
 40
16.1364483476482
 10
2334.045647511126
 20
10.95132801936046
 30
0.0000000000000284
 10
2334.045647511126
 20
11.03821658751229
 30
0.0000000000000284
 10
2334.047761523804
 20
11.12543069696408
 30
0.0000000000000284
 10
2334.066736846674
 20
11.58108423870948
 30
0.0000000000000284
 10
2334.11133844366
 20
11.98694136700231
 30
0.0000000000000284
 10
2334.220917607436
 20
12.8484299521055
 30
0.0000000000000284
 10
2334.285825166057
 20
13.30410076711831
 30
0.0000000000000284
 10
2334.403291456899
 20
14.23947320319536
 30
0.0000000000000284
 10
2334.455601661543
 20
14.71954169601002
 30
0.0000000000000284
 10
2334.526186552485
 20
15.67514094112306
 30
0.0000000000000284
 10
2334.544303706656
 20
16.15068569976727
 30
0.0000000000000284
 10
2334.544303706656
 20
17.06567883793826
 30
0.0000000000000284
 10
2334.526186552485
 20
17.54122359658248
 30
0.0000000000000284
 10
2334.455601661543
 20
18.49682284169551
 30
0.0000000000000284
 10
2334.403291456899
 20
18.97689133451007
 30
0.0000000000000284
 10
2334.316373073738
 20
19.66901380823441
 30
0.0000000000000284
 10
2334.286821820182
 20
19.89070595682181
 30
0.0000000000000284
 10
2334.257594569327
 20
20.10818226885277
 30
0.0000000000000284
  0
SPLINE
  5
24909
330
1F
100
AcDbEntity
  8
AM_VIS
100
AcDbSpline
210
0.0
220
0.0
230
1.0
 70
     8
 71
     3
 72
    18
 73
    14
 74
     0
 42
0.0000000001
 43
0.0000000001
 40
6.072258403086962
 40
6.072258403086962
 40
6.072258403086962
 40
6.072258403086962
 40
6.091519998582311
 40
6.091519998582311
 40
6.594079983681931
 40
6.594079983681931
 40
7.096639968781531
 40
7.096639968781531
 40
7.59919995388113
 40
7.59919995388113
 40
8.101759938980729
 40
8.101759938980729
 40
8.212872863102431
 40
8.212872863102431
 40
8.212872863102431
 40
8.212872863102431
 10
2334.257594569327
 20
20.10818226885277
 30
0.0000000000000284
 10
2334.256744699126
 20
20.11450604654754
 30
0.0000000000000284
 10
2334.255911324534
 20
20.12082284574711
 30
0.0000000000000284
 10
2334.233780265986
 20
20.29175632263496
 30
0.0000000000000284
 10
2334.223823855109
 20
20.45139703638864
 30
0.0000000000000284
 10
2334.223823855109
 20
20.75106591357638
 30
0.0000000000000284
 10
2334.233780265986
 20
20.90283935018197
 30
0.0000000000000284
 10
2334.276408569864
 20
21.19868105660231
 30
0.0000000000000284
 10
2334.309078311306
 20
21.34275172854717
 30
0.0000000000000284
 10
2334.396443644054
 20
21.6140161897103
 30
0.0000000000000284
 10
2334.451196204788
 20
21.74137205307414
 30
0.0000000000000284
 10
2334.529170086776
 20
21.88291189976593
 30
0.0000000000000284
 10
2334.543726880872
 20
21.90798687556156
 30
0.0000000000000284
 10
2334.558689826857
 20
21.93248591473679
 30
0.0000000000000284
  0
LINE
  5
2490A
330
1F
100
AcDbEntity
  8
AM_VIS
100
AcDbLine
 10
2387.545647511126
 20
-4.741817731147193
 30
0.0
 11
2365.545647511126
 21
-5.125829159567956
 31
0.0
  0
LINE
  5
2490B
330
1F
100
AcDbEntity
  8
AM_VIS
100
AcDbLine
 10
2387.545647511126
 20
-40.04181773114715
 30
0.0
 11
2365.545647511126
 21
-39.65780630272638
 31
0.0
  0
TEXT
  5
24913
330
1F
100
AcDbEntity
  8
AM_REFDIM
100
AcDbText
 10
2381.357760389612
 20
92.56546866406836
 30
0.0
 40
4.0
  1
2-%%c4.2
100
AcDbText
  0
TEXT
  5
24915
330
1F
100
AcDbEntity
  8
AM_REFDIM
100
AcDbText
 10
2438.543579347008
 20
-49.23229690004086
 30
0.0
 40
4.0
  1
2-%%c4.2
100
AcDbText
  0
TEXT
  5
24916
330
1F
100
AcDbEntity
  8
AM_REFDIM
100
AcDbText
 10
2373.037046684483
 20
3.879615639306337
 30
0.0
 40
4.0
  1
3-PT1/4
100
AcDbText
  0
TEXT
  5
24918
330
1F
100
AcDbEntity
  8
AM_REFDIM
100
AcDbText
 10
2360.630510598924
 20
-50.78062969073659
 30
0.0
 40
4.0
  1
2-PT1/8
100
AcDbText
  0
LINE
  5
24C9E
330
1F
100
AcDbEntity
  8
LOGO
 62
     6
100
AcDbLine
 10
2545.855176738356
 20
-87.44708564889879
 30
0.0
 11
2545.855176738358
 21
125.0723218711918
 31
0.0
  0
LINE
  5
24CA0
330
1F
100
AcDbEntity
  8
LOGO
 62
     6
100
AcDbLine
 10
2288.510831953589
 20
125.0723218711918
 30
0.0
 11
2288.510831953589
 21
-87.44708564889879
 31
0.0
  0
DIMENSION
  5
24DCB
330
1F
100
AcDbEntity
  8
AM_REFDIM
100
AcDbDimension
  2
*D3
 10
2417.545647511126
 20
88.99525992551025
 30
0.0
 11
2412.545647511126
 21
91.29525992551025
 31
0.0
 70
    32
  3
STANDARD
100
AcDbAlignedDimension
 13
2407.545647511126
 23
84.98395373259109
 33
0.0
 14
2417.545647511126
 24
63.98395373259109
 34
0.0
100
AcDbRotatedDimension
  0
DIMENSION
  5
24DD8
330
1F
100
AcDbEntity
  8
AM_REFDIM
100
AcDbDimension
  2
*D4
 10
2423.045647511126
 20
52.99295962726365
 30
0.0
 11
2412.545647511126
 21
55.29295962726364
 31
0.0
 70
    32
  3
STANDARD
100
AcDbAlignedDimension
 13
2402.045647511126
 23
63.68395373259113
 33
0.0
 14
2423.045647511126
 24
63.68395373259113
 34
0.0
100
AcDbRotatedDimension
  0
DIMENSION
  5
24DE5
330
1F
100
AcDbEntity
  8
AM_REFDIM
100
AcDbDimension
  2
*D5
 10
2382.999740669939
 20
60.88395373259107
 30
0.0
 11
2380.699740669939
 21
71.38395373259147
 31
0.0
 70
    32
  3
STANDARD
100
AcDbAlignedDimension
 13
2404.445647511126
 23
81.88395373259107
 33
0.0
 14
2414.445647511126
 24
60.88395373259107
 34
0.0
 50
90.0
100
AcDbRotatedDimension
  0
DIMENSION
  5
24DF2
330
1F
100
AcDbEntity
  8
AM_REFDIM
100
AcDbDimension
  2
*D6
 10
2306.456364443179
 20
58.18395373259105
 30
0.0
 11
2304.156364443179
 21
71.3839537325914
 31
0.0
 70
    32
  3
STANDARD
100
AcDbAlignedDimension
 13
2387.54564751112
 23
84.58395373259099
 33
0.0
 14
2387.545647511132
 24
58.18395373259102
 34
0.0
 50
90.0
100
AcDbRotatedDimension
  0
DIMENSION
  5
24DFF
330
1F
100
AcDbEntity
  8
AM_REFDIM
100
AcDbDimension
  2
*D7
 10
2512.545647511126
 20
45.9535163975106
 30
0.0
 11
2412.545647511126
 21
48.25351639751061
 31
0.0
 70
    32
  3
STANDARD
100
AcDbAlignedDimension
 13
2312.545647511126
 23
62.14634942555722
 33
0.0
 14
2512.545647511126
 24
62.14634942555722
 34
0.0
100
AcDbRotatedDimension
  0
DIMENSION
  5
24E0C
330
1F
100
AcDbEntity
  8
AM_REFDIM
100
AcDbDimension
  2
*D8
 10
2422.545647511126
 20
-45.43769210690515
 30
0.0
 11
2412.545647511126
 21
-43.13769210690516
 31
0.0
 70
    32
  3
STANDARD
100
AcDbAlignedDimension
 13
2402.545647511126
 23
-35.99181773114719
 33
0.0
 14
2422.545647511126
 24
-35.99181773114719
 34
0.0
100
AcDbRotatedDimension
  0
DIMENSION
  5
24E19
330
1F
100
AcDbEntity
  8
AM_REFDIM
100
AcDbDimension
  2
*D9
 10
2430.545647511126
 20
-51.13703195176504
 30
0.0
 11
2412.545647511126
 21
-48.83703195176504
 31
0.0
 70
    32
  3
STANDARD
100
AcDbAlignedDimension
 13
2394.545647511126
 23
-40.80863681445618
 33
0.0
 14
2430.545647511126
 24
-40.80863681445618
 34
0.0
100
AcDbRotatedDimension
  0
DIMENSION
  5
24E26
330
1F
100
AcDbEntity
  8
AM_REFDIM
100
AcDbDimension
  2
*D10
 10
2499.045647511126
 20
-57.6166242768345
 30
0.0
 11
2412.545647511126
 21
-55.3166242768345
 31
0.0
 70
    32
  3
STANDARD
100
AcDbAlignedDimension
 13
2326.045647511126
 23
-31.89181773114722
 33
0.0
 14
2499.045647511126
 24
-31.89181773114722
 34
0.0
100
AcDbRotatedDimension
  0
DIMENSION
  5
24E33
330
1F
100
AcDbEntity
  8
AM_REFDIM
100
AcDbDimension
  2
*D11
 10
2508.691384671765
 20
-4.741817731147214
 30
0.0
 11
2506.391384671765
 21
-22.39181773114681
 31
0.0
 70
    32
  3
STANDARD
100
AcDbAlignedDimension
 13
2437.545647511126
 23
-40.0418177311472
 33
0.0
 14
2437.545647511126
 24
-4.741817731147193
 34
0.0
 50
90.0
100
AcDbRotatedDimension
  0
DIMENSION
  5
24E40
330
1F
100
AcDbEntity
  8
AM_REFDIM
100
AcDbDimension
  2
*D12
 10
2519.84103886877
 20
25.60818226885282
 30
0.0
 11
2517.54103886877
 21
-7.21681773114677
 31
0.0
 70
    32
  1
66
  3
STANDARD
100
AcDbAlignedDimension
 13
2437.545647511126
 23
-40.04181773114715
 33
0.0
 14
2503.045647511126
 24
25.60818226885283
 34
0.0
 50
90.0
100
AcDbRotatedDimension
  0
LEADER
  5
24E4D
330
1F
100
AcDbEntity
  8
AM_REFDIM
 62
     1
100
AcDbLeader
  3
STANDARD
 40
3.0
 76
     3
 10
2406.293607775368
 20
83.56989456787619
 30
0.0
 10
2398.756313079616
 20
91.60707021418602
 30
0.0
 10
2381.498953522114
 20
91.60707021418602
 30
0.0
213
0.0
223
1.5
233
0.0
1001
ACAD
1000
DSTYLE
1002
{
1070
     5
1000

1070
    77
1070
     0
1070
   147
1040
0.8
1070
   342
1005
0
1002
}
1000
LEANOF
1010
0.0
1020
1.5
1030
0.0
  0
LEADER
  5
24E4F
330
1F
100
AcDbEntity
  8
AM_REFDIM
 62
     1
100
AcDbLeader
  3
STANDARD
 40
3.0
 76
     3
 10
2402.045647511126
 20
-4.741817731147193
 30
0.0
 10
2393.473972146016
 20
3.013294195781782
 30
0.0
 10
2373.449065316922
 20
3.013294195781782
 30
0.0
213
0.0
223
1.5
233
0.0
1001
ACAD
1000
DSTYLE
1002
{
1070
     5
1000

1070
    77
1070
     0
1070
   147
1040
0.8
1070
   342
1005
0
1002
}
1000
LEANOF
1010
0.0
1020
1.5
1030
0.0
  0
LEADER
  5
24E51
330
1F
100
AcDbEntity
  8
AM_REFDIM
 62
     1
100
AcDbLeader
  3
STANDARD
 40
3.0
 76
     3
 10
2394.545647511126
 20
-40.04181773114715
 30
0.0
 10
2379.96140746313
 20
-52.19785768185602
 30
0.0
 10
2361.06001589508
 20
-52.19785768185602
 30
0.0
213
0.0
223
1.5
233
0.0
1001
ACAD
1000
DSTYLE
1002
{
1070
     5
1000

1070
    77
1070
     0
1070
   147
1040
0.8
1070
   342
1005
0
1002
}
1000
LEANOF
1010
0.0
1020
1.5
1030
0.0
  0
LEADER
  5
24E53
330
1F
100
AcDbEntity
  8
AM_REFDIM
 62
     1
100
AcDbLeader
  3
STANDARD
 40
3.0
 76
     3
 10
2423.412479637158
 20
-34.80456498713243
 30
0.0
 10
2438.382591337566
 20
-50.13426187134928
 30
0.0
 10
2454.572338915425
 20
-50.13426187134928
 30
0.0
213
0.0
223
-1.5
233
0.0
1001
ACAD
1000
DSTYLE
1002
{
1070
     5
1000

1070
    77
1070
     0
1070
   147
1040
0.8
1070
   342
1005
0
1002
}
1000
LEANOF
1010
0.0
1020
-1.5
1030
0.0
  0
LINE
  5
254E7
330
1F
100
AcDbEntity
  8
LOGO
 62
     6
100
AcDbLine
 10
2468.344820390968
 20
-102.4764172603041
 30
0.0
 11
2463.071370945951
 21
-102.4764172603041
 31
0.0
  0
TEXT
  5
254E8
330
1F
100
AcDbEntity
  8
LOGO
  6
CONTINUOUS
 62
     6
100
AcDbText
 10
2458.300154561378
 20
-114.6932423713296
 30
0.0
 40
2.636724844106213
  1
4 Way
 41
0.8
  7
CHINESET
 72
     4
 11
2463.071370945951
 21
-113.8143340899609
 31
0.0
100
AcDbText
  0
LINE
  5
254E9
330
1F
100
AcDbEntity
  8
LOGO
 62
     6
100
AcDbLine
 10
2471.538107476777
 20
-116.451058934067
 30
0.0
 11
2454.604634415125
 21
-116.4510589340671
 31
0.0
  0
TEXT
  5
254EA
330
1F
100
AcDbEntity
  8
LOGO
 62
     6
100
AcDbText
 10
2455.946563742198
 20
-110.6357311479714
 30
0.0
 40
4.21875975056994
  1
4 方向
 41
0.9
  7
CHINESET
 72
     4
 11
2463.071370945951
 21
-108.5408844017484
 31
0.0
100
AcDbText
  0
LINE
  5
254EB
330
1F
100
AcDbEntity
  8
LOGO
 62
     6
100
AcDbLine
 10
2471.538107476777
 20
-104.8494696199997
 30
0.0
 11
2454.604634415125
 21
-104.8494696199997
 31
0.0
  0
LINE
  5
254EC
330
1F
100
AcDbEntity
  8
LOGO
 62
     1
100
AcDbLine
 10
2545.855176738356
 20
-119.0877837781733
 30
0.0
 11
2288.510831953589
 21
-119.0877837781733
 31
0.0
  0
LINE
  5
254ED
330
1F
100
AcDbEntity
  8
LOGO
 62
     1
100
AcDbLine
 10
2545.855176738356
 20
-87.44708564889879
 30
0.0
 11
2288.510831953589
 21
-87.44708564889879
 31
0.0
  0
TEXT
  5
254EE
330
1F
100
AcDbEntity
  8
LOGO
  6
CONTINUOUS
 62
     5
100
AcDbText
 10
2290.905483559742
 20
-117.6190509644614
 30
0.0
 40
3.164069812927456
  1
MINDMAN INDUSTRIAL CO.,LTD
 41
0.85
  7
CHINESET
100
AcDbText
  0
LINE
  5
254EF
330
1F
100
AcDbEntity
  8
LOGO
 62
     1
100
AcDbLine
 10
2358.120367837993
 20
-119.0877837781733
 30
0.0
 11
2358.120367837993
 21
-87.44708564889879
 31
0.0
  0
LINE
  5
254F0
330
1F
100
AcDbEntity
  8
LOGO
 62
     1
100
AcDbLine
 10
2288.510831953589
 20
-119.0877837781733
 30
0.0
 11
2288.510831953589
 21
-87.44708564889879
 31
0.0
  0
LINE
  5
254F1
330
1F
100
AcDbEntity
  8
LOGO
 62
     1
100
AcDbLine
 10
2358.120367837993
 20
-106.4315045264634
 30
0.0
 11
2288.510831953589
 21
-106.4315045264634
 31
0.0
  0
LINE
  5
254F2
330
1F
100
AcDbEntity
  8
LOGO
 62
     1
100
AcDbLine
 10
2358.120367837993
 20
-100.1033649006086
 30
0.0
 11
2311.714010581724
 21
-100.1033649006086
 31
0.0
  0
LINE
  5
254F3
330
1F
100
AcDbEntity
  8
LOGO
 62
     1
100
AcDbLine
 10
2358.120367837993
 20
-93.77522527475369
 30
0.0
 11
2311.714010581724
 21
-93.77522527475369
 31
0.0
  0
TEXT
  5
254F4
330
1F
100
AcDbEntity
  8
LOGO
  6
CONTINUOUS
 62
     5
100
AcDbText
 10
2289.546485425851
 20
-112.8720163806542
 30
0.0
 40
4.746104719391183
  1
金器工業股份有限公司
 41
0.8
  7
LOGO
100
AcDbText
  0
SOLID
  5
254F5
330
1F
100
AcDbEntity
  8
LOGO
 62
     2
100
AcDbTrace
 10
2307.314018635373
 20
-88.19869884863997
 30
0.0
 11
2307.880112743754
 21
-88.19869884864084
 31
0.0
 12
2307.314018635373
 22
-101.1716888323453
 32
0.0
 13
2307.880112743754
 23
-101.1716888323453
 33
0.0
  0
SOLID
  5
254F6
330
1F
100
AcDbEntity
  8
LOGO
 62
     2
100
AcDbTrace
 10
2300.237842280626
 20
-101.1716888323448
 30
0.0
 11
2300.803936389006
 21
-101.1716888323448
 31
0.0
 12
2307.314018635373
 22
-88.19869884863997
 32
0.0
 13
2307.880112743754
 23
-88.19869884864084
 33
0.0
  0
SOLID
  5
254F7
330
1F
100
AcDbEntity
  8
LOGO
 62
     5
100
AcDbTrace
 10
2307.361193144406
 20
-105.8891397355099
 30
0.0
 11
2307.832938234722
 21
-105.8891397355099
 31
0.0
 12
2307.361193144406
 22
-103.5304142839275
 32
0.0
 13
2307.832938234722
 23
-103.5304142839275
 33
0.0
  0
POLYLINE
  5
254F8
330
1F
100
AcDbEntity
  8
LOGO
 62
     5
100
AcDb2dPolyline
 66
     1
 10
0.0
 20
0.0
 30
0.0
 40
0.4725010920638334
 41
0.4725010920638334
  0
VERTEX
  5
26B16
330
254F8
100
AcDbEntity
  8
LOGO
 62
     5
100
AcDbVertex
100
AcDb2dVertex
 10
2309.013434963135
 20
-104.4739044645606
 30
0.0
 42
1.0
  0
VERTEX
  5
26B17
330
254F8
100
AcDbEntity
  8
LOGO
 62
     5
100
AcDbVertex
100
AcDb2dVertex
 10
2307.595931686943
 20
-104.4739044645606
 30
0.0
 42
1.0
  0
SEQEND
  5
26B18
330
254F8
100
AcDbEntity
  8
LOGO
 62
     5
  0
SOLID
  5
254F9
330
1F
100
AcDbEntity
  8
LOGO
 62
     2
100
AcDbTrace
 10
2300.237842280626
 20
-88.19869884864084
 30
0.0
 11
2300.803936389006
 21
-88.19869884864084
 31
0.0
 12
2300.237842280626
 22
-101.1716888323448
 32
0.0
 13
2300.803936389006
 23
-101.1716888323448
 33
0.0
  0
SOLID
  5
254FA
330
1F
100
AcDbEntity
  8
LOGO
 62
     2
100
AcDbTrace
 10
2293.161665925878
 20
-101.1716888323453
 30
0.0
 11
2293.727760034259
 21
-101.1716888323448
 31
0.0
 12
2300.237842280626
 22
-88.19869884864084
 32
0.0
 13
2300.803936389006
 23
-88.19869884864084
 33
0.0
  0
SOLID
  5
254FB
330
1F
100
AcDbEntity
  8
LOGO
 62
     5
100
AcDbTrace
 10
2306.339063057218
 20
-103.5304142839275
 30
0.0
 11
2306.810808147534
 21
-103.5304142839275
 31
0.0
 12
2306.339063057218
 22
-105.8891397355099
 32
0.0
 13
2306.810808147534
 23
-105.8891397355099
 33
0.0
  0
POLYLINE
  5
254FC
330
1F
100
AcDbEntity
  8
LOGO
 62
     5
100
AcDb2dPolyline
 66
     1
 10
0.0
 20
0.0
 30
0.0
 70
     1
 40
0.4725010920638334
 41
0.4725010920638334
  0
VERTEX
  5
26B19
330
254FC
100
AcDbEntity
  8
LOGO
 62
     5
100
AcDbVertex
100
AcDb2dVertex
 10
2304.686490412123
 20
-104.7097770097189
 30
0.0
 42
1.0
  0
VERTEX
  5
26B1A
330
254FC
100
AcDbEntity
  8
LOGO
 62
     5
100
AcDbVertex
100
AcDb2dVertex
 10
2306.576494780378
 20
-104.7097770097189
 30
0.0
 42
1.0
  0
SEQEND
  5
26B1B
330
254FC
100
AcDbEntity
  8
LOGO
 62
     5
  0
SOLID
  5
254FD
330
1F
100
AcDbEntity
  8
LOGO
 62
     5
100
AcDbTrace
 10
2303.429952608762
 20
-104.4739044645606
 30
0.0
 11
2303.901697699078
 21
-104.4739044645606
 31
0.0
 12
2303.429952608762
 22
-105.8891397355107
 32
0.0
 13
2303.901697699078
 23
-105.8891397355107
 33
0.0
  0
SOLID
  5
254FE
330
1F
100
AcDbEntity
  8
LOGO
 62
     5
100
AcDbTrace
 10
2302.014717337812
 20
-104.4739044645606
 30
0.0
 11
2302.486462428129
 21
-104.4739044645606
 31
0.0
 12
2302.014717337812
 22
-105.8891397355099
 32
0.0
 13
2302.486462428129
 23
-105.8891397355099
 33
0.0
  0
POLYLINE
  5
254FF
330
1F
100
AcDbEntity
  8
LOGO
 62
     5
100
AcDb2dPolyline
 66
     1
 10
0.0
 20
0.0
 30
0.0
 40
0.4725010920638334
 41
0.4725010920638334
  0
VERTEX
  5
26B1C
330
254FF
100
AcDbEntity
  8
LOGO
 62
     5
100
AcDbVertex
100
AcDb2dVertex
 10
2303.666959156541
 20
-104.4739044645606
 30
0.0
 42
1.0
  0
VERTEX
  5
26B1D
330
254FF
100
AcDbEntity
  8
LOGO
 62
     5
100
AcDbVertex
100
AcDb2dVertex
 10
2302.24945588035
 20
-104.4739044645606
 30
0.0
 42
1.0
  0
SEQEND
  5
26B1E
330
254FF
100
AcDbEntity
  8
LOGO
 62
     5
  0
POLYLINE
  5
25500
330
1F
100
AcDbEntity
  8
LOGO
 62
     5
100
AcDb2dPolyline
 66
     1
 10
0.0
 20
0.0
 30
0.0
 40
0.4725010920638334
 41
0.4725010920638334
  0
VERTEX
  5
26B1F
330
25500
100
AcDbEntity
  8
LOGO
 62
     5
100
AcDbVertex
100
AcDb2dVertex
 10
2302.251723885592
 20
-104.4739044645606
 30
0.0
 42
1.0
  0
VERTEX
  5
26B20
330
25500
100
AcDbEntity
  8
LOGO
 62
     5
100
AcDbVertex
100
AcDb2dVertex
 10
2300.8342206094
 20
-104.4739044645606
 30
0.0
 42
1.0
  0
SEQEND
  5
26B21
330
25500
100
AcDbEntity
  8
LOGO
 62
     5
  0
SOLID
  5
25501
330
1F
100
AcDbEntity
  8
LOGO
 62
     5
100
AcDbTrace
 10
2300.599482066864
 20
-103.5304142839275
 30
0.0
 11
2301.07122715718
 21
-103.5304142839275
 31
0.0
 12
2300.599482066864
 22
-105.8891397355099
 32
0.0
 13
2301.07122715718
 23
-105.8891397355099
 33
0.0
  0
SOLID
  5
25502
330
1F
100
AcDbEntity
  8
LOGO
 62
     5
100
AcDbTrace
 10
2299.577351979674
 20
-102.8227966484525
 30
0.0
 11
2300.04909706999
 21
-102.8227966484525
 31
0.0
 12
2299.577351979674
 22
-105.8891397355099
 32
0.0
 13
2300.04909706999
 23
-105.8891397355099
 33
0.0
  0
POLYLINE
  5
25503
330
1F
100
AcDbEntity
  8
LOGO
 62
     5
100
AcDb2dPolyline
 66
     1
 10
0.0
 20
0.0
 30
0.0
 70
     1
 40
0.4725010920638334
 41
0.4725010920638334
  0
VERTEX
  5
26B22
330
25503
100
AcDbEntity
  8
LOGO
 62
     5
100
AcDbVertex
100
AcDb2dVertex
 10
2297.92477933458
 20
-104.7097770097189
 30
0.0
 42
1.0
  0
VERTEX
  5
26B23
330
25503
100
AcDbEntity
  8
LOGO
 62
     5
100
AcDbVertex
100
AcDb2dVertex
 10
2299.814783702835
 20
-104.7097770097189
 30
0.0
 42
1.0
  0
SEQEND
  5
26B24
330
25503
100
AcDbEntity
  8
LOGO
 62
     5
  0
SOLID
  5
25504
330
1F
100
AcDbEntity
  8
LOGO
 62
     5
100
AcDbTrace
 10
2296.668241531219
 20
-104.4739044645606
 30
0.0
 11
2297.139986621536
 21
-104.4739044645606
 31
0.0
 12
2296.668241531219
 22
-105.8891397355099
 32
0.0
 13
2297.139986621536
 23
-105.8891397355099
 33
0.0
  0
SOLID
  5
25505
330
1F
100
AcDbEntity
  8
LOGO
 62
     5
100
AcDbTrace
 10
2295.25300626027
 20
-103.5304142839275
 30
0.0
 11
2295.724751350586
 21
-103.5304142839275
 31
0.0
 12
2295.25300626027
 22
-105.8891397355099
 32
0.0
 13
2295.724751350586
 23
-105.8891397355099
 33
0.0
  0
POLYLINE
  5
25506
330
1F
100
AcDbEntity
  8
LOGO
 62
     5
100
AcDb2dPolyline
 66
     1
 10
0.0
 20
0.0
 30
0.0
 40
0.4725010920638334
 41
0.4725010920638334
  0
VERTEX
  5
26B25
330
25506
100
AcDbEntity
  8
LOGO
 62
     5
100
AcDbVertex
100
AcDb2dVertex
 10
2296.905248078998
 20
-104.4739044645606
 30
0.0
 42
1.0
  0
VERTEX
  5
26B26
330
25506
100
AcDbEntity
  8
LOGO
 62
     5
100
AcDbVertex
100
AcDb2dVertex
 10
2295.487744802807
 20
-104.4739044645606
 30
0.0
 42
1.0
  0
SEQEND
  5
26B27
330
25506
100
AcDbEntity
  8
LOGO
 62
     5
  0
SOLID
  5
25507
330
1F
100
AcDbEntity
  8
LOGO
 62
     5
100
AcDbTrace
 10
2294.23087617308
 20
-103.5304142839275
 30
0.0
 11
2294.702621263398
 21
-103.5304142839275
 31
0.0
 12
2294.23087617308
 22
-105.8891397355107
 32
0.0
 13
2294.702621263398
 23
-105.8891397355099
 33
0.0
  0
SOLID
  5
25508
330
1F
100
AcDbEntity
  8
LOGO
 62
     5
100
AcDbTrace
 10
2294.23087617308
 20
-103.2001927207062
 30
0.0
 11
2294.702621263398
 21
-103.2001927207062
 31
0.0
 12
2294.23087617308
 22
-102.8227966484525
 32
0.0
 13
2294.702621263398
 23
-102.8227966484525
 33
0.0
  0
SOLID
  5
25509
330
1F
100
AcDbEntity
  8
LOGO
 62
     5
100
AcDbTrace
 10
2293.200700237715
 20
-103.5304142839275
 30
0.0
 11
2293.672445328031
 21
-103.5304142839275
 31
0.0
 12
2293.200700237715
 22
-105.8891397355099
 32
0.0
 13
2293.672445328031
 23
-105.8891397355099
 33
0.0
  0
SOLID
  5
2550A
330
1F
100
AcDbEntity
  8
LOGO
 62
     5
100
AcDbTrace
 10
2291.400484255363
 20
-105.8891397355099
 30
0.0
 11
2291.872229345679
 21
-105.8891397355099
 31
0.0
 12
2293.200700237715
 22
-103.5304142839275
 32
0.0
 13
2293.672445328031
 23
-103.5304142839275
 33
0.0
  0
SOLID
  5
2550B
330
1F
100
AcDbEntity
  8
LOGO
 62
     5
100
AcDbTrace
 10
2291.400484255363
 20
-103.5304142839275
 30
0.0
 11
2291.872229345679
 21
-103.5304142839275
 31
0.0
 12
2291.400484255363
 22
-105.8891397355099
 32
0.0
 13
2291.872229345679
 23
-105.8891397355099
 33
0.0
  0
SOLID
  5
2550C
330
1F
100
AcDbEntity
  8
LOGO
 62
     5
100
AcDbTrace
 10
2289.600268273011
 20
-105.8891397355099
 30
0.0
 11
2290.072013363328
 21
-105.8891397355099
 31
0.0
 12
2291.400484255363
 22
-103.5304142839275
 32
0.0
 13
2291.872229345679
 23
-103.5304142839275
 33
0.0
  0
SOLID
  5
2550D
330
1F
100
AcDbEntity
  8
LOGO
 62
     5
100
AcDbTrace
 10
2307.314018635373
 20
-89.23653804733687
 30
0.0
 11
2305.945957873456
 21
-94.25276084103623
 31
0.0
 12
2307.314018635373
 22
-101.1716888323453
 32
0.0
 13
2305.945957873456
 23
-101.1716888323453
 33
0.0
  0
SOLID
  5
2550E
330
1F
100
AcDbEntity
  8
LOGO
 62
     5
100
AcDbTrace
 10
2300.803936389006
 20
-101.1716888323448
 30
0.0
 11
2302.171997150924
 21
-101.1716888323448
 31
0.0
 12
2307.314018635373
 22
-89.23653804733687
 32
0.0
 13
2305.945957873456
 23
-94.25276084103623
 33
0.0
  0
SOLID
  5
2550F
330
1F
100
AcDbEntity
  8
LOGO
 62
     5
100
AcDbTrace
 10
2300.803936389006
 20
-100.1338496336488
 30
0.0
 11
2302.171997150924
 21
-95.1176268399495
 31
0.0
 12
2307.314018635373
 22
-88.19869884863997
 32
0.0
 13
2305.945957873456
 23
-88.19869884863997
 33
0.0
  0
SOLID
  5
25510
330
1F
100
AcDbEntity
  8
LOGO
 62
     5
100
AcDbTrace
 10
2300.803936389006
 20
-88.19869884864084
 30
0.0
 11
2302.171997150924
 21
-88.19869884863997
 31
0.0
 12
2300.803936389006
 22
-100.1338496336488
 32
0.0
 13
2302.171997150924
 23
-95.1176268399495
 33
0.0
  0
SOLID
  5
25511
330
1F
100
AcDbEntity
  8
LOGO
 62
     5
100
AcDbTrace
 10
2298.869781518708
 20
-101.1716888323448
 30
0.0
 11
2300.237842280626
 21
-101.1716888323448
 31
0.0
 12
2298.869781518708
 22
-94.25276084103623
 32
0.0
 13
2300.237842280626
 23
-89.23653804733687
 33
0.0
  0
SOLID
  5
25512
330
1F
100
AcDbEntity
  8
LOGO
 62
     5
100
AcDbTrace
 10
2293.727760034259
 20
-101.1716888323448
 30
0.0
 11
2295.095820796177
 21
-101.1716888323448
 31
0.0
 12
2300.237842280626
 22
-89.23653804733687
 32
0.0
 13
2298.869781518708
 23
-94.25276084103623
 33
0.0
  0
SOLID
  5
25513
330
1F
100
AcDbEntity
  8
LOGO
 62
     5
100
AcDbTrace
 10
2291.79360516396
 20
-101.1716888323448
 30
0.0
 11
2293.161665925878
 21
-101.1716888323453
 31
0.0
 12
2298.869781518708
 22
-88.19869884863997
 32
0.0
 13
2300.237842280626
 23
-88.19869884864084
 33
0.0
  0
CIRCLE
  5
25514
330
1F
100
AcDbEntity
  8
LOGO
 62
     5
100
AcDbCircle
 10
2305.631492596251
 20
-104.7097770097187
 30
0.0
 40
0.7076176354747971
  0
POLYLINE
  5
25515
330
1F
100
AcDbEntity
  8
LOGO
 62
     5
100
AcDb2dPolyline
 66
     1
 10
0.0
 20
0.0
 30
0.0
 70
     1
  0
VERTEX
  5
26B28
330
25515
100
AcDbEntity
  8
LOGO
 62
     5
100
AcDbVertex
100
AcDb2dVertex
 10
2304.923874960776
 20
-104.7097770097187
 30
0.0
 42
1.000000057330635
  0
VERTEX
  5
26B29
330
25515
100
AcDbEntity
  8
LOGO
 62
     5
100
AcDbVertex
100
AcDb2dVertex
 10
2306.339110231726
 20
-104.7097770097187
 30
0.0
 42
1.000000057330635
  0
SEQEND
  5
26B2A
330
25515
100
AcDbEntity
  8
LOGO
 62
     5
  0
SOLID
  5
25516
330
1F
100
AcDbEntity
  8
LOGO
 62
     5
100
AcDbTrace
 10
2308.776428415356
 20
-104.4739044645606
 30
0.0
 11
2309.248173505672
 21
-104.4739044645607
 31
0.0
 12
2308.776428415356
 22
-105.8891397355099
 32
0.0
 13
2309.248173505672
 23
-105.8891397355099
 33
0.0
  0
LINE
  5
25517
330
1F
100
AcDbEntity
  8
LOGO
 62
     5
100
AcDbLine
 10
2309.248173505672
 20
-105.8891397355099
 30
0.0
 11
2309.248173505672
 21
-104.4739044645606
 31
0.0
  0
SOLID
  5
25518
330
1F
100
AcDbEntity
  8
LOGO
 62
     5
100
AcDbTrace
 10
2307.880112743754
 20
-101.1716888323453
 30
0.0
 11
2309.248173505672
 21
-101.1716888323453
 31
0.0
 12
2307.880112743754
 22
-88.19869884864084
 32
0.0
 13
2309.248173505672
 23
-88.19869884863997
 33
0.0
  0
LINE
  5
25519
330
1F
100
AcDbEntity
  8
LOGO
 62
     1
100
AcDbLine
 10
2311.714010581724
 20
-106.4315045264635
 30
0.0
 11
2311.714010581724
 21
-87.44708564889879
 31
0.0
  0
TEXT
  5
2551A
330
1F
100
AcDbEntity
  8
LOGO
 62
     6
100
AcDbText
 10
2315.428967549581
 20
-98.47682228639254
 30
0.0
 40
3.164069812927456
  1
投影 View:
 41
0.9
  7
CHINESET
 72
     4
 11
2324.370289833434
 21
-96.93929508768119
 31
0.0
100
AcDbText
  0
LINE
  5
2551B
330
1F
100
AcDbEntity
  8
LOGO
 62
     1
100
AcDbLine
 10
2337.026569085144
 20
-106.4315045264635
 30
0.0
 11
2337.026569085144
 21
-87.44708564889879
 31
0.0
  0
TEXT
  5
2551C
330
1F
100
AcDbEntity
  8
LOGO
 62
     6
100
AcDbText
 10
2314.322955646223
 20
-92.19163324731905
 30
0.0
 40
3.164069812927456
  1
比例 Scale:
 41
0.9
  7
CHINESET
 72
     4
 11
2324.370289833434
 21
-90.61115546182625
 31
0.0
100
AcDbText
  0
TEXT
  5
2551D
330
1F
100
AcDbEntity
  8
LOGO
 62
     6
100
AcDbText
 10
2315.738311875041
 20
-104.8494696199998
 30
0.0
 40
3.164069812927456
  1
單位 Unit:
 41
0.9
  7
CHINESET
 72
     4
 11
2324.370289833434
 21
-103.267434713536
 31
0.0
100
AcDbText
  0
TEXT
  5
2551E
330
1F
100
AcDbEntity
  8
LOGO
 62
     7
100
AcDbText
 10
2360.710313645803
 20
-95.36919686339771
 30
0.0
 40
6.328139625854912
  1
訂購代號:
  7
CHINESET
100
AcDbText
  0
TEXT
  5
2551F
330
1F
100
AcDbEntity
  8
LOGO
 62
     7
100
AcDbText
 10
2359.953433258827
 20
-101.3083370868478
 30
0.0
 40
4.21875975056994
  1
Order example:
 41
0.8
  7
CHINESET
100
AcDbText
  0
LINE
  5
25520
330
1F
100
AcDbEntity
  8
LOGO
 62
     6
100
AcDbLine
 10
2354.429999602128
 20
-98.76966052639112
 30
0.0
 11
2354.429999602128
 21
-95.09539371200331
 31
0.0
  0
LINE
  5
25521
330
1F
100
AcDbEntity
  8
LOGO
 62
     6
100
AcDbLine
 10
2348.670691827064
 20
-98.00892466359385
 30
0.0
 11
2348.670691827064
 21
-95.85612957480064
 31
0.0
  0
LINE
  5
25522
330
1F
100
AcDbEntity
  8
LOGO
  6
CONTINUOUS
 62
     6
100
AcDbLine
 10
2348.670691827064
 20
-98.00892466359385
 30
0.0
 11
2354.429999602128
 21
-98.76966052639112
 31
0.0
  0
LINE
  5
25523
330
1F
100
AcDbEntity
  8
LOGO
  6
CONTINUOUS
 62
     6
100
AcDbLine
 10
2348.670691827064
 20
-95.85612957480064
 30
0.0
 11
2354.429999602128
 21
-95.09539371200331
 31
0.0
  0
CIRCLE
  5
25524
330
1F
100
AcDbEntity
  8
LOGO
  6
CONTINUOUS
 62
     6
100
AcDbCircle
 10
2342.885240099375
 20
-96.9325271191972
 30
0.0
 40
1.076397544396604
  0
CIRCLE
  5
25525
330
1F
100
AcDbEntity
  8
LOGO
  6
CONTINUOUS
 62
     6
100
AcDbCircle
 10
2342.885240099375
 20
-96.9325271191972
 30
0.0
 40
1.83713340719391
  0
TEXT
  5
25526
330
1F
100
AcDbEntity
  8
LOGO
 62
     6
100
AcDbText
 10
2341.773195517676
 20
-92.19319036828997
 30
0.0
 40
3.164069812927456
  1
1 : 1
  7
CHINESET
 72
     1
 11
2347.347985188072
 21
-90.61115546182625
 31
0.0
100
AcDbText
 73
     2
  0
TEXT
  5
25527
330
1F
100
AcDbEntity
  8
LOGO
 62
     6
100
AcDbText
 10
2341.773195517676
 20
-104.8494696199998
 30
0.0
 40
3.164069812927456
  1
m/m
  7
CHINESET
 72
     1
 11
2347.347985188072
 21
-103.267434713536
 31
0.0
100
AcDbText
 73
     2
  0
TEXT
  5
25528
330
1F
100
AcDbEntity
  8
LOGO
  6
CONTINUOUS
 62
     6
100
AcDbText
 10
2429.177379059875
 20
-114.6932423713296
 30
0.0
 40
2.636724844106213
  1
Body width
  7
CHINESET
 72
     4
 11
2439.724278436299
 21
-113.8143340899609
 31
0.0
100
AcDbText
  0
TEXT
  5
25529
330
1F
100
AcDbEntity
  8
LOGO
 62
     6
100
AcDbText
 10
2431.28675893516
 20
-110.5760415107525
 30
0.0
 40
4.21875975056994
  1
本體寬幅
  7
CHINESET
 72
     4
 11
2439.724278436299
 21
-108.5408844017484
 31
0.0
100
AcDbText
  0
LINE
  5
2552A
330
1F
100
AcDbEntity
  8
LOGO
 62
     6
100
AcDbLine
 10
2451.355084780053
 20
-104.8494696199997
 30
0.0
 11
2428.093472092546
 21
-104.8494696199997
 31
0.0
  0
LINE
  5
2552B
330
1F
100
AcDbEntity
  8
LOGO
 62
     6
100
AcDbLine
 10
2451.355084780053
 20
-116.4510589340671
 30
0.0
 11
2428.093472092546
 21
-116.4510589340671
 31
0.0
  0
LINE
  5
2552C
330
1F
100
AcDbEntity
  8
LOGO
  6
CONTINUOUS
 62
     7
100
AcDbLine
 10
2428.588667365445
 20
-95.39088308717325
 30
0.0
 11
2432.780080698279
 21
-95.39088308717325
 31
0.0
  0
LINE
  5
2552D
330
1F
100
AcDbEntity
  8
LOGO
 62
     6
100
AcDbLine
 10
2424.843922457474
 20
-116.4510589340671
 30
0.0
 11
2403.750123704623
 21
-116.4510589340671
 31
0.0
  0
LINE
  5
2552E
330
1F
100
AcDbEntity
  8
LOGO
 62
     6
100
AcDbLine
 10
2424.843922457474
 20
-104.8494696199997
 30
0.0
 11
2403.750123704623
 21
-104.8494696199997
 31
0.0
  0
LINE
  5
2552F
330
1F
100
AcDbEntity
  8
LOGO
 62
     6
100
AcDbLine
 10
2426.953302332758
 20
-100.1033649006086
 30
0.0
 11
2401.640743829339
 21
-100.1033649006086
 31
0.0
  0
LINE
  5
25530
330
1F
100
AcDbEntity
  8
LOGO
 62
     6
100
AcDbLine
 10
2426.953302332758
 20
-90.61115546182625
 30
0.0
 11
2401.640743829339
 21
-90.61115546182625
 31
0.0
  0
LINE
  5
25531
330
1F
100
AcDbEntity
  8
LOGO
 62
     6
100
AcDbLine
 10
2424.843922457474
 20
-104.8494696199997
 30
0.0
 11
2424.843922457474
 21
-116.4510589340671
 31
0.0
  0
LINE
  5
25532
330
1F
100
AcDbEntity
  8
LOGO
 62
     6
100
AcDbLine
 10
2426.953302332758
 20
-90.61115546182625
 30
0.0
 11
2426.953302332758
 21
-100.1033649006086
 31
0.0
  0
TEXT
  5
25533
330
1F
100
AcDbEntity
  8
LOGO
  6
CONTINUOUS
 62
     7
100
AcDbText
 10
2404.629031985992
 20
-97.99398502532365
 30
0.0
 40
5.273449688212426
  1
MVSE
  7
CHINESET
 72
     1
 11
2414.297023081048
 21
-95.35726018121744
 31
0.0
100
AcDbText
 73
     2
  0
TEXT
  5
25534
330
1F
100
AcDbEntity
  8
LOGO
  6
CONTINUOUS
 62
     6
100
AcDbText
 10
2409.274690044655
 20
-115.132696512014
 30
0.0
 40
2.636724844106213
  1
Model
  7
CHINESET
 72
     4
 11
2414.297023081048
 21
-113.8143340899609
 31
0.0
100
AcDbText
  0
LINE
  5
25535
330
1F
100
AcDbEntity
  8
LOGO
 62
     6
100
AcDbLine
 10
2401.640743829339
 20
-90.61115546182625
 30
0.0
 11
2401.640743829339
 21
-100.1033649006086
 31
0.0
  0
LINE
  5
25536
330
1F
100
AcDbEntity
  8
LOGO
 62
     6
100
AcDbLine
 10
2403.750123704623
 20
-104.8494696199997
 30
0.0
 11
2403.750123704623
 21
-116.4510589340671
 31
0.0
  0
LINE
  5
25537
330
1F
100
AcDbEntity
  8
LOGO
 62
     6
100
AcDbLine
 10
2414.297023081048
 20
-100.1033649006086
 30
0.0
 11
2414.297023081048
 21
-104.8494696199997
 31
0.0
  0
LINE
  5
25538
330
1F
100
AcDbEntity
  8
LOGO
 62
     6
100
AcDbLine
 10
2428.093472092546
 20
-104.8494696199997
 30
0.0
 11
2428.093472092546
 21
-116.4510589340671
 31
0.0
  0
TEXT
  5
25539
330
1F
100
AcDbEntity
  8
LOGO
 62
     6
100
AcDbText
 10
2410.078263330479
 20
-110.5423038897157
 30
0.0
 40
4.21875975056994
  1
型式
  7
CHINESET
 72
     4
 11
2414.297023081048
 21
-108.5408844017484
 31
0.0
100
AcDbText
  0
LINE
  5
2553A
330
1F
100
AcDbEntity
  8
LOGO
 62
     6
100
AcDbLine
 10
2439.724278436299
 20
-104.8494696199997
 30
0.0
 11
2439.724278436299
 21
-102.4764172603042
 31
0.0
  0
LINE
  5
2553B
330
1F
100
AcDbEntity
  8
LOGO
 62
     6
100
AcDbLine
 10
2446.052418062155
 20
-102.4764172603042
 30
0.0
 11
2439.724278436299
 21
-102.4764172603042
 31
0.0
  0
LINE
  5
2553C
330
1F
100
AcDbEntity
  8
LOGO
 62
     6
100
AcDbLine
 10
2463.071370945951
 20
-104.8494696199997
 30
0.0
 11
2463.071370945951
 21
-102.4764172603041
 31
0.0
  0
LINE
  5
2553D
330
1F
100
AcDbEntity
  8
LOGO
  6
CONTINUOUS
 62
     7
100
AcDbLine
 10
2459.318589438594
 20
-95.39088308717319
 30
0.0
 11
2463.510002771428
 21
-95.39088308717319
 31
0.0
  0
LINE
  5
2553E
330
1F
100
AcDbEntity
  8
LOGO
 62
     6
100
AcDbLine
 10
2454.604634415125
 20
-104.8494696199997
 30
0.0
 11
2454.604634415125
 21
-116.451058934067
 31
0.0
  0
TEXT
  5
2553F
330
1F
100
AcDbEntity
  8
LOGO
  6
CONTINUOUS
 62
     7
100
AcDbText
 10
2439.272268463024
 20
-98.05378627708268
 30
0.0
 40
5.273449688212426
  1
260
  7
CHINESET
 72
     1
 11
2446.052418062155
 21
-95.41706143297647
 31
0.0
100
AcDbText
 73
     2
  0
LINE
  5
25540
330
1F
100
AcDbEntity
  8
LOGO
 62
     6
100
AcDbLine
 10
2457.683224405908
 20
-90.61115546182618
 30
0.0
 11
2457.683224405908
 21
-100.1033649006086
 31
0.0
  0
LINE
  5
25541
330
1F
100
AcDbEntity
  8
LOGO
 62
     6
100
AcDbLine
 10
2434.421611718401
 20
-90.61115546182625
 30
0.0
 11
2434.421611718401
 21
-100.1033649006086
 31
0.0
  0
LINE
  5
25542
330
1F
100
AcDbEntity
  8
LOGO
 62
     6
100
AcDbLine
 10
2457.683224405908
 20
-90.61115546182618
 30
0.0
 11
2434.421611718401
 21
-90.61115546182625
 31
0.0
  0
LINE
  5
25543
330
1F
100
AcDbEntity
  8
LOGO
 62
     6
100
AcDbLine
 10
2446.052418062155
 20
-100.1033649006086
 30
0.0
 11
2446.052418062155
 21
-102.4764172603042
 31
0.0
  0
LINE
  5
25544
330
1F
100
AcDbEntity
  8
LOGO
 62
     6
100
AcDbLine
 10
2457.683224405908
 20
-100.1033649006086
 30
0.0
 11
2434.421611718401
 21
-100.1033649006086
 31
0.0
  0
LINE
  5
25545
330
1F
100
AcDbEntity
  8
LOGO
 62
     6
100
AcDbLine
 10
2451.355084780053
 20
-104.8494696199997
 30
0.0
 11
2451.355084780053
 21
-116.4510589340671
 31
0.0
  0
LINE
  5
25546
330
1F
100
AcDbEntity
  8
LOGO
 62
     1
100
AcDbLine
 10
2545.855176738356
 20
-119.0877837781733
 30
0.0
 11
2545.855176738356
 21
-87.44708564889879
 31
0.0
  0
TEXT
  5
25547
330
1F
100
AcDbEntity
  8
LOGO
  6
CONTINUOUS
 62
     6
100
AcDbText
 10
2520.172397432269
 20
-115.1326965120139
 30
0.0
 40
2.636724844106213
  1
LED indicator
 41
0.8
  7
CHINESET
 72
     4
 11
2530.618850147966
 21
-113.8143340899608
 31
0.0
100
AcDbText
  0
LINE
  5
25548
330
1F
100
AcDbEntity
  8
LOGO
 62
     6
100
AcDbLine
 10
2541.722311522898
 20
-116.4510589340669
 30
0.0
 11
2519.515388773033
 21
-116.4510589340669
 31
0.0
  0
LINE
  5
25549
330
1F
100
AcDbEntity
  8
LOGO
 62
     6
100
AcDbLine
 10
2541.722311522898
 20
-104.8494696199996
 30
0.0
 11
2519.515388773033
 21
-104.8494696199996
 31
0.0
  0
TEXT
  5
2554A
330
1F
100
AcDbEntity
  8
LOGO
 62
     6
100
AcDbText
 10
2524.963075357359
 20
-110.6063188629648
 30
0.0
 40
4.21875975056994
  1
附燈型
 41
0.9
  7
CHINESET
 72
     4
 11
2530.618850147966
 21
-108.5408844017483
 31
0.0
100
AcDbText
  0
TEXT
  5
2554B
330
1F
100
AcDbEntity
  8
LOGO
  6
CONTINUOUS
 62
     6
100
AcDbText
 10
2473.818919199691
 20
-115.1326965120139
 30
0.0
 40
2.636724844106213
  1
Duble solenoid
 41
0.8
  7
CHINESET
 72
     4
 11
2485.068945201211
 21
-113.8143340899608
 31
0.0
100
AcDbText
  0
LINE
  5
2554C
330
1F
100
AcDbEntity
  8
LOGO
 62
     6
100
AcDbLine
 10
2519.429909194085
 20
-90.61115546182604
 30
0.0
 11
2492.370102773517
 21
-90.61115546182604
 31
0.0
  0
LINE
  5
2554D
330
1F
100
AcDbEntity
  8
LOGO
 62
     6
100
AcDbLine
 10
2519.429909194085
 20
-100.1033649006085
 30
0.0
 11
2492.370102773517
 21
-100.1033649006085
 31
0.0
  0
LINE
  5
2554E
330
1F
100
AcDbEntity
  8
LOGO
 62
     6
100
AcDbLine
 10
2497.545092988003
 20
-116.451058934067
 30
0.0
 11
2472.592797414419
 21
-116.451058934067
 31
0.0
  0
LINE
  5
2554F
330
1F
100
AcDbEntity
  8
LOGO
 62
     6
100
AcDbLine
 10
2497.545092988003
 20
-104.8494696199997
 30
0.0
 11
2472.592797414419
 21
-104.8494696199997
 31
0.0
  0
LINE
  5
25550
330
1F
100
AcDbEntity
  8
LOGO
 62
     6
100
AcDbLine
 10
2485.068945201211
 20
-104.8494696199997
 30
0.0
 11
2485.068945201211
 21
-102.476417260304
 31
0.0
  0
LINE
  5
25551
330
1F
100
AcDbEntity
  8
LOGO
 62
     6
100
AcDbLine
 10
2478.213460606535
 20
-102.476417260304
 30
0.0
 11
2485.068945201211
 21
-102.476417260304
 31
0.0
  0
LINE
  5
25552
330
1F
100
AcDbEntity
  8
LOGO
 62
     6
100
AcDbLine
 10
2472.592797414419
 20
-90.61115546182611
 30
0.0
 11
2472.592797414419
 21
-100.1033649006085
 31
0.0
  0
LINE
  5
25553
330
1F
100
AcDbEntity
  8
LOGO
 62
     6
100
AcDbLine
 10
2468.344820390968
 20
-100.1033649006085
 30
0.0
 11
2468.344820390968
 21
-102.4764172603041
 31
0.0
  0
LINE
  5
25554
330
1F
100
AcDbEntity
  8
LOGO
 62
     6
100
AcDbLine
 10
2471.538107476777
 20
-104.8494696199997
 30
0.0
 11
2471.538107476777
 21
-116.451058934067
 31
0.0
  0
LINE
  5
25555
330
1F
100
AcDbEntity
  8
LOGO
 62
     6
100
AcDbLine
 10
2471.538107476777
 20
-90.61115546182611
 30
0.0
 11
2471.538107476777
 21
-100.1033649006085
 31
0.0
  0
LINE
  5
25556
330
1F
100
AcDbEntity
  8
LOGO
 62
     6
100
AcDbLine
 10
2465.15153379155
 20
-90.61115546182618
 30
0.0
 11
2465.15153379155
 21
-100.1033649006085
 31
0.0
  0
LINE
  5
25557
330
1F
100
AcDbEntity
  8
LOGO
 62
     6
100
AcDbLine
 10
2471.538107476777
 20
-100.1033649006085
 30
0.0
 11
2465.15153379155
 21
-100.1033649006085
 31
0.0
  0
LINE
  5
25558
330
1F
100
AcDbEntity
  8
LOGO
 62
     6
100
AcDbLine
 10
2471.538107476777
 20
-90.61115546182611
 30
0.0
 11
2465.15153379155
 21
-90.61115546182618
 31
0.0
  0
TEXT
  5
25559
330
1F
100
AcDbEntity
  8
LOGO
  6
CONTINUOUS
 62
     7
100
AcDbText
 10
2466.461445745515
 20
-97.99398502532358
 30
0.0
 40
5.273449688212426
  1
4
  7
CHINESET
 72
     1
 11
2468.344820634163
 21
-95.35726018121737
 31
0.0
100
AcDbText
 73
     2
  0
TEXT
  5
2555A
330
1F
100
AcDbEntity
  8
LOGO
  6
CONTINUOUS
 62
     7
100
AcDbText
 10
2474.562224624911
 20
-98.05378627708256
 30
0.0
 40
5.273449688212426
  1
E2
  7
CHINESET
 72
     1
 11
2478.705649379935
 21
-95.41706143297634
 31
0.0
100
AcDbText
 73
     2
  0
LINE
  5
2555B
330
1F
100
AcDbEntity
  8
LOGO
 62
     6
100
AcDbLine
 10
2492.370102773517
 20
-90.57753255587021
 30
0.0
 11
2492.370102773517
 21
-100.0697419946526
 31
0.0
  0
LINE
  5
2555C
330
1F
100
AcDbEntity
  8
LOGO
 62
     6
100
AcDbLine
 10
2483.834123798651
 20
-90.61115546182611
 30
0.0
 11
2483.83412379865
 21
-100.1033649006085
 31
0.0
  0
LINE
  5
2555D
330
1F
100
AcDbEntity
  8
LOGO
 62
     6
100
AcDbLine
 10
2483.834123798651
 20
-90.61115546182611
 30
0.0
 11
2472.592797414419
 21
-90.61115546182611
 31
0.0
  0
LINE
  5
2555E
330
1F
100
AcDbEntity
  8
LOGO
  6
CONTINUOUS
 62
     7
100
AcDbLine
 10
2486.618527003259
 20
-95.35726018121724
 30
0.0
 11
2490.809940336093
 21
-95.35726018121724
 31
0.0
  0
TEXT
  5
2555F
330
1F
100
AcDbEntity
  8
LOGO
 62
     6
100
AcDbText
 10
2479.452721283265
 20
-110.4686001637583
 30
0.0
 40
4.21875975056994
  1
雙線圈
 41
0.9
  7
CHINESET
 72
     4
 11
2485.068945201211
 21
-108.5408844017484
 31
0.0
100
AcDbText
  0
LINE
  5
25560
330
1F
100
AcDbEntity
  8
LOGO
 62
     6
100
AcDbLine
 10
2478.213460606535
 20
-100.1033649006085
 30
0.0
 11
2478.213460606535
 21
-102.476417260304
 31
0.0
  0
LINE
  5
25561
330
1F
100
AcDbEntity
  8
LOGO
 62
     6
100
AcDbLine
 10
2472.592797414419
 20
-104.8494696199997
 30
0.0
 11
2472.592797414419
 21
-116.451058934067
 31
0.0
  0
LINE
  5
25562
330
1F
100
AcDbEntity
  8
LOGO
 62
     6
100
AcDbLine
 10
2483.83412379865
 20
-100.1033649006085
 30
0.0
 11
2472.592797414419
 21
-100.1033649006085
 31
0.0
  0
LINE
  5
25563
330
1F
100
AcDbEntity
  8
LOGO
 62
     6
100
AcDbLine
 10
2519.515388773033
 20
-104.8494696199997
 30
0.0
 11
2519.515388773033
 21
-116.4510589340669
 31
0.0
  0
LINE
  5
25564
330
1F
100
AcDbEntity
  8
LOGO
  6
CONTINUOUS
 62
     7
100
AcDbLine
 10
2521.065274226771
 20
-95.39088308717312
 30
0.0
 11
2525.256687559604
 21
-95.39088308717312
 31
0.0
  0
LINE
  5
25565
330
1F
100
AcDbEntity
  8
LOGO
 62
     6
100
AcDbLine
 10
2505.900005983801
 20
-100.1033649006085
 30
0.0
 11
2505.900005983801
 21
-102.476417260304
 31
0.0
  0
LINE
  5
25566
330
1F
100
AcDbEntity
  8
LOGO
 62
     6
100
AcDbLine
 10
2505.900005983801
 20
-102.476417260304
 30
0.0
 11
2508.390910645618
 21
-102.476417260304
 31
0.0
  0
LINE
  5
25567
330
1F
100
AcDbEntity
  8
LOGO
 62
     6
100
AcDbLine
 10
2501.403589808736
 20
-104.8494696199997
 30
0.0
 11
2501.403589808736
 21
-116.49480461854
 31
0.0
  0
TEXT
  5
25568
330
1F
100
AcDbEntity
  8
LOGO
  6
CONTINUOUS
 62
     7
100
AcDbText
 10
2504.938700339755
 20
-98.05378627708256
 30
0.0
 40
5.273449688212426
  1
?
  7
CHINESET
 72
     1
 11
2506.319841924763
 21
-95.41706143297634
 31
0.0
100
AcDbText
 73
     2
  0
TEXT
  5
25569
330
1F
100
AcDbEntity
  8
LOGO
  6
CONTINUOUS
 62
     6
100
AcDbText
 10
2502.816120975221
 20
-114.6932423713295
 30
0.0
 40
2.636724844106213
  1
Voltage
 41
0.8
  7
CHINESET
 72
     4
 11
2508.390910645618
 21
-113.8143340899608
 31
0.0
100
AcDbText
  0
LINE
  5
2556A
330
1F
100
AcDbEntity
  8
LOGO
 62
     6
100
AcDbLine
 10
2519.429909194084
 20
-90.61115546182604
 30
0.0
 11
2519.429909194084
 21
-100.1033649006085
 31
0.0
  0
LINE
  5
2556B
330
1F
100
AcDbEntity
  8
LOGO
 62
     6
100
AcDbLine
 10
2508.390910645618
 20
-102.476417260304
 30
0.0
 11
2508.390910645618
 21
-104.8494696199997
 31
0.0
  0
LINE
  5
2556C
330
1F
100
AcDbEntity
  8
LOGO
 62
     6
100
AcDbLine
 10
2515.378231482499
 20
-104.8494696199997
 30
0.0
 11
2515.378231482499
 21
-116.4510589340669
 31
0.0
  0
LINE
  5
2556D
330
1F
100
AcDbEntity
  8
LOGO
 62
     6
100
AcDbLine
 10
2515.378231482499
 20
-104.8494696199997
 30
0.0
 11
2501.403589808736
 21
-104.8494696199997
 31
0.0
  0
TEXT
  5
2556E
330
1F
100
AcDbEntity
  8
LOGO
 62
     6
100
AcDbText
 10
2504.554475997443
 20
-110.6052807823176
 30
0.0
 40
4.21875975056994
  1
電壓
 41
0.9
  7
CHINESET
 72
     4
 11
2508.390910645618
 21
-108.5408844017484
 31
0.0
100
AcDbText
  0
LINE
  5
2556F
330
1F
100
AcDbEntity
  8
LOGO
 62
     6
100
AcDbLine
 10
2515.378231482499
 20
-116.4510589340669
 30
0.0
 11
2501.403589808736
 21
-116.451058934067
 31
0.0
  0
LINE
  5
25570
330
1F
100
AcDbEntity
  8
LOGO
 62
     6
100
AcDbLine
 10
2497.545092988003
 20
-104.8494696199997
 30
0.0
 11
2497.545092988003
 21
-116.49480461854
 31
0.0
  0
LINE
  5
25571
330
1F
100
AcDbEntity
  8
LOGO
 62
     6
100
AcDbLine
 10
2541.722311522898
 20
-104.8494696199996
 30
0.0
 11
2541.722311522898
 21
-116.4510589340669
 31
0.0
  0
LINE
  5
25572
330
1F
100
AcDbEntity
  8
LOGO
 62
     6
100
AcDbLine
 10
2533.284792264953
 20
-90.61115546182596
 30
0.0
 11
2533.284792264953
 21
-100.1033649006084
 31
0.0
  0
TEXT
  5
25573
330
1F
100
AcDbEntity
  8
LOGO
  6
CONTINUOUS
 62
     7
100
AcDbText
 10
2528.584805511422
 20
-97.99398502532346
 30
0.0
 40
5.273449688212426
  1
L
  7
CHINESET
 72
     1
 11
2530.09150542234
 21
-95.35726018121724
 31
0.0
100
AcDbText
 73
     2
  0
LINE
  5
25574
330
1F
100
AcDbEntity
  8
LOGO
 62
     6
100
AcDbLine
 10
2533.284792264953
 20
-90.61115546182596
 30
0.0
 11
2526.898218579726
 21
-90.61115546182604
 31
0.0
  0
LINE
  5
25575
330
1F
100
AcDbEntity
  8
LOGO
 62
     6
100
AcDbLine
 10
2530.09150542234
 20
-100.1033649006084
 30
0.0
 11
2530.09150542234
 21
-104.8494696199996
 31
0.0
  0
LINE
  5
25576
330
1F
100
AcDbEntity
  8
LOGO
 62
     6
100
AcDbLine
 10
2533.284792264953
 20
-100.1033649006084
 30
0.0
 11
2526.898218579726
 21
-100.1033649006084
 31
0.0
  0
LINE
  5
25577
330
1F
100
AcDbEntity
  8
LOGO
 62
     6
100
AcDbLine
 10
2526.898218579726
 20
-90.61115546182604
 30
0.0
 11
2526.898218579726
 21
-100.1033649006084
 31
0.0
  0
LINE
  5
25579
330
1F
100
AcDbEntity
  8
LOGO
 62
     6
100
AcDbLine
 10
2288.510831953589
 20
125.0723218711918
 30
0.0
 11
2545.855176738358
 21
125.0723218711918
 31
0.0
  0
LINE
  5
2564B
330
1F
100
AcDbEntity
  8
AM_HID
100
AcDbLine
 10
2396.695647511126
 20
-6.091817731147158
 30
0.0
 11
2407.395647511126
 21
-6.09181773114716
 31
0.0
  0
LINE
  5
2564C
330
1F
100
AcDbEntity
  8
AM_HID
100
AcDbLine
 10
2396.045647511126
 20
-11.74181773114719
 30
0.0
 11
2408.045647511126
 21
-11.74181773114713
 31
0.0
  0
LINE
  5
2564D
330
1F
100
AcDbEntity
  8
AM_HID
100
AcDbLine
 10
2397.360647511125
 20
-12.74181773114719
 30
0.0
 11
2406.730647511126
 21
-12.74181773114719
 31
0.0
  0
LINE
  5
2564E
330
1F
100
AcDbEntity
  8
AM_7
100
AcDbLine
 10
2402.045647511126
 20
-13.74181773114719
 30
0.0
 11
2402.045647511126
 21
-3.741817731147193
 31
0.0
1001
GENIUS_GENOBJ-N-CEN_13
1002
{
1000
OWNER
1000
GEN
1002
}
1001
GENIUS_GENODEF_13
1002
{
1000
HIER
1070
     0
1002
}
1002
{
1000
MANEDIT
1070
     0
1002
}
1002
{
1000
NOSEL
1070
     0
1002
}
1002
{
1000
BEHIND
1070
     0
1002
}
1002
{
1000
OTHER
1070
     0
1002
}
1002
{
1000
REACTOR
1002
}
  0
LINE
  5
2564F
330
1F
100
AcDbEntity
  8
AM_HID
100
AcDbLine
 10
2395.345647511126
 20
-4.741817731147192
 30
0.0
 11
2396.045647511126
 21
-11.74181773114719
 31
0.0
  0
LINE
  5
25650
330
1F
100
AcDbEntity
  8
AM_HID
100
AcDbLine
 10
2396.695647511126
 20
-6.091817731147158
 30
0.0
 11
2397.360647511125
 21
-12.74181773114719
 31
0.0
  0
LINE
  5
25651
330
1F
100
AcDbEntity
  8
AM_HID
  6
HIDDEN2
100
AcDbLine
 10
2395.345647511126
 20
-4.741817731147192
 30
0.0
 11
2396.695647511126
 21
-6.091817731147158
 31
0.0
  0
LINE
  5
25652
330
1F
100
AcDbEntity
  8
AM_HID
100
AcDbLine
 10
2396.045647511126
 20
-11.74181773114719
 30
0.0
 11
2397.360647511126
 21
-12.74181773114719
 31
0.0
  0
LINE
  5
25653
330
1F
100
AcDbEntity
  8
AM_HID
100
AcDbLine
 10
2407.395647511126
 20
-6.09181773114716
 30
0.0
 11
2406.730647511126
 21
-12.74181773114719
 31
0.0
  0
LINE
  5
25654
330
1F
100
AcDbEntity
  8
AM_HID
100
AcDbLine
 10
2408.745647511127
 20
-4.741817731147194
 30
0.0
 11
2408.045647511126
 21
-11.74181773114719
 31
0.0
  0
LINE
  5
25655
330
1F
100
AcDbEntity
  8
AM_HID
  6
HIDDEN2
100
AcDbLine
 10
2408.745647511127
 20
-4.741817731147194
 30
0.0
 11
2407.395647511126
 21
-6.09181773114716
 31
0.0
  0
LINE
  5
25656
330
1F
100
AcDbEntity
  8
AM_HID
100
AcDbLine
 10
2408.045647511126
 20
-11.74181773114719
 30
0.0
 11
2406.730647511126
 21
-12.74181773114719
 31
0.0
  0
LINE
  5
25657
330
1F
100
AcDbEntity
  8
AM_HID
100
AcDbLine
 10
2417.695647511126
 20
-6.091817731147158
 30
0.0
 11
2428.395647511126
 21
-6.09181773114716
 31
0.0
  0
LINE
  5
25658
330
1F
100
AcDbEntity
  8
AM_HID
100
AcDbLine
 10
2417.045647511126
 20
-11.74181773114719
 30
0.0
 11
2429.045647511126
 21
-11.74181773114713
 31
0.0
  0
LINE
  5
25659
330
1F
100
AcDbEntity
  8
AM_HID
100
AcDbLine
 10
2418.360647511126
 20
-12.74181773114719
 30
0.0
 11
2427.730647511126
 21
-12.74181773114719
 31
0.0
  0
LINE
  5
2565A
330
1F
100
AcDbEntity
  8
AM_7
100
AcDbLine
 10
2423.045647511126
 20
-13.74181773114719
 30
0.0
 11
2423.045647511126
 21
-3.741817731147193
 31
0.0
1001
GENIUS_GENOBJ-N-CEN_13
1002
{
1000
OWNER
1000
GEN
1002
}
1001
GENIUS_GENODEF_13
1002
{
1000
HIER
1070
     0
1002
}
1002
{
1000
MANEDIT
1070
     0
1002
}
1002
{
1000
NOSEL
1070
     0
1002
}
1002
{
1000
BEHIND
1070
     0
1002
}
1002
{
1000
OTHER
1070
     0
1002
}
1002
{
1000
REACTOR
1002
}
  0
LINE
  5
2565B
330
1F
100
AcDbEntity
  8
AM_HID
100
AcDbLine
 10
2416.345647511126
 20
-4.741817731147192
 30
0.0
 11
2417.045647511126
 21
-11.74181773114719
 31
0.0
  0
LINE
  5
2565C
330
1F
100
AcDbEntity
  8
AM_HID
100
AcDbLine
 10
2417.695647511126
 20
-6.091817731147158
 30
0.0
 11
2418.360647511126
 21
-12.74181773114719
 31
0.0
  0
LINE
  5
2565D
330
1F
100
AcDbEntity
  8
AM_HID
  6
HIDDEN2
100
AcDbLine
 10
2416.345647511126
 20
-4.741817731147192
 30
0.0
 11
2417.695647511126
 21
-6.091817731147158
 31
0.0
  0
LINE
  5
2565E
330
1F
100
AcDbEntity
  8
AM_HID
100
AcDbLine
 10
2417.045647511126
 20
-11.74181773114719
 30
0.0
 11
2418.360647511126
 21
-12.74181773114719
 31
0.0
  0
LINE
  5
2565F
330
1F
100
AcDbEntity
  8
AM_HID
100
AcDbLine
 10
2428.395647511126
 20
-6.09181773114716
 30
0.0
 11
2427.730647511126
 21
-12.74181773114719
 31
0.0
  0
LINE
  5
25660
330
1F
100
AcDbEntity
  8
AM_HID
100
AcDbLine
 10
2429.745647511126
 20
-4.741817731147194
 30
0.0
 11
2429.045647511126
 21
-11.74181773114719
 31
0.0
  0
LINE
  5
25661
330
1F
100
AcDbEntity
  8
AM_HID
  6
HIDDEN2
100
AcDbLine
 10
2429.745647511126
 20
-4.741817731147194
 30
0.0
 11
2428.395647511126
 21
-6.09181773114716
 31
0.0
  0
LINE
  5
25662
330
1F
100
AcDbEntity
  8
AM_HID
100
AcDbLine
 10
2429.045647511126
 20
-11.74181773114719
 30
0.0
 11
2427.730647511126
 21
-12.74181773114719
 31
0.0
  0
LINE
  5
25663
330
1F
100
AcDbEntity
  8
AM_HID
100
AcDbLine
 10
2407.195647511126
 20
-38.69181773114718
 30
0.0
 11
2417.895647511126
 21
-38.69181773114718
 31
0.0
  0
LINE
  5
25664
330
1F
100
AcDbEntity
  8
AM_HID
100
AcDbLine
 10
2406.545647511126
 20
-33.04181773114715
 30
0.0
 11
2418.545647511126
 21
-33.0418177311472
 31
0.0
  0
LINE
  5
25665
330
1F
100
AcDbEntity
  8
AM_HID
100
AcDbLine
 10
2407.860647511126
 20
-32.04181773114715
 30
0.0
 11
2417.230647511126
 21
-32.04181773114715
 31
0.0
  0
LINE
  5
25666
330
1F
100
AcDbEntity
  8
AM_7
100
AcDbLine
 10
2412.545647511126
 20
-31.04181773114714
 30
0.0
 11
2412.545647511126
 21
-41.04181773114714
 31
0.0
1001
GENIUS_GENOBJ-N-CEN_13
1002
{
1000
OWNER
1000
GEN
1002
}
1001
GENIUS_GENODEF_13
1002
{
1000
HIER
1070
     0
1002
}
1002
{
1000
MANEDIT
1070
     0
1002
}
1002
{
1000
NOSEL
1070
     0
1002
}
1002
{
1000
BEHIND
1070
     0
1002
}
1002
{
1000
OTHER
1070
     0
1002
}
1002
{
1000
REACTOR
1002
}
  0
LINE
  5
25667
330
1F
100
AcDbEntity
  8
AM_HID
100
AcDbLine
 10
2405.845647511126
 20
-40.04181773114715
 30
0.0
 11
2406.545647511126
 21
-33.04181773114715
 31
0.0
  0
LINE
  5
25668
330
1F
100
AcDbEntity
  8
AM_HID
100
AcDbLine
 10
2407.195647511126
 20
-38.69181773114718
 30
0.0
 11
2407.860647511126
 21
-32.04181773114715
 31
0.0
  0
LINE
  5
25669
330
1F
100
AcDbEntity
  8
AM_HID
  6
HIDDEN2
100
AcDbLine
 10
2405.845647511126
 20
-40.04181773114715
 30
0.0
 11
2407.195647511126
 21
-38.69181773114718
 31
0.0
  0
LINE
  5
2566A
330
1F
100
AcDbEntity
  8
AM_HID
100
AcDbLine
 10
2406.545647511126
 20
-33.04181773114715
 30
0.0
 11
2407.860647511126
 21
-32.04181773114715
 31
0.0
  0
LINE
  5
2566B
330
1F
100
AcDbEntity
  8
AM_HID
100
AcDbLine
 10
2417.895647511126
 20
-38.69181773114718
 30
0.0
 11
2417.230647511126
 21
-32.04181773114715
 31
0.0
  0
LINE
  5
2566C
330
1F
100
AcDbEntity
  8
AM_HID
100
AcDbLine
 10
2419.245647511127
 20
-40.04181773114715
 30
0.0
 11
2418.545647511126
 21
-33.04181773114715
 31
0.0
  0
LINE
  5
2566D
330
1F
100
AcDbEntity
  8
AM_HID
  6
HIDDEN2
100
AcDbLine
 10
2419.245647511127
 20
-40.04181773114715
 30
0.0
 11
2417.895647511126
 21
-38.69181773114718
 31
0.0
  0
LINE
  5
2566E
330
1F
100
AcDbEntity
  8
AM_HID
100
AcDbLine
 10
2418.545647511126
 20
-33.04181773114715
 30
0.0
 11
2417.230647511126
 21
-32.04181773114715
 31
0.0
  0
LINE
  5
2566F
330
1F
100
AcDbEntity
  8
AM_HID
  6
HIDDEN
100
AcDbLine
 10
2434.895647511126
 20
-33.04181773114715
 30
0.0
 11
2433.945647511126
 21
-32.09181773114716
 31
0.0
  0
LINE
  5
25670
330
1F
100
AcDbEntity
  8
AM_HID
  6
HIDDEN
100
AcDbLine
 10
2426.195647511126
 20
-33.04181773114715
 30
0.0
 11
2427.145647511126
 21
-32.09181773114716
 31
0.0
  0
LINE
  5
25671
330
1F
100
AcDbEntity
  8
AM_HID
  6
HIDDEN
100
AcDbLine
 10
2426.495647511126
 20
-39.09181773114715
 30
0.0
 11
2427.145647511126
 21
-32.09181773114716
 31
0.0
  0
LINE
  5
25672
330
1F
100
AcDbEntity
  8
AM_HID
  6
HIDDEN
100
AcDbLine
 10
2434.595647511126
 20
-39.09181773114715
 30
0.0
 11
2433.945647511126
 21
-32.09181773114716
 31
0.0
  0
LINE
  5
25673
330
1F
100
AcDbEntity
  8
AM_7
100
AcDbLine
 10
2430.545647511126
 20
-40.80863681445618
 30
0.0
 11
2430.545647511126
 21
-30.90113025526176
 31
0.0
  0
LINE
  5
25674
330
1F
100
AcDbEntity
  8
AM_HID
  6
HIDDEN
100
AcDbLine
 10
2433.941004653983
 20
-32.04181773114715
 30
0.0
 11
2427.150290368269
 21
-32.04181773114715
 31
0.0
  0
LINE
  5
25675
330
1F
100
AcDbEntity
  8
AM_HID
  6
HIDDEN
100
AcDbLine
 10
2434.895647511126
 20
-33.04181773114715
 30
0.0
 11
2426.195647511126
 21
-33.04181773114715
 31
0.0
  0
LINE
  5
25676
330
1F
100
AcDbEntity
  8
AM_HID
  6
HIDDEN
100
AcDbLine
 10
2434.595647511126
 20
-39.09181773114715
 30
0.0
 11
2426.495647511126
 21
-39.09181773114715
 31
0.0
  0
LINE
  5
25677
330
1F
100
AcDbEntity
  8
AM_HID
  6
HIDDEN
100
AcDbLine
 10
2426.495647511126
 20
-39.09181773114715
 30
0.0
 11
2425.545647511126
 21
-40.04181773114715
 31
0.0
  0
LINE
  5
25678
330
1F
100
AcDbEntity
  8
AM_HID
  6
HIDDEN
100
AcDbLine
 10
2425.545647511126
 20
-40.04181773114715
 30
0.0
 11
2426.195647511126
 21
-33.04181773114715
 31
0.0
  0
LINE
  5
25679
330
1F
100
AcDbEntity
  8
AM_HID
  6
HIDDEN
100
AcDbLine
 10
2435.545647511126
 20
-40.04181773114715
 30
0.0
 11
2434.595647511126
 21
-39.09181773114715
 31
0.0
  0
LINE
  5
2567A
330
1F
100
AcDbEntity
  8
AM_HID
  6
HIDDEN
100
AcDbLine
 10
2435.545647511126
 20
-40.04181773114715
 30
0.0
 11
2434.895647511126
 21
-33.04181773114715
 31
0.0
  0
LINE
  5
2567B
330
1F
100
AcDbEntity
  8
AM_HID
  6
HIDDEN
100
AcDbLine
 10
2398.895647511126
 20
-33.04181773114715
 30
0.0
 11
2397.945647511126
 21
-32.09181773114716
 31
0.0
  0
LINE
  5
2567C
330
1F
100
AcDbEntity
  8
AM_HID
  6
HIDDEN
100
AcDbLine
 10
2390.195647511126
 20
-33.04181773114715
 30
0.0
 11
2391.145647511126
 21
-32.09181773114716
 31
0.0
  0
LINE
  5
2567D
330
1F
100
AcDbEntity
  8
AM_HID
  6
HIDDEN
100
AcDbLine
 10
2390.495647511126
 20
-39.09181773114715
 30
0.0
 11
2391.145647511126
 21
-32.09181773114716
 31
0.0
  0
LINE
  5
2567E
330
1F
100
AcDbEntity
  8
AM_HID
  6
HIDDEN
100
AcDbLine
 10
2398.595647511126
 20
-39.09181773114715
 30
0.0
 11
2397.945647511126
 21
-32.09181773114716
 31
0.0
  0
LINE
  5
2567F
330
1F
100
AcDbEntity
  8
AM_7
100
AcDbLine
 10
2394.545647511126
 20
-40.80863681445618
 30
0.0
 11
2394.545647511126
 21
-30.90113025526176
 31
0.0
  0
LINE
  5
25680
330
1F
100
AcDbEntity
  8
AM_HID
  6
HIDDEN
100
AcDbLine
 10
2397.941004653983
 20
-32.04181773114715
 30
0.0
 11
2391.150290368269
 21
-32.04181773114715
 31
0.0
  0
LINE
  5
25681
330
1F
100
AcDbEntity
  8
AM_HID
  6
HIDDEN
100
AcDbLine
 10
2398.895647511126
 20
-33.04181773114715
 30
0.0
 11
2390.195647511126
 21
-33.04181773114715
 31
0.0
  0
LINE
  5
25682
330
1F
100
AcDbEntity
  8
AM_HID
  6
HIDDEN
100
AcDbLine
 10
2398.595647511126
 20
-39.09181773114715
 30
0.0
 11
2390.495647511126
 21
-39.09181773114715
 31
0.0
  0
LINE
  5
25683
330
1F
100
AcDbEntity
  8
AM_HID
  6
HIDDEN
100
AcDbLine
 10
2390.495647511126
 20
-39.09181773114715
 30
0.0
 11
2389.545647511126
 21
-40.04181773114715
 31
0.0
  0
LINE
  5
25684
330
1F
100
AcDbEntity
  8
AM_HID
  6
HIDDEN
100
AcDbLine
 10
2389.545647511126
 20
-40.04181773114715
 30
0.0
 11
2390.195647511126
 21
-33.04181773114715
 31
0.0
  0
LINE
  5
25685
330
1F
100
AcDbEntity
  8
AM_HID
  6
HIDDEN
100
AcDbLine
 10
2399.545647511126
 20
-40.04181773114715
 30
0.0
 11
2398.595647511126
 21
-39.09181773114715
 31
0.0
  0
LINE
  5
25686
330
1F
100
AcDbEntity
  8
AM_HID
  6
HIDDEN
100
AcDbLine
 10
2399.545647511126
 20
-40.04181773114715
 30
0.0
 11
2398.895647511126
 21
-33.04181773114715
 31
0.0
  0
ENDSEC
  0
SECTION
  2
OBJECTS
  0
DICTIONARY
  5
C
330
0
100
AcDbDictionary
  3
ACAD_GROUP
350
D
  3
ACAD_LAYOUT
350
1A
  3
ACAD_MLINESTYLE
350
17
  3
ACAD_PLOTSETTINGS
350
19
  3
ACMDICTIONARY
350
43
  3
AMG
350
2B
  3
AMGSNAPSETTINGS
350
240
  3
DWGPROPS
350
26A9F
1001
ACAD
1000
TREAT_AS_HARD
1070
     0
  0
DICTIONARY
  5
3A4
330
1F
100
AcDbDictionary
  3
ACAD_INDEX
350
21C6B
  3
ACAD_LAYOUTSELFREF
350
26B14
1001
ACAD
1000
TREAT_AS_HARD
1070
     1
  0
DICTIONARY
  5
26A1F
330
1B
100
AcDbDictionary
  3
ACAD_LAYOUTSELFREF
350
26B13
1001
ACAD
1000
TREAT_AS_HARD
1070
     1
  0
DICTIONARY
  5
D
102
{ACAD_REACTORS
330
C
102
}
330
C
100
AcDbDictionary
1001
ACAD
1000
TREAT_AS_HARD
1070
     0
  0
DICTIONARY
  5
1A
102
{ACAD_REACTORS
330
C
102
}
330
C
100
AcDbDictionary
1001
ACAD
1000
TREAT_AS_HARD
1070
     0
  0
DICTIONARY
  5
17
102
{ACAD_REACTORS
330
C
102
}
330
C
100
AcDbDictionary
  3
STANDARD
350
18
1001
ACAD
1000
TREAT_AS_HARD
1070
     0
  0
DICTIONARY
  5
19
102
{ACAD_REACTORS
330
C
102
}
330
C
100
AcDbDictionary
1001
ACAD
1000
TREAT_AS_HARD
1070
     0
  0
DICTIONARY
  5
43
102
{ACAD_REACTORS
330
C
102
}
330
C
100
AcDbDictionary
  3
ACMSTDDICTIONARY
350
1440
1001
ACAD
1000
TREAT_AS_HARD
1070
     0
  0
DICTIONARY
  5
2B
102
{ACAD_REACTORS
330
C
102
}
330
C
100
AcDbDictionary
  3
ACMGSETTINGS
350
2C
1001
ACAD
1000
TREAT_AS_HARD
1070
     0
  0
DICTIONARY
  5
240
102
{ACAD_REACTORS
330
C
102
}
330
C
100
AcDbDictionary
1001
ACAD
1000
TREAT_AS_HARD
1070
     0
  0
XRECORD
  5
26A9F
102
{ACAD_REACTORS
330
C
102
}
330
C
100
AcDbXrecord
  1
DWGPROPS COOKIE
  2

  3

  4

  6

  7

  8

  9

300
AmdtFileType=84
301
=
302
=
303
=
304
=
305
=
306
=
307
=
308
=
309
=
 40
1.950782719907407
 41
2452292.457678333
 42
2452655.361096273
  1

 90
        1
  0
DICTIONARY
  5
21C6B
102
{ACAD_REACTORS
330
3A4
102
}
330
3A4
100
AcDbDictionary
  3
*A1
350
21C6C
1001
ACAD
1000
TREAT_AS_HARD
1070
     0
  0
XRECORD
  5
26B14
102
{ACAD_REACTORS
330
3A4
102
}
330
3A4
100
AcDbXrecord
340
1F
  0
XRECORD
  5
26B13
102
{ACAD_REACTORS
330
26A1F
102
}
330
26A1F
100
AcDbXrecord
340
1B
  0
MLINESTYLE
  5
18
102
{ACAD_REACTORS
330
17
102
}
330
17
100
AcDbMlineStyle
  2
STANDARD
 70
     0
  3

 62
   256
 51
90.0
 52
90.0
 71
     2
 49
0.5
 62
   256
  6
BYLAYER
 49
-0.5
 62
   256
  6
BYLAYER
  0
DICTIONARY
  5
1440
102
{ACAD_REACTORS
330
43
102
}
330
43
100
AcDbDictionary
1001
ACAD
1000
TREAT_AS_HARD
1070
     0
  0
DICTIONARY
  5
2C
102
{ACAD_REACTORS
330
2B
102
}
330
2B
100
AcDbDictionary
1001
ACAD
1000
TREAT_AS_HARD
1070
     0
  0
LAYER_INDEX
  5
21C6C
102
{ACAD_REACTORS
330
21C6B
102
}
330
21C6B
100
AcDbIndex
 40
2452705.591838842
100
AcDbLayerIndex
  8
0
360
21C6D
 90
       81
  8
AM_VIS
360
21C70
 90
      536
  8
Defpoints
360
21C71
 90
        0
  8
AM_7
360
21C72
 90
       62
  8
AM_5
360
21C73
 90
       16
  8
AM_REFDIM
360
21C74
 90
       63
  8
LOGO
360
21C7D
 90
      150
  8
AM_HID
360
21C7F
 90
       55
  8
AM_0N
360
21C84
 90
        0
  0
IDBUFFER
  5
21C6D
330
0
100
AcDbIdBuffer
330
20CBD
330
20CC2
330
20CC7
330
20CCC
330
21053
330
21058
330
2105D
330
21062
330
21067
330
2106C
330
21071
330
21285
330
21286
330
21287
330
21288
330
21289
330
2128A
330
2128B
330
212FC
330
212FD
330
212FE
330
212FF
330
2148E
330
2148F
330
21490
330
21491
330
214A8
330
214AD
330
214B2
330
214B7
330
214DD
330
214DE
330
2335F
330
23364
330
23369
330
2336E
330
23373
330
23378
330
2337D
330
23382
330
23387
330
2338C
330
23391
330
23396
330
2339B
330
233A0
330
233A5
330
233AA
330
233AF
330
233B4
330
233B9
330
233BE
330
233C4
330
233C9
330
23599
330
2359A
330
2359B
330
2359C
330
2359D
330
2359E
330
2359F
330
235A0
330
235A1
330
23865
330
23866
330
24691
330
24699
330
2469E
330
246A3
330
246A8
330
246AD
330
246B2
330
2475B
330
24805
330
24806
330
24807
330
24808
330
24809
330
2480A
330
2480B
330
2482A
  0
IDBUFFER
  5
21C70
330
0
100
AcDbIdBuffer
330
246C6
330
246C7
330
246C8
330
246C9
330
246CC
330
246CD
330
246CF
330
246D0
330
246D2
330
246D3
330
246D4
330
246D5
330
246D6
330
246D7
330
246D8
330
246D9
330
246DA
330
246DB
330
246DC
330
246DD
330
246DE
330
246DF
330
246E0
330
246E1
330
246E2
330
246E3
330
246E4
330
246E5
330
246ED
330
246F2
330
246F6
330
246F7
330
246F8
330
246F9
330
246FA
330
246FB
330
246FC
330
246FD
330
246FE
330
246FF
330
24700
330
24701
330
24702
330
24703
330
24704
330
24705
330
24706
330
24707
330
24708
330
24709
330
2470A
330
2470B
330
2470C
330
2470D
330
2470E
330
2470F
330
24710
330
24711
330
24712
330
24713
330
24714
330
24715
330
24716
330
24717
330
24718
330
2471A
330
2471E
330
2471F
330
24720
330
24721
330
24724
330
24725
330
24726
330
24728
330
2472B
330
2472F
330
24730
330
24732
330
24736
330
24737
330
2473B
330
2473C
330
2473D
330
2473E
330
2473F
330
24740
330
24741
330
24742
330
24743
330
24744
330
24745
330
24746
330
24747
330
24748
330
24749
330
2474A
330
2474B
330
2474C
330
2474D
330
2474E
330
2474F
330
24750
330
24751
330
24752
330
24753
330
24754
330
24755
330
24756
330
24757
330
24758
330
24759
330
2475A
330
2475C
330
2475D
330
2475E
330
2475F
330
24760
330
24761
330
24762
330
24763
330
24764
330
24765
330
24766
330
24767
330
24768
330
24769
330
2476A
330
2476B
330
2476C
330
2476D
330
2476E
330
2476F
330
24770
330
24771
330
24772
330
24773
330
24774
330
24775
330
24776
330
24777
330
24778
330
24779
330
2477A
330
2477B
330
2477C
330
2477D
330
2477E
330
2477F
330
24780
330
24781
330
24782
330
24783
330
24784
330
24785
330
24786
330
24787
330
24788
330
24789
330
2478A
330
2478B
330
2478C
330
2478D
330
2478E
330
2478F
330
24790
330
24791
330
24792
330
24793
330
24794
330
24795
330
24796
330
24797
330
24798
330
24799
330
2479A
330
2479B
330
2479C
330
2479D
330
2479E
330
2479F
330
247A0
330
247A1
330
247A2
330
247A3
330
247A4
330
247A5
330
247A6
330
247A7
330
247A8
330
247A9
330
247AA
330
247AB
330
247AC
330
247AD
330
247AE
330
247AF
330
247B0
330
247B1
330
247B2
330
247B3
330
247B4
330
247B5
330
247B6
330
247B7
330
247B8
330
247B9
330
247BA
330
247BB
330
247BC
330
247BD
330
247BE
330
247BF
330
247C0
330
247C1
330
247C2
330
247C3
330
247C4
330
247C5
330
247C6
330
247C7
330
247C8
330
247C9
330
247CA
330
247CB
330
247CC
330
247CD
330
247CE
330
247CF
330
247D0
330
247D1
330
247D2
330
247D3
330
247D4
330
247D5
330
247D6
330
247D7
330
247D8
330
247D9
330
247DA
330
247DB
330
247DC
330
247DD
330
247DE
330
247DF
330
247E0
330
247E1
330
247E2
330
247E3
330
247E4
330
247E5
330
247E6
330
247E7
330
247E8
330
247E9
330
247EA
330
247EB
330
247EC
330
247ED
330
247EE
330
247EF
330
247F0
330
247F1
330
247F2
330
247F3
330
247F4
330
247F5
330
247F6
330
247F7
330
247F8
330
247F9
330
247FA
330
247FB
330
247FC
330
247FD
330
247FE
330
247FF
330
24800
330
24801
330
24802
330
24803
330
24804
330
2480C
330
2480D
330
2480E
330
2480F
330
24810
330
24811
330
24812
330
24813
330
24814
330
24815
330
24816
330
24817
330
24818
330
24819
330
2481A
330
2481B
330
2481C
330
2481D
330
2481E
330
2481F
330
24820
330
24821
330
24822
330
24823
330
24824
330
24825
330
24826
330
24827
330
24828
330
24829
330
2482B
330
2482C
330
2482D
330
2482E
330
2482F
330
24830
330
24831
330
24832
330
24833
330
24834
330
24835
330
24836
330
24837
330
24838
330
24839
330
2483A
330
2483B
330
2483C
330
2483D
330
2483E
330
2483F
330
24840
330
24841
330
24842
330
24843
330
24844
330
24845
330
24846
330
24847
330
24848
330
24849
330
2484A
330
2484B
330
2484C
330
2484D
330
2484E
330
2484F
330
24850
330
24851
330
24852
330
24853
330
24854
330
24855
330
24856
330
24857
330
24858
330
24859
330
2485A
330
2485B
330
2485C
330
2485D
330
2485E
330
2485F
330
24860
330
24861
330
24862
330
24863
330
24864
330
24865
330
24866
330
24867
330
24868
330
24869
330
2486A
330
2486B
330
2486C
330
2486D
330
2486E
330
2486F
330
24870
330
24871
330
24872
330
24873
330
24874
330
24875
330
24876
330
24877
330
24878
330
24879
330
2487A
330
2487B
330
2487C
330
2487D
330
2487E
330
2487F
330
24880
330
24881
330
24882
330
24883
330
24884
330
24885
330
24886
330
24887
330
24888
330
24889
330
2488A
330
2488B
330
2488C
330
2488D
330
2488E
330
2488F
330
24890
330
24891
330
24892
330
24893
330
24894
330
24895
330
24896
330
24897
330
24898
330
24899
330
2489A
330
2489B
330
2489C
330
2489D
330
2489E
330
2489F
330
248A0
330
248A1
330
248A2
330
248A3
330
248A4
330
248A5
330
248A6
330
248A7
330
248A8
330
248A9
330
248AA
330
248AB
330
248AC
330
248AD
330
248AE
330
248AF
330
248B0
330
248B1
330
248B2
330
248B3
330
248B4
330
248B5
330
248B6
330
248B7
330
248B8
330
248B9
330
248BA
330
248BB
330
248BC
330
248BD
330
248BE
330
248BF
330
248C0
330
248C1
330
248C2
330
248C3
330
248C4
330
248C5
330
248C6
330
248C7
330
248C8
330
248C9
330
248CA
330
248CB
330
248CC
330
248CD
330
248CE
330
248CF
330
248D0
330
248D1
330
248D2
330
248D3
330
248D4
330
248D5
330
248D6
330
248D7
330
248D8
330
248D9
330
248DA
330
248DB
330
248DC
330
248DD
330
248DE
330
248DF
330
248E0
330
248E1
330
248E2
330
248E3
330
248E4
330
248E5
330
248E6
330
248E7
330
248E8
330
248E9
330
248EA
330
248EB
330
248EC
330
248ED
330
248EE
330
248EF
330
248F0
330
248F1
330
248F2
330
248F3
330
248F4
330
248F5
330
248F6
330
248F7
330
248F8
330
248F9
330
248FA
330
248FB
330
248FC
330
248FD
330
248FE
330
248FF
330
24900
330
24901
330
24902
330
24903
330
24904
330
24905
330
24906
330
24907
330
24908
330
24909
330
2490A
330
2490B
  0
IDBUFFER
  5
21C71
330
0
100
AcDbIdBuffer
  0
IDBUFFER
  5
21C72
330
0
100
AcDbIdBuffer
330
18C70
330
18C71
330
18C72
330
18C73
330
18C74
330
18C75
330
18C76
330
18C77
330
18C78
330
18C79
330
18C7A
330
18C7B
330
18C7C
330
18C7D
330
18C7E
330
18C7F
330
18C80
330
18C81
330
18C82
330
18C83
330
18C84
330
18C85
330
18C86
330
18C87
330
18C88
330
18C89
330
18C8A
330
18C8B
330
18C8C
330
18C8D
330
18C8E
330
246CA
330
246E9
330
246EA
330
246EB
330
246EC
330
246EF
330
246F0
330
246F1
330
246F3
330
2471B
330
2471C
330
2471D
330
24723
330
24727
330
24729
330
2472A
330
2472C
330
2472D
330
2472E
330
24731
330
24733
330
24734
330
24735
330
24738
330
24739
330
2473A
330
2564E
330
2565A
330
25666
330
25673
330
2567F
  0
IDBUFFER
  5
21C73
330
0
100
AcDbIdBuffer
330
D622
330
D62D
330
1A47B
330
1A47C
330
1C446
330
1C447
330
1ECBE
330
1ECBF
330
20AE8
330
20AE9
330
20B74
330
22CDD
330
22CDE
330
22CDF
330
244F2
330
244F3
  0
IDBUFFER
  5
21C74
330
0
100
AcDbIdBuffer
330
20A1
330
21E1
330
21E8
330
950E
330
9515
330
9538
330
18CB4
330
18CB5
330
18CB6
330
1A473
330
1A474
330
1A475
330
1A476
330
1A477
330
1A478
330
1C43E
330
1C43F
330
1C440
330
1C441
330
1C442
330
1C443
330
1ECB6
330
1ECB7
330
1ECB8
330
1ECB9
330
1ECBA
330
1ECBB
330
20AE0
330
20AE1
330
20AE2
330
20AE3
330
20AE4
330
20AE5
330
22CD5
330
22CD6
330
22CD7
330
22CD8
330
22CD9
330
22CDA
330
244E5
330
244E6
330
244E7
330
244EA
330
244EB
330
244EC
330
24913
330
24915
330
24916
330
24918
330
24DCB
330
24DD8
330
24DE5
330
24DF2
330
24DFF
330
24E0C
330
24E19
330
24E26
330
24E33
330
24E40
330
24E4D
330
24E4F
330
24E51
330
24E53
  0
IDBUFFER
  5
21C7D
330
0
100
AcDbIdBuffer
330
18C6F
330
21EA2
330
24C9E
330
24CA0
330
254E7
330
254E8
330
254E9
330
254EA
330
254EB
330
254EC
330
254ED
330
254EE
330
254EF
330
254F0
330
254F1
330
254F2
330
254F3
330
254F4
330
254F5
330
254F6
330
254F7
330
254F8
330
254F9
330
254FA
330
254FB
330
254FC
330
254FD
330
254FE
330
254FF
330
25500
330
25501
330
25502
330
25503
330
25504
330
25505
330
25506
330
25507
330
25508
330
25509
330
2550A
330
2550B
330
2550C
330
2550D
330
2550E
330
2550F
330
25510
330
25511
330
25512
330
25513
330
25514
330
25515
330
25516
330
25517
330
25518
330
25519
330
2551A
330
2551B
330
2551C
330
2551D
330
2551E
330
2551F
330
25520
330
25521
330
25522
330
25523
330
25524
330
25525
330
25526
330
25527
330
25528
330
25529
330
2552A
330
2552B
330
2552C
330
2552D
330
2552E
330
2552F
330
25530
330
25531
330
25532
330
25533
330
25534
330
25535
330
25536
330
25537
330
25538
330
25539
330
2553A
330
2553B
330
2553C
330
2553D
330
2553E
330
2553F
330
25540
330
25541
330
25542
330
25543
330
25544
330
25545
330
25546
330
25547
330
25548
330
25549
330
2554A
330
2554B
330
2554C
330
2554D
330
2554E
330
2554F
330
25550
330
25551
330
25552
330
25553
330
25554
330
25555
330
25556
330
25557
330
25558
330
25559
330
2555A
330
2555B
330
2555C
330
2555D
330
2555E
330
2555F
330
25560
330
25561
330
25562
330
25563
330
25564
330
25565
330
25566
330
25567
330
25568
330
25569
330
2556A
330
2556B
330
2556C
330
2556D
330
2556E
330
2556F
330
25570
330
25571
330
25572
330
25573
330
25574
330
25575
330
25576
330
25577
330
25579
  0
IDBUFFER
  5
21C7F
330
0
100
AcDbIdBuffer
330
2564B
330
2564C
330
2564D
330
2564F
330
25650
330
25651
330
25652
330
25653
330
25654
330
25655
330
25656
330
25657
330
25658
330
25659
330
2565B
330
2565C
330
2565D
330
2565E
330
2565F
330
25660
330
25661
330
25662
330
25663
330
25664
330
25665
330
25667
330
25668
330
25669
330
2566A
330
2566B
330
2566C
330
2566D
330
2566E
330
2566F
330
25670
330
25671
330
25672
330
25674
330
25675
330
25676
330
25677
330
25678
330
25679
330
2567A
330
2567B
330
2567C
330
2567D
330
2567E
330
25680
330
25681
330
25682
330
25683
330
25684
330
25685
330
25686
  0
IDBUFFER
  5
21C84
330
0
100
AcDbIdBuffer
  0
ENDSEC
  0
EOF
