  0
SECTION
  2
HEADER
  9
$ACADVER
  1
AC1015
  9
$ACADMAINTVER
 70
    20
  9
$DWGCODEPAGE
  3
ANSI_950
  9
$INSBASE
 10
0.0
 20
0.0
 30
0.0
  9
$EXTMIN
 10
94.6435557755683
 20
86.85164868236666
 30
-0.0070433243007528
  9
$EXTMAX
 10
250.2145393544513
 20
300.7229137829948
 30
117.4492961816432
  9
$LIMMIN
 10
0.0
 20
0.0
  9
$LIMMAX
 10
420.0
 20
297.0
  9
$ORTHOMODE
 70
     1
  9
$REGENMODE
 70
     1
  9
$FILLMODE
 70
     1
  9
$QTEXTMODE
 70
     0
  9
$MIRRTEXT
 70
     1
  9
$LTSCALE
 40
1.0
  9
$ATTMODE
 70
     1
  9
$TEXTSIZE
 40
3.5
  9
$TRACEWID
 40
1.0
  9
$TEXTSTYLE
  7
STANDARD
  9
$CLAYER
  8
0
  9
$CELTYPE
  6
ByLayer
  9
$CECOLOR
 62
   256
  9
$CELTSCALE
 40
1.0
  9
$DISPSILH
 70
     0
  9
$DIMSCALE
 40
1.0
  9
$DIMASZ
 40
3.0
  9
$DIMEXO
 40
1.0
  9
$DIMDLI
 40
8.0
  9
$DIMRND
 40
0.0
  9
$DIMDLE
 40
0.0
  9
$DIMEXE
 40
1.5
  9
$DIMTP
 40
0.1
  9
$DIMTM
 40
0.1
  9
$DIMTXT
 40
3.5
  9
$DIMCEN
 40
3.0
  9
$DIMTSZ
 40
0.0
  9
$DIMTOL
 70
     0
  9
$DIMLIM
 70
     0
  9
$DIMTIH
 70
     0
  9
$DIMTOH
 70
     0
  9
$DIMSE1
 70
     0
  9
$DIMSE2
 70
     0
  9
$DIMTAD
 70
     1
  9
$DIMZIN
 70
     8
  9
$DIMBLK
  1

  9
$DIMASO
 70
     1
  9
$DIMSHO
 70
     1
  9
$DIMPOST
  1

  9
$DIMAPOST
  1
"
  9
$DIMALT
 70
     0
  9
$DIMALTD
 70
     2
  9
$DIMALTF
 40
0.0393701
  9
$DIMLFAC
 40
1.0
  9
$DIMTOFL
 70
     1
  9
$DIMTVP
 40
0.0
  9
$DIMTIX
 70
     0
  9
$DIMSOXD
 70
     0
  9
$DIMSAH
 70
     0
  9
$DIMBLK1
  1

  9
$DIMBLK2
  1

  9
$DIMSTYLE
  2
AM_ISO
  9
$DIMCLRD
 70
   256
  9
$DIMCLRE
 70
   256
  9
$DIMCLRT
 70
   256
  9
$DIMTFAC
 40
0.71
  9
$DIMGAP
 40
0.8
  9
$DIMJUST
 70
     0
  9
$DIMSD1
 70
     0
  9
$DIMSD2
 70
     0
  9
$DIMTOLJ
 70
     0
  9
$DIMTZIN
 70
     8
  9
$DIMALTZ
 70
     0
  9
$DIMALTTZ
 70
     0
  9
$DIMUPT
 70
     0
  9
$DIMDEC
 70
     2
  9
$DIMTDEC
 70
     8
  9
$DIMALTU
 70
     2
  9
$DIMALTTD
 70
     2
  9
$DIMTXSTY
  7
STANDARD
  9
$DIMAUNIT
 70
     0
  9
$DIMADEC
 70
     0
  9
$DIMALTRND
 40
0.0
  9
$DIMAZIN
 70
     2
  9
$DIMDSEP
 70
    46
  9
$DIMATFIT
 70
     3
  9
$DIMFRAC
 70
     0
  9
$DIMLDRBLK
  1

  9
$DIMLUNIT
 70
     2
  9
$DIMLWD
 70
    -1
  9
$DIMLWE
 70
    -1
  9
$DIMTMOVE
 70
     0
  9
$LUNITS
 70
     2
  9
$LUPREC
 70
     2
  9
$SKETCHINC
 40
1.0
  9
$FILLETRAD
 40
2.5
  9
$AUNITS
 70
     0
  9
$AUPREC
 70
     0
  9
$MENU
  1
.
  9
$ELEVATION
 40
0.0
  9
$PELEVATION
 40
0.0
  9
$THICKNESS
 40
0.0
  9
$LIMCHECK
 70
     0
  9
$CHAMFERA
 40
2.5
  9
$CHAMFERB
 40
2.5
  9
$CHAMFERC
 40
20.0
  9
$CHAMFERD
 40
0.0
  9
$SKPOLY
 70
     0
  9
$TDCREATE
 40
2453021.369367211
  9
$TDUCREATE
 40
2453021.036033877
  9
$TDUPDATE
 40
2453514.628483252
  9
$TDUUPDATE
 40
2453514.295149919
  9
$TDINDWG
 40
0.5830680671
  9
$TDUSRTIMER
 40
0.5830677199
  9
$USRTIMER
 70
     1
  9
$ANGBASE
 50
0.0
  9
$ANGDIR
 70
     0
  9
$PDMODE
 70
     0
  9
$PDSIZE
 40
0.0
  9
$PLINEWID
 40
0.0
  9
$SPLFRAME
 70
     0
  9
$SPLINETYPE
 70
     6
  9
$SPLINESEGS
 70
     8
  9
$HANDSEED
  5
4327
  9
$SURFTAB1
 70
     6
  9
$SURFTAB2
 70
     6
  9
$SURFTYPE
 70
     6
  9
$SURFU
 70
     6
  9
$SURFV
 70
     6
  9
$UCSBASE
  2

  9
$UCSNAME
  2

  9
$UCSORG
 10
0.0
 20
0.0
 30
0.0
  9
$UCSXDIR
 10
1.0
 20
0.0
 30
0.0
  9
$UCSYDIR
 10
0.0
 20
1.0
 30
0.0
  9
$UCSORTHOREF
  2

  9
$UCSORTHOVIEW
 70
     0
  9
$UCSORGTOP
 10
0.0
 20
0.0
 30
0.0
  9
$UCSORGBOTTOM
 10
0.0
 20
0.0
 30
0.0
  9
$UCSORGLEFT
 10
0.0
 20
0.0
 30
0.0
  9
$UCSORGRIGHT
 10
0.0
 20
0.0
 30
0.0
  9
$UCSORGFRONT
 10
0.0
 20
0.0
 30
0.0
  9
$UCSORGBACK
 10
0.0
 20
0.0
 30
0.0
  9
$PUCSBASE
  2

  9
$PUCSNAME
  2

  9
$PUCSORG
 10
0.0
 20
0.0
 30
0.0
  9
$PUCSXDIR
 10
1.0
 20
0.0
 30
0.0
  9
$PUCSYDIR
 10
0.0
 20
1.0
 30
0.0
  9
$PUCSORTHOREF
  2

  9
$PUCSORTHOVIEW
 70
     0
  9
$PUCSORGTOP
 10
0.0
 20
0.0
 30
0.0
  9
$PUCSORGBOTTOM
 10
0.0
 20
0.0
 30
0.0
  9
$PUCSORGLEFT
 10
0.0
 20
0.0
 30
0.0
  9
$PUCSORGRIGHT
 10
0.0
 20
0.0
 30
0.0
  9
$PUCSORGFRONT
 10
0.0
 20
0.0
 30
0.0
  9
$PUCSORGBACK
 10
0.0
 20
0.0
 30
0.0
  9
$USERI1
 70
     0
  9
$USERI2
 70
     0
  9
$USERI3
 70
     0
  9
$USERI4
 70
     0
  9
$USERI5
 70
     0
  9
$USERR1
 40
0.0
  9
$USERR2
 40
0.0
  9
$USERR3
 40
0.0
  9
$USERR4
 40
0.0
  9
$USERR5
 40
0.0
  9
$WORLDVIEW
 70
     1
  9
$SHADEDGE
 70
     3
  9
$SHADEDIF
 70
    70
  9
$TILEMODE
 70
     1
  9
$MAXACTVP
 70
    64
  9
$PINSBASE
 10
0.0
 20
0.0
 30
0.0
  9
$PLIMCHECK
 70
     0
  9
$PEXTMIN
 10
1.000000000000000E+20
 20
1.000000000000000E+20
 30
1.000000000000000E+20
  9
$PEXTMAX
 10
-1.000000000000000E+20
 20
-1.000000000000000E+20
 30
-1.000000000000000E+20
  9
$PLIMMIN
 10
0.0
 20
0.0
  9
$PLIMMAX
 10
420.0
 20
297.0
  9
$UNITMODE
 70
     0
  9
$VISRETAIN
 70
     1
  9
$PLINEGEN
 70
     0
  9
$PSLTSCALE
 70
     1
  9
$TREEDEPTH
 70
  3020
  9
$CMLSTYLE
  2
Standard
  9
$CMLJUST
 70
     0
  9
$CMLSCALE
 40
20.0
  9
$PROXYGRAPHICS
 70
     1
  9
$MEASUREMENT
 70
     1
  9
$CELWEIGHT
370
    -1
  9
$ENDCAPS
280
     0
  9
$JOINSTYLE
280
     0
  9
$LWDISPLAY
290
     0
  9
$INSUNITS
 70
     4
  9
$HYPERLINKBASE
  1

  9
$STYLESHEET
  1
彩色出圖.ctb
  9
$XEDIT
290
     1
  9
$CEPSNTYPE
380
     0
  9
$PSTYLEMODE
290
     1
  9
$FINGERPRINTGUID
  2
{6C02722A-18D3-491A-897A-B8025DE410A9}
  9
$VERSIONGUID
  2
{64DF5B62-1AF6-4C0A-8931-DD82BCEA6D01}
  9
$EXTNAMES
290
     1
  9
$PSVPSCALE
 40
0.0
  9
$OLESTARTUP
290
     0
  0
ENDSEC
  0
SECTION
  2
CLASSES
  0
CLASS
  1
ACDBDICTIONARYWDFLT
  2
AcDbDictionaryWithDefault
  3
ObjectDBX Classes
 90
        0
280
     0
281
     0
  0
CLASS
  1
ACDBPLACEHOLDER
  2
AcDbPlaceHolder
  3
ObjectDBX Classes
 90
        0
280
     0
281
     0
  0
CLASS
  1
LAYOUT
  2
AcDbLayout
  3
ObjectDBX Classes
 90
        0
280
     0
281
     0
  0
CLASS
  1
AMGSETTINGSOBJ
  2
AmgSettingsObj
  3
"AcadM|Product Description: AutoCAD Mechanical 2000|Company: Autodesk"
 90
        0
280
     0
281
     0
  0
CLASS
  1
ACME_DOCUMENT
  2
AcMeDbDoc
  3
AcMeServices
 90
        0
280
     0
281
     0
  0
CLASS
  1
ACMESCOPE
  2
AcMeScope
  3
AcMeServices
 90
        0
280
     0
281
     0
  0
CLASS
  1
ACMECOMMANDHISTORY
  2
AcMeCommandHistory
  3
AcMeServices
 90
        0
280
     0
281
     0
  0
CLASS
  1
ACIMSYSVARMAN
  2
AcImSysVarManager
  3
AcMeServices
 90
        0
280
     0
281
     0
  0
CLASS
  1
ACIMREALSYSVAR
  2
AcImRealSysVar
  3
AcMeServices
 90
        0
280
     0
281
     0
  0
CLASS
  1
ACIMINTSYSVAR
  2
AcImIntSysVar
  3
AcMeServices
 90
        0
280
     0
281
     0
  0
CLASS
  1
ACMEDRAWINGMAN
  2
AcMeDrawingMan
  3
AcMeServices
 90
        0
280
     0
281
     0
  0
CLASS
  1
ACMEVIEW
  2
AcMeView
  3
AcMeServices
 90
        0
280
     0
281
     0
  0
CLASS
  1
ACDBENTITYCACHE
  2
AcMeEntityCache
  3
AcMeServices
 90
        0
280
     0
281
     0
  0
CLASS
  1
GSMANAGER
  2
AcMeGSManager
  3
AcMeServices
 90
        0
280
     0
281
     0
  0
CLASS
  1
AMDTINTERNALREACTOR
  2
AmdtInternalReactor
  3
AcMeServices
 90
        0
280
     0
281
     0
  0
CLASS
  1
ACMESTATEMGR
  2
AcMeStateMgr
  3
AcMeServices
 90
        0
280
     0
281
     0
  0
CLASS
  1
ACGREFMASTER
  2
AcGrefMaster
  3
AcAttribServices
 90
        0
280
     0
281
     0
  0
CLASS
  1
ACME_DATABASE
  2
AcMeDbDatabase
  3
AcMeServices
 90
        0
280
     0
281
     0
  0
CLASS
  1
ACRFINSADJUSTERMGR
  2
AcRfInsAdjusterMgr
  3
AcMeServices
 90
        0
280
     0
281
     0
  0
CLASS
  1
ACGREFACADMASTER
  2
AcGrefacadMaster
  3
AcGrefServices
 90
        0
280
     0
281
     0
  0
CLASS
  1
AMIMASTER
  2
AmiMaster
  3
AmiServices
 90
        0
280
     0
281
     0
  0
CLASS
  1
ACMDATADICTIONARY
  2
AcmDataDictionary
  3
"AcmSymBB|Product Description: AutoCAD Mechanical 2004 DX|Company: Autodesk"
 90
        0
280
     0
281
     0
  0
CLASS
  1
ACMDATAENTRYBLOCK
  2
AcmDataEntryBlock
  3
"AcmSymBB|Product Description: AutoCAD Mechanical 2004 DX|Company: Autodesk"
 90
    32768
280
     0
281
     0
  0
CLASS
  1
ACIMSTRSYSVAR
  2
AcImStrSysVar
  3
AcMeServices
 90
        0
280
     0
281
     0
  0
CLASS
  1
ACMSTANDARDISO
  2
AcmStandardISO
  3
"Amdt_StdImp|Product Description: AutoCAD Mechanical 2004 DX|Company: Autodesk"
 90
        0
280
     0
281
     0
  0
CLASS
  1
AMGOBJPROPCFG
  2
AmgObjPropCfg
  3
"AmgLay|Product Description: AutoCAD Mechanical 2000|Company: Autodesk"
 90
        1
280
     0
281
     0
  0
CLASS
  1
AMDTEDGESTANDARDISO
  2
AmdtEdgeStdISO
  3
"Amdt_StdImp|Product Description: AutoCAD Mechanical 2004 DX|Company: Autodesk"
 90
    32768
280
     0
281
     0
  0
CLASS
  1
ACMSURFSTANDARDISO
  2
AcmSurfTextStdISO
  3
"Amdt_StdImp|Product Description: AutoCAD Mechanical 2004 DX|Company: Autodesk"
 90
        0
280
     0
281
     0
  0
CLASS
  1
ACMFCFSTANDARDISO
  2
AcmFCFStdISO
  3
"Amdt_StdImp|Product Description: AutoCAD Mechanical 2004 DX|Company: Autodesk"
 90
        0
280
     0
281
     0
  0
CLASS
  1
ACMWELDSTANDARDISO
  2
AcmWeldingStdISO
  3
"Amdt_StdImp|Product Description: AutoCAD Mechanical 2004 DX|Company: Autodesk"
 90
        0
280
     0
281
     0
  0
CLASS
  1
ACMIDSTANDARDISO
  2
AcmIdStdISO
  3
"Amdt_StdImp|Product Description: AutoCAD Mechanical 2004 DX|Company: Autodesk"
 90
        0
280
     0
281
     0
  0
CLASS
  1
ACMDATUMSTANDARDISO
  2
AcmDatumStdISO
  3
"Amdt_StdImp|Product Description: AutoCAD Mechanical 2004 DX|Company: Autodesk"
 90
        0
280
     0
281
     0
  0
CLASS
  1
ACMBOMSTANDARDISO
  2
AcmBOMStdISO
  3
"Amdt_StdImp|Product Description: AutoCAD Mechanical 2004 DX|Company: Autodesk"
 90
        0
280
     0
281
     0
  0
CLASS
  1
ACMDETAILSTANDARDISO
  2
AmdtDetailSymStdISO
  3
"Amdt_StdImp|Product Description: AutoCAD Mechanical 2004 DX|Company: Autodesk"
 90
        0
280
     0
281
     0
  0
CLASS
  1
ACMSECTIONSTANDARDISO
  2
AmdtSectionSymStdISO
  3
"Amdt_StdImp|Product Description: AutoCAD Mechanical 2004 DX|Company: Autodesk"
 90
        0
280
     0
281
     0
  0
CLASS
  1
ACMCENTERLINESTANDARDISO
  2
AmdtCenterLineStdISO
  3
"Amdt_StdImp|Product Description: AutoCAD Mechanical 2004 DX|Company: Autodesk"
 90
        0
280
     0
281
     0
  0
CLASS
  1
ACMNOTESTANDARDISO
  2
AmdtNoteStdISO
  3
"Amdt_StdImp|Product Description: AutoCAD Mechanical 2004 DX|Company: Autodesk"
 90
        0
280
     0
281
     0
  0
CLASS
  1
ACAMGLAYSTD
  2
AcAmgLayStd
  3
"AcAmgLayStd|Product Description: AutoCAD Mechanical 2000|Company: Autodesk"
 90
        0
280
     0
281
     0
  0
CLASS
  1
ACAMGDIMSTD
  2
AcAmgDimStd
  3
"AcAmgDimStd|Product Description: AutoCAD Mechanical 2000|Company: Autodesk"
 90
        0
280
     0
281
     0
  0
CLASS
  1
ACAMGHOLECHARTSTDISO
  2
AcAmgHoleChartStdISO
  3
ACMSYMBB_MODULE_NAME
 90
        0
280
     0
281
     0
  0
CLASS
  1
ACAMGTITLESTD
  2
AcAmgTitleStd
  3
"TITLEAPP"
 90
        0
280
     0
281
     0
  0
CLASS
  1
LAYER_INDEX
  2
AcDbLayerIndex
  3
ObjectDBX Classes
 90
    32768
280
     0
281
     0
  0
CLASS
  1
IDBUFFER
  2
AcDbIdBuffer
  3
ObjectDBX Classes
 90
    32768
280
     0
281
     0
  0
CLASS
  1
DICTIONARYVAR
  2
AcDbDictionaryVar
  3
ObjectDBX Classes
 90
        0
280
     0
281
     0
  0
CLASS
  1
ACAMGFILTERDAT
  2
AcAmgFilterDat
  3
"AcadM|Product Description: AutoCAD Mechanical 2000|Company: Autodesk"
 90
    32768
280
     0
281
     0
  0
CLASS
  1
AMDTFORMULAUPDATEDISPATCHER
  2
AmdtFormulaUpdateDispatcher
  3
AcMeServices
 90
    32768
280
     0
281
     0
  0
CLASS
  1
DIMASSOC
  2
AcDbDimAssoc
  3
"AcDbDimAssoc|Product Desc:     AcDim ARX App For Dimension|Company:          Autodesk, Inc.|WEB Address:      www.autodesk.com"
 90
    32768
280
     0
281
     0
  0
CLASS
  1
AMDTNOTE
  2
AmdtNote
  3
"AcmSymBB|Product Description: AutoCAD Mechanical 2004 DX|Company: Autodesk"
 90
     1023
280
     0
281
     1
  0
CLASS
  1
TABLESTYLE
  2
AcDbTableStyle
  3
ObjectDBX Classes
 90
     2047
280
     0
281
     0
  0
CLASS
  1
AM_DRAWING_MGR
  2
AcDmDwgMgr
  3
AcMechDwgViewMgmt
 90
        0
280
     0
281
     0
  0
CLASS
  1
AM_DWG_DOCUMENT
  2
AcDmDwgDocument
  3
AcMechDwgViewMgmt
 90
        0
280
     0
281
     0
  0
CLASS
  1
AM_DWG_SHEET
  2
AcDmSheet
  3
AcMechDwgViewMgmt
 90
        0
280
     0
281
     0
  0
CLASS
  1
AM_VIEWDIMPARMAP
  2
AcDmViewDimParMap
  3
AcMechDwgViewMgmt
 90
        0
280
     0
281
     0
  0
CLASS
  1
AM_DWGMGR_NAME
  2
AcDmDwgMgrName
  3
AcMechDwgViewMgmt
 90
        0
280
     0
281
     0
  0
CLASS
  1
AMDTMENUSTATEMGR
  2
AmdtMenuStateMgr
  3
McadcomServices
 90
        0
280
     0
281
     0
  0
CLASS
  1
AMDTMCOMMENUSTATE
  2
AmdtMcomMenuState
  3
McadcomServices
 90
        0
280
     0
281
     0
  0
CLASS
  1
MAPIAMMOUDLE
  2
MApiAmModule
  3
MApiAmServices
 90
        0
280
     0
281
     0
  0
CLASS
  1
AMDTADMENUSTATE
  2
AmdtAdMenuState
  3
DesignerServices
 90
        0
280
     0
281
     0
  0
CLASS
  1
ADAPPL
  2
AcAdAppl
  3
DesignerServices
 90
        0
280
     0
281
     0
  0
CLASS
  1
DEPMGR
  2
AcAdDepMgr
  3
DesignerServices
 90
        0
280
     0
281
     0
  0
CLASS
  1
PARAMMGR
  2
AcAdParamMgr
  3
DesignerServices
 90
        0
280
     0
281
     0
  0
CLASS
  1
PARAMSCOPE
  2
AcAdParamScope
  3
DesignerServices
 90
        0
280
     0
281
     0
  0
CLASS
  1
NAMEDAPPL
  2
AcAdNamedAppl
  3
DesignerServices
 90
        0
280
     0
281
     0
  0
CLASS
  1
AMDTDMMENUSTATE
  2
AmdtDmMenuState
  3
AcMechDwgViewMgmt
 90
        0
280
     0
281
     0
  0
CLASS
  1
AMDTAMMENUSTATE
  2
AmdtAmMenuState
  3
DesignerAssemblies
 90
        0
280
     0
281
     0
  0
CLASS
  1
ACAMPROJECT
  2
AcAmProject
  3
DesignerAssemblies
 90
        0
280
     0
281
     0
  0
CLASS
  1
ACAMGRCOMPDEF
  2
AcAmGrCompDef
  3
DesignerAssemblies
 90
        0
280
     0
281
     0
  0
CLASS
  1
ACCMCONTEXT
  2
AcCmContext
  3
DesignerAssemblies
 90
        0
280
     0
281
     0
  0
CLASS
  1
ACAMCOMPDEF
  2
AcAmCompDef
  3
DesignerAssemblies
 90
        0
280
     0
281
     0
  0
CLASS
  1
ACAMCOMPDEFMGR
  2
AcAmCompDefMgr
  3
DesignerAssemblies
 90
        0
280
     0
281
     0
  0
CLASS
  1
AMCONTEXTMGR
  2
AcAmContextMgr
  3
DesignerAssemblies
 90
        0
280
     0
281
     0
  0
CLASS
  1
ACAMCONTEXTMODELER
  2
AcAmContextModeler
  3
DesignerAssemblies
 90
        0
280
     0
281
     0
  0
CLASS
  1
ACMTHREADLINESTANDARDISO
  2
AmdtThreadLineStdISO
  3
"Amdt_StdImp|Product Description: AutoCAD Mechanical 2004 DX|Company: Autodesk"
 90
        0
280
     0
281
     0
  0
CLASS
  1
CATALOGSTATE
  2
AcAmCatalogState
  3
DesignerAssemblies
 90
        0
280
     0
281
     0
  0
CLASS
  1
ACAMGRCOMPDEFSET
  2
AcAmGrCompDefSet
  3
DesignerAssemblies
 90
        0
280
     0
281
     0
  0
CLASS
  1
AMDTBROWSERDBTAB
  2
AmdtBrowserDbTab
  3
McadcomServices
 90
        0
280
     0
281
     0
  0
CLASS
  1
CBROWSERAPPOBJECT
  2
CBrowserAppObject
  3
McadcomServices
 90
        0
280
     0
281
     0
  0
CLASS
  1
DM_PLACEHOLDER
  2
AcDmSelsetPlaceholder
  3
AcMechDwgViewMgmt
 90
        0
280
     0
281
     0
  0
CLASS
  1
VAACXREFPANELOBJECT
  2
VaAcXREFPanelObject
  3
VAAC_ADDIN
 90
        0
280
     0
281
     0
  0
CLASS
  1
VAACIMAGEINVENTORY
  2
VaAcImageInventory
  3
VAAC_ADDIN
 90
        0
280
     0
281
     0
  0
CLASS
  1
AMDTEDGESTANDARDISO13715
  2
AmdtEdgeStdISO13715
  3
"Amdt_StdImp|Product Description: AutoCAD Mechanical 2004 DX|Company: Autodesk"
 90
        0
280
     0
281
     0
  0
CLASS
  1
AMDTNOTETEMPLATEDB
  2
AmdtNoteTemplateDB
  3
AMDT_STDIMP_MODULE_NAME
 90
        0
280
     0
281
     0
  0
CLASS
  1
ACRFATTGENMGR
  2
AcRfAttGeneralMgr
  3
AcAttribServices
 90
        0
280
     0
281
     0
  0
CLASS
  1
SORTENTSTABLE
  2
AcDbSortentsTable
  3
ObjectDBX Classes
 90
        0
280
     0
281
     0
  0
CLASS
  1
STDPART2D
  2
AmgStdPart
  3
"AmgStdPart|Product Description: AutoCAD Mechanical 2000|Company: Autodesk"
 90
    33791
280
     0
281
     1
  0
CLASS
  1
ACAMSTDPCOMPDEF
  2
AcAmStdpCompDef
  3
DesignerAssemblies
 90
    32768
280
     0
281
     0
  0
CLASS
  1
ACRFOBJATTMGR
  2
AcRfObjAttGroupMgr
  3
AcAttribServices
 90
    32768
280
     0
281
     0
  0
CLASS
  1
ACRFMCADAPIATTHOLDER
  2
AcRfMCADAPIAttHolder
  3
AcAttribServices
 90
    32768
280
     0
281
     0
  0
CLASS
  1
AMDTSYSATTR
  2
AmdtSystemAttribute
  3
AcAttribServices
 90
    32768
280
     0
281
     0
  0
CLASS
  1
ACAMCOMP
  2
AcAmComp
  3
DesignerAssemblies
 90
    32768
280
     0
281
     0
  0
CLASS
  1
AC_AM_STDP_VIEW_DEF
  2
AcAmStdpViewDef
  3
DesignerAssemblies
 90
    32768
280
     0
281
     0
  0
CLASS
  1
AC_AM_MVD_DEP_MGR
  2
AcAmMVDdepMgr
  3
DesignerAssemblies
 90
        0
280
     0
281
     0
  0
CLASS
  1
AC_AM_MASTER_VIEW_DEF
  2
AcAmMasterViewDef
  3
DesignerAssemblies
 90
        0
280
     0
281
     0
  0
CLASS
  1
AC_AM_DIRTY_NODES
  2
AcAmDirtyNodes
  3
DesignerAssemblies
 90
        0
280
     0
281
     0
  0
CLASS
  1
AC_AM_MAPPER_CACHE
  2
AcAmMapperCache
  3
DesignerAssemblies
 90
        0
280
     0
281
     0
  0
CLASS
  1
ACAMMVDBACKUPOBJECT
  2
AcAmMVDBackupObject
  3
DesignerAssemblies
 90
        0
280
     0
281
     0
  0
CLASS
  1
AC_AM_COMP_VIEW_INST
  2
AcAmCompView
  3
DesignerAssemblies
 90
    32768
280
     0
281
     0
  0
CLASS
  1
AC_AM_2D_XREF_MGR
  2
AcAmXrefMgr2d
  3
DesignerAssemblies
 90
        0
280
     0
281
     0
  0
CLASS
  1
ACMSTANDARDANSI
  2
AcmStandardANSI
  3
"Amdt_StdImp|Product Description: AutoCAD Mechanical 2004 DX|Company: Autodesk"
 90
    32768
280
     0
281
     0
  0
CLASS
  1
ACMSURFSTANDARDANSI
  2
AcmSurfTextStdANSI
  3
"Amdt_StdImp|Product Description: AutoCAD Mechanical 2004 DX|Company: Autodesk"
 90
    32768
280
     0
281
     0
  0
CLASS
  1
ACMFCFSTANDARDANSI
  2
AcmFCFStdANSI
  3
"Amdt_StdImp|Product Description: AutoCAD Mechanical 2004 DX|Company: Autodesk"
 90
    32768
280
     0
281
     0
  0
CLASS
  1
ACMWELDSTANDARDANSI
  2
AcmWeldingStdANSI
  3
"Amdt_StdImp|Product Description: AutoCAD Mechanical 2004 DX|Company: Autodesk"
 90
    32768
280
     0
281
     0
  0
CLASS
  1
ACMIDSTANDARDANSI
  2
AcmIdStdANSI
  3
"Amdt_StdImp|Product Description: AutoCAD Mechanical 2004 DX|Company: Autodesk"
 90
    32768
280
     0
281
     0
  0
CLASS
  1
ACMDATUMSTANDARDANSI
  2
AcmDatumStdANSI
  3
"Amdt_StdImp|Product Description: AutoCAD Mechanical 2004 DX|Company: Autodesk"
 90
    32768
280
     0
281
     0
  0
CLASS
  1
ACMBOMSTANDARDANSI
  2
AcmBOMStdANSI
  3
"Amdt_StdImp|Product Description: AutoCAD Mechanical 2004 DX|Company: Autodesk"
 90
    32768
280
     0
281
     0
  0
CLASS
  1
ACMDETAILSTANDARDANSI
  2
AmdtDetailSymStdANSI
  3
"Amdt_StdImp|Product Description: AutoCAD Mechanical 2004 DX|Company: Autodesk"
 90
    32768
280
     0
281
     0
  0
CLASS
  1
ACMSECTIONSTANDARDANSI
  2
AmdtSectionSymStdANSI
  3
"Amdt_StdImp|Product Description: AutoCAD Mechanical 2004 DX|Company: Autodesk"
 90
    32768
280
     0
281
     0
  0
CLASS
  1
ACMCENTERLINESTANDARDANSI
  2
AmdtCenterLineStdANSI
  3
"Amdt_StdImp|Product Description: AutoCAD Mechanical 2004 DX|Company: Autodesk"
 90
    32768
280
     0
281
     0
  0
CLASS
  1
ACMTHREADLINESTANDARDANSI
  2
AmdtThreadLineStdANSI
  3
"Amdt_StdImp|Product Description: AutoCAD Mechanical 2004 DX|Company: Autodesk"
 90
    32768
280
     0
281
     0
  0
CLASS
  1
ACMNOTESTANDARDANSI
  2
AmdtNoteStdANSI
  3
"Amdt_StdImp|Product Description: AutoCAD Mechanical 2004 DX|Company: Autodesk"
 90
    32768
280
     0
281
     0
  0
CLASS
  1
ACAMGHOLECHARTSTDANSI
  2
AcAmgHoleChartStdANSI
  3
ACMSYMBB_MODULE_NAME
 90
    32768
280
     0
281
     0
  0
ENDSEC
  0
SECTION
  2
TABLES
  0
TABLE
  2
VPORT
  5
8
330
0
100
AcDbSymbolTable
 70
     3
  0
VPORT
  5
431E
330
8
100
AcDbSymbolTableRecord
100
AcDbViewportTableRecord
  2
*Active
 70
     0
 10
0.0
 20
0.0
 11
1.0
 21
1.0
 12
172.4290475650098
 22
193.7813670434835
 13
0.0
 23
0.0
 14
2.5
 24
2.5
 15
10.0
 25
10.0
 16
0.0
 26
0.0
 36
1.0
 17
0.0
 27
0.0
 37
0.0
 40
216.5055078990349
 41
1.81766917293233
 42
50.0
 43
0.0
 44
0.0
 50
0.0
 51
0.0
 71
     0
 72
   100
 73
     1
 74
     3
 75
     0
 76
     0
 77
     0
 78
     0
281
     0
 65
     1
110
0.0
120
0.0
130
0.0
111
1.0
121
0.0
131
0.0
112
0.0
122
1.0
132
0.0
 79
     0
146
0.0
  0
ENDTAB
  0
TABLE
  2
LTYPE
  5
5
330
0
100
AcDbSymbolTable
 70
    14
  0
LTYPE
  5
14
330
5
100
AcDbSymbolTableRecord
100
AcDbLinetypeTableRecord
  2
ByBlock
 70
     0
  3

 72
    65
 73
     0
 40
0.0
  0
LTYPE
  5
15
330
5
100
AcDbSymbolTableRecord
100
AcDbLinetypeTableRecord
  2
ByLayer
 70
     0
  3

 72
    65
 73
     0
 40
0.0
  0
LTYPE
  5
16
330
5
100
AcDbSymbolTableRecord
100
AcDbLinetypeTableRecord
  2
Continuous
 70
     0
  3
Solid line
 72
    65
 73
     0
 40
0.0
  0
LTYPE
  5
4D
330
5
100
AcDbSymbolTableRecord
100
AcDbLinetypeTableRecord
  2
AM_ISO02W050
 70
     0
  3
__ __ __ __ __ __ __ __ __ __ __ __ __ __ __
 72
    65
 73
     2
 40
7.5
 49
6.0
 74
     0
 49
-1.5
 74
     0
  0
LTYPE
  5
4E
330
5
100
AcDbSymbolTableRecord
100
AcDbLinetypeTableRecord
  2
AM_ISO08W050
 70
     0
  3
____ . ____ . ____ . ____ . ____ . ____ . ____
 72
    65
 73
     4
 40
18.0
 49
12.0
 74
     0
 49
-1.5
 74
     0
 49
3.0
 74
     0
 49
-1.5
 74
     0
  0
LTYPE
  5
4F
330
5
100
AcDbSymbolTableRecord
100
AcDbLinetypeTableRecord
  2
AM_ISO09W050
 70
     0
  3
_____ . . _____ . . _____ . . ____ .. ____
 72
    65
 73
     6
 40
22.5
 49
12.0
 74
     0
 49
-1.5
 74
     0
 49
3.0
 74
     0
 49
-1.5
 74
     0
 49
3.0
 74
     0
 49
-1.5
 74
     0
  0
LTYPE
  5
50
330
5
100
AcDbSymbolTableRecord
100
AcDbLinetypeTableRecord
  2
Amconstr
 70
     0
  3
_______________________
 72
    65
 73
     2
 40
9999.0
 49
9999.0
 74
     0
 49
0.0
 74
     0
  0
LTYPE
  5
51
330
5
100
AcDbSymbolTableRecord
100
AcDbLinetypeTableRecord
  2
AM_ISO08W050x2
 70
     0
  3
__ . __ . __ . __ . __ . __
 72
    65
 73
     4
 40
9.0
 49
6.0
 74
     0
 49
-0.75
 74
     0
 49
1.5
 74
     0
 49
-0.75
 74
     0
  0
LTYPE
  5
52
330
5
100
AcDbSymbolTableRecord
100
AcDbLinetypeTableRecord
  2
AM_ISO02W050x2
 70
     0
  3
 _ _ _ _ _ _ _ _ _ _ _ _
 72
    65
 73
     2
 40
3.75
 49
3.0
 74
     0
 49
-0.75
 74
     0
  0
LTYPE
  5
55
330
5
100
AcDbSymbolTableRecord
100
AcDbLinetypeTableRecord
  2
Amzigzag
 70
     0
  3
/\/-/\/-/\/-/\/-/\/-/\/
 72
    65
 73
     2
 40
11.0001
 49
0.0001
 74
     4
 75
   135
340
54
 46
0.04
 50
0.0
 44
0.0
 45
0.0
 49
-11.0
 74
     0
  0
LTYPE
  5
63
330
5
100
AcDbSymbolTableRecord
100
AcDbLinetypeTableRecord
  2
ACISOWELD
 70
     0
  3
_ _ _ _ _
 72
    65
 73
     2
 40
2.0
 49
2.0
 74
     0
 49
-1.0
 74
     0
  0
LTYPE
  5
64
330
5
100
AcDbSymbolTableRecord
100
AcDbLinetypeTableRecord
  2
ACISOTGB
 70
     0
  3
__ . . __ . .
 72
    65
 73
     6
 40
9.0
 49
4.0
 74
     0
 49
-1.0
 74
     0
 49
1.0
 74
     0
 49
-1.0
 74
     0
 49
1.0
 74
     0
 49
-1.0
 74
     0
  0
LTYPE
  5
65
330
5
100
AcDbSymbolTableRecord
100
AcDbLinetypeTableRecord
  2
ACISOTGL
 70
     0
  3
_ _ _ _ _
 72
    65
 73
     2
 40
3.0
 49
2.0
 74
     0
 49
-1.0
 74
     0
  0
LTYPE
  5
68
330
5
100
AcDbSymbolTableRecord
100
AcDbLinetypeTableRecord
  2
CENTER
 70
     0
  3
__ . __
 72
    65
 73
     4
 40
7.0
 49
4.0
 74
     0
 49
-1.0
 74
     0
 49
1.0
 74
     0
 49
-1.0
 74
     0
  0
LTYPE
  5
806
330
5
100
AcDbSymbolTableRecord
100
AcDbLinetypeTableRecord
  2
HIDDEN
 70
     0
  3
Hidden __ __ __ __ __ __ __ __ __ __ __ __ __ _
 72
    65
 73
     2
 40
9.524999999999998
 49
6.349999999999999
 74
     0
 49
-3.174999999999999
 74
     0
  0
LTYPE
  5
807
330
5
100
AcDbSymbolTableRecord
100
AcDbLinetypeTableRecord
  2
PHANTOM2
 70
     0
  3
Phantom (.5x) ___ _ _ ___ _ _ ___ _ _ ___ _ _
 72
    65
 73
     6
 40
31.75
 49
15.875
 74
     0
 49
-3.174999999999999
 74
     0
 49
3.174999999999999
 74
     0
 49
-3.174999999999999
 74
     0
 49
3.174999999999999
 74
     0
 49
-3.174999999999999
 74
     0
  0
ENDTAB
  0
TABLE
  2
LAYER
  5
2
102
{ACAD_XDICTIONARY
360
AAB
102
}
330
0
100
AcDbSymbolTable
 70
     8
  0
LAYER
  5
10
330
2
100
AcDbSymbolTableRecord
100
AcDbLayerTableRecord
  2
0
 70
     0
 62
     7
  6
Continuous
370
    -3
390
F
  0
LAYER
  5
42A
330
2
100
AcDbSymbolTableRecord
100
AcDbLayerTableRecord
  2
AM_5
 70
     0
 62
     5
  6
Continuous
370
    50
390
F
  0
LAYER
  5
43E
330
2
100
AcDbSymbolTableRecord
100
AcDbLayerTableRecord
  2
Defpoints
 70
     0
 62
     7
  6
Continuous
290
     0
370
    -3
390
F
  0
LAYER
  5
CD5
330
2
100
AcDbSymbolTableRecord
100
AcDbLayerTableRecord
  2
AM_7
 70
     0
 62
     1
  6
AM_ISO08W050
370
    25
390
F
  0
LAYER
  5
CD6
330
2
100
AcDbSymbolTableRecord
100
AcDbLayerTableRecord
  2
AM_VIS
 70
     0
 62
     7
  6
Continuous
370
    50
390
F
  0
LAYER
  5
CD7
330
2
100
AcDbSymbolTableRecord
100
AcDbLayerTableRecord
  2
AM_4
 70
     0
 62
     3
  6
Continuous
370
    25
390
F
  0
LAYER
  5
CD9
330
2
100
AcDbSymbolTableRecord
100
AcDbLayerTableRecord
  2
AM_0
 70
     0
 62
     7
  6
Continuous
370
    50
390
F
  0
LAYER
  5
135E
330
2
100
AcDbSymbolTableRecord
100
AcDbLayerTableRecord
  2
LOGO
 70
     0
 62
     7
  6
Continuous
370
    -3
390
F
  0
ENDTAB
  0
TABLE
  2
STYLE
  5
3
330
0
100
AcDbSymbolTable
 70
     6
  0
STYLE
  5
11
330
3
100
AcDbSymbolTableRecord
100
AcDbTextStyleTableRecord
  2
STANDARD
 70
     0
 40
0.0
 41
1.0
 50
0.0
 71
     0
 42
3.5
  3
ISOCP.SHX
  4
CHINESET.SHX
  0
STYLE
  5
54
330
3
100
AcDbSymbolTableRecord
100
AcDbTextStyleTableRecord
  2

 70
     1
 40
0.0
 41
1.0
 50
0.0
 71
     0
 42
2.5
  3
ltypeshp.shx
  4

  0
STYLE
  5
56
330
3
100
AcDbSymbolTableRecord
100
AcDbTextStyleTableRecord
  2
ACISOTS
 70
     0
 40
1.0
 41
1.0
 50
0.0
 71
     0
 42
2.5
  3
isocp.shx
  4
chineset.shx
  0
STYLE
  5
62
330
3
100
AcDbSymbolTableRecord
100
AcDbTextStyleTableRecord
  2
ACISOGDT
 70
     0
 40
0.0
 41
1.0
 50
0.0
 71
     0
 42
3.5
  3
amgdt.shx
  4

  0
STYLE
  5
1360
330
3
100
AcDbSymbolTableRecord
100
AcDbTextStyleTableRecord
  2
CHINESET
 70
     0
 40
0.0
 41
1.0
 50
0.0
 71
     0
 42
4.0
  3
simplex.shx
  4
chineset.shx
  0
ENDTAB
  0
TABLE
  2
VIEW
  5
6
330
0
100
AcDbSymbolTable
 70
     0
  0
ENDTAB
  0
TABLE
  2
UCS
  5
7
330
0
100
AcDbSymbolTable
 70
     0
  0
ENDTAB
  0
TABLE
  2
APPID
  5
9
330
0
100
AcDbSymbolTable
 70
    31
  0
APPID
  5
12
330
9
100
AcDbSymbolTableRecord
100
AcDbRegAppTableRecord
  2
ACAD
 70
     0
  0
APPID
  5
30
330
9
100
AcDbSymbolTableRecord
100
AcDbRegAppTableRecord
  2
MCAD_NO_VIS
 70
     0
  0
APPID
  5
31
330
9
100
AcDbSymbolTableRecord
100
AcDbRegAppTableRecord
  2
ACAD_TEMP_GRAPHIC
 70
     0
  0
APPID
  5
42
330
9
100
AcDbSymbolTableRecord
100
AcDbRegAppTableRecord
  2
ACATTRIBSERVICES
 70
     0
  0
APPID
  5
20A
330
9
100
AcDbSymbolTableRecord
100
AcDbRegAppTableRecord
  2
GENIUS_GENODEF_13
 70
     0
  0
APPID
  5
20B
330
9
100
AcDbSymbolTableRecord
100
AcDbRegAppTableRecord
  2
GENIUS_GENOBJ-N-HTC_13
 70
     0
  0
APPID
  5
20C
330
9
100
AcDbSymbolTableRecord
100
AcDbRegAppTableRecord
  2
GENIUS_GENHATCH_13
 70
     0
  0
APPID
  5
809
330
9
100
AcDbSymbolTableRecord
100
AcDbRegAppTableRecord
  2
AD_DRAW
 70
     0
  0
APPID
  5
827
330
9
100
AcDbSymbolTableRecord
100
AcDbRegAppTableRecord
  2
DESIGNERASSEMBLIES
 70
     0
  0
APPID
  5
82C
330
9
100
AcDbSymbolTableRecord
100
AcDbRegAppTableRecord
  2
ACADM_DIM_EDIT
 70
     0
  0
APPID
  5
82D
330
9
100
AcDbSymbolTableRecord
100
AcDbRegAppTableRecord
  2
AMDT_DM_ADJ
 70
     0
  0
APPID
  5
FE4
330
9
100
AcDbSymbolTableRecord
100
AcDbRegAppTableRecord
  2
GENIUS_GENDTOL_13
 70
     0
  0
APPID
  5
108C
330
9
100
AcDbSymbolTableRecord
100
AcDbRegAppTableRecord
  2
ACAD_DSTYLE_DIMTEXT_FILL
 70
     0
  0
APPID
  5
1201
330
9
100
AcDbSymbolTableRecord
100
AcDbRegAppTableRecord
  2
GEVID1116400677
 70
     0
  0
APPID
  5
1202
330
9
100
AcDbSymbolTableRecord
100
AcDbRegAppTableRecord
  2
GEVDC
 70
     0
  0
APPID
  5
1203
330
9
100
AcDbSymbolTableRecord
100
AcDbRegAppTableRecord
  2
GEVRADREF
 70
     0
  0
APPID
  5
120C
330
9
100
AcDbSymbolTableRecord
100
AcDbRegAppTableRecord
  2
AMG_2DHIDE
 70
     0
  0
APPID
  5
120D
330
9
100
AcDbSymbolTableRecord
100
AcDbRegAppTableRecord
  2
AMG_2DSTRUCT_BTR
 70
     0
  0
APPID
  5
121E
330
9
100
AcDbSymbolTableRecord
100
AcDbRegAppTableRecord
  2
ACADM_2DVIEW_IGN_NOTIFY
 70
     0
  0
APPID
  5
1361
330
9
100
AcDbSymbolTableRecord
100
AcDbRegAppTableRecord
  2
GENIUS_GENREC_14
 70
     0
  0
APPID
  5
1362
330
9
100
AcDbSymbolTableRecord
100
AcDbRegAppTableRecord
  2
GENIUS_GENOBJ-N-REC_13
 70
     0
  0
APPID
  5
1E31
330
9
100
AcDbSymbolTableRecord
100
AcDbRegAppTableRecord
  2
ACAD_PSEXT
 70
     0
  0
APPID
  5
1F6E
330
9
100
AcDbSymbolTableRecord
100
AcDbRegAppTableRecord
  2
GEVID1116471484
 70
     0
  0
APPID
  5
2915
330
9
100
AcDbSymbolTableRecord
100
AcDbRegAppTableRecord
  2
GENIUS_GENOBJ-N-CEN_13
 70
     0
  0
APPID
  5
2916
330
9
100
AcDbSymbolTableRecord
100
AcDbRegAppTableRecord
  2
GENIUS_GENCEN_19
 70
     0
  0
APPID
  5
31F5
330
9
100
AcDbSymbolTableRecord
100
AcDbRegAppTableRecord
  2
GEVID1116471486
 70
     0
  0
APPID
  5
36ED
330
9
100
AcDbSymbolTableRecord
100
AcDbRegAppTableRecord
  2
GEVID1116471487
 70
     0
  0
APPID
  5
3B9C
330
9
100
AcDbSymbolTableRecord
100
AcDbRegAppTableRecord
  2
GENIUS_GENOLIS_13
 70
     0
  0
APPID
  5
3B9D
330
9
100
AcDbSymbolTableRecord
100
AcDbRegAppTableRecord
  2
GENIUS_GENOENT_13
 70
     0
  0
APPID
  5
3B9E
330
9
100
AcDbSymbolTableRecord
100
AcDbRegAppTableRecord
  2
GENIUS_GENOBJ-N-CRS_13
 70
     0
  0
APPID
  5
3B9F
330
9
100
AcDbSymbolTableRecord
100
AcDbRegAppTableRecord
  2
GENIUS_GENOREF_13
 70
     0
  0
ENDTAB
  0
TABLE
  2
DIMSTYLE
  5
A
330
0
100
AcDbSymbolTable
 70
    10
100
AcDbDimStyleTable
 71
     2
340
6B
340
75
  0
DIMSTYLE
105
6B
330
A
100
AcDbSymbolTableRecord
100
AcDbDimStyleTableRecord
  2
AM_ISO
 70
     0
  4
"
 41
3.0
 42
1.0
 43
8.0
 44
1.5
 47
0.1
 48
0.1
 73
     0
 74
     0
 77
     1
 78
     8
 79
     2
140
3.5
141
3.0
143
0.0393701
146
0.71
147
0.8
172
     1
176
   256
177
   256
178
   256
271
     2
272
     2
283
     0
284
     8
340
11
371
    -1
372
    -1
  0
DIMSTYLE
105
6C
330
A
100
AcDbSymbolTableRecord
100
AcDbDimStyleTableRecord
  2
AM_ISO$3
 70
     0
  4
"
 41
3.0
 42
1.0
 43
8.0
 44
1.5
 47
0.1
 48
0.1
 73
     0
 77
     1
 78
     8
 79
     2
140
3.5
141
3.0
143
0.0393701
146
0.71
147
0.8
176
   256
177
   256
178
   256
271
     2
272
     2
283
     0
284
     8
288
     1
289
     0
340
11
371
    -1
372
    -1
  0
DIMSTYLE
105
6D
330
A
100
AcDbSymbolTableRecord
100
AcDbDimStyleTableRecord
  2
AM_ISO$4
 70
     0
  4
"
 41
3.0
 42
1.0
 43
8.0
 44
1.5
 47
0.1
 48
0.1
 73
     0
 77
     1
 78
     8
 79
     2
140
3.5
141
3.0
143
0.0393701
146
0.71
147
0.8
176
   256
177
   256
178
   256
271
     2
272
     2
283
     0
284
     8
288
     1
289
     0
340
11
371
    -1
372
    -1
  0
DIMSTYLE
105
6E
330
A
100
AcDbSymbolTableRecord
100
AcDbDimStyleTableRecord
  2
AM_ISO$6
 70
     0
  4
"
 41
3.0
 42
1.0
 43
8.0
 44
1.5
 47
0.1
 48
0.1
 73
     0
 74
     0
 78
     8
 79
     2
140
3.5
141
3.0
143
0.0393701
146
0.71
147
0.8
172
     1
176
   256
177
   256
178
   256
271
     2
272
     2
283
     0
284
     8
340
11
371
    -1
372
    -1
  0
DIMSTYLE
105
6F
330
A
100
AcDbSymbolTableRecord
100
AcDbDimStyleTableRecord
  2
AM_ISO$7
 70
     0
  4
"
 41
3.0
 42
1.0
 43
8.0
 44
1.5
 47
0.1
 48
0.1
 73
     0
 74
     0
 77
     1
 78
     8
 79
     2
140
5.0
141
3.0
143
0.0393701
146
0.71
147
0.8
172
     1
176
   256
177
   256
178
   256
271
     2
272
     2
283
     0
284
     8
340
11
371
    -1
372
    -1
  0
DIMSTYLE
105
70
330
A
100
AcDbSymbolTableRecord
100
AcDbDimStyleTableRecord
  2
AM_ISO$SF
 70
     0
  4
"
 41
2.5
 42
1.0
 43
10.0
 44
1.0
 47
0.1
 48
0.1
 73
     0
 74
     0
 75
     1
 76
     1
 77
     1
 78
     8
 79
     2
140
3.5
141
0.0
143
0.0393701
146
0.71
147
1.5
172
     1
176
   256
177
   256
178
     2
271
     2
272
     3
274
     4
283
     0
284
     8
340
11
371
    -1
372
    -1
  0
DIMSTYLE
105
75
330
A
100
AcDbSymbolTableRecord
100
AcDbDimStyleTableRecord
  2
AM_ISO$SH
 70
     0
  4
"
 41
2.5
 42
1.0
 43
10.0
 44
1.0
 47
0.1
 48
0.1
 73
     0
 74
     0
 75
     1
 76
     1
 77
     1
 78
     8
 79
     2
140
3.5
141
0.0
143
0.0393701
144
2.0
146
0.71
147
1.5
172
     1
173
     1
176
   256
177
   256
178
     2
271
     2
272
     3
274
     4
283
     0
284
     8
340
11
343
71
371
    -1
372
    -1
  0
DIMSTYLE
105
AAA
102
{ACAD_REACTORS
330
3722
330
3748
330
376E
330
3794
330
37E0
330
3806
330
382C
330
3852
102
}
330
A
100
AcDbSymbolTableRecord
100
AcDbDimStyleTableRecord
  2
AM_ISO$0
 70
     0
  4
"
 41
3.0
 42
1.0
 43
8.0
 44
1.5
 47
0.1
 48
0.1000000001
 73
     0
 74
     0
 77
     1
 78
     8
 79
     2
140
3.0
141
0.0
143
0.0393701
146
0.71
147
1.0
172
     1
176
   256
177
   256
178
   256
271
     2
272
     2
283
     2
284
     8
340
11
371
    -1
372
    -1
  0
DIMSTYLE
105
157A
330
A
100
AcDbSymbolTableRecord
100
AcDbDimStyleTableRecord
  2
STANDARD
 70
     0
 41
3.0
 42
2.0
 43
8.0
 44
2.0
 73
     0
 74
     0
 77
     1
 78
     8
 79
     2
140
3.0
141
5.0
147
1.0
176
   256
177
   256
178
   256
271
     2
272
     2
279
     2
284
     8
285
     8
286
     8
340
1360
  0
ENDTAB
  0
TABLE
  2
BLOCK_RECORD
  5
1
330
0
100
AcDbSymbolTable
 70
    16
  0
BLOCK_RECORD
  5
1F
102
{ACAD_XDICTIONARY
360
7D
102
}
330
1
100
AcDbSymbolTableRecord
100
AcDbBlockTableRecord
  2
*Model_Space
340
22
  0
BLOCK_RECORD
  5
1B
330
1
100
AcDbSymbolTableRecord
100
AcDbBlockTableRecord
  2
*Paper_Space
340
1E
  0
BLOCK_RECORD
  5
23
330
1
100
AcDbSymbolTableRecord
100
AcDbBlockTableRecord
  2
*Paper_Space0
340
26
  0
BLOCK_RECORD
  5
71
330
1
100
AcDbSymbolTableRecord
100
AcDbBlockTableRecord
  2
GENAXEH
340
0
  0
BLOCK_RECORD
  5
3211
330
1
100
AcDbSymbolTableRecord
100
AcDbBlockTableRecord
  2
*U4
340
0
  0
BLOCK_RECORD
  5
3723
330
1
100
AcDbSymbolTableRecord
100
AcDbBlockTableRecord
  2
*D5
340
0
  0
BLOCK_RECORD
  5
3749
330
1
100
AcDbSymbolTableRecord
100
AcDbBlockTableRecord
  2
*D6
340
0
  0
BLOCK_RECORD
  5
376F
330
1
100
AcDbSymbolTableRecord
100
AcDbBlockTableRecord
  2
*D7
340
0
  0
BLOCK_RECORD
  5
3795
330
1
100
AcDbSymbolTableRecord
100
AcDbBlockTableRecord
  2
*D8
340
0
  0
BLOCK_RECORD
  5
37E1
330
1
100
AcDbSymbolTableRecord
100
AcDbBlockTableRecord
  2
*D9
340
0
  0
BLOCK_RECORD
  5
3807
330
1
100
AcDbSymbolTableRecord
100
AcDbBlockTableRecord
  2
*D10
340
0
  0
BLOCK_RECORD
  5
382D
330
1
100
AcDbSymbolTableRecord
100
AcDbBlockTableRecord
  2
*D11
340
0
  0
BLOCK_RECORD
  5
3853
330
1
100
AcDbSymbolTableRecord
100
AcDbBlockTableRecord
  2
*D12
340
0
  0
BLOCK_RECORD
  5
430D
330
1
100
AcDbSymbolTableRecord
100
AcDbBlockTableRecord
  2
*S14
340
0
  0
BLOCK_RECORD
  5
4315
330
1
100
AcDbSymbolTableRecord
100
AcDbBlockTableRecord
  2
*S15
340
0
  0
ENDTAB
  0
ENDSEC
  0
SECTION
  2
BLOCKS
  0
BLOCK
  5
20
330
1F
100
AcDbEntity
  8
0
100
AcDbBlockBegin
  2
*Model_Space
 70
     0
 10
0.0
 20
0.0
 30
0.0
  3
*Model_Space
  1

  0
ENDBLK
  5
21
330
1F
100
AcDbEntity
  8
0
100
AcDbBlockEnd
  0
BLOCK
  5
1C
330
1B
100
AcDbEntity
 67
     1
  8
0
100
AcDbBlockBegin
  2
*Paper_Space
 70
     0
 10
0.0
 20
0.0
 30
0.0
  3
*Paper_Space
  1

  0
ENDBLK
  5
1D
330
1B
100
AcDbEntity
 67
     1
  8
0
100
AcDbBlockEnd
  0
BLOCK
  5
24
330
23
100
AcDbEntity
  8
0
100
AcDbBlockBegin
  2
*Paper_Space0
 70
     0
 10
0.0
 20
0.0
 30
0.0
  3
*Paper_Space0
  1

  0
ENDBLK
  5
25
330
23
100
AcDbEntity
  8
0
100
AcDbBlockEnd
  0
BLOCK
  5
73
330
71
100
AcDbEntity
  8
0
100
AcDbBlockBegin
  2
GENAXEH
 70
     0
 10
0.0
 20
0.0
 30
0.0
  3
GENAXEH
  1

  0
LINE
  5
72
330
71
100
AcDbEntity
  8
0
100
AcDbLine
 10
-1.0
 20
0.0
 30
0.0
 11
1.0
 21
0.0
 31
0.0
  0
ENDBLK
  5
74
330
71
100
AcDbEntity
  8
0
100
AcDbBlockEnd
  0
BLOCK
  5
3212
330
3211
100
AcDbEntity
  8
0
100
AcDbBlockBegin
  2
*U4
 70
     1
 10
0.0
 20
0.0
 30
0.0
  3
*U4
  1

  0
ENDBLK
  5
3213
330
3211
100
AcDbEntity
  8
0
100
AcDbBlockEnd
  0
BLOCK
  5
372D
330
3723
100
AcDbEntity
  8
0
100
AcDbBlockBegin
  2
*D5
 70
     1
 10
0.0
 20
0.0
 30
0.0
  3
*D5
  1

  0
LINE
  5
425D
330
3723
100
AcDbEntity
  8
AM_5
100
AcDbLine
 10
121.7064387037111
 20
136.5267001444971
 30
0.0
 11
121.7064387037111
 21
122.7492001444972
 31
0.0
  0
LINE
  5
425E
330
3723
100
AcDbEntity
  8
AM_5
100
AcDbLine
 10
143.2064387037111
 20
136.5267001444971
 30
0.0
 11
143.2064387037111
 21
122.7492001444972
 31
0.0
  0
LINE
  5
425F
330
3723
100
AcDbEntity
  8
AM_5
100
AcDbLine
 10
124.7064387037111
 20
124.2492001444972
 30
0.0
 11
140.2064387037111
 21
124.2492001444972
 31
0.0
  0
SOLID
  5
4260
330
3723
100
AcDbEntity
  8
AM_5
100
AcDbTrace
 10
124.7064387037111
 20
124.7492001444972
 30
0.0
 11
124.7064387037111
 21
123.7492001444972
 31
0.0
 12
121.7064387037111
 22
124.2492001444972
 32
0.0
 13
121.7064387037111
 23
124.2492001444972
 33
0.0
  0
SOLID
  5
4261
330
3723
100
AcDbEntity
  8
AM_5
100
AcDbTrace
 10
140.2064387037111
 20
124.7492001444972
 30
0.0
 11
140.2064387037111
 21
123.7492001444972
 31
0.0
 12
143.2064387037111
 22
124.2492001444972
 32
0.0
 13
143.2064387037111
 23
124.2492001444972
 33
0.0
  0
MTEXT
  5
4262
330
3723
100
AcDbEntity
  8
AM_5
100
AcDbMText
 10
132.4564387037111
 20
126.7494954200877
 30
0.0
 40
3.0
 41
0.0
 71
     5
 72
     1
  1
\A2;21.5
 73
     1
 44
1.0
1001
ACAD
1000
MTEXTBEGIN
1070
    73
1070
     1
1070
    44
1040
1.0
1070
    74
1070
     0
1000
MTEXTEND
  0
POINT
  5
4263
330
3723
100
AcDbEntity
  8
Defpoints
 62
     0
100
AcDbPoint
 10
121.7064387037111
 20
137.5267001444971
 30
0.0
  0
POINT
  5
4264
330
3723
100
AcDbEntity
  8
Defpoints
 62
     0
100
AcDbPoint
 10
143.2064387037111
 20
137.5267001444971
 30
0.0
  0
POINT
  5
4265
330
3723
100
AcDbEntity
  8
Defpoints
 62
     0
100
AcDbPoint
 10
143.2064387037111
 20
124.2492001444972
 30
0.0
  0
ENDBLK
  5
372E
330
3723
100
AcDbEntity
  8
0
100
AcDbBlockEnd
  0
BLOCK
  5
3753
330
3749
100
AcDbEntity
  8
0
100
AcDbBlockBegin
  2
*D6
 70
     1
 10
0.0
 20
0.0
 30
0.0
  3
*D6
  1

  0
LINE
  5
4266
330
3749
100
AcDbEntity
  8
AM_5
100
AcDbLine
 10
143.2064387037111
 20
136.5267001444971
 30
0.0
 11
143.2064387037111
 21
122.7492001444972
 31
0.0
  0
LINE
  5
4267
330
3749
100
AcDbEntity
  8
AM_5
100
AcDbLine
 10
164.7064387037111
 20
136.5267001444971
 30
0.0
 11
164.7064387037111
 21
122.7492001444972
 31
0.0
  0
LINE
  5
4268
330
3749
100
AcDbEntity
  8
AM_5
100
AcDbLine
 10
146.2064387037111
 20
124.2492001444972
 30
0.0
 11
161.7064387037111
 21
124.2492001444972
 31
0.0
  0
SOLID
  5
4269
330
3749
100
AcDbEntity
  8
AM_5
100
AcDbTrace
 10
146.2064387037111
 20
124.7492001444972
 30
0.0
 11
146.2064387037111
 21
123.7492001444972
 31
0.0
 12
143.2064387037111
 22
124.2492001444972
 32
0.0
 13
143.2064387037111
 23
124.2492001444972
 33
0.0
  0
SOLID
  5
426A
330
3749
100
AcDbEntity
  8
AM_5
100
AcDbTrace
 10
161.7064387037111
 20
124.7492001444972
 30
0.0
 11
161.7064387037111
 21
123.7492001444972
 31
0.0
 12
164.7064387037111
 22
124.2492001444972
 32
0.0
 13
164.7064387037111
 23
124.2492001444972
 33
0.0
  0
MTEXT
  5
426B
330
3749
100
AcDbEntity
  8
AM_5
100
AcDbMText
 10
153.9564387037111
 20
126.7494954200878
 30
0.0
 40
3.0
 41
0.0
 71
     5
 72
     1
  1
\A2;21.5
 73
     1
 44
1.0
1001
ACAD
1000
MTEXTBEGIN
1070
    73
1070
     1
1070
    44
1040
1.0
1070
    74
1070
     0
1000
MTEXTEND
  0
POINT
  5
426C
330
3749
100
AcDbEntity
  8
Defpoints
 62
     0
100
AcDbPoint
 10
143.2064387037111
 20
137.5267001444971
 30
0.0
  0
POINT
  5
426D
330
3749
100
AcDbEntity
  8
Defpoints
 62
     0
100
AcDbPoint
 10
164.7064387037111
 20
137.5267001444971
 30
0.0
  0
POINT
  5
426E
330
3749
100
AcDbEntity
  8
Defpoints
 62
     0
100
AcDbPoint
 10
164.7064387037111
 20
124.2492001444972
 30
0.0
  0
ENDBLK
  5
3754
330
3749
100
AcDbEntity
  8
0
100
AcDbBlockEnd
  0
BLOCK
  5
3779
330
376F
100
AcDbEntity
  8
0
100
AcDbBlockBegin
  2
*D7
 70
     1
 10
0.0
 20
0.0
 30
0.0
  3
*D7
  1

  0
LINE
  5
426F
330
376F
100
AcDbEntity
  8
AM_5
100
AcDbLine
 10
113.2064387037111
 20
136.2492001444972
 30
0.0
 11
113.2064387037111
 21
114.7492001444972
 31
0.0
  0
LINE
  5
4270
330
376F
100
AcDbEntity
  8
AM_5
100
AcDbLine
 10
173.2064387037111
 20
136.2492001444972
 30
0.0
 11
173.2064387037111
 21
114.7492001444972
 31
0.0
  0
LINE
  5
4271
330
376F
100
AcDbEntity
  8
AM_5
100
AcDbLine
 10
116.2064387037111
 20
116.2492001444973
 30
0.0
 11
170.2064387037111
 21
116.2492001444973
 31
0.0
  0
SOLID
  5
4272
330
376F
100
AcDbEntity
  8
AM_5
100
AcDbTrace
 10
116.2064387037111
 20
116.7492001444973
 30
0.0
 11
116.2064387037111
 21
115.7492001444972
 31
0.0
 12
113.2064387037111
 22
116.2492001444973
 32
0.0
 13
113.2064387037111
 23
116.2492001444973
 33
0.0
  0
SOLID
  5
4273
330
376F
100
AcDbEntity
  8
AM_5
100
AcDbTrace
 10
170.2064387037111
 20
116.7492001444973
 30
0.0
 11
170.2064387037111
 21
115.7492001444972
 31
0.0
 12
173.2064387037111
 22
116.2492001444973
 32
0.0
 13
173.2064387037111
 23
116.2492001444973
 33
0.0
  0
MTEXT
  5
4274
330
376F
100
AcDbEntity
  8
AM_5
100
AcDbMText
 10
143.2064387037111
 20
118.7492001444973
 30
0.0
 40
3.0
 41
0.0
 71
     5
 72
     1
  1
\A2;60
 73
     1
 44
1.0
1001
ACAD
1000
MTEXTBEGIN
1070
    73
1070
     1
1070
    44
1040
1.0
1070
    74
1070
     0
1000
MTEXTEND
  0
POINT
  5
4275
330
376F
100
AcDbEntity
  8
Defpoints
 62
     0
100
AcDbPoint
 10
113.2064387037111
 20
137.2492001444972
 30
0.0
  0
POINT
  5
4276
330
376F
100
AcDbEntity
  8
Defpoints
 62
     0
100
AcDbPoint
 10
173.2064387037111
 20
137.2492001444972
 30
0.0
  0
POINT
  5
4277
330
376F
100
AcDbEntity
  8
Defpoints
 62
     0
100
AcDbPoint
 10
173.2064387037111
 20
116.2492001444973
 30
0.0
  0
ENDBLK
  5
377A
330
376F
100
AcDbEntity
  8
0
100
AcDbBlockEnd
  0
BLOCK
  5
379F
330
3795
100
AcDbEntity
  8
0
100
AcDbBlockBegin
  2
*D8
 70
     1
 10
0.0
 20
0.0
 30
0.0
  3
*D8
  1

  0
LINE
  5
4278
330
3795
100
AcDbEntity
  8
AM_5
100
AcDbLine
 10
173.2064387037111
 20
136.2492001444972
 30
0.0
 11
186.7064387037111
 21
136.2492001444972
 31
0.0
  0
LINE
  5
4279
330
3795
100
AcDbEntity
  8
AM_5
100
AcDbLine
 10
174.4289387037111
 20
146.2492001444972
 30
0.0
 11
186.7064387037111
 21
146.2492001444972
 31
0.0
  0
LINE
  5
427A
330
3795
100
AcDbEntity
  8
AM_5
100
AcDbLine
 10
185.2064387037111
 20
139.2492001444972
 30
0.0
 11
185.2064387037111
 21
143.2492001444972
 31
0.0
  0
SOLID
  5
427B
330
3795
100
AcDbEntity
  8
AM_5
100
AcDbTrace
 10
184.7064387037111
 20
139.2492001444972
 30
0.0
 11
185.7064387037111
 21
139.2492001444972
 31
0.0
 12
185.2064387037111
 22
136.2492001444972
 32
0.0
 13
185.2064387037111
 23
136.2492001444972
 33
0.0
  0
SOLID
  5
427C
330
3795
100
AcDbEntity
  8
AM_5
100
AcDbTrace
 10
184.7064387037111
 20
143.2492001444972
 30
0.0
 11
185.7064387037111
 21
143.2492001444972
 31
0.0
 12
185.2064387037111
 22
146.2492001444972
 32
0.0
 13
185.2064387037111
 23
146.2492001444972
 33
0.0
  0
MTEXT
  5
427D
330
3795
100
AcDbEntity
  8
AM_5
100
AcDbMText
 10
182.7064387037111
 20
141.2492001444972
 30
0.0
 40
3.0
 41
0.0
 71
     5
 72
     1
  1
\A2;10
 11
0.0000000000000001
 21
1.0
 31
0.0
 73
     1
 44
1.0
1001
ACAD
1000
MTEXTBEGIN
1070
    73
1070
     1
1070
    44
1040
1.0
1070
    74
1070
     0
1000
MTEXTEND
  0
POINT
  5
427E
330
3795
100
AcDbEntity
  8
Defpoints
 62
     0
100
AcDbPoint
 10
172.2064387037111
 20
136.2492001444972
 30
0.0
  0
POINT
  5
427F
330
3795
100
AcDbEntity
  8
Defpoints
 62
     0
100
AcDbPoint
 10
173.4289387037111
 20
146.2492001444972
 30
0.0
  0
POINT
  5
4280
330
3795
100
AcDbEntity
  8
Defpoints
 62
     0
100
AcDbPoint
 10
185.2064387037111
 20
146.2492001444972
 30
0.0
  0
ENDBLK
  5
37A0
330
3795
100
AcDbEntity
  8
0
100
AcDbBlockEnd
  0
BLOCK
  5
37EB
330
37E1
100
AcDbEntity
  8
0
100
AcDbBlockBegin
  2
*D9
 70
     1
 10
0.0
 20
0.0
 30
0.0
  3
*D9
  1

  0
LINE
  5
4281
330
37E1
100
AcDbEntity
  8
AM_5
100
AcDbLine
 10
173.2064387037111
 20
136.2492001444972
 30
0.0
 11
194.7064387037111
 21
136.2492001444971
 31
0.0
  0
LINE
  5
4282
330
37E1
100
AcDbEntity
  8
AM_5
100
AcDbLine
 10
168.2064387037111
 20
161.2492001444972
 30
0.0
 11
194.7064387037111
 21
161.2492001444971
 31
0.0
  0
LINE
  5
4283
330
37E1
100
AcDbEntity
  8
AM_5
100
AcDbLine
 10
193.2064387037111
 20
139.2492001444971
 30
0.0
 11
193.2064387037111
 21
158.2492001444971
 31
0.0
  0
SOLID
  5
4284
330
37E1
100
AcDbEntity
  8
AM_5
100
AcDbTrace
 10
192.7064387037111
 20
139.2492001444971
 30
0.0
 11
193.7064387037111
 21
139.2492001444971
 31
0.0
 12
193.2064387037111
 22
136.2492001444971
 32
0.0
 13
193.2064387037111
 23
136.2492001444971
 33
0.0
  0
SOLID
  5
4285
330
37E1
100
AcDbEntity
  8
AM_5
100
AcDbTrace
 10
192.7064387037111
 20
158.2492001444971
 30
0.0
 11
193.7064387037111
 21
158.2492001444971
 31
0.0
 12
193.2064387037111
 22
161.2492001444971
 32
0.0
 13
193.2064387037111
 23
161.2492001444971
 33
0.0
  0
MTEXT
  5
4286
330
37E1
100
AcDbEntity
  8
AM_5
100
AcDbMText
 10
190.7061434281205
 20
148.7492001444972
 30
0.0
 40
3.0
 41
0.0
 71
     5
 72
     1
  1
\A2;25
 11
0.0000000000000001
 21
1.0
 31
0.0
 73
     1
 44
1.0
1001
ACAD
1000
MTEXTBEGIN
1070
    73
1070
     1
1070
    44
1040
1.0
1070
    74
1070
     0
1000
MTEXTEND
  0
POINT
  5
4287
330
37E1
100
AcDbEntity
  8
Defpoints
 62
     0
100
AcDbPoint
 10
172.2064387037111
 20
136.2492001444972
 30
0.0
  0
POINT
  5
4288
330
37E1
100
AcDbEntity
  8
Defpoints
 62
     0
100
AcDbPoint
 10
167.2064387037111
 20
161.2492001444972
 30
0.0
  0
POINT
  5
4289
330
37E1
100
AcDbEntity
  8
Defpoints
 62
     0
100
AcDbPoint
 10
193.2064387037111
 20
161.2492001444971
 30
0.0
  0
ENDBLK
  5
37EC
330
37E1
100
AcDbEntity
  8
0
100
AcDbBlockEnd
  0
BLOCK
  5
3811
330
3807
100
AcDbEntity
  8
0
100
AcDbBlockBegin
  2
*D10
 70
     1
 10
0.0
 20
0.0
 30
0.0
  3
*D10
  1

  0
LINE
  5
428A
330
3807
100
AcDbEntity
  8
AM_5
100
AcDbLine
 10
132.7064387037111
 20
184.9413227530374
 30
0.0
 11
132.7064387037111
 21
171.2913227530374
 31
0.0
  0
LINE
  5
428B
330
3807
100
AcDbEntity
  8
AM_5
100
AcDbLine
 10
153.7064387037111
 20
184.9413227530374
 30
0.0
 11
153.7064387037111
 21
171.2913227530374
 31
0.0
  0
LINE
  5
428C
330
3807
100
AcDbEntity
  8
AM_5
100
AcDbLine
 10
135.7064387037111
 20
172.7913227530374
 30
0.0
 11
150.7064387037111
 21
172.7913227530374
 31
0.0
  0
SOLID
  5
428D
330
3807
100
AcDbEntity
  8
AM_5
100
AcDbTrace
 10
135.7064387037111
 20
173.2913227530374
 30
0.0
 11
135.7064387037111
 21
172.2913227530374
 31
0.0
 12
132.7064387037111
 22
172.7913227530374
 32
0.0
 13
132.7064387037111
 23
172.7913227530374
 33
0.0
  0
SOLID
  5
428E
330
3807
100
AcDbEntity
  8
AM_5
100
AcDbTrace
 10
150.7064387037111
 20
173.2913227530374
 30
0.0
 11
150.7064387037111
 21
172.2913227530374
 31
0.0
 12
153.7064387037111
 22
172.7913227530374
 32
0.0
 13
153.7064387037111
 23
172.7913227530374
 33
0.0
  0
MTEXT
  5
428F
330
3807
100
AcDbEntity
  8
AM_5
100
AcDbMText
 10
143.2064387037111
 20
175.291618028628
 30
0.0
 40
3.0
 41
0.0
 71
     5
 72
     1
  1
\A2;21
 73
     1
 44
1.0
1001
ACAD
1000
MTEXTBEGIN
1070
    73
1070
     1
1070
    44
1040
1.0
1070
    74
1070
     0
1000
MTEXTEND
  0
POINT
  5
4290
330
3807
100
AcDbEntity
  8
Defpoints
 62
     0
100
AcDbPoint
 10
132.7064387037111
 20
185.9413227530374
 30
0.0
  0
POINT
  5
4291
330
3807
100
AcDbEntity
  8
Defpoints
 62
     0
100
AcDbPoint
 10
153.7064387037111
 20
185.9413227530374
 30
0.0
  0
POINT
  5
4292
330
3807
100
AcDbEntity
  8
Defpoints
 62
     0
100
AcDbPoint
 10
153.7064387037111
 20
172.7913227530374
 30
0.0
  0
ENDBLK
  5
3812
330
3807
100
AcDbEntity
  8
0
100
AcDbBlockEnd
  0
BLOCK
  5
3837
330
382D
100
AcDbEntity
  8
0
100
AcDbBlockBegin
  2
*D11
 70
     1
 10
0.0
 20
0.0
 30
0.0
  3
*D11
  1

  0
LINE
  5
4293
330
382D
100
AcDbEntity
  8
AM_5
100
AcDbLine
 10
174.2064387037111
 20
184.7913227530374
 30
0.0
 11
186.7064387037111
 21
184.7913227530374
 31
0.0
  0
LINE
  5
4294
330
382D
100
AcDbEntity
  8
AM_5
100
AcDbLine
 10
158.5564387037111
 20
189.7913227530374
 30
0.0
 11
186.7064387037111
 21
189.7913227530374
 31
0.0
  0
LINE
  5
4295
330
382D
100
AcDbEntity
  8
AM_5
100
AcDbLine
 10
185.2064387037111
 20
181.7913227530374
 30
0.0
 11
185.2064387037111
 21
178.7913227530374
 31
0.0
  0
LINE
  5
4296
330
382D
100
AcDbEntity
  8
AM_5
100
AcDbLine
 10
185.2064387037111
 20
192.7913227530374
 30
0.0
 11
185.2064387037111
 21
195.7913227530374
 31
0.0
  0
LINE
  5
4297
330
382D
100
AcDbEntity
  8
AM_5
100
AcDbLine
 10
185.2064387037111
 20
184.7913227530374
 30
0.0
 11
185.2064387037111
 21
189.7913227530374
 31
0.0
  0
SOLID
  5
4298
330
382D
100
AcDbEntity
  8
AM_5
100
AcDbTrace
 10
184.7064387037111
 20
181.7913227530374
 30
0.0
 11
185.7064387037111
 21
181.7913227530374
 31
0.0
 12
185.2064387037111
 22
184.7913227530374
 32
0.0
 13
185.2064387037111
 23
184.7913227530374
 33
0.0
  0
SOLID
  5
4299
330
382D
100
AcDbEntity
  8
AM_5
100
AcDbTrace
 10
184.7064387037111
 20
192.7913227530374
 30
0.0
 11
185.7064387037111
 21
192.7913227530374
 31
0.0
 12
185.2064387037111
 22
189.7913227530374
 32
0.0
 13
185.2064387037111
 23
189.7913227530374
 33
0.0
  0
MTEXT
  5
429A
330
382D
100
AcDbEntity
  8
AM_5
100
AcDbMText
 10
182.7064387037111
 20
187.2913227530374
 30
0.0
 40
3.0
 41
0.0
 71
     5
 72
     1
  1
\A2;5
 11
0.0000000000000001
 21
1.0
 31
0.0
 73
     1
 44
1.0
1001
ACAD
1000
MTEXTBEGIN
1070
    73
1070
     1
1070
    44
1040
1.0
1070
    74
1070
     0
1000
MTEXTEND
  0
POINT
  5
429B
330
382D
100
AcDbEntity
  8
Defpoints
 62
     0
100
AcDbPoint
 10
173.2064387037111
 20
184.7913227530374
 30
0.0
  0
POINT
  5
429C
330
382D
100
AcDbEntity
  8
Defpoints
 62
     0
100
AcDbPoint
 10
157.5564387037111
 20
189.7913227530374
 30
0.0
  0
POINT
  5
429D
330
382D
100
AcDbEntity
  8
Defpoints
 62
     0
100
AcDbPoint
 10
185.2064387037111
 20
189.7913227530374
 30
0.0
  0
ENDBLK
  5
3838
330
382D
100
AcDbEntity
  8
0
100
AcDbBlockEnd
  0
BLOCK
  5
385D
330
3853
100
AcDbEntity
  8
0
100
AcDbBlockBegin
  2
*D12
 70
     1
 10
0.0
 20
0.0
 30
0.0
  3
*D12
  1

  0
LINE
  5
429E
330
3853
100
AcDbEntity
  8
AM_5
100
AcDbLine
 10
158.5564387037111
 20
253.7913227530374
 30
0.0
 11
186.7064397037111
 21
253.7913227530374
 31
0.0
  0
LINE
  5
429F
330
3853
100
AcDbEntity
  8
AM_5
100
AcDbLine
 10
174.2064387037111
 20
258.7913227530374
 30
0.0
 11
186.7064397037111
 21
258.7913227530374
 31
0.0
  0
LINE
  5
42A0
330
3853
100
AcDbEntity
  8
AM_5
100
AcDbLine
 10
185.2064397037111
 20
250.7913227530374
 30
0.0
 11
185.2064397037111
 21
247.7913227530375
 31
0.0
  0
LINE
  5
42A1
330
3853
100
AcDbEntity
  8
AM_5
100
AcDbLine
 10
185.2064397037111
 20
261.7913227530374
 30
0.0
 11
185.2064397037111
 21
264.7913227530374
 31
0.0
  0
LINE
  5
42A2
330
3853
100
AcDbEntity
  8
AM_5
100
AcDbLine
 10
185.2064397037111
 20
253.7913227530374
 30
0.0
 11
185.2064397037111
 21
258.7913227530374
 31
0.0
  0
SOLID
  5
42A3
330
3853
100
AcDbEntity
  8
AM_5
100
AcDbTrace
 10
184.7064397037111
 20
250.7913227530374
 30
0.0
 11
185.7064397037111
 21
250.7913227530374
 31
0.0
 12
185.2064397037111
 22
253.7913227530374
 32
0.0
 13
185.2064397037111
 23
253.7913227530374
 33
0.0
  0
SOLID
  5
42A4
330
3853
100
AcDbEntity
  8
AM_5
100
AcDbTrace
 10
184.7064397037111
 20
261.7913227530374
 30
0.0
 11
185.7064397037111
 21
261.7913227530374
 31
0.0
 12
185.2064397037111
 22
258.7913227530374
 32
0.0
 13
185.2064397037111
 23
258.7913227530374
 33
0.0
  0
MTEXT
  5
42A5
330
3853
100
AcDbEntity
  8
AM_5
100
AcDbMText
 10
182.706439703711
 20
256.2913227530375
 30
0.0
 40
3.0
 41
0.0
 71
     5
 72
     1
  1
\A2;5
 11
0.0000000000000001
 21
1.0
 31
0.0
 73
     1
 44
1.0
1001
ACAD
1000
MTEXTBEGIN
1070
    73
1070
     1
1070
    44
1040
1.0
1070
    74
1070
     0
1000
MTEXTEND
  0
POINT
  5
42A6
330
3853
100
AcDbEntity
  8
Defpoints
 62
     0
100
AcDbPoint
 10
157.5564387037111
 20
253.7913227530374
 30
0.0
  0
POINT
  5
42A7
330
3853
100
AcDbEntity
  8
Defpoints
 62
     0
100
AcDbPoint
 10
173.2064387037111
 20
258.7913227530374
 30
0.0
  0
POINT
  5
42A8
330
3853
100
AcDbEntity
  8
Defpoints
 62
     0
100
AcDbPoint
 10
185.2064397037111
 20
258.7913227530374
 30
0.0
  0
ENDBLK
  5
385E
330
3853
100
AcDbEntity
  8
0
100
AcDbBlockEnd
  0
BLOCK
  5
4312
330
430D
100
AcDbEntity
  8
0
100
AcDbBlockBegin
  2
*S14
 70
     1
 10
0.0
 20
0.0
 30
0.0
  3
*S14
  1

  0
LINE
  5
430E
330
430D
100
AcDbEntity
  8
AM_5
 62
     5
100
AcDbLine
 10
178.7388688560048
 20
176.1635201387233
 30
0.0
 11
164.995989034932
 21
176.1635201387233
 31
0.0
  0
LINE
  5
430F
330
430D
100
AcDbEntity
  8
AM_5
 62
     5
100
AcDbLine
 10
164.995989034932
 20
176.1635201387233
 30
0.0
 11
157.4294272016633
 21
185.3985782913565
 31
0.0
  0
TRACE
  5
4310
330
430D
100
AcDbEntity
  8
AM_5
 62
     5
370
    35
100
AcDbTrace
 10
157.7858534557891
 20
185.6906090773319
 30
0.0
 11
157.0730009475376
 21
185.1065475053809
 31
0.0
 12
155.2112331481505
 22
188.1059044890948
 32
0.0
 13
155.2112331481505
 23
188.1059044890948
 33
0.0
  0
MTEXT
  5
4311
330
430D
100
AcDbEntity
  8
AM_5
 62
     2
100
AcDbMText
 10
178.7388688560048
 20
174.230224836667
 30
0.0
 40
3.5
 41
0.0
 71
     9
 72
     5
  1

  7
ACISOTS
210
0.0
220
0.0
230
-1.0
 11
-1.0
 21
0.0
 31
0.0
 73
     1
 44
1.0
1001
ACAD
1000
MTEXTBEGIN
1070
    73
1070
     1
1070
    44
1040
1.0
1070
    74
1070
     0
1000
MTEXTEND
  0
ENDBLK
  5
4313
330
430D
100
AcDbEntity
  8
0
100
AcDbBlockEnd
  0
BLOCK
  5
431A
330
4315
100
AcDbEntity
  8
0
100
AcDbBlockBegin
  2
*S15
 70
     1
 10
0.0
 20
0.0
 30
0.0
  3
*S15
  1

  0
LINE
  5
4316
330
4315
100
AcDbEntity
  8
AM_5
 62
     5
100
AcDbLine
 10
199.004059660679
 20
126.5709343404067
 30
0.0
 11
182.6672212277177
 21
126.5709343404067
 31
0.0
  0
LINE
  5
4317
330
4315
100
AcDbEntity
  8
AM_5
 62
     5
100
AcDbLine
 10
182.6672212277177
 20
126.5709343404067
 30
0.0
 11
171.5459523931162
 21
138.9585677381302
 31
0.0
  0
TRACE
  5
4318
330
4315
100
AcDbEntity
  8
AM_5
 62
     5
370
    35
100
AcDbTrace
 10
171.8888298661796
 20
139.2663934892512
 30
0.0
 11
171.2030749200528
 21
138.6507419870091
 31
0.0
 12
169.2077836676032
 22
141.5629807259324
 32
0.0
 13
169.2077836676032
 23
141.5629807259324
 33
0.0
  0
MTEXT
  5
4319
330
4315
100
AcDbEntity
  8
AM_5
 62
     2
100
AcDbMText
 10
199.004059660679
 20
124.1327802656104
 30
0.0
 40
3.5
 41
0.0
 71
     9
 72
     5
  1

  7
ACISOTS
210
0.0
220
0.0
230
-1.0
 11
-1.0
 21
0.0
 31
0.0
 73
     1
 44
1.0
1001
ACAD
1000
MTEXTBEGIN
1070
    73
1070
     1
1070
    44
1040
1.0
1070
    74
1070
     0
1000
MTEXTEND
  0
ENDBLK
  5
431B
330
4315
100
AcDbEntity
  8
0
100
AcDbBlockEnd
  0
ENDSEC
  0
SECTION
  2
ENTITIES
  0
TEXT
  5
13F1
330
1F
100
AcDbEntity
  8
LOGO
 62
     7
100
AcDbText
 10
135.1356351656747
 20
96.93251162631923
 30
0.0
 40
2.389411616543739
  1
Order example:
 41
0.8
  7
CHINESET
100
AcDbText
  0
TEXT
  5
13F2
330
1F
100
AcDbEntity
  8
LOGO
 62
     7
100
AcDbText
 10
135.5643153693125
 20
100.2963084484248
 30
0.0
 40
3.584117424815608
  1
訂購代號:
  7
CHINESET
100
AcDbText
  0
LINE
  5
13F3
330
1F
100
AcDbEntity
  8
LOGO
 62
     1
100
AcDbLine
 10
250.1921360408962
 20
104.7832159005303
 30
0.0
 11
94.67213604089614
 21
104.7832159005303
 31
0.0
  0
LINE
  5
13F4
330
1F
100
AcDbEntity
  8
LOGO
 62
     1
100
AcDbLine
 10
250.1921360408962
 20
86.86262877645226
 30
0.0
 11
94.67213604089614
 21
86.86262877645226
 31
0.0
  0
LINE
  5
13F5
330
1F
100
AcDbEntity
  8
LOGO
 62
     1
100
AcDbLine
 10
134.097427713868
 20
86.86262877645226
 30
0.0
 11
134.097427713868
 21
104.7832159005303
 31
0.0
  0
LINE
  5
13F6
330
1F
100
AcDbEntity
  8
LOGO
 62
     1
100
AcDbLine
 10
94.67213604089614
 20
86.86262877645226
 30
0.0
 11
94.67213604089614
 21
104.7832159005303
 31
0.0
  0
TEXT
  5
13F7
330
1F
100
AcDbEntity
  8
LOGO
  6
Continuous
 62
     5
100
AcDbText
 10
101.1092914904629
 20
90.38310107245338
 30
0.0
 40
2.688088068611707
  1
金器工業股份有限公司
  7
CHINESET
100
AcDbText
  0
TEXT
  5
13F8
330
1F
100
AcDbEntity
  8
LOGO
  6
Continuous
 62
     5
100
AcDbText
 10
96.17180552042128
 20
87.69448634933455
 30
0.0
 40
1.792058712407803
  1
MINDMAN INDUSTRIAL CO., LTD.
 41
0.85
  7
CHINESET
100
AcDbText
  0
LINE
  5
13F9
330
1F
100
AcDbEntity
  8
LOGO
 62
     1
100
AcDbLine
 10
134.097427713868
 20
101.1990984757147
 30
0.0
 11
107.8138999318869
 21
101.1990984757147
 31
0.0
  0
LINE
  5
13FA
330
1F
100
AcDbEntity
  8
LOGO
 62
     1
100
AcDbLine
 10
134.097427713868
 20
97.61498105089911
 30
0.0
 11
107.8138999318869
 21
97.61498105089911
 31
0.0
  0
LINE
  5
13FB
330
1F
100
AcDbEntity
  8
LOGO
 62
     1
100
AcDbLine
 10
134.097427713868
 20
94.03086362608354
 30
0.0
 11
94.67213604089614
 21
94.03086362608354
 31
0.0
  0
LINE
  5
13FC
330
1F
100
AcDbEntity
  8
LOGO
 62
     1
100
AcDbLine
 10
107.8138999318869
 20
94.03086362608354
 30
0.0
 11
107.8138999318869
 21
104.7832159005303
 31
0.0
  0
TEXT
  5
13FD
330
1F
100
AcDbEntity
  8
LOGO
 62
     6
100
AcDbText
 10
124.8387531864712
 20
94.92689298228743
 30
0.0
 40
1.792058712407803
  1
m/m
  7
CHINESET
 72
     1
 11
127.9961899654754
 21
95.82292233849132
 31
0.0
100
AcDbText
 73
     2
  0
TEXT
  5
13FE
330
1F
100
AcDbEntity
  8
LOGO
 62
     6
100
AcDbText
 10
124.8387531864712
 20
102.0951278319187
 30
0.0
 40
1.792058712407803
  1
1 : 1
  7
CHINESET
 72
     1
 11
127.9961899654754
 21
102.9911571881226
 31
0.0
100
AcDbText
 73
     2
  0
LINE
  5
13FF
330
1F
100
AcDbEntity
  8
LOGO
 62
     1
100
AcDbLine
 10
122.1503696311492
 20
94.03086362608354
 30
0.0
 11
122.1503696311492
 21
104.7832159005303
 31
0.0
  0
CIRCLE
  5
1400
330
1F
100
AcDbEntity
  8
LOGO
  6
Continuous
 62
     6
100
AcDbCircle
 10
125.4685904843327
 20
99.41087299000674
 30
0.0
 40
1.040511468731225
  0
CIRCLE
  5
1401
330
1F
100
AcDbEntity
  8
LOGO
  6
Continuous
 62
     6
100
AcDbCircle
 10
125.4685904843327
 20
99.41087299000674
 30
0.0
 40
0.6096476094077027
  0
LINE
  5
1402
330
1F
100
AcDbEntity
  8
LOGO
 62
     6
100
AcDbLine
 10
132.0072852896851
 20
98.37036152127545
 30
0.0
 11
132.0072852896851
 21
100.451384458738
 31
0.0
  0
LINE
  5
1403
330
1F
100
AcDbEntity
  8
LOGO
 62
     6
100
AcDbLine
 10
128.7453415634207
 20
98.80122538059904
 30
0.0
 11
128.7453415634207
 21
100.0205205994145
 31
0.0
  0
LINE
  5
1404
330
1F
100
AcDbEntity
  8
LOGO
  6
Continuous
 62
     6
100
AcDbLine
 10
128.7453415634207
 20
100.0205205994145
 30
0.0
 11
132.0072852896851
 21
100.451384458738
 31
0.0
  0
LINE
  5
1405
330
1F
100
AcDbEntity
  8
LOGO
  6
Continuous
 62
     6
100
AcDbLine
 10
128.7453415634207
 20
98.80122538059904
 30
0.0
 11
132.0072852896851
 21
98.37036152127545
 31
0.0
  0
TEXT
  5
1432
330
1F
100
AcDbEntity
  8
LOGO
 62
     6
100
AcDbText
 10
109.2915483434124
 20
102.0960097505763
 30
117.4485757669428
 40
1.792058712407803
  1
比例 Scale:
 41
0.9
  7
CHINESET
 72
     4
 11
114.9821347815181
 21
102.9911571881226
 31
117.4485757669428
100
AcDbText
  0
TEXT
  5
1433
330
1F
100
AcDbEntity
  8
LOGO
 62
     6
100
AcDbText
 10
109.9179688665442
 20
98.53621858206835
 30
117.4485757669428
 40
1.792058712407803
  1
投影 View:
 41
0.9
  7
CHINESET
 72
     4
 11
114.9821347815181
 21
99.40703976330688
 31
117.4485757669428
100
AcDbText
  0
TEXT
  5
1434
330
1F
100
AcDbEntity
  8
LOGO
 62
     6
100
AcDbText
 10
110.0931746067305
 20
94.92689298228743
 30
117.4485757669428
 40
1.792058712407803
  1
單位 Unit:
 41
0.9
  7
CHINESET
 72
     4
 11
114.9821347815181
 21
95.82292233849132
 31
117.4485757669428
100
AcDbText
  0
LWPOLYLINE
  5
143D
330
1F
100
AcDbEntity
  8
0
 62
     4
100
AcDbPolyline
 90
        4
 70
     1
 43
0.0
 10
94.6721360408963
 20
104.7832159005303
 10
250.1921360408962
 20
104.7832159005303
 10
250.1921360408961
 20
300.7026287764523
 10
94.67213604089616
 20
300.7026287764523
1001
GENIUS_GENREC_14
1002
{
1000
PYDIR
1011
94.67213604089616
1021
300.7026287764523
1031
0.0
1002
}
1002
{
1000
PXDIR
1011
250.1921360408962
1021
104.7832159005303
1031
0.0
1002
}
1002
{
1000
PORI
1011
94.6721360408963
1021
104.7832159005303
1031
0.0
1002
}
1002
{
1000
PINS
1011
94.6721360408963
1021
104.7832159005303
1031
0.0
1002
}
1002
{
1000
PINS2
1011
250.1921360408961
1021
300.7026287764523
1031
0.0
1002
}
1002
{
1000
C
1070
     1
1002
}
1001
GENIUS_GENODEF_13
1002
{
1000
HIER
1070
     0
1002
}
1002
{
1000
MANEDIT
1070
     0
1002
}
1002
{
1000
NOSEL
1070
     0
1002
}
1002
{
1000
BEHIND
1070
     0
1002
}
1002
{
1000
OTHER
1070
     0
1002
}
1002
{
1000
REACTOR
1002
}
1001
GENIUS_GENOBJ-N-REC_13
1002
{
1000
OWNER
1000
GEN
1002
}
  0
SOLID
  5
143E
330
1F
100
AcDbEntity
  8
LOGO
 62
     5
100
AcDbTrace
 10
96.53142571537422
 20
97.00990615599019
 30
0.0
 11
97.30626487899874
 21
97.00990615598991
 31
0.0
 12
100.5392144927426
 22
104.3575189144988
 32
0.0
 13
101.3140536563672
 23
104.3575189144982
 33
0.0
  0
SOLID
  5
143F
330
1F
100
AcDbEntity
  8
LOGO
 62
     5
100
AcDbTrace
 10
97.62688798118867
 20
97.00990615599019
 30
0.0
 11
98.40172714481301
 21
97.00990615599019
 31
0.0
 12
101.3140536563672
 22
103.7697098938177
 32
0.0
 13
100.5392144927426
 23
100.9286329605276
 33
0.0
  0
SOLID
  5
1440
330
1F
100
AcDbEntity
  8
LOGO
 62
     2
100
AcDbTrace
 10
97.30626487899874
 20
97.00990615598991
 30
0.0
 11
97.62688798118867
 21
97.00990615599019
 31
0.0
 12
101.3140536563672
 22
104.3575189144982
 32
0.0
 13
101.6346767585568
 23
104.3575189144982
 33
0.0
  0
SOLID
  5
1441
330
1F
100
AcDbEntity
  8
LOGO
 62
     5
100
AcDbTrace
 10
95.28916852224588
 20
94.33804697107829
 30
0.0
 11
95.55635444073745
 21
94.33804697107829
 31
0.0
 12
96.30877078329838
 22
95.67397656353401
 32
0.0
 13
96.57595670178944
 23
95.67397656353401
 33
0.0
  0
SOLID
  5
1442
330
1F
100
AcDbEntity
  8
LOGO
 62
     5
100
AcDbTrace
 10
96.30877078329838
 20
95.67397656353401
 30
0.0
 11
96.57595670178944
 21
95.67397656353401
 31
0.0
 12
96.30877078329838
 22
94.33804697107829
 32
0.0
 13
96.57595670178944
 23
94.33804697107829
 33
0.0
  0
SOLID
  5
1443
330
1F
100
AcDbEntity
  8
LOGO
 62
     5
100
AcDbTrace
 10
96.30877078329838
 20
94.33804697107829
 30
0.0
 11
96.57595670178944
 21
94.33804697107829
 31
0.0
 12
97.32837304435138
 22
95.67397656353401
 32
0.0
 13
97.59555896284222
 23
95.67397656353401
 33
0.0
  0
SOLID
  5
1444
330
1F
100
AcDbEntity
  8
LOGO
 62
     5
100
AcDbTrace
 10
97.32837304435138
 20
95.67397656353401
 30
0.0
 11
97.59555896284222
 21
95.67397656353401
 31
0.0
 12
97.32837304435138
 22
94.33804697107829
 32
0.0
 13
97.59555896284222
 23
94.33804697107829
 33
0.0
  0
POLYLINE
  5
1445
330
1F
100
AcDbEntity
  8
LOGO
 62
     5
100
AcDb2dPolyline
 66
     1
 10
0.0
 20
0.0
 30
0.0
 40
0.2676141010528987
 41
0.2676141010528987
  0
VERTEX
  5
1446
330
1445
100
AcDbEntity
  8
LOGO
 62
     5
100
AcDbVertex
100
AcDb2dVertex
 10
106.2843540141465
 20
95.13960472655156
 30
0.0
 42
1.0
  0
VERTEX
  5
1447
330
1445
100
AcDbEntity
  8
LOGO
 62
     5
100
AcDbVertex
100
AcDb2dVertex
 10
105.4815117109876
 20
95.13960472655156
 30
0.0
 42
1.0
  0
SEQEND
  5
1448
330
1445
100
AcDbEntity
  8
LOGO
 62
     5
  0
POLYLINE
  5
1449
330
1F
100
AcDbEntity
  8
LOGO
 62
     5
100
AcDb2dPolyline
 66
     1
 10
0.0
 20
0.0
 30
0.0
 70
     1
  0
VERTEX
  5
144A
330
1449
100
AcDbEntity
  8
LOGO
 62
     5
100
AcDbVertex
100
AcDb2dVertex
 10
103.9681182591075
 20
95.00601176730608
 30
0.0
 42
1.000000057330635
  0
VERTEX
  5
144B
330
1449
100
AcDbEntity
  8
LOGO
 62
     5
100
AcDbVertex
100
AcDb2dVertex
 10
104.7696760145814
 20
95.00601176730608
 30
0.0
 42
1.000000057330635
  0
SEQEND
  5
144C
330
1449
100
AcDbEntity
  8
LOGO
 62
     5
  0
CIRCLE
  5
144D
330
1F
100
AcDbEntity
  8
LOGO
 62
     5
100
AcDbCircle
 10
104.3688971368446
 20
95.00601176730608
 30
0.0
 40
0.4007788777368213
  0
POLYLINE
  5
144E
330
1F
100
AcDbEntity
  8
LOGO
 62
     5
100
AcDb2dPolyline
 66
     1
 10
0.0
 20
0.0
 30
0.0
 70
     1
 40
0.2676141010528987
 41
0.2676141010528987
  0
VERTEX
  5
144F
330
144E
100
AcDbEntity
  8
LOGO
 62
     5
100
AcDbVertex
100
AcDb2dVertex
 10
103.8336689347387
 20
95.00601176730608
 30
0.0
 42
1.0
  0
VERTEX
  5
1450
330
144E
100
AcDbEntity
  8
LOGO
 62
     5
100
AcDbVertex
100
AcDb2dVertex
 10
104.9041253389503
 20
95.00601176730608
 30
0.0
 42
1.0
  0
SEQEND
  5
1451
330
144E
100
AcDbEntity
  8
LOGO
 62
     5
  0
LINE
  5
1452
330
1F
100
AcDbEntity
  8
LOGO
 62
     5
100
AcDbLine
 10
106.4173046995493
 20
94.33804697107829
 30
0.0
 11
106.4173046995493
 21
95.13960472655156
 31
0.0
  0
SOLID
  5
1453
330
1F
100
AcDbEntity
  8
LOGO
 62
     5
100
AcDbTrace
 10
104.7696492959901
 20
95.67397656353401
 30
0.0
 11
105.036835214481
 21
95.67397656353401
 31
0.0
 12
104.7696492959901
 22
94.33804697107829
 32
0.0
 13
105.036835214481
 23
94.33804697107829
 33
0.0
  0
SOLID
  5
1454
330
1F
100
AcDbEntity
  8
LOGO
 62
     5
100
AcDbTrace
 10
105.3485610255843
 20
94.33804697107829
 30
0.0
 11
105.6157469440759
 21
94.33804697107829
 31
0.0
 12
105.3485610255843
 22
95.67397656353401
 32
0.0
 13
105.6157469440759
 23
95.67397656353401
 33
0.0
  0
SOLID
  5
1455
330
1F
100
AcDbEntity
  8
LOGO
 62
     5
100
AcDbTrace
 10
106.1501187810584
 20
95.13960472655156
 30
0.0
 11
106.4173046995493
 21
95.13960472655156
 31
0.0
 12
106.1501187810584
 22
94.33804697107829
 32
0.0
 13
106.4173046995493
 23
94.33804697107829
 33
0.0
  0
SOLID
  5
1456
330
1F
100
AcDbEntity
  8
LOGO
 62
     5
100
AcDbTrace
 10
105.3218424337353
 20
103.7697098938177
 30
0.0
 11
104.5470032701107
 21
100.9286329605276
 31
0.0
 12
105.3218424337353
 22
97.00990615598991
 32
0.0
 13
104.5470032701107
 23
97.00990615598991
 33
0.0
  0
SOLID
  5
1457
330
1F
100
AcDbEntity
  8
LOGO
 62
     5
100
AcDbTrace
 10
105.642465535925
 20
97.00990615598991
 30
0.0
 11
106.4173046995493
 21
97.00990615598991
 31
0.0
 12
105.642465535925
 22
104.3575189144982
 32
0.0
 13
106.4173046995493
 23
104.3575189144988
 33
0.0
  0
SOLID
  5
1458
330
1F
100
AcDbEntity
  8
LOGO
 62
     2
100
AcDbTrace
 10
105.3218424337353
 20
104.3575189144988
 30
0.0
 11
105.642465535925
 21
104.3575189144982
 31
0.0
 12
105.3218424337353
 22
97.00990615598991
 32
0.0
 13
105.642465535925
 23
97.00990615598991
 33
0.0
  0
POLYLINE
  5
1459
330
1F
100
AcDbEntity
  8
LOGO
 62
     5
100
AcDb2dPolyline
 66
     1
 10
0.0
 20
0.0
 30
0.0
 40
0.2676141010528987
 41
0.2676141010528987
  0
VERTEX
  5
145A
330
1459
100
AcDbEntity
  8
LOGO
 62
     5
100
AcDbVertex
100
AcDb2dVertex
 10
102.4546713700444
 20
95.13960472655156
 30
0.0
 42
1.0
  0
VERTEX
  5
145B
330
1459
100
AcDbEntity
  8
LOGO
 62
     5
100
AcDbVertex
100
AcDb2dVertex
 10
101.6518290668856
 20
95.13960472655156
 30
0.0
 42
1.0
  0
SEQEND
  5
145C
330
1459
100
AcDbEntity
  8
LOGO
 62
     5
  0
POLYLINE
  5
145D
330
1F
100
AcDbEntity
  8
LOGO
 62
     5
100
AcDb2dPolyline
 66
     1
 10
0.0
 20
0.0
 30
0.0
 40
0.2676141010528987
 41
0.2676141010528987
  0
VERTEX
  5
145E
330
145D
100
AcDbEntity
  8
LOGO
 62
     5
100
AcDbVertex
100
AcDb2dVertex
 10
103.2562291255178
 20
95.13960472655156
 30
0.0
 42
1.0
  0
VERTEX
  5
145F
330
145D
100
AcDbEntity
  8
LOGO
 62
     5
100
AcDbVertex
100
AcDb2dVertex
 10
102.453386822359
 20
95.13960472655156
 30
0.0
 42
1.0
  0
SEQEND
  5
1460
330
145D
100
AcDbEntity
  8
LOGO
 62
     5
  0
POLYLINE
  5
1461
330
1F
100
AcDbEntity
  8
LOGO
 62
     5
100
AcDb2dPolyline
 66
     1
 10
0.0
 20
0.0
 30
0.0
 40
0.2676141010528987
 41
0.2676141010528987
  0
VERTEX
  5
1462
330
1461
100
AcDbEntity
  8
LOGO
 62
     5
100
AcDbVertex
100
AcDb2dVertex
 10
99.42654648141591
 20
95.13960472655156
 30
0.0
 42
1.0
  0
VERTEX
  5
1463
330
1461
100
AcDbEntity
  8
LOGO
 62
     5
100
AcDbVertex
100
AcDb2dVertex
 10
98.62370417825726
 20
95.13960472655156
 30
0.0
 42
1.0
  0
SEQEND
  5
1464
330
1461
100
AcDbEntity
  8
LOGO
 62
     5
  0
SOLID
  5
1465
330
1F
100
AcDbEntity
  8
LOGO
 62
     5
100
AcDbTrace
 10
98.49075349285444
 20
95.67397656353401
 30
0.0
 11
98.75793941134531
 21
95.67397656353401
 31
0.0
 12
98.49075349285444
 22
94.33804697107829
 32
0.0
 13
98.75793941134531
 23
94.33804697107829
 33
0.0
  0
SOLID
  5
1466
330
1F
100
AcDbEntity
  8
LOGO
 62
     5
100
AcDbTrace
 10
99.29231124832782
 20
95.13960472655156
 30
0.0
 11
99.55949716681926
 21
95.13960472655156
 31
0.0
 12
99.29231124832782
 22
94.33804697107829
 32
0.0
 13
99.55949716681926
 23
94.33804697107829
 33
0.0
  0
POLYLINE
  5
1467
330
1F
100
AcDbEntity
  8
LOGO
 62
     5
100
AcDb2dPolyline
 66
     1
 10
0.0
 20
0.0
 30
0.0
 70
     1
 40
0.2676141010528987
 41
0.2676141010528987
  0
VERTEX
  5
1468
330
1467
100
AcDbEntity
  8
LOGO
 62
     5
100
AcDbVertex
100
AcDb2dVertex
 10
100.0039862906366
 20
95.00601176730608
 30
0.0
 42
1.0
  0
VERTEX
  5
1469
330
1467
100
AcDbEntity
  8
LOGO
 62
     5
100
AcDbVertex
100
AcDb2dVertex
 10
101.0744426948481
 20
95.00601176730608
 30
0.0
 42
1.0
  0
SEQEND
  5
146A
330
1467
100
AcDbEntity
  8
LOGO
 62
     5
  0
SOLID
  5
146B
330
1F
100
AcDbEntity
  8
LOGO
 62
     5
100
AcDbTrace
 10
100.9399666518879
 20
96.07475544127106
 30
0.0
 11
101.2071525703787
 21
96.07475544127106
 31
0.0
 12
100.9399666518879
 22
94.33804697107829
 32
0.0
 13
101.2071525703787
 23
94.33804697107829
 33
0.0
  0
SOLID
  5
146C
330
1F
100
AcDbEntity
  8
LOGO
 62
     5
100
AcDbTrace
 10
101.5188783814828
 20
95.67397656353401
 30
0.0
 11
101.7860642999739
 21
95.67397656353401
 31
0.0
 12
101.5188783814828
 22
94.33804697107829
 32
0.0
 13
101.7860642999739
 23
94.33804697107829
 33
0.0
  0
SOLID
  5
146D
330
1F
100
AcDbEntity
  8
LOGO
 62
     5
100
AcDbTrace
 10
102.3204361369564
 20
95.13960472655156
 30
0.0
 11
102.5876220554474
 21
95.13960472655156
 31
0.0
 12
102.3204361369564
 22
94.33804697107829
 32
0.0
 13
102.5876220554474
 23
94.33804697107829
 33
0.0
  0
SOLID
  5
146E
330
1F
100
AcDbEntity
  8
LOGO
 62
     5
100
AcDbTrace
 10
103.1219938924299
 20
95.13960472655156
 30
0.0
 11
103.3891798109207
 21
95.13960472655156
 31
0.0
 12
103.1219938924299
 22
94.33804697107765
 32
0.0
 13
103.3891798109207
 23
94.33804697107765
 33
0.0
  0
SOLID
  5
146F
330
1F
100
AcDbEntity
  8
LOGO
 62
     5
100
AcDbTrace
 10
97.9118417632592
 20
95.86100670647775
 30
0.0
 11
98.17902768175098
 21
95.86100670647775
 31
0.0
 12
97.9118417632592
 22
96.07475544127106
 32
0.0
 13
98.17902768175098
 23
96.07475544127106
 33
0.0
  0
SOLID
  5
1470
330
1F
100
AcDbEntity
  8
LOGO
 62
     5
100
AcDbTrace
 10
97.9118417632592
 20
95.67397656353401
 30
0.0
 11
98.17902768175098
 21
95.67397656353401
 31
0.0
 12
97.9118417632592
 22
94.33804697107765
 32
0.0
 13
98.17902768175098
 23
94.33804697107829
 33
0.0
  0
SOLID
  5
1471
330
1F
100
AcDbEntity
  8
LOGO
 62
     5
100
AcDbTrace
 10
100.5392144927426
 20
97.00990615599019
 30
0.0
 11
101.3140536563672
 21
97.00990615599019
 31
0.0
 12
100.5392144927426
 22
100.9286329605276
 32
0.0
 13
101.3140536563672
 23
103.7697098938177
 33
0.0
  0
SOLID
  5
1472
330
1F
100
AcDbEntity
  8
LOGO
 62
     5
100
AcDbTrace
 10
101.6346767585568
 20
104.3575189144982
 30
0.0
 11
102.4095159221813
 21
104.3575189144988
 31
0.0
 12
101.6346767585568
 22
97.59771517667068
 32
0.0
 13
102.4095159221813
 23
100.4387921099607
 33
0.0
  0
SOLID
  5
1473
330
1F
100
AcDbEntity
  8
LOGO
 62
     2
100
AcDbTrace
 10
101.3140536563672
 20
104.3575189144982
 30
0.0
 11
101.6346767585568
 21
104.3575189144982
 31
0.0
 12
101.3140536563672
 22
97.00990615599019
 32
0.0
 13
101.6346767585568
 23
97.00990615599019
 33
0.0
  0
SOLID
  5
1474
330
1F
100
AcDbEntity
  8
LOGO
 62
     5
100
AcDbTrace
 10
101.6346767585568
 20
97.59771517667068
 30
0.0
 11
102.4095159221813
 21
100.4387921099607
 31
0.0
 12
105.3218424337353
 22
104.3575189144988
 32
0.0
 13
104.5470032701107
 23
104.3575189144988
 33
0.0
  0
SOLID
  5
1475
330
1F
100
AcDbEntity
  8
LOGO
 62
     5
100
AcDbTrace
 10
101.6346767585568
 20
97.00990615599019
 30
0.0
 11
102.4095159221813
 21
97.00990615599019
 31
0.0
 12
105.3218424337353
 22
103.7697098938177
 32
0.0
 13
104.5470032701107
 23
100.9286329605276
 33
0.0
  0
SOLID
  5
1476
330
1F
100
AcDbEntity
  8
LOGO
 62
     2
100
AcDbTrace
 10
101.3140536563672
 20
97.00990615599019
 30
0.0
 11
101.6346767585568
 21
97.00990615599019
 31
0.0
 12
105.3218424337353
 22
104.3575189144988
 32
0.0
 13
105.642465535925
 23
104.3575189144982
 33
0.0
  0
TEXT
  5
1477
330
1F
100
AcDbEntity
  8
0
100
AcDbText
 10
134.8630532157023
 20
87.81599693831081
 30
0.0
 40
1.494336365672831
  1
1050520
 41
0.8
  7
CHINESET
 72
     1
 11
138.5633146926065
 21
87.81599693831081
 31
0.0
100
AcDbText
  0
LINE
  5
1478
330
1F
100
AcDbEntity
  8
LOGO
 62
     1
100
AcDbLine
 10
143.173959133165
 20
90.44674620126796
 30
0.0
 11
143.1739591331653
 21
86.86262877645226
 31
0.0
  0
LINE
  5
1479
330
1F
100
AcDbEntity
  8
LOGO
 62
     1
100
AcDbLine
 10
143.173959133165
 20
90.44674620126796
 30
0.0
 11
134.097427713868
 21
90.44674620126796
 31
0.0
  0
LINE
  5
1602
330
1F
100
AcDbEntity
  8
LOGO
 62
     6
100
AcDbLine
 10
206.5485456979261
 20
94.92976932593728
 30
0.0
 11
197.9636123378747
 21
94.92976932593728
 31
0.0
  0
LINE
  5
1603
330
1F
100
AcDbEntity
  8
LOGO
 62
     6
100
AcDbLine
 10
198.0204267550837
 20
97.61881617576563
 30
0.0
 11
194.5521741636986
 21
97.61881617576563
 31
0.0
  0
LINE
  5
1604
330
1F
100
AcDbEntity
  8
LOGO
 62
     6
100
AcDbLine
 10
206.5485456979261
 20
88.35654369302361
 30
0.0
 11
197.9636123378747
 21
88.35654369302359
 31
0.0
  0
LINE
  5
1605
330
1F
100
AcDbEntity
  8
LOGO
 62
     6
100
AcDbLine
 10
206.5485456979261
 20
94.92976932593728
 30
0.0
 11
206.5485456979261
 21
88.331758273826
 31
0.0
  0
TEXT
  5
160A
330
1F
100
AcDbEntity
  8
LOGO
 62
     6
100
AcDbText
 10
163.5357194201032
 20
91.70432467929275
 30
0.0
 40
2.390263866514066
  1
型式
  7
CHINESET
 72
     4
 11
165.9259832866173
 21
92.83828844273742
 31
0.0
100
AcDbText
  0
LINE
  5
160B
330
1F
100
AcDbEntity
  8
LOGO
 62
     6
100
AcDbLine
 10
197.9636123378747
 20
94.92976932593728
 30
0.0
 11
197.9636123378747
 21
88.35654369302359
 31
0.0
  0
LINE
  5
160F
330
1F
100
AcDbEntity
  8
LOGO
 62
     6
100
AcDbLine
 10
196.2863004593912
 20
97.61881617576563
 30
0.0
 11
196.2863004593912
 21
96.27429275085146
 31
0.0
  0
TEXT
  5
1610
330
1F
100
AcDbEntity
  8
LOGO
 62
     6
100
AcDbText
 10
198.9509490036929
 20
91.70314836833489
 30
0.0
 40
2.390263866514066
  1
連座數
 41
0.9
  7
CHINESET
 72
     4
 11
202.2208582045472
 21
92.83828844273747
 31
0.0
100
AcDbText
  0
LINE
  5
1615
330
1F
100
AcDbEntity
  8
LOGO
 62
     6
100
AcDbLine
 10
165.9259832866173
 20
97.61881617576557
 30
0.0
 11
165.9259832866173
 21
94.92976932593721
 31
0.0
  0
LINE
  5
1616
330
1F
100
AcDbEntity
  8
LOGO
 62
     6
100
AcDbLine
 10
159.9503236203322
 20
94.92976932593721
 30
0.0
 11
159.9503236203322
 21
88.35654369302353
 31
0.0
  0
LINE
  5
161A
330
1F
100
AcDbEntity
  8
LOGO
 62
     6
100
AcDbLine
 10
198.0204267550838
 20
102.9969098754222
 30
0.0
 11
194.5521741636986
 21
102.9969098754222
 31
0.0
  0
LINE
  5
161D
330
1F
100
AcDbEntity
  8
LOGO
 62
     6
100
AcDbLine
 10
158.7551916870752
 20
102.9969098754222
 30
0.0
 11
158.7551916870752
 21
97.61881617576557
 31
0.0
  0
LINE
  5
1620
330
1F
100
AcDbEntity
  8
LOGO
 62
     6
100
AcDbLine
 10
198.0204267550838
 20
102.9969098754222
 30
0.0
 11
198.0204267550837
 21
97.61881617576563
 31
0.0
  0
TEXT
  5
1623
330
1F
100
AcDbEntity
  8
LOGO
  6
Continuous
 62
     6
100
AcDbText
 10
198.9200176269801
 20
89.10350115130924
 30
0.0
 40
1.493914916571291
  1
Number
 41
0.8
  7
CHINESET
 72
     4
 11
202.2208582045472
 21
89.85045860959489
 31
0.0
100
AcDbText
  0
TEXT
  5
1626
330
1F
100
AcDbEntity
  8
LOGO
  6
Continuous
 62
     6
100
AcDbText
 10
163.0804310645767
 20
89.10350115130921
 30
0.0
 40
1.493914916571291
  1
Model
  7
CHINESET
 72
     4
 11
165.9259832866173
 21
89.85045860959486
 31
0.0
100
AcDbText
  0
TEXT
  5
1627
330
1F
100
AcDbEntity
  8
LOGO
  6
Continuous
 62
     7
100
AcDbText
 10
195.0620182356337
 20
98.78006593044338
 30
0.0
 40
2.987829833142582
  1
2
  7
CHINESET
 72
     1
 11
196.0579615133479
 21
100.2739808470146
 31
0.0
100
AcDbText
 73
     2
  0
TEXT
  5
1628
330
1F
100
AcDbEntity
  8
LOGO
  6
Continuous
 62
     7
100
AcDbText
 10
176.8897714913494
 20
98.78006593044331
 30
0.0
 40
2.987829833142582
  1
260
  7
CHINESET
 72
     1
 11
180.7312669911041
 21
100.2739808470145
 31
0.0
100
AcDbText
 73
     2
  0
TEXT
  5
1629
330
1F
100
AcDbEntity
  8
LOGO
  6
Continuous
 62
     7
100
AcDbText
 10
160.4482952591893
 20
98.81394810902259
 30
0.0
 40
2.987829833142582
  1
MVSE
  7
CHINESET
 72
     1
 11
165.9259832866173
 21
100.3078630255938
 31
0.0
100
AcDbText
 73
     2
  0
LINE
  5
162D
330
1F
100
AcDbEntity
  8
LOGO
 62
     6
100
AcDbLine
 10
173.0967748861595
 20
102.9969098754222
 30
0.0
 11
173.0967748861595
 21
97.61881617576557
 31
0.0
  0
LINE
  5
162E
330
1F
100
AcDbEntity
  8
LOGO
 62
     6
100
AcDbLine
 10
171.9016429529027
 20
94.92976932593721
 30
0.0
 11
171.9016429529027
 21
88.35654369302355
 31
0.0
  0
LINE
  5
162F
330
1F
100
AcDbEntity
  8
LOGO
 62
     6
100
AcDbLine
 10
173.0967748861595
 20
102.9969098754222
 30
0.0
 11
158.7551916870752
 21
102.9969098754222
 31
0.0
  0
LINE
  5
1630
330
1F
100
AcDbEntity
  8
LOGO
 62
     6
100
AcDbLine
 10
173.0967748861595
 20
97.61881617576557
 30
0.0
 11
158.7551916870752
 21
97.61881617576557
 31
0.0
  0
LINE
  5
1631
330
1F
100
AcDbEntity
  8
LOGO
 62
     6
100
AcDbLine
 10
171.9016429529025
 20
94.92976932593721
 30
0.0
 11
159.9503236203322
 21
94.92976932593721
 31
0.0
  0
LINE
  5
1632
330
1F
100
AcDbEntity
  8
LOGO
 62
     6
100
AcDbLine
 10
171.9016429529025
 20
88.35654369302355
 30
0.0
 11
159.9503236203322
 21
88.35654369302353
 31
0.0
  0
TEXT
  5
1634
330
1F
100
AcDbEntity
  8
LOGO
  6
Continuous
 62
     7
100
AcDbText
 10
188.7098202193078
 20
98.81394810902264
 30
0.0
 40
2.987829833142582
  1
5B
  7
CHINESET
 72
     1
 11
191.1285396080422
 21
100.3078630255939
 31
0.0
100
AcDbText
 73
     2
  0
LINE
  5
1635
330
1F
100
AcDbEntity
  8
LOGO
 62
     6
100
AcDbLine
 10
194.072569439427
 20
102.9969098754222
 30
0.0
 11
188.1226391393428
 21
102.9969098754222
 31
0.0
  0
LINE
  5
1636
330
1F
100
AcDbEntity
  8
LOGO
 62
     6
100
AcDbLine
 10
196.390276154748
 20
94.92976932593727
 30
0.0
 11
186.7961131336402
 21
94.92976932593727
 31
0.0
  0
LINE
  5
1637
330
1F
100
AcDbEntity
  8
LOGO
 62
     6
100
AcDbLine
 10
194.072569439427
 20
97.61881617576559
 30
0.0
 11
188.1226391393428
 21
97.61881617576559
 31
0.0
  0
TEXT
  5
1638
330
1F
100
AcDbEntity
  8
LOGO
 62
     6
100
AcDbText
 10
189.4463683304236
 20
91.71510752974048
 30
0.0
 40
2.390263866514066
  1
連座
 41
0.9
  7
CHINESET
 72
     4
 11
191.593194644194
 21
92.83828844273745
 31
0.0
100
AcDbText
  0
LINE
  5
1639
330
1F
100
AcDbEntity
  8
LOGO
 62
     6
100
AcDbLine
 10
196.390276154748
 20
88.35654369302359
 30
0.0
 11
186.7961131336402
 21
88.35654369302355
 31
0.0
  0
TEXT
  5
163A
330
1F
100
AcDbEntity
  8
LOGO
  6
Continuous
 62
     6
100
AcDbText
 10
188.150076455525
 20
89.10350115130921
 30
0.0
 40
1.493914916571291
  1
Manifold
 41
0.8
  7
CHINESET
 72
     4
 11
191.593194644194
 21
89.85045860959486
 31
0.0
100
AcDbText
  0
LINE
  5
163B
330
1F
100
AcDbEntity
  8
LOGO
 62
     6
100
AcDbLine
 10
188.1226391393428
 20
102.9969098754222
 30
0.0
 11
188.1226391393428
 21
97.61881617576559
 31
0.0
  0
LINE
  5
163C
330
1F
100
AcDbEntity
  8
LOGO
 62
     6
100
AcDbLine
 10
186.7961131336402
 20
94.92976932593727
 30
0.0
 11
186.7961131336402
 21
88.35654369302359
 31
0.0
  0
LINE
  5
163D
330
1F
100
AcDbEntity
  8
LOGO
 62
     6
100
AcDbLine
 10
194.072569439427
 20
102.9969098754222
 30
0.0
 11
194.072569439427
 21
97.61881617576559
 31
0.0
  0
LINE
  5
163E
330
1F
100
AcDbEntity
  8
LOGO
 62
     6
100
AcDbLine
 10
196.390276154748
 20
94.92976932593727
 30
0.0
 11
196.390276154748
 21
88.35654369302359
 31
0.0
  0
LINE
  5
1640
330
1F
100
AcDbEntity
  8
LOGO
  6
Continuous
 62
     7
100
AcDbLine
 10
174.0233396059597
 20
100.28881296777
 30
0.0
 11
176.3981095458088
 21
100.28881296777
 31
0.0
  0
LINE
  5
1641
330
1F
100
AcDbEntity
  8
LOGO
  6
Continuous
 62
     7
100
AcDbLine
 10
185.4095034474554
 20
100.28881296777
 30
0.0
 11
187.7842733873045
 21
100.28881296777
 31
0.0
  0
LINE
  5
1642
330
1F
100
AcDbEntity
  8
LOGO
 62
     6
100
AcDbLine
 10
194.5521741636986
 20
102.9969098754222
 30
0.0
 11
194.5521741636986
 21
97.61881617576559
 31
0.0
  0
LINE
  5
1644
330
1F
100
AcDbEntity
  8
LOGO
 62
     6
100
AcDbLine
 10
191.097604289385
 20
94.92976932593728
 30
0.0
 11
191.0976042893849
 21
97.61881617576559
 31
0.0
  0
LINE
  5
1647
330
1F
100
AcDbEntity
  8
LOGO
 62
     6
100
AcDbLine
 10
196.2863004593912
 20
96.27429275085146
 30
0.0
 11
202.2208582045472
 21
96.27429275085146
 31
0.0
  0
LINE
  5
1648
330
1F
100
AcDbEntity
  8
LOGO
 62
     6
100
AcDbLine
 10
202.2208582045472
 20
94.92976932593728
 30
0.0
 11
202.2208582045472
 21
96.27429275085146
 31
0.0
  0
TEXT
  5
1664
330
1F
100
AcDbEntity
  8
0
100
AcDbText
 10
107.5404238126213
 20
284.9404273252541
 30
0.0
 40
4.799999999999999
  1
MVSE-260-5B2
100
AcDbText
  0
LINE
  5
2D18
330
1F
100
AcDbEntity
  8
LOGO
 62
     1
100
AcDbLine
 10
250.1921360408962
 20
86.86262877645226
 30
0.0
 11
250.1921360408962
 21
104.7832159005303
 31
0.0
  0
TEXT
  5
3380
330
1F
100
AcDbEntity
  8
AM_5
100
AcDbText
 10
165.4940068090087
 20
177.1958377022418
 30
0.0
 40
3.0
  1
4-%%C4.5
100
AcDbText
  0
INSERT
  5
3381
330
1F
100
AcDbEntity
  8
AM_5
100
AcDbBlockReference
  2
*S14
 10
0.0
 20
0.0
 30
0.0
  0
DIMENSION
  5
3722
330
1F
100
AcDbEntity
  8
AM_5
100
AcDbDimension
  2
*D5
 10
143.2064387037111
 20
124.2492001444972
 30
0.0
 11
132.4564387037111
 21
126.7494954200877
 31
0.0
 70
    32
 71
     5
 42
21.5
  3
AM_ISO$0
100
AcDbAlignedDimension
 13
121.7064387037111
 23
137.5267001444971
 33
0.0
 14
143.2064387037111
 24
137.5267001444971
 34
0.0
100
AcDbRotatedDimension
1001
ACAD
1000
DSTYLE
1002
{
1070
    40
1040
1.0
1070
   144
1040
1.0
1070
   272
1070
     8
1002
}
  0
DIMENSION
  5
3748
330
1F
100
AcDbEntity
  8
AM_5
100
AcDbDimension
  2
*D6
 10
164.7064387037111
 20
124.2492001444972
 30
0.0
 11
153.9564387037111
 21
126.7494954200878
 31
0.0
 70
    32
 71
     5
 42
21.5
  3
AM_ISO$0
100
AcDbAlignedDimension
 13
143.2064387037111
 23
137.5267001444971
 33
0.0
 14
164.7064387037111
 24
137.5267001444971
 34
0.0
100
AcDbRotatedDimension
1001
ACAD
1000
DSTYLE
1002
{
1070
    40
1040
1.0
1070
   144
1040
1.0
1070
   272
1070
     8
1002
}
  0
DIMENSION
  5
376E
330
1F
100
AcDbEntity
  8
AM_5
100
AcDbDimension
  2
*D7
 10
173.2064387037111
 20
116.2492001444973
 30
0.0
 11
143.2064387037111
 21
118.7492001444973
 31
0.0
 70
    32
 71
     5
 42
60.0
  3
AM_ISO$0
100
AcDbAlignedDimension
 13
113.2064387037111
 23
137.2492001444972
 33
0.0
 14
173.2064387037111
 24
137.2492001444972
 34
0.0
100
AcDbRotatedDimension
1001
ACAD
1000
DSTYLE
1002
{
1070
    40
1040
1.0
1070
   144
1040
1.0
1070
   272
1070
     8
1002
}
  0
DIMENSION
  5
3794
330
1F
100
AcDbEntity
  8
AM_5
100
AcDbDimension
  2
*D8
 10
185.2064387037111
 20
146.2492001444972
 30
0.0
 11
182.7064387037111
 21
141.2492001444972
 31
0.0
 70
    32
 71
     5
 42
10.0
  3
AM_ISO$0
100
AcDbAlignedDimension
 13
172.2064387037111
 23
136.2492001444972
 33
0.0
 14
173.4289387037111
 24
146.2492001444972
 34
0.0
 50
90.0
100
AcDbRotatedDimension
1001
ACAD
1000
DSTYLE
1002
{
1070
    40
1040
1.0
1070
   144
1040
1.0
1070
   272
1070
     8
1002
}
  0
DIMENSION
  5
37E0
330
1F
100
AcDbEntity
  8
AM_5
100
AcDbDimension
  2
*D9
 10
193.2064387037111
 20
161.2492001444971
 30
0.0
 11
190.7061434281205
 21
148.7492001444972
 31
0.0
 70
    32
 71
     5
 42
25.0
  3
AM_ISO$0
100
AcDbAlignedDimension
 13
172.2064387037111
 23
136.2492001444972
 33
0.0
 14
167.2064387037111
 24
161.2492001444972
 34
0.0
 50
90.0
100
AcDbRotatedDimension
1001
ACAD
1000
DSTYLE
1002
{
1070
    40
1040
1.0
1070
   144
1040
1.0
1070
   272
1070
     8
1002
}
  0
DIMENSION
  5
3806
330
1F
100
AcDbEntity
  8
AM_5
100
AcDbDimension
  2
*D10
 10
153.7064387037111
 20
172.7913227530374
 30
0.0
 11
143.2064387037111
 21
175.291618028628
 31
0.0
 70
    32
 71
     5
 42
21.0
  3
AM_ISO$0
100
AcDbAlignedDimension
 13
132.7064387037111
 23
185.9413227530374
 33
0.0
 14
153.7064387037111
 24
185.9413227530374
 34
0.0
100
AcDbRotatedDimension
1001
ACAD
1000
DSTYLE
1002
{
1070
    40
1040
1.0
1070
   144
1040
1.0
1070
   272
1070
     8
1002
}
  0
DIMENSION
  5
382C
330
1F
100
AcDbEntity
  8
AM_5
100
AcDbDimension
  2
*D11
 10
185.2064387037111
 20
189.7913227530374
 30
0.0
 11
182.7064387037111
 21
187.2913227530374
 31
0.0
 70
    32
 71
     5
 42
5.0
  3
AM_ISO$0
100
AcDbAlignedDimension
 13
173.2064387037111
 23
184.7913227530374
 33
0.0
 14
157.5564387037111
 24
189.7913227530374
 34
0.0
 50
90.0
100
AcDbRotatedDimension
1001
ACAD
1000
DSTYLE
1002
{
1070
    40
1040
1.0
1070
   144
1040
1.0
1070
   272
1070
     8
1002
}
  0
DIMENSION
  5
3852
330
1F
100
AcDbEntity
  8
AM_5
100
AcDbDimension
  2
*D12
 10
185.2064397037111
 20
258.7913227530374
 30
0.0
 11
182.706439703711
 21
256.2913227530375
 31
0.0
 70
    32
 71
     5
 42
5.000000000000028
  3
AM_ISO$0
100
AcDbAlignedDimension
 13
157.5564387037111
 23
253.7913227530374
 33
0.0
 14
173.2064387037111
 24
258.7913227530374
 34
0.0
 50
90.0
100
AcDbRotatedDimension
1001
ACAD
1000
DSTYLE
1002
{
1070
    40
1040
1.0
1070
   144
1040
1.0
1070
   272
1070
     8
1002
}
  0
TEXT
  5
39BB
330
1F
100
AcDbEntity
  8
AM_5
100
AcDbText
 10
183.1652390017943
 20
127.6032519039252
 30
0.0
 40
3.0
  1
3-PT1/4
100
AcDbText
  0
INSERT
  5
39BC
330
1F
100
AcDbEntity
  8
AM_5
100
AcDbBlockReference
  2
*S15
 10
0.0
 20
0.0
 30
0.0
  0
LINE
  5
40F5
330
1F
100
AcDbEntity
  8
AM_7
100
AcDbLine
 10
137.2064387037111
 20
218.7913227530374
 30
0.0
 11
139.2064387037111
 21
218.7913227530374
 31
0.0
  0
LINE
  5
40F6
330
1F
100
AcDbEntity
  8
AM_7
100
AcDbLine
 10
138.2064387037111
 20
217.7913227530374
 30
0.0
 11
138.2064387037111
 21
219.7913227530374
 31
0.0
  0
LINE
  5
40F7
330
1F
100
AcDbEntity
  8
AM_7
100
AcDbLine
 10
134.8954387037111
 20
218.7913227530374
 30
0.0
 11
136.4064387037111
 21
218.7913227530374
 31
0.0
  0
LINE
  5
40F8
330
1F
100
AcDbEntity
  8
AM_7
100
AcDbLine
 10
140.0064387037111
 20
218.7913227530374
 30
0.0
 11
141.5174387037111
 21
218.7913227530374
 31
0.0
  0
LINE
  5
40F9
330
1F
100
AcDbEntity
  8
AM_7
100
AcDbLine
 10
138.2064387037111
 20
215.4803227530374
 30
0.0
 11
138.2064387037111
 21
216.9913227530374
 31
0.0
  0
LINE
  5
40FA
330
1F
100
AcDbEntity
  8
AM_7
100
AcDbLine
 10
138.2064387037111
 20
220.5913227530374
 30
0.0
 11
138.2064387037111
 21
222.1023227530374
 31
0.0
  0
LINE
  5
40FB
330
1F
100
AcDbEntity
  8
AM_7
100
AcDbLine
 10
137.2064387037111
 20
245.7913227530374
 30
0.0
 11
139.2064387037111
 21
245.7913227530374
 31
0.0
  0
LINE
  5
40FC
330
1F
100
AcDbEntity
  8
AM_7
100
AcDbLine
 10
138.2064387037111
 20
244.7913227530374
 30
0.0
 11
138.2064387037111
 21
246.7913227530374
 31
0.0
  0
LINE
  5
40FD
330
1F
100
AcDbEntity
  8
AM_7
100
AcDbLine
 10
134.8954387037111
 20
245.7913227530374
 30
0.0
 11
136.4064387037111
 21
245.7913227530374
 31
0.0
  0
LINE
  5
40FE
330
1F
100
AcDbEntity
  8
AM_7
100
AcDbLine
 10
140.0064387037111
 20
245.7913227530374
 30
0.0
 11
141.5174387037111
 21
245.7913227530374
 31
0.0
  0
LINE
  5
40FF
330
1F
100
AcDbEntity
  8
AM_7
100
AcDbLine
 10
138.2064387037111
 20
242.4803227530374
 30
0.0
 11
138.2064387037111
 21
243.9913227530374
 31
0.0
  0
LINE
  5
4100
330
1F
100
AcDbEntity
  8
AM_7
100
AcDbLine
 10
138.2064387037111
 20
247.5913227530374
 30
0.0
 11
138.2064387037111
 21
249.1023227530375
 31
0.0
  0
LINE
  5
4101
330
1F
100
AcDbEntity
  8
AM_7
100
AcDbLine
 10
147.2064387037111
 20
197.7913227530374
 30
0.0
 11
149.2064387037111
 21
197.7913227530374
 31
0.0
  0
LINE
  5
4102
330
1F
100
AcDbEntity
  8
AM_7
100
AcDbLine
 10
148.2064387037111
 20
196.7913227530374
 30
0.0
 11
148.2064387037111
 21
198.7913227530374
 31
0.0
  0
LINE
  5
4103
330
1F
100
AcDbEntity
  8
AM_7
100
AcDbLine
 10
144.8954387037111
 20
197.7913227530374
 30
0.0
 11
146.4064387037111
 21
197.7913227530374
 31
0.0
  0
LINE
  5
4104
330
1F
100
AcDbEntity
  8
AM_7
100
AcDbLine
 10
150.0064387037111
 20
197.7913227530374
 30
0.0
 11
151.5174387037111
 21
197.7913227530374
 31
0.0
  0
LINE
  5
4105
330
1F
100
AcDbEntity
  8
AM_7
100
AcDbLine
 10
148.2064387037111
 20
194.4803227530374
 30
0.0
 11
148.2064387037111
 21
195.9913227530374
 31
0.0
  0
LINE
  5
4106
330
1F
100
AcDbEntity
  8
AM_7
100
AcDbLine
 10
148.2064387037111
 20
199.5913227530374
 30
0.0
 11
148.2064387037111
 21
201.1023227530374
 31
0.0
  0
LINE
  5
4107
330
1F
100
AcDbEntity
  8
AM_7
100
AcDbLine
 10
147.2064387037111
 20
224.7913227530375
 30
0.0
 11
149.2064387037111
 21
224.7913227530375
 31
0.0
  0
LINE
  5
4108
330
1F
100
AcDbEntity
  8
AM_7
100
AcDbLine
 10
148.2064387037111
 20
223.7913227530374
 30
0.0
 11
148.2064387037111
 21
225.7913227530374
 31
0.0
  0
LINE
  5
4109
330
1F
100
AcDbEntity
  8
AM_7
100
AcDbLine
 10
144.8954387037111
 20
224.7913227530375
 30
0.0
 11
146.4064387037111
 21
224.7913227530375
 31
0.0
  0
LINE
  5
410A
330
1F
100
AcDbEntity
  8
AM_7
100
AcDbLine
 10
150.0064387037111
 20
224.7913227530375
 30
0.0
 11
151.5174387037111
 21
224.7913227530375
 31
0.0
  0
LINE
  5
410B
330
1F
100
AcDbEntity
  8
AM_7
100
AcDbLine
 10
148.2064387037111
 20
221.4803227530374
 30
0.0
 11
148.2064387037111
 21
222.9913227530374
 31
0.0
  0
LINE
  5
410C
330
1F
100
AcDbEntity
  8
AM_7
100
AcDbLine
 10
148.2064387037111
 20
226.5913227530374
 30
0.0
 11
148.2064387037111
 21
228.1023227530374
 31
0.0
  0
LINE
  5
410D
330
1F
100
AcDbEntity
  8
AM_7
100
AcDbLine
 10
131.7064387037111
 20
189.7913227530374
 30
0.0
 11
133.7064387037111
 21
189.7913227530374
 31
0.0
  0
LINE
  5
410E
330
1F
100
AcDbEntity
  8
AM_7
100
AcDbLine
 10
132.7064387037111
 20
188.7913227530374
 30
0.0
 11
132.7064387037111
 21
190.7913227530374
 31
0.0
  0
LINE
  5
410F
330
1F
100
AcDbEntity
  8
AM_7
100
AcDbLine
 10
128.8564387037111
 20
189.7913227530374
 30
0.0
 11
130.9064387037111
 21
189.7913227530374
 31
0.0
  0
LINE
  5
4110
330
1F
100
AcDbEntity
  8
AM_7
100
AcDbLine
 10
134.5064387037111
 20
189.7913227530374
 30
0.0
 11
136.5564387037111
 21
189.7913227530374
 31
0.0
  0
LINE
  5
4111
330
1F
100
AcDbEntity
  8
AM_7
100
AcDbLine
 10
132.7064387037111
 20
185.9413227530374
 30
0.0
 11
132.7064387037111
 21
187.9913227530374
 31
0.0
  0
LINE
  5
4112
330
1F
100
AcDbEntity
  8
AM_7
100
AcDbLine
 10
132.7064387037111
 20
191.5913227530374
 30
0.0
 11
132.7064387037111
 21
193.6413227530374
 31
0.0
  0
LINE
  5
4113
330
1F
100
AcDbEntity
  8
AM_7
100
AcDbLine
 10
152.7064387037111
 20
189.7913227530374
 30
0.0
 11
154.7064387037111
 21
189.7913227530374
 31
0.0
  0
LINE
  5
4114
330
1F
100
AcDbEntity
  8
AM_7
100
AcDbLine
 10
153.7064387037111
 20
188.7913227530374
 30
0.0
 11
153.7064387037111
 21
190.7913227530374
 31
0.0
  0
LINE
  5
4115
330
1F
100
AcDbEntity
  8
AM_7
100
AcDbLine
 10
149.8564387037111
 20
189.7913227530374
 30
0.0
 11
151.9064387037111
 21
189.7913227530374
 31
0.0
  0
LINE
  5
4116
330
1F
100
AcDbEntity
  8
AM_7
100
AcDbLine
 10
155.5064387037111
 20
189.7913227530374
 30
0.0
 11
157.5564387037111
 21
189.7913227530374
 31
0.0
  0
LINE
  5
4117
330
1F
100
AcDbEntity
  8
AM_7
100
AcDbLine
 10
153.7064387037111
 20
185.9413227530374
 30
0.0
 11
153.7064387037111
 21
187.9913227530374
 31
0.0
  0
LINE
  5
4118
330
1F
100
AcDbEntity
  8
AM_7
100
AcDbLine
 10
153.7064387037111
 20
191.5913227530374
 30
0.0
 11
153.7064387037111
 21
193.6413227530374
 31
0.0
  0
LINE
  5
4119
330
1F
100
AcDbEntity
  8
AM_7
100
AcDbLine
 10
131.7064387037111
 20
253.7913227530374
 30
0.0
 11
133.7064387037111
 21
253.7913227530374
 31
0.0
  0
LINE
  5
411A
330
1F
100
AcDbEntity
  8
AM_7
100
AcDbLine
 10
132.7064387037111
 20
252.7913227530374
 30
0.0
 11
132.7064387037111
 21
254.7913227530374
 31
0.0
  0
LINE
  5
411B
330
1F
100
AcDbEntity
  8
AM_7
100
AcDbLine
 10
128.8564387037111
 20
253.7913227530374
 30
0.0
 11
130.9064387037111
 21
253.7913227530374
 31
0.0
  0
LINE
  5
411C
330
1F
100
AcDbEntity
  8
AM_7
100
AcDbLine
 10
134.5064387037111
 20
253.7913227530374
 30
0.0
 11
136.5564387037111
 21
253.7913227530374
 31
0.0
  0
LINE
  5
411D
330
1F
100
AcDbEntity
  8
AM_7
100
AcDbLine
 10
132.7064387037111
 20
249.9413227530374
 30
0.0
 11
132.7064387037111
 21
251.9913227530374
 31
0.0
  0
LINE
  5
411E
330
1F
100
AcDbEntity
  8
AM_7
100
AcDbLine
 10
132.7064387037111
 20
255.5913227530374
 30
0.0
 11
132.7064387037111
 21
257.6413227530375
 31
0.0
  0
LINE
  5
411F
330
1F
100
AcDbEntity
  8
AM_7
100
AcDbLine
 10
152.7064387037111
 20
253.7913227530374
 30
0.0
 11
154.7064387037111
 21
253.7913227530374
 31
0.0
  0
LINE
  5
4120
330
1F
100
AcDbEntity
  8
AM_7
100
AcDbLine
 10
153.7064387037111
 20
252.7913227530374
 30
0.0
 11
153.7064387037111
 21
254.7913227530374
 31
0.0
  0
LINE
  5
4121
330
1F
100
AcDbEntity
  8
AM_7
100
AcDbLine
 10
149.8564387037111
 20
253.7913227530374
 30
0.0
 11
151.9064387037111
 21
253.7913227530374
 31
0.0
  0
LINE
  5
4122
330
1F
100
AcDbEntity
  8
AM_7
100
AcDbLine
 10
155.5064387037111
 20
253.7913227530374
 30
0.0
 11
157.5564387037111
 21
253.7913227530374
 31
0.0
  0
LINE
  5
4123
330
1F
100
AcDbEntity
  8
AM_7
100
AcDbLine
 10
153.7064387037111
 20
249.9413227530374
 30
0.0
 11
153.7064387037111
 21
251.9913227530374
 31
0.0
  0
LINE
  5
4124
330
1F
100
AcDbEntity
  8
AM_7
100
AcDbLine
 10
153.7064387037111
 20
255.5913227530374
 30
0.0
 11
153.7064387037111
 21
257.6413227530375
 31
0.0
  0
LINE
  5
413E
330
1F
100
AcDbEntity
  8
AM_VIS
100
AcDbLine
 10
113.2064387037111
 20
258.7913227530374
 30
0.0
 11
113.2064387037111
 21
184.7913227530374
 31
0.0
  0
LINE
  5
413F
330
1F
100
AcDbEntity
  8
AM_VIS
100
AcDbLine
 10
118.2064387037111
 20
258.7913227530374
 30
0.0
 11
118.2064387037111
 21
184.7913227530374
 31
0.0
  0
LINE
  5
4140
330
1F
100
AcDbEntity
  8
AM_VIS
100
AcDbLine
 10
173.2064387037111
 20
184.7913227530374
 30
0.0
 11
173.2064387037111
 21
258.7913227530374
 31
0.0
  0
LINE
  5
4141
330
1F
100
AcDbEntity
  8
AM_VIS
100
AcDbLine
 10
168.2064387037111
 20
184.7913227530374
 30
0.0
 11
168.2064387037111
 21
258.7913227530374
 31
0.0
  0
LINE
  5
4142
330
1F
100
AcDbEntity
  8
AM_VIS
100
AcDbLine
 10
168.5374739720886
 20
184.7913227530374
 30
0.0
 11
172.8754034353335
 21
184.7913227530374
 31
0.0
  0
LINE
  5
4143
330
1F
100
AcDbEntity
  8
AM_VIS
100
AcDbLine
 10
113.5374739720886
 20
184.7913227530374
 30
0.0
 11
117.8754034353335
 21
184.7913227530374
 31
0.0
  0
LINE
  5
4144
330
1F
100
AcDbEntity
  8
AM_VIS
100
AcDbLine
 10
117.8754034353335
 20
258.7913227530374
 30
0.0
 11
113.5374739720886
 21
258.7913227530374
 31
0.0
  0
LINE
  5
4145
330
1F
100
AcDbEntity
  8
AM_VIS
100
AcDbLine
 10
172.8754034353335
 20
258.7913227530374
 30
0.0
 11
168.5374739720886
 21
258.7913227530374
 31
0.0
  0
LINE
  5
414E
330
1F
100
AcDbEntity
  8
AM_VIS
100
AcDbLine
 10
119.2064387037111
 20
184.7913227530374
 30
0.0
 11
167.2064387037111
 21
184.7913227530374
 31
0.0
  0
LINE
  5
414F
330
1F
100
AcDbEntity
  8
AM_VIS
100
AcDbLine
 10
167.2064387037111
 20
258.7913227530374
 30
0.0
 11
119.2064387037111
 21
258.7913227530374
 31
0.0
  0
LINE
  5
4150
330
1F
100
AcDbEntity
  8
AM_VIS
100
AcDbLine
 10
168.2064387037111
 20
184.7913227530374
 30
0.0
 11
168.5374739720886
 21
184.7913227530374
 31
0.0
  0
LINE
  5
4151
330
1F
100
AcDbEntity
  8
AM_VIS
100
AcDbLine
 10
173.2064387037111
 20
184.7913227530374
 30
0.0
 11
172.8754034353335
 21
184.7913227530374
 31
0.0
  0
LINE
  5
4152
330
1F
100
AcDbEntity
  8
AM_VIS
100
AcDbLine
 10
113.5374739720886
 20
184.7913227530374
 30
0.0
 11
113.2064387037111
 21
184.7913227530374
 31
0.0
  0
LINE
  5
4153
330
1F
100
AcDbEntity
  8
AM_VIS
100
AcDbLine
 10
117.8754034353335
 20
184.7913227530374
 30
0.0
 11
118.2064387037111
 21
184.7913227530374
 31
0.0
  0
LINE
  5
4154
330
1F
100
AcDbEntity
  8
AM_VIS
100
AcDbLine
 10
119.2064387037111
 20
184.7913227530374
 30
0.0
 11
118.2064387037111
 21
184.7913227530374
 31
0.0
  0
LINE
  5
4155
330
1F
100
AcDbEntity
  8
AM_VIS
100
AcDbLine
 10
168.2064387037111
 20
184.7913227530374
 30
0.0
 11
167.2064387037111
 21
184.7913227530374
 31
0.0
  0
LINE
  5
4156
330
1F
100
AcDbEntity
  8
AM_VIS
100
AcDbLine
 10
118.2064387037111
 20
258.7913227530374
 30
0.0
 11
119.2064387037111
 21
258.7913227530374
 31
0.0
  0
LINE
  5
4157
330
1F
100
AcDbEntity
  8
AM_VIS
100
AcDbLine
 10
118.2064387037111
 20
258.7913227530374
 30
0.0
 11
117.8754034353335
 21
258.7913227530374
 31
0.0
  0
LINE
  5
4158
330
1F
100
AcDbEntity
  8
AM_VIS
100
AcDbLine
 10
113.2064387037111
 20
258.7913227530374
 30
0.0
 11
113.5374739720886
 21
258.7913227530374
 31
0.0
  0
LINE
  5
4159
330
1F
100
AcDbEntity
  8
AM_VIS
100
AcDbLine
 10
172.8754034353335
 20
258.7913227530374
 30
0.0
 11
173.2064387037111
 21
258.7913227530374
 31
0.0
  0
LINE
  5
415A
330
1F
100
AcDbEntity
  8
AM_VIS
100
AcDbLine
 10
168.5374739720886
 20
258.7913227530374
 30
0.0
 11
168.2064387037111
 21
258.7913227530374
 31
0.0
  0
LINE
  5
415B
330
1F
100
AcDbEntity
  8
AM_VIS
100
AcDbLine
 10
167.2064387037111
 20
258.7913227530374
 30
0.0
 11
168.2064387037111
 21
258.7913227530374
 31
0.0
  0
CIRCLE
  5
4160
330
1F
100
AcDbEntity
  8
AM_VIS
100
AcDbCircle
 10
132.7064387037111
 20
189.7913227530374
 30
0.0
 40
2.25
  0
CIRCLE
  5
4161
330
1F
100
AcDbEntity
  8
AM_VIS
100
AcDbCircle
 10
153.7064387037111
 20
189.7913227530374
 30
0.0
 40
2.25
  0
CIRCLE
  5
4162
330
1F
100
AcDbEntity
  8
AM_VIS
100
AcDbCircle
 10
132.7064387037111
 20
253.7913227530374
 30
0.0
 40
2.25
  0
CIRCLE
  5
4163
330
1F
100
AcDbEntity
  8
AM_VIS
100
AcDbCircle
 10
153.7064387037111
 20
253.7913227530374
 30
0.0
 40
2.25
  0
LINE
  5
416E
330
1F
100
AcDbEntity
  8
AM_VIS
100
AcDbLine
 10
234.4137268866708
 20
184.7913227530374
 30
0.0
 11
234.4137268866708
 21
258.7913227530374
 31
0.0
  0
LINE
  5
416F
330
1F
100
AcDbEntity
  8
AM_VIS
100
AcDbLine
 10
210.4137268866708
 20
184.7913227530374
 30
0.0
 11
213.4683644819635
 21
184.7913227530374
 31
0.0
  0
LINE
  5
4170
330
1F
100
AcDbEntity
  8
AM_VIS
100
AcDbLine
 10
214.2116586282106
 20
184.7913227530374
 30
0.0
 11
218.115795145131
 21
184.7913227530374
 31
0.0
  0
LINE
  5
4171
330
1F
100
AcDbEntity
  8
AM_VIS
100
AcDbLine
 10
218.8590892913782
 20
184.7913227530374
 30
0.0
 11
233.4137268866708
 21
184.7913227530374
 31
0.0
  0
LINE
  5
4172
330
1F
100
AcDbEntity
  8
AM_VIS
100
AcDbLine
 10
233.4137268866708
 20
258.7913227530374
 30
0.0
 11
218.8590892913782
 21
258.7913227530374
 31
0.0
  0
LINE
  5
4173
330
1F
100
AcDbEntity
  8
AM_VIS
100
AcDbLine
 10
218.115795145131
 20
258.7913227530374
 30
0.0
 11
214.2116586282106
 21
258.7913227530374
 31
0.0
  0
LINE
  5
4174
330
1F
100
AcDbEntity
  8
AM_VIS
100
AcDbLine
 10
213.4683644819635
 20
258.7913227530374
 30
0.0
 11
210.4137268866708
 21
258.7913227530374
 31
0.0
  0
LINE
  5
4175
330
1F
100
AcDbEntity
  8
AM_VIS
100
AcDbLine
 10
209.4137268866708
 20
258.7913227530374
 30
0.0
 11
209.4137268866708
 21
184.7913227530374
 31
0.0
  0
LINE
  5
4176
330
1F
100
AcDbEntity
  8
AM_VIS
100
AcDbLine
 10
213.4683644819635
 20
184.7913227530374
 30
0.0
 11
214.2116586282106
 21
184.7913227530374
 31
0.0
  0
LINE
  5
4177
330
1F
100
AcDbEntity
  8
AM_VIS
100
AcDbLine
 10
218.8590892913782
 20
184.7913227530374
 30
0.0
 11
218.115795145131
 21
184.7913227530374
 31
0.0
  0
LINE
  5
4178
330
1F
100
AcDbEntity
  8
AM_VIS
100
AcDbLine
 10
234.4137268866708
 20
184.7913227530374
 30
0.0
 11
233.4137268866708
 21
184.7913227530374
 31
0.0
  0
LINE
  5
4179
330
1F
100
AcDbEntity
  8
AM_VIS
100
AcDbLine
 10
210.4137268866708
 20
184.7913227530374
 30
0.0
 11
209.4137268866708
 21
184.7913227530374
 31
0.0
  0
LINE
  5
417A
330
1F
100
AcDbEntity
  8
AM_VIS
100
AcDbLine
 10
233.4137268866708
 20
258.7913227530374
 30
0.0
 11
234.4137268866708
 21
258.7913227530374
 31
0.0
  0
LINE
  5
417B
330
1F
100
AcDbEntity
  8
AM_VIS
100
AcDbLine
 10
218.115795145131
 20
258.7913227530374
 30
0.0
 11
218.8590892913782
 21
258.7913227530374
 31
0.0
  0
LINE
  5
417C
330
1F
100
AcDbEntity
  8
AM_VIS
100
AcDbLine
 10
214.2116586282106
 20
258.7913227530374
 30
0.0
 11
213.4683644819635
 21
258.7913227530374
 31
0.0
  0
LINE
  5
417D
330
1F
100
AcDbEntity
  8
AM_VIS
100
AcDbLine
 10
209.4137268866708
 20
258.7913227530374
 30
0.0
 11
210.4137268866708
 21
258.7913227530374
 31
0.0
  0
LINE
  5
417E
330
1F
100
AcDbEntity
  8
AM_VIS
100
AcDbLine
 10
168.2064387037111
 20
160.2492001444972
 30
0.0
 11
168.2064387037111
 21
157.1945625492045
 31
0.0
  0
LINE
  5
417F
330
1F
100
AcDbEntity
  8
AM_VIS
100
AcDbLine
 10
168.5374739720886
 20
156.4512684029574
 30
0.0
 11
172.8754034353335
 21
152.547131886037
 31
0.0
  0
LINE
  5
4180
330
1F
100
AcDbEntity
  8
AM_VIS
100
AcDbLine
 10
173.2064387037111
 20
151.8038377397898
 30
0.0
 11
173.2064387037111
 21
137.2492001444972
 31
0.0
  0
LINE
  5
4181
330
1F
100
AcDbEntity
  8
AM_VIS
100
AcDbLine
 10
172.2064387037111
 20
136.2492001444972
 30
0.0
 11
163.2064387037111
 21
136.2492001444972
 31
0.0
  0
LINE
  5
4182
330
1F
100
AcDbEntity
  8
AM_VIS
100
AcDbLine
 10
163.2064387037111
 20
136.2492001444972
 30
0.0
 11
161.9564387037111
 21
137.2492001444972
 31
0.0
  0
LINE
  5
4183
330
1F
100
AcDbEntity
  8
AM_VIS
100
AcDbLine
 10
161.9564387037111
 20
137.2492001444972
 30
0.0
 11
124.4564387037111
 21
137.2492001444972
 31
0.0
  0
LINE
  5
4184
330
1F
100
AcDbEntity
  8
AM_VIS
100
AcDbLine
 10
124.4564387037111
 20
137.2492001444972
 30
0.0
 11
123.2064387037111
 21
136.2492001444972
 31
0.0
  0
LINE
  5
4185
330
1F
100
AcDbEntity
  8
AM_VIS
100
AcDbLine
 10
123.2064387037111
 20
136.2492001444972
 30
0.0
 11
114.2064387037111
 21
136.2492001444972
 31
0.0
  0
LINE
  5
4186
330
1F
100
AcDbEntity
  8
AM_VIS
100
AcDbLine
 10
113.2064387037111
 20
137.2492001444972
 30
0.0
 11
113.2064387037111
 21
151.8038377397898
 31
0.0
  0
LINE
  5
4187
330
1F
100
AcDbEntity
  8
AM_VIS
100
AcDbLine
 10
113.5374739720886
 20
152.547131886037
 30
0.0
 11
117.8754034353335
 21
156.4512684029574
 31
0.0
  0
LINE
  5
4188
330
1F
100
AcDbEntity
  8
AM_VIS
100
AcDbLine
 10
118.2064387037111
 20
157.1945625492045
 30
0.0
 11
118.2064387037111
 21
160.2492001444972
 31
0.0
  0
LINE
  5
4189
330
1F
100
AcDbEntity
  8
AM_VIS
100
AcDbLine
 10
119.2064387037111
 20
161.2492001444972
 30
0.0
 11
167.2064387037111
 21
161.2492001444972
 31
0.0
  0
ARC
  5
4190
330
1F
100
AcDbEntity
  8
AM_VIS
100
AcDbCircle
 10
169.2064387037111
 20
157.1945625492045
 30
0.0
 40
1.0
100
AcDbArc
 50
180.0
 51
228.0127875041832
  0
ARC
  5
4191
330
1F
100
AcDbEntity
  8
AM_VIS
100
AcDbCircle
 10
172.2064387037111
 20
151.8038377397898
 30
0.0
 40
1.0
100
AcDbArc
 50
0.0
 51
48.01278750418322
  0
ARC
  5
4192
330
1F
100
AcDbEntity
  8
AM_VIS
100
AcDbCircle
 10
172.2064387037111
 20
137.2492001444972
 30
0.0
 40
0.9999999999999998
100
AcDbArc
 50
270.0
 51
0.0
  0
ARC
  5
4193
330
1F
100
AcDbEntity
  8
AM_VIS
100
AcDbCircle
 10
114.2064387037111
 20
137.2492001444972
 30
0.0
 40
0.9999999999999998
100
AcDbArc
 50
180.0
 51
270.0
  0
ARC
  5
4194
330
1F
100
AcDbEntity
  8
AM_VIS
100
AcDbCircle
 10
114.2064387037111
 20
151.8038377397898
 30
0.0
 40
1.0
100
AcDbArc
 50
131.9872124958167
 51
180.0
  0
ARC
  5
4195
330
1F
100
AcDbEntity
  8
AM_VIS
100
AcDbCircle
 10
117.2064387037111
 20
157.1945625492045
 30
0.0
 40
1.0
100
AcDbArc
 50
311.9872124958168
 51
0.0
  0
ARC
  5
4196
330
1F
100
AcDbEntity
  8
AM_VIS
100
AcDbCircle
 10
119.2064387037111
 20
160.2492001444972
 30
0.0
 40
0.9999999999999998
100
AcDbArc
 50
90.0
 51
180.0
  0
ARC
  5
4197
330
1F
100
AcDbEntity
  8
AM_VIS
100
AcDbCircle
 10
167.2064387037111
 20
160.2492001444972
 30
0.0
 40
0.9999999999999998
100
AcDbArc
 50
0.0
 51
90.0
  0
ARC
  5
41A1
330
1F
100
AcDbEntity
  8
AM_4
100
AcDbCircle
 10
121.7064387037111
 20
146.2492001444972
 30
0.0
 40
6.899999999999999
100
AcDbArc
 50
260.0
 51
170.0
  0
CIRCLE
  5
41A2
330
1F
100
AcDbEntity
  8
AM_0
100
AcDbCircle
 10
121.7064387037111
 20
146.2492001444972
 30
0.0
 40
5.7225
  0
LINE
  5
41A3
330
1F
100
AcDbEntity
  8
AM_7
  6
AM_ISO08W050x2
100
AcDbLine
 10
121.7064387037111
 20
146.2492001444972
 30
0.0
 11
130.4289387037111
 21
146.2492001444972
 31
0.0
1001
GENIUS_GENOREF_13
1005
41A7
  0
LINE
  5
41A4
330
1F
100
AcDbEntity
  8
AM_7
  6
AM_ISO08W050x2
100
AcDbLine
 10
121.7064387037111
 20
146.2492001444972
 30
0.0
 11
121.7064387037111
 21
154.9717001444972
 31
0.0
1001
GENIUS_GENOREF_13
1005
41A7
  0
LINE
  5
41A5
330
1F
100
AcDbEntity
  8
AM_7
  6
AM_ISO08W050x2
100
AcDbLine
 10
121.7064387037111
 20
146.2492001444972
 30
0.0
 11
112.9839387037111
 21
146.2492001444972
 31
0.0
1001
GENIUS_GENOREF_13
1005
41A7
  0
LINE
  5
41A6
330
1F
100
AcDbEntity
  8
AM_7
  6
AM_ISO08W050x2
100
AcDbLine
 10
121.7064387037111
 20
146.2492001444972
 30
0.0
 11
121.7064387037111
 21
137.5267001444971
 31
0.0
1001
GENIUS_GENOREF_13
1005
41A7
  0
POINT
  5
41A7
330
1F
100
AcDbEntity
  8
0
 60
     1
100
AcDbPoint
 10
190.4446671493167
 20
4.298123054716086
 30
0.0
1001
GENIUS_GENODEF_13
1002
{
1000
HIER
1070
    10
1002
}
1002
{
1000
MANEDIT
1070
     0
1002
}
1002
{
1000
NOSEL
1070
     0
1002
}
1002
{
1000
BEHIND
1070
     0
1002
}
1002
{
1000
OTHER
1070
     0
1002
}
1002
{
1000
REACTOR
1002
}
1001
GENIUS_GENOBJ-N-CRS_13
1002
{
1000
OWNER
1000
GEN
1002
}
1001
GENIUS_GENOLIS_13
1002
{
1000
ENT
1005
41A6
1005
41A5
1005
41A4
1005
41A3
1002
}
1001
GENIUS_GENOENT_13
1002
{
1000
MYREF
1005
41A7
1002
}
1002
{
1000
GRP
1005
0
1002
}
  0
ARC
  5
41A8
330
1F
100
AcDbEntity
  8
AM_4
100
AcDbCircle
 10
143.2064387037111
 20
146.2492001444972
 30
0.0
 40
6.899999999999999
100
AcDbArc
 50
260.0
 51
170.0
  0
CIRCLE
  5
41A9
330
1F
100
AcDbEntity
  8
AM_0
100
AcDbCircle
 10
143.2064387037111
 20
146.2492001444972
 30
0.0
 40
5.7225
  0
LINE
  5
41AA
330
1F
100
AcDbEntity
  8
AM_7
  6
AM_ISO08W050x2
100
AcDbLine
 10
143.2064387037111
 20
146.2492001444972
 30
0.0
 11
151.9289387037111
 21
146.2492001444972
 31
0.0
1001
GENIUS_GENOREF_13
1005
41AE
  0
LINE
  5
41AB
330
1F
100
AcDbEntity
  8
AM_7
  6
AM_ISO08W050x2
100
AcDbLine
 10
143.2064387037111
 20
146.2492001444972
 30
0.0
 11
143.2064387037111
 21
154.9717001444972
 31
0.0
1001
GENIUS_GENOREF_13
1005
41AE
  0
LINE
  5
41AC
330
1F
100
AcDbEntity
  8
AM_7
  6
AM_ISO08W050x2
100
AcDbLine
 10
143.2064387037111
 20
146.2492001444972
 30
0.0
 11
134.4839387037111
 21
146.2492001444972
 31
0.0
1001
GENIUS_GENOREF_13
1005
41AE
  0
LINE
  5
41AD
330
1F
100
AcDbEntity
  8
AM_7
  6
AM_ISO08W050x2
100
AcDbLine
 10
143.2064387037111
 20
146.2492001444972
 30
0.0
 11
143.2064387037111
 21
137.5267001444971
 31
0.0
1001
GENIUS_GENOREF_13
1005
41AE
  0
POINT
  5
41AE
330
1F
100
AcDbEntity
  8
0
 60
     1
100
AcDbPoint
 10
211.9446671493167
 20
4.298123054716086
 30
0.0
1001
GENIUS_GENODEF_13
1002
{
1000
HIER
1070
    10
1002
}
1002
{
1000
MANEDIT
1070
     0
1002
}
1002
{
1000
NOSEL
1070
     0
1002
}
1002
{
1000
BEHIND
1070
     0
1002
}
1002
{
1000
OTHER
1070
     0
1002
}
1002
{
1000
REACTOR
1002
}
1001
GENIUS_GENOBJ-N-CRS_13
1002
{
1000
OWNER
1000
GEN
1002
}
1001
GENIUS_GENOLIS_13
1002
{
1000
ENT
1005
41AD
1005
41AC
1005
41AB
1005
41AA
1002
}
1001
GENIUS_GENOENT_13
1002
{
1000
MYREF
1005
41AE
1002
}
1002
{
1000
GRP
1005
0
1002
}
  0
ARC
  5
41AF
330
1F
100
AcDbEntity
  8
AM_4
100
AcDbCircle
 10
164.7064387037111
 20
146.2492001444972
 30
0.0
 40
6.899999999999999
100
AcDbArc
 50
260.0
 51
170.0
  0
CIRCLE
  5
41B0
330
1F
100
AcDbEntity
  8
AM_0
100
AcDbCircle
 10
164.7064387037111
 20
146.2492001444972
 30
0.0
 40
5.7225
  0
LINE
  5
41B1
330
1F
100
AcDbEntity
  8
AM_7
  6
AM_ISO08W050x2
100
AcDbLine
 10
164.7064387037111
 20
146.2492001444972
 30
0.0
 11
173.4289387037111
 21
146.2492001444972
 31
0.0
1001
GENIUS_GENOREF_13
1005
41B5
  0
LINE
  5
41B2
330
1F
100
AcDbEntity
  8
AM_7
  6
AM_ISO08W050x2
100
AcDbLine
 10
164.7064387037111
 20
146.2492001444972
 30
0.0
 11
164.7064387037111
 21
154.9717001444972
 31
0.0
1001
GENIUS_GENOREF_13
1005
41B5
  0
LINE
  5
41B3
330
1F
100
AcDbEntity
  8
AM_7
  6
AM_ISO08W050x2
100
AcDbLine
 10
164.7064387037111
 20
146.2492001444972
 30
0.0
 11
155.9839387037111
 21
146.2492001444972
 31
0.0
1001
GENIUS_GENOREF_13
1005
41B5
  0
LINE
  5
41B4
330
1F
100
AcDbEntity
  8
AM_7
  6
AM_ISO08W050x2
100
AcDbLine
 10
164.7064387037111
 20
146.2492001444972
 30
0.0
 11
164.7064387037111
 21
137.5267001444971
 31
0.0
1001
GENIUS_GENOREF_13
1005
41B5
  0
POINT
  5
41B5
330
1F
100
AcDbEntity
  8
0
 60
     1
100
AcDbPoint
 10
233.4446671493167
 20
4.298123054716086
 30
0.0
1001
GENIUS_GENODEF_13
1002
{
1000
HIER
1070
    10
1002
}
1002
{
1000
MANEDIT
1070
     0
1002
}
1002
{
1000
NOSEL
1070
     0
1002
}
1002
{
1000
BEHIND
1070
     0
1002
}
1002
{
1000
OTHER
1070
     0
1002
}
1002
{
1000
REACTOR
1002
}
1001
GENIUS_GENOBJ-N-CRS_13
1002
{
1000
OWNER
1000
GEN
1002
}
1001
GENIUS_GENOLIS_13
1002
{
1000
ENT
1005
41B4
1005
41B3
1005
41B2
1005
41B1
1002
}
1001
GENIUS_GENOENT_13
1002
{
1000
MYREF
1005
41B5
1002
}
1002
{
1000
GRP
1005
0
1002
}
  0
LINE
  5
4210
330
1F
100
AcDbEntity
  8
AM_7
100
AcDbLine
 10
143.2064387037111
 20
181.7913227530374
 30
0.0
 11
143.2064387037111
 21
261.7913227530374
 31
0.0
1001
GENIUS_GENODEF_13
1002
{
1000
HIER
1070
     0
1002
}
1002
{
1000
MANEDIT
1070
     0
1002
}
1002
{
1000
NOSEL
1070
     0
1002
}
1002
{
1000
BEHIND
1070
     0
1002
}
1002
{
1000
OTHER
1070
     0
1002
}
1002
{
1000
REACTOR
1002
}
1001
GENIUS_GENOBJ-N-CEN_13
1002
{
1000
OWNER
1000
GEN
1002
}
1001
GENIUS_GENCEN_19
1002
{
1040
3.0
1002
}
  0
ENDSEC
  0
SECTION
  2
OBJECTS
  0
DICTIONARY
  5
C
330
0
100
AcDbDictionary
281
     1
  3
ACAD_COLOR
350
7D1
  3
ACAD_GROUP
350
D
  3
ACAD_LAYOUT
350
1A
  3
ACAD_MATERIAL
350
7D0
  3
ACAD_MLINESTYLE
350
17
  3
ACAD_PLOTSETTINGS
350
19
  3
ACAD_PLOTSTYLENAME
350
E
  3
ACAD_TABLESTYLE
350
7D2
  3
ACDBHEADERROUNDTRIPXREC
350
4320
  3
AcDbVariableDictionary
350
82
  3
AcmDictionary
350
45
  3
AMG
350
2B
  3
AMGSNAPSETTINGS
350
87
  3
DWGPROPS
350
431F
  0
DICTIONARY
  5
AAB
330
2
100
AcDbDictionary
280
     1
281
     1
  3
ACAD_LAYERSTATES
360
AAC
  3
AMLAYER_GROUPCOLORS
360
3426
  0
DICTIONARY
  5
7D
330
1F
100
AcDbDictionary
280
     1
281
     1
  3
ACAD_SORTENTS
360
EEA
  0
DICTIONARY
  5
7D1
102
{ACAD_REACTORS
330
C
102
}
330
C
100
AcDbDictionary
281
     1
  0
DICTIONARY
  5
D
102
{ACAD_REACTORS
330
C
102
}
330
C
100
AcDbDictionary
281
     1
  0
DICTIONARY
  5
1A
102
{ACAD_REACTORS
330
C
102
}
330
C
100
AcDbDictionary
281
     1
  3
Layout1
350
1E
  3
Layout2
350
26
  3
Model
350
22
  0
DICTIONARY
  5
7D0
102
{ACAD_REACTORS
330
C
102
}
330
C
100
AcDbDictionary
281
     1
  0
DICTIONARY
  5
17
102
{ACAD_REACTORS
330
C
102
}
330
C
100
AcDbDictionary
281
     1
  3
Standard
350
18
  0
DICTIONARY
  5
19
102
{ACAD_REACTORS
330
C
102
}
330
C
100
AcDbDictionary
281
     1
  0
ACDBDICTIONARYWDFLT
  5
E
102
{ACAD_REACTORS
330
C
102
}
330
C
100
AcDbDictionary
281
     1
  3
Normal
350
F
100
AcDbDictionaryWithDefault
340
F
  0
DICTIONARY
  5
7D2
102
{ACAD_REACTORS
330
C
102
}
330
C
100
AcDbDictionary
281
     1
  3
Standard
350
7D3
  0
DICTIONARY
  5
4320
102
{ACAD_REACTORS
330
C
102
}
330
C
100
AcDbDictionary
281
     1
  0
DICTIONARY
  5
82
102
{ACAD_REACTORS
330
C
102
}
330
C
100
AcDbDictionary
281
     1
  3
CTABLESTYLE
350
847
  3
DIMASSOC
350
85
  3
HIDETEXT
350
84
  3
INDEXCTL
350
83
  3
PROJECTNAME
350
848
  0
DICTIONARY
  5
45
102
{ACAD_REACTORS
330
C
102
}
330
C
100
AcDbDictionary
281
     1
  3
AcmStdDictionary
350
4A
  3
AMDTSECTSYM_ARROWCOLOR
350
7DF
  0
DICTIONARY
  5
2B
102
{ACAD_REACTORS
330
C
102
}
330
C
100
AcDbDictionary
281
     1
  0
DICTIONARY
  5
87
102
{ACAD_REACTORS
330
C
102
}
330
C
100
AcDbDictionary
281
     1
  0
XRECORD
  5
431F
102
{ACAD_REACTORS
330
C
102
}
330
C
100
AcDbXrecord
280
     1
  1
DWGPROPS COOKIE
  2

  3

  4

  6

  7

  8

  9

300
AmdtFileType=84
301
=
302
=
303
=
304
=
305
=
306
=
307
=
308
=
309
=
 40
0.5830678935185185
 41
2453021.369367211
 42
2453514.628483252
  1

 90
        1
  0
DICTIONARY
  5
AAC
102
{ACAD_REACTORS
330
AAB
102
}
330
AAB
100
AcDbDictionary
281
     1
  0
DICTIONARY
  5
3426
102
{ACAD_REACTORS
330
AAB
102
}
330
AAB
100
AcDbDictionary
280
     1
281
     1
  0
SORTENTSTABLE
  5
EEA
102
{ACAD_REACTORS
330
7D
102
}
330
7D
100
AcDbSortentsTable
330
1F
331
146B
  5
146B
331
13FB
  5
13FB
331
1641
  5
1641
331
1479
  5
1479
331
1604
  5
1604
331
1477
  5
1477
331
1444
  5
1444
331
1457
  5
1457
331
163A
  5
163A
331
13F2
  5
13F2
331
145D
  5
145D
331
1470
  5
1470
331
1400
  5
1400
331
1449
  5
1449
331
13F9
  5
13F9
331
1434
  5
1434
331
13F7
  5
13F7
331
1602
  5
1602
331
1475
  5
1475
331
1442
  5
1442
331
1455
  5
1455
331
1638
  5
1638
331
1610
  5
1610
331
1405
  5
1405
331
1623
  5
1623
331
146E
  5
146E
331
144E
  5
144E
331
1631
  5
1631
331
3381
  5
3381
331
13FE
  5
13FE
331
1644
  5
1644
331
162F
  5
162F
331
1467
  5
1467
331
163D
  5
163D
331
1615
  5
1615
331
1432
  5
1432
331
1628
  5
1628
331
13F5
  5
13F5
331
1440
  5
1440
331
1473
  5
1473
331
1636
  5
1636
331
1453
  5
1453
331
1403
  5
1403
331
143E
  5
143E
331
1459
  5
1459
331
146C
  5
146C
331
13FC
  5
13FC
331
1642
  5
1642
331
161A
  5
161A
331
162D
  5
162D
331
2D18
  5
2D18
331
1605
  5
1605
331
1465
  5
1465
331
1648
  5
1648
331
1445
  5
1445
331
163B
  5
163B
331
1626
  5
1626
331
13F3
  5
13F3
331
1664
  5
1664
331
1471
  5
1471
331
1634
  5
1634
331
1401
  5
1401
331
1647
  5
1647
331
160A
  5
160A
331
13FA
  5
13FA
331
1640
  5
1640
331
1478
  5
1478
331
1603
  5
1603
331
1476
  5
1476
331
1443
  5
1443
331
1456
  5
1456
331
1639
  5
1639
331
13F1
  5
13F1
331
160F
  5
160F
331
146F
  5
146F
331
1632
  5
1632
331
13FF
  5
13FF
331
161D
  5
161D
331
13F8
  5
13F8
331
163E
  5
163E
331
1616
  5
1616
331
1433
  5
1433
331
1629
  5
1629
331
13F6
  5
13F6
331
1461
  5
1461
331
1441
  5
1441
331
1474
  5
1474
331
1637
  5
1637
331
1454
  5
1454
331
1404
  5
1404
331
143F
  5
143F
331
146D
  5
146D
331
144D
  5
144D
331
1630
  5
1630
331
3380
  5
3380
331
13FD
  5
13FD
331
162E
  5
162E
331
1466
  5
1466
331
163C
  5
163C
331
1627
  5
1627
331
13F4
  5
13F4
331
1472
  5
1472
331
1635
  5
1635
331
1452
  5
1452
331
1402
  5
1402
331
1620
  5
1620
331
143D
  5
143D
331
1458
  5
1458
331
160B
  5
160B
  0
LAYOUT
  5
1E
102
{ACAD_XDICTIONARY
360
4321
102
}
102
{ACAD_REACTORS
330
1A
102
}
330
1A
100
AcDbPlotSettings
  1

  2
自動 RD 上的 Epson Stylus Photo 750 單色
  4

  6

 40
0.0
 41
0.0
 42
0.0
 43
0.0
 44
0.0
 45
0.0
 46
0.0
 47
0.0
 48
0.0
 49
0.0
140
0.0
141
0.0
142
1.0
143
1.0
 70
   688
 72
     0
 73
     0
 74
     5
  7
彩色出圖.ctb
 75
    16
147
1.0
148
0.0
149
0.0
100
AcDbLayout
  1
Layout1
 70
     1
 71
     1
 10
0.0
 20
0.0
 11
420.0
 21
297.0
 12
0.0
 22
0.0
 32
0.0
 14
1.000000000000000E+20
 24
1.000000000000000E+20
 34
1.000000000000000E+20
 15
-1.000000000000000E+20
 25
-1.000000000000000E+20
 35
-1.000000000000000E+20
146
0.0
 13
0.0
 23
0.0
 33
0.0
 16
1.0
 26
0.0
 36
0.0
 17
0.0
 27
1.0
 37
0.0
 76
     0
330
1B
  0
LAYOUT
  5
26
102
{ACAD_XDICTIONARY
360
4325
102
}
102
{ACAD_REACTORS
330
1A
102
}
330
1A
100
AcDbPlotSettings
  1

  2
自動 RD 上的 Epson Stylus Photo 750 單色
  4

  6

 40
0.0
 41
0.0
 42
0.0
 43
0.0
 44
0.0
 45
0.0
 46
0.0
 47
0.0
 48
0.0
 49
0.0
140
0.0
141
0.0
142
1.0
143
1.0
 70
   688
 72
     0
 73
     0
 74
     5
  7
彩色出圖.ctb
 75
    16
147
1.0
148
0.0
149
0.0
100
AcDbLayout
  1
Layout2
 70
     1
 71
     2
 10
0.0
 20
0.0
 11
12.0
 21
9.0
 12
0.0
 22
0.0
 32
0.0
 14
0.0
 24
0.0
 34
0.0
 15
0.0
 25
0.0
 35
0.0
146
0.0
 13
0.0
 23
0.0
 33
0.0
 16
1.0
 26
0.0
 36
0.0
 17
0.0
 27
1.0
 37
0.0
 76
     0
330
23
  0
LAYOUT
  5
22
102
{ACAD_XDICTIONARY
360
4323
102
}
102
{ACAD_REACTORS
330
1A
102
}
330
1A
100
AcDbPlotSettings
  1

  2
自動 RD 上的 Epson Stylus Photo 750 單色
  4
A4
  6

 40
3.757083177566528
 41
14.7637300491333
 42
3.757080078125
 43
3.757080078125
 44
209.9733276367187
 45
296.9683227539062
 46
7.54
 47
0.0
 48
0.0
 49
0.0
140
0.0
141
0.0
142
1.0
143
1.817317462545654
 70
 11956
 72
     1
 73
     0
 74
     1
  7
彩色出圖.ctb
 75
     0
147
0.5502615919395967
148
-125.5654918467224
149
222.8859553785132
100
AcDbLayout
  1
Model
 70
     1
 71
     0
 10
0.0
 20
0.0
 11
12.0
 21
9.0
 12
0.0
 22
0.0
 32
0.0
 14
0.0
 24
0.0
 34
0.0
 15
0.0
 25
0.0
 35
0.0
146
0.0
 13
0.0
 23
0.0
 33
0.0
 16
1.0
 26
0.0
 36
0.0
 17
0.0
 27
1.0
 37
0.0
 76
     0
330
1F
  0
MLINESTYLE
  5
18
102
{ACAD_REACTORS
330
17
102
}
330
17
100
AcDbMlineStyle
  2
STANDARD
 70
     0
  3

 62
   256
 51
90.0
 52
90.0
 71
     2
 49
0.5
 62
   256
  6
BYLAYER
 49
-0.5
 62
   256
  6
BYLAYER
  0
ACDBPLACEHOLDER
  5
F
102
{ACAD_REACTORS
330
E
102
}
330
E
  0
TABLESTYLE
  5
7D3
102
{ACAD_REACTORS
330
7D2
102
}
330
7D2
100
AcDbTableStyle
  3
Standard
 70
     0
 71
     0
 40
1.5
 41
1.5
280
     0
281
     0
  7
STANDARD
140
4.5
170
     2
 62
     0
 63
     7
283
     0
274
    -2
284
     1
 64
     0
275
    -2
285
     1
 65
     0
276
    -2
286
     1
 66
     0
277
    -2
287
     1
 67
     0
278
    -2
288
     1
 68
     0
279
    -2
289
     1
 69
     0
  7
STANDARD
140
6.0
170
     5
 62
     0
 63
     7
283
     0
274
    -2
284
     1
 64
     0
275
    -2
285
     1
 65
     0
276
    -2
286
     1
 66
     0
277
    -2
287
     1
 67
     0
278
    -2
288
     1
 68
     0
279
    -2
289
     1
 69
     0
  7
STANDARD
140
4.5
170
     5
 62
     0
 63
     7
283
     0
274
    -2
284
     1
 64
     0
275
    -2
285
     1
 65
     0
276
    -2
286
     1
 66
     0
277
    -2
287
     1
 67
     0
278
    -2
288
     1
 68
     0
279
    -2
289
     1
 69
     0
  0
DICTIONARYVAR
  5
847
102
{ACAD_REACTORS
330
82
102
}
330
82
100
DictionaryVariables
280
     0
  1
STANDARD
  0
DICTIONARYVAR
  5
85
102
{ACAD_REACTORS
330
82
102
}
330
82
100
DictionaryVariables
280
     0
  1
2
  0
DICTIONARYVAR
  5
84
102
{ACAD_REACTORS
330
82
102
}
330
82
100
DictionaryVariables
280
     0
  1
1
  0
DICTIONARYVAR
  5
83
102
{ACAD_REACTORS
330
82
102
}
330
82
100
DictionaryVariables
280
     0
  1
0
  0
DICTIONARYVAR
  5
848
102
{ACAD_REACTORS
330
82
102
}
330
82
100
DictionaryVariables
280
     0
  1

  0
DICTIONARY
  5
4A
102
{ACAD_REACTORS
330
45
102
}
330
45
100
AcDbDictionary
281
     1
  0
XRECORD
  5
7DF
102
{ACAD_REACTORS
330
45
102
}
330
45
100
AcDbXrecord
280
     1
 90
-1023410169
  0
DICTIONARY
  5
4321
330
1E
100
AcDbDictionary
280
     1
281
     1
  3
ACAD_XREC_ROUNDTRIP
360
4322
  0
DICTIONARY
  5
4325
330
26
100
AcDbDictionary
280
     1
281
     1
  3
ACAD_XREC_ROUNDTRIP
360
4326
  0
DICTIONARY
  5
4323
330
22
100
AcDbDictionary
280
     1
281
     1
  3
ACAD_XREC_ROUNDTRIP
360
4324
  0
XRECORD
  5
4322
102
{ACAD_REACTORS
330
4321
102
}
330
4321
100
AcDbXrecord
280
     1
102
SHADEPLOT
 70
     0
102
SHADEPLOTRESLEVEL
 70
     2
102
SHADEPLOTCUSTOMDPI
 70
   300
  0
XRECORD
  5
4326
102
{ACAD_REACTORS
330
4325
102
}
330
4325
100
AcDbXrecord
280
     1
102
SHADEPLOT
 70
     0
102
SHADEPLOTRESLEVEL
 70
     2
102
SHADEPLOTCUSTOMDPI
 70
   300
  0
XRECORD
  5
4324
102
{ACAD_REACTORS
330
4323
102
}
330
4323
100
AcDbXrecord
280
     1
102
SHADEPLOT
 70
     0
102
SHADEPLOTRESLEVEL
 70
     2
102
SHADEPLOTCUSTOMDPI
 70
   300
  0
ENDSEC
  0
EOF
