  0
SECTION
  2
HEADER
  9
$ACADVER
  1
AC1015
  9
$ACADMAINTVER
 70
    20
  9
$DWGCODEPAGE
  3
ANSI_950
  9
$INSBASE
 10
0.0
 20
0.0
 30
0.0
  9
$EXTMIN
 10
175.0386328933523
 20
49.76080770100953
 30
-0.0107959675059988
  9
$EXTMAX
 10
554.6007183739829
 20
409.8044428718289
 30
235.9147067298829
  9
$LIMMIN
 10
0.0
 20
0.0
  9
$LIMMAX
 10
420.0
 20
297.0
  9
$ORTHOMODE
 70
     1
  9
$REGENMODE
 70
     1
  9
$FILLMODE
 70
     1
  9
$QTEXTMODE
 70
     0
  9
$MIRRTEXT
 70
     1
  9
$LTSCALE
 40
1.0
  9
$ATTMODE
 70
     1
  9
$TEXTSIZE
 40
3.0
  9
$TRACEWID
 40
1.0
  9
$TEXTSTYLE
  7
STANDARD
  9
$CLAYER
  8
0
  9
$CELTYPE
  6
ByLayer
  9
$CECOLOR
 62
   256
  9
$CELTSCALE
 40
1.0
  9
$DISPSILH
 70
     0
  9
$DIMSCALE
 40
1.0
  9
$DIMASZ
 40
3.0
  9
$DIMEXO
 40
1.0
  9
$DIMDLI
 40
10.0
  9
$DIMRND
 40
0.0
  9
$DIMDLE
 40
0.0
  9
$DIMEXE
 40
1.5
  9
$DIMTP
 40
0.1
  9
$DIMTM
 40
0.1
  9
$DIMTXT
 40
3.5
  9
$DIMCEN
 40
0.0
  9
$DIMTSZ
 40
0.0
  9
$DIMTOL
 70
     0
  9
$DIMLIM
 70
     0
  9
$DIMTIH
 70
     0
  9
$DIMTOH
 70
     0
  9
$DIMSE1
 70
     0
  9
$DIMSE2
 70
     0
  9
$DIMTAD
 70
     1
  9
$DIMZIN
 70
     8
  9
$DIMBLK
  1

  9
$DIMASO
 70
     1
  9
$DIMSHO
 70
     1
  9
$DIMPOST
  1

  9
$DIMAPOST
  1
"
  9
$DIMALT
 70
     0
  9
$DIMALTD
 70
     2
  9
$DIMALTF
 40
0.0393701
  9
$DIMLFAC
 40
1.0
  9
$DIMTOFL
 70
     1
  9
$DIMTVP
 40
0.0
  9
$DIMTIX
 70
     0
  9
$DIMSOXD
 70
     0
  9
$DIMSAH
 70
     0
  9
$DIMBLK1
  1

  9
$DIMBLK2
  1

  9
$DIMSTYLE
  2
AM_ISO
  9
$DIMCLRD
 70
   256
  9
$DIMCLRE
 70
   256
  9
$DIMCLRT
 70
   256
  9
$DIMTFAC
 40
0.6
  9
$DIMGAP
 40
0.7
  9
$DIMJUST
 70
     0
  9
$DIMSD1
 70
     0
  9
$DIMSD2
 70
     0
  9
$DIMTOLJ
 70
     0
  9
$DIMTZIN
 70
     8
  9
$DIMALTZ
 70
     0
  9
$DIMALTTZ
 70
     0
  9
$DIMUPT
 70
     0
  9
$DIMDEC
 70
     2
  9
$DIMTDEC
 70
     8
  9
$DIMALTU
 70
     2
  9
$DIMALTTD
 70
     2
  9
$DIMTXSTY
  7
STANDARD
  9
$DIMAUNIT
 70
     0
  9
$DIMADEC
 70
     0
  9
$DIMALTRND
 40
0.0
  9
$DIMAZIN
 70
     2
  9
$DIMDSEP
 70
    46
  9
$DIMATFIT
 70
     3
  9
$DIMFRAC
 70
     0
  9
$DIMLDRBLK
  1

  9
$DIMLUNIT
 70
     2
  9
$DIMLWD
 70
    -1
  9
$DIMLWE
 70
    -1
  9
$DIMTMOVE
 70
     0
  9
$LUNITS
 70
     2
  9
$LUPREC
 70
     2
  9
$SKETCHINC
 40
1.0
  9
$FILLETRAD
 40
2.5
  9
$AUNITS
 70
     0
  9
$AUPREC
 70
     0
  9
$MENU
  1
.
  9
$ELEVATION
 40
0.0
  9
$PELEVATION
 40
0.0
  9
$THICKNESS
 40
0.0
  9
$LIMCHECK
 70
     0
  9
$CHAMFERA
 40
2.5
  9
$CHAMFERB
 40
2.5
  9
$CHAMFERC
 40
20.0
  9
$CHAMFERD
 40
0.0
  9
$SKPOLY
 70
     0
  9
$TDCREATE
 40
2454063.432591504
  9
$TDUCREATE
 40
2454063.099258172
  9
$TDUPDATE
 40
2454421.440785220
  9
$TDUUPDATE
 40
2454421.107451886
  9
$TDINDWG
 40
0.1726931597
  9
$TDUSRTIMER
 40
0.1726929745
  9
$USRTIMER
 70
     1
  9
$ANGBASE
 50
0.0
  9
$ANGDIR
 70
     0
  9
$PDMODE
 70
     0
  9
$PDSIZE
 40
0.0
  9
$PLINEWID
 40
0.0
  9
$SPLFRAME
 70
     0
  9
$SPLINETYPE
 70
     6
  9
$SPLINESEGS
 70
     8
  9
$HANDSEED
  5
3251
  9
$SURFTAB1
 70
     6
  9
$SURFTAB2
 70
     6
  9
$SURFTYPE
 70
     6
  9
$SURFU
 70
     6
  9
$SURFV
 70
     6
  9
$UCSBASE
  2

  9
$UCSNAME
  2

  9
$UCSORG
 10
0.0
 20
0.0
 30
0.0
  9
$UCSXDIR
 10
1.0
 20
0.0
 30
0.0
  9
$UCSYDIR
 10
0.0
 20
1.0
 30
0.0
  9
$UCSORTHOREF
  2

  9
$UCSORTHOVIEW
 70
     0
  9
$UCSORGTOP
 10
0.0
 20
0.0
 30
0.0
  9
$UCSORGBOTTOM
 10
0.0
 20
0.0
 30
0.0
  9
$UCSORGLEFT
 10
0.0
 20
0.0
 30
0.0
  9
$UCSORGRIGHT
 10
0.0
 20
0.0
 30
0.0
  9
$UCSORGFRONT
 10
0.0
 20
0.0
 30
0.0
  9
$UCSORGBACK
 10
0.0
 20
0.0
 30
0.0
  9
$PUCSBASE
  2

  9
$PUCSNAME
  2

  9
$PUCSORG
 10
0.0
 20
0.0
 30
0.0
  9
$PUCSXDIR
 10
1.0
 20
0.0
 30
0.0
  9
$PUCSYDIR
 10
0.0
 20
1.0
 30
0.0
  9
$PUCSORTHOREF
  2

  9
$PUCSORTHOVIEW
 70
     0
  9
$PUCSORGTOP
 10
0.0
 20
0.0
 30
0.0
  9
$PUCSORGBOTTOM
 10
0.0
 20
0.0
 30
0.0
  9
$PUCSORGLEFT
 10
0.0
 20
0.0
 30
0.0
  9
$PUCSORGRIGHT
 10
0.0
 20
0.0
 30
0.0
  9
$PUCSORGFRONT
 10
0.0
 20
0.0
 30
0.0
  9
$PUCSORGBACK
 10
0.0
 20
0.0
 30
0.0
  9
$USERI1
 70
     0
  9
$USERI2
 70
     0
  9
$USERI3
 70
     0
  9
$USERI4
 70
     0
  9
$USERI5
 70
     0
  9
$USERR1
 40
0.0
  9
$USERR2
 40
0.0
  9
$USERR3
 40
0.0
  9
$USERR4
 40
0.0
  9
$USERR5
 40
0.0
  9
$WORLDVIEW
 70
     1
  9
$SHADEDGE
 70
     3
  9
$SHADEDIF
 70
    70
  9
$TILEMODE
 70
     1
  9
$MAXACTVP
 70
    64
  9
$PINSBASE
 10
0.0
 20
0.0
 30
0.0
  9
$PLIMCHECK
 70
     0
  9
$PEXTMIN
 10
1.000000000000000E+20
 20
1.000000000000000E+20
 30
1.000000000000000E+20
  9
$PEXTMAX
 10
-1.000000000000000E+20
 20
-1.000000000000000E+20
 30
-1.000000000000000E+20
  9
$PLIMMIN
 10
0.0
 20
0.0
  9
$PLIMMAX
 10
420.0
 20
297.0
  9
$UNITMODE
 70
     0
  9
$VISRETAIN
 70
     1
  9
$PLINEGEN
 70
     0
  9
$PSLTSCALE
 70
     1
  9
$TREEDEPTH
 70
  3020
  9
$CMLSTYLE
  2
Standard
  9
$CMLJUST
 70
     0
  9
$CMLSCALE
 40
20.0
  9
$PROXYGRAPHICS
 70
     1
  9
$MEASUREMENT
 70
     1
  9
$CELWEIGHT
370
    -1
  9
$ENDCAPS
280
     0
  9
$JOINSTYLE
280
     0
  9
$LWDISPLAY
290
     0
  9
$INSUNITS
 70
     4
  9
$HYPERLINKBASE
  1

  9
$STYLESHEET
  1
彩色出圖.ctb
  9
$XEDIT
290
     1
  9
$CEPSNTYPE
380
     0
  9
$PSTYLEMODE
290
     1
  9
$FINGERPRINTGUID
  2
{F4FFE59A-4F21-4CD4-AC74-27BE541BF161}
  9
$VERSIONGUID
  2
{0791DB3E-6DD5-4E77-91D3-19F858AB7698}
  9
$EXTNAMES
290
     1
  9
$PSVPSCALE
 40
0.0
  9
$OLESTARTUP
290
     0
  0
ENDSEC
  0
SECTION
  2
CLASSES
  0
CLASS
  1
ACDBDICTIONARYWDFLT
  2
AcDbDictionaryWithDefault
  3
ObjectDBX Classes
 90
        0
280
     0
281
     0
  0
CLASS
  1
ACDBPLACEHOLDER
  2
AcDbPlaceHolder
  3
ObjectDBX Classes
 90
        0
280
     0
281
     0
  0
CLASS
  1
LAYOUT
  2
AcDbLayout
  3
ObjectDBX Classes
 90
        0
280
     0
281
     0
  0
CLASS
  1
ACME_DOCUMENT
  2
AcMeDbDoc
  3
AcMeServices
 90
        0
280
     0
281
     0
  0
CLASS
  1
AMGSETTINGSOBJ
  2
AmgSettingsObj
  3
"AcadM|Product Description: AutoCAD Mechanical 2000|Company: Autodesk"
 90
        0
280
     0
281
     0
  0
CLASS
  1
ACMESCOPE
  2
AcMeScope
  3
AcMeServices
 90
        0
280
     0
281
     0
  0
CLASS
  1
ACMECOMMANDHISTORY
  2
AcMeCommandHistory
  3
AcMeServices
 90
        0
280
     0
281
     0
  0
CLASS
  1
ACIMSYSVARMAN
  2
AcImSysVarManager
  3
AcMeServices
 90
        0
280
     0
281
     0
  0
CLASS
  1
ACIMREALSYSVAR
  2
AcImRealSysVar
  3
AcMeServices
 90
        0
280
     0
281
     0
  0
CLASS
  1
ACIMINTSYSVAR
  2
AcImIntSysVar
  3
AcMeServices
 90
        0
280
     0
281
     0
  0
CLASS
  1
ACMEDRAWINGMAN
  2
AcMeDrawingMan
  3
AcMeServices
 90
        0
280
     0
281
     0
  0
CLASS
  1
ACMEVIEW
  2
AcMeView
  3
AcMeServices
 90
        0
280
     0
281
     0
  0
CLASS
  1
ACDBENTITYCACHE
  2
AcMeEntityCache
  3
AcMeServices
 90
        0
280
     0
281
     0
  0
CLASS
  1
GSMANAGER
  2
AcMeGSManager
  3
AcMeServices
 90
        0
280
     0
281
     0
  0
CLASS
  1
AMDTINTERNALREACTOR
  2
AmdtInternalReactor
  3
AcMeServices
 90
        0
280
     0
281
     0
  0
CLASS
  1
ACMESTATEMGR
  2
AcMeStateMgr
  3
AcMeServices
 90
        0
280
     0
281
     0
  0
CLASS
  1
ACGREFMASTER
  2
AcGrefMaster
  3
AcAttribServices
 90
        0
280
     0
281
     0
  0
CLASS
  1
ACME_DATABASE
  2
AcMeDbDatabase
  3
AcMeServices
 90
        0
280
     0
281
     0
  0
CLASS
  1
ACRFINSADJUSTERMGR
  2
AcRfInsAdjusterMgr
  3
AcMeServices
 90
        0
280
     0
281
     0
  0
CLASS
  1
ACGREFACADMASTER
  2
AcGrefacadMaster
  3
AcGrefServices
 90
        0
280
     0
281
     0
  0
CLASS
  1
AMIMASTER
  2
AmiMaster
  3
AmiServices
 90
        0
280
     0
281
     0
  0
CLASS
  1
ACMDATADICTIONARY
  2
AcmDataDictionary
  3
"AcmSymBB|Product Description: AutoCAD Mechanical 2004 DX|Company: Autodesk"
 90
        0
280
     0
281
     0
  0
CLASS
  1
ACMDATAENTRYBLOCK
  2
AcmDataEntryBlock
  3
"AcmSymBB|Product Description: AutoCAD Mechanical 2004 DX|Company: Autodesk"
 90
    32768
280
     0
281
     0
  0
CLASS
  1
ACIMSTRSYSVAR
  2
AcImStrSysVar
  3
AcMeServices
 90
        0
280
     0
281
     0
  0
CLASS
  1
ACMSTANDARDISO
  2
AcmStandardISO
  3
"Amdt_StdImp|Product Description: AutoCAD Mechanical 2004 DX|Company: Autodesk"
 90
        0
280
     0
281
     0
  0
CLASS
  1
AMGOBJPROPCFG
  2
AmgObjPropCfg
  3
"AmgLay|Product Description: AutoCAD Mechanical 2000|Company: Autodesk"
 90
        1
280
     0
281
     0
  0
CLASS
  1
AMDTEDGESTANDARDISO
  2
AmdtEdgeStdISO
  3
"Amdt_StdImp|Product Description: AutoCAD Mechanical 2004 DX|Company: Autodesk"
 90
    32768
280
     0
281
     0
  0
CLASS
  1
ACMSURFSTANDARDISO
  2
AcmSurfTextStdISO
  3
"Amdt_StdImp|Product Description: AutoCAD Mechanical 2004 DX|Company: Autodesk"
 90
        0
280
     0
281
     0
  0
CLASS
  1
ACMFCFSTANDARDISO
  2
AcmFCFStdISO
  3
"Amdt_StdImp|Product Description: AutoCAD Mechanical 2004 DX|Company: Autodesk"
 90
        0
280
     0
281
     0
  0
CLASS
  1
ACMWELDSTANDARDISO
  2
AcmWeldingStdISO
  3
"Amdt_StdImp|Product Description: AutoCAD Mechanical 2004 DX|Company: Autodesk"
 90
        0
280
     0
281
     0
  0
CLASS
  1
ACMIDSTANDARDISO
  2
AcmIdStdISO
  3
"Amdt_StdImp|Product Description: AutoCAD Mechanical 2004 DX|Company: Autodesk"
 90
        0
280
     0
281
     0
  0
CLASS
  1
ACMDATUMSTANDARDISO
  2
AcmDatumStdISO
  3
"Amdt_StdImp|Product Description: AutoCAD Mechanical 2004 DX|Company: Autodesk"
 90
        0
280
     0
281
     0
  0
CLASS
  1
ACMBOMSTANDARDISO
  2
AcmBOMStdISO
  3
"Amdt_StdImp|Product Description: AutoCAD Mechanical 2004 DX|Company: Autodesk"
 90
        0
280
     0
281
     0
  0
CLASS
  1
ACMDETAILSTANDARDISO
  2
AmdtDetailSymStdISO
  3
"Amdt_StdImp|Product Description: AutoCAD Mechanical 2004 DX|Company: Autodesk"
 90
        0
280
     0
281
     0
  0
CLASS
  1
ACMSECTIONSTANDARDISO
  2
AmdtSectionSymStdISO
  3
"Amdt_StdImp|Product Description: AutoCAD Mechanical 2004 DX|Company: Autodesk"
 90
        0
280
     0
281
     0
  0
CLASS
  1
ACMCENTERLINESTANDARDISO
  2
AmdtCenterLineStdISO
  3
"Amdt_StdImp|Product Description: AutoCAD Mechanical 2004 DX|Company: Autodesk"
 90
        0
280
     0
281
     0
  0
CLASS
  1
ACMNOTESTANDARDISO
  2
AmdtNoteStdISO
  3
"Amdt_StdImp|Product Description: AutoCAD Mechanical 2004 DX|Company: Autodesk"
 90
        0
280
     0
281
     0
  0
CLASS
  1
ACAMGLAYSTD
  2
AcAmgLayStd
  3
"AcAmgLayStd|Product Description: AutoCAD Mechanical 2000|Company: Autodesk"
 90
        0
280
     0
281
     0
  0
CLASS
  1
ACAMGDIMSTD
  2
AcAmgDimStd
  3
"AcAmgDimStd|Product Description: AutoCAD Mechanical 2000|Company: Autodesk"
 90
        0
280
     0
281
     0
  0
CLASS
  1
ACAMGHOLECHARTSTDISO
  2
AcAmgHoleChartStdISO
  3
ACMSYMBB_MODULE_NAME
 90
        0
280
     0
281
     0
  0
CLASS
  1
ACAMGTITLESTD
  2
AcAmgTitleStd
  3
"TITLEAPP"
 90
        0
280
     0
281
     0
  0
CLASS
  1
LAYER_INDEX
  2
AcDbLayerIndex
  3
ObjectDBX Classes
 90
    32768
280
     0
281
     0
  0
CLASS
  1
IDBUFFER
  2
AcDbIdBuffer
  3
ObjectDBX Classes
 90
    32768
280
     0
281
     0
  0
CLASS
  1
DICTIONARYVAR
  2
AcDbDictionaryVar
  3
ObjectDBX Classes
 90
        0
280
     0
281
     0
  0
CLASS
  1
AM_DRAWING_MGR
  2
AcDmDwgMgr
  3
AcMechDwgViewMgmt
 90
        0
280
     0
281
     0
  0
CLASS
  1
AM_DWG_DOCUMENT
  2
AcDmDwgDocument
  3
AcMechDwgViewMgmt
 90
        0
280
     0
281
     0
  0
CLASS
  1
AM_DWG_SHEET
  2
AcDmSheet
  3
AcMechDwgViewMgmt
 90
        0
280
     0
281
     0
  0
CLASS
  1
AM_VIEWDIMPARMAP
  2
AcDmViewDimParMap
  3
AcMechDwgViewMgmt
 90
        0
280
     0
281
     0
  0
CLASS
  1
AM_DWGMGR_NAME
  2
AcDmDwgMgrName
  3
AcMechDwgViewMgmt
 90
        0
280
     0
281
     0
  0
CLASS
  1
AMDTMENUSTATEMGR
  2
AmdtMenuStateMgr
  3
McadcomServices
 90
        0
280
     0
281
     0
  0
CLASS
  1
AMDTMCOMMENUSTATE
  2
AmdtMcomMenuState
  3
McadcomServices
 90
        0
280
     0
281
     0
  0
CLASS
  1
MAPIAMMOUDLE
  2
MApiAmModule
  3
MApiAmServices
 90
        0
280
     0
281
     0
  0
CLASS
  1
AMDTADMENUSTATE
  2
AmdtAdMenuState
  3
DesignerServices
 90
        0
280
     0
281
     0
  0
CLASS
  1
ADAPPL
  2
AcAdAppl
  3
DesignerServices
 90
        0
280
     0
281
     0
  0
CLASS
  1
DEPMGR
  2
AcAdDepMgr
  3
DesignerServices
 90
        0
280
     0
281
     0
  0
CLASS
  1
PARAMMGR
  2
AcAdParamMgr
  3
DesignerServices
 90
        0
280
     0
281
     0
  0
CLASS
  1
PARAMSCOPE
  2
AcAdParamScope
  3
DesignerServices
 90
        0
280
     0
281
     0
  0
CLASS
  1
NAMEDAPPL
  2
AcAdNamedAppl
  3
DesignerServices
 90
        0
280
     0
281
     0
  0
CLASS
  1
AMDTDMMENUSTATE
  2
AmdtDmMenuState
  3
AcMechDwgViewMgmt
 90
        0
280
     0
281
     0
  0
CLASS
  1
AMDTAMMENUSTATE
  2
AmdtAmMenuState
  3
DesignerAssemblies
 90
        0
280
     0
281
     0
  0
CLASS
  1
ACAMPROJECT
  2
AcAmProject
  3
DesignerAssemblies
 90
        0
280
     0
281
     0
  0
CLASS
  1
ACAMGRCOMPDEF
  2
AcAmGrCompDef
  3
DesignerAssemblies
 90
        0
280
     0
281
     0
  0
CLASS
  1
ACCMCONTEXT
  2
AcCmContext
  3
DesignerAssemblies
 90
        0
280
     0
281
     0
  0
CLASS
  1
ACAMCOMPDEF
  2
AcAmCompDef
  3
DesignerAssemblies
 90
        0
280
     0
281
     0
  0
CLASS
  1
ACAMCOMPDEFMGR
  2
AcAmCompDefMgr
  3
DesignerAssemblies
 90
        0
280
     0
281
     0
  0
CLASS
  1
AMCONTEXTMGR
  2
AcAmContextMgr
  3
DesignerAssemblies
 90
        0
280
     0
281
     0
  0
CLASS
  1
ACAMCONTEXTMODELER
  2
AcAmContextModeler
  3
DesignerAssemblies
 90
        0
280
     0
281
     0
  0
CLASS
  1
ACMTHREADLINESTANDARDISO
  2
AmdtThreadLineStdISO
  3
"Amdt_StdImp|Product Description: AutoCAD Mechanical 2004 DX|Company: Autodesk"
 90
        0
280
     0
281
     0
  0
CLASS
  1
CATALOGSTATE
  2
AcAmCatalogState
  3
DesignerAssemblies
 90
        0
280
     0
281
     0
  0
CLASS
  1
ACAMGRCOMPDEFSET
  2
AcAmGrCompDefSet
  3
DesignerAssemblies
 90
        0
280
     0
281
     0
  0
CLASS
  1
AMDTBROWSERDBTAB
  2
AmdtBrowserDbTab
  3
McadcomServices
 90
        0
280
     0
281
     0
  0
CLASS
  1
CBROWSERAPPOBJECT
  2
CBrowserAppObject
  3
McadcomServices
 90
        0
280
     0
281
     0
  0
CLASS
  1
DM_PLACEHOLDER
  2
AcDmSelsetPlaceholder
  3
AcMechDwgViewMgmt
 90
        0
280
     0
281
     0
  0
CLASS
  1
TABLESTYLE
  2
AcDbTableStyle
  3
ObjectDBX Classes
 90
     2047
280
     0
281
     0
  0
CLASS
  1
VAACXREFPANELOBJECT
  2
VaAcXREFPanelObject
  3
VAAC_ADDIN
 90
    32768
280
     0
281
     0
  0
CLASS
  1
VAACIMAGEINVENTORY
  2
VaAcImageInventory
  3
VAAC_ADDIN
 90
    32768
280
     0
281
     0
  0
CLASS
  1
AMDTNOTETEMPLATEDB
  2
AmdtNoteTemplateDB
  3
AMDT_STDIMP_MODULE_NAME
 90
        0
280
     0
281
     0
  0
CLASS
  1
ACMBOM
  2
AcmBom
  3
"AcmSymBB|Product Description: AutoCAD Mechanical 2004 DX|Company: Autodesk"
 90
    32768
280
     0
281
     0
  0
CLASS
  1
AMDTFORMULAUPDATEDISPATCHER
  2
AmdtFormulaUpdateDispatcher
  3
AcMeServices
 90
    32768
280
     0
281
     0
  0
CLASS
  1
ACMPARTLIST
  2
AcmPartList
  3
"AcmSymBB|Product Description: AutoCAD Mechanical 2004 DX|Company: Autodesk"
 90
    33791
280
     0
281
     1
  0
CLASS
  1
ACAMGFILTERDAT
  2
AcAmgFilterDat
  3
"AcadM|Product Description: AutoCAD Mechanical 2000|Company: Autodesk"
 90
    32768
280
     0
281
     0
  0
CLASS
  1
DIMASSOC
  2
AcDbDimAssoc
  3
"AcDbDimAssoc|Product Desc:     AcDim ARX App For Dimension|Company:          Autodesk, Inc.|WEB Address:      www.autodesk.com"
 90
        0
280
     0
281
     0
  0
CLASS
  1
STDPART2D
  2
AmgStdPart
  3
"AmgStdPart|Product Description: AutoCAD Mechanical 2000|Company: Autodesk"
 90
    33791
280
     0
281
     1
  0
CLASS
  1
ACAMSTDPCOMPDEF
  2
AcAmStdpCompDef
  3
DesignerAssemblies
 90
    32768
280
     0
281
     0
  0
CLASS
  1
ACRFATTGENMGR
  2
AcRfAttGeneralMgr
  3
AcAttribServices
 90
        0
280
     0
281
     0
  0
CLASS
  1
ACRFOBJATTMGR
  2
AcRfObjAttGroupMgr
  3
AcAttribServices
 90
    32768
280
     0
281
     0
  0
CLASS
  1
ACRFMCADAPIATTHOLDER
  2
AcRfMCADAPIAttHolder
  3
AcAttribServices
 90
    32768
280
     0
281
     0
  0
CLASS
  1
AMDTSYSATTR
  2
AmdtSystemAttribute
  3
AcAttribServices
 90
    32768
280
     0
281
     0
  0
CLASS
  1
ACAMCOMP
  2
AcAmComp
  3
DesignerAssemblies
 90
    32768
280
     0
281
     0
  0
CLASS
  1
AC_AM_STDP_VIEW_DEF
  2
AcAmStdpViewDef
  3
DesignerAssemblies
 90
    32768
280
     0
281
     0
  0
CLASS
  1
AC_AM_MVD_DEP_MGR
  2
AcAmMVDdepMgr
  3
DesignerAssemblies
 90
    32768
280
     0
281
     0
  0
CLASS
  1
AC_AM_MASTER_VIEW_DEF
  2
AcAmMasterViewDef
  3
DesignerAssemblies
 90
    32768
280
     0
281
     0
  0
CLASS
  1
AC_AM_DIRTY_NODES
  2
AcAmDirtyNodes
  3
DesignerAssemblies
 90
    32768
280
     0
281
     0
  0
CLASS
  1
AC_AM_MAPPER_CACHE
  2
AcAmMapperCache
  3
DesignerAssemblies
 90
    32768
280
     0
281
     0
  0
CLASS
  1
ACAMMVDBACKUPOBJECT
  2
AcAmMVDBackupObject
  3
DesignerAssemblies
 90
    32768
280
     0
281
     0
  0
CLASS
  1
AC_AM_COMP_VIEW_INST
  2
AcAmCompView
  3
DesignerAssemblies
 90
    32768
280
     0
281
     0
  0
CLASS
  1
AC_AM_2D_XREF_MGR
  2
AcAmXrefMgr2d
  3
DesignerAssemblies
 90
    32768
280
     0
281
     0
  0
CLASS
  1
SORTENTSTABLE
  2
AcDbSortentsTable
  3
ObjectDBX Classes
 90
        0
280
     0
281
     0
  0
CLASS
  1
AMDTNOTE
  2
AmdtNote
  3
"AcmSymBB|Product Description: AutoCAD Mechanical 2004 DX|Company: Autodesk"
 90
    33791
280
     0
281
     1
  0
CLASS
  1
AMDTEDGESTANDARDISO13715
  2
AmdtEdgeStdISO13715
  3
"Amdt_StdImp|Product Description: AutoCAD Mechanical 2004 DX|Company: Autodesk"
 90
        0
280
     0
281
     0
  0
ENDSEC
  0
SECTION
  2
TABLES
  0
TABLE
  2
VPORT
  5
8
330
0
100
AcDbSymbolTable
 70
     5
  0
VPORT
  5
3248
330
8
100
AcDbSymbolTableRecord
100
AcDbViewportTableRecord
  2
*Active
 70
     0
 10
0.0
 20
0.0
 11
1.0
 21
1.0
 12
364.8196756336677
 22
229.7826252864193
 13
0.0
 23
0.0
 14
2.5
 24
2.5
 15
10.0
 25
10.0
 16
0.0
 26
0.0
 36
1.0
 17
0.0
 27
0.0
 37
0.0
 40
363.0069572709908
 41
1.399725274725274
 42
50.0
 43
0.0
 44
0.0
 50
0.0
 51
0.0
 71
     0
 72
   100
 73
     1
 74
     3
 75
     0
 76
     0
 77
     0
 78
     0
281
     0
 65
     1
110
0.0
120
0.0
130
0.0
111
1.0
121
0.0
131
0.0
112
0.0
122
1.0
132
0.0
 79
     0
146
0.0
  0
ENDTAB
  0
TABLE
  2
LTYPE
  5
5
330
0
100
AcDbSymbolTable
 70
    14
  0
LTYPE
  5
14
330
5
100
AcDbSymbolTableRecord
100
AcDbLinetypeTableRecord
  2
ByBlock
 70
     0
  3

 72
    65
 73
     0
 40
0.0
  0
LTYPE
  5
15
330
5
100
AcDbSymbolTableRecord
100
AcDbLinetypeTableRecord
  2
ByLayer
 70
     0
  3

 72
    65
 73
     0
 40
0.0
  0
LTYPE
  5
16
330
5
100
AcDbSymbolTableRecord
100
AcDbLinetypeTableRecord
  2
Continuous
 70
     0
  3
Solid line
 72
    65
 73
     0
 40
0.0
  0
LTYPE
  5
64
330
5
100
AcDbSymbolTableRecord
100
AcDbLinetypeTableRecord
  2
AM_ISO02W050
 70
     0
  3
__ __ __ __ __ __ __ __ __ __ __ __ __ __ __
 72
    65
 73
     2
 40
7.5
 49
6.0
 74
     0
 49
-1.5
 74
     0
  0
LTYPE
  5
65
330
5
100
AcDbSymbolTableRecord
100
AcDbLinetypeTableRecord
  2
AM_ISO08W050
 70
     0
  3
____ . ____ . ____ . ____ . ____ . ____ . ____
 72
    65
 73
     4
 40
18.0
 49
12.0
 74
     0
 49
-1.5
 74
     0
 49
3.0
 74
     0
 49
-1.5
 74
     0
  0
LTYPE
  5
66
330
5
100
AcDbSymbolTableRecord
100
AcDbLinetypeTableRecord
  2
AM_ISO09W050
 70
     0
  3
_____ . . _____ . . _____ . . ____ .. ____
 72
    65
 73
     6
 40
22.5
 49
12.0
 74
     0
 49
-1.5
 74
     0
 49
3.0
 74
     0
 49
-1.5
 74
     0
 49
3.0
 74
     0
 49
-1.5
 74
     0
  0
LTYPE
  5
67
330
5
100
AcDbSymbolTableRecord
100
AcDbLinetypeTableRecord
  2
Amconstr
 70
     0
  3
_______________________
 72
    65
 73
     2
 40
9999.0
 49
9999.0
 74
     0
 49
0.0
 74
     0
  0
LTYPE
  5
68
330
5
100
AcDbSymbolTableRecord
100
AcDbLinetypeTableRecord
  2
AM_ISO08W050x2
 70
     0
  3
__ . __ . __ . __ . __ . __
 72
    65
 73
     4
 40
9.0
 49
6.0
 74
     0
 49
-0.75
 74
     0
 49
1.5
 74
     0
 49
-0.75
 74
     0
  0
LTYPE
  5
69
330
5
100
AcDbSymbolTableRecord
100
AcDbLinetypeTableRecord
  2
AM_ISO02W050x2
 70
     0
  3
 _ _ _ _ _ _ _ _ _ _ _ _
 72
    65
 73
     2
 40
3.75
 49
3.0
 74
     0
 49
-0.75
 74
     0
  0
LTYPE
  5
6C
330
5
100
AcDbSymbolTableRecord
100
AcDbLinetypeTableRecord
  2
Amzigzag
 70
     0
  3
/\/-/\/-/\/-/\/-/\/-/\/
 72
    65
 73
     2
 40
11.0001
 49
0.0001
 74
     4
 75
   135
340
6B
 46
0.04
 50
0.0
 44
0.0
 45
0.0
 49
-11.0
 74
     0
  0
LTYPE
  5
7A
330
5
100
AcDbSymbolTableRecord
100
AcDbLinetypeTableRecord
  2
ACISOWELD
 70
     0
  3
_ _ _ _ _
 72
    65
 73
     2
 40
2.0
 49
2.0
 74
     0
 49
-1.0
 74
     0
  0
LTYPE
  5
7B
330
5
100
AcDbSymbolTableRecord
100
AcDbLinetypeTableRecord
  2
ACISOTGB
 70
     0
  3
__ . . __ . .
 72
    65
 73
     6
 40
9.0
 49
4.0
 74
     0
 49
-1.0
 74
     0
 49
1.0
 74
     0
 49
-1.0
 74
     0
 49
1.0
 74
     0
 49
-1.0
 74
     0
  0
LTYPE
  5
7C
330
5
100
AcDbSymbolTableRecord
100
AcDbLinetypeTableRecord
  2
ACISOTGL
 70
     0
  3
_ _ _ _ _
 72
    65
 73
     2
 40
3.0
 49
2.0
 74
     0
 49
-1.0
 74
     0
  0
LTYPE
  5
7E
330
5
100
AcDbSymbolTableRecord
100
AcDbLinetypeTableRecord
  2
CENTER
 70
     0
  3
__ . __
 72
    65
 73
     4
 40
7.0
 49
4.0
 74
     0
 49
-1.0
 74
     0
 49
1.0
 74
     0
 49
-1.0
 74
     0
  0
LTYPE
  5
D8
330
5
100
AcDbSymbolTableRecord
100
AcDbLinetypeTableRecord
  2
HIDDEN
 70
     0
  3
Hidden __ __ __ __ __ __ __ __ __ __ __ __ __ _
 72
    65
 73
     2
 40
9.524999999999998
 49
6.349999999999999
 74
     0
 49
-3.174999999999999
 74
     0
  0
LTYPE
  5
D9
330
5
100
AcDbSymbolTableRecord
100
AcDbLinetypeTableRecord
  2
PHANTOM2
 70
     0
  3
Phantom (.5x) ___ _ _ ___ _ _ ___ _ _ ___ _ _
 72
    65
 73
     6
 40
31.75
 49
15.875
 74
     0
 49
-3.174999999999999
 74
     0
 49
3.174999999999999
 74
     0
 49
-3.174999999999999
 74
     0
 49
3.174999999999999
 74
     0
 49
-3.174999999999999
 74
     0
  0
ENDTAB
  0
TABLE
  2
LAYER
  5
2
102
{ACAD_XDICTIONARY
360
3F9
102
}
330
0
100
AcDbSymbolTable
 70
     9
  0
LAYER
  5
10
330
2
100
AcDbSymbolTableRecord
100
AcDbLayerTableRecord
  2
0
 70
     0
 62
     7
  6
Continuous
370
    -3
390
F
  0
LAYER
  5
A7F
330
2
100
AcDbSymbolTableRecord
100
AcDbLayerTableRecord
  2
AM_VIS
 70
     0
 62
     7
  6
Continuous
370
    50
390
F
  0
LAYER
  5
A80
330
2
100
AcDbSymbolTableRecord
100
AcDbLayerTableRecord
  2
AM_4
 70
     0
 62
     3
  6
Continuous
370
    25
390
F
  0
LAYER
  5
1562
330
2
100
AcDbSymbolTableRecord
100
AcDbLayerTableRecord
  2
AM_0N
 70
     0
 62
     7
  6
Continuous
370
    50
390
F
  0
LAYER
  5
15F0
330
2
100
AcDbSymbolTableRecord
100
AcDbLayerTableRecord
  2
LOGO
 70
     0
 62
     7
  6
Continuous
370
    -3
390
F
  0
LAYER
  5
175F
330
2
100
AcDbSymbolTableRecord
100
AcDbLayerTableRecord
  2
AM_7
 70
     0
 62
     1
  6
CENTER
370
    25
390
F
  0
LAYER
  5
177E
330
2
100
AcDbSymbolTableRecord
100
AcDbLayerTableRecord
  2
AM_0
 70
     0
 62
     7
  6
Continuous
370
    50
390
F
  0
LAYER
  5
189C
330
2
100
AcDbSymbolTableRecord
100
AcDbLayerTableRecord
  2
AM_5
 70
     0
 62
     5
  6
Continuous
370
    50
390
F
  0
LAYER
  5
1985
330
2
100
AcDbSymbolTableRecord
100
AcDbLayerTableRecord
  2
Defpoints
 70
     0
 62
    -7
  6
Continuous
290
     0
370
    -3
390
F
  0
ENDTAB
  0
TABLE
  2
STYLE
  5
3
330
0
100
AcDbSymbolTable
 70
     7
  0
STYLE
  5
11
330
3
100
AcDbSymbolTableRecord
100
AcDbTextStyleTableRecord
  2
STANDARD
 70
     0
 40
0.0
 41
1.0
 50
0.0
 71
     0
 42
3.0
  3
ISOCP.SHX
  4
CHINESET.SHX
  0
STYLE
  5
6B
330
3
100
AcDbSymbolTableRecord
100
AcDbTextStyleTableRecord
  2

 70
     1
 40
0.0
 41
1.0
 50
0.0
 71
     0
 42
2.5
  3
ltypeshp.shx
  4

  0
STYLE
  5
6D
330
3
100
AcDbSymbolTableRecord
100
AcDbTextStyleTableRecord
  2
ACISOTS
 70
     0
 40
1.0
 41
1.0
 50
0.0
 71
     0
 42
1.0
  3
isocp.shx
  4
chineset.shx
  0
STYLE
  5
79
330
3
100
AcDbSymbolTableRecord
100
AcDbTextStyleTableRecord
  2
ACISOGDT
 70
     0
 40
0.0
 41
1.0
 50
0.0
 71
     0
 42
2.5
  3
amgdt.shx
  4
chineset.shx
  0
STYLE
  5
15F1
330
3
100
AcDbSymbolTableRecord
100
AcDbTextStyleTableRecord
  2
CHINESET
 70
     0
 40
0.0
 41
1.0
 50
0.0
 71
     0
 42
3.0
  3
simplex.shx
  4
CHINESET.SHX
  0
ENDTAB
  0
TABLE
  2
VIEW
  5
6
330
0
100
AcDbSymbolTable
 70
     0
  0
ENDTAB
  0
TABLE
  2
UCS
  5
7
330
0
100
AcDbSymbolTable
 70
     0
  0
ENDTAB
  0
TABLE
  2
APPID
  5
9
330
0
100
AcDbSymbolTable
 70
    27
  0
APPID
  5
12
330
9
100
AcDbSymbolTableRecord
100
AcDbRegAppTableRecord
  2
ACAD
 70
     0
  0
APPID
  5
46
330
9
100
AcDbSymbolTableRecord
100
AcDbRegAppTableRecord
  2
MCAD_NO_VIS
 70
     0
  0
APPID
  5
47
330
9
100
AcDbSymbolTableRecord
100
AcDbRegAppTableRecord
  2
ACAD_TEMP_GRAPHIC
 70
     0
  0
APPID
  5
58
330
9
100
AcDbSymbolTableRecord
100
AcDbRegAppTableRecord
  2
ACATTRIBSERVICES
 70
     0
  0
APPID
  5
EE
330
9
100
AcDbSymbolTableRecord
100
AcDbRegAppTableRecord
  2
AD_DRAW
 70
     0
  0
APPID
  5
10C
330
9
100
AcDbSymbolTableRecord
100
AcDbRegAppTableRecord
  2
DESIGNERASSEMBLIES
 70
     0
  0
APPID
  5
111
330
9
100
AcDbSymbolTableRecord
100
AcDbRegAppTableRecord
  2
ACADM_DIM_EDIT
 70
     0
  0
APPID
  5
112
330
9
100
AcDbSymbolTableRecord
100
AcDbRegAppTableRecord
  2
AMDT_DM_ADJ
 70
     0
  0
APPID
  5
22C
330
9
100
AcDbSymbolTableRecord
100
AcDbRegAppTableRecord
  2
ACAD_DSTYLE_DIMTEXT_FILL
 70
     0
  0
APPID
  5
452
330
9
100
AcDbSymbolTableRecord
100
AcDbRegAppTableRecord
  2
GENIUS_GENOENT_13
 70
     0
  0
APPID
  5
453
330
9
100
AcDbSymbolTableRecord
100
AcDbRegAppTableRecord
  2
GENIUS_GENOBJ-N-CRS_13
 70
     0
  0
APPID
  5
454
330
9
100
AcDbSymbolTableRecord
100
AcDbRegAppTableRecord
  2
GENIUS_GENOLIS_13
 70
     0
  0
APPID
  5
455
330
9
100
AcDbSymbolTableRecord
100
AcDbRegAppTableRecord
  2
GENIUS_GENODEF_13
 70
     0
  0
APPID
  5
456
330
9
100
AcDbSymbolTableRecord
100
AcDbRegAppTableRecord
  2
GENIUS_GENOREF_13
 70
     0
  0
APPID
  5
6F3
330
9
100
AcDbSymbolTableRecord
100
AcDbRegAppTableRecord
  2
ACAD_PSEXT
 70
     0
  0
APPID
  5
808
330
9
100
AcDbSymbolTableRecord
100
AcDbRegAppTableRecord
  2
GENIUS_GENDTOL_13
 70
     0
  0
APPID
  5
155F
330
9
100
AcDbSymbolTableRecord
100
AcDbRegAppTableRecord
  2
GEVID1164248708
 70
     0
  0
APPID
  5
1560
330
9
100
AcDbSymbolTableRecord
100
AcDbRegAppTableRecord
  2
GEVDC
 70
     0
  0
APPID
  5
1578
330
9
100
AcDbSymbolTableRecord
100
AcDbRegAppTableRecord
  2
AMG_2DHIDE
 70
     0
  0
APPID
  5
1579
330
9
100
AcDbSymbolTableRecord
100
AcDbRegAppTableRecord
  2
AMG_2DSTRUCT_BTR
 70
     0
  0
APPID
  5
158A
330
9
100
AcDbSymbolTableRecord
100
AcDbRegAppTableRecord
  2
ACADM_2DVIEW_IGN_NOTIFY
 70
     0
  0
APPID
  5
15F2
330
9
100
AcDbSymbolTableRecord
100
AcDbRegAppTableRecord
  2
GENIUS_GENREC_14
 70
     0
  0
APPID
  5
15F3
330
9
100
AcDbSymbolTableRecord
100
AcDbRegAppTableRecord
  2
GENIUS_GENOBJ-N-REC_13
 70
     0
  0
APPID
  5
1785
330
9
100
AcDbSymbolTableRecord
100
AcDbRegAppTableRecord
  2
GEVID1164248709
 70
     0
  0
APPID
  5
17F2
330
9
100
AcDbSymbolTableRecord
100
AcDbRegAppTableRecord
  2
GENIUS_GENOBJ-N-CEN_13
 70
     0
  0
APPID
  5
17F3
330
9
100
AcDbSymbolTableRecord
100
AcDbRegAppTableRecord
  2
GENIUS_GENCEN_19
 70
     0
  0
APPID
  5
198B
330
9
100
AcDbSymbolTableRecord
100
AcDbRegAppTableRecord
  2
AcAecLayerStandard
 70
     0
  0
ENDTAB
  0
TABLE
  2
DIMSTYLE
  5
A
330
0
100
AcDbSymbolTable
 70
    10
100
AcDbDimStyleTable
 71
     3
340
81
340
8B
340
86
  0
DIMSTYLE
105
81
330
A
100
AcDbSymbolTableRecord
100
AcDbDimStyleTableRecord
  2
AM_ISO
 70
     0
  4
"
 41
3.0
 42
1.0
 43
10.0
 44
1.5
 47
0.1
 48
0.1
 73
     0
 74
     0
 77
     1
 78
     8
 79
     2
140
3.5
141
0.0
143
0.0393701
146
0.6
147
0.7
172
     1
176
   256
177
   256
178
   256
271
     2
272
     2
283
     0
284
     8
340
11
371
    -1
372
    -1
  0
DIMSTYLE
105
82
102
{ACAD_REACTORS
330
2254
330
2284
102
}
330
A
100
AcDbSymbolTableRecord
100
AcDbDimStyleTableRecord
  2
AM_ISO$3
 70
     0
  4
"
 41
3.0
 42
1.0
 43
10.0
 44
1.5
 47
0.1
 48
0.1
 73
     0
 77
     1
 78
     8
 79
     2
140
3.5
141
0.0
143
0.0393701
146
0.6
147
0.7
176
   256
177
   256
178
   256
271
     2
272
     2
283
     0
284
     8
288
     1
289
     0
340
11
371
    -1
372
    -1
  0
DIMSTYLE
105
83
330
A
100
AcDbSymbolTableRecord
100
AcDbDimStyleTableRecord
  2
AM_ISO$4
 70
     0
  4
"
 41
3.0
 42
1.0
 43
10.0
 44
1.5
 47
0.1
 48
0.1
 73
     0
 77
     1
 78
     8
 79
     2
140
3.5
141
0.0
143
0.0393701
146
0.6
147
0.7
176
   256
177
   256
178
   256
271
     2
272
     2
283
     0
284
     8
288
     1
289
     0
340
11
371
    -1
372
    -1
  0
DIMSTYLE
105
84
330
A
100
AcDbSymbolTableRecord
100
AcDbDimStyleTableRecord
  2
AM_ISO$6
 70
     0
  4
"
 41
3.0
 42
1.0
 43
10.0
 44
1.5
 47
0.1
 48
0.1
 73
     0
 74
     0
 78
     8
 79
     2
140
3.5
141
0.0
143
0.0393701
146
0.6
147
0.7
172
     1
176
   256
177
   256
178
   256
271
     2
272
     2
283
     0
284
     8
340
11
371
    -1
372
    -1
  0
DIMSTYLE
105
85
330
A
100
AcDbSymbolTableRecord
100
AcDbDimStyleTableRecord
  2
AM_ISO$7
 70
     0
  4
"
 41
3.0
 42
1.0
 43
10.0
 44
1.5
 47
0.1
 48
0.1
 73
     0
 74
     0
 77
     1
 78
     8
 79
     2
140
5.0
141
0.0
143
0.0393701
146
0.6
147
0.7
172
     1
176
   256
177
   256
178
   256
271
     2
272
     2
283
     0
284
     8
340
11
371
    -1
372
    -1
  0
DIMSTYLE
105
86
330
A
100
AcDbSymbolTableRecord
100
AcDbDimStyleTableRecord
  2
AM_ISO$SF
 70
     0
  4
"
 41
2.5
 42
1.0
 43
10.0
 44
1.0
 47
0.1
 48
0.1
 73
     0
 74
     0
 75
     1
 76
     1
 77
     1
 78
     8
 79
     2
140
3.5
141
0.0
143
0.0393701
146
0.71
147
1.5
172
     1
176
   256
177
   256
178
     2
271
     2
272
     3
274
     4
283
     0
284
     8
340
11
371
    -1
372
    -1
  0
DIMSTYLE
105
8B
330
A
100
AcDbSymbolTableRecord
100
AcDbDimStyleTableRecord
  2
AM_ISO$SH
 70
     0
  4
"
 41
2.5
 42
1.0
 43
10.0
 44
1.0
 47
0.1
 48
0.1
 73
     0
 74
     0
 75
     1
 76
     1
 77
     1
 78
     8
 79
     2
140
3.5
141
0.0
143
0.0393701
144
2.0
146
0.71
147
1.5
172
     1
173
     1
176
   256
177
   256
178
     2
271
     2
272
     3
274
     4
283
     0
284
     8
340
11
343
87
371
    -1
372
    -1
  0
DIMSTYLE
105
40B
102
{ACAD_REACTORS
330
202F
330
2055
330
207B
330
20A1
330
20C7
330
216D
330
22C0
330
22E6
330
2339
330
30D3
330
30FD
330
3127
330
315A
330
3187
102
}
330
A
100
AcDbSymbolTableRecord
100
AcDbDimStyleTableRecord
  2
AM_ISO$0
 70
     0
  4
"
 41
3.0
 42
1.0
 43
10.0
 44
1.5
 47
0.1
 48
0.1
 73
     0
 74
     0
 77
     1
 78
     8
 79
     2
140
3.5
141
0.0
143
0.0393701
146
0.6
147
0.7
172
     1
176
   256
177
   256
178
   256
271
     2
272
     2
283
     0
284
     8
340
11
371
    -1
372
    -1
  0
ENDTAB
  0
TABLE
  2
BLOCK_RECORD
  5
1
330
0
100
AcDbSymbolTable
 70
    23
  0
BLOCK_RECORD
  5
1F
102
{ACAD_XDICTIONARY
360
8F
102
}
330
1
100
AcDbSymbolTableRecord
100
AcDbBlockTableRecord
  2
*Model_Space
340
22
  0
BLOCK_RECORD
  5
1B
330
1
100
AcDbSymbolTableRecord
100
AcDbBlockTableRecord
  2
*Paper_Space
340
1E
  0
BLOCK_RECORD
  5
23
330
1
100
AcDbSymbolTableRecord
100
AcDbBlockTableRecord
  2
*Paper_Space0
340
26
  0
BLOCK_RECORD
  5
87
330
1
100
AcDbSymbolTableRecord
100
AcDbBlockTableRecord
  2
GENAXEH
340
0
  0
BLOCK_RECORD
  5
2030
330
1
100
AcDbSymbolTableRecord
100
AcDbBlockTableRecord
  2
*D2
340
0
  0
BLOCK_RECORD
  5
2056
330
1
100
AcDbSymbolTableRecord
100
AcDbBlockTableRecord
  2
*D3
340
0
  0
BLOCK_RECORD
  5
207C
330
1
100
AcDbSymbolTableRecord
100
AcDbBlockTableRecord
  2
*D4
340
0
  0
BLOCK_RECORD
  5
20A2
330
1
100
AcDbSymbolTableRecord
100
AcDbBlockTableRecord
  2
*D5
340
0
  0
BLOCK_RECORD
  5
20C8
330
1
100
AcDbSymbolTableRecord
100
AcDbBlockTableRecord
  2
*D6
340
0
  0
BLOCK_RECORD
  5
216E
330
1
100
AcDbSymbolTableRecord
100
AcDbBlockTableRecord
  2
*D7
340
0
  0
BLOCK_RECORD
  5
2255
330
1
100
AcDbSymbolTableRecord
100
AcDbBlockTableRecord
  2
*D9
340
0
  0
BLOCK_RECORD
  5
2285
330
1
100
AcDbSymbolTableRecord
100
AcDbBlockTableRecord
  2
*D10
340
0
  0
BLOCK_RECORD
  5
22C1
330
1
100
AcDbSymbolTableRecord
100
AcDbBlockTableRecord
  2
*D11
340
0
  0
BLOCK_RECORD
  5
22E7
330
1
100
AcDbSymbolTableRecord
100
AcDbBlockTableRecord
  2
*D12
340
0
  0
BLOCK_RECORD
  5
233A
330
1
100
AcDbSymbolTableRecord
100
AcDbBlockTableRecord
  2
*D13
340
0
  0
BLOCK_RECORD
  5
2596
330
1
100
AcDbSymbolTableRecord
100
AcDbBlockTableRecord
  2
*S14
340
0
102
{BLKREFS
331
2369
102
}
  0
BLOCK_RECORD
  5
30D4
330
1
100
AcDbSymbolTableRecord
100
AcDbBlockTableRecord
  2
*D16
340
0
  0
BLOCK_RECORD
  5
30FE
330
1
100
AcDbSymbolTableRecord
100
AcDbBlockTableRecord
  2
*D17
340
0
  0
BLOCK_RECORD
  5
3128
330
1
100
AcDbSymbolTableRecord
100
AcDbBlockTableRecord
  2
*D18
340
0
  0
BLOCK_RECORD
  5
315B
330
1
100
AcDbSymbolTableRecord
100
AcDbBlockTableRecord
  2
*D19
340
0
  0
BLOCK_RECORD
  5
3188
330
1
100
AcDbSymbolTableRecord
100
AcDbBlockTableRecord
  2
*D20
340
0
  0
ENDTAB
  0
ENDSEC
  0
SECTION
  2
BLOCKS
  0
BLOCK
  5
20
330
1F
100
AcDbEntity
  8
0
100
AcDbBlockBegin
  2
*Model_Space
 70
     0
 10
0.0
 20
0.0
 30
0.0
  3
*Model_Space
  1

  0
ENDBLK
  5
21
330
1F
100
AcDbEntity
  8
0
100
AcDbBlockEnd
  0
BLOCK
  5
1C
330
1B
100
AcDbEntity
 67
     1
  8
0
100
AcDbBlockBegin
  2
*Paper_Space
 70
     0
 10
0.0
 20
0.0
 30
0.0
  3
*Paper_Space
  1

  0
ENDBLK
  5
1D
330
1B
100
AcDbEntity
 67
     1
  8
0
100
AcDbBlockEnd
  0
BLOCK
  5
24
330
23
100
AcDbEntity
  8
0
100
AcDbBlockBegin
  2
*Paper_Space0
 70
     0
 10
0.0
 20
0.0
 30
0.0
  3
*Paper_Space0
  1

  0
ENDBLK
  5
25
330
23
100
AcDbEntity
  8
0
100
AcDbBlockEnd
  0
BLOCK
  5
89
330
87
100
AcDbEntity
  8
0
100
AcDbBlockBegin
  2
GENAXEH
 70
     0
 10
0.0
 20
0.0
 30
0.0
  3
GENAXEH
  1

  0
LINE
  5
88
330
87
100
AcDbEntity
  8
0
100
AcDbLine
 10
-1.0
 20
0.0
 30
0.0
 11
1.0
 21
0.0
 31
0.0
  0
ENDBLK
  5
8A
330
87
100
AcDbEntity
  8
0
100
AcDbBlockEnd
  0
BLOCK
  5
203A
330
2030
100
AcDbEntity
  8
0
100
AcDbBlockBegin
  2
*D2
 70
     1
 10
0.0
 20
0.0
 30
0.0
  3
*D2
  1

  0
LINE
  5
31E1
330
2030
100
AcDbEntity
  8
AM_5
100
AcDbLine
 10
277.837359387858
 20
316.4808602143095
 30
0.0
 11
277.837359387858
 21
299.3118602143095
 31
0.0
  0
LINE
  5
31E2
330
2030
100
AcDbEntity
  8
AM_5
100
AcDbLine
 10
307.837359387858
 20
316.4808602143095
 30
0.0
 11
307.837359387858
 21
299.3118602143095
 31
0.0
  0
LINE
  5
31E3
330
2030
100
AcDbEntity
  8
AM_5
100
AcDbLine
 10
280.837359387858
 20
300.8118602143095
 30
0.0
 11
304.837359387858
 21
300.8118602143095
 31
0.0
  0
SOLID
  5
31E4
330
2030
100
AcDbEntity
  8
AM_5
100
AcDbTrace
 10
280.837359387858
 20
301.3118602143095
 30
0.0
 11
280.837359387858
 21
300.3118602143096
 31
0.0
 12
277.837359387858
 22
300.8118602143095
 32
0.0
 13
277.837359387858
 23
300.8118602143095
 33
0.0
  0
SOLID
  5
31E5
330
2030
100
AcDbEntity
  8
AM_5
100
AcDbTrace
 10
304.837359387858
 20
301.3118602143095
 30
0.0
 11
304.837359387858
 21
300.3118602143096
 31
0.0
 12
307.837359387858
 22
300.8118602143095
 32
0.0
 13
307.837359387858
 23
300.8118602143095
 33
0.0
  0
MTEXT
  5
31E6
330
2030
100
AcDbEntity
  8
AM_5
100
AcDbMText
 10
292.837359387858
 20
303.2618602143096
 30
0.0
 40
3.5
 41
0.0
 71
     5
 72
     1
  1
30
 73
     1
 44
1.0
1001
ACAD
1000
MTEXTBEGIN
1070
    73
1070
     1
1070
    44
1040
1.0
1070
    74
1070
     0
1000
MTEXTEND
  0
POINT
  5
31E7
330
2030
100
AcDbEntity
  8
Defpoints
 62
     0
100
AcDbPoint
 10
277.837359387858
 20
317.4808602143095
 30
0.0
  0
POINT
  5
31E8
330
2030
100
AcDbEntity
  8
Defpoints
 62
     0
100
AcDbPoint
 10
307.837359387858
 20
317.4808602143095
 30
0.0
  0
POINT
  5
31E9
330
2030
100
AcDbEntity
  8
Defpoints
 62
     0
100
AcDbPoint
 10
307.837359387858
 20
300.8118602143095
 30
0.0
  0
ENDBLK
  5
203B
330
2030
100
AcDbEntity
  8
0
100
AcDbBlockEnd
  0
BLOCK
  5
2060
330
2056
100
AcDbEntity
  8
0
100
AcDbBlockBegin
  2
*D3
 70
     1
 10
0.0
 20
0.0
 30
0.0
  3
*D3
  1

  0
LINE
  5
3223
330
2056
100
AcDbEntity
  8
AM_5
100
AcDbLine
 10
266.837359387858
 20
136.3192607277914
 30
0.0
 11
266.837359387858
 21
119.1502607277914
 31
0.0
  0
LINE
  5
3224
330
2056
100
AcDbEntity
  8
AM_5
100
AcDbLine
 10
292.837359387858
 20
136.3192607277914
 30
0.0
 11
292.837359387858
 21
119.1502607277914
 31
0.0
  0
LINE
  5
3225
330
2056
100
AcDbEntity
  8
AM_5
100
AcDbLine
 10
269.837359387858
 20
120.6502607277914
 30
0.0
 11
289.837359387858
 21
120.6502607277914
 31
0.0
  0
SOLID
  5
3226
330
2056
100
AcDbEntity
  8
AM_5
100
AcDbTrace
 10
269.837359387858
 20
121.1502607277914
 30
0.0
 11
269.837359387858
 21
120.1502607277914
 31
0.0
 12
266.837359387858
 22
120.6502607277914
 32
0.0
 13
266.837359387858
 23
120.6502607277914
 33
0.0
  0
SOLID
  5
3227
330
2056
100
AcDbEntity
  8
AM_5
100
AcDbTrace
 10
289.837359387858
 20
121.1502607277914
 30
0.0
 11
289.837359387858
 21
120.1502607277914
 31
0.0
 12
292.837359387858
 22
120.6502607277914
 32
0.0
 13
292.837359387858
 23
120.6502607277914
 33
0.0
  0
MTEXT
  5
3228
330
2056
100
AcDbEntity
  8
AM_5
100
AcDbMText
 10
279.837359387858
 20
123.1006052159803
 30
0.0
 40
3.5
 41
0.0
 71
     5
 72
     1
  1
26
 73
     1
 44
1.0
1001
ACAD
1000
MTEXTBEGIN
1070
    73
1070
     1
1070
    44
1040
1.0
1070
    74
1070
     0
1000
MTEXTEND
  0
POINT
  5
3229
330
2056
100
AcDbEntity
  8
Defpoints
 62
     0
100
AcDbPoint
 10
266.837359387858
 20
137.3192607277914
 30
0.0
  0
POINT
  5
322A
330
2056
100
AcDbEntity
  8
Defpoints
 62
     0
100
AcDbPoint
 10
292.837359387858
 20
137.3192607277914
 30
0.0
  0
POINT
  5
322B
330
2056
100
AcDbEntity
  8
Defpoints
 62
     0
100
AcDbPoint
 10
292.837359387858
 20
120.6502607277914
 30
0.0
  0
ENDBLK
  5
2061
330
2056
100
AcDbEntity
  8
0
100
AcDbBlockEnd
  0
BLOCK
  5
2086
330
207C
100
AcDbEntity
  8
0
100
AcDbBlockBegin
  2
*D4
 70
     1
 10
0.0
 20
0.0
 30
0.0
  3
*D4
  1

  0
LINE
  5
322C
330
207C
100
AcDbEntity
  8
AM_5
100
AcDbLine
 10
292.837359387858
 20
136.3192607277914
 30
0.0
 11
292.837359387858
 21
119.1502607277915
 31
0.0
  0
LINE
  5
322D
330
207C
100
AcDbEntity
  8
AM_5
100
AcDbLine
 10
318.837359387858
 20
136.3192607277914
 30
0.0
 11
318.837359387858
 21
119.1502607277915
 31
0.0
  0
LINE
  5
322E
330
207C
100
AcDbEntity
  8
AM_5
100
AcDbLine
 10
295.837359387858
 20
120.6502607277915
 30
0.0
 11
315.837359387858
 21
120.6502607277915
 31
0.0
  0
SOLID
  5
322F
330
207C
100
AcDbEntity
  8
AM_5
100
AcDbTrace
 10
295.837359387858
 20
121.1502607277915
 30
0.0
 11
295.837359387858
 21
120.1502607277915
 31
0.0
 12
292.837359387858
 22
120.6502607277915
 32
0.0
 13
292.837359387858
 23
120.6502607277915
 33
0.0
  0
SOLID
  5
3230
330
207C
100
AcDbEntity
  8
AM_5
100
AcDbTrace
 10
315.837359387858
 20
121.1502607277915
 30
0.0
 11
315.837359387858
 21
120.1502607277915
 31
0.0
 12
318.837359387858
 22
120.6502607277915
 32
0.0
 13
318.837359387858
 23
120.6502607277915
 33
0.0
  0
MTEXT
  5
3231
330
207C
100
AcDbEntity
  8
AM_5
100
AcDbMText
 10
305.837359387858
 20
123.1006052159804
 30
0.0
 40
3.5
 41
0.0
 71
     5
 72
     1
  1
26
 73
     1
 44
1.0
1001
ACAD
1000
MTEXTBEGIN
1070
    73
1070
     1
1070
    44
1040
1.0
1070
    74
1070
     0
1000
MTEXTEND
  0
POINT
  5
3232
330
207C
100
AcDbEntity
  8
Defpoints
 62
     0
100
AcDbPoint
 10
292.837359387858
 20
137.3192607277914
 30
0.0
  0
POINT
  5
3233
330
207C
100
AcDbEntity
  8
Defpoints
 62
     0
100
AcDbPoint
 10
318.837359387858
 20
137.3192607277914
 30
0.0
  0
POINT
  5
3234
330
207C
100
AcDbEntity
  8
Defpoints
 62
     0
100
AcDbPoint
 10
318.837359387858
 20
120.6502607277915
 30
0.0
  0
ENDBLK
  5
2087
330
207C
100
AcDbEntity
  8
0
100
AcDbBlockEnd
  0
BLOCK
  5
20AC
330
20A2
100
AcDbEntity
  8
0
100
AcDbBlockBegin
  2
*D5
 70
     1
 10
0.0
 20
0.0
 30
0.0
  3
*D5
  1

  0
LINE
  5
31EA
330
20A2
100
AcDbEntity
  8
AM_5
100
AcDbLine
 10
262.8373593878579
 20
344.9118602143095
 30
0.0
 11
262.8373593878579
 21
356.3118602143095
 31
0.0
  0
LINE
  5
31EB
330
20A2
100
AcDbEntity
  8
AM_5
100
AcDbLine
 10
322.837359387858
 20
319.9118602143095
 30
0.0
 11
322.837359387858
 21
356.3118602143095
 31
0.0
  0
LINE
  5
31EC
330
20A2
100
AcDbEntity
  8
AM_5
100
AcDbLine
 10
265.8373593878579
 20
354.8118602143095
 30
0.0
 11
319.837359387858
 21
354.8118602143095
 31
0.0
  0
SOLID
  5
31ED
330
20A2
100
AcDbEntity
  8
AM_5
100
AcDbTrace
 10
265.8373593878579
 20
355.3118602143095
 30
0.0
 11
265.8373593878579
 21
354.3118602143095
 31
0.0
 12
262.8373593878579
 22
354.8118602143095
 32
0.0
 13
262.8373593878579
 23
354.8118602143095
 33
0.0
  0
SOLID
  5
31EE
330
20A2
100
AcDbEntity
  8
AM_5
100
AcDbTrace
 10
319.837359387858
 20
355.3118602143095
 30
0.0
 11
319.837359387858
 21
354.3118602143095
 31
0.0
 12
322.837359387858
 22
354.8118602143095
 32
0.0
 13
322.837359387858
 23
354.8118602143095
 33
0.0
  0
MTEXT
  5
31EF
330
20A2
100
AcDbEntity
  8
AM_5
100
AcDbMText
 10
292.837359387858
 20
357.2618602143095
 30
0.0
 40
3.5
 41
0.0
 71
     5
 72
     1
  1
60
 73
     1
 44
1.0
1001
ACAD
1000
MTEXTBEGIN
1070
    73
1070
     1
1070
    44
1040
1.0
1070
    74
1070
     0
1000
MTEXTEND
  0
POINT
  5
31F0
330
20A2
100
AcDbEntity
  8
Defpoints
 62
     0
100
AcDbPoint
 10
262.8373593878579
 20
343.9118602143095
 30
0.0
  0
POINT
  5
31F1
330
20A2
100
AcDbEntity
  8
Defpoints
 62
     0
100
AcDbPoint
 10
322.837359387858
 20
318.9118602143095
 30
0.0
  0
POINT
  5
31F2
330
20A2
100
AcDbEntity
  8
Defpoints
 62
     0
100
AcDbPoint
 10
322.837359387858
 20
354.8118602143095
 30
0.0
  0
ENDBLK
  5
20AD
330
20A2
100
AcDbEntity
  8
0
100
AcDbBlockEnd
  0
BLOCK
  5
20D2
330
20C8
100
AcDbEntity
  8
0
100
AcDbBlockBegin
  2
*D6
 70
     1
 10
0.0
 20
0.0
 30
0.0
  3
*D6
  1

  0
LINE
  5
3064
330
20C8
100
AcDbEntity
  8
AM_5
100
AcDbLine
 10
279.837359387858
 20
209.1499306851834
 30
0.0
 11
279.837359387858
 21
196.1999306851835
 31
0.0
  0
LINE
  5
3065
330
20C8
100
AcDbEntity
  8
AM_5
100
AcDbLine
 10
305.837359387858
 20
209.1499306851834
 30
0.0
 11
305.837359387858
 21
196.1999306851835
 31
0.0
  0
LINE
  5
3066
330
20C8
100
AcDbEntity
  8
AM_5
100
AcDbLine
 10
282.837359387858
 20
197.6999306851835
 30
0.0
 11
302.837359387858
 21
197.6999306851835
 31
0.0
  0
SOLID
  5
3067
330
20C8
100
AcDbEntity
  8
AM_5
100
AcDbTrace
 10
282.837359387858
 20
198.1999306851835
 30
0.0
 11
282.837359387858
 21
197.1999306851835
 31
0.0
 12
279.837359387858
 22
197.6999306851835
 32
0.0
 13
279.837359387858
 23
197.6999306851835
 33
0.0
  0
SOLID
  5
3068
330
20C8
100
AcDbEntity
  8
AM_5
100
AcDbTrace
 10
302.837359387858
 20
198.1999306851835
 30
0.0
 11
302.837359387858
 21
197.1999306851835
 31
0.0
 12
305.837359387858
 22
197.6999306851835
 32
0.0
 13
305.837359387858
 23
197.6999306851835
 33
0.0
  0
MTEXT
  5
3069
330
20C8
100
AcDbEntity
  8
AM_5
100
AcDbMText
 10
292.837359387858
 20
200.1502751733725
 30
0.0
 40
3.5
 41
0.0
 71
     5
 72
     1
  1
26
 73
     1
 44
1.0
1001
ACAD
1000
MTEXTBEGIN
1070
    73
1070
     1
1070
    44
1040
1.0
1070
    74
1070
     0
1000
MTEXTEND
  0
POINT
  5
306A
330
20C8
100
AcDbEntity
  8
Defpoints
 62
     0
100
AcDbPoint
 10
279.837359387858
 20
210.1499306851835
 30
0.0
  0
POINT
  5
306B
330
20C8
100
AcDbEntity
  8
Defpoints
 62
     0
100
AcDbPoint
 10
305.837359387858
 20
210.1499306851835
 30
0.0
  0
POINT
  5
306C
330
20C8
100
AcDbEntity
  8
Defpoints
 62
     0
100
AcDbPoint
 10
305.837359387858
 20
197.6999306851835
 30
0.0
  0
ENDBLK
  5
20D3
330
20C8
100
AcDbEntity
  8
0
100
AcDbBlockEnd
  0
BLOCK
  5
2178
330
216E
100
AcDbEntity
  8
0
100
AcDbBlockBegin
  2
*D7
 70
     1
 10
0.0
 20
0.0
 30
0.0
  3
*D7
  1

  0
LINE
  5
3076
330
216E
100
AcDbEntity
  8
AM_5
100
AcDbLine
 10
247.8373593878578
 20
209.6999306851834
 30
0.0
 11
247.8373593878578
 21
186.1999306851836
 31
0.0
  0
LINE
  5
3077
330
216E
100
AcDbEntity
  8
AM_5
100
AcDbLine
 10
393.3373593878616
 20
222.3999306851835
 30
0.0
 11
393.3373593878616
 21
186.1999306851836
 31
0.0
  0
LINE
  5
3078
330
216E
100
AcDbEntity
  8
AM_5
100
AcDbLine
 10
250.8373593878578
 20
187.6999306851836
 30
0.0
 11
390.3373593878616
 21
187.6999306851836
 31
0.0
  0
SOLID
  5
3079
330
216E
100
AcDbEntity
  8
AM_5
100
AcDbTrace
 10
250.8373593878578
 20
188.1999306851836
 30
0.0
 11
250.8373593878578
 21
187.1999306851836
 31
0.0
 12
247.8373593878578
 22
187.6999306851836
 32
0.0
 13
247.8373593878578
 23
187.6999306851836
 33
0.0
  0
SOLID
  5
307A
330
216E
100
AcDbEntity
  8
AM_5
100
AcDbTrace
 10
390.3373593878616
 20
188.1999306851836
 30
0.0
 11
390.3373593878616
 21
187.1999306851836
 31
0.0
 12
393.3373593878616
 22
187.6999306851836
 32
0.0
 13
393.3373593878616
 23
187.6999306851836
 33
0.0
  0
MTEXT
  5
307B
330
216E
100
AcDbEntity
  8
AM_5
100
AcDbMText
 10
320.5873593878597
 20
190.1499306851836
 30
0.0
 40
3.5
 41
0.0
 71
     5
 72
     1
  1
145.5
 73
     1
 44
1.0
1001
ACAD
1000
MTEXTBEGIN
1070
    73
1070
     1
1070
    44
1040
1.0
1070
    74
1070
     0
1000
MTEXTEND
  0
POINT
  5
307C
330
216E
100
AcDbEntity
  8
Defpoints
 62
     0
100
AcDbPoint
 10
247.8373593878578
 20
210.6999306851835
 30
0.0
  0
POINT
  5
307D
330
216E
100
AcDbEntity
  8
Defpoints
 62
     0
100
AcDbPoint
 10
393.3373593878616
 20
223.3999306851834
 30
0.0
  0
POINT
  5
307E
330
216E
100
AcDbEntity
  8
Defpoints
 62
     0
100
AcDbPoint
 10
393.3373593878616
 20
187.6999306851836
 30
0.0
  0
ENDBLK
  5
2179
330
216E
100
AcDbEntity
  8
0
100
AcDbBlockEnd
  0
BLOCK
  5
225E
330
2255
100
AcDbEntity
  8
0
100
AcDbBlockBegin
  2
*D9
 70
     1
 10
0.0
 20
0.0
 30
0.0
  3
*D9
  1

  0
LINE
  5
30B8
330
2255
100
AcDbEntity
  8
AM_5
100
AcDbLine
 10
294.902103430468
 20
256.2268688491242
 30
0.0
 11
300.0425511522358
 21
268.2441565980591
 31
0.0
  0
LINE
  5
30B9
330
2255
100
AcDbEntity
  8
AM_5
100
AcDbLine
 10
300.0425511522358
 20
268.2441565980591
 30
0.0
 11
314.1875258990664
 21
268.2441565980591
 31
0.0
  0
SOLID
  5
30BA
330
2255
100
AcDbEntity
  8
AM_5
100
AcDbTrace
 10
294.4423950339023
 20
256.4235111388966
 30
0.0
 11
295.3618118270338
 21
256.0302265593518
 31
0.0
 12
293.7222496918338
 22
253.4686184697296
 32
0.0
 13
293.7222496918338
 23
253.4686184697296
 33
0.0
  0
MTEXT
  5
30BB
330
2255
100
AcDbEntity
  8
AM_5
100
AcDbMText
 10
307.4650385256512
 20
270.694156598059
 30
0.0
 40
3.5
 41
0.0
 71
     5
 72
     1
  1
3-\U+22054.5
 73
     1
 44
1.0
1001
ACAD
1000
MTEXTBEGIN
1070
    73
1070
     1
1070
    44
1040
1.0
1070
    74
1070
     0
1000
MTEXTEND
  0
POINT
  5
30BC
330
2255
100
AcDbEntity
  8
Defpoints
 62
     0
100
AcDbPoint
 10
293.7222496918338
 20
253.4686184697296
 30
0.0
  0
POINT
  5
30BD
330
2255
100
AcDbEntity
  8
Defpoints
 62
     0
100
AcDbPoint
 10
291.9524690838825
 20
249.3312429006378
 30
0.0
  0
ENDBLK
  5
225F
330
2255
100
AcDbEntity
  8
0
100
AcDbBlockEnd
  0
BLOCK
  5
228B
330
2285
100
AcDbEntity
  8
0
100
AcDbBlockBegin
  2
*D10
 70
     1
 10
0.0
 20
0.0
 30
0.0
  3
*D10
  1

  0
LINE
  5
321D
330
2285
100
AcDbEntity
  8
AM_5
100
AcDbLine
 10
324.9450846065229
 20
311.223156947673
 30
0.0
 11
328.7586565228896
 21
303.8253406602743
 31
0.0
  0
LINE
  5
321E
330
2285
100
AcDbEntity
  8
AM_5
100
AcDbLine
 10
328.7586565228896
 20
303.8253406602743
 30
0.0
 11
342.7077411685588
 21
303.8253406602743
 31
0.0
  0
SOLID
  5
321F
330
2285
100
AcDbEntity
  8
AM_5
100
AcDbTrace
 10
325.3895088746356
 20
311.4522575149192
 30
0.0
 11
324.5006603384102
 21
310.9940563804268
 31
0.0
 12
323.5704812030457
 22
313.889702556349
 32
0.0
 13
323.5704812030457
 23
313.889702556349
 33
0.0
  0
MTEXT
  5
3220
330
2285
100
AcDbEntity
  8
AM_5
100
AcDbMText
 10
336.0831988457242
 20
306.2756851484632
 30
0.0
 40
3.5
 41
0.0
 71
     5
 72
     1
  1
2-\U+22053.2
 73
     1
 44
1.0
1001
ACAD
1000
MTEXTBEGIN
1070
    73
1070
     1
1070
    44
1040
1.0
1070
    74
1070
     0
1000
MTEXTEND
  0
POINT
  5
3221
330
2285
100
AcDbEntity
  8
Defpoints
 62
     0
100
AcDbPoint
 10
323.5704812030457
 20
313.889702556349
 30
0.0
  0
POINT
  5
3222
330
2285
100
AcDbEntity
  8
Defpoints
 62
     0
100
AcDbPoint
 10
322.10423757267
 20
316.73401787227
 30
0.0
  0
ENDBLK
  5
228C
330
2285
100
AcDbEntity
  8
0
100
AcDbBlockEnd
  0
BLOCK
  5
22CB
330
22C1
100
AcDbEntity
  8
0
100
AcDbBlockBegin
  2
*D11
 70
     1
 10
0.0
 20
0.0
 30
0.0
  3
*D11
  1

  0
LINE
  5
31F9
330
22C1
100
AcDbEntity
  8
AM_5
100
AcDbLine
 10
258.2373593878579
 20
340.3118602143095
 30
0.0
 11
234.3373593878578
 21
340.3118602143095
 31
0.0
  0
LINE
  5
31FA
330
22C1
100
AcDbEntity
  8
AM_5
100
AcDbLine
 10
318.237359387858
 20
315.3118602143095
 30
0.0
 11
234.3373593878578
 21
315.3118602143095
 31
0.0
  0
LINE
  5
31FB
330
22C1
100
AcDbEntity
  8
AM_5
100
AcDbLine
 10
235.8373593878578
 20
337.3118602143095
 30
0.0
 11
235.8373593878578
 21
318.3118602143095
 31
0.0
  0
SOLID
  5
31FC
330
22C1
100
AcDbEntity
  8
AM_5
100
AcDbTrace
 10
235.3373593878578
 20
337.3118602143095
 30
0.0
 11
236.3373593878578
 21
337.3118602143095
 31
0.0
 12
235.8373593878578
 22
340.3118602143095
 32
0.0
 13
235.8373593878578
 23
340.3118602143095
 33
0.0
  0
SOLID
  5
31FD
330
22C1
100
AcDbEntity
  8
AM_5
100
AcDbTrace
 10
235.3373593878578
 20
318.3118602143095
 30
0.0
 11
236.3373593878578
 21
318.3118602143095
 31
0.0
 12
235.8373593878578
 22
315.3118602143095
 32
0.0
 13
235.8373593878578
 23
315.3118602143095
 33
0.0
  0
MTEXT
  5
31FE
330
22C1
100
AcDbEntity
  8
AM_5
100
AcDbMText
 10
233.3870148996687
 20
327.8118602143095
 30
0.0
 40
3.5
 41
0.0
 71
     5
 72
     1
  1
25
 11
0.0000000000000001
 21
1.0
 31
0.0
 73
     1
 44
1.0
1001
ACAD
1000
MTEXTBEGIN
1070
    73
1070
     1
1070
    44
1040
1.0
1070
    74
1070
     0
1000
MTEXTEND
  0
POINT
  5
31FF
330
22C1
100
AcDbEntity
  8
Defpoints
 62
     0
100
AcDbPoint
 10
259.2373593878579
 20
340.3118602143095
 30
0.0
  0
POINT
  5
3200
330
22C1
100
AcDbEntity
  8
Defpoints
 62
     0
100
AcDbPoint
 10
319.2373593878579
 20
315.3118602143095
 30
0.0
  0
POINT
  5
3201
330
22C1
100
AcDbEntity
  8
Defpoints
 62
     0
100
AcDbPoint
 10
235.8373593878578
 20
315.3118602143095
 30
0.0
  0
ENDBLK
  5
22CC
330
22C1
100
AcDbEntity
  8
0
100
AcDbBlockEnd
  0
BLOCK
  5
22F1
330
22E7
100
AcDbEntity
  8
0
100
AcDbBlockBegin
  2
*D12
 70
     1
 10
0.0
 20
0.0
 30
0.0
  3
*D12
  1

  0
LINE
  5
3202
330
22E7
100
AcDbEntity
  8
AM_5
100
AcDbLine
 10
247.8373593878578
 20
342.8118602143095
 30
0.0
 11
224.3373593878578
 21
342.8118602143095
 31
0.0
  0
LINE
  5
3203
330
22E7
100
AcDbEntity
  8
AM_5
100
AcDbLine
 10
247.8373593878578
 20
312.8118602143095
 30
0.0
 11
224.3373593878577
 21
312.8118602143095
 31
0.0
  0
LINE
  5
3204
330
22E7
100
AcDbEntity
  8
AM_5
100
AcDbLine
 10
225.8373593878578
 20
339.8118602143095
 30
0.0
 11
225.8373593878578
 21
315.8118602143095
 31
0.0
  0
SOLID
  5
3205
330
22E7
100
AcDbEntity
  8
AM_5
100
AcDbTrace
 10
225.3373593878578
 20
339.8118602143095
 30
0.0
 11
226.3373593878578
 21
339.8118602143095
 31
0.0
 12
225.8373593878578
 22
342.8118602143095
 32
0.0
 13
225.8373593878578
 23
342.8118602143095
 33
0.0
  0
SOLID
  5
3206
330
22E7
100
AcDbEntity
  8
AM_5
100
AcDbTrace
 10
225.3373593878578
 20
315.8118602143095
 30
0.0
 11
226.3373593878577
 21
315.8118602143095
 31
0.0
 12
225.8373593878578
 22
312.8118602143095
 32
0.0
 13
225.8373593878578
 23
312.8118602143095
 33
0.0
  0
MTEXT
  5
3207
330
22E7
100
AcDbEntity
  8
AM_5
100
AcDbMText
 10
223.3873593878577
 20
327.8118602143095
 30
0.0
 40
3.5
 41
0.0
 71
     5
 72
     1
  1
30
 11
0.0000000000000001
 21
1.0
 31
0.0
 73
     1
 44
1.0
1001
ACAD
1000
MTEXTBEGIN
1070
    73
1070
     1
1070
    44
1040
1.0
1070
    74
1070
     0
1000
MTEXTEND
  0
POINT
  5
3208
330
22E7
100
AcDbEntity
  8
Defpoints
 62
     0
100
AcDbPoint
 10
248.8373593878578
 20
342.8118602143095
 30
0.0
  0
POINT
  5
3209
330
22E7
100
AcDbEntity
  8
Defpoints
 62
     0
100
AcDbPoint
 10
248.8373593878578
 20
312.8118602143095
 30
0.0
  0
POINT
  5
320A
330
22E7
100
AcDbEntity
  8
Defpoints
 62
     0
100
AcDbPoint
 10
225.8373593878578
 20
312.8118602143095
 30
0.0
  0
ENDBLK
  5
22F2
330
22E7
100
AcDbEntity
  8
0
100
AcDbBlockEnd
  0
BLOCK
  5
2344
330
233A
100
AcDbEntity
  8
0
100
AcDbBlockBegin
  2
*D13
 70
     1
 10
0.0
 20
0.0
 30
0.0
  3
*D13
  1

  0
LINE
  5
30AF
330
233A
100
AcDbEntity
  8
AM_5
100
AcDbLine
 10
359.3370002311055
 20
209.6999306851834
 30
0.0
 11
422.5167751504235
 21
209.6999306851834
 31
0.0
  0
LINE
  5
30B0
330
233A
100
AcDbEntity
  8
AM_5
100
AcDbLine
 10
398.3373593878615
 20
280.8999306851835
 30
0.0
 11
422.5167751504235
 21
280.8999306851835
 31
0.0
  0
LINE
  5
30B1
330
233A
100
AcDbEntity
  8
AM_5
100
AcDbLine
 10
421.0167751504235
 20
212.6999306851835
 30
0.0
 11
421.0167751504235
 21
277.8999306851835
 31
0.0
  0
SOLID
  5
30B2
330
233A
100
AcDbEntity
  8
AM_5
100
AcDbTrace
 10
420.5167751504236
 20
212.6999306851835
 30
0.0
 11
421.5167751504235
 21
212.6999306851835
 31
0.0
 12
421.0167751504235
 22
209.6999306851834
 32
0.0
 13
421.0167751504235
 23
209.6999306851834
 33
0.0
  0
SOLID
  5
30B3
330
233A
100
AcDbEntity
  8
AM_5
100
AcDbTrace
 10
420.5167751504236
 20
277.8999306851835
 30
0.0
 11
421.5167751504235
 21
277.8999306851835
 31
0.0
 12
421.0167751504235
 22
280.8999306851835
 32
0.0
 13
421.0167751504235
 23
280.8999306851835
 33
0.0
  0
MTEXT
  5
30B4
330
233A
100
AcDbEntity
  8
AM_5
100
AcDbMText
 10
418.5664306622345
 20
245.2999306851836
 30
0.0
 40
3.5
 41
0.0
 71
     5
 72
     1
  1
71.2
 11
0.0000000000000001
 21
1.0
 31
0.0
 73
     1
 44
1.0
1001
ACAD
1000
MTEXTBEGIN
1070
    73
1070
     1
1070
    44
1040
1.0
1070
    74
1070
     0
1000
MTEXTEND
  0
POINT
  5
30B5
330
233A
100
AcDbEntity
  8
Defpoints
 62
     0
100
AcDbPoint
 10
358.3370002311055
 20
209.6999306851834
 30
0.0
  0
POINT
  5
30B6
330
233A
100
AcDbEntity
  8
Defpoints
 62
     0
100
AcDbPoint
 10
397.3373593878615
 20
280.8999306851835
 30
0.0
  0
POINT
  5
30B7
330
233A
100
AcDbEntity
  8
Defpoints
 62
     0
100
AcDbPoint
 10
421.0167751504235
 20
280.8999306851835
 30
0.0
  0
ENDBLK
  5
2345
330
233A
100
AcDbEntity
  8
0
100
AcDbBlockEnd
  0
BLOCK
  5
259B
330
2596
100
AcDbEntity
  8
0
100
AcDbBlockBegin
  2
*S14
 70
     1
 10
0.0
 20
0.0
 30
0.0
  3
*S14
  1

  0
LINE
  5
2597
330
2596
100
AcDbEntity
  8
AM_5
 62
     5
100
AcDbLine
 10
409.2720474437287
 20
363.6397183796962
 30
0.0
 11
392.8778747558804
 21
363.6397183796962
 31
0.0
  0
LINE
  5
2598
330
2596
100
AcDbEntity
  8
AM_5
 62
     5
100
AcDbLine
 10
392.8778747558804
 20
363.6397183796962
 30
0.0
 11
379.6864581333838
 21
348.2048090887021
 31
0.0
  0
TRACE
  5
2599
330
2596
100
AcDbEntity
  8
AM_5
 62
     5
370
    35
100
AcDbTrace
 10
379.3361736107268
 20
348.5041791068645
 30
0.0
 11
380.0367426560407
 21
347.9054390705396
 31
0.0
 12
377.4125170765541
 22
345.5441339732352
 32
0.0
 13
377.4125170765541
 23
345.5441339732352
 33
0.0
  0
MTEXT
  5
259A
330
2596
100
AcDbEntity
  8
AM_5
 62
     5
100
AcDbMText
 10
409.2720474437287
 20
369.3438273851008
 30
0.0
 40
3.5
 41
0.0
 71
     7
 72
     5
  1

  7
ACISOTS
 73
     1
 44
1.0
1001
ACAD
1000
MTEXTBEGIN
1070
    73
1070
     1
1070
    44
1040
1.0
1070
    74
1070
     0
1000
MTEXTEND
  0
ENDBLK
  5
259C
330
2596
100
AcDbEntity
  8
0
100
AcDbBlockEnd
  0
BLOCK
  5
30DE
330
30D4
100
AcDbEntity
  8
0
100
AcDbBlockBegin
  2
*D16
 70
     1
 10
0.0
 20
0.0
 30
0.0
  3
*D16
  1

  0
LINE
  5
31B2
330
30D4
100
AcDbEntity
  8
AM_5
100
AcDbLine
 10
247.8373593878578
 20
209.6999306851834
 30
0.0
 11
224.3373593878577
 21
209.6999306851834
 31
0.0
  0
LINE
  5
31B3
330
30D4
100
AcDbEntity
  8
AM_5
100
AcDbLine
 10
247.8373593878578
 20
256.0999306851836
 30
0.0
 11
224.3373593878577
 21
256.0999306851836
 31
0.0
  0
LINE
  5
31B4
330
30D4
100
AcDbEntity
  8
AM_5
100
AcDbLine
 10
225.8373593878577
 20
212.6999306851835
 30
0.0
 11
225.8373593878577
 21
253.0999306851835
 31
0.0
  0
SOLID
  5
31B5
330
30D4
100
AcDbEntity
  8
AM_5
100
AcDbTrace
 10
225.3373593878577
 20
212.6999306851835
 30
0.0
 11
226.3373593878577
 21
212.6999306851835
 31
0.0
 12
225.8373593878577
 22
209.6999306851834
 32
0.0
 13
225.8373593878577
 23
209.6999306851834
 33
0.0
  0
SOLID
  5
31B6
330
30D4
100
AcDbEntity
  8
AM_5
100
AcDbTrace
 10
225.3373593878577
 20
253.0999306851835
 30
0.0
 11
226.3373593878577
 21
253.0999306851835
 31
0.0
 12
225.8373593878577
 22
256.0999306851836
 32
0.0
 13
225.8373593878577
 23
256.0999306851836
 33
0.0
  0
MTEXT
  5
31B7
330
30D4
100
AcDbEntity
  8
AM_5
100
AcDbMText
 10
223.3873593878577
 20
232.8999306851835
 30
0.0
 40
3.5
 41
0.0
 71
     5
 72
     1
  1
46.4
 11
0.0000000000000001
 21
1.0
 31
0.0
 73
     1
 44
1.0
1001
ACAD
1000
MTEXTBEGIN
1070
    73
1070
     1
1070
    44
1040
1.0
1070
    74
1070
     0
1000
MTEXTEND
  0
POINT
  5
31B8
330
30D4
100
AcDbEntity
  8
Defpoints
 62
     0
100
AcDbPoint
 10
248.8373593878578
 20
209.6999306851834
 30
0.0
  0
POINT
  5
31B9
330
30D4
100
AcDbEntity
  8
Defpoints
 62
     0
100
AcDbPoint
 10
248.8373593878578
 20
256.0999306851836
 30
0.0
  0
POINT
  5
31BA
330
30D4
100
AcDbEntity
  8
Defpoints
 62
     0
100
AcDbPoint
 10
225.8373593878577
 20
256.0999306851836
 30
0.0
  0
ENDBLK
  5
30DF
330
30D4
100
AcDbEntity
  8
0
100
AcDbBlockEnd
  0
BLOCK
  5
3108
330
30FE
100
AcDbEntity
  8
0
100
AcDbBlockBegin
  2
*D17
 70
     1
 10
0.0
 20
0.0
 30
0.0
  3
*D17
  1

  0
LINE
  5
320B
330
30FE
100
AcDbEntity
  8
AM_5
100
AcDbLine
 10
247.8373593878578
 20
342.8118602143095
 30
0.0
 11
247.8373593878578
 21
366.3118602143093
 31
0.0
  0
LINE
  5
320C
330
30FE
100
AcDbEntity
  8
AM_5
100
AcDbLine
 10
404.337359387858
 20
338.0494645213428
 30
0.0
 11
404.337359387858
 21
366.3118602143093
 31
0.0
  0
LINE
  5
320D
330
30FE
100
AcDbEntity
  8
AM_5
100
AcDbLine
 10
250.8373593878578
 20
364.8118602143093
 30
0.0
 11
401.337359387858
 21
364.8118602143093
 31
0.0
  0
SOLID
  5
320E
330
30FE
100
AcDbEntity
  8
AM_5
100
AcDbTrace
 10
250.8373593878578
 20
365.3118602143093
 30
0.0
 11
250.8373593878578
 21
364.3118602143093
 31
0.0
 12
247.8373593878578
 22
364.8118602143093
 32
0.0
 13
247.8373593878578
 23
364.8118602143093
 33
0.0
  0
SOLID
  5
320F
330
30FE
100
AcDbEntity
  8
AM_5
100
AcDbTrace
 10
401.337359387858
 20
365.3118602143093
 30
0.0
 11
401.337359387858
 21
364.3118602143093
 31
0.0
 12
404.337359387858
 22
364.8118602143093
 32
0.0
 13
404.337359387858
 23
364.8118602143093
 33
0.0
  0
MTEXT
  5
3210
330
30FE
100
AcDbEntity
  8
AM_5
100
AcDbMText
 10
326.0873593878579
 20
367.2618602143093
 30
0.0
 40
3.5
 41
0.0
 71
     5
 72
     1
  1
156.5
 73
     1
 44
1.0
1001
ACAD
1000
MTEXTBEGIN
1070
    73
1070
     1
1070
    44
1040
1.0
1070
    74
1070
     0
1000
MTEXTEND
  0
POINT
  5
3211
330
30FE
100
AcDbEntity
  8
Defpoints
 62
     0
100
AcDbPoint
 10
247.8373593878578
 20
341.8118602143095
 30
0.0
  0
POINT
  5
3212
330
30FE
100
AcDbEntity
  8
Defpoints
 62
     0
100
AcDbPoint
 10
404.337359387858
 20
337.0494645213428
 30
0.0
  0
POINT
  5
3213
330
30FE
100
AcDbEntity
  8
Defpoints
 62
     0
100
AcDbPoint
 10
404.337359387858
 20
364.8118602143093
 30
0.0
  0
ENDBLK
  5
3109
330
30FE
100
AcDbEntity
  8
0
100
AcDbBlockEnd
  0
BLOCK
  5
3132
330
3128
100
AcDbEntity
  8
0
100
AcDbBlockBegin
  2
*D18
 70
     1
 10
0.0
 20
0.0
 30
0.0
  3
*D18
  1

  0
LINE
  5
3214
330
3128
100
AcDbEntity
  8
AM_5
100
AcDbLine
 10
247.8373593878578
 20
342.8118602143095
 30
0.0
 11
247.8373593878578
 21
356.3118602143095
 31
0.0
  0
LINE
  5
3215
330
3128
100
AcDbEntity
  8
AM_5
100
AcDbLine
 10
262.8373593878579
 20
344.9118602143095
 30
0.0
 11
262.8373593878579
 21
356.3118602143095
 31
0.0
  0
LINE
  5
3216
330
3128
100
AcDbEntity
  8
AM_5
100
AcDbLine
 10
250.8373593878578
 20
354.8118602143095
 30
0.0
 11
259.8373593878579
 21
354.8118602143095
 31
0.0
  0
SOLID
  5
3217
330
3128
100
AcDbEntity
  8
AM_5
100
AcDbTrace
 10
250.8373593878578
 20
355.3118602143095
 30
0.0
 11
250.8373593878578
 21
354.3118602143095
 31
0.0
 12
247.8373593878578
 22
354.8118602143095
 32
0.0
 13
247.8373593878578
 23
354.8118602143095
 33
0.0
  0
SOLID
  5
3218
330
3128
100
AcDbEntity
  8
AM_5
100
AcDbTrace
 10
259.8373593878579
 20
355.3118602143095
 30
0.0
 11
259.8373593878579
 21
354.3118602143095
 31
0.0
 12
262.8373593878579
 22
354.8118602143095
 32
0.0
 13
262.8373593878579
 23
354.8118602143095
 33
0.0
  0
MTEXT
  5
3219
330
3128
100
AcDbEntity
  8
AM_5
100
AcDbMText
 10
255.3373593878578
 20
357.2618602143095
 30
0.0
 40
3.5
 41
0.0
 71
     5
 72
     1
  1
15
 73
     1
 44
1.0
1001
ACAD
1000
MTEXTBEGIN
1070
    73
1070
     1
1070
    44
1040
1.0
1070
    74
1070
     0
1000
MTEXTEND
  0
POINT
  5
321A
330
3128
100
AcDbEntity
  8
Defpoints
 62
     0
100
AcDbPoint
 10
247.8373593878578
 20
341.8118602143095
 30
0.0
  0
POINT
  5
321B
330
3128
100
AcDbEntity
  8
Defpoints
 62
     0
100
AcDbPoint
 10
262.8373593878579
 20
343.9118602143095
 30
0.0
  0
POINT
  5
321C
330
3128
100
AcDbEntity
  8
Defpoints
 62
     0
100
AcDbPoint
 10
262.8373593878579
 20
354.8118602143095
 30
0.0
  0
ENDBLK
  5
3133
330
3128
100
AcDbEntity
  8
0
100
AcDbBlockEnd
  0
BLOCK
  5
3165
330
315B
100
AcDbEntity
  8
0
100
AcDbBlockBegin
  2
*D19
 70
     1
 10
0.0
 20
0.0
 30
0.0
  3
*D19
  1

  0
LINE
  5
3169
330
315B
100
AcDbEntity
  8
AM_5
100
AcDbLine
 10
247.8373593878578
 20
209.6999306851834
 30
0.0
 11
247.8373593878578
 21
196.1999306851833
 31
0.0
  0
LINE
  5
316A
330
315B
100
AcDbEntity
  8
AM_5
100
AcDbLine
 10
279.837359387858
 20
209.1499306851834
 30
0.0
 11
279.837359387858
 21
196.1999306851833
 31
0.0
  0
LINE
  5
316B
330
315B
100
AcDbEntity
  8
AM_5
100
AcDbLine
 10
250.8373593878578
 20
197.6999306851833
 30
0.0
 11
276.837359387858
 21
197.6999306851833
 31
0.0
  0
SOLID
  5
316C
330
315B
100
AcDbEntity
  8
AM_5
100
AcDbTrace
 10
250.8373593878578
 20
198.1999306851833
 30
0.0
 11
250.8373593878578
 21
197.1999306851833
 31
0.0
 12
247.8373593878578
 22
197.6999306851833
 32
0.0
 13
247.8373593878578
 23
197.6999306851833
 33
0.0
  0
SOLID
  5
316D
330
315B
100
AcDbEntity
  8
AM_5
100
AcDbTrace
 10
276.837359387858
 20
198.1999306851833
 30
0.0
 11
276.837359387858
 21
197.1999306851833
 31
0.0
 12
279.837359387858
 22
197.6999306851833
 32
0.0
 13
279.837359387858
 23
197.6999306851833
 33
0.0
  0
MTEXT
  5
316E
330
315B
100
AcDbEntity
  8
AM_5
100
AcDbMText
 10
263.8373593878579
 20
200.1502751733724
 30
0.0
 40
3.5
 41
0.0
 71
     5
 72
     1
  1
32
 73
     1
 44
1.0
1001
ACAD
1000
MTEXTBEGIN
1070
    73
1070
     1
1070
    44
1040
1.0
1070
    74
1070
     0
1000
MTEXTEND
  0
POINT
  5
316F
330
315B
100
AcDbEntity
  8
Defpoints
 62
     0
100
AcDbPoint
 10
247.8373593878578
 20
210.6999306851835
 30
0.0
  0
POINT
  5
3170
330
315B
100
AcDbEntity
  8
Defpoints
 62
     0
100
AcDbPoint
 10
279.837359387858
 20
210.1499306851835
 30
0.0
  0
POINT
  5
3171
330
315B
100
AcDbEntity
  8
Defpoints
 62
     0
100
AcDbPoint
 10
279.837359387858
 20
197.6999306851833
 30
0.0
  0
ENDBLK
  5
3166
330
315B
100
AcDbEntity
  8
0
100
AcDbBlockEnd
  0
BLOCK
  5
3192
330
3188
100
AcDbEntity
  8
0
100
AcDbBlockBegin
  2
*D20
 70
     1
 10
0.0
 20
0.0
 30
0.0
  3
*D20
  1

  0
LINE
  5
31A9
330
3188
100
AcDbEntity
  8
AM_5
100
AcDbLine
 10
274.587359387858
 20
214.3999306851835
 30
0.0
 11
234.3373593878578
 21
214.3999306851835
 31
0.0
  0
LINE
  5
31AA
330
3188
100
AcDbEntity
  8
AM_5
100
AcDbLine
 10
287.587359387858
 20
251.3999306851835
 30
0.0
 11
234.3373593878578
 21
251.3999306851835
 31
0.0
  0
LINE
  5
31AB
330
3188
100
AcDbEntity
  8
AM_5
100
AcDbLine
 10
235.8373593878578
 20
217.3999306851834
 30
0.0
 11
235.8373593878578
 21
248.3999306851834
 31
0.0
  0
SOLID
  5
31AC
330
3188
100
AcDbEntity
  8
AM_5
100
AcDbTrace
 10
235.3373593878578
 20
217.3999306851834
 30
0.0
 11
236.3373593878578
 21
217.3999306851834
 31
0.0
 12
235.8373593878578
 22
214.3999306851835
 32
0.0
 13
235.8373593878578
 23
214.3999306851835
 33
0.0
  0
SOLID
  5
31AD
330
3188
100
AcDbEntity
  8
AM_5
100
AcDbTrace
 10
235.3373593878578
 20
248.3999306851834
 30
0.0
 11
236.3373593878578
 21
248.3999306851834
 31
0.0
 12
235.8373593878578
 22
251.3999306851835
 32
0.0
 13
235.8373593878578
 23
251.3999306851835
 33
0.0
  0
MTEXT
  5
31AE
330
3188
100
AcDbEntity
  8
AM_5
100
AcDbMText
 10
233.3873593878577
 20
232.8999306851835
 30
0.0
 40
3.5
 41
0.0
 71
     5
 72
     1
  1
37
 11
0.0000000000000001
 21
1.0
 31
0.0
 73
     1
 44
1.0
1001
ACAD
1000
MTEXTBEGIN
1070
    73
1070
     1
1070
    44
1040
1.0
1070
    74
1070
     0
1000
MTEXTEND
  0
POINT
  5
31AF
330
3188
100
AcDbEntity
  8
Defpoints
 62
     0
100
AcDbPoint
 10
275.587359387858
 20
214.3999306851835
 30
0.0
  0
POINT
  5
31B0
330
3188
100
AcDbEntity
  8
Defpoints
 62
     0
100
AcDbPoint
 10
288.587359387858
 20
251.3999306851835
 30
0.0
  0
POINT
  5
31B1
330
3188
100
AcDbEntity
  8
Defpoints
 62
     0
100
AcDbPoint
 10
235.8373593878578
 20
251.3999306851835
 30
0.0
  0
ENDBLK
  5
3193
330
3188
100
AcDbEntity
  8
0
100
AcDbBlockEnd
  0
ENDSEC
  0
SECTION
  2
ENTITIES
  0
LINE
  5
1097
330
1F
100
AcDbEntity
  8
AM_VIS
100
AcDbLine
 10
404.3373593878388
 20
153.7034639580665
 30
0.0
 11
398.8373593878388
 21
153.7034639580665
 31
0.0
  0
LINE
  5
1098
330
1F
100
AcDbEntity
  8
AM_VIS
100
AcDbLine
 10
398.8373593878388
 20
155.4534639580666
 30
0.0
 11
404.3373593878388
 21
155.4534639580666
 31
0.0
  0
LINE
  5
1099
330
1F
100
AcDbEntity
  8
AM_VIS
100
AcDbLine
 10
404.3373593878388
 20
154.7704512561742
 30
0.0
 11
398.8373593878388
 21
154.7704512561742
 31
0.0
  0
LINE
  5
109A
330
1F
100
AcDbEntity
  8
AM_VIS
100
AcDbLine
 10
404.3373593878388
 20
143.0314585742739
 30
0.0
 11
398.8373593878388
 21
143.0314585742739
 31
0.0
  0
LINE
  5
109B
330
1F
100
AcDbEntity
  8
AM_VIS
100
AcDbLine
 10
404.3373593878388
 20
145.9002607277909
 30
0.0
 11
398.8373593878388
 21
145.9002607277909
 31
0.0
  0
LINE
  5
109C
330
1F
100
AcDbEntity
  8
AM_VIS
100
AcDbLine
 10
398.8373593878388
 20
149.4002607277909
 30
0.0
 11
404.3373593878388
 21
149.4002607277909
 31
0.0
  0
LINE
  5
109D
330
1F
100
AcDbEntity
  8
AM_VIS
100
AcDbLine
 10
404.3373593878388
 20
148.9002607277909
 30
0.0
 11
398.8373593878388
 21
148.9002607277909
 31
0.0
  0
LINE
  5
109E
330
1F
100
AcDbEntity
  8
AM_VIS
100
AcDbLine
 10
404.3373593878388
 20
146.4002607277909
 30
0.0
 11
398.8373593878388
 21
146.4002607277909
 31
0.0
  0
LINE
  5
109F
330
1F
100
AcDbEntity
  8
AM_VIS
100
AcDbLine
 10
404.3373593878388
 20
138.4126564207569
 30
0.0
 11
398.8373593878388
 21
138.4126564207569
 31
0.0
  0
LINE
  5
10A0
330
1F
100
AcDbEntity
  8
AM_VIS
100
AcDbLine
 10
404.3373593878388
 20
139.8470574975154
 30
0.0
 11
398.8373593878388
 21
139.8470574975154
 31
0.0
  0
LINE
  5
10A1
330
1F
100
AcDbEntity
  8
AM_VIS
100
AcDbLine
 10
398.8373593878388
 20
141.5970574975155
 30
0.0
 11
404.3373593878388
 21
141.5970574975155
 31
0.0
  0
LINE
  5
10A2
330
1F
100
AcDbEntity
  8
AM_VIS
100
AcDbLine
 10
404.3373593878388
 20
140.5300701994077
 30
0.0
 11
398.8373593878388
 21
140.5300701994077
 31
0.0
  0
LINE
  5
10A3
330
1F
100
AcDbEntity
  8
AM_VIS
100
AcDbLine
 10
398.8373593878388
 20
156.8878650348251
 30
0.0
 11
398.8373593878388
 21
155.4534639580665
 31
0.0
  0
LINE
  5
10A4
330
1F
100
AcDbEntity
  8
AM_VIS
100
AcDbLine
 10
398.8373593878388
 20
154.7704512561742
 30
0.0
 11
398.8373593878388
 21
155.4534639580665
 31
0.0
  0
LINE
  5
10A5
330
1F
100
AcDbEntity
  8
AM_VIS
100
AcDbLine
 10
398.8373593878388
 20
153.7034639580665
 30
0.0
 11
398.8373593878388
 21
154.7704512561742
 31
0.0
  0
LINE
  5
10A6
330
1F
100
AcDbEntity
  8
AM_VIS
100
AcDbLine
 10
398.8373593878388
 20
153.7034639580665
 30
0.0
 11
398.8373593878388
 21
152.2690628813081
 31
0.0
  0
LINE
  5
10A7
330
1F
100
AcDbEntity
  8
AM_VIS
100
AcDbLine
 10
398.8373593878388
 20
152.2690628813081
 30
0.0
 11
398.8373593878388
 21
149.4002607277909
 31
0.0
  0
LINE
  5
10A8
330
1F
100
AcDbEntity
  8
AM_VIS
100
AcDbLine
 10
398.8373593878388
 20
148.9002607277908
 30
0.0
 11
398.8373593878388
 21
149.4002607277908
 31
0.0
  0
LINE
  5
10A9
330
1F
100
AcDbEntity
  8
AM_VIS
100
AcDbLine
 10
398.8373593878388
 20
146.4002607277909
 30
0.0
 11
398.8373593878388
 21
148.9002607277909
 31
0.0
  0
LINE
  5
10AA
330
1F
100
AcDbEntity
  8
AM_VIS
100
AcDbLine
 10
398.8373593878388
 20
145.9002607277909
 30
0.0
 11
398.8373593878388
 21
146.4002607277909
 31
0.0
  0
LINE
  5
10AB
330
1F
100
AcDbEntity
  8
AM_VIS
100
AcDbLine
 10
398.8373593878388
 20
145.9002607277909
 30
0.0
 11
398.8373593878388
 21
143.031458574274
 31
0.0
  0
LINE
  5
10AC
330
1F
100
AcDbEntity
  8
AM_VIS
100
AcDbLine
 10
398.8373593878388
 20
143.0314585742739
 30
0.0
 11
398.8373593878388
 21
141.5970574975153
 31
0.0
  0
LINE
  5
10AD
330
1F
100
AcDbEntity
  8
AM_VIS
100
AcDbLine
 10
398.8373593878388
 20
140.5300701994077
 30
0.0
 11
398.8373593878388
 21
141.5970574975155
 31
0.0
  0
LINE
  5
10AE
330
1F
100
AcDbEntity
  8
AM_VIS
100
AcDbLine
 10
398.8373593878388
 20
139.8470574975154
 30
0.0
 11
398.8373593878388
 21
140.5300701994077
 31
0.0
  0
LINE
  5
10AF
330
1F
100
AcDbEntity
  8
AM_VIS
100
AcDbLine
 10
398.8373593878388
 20
139.8470574975154
 30
0.0
 11
398.8373593878388
 21
138.4126564207569
 31
0.0
  0
LINE
  5
10B0
330
1F
100
AcDbEntity
  8
AM_VIS
100
AcDbLine
 10
404.3373593878388
 20
139.8470574975154
 30
0.0
 11
404.3373593878388
 21
138.4126564207569
 31
0.0
  0
LINE
  5
10B1
330
1F
100
AcDbEntity
  8
AM_VIS
100
AcDbLine
 10
404.3373593878388
 20
140.5300701994077
 30
0.0
 11
404.3373593878388
 21
139.8470574975154
 31
0.0
  0
LINE
  5
10B2
330
1F
100
AcDbEntity
  8
AM_VIS
100
AcDbLine
 10
404.3373593878388
 20
141.5970574975155
 30
0.0
 11
404.3373593878388
 21
140.5300701994077
 31
0.0
  0
LINE
  5
10B3
330
1F
100
AcDbEntity
  8
AM_VIS
100
AcDbLine
 10
404.3373593878388
 20
143.0314585742739
 30
0.0
 11
404.3373593878388
 21
141.5970574975153
 31
0.0
  0
LINE
  5
10B4
330
1F
100
AcDbEntity
  8
AM_VIS
100
AcDbLine
 10
404.3373593878388
 20
145.9002607277909
 30
0.0
 11
404.3373593878388
 21
143.031458574274
 31
0.0
  0
LINE
  5
10B5
330
1F
100
AcDbEntity
  8
AM_VIS
100
AcDbLine
 10
404.3373593878388
 20
146.4002607277909
 30
0.0
 11
404.3373593878388
 21
145.9002607277909
 31
0.0
  0
LINE
  5
10B6
330
1F
100
AcDbEntity
  8
AM_VIS
100
AcDbLine
 10
404.3373593878388
 20
148.9002607277909
 30
0.0
 11
404.3373593878388
 21
146.4002607277909
 31
0.0
  0
LINE
  5
10B7
330
1F
100
AcDbEntity
  8
AM_VIS
100
AcDbLine
 10
404.3373593878388
 20
149.4002607277909
 30
0.0
 11
404.3373593878388
 21
148.9002607277909
 31
0.0
  0
LINE
  5
10B8
330
1F
100
AcDbEntity
  8
AM_VIS
100
AcDbLine
 10
404.3373593878388
 20
152.2690628813081
 30
0.0
 11
404.3373593878388
 21
149.4002607277909
 31
0.0
  0
LINE
  5
10B9
330
1F
100
AcDbEntity
  8
AM_VIS
100
AcDbLine
 10
404.3373593878388
 20
153.7034639580665
 30
0.0
 11
404.3373593878388
 21
152.2690628813081
 31
0.0
  0
LINE
  5
10BA
330
1F
100
AcDbEntity
  8
AM_VIS
100
AcDbLine
 10
404.3373593878388
 20
154.7704512561742
 30
0.0
 11
404.3373593878388
 21
153.7034639580665
 31
0.0
  0
LINE
  5
10BB
330
1F
100
AcDbEntity
  8
AM_VIS
100
AcDbLine
 10
404.3373593878388
 20
155.4534639580665
 30
0.0
 11
404.3373593878388
 21
154.7704512561743
 31
0.0
  0
LINE
  5
10BC
330
1F
100
AcDbEntity
  8
AM_VIS
100
AcDbLine
 10
404.3373593878388
 20
156.8878650348251
 30
0.0
 11
404.3373593878388
 21
155.4534639580665
 31
0.0
  0
LINE
  5
10BD
330
1F
100
AcDbEntity
  8
AM_VIS
100
AcDbLine
 10
398.8373593878388
 20
154.400260727791
 30
0.0
 11
397.3373593878386
 21
154.400260727791
 31
0.0
  0
LINE
  5
10BE
330
1F
100
AcDbEntity
  8
AM_VIS
100
AcDbLine
 10
398.8373593878388
 20
140.900260727791
 30
0.0
 11
397.3373593878386
 21
140.900260727791
 31
0.0
  0
LINE
  5
1126
330
1F
100
AcDbEntity
  8
AM_VIS
100
AcDbLine
 10
392.8369178788366
 20
157.0658258939392
 30
0.0
 11
393.3368642147412
 21
156.7993317767941
 31
0.0
  0
LINE
  5
1127
330
1F
100
AcDbEntity
  8
AM_VIS
100
AcDbLine
 10
392.8373593878388
 20
157.066654170414
 30
0.0
 11
391.6873593878388
 21
157.066654170414
 31
0.0
  0
LINE
  5
1128
330
1F
100
AcDbEntity
  8
AM_VIS
100
AcDbLine
 10
391.6873593878388
 20
155.2737020186533
 30
0.0
 11
392.8373593878388
 21
155.2737020186533
 31
0.0
  0
LINE
  5
1129
330
1F
100
AcDbEntity
  8
AM_VIS
100
AcDbLine
 10
392.8433268094349
 20
155.2772772857155
 30
0.0
 11
393.3438969867138
 21
154.4417835353842
 31
0.0
  0
SPLINE
  5
112A
330
1F
100
AcDbEntity
  8
AM_VIS
100
AcDbSpline
210
0.0
220
0.0
230
1.0
 70
     8
 71
     3
 72
     8
 73
     4
 74
     0
 42
0.0000000001
 43
0.0000000001
 40
7.860869800051694
 40
7.860869800051694
 40
7.860869800051694
 40
7.860869800051694
 40
8.796716658530822
 40
8.796716658530822
 40
8.796716658530822
 40
8.796716658530822
 10
393.3373593878388
 20
150.0126547981235
 30
0.0
 10
393.1863203518023
 20
149.8086721148969
 30
0.0
 10
393.0172207360568
 20
149.6186976323657
 30
0.0
 10
392.8373593878388
 20
149.4432128795517
 30
0.0
  0
LINE
  5
112B
330
1F
100
AcDbEntity
  8
AM_VIS
100
AcDbLine
 10
392.8373593878388
 20
149.4432128795517
 30
0.0
 11
391.6873593878388
 21
149.4432128795517
 31
0.0
  0
LINE
  5
112C
330
1F
100
AcDbEntity
  8
AM_VIS
100
AcDbLine
 10
391.6873593878388
 20
145.8573085760303
 30
0.0
 11
392.8373593878388
 21
145.8573085760303
 31
0.0
  0
SPLINE
  5
112D
330
1F
100
AcDbEntity
  8
AM_VIS
100
AcDbSpline
210
0.0
220
0.0
230
1.0
 70
     8
 71
     3
 72
     8
 73
     4
 74
     0
 42
0.0000000001
 43
0.0000000001
 40
1.630155803927018
 40
1.630155803927018
 40
1.630155803927018
 40
1.630155803927018
 40
2.566002662426991
 40
2.566002662426991
 40
2.566002662426991
 40
2.566002662426991
 10
392.8373593878387
 20
145.8573085760303
 30
0.0
 10
393.017220621034
 20
145.6818239354404
 30
0.0
 10
393.1863202424074
 20
145.4918494884262
 30
0.0
 10
393.3373593878387
 20
145.2878666574586
 30
0.0
  0
LINE
  5
112E
330
1F
100
AcDbEntity
  8
AM_VIS
100
AcDbLine
 10
392.8433268063364
 20
140.023244171674
 30
0.0
 11
393.3438969886378
 21
140.8587379189914
 31
0.0
  0
LINE
  5
112F
330
1F
100
AcDbEntity
  8
AM_VIS
100
AcDbLine
 10
392.8373593878388
 20
140.0268194369286
 30
0.0
 11
391.6873593878388
 21
140.0268194369286
 31
0.0
  0
LINE
  5
1130
330
1F
100
AcDbEntity
  8
AM_VIS
100
AcDbLine
 10
391.6873593878388
 20
138.2338672851681
 30
0.0
 11
392.8373593878388
 21
138.2338672851681
 31
0.0
  0
LINE
  5
1131
330
1F
100
AcDbEntity
  8
AM_VIS
100
AcDbLine
 10
392.8369178790215
 20
138.2346955612908
 30
0.0
 11
393.3368642142519
 21
138.5011896796999
 31
0.0
  0
LINE
  5
1132
330
1F
100
AcDbEntity
  8
AM_VIS
100
AcDbLine
 10
390.1873593878388
 20
140.0268194369286
 30
0.0
 11
387.3373593878388
 21
140.0268194369286
 31
0.0
  0
LINE
  5
1133
330
1F
100
AcDbEntity
  8
AM_VIS
100
AcDbLine
 10
387.3373593878388
 20
138.2338672851681
 30
0.0
 11
390.1873593878388
 21
138.2338672851681
 31
0.0
  0
LINE
  5
1134
330
1F
100
AcDbEntity
  8
AM_VIS
100
AcDbLine
 10
390.1873593878388
 20
149.4432128795517
 30
0.0
 11
387.3373593878388
 21
149.4432128795517
 31
0.0
  0
LINE
  5
1135
330
1F
100
AcDbEntity
  8
AM_VIS
100
AcDbLine
 10
387.3373593878388
 20
145.8573085760303
 30
0.0
 11
390.1873593878388
 21
145.8573085760303
 31
0.0
  0
LINE
  5
1136
330
1F
100
AcDbEntity
  8
AM_VIS
100
AcDbLine
 10
387.3373593878388
 20
155.2737020186533
 30
0.0
 11
390.1873593878388
 21
155.2737020186533
 31
0.0
  0
LINE
  5
1137
330
1F
100
AcDbEntity
  8
AM_VIS
100
AcDbLine
 10
390.1873593878388
 20
157.066654170414
 30
0.0
 11
387.3373593878388
 21
157.066654170414
 31
0.0
  0
LINE
  5
1138
330
1F
100
AcDbEntity
  8
AM_VIS
100
AcDbLine
 10
387.2420390151093
 20
156.4501548597412
 30
0.0
 11
387.338056474235
 21
157.0665455826917
 31
0.0
  0
LINE
  5
1139
330
1F
100
AcDbEntity
  8
AM_VIS
100
AcDbLine
 10
387.2898998372944
 20
149.4432516370447
 30
0.0
 11
387.2946612602211
 21
155.2737368877653
 31
0.0
  0
LINE
  5
113A
330
1F
100
AcDbEntity
  8
AM_VIS
100
AcDbLine
 10
387.2898998372944
 20
145.8572698185372
 30
0.0
 11
387.2946612602211
 21
140.0267845678165
 31
0.0
  0
LINE
  5
113B
330
1F
100
AcDbEntity
  8
AM_VIS
100
AcDbLine
 10
387.2420390151093
 20
138.8503665958406
 30
0.0
 11
387.338056474235
 21
138.2339758728901
 31
0.0
  0
CIRCLE
  5
113C
330
1F
100
AcDbEntity
  8
AM_VIS
100
AcDbCircle
 10
390.9373593878388
 20
145.6502607277909
 30
0.0
 40
0.5000000000000027
  0
CIRCLE
  5
113D
330
1F
100
AcDbEntity
  8
AM_VIS
100
AcDbCircle
 10
390.9373593878388
 20
149.6502607277909
 30
0.0
 40
0.5000000000000032
  0
SPLINE
  5
113E
330
1F
100
AcDbEntity
  8
AM_VIS
100
AcDbSpline
210
0.0
220
0.0
230
1.0
 70
    11
 71
     3
 72
    60
 73
    56
 74
     0
 42
0.0000000001
 43
0.0000000001
 40
-3.339179844007151
 40
-3.339179844007151
 40
-3.339179844007151
 40
-3.339179844007151
 40
-3.338178520696156
 40
-3.338178520696156
 40
-3.307426451266925
 40
-3.307426451266925
 40
-3.260257452756732
 40
-3.260257452756732
 40
-3.131698041358982
 40
-3.131698041358982
 40
-2.911444239533808
 40
-2.911444239533808
 40
-2.707105948080839
 40
-2.707105948080839
 40
-2.555612065231917
 40
-2.555612065231917
 40
-2.41171336204705
 40
-2.41171336204705
 40
-2.246665158525234
 40
-2.246665158525234
 40
-2.021546198507155
 40
-2.021546198507155
 40
-1.783002479289418
 40
-1.783002479289418
 40
-1.68307629336666
 40
-1.68307629336666
 40
-1.640889767965192
 40
-1.640889767965192
 40
-1.610262997986963
 40
-1.610262997986963
 40
-1.578336364028082
 40
-1.578336364028082
 40
-1.529528059672249
 40
-1.529528059672249
 40
-1.393989387710077
 40
-1.393989387710077
 40
-1.223638689239261
 40
-1.223638689239261
 40
-1.012165487156113
 40
-1.012165487156113
 40
-0.8368093105576882
 40
-0.8368093105576882
 40
-0.6617329507481107
 40
-0.6617329507481107
 40
-0.4713557789971429
 40
-0.4713557789971429
 40
-0.3001652836474973
 40
-0.3001652836474973
 40
-0.1716500352891663
 40
-0.1716500352891663
 40
-0.0705730179627588
 40
-0.0705730179627588
 40
-0.0295050875810497
 40
-0.0295050875810497
 40
0.0
 40
0.0
 40
0.0
 40
0.0
 10
391.4373593878388
 20
153.9687860366546
 30
0.0
 10
391.4373593878388
 20
153.9687212611312
 30
0.0
 10
391.4373590662105
 20
153.9686561780542
 30
0.0
 10
391.437338679049
 20
153.9665825588081
 30
0.0
 10
391.4370161701609
 20
153.9642877298674
 30
0.0
 10
391.4354625124472
 20
153.9577839599279
 30
0.0
 10
391.433842348623
 20
153.9532224463551
 30
0.0
 10
391.4254632267391
 20
153.9342071788955
 30
0.0
 10
391.4147047781601
 20
153.9163363717659
 30
0.0
 10
391.3758193367039
 20
153.8630490559273
 30
0.0
 10
391.3400989614058
 20
153.8234067638878
 30
0.0
 10
391.2544909209389
 20
153.7523743269511
 30
0.0
 10
391.2045767003068
 20
153.7194855478396
 30
0.0
 10
391.1043243951219
 20
153.6761082871431
 30
0.0
 10
391.0578024199483
 20
153.6621997240737
 30
0.0
 10
390.9613691736645
 20
153.6486329843128
 30
0.0
 10
390.9138638089832
 20
153.6486103599397
 30
0.0
 10
390.8130310942803
 20
153.662689893593
 30
0.0
 10
390.7627155940103
 20
153.6784504404007
 30
0.0
 10
390.654821496032
 20
153.7277563428931
 30
0.0
 10
390.6018421698673
 20
153.765398250039
 30
0.0
 10
390.5146448653249
 20
153.8436939228795
 30
0.0
 10
390.48063445417
 20
153.8853751904853
 30
0.0
 10
390.4513614171384
 20
153.9310892271055
 30
0.0
 10
390.4449353290512
 20
153.9431252334042
 30
0.0
 10
390.4395841827234
 20
153.9569128316897
 30
0.0
 10
390.4384760997458
 20
153.9605768624459
 30
0.0
 10
390.437443929076
 20
153.9660815257346
 30
0.0
 10
390.4372798632792
 20
153.9681406345059
 30
0.0
 10
390.4375152811545
 20
153.9718017754663
 30
0.0
 10
390.4379385867697
 20
153.9733751281191
 30
0.0
 10
390.4397953077181
 20
153.9765986469492
 30
0.0
 10
390.4416368143627
 20
153.9778365713412
 30
0.0
 10
390.4513565378072
 20
153.9799318901078
 30
0.0
 10
390.4639261661876
 20
153.9761204956173
 30
0.0
 10
390.5034410658205
 20
153.9599688702769
 30
0.0
 10
390.5329437828436
 20
153.945960044538
 30
0.0
 10
390.6123537169183
 20
153.913231102739
 30
0.0
 10
390.6668825805547
 20
153.8935770790678
 30
0.0
 10
390.7828339142121
 20
153.8667292795234
 30
0.0
 10
390.8395178921845
 20
153.8584689908212
 30
0.0
 10
390.9569565295852
 20
153.8534121909814
 30
0.0
 10
391.0154491509776
 20
153.8566976384623
 30
0.0
 10
391.1326291776484
 20
153.8741382917663
 30
0.0
 10
391.1889189141762
 20
153.8889422899862
 30
0.0
 10
391.2824557941057
 20
153.9206936301715
 30
0.0
 10
391.3208460008635
 20
153.9371936329293
 30
0.0
 10
391.3751572657787
 20
153.9612354576379
 30
0.0
 10
391.3943260086454
 20
153.969952737248
 30
0.0
 10
391.4197757839797
 20
153.9785255692769
 30
0.0
 10
391.4277841578257
 20
153.9797959879257
 30
0.0
 10
391.4343842580635
 20
153.9769513485908
 30
0.0
 10
391.435725268369
 20
153.9755962490072
 30
0.0
 10
391.4370803396177
 20
153.9723338232696
 30
0.0
 10
391.4373593878388
 20
153.9706947183701
 30
0.0
 10
391.4373593878388
 20
153.9687860366546
 30
0.0
  0
SPLINE
  5
113F
330
1F
100
AcDbEntity
  8
AM_VIS
100
AcDbSpline
210
0.0
220
0.0
230
1.0
 70
    11
 71
     3
 72
    60
 73
    56
 74
     0
 42
0.0000000001
 43
0.0000000001
 40
-3.310750712675267
 40
-3.310750712675267
 40
-3.310750712675267
 40
-3.310750712675267
 40
-3.302671058984876
 40
-3.302671058984876
 40
-3.271516879510693
 40
-3.271516879510693
 40
-3.222342999429264
 40
-3.222342999429264
 40
-3.075760487402914
 40
-3.075760487402914
 40
-2.908994889965218
 40
-2.908994889965218
 40
-2.706317538966567
 40
-2.706317538966567
 40
-2.531583211337051
 40
-2.531583211337051
 40
-2.354322289646501
 40
-2.354322289646501
 40
-2.162856293812898
 40
-2.162856293812898
 40
-1.9956350582507
 40
-1.9956350582507
 40
-1.870614094115674
 40
-1.870614094115674
 40
-1.777653161876574
 40
-1.777653161876574
 40
-1.737876373501145
 40
-1.737876373501145
 40
-1.708569587889657
 40
-1.708569587889657
 40
-1.677597532413463
 40
-1.677597532413463
 40
-1.629510029878501
 40
-1.629510029878501
 40
-1.495143875453877
 40
-1.495143875453877
 40
-1.274685715445243
 40
-1.274685715445243
 40
-1.073136030474862
 40
-1.073136030474862
 40
-0.9227343317410326
 40
-0.9227343317410326
 40
-0.7786617880773386
 40
-0.7786617880773386
 40
-0.6125360661034436
 40
-0.6125360661034436
 40
-0.387951396605326
 40
-0.387951396605326
 40
-0.2081380036628064
 40
-0.2081380036628064
 40
-0.0765520961400526
 40
-0.0765520961400526
 40
-0.0305115657458678
 40
-0.0305115657458678
 40
0.0
 40
0.0
 40
0.0
 40
0.0
 10
391.4373593878388
 20
141.3317354189274
 30
0.0
 10
391.4373593878388
 20
141.3312127467873
 30
0.0
 10
391.4373384482535
 20
141.3307101613666
 30
0.0
 10
391.4371342040033
 20
141.3283679869601
 30
0.0
 10
391.4366585706991
 20
141.3268133633573
 30
0.0
 10
391.4346023669529
 20
141.3236003308154
 30
0.0
 10
391.4325513446149
 20
141.3224166115784
 30
0.0
 10
391.4211755645613
 20
141.3206822237539
 30
0.0
 10
391.4057913999167
 20
141.3261292274102
 30
0.0
 10
391.3599371837521
 20
141.3457472014622
 30
0.0
 10
391.3279462634707
 20
141.3607411219917
 30
0.0
 10
391.2437715319993
 20
141.3940832085406
 30
0.0
 10
391.1885062606235
 20
141.4124844377923
 30
0.0
 10
391.0736882265162
 20
141.4367576196219
 30
0.0
 10
391.0168578796197
 20
141.4438261630003
 30
0.0
 10
390.8990697247276
 20
141.4465542601249
 30
0.0
 10
390.840402845844
 20
141.4419878854631
 30
0.0
 10
390.7243043398291
 20
141.4222836254824
 30
0.0
 10
390.6691209775902
 20
141.4066090001617
 30
0.0
 10
390.5795646484472
 20
141.3746670708483
 30
0.0
 10
390.5435203019857
 20
141.3587705346186
 30
0.0
 10
390.4929886445128
 20
141.3363469288428
 30
0.0
 10
390.4753466157728
 20
141.328511790749
 30
0.0
 10
390.4527778790313
 20
141.3216318665407
 30
0.0
 10
390.4458801868278
 20
141.3209061999721
 30
0.0
 10
390.4400274065613
 20
141.3238422180828
 30
0.0
 10
390.4388017363629
 20
141.3252216763634
 30
0.0
 10
390.4375694154225
 20
141.3284993563784
 30
0.0
 10
390.4373288423371
 20
141.3301603350981
 30
0.0
 10
390.4373980260686
 20
141.3341216745621
 30
0.0
 10
390.4377397272143
 20
141.3364471869635
 30
0.0
 10
390.4393628708849
 20
141.3430861779294
 30
0.0
 10
390.4410547154957
 20
141.3477716442542
 30
0.0
 10
390.4499465283296
 20
141.3676761240823
 30
0.0
 10
390.4615351734502
 20
141.3866347963347
 30
0.0
 10
390.5023075767906
 20
141.4414527636853
 30
0.0
 10
390.5387432543286
 20
141.4812250018953
 30
0.0
 10
390.6252209882867
 20
141.5515845361092
 30
0.0
 10
390.6750091325391
 20
141.5837071852285
 30
0.0
 10
390.7749910483598
 20
141.6259392220992
 30
0.0
 10
390.8214536299561
 20
141.6393723602968
 30
0.0
 10
390.9179718068982
 20
141.6521062805815
 30
0.0
 10
390.9656183235088
 20
141.6516740749711
 30
0.0
 10
391.0667999594305
 20
141.6365745867154
 30
0.0
 10
391.1172856155644
 20
141.620183684502
 30
0.0
 10
391.2246564584015
 20
141.5698021310782
 30
0.0
 10
391.2771018557486
 20
141.5318734895788
 30
0.0
 10
391.3523437099824
 20
141.4632879682163
 30
0.0
 10
391.3799175451623
 20
141.4317938433588
 30
0.0
 10
391.4148178233929
 20
141.384075104594
 30
0.0
 10
391.425810753108
 20
141.3657630898482
 30
0.0
 10
391.4340580613447
 20
141.3467176977941
 30
0.0
 10
391.4355916989444
 20
141.3423058512355
 30
0.0
 10
391.4370609678331
 20
141.3359662796726
 30
0.0
 10
391.4373593878388
 20
141.3337092096334
 30
0.0
 10
391.4373593878388
 20
141.3317354189274
 30
0.0
  0
CIRCLE
  5
1140
330
1F
100
AcDbEntity
  8
AM_VIS
100
AcDbCircle
 10
390.9373593878388
 20
147.6502607277909
 30
0.0
 40
0.5000000000000014
  0
LINE
  5
1141
330
1F
100
AcDbEntity
  8
AM_VIS
100
AcDbLine
 10
387.1373593878388
 20
140.150260727791
 30
0.0
 11
387.2413593878388
 21
138.8502607277911
 31
0.0
  0
LINE
  5
1142
330
1F
100
AcDbEntity
  8
AM_VIS
100
AcDbLine
 10
387.1373593878388
 20
155.150260727791
 30
0.0
 11
387.2413593878388
 21
156.450260727791
 31
0.0
  0
LINE
  5
1143
330
1F
100
AcDbEntity
  8
AM_VIS
100
AcDbLine
 10
386.3373593878388
 20
155.150260727791
 30
0.0
 11
385.8373593878388
 21
157.650260727791
 31
0.0
  0
LINE
  5
1144
330
1F
100
AcDbEntity
  8
AM_VIS
100
AcDbLine
 10
386.3373593878388
 20
140.150260727791
 30
0.0
 11
385.8373593878388
 21
137.650260727791
 31
0.0
  0
LINE
  5
1145
330
1F
100
AcDbEntity
  8
AM_VIS
100
AcDbLine
 10
386.3373593878388
 20
140.150260727791
 30
0.0
 11
387.1373593878388
 21
140.150260727791
 31
0.0
  0
LINE
  5
1146
330
1F
100
AcDbEntity
  8
AM_VIS
100
AcDbLine
 10
386.3373593878388
 20
155.150260727791
 30
0.0
 11
387.1373593878388
 21
155.150260727791
 31
0.0
  0
LINE
  5
1147
330
1F
100
AcDbEntity
  8
AM_VIS
100
AcDbLine
 10
385.3373593878388
 20
137.650260727791
 30
0.0
 11
385.8373593878388
 21
137.650260727791
 31
0.0
  0
LINE
  5
1148
330
1F
100
AcDbEntity
  8
AM_VIS
100
AcDbLine
 10
385.3373593878388
 20
157.650260727791
 30
0.0
 11
385.8373593878388
 21
157.650260727791
 31
0.0
  0
LINE
  5
1149
330
1F
100
AcDbEntity
  8
AM_VIS
100
AcDbLine
 10
392.8373593878388
 20
138.2338672851681
 30
0.0
 11
392.8373593878388
 21
140.0268194369286
 31
0.0
  0
LINE
  5
114A
330
1F
100
AcDbEntity
  8
AM_VIS
100
AcDbLine
 10
392.8373593878388
 20
145.8573085760303
 30
0.0
 11
392.8373593878388
 21
149.4432128795517
 31
0.0
  0
LINE
  5
114B
330
1F
100
AcDbEntity
  8
AM_VIS
100
AcDbLine
 10
392.8373593878388
 20
155.2737020186533
 30
0.0
 11
392.8373593878388
 21
157.066654170414
 31
0.0
  0
LINE
  5
114C
330
1F
100
AcDbEntity
  8
AM_VIS
100
AcDbLine
 10
391.6873593878388
 20
155.2737020186533
 30
0.0
 11
391.6873593878388
 21
157.066654170414
 31
0.0
  0
LINE
  5
114D
330
1F
100
AcDbEntity
  8
AM_VIS
100
AcDbLine
 10
391.6873593878388
 20
155.2737020186533
 30
0.0
 11
391.6873593878388
 21
149.4432128795516
 31
0.0
  0
LINE
  5
114E
330
1F
100
AcDbEntity
  8
AM_VIS
100
AcDbLine
 10
391.6873593878388
 20
145.8573085760303
 30
0.0
 11
391.6873593878388
 21
149.4432128795517
 31
0.0
  0
LINE
  5
114F
330
1F
100
AcDbEntity
  8
AM_VIS
100
AcDbLine
 10
391.6873593878388
 20
145.8573085760303
 30
0.0
 11
391.6873593878388
 21
140.0268194369286
 31
0.0
  0
LINE
  5
1150
330
1F
100
AcDbEntity
  8
AM_VIS
100
AcDbLine
 10
391.6873593878388
 20
138.2338672851681
 30
0.0
 11
391.6873593878388
 21
140.0268194369286
 31
0.0
  0
LINE
  5
1151
330
1F
100
AcDbEntity
  8
AM_VIS
100
AcDbLine
 10
390.1873593878388
 20
140.0268194369286
 30
0.0
 11
390.1873593878388
 21
145.8573085760303
 31
0.0
  0
LINE
  5
1152
330
1F
100
AcDbEntity
  8
AM_VIS
100
AcDbLine
 10
390.1873593878388
 20
149.4432128795516
 30
0.0
 11
390.1873593878388
 21
155.2737020186535
 31
0.0
  0
LINE
  5
1153
330
1F
100
AcDbEntity
  8
AM_VIS
100
AcDbLine
 10
390.1873593878388
 20
140.0268194369286
 30
0.0
 11
390.1873593878388
 21
138.2338672851681
 31
0.0
  0
LINE
  5
1154
330
1F
100
AcDbEntity
  8
AM_VIS
100
AcDbLine
 10
390.1873593878388
 20
149.4432128795517
 30
0.0
 11
390.1873593878388
 21
145.8573085760303
 31
0.0
  0
LINE
  5
1155
330
1F
100
AcDbEntity
  8
AM_VIS
100
AcDbLine
 10
390.1873593878388
 20
157.066654170414
 30
0.0
 11
390.1873593878388
 21
155.2737020186533
 31
0.0
  0
LINE
  5
1156
330
1F
100
AcDbEntity
  8
AM_VIS
100
AcDbLine
 10
387.3373593878388
 20
155.2737020186533
 30
0.0
 11
387.3373593878388
 21
157.066654170414
 31
0.0
  0
LINE
  5
1157
330
1F
100
AcDbEntity
  8
AM_VIS
100
AcDbLine
 10
387.3373593878388
 20
145.8573085760303
 30
0.0
 11
387.3373593878388
 21
149.4432128795517
 31
0.0
  0
LINE
  5
1158
330
1F
100
AcDbEntity
  8
AM_VIS
100
AcDbLine
 10
387.3373593878388
 20
138.2338672851681
 30
0.0
 11
387.3373593878388
 21
140.0268194369286
 31
0.0
  0
LINE
  5
1159
330
1F
100
AcDbEntity
  8
AM_VIS
100
AcDbLine
 10
387.1373593878388
 20
140.150260727791
 30
0.0
 11
387.1373593878388
 21
155.150260727791
 31
0.0
  0
LINE
  5
115A
330
1F
100
AcDbEntity
  8
AM_VIS
100
AcDbLine
 10
386.3373593878388
 20
140.150260727791
 30
0.0
 11
386.3373593878388
 21
155.150260727791
 31
0.0
  0
LINE
  5
115B
330
1F
100
AcDbEntity
  8
AM_VIS
100
AcDbLine
 10
385.8373593878388
 20
157.650260727791
 30
0.0
 11
385.8373593878388
 21
137.650260727791
 31
0.0
  0
LINE
  5
115C
330
1F
100
AcDbEntity
  8
AM_VIS
100
AcDbLine
 10
393.3373593878388
 20
140.8626547981234
 30
0.0
 11
393.3373593878388
 21
138.500260727791
 31
0.0
  0
LINE
  5
115D
330
1F
100
AcDbEntity
  8
AM_VIS
100
AcDbLine
 10
393.3373593878388
 20
145.2878666574586
 30
0.0
 11
393.3373593878388
 21
140.8626547981234
 31
0.0
  0
LINE
  5
115E
330
1F
100
AcDbEntity
  8
AM_VIS
100
AcDbLine
 10
393.3373593878388
 20
150.0126547981235
 30
0.0
 11
393.3373593878388
 21
145.2878666574586
 31
0.0
  0
LINE
  5
115F
330
1F
100
AcDbEntity
  8
AM_VIS
100
AcDbLine
 10
393.3373593878388
 20
154.4378666574586
 30
0.0
 11
393.3373593878388
 21
150.0126547981235
 31
0.0
  0
LINE
  5
1160
330
1F
100
AcDbEntity
  8
AM_VIS
100
AcDbLine
 10
393.3373593878388
 20
156.800260727791
 30
0.0
 11
393.3373593878388
 21
154.4378666574585
 31
0.0
  0
ARC
  5
1161
330
1F
100
AcDbEntity
  8
AM_VIS
100
AcDbCircle
 10
390.9373593878388
 20
154.650260727791
 30
0.0
 40
0.75
100
AcDbArc
 50
180.0
 51
0.0
  0
ARC
  5
1162
330
1F
100
AcDbEntity
  8
AM_VIS
100
AcDbCircle
 10
390.9373593878388
 20
140.650260727791
 30
0.0
 40
0.75
100
AcDbArc
 50
0.0
 51
180.0
  0
LINE
  5
1168
330
1F
100
AcDbEntity
  8
AM_VIS
100
AcDbLine
 10
385.3373593878388
 20
158.650260727791
 30
0.0
 11
355.8373593878388
 21
158.650260727791
 31
0.0
  0
LINE
  5
1169
330
1F
100
AcDbEntity
  8
AM_VIS
100
AcDbLine
 10
385.3373593878388
 20
140.650260727791
 30
0.0
 11
385.3373593878388
 21
154.650260727791
 31
0.0
  0
LINE
  5
116A
330
1F
100
AcDbEntity
  8
AM_VIS
100
AcDbLine
 10
355.8373593878388
 20
136.6502607277911
 30
0.0
 11
385.3373593878388
 21
136.6502607277911
 31
0.0
  0
LINE
  5
116B
330
1F
100
AcDbEntity
  8
AM_VIS
100
AcDbLine
 10
385.3373593878388
 20
158.650260727791
 30
0.0
 11
385.3373593878388
 21
154.650260727791
 31
0.0
  0
LINE
  5
116C
330
1F
100
AcDbEntity
  8
AM_VIS
100
AcDbLine
 10
385.3373593878388
 20
140.650260727791
 30
0.0
 11
385.3373593878388
 21
136.650260727791
 31
0.0
  0
LINE
  5
116D
330
1F
100
AcDbEntity
  8
AM_VIS
100
AcDbLine
 10
329.8373593878387
 20
162.6502607277914
 30
0.0
 11
329.837359387858
 21
162.6502607277917
 31
0.0
  0
LINE
  5
1170
330
1F
100
AcDbEntity
  8
AM_VIS
100
AcDbLine
 10
329.8373593878387
 20
133.1502607277914
 30
0.0
 11
329.8373593878387
 21
162.1502607277914
 31
0.0
  0
LINE
  5
1171
330
1F
100
AcDbEntity
  8
AM_VIS
100
AcDbLine
 10
329.837359387858
 20
162.6502607277917
 30
0.0
 11
329.837359387858
 21
162.1502607277917
 31
0.0
  0
LINE
  5
1172
330
1F
100
AcDbEntity
  8
AM_VIS
100
AcDbLine
 10
329.837359387858
 20
162.1502607277917
 30
0.0
 11
329.837359387858
 21
133.1502607277917
 31
0.0
  0
LINE
  5
1173
330
1F
100
AcDbEntity
  8
AM_VIS
100
AcDbLine
 10
329.837359387858
 20
133.1502607277917
 30
0.0
 11
329.837359387858
 21
132.6502607277917
 31
0.0
  0
LINE
  5
1174
330
1F
100
AcDbEntity
  8
AM_VIS
100
AcDbLine
 10
329.8373593878579
 20
132.6502607277917
 30
0.0
 11
329.8373593878387
 21
132.6502607277914
 31
0.0
  0
LINE
  5
1195
330
1F
100
AcDbEntity
  8
AM_VIS
100
AcDbLine
 10
255.837359387858
 20
132.6502607277914
 30
0.0
 11
329.837359387858
 21
132.6502607277914
 31
0.0
  0
LINE
  5
1196
330
1F
100
AcDbEntity
  8
AM_VIS
100
AcDbLine
 10
329.837359387858
 20
162.6502607277914
 30
0.0
 11
255.837359387858
 21
162.6502607277914
 31
0.0
  0
LINE
  5
1197
330
1F
100
AcDbEntity
  8
AM_VIS
100
AcDbLine
 10
329.837359387858
 20
132.6502607277914
 30
0.0
 11
329.837359387858
 21
133.1502607277914
 31
0.0
  0
LINE
  5
1198
330
1F
100
AcDbEntity
  8
AM_VIS
100
AcDbLine
 10
329.837359387858
 20
162.1502607277914
 30
0.0
 11
329.837359387858
 21
162.6502607277914
 31
0.0
  0
LINE
  5
1199
330
1F
100
AcDbEntity
  8
AM_VIS
100
AcDbLine
 10
329.837359387858
 20
133.1502607277914
 30
0.0
 11
329.837359387858
 21
162.1502607277914
 31
0.0
  0
LINE
  5
119A
330
1F
100
AcDbEntity
  8
AM_VIS
100
AcDbLine
 10
255.837359387858
 20
162.1502607277914
 30
0.0
 11
255.837359387858
 21
133.1502607277914
 31
0.0
  0
CIRCLE
  5
11AD
330
1F
100
AcDbEntity
  8
AM_VIS
100
AcDbCircle
 10
322.837359387858
 20
160.1502607277914
 30
0.0
 40
1.6
  0
CIRCLE
  5
11AE
330
1F
100
AcDbEntity
  8
AM_VIS
100
AcDbCircle
 10
262.8373593878579
 20
135.1502607277914
 30
0.0
 40
1.6
  0
ARC
  5
11AF
330
1F
100
AcDbEntity
  8
AM_VIS
100
AcDbCircle
 10
462.6966259004102
 20
250.8999306851833
 30
0.0
 40
4.199999999999988
100
AcDbArc
 50
135.58469140281
 51
213.5573097619177
  0
LINE
  5
11B0
330
1F
100
AcDbEntity
  8
AM_VIS
100
AcDbLine
 10
481.6916259004102
 20
211.6499306851832
 30
0.0
 11
480.7016259004102
 21
211.6499306851832
 31
0.0
  0
LINE
  5
11B1
330
1F
100
AcDbEntity
  8
AM_VIS
100
AcDbLine
 10
480.7016259004102
 20
211.6499306851832
 30
0.0
 11
480.7016259004102
 21
213.0226140807095
 31
0.0
  0
LINE
  5
11B2
330
1F
100
AcDbEntity
  8
AM_VIS
100
AcDbLine
 10
481.6916259004102
 20
213.8999306851833
 30
0.0
 11
481.1966259004102
 21
213.8999306851833
 31
0.0
  0
LINE
  5
11B3
330
1F
100
AcDbEntity
  8
AM_VIS
100
AcDbLine
 10
480.7016259004102
 20
216.1499306851832
 30
0.0
 11
481.6916259004102
 21
216.1499306851832
 31
0.0
  0
LINE
  5
11B4
330
1F
100
AcDbEntity
  8
AM_VIS
100
AcDbLine
 10
481.1966259004102
 20
213.8999306851833
 30
0.0
 11
480.7016259004102
 21
213.8999306851833
 31
0.0
  0
LINE
  5
11B5
330
1F
100
AcDbEntity
  8
AM_VIS
100
AcDbLine
 10
481.6916259004102
 20
216.1499306851832
 30
0.0
 11
481.6916259004102
 21
214.777247289657
 31
0.0
  0
LINE
  5
11B6
330
1F
100
AcDbEntity
  8
AM_VIS
100
AcDbLine
 10
480.7016259004102
 20
214.3949306851832
 30
0.0
 11
480.7016259004102
 21
213.4049306851832
 31
0.0
  0
LINE
  5
11B7
330
1F
100
AcDbEntity
  8
AM_VIS
100
AcDbLine
 10
478.9466259004102
 20
213.4049306851832
 30
0.0
 11
478.9466259004102
 21
214.3949306851832
 31
0.0
  0
LINE
  5
11B8
330
1F
100
AcDbEntity
  8
AM_VIS
100
AcDbLine
 10
481.1966259004102
 20
213.8999306851833
 30
0.0
 11
480.7016259004102
 21
214.3949306851832
 31
0.0
  0
LINE
  5
11B9
330
1F
100
AcDbEntity
  8
AM_VIS
100
AcDbLine
 10
480.7016259004101
 20
213.4049306851832
 30
0.0
 11
481.1966259004102
 21
213.8999306851832
 31
0.0
  0
LINE
  5
11BA
330
1F
100
AcDbEntity
  8
AM_VIS
100
AcDbLine
 10
481.1966259004102
 20
213.8999306851833
 30
0.0
 11
481.1966259004102
 21
214.3949306851832
 31
0.0
  0
LINE
  5
11BB
330
1F
100
AcDbEntity
  8
AM_VIS
100
AcDbLine
 10
481.6916259004102
 20
214.3949306851832
 30
0.0
 11
481.1966259004102
 21
213.8999306851833
 31
0.0
  0
LINE
  5
11BC
330
1F
100
AcDbEntity
  8
AM_VIS
100
AcDbLine
 10
481.6916259004102
 20
213.4049306851832
 30
0.0
 11
481.6916259004102
 21
214.3949306851832
 31
0.0
  0
LINE
  5
11BD
330
1F
100
AcDbEntity
  8
AM_VIS
100
AcDbLine
 10
483.4466259004102
 20
214.3949306851831
 30
0.0
 11
483.4466259004102
 21
213.4049306851831
 31
0.0
  0
LINE
  5
11BE
330
1F
100
AcDbEntity
  8
AM_VIS
100
AcDbLine
 10
481.1966259004102
 20
213.4049306851832
 30
0.0
 11
481.1966259004102
 21
213.8999306851833
 31
0.0
  0
LINE
  5
11BF
330
1F
100
AcDbEntity
  8
AM_VIS
100
AcDbLine
 10
481.1966259004102
 20
213.8999306851833
 30
0.0
 11
481.6916259004102
 21
213.4049306851832
 31
0.0
  0
LINE
  5
11C0
330
1F
100
AcDbEntity
  8
AM_VIS
100
AcDbLine
 10
478.9466259004102
 20
214.3949306851832
 30
0.0
 11
480.3193092959365
 21
214.3949306851832
 31
0.0
  0
LINE
  5
11C1
330
1F
100
AcDbEntity
  8
AM_VIS
100
AcDbLine
 10
480.7016259004102
 20
214.3949306851832
 30
0.0
 11
481.6916259004102
 21
214.3949306851832
 31
0.0
  0
LINE
  5
11C2
330
1F
100
AcDbEntity
  8
AM_VIS
100
AcDbLine
 10
483.4466259004102
 20
213.4049306851831
 30
0.0
 11
482.0739425048841
 21
213.4049306851831
 31
0.0
  0
LINE
  5
11C3
330
1F
100
AcDbEntity
  8
AM_VIS
100
AcDbLine
 10
481.6916259004102
 20
213.4049306851832
 30
0.0
 11
480.7016259004101
 21
213.4049306851832
 31
0.0
  0
LINE
  5
11C4
330
1F
100
AcDbEntity
  8
AM_VIS
100
AcDbLine
 10
480.7016259004102
 20
214.7772472896567
 30
0.0
 11
480.7016259004102
 21
216.1499306851832
 31
0.0
  0
LINE
  5
11C5
330
1F
100
AcDbEntity
  8
AM_VIS
100
AcDbLine
 10
481.6916259004102
 20
213.0226140807098
 30
0.0
 11
481.6916259004102
 21
211.6499306851832
 31
0.0
  0
LINE
  5
11C6
330
1F
100
AcDbEntity
  8
AM_VIS
100
AcDbLine
 10
482.0739425048835
 20
214.3949306851831
 30
0.0
 11
483.4466259004102
 21
214.3949306851831
 31
0.0
  0
LINE
  5
11C7
330
1F
100
AcDbEntity
  8
AM_VIS
100
AcDbLine
 10
480.3193092959368
 20
213.4049306851832
 30
0.0
 11
478.9466259004102
 21
213.4049306851832
 31
0.0
  0
LINE
  5
11C8
330
1F
100
AcDbEntity
  8
AM_VIS
100
AcDbLine
 10
480.7016259004099
 20
214.3949306851832
 30
0.0
 11
480.3193092959365
 21
214.3949306851832
 31
0.0
  0
LINE
  5
11C9
330
1F
100
AcDbEntity
  8
AM_VIS
100
AcDbLine
 10
480.3193092959364
 20
214.3949306851832
 30
0.0
 11
479.6056356427404
 21
215.4909209428529
 31
0.0
  0
LINE
  5
11CA
330
1F
100
AcDbEntity
  8
AM_VIS
100
AcDbLine
 10
480.7016259004102
 20
214.7772472896566
 30
0.0
 11
480.7016259004102
 21
214.394930685183
 31
0.0
  0
LINE
  5
11CB
330
1F
100
AcDbEntity
  8
AM_VIS
100
AcDbLine
 10
479.6056356427405
 20
215.4909209428529
 30
0.0
 11
480.7016259004101
 21
214.3949306851832
 31
0.0
  0
LINE
  5
11CC
330
1F
100
AcDbEntity
  8
AM_VIS
100
AcDbLine
 10
479.6056356427404
 20
215.4909209428529
 30
0.0
 11
480.7016259004102
 21
214.7772472896567
 31
0.0
  0
LINE
  5
11CD
330
1F
100
AcDbEntity
  8
AM_VIS
100
AcDbLine
 10
481.6916259004107
 20
213.4049306851831
 30
0.0
 11
482.073942504884
 21
213.4049306851831
 31
0.0
  0
LINE
  5
11CE
330
1F
100
AcDbEntity
  8
AM_VIS
100
AcDbLine
 10
482.073942504884
 20
213.4049306851831
 30
0.0
 11
482.78761615808
 21
212.3089404275136
 31
0.0
  0
LINE
  5
11CF
330
1F
100
AcDbEntity
  8
AM_VIS
100
AcDbLine
 10
481.6916259004102
 20
213.0226140807099
 30
0.0
 11
481.6916259004102
 21
213.4049306851835
 31
0.0
  0
LINE
  5
11D0
330
1F
100
AcDbEntity
  8
AM_VIS
100
AcDbLine
 10
482.78761615808
 20
212.3089404275136
 30
0.0
 11
481.6916259004106
 21
213.4049306851832
 31
0.0
  0
LINE
  5
11D1
330
1F
100
AcDbEntity
  8
AM_VIS
100
AcDbLine
 10
482.78761615808
 20
212.3089404275136
 30
0.0
 11
481.6916259004102
 21
213.0226140807098
 31
0.0
  0
LINE
  5
11D2
330
1F
100
AcDbEntity
  8
AM_VIS
100
AcDbLine
 10
481.6916259004102
 20
214.3949306851835
 30
0.0
 11
481.6916259004102
 21
214.7772472896571
 31
0.0
  0
LINE
  5
11D3
330
1F
100
AcDbEntity
  8
AM_VIS
100
AcDbLine
 10
481.6916259004102
 20
214.777247289657
 30
0.0
 11
482.7876161580799
 21
215.4909209428531
 31
0.0
  0
LINE
  5
11D4
330
1F
100
AcDbEntity
  8
AM_VIS
100
AcDbLine
 10
482.0739425048835
 20
214.3949306851831
 30
0.0
 11
481.6916259004099
 21
214.3949306851831
 31
0.0
  0
LINE
  5
11D5
330
1F
100
AcDbEntity
  8
AM_VIS
100
AcDbLine
 10
482.7876161580799
 20
215.490920942853
 30
0.0
 11
481.6916259004099
 21
214.3949306851832
 31
0.0
  0
LINE
  5
11D6
330
1F
100
AcDbEntity
  8
AM_VIS
100
AcDbLine
 10
482.7876161580799
 20
215.490920942853
 30
0.0
 11
482.0739425048835
 21
214.3949306851831
 31
0.0
  0
LINE
  5
11D7
330
1F
100
AcDbEntity
  8
AM_VIS
100
AcDbLine
 10
480.7016259004102
 20
213.404930685183
 30
0.0
 11
480.7016259004102
 21
213.0226140807094
 31
0.0
  0
LINE
  5
11D8
330
1F
100
AcDbEntity
  8
AM_VIS
100
AcDbLine
 10
480.7016259004102
 20
213.0226140807095
 30
0.0
 11
479.6056356427405
 21
212.3089404275134
 31
0.0
  0
LINE
  5
11D9
330
1F
100
AcDbEntity
  8
AM_VIS
100
AcDbLine
 10
480.3193092959367
 20
213.4049306851832
 30
0.0
 11
480.7016259004103
 21
213.4049306851832
 31
0.0
  0
LINE
  5
11DA
330
1F
100
AcDbEntity
  8
AM_VIS
100
AcDbLine
 10
479.6056356427405
 20
212.3089404275134
 30
0.0
 11
480.7016259004103
 21
213.4049306851832
 31
0.0
  0
LINE
  5
11DB
330
1F
100
AcDbEntity
  8
AM_VIS
100
AcDbLine
 10
479.6056356427405
 20
212.3089404275134
 30
0.0
 11
480.3193092959368
 21
213.4049306851832
 31
0.0
  0
CIRCLE
  5
11DC
330
1F
100
AcDbEntity
  8
AM_VIS
100
AcDbCircle
 10
481.1966259004102
 20
213.8999306851832
 30
0.0
 40
4.199999999999988
  0
LINE
  5
11EB
330
1F
100
AcDbEntity
  8
AM_VIS
100
AcDbLine
 10
455.1966259004138
 20
209.6999306851834
 30
0.0
 11
455.1966259004138
 21
230.8999306851835
 31
0.0
  0
LINE
  5
11EC
330
1F
100
AcDbEntity
  8
AM_VIS
100
AcDbLine
 10
485.1966259004102
 20
209.6999306851834
 30
0.0
 11
455.1966259004138
 21
209.6999306851834
 31
0.0
  0
LINE
  5
11ED
330
1F
100
AcDbEntity
  8
AM_VIS
100
AcDbLine
 10
485.1966259004101
 20
256.0999306851835
 30
0.0
 11
485.1966259004101
 21
215.1805555326701
 31
0.0
  0
LINE
  5
11EE
330
1F
100
AcDbEntity
  8
AM_VIS
100
AcDbLine
 10
485.1966259004101
 20
212.6193058376963
 30
0.0
 11
485.1966259004101
 21
209.6999306851835
 31
0.0
  0
LINE
  5
11EF
330
1F
100
AcDbEntity
  8
AM_VIS
100
AcDbLine
 10
455.1966259004136
 20
256.0999306851834
 30
0.0
 11
459.6966259004099
 21
256.0999306851834
 31
0.0
  0
LINE
  5
11F0
330
1F
100
AcDbEntity
  8
AM_VIS
100
AcDbLine
 10
480.6966259004101
 20
256.0999306851834
 30
0.0
 11
485.1966259004101
 21
256.0999306851835
 31
0.0
  0
LINE
  5
11F1
330
1F
100
AcDbEntity
  8
AM_VIS
100
AcDbLine
 10
455.1966259004136
 20
234.8999306851835
 30
0.0
 11
455.1966259004136
 21
256.0999306851834
 31
0.0
  0
LINE
  5
11F2
330
1F
100
AcDbEntity
  8
AM_VIS
100
AcDbLine
 10
455.2140809653418
 20
234.8999306851835
 30
0.0
 11
455.2140809653418
 21
230.8999306851835
 31
0.0
  0
LINE
  5
11F3
330
1F
100
AcDbEntity
  8
AM_VIS
100
AcDbLine
 10
455.1966259004136
 20
234.8999306851835
 30
0.0
 11
455.2140809653418
 21
234.8999306851835
 31
0.0
  0
LINE
  5
11F4
330
1F
100
AcDbEntity
  8
AM_VIS
100
AcDbLine
 10
455.2140809653418
 20
230.8999306851835
 30
0.0
 11
455.1966259004136
 21
230.8999306851835
 31
0.0
  0
ARC
  5
11FF
330
1F
100
AcDbEntity
  8
AM_VIS
100
AcDbCircle
 10
462.6966259004101
 20
250.8999306851833
 30
0.0
 40
3.75
100
AcDbArc
 50
143.1301023541566
 51
201.0394697813171
  0
LINE
  5
1208
330
1F
100
AcDbEntity
  8
AM_VIS
100
AcDbLine
 10
459.6966259004101
 20
275.3999306851835
 30
0.0
 11
459.6966259004101
 21
250.3999306851835
 31
0.0
  0
LINE
  5
1209
330
1F
100
AcDbEntity
  8
AM_VIS
100
AcDbLine
 10
464.5397716509177
 20
278.8999306851835
 30
0.0
 11
463.1966259004101
 21
278.8999306851835
 31
0.0
  0
LINE
  5
120A
330
1F
100
AcDbEntity
  8
AM_VIS
100
AcDbLine
 10
477.1966259004101
 20
278.8999306851835
 30
0.0
 11
475.8534801499025
 21
278.8999306851835
 31
0.0
  0
LINE
  5
120B
330
1F
100
AcDbEntity
  8
AM_VIS
100
AcDbLine
 10
480.6966259004101
 20
250.3999306851835
 30
0.0
 11
480.6966259004101
 21
275.3999306851835
 31
0.0
  0
ARC
  5
120C
330
1F
100
AcDbEntity
  8
AM_VIS
100
AcDbCircle
 10
470.1966259004101
 20
271.8999306851835
 30
0.0
 40
9.0
100
AcDbArc
 50
302.7339555492692
 51
357.266044450732
  0
ARC
  5
120D
330
1F
100
AcDbEntity
  8
AM_VIS
100
AcDbCircle
 10
470.1966259004101
 20
271.8999306851835
 30
0.0
 40
9.0
100
AcDbArc
 50
242.7339555492681
 51
297.2660444507318
  0
ARC
  5
120E
330
1F
100
AcDbEntity
  8
AM_VIS
100
AcDbCircle
 10
470.1966259004101
 20
271.8999306851835
 30
0.0
 40
9.0
100
AcDbArc
 50
182.733955549268
 51
237.2660444507326
  0
ARC
  5
120F
330
1F
100
AcDbEntity
  8
AM_VIS
100
AcDbCircle
 10
470.1966259004101
 20
271.8999306851835
 30
0.0
 40
9.0
100
AcDbArc
 50
122.7339555492669
 51
177.2660444507336
  0
ARC
  5
1210
330
1F
100
AcDbEntity
  8
AM_VIS
100
AcDbCircle
 10
470.1966259004101
 20
271.8999306851835
 30
0.0
 40
9.0
100
AcDbArc
 50
62.73395554926633
 51
117.2660444507336
  0
ARC
  5
1211
330
1F
100
AcDbEntity
  8
AM_VIS
100
AcDbCircle
 10
470.1966259004101
 20
271.8999306851835
 30
0.0
 40
9.0
100
AcDbArc
 50
2.733955549267971
 51
57.26604445073306
  0
ARC
  5
1212
330
1F
100
AcDbEntity
  8
AM_VIS
100
AcDbCircle
 10
477.1966259004101
 20
275.3999306851835
 30
0.0
 40
3.5
100
AcDbArc
 50
0.0
 51
90.0
  0
ARC
  5
1213
330
1F
100
AcDbEntity
  8
AM_VIS
100
AcDbCircle
 10
463.1966259004101
 20
275.3999306851835
 30
0.0
 40
3.5
100
AcDbArc
 50
90.0
 51
180.0
  0
CIRCLE
  5
1214
330
1F
100
AcDbEntity
  8
AM_VIS
100
AcDbCircle
 10
470.1966259004101
 20
271.8999306851835
 30
0.0
 40
5.0
  0
LINE
  5
1215
330
1F
100
AcDbEntity
  8
AM_VIS
100
AcDbLine
 10
479.4342302074442
 20
271.8999306851834
 30
0.0
 11
477.9998291306855
 21
274.3843862285608
 31
0.0
  0
LINE
  5
1216
330
1F
100
AcDbEntity
  8
AM_VIS
100
AcDbLine
 10
477.9998291306857
 20
269.4154751418063
 30
0.0
 11
479.4342302074442
 21
271.8999306851834
 31
0.0
  0
LINE
  5
1217
330
1F
100
AcDbEntity
  8
AM_VIS
100
AcDbLine
 10
477.3168164287934
 20
269.232462439914
 30
0.0
 11
477.9998291306857
 21
269.4154751418063
 31
0.0
  0
LINE
  5
1218
330
1F
100
AcDbEntity
  8
AM_VIS
100
AcDbLine
 10
476.0668164287934
 20
267.067398930453
 30
0.0
 11
477.3168164287934
 21
269.232462439914
 31
0.0
  0
LINE
  5
1219
330
1F
100
AcDbEntity
  8
AM_VIS
100
AcDbLine
 10
476.2498291306857
 20
266.3843862285607
 30
0.0
 11
476.0668164287934
 21
267.067398930453
 31
0.0
  0
LINE
  5
121A
330
1F
100
AcDbEntity
  8
AM_VIS
100
AcDbLine
 10
474.8154280539272
 20
263.8999306851835
 30
0.0
 11
476.2498291306858
 21
266.3843862285607
 31
0.0
  0
LINE
  5
121B
330
1F
100
AcDbEntity
  8
AM_VIS
100
AcDbLine
 10
471.9466259004102
 20
263.8999306851835
 30
0.0
 11
474.8154280539271
 21
263.8999306851835
 31
0.0
  0
LINE
  5
121C
330
1F
100
AcDbEntity
  8
AM_VIS
100
AcDbLine
 10
471.4466259004102
 20
264.3999306851835
 30
0.0
 11
471.9466259004102
 21
263.8999306851835
 31
0.0
  0
LINE
  5
121D
330
1F
100
AcDbEntity
  8
AM_VIS
100
AcDbLine
 10
468.9466259004102
 20
264.3999306851835
 30
0.0
 11
471.4466259004102
 21
264.3999306851835
 31
0.0
  0
LINE
  5
121E
330
1F
100
AcDbEntity
  8
AM_VIS
100
AcDbLine
 10
468.4466259004103
 20
263.8999306851835
 30
0.0
 11
468.9466259004102
 21
264.3999306851835
 31
0.0
  0
LINE
  5
121F
330
1F
100
AcDbEntity
  8
AM_VIS
100
AcDbLine
 10
465.577823746893
 20
263.8999306851835
 30
0.0
 11
468.4466259004103
 21
263.8999306851835
 31
0.0
  0
LINE
  5
1220
330
1F
100
AcDbEntity
  8
AM_VIS
100
AcDbLine
 10
464.1434226701346
 20
266.3843862285606
 30
0.0
 11
465.577823746893
 21
263.8999306851835
 31
0.0
  0
LINE
  5
1221
330
1F
100
AcDbEntity
  8
AM_VIS
100
AcDbLine
 10
464.3264353720269
 20
267.0673989304529
 30
0.0
 11
464.1434226701346
 21
266.3843862285606
 31
0.0
  0
LINE
  5
1222
330
1F
100
AcDbEntity
  8
AM_VIS
100
AcDbLine
 10
463.0764353720269
 20
269.232462439914
 30
0.0
 11
464.3264353720269
 21
267.0673989304529
 31
0.0
  0
LINE
  5
1223
330
1F
100
AcDbEntity
  8
AM_VIS
100
AcDbLine
 10
462.3934226701346
 20
269.4154751418062
 30
0.0
 11
463.0764353720268
 21
269.232462439914
 31
0.0
  0
LINE
  5
1224
330
1F
100
AcDbEntity
  8
AM_VIS
100
AcDbLine
 10
460.959021593376
 20
271.8999306851834
 30
0.0
 11
462.3934226701346
 21
269.4154751418062
 31
0.0
  0
LINE
  5
1225
330
1F
100
AcDbEntity
  8
AM_VIS
100
AcDbLine
 10
462.3934226701345
 20
274.3843862285606
 30
0.0
 11
460.959021593376
 21
271.8999306851834
 31
0.0
  0
LINE
  5
1226
330
1F
100
AcDbEntity
  8
AM_VIS
100
AcDbLine
 10
463.0764353720268
 20
274.5673989304528
 30
0.0
 11
462.3934226701345
 21
274.3843862285606
 31
0.0
  0
LINE
  5
1227
330
1F
100
AcDbEntity
  8
AM_VIS
100
AcDbLine
 10
464.3264353720268
 20
276.7324624399139
 30
0.0
 11
463.0764353720268
 21
274.5673989304528
 31
0.0
  0
LINE
  5
1228
330
1F
100
AcDbEntity
  8
AM_VIS
100
AcDbLine
 10
464.1434226701345
 20
277.4154751418062
 30
0.0
 11
464.3264353720268
 21
276.7324624399139
 31
0.0
  0
LINE
  5
1229
330
1F
100
AcDbEntity
  8
AM_VIS
100
AcDbLine
 10
465.577823746893
 20
279.8999306851834
 30
0.0
 11
464.1434226701345
 21
277.4154751418062
 31
0.0
  0
LINE
  5
122A
330
1F
100
AcDbEntity
  8
AM_VIS
100
AcDbLine
 10
468.4466259004101
 20
279.8999306851834
 30
0.0
 11
465.5778237468931
 21
279.8999306851834
 31
0.0
  0
LINE
  5
122B
330
1F
100
AcDbEntity
  8
AM_VIS
100
AcDbLine
 10
468.9466259004101
 20
279.3999306851834
 30
0.0
 11
468.4466259004101
 21
279.8999306851834
 31
0.0
  0
LINE
  5
122C
330
1F
100
AcDbEntity
  8
AM_VIS
100
AcDbLine
 10
471.4466259004101
 20
279.3999306851834
 30
0.0
 11
468.9466259004101
 21
279.3999306851834
 31
0.0
  0
LINE
  5
122D
330
1F
100
AcDbEntity
  8
AM_VIS
100
AcDbLine
 10
471.9466259004101
 20
279.8999306851834
 30
0.0
 11
471.4466259004101
 21
279.3999306851834
 31
0.0
  0
LINE
  5
122E
330
1F
100
AcDbEntity
  8
AM_VIS
100
AcDbLine
 10
474.8154280539271
 20
279.8999306851834
 30
0.0
 11
471.9466259004101
 21
279.8999306851834
 31
0.0
  0
LINE
  5
122F
330
1F
100
AcDbEntity
  8
AM_VIS
100
AcDbLine
 10
476.2498291306855
 20
277.4154751418064
 30
0.0
 11
474.8154280539272
 21
279.8999306851834
 31
0.0
  0
LINE
  5
1230
330
1F
100
AcDbEntity
  8
AM_VIS
100
AcDbLine
 10
476.0668164287933
 20
276.7324624399141
 30
0.0
 11
476.2498291306854
 21
277.4154751418063
 31
0.0
  0
LINE
  5
1231
330
1F
100
AcDbEntity
  8
AM_VIS
100
AcDbLine
 10
477.9998291306855
 20
274.3843862285608
 30
0.0
 11
477.3168164287933
 21
274.567398930453
 31
0.0
  0
LINE
  5
1232
330
1F
100
AcDbEntity
  8
AM_VIS
100
AcDbLine
 10
477.3168164287933
 20
274.567398930453
 30
0.0
 11
476.0668164287933
 21
276.7324624399141
 31
0.0
  0
CIRCLE
  5
1233
330
1F
100
AcDbEntity
  8
AM_VIS
100
AcDbCircle
 10
470.1966259004101
 20
271.8999306851834
 30
0.0
 40
5.25
  0
LINE
  5
1234
330
1F
100
AcDbEntity
  8
AM_VIS
100
AcDbLine
 10
460.7863958808867
 20
236.2681873319188
 30
0.0
 11
461.0526089374281
 21
235.4567909328427
 31
0.0
  0
LINE
  5
1235
330
1F
100
AcDbEntity
  8
AM_VIS
100
AcDbLine
 10
460.7863958780543
 20
229.5316740393354
 30
0.0
 11
461.0526089395963
 21
230.3430704367721
 31
0.0
  0
LINE
  5
1236
330
1F
100
AcDbEntity
  8
AM_VIS
100
AcDbLine
 10
462.5745150669252
 20
226.4345607510224
 30
0.0
 11
463.4103114920368
 21
226.259409834147
 31
0.0
  0
LINE
  5
1237
330
1F
100
AcDbEntity
  8
AM_VIS
100
AcDbLine
 10
467.8389233549705
 20
223.7025495854435
 30
0.0
 11
468.4085067071252
 21
223.0663041038392
 31
0.0
  0
LINE
  5
1238
330
1F
100
AcDbEntity
  8
AM_VIS
100
AcDbLine
 10
467.8389233532391
 20
242.0973117864213
 30
0.0
 11
468.4085067093051
 21
242.7335572645227
 31
0.0
  0
LINE
  5
1239
330
1F
100
AcDbEntity
  8
AM_VIS
100
AcDbLine
 10
462.5745150662785
 20
239.3653006222348
 30
0.0
 11
463.4103114924682
 21
239.5404515339713
 31
0.0
  0
LINE
  5
123A
330
1F
100
AcDbEntity
  8
AM_VIS
100
AcDbLine
 10
471.9847450915152
 20
223.0663041058443
 30
0.0
 11
472.5543284475811
 21
223.7025495839456
 31
0.0
  0
LINE
  5
123B
330
1F
100
AcDbEntity
  8
AM_VIS
100
AcDbLine
 10
476.982940308352
 20
226.2594098363956
 30
0.0
 11
477.8187367345419
 21
226.4345607481321
 31
0.0
  0
LINE
  5
123C
330
1F
100
AcDbEntity
  8
AM_VIS
100
AcDbLine
 10
476.9829403087835
 20
239.5404515362198
 30
0.0
 11
477.8187367338952
 21
239.3653006193446
 31
0.0
  0
LINE
  5
123D
330
1F
100
AcDbEntity
  8
AM_VIS
100
AcDbLine
 10
471.9847450936951
 20
242.7335572665277
 30
0.0
 11
472.5543284458496
 21
242.0973117849234
 31
0.0
  0
LINE
  5
123E
330
1F
100
AcDbEntity
  8
AM_VIS
100
AcDbLine
 10
479.3406428559547
 20
230.343070434982
 30
0.0
 11
479.6068559250004
 21
229.5316740400054
 31
0.0
  0
LINE
  5
123F
330
1F
100
AcDbEntity
  8
AM_VIS
100
AcDbLine
 10
479.3406428537917
 20
235.4567909361355
 30
0.0
 11
479.6068559278268
 21
236.2681873294763
 31
0.0
  0
ARC
  5
1240
330
1F
100
AcDbEntity
  8
AM_VIS
100
AcDbCircle
 10
470.1966259004101
 20
232.8999306851835
 30
0.0
 40
10.0
100
AcDbArc
 50
19.67128921670797
 51
40.32871078329287
  0
ARC
  5
1241
330
1F
100
AcDbEntity
  8
AM_VIS
100
AcDbCircle
 10
470.1966259004101
 20
232.8999306851835
 30
0.0
 40
10.0
100
AcDbArc
 50
319.6712892167082
 51
340.3287107832928
  0
ARC
  5
1242
330
1F
100
AcDbEntity
  8
AM_VIS
100
AcDbCircle
 10
470.1966259004101
 20
232.8999306851835
 30
0.0
 40
10.0
100
AcDbArc
 50
259.6712892167071
 51
280.3287107832929
  0
ARC
  5
1243
330
1F
100
AcDbEntity
  8
AM_VIS
100
AcDbCircle
 10
470.1966259004101
 20
232.8999306851835
 30
0.0
 40
10.0
100
AcDbArc
 50
79.67128921670713
 51
100.3287107832928
  0
ARC
  5
1244
330
1F
100
AcDbEntity
  8
AM_VIS
100
AcDbCircle
 10
470.1966259004101
 20
232.8999306851835
 30
0.0
 40
10.0
100
AcDbArc
 50
199.6712892167072
 51
220.3287107832935
  0
ARC
  5
1245
330
1F
100
AcDbEntity
  8
AM_VIS
100
AcDbCircle
 10
470.1966259004101
 20
232.8999306851835
 30
0.0
 40
10.0
100
AcDbArc
 50
139.6712892167081
 51
160.328710783292
  0
ARC
  5
1246
330
1F
100
AcDbEntity
  8
AM_VIS
100
AcDbCircle
 10
470.1966259004101
 20
232.8999306851835
 30
0.0
 40
10.0
100
AcDbArc
 50
280.3287107832929
 51
319.6712892167082
  0
ARC
  5
1247
330
1F
100
AcDbEntity
  8
AM_VIS
100
AcDbCircle
 10
470.1966259004101
 20
232.8999306851835
 30
0.0
 40
10.0
100
AcDbArc
 50
220.3287107832935
 51
259.6712892167071
  0
ARC
  5
1248
330
1F
100
AcDbEntity
  8
AM_VIS
100
AcDbCircle
 10
470.1966259004101
 20
232.8999306851835
 30
0.0
 40
10.0
100
AcDbArc
 50
160.328710783292
 51
199.6712892167072
  0
ARC
  5
1249
330
1F
100
AcDbEntity
  8
AM_VIS
100
AcDbCircle
 10
470.1966259004101
 20
232.8999306851835
 30
0.0
 40
10.0
100
AcDbArc
 50
100.3287107832928
 51
139.6712892167081
  0
ARC
  5
124A
330
1F
100
AcDbEntity
  8
AM_VIS
100
AcDbCircle
 10
470.1966259004101
 20
232.8999306851835
 30
0.0
 40
10.0
100
AcDbArc
 50
40.32871078329287
 51
79.67128921670713
  0
ARC
  5
124B
330
1F
100
AcDbEntity
  8
AM_VIS
100
AcDbCircle
 10
470.1966259004101
 20
232.8999306851835
 30
0.0
 40
10.0
100
AcDbArc
 50
340.3287107832928
 51
19.67128921670797
  0
ARC
  5
124C
330
1F
100
AcDbEntity
  8
AM_VIS
100
AcDbCircle
 10
470.1966259004101
 20
232.8999306851835
 30
0.0
 40
9.5
100
AcDbArc
 50
75.60099539348839
 51
104.3990046065116
  0
ARC
  5
124D
330
1F
100
AcDbEntity
  8
AM_VIS
100
AcDbCircle
 10
479.34662590041
 20
248.7481955744388
 30
0.0
 40
9.5
100
AcDbArc
 50
224.3990046065101
 51
255.6009953934886
  0
ARC
  5
124E
330
1F
100
AcDbEntity
  8
AM_VIS
100
AcDbCircle
 10
470.1966259004101
 20
232.8999306851835
 30
0.0
 40
9.5
100
AcDbArc
 50
15.60099539348988
 51
44.3990046065118
  0
ARC
  5
124F
330
1F
100
AcDbEntity
  8
AM_VIS
100
AcDbCircle
 10
488.4966259004101
 20
232.8999306851836
 30
0.0
 40
9.5
100
AcDbArc
 50
164.3990046065101
 51
195.6009953934898
  0
ARC
  5
1250
330
1F
100
AcDbEntity
  8
AM_VIS
100
AcDbCircle
 10
470.1966259004101
 20
232.8999306851835
 30
0.0
 40
9.5
100
AcDbArc
 50
315.60099539349
 51
344.3990046065109
  0
ARC
  5
1251
330
1F
100
AcDbEntity
  8
AM_VIS
100
AcDbCircle
 10
479.3466259004102
 20
217.0516657959283
 30
0.0
 40
9.500000000000003
100
AcDbArc
 50
104.3990046065116
 51
135.6009953934893
  0
ARC
  5
1252
330
1F
100
AcDbEntity
  8
AM_VIS
100
AcDbCircle
 10
470.1966259004101
 20
232.8999306851835
 30
0.0
 40
9.5
100
AcDbArc
 50
255.6009953934884
 51
284.3990046065116
  0
ARC
  5
1253
330
1F
100
AcDbEntity
  8
AM_VIS
100
AcDbCircle
 10
461.0466259004101
 20
217.0516657959282
 30
0.0
 40
9.5
100
AcDbArc
 50
44.3990046065118
 51
75.60099539348839
  0
ARC
  5
1254
330
1F
100
AcDbEntity
  8
AM_VIS
100
AcDbCircle
 10
470.1966259004101
 20
232.8999306851835
 30
0.0
 40
9.5
100
AcDbArc
 50
195.6009953934891
 51
224.3990046065118
  0
ARC
  5
1255
330
1F
100
AcDbEntity
  8
AM_VIS
100
AcDbCircle
 10
451.8966259004101
 20
232.8999306851835
 30
0.0
 40
9.5
100
AcDbArc
 50
344.3990046065101
 51
15.60099539348988
  0
ARC
  5
1256
330
1F
100
AcDbEntity
  8
AM_VIS
100
AcDbCircle
 10
470.1966259004101
 20
232.8999306851835
 30
0.0
 40
9.5
100
AcDbArc
 50
135.6009953934905
 51
164.3990046065101
  0
ARC
  5
1257
330
1F
100
AcDbEntity
  8
AM_VIS
100
AcDbCircle
 10
461.0466259004099
 20
248.7481955744386
 30
0.0
 40
9.5
100
AcDbArc
 50
284.3990046065114
 51
315.60099539349
  0
CIRCLE
  5
1258
330
1F
100
AcDbEntity
  8
AM_VIS
100
AcDbCircle
 10
470.1966259004101
 20
232.8999306851835
 30
0.0
 40
1.25
  0
LINE
  5
1259
330
1F
100
AcDbEntity
  8
AM_VIS
100
AcDbLine
 10
459.1966259004101
 20
225.8999306851835
 30
0.0
 11
459.1966259004101
 21
250.3999306851835
 31
0.0
  0
LINE
  5
125A
330
1F
100
AcDbEntity
  8
AM_VIS
100
AcDbLine
 10
459.1966259004101
 20
250.3999306851835
 30
0.0
 11
481.1966259004101
 21
250.3999306851835
 31
0.0
  0
LINE
  5
125B
330
1F
100
AcDbEntity
  8
AM_VIS
100
AcDbLine
 10
481.1966259004101
 20
250.3999306851835
 30
0.0
 11
481.1966259004101
 21
225.8999306851835
 31
0.0
  0
LINE
  5
125C
330
1F
100
AcDbEntity
  8
AM_VIS
100
AcDbLine
 10
477.1966259004101
 20
221.8999306851835
 30
0.0
 11
463.1966259004101
 21
221.8999306851835
 31
0.0
  0
ARC
  5
125D
330
1F
100
AcDbEntity
  8
AM_VIS
100
AcDbCircle
 10
463.1966259004101
 20
225.8999306851835
 30
0.0
 40
3.999999999999999
100
AcDbArc
 50
180.0
 51
270.0
  0
ARC
  5
125E
330
1F
100
AcDbEntity
  8
AM_VIS
100
AcDbCircle
 10
477.1966259004101
 20
225.8999306851835
 30
0.0
 40
3.999999999999999
100
AcDbArc
 50
270.0
 51
0.0
  0
LINE
  5
125F
330
1F
100
AcDbEntity
  8
AM_VIS
100
AcDbLine
 10
484.69662590041
 20
209.6999306851834
 30
0.0
 11
455.6966259004135
 21
209.6999306851834
 31
0.0
  0
LINE
  5
1260
330
1F
100
AcDbEntity
  8
AM_VIS
100
AcDbLine
 10
455.1966259004135
 20
210.1999306851834
 30
0.0
 11
455.1966259004135
 21
255.5999306851834
 31
0.0
  0
LINE
  5
1261
330
1F
100
AcDbEntity
  8
AM_VIS
100
AcDbLine
 10
455.6966259004133
 20
256.0999306851834
 30
0.0
 11
459.6966259004099
 21
256.0999306851834
 31
0.0
  0
LINE
  5
1262
330
1F
100
AcDbEntity
  8
AM_VIS
100
AcDbLine
 10
480.69662590041
 20
256.0999306851834
 30
0.0
 11
484.6966259004098
 21
256.0999306851834
 31
0.0
  0
LINE
  5
1263
330
1F
100
AcDbEntity
  8
AM_VIS
100
AcDbLine
 10
485.1966259004099
 20
255.5999306851834
 30
0.0
 11
485.1966259004099
 21
215.1805555326709
 31
0.0
  0
LINE
  5
1264
330
1F
100
AcDbEntity
  8
AM_VIS
100
AcDbLine
 10
485.1966259004099
 20
212.6193058376956
 30
0.0
 11
485.1966259004099
 21
210.1999306851834
 31
0.0
  0
LINE
  5
127A
330
1F
100
AcDbEntity
  8
AM_VIS
100
AcDbLine
 10
341.5873593878616
 20
257.9999306851834
 30
0.0
 11
341.5873593878615
 21
255.8948336722768
 31
0.0
  0
LINE
  5
127B
330
1F
100
AcDbEntity
  8
AM_VIS
100
AcDbLine
 10
348.4873593878617
 20
257.9999306851832
 30
0.0
 11
348.4873593878617
 21
255.7743937242721
 31
0.0
  0
LINE
  5
127C
330
1F
100
AcDbEntity
  8
AM_VIS
100
AcDbLine
 10
341.5873593878616
 20
257.9999306851834
 30
0.0
 11
348.4873593878617
 21
257.9999306851832
 31
0.0
  0
LINE
  5
1281
330
1F
100
AcDbEntity
  8
AM_VIS
100
AcDbLine
 10
329.8373593878616
 20
256.0999306851834
 30
0.0
 11
353.8373593878616
 21
255.681009126906
 31
0.0
  0
LINE
  5
1282
330
1F
100
AcDbEntity
  8
AM_VIS
100
AcDbLine
 10
329.8373593878612
 20
209.6999306851834
 30
0.0
 11
353.8373593878613
 21
210.1188522434605
 31
0.0
  0
LINE
  5
1286
330
1F
100
AcDbEntity
  8
AM_VIS
100
AcDbLine
 10
353.8373593878616
 20
254.4347832828361
 30
0.0
 11
353.7519714685577
 21
254.4370783771515
 31
0.0
  0
LINE
  5
1287
330
1F
100
AcDbEntity
  8
AM_VIS
100
AcDbLine
 10
353.8373593878616
 20
254.4370783771515
 30
0.0
 11
353.7519714685577
 21
254.4370783771515
 31
0.0
  0
LINE
  5
1288
330
1F
100
AcDbEntity
  8
AM_VIS
100
AcDbLine
 10
353.7519714685577
 20
254.4370783771515
 30
0.0
 11
353.8373593878616
 21
254.4380462877868
 31
0.0
  0
LINE
  5
1289
330
1F
100
AcDbEntity
  8
AM_VIS
100
AcDbLine
 10
353.8373593878616
 20
255.3361787417182
 30
0.0
 11
353.8373593878616
 21
255.681009126906
 31
0.0
  0
LINE
  5
128A
330
1F
100
AcDbEntity
  8
AM_VIS
100
AcDbLine
 10
353.8373593878612
 20
210.1188522434605
 30
0.0
 11
353.8373593878612
 21
210.4636826286486
 31
0.0
  0
LINE
  5
128B
330
1F
100
AcDbEntity
  8
AM_VIS
100
AcDbLine
 10
329.8373593878612
 20
209.6999306851834
 30
0.0
 11
329.8373593878614
 21
230.8999306851835
 31
0.0
  0
LINE
  5
128C
330
1F
100
AcDbEntity
  8
AM_VIS
100
AcDbLine
 10
329.8373593878614
 20
234.8999306851835
 30
0.0
 11
329.8373593878616
 21
256.0999306851834
 31
0.0
  0
LINE
  5
128D
330
1F
100
AcDbEntity
  8
AM_VIS
100
AcDbLine
 10
330.8373593878615
 20
234.8999306851835
 30
0.0
 11
330.8373593878615
 21
230.8999306851835
 31
0.0
  0
LINE
  5
128E
330
1F
100
AcDbEntity
  8
AM_VIS
100
AcDbLine
 10
329.8373593878614
 20
234.8999306851835
 30
0.0
 11
330.8373593878615
 21
234.8999306851835
 31
0.0
  0
LINE
  5
128F
330
1F
100
AcDbEntity
  8
AM_VIS
100
AcDbLine
 10
330.8373593878615
 20
230.8999306851835
 30
0.0
 11
329.8373593878614
 21
230.8999306851835
 31
0.0
  0
LINE
  5
1290
330
1F
100
AcDbEntity
  8
AM_VIS
100
AcDbLine
 10
355.8373593878616
 20
255.6999306851833
 30
0.0
 11
353.8373593878616
 21
255.6999306851833
 31
0.0
  0
LINE
  5
1291
330
1F
100
AcDbEntity
  8
AM_VIS
100
AcDbLine
 10
353.8373593878613
 20
210.5999306851834
 30
0.0
 11
353.8373593878617
 21
255.1999306851834
 31
0.0
  0
LINE
  5
1292
330
1F
100
AcDbEntity
  8
AM_VIS
100
AcDbLine
 10
355.8373593878613
 20
210.5999306851833
 30
0.0
 11
355.8373593878617
 21
255.1999306851834
 31
0.0
  0
LINE
  5
1293
330
1F
100
AcDbEntity
  8
AM_VIS
100
AcDbLine
 10
353.8373593878613
 20
210.0999306851834
 30
0.0
 11
355.8373593878613
 21
210.0999306851834
 31
0.0
  0
LINE
  5
1294
330
1F
100
AcDbEntity
  8
AM_VIS
100
AcDbLine
 10
353.8373593878616
 20
255.681009126906
 30
0.0
 11
353.8373593878616
 21
255.6999306851833
 31
0.0
  0
LINE
  5
1295
330
1F
100
AcDbEntity
  8
AM_VIS
100
AcDbLine
 10
353.8373593878616
 20
255.1999306851834
 30
0.0
 11
353.8373593878616
 21
255.3361787417182
 31
0.0
  0
LINE
  5
1296
330
1F
100
AcDbEntity
  8
AM_VIS
100
AcDbLine
 10
353.8373593878613
 20
210.4636826286486
 30
0.0
 11
353.8373593878613
 21
210.5999306851834
 31
0.0
  0
LINE
  5
1297
330
1F
100
AcDbEntity
  8
AM_VIS
100
AcDbLine
 10
353.8373593878613
 20
210.0999306851834
 30
0.0
 11
353.8373593878613
 21
210.1188522434605
 31
0.0
  0
LINE
  5
1298
330
1F
100
AcDbEntity
  8
AM_VIS
100
AcDbLine
 10
355.8373593878613
 20
210.5999306851833
 30
0.0
 11
355.8373593878613
 21
210.0999306851834
 31
0.0
  0
LINE
  5
1299
330
1F
100
AcDbEntity
  8
AM_VIS
100
AcDbLine
 10
355.8373593878616
 20
255.6999306851833
 30
0.0
 11
355.8373593878616
 21
255.1999306851834
 31
0.0
  0
LINE
  5
12A8
330
1F
100
AcDbEntity
  8
AM_VIS
100
AcDbLine
 10
255.8373593878577
 20
256.0999306851834
 30
0.0
 11
255.8373593878577
 21
209.6999306851834
 31
0.0
  0
ARC
  5
12B9
330
1F
100
AcDbEntity
  8
AM_VIS
100
AcDbCircle
 10
413.5501206383307
 20
271.5001230314248
 30
0.0
 40
29.68201406216625
100
AcDbArc
 50
172.450295946057
 51
190.2015981703568
  0
ARC
  5
12BA
330
1F
100
AcDbEntity
  8
AM_VIS
100
AcDbCircle
 10
381.3645896062293
 20
275.8812652734913
 30
0.0
 40
2.802467679762958
100
AcDbArc
 50
350.1101932448593
 51
28.63378411755975
  0
LINE
  5
12BB
330
1F
100
AcDbEntity
  8
AM_VIS
100
AcDbLine
 10
384.3373593878614
 20
250.3999306851835
 30
0.0
 11
384.3373593878614
 21
266.2430764356912
 31
0.0
  0
LINE
  5
12BC
330
1F
100
AcDbEntity
  8
AM_VIS
100
AcDbLine
 10
380.8373593878615
 20
278.8999306851835
 30
0.0
 11
358.8373593878614
 21
278.8999306851835
 31
0.0
  0
LINE
  5
12BD
330
1F
100
AcDbEntity
  8
AM_VIS
100
AcDbLine
 10
355.3373593878614
 20
275.3999306851835
 30
0.0
 11
355.3373593878614
 21
255.6999306851833
 31
0.0
  0
LINE
  5
12BE
330
1F
100
AcDbEntity
  8
AM_VIS
100
AcDbLine
 10
379.3373593878615
 20
278.8999306851835
 30
0.0
 11
384.3373593878614
 21
280.8999306851835
 31
0.0
  0
LINE
  5
12BF
330
1F
100
AcDbEntity
  8
AM_VIS
100
AcDbLine
 10
384.3373593878614
 20
262.8999306851835
 30
0.0
 11
397.3373593878615
 21
262.8999306851835
 31
0.0
  0
LINE
  5
12C0
330
1F
100
AcDbEntity
  8
AM_VIS
100
AcDbLine
 10
384.3373593878614
 20
280.8999306851835
 30
0.0
 11
397.3373593878615
 21
280.8999306851835
 31
0.0
  0
ARC
  5
12C1
330
1F
100
AcDbEntity
  8
AM_VIS
100
AcDbCircle
 10
380.8373593878615
 20
275.3999306851835
 30
0.0
 40
3.5
100
AcDbArc
 50
31.41476770923945
 51
90.0
  0
LINE
  5
12C2
330
1F
100
AcDbEntity
  8
AM_VIS
100
AcDbLine
 10
384.3373593878614
 20
266.2430764356912
 30
0.0
 11
384.3373593878614
 21
280.8999306851835
 31
0.0
  0
LINE
  5
12C3
102
{ACAD_REACTORS
330
2347
102
}
330
1F
100
AcDbEntity
  8
AM_VIS
100
AcDbLine
 10
397.3373593878615
 20
280.8999306851835
 30
0.0
 11
397.3373593878615
 21
262.8999306851835
 31
0.0
  0
ARC
  5
12C4
330
1F
100
AcDbEntity
  8
AM_VIS
100
AcDbCircle
 10
358.8373593878614
 20
275.3999306851835
 30
0.0
 40
3.5
100
AcDbArc
 50
90.0
 51
180.0
  0
LINE
  5
12D1
330
1F
100
AcDbEntity
  8
AM_VIS
100
AcDbLine
 10
404.3373593878615
 20
279.8999306851834
 30
0.0
 11
398.8373593878616
 21
279.8999306851834
 31
0.0
  0
LINE
  5
12D2
330
1F
100
AcDbEntity
  8
AM_VIS
100
AcDbLine
 10
404.3373593878615
 20
271.8999306851834
 30
0.0
 11
398.8373593878616
 21
271.8999306851834
 31
0.0
  0
LINE
  5
12D3
330
1F
100
AcDbEntity
  8
AM_VIS
100
AcDbLine
 10
404.3373593878615
 20
274.5673989304528
 30
0.0
 11
398.8373593878616
 21
274.5673989304528
 31
0.0
  0
LINE
  5
12D4
330
1F
100
AcDbEntity
  8
AM_VIS
100
AcDbLine
 10
404.3373593878615
 20
274.3843862285606
 30
0.0
 11
398.8373593878616
 21
274.3843862285606
 31
0.0
  0
LINE
  5
12D5
330
1F
100
AcDbEntity
  8
AM_VIS
100
AcDbLine
 10
398.8373593878616
 20
277.4154751418062
 30
0.0
 11
404.3373593878615
 21
277.4154751418062
 31
0.0
  0
LINE
  5
12D6
330
1F
100
AcDbEntity
  8
AM_VIS
100
AcDbLine
 10
404.3373593878615
 20
276.7324624399139
 30
0.0
 11
398.8373593878616
 21
276.7324624399139
 31
0.0
  0
LINE
  5
12D7
330
1F
100
AcDbEntity
  8
AM_VIS
100
AcDbLine
 10
404.3373593878615
 20
263.8999306851835
 30
0.0
 11
398.8373593878616
 21
263.8999306851835
 31
0.0
  0
LINE
  5
12D8
330
1F
100
AcDbEntity
  8
AM_VIS
100
AcDbLine
 10
404.3373593878615
 20
266.3843862285605
 30
0.0
 11
398.8373593878616
 21
266.3843862285605
 31
0.0
  0
LINE
  5
12D9
330
1F
100
AcDbEntity
  8
AM_VIS
100
AcDbLine
 10
398.8373593878616
 20
269.4154751418062
 30
0.0
 11
404.3373593878615
 21
269.4154751418062
 31
0.0
  0
LINE
  5
12DA
330
1F
100
AcDbEntity
  8
AM_VIS
100
AcDbLine
 10
404.3373593878615
 20
269.232462439914
 30
0.0
 11
398.8373593878616
 21
269.232462439914
 31
0.0
  0
LINE
  5
12DB
330
1F
100
AcDbEntity
  8
AM_VIS
100
AcDbLine
 10
404.3373593878615
 20
267.0673989304529
 30
0.0
 11
398.8373593878616
 21
267.0673989304529
 31
0.0
  0
LINE
  5
12DC
330
1F
100
AcDbEntity
  8
AM_VIS
100
AcDbLine
 10
398.8373593878616
 20
279.8999306851834
 30
0.0
 11
398.8373593878616
 21
277.4154751418062
 31
0.0
  0
LINE
  5
12DD
330
1F
100
AcDbEntity
  8
AM_VIS
100
AcDbLine
 10
398.8373593878616
 20
276.7324624399139
 30
0.0
 11
398.8373593878616
 21
277.4154751418062
 31
0.0
  0
LINE
  5
12DE
330
1F
100
AcDbEntity
  8
AM_VIS
100
AcDbLine
 10
398.8373593878616
 20
274.5673989304528
 30
0.0
 11
398.8373593878616
 21
276.7324624399139
 31
0.0
  0
LINE
  5
12DF
330
1F
100
AcDbEntity
  8
AM_VIS
100
AcDbLine
 10
398.8373593878616
 20
274.3843862285606
 30
0.0
 11
398.8373593878616
 21
274.5673989304528
 31
0.0
  0
LINE
  5
12E0
330
1F
100
AcDbEntity
  8
AM_VIS
100
AcDbLine
 10
398.8373593878616
 20
274.3843862285606
 30
0.0
 11
398.8373593878616
 21
271.8999306851834
 31
0.0
  0
LINE
  5
12E1
330
1F
100
AcDbEntity
  8
AM_VIS
100
AcDbLine
 10
398.8373593878616
 20
271.8999306851834
 30
0.0
 11
398.8373593878616
 21
269.4154751418062
 31
0.0
  0
LINE
  5
12E2
330
1F
100
AcDbEntity
  8
AM_VIS
100
AcDbLine
 10
398.8373593878616
 20
269.232462439914
 30
0.0
 11
398.8373593878616
 21
269.4154751418062
 31
0.0
  0
LINE
  5
12E3
330
1F
100
AcDbEntity
  8
AM_VIS
100
AcDbLine
 10
398.8373593878616
 20
267.0673989304529
 30
0.0
 11
398.8373593878616
 21
269.232462439914
 31
0.0
  0
LINE
  5
12E4
330
1F
100
AcDbEntity
  8
AM_VIS
100
AcDbLine
 10
398.8373593878616
 20
266.3843862285606
 30
0.0
 11
398.8373593878616
 21
267.0673989304528
 31
0.0
  0
LINE
  5
12E5
330
1F
100
AcDbEntity
  8
AM_VIS
100
AcDbLine
 10
398.8373593878616
 20
266.3843862285606
 30
0.0
 11
398.8373593878616
 21
263.8999306851835
 31
0.0
  0
LINE
  5
12E6
330
1F
100
AcDbEntity
  8
AM_VIS
100
AcDbLine
 10
404.3373593878615
 20
266.3843862285606
 30
0.0
 11
404.3373593878615
 21
263.8999306851835
 31
0.0
  0
LINE
  5
12E7
330
1F
100
AcDbEntity
  8
AM_VIS
100
AcDbLine
 10
404.3373593878615
 20
267.0673989304529
 30
0.0
 11
404.3373593878615
 21
266.3843862285606
 31
0.0
  0
LINE
  5
12E8
330
1F
100
AcDbEntity
  8
AM_VIS
100
AcDbLine
 10
404.3373593878615
 20
269.232462439914
 30
0.0
 11
404.3373593878615
 21
267.0673989304529
 31
0.0
  0
LINE
  5
12E9
330
1F
100
AcDbEntity
  8
AM_VIS
100
AcDbLine
 10
404.3373593878615
 20
269.4154751418062
 30
0.0
 11
404.3373593878615
 21
269.232462439914
 31
0.0
  0
LINE
  5
12EA
330
1F
100
AcDbEntity
  8
AM_VIS
100
AcDbLine
 10
404.3373593878615
 20
271.8999306851834
 30
0.0
 11
404.3373593878615
 21
269.4154751418062
 31
0.0
  0
LINE
  5
12EB
330
1F
100
AcDbEntity
  8
AM_VIS
100
AcDbLine
 10
404.3373593878615
 20
274.3843862285606
 30
0.0
 11
404.3373593878615
 21
271.8999306851834
 31
0.0
  0
LINE
  5
12EC
330
1F
100
AcDbEntity
  8
AM_VIS
100
AcDbLine
 10
404.3373593878615
 20
274.5673989304528
 30
0.0
 11
404.3373593878615
 21
274.3843862285606
 31
0.0
  0
LINE
  5
12ED
330
1F
100
AcDbEntity
  8
AM_VIS
100
AcDbLine
 10
404.3373593878615
 20
276.7324624399139
 30
0.0
 11
404.3373593878615
 21
274.5673989304528
 31
0.0
  0
LINE
  5
12EE
330
1F
100
AcDbEntity
  8
AM_VIS
100
AcDbLine
 10
404.3373593878615
 20
277.4154751418062
 30
0.0
 11
404.3373593878615
 21
276.7324624399139
 31
0.0
  0
LINE
  5
12EF
330
1F
100
AcDbEntity
  8
AM_VIS
100
AcDbLine
 10
404.3373593878615
 20
279.8999306851834
 30
0.0
 11
404.3373593878615
 21
277.4154751418062
 31
0.0
  0
LINE
  5
12F0
330
1F
100
AcDbEntity
  8
AM_VIS
100
AcDbLine
 10
398.8373593878616
 20
278.6499306851835
 30
0.0
 11
397.3373593878615
 21
278.6499306851835
 31
0.0
  0
LINE
  5
12F1
330
1F
100
AcDbEntity
  8
AM_VIS
100
AcDbLine
 10
398.8373593878616
 20
265.1499306851834
 30
0.0
 11
397.3373593878615
 21
265.1499306851834
 31
0.0
  0
LINE
  5
1360
330
1F
100
AcDbEntity
  8
AM_VIS
100
AcDbLine
 10
391.6873593878615
 20
236.266165159151
 30
0.0
 11
392.8373593878616
 21
236.266165159151
 31
0.0
  0
SPLINE
  5
1361
330
1F
100
AcDbEntity
  8
AM_VIS
100
AcDbSpline
210
0.0
220
0.0
230
1.0
 70
     8
 71
     3
 72
     8
 73
     4
 74
     0
 42
0.0000000001
 43
0.0000000001
 40
1.629958734905461
 40
1.629958734905461
 40
1.629958734905461
 40
1.629958734905461
 40
2.565803457021723
 40
2.565803457021723
 40
2.565803457021723
 40
2.565803457021723
 10
392.8373593878616
 20
236.266165159151
 30
0.0
 10
393.0172202648177
 20
236.0067886926571
 30
0.0
 10
393.1863200117751
 20
235.735636509805
 30
0.0
 10
393.3373593878616
 20
235.4548279433917
 30
0.0
  0
SPLINE
  5
1362
330
1F
100
AcDbEntity
  8
AM_VIS
100
AcDbSpline
210
0.0
220
0.0
230
1.0
 70
     8
 71
     3
 72
     8
 73
     4
 74
     0
 42
0.0000000001
 43
0.0000000001
 40
7.8606508081159
 40
7.8606508081159
 40
7.8606508081159
 40
7.8606508081159
 40
8.796495530230886
 40
8.796495530230886
 40
8.796495530230886
 40
8.796495530230886
 10
393.3373593878616
 20
230.3450334269752
 30
0.0
 10
393.1863201214099
 20
230.0642250643921
 30
0.0
 10
393.0172203801141
 20
229.7930728439781
 30
0.0
 10
392.8373593878616
 20
229.5336962112159
 30
0.0
  0
LINE
  5
1363
330
1F
100
AcDbEntity
  8
AM_VIS
100
AcDbLine
 10
392.8373593878616
 20
229.5336962112159
 30
0.0
 11
391.6873593878615
 21
229.5336962112159
 31
0.0
  0
LINE
  5
1364
330
1F
100
AcDbEntity
  8
AM_VIS
100
AcDbLine
 10
391.6873593878615
 20
226.4282119888265
 30
0.0
 11
392.8373593878616
 21
226.4282119888265
 31
0.0
  0
SPLINE
  5
1365
330
1F
100
AcDbEntity
  8
AM_VIS
100
AcDbSpline
210
0.0
220
0.0
230
1.0
 70
     8
 71
     3
 72
     8
 73
     4
 74
     0
 42
0.0000000001
 43
0.0000000001
 40
1.630155802117218
 40
1.630155802117218
 40
1.630155802117218
 40
1.630155802117218
 40
2.566002660597602
 40
2.566002660597602
 40
2.566002660597602
 40
2.566002660597602
 10
392.8373593878616
 20
226.4282119888265
 30
0.0
 10
393.0172206210535
 20
226.3836406556019
 30
0.0
 10
393.1863202424281
 20
226.3257473591836
 30
0.0
 10
393.3373593878616
 20
226.2532468696599
 30
0.0
  0
LINE
  5
1366
330
1F
100
AcDbEntity
  8
AM_VIS
100
AcDbLine
 10
392.8406875878151
 20
223.0593569412467
 30
0.0
 11
393.3413478644445
 21
223.6952091461455
 31
0.0
  0
LINE
  5
1367
330
1F
100
AcDbEntity
  8
AM_VIS
100
AcDbLine
 10
392.8373593878616
 20
223.061977514859
 30
0.0
 11
391.6873593878615
 21
223.061977514859
 31
0.0
  0
LINE
  5
1368
330
1F
100
AcDbEntity
  8
AM_VIS
100
AcDbLine
 10
391.6873593878615
 20
242.7378838555079
 30
0.0
 11
392.8373593878616
 21
242.7378838555079
 31
0.0
  0
LINE
  5
1369
330
1F
100
AcDbEntity
  8
AM_VIS
100
AcDbLine
 10
392.8406875896726
 20
242.7405044305585
 30
0.0
 11
393.3413478634377
 21
242.1046522233996
 31
0.0
  0
SPLINE
  5
136A
330
1F
100
AcDbEntity
  8
AM_VIS
100
AcDbSpline
210
0.0
220
0.0
230
1.0
 70
     8
 71
     3
 72
     8
 73
     4
 74
     0
 42
0.0000000001
 43
0.0000000001
 40
7.860869802063071
 40
7.860869802063071
 40
7.860869802063071
 40
7.860869802063071
 40
8.796716660561775
 40
8.796716660561775
 40
8.796716660561775
 40
8.796716660561775
 10
393.3373593878616
 20
239.5466145007068
 30
0.0
 10
393.1863203518272
 20
239.474114063696
 30
0.0
 10
393.0172207360829
 20
239.4162207432702
 30
0.0
 10
392.8373593878616
 20
239.3716493815402
 30
0.0
  0
LINE
  5
136B
330
1F
100
AcDbEntity
  8
AM_VIS
100
AcDbLine
 10
392.8373593878616
 20
239.3716493815402
 30
0.0
 11
391.6873593878615
 21
239.3716493815402
 31
0.0
  0
LINE
  5
136C
330
1F
100
AcDbEntity
  8
AM_VIS
100
AcDbLine
 10
390.1873593878615
 20
223.061977514859
 30
0.0
 11
387.3373593878616
 21
223.061977514859
 31
0.0
  0
LINE
  5
136D
330
1F
100
AcDbEntity
  8
AM_VIS
100
AcDbLine
 10
387.3373593878616
 20
226.4282119888265
 30
0.0
 11
390.1873593878615
 21
226.4282119888265
 31
0.0
  0
LINE
  5
136E
330
1F
100
AcDbEntity
  8
AM_VIS
100
AcDbLine
 10
387.3373593878616
 20
236.266165159151
 30
0.0
 11
390.1873593878615
 21
236.266165159151
 31
0.0
  0
LINE
  5
136F
330
1F
100
AcDbEntity
  8
AM_VIS
100
AcDbLine
 10
390.1873593878615
 20
229.5336962112159
 30
0.0
 11
387.3373593878616
 21
229.5336962112159
 31
0.0
  0
LINE
  5
1370
330
1F
100
AcDbEntity
  8
AM_VIS
100
AcDbLine
 10
387.3373593878616
 20
242.7378838555079
 30
0.0
 11
390.1873593878615
 21
242.7378838555079
 31
0.0
  0
LINE
  5
1371
330
1F
100
AcDbEntity
  8
AM_VIS
100
AcDbLine
 10
390.1873593878615
 20
239.3716493815402
 30
0.0
 11
387.3373593878616
 21
239.3716493815402
 31
0.0
  0
ARC
  5
1372
330
1F
100
AcDbEntity
  8
AM_VIS
100
AcDbCircle
 10
400.5598175980206
 20
241.0547666185241
 30
0.0
 40
13.32915168916749
100
AcDbArc
 50
172.7457013204759
 51
187.254298679524
  0
SPLINE
  5
1373
330
1F
100
AcDbEntity
  8
AM_VIS
100
AcDbSpline
210
0.0
220
0.0
230
1.0
 70
     8
 71
     3
 72
    14
 73
    10
 74
     0
 42
0.0000000001
 43
0.0000000001
 40
13.28006742556184
 40
13.28006742556184
 40
13.28006742556184
 40
13.28006742556184
 40
14.27448381305596
 40
14.27448381305596
 40
16.65382904986482
 40
16.65382904986482
 40
19.03317428667365
 40
19.03317428667365
 40
20.02759067416773
 40
20.02759067416773
 40
20.02759067416773
 40
20.02759067416773
 10
387.3373593878616
 20
229.5336962112159
 30
0.0
 10
387.3196134127426
 20
229.8535884800857
 30
0.0
 10
387.3038378190391
 20
230.1795569339865
 30
0.0
 10
387.2586290071286
 20
231.2975502656143
 30
0.0
 10
387.2413593878616
 20
232.1068156062472
 30
0.0
 10
387.2413593878616
 20
233.6930457641198
 30
0.0
 10
387.2586290071286
 20
234.5023111047527
 30
0.0
 10
387.3038378190391
 20
235.6203044363803
 30
0.0
 10
387.3196134127426
 20
235.9462728902812
 30
0.0
 10
387.3373593878616
 20
236.266165159151
 30
0.0
  0
ARC
  5
1374
330
1F
100
AcDbEntity
  8
AM_VIS
100
AcDbCircle
 10
400.559817598019
 20
224.7450947518427
 30
0.0
 40
13.32915168916583
100
AcDbArc
 50
172.7457013204759
 51
187.254298679524
  0
SPLINE
  5
1375
330
1F
100
AcDbEntity
  8
AM_VIS
100
AcDbSpline
210
0.0
220
0.0
230
1.0
 70
    11
 71
     3
 72
    58
 73
    54
 74
     0
 42
0.0000000001
 43
0.0000000001
 40
-3.310941722041909
 40
-3.310941722041909
 40
-3.310941722041909
 40
-3.310941722041909
 40
-3.295630163526127
 40
-3.295630163526127
 40
-3.258885216857127
 40
-3.258885216857127
 40
-3.197166102530552
 40
-3.197166102530552
 40
-3.038165220187092
 40
-3.038165220187092
 40
-2.856291614874425
 40
-2.856291614874425
 40
-2.666842086900363
 40
-2.666842086900363
 40
-2.492578752010307
 40
-2.492578752010307
 40
-2.312125783734306
 40
-2.312125783734306
 40
-2.134512493780222
 40
-2.134512493780222
 40
-1.991913706755022
 40
-1.991913706755022
 40
-1.842368186772041
 40
-1.842368186772041
 40
-1.791323432474765
 40
-1.791323432474765
 40
-1.757111173267642
 40
-1.757111173267642
 40
-1.723565230360897
 40
-1.723565230360897
 40
-1.676146471110933
 40
-1.676146471110933
 40
-1.559264165848294
 40
-1.559264165848294
 40
-1.304423753582546
 40
-1.304423753582546
 40
-1.102534997057311
 40
-1.102534997057311
 40
-0.9616332280766684
 40
-0.9616332280766684
 40
-0.8335600122348491
 40
-0.8335600122348491
 40
-0.6887403587823754
 40
-0.6887403587823754
 40
-0.4760113448005606
 40
-0.4760113448005606
 40
-0.2570316117940582
 40
-0.2570316117940582
 40
-0.0905362468526998
 40
-0.0905362468526998
 40
-0.0354113089024487
 40
-0.0354113089024487
 40
0.0
 40
0.0
 40
0.0
 40
0.0
 10
391.4373593878615
 20
226.7773281275491
 30
0.0
 10
391.4373593878615
 20
226.7757433219894
 30
0.0
 10
391.4372887879969
 20
226.7742248091522
 30
0.0
 10
391.436802517239
 20
226.769293185707
 30
0.0
 10
391.4360440391424
 20
226.7662193776002
 30
0.0
 10
391.43285068115
 20
226.7590941567744
 30
0.0
 10
391.4296474768748
 20
226.7558415339276
 30
0.0
 10
391.4137072663672
 20
226.7483092024939
 30
0.0
 10
391.3943598739211
 20
226.7507589061171
 30
0.0
 10
391.3377852573806
 20
226.7647548513866
 30
0.0
 10
391.2980718212758
 20
226.7775322897892
 30
0.0
 10
391.1996620979059
 20
226.8034197366681
 30
0.0
 10
391.1418489640972
 20
226.8159543208737
 30
0.0
 10
391.0218524902102
 20
226.8309095947088
 30
0.0
 10
390.9618699154128
 20
226.8339195716083
 30
0.0
 10
390.8396895343972
 20
226.8301055149404
 30
0.0
 10
390.7796490737988
 20
226.8229904475525
 30
0.0
 10
390.6697395070091
 20
226.8025482717225
 30
0.0
 10
390.6206141752668
 20
226.7894702920685
 30
0.0
 10
390.5458045161342
 20
226.7680661735321
 30
0.0
 10
390.5173897961951
 20
226.7593525995892
 30
0.0
 10
390.4714031993385
 20
226.7495094802411
 30
0.0
 10
390.454883900671
 20
226.7490056825451
 30
0.0
 10
390.4425997023379
 20
226.7584410476981
 30
0.0
 10
390.4403817601497
 20
226.7616732730195
 30
0.0
 10
390.4381011928504
 20
226.7684700214175
 30
0.0
 10
390.4375745460845
 20
226.7715579088946
 30
0.0
 10
390.4372547787034
 20
226.778354724663
 30
0.0
 10
390.4374481119686
 20
226.7820400339068
 30
0.0
 10
390.4387052216058
 20
226.7916449096599
 30
0.0
 10
390.4400938035466
 20
226.7978445716979
 30
0.0
 10
390.4469319990339
 20
226.8209852529566
 30
0.0
 10
390.4553514741857
 20
226.8403832998056
 30
0.0
 10
390.4907048628614
 20
226.9062378954472
 30
0.0
 10
390.52928520786
 20
226.960410747978
 30
0.0
 10
390.6194195442745
 20
227.049912020128
 30
0.0
 10
390.6679237222812
 20
227.0881719058239
 30
0.0
 10
390.7637874280211
 20
227.1381521250466
 30
0.0
 10
390.8070427158826
 20
227.1543569581683
 30
0.0
 10
390.8956300971641
 20
227.1717855547507
 30
0.0
 10
390.9386222828344
 20
227.1738716468764
 30
0.0
 10
391.0303276407726
 20
227.1643960533931
 30
0.0
 10
391.0762184826698
 20
227.1513252542472
 30
0.0
 10
391.1806484542483
 20
227.1056961900948
 30
0.0
 10
391.233937367919
 20
227.0674511599926
 30
0.0
 10
391.3225967317052
 20
226.9856090074406
 30
0.0
 10
391.3593183621859
 20
226.9399959163116
 30
0.0
 10
391.4065319155866
 20
226.8668381014756
 30
0.0
 10
391.4219534903821
 20
226.8364514154662
 30
0.0
 10
391.4331032025124
 20
226.80365820398
 30
0.0
 10
391.4351051344
 20
226.7961250513435
 30
0.0
 10
391.4369819961387
 20
226.7850120860804
 30
0.0
 10
391.4373593878615
 20
226.7809933350567
 30
0.0
 10
391.4373593878615
 20
226.7773281275491
 30
0.0
  0
CIRCLE
  5
1376
330
1F
100
AcDbEntity
  8
AM_VIS
100
AcDbCircle
 10
390.9373593878616
 20
231.6499306851834
 30
0.0
 40
0.5000000000000037
  0
SPLINE
  5
1377
330
1F
100
AcDbEntity
  8
AM_VIS
100
AcDbSpline
210
0.0
220
0.0
230
1.0
 70
    11
 71
     3
 72
    58
 73
    54
 74
     0
 42
0.0000000001
 43
0.0000000001
 40
-3.363896419206848
 40
-3.363896419206848
 40
-3.363896419206848
 40
-3.363896419206848
 40
-3.330080057161157
 40
-3.330080057161157
 40
-3.276087946130379
 40
-3.276087946130379
 40
-3.130129325352126
 40
-3.130129325352126
 40
-2.864475625688879
 40
-2.864475625688879
 40
-2.670984402665324
 40
-2.670984402665324
 40
-2.529876972570241
 40
-2.529876972570241
 40
-2.394146079242185
 40
-2.394146079242185
 40
-2.234845146626472
 40
-2.234845146626472
 40
-1.995446372912342
 40
-1.995446372912342
 40
-1.792732498438366
 40
-1.792732498438366
 40
-1.655061185971928
 40
-1.655061185971928
 40
-1.604023047287223
 40
-1.604023047287223
 40
-1.569394244699424
 40
-1.569394244699424
 40
-1.535224675006395
 40
-1.535224675006395
 40
-1.486406948944837
 40
-1.486406948944837
 40
-1.367760828093762
 40
-1.367760828093762
 40
-1.211422564665596
 40
-1.211422564665596
 40
-1.00947781377736
 40
-1.00947781377736
 40
-0.8308451466681658
 40
-0.8308451466681658
 40
-0.6546659190334039
 40
-0.6546659190334039
 40
-0.4706948991975911
 40
-0.4706948991975911
 40
-0.3083260207092203
 40
-0.3083260207092203
 40
-0.1833529844650886
 40
-0.1833529844650886
 40
-0.0782943285699142
 40
-0.0782943285699142
 40
-0.0333492537438367
 40
-0.0333492537438367
 40
0.0
 40
0.0
 40
0.0
 40
0.0
 10
391.4373593878615
 20
239.0225332428178
 30
0.0
 10
391.4373593878615
 20
239.0190331184821
 30
0.0
 10
391.4370152341279
 20
239.0152159357456
 30
0.0
 10
391.435282531591
 20
239.004545590965
 30
0.0
 10
391.4333997272935
 20
238.997274347407
 30
0.0
 10
391.4237624087019
 20
238.9682520166485
 30
0.0
 10
391.4114333304576
 20
238.9427994117794
 30
0.0
 10
391.3659809781508
 20
238.8675431133827
 30
0.0
 10
391.3224409309428
 20
238.8122301596634
 30
0.0
 10
391.227612986891
 20
238.7282700683374
 30
0.0
 10
391.1802131061436
 20
238.6951145432326
 30
0.0
 10
391.0865709927128
 20
238.65235657635
 30
0.0
 10
391.0438363058769
 20
238.6389932632078
 30
0.0
 10
390.9550241226245
 20
238.6262912713309
 30
0.0
 10
390.9112741148389
 20
238.6267544574446
 30
0.0
 10
390.8174770196103
 20
238.6419454834444
 30
0.0
 10
390.77048481253
 20
238.6586473557034
 30
0.0
 10
390.6640605031049
 20
238.7131010504764
 30
0.0
 10
390.6091666067492
 20
238.7577925118368
 30
0.0
 10
390.5275469737916
 20
238.8439971612049
 30
0.0
 10
390.4971321244492
 20
238.885654811647
 30
0.0
 10
390.4605414326841
 20
238.9482789434156
 30
0.0
 10
390.4493772695427
 20
238.9721578771192
 30
0.0
 10
390.440763860613
 20
238.9993404435346
 30
0.0
 10
390.4391078306529
 20
239.0061309114241
 30
0.0
 10
390.4375704650842
 20
239.0164071987899
 30
0.0
 10
390.4372916388033
 20
239.0202419705117
 30
0.0
 10
390.437453821001
 20
239.0271838122477
 30
0.0
 10
390.4378850518614
 20
239.0302897025244
 30
0.0
 10
390.4398188168188
 20
239.0369799213166
 30
0.0
 10
390.4416942675478
 20
239.0401759329527
 30
0.0
 10
390.4507651786471
 20
239.0486494718326
 30
0.0
 10
390.4615485074454
 20
239.0501755149725
 30
0.0
 10
390.4964790029088
 20
239.0461693146349
 30
0.0
 10
390.5232866314658
 20
239.0384071030303
 30
0.0
 10
390.5975542188274
 20
239.0169005895695
 30
0.0
 10
390.6500532941949
 20
239.0017006830275
 30
0.0
 10
390.7659330078129
 20
238.9789081508034
 30
0.0
 10
390.8250488175887
 20
238.9711528904427
 30
0.0
 10
390.9468237226357
 20
238.9656937960418
 30
0.0
 10
391.0074021652386
 20
238.9679321744972
 30
0.0
 10
391.1263912454168
 20
238.981333146199
 30
0.0
 10
391.1828664445648
 20
238.9927084365861
 30
0.0
 10
391.2764493548548
 20
239.0162250082519
 30
0.0
 10
391.3147312240166
 20
239.028016142298
 30
0.0
 10
391.3700829422667
 20
239.0434555393909
 30
0.0
 10
391.3898997566728
 20
239.048266551991
 30
0.0
 10
391.4174081347263
 20
239.0496453776476
 30
0.0
 10
391.4262795676939
 20
239.0473627392354
 30
0.0
 10
391.4338254002258
 20
239.038897529133
 30
0.0
 10
391.4354003552482
 20
239.0357292545614
 30
0.0
 10
391.4370247588564
 20
239.0291263920915
 30
0.0
 10
391.4373593878615
 20
239.0259850196366
 30
0.0
 10
391.4373593878615
 20
239.0225332428178
 30
0.0
  0
CIRCLE
  5
1378
330
1F
100
AcDbEntity
  8
AM_VIS
100
AcDbCircle
 10
390.9373593878616
 20
234.1499306851835
 30
0.0
 40
0.4999999999999983
  0
ARC
  5
1379
330
1F
100
AcDbEntity
  8
AM_VIS
100
AcDbCircle
 10
390.9373593878615
 20
225.9720678194748
 30
0.0
 40
0.697891107662985
100
AcDbArc
 50
44.23832232198956
 51
135.7616776780127
  0
ARC
  5
137A
330
1F
100
AcDbEntity
  8
AM_VIS
100
AcDbCircle
 10
390.9373593878616
 20
239.8278119288962
 30
0.0
 40
0.6979039290997396
100
AcDbArc
 50
224.2394032771253
 51
315.7605967228747
  0
LINE
  5
137B
330
1F
100
AcDbEntity
  8
AM_VIS
100
AcDbLine
 10
393.3373593878616
 20
223.3999306851834
 30
0.0
 11
392.8373593878616
 21
222.8999306851835
 31
0.0
  0
LINE
  5
137C
330
1F
100
AcDbEntity
  8
AM_VIS
100
AcDbLine
 10
393.3373593878616
 20
242.3999306851834
 30
0.0
 11
392.8373593878616
 21
242.8999306851835
 31
0.0
  0
LINE
  5
137D
330
1F
100
AcDbEntity
  8
AM_VIS
100
AcDbLine
 10
391.6873593878615
 20
222.8999306851835
 30
0.0
 11
392.8373593878616
 21
222.8999306851835
 31
0.0
  0
LINE
  5
137E
330
1F
100
AcDbEntity
  8
AM_VIS
100
AcDbLine
 10
391.6873593878615
 20
242.8999306851835
 30
0.0
 11
392.8373593878616
 21
242.8999306851835
 31
0.0
  0
LINE
  5
137F
330
1F
100
AcDbEntity
  8
AM_VIS
100
AcDbLine
 10
387.3373593878616
 20
222.8999306851835
 30
0.0
 11
390.1873593878615
 21
222.8999306851835
 31
0.0
  0
LINE
  5
1380
330
1F
100
AcDbEntity
  8
AM_VIS
100
AcDbLine
 10
387.3373593878616
 20
242.8999306851835
 30
0.0
 11
390.1873593878615
 21
242.8999306851835
 31
0.0
  0
LINE
  5
1381
330
1F
100
AcDbEntity
  8
AM_VIS
100
AcDbLine
 10
387.1373593878615
 20
225.3999306851834
 30
0.0
 11
387.3373593878615
 21
222.8999306851835
 31
0.0
  0
LINE
  5
1382
330
1F
100
AcDbEntity
  8
AM_VIS
100
AcDbLine
 10
387.1373593878615
 20
240.3999306851834
 30
0.0
 11
387.3373593878615
 21
242.8999306851835
 31
0.0
  0
LINE
  5
1383
330
1F
100
AcDbEntity
  8
AM_VIS
100
AcDbLine
 10
386.3373593878616
 20
240.3999306851834
 30
0.0
 11
385.8373593878616
 21
242.8999306851835
 31
0.0
  0
LINE
  5
1384
330
1F
100
AcDbEntity
  8
AM_VIS
100
AcDbLine
 10
386.3373593878616
 20
225.3999306851834
 30
0.0
 11
385.8373593878616
 21
222.8999306851835
 31
0.0
  0
LINE
  5
1385
330
1F
100
AcDbEntity
  8
AM_VIS
100
AcDbLine
 10
386.3373593878616
 20
225.3999306851834
 30
0.0
 11
387.1373593878615
 21
225.3999306851834
 31
0.0
  0
LINE
  5
1386
330
1F
100
AcDbEntity
  8
AM_VIS
100
AcDbLine
 10
386.3373593878616
 20
240.3999306851834
 30
0.0
 11
387.1373593878615
 21
240.3999306851834
 31
0.0
  0
LINE
  5
1387
330
1F
100
AcDbEntity
  8
AM_VIS
100
AcDbLine
 10
385.3373593878615
 20
222.8999306851835
 30
0.0
 11
385.8373593878616
 21
222.8999306851835
 31
0.0
  0
LINE
  5
1388
330
1F
100
AcDbEntity
  8
AM_VIS
100
AcDbLine
 10
385.3373593878615
 20
242.8999306851835
 30
0.0
 11
385.8373593878616
 21
242.8999306851835
 31
0.0
  0
LINE
  5
1389
330
1F
100
AcDbEntity
  8
AM_VIS
100
AcDbLine
 10
392.8373593878616
 20
222.8999306851835
 30
0.0
 11
392.8373593878616
 21
223.061977514859
 31
0.0
  0
LINE
  5
138A
330
1F
100
AcDbEntity
  8
AM_VIS
100
AcDbLine
 10
392.8373593878616
 20
242.7378838555079
 30
0.0
 11
392.8373593878616
 21
242.8999306851835
 31
0.0
  0
LINE
  5
138B
330
1F
100
AcDbEntity
  8
AM_VIS
100
AcDbLine
 10
392.8373593878616
 20
226.4282119888265
 30
0.0
 11
392.8373593878616
 21
229.5336962112159
 31
0.0
  0
LINE
  5
138C
330
1F
100
AcDbEntity
  8
AM_VIS
100
AcDbLine
 10
392.8373593878616
 20
236.266165159151
 30
0.0
 11
392.8373593878616
 21
239.3716493815403
 31
0.0
  0
LINE
  5
138D
330
1F
100
AcDbEntity
  8
AM_VIS
100
AcDbLine
 10
391.6873593878615
 20
242.7378838555079
 30
0.0
 11
391.6873593878615
 21
242.8999306851835
 31
0.0
  0
LINE
  5
138E
330
1F
100
AcDbEntity
  8
AM_VIS
100
AcDbLine
 10
391.6873593878615
 20
242.7378838555079
 30
0.0
 11
391.6873593878615
 21
239.3716493815402
 31
0.0
  0
LINE
  5
138F
330
1F
100
AcDbEntity
  8
AM_VIS
100
AcDbLine
 10
391.6873593878615
 20
236.266165159151
 30
0.0
 11
391.6873593878615
 21
239.3716493815403
 31
0.0
  0
LINE
  5
1390
330
1F
100
AcDbEntity
  8
AM_VIS
100
AcDbLine
 10
391.6873593878615
 20
236.266165159151
 30
0.0
 11
391.6873593878615
 21
229.5336962112158
 31
0.0
  0
LINE
  5
1391
330
1F
100
AcDbEntity
  8
AM_VIS
100
AcDbLine
 10
391.6873593878615
 20
226.4282119888265
 30
0.0
 11
391.6873593878615
 21
229.5336962112159
 31
0.0
  0
LINE
  5
1392
330
1F
100
AcDbEntity
  8
AM_VIS
100
AcDbLine
 10
391.6873593878615
 20
226.4282119888265
 30
0.0
 11
391.6873593878615
 21
223.0619775148589
 31
0.0
  0
LINE
  5
1393
330
1F
100
AcDbEntity
  8
AM_VIS
100
AcDbLine
 10
391.6873593878615
 20
222.8999306851835
 30
0.0
 11
391.6873593878615
 21
223.061977514859
 31
0.0
  0
LINE
  5
1394
330
1F
100
AcDbEntity
  8
AM_VIS
100
AcDbLine
 10
390.1873593878615
 20
223.0619775148589
 30
0.0
 11
390.1873593878615
 21
226.4282119888265
 31
0.0
  0
LINE
  5
1395
330
1F
100
AcDbEntity
  8
AM_VIS
100
AcDbLine
 10
390.1873593878615
 20
223.061977514859
 30
0.0
 11
390.1873593878615
 21
222.8999306851835
 31
0.0
  0
LINE
  5
1396
330
1F
100
AcDbEntity
  8
AM_VIS
100
AcDbLine
 10
390.1873593878615
 20
229.5336962112159
 30
0.0
 11
390.1873593878615
 21
226.4282119888265
 31
0.0
  0
LINE
  5
1397
330
1F
100
AcDbEntity
  8
AM_VIS
100
AcDbLine
 10
390.1873593878615
 20
239.3716493815403
 30
0.0
 11
390.1873593878615
 21
236.266165159151
 31
0.0
  0
LINE
  5
1398
330
1F
100
AcDbEntity
  8
AM_VIS
100
AcDbLine
 10
390.1873593878615
 20
242.8999306851835
 30
0.0
 11
390.1873593878615
 21
242.7378838555079
 31
0.0
  0
LINE
  5
1399
330
1F
100
AcDbEntity
  8
AM_VIS
100
AcDbLine
 10
390.1873593878615
 20
229.5336962112159
 30
0.0
 11
390.1873593878615
 21
236.2661651591511
 31
0.0
  0
LINE
  5
139A
330
1F
100
AcDbEntity
  8
AM_VIS
100
AcDbLine
 10
390.1873593878615
 20
239.3716493815402
 30
0.0
 11
390.1873593878615
 21
242.737883855508
 31
0.0
  0
LINE
  5
139B
330
1F
100
AcDbEntity
  8
AM_VIS
100
AcDbLine
 10
387.3373593878616
 20
242.7378838555079
 30
0.0
 11
387.3373593878616
 21
242.8999306851835
 31
0.0
  0
LINE
  5
139C
330
1F
100
AcDbEntity
  8
AM_VIS
100
AcDbLine
 10
387.3373593878616
 20
236.266165159151
 30
0.0
 11
387.3373593878616
 21
239.3716493815403
 31
0.0
  0
LINE
  5
139D
330
1F
100
AcDbEntity
  8
AM_VIS
100
AcDbLine
 10
387.3373593878616
 20
226.4282119888265
 30
0.0
 11
387.3373593878616
 21
229.5336962112159
 31
0.0
  0
LINE
  5
139E
330
1F
100
AcDbEntity
  8
AM_VIS
100
AcDbLine
 10
387.3373593878616
 20
222.8999306851835
 30
0.0
 11
387.3373593878616
 21
223.061977514859
 31
0.0
  0
LINE
  5
139F
330
1F
100
AcDbEntity
  8
AM_VIS
100
AcDbLine
 10
387.1373593878615
 20
225.3999306851834
 30
0.0
 11
387.1373593878615
 21
240.3999306851834
 31
0.0
  0
LINE
  5
13A0
330
1F
100
AcDbEntity
  8
AM_VIS
100
AcDbLine
 10
386.3373593878616
 20
225.3999306851834
 30
0.0
 11
386.3373593878616
 21
240.3999306851834
 31
0.0
  0
LINE
  5
13A1
330
1F
100
AcDbEntity
  8
AM_VIS
100
AcDbLine
 10
385.8373593878616
 20
242.8999306851835
 30
0.0
 11
385.8373593878616
 21
222.8999306851835
 31
0.0
  0
LINE
  5
13A2
330
1F
100
AcDbEntity
  8
AM_VIS
100
AcDbLine
 10
393.3373593878616
 20
242.3999306851834
 30
0.0
 11
393.3373593878616
 21
242.1015117589152
 31
0.0
  0
LINE
  5
13A3
330
1F
100
AcDbEntity
  8
AM_VIS
100
AcDbLine
 10
393.3373593878616
 20
223.6983496114517
 30
0.0
 11
393.3373593878616
 21
223.3999306851834
 31
0.0
  0
LINE
  5
13A4
330
1F
100
AcDbEntity
  8
AM_VIS
100
AcDbLine
 10
393.3373593878616
 20
226.2532468696599
 30
0.0
 11
393.3373593878616
 21
223.6983496114517
 31
0.0
  0
LINE
  5
13A5
330
1F
100
AcDbEntity
  8
AM_VIS
100
AcDbLine
 10
393.3373593878616
 20
230.3450334269752
 30
0.0
 11
393.3373593878616
 21
226.2532468696599
 31
0.0
  0
LINE
  5
13A6
330
1F
100
AcDbEntity
  8
AM_VIS
100
AcDbLine
 10
393.3373593878616
 20
235.4548279433917
 30
0.0
 11
393.3373593878616
 21
230.3450334269751
 31
0.0
  0
LINE
  5
13A7
330
1F
100
AcDbEntity
  8
AM_VIS
100
AcDbLine
 10
393.3373593878616
 20
239.5466145007068
 30
0.0
 11
393.3373593878616
 21
235.4548279433917
 31
0.0
  0
LINE
  5
13A8
330
1F
100
AcDbEntity
  8
AM_VIS
100
AcDbLine
 10
393.3373593878616
 20
242.1015117589152
 30
0.0
 11
393.3373593878616
 21
239.5466145007068
 31
0.0
  0
ARC
  5
13A9
330
1F
100
AcDbEntity
  8
AM_VIS
100
AcDbCircle
 10
390.9373593878616
 20
239.8999306851834
 30
0.0
 40
0.75
100
AcDbArc
 50
180.0
 51
228.1896851042203
  0
ARC
  5
13AA
330
1F
100
AcDbEntity
  8
AM_VIS
100
AcDbCircle
 10
390.9373593878616
 20
239.8999306851834
 30
0.0
 40
0.75
100
AcDbArc
 50
311.8103148957778
 51
0.0
  0
ARC
  5
13AB
330
1F
100
AcDbEntity
  8
AM_VIS
100
AcDbCircle
 10
390.9373593878616
 20
225.8999306851834
 30
0.0
 40
0.75
100
AcDbArc
 50
0.0
 51
48.18968510422267
  0
ARC
  5
13AC
330
1F
100
AcDbEntity
  8
AM_VIS
100
AcDbCircle
 10
390.9373593878616
 20
225.8999306851834
 30
0.0
 40
0.75
100
AcDbArc
 50
131.8103148957784
 51
180.0
  0
LINE
  5
13B1
330
1F
100
AcDbEntity
  8
AM_VIS
100
AcDbLine
 10
355.8373593878616
 20
250.3999306851835
 30
0.0
 11
385.3373593878615
 21
250.3999306851835
 31
0.0
  0
LINE
  5
13B2
330
1F
100
AcDbEntity
  8
AM_VIS
100
AcDbLine
 10
385.3373593878615
 20
225.8999306851835
 30
0.0
 11
385.3373593878615
 21
250.3999306851835
 31
0.0
  0
LINE
  5
13B3
330
1F
100
AcDbEntity
  8
AM_VIS
100
AcDbLine
 10
355.8373593878616
 20
221.8999306851835
 30
0.0
 11
385.3373593878615
 21
221.8999306851835
 31
0.0
  0
LINE
  5
13B4
330
1F
100
AcDbEntity
  8
AM_VIS
100
AcDbLine
 10
385.3373593878615
 20
225.8999306851835
 30
0.0
 11
385.3373593878615
 21
221.8999306851835
 31
0.0
  0
LINE
  5
13B5
330
1F
100
AcDbEntity
  8
AM_VIS
100
AcDbLine
 10
329.8373593878615
 20
256.0999306851834
 30
0.0
 11
329.837359387858
 21
256.0999306851834
 31
0.0
  0
LINE
  5
13B7
330
1F
100
AcDbEntity
  8
AM_VIS
100
AcDbLine
 10
329.837359387858
 20
209.6999306851834
 30
0.0
 11
329.8373593878615
 21
209.6999306851834
 31
0.0
  0
LINE
  5
13B8
330
1F
100
AcDbEntity
  8
AM_VIS
100
AcDbLine
 10
329.8373593878615
 20
210.1999306851834
 30
0.0
 11
329.8373593878615
 21
255.5999306851834
 31
0.0
  0
LINE
  5
13B9
330
1F
100
AcDbEntity
  8
AM_VIS
100
AcDbLine
 10
329.837359387858
 20
256.0999306851834
 30
0.0
 11
329.837359387858
 21
255.5999306851834
 31
0.0
  0
LINE
  5
13BA
330
1F
100
AcDbEntity
  8
AM_VIS
100
AcDbLine
 10
329.837359387858
 20
255.5999306851834
 30
0.0
 11
329.837359387858
 21
210.1999306851834
 31
0.0
  0
LINE
  5
13BB
330
1F
100
AcDbEntity
  8
AM_VIS
100
AcDbLine
 10
329.837359387858
 20
210.1999306851834
 30
0.0
 11
329.837359387858
 21
209.6999306851834
 31
0.0
  0
LINE
  5
13BD
330
1F
100
AcDbEntity
  8
AM_VIS
100
AcDbLine
 10
255.837359387858
 20
255.5999306851834
 30
0.0
 11
255.837359387858
 21
210.1999306851834
 31
0.0
  0
LINE
  5
13BE
330
1F
100
AcDbEntity
  8
AM_VIS
100
AcDbLine
 10
329.837359387858
 20
209.6999306851834
 30
0.0
 11
329.837359387858
 21
210.1999306851835
 31
0.0
  0
LINE
  5
13BF
330
1F
100
AcDbEntity
  8
AM_VIS
100
AcDbLine
 10
329.837359387858
 20
210.1999306851834
 30
0.0
 11
329.837359387858
 21
255.5999306851834
 31
0.0
  0
LINE
  5
13C0
330
1F
100
AcDbEntity
  8
AM_VIS
100
AcDbLine
 10
329.837359387858
 20
255.5999306851834
 30
0.0
 11
329.837359387858
 21
256.0999306851834
 31
0.0
  0
LINE
  5
13C1
330
1F
100
AcDbEntity
  8
AM_VIS
100
AcDbLine
 10
255.837359387858
 20
209.6999306851834
 30
0.0
 11
329.837359387858
 21
209.6999306851834
 31
0.0
  0
LINE
  5
13C2
330
1F
100
AcDbEntity
  8
AM_VIS
100
AcDbLine
 10
329.837359387858
 20
256.0999306851834
 30
0.0
 11
255.837359387858
 21
256.0999306851834
 31
0.0
  0
CIRCLE
  5
13C3
330
1F
100
AcDbEntity
  8
AM_VIS
100
AcDbCircle
 10
305.837359387858
 20
214.3999306851835
 30
0.0
 40
2.25
  0
CIRCLE
  5
13C4
102
{ACAD_REACTORS
330
2261
102
}
330
1F
100
AcDbEntity
  8
AM_VIS
100
AcDbCircle
 10
292.837359387858
 20
251.3999306851835
 30
0.0
 40
2.25
  0
CIRCLE
  5
13C5
330
1F
100
AcDbEntity
  8
AM_VIS
100
AcDbCircle
 10
279.837359387858
 20
214.3999306851835
 30
0.0
 40
2.25
  0
LINE
  5
13C6
330
1F
100
AcDbEntity
  8
AM_VIS
100
AcDbLine
 10
344.5373593878581
 20
325.3118602143086
 30
0.0
 11
344.5373593878581
 21
330.3118602143086
 31
0.0
  0
LINE
  5
13C7
330
1F
100
AcDbEntity
  8
AM_VIS
100
AcDbLine
 10
344.5373593878581
 20
330.3118602143086
 30
0.0
 11
345.5373593878581
 21
330.3118602143086
 31
0.0
  0
LINE
  5
13C8
330
1F
100
AcDbEntity
  8
AM_VIS
100
AcDbLine
 10
345.5373593878581
 20
330.3118602143086
 30
0.0
 11
345.5373593878581
 21
325.3118602143086
 31
0.0
  0
LINE
  5
13C9
330
1F
100
AcDbEntity
  8
AM_VIS
100
AcDbLine
 10
345.5373593878581
 20
325.3118602143086
 30
0.0
 11
344.5373593878581
 21
325.3118602143086
 31
0.0
  0
LINE
  5
13CB
330
1F
100
AcDbEntity
  8
AM_VIS
100
AcDbLine
 10
342.637359387858
 20
330.2902669605873
 30
0.0
 11
342.637359387858
 21
330.3594080548799
 31
0.0
  0
LINE
  5
13D0
330
1F
100
AcDbEntity
  8
AM_VIS
100
AcDbLine
 10
329.8373593878581
 20
342.8118602143086
 30
0.0
 11
353.8373593878581
 21
342.3929386560314
 31
0.0
  0
LINE
  5
13D1
330
1F
100
AcDbEntity
  8
AM_VIS
100
AcDbLine
 10
329.8373593878581
 20
312.8118602143085
 30
0.0
 11
353.8373593878581
 21
313.2307817725858
 31
0.0
  0
LINE
  5
13D2
330
1F
100
AcDbEntity
  8
AM_VIS
100
AcDbLine
 10
353.8373593878581
 20
313.2292913209103
 30
0.0
 11
353.7519714685541
 21
313.2292913209103
 31
0.0
  0
CIRCLE
  5
13D3
330
1F
100
AcDbEntity
  8
AM_VIS
100
AcDbCircle
 10
345.0373593878581
 20
327.8118602143087
 30
0.0
 40
3.5
  0
LINE
  5
13D4
330
1F
100
AcDbEntity
  8
AM_VIS
100
AcDbLine
 10
347.5373593878581
 20
330.1893588999024
 30
0.0
 11
347.5373593878581
 21
330.2613499570917
 31
0.0
  0
LINE
  5
13D5
330
1F
100
AcDbEntity
  8
AM_VIS
100
AcDbLine
 10
342.5373593878581
 20
330.2613499570917
 30
0.0
 11
342.5373593878581
 21
330.1893588999024
 31
0.0
  0
LINE
  5
13D7
330
1F
100
AcDbEntity
  8
AM_VIS
100
AcDbLine
 10
353.8373593878581
 20
313.2307817725858
 30
0.0
 11
353.8373593878581
 21
313.5756121577732
 31
0.0
  0
LINE
  5
13D8
330
1F
100
AcDbEntity
  8
AM_VIS
100
AcDbLine
 10
353.8373593878581
 20
342.0481082708441
 30
0.0
 11
353.8373593878581
 21
342.3929386560313
 31
0.0
  0
LINE
  5
13D9
330
1F
100
AcDbEntity
  8
AM_VIS
100
AcDbLine
 10
329.8373593878581
 20
312.8118602143086
 30
0.0
 11
329.837359387858
 21
342.8118602143086
 31
0.0
  0
LINE
  5
13DA
330
1F
100
AcDbEntity
  8
AM_VIS
100
AcDbLine
 10
353.8373593878581
 20
313.7118602143086
 30
0.0
 11
353.8373593878581
 21
341.9118602143087
 31
0.0
  0
LINE
  5
13DB
330
1F
100
AcDbEntity
  8
AM_VIS
100
AcDbLine
 10
353.8373593878581
 20
313.2118602143088
 30
0.0
 11
355.8373593878581
 21
313.2118602143088
 31
0.0
  0
LINE
  5
13DC
330
1F
100
AcDbEntity
  8
AM_VIS
100
AcDbLine
 10
355.8373593878581
 20
313.7118602143085
 30
0.0
 11
355.8373593878581
 21
319.0090845765763
 31
0.0
  0
LINE
  5
13DD
330
1F
100
AcDbEntity
  8
AM_VIS
100
AcDbLine
 10
355.8373593878581
 20
336.614635852041
 30
0.0
 11
355.8373593878581
 21
341.9118602143086
 31
0.0
  0
LINE
  5
13DE
330
1F
100
AcDbEntity
  8
AM_VIS
100
AcDbLine
 10
355.8373593878581
 20
342.4118602143086
 30
0.0
 11
353.8373593878581
 21
342.4118602143086
 31
0.0
  0
LINE
  5
13DF
330
1F
100
AcDbEntity
  8
AM_VIS
100
AcDbLine
 10
353.8373593878581
 20
342.3929386560314
 30
0.0
 11
353.8373593878581
 21
342.4118602143086
 31
0.0
  0
LINE
  5
13E0
330
1F
100
AcDbEntity
  8
AM_VIS
100
AcDbLine
 10
353.8373593878581
 20
341.9118602143087
 30
0.0
 11
353.8373593878581
 21
342.0481082708441
 31
0.0
  0
LINE
  5
13E1
330
1F
100
AcDbEntity
  8
AM_VIS
100
AcDbLine
 10
353.8373593878581
 20
313.5756121577732
 30
0.0
 11
353.8373593878581
 21
313.7118602143087
 31
0.0
  0
LINE
  5
13E2
330
1F
100
AcDbEntity
  8
AM_VIS
100
AcDbLine
 10
353.8373593878581
 20
313.2118602143088
 30
0.0
 11
353.8373593878581
 21
313.2307817725859
 31
0.0
  0
LINE
  5
13E3
330
1F
100
AcDbEntity
  8
AM_VIS
100
AcDbLine
 10
355.8373593878581
 20
313.7118602143087
 30
0.0
 11
355.8373593878581
 21
313.2118602143088
 31
0.0
  0
LINE
  5
13E4
330
1F
100
AcDbEntity
  8
AM_VIS
100
AcDbLine
 10
355.8373593878581
 20
342.4118602143086
 30
0.0
 11
355.8373593878581
 21
341.9118602143087
 31
0.0
  0
LINE
  5
13E7
330
1F
100
AcDbEntity
  8
AM_VIS
100
AcDbLine
 10
343.0373704877863
 20
342.5816528618698
 30
0.0
 11
343.137355257302
 21
342.5799076212261
 31
0.0
  0
ARC
  5
13E8
330
1F
100
AcDbEntity
  8
AM_VIS
100
AcDbCircle
 10
343.0666019319515
 20
341.3913867515832
 30
0.0
 40
1.190625
100
AcDbArc
 50
86.37431186658838
 51
86.59317024080964
  0
ARC
  5
13E9
330
1F
100
AcDbEntity
  8
AM_VIS
100
AcDbCircle
 10
343.0666019319515
 20
341.3913867515832
 30
0.0
 40
1.190625
100
AcDbArc
 50
91.40682975918979
 51
91.62568813341032
  0
LINE
  5
13FD
330
1F
100
AcDbEntity
  8
AM_VIS
100
AcDbLine
 10
255.8373593878577
 20
342.8118602143096
 30
0.0
 11
255.8373593878577
 21
312.8118602143095
 31
0.0
  0
SPLINE
  5
140E
330
1F
100
AcDbEntity
  8
AM_VIS
100
AcDbSpline
210
0.0
220
0.0
230
1.0
 70
     8
 71
     3
 72
    18
 73
    14
 74
     0
 42
0.0000000001
 43
0.0000000001
 40
6.072258403086962
 40
6.072258403086962
 40
6.072258403086962
 40
6.072258403086962
 40
6.091519998582311
 40
6.091519998582311
 40
6.594079983681931
 40
6.594079983681931
 40
7.096639968781531
 40
7.096639968781531
 40
7.59919995388113
 40
7.59919995388113
 40
8.101759938980729
 40
8.101759938980729
 40
8.212872863102431
 40
8.212872863102431
 40
8.212872863102431
 40
8.212872863102431
 10
384.1254123296571
 20
319.6123987301726
 30
0.0
 10
384.1262621998581
 20
319.6147284575142
 30
0.0
 10
384.1270955744503
 20
319.6170706680344
 30
0.0
 10
384.149226632997
 20
319.6808583223115
 30
0.0
 10
384.1591830438752
 20
319.7508445827533
 30
0.0
 10
384.1591830438752
 20
319.9006790213471
 30
0.0
 10
384.149226632997
 20
319.986399836085
 30
0.0
 10
384.1065983291202
 20
320.1760784111718
 30
0.0
 10
384.0739285876787
 20
320.2800329084305
 30
0.0
 10
383.9865632549298
 20
320.4998322897071
 30
0.0
 10
383.9318106941955
 20
320.6157934289549
 30
0.0
 10
383.8538368122081
 20
320.7595857906858
 30
0.0
 10
383.8392800181117
 20
320.7857061187041
 30
0.0
 10
383.824317072127
 20
320.8118602143088
 30
0.0
  0
ARC
  5
140F
330
1F
100
AcDbEntity
  8
AM_VIS
100
AcDbCircle
 10
361.7979767917191
 20
307.6521227324729
 30
0.0
 40
25.65810508862946
100
AcDbArc
 50
30.85639869766118
 51
42.0943756774885
  0
SPLINE
  5
1410
330
1F
100
AcDbEntity
  8
AM_VIS
100
AcDbSpline
210
0.0
220
0.0
230
1.0
 70
     8
 71
     3
 72
    18
 73
    14
 74
     0
 42
0.0000000001
 43
0.0000000001
 40
4.975287104260677
 40
4.975287104260677
 40
4.975287104260677
 40
4.975287104260677
 40
5.086400028382842
 40
5.086400028382842
 40
5.588960013482415
 40
5.588960013482415
 40
6.091519998581987
 40
6.091519998581987
 40
6.59407998368156
 40
6.59407998368156
 40
7.096639968781131
 40
7.096639968781131
 40
7.11590156427612
 40
7.11590156427612
 40
7.11590156427612
 40
7.11590156427612
 10
383.824317072127
 20
334.8118602143088
 30
0.0
 10
383.8392800181117
 20
334.8380143099136
 30
0.0
 10
383.8538368122082
 20
334.864134637932
 30
0.0
 10
383.9318106941957
 20
335.007926999663
 30
0.0
 10
383.9865632549299
 20
335.1238881389108
 30
0.0
 10
384.0739285876789
 20
335.3436875201873
 30
0.0
 10
384.1065983291202
 20
335.447642017446
 30
0.0
 10
384.149226632997
 20
335.6373205925327
 30
0.0
 10
384.1591830438752
 20
335.7230414072706
 30
0.0
 10
384.1591830438752
 20
335.8728758458645
 30
0.0
 10
384.149226632997
 20
335.9428621063061
 30
0.0
 10
384.1270955744502
 20
336.0066497605832
 30
0.0
 10
384.1262621998581
 20
336.0089919711033
 30
0.0
 10
384.1254123296571
 20
336.0113216984449
 30
0.0
  0
ARC
  5
1411
330
1F
100
AcDbEntity
  8
AM_VIS
100
AcDbCircle
 10
361.7979767917158
 20
347.9715976961462
 30
0.0
 40
25.65810508863313
100
AcDbArc
 50
317.9056243225127
 51
329.1436013023395
  0
LINE
  5
1412
330
1F
100
AcDbEntity
  8
AM_VIS
100
AcDbLine
 10
358.8373593878579
 20
317.3118602143087
 30
0.0
 11
380.8373593878579
 21
317.3118602143087
 31
0.0
  0
SPLINE
  5
1413
330
1F
100
AcDbEntity
  8
AM_VIS
100
AcDbSpline
210
0.0
220
0.0
230
1.0
 70
    12
 71
     2
 72
     6
 73
     3
 74
     0
 42
0.0000000001
 43
0.0000000001
 40
0.0
 40
0.0
 40
0.0
 40
3.381727793507036
 40
3.381727793507036
 40
3.381727793507036
 10
380.8373593878579
 20
324.852130496919
 30
0.0
 41
1.0
 10
379.3373593878579
 20
326.3928117196698
 30
0.0
 41
1.021203771466384
 10
379.3373593878579
 20
327.8118602143087
 30
0.0
 41
1.0
  0
SPLINE
  5
1414
330
1F
100
AcDbEntity
  8
AM_VIS
100
AcDbSpline
210
0.0
220
0.0
230
1.0
 70
    12
 71
     2
 72
     6
 73
     3
 74
     0
 42
0.0000000001
 43
0.0000000001
 40
3.381727793507036
 40
3.381727793507036
 40
3.381727793507036
 40
6.763455587014078
 40
6.763455587014078
 40
6.763455587014078
 10
379.3373593878579
 20
327.8118602143087
 30
0.0
 41
1.0
 10
379.3373593878579
 20
329.2309087089476
 30
0.0
 41
1.021203771466384
 10
380.8373593878579
 20
330.7715899316984
 30
0.0
 41
1.0
  0
LINE
  5
1415
330
1F
100
AcDbEntity
  8
AM_VIS
100
AcDbLine
 10
355.3373593878579
 20
334.8118602143086
 30
0.0
 11
355.3373593878579
 21
320.8118602143086
 31
0.0
  0
LINE
  5
1416
330
1F
100
AcDbEntity
  8
AM_VIS
100
AcDbLine
 10
380.8373593878579
 20
338.3118602143087
 30
0.0
 11
358.8373593878579
 21
338.3118602143087
 31
0.0
  0
LINE
  5
1417
330
1F
100
AcDbEntity
  8
AM_VIS
100
AcDbLine
 10
383.8387031923284
 20
319.0113226925205
 30
0.0
 11
384.3373593878579
 21
318.8118602143088
 31
0.0
  0
LINE
  5
1418
330
1F
100
AcDbEntity
  8
AM_VIS
100
AcDbLine
 10
383.8387031923283
 20
336.612397736097
 30
0.0
 11
384.3373593878579
 21
336.8118602143088
 31
0.0
  0
LINE
  5
1419
330
1F
100
AcDbEntity
  8
AM_VIS
100
AcDbLine
 10
384.3373593878579
 20
318.8118602143088
 30
0.0
 11
397.3373593878579
 21
318.8118602143088
 31
0.0
  0
LINE
  5
141A
330
1F
100
AcDbEntity
  8
AM_VIS
100
AcDbLine
 10
384.3373593878579
 20
336.8118602143088
 30
0.0
 11
397.3373593878579
 21
336.8118602143088
 31
0.0
  0
ARC
  5
141B
330
1F
100
AcDbEntity
  8
AM_VIS
100
AcDbCircle
 10
380.8373593878579
 20
320.8118602143086
 30
0.0
 40
3.5
100
AcDbArc
 50
270.0
 51
339.9583415914338
  0
LINE
  5
141C
330
1F
100
AcDbEntity
  8
AM_VIS
100
AcDbLine
 10
384.3373593878579
 20
318.8118602143088
 30
0.0
 11
384.3373593878579
 21
336.8118602143088
 31
0.0
  0
LINE
  5
141D
330
1F
100
AcDbEntity
  8
AM_VIS
100
AcDbLine
 10
397.3373593878579
 20
336.8118602143088
 30
0.0
 11
397.3373593878579
 21
318.8118602143088
 31
0.0
  0
ARC
  5
141E
330
1F
100
AcDbEntity
  8
AM_VIS
100
AcDbCircle
 10
358.8373593878579
 20
334.8118602143086
 30
0.0
 40
3.5
100
AcDbArc
 50
90.0
 51
180.0
  0
ARC
  5
141F
330
1F
100
AcDbEntity
  8
AM_VIS
100
AcDbCircle
 10
380.8373593878579
 20
334.8118602143086
 30
0.0
 40
3.499999999999999
100
AcDbArc
 50
20.04165840856617
 51
90.0
  0
ARC
  5
1420
330
1F
100
AcDbEntity
  8
AM_VIS
100
AcDbCircle
 10
358.8373593878579
 20
320.8118602143086
 30
0.0
 40
3.5
100
AcDbArc
 50
180.0
 51
270.0
  0
CIRCLE
  5
1421
330
1F
100
AcDbEntity
  8
AM_VIS
100
AcDbCircle
 10
369.8373593878579
 20
327.8118602143087
 30
0.0
 40
3.5
  0
LINE
  5
1436
330
1F
100
AcDbEntity
  8
AM_VIS
100
AcDbLine
 10
404.337359387858
 20
326.0618602143086
 30
0.0
 11
398.8373593878581
 21
326.0618602143086
 31
0.0
  0
LINE
  5
1437
330
1F
100
AcDbEntity
  8
AM_VIS
100
AcDbLine
 10
398.8373593878581
 20
329.5618602143087
 30
0.0
 11
404.337359387858
 21
329.5618602143087
 31
0.0
  0
LINE
  5
1438
330
1F
100
AcDbEntity
  8
AM_VIS
100
AcDbLine
 10
404.337359387858
 20
329.0618602143088
 30
0.0
 11
398.8373593878581
 21
329.0618602143088
 31
0.0
  0
LINE
  5
1439
330
1F
100
AcDbEntity
  8
AM_VIS
100
AcDbLine
 10
404.337359387858
 20
326.5618602143088
 30
0.0
 11
398.8373593878581
 21
326.5618602143088
 31
0.0
  0
LINE
  5
143A
330
1F
100
AcDbEntity
  8
AM_VIS
100
AcDbLine
 10
404.337359387858
 20
323.1930580607918
 30
0.0
 11
398.8373593878581
 21
323.1930580607918
 31
0.0
  0
LINE
  5
143B
330
1F
100
AcDbEntity
  8
AM_VIS
100
AcDbLine
 10
404.337359387858
 20
318.5742559072747
 30
0.0
 11
398.8373593878581
 21
318.5742559072747
 31
0.0
  0
LINE
  5
143C
330
1F
100
AcDbEntity
  8
AM_VIS
100
AcDbLine
 10
404.337359387858
 20
320.6916696859254
 30
0.0
 11
398.8373593878581
 21
320.6916696859254
 31
0.0
  0
LINE
  5
143D
330
1F
100
AcDbEntity
  8
AM_VIS
100
AcDbLine
 10
404.337359387858
 20
320.0086569840332
 30
0.0
 11
398.8373593878581
 21
320.0086569840332
 31
0.0
  0
LINE
  5
143E
330
1F
100
AcDbEntity
  8
AM_VIS
100
AcDbLine
 10
398.8373593878581
 20
321.7586569840332
 30
0.0
 11
404.337359387858
 21
321.7586569840332
 31
0.0
  0
LINE
  5
143F
330
1F
100
AcDbEntity
  8
AM_VIS
100
AcDbLine
 10
404.337359387858
 20
337.0494645213428
 30
0.0
 11
398.8373593878581
 21
337.0494645213428
 31
0.0
  0
LINE
  5
1440
330
1F
100
AcDbEntity
  8
AM_VIS
100
AcDbLine
 10
398.8373593878581
 20
332.4306623678257
 30
0.0
 11
398.8373593878581
 21
329.5618602143087
 31
0.0
  0
LINE
  5
1441
330
1F
100
AcDbEntity
  8
AM_VIS
100
AcDbLine
 10
398.8373593878581
 20
329.0618602143088
 30
0.0
 11
398.8373593878581
 21
329.5618602143087
 31
0.0
  0
LINE
  5
1442
330
1F
100
AcDbEntity
  8
AM_VIS
100
AcDbLine
 10
398.8373593878581
 20
326.5618602143088
 30
0.0
 11
398.8373593878581
 21
329.0618602143088
 31
0.0
  0
LINE
  5
1443
330
1F
100
AcDbEntity
  8
AM_VIS
100
AcDbLine
 10
398.8373593878581
 20
326.0618602143087
 30
0.0
 11
398.8373593878581
 21
326.5618602143088
 31
0.0
  0
LINE
  5
1444
330
1F
100
AcDbEntity
  8
AM_VIS
100
AcDbLine
 10
398.8373593878581
 20
326.0618602143087
 30
0.0
 11
398.8373593878581
 21
323.1930580607918
 31
0.0
  0
LINE
  5
1445
330
1F
100
AcDbEntity
  8
AM_VIS
100
AcDbLine
 10
398.8373593878581
 20
323.1930580607917
 30
0.0
 11
398.8373593878581
 21
321.7586569840332
 31
0.0
  0
LINE
  5
1446
330
1F
100
AcDbEntity
  8
AM_VIS
100
AcDbLine
 10
398.8373593878581
 20
320.6916696859254
 30
0.0
 11
398.8373593878581
 21
321.7586569840333
 31
0.0
  0
LINE
  5
1447
330
1F
100
AcDbEntity
  8
AM_VIS
100
AcDbLine
 10
398.8373593878581
 20
320.0086569840333
 30
0.0
 11
398.8373593878581
 21
320.6916696859254
 31
0.0
  0
LINE
  5
1448
330
1F
100
AcDbEntity
  8
AM_VIS
100
AcDbLine
 10
398.8373593878581
 20
320.0086569840332
 30
0.0
 11
398.8373593878581
 21
318.5742559072747
 31
0.0
  0
LINE
  5
1449
330
1F
100
AcDbEntity
  8
AM_VIS
100
AcDbLine
 10
398.8373593878581
 20
337.0494645213428
 30
0.0
 11
398.8373593878581
 21
335.6150634445842
 31
0.0
  0
LINE
  5
144A
330
1F
100
AcDbEntity
  8
AM_VIS
100
AcDbLine
 10
404.337359387858
 20
332.4306623678257
 30
0.0
 11
398.8373593878581
 21
332.4306623678257
 31
0.0
  0
LINE
  5
144B
330
1F
100
AcDbEntity
  8
AM_VIS
100
AcDbLine
 10
398.8373593878581
 20
333.8650634445842
 30
0.0
 11
398.8373593878581
 21
332.4306623678258
 31
0.0
  0
LINE
  5
144C
102
{ACAD_REACTORS
330
310B
102
}
330
1F
100
AcDbEntity
  8
AM_VIS
100
AcDbLine
 10
404.337359387858
 20
337.0494645213428
 30
0.0
 11
404.337359387858
 21
335.6150634445842
 31
0.0
  0
LINE
  5
144D
330
1F
100
AcDbEntity
  8
AM_VIS
100
AcDbLine
 10
404.337359387858
 20
320.0086569840332
 30
0.0
 11
404.337359387858
 21
318.5742559072747
 31
0.0
  0
LINE
  5
144E
330
1F
100
AcDbEntity
  8
AM_VIS
100
AcDbLine
 10
404.337359387858
 20
320.6916696859254
 30
0.0
 11
404.337359387858
 21
320.0086569840332
 31
0.0
  0
LINE
  5
144F
330
1F
100
AcDbEntity
  8
AM_VIS
100
AcDbLine
 10
404.337359387858
 20
321.7586569840333
 30
0.0
 11
404.337359387858
 21
320.6916696859254
 31
0.0
  0
LINE
  5
1450
330
1F
100
AcDbEntity
  8
AM_VIS
100
AcDbLine
 10
404.337359387858
 20
323.1930580607917
 30
0.0
 11
404.337359387858
 21
321.7586569840332
 31
0.0
  0
LINE
  5
1451
330
1F
100
AcDbEntity
  8
AM_VIS
100
AcDbLine
 10
404.337359387858
 20
326.0618602143087
 30
0.0
 11
404.337359387858
 21
323.1930580607918
 31
0.0
  0
LINE
  5
1452
330
1F
100
AcDbEntity
  8
AM_VIS
100
AcDbLine
 10
404.337359387858
 20
326.5618602143088
 30
0.0
 11
404.337359387858
 21
326.0618602143087
 31
0.0
  0
LINE
  5
1453
330
1F
100
AcDbEntity
  8
AM_VIS
100
AcDbLine
 10
404.337359387858
 20
329.0618602143088
 30
0.0
 11
404.337359387858
 21
326.5618602143088
 31
0.0
  0
LINE
  5
1454
330
1F
100
AcDbEntity
  8
AM_VIS
100
AcDbLine
 10
404.337359387858
 20
329.5618602143087
 30
0.0
 11
404.337359387858
 21
329.0618602143088
 31
0.0
  0
LINE
  5
1455
330
1F
100
AcDbEntity
  8
AM_VIS
100
AcDbLine
 10
404.337359387858
 20
332.4306623678257
 30
0.0
 11
404.337359387858
 21
329.5618602143087
 31
0.0
  0
LINE
  5
1456
330
1F
100
AcDbEntity
  8
AM_VIS
100
AcDbLine
 10
404.337359387858
 20
333.8650634445842
 30
0.0
 11
404.337359387858
 21
332.4306623678258
 31
0.0
  0
LINE
  5
1457
330
1F
100
AcDbEntity
  8
AM_VIS
100
AcDbLine
 10
404.337359387858
 20
333.8650634445841
 30
0.0
 11
398.8373593878581
 21
333.8650634445841
 31
0.0
  0
LINE
  5
1458
330
1F
100
AcDbEntity
  8
AM_VIS
100
AcDbLine
 10
398.8373593878581
 20
335.6150634445842
 30
0.0
 11
404.337359387858
 21
335.6150634445842
 31
0.0
  0
LINE
  5
1459
330
1F
100
AcDbEntity
  8
AM_VIS
100
AcDbLine
 10
404.337359387858
 20
335.6150634445842
 30
0.0
 11
404.337359387858
 21
334.932050742692
 31
0.0
  0
LINE
  5
145A
330
1F
100
AcDbEntity
  8
AM_VIS
100
AcDbLine
 10
398.8373593878581
 20
334.932050742692
 30
0.0
 11
398.8373593878581
 21
335.6150634445842
 31
0.0
  0
LINE
  5
145B
330
1F
100
AcDbEntity
  8
AM_VIS
100
AcDbLine
 10
404.337359387858
 20
334.932050742692
 30
0.0
 11
398.8373593878581
 21
334.932050742692
 31
0.0
  0
LINE
  5
145C
330
1F
100
AcDbEntity
  8
AM_VIS
100
AcDbLine
 10
404.337359387858
 20
334.932050742692
 30
0.0
 11
404.337359387858
 21
333.8650634445841
 31
0.0
  0
LINE
  5
145D
330
1F
100
AcDbEntity
  8
AM_VIS
100
AcDbLine
 10
398.8373593878581
 20
333.8650634445841
 30
0.0
 11
398.8373593878581
 21
334.932050742692
 31
0.0
  0
LINE
  5
145E
330
1F
100
AcDbEntity
  8
AM_VIS
100
AcDbLine
 10
398.8373593878581
 20
334.5618602143087
 30
0.0
 11
397.3373593878579
 21
334.5618602143087
 31
0.0
  0
LINE
  5
145F
330
1F
100
AcDbEntity
  8
AM_VIS
100
AcDbLine
 10
398.8373593878581
 20
321.0618602143088
 30
0.0
 11
397.3373593878579
 21
321.0618602143088
 31
0.0
  0
LINE
  5
14A2
330
1F
100
AcDbEntity
  8
AM_VIS
100
AcDbLine
 10
391.6873593878581
 20
318.3954667716858
 30
0.0
 11
392.8373593878581
 21
318.3954667716858
 31
0.0
  0
LINE
  5
14A3
330
1F
100
AcDbEntity
  8
AM_VIS
100
AcDbLine
 10
392.8369178786677
 20
318.3962950485165
 30
0.0
 11
393.3368642149437
 21
318.662789164965
 31
0.0
  0
LINE
  5
14A4
330
1F
100
AcDbEntity
  8
AM_VIS
100
AcDbLine
 10
392.8369178792286
 20
337.2274253811641
 30
0.0
 11
393.3368642140885
 21
336.9609312620601
 31
0.0
  0
LINE
  5
14A5
330
1F
100
AcDbEntity
  8
AM_VIS
100
AcDbLine
 10
392.8373593878581
 20
337.2282536569317
 30
0.0
 11
391.687359387858
 21
337.2282536569317
 31
0.0
  0
LINE
  5
14A6
330
1F
100
AcDbEntity
  8
AM_VIS
100
AcDbLine
 10
390.187359387858
 20
337.2282536569317
 30
0.0
 11
387.337359387858
 21
337.2282536569317
 31
0.0
  0
LINE
  5
14A7
330
1F
100
AcDbEntity
  8
AM_VIS
100
AcDbLine
 10
387.337359387858
 20
318.3954667716858
 30
0.0
 11
390.1873593878581
 21
318.3954667716858
 31
0.0
  0
LINE
  5
14A8
330
1F
100
AcDbEntity
  8
AM_VIS
100
AcDbLine
 10
387.274273149375
 20
318.8119198898865
 30
0.0
 11
387.3376315236987
 21
318.3955081780248
 31
0.0
  0
LINE
  5
14A9
330
1F
100
AcDbEntity
  8
AM_VIS
100
AcDbLine
 10
387.274273149375
 20
336.8118005387311
 30
0.0
 11
387.3376315236987
 21
337.2282122505927
 31
0.0
  0
LINE
  5
14AA
330
1F
100
AcDbEntity
  8
AM_VIS
100
AcDbLine
 10
386.0373593878581
 20
336.8118602143088
 30
0.0
 11
385.837359387858
 21
337.8118602143088
 31
0.0
  0
LINE
  5
14AB
330
1F
100
AcDbEntity
  8
AM_VIS
100
AcDbLine
 10
386.0373593878581
 20
318.8118602143088
 30
0.0
 11
385.837359387858
 21
317.8118602143087
 31
0.0
  0
LINE
  5
14AC
330
1F
100
AcDbEntity
  8
AM_VIS
100
AcDbLine
 10
385.3373593878581
 20
317.8118602143087
 30
0.0
 11
385.837359387858
 21
317.8118602143087
 31
0.0
  0
LINE
  5
14AD
330
1F
100
AcDbEntity
  8
AM_VIS
100
AcDbLine
 10
385.3373593878581
 20
337.8118602143088
 30
0.0
 11
385.837359387858
 21
337.8118602143088
 31
0.0
  0
LINE
  5
14AE
330
1F
100
AcDbEntity
  8
AM_VIS
100
AcDbLine
 10
392.8373593878581
 20
336.8118602143088
 30
0.0
 11
392.8373593878581
 21
337.2282536569317
 31
0.0
  0
LINE
  5
14AF
330
1F
100
AcDbEntity
  8
AM_VIS
100
AcDbLine
 10
392.8373593878581
 20
318.3954667716858
 30
0.0
 11
392.8373593878581
 21
318.8118602143088
 31
0.0
  0
LINE
  5
14B0
330
1F
100
AcDbEntity
  8
AM_VIS
100
AcDbLine
 10
391.6873593878581
 20
336.8118602143088
 30
0.0
 11
391.6873593878581
 21
337.2282536569317
 31
0.0
  0
LINE
  5
14B1
330
1F
100
AcDbEntity
  8
AM_VIS
100
AcDbLine
 10
391.6873593878581
 20
318.3954667716858
 30
0.0
 11
391.6873593878581
 21
318.8118602143088
 31
0.0
  0
LINE
  5
14B2
330
1F
100
AcDbEntity
  8
AM_VIS
100
AcDbLine
 10
390.1873593878581
 20
337.2282536569317
 30
0.0
 11
390.1873593878581
 21
336.8118602143088
 31
0.0
  0
LINE
  5
14B3
330
1F
100
AcDbEntity
  8
AM_VIS
100
AcDbLine
 10
390.1873593878581
 20
318.8118602143088
 30
0.0
 11
390.1873593878581
 21
318.3954667716858
 31
0.0
  0
LINE
  5
14B4
330
1F
100
AcDbEntity
  8
AM_VIS
100
AcDbLine
 10
387.337359387858
 20
336.8118602143088
 30
0.0
 11
387.337359387858
 21
337.2282536569317
 31
0.0
  0
LINE
  5
14B5
330
1F
100
AcDbEntity
  8
AM_VIS
100
AcDbLine
 10
387.337359387858
 20
318.3954667716858
 30
0.0
 11
387.337359387858
 21
318.8118602143088
 31
0.0
  0
LINE
  5
14B6
330
1F
100
AcDbEntity
  8
AM_VIS
100
AcDbLine
 10
385.837359387858
 20
318.8118602143088
 30
0.0
 11
385.837359387858
 21
317.8118602143087
 31
0.0
  0
LINE
  5
14B7
330
1F
100
AcDbEntity
  8
AM_VIS
100
AcDbLine
 10
385.837359387858
 20
337.8118602143088
 30
0.0
 11
385.837359387858
 21
336.8118602143088
 31
0.0
  0
LINE
  5
14B8
330
1F
100
AcDbEntity
  8
AM_VIS
100
AcDbLine
 10
393.3373593878581
 20
336.9618602143087
 30
0.0
 11
393.3373593878581
 21
336.8118602143088
 31
0.0
  0
LINE
  5
14B9
330
1F
100
AcDbEntity
  8
AM_VIS
100
AcDbLine
 10
393.3373593878581
 20
318.8118602143088
 30
0.0
 11
393.3373593878581
 21
318.6618602143088
 31
0.0
  0
LINE
  5
14BF
330
1F
100
AcDbEntity
  8
AM_VIS
100
AcDbLine
 10
355.837359387858
 20
338.8118602143086
 30
0.0
 11
385.3373593878581
 21
338.8118602143086
 31
0.0
  0
LINE
  5
14C0
330
1F
100
AcDbEntity
  8
AM_VIS
100
AcDbLine
 10
355.837359387858
 20
316.8118602143086
 30
0.0
 11
385.3373593878581
 21
316.8118602143086
 31
0.0
  0
LINE
  5
14C1
330
1F
100
AcDbEntity
  8
AM_VIS
100
AcDbLine
 10
385.3373593878581
 20
316.8118602143088
 30
0.0
 11
385.3373593878581
 21
318.8118602143088
 31
0.0
  0
LINE
  5
14C2
330
1F
100
AcDbEntity
  8
AM_VIS
100
AcDbLine
 10
385.3373593878581
 20
336.8118602143086
 30
0.0
 11
385.3373593878581
 21
338.8118602143088
 31
0.0
  0
LINE
  5
14C5
330
1F
100
AcDbEntity
  8
AM_VIS
100
AcDbLine
 10
329.837359387858
 20
312.8118602143092
 30
0.0
 11
329.837359387858
 21
312.8118602143084
 31
0.0
  0
LINE
  5
14C6
330
1F
100
AcDbEntity
  8
AM_VIS
100
AcDbLine
 10
329.837359387858
 20
313.3118602143084
 30
0.0
 11
329.837359387858
 21
342.3118602143083
 31
0.0
  0
LINE
  5
14C8
330
1F
100
AcDbEntity
  8
AM_VIS
100
AcDbLine
 10
329.837359387858
 20
342.8118602143091
 30
0.0
 11
329.837359387858
 21
342.3118602143091
 31
0.0
  0
LINE
  5
14C9
330
1F
100
AcDbEntity
  8
AM_VIS
100
AcDbLine
 10
329.837359387858
 20
342.3118602143091
 30
0.0
 11
329.837359387858
 21
313.3118602143093
 31
0.0
  0
LINE
  5
14CA
330
1F
100
AcDbEntity
  8
AM_VIS
100
AcDbLine
 10
329.837359387858
 20
313.3118602143091
 30
0.0
 11
329.837359387858
 21
312.8118602143092
 31
0.0
  0
LINE
  5
14CB
330
1F
100
AcDbEntity
  8
AM_VIS
100
AcDbLine
 10
329.8373593878579
 20
342.8118602143084
 30
0.0
 11
329.8373593878579
 21
342.8118602143091
 31
0.0
  0
LINE
  5
14EC
330
1F
100
AcDbEntity
  8
AM_VIS
100
AcDbLine
 10
329.837359387858
 20
342.8118602143095
 30
0.0
 11
255.837359387858
 21
342.8118602143095
 31
0.0
  0
LINE
  5
14ED
330
1F
100
AcDbEntity
  8
AM_VIS
100
AcDbLine
 10
255.837359387858
 20
312.8118602143095
 30
0.0
 11
329.837359387858
 21
312.8118602143095
 31
0.0
  0
LINE
  5
14EE
330
1F
100
AcDbEntity
  8
AM_VIS
100
AcDbLine
 10
329.837359387858
 20
342.3118602143095
 30
0.0
 11
329.837359387858
 21
342.8118602143095
 31
0.0
  0
LINE
  5
14EF
330
1F
100
AcDbEntity
  8
AM_VIS
100
AcDbLine
 10
329.837359387858
 20
312.8118602143095
 30
0.0
 11
329.837359387858
 21
313.3118602143095
 31
0.0
  0
LINE
  5
14F0
330
1F
100
AcDbEntity
  8
AM_VIS
100
AcDbLine
 10
255.837359387858
 20
342.3118602143095
 30
0.0
 11
255.837359387858
 21
313.3118602143096
 31
0.0
  0
CIRCLE
  5
1500
102
{ACAD_REACTORS
330
228E
102
}
330
1F
100
AcDbEntity
  8
AM_VIS
100
AcDbCircle
 10
322.837359387858
 20
315.3118602143095
 30
0.0
 40
1.6
  0
CIRCLE
  5
1501
330
1F
100
AcDbEntity
  8
AM_VIS
100
AcDbCircle
 10
262.8373593878579
 20
340.3118602143095
 30
0.0
 40
1.6
  0
LINE
  5
1515
330
1F
100
AcDbEntity
  8
AM_VIS
100
AcDbLine
 10
355.8373593878384
 20
138.4391151097911
 30
0.0
 11
355.8373593878384
 21
134.861406345791
 31
0.0
  0
LINE
  5
1516
330
1F
100
AcDbEntity
  8
AM_VIS
100
AcDbLine
 10
329.8373593878384
 20
132.650260727791
 30
0.0
 11
353.8373593878384
 21
133.0691822860683
 31
0.0
  0
LINE
  5
1517
330
1F
100
AcDbEntity
  8
AM_VIS
100
AcDbLine
 10
329.8373593878384
 20
162.6502607277911
 30
0.0
 11
353.8373593878385
 21
162.2313391695139
 31
0.0
  0
LINE
  5
1518
330
1F
100
AcDbEntity
  8
AM_VIS
100
AcDbLine
 10
353.8373593878385
 20
162.2328296211894
 30
0.0
 11
353.7519714685333
 21
162.2328296211894
 31
0.0
  0
LINE
  5
1519
330
1F
100
AcDbEntity
  8
AM_VIS
100
AcDbLine
 10
353.8373593878384
 20
133.0691822860685
 30
0.0
 11
353.8373593878384
 21
133.4140126712566
 31
0.0
  0
LINE
  5
151A
330
1F
100
AcDbEntity
  8
AM_VIS
100
AcDbLine
 10
353.8373593878384
 20
161.8865087843257
 30
0.0
 11
353.8373593878384
 21
162.231339169514
 31
0.0
  0
LINE
  5
151B
330
1F
100
AcDbEntity
  8
AM_VIS
100
AcDbLine
 10
329.8373593878384
 20
132.6502607277911
 30
0.0
 11
329.8373593878384
 21
162.6502607277911
 31
0.0
  0
LINE
  5
151C
330
1F
100
AcDbEntity
  8
AM_VIS
100
AcDbLine
 10
355.8373593878385
 20
162.250260727791
 30
0.0
 11
353.8373593878385
 21
162.250260727791
 31
0.0
  0
LINE
  5
151D
330
1F
100
AcDbEntity
  8
AM_VIS
100
AcDbLine
 10
353.8373593878384
 20
133.550260727791
 30
0.0
 11
353.8373593878384
 21
161.7502607277911
 31
0.0
  0
LINE
  5
151E
330
1F
100
AcDbEntity
  8
AM_VIS
100
AcDbLine
 10
355.8373593878384
 20
133.0502607277911
 30
0.0
 11
355.8373593878384
 21
134.861406345791
 31
0.0
  0
LINE
  5
151F
330
1F
100
AcDbEntity
  8
AM_VIS
100
AcDbLine
 10
355.8373593878384
 20
138.4391151097911
 30
0.0
 11
355.8373593878384
 21
161.7502607277911
 31
0.0
  0
LINE
  5
1520
330
1F
100
AcDbEntity
  8
AM_VIS
100
AcDbLine
 10
353.8373593878384
 20
133.0502607277911
 30
0.0
 11
355.8373593878384
 21
133.0502607277911
 31
0.0
  0
LINE
  5
1521
330
1F
100
AcDbEntity
  8
AM_VIS
100
AcDbLine
 10
353.8373593878385
 20
162.2313391695139
 30
0.0
 11
353.8373593878385
 21
162.250260727791
 31
0.0
  0
LINE
  5
1522
330
1F
100
AcDbEntity
  8
AM_VIS
100
AcDbLine
 10
353.8373593878385
 20
161.7502607277911
 30
0.0
 11
353.8373593878385
 21
161.8865087843257
 31
0.0
  0
LINE
  5
1523
330
1F
100
AcDbEntity
  8
AM_VIS
100
AcDbLine
 10
355.8373593878385
 20
162.250260727791
 30
0.0
 11
355.8373593878385
 21
161.7502607277911
 31
0.0
  0
LINE
  5
1524
330
1F
100
AcDbEntity
  8
AM_VIS
100
AcDbLine
 10
353.8373593878384
 20
133.4140126712564
 30
0.0
 11
353.8373593878384
 21
133.5502607277911
 31
0.0
  0
LINE
  5
1525
330
1F
100
AcDbEntity
  8
AM_VIS
100
AcDbLine
 10
353.8373593878384
 20
133.0502607277911
 30
0.0
 11
353.8373593878384
 21
133.0691822860684
 31
0.0
  0
LINE
  5
1527
330
1F
100
AcDbEntity
  8
AM_VIS
100
AcDbLine
 10
343.1373552572826
 20
132.8822133208736
 30
0.0
 11
343.037370487767
 21
132.8804680802299
 31
0.0
  0
ARC
  5
1528
330
1F
100
AcDbEntity
  8
AM_VIS
100
AcDbCircle
 10
343.0666019319323
 20
134.0707341905166
 30
0.0
 40
1.190625
100
AcDbArc
 50
268.374311866637
 51
268.5931702408102
  0
ARC
  5
1529
330
1F
100
AcDbEntity
  8
AM_VIS
100
AcDbCircle
 10
343.0666019319323
 20
134.0707341905166
 30
0.0
 40
1.190625
100
AcDbArc
 50
273.4068297591904
 51
273.6256881333627
  0
LINE
  5
1535
330
1F
100
AcDbEntity
  8
AM_VIS
100
AcDbLine
 10
255.8373593878577
 20
162.6502607277915
 30
0.0
 11
255.8373593878577
 21
132.6502607277915
 31
0.0
  0
LINE
  5
1544
330
1F
100
AcDbEntity
  8
AM_VIS
100
AcDbLine
 10
386.0373593878388
 20
138.650260727791
 30
0.0
 11
387.2738809421737
 21
138.650260727791
 31
0.0
  0
LINE
  5
1545
330
1F
100
AcDbEntity
  8
AM_VIS
100
AcDbLine
 10
390.1873593878388
 20
138.650260727791
 30
0.0
 11
391.6873593878388
 21
138.650260727791
 31
0.0
  0
LINE
  5
1546
330
1F
100
AcDbEntity
  8
AM_VIS
100
AcDbLine
 10
393.3373593878388
 20
138.650260727791
 30
0.0
 11
397.3373593878386
 21
138.650260727791
 31
0.0
  0
LINE
  5
1547
330
1F
100
AcDbEntity
  8
AM_VIS
100
AcDbLine
 10
386.0373593878388
 20
156.650260727791
 30
0.0
 11
387.2738809421737
 21
156.650260727791
 31
0.0
  0
LINE
  5
1548
330
1F
100
AcDbEntity
  8
AM_VIS
100
AcDbLine
 10
390.1873593878388
 20
156.650260727791
 30
0.0
 11
391.6873593878388
 21
156.650260727791
 31
0.0
  0
LINE
  5
1549
330
1F
100
AcDbEntity
  8
AM_VIS
100
AcDbLine
 10
393.3373593878388
 20
156.650260727791
 30
0.0
 11
397.3373593878386
 21
156.650260727791
 31
0.0
  0
LINE
  5
154A
330
1F
100
AcDbEntity
  8
AM_VIS
100
AcDbLine
 10
397.3373593878386
 20
156.650260727791
 30
0.0
 11
397.3373593878386
 21
138.650260727791
 31
0.0
  0
LINE
  5
1552
330
1F
100
AcDbEntity
  8
AM_VIS
100
AcDbLine
 10
404.3373593878388
 20
156.8878650348251
 30
0.0
 11
398.8373593878388
 21
156.8878650348251
 31
0.0
  0
LINE
  5
1553
330
1F
100
AcDbEntity
  8
AM_VIS
100
AcDbLine
 10
404.3373593878388
 20
152.2690628813081
 30
0.0
 11
398.8373593878388
 21
152.2690628813081
 31
0.0
  0
CIRCLE
  5
15B4
330
1F
100
AcDbEntity
  8
AM_0N
100
AcDbCircle
 10
369.8373593878581
 20
327.8118602143087
 30
0.0
 40
2.799999999999999
  0
LINE
  5
15B5
330
1F
100
AcDbEntity
  8
AM_0N
100
AcDbLine
 10
371.3218710920894
 20
327.5968602143087
 30
0.0
 11
371.3218710920894
 21
328.0268602143086
 31
0.0
  0
LINE
  5
15B6
330
1F
100
AcDbEntity
  8
AM_0N
100
AcDbLine
 10
368.3528476836266
 20
327.5968602143087
 30
0.0
 11
368.3528476836266
 21
328.0268602143086
 31
0.0
  0
LINE
  5
15B7
330
1F
100
AcDbEntity
  8
AM_0N
100
AcDbLine
 10
371.3218710920894
 20
327.5968602143087
 30
0.0
 11
370.052359387858
 21
327.5968602143087
 31
0.0
  0
LINE
  5
15B8
330
1F
100
AcDbEntity
  8
AM_0N
100
AcDbLine
 10
369.622359387858
 20
327.5968602143087
 30
0.0
 11
368.3528476836266
 21
327.5968602143087
 31
0.0
  0
LINE
  5
15B9
330
1F
100
AcDbEntity
  8
AM_0N
100
AcDbLine
 10
369.622359387858
 20
327.5968602143087
 30
0.0
 11
369.622359387858
 21
326.3273485100772
 31
0.0
  0
LINE
  5
15BA
330
1F
100
AcDbEntity
  8
AM_0N
100
AcDbLine
 10
370.052359387858
 20
327.5968602143087
 30
0.0
 11
370.052359387858
 21
326.3273485100772
 31
0.0
  0
LINE
  5
15BB
330
1F
100
AcDbEntity
  8
AM_0N
100
AcDbLine
 10
369.622359387858
 20
326.3273485100772
 30
0.0
 11
370.052359387858
 21
326.3273485100772
 31
0.0
  0
LINE
  5
15BC
330
1F
100
AcDbEntity
  8
AM_0N
100
AcDbLine
 10
371.3218710920894
 20
328.0268602143086
 30
0.0
 11
370.052359387858
 21
328.0268602143086
 31
0.0
  0
LINE
  5
15BD
330
1F
100
AcDbEntity
  8
AM_0N
100
AcDbLine
 10
369.622359387858
 20
328.0268602143086
 30
0.0
 11
368.3528476836266
 21
328.0268602143086
 31
0.0
  0
LINE
  5
15BE
330
1F
100
AcDbEntity
  8
AM_0N
100
AcDbLine
 10
370.052359387858
 20
329.29637191854
 30
0.0
 11
370.052359387858
 21
328.0268602143086
 31
0.0
  0
LINE
  5
15BF
330
1F
100
AcDbEntity
  8
AM_0N
100
AcDbLine
 10
369.622359387858
 20
329.29637191854
 30
0.0
 11
369.622359387858
 21
328.0268602143086
 31
0.0
  0
LINE
  5
15C0
330
1F
100
AcDbEntity
  8
AM_0N
100
AcDbLine
 10
369.622359387858
 20
329.29637191854
 30
0.0
 11
370.052359387858
 21
329.29637191854
 31
0.0
  0
LINE
  5
16A3
330
1F
100
AcDbEntity
  8
LOGO
 62
     4
100
AcDbLine
 10
554.581875159379
 20
85.78213216040309
 30
0.0
 11
175.0725626114566
 21
85.78213216040309
 31
0.0
  0
LWPOLYLINE
  5
16A4
330
1F
100
AcDbEntity
  8
LOGO
 62
     4
100
AcDbPolyline
 90
        4
 70
     1
 43
0.0
 10
175.0725626114566
 20
85.78213216040309
 10
554.5818751593789
 20
85.78213216040309
 10
554.5818751593789
 20
409.7873448300854
 10
175.0725626114566
 20
409.7873448300854
1001
GENIUS_GENREC_14
1002
{
1000
PYDIR
1011
175.0725626114566
1021
409.7873448300854
1031
0.0
1002
}
1002
{
1000
PXDIR
1011
554.5818751593789
1021
85.78213216040309
1031
0.0
1002
}
1002
{
1000
PORI
1011
175.0725626114566
1021
85.78213216040309
1031
0.0
1002
}
1002
{
1000
PINS
1011
175.0725626114566
1021
85.78213216040309
1031
0.0
1002
}
1002
{
1000
PINS2
1011
554.5818751593789
1021
409.7873448300854
1031
0.0
1002
}
1002
{
1000
C
1070
     1
1002
}
1001
GENIUS_GENODEF_13
1002
{
1000
HIER
1070
     0
1002
}
1002
{
1000
MANEDIT
1070
     0
1002
}
1002
{
1000
NOSEL
1070
     0
1002
}
1002
{
1000
BEHIND
1070
     0
1002
}
1002
{
1000
OTHER
1070
     0
1002
}
1002
{
1000
REACTOR
1002
}
1001
GENIUS_GENOBJ-N-REC_13
1002
{
1000
OWNER
1000
GEN
1002
}
  0
LWPOLYLINE
  5
16A5
330
1F
100
AcDbEntity
  8
LOGO
 62
     4
100
AcDbPolyline
 90
        4
 70
     1
 43
0.0
 10
175.0725626114566
 20
85.78213216040309
 10
554.5818751593789
 20
85.78213216040309
 10
554.5818751593789
 20
49.78734483008572
 10
175.0725626114566
 20
49.78734483008572
1001
GENIUS_GENREC_14
1002
{
1000
PYDIR
1011
175.0725626114566
1021
49.78734483008572
1031
0.0
1002
}
1002
{
1000
PXDIR
1011
554.5818751593789
1021
85.78213216040309
1031
0.0
1002
}
1002
{
1000
PORI
1011
175.0725626114566
1021
85.78213216040309
1031
0.0
1002
}
1002
{
1000
PINS
1011
175.0725626114566
1021
85.78213216040309
1031
0.0
1002
}
1002
{
1000
PINS2
1011
554.5818751593789
1021
49.78734483008572
1031
0.0
1002
}
1002
{
1000
C
1070
     1
1002
}
1001
GENIUS_GENOBJ-N-REC_13
1002
{
1000
OWNER
1000
GEN
1002
}
1001
GENIUS_GENODEF_13
1002
{
1000
HIER
1070
     0
1002
}
1002
{
1000
MANEDIT
1070
     0
1002
}
1002
{
1000
NOSEL
1070
     0
1002
}
1002
{
1000
BEHIND
1070
     0
1002
}
1002
{
1000
OTHER
1070
     0
1002
}
1002
{
1000
REACTOR
1002
}
  0
TEXT
  5
16A6
330
1F
100
AcDbEntity
  8
LOGO
 62
     7
100
AcDbText
 10
256.3464090291299
 20
70.01342833463604
 30
0.0
 40
4.799304977375564
  1
Order example:
 41
0.8
  7
CHINESET
100
AcDbText
  0
TEXT
  5
16A7
330
1F
100
AcDbEntity
  8
LOGO
 62
     7
100
AcDbText
 10
257.2074440307086
 20
76.76985603400567
 30
0.0
 40
7.198957466063347
  1
訂購代號：
  7
CHINESET
100
AcDbText
  0
LINE
  5
16A8
330
1F
100
AcDbEntity
  8
LOGO
 62
     4
100
AcDbLine
 10
254.2610947381536
 20
49.78734483008611
 30
0.0
 11
254.2610947381536
 21
85.78213216040309
 31
0.0
  0
TEXT
  5
16A9
330
1F
100
AcDbEntity
  8
LOGO
  6
Continuous
100
AcDbText
 10
188.002052020206
 20
56.85846648025654
 30
0.0
 40
5.39921809954751
  1
金器工業股份有限公司
  7
CHINESET
100
AcDbText
  0
TEXT
  5
16AA
330
1F
100
AcDbEntity
  8
LOGO
  6
Continuous
100
AcDbText
 10
178.0847565539611
 20
51.45819055727662
 30
0.0
 40
3.599478733031673
  1
MINDMAN INDUSTRIAL CO., LTD.
 41
0.85
  7
CHINESET
100
AcDbText
  0
LINE
  5
16AB
330
1F
100
AcDbEntity
  8
LOGO
 62
     4
100
AcDbLine
 10
254.2610947381536
 20
78.58317469433969
 30
0.0
 11
201.468739987022
 21
78.58317469433969
 31
0.0
  0
LINE
  5
16AC
330
1F
100
AcDbEntity
  8
LOGO
 62
     4
100
AcDbLine
 10
254.2610947381536
 20
71.38421722827629
 30
0.0
 11
201.468739987022
 21
71.38421722827629
 31
0.0
  0
LINE
  5
16AD
330
1F
100
AcDbEntity
  8
LOGO
 62
     4
100
AcDbLine
 10
254.2610947381536
 20
64.18525976221331
 30
0.0
 11
175.0725626114566
 21
64.18525976221331
 31
0.0
  0
LINE
  5
16AE
330
1F
100
AcDbEntity
  8
LOGO
 62
     4
100
AcDbLine
 10
201.468739987022
 20
64.18525976221331
 30
0.0
 11
201.468739987022
 21
85.78213216040309
 31
0.0
  0
TEXT
  5
16AF
330
1F
100
AcDbEntity
  8
LOGO
100
AcDbText
 10
237.5498226982304
 20
65.98499912872856
 30
0.0
 40
3.599478733031673
  1
mm
  7
CHINESET
 72
     1
 11
242.006320177222
 21
67.7847384952444
 31
0.0
100
AcDbText
 73
     2
  0
TEXT
  5
16B0
330
1F
100
AcDbEntity
  8
LOGO
100
AcDbText
 10
235.6643814571186
 20
80.38291406085534
 30
0.0
 40
3.599478733031673
  1
1 : 1
  7
CHINESET
 72
     1
 11
242.006320177222
 21
82.18265342737117
 31
0.0
100
AcDbText
 73
     2
  0
LINE
  5
16B1
330
1F
100
AcDbEntity
  8
LOGO
 62
     4
100
AcDbLine
 10
230.2645698512756
 20
64.18525976221331
 30
0.0
 11
230.2645698512756
 21
85.78213216040309
 31
0.0
  0
TEXT
  5
16B2
330
1F
100
AcDbEntity
  8
LOGO
100
AcDbText
 10
204.4367030316246
 20
80.38468545786962
 30
235.9039063680896
 40
3.599478733031673
  1
比例 Scale:
 41
0.9
  7
CHINESET
 72
     4
 11
215.8666549191488
 21
82.18265342737117
 31
235.9039063680896
100
AcDbText
  0
TEXT
  5
16B3
330
1F
100
AcDbEntity
  8
LOGO
100
AcDbText
 10
204.2294116224455
 20
73.23458902611699
 30
235.9039063680896
 40
3.599478733031673
  1
投影  View:
 41
0.9
  7
CHINESET
 72
     4
 11
215.8666549191488
 21
74.98369596130778
 31
235.9039063680896
100
AcDbText
  0
TEXT
  5
16B4
330
1F
100
AcDbEntity
  8
LOGO
100
AcDbText
 10
204.5813249450053
 20
65.98499912872856
 30
235.9039063680896
 40
3.599478733031673
  1
單位  Unit:
 41
0.9
  7
CHINESET
 72
     4
 11
215.8666549191488
 21
67.7847384952444
 31
235.9039063680896
100
AcDbText
  0
SOLID
  5
16B5
330
1F
100
AcDbEntity
  8
LOGO
 62
     5
100
AcDbTrace
 10
178.8070795642166
 20
70.16888081042544
 30
0.0
 11
180.3633997180575
 21
70.16888081042502
 31
0.0
 12
186.857011394428
 22
84.92708916581401
 32
0.0
 13
188.4133315482698
 23
84.92708916581319
 33
0.0
  0
SOLID
  5
16B6
330
1F
100
AcDbEntity
  8
LOGO
 62
     5
100
AcDbTrace
 10
181.0073942644761
 20
70.16888081042544
 30
0.0
 11
182.563714418317
 21
70.16888081042544
 31
0.0
 12
188.4133315482698
 22
83.74643249738232
 32
0.0
 13
186.857011394428
 23
78.03992526663209
 33
0.0
  0
SOLID
  5
16B7
330
1F
100
AcDbEntity
  8
LOGO
 62
     2
100
AcDbTrace
 10
180.3633997180575
 20
70.16888081042502
 30
0.0
 11
181.0073942644761
 21
70.16888081042544
 31
0.0
 12
188.4133315482698
 22
84.92708916581319
 32
0.0
 13
189.0573260946876
 23
84.92708916581319
 33
0.0
  0
SOLID
  5
16B8
330
1F
100
AcDbEntity
  8
LOGO
 62
     5
100
AcDbTrace
 10
176.3119167011575
 20
64.80225959028462
 30
0.0
 11
176.8485788231722
 21
64.80225959028462
 31
0.0
 12
178.3598611292053
 22
67.48557020035483
 32
0.0
 13
178.8965232512184
 23
67.48557020035483
 33
0.0
  0
SOLID
  5
16B9
330
1F
100
AcDbEntity
  8
LOGO
 62
     5
100
AcDbTrace
 10
178.3598611292053
 20
67.48557020035483
 30
0.0
 11
178.8965232512184
 21
67.48557020035483
 31
0.0
 12
178.3598611292053
 22
64.80225959028462
 32
0.0
 13
178.8965232512184
 23
64.80225959028462
 33
0.0
  0
SOLID
  5
16BA
330
1F
100
AcDbEntity
  8
LOGO
 62
     5
100
AcDbTrace
 10
178.3598611292053
 20
64.80225959028462
 30
0.0
 11
178.8965232512184
 21
64.80225959028462
 31
0.0
 12
180.4078055572539
 22
67.48557020035483
 32
0.0
 13
180.9444676792678
 23
67.48557020035483
 33
0.0
  0
SOLID
  5
16BB
330
1F
100
AcDbEntity
  8
LOGO
 62
     5
100
AcDbTrace
 10
180.4078055572539
 20
67.48557020035483
 30
0.0
 11
180.9444676792678
 21
67.48557020035483
 31
0.0
 12
180.4078055572539
 22
64.80225959028462
 32
0.0
 13
180.9444676792678
 23
64.80225959028462
 33
0.0
  0
POLYLINE
  5
16BC
330
1F
100
AcDbEntity
  8
LOGO
 62
     5
100
AcDb2dPolyline
 66
     1
 10
0.0
 20
0.0
 30
0.0
 40
0.5375221574660633
 41
0.5375221574660633
  0
VERTEX
  5
16BD
330
16BC
100
AcDbEntity
  8
LOGO
 62
     5
100
AcDbVertex
100
AcDb2dVertex
 10
198.396537070911
 20
66.41224595632666
 30
0.0
 42
1.0
  0
VERTEX
  5
16BE
330
16BC
100
AcDbEntity
  8
LOGO
 62
     5
100
AcDbVertex
100
AcDb2dVertex
 10
196.7839705985124
 20
66.41224595632666
 30
0.0
 42
1.0
  0
SEQEND
  5
16BF
330
16BC
100
AcDbEntity
  8
LOGO
 62
     5
  0
POLYLINE
  5
16C0
330
1F
100
AcDbEntity
  8
LOGO
 62
     5
100
AcDb2dPolyline
 66
     1
 10
0.0
 20
0.0
 30
0.0
 70
     1
  0
VERTEX
  5
16C1
330
16C0
100
AcDbEntity
  8
LOGO
 62
     5
100
AcDbVertex
100
AcDb2dVertex
 10
193.7442110710842
 20
66.14391489531931
 30
0.0
 42
1.000000057330635
  0
VERTEX
  5
16C2
330
16C0
100
AcDbEntity
  8
LOGO
 62
     5
100
AcDbVertex
100
AcDb2dVertex
 10
195.3541974371267
 20
66.14391489531931
 30
0.0
 42
1.000000057330635
  0
SEQEND
  5
16C3
330
16C0
100
AcDbEntity
  8
LOGO
 62
     5
  0
CIRCLE
  5
16C4
330
1F
100
AcDbEntity
  8
LOGO
 62
     5
100
AcDbCircle
 10
194.5492042541067
 20
66.14391489531931
 30
0.0
 40
0.8049931830211765
  0
POLYLINE
  5
16C5
330
1F
100
AcDbEntity
  8
LOGO
 62
     5
100
AcDb2dPolyline
 66
     1
 10
0.0
 20
0.0
 30
0.0
 70
     1
 40
0.5375221574660633
 41
0.5375221574660633
  0
VERTEX
  5
16C6
330
16C5
100
AcDbEntity
  8
LOGO
 62
     5
100
AcDbVertex
100
AcDb2dVertex
 10
193.4741599391738
 20
66.14391489531931
 30
0.0
 42
1.0
  0
VERTEX
  5
16C7
330
16C5
100
AcDbEntity
  8
LOGO
 62
     5
100
AcDbVertex
100
AcDb2dVertex
 10
195.6242485690379
 20
66.14391489531931
 30
0.0
 42
1.0
  0
SEQEND
  5
16C8
330
16C5
100
AcDbEntity
  8
LOGO
 62
     5
  0
LINE
  5
16C9
330
1F
100
AcDbEntity
  8
LOGO
100
AcDbLine
 10
198.6635780787391
 20
64.80225959028462
 30
0.0
 11
198.6635780787391
 21
66.41224595632666
 31
0.0
  0
SOLID
  5
16CA
330
1F
100
AcDbEntity
  8
LOGO
 62
     5
100
AcDbTrace
 10
195.3541437709169
 20
67.48557020035483
 30
0.0
 11
195.8908058929299
 21
67.48557020035483
 31
0.0
 12
195.3541437709169
 22
64.80225959028462
 32
0.0
 13
195.8908058929299
 23
64.80225959028462
 33
0.0
  0
SOLID
  5
16CB
330
1F
100
AcDbEntity
  8
LOGO
 62
     5
100
AcDbTrace
 10
196.5169295906827
 20
64.80225959028462
 30
0.0
 11
197.0535917126974
 21
64.80225959028462
 31
0.0
 12
196.5169295906827
 22
67.48557020035483
 32
0.0
 13
197.0535917126974
 23
67.48557020035483
 33
0.0
  0
SOLID
  5
16CC
330
1F
100
AcDbEntity
  8
LOGO
 62
     5
100
AcDbTrace
 10
198.126915956726
 20
66.41224595632666
 30
0.0
 11
198.6635780787391
 21
66.41224595632666
 31
0.0
 12
198.126915956726
 22
64.80225959028462
 32
0.0
 13
198.6635780787391
 23
64.80225959028462
 33
0.0
  0
SOLID
  5
16CD
330
1F
100
AcDbEntity
  8
LOGO
 62
     5
100
AcDbTrace
 10
196.4632633784812
 20
83.74643249738232
 30
0.0
 11
194.9069432246411
 21
78.03992526663209
 31
0.0
 12
196.4632633784812
 22
70.16888081042502
 32
0.0
 13
194.9069432246411
 23
70.16888081042502
 33
0.0
  0
SOLID
  5
16CE
330
1F
100
AcDbEntity
  8
LOGO
 62
     5
100
AcDbTrace
 10
197.1072579248989
 20
70.16888081042502
 30
0.0
 11
198.6635780787391
 21
70.16888081042502
 31
0.0
 12
197.1072579248989
 22
84.92708916581319
 32
0.0
 13
198.6635780787391
 23
84.92708916581401
 33
0.0
  0
SOLID
  5
16CF
330
1F
100
AcDbEntity
  8
LOGO
 62
     2
100
AcDbTrace
 10
196.4632633784812
 20
84.92708916581401
 30
0.0
 11
197.1072579248989
 21
84.92708916581319
 31
0.0
 12
196.4632633784812
 22
70.16888081042502
 32
0.0
 13
197.1072579248989
 23
70.16888081042502
 33
0.0
  0
POLYLINE
  5
16D0
330
1F
100
AcDbEntity
  8
LOGO
 62
     5
100
AcDb2dPolyline
 66
     1
 10
0.0
 20
0.0
 30
0.0
 40
0.5375221574660633
 41
0.5375221574660633
  0
VERTEX
  5
16D1
330
16D0
100
AcDbEntity
  8
LOGO
 62
     5
100
AcDbVertex
100
AcDb2dVertex
 10
190.7043442112339
 20
66.41224595632666
 30
0.0
 42
1.0
  0
VERTEX
  5
16D2
330
16D0
100
AcDbEntity
  8
LOGO
 62
     5
100
AcDbVertex
100
AcDb2dVertex
 10
189.0917777388354
 20
66.41224595632666
 30
0.0
 42
1.0
  0
SEQEND
  5
16D3
330
16D0
100
AcDbEntity
  8
LOGO
 62
     5
  0
POLYLINE
  5
16D4
330
1F
100
AcDbEntity
  8
LOGO
 62
     5
100
AcDb2dPolyline
 66
     1
 10
0.0
 20
0.0
 30
0.0
 40
0.5375221574660633
 41
0.5375221574660633
  0
VERTEX
  5
16D5
330
16D4
100
AcDbEntity
  8
LOGO
 62
     5
100
AcDbVertex
100
AcDb2dVertex
 10
192.3143305772748
 20
66.41224595632666
 30
0.0
 42
1.0
  0
VERTEX
  5
16D6
330
16D4
100
AcDbEntity
  8
LOGO
 62
     5
100
AcDbVertex
100
AcDb2dVertex
 10
190.7017641048771
 20
66.41224595632666
 30
0.0
 42
1.0
  0
SEQEND
  5
16D7
330
16D4
100
AcDbEntity
  8
LOGO
 62
     5
  0
POLYLINE
  5
16D8
330
1F
100
AcDbEntity
  8
LOGO
 62
     5
100
AcDb2dPolyline
 66
     1
 10
0.0
 20
0.0
 30
0.0
 40
0.5375221574660633
 41
0.5375221574660633
  0
VERTEX
  5
16D9
330
16D8
100
AcDbEntity
  8
LOGO
 62
     5
100
AcDbVertex
100
AcDb2dVertex
 10
184.6221377175978
 20
66.41224595632666
 30
0.0
 42
1.0
  0
VERTEX
  5
16DA
330
16D8
100
AcDbEntity
  8
LOGO
 62
     5
100
AcDbVertex
100
AcDb2dVertex
 10
183.0095712452001
 20
66.41224595632666
 30
0.0
 42
1.0
  0
SEQEND
  5
16DB
330
16D8
100
AcDbEntity
  8
LOGO
 62
     5
  0
SOLID
  5
16DC
330
1F
100
AcDbEntity
  8
LOGO
 62
     5
100
AcDbTrace
 10
182.7425302373711
 20
67.48557020035483
 30
0.0
 11
183.2791923593842
 21
67.48557020035483
 31
0.0
 12
182.7425302373711
 22
64.80225959028462
 32
0.0
 13
183.2791923593842
 23
64.80225959028462
 33
0.0
  0
SOLID
  5
16DD
330
1F
100
AcDbEntity
  8
LOGO
 62
     5
100
AcDbTrace
 10
184.3525166034136
 20
66.41224595632666
 30
0.0
 11
184.8891787254283
 21
66.41224595632666
 31
0.0
 12
184.3525166034136
 22
64.80225959028462
 32
0.0
 13
184.8891787254283
 23
64.80225959028462
 33
0.0
  0
POLYLINE
  5
16DE
330
1F
100
AcDbEntity
  8
LOGO
 62
     5
100
AcDb2dPolyline
 66
     1
 10
0.0
 20
0.0
 30
0.0
 70
     1
 40
0.5375221574660633
 41
0.5375221574660633
  0
VERTEX
  5
16DF
330
16DE
100
AcDbEntity
  8
LOGO
 62
     5
100
AcDbVertex
100
AcDb2dVertex
 10
185.781967079496
 20
66.14391489531931
 30
0.0
 42
1.0
  0
VERTEX
  5
16E0
330
16DE
100
AcDbEntity
  8
LOGO
 62
     5
100
AcDbVertex
100
AcDb2dVertex
 10
187.9320557093609
 20
66.14391489531931
 30
0.0
 42
1.0
  0
SEQEND
  5
16E1
330
16DE
100
AcDbEntity
  8
LOGO
 62
     5
  0
SOLID
  5
16E2
330
1F
100
AcDbEntity
  8
LOGO
 62
     5
100
AcDbTrace
 10
187.6619509112382
 20
68.29056338337645
 30
0.0
 11
188.1986130332521
 21
68.29056338337645
 31
0.0
 12
187.6619509112382
 22
64.80225959028462
 32
0.0
 13
188.1986130332521
 23
64.80225959028462
 33
0.0
  0
SOLID
  5
16E3
330
1F
100
AcDbEntity
  8
LOGO
 62
     5
100
AcDbTrace
 10
188.8247367310073
 20
67.48557020035483
 30
0.0
 11
189.3613988530204
 21
67.48557020035483
 31
0.0
 12
188.8247367310073
 22
64.80225959028462
 32
0.0
 13
189.3613988530204
 23
64.80225959028462
 33
0.0
  0
SOLID
  5
16E4
330
1F
100
AcDbEntity
  8
LOGO
 62
     5
100
AcDbTrace
 10
190.4347230970482
 20
66.41224595632666
 30
0.0
 11
190.9713852190629
 21
66.41224595632666
 31
0.0
 12
190.4347230970482
 22
64.80225959028462
 32
0.0
 13
190.9713852190629
 23
64.80225959028462
 33
0.0
  0
SOLID
  5
16E5
330
1F
100
AcDbEntity
  8
LOGO
 62
     5
100
AcDbTrace
 10
192.0447094630906
 20
66.41224595632666
 30
0.0
 11
192.5813715851045
 21
66.41224595632666
 31
0.0
 12
192.0447094630906
 22
64.8022595902838
 32
0.0
 13
192.5813715851045
 23
64.8022595902838
 33
0.0
  0
SOLID
  5
16E6
330
1F
100
AcDbEntity
  8
LOGO
 62
     5
100
AcDbTrace
 10
181.5797444176028
 20
67.86123368576486
 30
0.0
 11
182.1164065396184
 21
67.86123368576486
 31
0.0
 12
181.5797444176028
 22
68.29056338337645
 32
0.0
 13
182.1164065396184
 23
68.29056338337645
 33
0.0
  0
SOLID
  5
16E7
330
1F
100
AcDbEntity
  8
LOGO
 62
     5
100
AcDbTrace
 10
181.5797444176028
 20
67.48557020035483
 30
0.0
 11
182.1164065396184
 21
67.48557020035483
 31
0.0
 12
181.5797444176028
 22
64.8022595902838
 32
0.0
 13
182.1164065396184
 23
64.80225959028462
 33
0.0
  0
SOLID
  5
16E8
330
1F
100
AcDbEntity
  8
LOGO
 62
     5
100
AcDbTrace
 10
186.857011394428
 20
70.16888081042544
 30
0.0
 11
188.4133315482698
 21
70.16888081042544
 31
0.0
 12
186.857011394428
 22
78.03992526663209
 32
0.0
 13
188.4133315482698
 23
83.74643249738232
 33
0.0
  0
SOLID
  5
16E9
330
1F
100
AcDbEntity
  8
LOGO
 62
     5
100
AcDbTrace
 10
189.0573260946876
 20
84.92708916581319
 30
0.0
 11
190.6136462485276
 21
84.92708916581401
 31
0.0
 12
189.0573260946876
 22
71.34953747885629
 32
0.0
 13
190.6136462485276
 23
77.05604470960652
 33
0.0
  0
SOLID
  5
16EA
330
1F
100
AcDbEntity
  8
LOGO
 62
     2
100
AcDbTrace
 10
188.4133315482698
 20
84.92708916581319
 30
0.0
 11
189.0573260946876
 21
84.92708916581319
 31
0.0
 12
188.4133315482698
 22
70.16888081042544
 32
0.0
 13
189.0573260946876
 23
70.16888081042544
 33
0.0
  0
SOLID
  5
16EB
330
1F
100
AcDbEntity
  8
LOGO
 62
     5
100
AcDbTrace
 10
189.0573260946876
 20
71.34953747885629
 30
0.0
 11
190.6136462485276
 21
77.05604470960652
 31
0.0
 12
196.4632633784812
 22
84.92708916581401
 32
0.0
 13
194.9069432246411
 23
84.92708916581401
 33
0.0
  0
SOLID
  5
16EC
330
1F
100
AcDbEntity
  8
LOGO
 62
     5
100
AcDbTrace
 10
189.0573260946876
 20
70.16888081042544
 30
0.0
 11
190.6136462485276
 21
70.16888081042544
 31
0.0
 12
196.4632633784812
 22
83.74643249738232
 32
0.0
 13
194.9069432246411
 23
78.03992526663209
 33
0.0
  0
SOLID
  5
16ED
330
1F
100
AcDbEntity
  8
LOGO
 62
     2
100
AcDbTrace
 10
188.4133315482698
 20
70.16888081042544
 30
0.0
 11
189.0573260946876
 21
70.16888081042544
 31
0.0
 12
196.4632633784812
 22
84.92708916581401
 32
0.0
 13
197.1072579248989
 23
84.92708916581319
 33
0.0
  0
LINE
  5
16EE
330
1F
100
AcDbEntity
  8
LOGO
 62
     4
100
AcDbLine
 10
320.8401096261519
 20
65.98499912872926
 30
0.0
 11
320.8401096261519
 21
52.78691044094576
 31
0.0
  0
LINE
  5
16EF
330
1F
100
AcDbEntity
  8
LOGO
 62
     4
100
AcDbLine
 10
303.7703271812437
 20
65.98499912872926
 30
0.0
 11
303.7703271812437
 21
52.78691044094576
 31
0.0
  0
LINE
  5
16F0
330
1F
100
AcDbEntity
  8
LOGO
 62
     4
100
AcDbLine
 10
320.8401096261519
 20
52.78691044094576
 30
0.0
 11
303.7703271812437
 21
52.78691044094576
 31
0.0
  0
LINE
  5
16F1
330
1F
100
AcDbEntity
  8
LOGO
 62
     4
100
AcDbLine
 10
332.328405492955
 20
82.18265342737117
 30
0.0
 11
303.7703271812437
 21
82.18265342737117
 31
0.0
  0
LINE
  5
16F2
330
1F
100
AcDbEntity
  8
LOGO
 62
     4
100
AcDbLine
 10
332.328405492955
 20
71.38421722827629
 30
0.0
 11
303.7703271812437
 21
71.38421722827629
 31
0.0
  0
LINE
  5
16F3
330
1F
100
AcDbEntity
  8
LOGO
 62
     4
100
AcDbLine
 10
303.7703271812437
 20
82.18265342737117
 30
0.0
 11
303.7703271812437
 21
71.38421722827629
 31
0.0
  0
LINE
  5
16F4
330
1F
100
AcDbEntity
  8
LOGO
 62
     4
100
AcDbLine
 10
332.328405492955
 20
82.18265342737117
 30
0.0
 11
332.328405492955
 21
71.38421722827629
 31
0.0
  0
LINE
  5
16F5
330
1F
100
AcDbEntity
  8
LOGO
 62
     4
100
AcDbLine
 10
317.0206055055083
 20
71.38421722827629
 30
0.0
 11
317.0206055055083
 21
65.98499912872926
 31
0.0
  0
TEXT
  5
16F6
330
1F
100
AcDbEntity
  8
LOGO
  6
Continuous
 62
     7
100
AcDbText
 10
305.6890401751476
 20
73.63837499752526
 30
0.0
 40
6.299999999999999
  1
MVSE
  7
CHINESET
100
AcDbText
  0
LINE
  5
16F7
330
1F
100
AcDbEntity
  8
LOGO
 62
     4
100
AcDbLine
 10
320.8401096261519
 20
65.98499912872926
 30
0.0
 11
303.7703271812437
 21
65.98499912872926
 31
0.0
  0
TEXT
  5
16F8
330
1F
100
AcDbEntity
  8
LOGO
  6
Continuous
100
AcDbText
 10
308.5640086855758
 20
54.64979267202917
 30
235.9039063680896
 40
2.699999999999999
  1
Model
 41
0.8
  7
CHINESET
100
AcDbText
  0
TEXT
  5
16F9
330
1F
100
AcDbEntity
  8
LOGO
100
AcDbText
 10
307.8453564571774
 20
59.65501078049843
 30
235.9039063680896
 40
4.5
  1
型號
  7
CHINESET
100
AcDbText
  0
LINE
  5
16FA
330
1F
100
AcDbEntity
  8
LOGO
  6
Continuous
 62
     7
100
AcDbLine
 10
333.4763685087653
 20
76.74518556025046
 30
0.0
 11
338.2445639168565
 21
76.74518556025046
 31
0.0
  0
LINE
  5
16FB
330
1F
100
AcDbEntity
  8
LOGO
 62
     4
100
AcDbLine
 10
345.5161257368214
 20
65.98499912872926
 30
0.0
 11
345.5161257368214
 21
52.78691044094576
 31
0.0
  0
LINE
  5
16FC
330
1F
100
AcDbEntity
  8
LOGO
 62
     4
100
AcDbLine
 10
323.6521610259363
 20
65.98499912872926
 30
0.0
 11
323.6521610259363
 21
52.78691044094576
 31
0.0
  0
LINE
  5
16FD
330
1F
100
AcDbEntity
  8
LOGO
 62
     4
100
AcDbLine
 10
345.5161257368214
 20
52.78691044094576
 30
0.0
 11
323.6521610259363
 21
52.78691044094576
 31
0.0
  0
LINE
  5
16FE
330
1F
100
AcDbEntity
  8
LOGO
 62
     4
100
AcDbLine
 10
352.7013886047598
 20
82.18265342737117
 30
0.0
 11
339.7486782215295
 21
82.18265342737117
 31
0.0
  0
LINE
  5
16FF
330
1F
100
AcDbEntity
  8
LOGO
 62
     4
100
AcDbLine
 10
352.7013886047598
 20
71.38421722827629
 30
0.0
 11
339.7486782215295
 21
71.38421722827629
 31
0.0
  0
LINE
  5
1700
330
1F
100
AcDbEntity
  8
LOGO
 62
     4
100
AcDbLine
 10
339.7486782215295
 20
82.18265342737117
 30
0.0
 11
339.7486782215295
 21
71.38421722827629
 31
0.0
  0
LINE
  5
1701
330
1F
100
AcDbEntity
  8
LOGO
 62
     4
100
AcDbLine
 10
352.7013886047598
 20
82.18265342737117
 30
0.0
 11
352.7013886047598
 21
71.38421722827629
 31
0.0
  0
LINE
  5
1702
330
1F
100
AcDbEntity
  8
LOGO
 62
     4
100
AcDbLine
 10
346.2250334131446
 20
71.38421722827629
 30
0.0
 11
346.2250334131446
 21
68.68460817850277
 31
0.0
  0
TEXT
  5
1703
330
1F
100
AcDbEntity
  8
LOGO
  6
Continuous
 62
     7
100
AcDbText
 10
341.5040376802384
 20
73.63837499752526
 30
0.0
 40
6.299999999999999
  1
300
  7
CHINESET
100
AcDbText
  0
LINE
  5
1704
330
1F
100
AcDbEntity
  8
LOGO
 62
     4
100
AcDbLine
 10
345.5161257368214
 20
65.98499912872926
 30
0.0
 11
323.6521610259363
 21
65.98499912872926
 31
0.0
  0
LINE
  5
1705
330
1F
100
AcDbEntity
  8
LOGO
  6
Continuous
 62
     7
100
AcDbLine
 10
360.003106579771
 20
76.74518556025046
 30
0.0
 11
364.7713019878622
 21
76.74518556025046
 31
0.0
  0
LINE
  5
1706
330
1F
100
AcDbEntity
  8
LOGO
 62
     4
100
AcDbLine
 10
366.4696717668499
 20
65.98499912872926
 30
0.0
 11
366.4696717668499
 21
52.78691044094576
 31
0.0
  0
LINE
  5
1707
330
1F
100
AcDbEntity
  8
LOGO
 62
     4
100
AcDbLine
 10
348.4440897217142
 20
65.98499912872926
 30
0.0
 11
348.4440897217142
 21
52.78691044094576
 31
0.0
  0
LINE
  5
1708
330
1F
100
AcDbEntity
  8
LOGO
 62
     4
100
AcDbLine
 10
366.4696717668499
 20
52.78691044094576
 30
0.0
 11
348.4440897217142
 21
52.78691044094576
 31
0.0
  0
LINE
  5
1709
330
1F
100
AcDbEntity
  8
LOGO
 62
     4
100
AcDbLine
 10
373.941044690243
 20
82.18265342737117
 30
0.0
 11
366.2754162925353
 21
82.18265342737117
 31
0.0
  0
LINE
  5
170A
330
1F
100
AcDbEntity
  8
LOGO
 62
     4
100
AcDbLine
 10
373.941044690243
 20
71.38421722827629
 30
0.0
 11
366.2754162925353
 21
71.38421722827629
 31
0.0
  0
LINE
  5
170B
330
1F
100
AcDbEntity
  8
LOGO
 62
     4
100
AcDbLine
 10
366.2754162925353
 20
82.18265342737117
 30
0.0
 11
366.2754162925353
 21
71.38421722827629
 31
0.0
  0
LINE
  5
170C
330
1F
100
AcDbEntity
  8
LOGO
 62
     4
100
AcDbLine
 10
373.941044690243
 20
82.18265342737117
 30
0.0
 11
373.941044690243
 21
71.38421722827629
 31
0.0
  0
LINE
  5
170D
330
1F
100
AcDbEntity
  8
LOGO
 62
     4
100
AcDbLine
 10
370.1082304913891
 20
71.38421722827629
 30
0.0
 11
370.1082304913891
 21
68.68460817850277
 31
0.0
  0
TEXT
  5
170E
330
1F
100
AcDbEntity
  8
LOGO
  6
Continuous
 62
     7
100
AcDbText
 10
367.7126592756357
 20
73.63837499752526
 30
0.0
 40
6.299999999999999
  1
4
  7
CHINESET
100
AcDbText
  0
LINE
  5
170F
330
1F
100
AcDbEntity
  8
LOGO
 62
     4
100
AcDbLine
 10
366.4696717668499
 20
65.98499912872926
 30
0.0
 11
348.4440897217142
 21
65.98499912872926
 31
0.0
  0
LINE
  5
1710
330
1F
100
AcDbEntity
  8
LOGO
 62
     4
100
AcDbLine
 10
399.5599510584312
 20
65.98499912872926
 30
0.0
 11
399.5599510584312
 21
52.78691044094576
 31
0.0
  0
LINE
  5
1711
330
1F
100
AcDbEntity
  8
LOGO
 62
     4
100
AcDbLine
 10
370.1253294582084
 20
65.98499912872926
 30
0.0
 11
370.1253294582084
 21
52.78691044094576
 31
0.0
  0
LINE
  5
1712
330
1F
100
AcDbEntity
  8
LOGO
 62
     4
100
AcDbLine
 10
399.5599510584312
 20
52.78691044094576
 30
0.0
 11
370.1253294582084
 21
52.78691044094576
 31
0.0
  0
LINE
  5
1713
330
1F
100
AcDbEntity
  8
LOGO
 62
     4
100
AcDbLine
 10
390.301661457445
 20
82.18265342737117
 30
0.0
 11
376.0548189547251
 21
82.18265342737117
 31
0.0
  0
LINE
  5
1714
330
1F
100
AcDbEntity
  8
LOGO
 62
     4
100
AcDbLine
 10
390.301661457445
 20
71.38421722827629
 30
0.0
 11
376.0548189547251
 21
71.38421722827629
 31
0.0
  0
LINE
  5
1715
330
1F
100
AcDbEntity
  8
LOGO
 62
     4
100
AcDbLine
 10
376.0548189547251
 20
82.18265342737117
 30
0.0
 11
376.0548189547251
 21
71.38421722827629
 31
0.0
  0
LINE
  5
1716
330
1F
100
AcDbEntity
  8
LOGO
 62
     4
100
AcDbLine
 10
390.301661457445
 20
82.18265342737117
 30
0.0
 11
390.301661457445
 21
71.38421722827629
 31
0.0
  0
LINE
  5
1717
330
1F
100
AcDbEntity
  8
LOGO
 62
     4
100
AcDbLine
 10
383.178240206085
 20
71.38421722827629
 30
0.0
 11
383.178240206085
 21
65.98499912872926
 31
0.0
  0
TEXT
  5
1718
330
1F
100
AcDbEntity
  8
LOGO
  6
Continuous
 62
     7
100
AcDbText
 10
378.6035881252883
 20
73.63837499752526
 30
0.0
 40
6.299999999999999
  1
E1
  7
CHINESET
100
AcDbText
  0
LINE
  5
1719
330
1F
100
AcDbEntity
  8
LOGO
 62
     4
100
AcDbLine
 10
399.5599510584312
 20
65.98499912872926
 30
0.0
 11
370.1253294582084
 21
65.98499912872926
 31
0.0
  0
TEXT
  5
171A
330
1F
100
AcDbEntity
  8
LOGO
  6
Continuous
100
AcDbText
 10
325.3676480527755
 20
54.64979267202917
 30
235.9039063680896
 40
2.699999999999999
  1
Body width
 41
0.8
  7
CHINESET
100
AcDbText
  0
TEXT
  5
171B
330
1F
100
AcDbEntity
  8
LOGO
100
AcDbText
 10
325.342213117635
 20
59.65501078049843
 30
235.9039063680896
 40
4.5
  1
本體寬度
  7
CHINESET
100
AcDbText
  0
TEXT
  5
171C
330
1F
100
AcDbEntity
  8
LOGO
  6
Continuous
100
AcDbText
 10
353.4703809214602
 20
54.64979267202917
 30
235.9039063680896
 40
2.699999999999999
  1
4 Way
 41
0.8
  7
CHINESET
100
AcDbText
  0
TEXT
  5
171D
330
1F
100
AcDbEntity
  8
LOGO
100
AcDbText
 10
350.8369031616838
 20
59.65501078049843
 30
235.9039063680896
 40
4.5
  1
4方向
  7
CHINESET
100
AcDbText
  0
TEXT
  5
171E
330
1F
100
AcDbEntity
  8
LOGO
  6
Continuous
100
AcDbText
 10
372.6265807577264
 20
54.64979267202917
 30
235.9039063680896
 40
2.699999999999999
  1
Single solenoid
 41
0.8
  7
CHINESET
100
AcDbText
  0
TEXT
  5
171F
330
1F
100
AcDbEntity
  8
LOGO
100
AcDbText
 10
377.4439921633979
 20
59.65501078049843
 30
235.9039063680896
 40
4.5
  1
單線圈
  7
CHINESET
100
AcDbText
  0
LINE
  5
1720
330
1F
100
AcDbEntity
  8
LOGO
 62
     4
100
AcDbLine
 10
415.6748460125788
 20
82.18265342737117
 30
0.0
 11
398.603084025221
 21
82.18265342737117
 31
0.0
  0
LINE
  5
1721
330
1F
100
AcDbEntity
  8
LOGO
 62
     4
100
AcDbLine
 10
415.6748460125788
 20
71.38421722827629
 30
0.0
 11
398.603084025221
 21
71.38421722827629
 31
0.0
  0
LINE
  5
1722
330
1F
100
AcDbEntity
  8
LOGO
 62
     4
100
AcDbLine
 10
398.603084025221
 20
82.18265342737117
 30
0.0
 11
398.603084025221
 21
71.38421722827629
 31
0.0
  0
LINE
  5
1723
330
1F
100
AcDbEntity
  8
LOGO
 62
     4
100
AcDbLine
 10
415.6748460125788
 20
82.18265342737117
 30
0.0
 11
415.6748460125788
 21
71.38421722827629
 31
0.0
  0
TEXT
  5
1724
330
1F
100
AcDbEntity
  8
LOGO
  6
Continuous
 62
     7
100
AcDbText
 10
405.4564279290323
 20
73.63837499752526
 30
0.0
 40
6.299999999999999
  1
?
  7
CHINESET
100
AcDbText
  0
LINE
  5
1725
330
1F
100
AcDbEntity
  8
LOGO
 62
     4
100
AcDbLine
 10
422.4455468802785
 20
65.98499912872926
 30
0.0
 11
422.4455468802785
 21
52.78691044094576
 31
0.0
  0
LINE
  5
1726
330
1F
100
AcDbEntity
  8
LOGO
 62
     4
100
AcDbLine
 10
402.8965518071204
 20
65.98499912872926
 30
0.0
 11
402.8965518071204
 21
52.78691044094576
 31
0.0
  0
LINE
  5
1727
330
1F
100
AcDbEntity
  8
LOGO
 62
     4
100
AcDbLine
 10
422.4455468802785
 20
52.78691044094576
 30
0.0
 11
402.8965518071204
 21
52.78691044094576
 31
0.0
  0
LINE
  5
1728
330
1F
100
AcDbEntity
  8
LOGO
 62
     4
100
AcDbLine
 10
422.4455468802785
 20
65.98499912872926
 30
0.0
 11
402.8965518071204
 21
65.98499912872926
 31
0.0
  0
TEXT
  5
1729
330
1F
100
AcDbEntity
  8
LOGO
  6
Continuous
100
AcDbText
 10
407.1460002271947
 20
54.64979267202917
 30
235.9039063680896
 40
2.699999999999999
  1
Voltage
 41
0.8
  7
CHINESET
100
AcDbText
  0
TEXT
  5
172A
330
1F
100
AcDbEntity
  8
LOGO
100
AcDbText
 10
408.7310304003032
 20
59.65501078049843
 30
235.9039063680896
 40
4.5
  1
電壓
  7
CHINESET
100
AcDbText
  0
LINE
  5
172B
330
1F
100
AcDbEntity
  8
LOGO
 62
     4
100
AcDbLine
 10
407.1389650189007
 20
71.38421722827629
 30
0.0
 11
407.1389650189007
 21
65.98499912872947
 31
0.0
  0
TEXT
  5
172C
330
1F
100
AcDbEntity
  8
LOGO
100
AcDbText
 10
256.4088588023814
 20
51.70225330914454
 30
0.0
 40
3.599999999999999
  1
10711160
 41
0.7
  7
CHINESET
 72
     1
 11
264.6888588023814
 21
51.70225330914454
 31
0.0
100
AcDbText
  0
LINE
  5
172D
330
1F
100
AcDbEntity
  8
LOGO
 62
     4
100
AcDbLine
 10
275.8610947381519
 20
56.98630229615033
 30
0.0
 11
275.8610947381535
 21
49.78734483008652
 31
0.0
  0
LINE
  5
172E
330
1F
100
AcDbEntity
  8
LOGO
 62
     4
100
AcDbLine
 10
275.8610947381519
 20
56.98630229615033
 30
0.0
 11
254.2610947381536
 21
56.98630229615033
 31
0.0
  0
CIRCLE
  5
172F
330
1F
100
AcDbEntity
  8
LOGO
  6
Continuous
100
AcDbCircle
 10
236.9294549411665
 20
74.99139527265838
 30
0.0
 40
2.089942074577136
  0
CIRCLE
  5
1730
330
1F
100
AcDbEntity
  8
LOGO
  6
Continuous
100
AcDbCircle
 10
236.9294549411665
 20
74.99139527265838
 30
0.0
 40
1.224521043598074
  0
LINE
  5
1731
330
1F
100
AcDbEntity
  8
LOGO
100
AcDbLine
 10
250.0628934444323
 20
72.90145319808084
 30
0.0
 11
250.0628934444323
 21
77.08133734723592
 31
0.0
  0
LINE
  5
1732
330
1F
100
AcDbEntity
  8
LOGO
100
AcDbLine
 10
243.5110450090326
 20
73.76687422906051
 30
0.0
 11
243.5110450090326
 21
76.21591631625665
 31
0.0
  0
LINE
  5
1733
330
1F
100
AcDbEntity
  8
LOGO
  6
Continuous
100
AcDbLine
 10
243.5110450090326
 20
76.21591631625665
 30
0.0
 11
250.0628934444323
 21
77.08133734723592
 31
0.0
  0
LINE
  5
1734
330
1F
100
AcDbEntity
  8
LOGO
  6
Continuous
100
AcDbLine
 10
243.5110450090326
 20
73.76687422906051
 30
0.0
 11
250.0628934444323
 21
72.90145319808084
 31
0.0
  0
LINE
  5
1735
330
1F
100
AcDbEntity
  8
LOGO
  6
AM_ISO08W050x2
 48
0.3
100
AcDbLine
 10
234.0484384969437
 20
74.99139527265838
 30
0.0
 11
239.8104713853894
 21
74.99139527265838
 31
0.0
1001
GENIUS_GENOREF_13
1005
174C
  0
LINE
  5
1736
330
1F
100
AcDbEntity
  8
LOGO
  6
AM_ISO08W050x2
 48
0.3
100
AcDbLine
 10
236.9294549411665
 20
72.11037882843553
 30
0.0
 11
236.9294549411665
 21
77.87241171688124
 31
0.0
1001
GENIUS_GENOREF_13
1005
174B
  0
LINE
  5
1737
330
1F
100
AcDbEntity
  8
LOGO
  6
CENTER
 48
0.5
100
AcDbLine
 10
242.9870792419758
 20
74.99139527265838
 30
0.0
 11
250.7226433724501
 21
74.99139527265838
 31
0.0
1001
GENIUS_GENOREF_13
1005
174A
  0
LINE
  5
1738
330
1F
100
AcDbEntity
  8
LOGO
  6
Continuous
 62
     7
100
AcDbLine
 10
417.7012751124602
 20
76.74518556025046
 30
0.0
 11
422.4694705205513
 21
76.74518556025046
 31
0.0
  0
LINE
  5
1739
330
1F
100
AcDbEntity
  8
LOGO
 62
     4
100
AcDbLine
 10
433.4793304928799
 20
82.18265342737117
 30
0.0
 11
423.9735848252244
 21
82.18265342737117
 31
0.0
  0
LINE
  5
173A
330
1F
100
AcDbEntity
  8
LOGO
 62
     4
100
AcDbLine
 10
433.4793304928799
 20
71.38421722827629
 30
0.0
 11
423.9735848252244
 21
71.38421722827629
 31
0.0
  0
LINE
  5
173B
330
1F
100
AcDbEntity
  8
LOGO
 62
     4
100
AcDbLine
 10
423.9735848252244
 20
82.18265342737117
 30
0.0
 11
423.9735848252244
 21
71.38421722827629
 31
0.0
  0
LINE
  5
173C
330
1F
100
AcDbEntity
  8
LOGO
 62
     4
100
AcDbLine
 10
433.4793304928799
 20
82.18265342737117
 30
0.0
 11
433.4793304928799
 21
71.38421722827629
 31
0.0
  0
LINE
  5
173D
330
1F
100
AcDbEntity
  8
LOGO
 62
     4
100
AcDbLine
 10
428.7264576590522
 20
71.38421722827629
 30
0.0
 11
428.7264576590522
 21
65.98499912872906
 31
0.0
  0
LINE
  5
173E
330
1F
100
AcDbEntity
  8
LOGO
 62
     4
100
AcDbLine
 10
346.2250334131446
 20
68.68460817850277
 30
0.0
 11
334.5841433813784
 21
68.68460817850277
 31
0.0
  0
LINE
  5
173F
330
1F
100
AcDbEntity
  8
LOGO
 62
     4
100
AcDbLine
 10
334.5841433813784
 20
65.98499912872926
 30
0.0
 11
334.5841433813784
 21
68.68460817850277
 31
0.0
  0
LINE
  5
1740
330
1F
100
AcDbEntity
  8
LOGO
 62
     4
100
AcDbLine
 10
370.1082304913891
 20
68.68460817850277
 30
0.0
 11
357.4568807442824
 21
68.68460817850277
 31
0.0
  0
LINE
  5
1741
330
1F
100
AcDbEntity
  8
LOGO
 62
     4
100
AcDbLine
 10
357.4568807442824
 20
65.98499912872926
 30
0.0
 11
357.4568807442824
 21
68.68460817850277
 31
0.0
  0
LINE
  5
1742
330
1F
100
AcDbEntity
  8
LOGO
 62
     4
100
AcDbLine
 10
452.652391167803
 20
65.98499912872926
 30
0.0
 11
452.652391167803
 21
52.78691044094576
 31
0.0
  0
LINE
  5
1743
330
1F
100
AcDbEntity
  8
LOGO
 62
     4
100
AcDbLine
 10
425.4181421402383
 20
65.98499912872926
 30
0.0
 11
425.4181421402383
 21
52.78691044094576
 31
0.0
  0
LINE
  5
1744
330
1F
100
AcDbEntity
  8
LOGO
 62
     4
100
AcDbLine
 10
452.652391167803
 20
52.78691044094576
 30
0.0
 11
425.4181421402383
 21
52.78691044094576
 31
0.0
  0
LINE
  5
1745
330
1F
100
AcDbEntity
  8
LOGO
 62
     4
100
AcDbLine
 10
452.652391167803
 20
65.98499912872926
 30
0.0
 11
425.4181421402383
 21
65.98499912872926
 31
0.0
  0
TEXT
  5
1746
330
1F
100
AcDbEntity
  8
LOGO
  6
Continuous
100
AcDbText
 10
428.1150133045906
 20
54.64979267202917
 30
235.9039063680896
 40
2.699999999999999
  1
DIN connector
 41
0.8
  7
CHINESET
100
AcDbText
  0
TEXT
  5
1747
330
1F
100
AcDbEntity
  8
LOGO
100
AcDbText
 10
435.3996184156509
 20
59.65501078049843
 30
235.9039063680896
 40
4.5
  1
端子型
  7
CHINESET
100
AcDbText
  0
TEXT
  5
1748
330
1F
100
AcDbEntity
  8
LOGO
  6
Continuous
100
AcDbText
 10
428.0431925194522
 20
60.17393255981201
 30
235.9039063680896
 40
3.599999999999999
  1
DIN
 41
0.8
  7
CHINESET
100
AcDbText
  0
POINT
  5
174A
330
1F
100
AcDbEntity
  8
0
 60
     1
100
AcDbPoint
 10
-1749.430756416596
 20
-813.2090266444143
 30
0.0
1001
GENIUS_GENOBJ-N-CRS_13
1002
{
1000
OWNER
1000
GEN
1002
}
1001
GENIUS_GENOLIS_13
1002
{
1000
ENT
1005
0
1005
0
1005
0
1005
1737
1002
}
1001
GENIUS_GENOENT_13
1002
{
1000
MYREF
1005
174A
1002
}
1002
{
1000
GRP
1005
0
1002
}
1001
GENIUS_GENODEF_13
1002
{
1000
HIER
1070
    10
1002
}
1002
{
1000
MANEDIT
1070
     1
1002
}
1002
{
1000
NOSEL
1070
     0
1002
}
1002
{
1000
BEHIND
1070
     0
1002
}
1002
{
1000
OTHER
1070
     0
1002
}
1002
{
1000
REACTOR
1002
}
  0
POINT
  5
174B
330
1F
100
AcDbEntity
  8
0
 60
     1
100
AcDbPoint
 10
-1760.75534163945
 20
-804.333440165778
 30
0.0
1001
GENIUS_GENOBJ-N-CRS_13
1002
{
1000
OWNER
1000
GEN
1002
}
1001
GENIUS_GENOLIS_13
1002
{
1000
ENT
1005
0
1005
0
1005
0
1005
1736
1002
}
1001
GENIUS_GENOENT_13
1002
{
1000
MYREF
1005
174B
1002
}
1002
{
1000
GRP
1005
0
1002
}
1001
GENIUS_GENODEF_13
1002
{
1000
HIER
1070
    10
1002
}
1002
{
1000
MANEDIT
1070
     1
1002
}
1002
{
1000
NOSEL
1070
     0
1002
}
1002
{
1000
BEHIND
1070
     0
1002
}
1002
{
1000
OTHER
1070
     0
1002
}
1002
{
1000
REACTOR
1002
}
  0
POINT
  5
174C
330
1F
100
AcDbEntity
  8
0
 60
     1
100
AcDbPoint
 10
-1754.396667941614
 20
-813.2090266444143
 30
0.0
1001
GENIUS_GENOBJ-N-CRS_13
1002
{
1000
OWNER
1000
GEN
1002
}
1001
GENIUS_GENOLIS_13
1002
{
1000
ENT
1005
0
1005
0
1005
0
1005
1735
1002
}
1001
GENIUS_GENOENT_13
1002
{
1000
MYREF
1005
174C
1002
}
1002
{
1000
GRP
1005
0
1002
}
1001
GENIUS_GENODEF_13
1002
{
1000
HIER
1070
    10
1002
}
1002
{
1000
MANEDIT
1070
     1
1002
}
1002
{
1000
NOSEL
1070
     0
1002
}
1002
{
1000
BEHIND
1070
     0
1002
}
1002
{
1000
OTHER
1070
     0
1002
}
1002
{
1000
REACTOR
1002
}
  0
ARC
  5
17BF
330
1F
100
AcDbEntity
  8
AM_4
100
AcDbCircle
 10
266.837359387858
 20
147.6502607277914
 30
0.0
 40
8.330999999999999
100
AcDbArc
 50
260.0
 51
170.0
  0
LINE
  5
17C0
102
{ACAD_REACTORS
330
2063
102
}
330
1F
100
AcDbEntity
  8
AM_7
  6
AM_ISO08W050x2
100
AcDbLine
 10
266.837359387858
 20
157.9812607277914
 30
0.0
 11
266.837359387858
 21
137.3192607277914
 31
0.0
  0
CIRCLE
  5
17C1
330
1F
100
AcDbEntity
  8
AM_0
100
AcDbCircle
 10
266.837359387858
 20
147.6502607277914
 30
0.0
 40
7.474999999999998
  0
LINE
  5
17C2
330
1F
100
AcDbEntity
  8
AM_7
  6
AM_ISO08W050x2
100
AcDbLine
 10
256.506359387858
 20
147.6502607277914
 30
0.0
 11
277.168359387858
 21
147.6502607277914
 31
0.0
  0
ARC
  5
17C3
330
1F
100
AcDbEntity
  8
AM_4
100
AcDbCircle
 10
292.837359387858
 20
147.6502607277914
 30
0.0
 40
8.330999999999999
100
AcDbArc
 50
260.0
 51
170.0
  0
LINE
  5
17C4
102
{ACAD_REACTORS
330
2063
330
2089
102
}
330
1F
100
AcDbEntity
  8
AM_7
  6
AM_ISO08W050x2
100
AcDbLine
 10
292.837359387858
 20
157.9812607277914
 30
0.0
 11
292.837359387858
 21
137.3192607277914
 31
0.0
  0
CIRCLE
  5
17C5
330
1F
100
AcDbEntity
  8
AM_0
100
AcDbCircle
 10
292.837359387858
 20
147.6502607277914
 30
0.0
 40
7.474999999999998
  0
LINE
  5
17C6
330
1F
100
AcDbEntity
  8
AM_7
  6
AM_ISO08W050x2
100
AcDbLine
 10
282.506359387858
 20
147.6502607277914
 30
0.0
 11
303.168359387858
 21
147.6502607277914
 31
0.0
  0
ARC
  5
17C7
330
1F
100
AcDbEntity
  8
AM_4
100
AcDbCircle
 10
318.837359387858
 20
147.6502607277914
 30
0.0
 40
8.330999999999999
100
AcDbArc
 50
260.0
 51
170.0
  0
LINE
  5
17C8
102
{ACAD_REACTORS
330
2089
102
}
330
1F
100
AcDbEntity
  8
AM_7
  6
AM_ISO08W050x2
100
AcDbLine
 10
318.837359387858
 20
157.9812607277914
 30
0.0
 11
318.837359387858
 21
137.3192607277914
 31
0.0
  0
CIRCLE
  5
17C9
330
1F
100
AcDbEntity
  8
AM_0
100
AcDbCircle
 10
318.837359387858
 20
147.6502607277914
 30
0.0
 40
7.474999999999998
  0
LINE
  5
17CA
330
1F
100
AcDbEntity
  8
AM_7
  6
AM_ISO08W050x2
100
AcDbLine
 10
308.506359387858
 20
147.6502607277914
 30
0.0
 11
329.168359387858
 21
147.6502607277914
 31
0.0
  0
ARC
  5
17DD
330
1F
100
AcDbEntity
  8
AM_4
100
AcDbCircle
 10
277.837359387858
 20
327.8118602143095
 30
0.0
 40
8.330999999999999
100
AcDbArc
 50
260.0
 51
170.0
  0
LINE
  5
17DE
102
{ACAD_REACTORS
330
203D
102
}
330
1F
100
AcDbEntity
  8
AM_7
  6
AM_ISO08W050x2
100
AcDbLine
 10
277.837359387858
 20
338.1428602143095
 30
0.0
 11
277.837359387858
 21
317.4808602143095
 31
0.0
  0
CIRCLE
  5
17DF
330
1F
100
AcDbEntity
  8
AM_0
100
AcDbCircle
 10
277.837359387858
 20
327.8118602143095
 30
0.0
 40
7.474999999999998
  0
LINE
  5
17E0
330
1F
100
AcDbEntity
  8
AM_7
  6
AM_ISO08W050x2
100
AcDbLine
 10
267.506359387858
 20
327.8118602143095
 30
0.0
 11
288.168359387858
 21
327.8118602143095
 31
0.0
  0
ARC
  5
17E1
330
1F
100
AcDbEntity
  8
AM_4
100
AcDbCircle
 10
307.837359387858
 20
327.8118602143095
 30
0.0
 40
8.330999999999999
100
AcDbArc
 50
260.0
 51
170.0
  0
LINE
  5
17E2
102
{ACAD_REACTORS
330
203D
102
}
330
1F
100
AcDbEntity
  8
AM_7
  6
AM_ISO08W050x2
100
AcDbLine
 10
307.837359387858
 20
338.1428602143095
 30
0.0
 11
307.837359387858
 21
317.4808602143095
 31
0.0
  0
CIRCLE
  5
17E3
330
1F
100
AcDbEntity
  8
AM_0
100
AcDbCircle
 10
307.837359387858
 20
327.8118602143095
 30
0.0
 40
7.474999999999998
  0
LINE
  5
17E4
330
1F
100
AcDbEntity
  8
AM_7
  6
AM_ISO08W050x2
100
AcDbLine
 10
297.506359387858
 20
327.8118602143095
 30
0.0
 11
318.168359387858
 21
327.8118602143095
 31
0.0
  0
LINE
  5
17F1
330
1F
100
AcDbEntity
  8
AM_7
100
AcDbLine
 10
244.1425354220116
 20
327.8118602143099
 30
0.0
 11
408.3215844558952
 21
327.8118602143092
 31
0.0
1001
GENIUS_GENODEF_13
1002
{
1000
HIER
1070
     0
1002
}
1002
{
1000
MANEDIT
1070
     0
1002
}
1002
{
1000
NOSEL
1070
     0
1002
}
1002
{
1000
BEHIND
1070
     0
1002
}
1002
{
1000
OTHER
1070
     0
1002
}
1002
{
1000
REACTOR
1002
}
1001
GENIUS_GENOBJ-N-CEN_13
1002
{
1000
OWNER
1000
GEN
1002
}
1001
GENIUS_GENCEN_19
1002
{
1040
2.0
1002
}
  0
LINE
  5
1800
330
1F
100
AcDbEntity
  8
AM_7
100
AcDbLine
 10
243.2975538188084
 20
147.6502607277914
 30
0.0
 11
407.0568102774742
 21
147.650260727791
 31
0.0
1001
GENIUS_GENOBJ-N-CEN_13
1002
{
1000
OWNER
1000
GEN
1002
}
1001
GENIUS_GENODEF_13
1002
{
1000
HIER
1070
     0
1002
}
1002
{
1000
MANEDIT
1070
     0
1002
}
1002
{
1000
NOSEL
1070
     0
1002
}
1002
{
1000
BEHIND
1070
     0
1002
}
1002
{
1000
OTHER
1070
     0
1002
}
1002
{
1000
REACTOR
1002
}
1001
GENIUS_GENCEN_19
1002
{
1040
2.0
1002
}
  0
LINE
  5
180E
330
1F
100
AcDbEntity
  8
AM_7
  6
AM_ISO08W050x2
100
AcDbLine
 10
279.837359387858
 20
214.3999306851835
 30
0.0
 11
284.087359387858
 21
214.3999306851835
 31
0.0
1001
GENIUS_GENOREF_13
1005
1812
  0
LINE
  5
180F
330
1F
100
AcDbEntity
  8
AM_7
  6
AM_ISO08W050x2
100
AcDbLine
 10
279.837359387858
 20
214.3999306851835
 30
0.0
 11
279.837359387858
 21
218.6499306851835
 31
0.0
1001
GENIUS_GENOREF_13
1005
1812
  0
LINE
  5
1810
102
{ACAD_REACTORS
330
3195
102
}
330
1F
100
AcDbEntity
  8
AM_7
  6
AM_ISO08W050x2
100
AcDbLine
 10
279.837359387858
 20
214.3999306851835
 30
0.0
 11
275.587359387858
 21
214.3999306851835
 31
0.0
1001
GENIUS_GENOREF_13
1005
1812
  0
LINE
  5
1811
102
{ACAD_REACTORS
330
20D5
330
3168
102
}
330
1F
100
AcDbEntity
  8
AM_7
  6
AM_ISO08W050x2
100
AcDbLine
 10
279.837359387858
 20
214.3999306851835
 30
0.0
 11
279.837359387858
 21
210.1499306851835
 31
0.0
1001
GENIUS_GENOREF_13
1005
1812
  0
POINT
  5
1812
330
1F
100
AcDbEntity
  8
0
 60
     1
100
AcDbPoint
 10
0.0
 20
0.0
 30
0.0
1001
GENIUS_GENOENT_13
1002
{
1000
MYREF
1005
1812
1002
}
1002
{
1000
GRP
1005
0
1002
}
1001
GENIUS_GENOBJ-N-CRS_13
1002
{
1000
OWNER
1000
GEN
1002
}
1001
GENIUS_GENOLIS_13
1002
{
1000
ENT
1005
1811
1005
1810
1005
180F
1005
180E
1002
}
1001
GENIUS_GENODEF_13
1002
{
1000
HIER
1070
    10
1002
}
1002
{
1000
MANEDIT
1070
     0
1002
}
1002
{
1000
NOSEL
1070
     0
1002
}
1002
{
1000
BEHIND
1070
     0
1002
}
1002
{
1000
OTHER
1070
     0
1002
}
1002
{
1000
REACTOR
1002
}
  0
LINE
  5
1820
330
1F
100
AcDbEntity
  8
AM_7
  6
AM_ISO08W050x2
100
AcDbLine
 10
305.837359387858
 20
214.3999306851835
 30
0.0
 11
310.087359387858
 21
214.3999306851835
 31
0.0
1001
GENIUS_GENOREF_13
1005
1824
  0
LINE
  5
1821
330
1F
100
AcDbEntity
  8
AM_7
  6
AM_ISO08W050x2
100
AcDbLine
 10
305.837359387858
 20
214.3999306851835
 30
0.0
 11
305.837359387858
 21
218.6499306851835
 31
0.0
1001
GENIUS_GENOREF_13
1005
1824
  0
LINE
  5
1822
330
1F
100
AcDbEntity
  8
AM_7
  6
AM_ISO08W050x2
100
AcDbLine
 10
305.837359387858
 20
214.3999306851835
 30
0.0
 11
301.587359387858
 21
214.3999306851835
 31
0.0
1001
GENIUS_GENOREF_13
1005
1824
  0
LINE
  5
1823
102
{ACAD_REACTORS
330
20D5
102
}
330
1F
100
AcDbEntity
  8
AM_7
  6
AM_ISO08W050x2
100
AcDbLine
 10
305.837359387858
 20
214.3999306851835
 30
0.0
 11
305.837359387858
 21
210.1499306851835
 31
0.0
1001
GENIUS_GENOREF_13
1005
1824
  0
POINT
  5
1824
330
1F
100
AcDbEntity
  8
0
 60
     1
100
AcDbPoint
 10
0.0
 20
0.0
 30
0.0
1001
GENIUS_GENOLIS_13
1002
{
1000
ENT
1005
1823
1005
1822
1005
1821
1005
1820
1002
}
1001
GENIUS_GENOENT_13
1002
{
1000
MYREF
1005
1824
1002
}
1002
{
1000
GRP
1005
0
1002
}
1001
GENIUS_GENOBJ-N-CRS_13
1002
{
1000
OWNER
1000
GEN
1002
}
1001
GENIUS_GENODEF_13
1002
{
1000
HIER
1070
    10
1002
}
1002
{
1000
MANEDIT
1070
     0
1002
}
1002
{
1000
NOSEL
1070
     0
1002
}
1002
{
1000
BEHIND
1070
     0
1002
}
1002
{
1000
OTHER
1070
     0
1002
}
1002
{
1000
REACTOR
1002
}
  0
LINE
  5
1832
330
1F
100
AcDbEntity
  8
AM_7
  6
AM_ISO08W050x2
100
AcDbLine
 10
292.837359387858
 20
251.3999306851835
 30
0.0
 11
297.087359387858
 21
251.3999306851835
 31
0.0
1001
GENIUS_GENOREF_13
1005
1836
  0
LINE
  5
1833
330
1F
100
AcDbEntity
  8
AM_7
  6
AM_ISO08W050x2
100
AcDbLine
 10
292.837359387858
 20
251.3999306851835
 30
0.0
 11
292.837359387858
 21
255.6499306851835
 31
0.0
1001
GENIUS_GENOREF_13
1005
1836
  0
LINE
  5
1834
102
{ACAD_REACTORS
330
3195
102
}
330
1F
100
AcDbEntity
  8
AM_7
  6
AM_ISO08W050x2
100
AcDbLine
 10
292.837359387858
 20
251.3999306851835
 30
0.0
 11
288.587359387858
 21
251.3999306851835
 31
0.0
1001
GENIUS_GENOREF_13
1005
1836
  0
LINE
  5
1835
330
1F
100
AcDbEntity
  8
AM_7
  6
AM_ISO08W050x2
100
AcDbLine
 10
292.837359387858
 20
251.3999306851835
 30
0.0
 11
292.837359387858
 21
247.1499306851835
 31
0.0
1001
GENIUS_GENOREF_13
1005
1836
  0
POINT
  5
1836
330
1F
100
AcDbEntity
  8
0
 60
     1
100
AcDbPoint
 10
0.0
 20
0.0
 30
0.0
1001
GENIUS_GENOENT_13
1002
{
1000
MYREF
1005
1836
1002
}
1002
{
1000
GRP
1005
0
1002
}
1001
GENIUS_GENOBJ-N-CRS_13
1002
{
1000
OWNER
1000
GEN
1002
}
1001
GENIUS_GENOLIS_13
1002
{
1000
ENT
1005
1835
1005
1834
1005
1833
1005
1832
1002
}
1001
GENIUS_GENODEF_13
1002
{
1000
HIER
1070
    10
1002
}
1002
{
1000
MANEDIT
1070
     0
1002
}
1002
{
1000
NOSEL
1070
     0
1002
}
1002
{
1000
BEHIND
1070
     0
1002
}
1002
{
1000
OTHER
1070
     0
1002
}
1002
{
1000
REACTOR
1002
}
  0
LINE
  5
1844
330
1F
100
AcDbEntity
  8
AM_7
  6
AM_ISO08W050x2
100
AcDbLine
 10
322.837359387858
 20
315.3118602143095
 30
0.0
 11
326.437359387858
 21
315.3118602143095
 31
0.0
1001
GENIUS_GENOREF_13
1005
1848
  0
LINE
  5
1845
102
{ACAD_REACTORS
330
20AF
102
}
330
1F
100
AcDbEntity
  8
AM_7
  6
AM_ISO08W050x2
100
AcDbLine
 10
322.837359387858
 20
315.3118602143095
 30
0.0
 11
322.837359387858
 21
318.9118602143095
 31
0.0
1001
GENIUS_GENOREF_13
1005
1848
  0
LINE
  5
1846
102
{ACAD_REACTORS
330
22CE
102
}
330
1F
100
AcDbEntity
  8
AM_7
  6
AM_ISO08W050x2
100
AcDbLine
 10
322.837359387858
 20
315.3118602143095
 30
0.0
 11
319.2373593878579
 21
315.3118602143095
 31
0.0
1001
GENIUS_GENOREF_13
1005
1848
  0
LINE
  5
1847
330
1F
100
AcDbEntity
  8
AM_7
  6
AM_ISO08W050x2
100
AcDbLine
 10
322.837359387858
 20
315.3118602143095
 30
0.0
 11
322.837359387858
 21
311.7118602143094
 31
0.0
1001
GENIUS_GENOREF_13
1005
1848
  0
POINT
  5
1848
330
1F
100
AcDbEntity
  8
0
 60
     1
100
AcDbPoint
 10
0.0
 20
0.0
 30
0.0
1001
GENIUS_GENOLIS_13
1002
{
1000
ENT
1005
1847
1005
1846
1005
1845
1005
1844
1002
}
1001
GENIUS_GENOENT_13
1002
{
1000
MYREF
1005
1848
1002
}
1002
{
1000
GRP
1005
0
1002
}
1001
GENIUS_GENOBJ-N-CRS_13
1002
{
1000
OWNER
1000
GEN
1002
}
1001
GENIUS_GENODEF_13
1002
{
1000
HIER
1070
    10
1002
}
1002
{
1000
MANEDIT
1070
     0
1002
}
1002
{
1000
NOSEL
1070
     0
1002
}
1002
{
1000
BEHIND
1070
     0
1002
}
1002
{
1000
OTHER
1070
     0
1002
}
1002
{
1000
REACTOR
1002
}
  0
LINE
  5
1856
330
1F
100
AcDbEntity
  8
AM_7
  6
AM_ISO08W050x2
100
AcDbLine
 10
262.8373593878579
 20
340.3118602143095
 30
0.0
 11
266.4373593878579
 21
340.3118602143095
 31
0.0
1001
GENIUS_GENOREF_13
1005
185A
  0
LINE
  5
1857
102
{ACAD_REACTORS
330
20AF
330
3135
102
}
330
1F
100
AcDbEntity
  8
AM_7
  6
AM_ISO08W050x2
100
AcDbLine
 10
262.8373593878579
 20
340.3118602143095
 30
0.0
 11
262.8373593878579
 21
343.9118602143095
 31
0.0
1001
GENIUS_GENOREF_13
1005
185A
  0
LINE
  5
1858
102
{ACAD_REACTORS
330
22CE
102
}
330
1F
100
AcDbEntity
  8
AM_7
  6
AM_ISO08W050x2
100
AcDbLine
 10
262.8373593878579
 20
340.3118602143095
 30
0.0
 11
259.2373593878579
 21
340.3118602143095
 31
0.0
1001
GENIUS_GENOREF_13
1005
185A
  0
LINE
  5
1859
330
1F
100
AcDbEntity
  8
AM_7
  6
AM_ISO08W050x2
100
AcDbLine
 10
262.8373593878579
 20
340.3118602143095
 30
0.0
 11
262.8373593878579
 21
336.7118602143094
 31
0.0
1001
GENIUS_GENOREF_13
1005
185A
  0
POINT
  5
185A
330
1F
100
AcDbEntity
  8
0
 60
     1
100
AcDbPoint
 10
0.0
 20
0.0
 30
0.0
1001
GENIUS_GENOLIS_13
1002
{
1000
ENT
1005
1859
1005
1858
1005
1857
1005
1856
1002
}
1001
GENIUS_GENOENT_13
1002
{
1000
MYREF
1005
185A
1002
}
1002
{
1000
GRP
1005
0
1002
}
1001
GENIUS_GENODEF_13
1002
{
1000
HIER
1070
    10
1002
}
1002
{
1000
MANEDIT
1070
     0
1002
}
1002
{
1000
NOSEL
1070
     0
1002
}
1002
{
1000
BEHIND
1070
     0
1002
}
1002
{
1000
OTHER
1070
     0
1002
}
1002
{
1000
REACTOR
1002
}
1001
GENIUS_GENOBJ-N-CRS_13
1002
{
1000
OWNER
1000
GEN
1002
}
  0
LINE
  5
1868
330
1F
100
AcDbEntity
  8
AM_7
100
AcDbLine
 10
470.1966259004101
 20
271.8999306851835
 30
0.0
 11
481.4342302074442
 21
271.8999306851835
 31
0.0
1001
GENIUS_GENOREF_13
1005
186C
  0
LINE
  5
1869
330
1F
100
AcDbEntity
  8
AM_7
100
AcDbLine
 10
470.1966259004101
 20
271.8999306851835
 30
0.0
 11
470.1966259004101
 21
283.1375349922176
 31
0.0
1001
GENIUS_GENOREF_13
1005
186C
  0
LINE
  5
186A
330
1F
100
AcDbEntity
  8
AM_7
100
AcDbLine
 10
470.1966259004101
 20
271.8999306851835
 30
0.0
 11
458.959021593376
 21
271.8999306851835
 31
0.0
1001
GENIUS_GENOREF_13
1005
186C
  0
LINE
  5
186B
330
1F
100
AcDbEntity
  8
AM_7
100
AcDbLine
 10
470.1966259004101
 20
271.8999306851835
 30
0.0
 11
470.1966259004101
 21
260.6623263781494
 31
0.0
1001
GENIUS_GENOREF_13
1005
186C
  0
POINT
  5
186C
330
1F
100
AcDbEntity
  8
0
 60
     1
100
AcDbPoint
 10
0.0
 20
0.0
 30
0.0
1001
GENIUS_GENODEF_13
1002
{
1000
HIER
1070
    10
1002
}
1002
{
1000
MANEDIT
1070
     0
1002
}
1002
{
1000
NOSEL
1070
     0
1002
}
1002
{
1000
BEHIND
1070
     0
1002
}
1002
{
1000
OTHER
1070
     0
1002
}
1002
{
1000
REACTOR
1002
}
1001
GENIUS_GENOLIS_13
1002
{
1000
ENT
1005
186B
1005
186A
1005
1869
1005
1868
1002
}
1001
GENIUS_GENOENT_13
1002
{
1000
MYREF
1005
186C
1002
}
1002
{
1000
GRP
1005
0
1002
}
1001
GENIUS_GENOBJ-N-CRS_13
1002
{
1000
OWNER
1000
GEN
1002
}
  0
LINE
  5
1879
330
1F
100
AcDbEntity
  8
AM_7
100
AcDbLine
 10
470.1966259004101
 20
282.8999306851835
 30
0.0
 11
470.1966259004101
 21
206.6076644505471
 31
0.0
1001
GENIUS_GENOBJ-N-CEN_13
1002
{
1000
OWNER
1000
GEN
1002
}
1001
GENIUS_GENODEF_13
1002
{
1000
HIER
1070
     0
1002
}
1002
{
1000
MANEDIT
1070
     0
1002
}
1002
{
1000
NOSEL
1070
     0
1002
}
1002
{
1000
BEHIND
1070
     0
1002
}
1002
{
1000
OTHER
1070
     0
1002
}
1002
{
1000
REACTOR
1002
}
1001
GENIUS_GENCEN_19
1002
{
1040
2.0
1002
}
  0
LINE
  5
1894
330
1F
100
AcDbEntity
  8
AM_7
  6
AM_ISO08W050x2
100
AcDbLine
 10
395.9683115841039
 20
232.8999306851835
 30
0.0
 11
382.7359703172433
 21
232.8999306851835
 31
0.0
1001
GENIUS_GENOBJ-N-CEN_13
1002
{
1000
OWNER
1000
GEN
1002
}
1001
GENIUS_GENODEF_13
1002
{
1000
HIER
1070
     0
1002
}
1002
{
1000
MANEDIT
1070
     0
1002
}
1002
{
1000
NOSEL
1070
     0
1002
}
1002
{
1000
BEHIND
1070
     0
1002
}
1002
{
1000
OTHER
1070
     0
1002
}
1002
{
1000
REACTOR
1002
}
1001
GENIUS_GENCEN_19
1002
{
1040
2.0
1002
}
  0
LINE
  5
1895
330
1F
100
AcDbEntity
  8
AM_7
  6
AM_ISO08W050x2
100
AcDbLine
 10
394.9683115841039
 20
271.8999306851836
 30
0.0
 11
407.8995269021234
 21
271.8999306851836
 31
0.0
1001
GENIUS_GENOBJ-N-CEN_13
1002
{
1000
OWNER
1000
GEN
1002
}
1001
GENIUS_GENODEF_13
1002
{
1000
HIER
1070
     0
1002
}
1002
{
1000
MANEDIT
1070
     0
1002
}
1002
{
1000
NOSEL
1070
     0
1002
}
1002
{
1000
BEHIND
1070
     0
1002
}
1002
{
1000
OTHER
1070
     0
1002
}
1002
{
1000
REACTOR
1002
}
1001
GENIUS_GENCEN_19
1002
{
1040
2.0
1002
}
  0
DIMENSION
  5
202F
102
{ACAD_XDICTIONARY
360
203C
102
}
102
{ACAD_REACTORS
330
203D
102
}
330
1F
100
AcDbEntity
  8
AM_5
100
AcDbDimension
  2
*D2
 10
307.837359387858
 20
300.8118602143095
 30
0.0
 11
292.837359387858
 21
303.2618602143096
 31
0.0
 70
    32
 71
     5
 42
30.0
  3
AM_ISO$0
100
AcDbAlignedDimension
 13
277.837359387858
 23
317.4808602143095
 33
0.0
 14
307.837359387858
 24
317.4808602143095
 34
0.0
 50
0.0000000000001018
100
AcDbRotatedDimension
1001
ACAD
1000
DSTYLE
1002
{
1070
    40
1040
1.0
1070
   144
1040
1.0
1070
   272
1070
     8
1002
}
  0
DIMENSION
  5
2055
102
{ACAD_XDICTIONARY
360
2062
102
}
102
{ACAD_REACTORS
330
2063
102
}
330
1F
100
AcDbEntity
  8
AM_5
100
AcDbDimension
  2
*D3
 10
292.837359387858
 20
120.6502607277914
 30
0.0
 11
279.837359387858
 21
123.1006052159803
 31
0.0
 70
    32
 71
     5
 42
26.0
  3
AM_ISO$0
100
AcDbAlignedDimension
 13
266.837359387858
 23
137.3192607277914
 33
0.0
 14
292.837359387858
 24
137.3192607277914
 34
0.0
 50
0.0000000000002036
100
AcDbRotatedDimension
1001
ACAD
1000
DSTYLE
1002
{
1070
    40
1040
1.0
1070
   144
1040
1.0
1070
   272
1070
     8
1002
}
  0
DIMENSION
  5
207B
102
{ACAD_XDICTIONARY
360
2088
102
}
102
{ACAD_REACTORS
330
2089
102
}
330
1F
100
AcDbEntity
  8
AM_5
100
AcDbDimension
  2
*D4
 10
318.837359387858
 20
120.6502607277915
 30
0.0
 11
305.837359387858
 21
123.1006052159804
 31
0.0
 70
    32
 71
     5
 42
26.0
  3
AM_ISO$0
100
AcDbAlignedDimension
 13
292.837359387858
 23
137.3192607277914
 33
0.0
 14
318.837359387858
 24
137.3192607277914
 34
0.0
 50
0.0000000000002036
100
AcDbRotatedDimension
1001
ACAD
1000
DSTYLE
1002
{
1070
    40
1040
1.0
1070
   144
1040
1.0
1070
   272
1070
     8
1002
}
  0
DIMENSION
  5
20A1
102
{ACAD_XDICTIONARY
360
20AE
102
}
102
{ACAD_REACTORS
330
20AF
102
}
330
1F
100
AcDbEntity
  8
AM_5
100
AcDbDimension
  2
*D5
 10
322.837359387858
 20
354.8118602143095
 30
0.0
 11
292.837359387858
 21
357.2618602143095
 31
0.0
 70
    32
 71
     5
 42
60.00000000000006
  3
AM_ISO$0
100
AcDbAlignedDimension
 13
262.8373593878579
 23
343.9118602143095
 33
0.0
 14
322.837359387858
 24
318.9118602143095
 34
0.0
100
AcDbRotatedDimension
1001
ACAD
1000
DSTYLE
1002
{
1070
    40
1040
1.0
1070
   144
1040
1.0
1070
   272
1070
     8
1002
}
  0
DIMENSION
  5
20C7
102
{ACAD_XDICTIONARY
360
20D4
102
}
102
{ACAD_REACTORS
330
20D5
102
}
330
1F
100
AcDbEntity
  8
AM_5
100
AcDbDimension
  2
*D6
 10
305.837359387858
 20
197.6999306851835
 30
0.0
 11
292.837359387858
 21
200.1502751733725
 31
0.0
 70
    32
 71
     5
 42
26.0
  3
AM_ISO$0
100
AcDbAlignedDimension
 13
279.837359387858
 23
210.1499306851835
 33
0.0
 14
305.837359387858
 24
210.1499306851835
 34
0.0
 50
0.0000000000001018
100
AcDbRotatedDimension
1001
ACAD
1000
DSTYLE
1002
{
1070
    40
1040
1.0
1070
   144
1040
1.0
1070
   272
1070
     8
1002
}
  0
DIMENSION
  5
216D
330
1F
100
AcDbEntity
  8
AM_5
100
AcDbDimension
  2
*D7
 10
393.3373593878616
 20
187.6999306851836
 30
0.0
 11
320.5873593878597
 21
190.1499306851836
 31
0.0
 70
    32
 71
     5
 42
145.5000000000038
  3
AM_ISO$0
100
AcDbAlignedDimension
 13
247.8373593878578
 23
210.6999306851835
 33
0.0
 14
393.3373593878616
 24
223.3999306851834
 34
0.0
 50
0.0000000000001018
100
AcDbRotatedDimension
1001
ACAD
1000
DSTYLE
1002
{
1070
    40
1040
1.0
1070
   144
1040
1.0
1070
   272
1070
     8
1002
}
  0
DIMENSION
  5
2254
102
{ACAD_XDICTIONARY
360
2260
102
}
102
{ACAD_REACTORS
330
2261
102
}
330
1F
100
AcDbEntity
  8
AM_5
100
AcDbDimension
  2
*D9
 10
291.9524690838825
 20
249.3312429006378
 30
0.0
 11
307.4650385256512
 21
268.244156598059
 31
0.0
 70
   163
  1
3-<>
 71
     5
 42
4.499999999999602
  3
AM_ISO$3
100
AcDbDiametricDimension
 15
293.7222496918338
 25
253.4686184697296
 35
0.0
 40
0.0
1001
ACAD
1000
DSTYLE
1002
{
1070
    40
1040
1.0
1070
   144
1040
1.0
1070
   272
1070
     8
1002
}
  0
DIMENSION
  5
2284
102
{ACAD_XDICTIONARY
360
228D
102
}
102
{ACAD_REACTORS
330
228E
102
}
330
1F
100
AcDbEntity
  8
AM_5
100
AcDbDimension
  2
*D10
 10
322.10423757267
 20
316.73401787227
 30
0.0
 11
336.0831988457242
 21
303.8253406602743
 31
0.0
 70
   163
  1
2-<>
 71
     5
 42
3.20000000000013
  3
AM_ISO$3
100
AcDbDiametricDimension
 15
323.5704812030457
 25
313.889702556349
 35
0.0
 40
0.0
1001
ACAD
1000
DSTYLE
1002
{
1070
    40
1040
1.0
1070
   144
1040
1.0
1070
   272
1070
     8
1002
}
  0
DIMENSION
  5
22C0
102
{ACAD_XDICTIONARY
360
22CD
102
}
102
{ACAD_REACTORS
330
22CE
102
}
330
1F
100
AcDbEntity
  8
AM_5
100
AcDbDimension
  2
*D11
 10
235.8373593878578
 20
315.3118602143095
 30
0.0
 11
233.3870148996687
 21
327.8118602143095
 31
0.0
 70
    32
 71
     5
 42
25.0
  3
AM_ISO$0
100
AcDbAlignedDimension
 13
259.2373593878579
 23
340.3118602143095
 33
0.0
 14
319.2373593878579
 24
315.3118602143095
 34
0.0
 50
90.0
100
AcDbRotatedDimension
1001
ACAD
1000
DSTYLE
1002
{
1070
    40
1040
1.0
1070
   144
1040
1.0
1070
   272
1070
     8
1002
}
  0
DIMENSION
  5
22E6
330
1F
100
AcDbEntity
  8
AM_5
100
AcDbDimension
  2
*D12
 10
225.8373593878578
 20
312.8118602143095
 30
0.0
 11
223.3873593878577
 21
327.8118602143095
 31
0.0
 70
    32
 71
     5
 42
30.0
  3
AM_ISO$0
100
AcDbAlignedDimension
 13
248.8373593878578
 23
342.8118602143095
 33
0.0
 14
248.8373593878578
 24
312.8118602143095
 34
0.0
 50
90.0
100
AcDbRotatedDimension
1001
ACAD
1000
DSTYLE
1002
{
1070
    40
1040
1.0
1070
   144
1040
1.0
1070
   272
1070
     8
1002
}
  0
LINE
  5
230F
330
1F
100
AcDbEntity
  8
AM_7
  6
AM_ISO08W050x2
100
AcDbLine
 10
262.8373593878579
 20
135.1502607277914
 30
0.0
 11
266.4373593878579
 21
135.1502607277914
 31
0.0
1001
GENIUS_GENOREF_13
1005
2313
  0
LINE
  5
2310
330
1F
100
AcDbEntity
  8
AM_7
  6
AM_ISO08W050x2
100
AcDbLine
 10
262.8373593878579
 20
135.1502607277914
 30
0.0
 11
262.8373593878579
 21
138.7502607277914
 31
0.0
1001
GENIUS_GENOREF_13
1005
2313
  0
LINE
  5
2311
330
1F
100
AcDbEntity
  8
AM_7
  6
AM_ISO08W050x2
100
AcDbLine
 10
262.8373593878579
 20
135.1502607277914
 30
0.0
 11
259.2373593878579
 21
135.1502607277914
 31
0.0
1001
GENIUS_GENOREF_13
1005
2313
  0
LINE
  5
2312
330
1F
100
AcDbEntity
  8
AM_7
  6
AM_ISO08W050x2
100
AcDbLine
 10
262.8373593878579
 20
135.1502607277914
 30
0.0
 11
262.8373593878579
 21
131.5502607277914
 31
0.0
1001
GENIUS_GENOREF_13
1005
2313
  0
POINT
  5
2313
330
1F
100
AcDbEntity
  8
0
 60
     1
100
AcDbPoint
 10
0.0
 20
0.0
 30
0.0
1001
GENIUS_GENODEF_13
1002
{
1000
HIER
1070
    10
1002
}
1002
{
1000
MANEDIT
1070
     0
1002
}
1002
{
1000
NOSEL
1070
     0
1002
}
1002
{
1000
BEHIND
1070
     0
1002
}
1002
{
1000
OTHER
1070
     0
1002
}
1002
{
1000
REACTOR
1002
}
1001
GENIUS_GENOENT_13
1002
{
1000
MYREF
1005
2313
1002
}
1002
{
1000
GRP
1005
0
1002
}
1001
GENIUS_GENOBJ-N-CRS_13
1002
{
1000
OWNER
1000
GEN
1002
}
1001
GENIUS_GENOLIS_13
1002
{
1000
ENT
1005
2312
1005
2311
1005
2310
1005
230F
1002
}
  0
LINE
  5
2321
330
1F
100
AcDbEntity
  8
AM_7
  6
AM_ISO08W050x2
100
AcDbLine
 10
322.837359387858
 20
160.1502607277914
 30
0.0
 11
326.437359387858
 21
160.1502607277914
 31
0.0
1001
GENIUS_GENOREF_13
1005
2325
  0
LINE
  5
2322
330
1F
100
AcDbEntity
  8
AM_7
  6
AM_ISO08W050x2
100
AcDbLine
 10
322.837359387858
 20
160.1502607277914
 30
0.0
 11
322.837359387858
 21
163.7502607277914
 31
0.0
1001
GENIUS_GENOREF_13
1005
2325
  0
LINE
  5
2323
330
1F
100
AcDbEntity
  8
AM_7
  6
AM_ISO08W050x2
100
AcDbLine
 10
322.837359387858
 20
160.1502607277914
 30
0.0
 11
319.2373593878579
 21
160.1502607277914
 31
0.0
1001
GENIUS_GENOREF_13
1005
2325
  0
LINE
  5
2324
330
1F
100
AcDbEntity
  8
AM_7
  6
AM_ISO08W050x2
100
AcDbLine
 10
322.837359387858
 20
160.1502607277914
 30
0.0
 11
322.837359387858
 21
156.5502607277914
 31
0.0
1001
GENIUS_GENOREF_13
1005
2325
  0
POINT
  5
2325
330
1F
100
AcDbEntity
  8
0
 60
     1
100
AcDbPoint
 10
0.0
 20
0.0
 30
0.0
1001
GENIUS_GENOENT_13
1002
{
1000
MYREF
1005
2325
1002
}
1002
{
1000
GRP
1005
0
1002
}
1001
GENIUS_GENOBJ-N-CRS_13
1002
{
1000
OWNER
1000
GEN
1002
}
1001
GENIUS_GENOLIS_13
1002
{
1000
ENT
1005
2324
1005
2323
1005
2322
1005
2321
1002
}
1001
GENIUS_GENODEF_13
1002
{
1000
HIER
1070
    10
1002
}
1002
{
1000
MANEDIT
1070
     0
1002
}
1002
{
1000
NOSEL
1070
     0
1002
}
1002
{
1000
BEHIND
1070
     0
1002
}
1002
{
1000
OTHER
1070
     0
1002
}
1002
{
1000
REACTOR
1002
}
  0
DIMENSION
  5
2339
102
{ACAD_XDICTIONARY
360
2346
102
}
102
{ACAD_REACTORS
330
2347
102
}
330
1F
100
AcDbEntity
  8
AM_5
100
AcDbDimension
  2
*D13
 10
421.0167751504235
 20
280.8999306851835
 30
0.0
 11
418.5664306622345
 21
245.2999306851836
 31
0.0
 70
    32
 71
     5
 42
71.20000000000008
  3
AM_ISO$0
100
AcDbAlignedDimension
 13
358.3370002311055
 23
209.6999306851834
 33
0.0
 14
397.3373593878615
 24
280.8999306851835
 34
0.0
 50
90.0
100
AcDbRotatedDimension
1001
ACAD
1000
DSTYLE
1002
{
1070
    40
1040
1.0
1070
   144
1040
1.0
1070
   272
1070
     8
1002
}
  0
INSERT
  5
2369
330
1F
100
AcDbEntity
  8
AM_5
100
AcDbBlockReference
  2
*S14
 10
-62.75080200772459
 20
-12.95380846768512
 30
0.0
  0
TEXT
  5
236B
330
1F
100
AcDbEntity
  8
AM_5
100
AcDbText
 10
330.435250161348
 20
351.8816308550092
 30
0.0
 40
3.0
  1
5-PT3/8
100
AcDbText
  0
LINE
  5
24B2
330
1F
100
AcDbEntity
  8
LOGO
  6
Continuous
 62
     7
100
AcDbLine
 10
392.0724995060999
 20
76.74518556025046
 30
0.0
 11
396.8406949141911
 21
76.74518556025046
 31
0.0
  0
LINE
  5
29F1
330
1F
100
AcDbEntity
  8
AM_VIS
100
AcDbLine
 10
251.8373593878577
 20
154.6502607277915
 30
0.0
 11
248.8373593878577
 21
154.6502607277915
 31
0.0
  0
LINE
  5
29F2
330
1F
100
AcDbEntity
  8
AM_VIS
100
AcDbLine
 10
251.8373593878577
 20
161.6502607277915
 30
0.0
 11
251.8373593878577
 21
154.6502607277915
 31
0.0
  0
LINE
  5
29F3
330
1F
100
AcDbEntity
  8
AM_VIS
100
AcDbLine
 10
248.8373593878577
 20
132.6502607277915
 30
0.0
 11
255.8373593878577
 21
132.6502607277915
 31
0.0
  0
LINE
  5
29F4
330
1F
100
AcDbEntity
  8
AM_VIS
100
AcDbLine
 10
255.8373593878577
 20
162.6502607277915
 30
0.0
 11
251.8373593878577
 21
162.6502607277915
 31
0.0
  0
LINE
  5
29F5
330
1F
100
AcDbEntity
  8
AM_VIS
100
AcDbLine
 10
248.8373593878577
 20
162.6502607277915
 30
0.0
 11
251.8373593878577
 21
162.6502607277915
 31
0.0
  0
LINE
  5
29F6
330
1F
100
AcDbEntity
  8
AM_VIS
100
AcDbLine
 10
247.8373593878577
 20
161.6502607277915
 30
0.0
 11
247.8373593878577
 21
159.742491358199
 31
0.0
  0
LINE
  5
29F7
330
1F
100
AcDbEntity
  8
AM_VIS
100
AcDbLine
 10
247.8373593878577
 20
158.9617607277916
 30
0.0
 11
247.8373593878577
 21
158.6502607277915
 31
0.0
  0
ARC
  5
29F8
330
1F
100
AcDbEntity
  8
AM_VIS
100
AcDbCircle
 10
248.8373593878577
 20
161.6502607277915
 30
0.0
 40
0.9999999999999998
100
AcDbArc
 50
90.0
 51
180.0
  0
LINE
  5
29F9
330
1F
100
AcDbEntity
  8
AM_VIS
100
AcDbLine
 10
247.8373593878577
 20
153.6502607277915
 30
0.0
 11
247.8373593878577
 21
133.6502607277915
 31
0.0
  0
ARC
  5
29FA
330
1F
100
AcDbEntity
  8
AM_VIS
100
AcDbCircle
 10
248.8373593878577
 20
153.6502607277915
 30
0.0
 40
0.9999999999999998
100
AcDbArc
 50
90.0
 51
180.0
  0
LINE
  5
29FB
330
1F
100
AcDbEntity
  8
AM_VIS
100
AcDbLine
 10
251.8373593878577
 20
161.6502607277915
 30
0.0
 11
251.8373593878577
 21
162.6502607277915
 31
0.0
  0
LINE
  5
29FC
330
1F
100
AcDbEntity
  8
AM_VIS
100
AcDbLine
 10
247.8373593878577
 20
158.6502607277915
 30
0.0
 11
247.8373593878577
 21
158.3387607277915
 31
0.0
  0
LINE
  5
29FD
330
1F
100
AcDbEntity
  8
AM_VIS
100
AcDbLine
 10
247.8373593878577
 20
157.5580300973841
 30
0.0
 11
247.8373593878577
 21
153.6502607277915
 31
0.0
  0
ARC
  5
29FE
330
1F
100
AcDbEntity
  8
AM_VIS
100
AcDbCircle
 10
248.8373593878577
 20
133.6502607277915
 30
0.0
 40
1.0
100
AcDbArc
 50
180.0
 51
270.0
  0
LINE
  5
29FF
330
1F
100
AcDbEntity
  8
AM_VIS
100
AcDbLine
 10
249.7784218757299
 20
154.7429057554851
 30
0.0
 11
250.8373593878577
 21
154.6502607277916
 31
0.0
  0
LINE
  5
2A00
330
1F
100
AcDbEntity
  8
AM_VIS
100
AcDbLine
 10
249.7784218757299
 20
162.5576157000981
 30
0.0
 11
250.8373593878577
 21
162.6502607277916
 31
0.0
  0
LINE
  5
2A01
330
1F
100
AcDbEntity
  8
AM_VIS
100
AcDbLine
 10
250.8373593878577
 20
162.6502607277916
 30
0.0
 11
250.8373593878577
 21
154.6502607277916
 31
0.0
  0
LINE
  5
2A02
330
1F
100
AcDbEntity
  8
AM_VIS
100
AcDbLine
 10
247.7523046078271
 20
158.3387607277915
 30
0.0
 11
248.163678364592
 21
158.3387607277915
 31
0.0
  0
ELLIPSE
  5
2A03
330
1F
100
AcDbEntity
  8
AM_VIS
100
AcDbEllipse
 10
252.3452395771523
 20
158.6502607277916
 30
0.0
 11
-0.0000000000000001
 21
-5.92413480864247
 31
0.0
210
0.0
220
0.0
230
1.0
 40
0.7068296022928891
 41
4.659783202666879
 42
4.764994758102501
  0
LINE
  5
2A04
330
1F
100
AcDbEntity
  8
AM_VIS
100
AcDbLine
 10
248.163678364592
 20
158.9617607277916
 30
0.0
 11
247.7523046078271
 21
158.9617607277916
 31
0.0
  0
ARC
  5
2A05
330
1F
100
AcDbEntity
  8
AM_VIS
100
AcDbCircle
 10
254.2373593878577
 20
158.6502607277916
 30
0.0
 40
6.492531690334577
100
AcDbArc
 50
182.7500042419909
 51
200.6929831855788
  0
LINE
  5
2A06
330
1F
100
AcDbEntity
  8
AM_VIS
100
AcDbLine
 10
248.1636783645913
 20
160.9444635474247
 30
0.0
 11
248.1578857264294
 21
160.9502607277916
 31
0.0
  0
LINE
  5
2A07
330
1F
100
AcDbEntity
  8
AM_VIS
100
AcDbLine
 10
248.1578857264294
 20
156.3502607277916
 30
0.0
 11
248.1636783645913
 21
156.3560579081584
 31
0.0
  0
ARC
  5
2A08
330
1F
100
AcDbEntity
  8
AM_VIS
100
AcDbCircle
 10
254.2373593878577
 20
158.6502607277916
 30
0.0
 40
6.492531690334577
100
AcDbArc
 50
159.3070168144211
 51
177.249995758009
  0
ARC
  5
2A09
330
1F
100
AcDbEntity
  8
AM_VIS
100
AcDbCircle
 10
249.9178710641261
 20
156.3368172724318
 30
0.0
 40
1.6
100
AcDbArc
 50
208.1727341318615
 51
264.9999999999995
  0
ARC
  5
2A0A
330
1F
100
AcDbEntity
  8
AM_VIS
100
AcDbCircle
 10
249.9178710641261
 20
160.9637041831514
 30
0.0
 40
1.6
100
AcDbArc
 50
95.00000000000056
 51
151.8272658681352
  0
ARC
  5
2A0B
330
1F
100
AcDbEntity
  8
AM_VIS
100
AcDbCircle
 10
254.2373593878577
 20
158.6502607277916
 30
0.0
 40
6.5
100
AcDbArc
 50
200.7227443815881
 51
208.1727341318648
  0
ARC
  5
2A0C
330
1F
100
AcDbEntity
  8
AM_VIS
100
AcDbCircle
 10
254.2373593878577
 20
158.6502607277916
 30
0.0
 40
6.499999999999998
100
AcDbArc
 50
151.8272658681352
 51
159.2772556184086
  0
ELLIPSE
  5
2A0D
330
1F
100
AcDbEntity
  8
AM_VIS
100
AcDbEllipse
 10
251.2878639039668
 20
158.6502607277916
 30
0.0
 11
10.44041419392793
 21
0.0000000000000017
 31
0.0
210
0.0
220
0.0
230
1.0
 40
0.3639702342661906
 41
1.518140418533329
 42
1.613959790059086
  0
ELLIPSE
  5
2A0E
330
1F
100
AcDbEntity
  8
AM_VIS
100
AcDbEllipse
 10
252.3868548717487
 20
158.6502607277916
 30
0.0
 11
10.44041419392778
 21
0.0000000000000017
 31
0.0
210
0.0
220
0.0
230
1.0
 40
0.3639702342661959
 41
1.623452235056462
 42
1.719759855494736
  0
LINE
  5
2A0F
330
1F
100
AcDbEntity
  8
AM_VIS
100
AcDbLine
 10
250.8373593878577
 20
154.8502607277915
 30
0.0
 11
251.8373593878577
 21
154.8502607277915
 31
0.0
  0
LINE
  5
2A10
330
1F
100
AcDbEntity
  8
AM_VIS
100
AcDbLine
 10
250.8373593878577
 20
162.4502607277916
 30
0.0
 11
251.2878639039668
 21
162.4502607277916
 31
0.0
  0
ARC
  5
2A11
330
1F
100
AcDbEntity
  8
AM_VIS
100
AcDbCircle
 10
254.2373593878577
 20
140.1502607277916
 30
0.0
 40
6.492531690334672
100
AcDbArc
 50
170.3151479664695
 51
177.2499957579895
  0
ARC
  5
2A12
330
1F
100
AcDbEntity
  8
AM_VIS
100
AcDbCircle
 10
254.2373593878577
 20
140.1502607277916
 30
0.0
 40
6.492531690334672
100
AcDbArc
 50
182.7500042419746
 51
189.6848520335304
  0
LINE
  5
2A13
330
1F
100
AcDbEntity
  8
AM_VIS
100
AcDbLine
 10
247.8373593878577
 20
140.4617607277936
 30
0.0
 11
247.7523046078271
 21
140.4617607277936
 31
0.0
  0
LINE
  5
2A14
330
1F
100
AcDbEntity
  8
AM_VIS
100
AcDbLine
 10
247.7523046078268
 20
139.8387607277936
 30
0.0
 11
247.8373593878577
 21
139.8387607277936
 31
0.0
  0
LINE
  5
2A15
330
1F
100
AcDbEntity
  8
AM_VIS
100
AcDbLine
 10
251.8373593878578
 20
209.6999306851834
 30
0.0
 11
248.8373593878578
 21
209.6999306851834
 31
0.0
  0
LINE
  5
2A16
330
1F
100
AcDbEntity
  8
AM_VIS
100
AcDbLine
 10
251.8373593878578
 20
209.6999306851834
 30
0.0
 11
255.8373593878577
 21
209.6999306851834
 31
0.0
  0
LINE
  5
2A17
330
1F
100
AcDbEntity
  8
AM_VIS
100
AcDbLine
 10
251.8373593878578
 20
217.8999306851835
 30
0.0
 11
251.8373593878578
 21
210.6999306851835
 31
0.0
  0
LINE
  5
2A18
330
1F
100
AcDbEntity
  8
AM_VIS
100
AcDbLine
 10
248.8373593878578
 20
217.8999306851835
 30
0.0
 11
251.8373593878578
 21
217.8999306851835
 31
0.0
  0
LINE
  5
2A19
330
1F
100
AcDbEntity
  8
AM_VIS
100
AcDbLine
 10
255.8373593878577
 20
256.0999306851836
 30
0.0
 11
248.8373593878578
 21
256.0999306851836
 31
0.0
  0
LINE
  5
2A1A
330
1F
100
AcDbEntity
  8
AM_VIS
100
AcDbLine
 10
247.8373593878578
 20
213.8999306851835
 30
0.0
 11
247.8373593878578
 21
213.5884306851814
 31
0.0
  0
LINE
  5
2A1B
330
1F
100
AcDbEntity
  8
AM_VIS
100
AcDbLine
 10
247.8373593878578
 20
212.8077000547762
 30
0.0
 11
247.8373593878578
 21
210.6999306851835
 31
0.0
  0
ARC
  5
2A1C
330
1F
100
AcDbEntity
  8
AM_VIS
100
AcDbCircle
 10
248.8373593878578
 20
218.8999306851835
 30
0.0
 40
1.0
100
AcDbArc
 50
180.0
 51
270.0
  0
LINE
  5
2A1D
330
1F
100
AcDbEntity
  8
AM_VIS
100
AcDbLine
 10
247.8373593878578
 20
255.0999306851833
 30
0.0
 11
247.8373593878578
 21
218.8999306851833
 31
0.0
  0
ARC
  5
2A1E
102
{ACAD_REACTORS
330
30E1
330
3168
102
}
330
1F
100
AcDbEntity
  8
AM_VIS
100
AcDbCircle
 10
248.8373593878578
 20
210.6999306851835
 30
0.0
 40
1.000000000000002
100
AcDbArc
 50
180.0
 51
270.0
  0
LINE
  5
2A1F
330
1F
100
AcDbEntity
  8
AM_VIS
100
AcDbLine
 10
251.8373593878578
 20
209.6999306851834
 30
0.0
 11
251.8373593878578
 21
210.6999306851835
 31
0.0
  0
LINE
  5
2A21
330
1F
100
AcDbEntity
  8
AM_VIS
100
AcDbLine
 10
247.8373593878578
 20
218.8999306851835
 30
0.0
 11
247.8373593878578
 21
214.9921613155909
 31
0.0
  0
LINE
  5
2A22
330
1F
100
AcDbEntity
  8
AM_VIS
100
AcDbLine
 10
247.8373593878578
 20
214.2114306851815
 30
0.0
 11
247.8373593878578
 21
213.8999306851835
 31
0.0
  0
ARC
  5
2A23
102
{ACAD_REACTORS
330
30E1
102
}
330
1F
100
AcDbEntity
  8
AM_VIS
100
AcDbCircle
 10
248.8373593878578
 20
255.0999306851835
 30
0.0
 40
1.0
100
AcDbArc
 50
90.0
 51
180.0
  0
LINE
  5
2A24
330
1F
100
AcDbEntity
  8
AM_VIS
100
AcDbLine
 10
249.7784218757299
 20
209.9925757128769
 30
0.0
 11
250.8373593878578
 21
209.8999306851835
 31
0.0
  0
LINE
  5
2A25
330
1F
100
AcDbEntity
  8
AM_VIS
100
AcDbLine
 10
249.7784218757299
 20
217.8072856574901
 30
0.0
 11
250.8373593878578
 21
217.8999306851835
 31
0.0
  0
LINE
  5
2A26
330
1F
100
AcDbEntity
  8
AM_VIS
100
AcDbLine
 10
250.8373593878578
 20
217.8999306851835
 30
0.0
 11
250.8373593878578
 21
209.8999306851835
 31
0.0
  0
LINE
  5
2A27
330
1F
100
AcDbEntity
  8
AM_VIS
100
AcDbLine
 10
251.8079443878578
 20
214.0892245007425
 30
0.0
 11
251.8079443878578
 21
213.6892245007427
 31
0.0
  0
LINE
  5
2A28
330
1F
100
AcDbEntity
  8
AM_VIS
100
AcDbLine
 10
248.1578857264301
 20
211.5999306851815
 30
0.0
 11
248.163678364592
 21
211.6057278655484
 31
0.0
  0
ARC
  5
2A29
330
1F
100
AcDbEntity
  8
AM_VIS
100
AcDbCircle
 10
254.2373593878577
 20
213.8999306851835
 30
0.0
 40
6.492531690334672
100
AcDbArc
 50
182.7500042420105
 51
200.6929831855997
  0
ARC
  5
2A2A
330
1F
100
AcDbEntity
  8
AM_VIS
100
AcDbCircle
 10
254.2373593878577
 20
213.8999306851835
 30
0.0
 40
6.492531690334672
100
AcDbArc
 50
159.3070168144387
 51
177.2499957580253
  0
LINE
  5
2A2B
330
1F
100
AcDbEntity
  8
AM_VIS
100
AcDbLine
 10
248.1636783645905
 20
216.1941335048147
 30
0.0
 11
248.1578857264287
 21
216.1999306851814
 31
0.0
  0
ELLIPSE
  5
2A2C
330
1F
100
AcDbEntity
  8
AM_VIS
100
AcDbEllipse
 10
252.3452395771573
 20
213.8999306851835
 30
0.0
 11
0.0
 21
-5.924134808644348
 31
0.0
210
0.0
220
0.0
230
1.0
 40
0.7068296022936167
 41
4.659783202667242
 42
4.764994758102828
  0
LINE
  5
2A2D
330
1F
100
AcDbEntity
  8
AM_VIS
100
AcDbLine
 10
248.1636783645912
 20
214.2114306851815
 30
0.0
 11
247.7523046078269
 21
214.2114306851815
 31
0.0
  0
LINE
  5
2A2E
330
1F
100
AcDbEntity
  8
AM_VIS
100
AcDbLine
 10
247.7523046078271
 20
213.5884306851814
 30
0.0
 11
248.1636783645913
 21
213.5884306851814
 31
0.0
  0
ARC
  5
2A2F
330
1F
100
AcDbEntity
  8
AM_VIS
100
AcDbCircle
 10
249.9178710641262
 20
211.5864872298238
 30
0.0
 40
1.6
100
AcDbArc
 50
208.1727341318579
 51
264.9999999999987
  0
ARC
  5
2A30
330
1F
100
AcDbEntity
  8
AM_VIS
100
AcDbCircle
 10
249.9178710641262
 20
216.2133741405432
 30
0.0
 40
1.6
100
AcDbArc
 50
95.00000000000135
 51
151.8272658681315
  0
ARC
  5
2A31
330
1F
100
AcDbEntity
  8
AM_VIS
100
AcDbCircle
 10
254.2373593878577
 20
213.8999306851835
 30
0.0
 40
6.5
100
AcDbArc
 50
151.8272658681352
 51
159.2772556184295
  0
ARC
  5
2A32
330
1F
100
AcDbEntity
  8
AM_VIS
100
AcDbCircle
 10
254.2373593878577
 20
213.8999306851835
 30
0.0
 40
6.5
100
AcDbArc
 50
200.7227443816089
 51
208.1727341318648
  0
LINE
  5
2A33
330
1F
100
AcDbEntity
  8
AM_VIS
100
AcDbLine
 10
251.8373593878578
 20
214.0999306851835
 30
0.0
 11
250.8373593878578
 21
213.7359604509174
 31
0.0
  0
LINE
  5
2A34
330
1F
100
AcDbEntity
  8
AM_VIS
100
AcDbLine
 10
250.8373593878578
 20
213.3359604509173
 30
0.0
 11
251.8373593878578
 21
213.6999306851834
 31
0.0
  0
LINE
  5
2A35
330
1F
100
AcDbEntity
  8
AM_VIS
100
AcDbLine
 10
250.8373593878578
 20
210.0999306851835
 30
0.0
 11
251.8373593878578
 21
210.0999306851835
 31
0.0
  0
LINE
  5
2A36
330
1F
100
AcDbEntity
  8
AM_VIS
100
AcDbLine
 10
250.8373593878578
 20
217.6999306851834
 30
0.0
 11
251.8373593878578
 21
217.6999306851834
 31
0.0
  0
LINE
  5
2A37
330
1F
100
AcDbEntity
  8
AM_VIS
100
AcDbLine
 10
247.752304607827
 20
250.5884306851835
 30
0.0
 11
247.8373593878578
 21
250.5884306851835
 31
0.0
  0
LINE
  5
2A38
330
1F
100
AcDbEntity
  8
AM_VIS
100
AcDbLine
 10
247.8373593878578
 20
251.2114306851835
 30
0.0
 11
247.752304607827
 21
251.2114306851835
 31
0.0
  0
ARC
  5
2A39
330
1F
100
AcDbEntity
  8
AM_VIS
100
AcDbCircle
 10
254.2373593878577
 20
250.8999306851835
 30
0.0
 40
6.492531690334577
100
AcDbArc
 50
182.7500042419909
 51
189.6848520335271
  0
ARC
  5
2A3A
330
1F
100
AcDbEntity
  8
AM_VIS
100
AcDbCircle
 10
254.2373593878577
 20
250.8999306851835
 30
0.0
 40
6.492531690334577
100
AcDbArc
 50
170.3151479664729
 51
177.249995758009
  0
LINE
  5
2A3B
330
1F
100
AcDbEntity
  8
AM_VIS
100
AcDbLine
 10
255.8373593878577
 20
342.8118602143095
 30
0.0
 11
248.8373593878578
 21
342.8118602143095
 31
0.0
  0
LINE
  5
2A3C
330
1F
100
AcDbEntity
  8
AM_VIS
100
AcDbLine
 10
248.8373593878578
 20
312.8118602143095
 30
0.0
 11
255.8373593878577
 21
312.8118602143095
 31
0.0
  0
LINE
  5
2A3D
330
1F
100
AcDbEntity
  8
AM_VIS
100
AcDbLine
 10
251.8373593878578
 20
339.3118602143095
 30
0.0
 11
251.8373593878578
 21
331.3118602143095
 31
0.0
  0
LINE
  5
2A3E
330
1F
100
AcDbEntity
  8
AM_VIS
100
AcDbLine
 10
251.8373593878578
 20
331.3118602143095
 30
0.0
 11
248.8373593878578
 21
331.3118602143095
 31
0.0
  0
LINE
  5
2A3F
330
1F
100
AcDbEntity
  8
AM_VIS
100
AcDbLine
 10
248.8373593878578
 20
339.3118602143095
 30
0.0
 11
251.8373593878578
 21
339.3118602143095
 31
0.0
  0
LINE
  5
2A40
330
1F
100
AcDbEntity
  8
AM_VIS
100
AcDbLine
 10
247.8373593878578
 20
330.3118602143095
 30
0.0
 11
247.8373593878578
 21
313.8118602143095
 31
0.0
  0
ARC
  5
2A41
330
1F
100
AcDbEntity
  8
AM_VIS
100
AcDbCircle
 10
248.8373593878578
 20
330.3118602143095
 30
0.0
 40
0.9999999999999998
100
AcDbArc
 50
90.0
 51
180.0
  0
ARC
  5
2A42
330
1F
100
AcDbEntity
  8
AM_VIS
100
AcDbCircle
 10
248.8373593878578
 20
340.3118602143095
 30
0.0
 40
1.000000000000003
100
AcDbArc
 50
180.0
 51
270.0
  0
LINE
  5
2A43
330
1F
100
AcDbEntity
  8
AM_VIS
100
AcDbLine
 10
247.8373593878578
 20
341.8118602143095
 30
0.0
 11
247.8373593878578
 21
340.3118602143095
 31
0.0
  0
ARC
  5
2A45
330
1F
100
AcDbEntity
  8
AM_VIS
100
AcDbCircle
 10
248.8373593878578
 20
313.8118602143095
 30
0.0
 40
1.0
100
AcDbArc
 50
180.0
 51
270.0
  0
LINE
  5
2A46
330
1F
100
AcDbEntity
  8
AM_VIS
100
AcDbLine
 10
247.8373593878578
 20
340.3118602143095
 30
0.0
 11
247.8373593878578
 21
336.404090844717
 31
0.0
  0
LINE
  5
2A47
330
1F
100
AcDbEntity
  8
AM_VIS
100
AcDbLine
 10
247.8373593878578
 20
335.6233602143074
 30
0.0
 11
247.8373593878578
 21
335.0003602143075
 31
0.0
  0
LINE
  5
2A48
330
1F
100
AcDbEntity
  8
AM_VIS
100
AcDbLine
 10
247.8373593878578
 20
334.219629583902
 30
0.0
 11
247.8373593878578
 21
330.3118602143095
 31
0.0
  0
ARC
  5
2A49
102
{ACAD_REACTORS
330
310B
330
3135
102
}
330
1F
100
AcDbEntity
  8
AM_VIS
100
AcDbCircle
 10
248.8373593878578
 20
341.8118602143095
 30
0.0
 40
1.0
100
AcDbArc
 50
90.0
 51
180.0
  0
LINE
  5
2A4A
330
1F
100
AcDbEntity
  8
AM_VIS
100
AcDbLine
 10
247.7523046078269
 20
316.5003602143095
 30
0.0
 11
247.8373593878578
 21
316.5003602143095
 31
0.0
  0
LINE
  5
2A4B
330
1F
100
AcDbEntity
  8
AM_VIS
100
AcDbLine
 10
247.8373593878578
 20
317.1233602143095
 30
0.0
 11
247.7523046078269
 21
317.1233602143095
 31
0.0
  0
ARC
  5
2A4C
330
1F
100
AcDbEntity
  8
AM_VIS
100
AcDbCircle
 10
254.2373593878577
 20
316.8118602143095
 30
0.0
 40
6.492531690334768
100
AcDbArc
 50
170.315147966463
 51
177.249995758009
  0
ARC
  5
2A4D
330
1F
100
AcDbEntity
  8
AM_VIS
100
AcDbCircle
 10
254.2373593878577
 20
316.8118602143095
 30
0.0
 40
6.492531690334768
100
AcDbArc
 50
182.7500042419909
 51
189.684852033537
  0
LINE
  5
2A4E
330
1F
100
AcDbEntity
  8
AM_VIS
100
AcDbLine
 10
249.7784218757299
 20
331.4045052420031
 30
0.0
 11
250.8373593878578
 21
331.3118602143095
 31
0.0
  0
LINE
  5
2A4F
330
1F
100
AcDbEntity
  8
AM_VIS
100
AcDbLine
 10
249.7784218757299
 20
339.2192151866161
 30
0.0
 11
250.8373593878578
 21
339.3118602143095
 31
0.0
  0
LINE
  5
2A50
330
1F
100
AcDbEntity
  8
AM_VIS
100
AcDbLine
 10
250.8373593878578
 20
339.3118602143095
 30
0.0
 11
250.8373593878578
 21
331.3118602143095
 31
0.0
  0
LINE
  5
2A51
330
1F
100
AcDbEntity
  8
AM_VIS
100
AcDbLine
 10
248.1578857264301
 20
333.0118602143075
 30
0.0
 11
248.163678364592
 21
333.0176573946744
 31
0.0
  0
ARC
  5
2A52
330
1F
100
AcDbEntity
  8
AM_VIS
100
AcDbCircle
 10
254.2373593878577
 20
335.3118602143095
 30
0.0
 40
6.492531690334672
100
AcDbArc
 50
182.7500042420105
 51
200.6929831855994
  0
ARC
  5
2A53
330
1F
100
AcDbEntity
  8
AM_VIS
100
AcDbCircle
 10
254.2373593878577
 20
335.3118602143095
 30
0.0
 40
6.492531690334672
100
AcDbArc
 50
159.3070168144387
 51
177.2499957580253
  0
LINE
  5
2A54
330
1F
100
AcDbEntity
  8
AM_VIS
100
AcDbLine
 10
248.1636783645905
 20
337.6060630339407
 30
0.0
 11
248.1578857264287
 21
337.6118602143076
 31
0.0
  0
ELLIPSE
  5
2A55
330
1F
100
AcDbEntity
  8
AM_VIS
100
AcDbEllipse
 10
252.3452395771573
 20
335.3118602143095
 30
0.0
 11
0.0000000000000001
 21
-5.924134808644348
 31
0.0
210
0.0
220
0.0
230
1.0
 40
0.7068296022936165
 41
4.659783202667242
 42
4.764994758102819
  0
LINE
  5
2A56
330
1F
100
AcDbEntity
  8
AM_VIS
100
AcDbLine
 10
248.1636783645912
 20
335.6233602143074
 30
0.0
 11
247.7523046078269
 21
335.6233602143074
 31
0.0
  0
LINE
  5
2A57
330
1F
100
AcDbEntity
  8
AM_VIS
100
AcDbLine
 10
247.7523046078271
 20
335.0003602143075
 30
0.0
 11
248.1636783645913
 21
335.0003602143075
 31
0.0
  0
ARC
  5
2A58
330
1F
100
AcDbEntity
  8
AM_VIS
100
AcDbCircle
 10
249.9178710641262
 20
332.9984167589498
 30
0.0
 40
1.6
100
AcDbArc
 50
208.1727341318615
 51
264.9999999999995
  0
ARC
  5
2A59
330
1F
100
AcDbEntity
  8
AM_VIS
100
AcDbCircle
 10
249.9178710641262
 20
337.6253036696694
 30
0.0
 40
1.6
100
AcDbArc
 50
95.00000000000056
 51
151.8272658681352
  0
ARC
  5
2A5A
330
1F
100
AcDbEntity
  8
AM_VIS
100
AcDbCircle
 10
254.2373593878577
 20
335.3118602143095
 30
0.0
 40
6.5
100
AcDbArc
 50
151.8272658681352
 51
159.2772556184291
  0
ARC
  5
2A5B
330
1F
100
AcDbEntity
  8
AM_VIS
100
AcDbCircle
 10
254.2373593878577
 20
335.3118602143095
 30
0.0
 40
6.5
100
AcDbArc
 50
200.7227443816089
 51
208.1727341318648
  0
ELLIPSE
  5
2A5C
330
1F
100
AcDbEntity
  8
AM_VIS
100
AcDbEllipse
 10
251.3868548717487
 20
335.3118602143095
 30
0.0
 11
-10.4174221906243
 21
-2.740685054543193
 31
-0.0000000000000002
210
0.0
220
0.0
230
1.0
 40
0.2526759477079673
 41
1.451762401667877
 42
1.547581773193633
  0
ELLIPSE
  5
2A5D
330
1F
100
AcDbEntity
  8
AM_VIS
100
AcDbEllipse
 10
250.2878639039668
 20
335.3118602143095
 30
0.0
 11
-10.41742219062415
 21
-2.740685054543197
 31
-0.0000000000000002
210
0.0
220
0.0
230
1.0
 40
0.2526759477079705
 41
1.557074218191005
 42
1.653381838629278
  0
LINE
  5
2A5E
330
1F
100
AcDbEntity
  8
AM_VIS
100
AcDbLine
 10
251.8373593878578
 20
339.1118602143097
 30
0.0
 11
250.8373593878578
 21
339.1118602143097
 31
0.0
  0
LINE
  5
2A5F
330
1F
100
AcDbEntity
  8
AM_VIS
100
AcDbLine
 10
251.8373593878578
 20
331.5118602143095
 30
0.0
 11
250.8373593878578
 21
331.5118602143095
 31
0.0
  0
DIMENSION
  5
30D3
102
{ACAD_XDICTIONARY
360
30E0
102
}
102
{ACAD_REACTORS
330
30E1
102
}
330
1F
100
AcDbEntity
  8
AM_5
100
AcDbDimension
  2
*D16
 10
225.8373593878577
 20
256.0999306851836
 30
0.0
 11
223.3873593878577
 21
232.8999306851835
 31
0.0
 70
    32
 71
     5
 42
46.40000000000009
  3
AM_ISO$0
100
AcDbAlignedDimension
 13
248.8373593878578
 23
209.6999306851834
 33
0.0
 14
248.8373593878578
 24
256.0999306851836
 34
0.0
 50
90.00000000000003
100
AcDbRotatedDimension
1001
ACAD
1000
DSTYLE
1002
{
1070
    40
1040
1.0
1070
   144
1040
1.0
1070
   272
1070
     8
1002
}
  0
DIMENSION
  5
30FD
102
{ACAD_XDICTIONARY
360
310A
102
}
102
{ACAD_REACTORS
330
310B
102
}
330
1F
100
AcDbEntity
  8
AM_5
100
AcDbDimension
  2
*D17
 10
404.337359387858
 20
364.8118602143093
 30
0.0
 11
326.0873593878579
 21
367.2618602143093
 31
0.0
 70
    32
 71
     5
 42
156.5000000000003
  3
AM_ISO$0
100
AcDbAlignedDimension
 13
247.8373593878578
 23
341.8118602143095
 33
0.0
 14
404.337359387858
 24
337.0494645213428
 34
0.0
100
AcDbRotatedDimension
1001
ACAD
1000
DSTYLE
1002
{
1070
    40
1040
1.0
1070
   144
1040
1.0
1070
   272
1070
     8
1002
}
  0
DIMENSION
  5
3127
102
{ACAD_XDICTIONARY
360
3134
102
}
102
{ACAD_REACTORS
330
3135
102
}
330
1F
100
AcDbEntity
  8
AM_5
100
AcDbDimension
  2
*D18
 10
262.8373593878579
 20
354.8118602143095
 30
0.0
 11
255.3373593878578
 21
357.2618602143095
 31
0.0
 70
    32
 71
     5
 42
15.00000000000017
  3
AM_ISO$0
100
AcDbAlignedDimension
 13
247.8373593878578
 23
341.8118602143095
 33
0.0
 14
262.8373593878579
 24
343.9118602143095
 34
0.0
100
AcDbRotatedDimension
1001
ACAD
1000
DSTYLE
1002
{
1070
    40
1040
1.0
1070
   144
1040
1.0
1070
   272
1070
     8
1002
}
  0
DIMENSION
  5
315A
102
{ACAD_XDICTIONARY
360
3167
102
}
102
{ACAD_REACTORS
330
3168
102
}
330
1F
100
AcDbEntity
  8
AM_5
100
AcDbDimension
  2
*D19
 10
279.837359387858
 20
197.6999306851833
 30
0.0
 11
263.8373593878579
 21
200.1502751733724
 31
0.0
 70
    32
 71
     5
 42
32.00000000000023
  3
AM_ISO$0
100
AcDbAlignedDimension
 13
247.8373593878578
 23
210.6999306851835
 33
0.0
 14
279.837359387858
 24
210.1499306851835
 34
0.0
 50
0.0000000000001132
100
AcDbRotatedDimension
1001
ACAD
1000
DSTYLE
1002
{
1070
    40
1040
1.0
1070
   144
1040
1.0
1070
   272
1070
     8
1002
}
  0
CIRCLE
  5
3177
330
1F
100
AcDbEntity
  8
0
100
AcDbCircle
 10
481.1966259004103
 20
213.8999306851833
 30
0.0
 40
3.750000000000113
  0
DIMENSION
  5
3187
102
{ACAD_XDICTIONARY
360
3194
102
}
102
{ACAD_REACTORS
330
3195
102
}
330
1F
100
AcDbEntity
  8
AM_5
100
AcDbDimension
  2
*D20
 10
235.8373593878578
 20
251.3999306851835
 30
0.0
 11
233.3873593878577
 21
232.8999306851835
 31
0.0
 70
    32
 71
     5
 42
37.0
  3
AM_ISO$0
100
AcDbAlignedDimension
 13
275.587359387858
 23
214.3999306851835
 33
0.0
 14
288.587359387858
 24
251.3999306851835
 34
0.0
 50
90.00000000000003
100
AcDbRotatedDimension
1001
ACAD
1000
DSTYLE
1002
{
1070
    40
1040
1.0
1070
   144
1040
1.0
1070
   272
1070
     8
1002
}
  0
ENDSEC
  0
SECTION
  2
OBJECTS
  0
DICTIONARY
  5
C
330
0
100
AcDbDictionary
281
     1
  3
ACAD_COLOR
350
BE
  3
ACAD_GROUP
350
D
  3
ACAD_LAYOUT
350
1A
  3
ACAD_MATERIAL
350
BD
  3
ACAD_MLINESTYLE
350
17
  3
ACAD_PLOTSETTINGS
350
19
  3
ACAD_PLOTSTYLENAME
350
E
  3
ACAD_TABLESTYLE
350
11A
  3
ACDBHEADERROUNDTRIPXREC
350
324A
  3
AcDbVariableDictionary
350
94
  3
AcmDictionary
350
5B
  3
AMG
350
41
  3
AMGSNAPSETTINGS
350
1B8
  3
DWGPROPS
350
3249
  0
DICTIONARY
  5
3F9
330
2
100
AcDbDictionary
280
     1
281
     1
  3
ACAD_LAYERFILTERS
360
5B7
  3
ACAD_LAYERSTATES
360
A83
  3
ACLYDICTIONARY
360
5B6
  3
AMLAYER_GROUPCOLORS
360
177F
  0
DICTIONARY
  5
8F
330
1F
100
AcDbDictionary
280
     1
281
     1
  3
ACAD_SORTENTS
360
15A3
  0
DICTIONARY
  5
203C
330
202F
100
AcDbDictionary
280
     1
281
     1
  3
ACAD_DIMASSOC
360
203D
  0
DICTIONARY
  5
2062
330
2055
100
AcDbDictionary
280
     1
281
     1
  3
ACAD_DIMASSOC
360
2063
  0
DICTIONARY
  5
2088
330
207B
100
AcDbDictionary
280
     1
281
     1
  3
ACAD_DIMASSOC
360
2089
  0
DICTIONARY
  5
20AE
330
20A1
100
AcDbDictionary
280
     1
281
     1
  3
ACAD_DIMASSOC
360
20AF
  0
DICTIONARY
  5
20D4
330
20C7
100
AcDbDictionary
280
     1
281
     1
  3
ACAD_DIMASSOC
360
20D5
  0
DICTIONARY
  5
2260
330
2254
100
AcDbDictionary
280
     1
281
     1
  3
ACAD_DIMASSOC
360
2261
  0
DICTIONARY
  5
228D
330
2284
100
AcDbDictionary
280
     1
281
     1
  3
ACAD_DIMASSOC
360
228E
  0
DICTIONARY
  5
22CD
330
22C0
100
AcDbDictionary
280
     1
281
     1
  3
ACAD_DIMASSOC
360
22CE
  0
DICTIONARY
  5
2346
330
2339
100
AcDbDictionary
280
     1
281
     1
  3
ACAD_DIMASSOC
360
2347
  0
DICTIONARY
  5
30E0
330
30D3
100
AcDbDictionary
280
     1
281
     1
  3
ACAD_DIMASSOC
360
30E1
  0
DICTIONARY
  5
310A
330
30FD
100
AcDbDictionary
280
     1
281
     1
  3
ACAD_DIMASSOC
360
310B
  0
DICTIONARY
  5
3134
330
3127
100
AcDbDictionary
280
     1
281
     1
  3
ACAD_DIMASSOC
360
3135
  0
DICTIONARY
  5
3167
330
315A
100
AcDbDictionary
280
     1
281
     1
  3
ACAD_DIMASSOC
360
3168
  0
DICTIONARY
  5
3194
330
3187
100
AcDbDictionary
280
     1
281
     1
  3
ACAD_DIMASSOC
360
3195
  0
DICTIONARY
  5
BE
102
{ACAD_REACTORS
330
C
102
}
330
C
100
AcDbDictionary
281
     1
  0
DICTIONARY
  5
D
102
{ACAD_REACTORS
330
C
102
}
330
C
100
AcDbDictionary
281
     1
  0
DICTIONARY
  5
1A
102
{ACAD_REACTORS
330
C
102
}
330
C
100
AcDbDictionary
281
     1
  3
Model
350
22
  3
配置1
350
1E
  3
配置2
350
26
  0
DICTIONARY
  5
BD
102
{ACAD_REACTORS
330
C
102
}
330
C
100
AcDbDictionary
281
     1
  0
DICTIONARY
  5
17
102
{ACAD_REACTORS
330
C
102
}
330
C
100
AcDbDictionary
281
     1
  3
Standard
350
18
  0
DICTIONARY
  5
19
102
{ACAD_REACTORS
330
C
102
}
330
C
100
AcDbDictionary
281
     1
  0
ACDBDICTIONARYWDFLT
  5
E
102
{ACAD_REACTORS
330
C
102
}
330
C
100
AcDbDictionary
281
     1
  3
Normal
350
F
100
AcDbDictionaryWithDefault
340
F
  0
DICTIONARY
  5
11A
102
{ACAD_REACTORS
330
C
102
}
330
C
100
AcDbDictionary
281
     1
  3
Standard
350
11B
  0
DICTIONARY
  5
324A
102
{ACAD_REACTORS
330
C
102
}
330
C
100
AcDbDictionary
281
     1
  0
DICTIONARY
  5
94
102
{ACAD_REACTORS
330
C
102
}
330
C
100
AcDbDictionary
281
     1
  3
CTABLESTYLE
350
138
  3
DIMASSOC
350
96
  3
INDEXCTL
350
95
  3
PROJECTNAME
350
25A7
  0
DICTIONARY
  5
5B
102
{ACAD_REACTORS
330
C
102
}
330
C
100
AcDbDictionary
281
     1
  3
AcmBOM
350
1B5
  3
AcmStdDictionary
350
61
  3
AMDTSECTSYM_ARROWCOLOR
350
123
  0
DICTIONARY
  5
41
102
{ACAD_REACTORS
330
C
102
}
330
C
100
AcDbDictionary
281
     1
  0
DICTIONARY
  5
1B8
102
{ACAD_REACTORS
330
C
102
}
330
C
100
AcDbDictionary
281
     1
  0
XRECORD
  5
3249
102
{ACAD_REACTORS
330
C
102
}
330
C
100
AcDbXrecord
280
     1
  1
DWGPROPS COOKIE
  2

  3

  4

  6

  7

  8

  9

300
AmdtFileType=84
301
=
302
=
303
=
304
=
305
=
306
=
307
=
308
=
309
=
 40
0.1726928009259259
 41
2454063.432591504
 42
2454421.44078522
  1

 90
        1
  0
DICTIONARY
  5
5B7
102
{ACAD_REACTORS
330
3F9
102
}
330
3F9
100
AcDbDictionary
281
     1
  0
DICTIONARY
  5
A83
102
{ACAD_REACTORS
330
3F9
102
}
330
3F9
100
AcDbDictionary
281
     1
  0
DICTIONARY
  5
5B6
102
{ACAD_REACTORS
330
3F9
102
}
330
3F9
100
AcDbDictionary
281
     1
1001
ACAD
1000
<All
  0
DICTIONARY
  5
177F
102
{ACAD_REACTORS
330
3F9
102
}
330
3F9
100
AcDbDictionary
280
     1
281
     1
  0
SORTENTSTABLE
  5
15A3
102
{ACAD_REACTORS
330
8F
102
}
330
8F
100
AcDbSortentsTable
330
1F
331
170F
  5
170F
331
172E
  5
172E
331
16BA
  5
16BA
331
1546
  5
1546
331
16F0
  5
16F0
331
151F
  5
151F
331
14A2
  5
14A2
331
14C1
  5
14C1
331
14F0
  5
14F0
331
1443
  5
1443
331
12DB
  5
12DB
331
1362
  5
1362
331
1398
  5
1398
331
13B7
  5
13B7
331
125E
  5
125E
331
123F
  5
123F
331
13FD
  5
13FD
331
141C
  5
141C
331
1710
  5
1710
331
172F
  5
172F
331
16BB
  5
16BB
331
1547
  5
1547
331
16F1
  5
16F1
331
14A3
  5
14A3
331
14C2
  5
14C2
331
1520
  5
1520
331
1444
  5
1444
331
13D7
  5
13D7
331
13B8
  5
13B8
331
12DC
  5
12DC
331
1363
  5
1363
331
1399
  5
1399
331
125F
  5
125F
331
141D
  5
141D
331
1711
  5
1711
331
1730
  5
1730
331
16BC
  5
16BC
331
1548
  5
1548
331
16F2
  5
16F2
331
14A4
  5
14A4
331
1521
  5
1521
331
1445
  5
1445
331
13D8
  5
13D8
331
1364
  5
1364
331
139A
  5
139A
331
13B9
  5
13B9
331
141E
  5
141E
331
12DD
  5
12DD
331
1712
  5
1712
331
1731
  5
1731
331
16DC
  5
16DC
331
1549
  5
1549
331
16F3
  5
16F3
331
14A5
  5
14A5
331
1522
  5
1522
331
1446
  5
1446
331
13D9
  5
13D9
331
13BA
  5
13BA
331
1365
  5
1365
331
139B
  5
139B
331
141F
  5
141F
331
12DE
  5
12DE
331
1713
  5
1713
331
1732
  5
1732
331
16DD
  5
16DD
331
154A
  5
154A
331
16F4
  5
16F4
331
14A6
  5
14A6
331
14C5
  5
14C5
331
1523
  5
1523
331
1447
  5
1447
331
13DA
  5
13DA
331
13BB
  5
13BB
331
139C
  5
139C
331
1366
  5
1366
331
1420
  5
1420
331
12DF
  5
12DF
331
1714
  5
1714
331
1733
  5
1733
331
16DE
  5
16DE
331
16F5
  5
16F5
331
14A7
  5
14A7
331
14C6
  5
14C6
331
1524
  5
1524
331
1448
  5
1448
331
13DB
  5
13DB
331
139D
  5
139D
331
1367
  5
1367
331
1421
  5
1421
331
1715
  5
1715
331
1734
  5
1734
331
16F6
  5
16F6
331
14A8
  5
14A8
331
1525
  5
1525
331
13DC
  5
13DC
331
13BD
  5
13BD
331
139E
  5
139E
331
1449
  5
1449
331
16C0
  5
16C0
331
1716
  5
1716
331
1735
  5
1735
331
16F7
  5
16F7
331
14A9
  5
14A9
331
13DD
  5
13DD
331
139F
  5
139F
331
13BE
  5
13BE
331
144A
  5
144A
331
1717
  5
1717
331
1736
  5
1736
331
16F8
  5
16F8
331
1527
  5
1527
331
15B4
  5
15B4
331
14AA
  5
14AA
331
1500
  5
1500
331
13DE
  5
13DE
331
13BF
  5
13BF
331
144B
  5
144B
331
16A3
  5
16A3
331
1737
  5
1737
331
16F9
  5
16F9
331
1528
  5
1528
331
15B5
  5
15B5
331
14AB
  5
14AB
331
1501
  5
1501
331
13DF
  5
13DF
331
144C
  5
144C
331
16A4
  5
16A4
331
16E2
  5
16E2
331
1718
  5
1718
331
16FA
  5
16FA
331
1529
  5
1529
331
14AC
  5
14AC
331
15B6
  5
15B6
331
144D
  5
144D
331
16A5
  5
16A5
331
16C4
  5
16C4
331
16E3
  5
16E3
331
1719
  5
1719
331
1738
  5
1738
331
16FB
  5
16FB
331
14AD
  5
14AD
331
15B7
  5
15B7
331
144E
  5
144E
331
16A6
  5
16A6
331
16C5
  5
16C5
331
16E4
  5
16E4
331
171A
  5
171A
331
1739
  5
1739
331
16FC
  5
16FC
331
16A7
  5
16A7
331
16E5
  5
16E5
331
171B
  5
171B
331
173A
  5
173A
331
14AE
  5
14AE
331
144F
  5
144F
331
1552
  5
1552
331
15B8
  5
15B8
331
16FD
  5
16FD
331
16A8
  5
16A8
331
16E6
  5
16E6
331
171C
  5
171C
331
173B
  5
173B
331
14AF
  5
14AF
331
1553
  5
1553
331
15B9
  5
15B9
331
16FE
  5
16FE
331
16A9
  5
16A9
331
16E7
  5
16E7
331
171D
  5
171D
331
173C
  5
173C
331
15BA
  5
15BA
331
16AA
  5
16AA
331
16C9
  5
16C9
331
16FF
  5
16FF
331
171E
  5
171E
331
173D
  5
173D
331
15BB
  5
15BB
331
16AB
  5
16AB
331
16CA
  5
16CA
331
1700
  5
1700
331
171F
  5
171F
331
173E
  5
173E
331
15BC
  5
15BC
331
16AC
  5
16AC
331
16CB
  5
16CB
331
1701
  5
1701
331
1720
  5
1720
331
173F
  5
173F
331
15BD
  5
15BD
331
16AD
  5
16AD
331
16CC
  5
16CC
331
1702
  5
1702
331
1721
  5
1721
331
1740
  5
1740
331
15BE
  5
15BE
331
16AE
  5
16AE
331
16CD
  5
16CD
331
1703
  5
1703
331
1722
  5
1722
331
1741
  5
1741
331
15BF
  5
15BF
331
16AF
  5
16AF
331
16CE
  5
16CE
331
1704
  5
1704
331
1723
  5
1723
331
1742
  5
1742
331
16CF
  5
16CF
331
1705
  5
1705
331
1724
  5
1724
331
1743
  5
1743
331
1706
  5
1706
331
1725
  5
1725
331
1744
  5
1744
331
1707
  5
1707
331
1726
  5
1726
331
1745
  5
1745
331
1727
  5
1727
331
1746
  5
1746
331
10A0
  5
10A0
331
1747
  5
1747
331
10A1
  5
10A1
331
1140
  5
1140
331
10A2
  5
10A2
331
1141
  5
1141
331
1158
  5
1158
331
10A3
  5
10A3
331
1142
  5
1142
331
1159
  5
1159
331
10A4
  5
10A4
331
11B8
  5
11B8
331
1143
  5
1143
331
115A
  5
115A
331
10A5
  5
10A5
331
11D8
  5
11D8
331
11B9
  5
11B9
331
1144
  5
1144
331
115B
  5
115B
331
10A6
  5
10A6
331
11BA
  5
11BA
331
11D9
  5
11D9
331
1145
  5
1145
331
1126
  5
1126
331
115C
  5
115C
331
10A7
  5
10A7
331
11DA
  5
11DA
331
11BB
  5
11BB
331
1127
  5
1127
331
1146
  5
1146
331
115D
  5
115D
331
10A8
  5
10A8
331
1220
  5
1220
331
1240
  5
1240
331
11BC
  5
11BC
331
1195
  5
1195
331
11DB
  5
11DB
331
1147
  5
1147
331
1128
  5
1128
331
115E
  5
115E
331
10A9
  5
10A9
331
1221
  5
1221
331
1260
  5
1260
331
1241
  5
1241
331
11DC
  5
11DC
331
11BD
  5
11BD
331
1196
  5
1196
331
1129
  5
1129
331
1148
  5
1148
331
115F
  5
115F
331
10AA
  5
10AA
331
1222
  5
1222
331
1261
  5
1261
331
1242
  5
1242
331
11BE
  5
11BE
331
1197
  5
1197
331
1149
  5
1149
331
112A
  5
112A
331
1160
  5
1160
331
10AB
  5
10AB
331
1223
  5
1223
331
1288
  5
1288
331
1262
  5
1262
331
1243
  5
1243
331
11BF
  5
11BF
331
1198
  5
1198
331
112B
  5
112B
331
114A
  5
114A
331
1161
  5
1161
331
10AC
  5
10AC
331
1224
  5
1224
331
1289
  5
1289
331
12B9
  5
12B9
331
12E0
  5
12E0
331
1263
  5
1263
331
11C0
  5
11C0
331
1199
  5
1199
331
114B
  5
114B
331
112C
  5
112C
331
1162
  5
1162
331
10AD
  5
10AD
331
1225
  5
1225
331
1244
  5
1244
331
128A
  5
128A
331
1368
  5
1368
331
12BA
  5
12BA
331
12E1
  5
12E1
331
1264
  5
1264
331
1245
  5
1245
331
11FF
  5
11FF
331
11C1
  5
11C1
331
119A
  5
119A
331
112D
  5
112D
331
114C
  5
114C
331
10AE
  5
10AE
331
1226
  5
1226
331
128B
  5
128B
331
1380
  5
1380
331
1369
  5
1369
331
12BB
  5
12BB
331
12E2
  5
12E2
331
11C2
  5
11C2
331
114D
  5
114D
331
112E
  5
112E
331
10AF
  5
10AF
331
1208
  5
1208
331
1227
  5
1227
331
1246
  5
1246
331
128C
  5
128C
331
13A0
  5
13A0
331
1381
  5
1381
331
136A
  5
136A
331
12BC
  5
12BC
331
12E3
  5
12E3
331
112F
  5
112F
331
114E
  5
114E
331
11C3
  5
11C3
331
10B0
  5
10B0
331
1209
  5
1209
331
1228
  5
1228
331
1247
  5
1247
331
128D
  5
128D
331
13A1
  5
13A1
331
1382
  5
1382
331
136B
  5
136B
331
13C0
  5
13C0
331
12BD
  5
12BD
331
12E4
  5
12E4
331
120A
  5
120A
331
1229
  5
1229
331
1248
  5
1248
331
128E
  5
128E
331
114F
  5
114F
331
1130
  5
1130
331
11C4
  5
11C4
331
10B1
  5
10B1
331
11EB
  5
11EB
331
13A2
  5
13A2
331
1383
  5
1383
331
136C
  5
136C
331
13C1
  5
13C1
331
13E0
  5
13E0
331
12E5
  5
12E5
331
1249
  5
1249
331
120B
  5
120B
331
122A
  5
122A
331
1131
  5
1131
331
1150
  5
1150
331
11C5
  5
11C5
331
10B2
  5
10B2
331
11EC
  5
11EC
331
128F
  5
128F
331
12BE
  5
12BE
331
13E1
  5
13E1
331
13A3
  5
13A3
331
1384
  5
1384
331
136D
  5
136D
331
13C2
  5
13C2
331
12E6
  5
12E6
331
1290
  5
1290
331
120C
  5
120C
331
122B
  5
122B
331
124A
  5
124A
331
11ED
  5
11ED
331
12BF
  5
12BF
331
1168
  5
1168
331
10B3
  5
10B3
331
1132
  5
1132
331
1151
  5
1151
331
11C6
  5
11C6
331
13A4
  5
13A4
331
1385
  5
1385
331
136E
  5
136E
331
13C3
  5
13C3
331
13E2
  5
13E2
331
12E7
  5
12E7
331
1291
  5
1291
331
124B
  5
124B
331
120D
  5
120D
331
122C
  5
122C
331
127A
  5
127A
331
11EE
  5
11EE
331
12C0
  5
12C0
331
1169
  5
1169
331
10B4
  5
10B4
331
1133
  5
1133
331
1152
  5
1152
331
11C7
  5
11C7
331
13E3
  5
13E3
331
13A5
  5
13A5
331
1386
  5
1386
331
136F
  5
136F
331
13C4
  5
13C4
331
1450
  5
1450
331
12E8
  5
12E8
331
1292
  5
1292
331
120E
  5
120E
331
122D
  5
122D
331
124C
  5
124C
331
127B
  5
127B
331
11EF
  5
11EF
331
12C1
  5
12C1
331
116A
  5
116A
331
10B5
  5
10B5
331
1134
  5
1134
331
1153
  5
1153
331
11C8
  5
11C8
331
1451
  5
1451
331
14B0
  5
14B0
331
13A6
  5
13A6
331
1387
  5
1387
331
12E9
  5
12E9
331
1293
  5
1293
331
124D
  5
124D
331
120F
  5
120F
331
122E
  5
122E
331
127C
  5
127C
331
11F0
  5
11F0
331
12C2
  5
12C2
331
116B
  5
116B
331
1097
  5
1097
331
10B6
  5
10B6
331
1135
  5
1135
331
1154
  5
1154
331
11C9
  5
11C9
331
1370
  5
1370
331
13C5
  5
13C5
331
13E4
  5
13E4
331
14C8
  5
14C8
331
1452
  5
1452
331
14B1
  5
14B1
331
13A7
  5
13A7
331
1388
  5
1388
331
12EA
  5
12EA
331
1294
  5
1294
331
1210
  5
1210
331
122F
  5
122F
331
124E
  5
124E
331
11F1
  5
11F1
331
12C3
  5
12C3
331
116C
  5
116C
331
10B7
  5
10B7
331
1098
  5
1098
331
1136
  5
1136
331
1155
  5
1155
331
11CA
  5
11CA
331
1371
  5
1371
331
13C6
  5
13C6
331
14C9
  5
14C9
331
1453
  5
1453
331
14B2
  5
14B2
331
13C7
  5
13C7
331
13A8
  5
13A8
331
1389
  5
1389
331
12EB
  5
12EB
331
1295
  5
1295
331
124F
  5
124F
331
1211
  5
1211
331
1230
  5
1230
331
11F2
  5
11F2
331
12C4
  5
12C4
331
116D
  5
116D
331
11CB
  5
11CB
331
1099
  5
1099
331
10B8
  5
10B8
331
1137
  5
1137
331
1156
  5
1156
331
1372
  5
1372
331
14CA
  5
14CA
331
1454
  5
1454
331
140E
  5
140E
331
14B3
  5
14B3
331
13E7
  5
13E7
331
13C8
  5
13C8
331
13A9
  5
13A9
331
138A
  5
138A
331
1296
  5
1296
331
1212
  5
1212
331
1231
  5
1231
331
1250
  5
1250
331
11F3
  5
11F3
331
12EC
  5
12EC
331
11AD
  5
11AD
331
10B9
  5
10B9
331
109A
  5
109A
331
1138
  5
1138
331
1157
  5
1157
331
11CC
  5
11CC
331
1373
  5
1373
331
14CB
  5
14CB
331
1455
  5
1455
331
1436
  5
1436
331
140F
  5
140F
331
14B4
  5
14B4
331
13C9
  5
13C9
331
13AA
  5
13AA
331
138B
  5
138B
331
1297
  5
1297
331
1251
  5
1251
331
1213
  5
1213
331
1232
  5
1232
331
11F4
  5
11F4
331
12ED
  5
12ED
331
11CD
  5
11CD
331
10BA
  5
10BA
331
109B
  5
109B
331
1139
  5
1139
331
11AE
  5
11AE
331
1374
  5
1374
331
13E8
  5
13E8
331
1456
  5
1456
331
1437
  5
1437
331
1410
  5
1410
331
14B5
  5
14B5
331
13E9
  5
13E9
331
13AB
  5
13AB
331
138C
  5
138C
331
1298
  5
1298
331
1252
  5
1252
331
1214
  5
1214
331
1233
  5
1233
331
1281
  5
1281
331
12EE
  5
12EE
331
1170
  5
1170
331
10BB
  5
10BB
331
109C
  5
109C
331
113A
  5
113A
331
11AF
  5
11AF
331
11CE
  5
11CE
331
1375
  5
1375
331
15C0
  5
15C0
331
1438
  5
1438
331
1457
  5
1457
331
1411
  5
1411
331
14B6
  5
14B6
331
13CB
  5
13CB
331
13AC
  5
13AC
331
138D
  5
138D
331
1299
  5
1299
331
1253
  5
1253
331
1215
  5
1215
331
1234
  5
1234
331
1282
  5
1282
331
12EF
  5
12EF
331
11B0
  5
11B0
331
1171
  5
1171
331
10BC
  5
10BC
331
109D
  5
109D
331
113B
  5
113B
331
11CF
  5
11CF
331
1376
  5
1376
331
16B0
  5
16B0
331
1515
  5
1515
331
14B7
  5
14B7
331
1412
  5
1412
331
138E
  5
138E
331
1254
  5
1254
331
1216
  5
1216
331
1235
  5
1235
331
12D1
  5
12D1
331
12F0
  5
12F0
331
11B1
  5
11B1
331
1172
  5
1172
331
109E
  5
109E
331
10BD
  5
10BD
331
113C
  5
113C
331
11D0
  5
11D0
331
1377
  5
1377
331
1439
  5
1439
331
1458
  5
1458
331
16B1
  5
16B1
331
16D0
  5
16D0
331
1516
  5
1516
331
14B8
  5
14B8
331
1535
  5
1535
331
1413
  5
1413
331
1217
  5
1217
331
1236
  5
1236
331
1255
  5
1255
331
12D2
  5
12D2
331
12F1
  5
12F1
331
11D1
  5
11D1
331
11B2
  5
11B2
331
1173
  5
1173
331
113D
  5
113D
331
1378
  5
1378
331
138F
  5
138F
331
143A
  5
143A
331
1459
  5
1459
331
10BE
  5
10BE
331
109F
  5
109F
331
16B2
  5
16B2
331
16E8
  5
16E8
331
1517
  5
1517
331
14B9
  5
14B9
331
1414
  5
1414
331
1256
  5
1256
331
1237
  5
1237
331
1218
  5
1218
331
12D3
  5
12D3
331
11D2
  5
11D2
331
11B3
  5
11B3
331
1174
  5
1174
331
113E
  5
113E
331
1379
  5
1379
331
1390
  5
1390
331
143B
  5
143B
331
145A
  5
145A
331
1708
  5
1708
331
16B3
  5
16B3
331
16E9
  5
16E9
331
1518
  5
1518
331
1415
  5
1415
331
1257
  5
1257
331
1238
  5
1238
331
1219
  5
1219
331
1286
  5
1286
331
12D4
  5
12D4
331
11D3
  5
11D3
331
11B4
  5
11B4
331
113F
  5
113F
331
137A
  5
137A
331
1391
  5
1391
331
143C
  5
143C
331
145B
  5
145B
331
1709
  5
1709
331
1728
  5
1728
331
16B4
  5
16B4
331
16EA
  5
16EA
331
1519
  5
1519
331
1416
  5
1416
331
13D0
  5
13D0
331
1287
  5
1287
331
121A
  5
121A
331
1239
  5
1239
331
1258
  5
1258
331
12D5
  5
12D5
331
11D4
  5
11D4
331
11B5
  5
11B5
331
137B
  5
137B
331
1392
  5
1392
331
13B1
  5
13B1
331
143D
  5
143D
331
145C
  5
145C
331
170A
  5
170A
331
1729
  5
1729
331
1748
  5
1748
331
16B5
  5
16B5
331
16D4
  5
16D4
331
16EB
  5
16EB
331
151A
  5
151A
331
145D
  5
145D
331
1417
  5
1417
331
13D1
  5
13D1
331
13B2
  5
13B2
331
12D6
  5
12D6
331
137C
  5
137C
331
1393
  5
1393
331
143E
  5
143E
331
1259
  5
1259
331
123A
  5
123A
331
11B6
  5
11B6
331
11D5
  5
11D5
331
121B
  5
121B
331
170B
  5
170B
331
172A
  5
172A
331
16B6
  5
16B6
331
16EC
  5
16EC
331
151B
  5
151B
331
14EC
  5
14EC
331
1418
  5
1418
331
13D2
  5
13D2
331
12D7
  5
12D7
331
137D
  5
137D
331
1394
  5
1394
331
13B3
  5
13B3
331
12A8
  5
12A8
331
143F
  5
143F
331
145E
  5
145E
331
125A
  5
125A
331
11D6
  5
11D6
331
11B7
  5
11B7
331
121C
  5
121C
331
123B
  5
123B
331
170C
  5
170C
331
172B
  5
172B
331
16B7
  5
16B7
331
16ED
  5
16ED
331
151C
  5
151C
331
14ED
  5
14ED
331
145F
  5
145F
331
1419
  5
1419
331
13D3
  5
13D3
331
13B4
  5
13B4
331
12D8
  5
12D8
331
137E
  5
137E
331
1395
  5
1395
331
1440
  5
1440
331
125B
  5
125B
331
123C
  5
123C
331
11D7
  5
11D7
331
121D
  5
121D
331
170D
  5
170D
331
172C
  5
172C
331
16B8
  5
16B8
331
1544
  5
1544
331
16EE
  5
16EE
331
151D
  5
151D
331
14BF
  5
14BF
331
14EE
  5
14EE
331
1441
  5
1441
331
13D4
  5
13D4
331
137F
  5
137F
331
12D9
  5
12D9
331
1360
  5
1360
331
1396
  5
1396
331
13B5
  5
13B5
331
125C
  5
125C
331
121E
  5
121E
331
123D
  5
123D
331
141A
  5
141A
331
170E
  5
170E
331
172D
  5
172D
331
16B9
  5
16B9
331
16D8
  5
16D8
331
1545
  5
1545
331
16EF
  5
16EF
331
151E
  5
151E
331
14C0
  5
14C0
331
14EF
  5
14EF
331
1442
  5
1442
331
13D5
  5
13D5
331
12DA
  5
12DA
331
1361
  5
1361
331
1397
  5
1397
331
125D
  5
125D
331
123E
  5
123E
331
121F
  5
121F
331
141B
  5
141B
  0
DIMASSOC
  5
203D
102
{ACAD_REACTORS
330
203C
102
}
330
203C
100
AcDbDimAssoc
330
202F
 90
        3
 70
     0
 71
     0
  1
AcDbOsnapPointRef
 72
     1
331
17DE
 73
     0
 91
        0
 40
0.0
 10
0.0
 20
0.0
 30
2.000000000000000E+50
 75
     0
  1
AcDbOsnapPointRef
 72
     1
331
17E2
 73
     0
 91
        0
 40
0.0
 10
0.0
 20
0.0
 30
2.000000000000000E+50
 75
     0
  0
DIMASSOC
  5
2063
102
{ACAD_REACTORS
330
2062
102
}
330
2062
100
AcDbDimAssoc
330
2055
 90
        3
 70
     0
 71
     0
  1
AcDbOsnapPointRef
 72
     1
331
17C0
 73
     0
 91
        0
 40
0.0
 10
0.0
 20
0.0
 30
2.000000000000000E+50
 75
     0
  1
AcDbOsnapPointRef
 72
     1
331
17C4
 73
     0
 91
        0
 40
0.0
 10
0.0
 20
0.0
 30
2.000000000000000E+50
 75
     0
  0
DIMASSOC
  5
2089
102
{ACAD_REACTORS
330
2088
102
}
330
2088
100
AcDbDimAssoc
330
207B
 90
        3
 70
     0
 71
     0
  1
AcDbOsnapPointRef
 72
     1
331
17C4
 73
     0
 91
        0
 40
0.0
 10
0.0
 20
0.0
 30
2.000000000000000E+50
 75
     0
  1
AcDbOsnapPointRef
 72
     1
331
17C8
 73
     0
 91
        0
 40
0.0
 10
0.0
 20
0.0
 30
2.000000000000000E+50
 75
     0
  0
DIMASSOC
  5
20AF
102
{ACAD_REACTORS
330
20AE
102
}
330
20AE
100
AcDbDimAssoc
330
20A1
 90
        3
 70
     0
 71
     0
  1
AcDbOsnapPointRef
 72
     1
331
1857
 73
     0
 91
        0
 40
0.0
 10
0.0
 20
0.0
 30
2.000000000000000E+50
 75
     0
  1
AcDbOsnapPointRef
 72
     1
331
1845
 73
     0
 91
        0
 40
0.0
 10
0.0
 20
0.0
 30
2.000000000000000E+50
 75
     0
  0
DIMASSOC
  5
20D5
102
{ACAD_REACTORS
330
20D4
102
}
330
20D4
100
AcDbDimAssoc
330
20C7
 90
        3
 70
     0
 71
     0
  1
AcDbOsnapPointRef
 72
     1
331
1811
 73
     0
 91
        0
 40
0.0
 10
0.0
 20
0.0
 30
2.000000000000000E+50
 75
     0
  1
AcDbOsnapPointRef
 72
     1
331
1823
 73
     0
 91
        0
 40
0.0
 10
0.0
 20
0.0
 30
2.000000000000000E+50
 75
     0
  0
DIMASSOC
  5
2261
102
{ACAD_REACTORS
330
2260
102
}
330
2260
100
AcDbDimAssoc
330
2254
 90
        2
 70
     0
 71
     0
  1
AcDbOsnapPointRef
 72
     3
331
13C4
 73
     2
 91
        0
 40
0.0
 10
0.0
 20
0.0
 30
0.0
 75
     0
  0
DIMASSOC
  5
228E
102
{ACAD_REACTORS
330
228D
102
}
330
228D
100
AcDbDimAssoc
330
2284
 90
        2
 70
     0
 71
     0
  1
AcDbOsnapPointRef
 72
     3
331
1500
 73
     2
 91
        0
 40
0.0
 10
0.0
 20
0.0
 30
0.0
 75
     0
  0
DIMASSOC
  5
22CE
102
{ACAD_REACTORS
330
22CD
102
}
330
22CD
100
AcDbDimAssoc
330
22C0
 90
        3
 70
     0
 71
     0
  1
AcDbOsnapPointRef
 72
     1
331
1858
 73
     0
 91
        0
 40
0.0
 10
0.0
 20
0.0
 30
2.000000000000000E+50
 75
     0
  1
AcDbOsnapPointRef
 72
     1
331
1846
 73
     0
 91
        0
 40
0.0
 10
0.0
 20
0.0
 30
2.000000000000000E+50
 75
     0
  0
DIMASSOC
  5
2347
102
{ACAD_REACTORS
330
2346
102
}
330
2346
100
AcDbDimAssoc
330
2339
 90
        2
 70
     0
 71
     0
  1
AcDbOsnapPointRef
 72
    13
331
12C3
 73
     0
 91
        0
 40
0.0
 10
0.0
 20
0.0
 30
2.000000000000000E+50
 75
     0
  0
DIMASSOC
  5
30E1
102
{ACAD_REACTORS
330
30E0
102
}
330
30E0
100
AcDbDimAssoc
330
30D3
 90
        3
 70
     0
 71
     0
  1
AcDbOsnapPointRef
 72
     1
331
2A1E
 73
     0
 91
        0
 40
0.0
 10
0.0
 20
0.0
 30
2.000000000000000E+50
 75
     0
  1
AcDbOsnapPointRef
 72
    13
331
2A23
 73
     0
 91
        0
 40
0.0
 10
0.0
 20
0.0
 30
2.000000000000000E+50
 75
     0
  0
DIMASSOC
  5
310B
102
{ACAD_REACTORS
330
310A
102
}
330
310A
100
AcDbDimAssoc
330
30FD
 90
        3
 70
     0
 71
     0
  1
AcDbOsnapPointRef
 72
     1
331
2A49
 73
     0
 91
        0
 40
0.0
 10
0.0
 20
0.0
 30
2.000000000000000E+50
 75
     0
  1
AcDbOsnapPointRef
 72
    13
331
144C
 73
     0
 91
        0
 40
0.0
 10
0.0
 20
0.0
 30
2.000000000000000E+50
 75
     0
  0
DIMASSOC
  5
3135
102
{ACAD_REACTORS
330
3134
102
}
330
3134
100
AcDbDimAssoc
330
3127
 90
        3
 70
     0
 71
     0
  1
AcDbOsnapPointRef
 72
     1
331
2A49
 73
     0
 91
        0
 40
0.0
 10
0.0
 20
0.0
 30
2.000000000000000E+50
 75
     0
  1
AcDbOsnapPointRef
 72
     1
331
1857
 73
     0
 91
        0
 40
0.0
 10
0.0
 20
0.0
 30
2.000000000000000E+50
 75
     0
  0
DIMASSOC
  5
3168
102
{ACAD_REACTORS
330
3167
102
}
330
3167
100
AcDbDimAssoc
330
315A
 90
        3
 70
     0
 71
     0
  1
AcDbOsnapPointRef
 72
    13
331
2A1E
 73
     0
 91
        0
 40
0.0
 10
0.0
 20
0.0
 30
2.000000000000000E+50
 75
     0
  1
AcDbOsnapPointRef
 72
     1
331
1811
 73
     0
 91
        0
 40
0.0
 10
0.0
 20
0.0
 30
2.000000000000000E+50
 75
     0
  0
DIMASSOC
  5
3195
102
{ACAD_REACTORS
330
3194
102
}
330
3194
100
AcDbDimAssoc
330
3187
 90
        3
 70
     0
 71
     0
  1
AcDbOsnapPointRef
 72
     1
331
1810
 73
     0
 91
        0
 40
0.0
 10
0.0
 20
0.0
 30
2.000000000000000E+50
 75
     0
  1
AcDbOsnapPointRef
 72
     1
331
1834
 73
     0
 91
        0
 40
0.0
 10
0.0
 20
0.0
 30
2.000000000000000E+50
 75
     0
  0
LAYOUT
  5
22
102
{ACAD_XDICTIONARY
360
324D
102
}
102
{ACAD_REACTORS
330
1A
102
}
330
1A
100
AcDbPlotSettings
  1

  2
\\RD\EPSON Stylus C63 Series單色
  4
A4
  6

 40
3.757083177566528
 41
3.757076978683471
 42
3.757080078125
 43
3.757080078125
 44
209.9733276367187
 45
296.9683227539062
 46
0.0
 47
0.0
 48
0.0
 49
0.0
140
0.0
141
0.0
142
1.0
143
0.3405120737814363
 70
 11952
 72
     1
 73
     0
 74
     0
  7
彩色出圖.ctb
 75
     0
147
2.936753428137963
148
-2047.07469463503
149
-1261.649717473083
100
AcDbLayout
  1
Model
 70
     1
 71
     0
 10
0.0
 20
0.0
 11
12.0
 21
9.0
 12
0.0
 22
0.0
 32
0.0
 14
0.0
 24
0.0
 34
0.0
 15
0.0
 25
0.0
 35
0.0
146
0.0
 13
0.0
 23
0.0
 33
0.0
 16
1.0
 26
0.0
 36
0.0
 17
0.0
 27
1.0
 37
0.0
 76
     0
330
1F
1001
ACAD_PSEXT
1000
\\RD\EPSON Stylus C63 Series單色
1000
EPSON Stylus C63 Series
1000
\\RD
1000

1070
     0
  0
LAYOUT
  5
1E
102
{ACAD_XDICTIONARY
360
324B
102
}
102
{ACAD_REACTORS
330
1A
102
}
330
1A
100
AcDbPlotSettings
  1

  2

  4

  6

 40
0.0
 41
0.0
 42
0.0
 43
0.0
 44
0.0
 45
0.0
 46
0.0
 47
0.0
 48
0.0
 49
0.0
140
0.0
141
0.0
142
1.0
143
1.0
 70
   688
 72
     0
 73
     0
 74
     5
  7
彩色出圖.ctb
 75
    16
147
1.0
148
0.0
149
0.0
100
AcDbLayout
  1
配置1
 70
     1
 71
     1
 10
0.0
 20
0.0
 11
420.0
 21
297.0
 12
0.0
 22
0.0
 32
0.0
 14
1.000000000000000E+20
 24
1.000000000000000E+20
 34
1.000000000000000E+20
 15
-1.000000000000000E+20
 25
-1.000000000000000E+20
 35
-1.000000000000000E+20
146
0.0
 13
0.0
 23
0.0
 33
0.0
 16
1.0
 26
0.0
 36
0.0
 17
0.0
 27
1.0
 37
0.0
 76
     0
330
1B
  0
LAYOUT
  5
26
102
{ACAD_XDICTIONARY
360
324F
102
}
102
{ACAD_REACTORS
330
1A
102
}
330
1A
100
AcDbPlotSettings
  1

  2

  4

  6

 40
0.0
 41
0.0
 42
0.0
 43
0.0
 44
0.0
 45
0.0
 46
0.0
 47
0.0
 48
0.0
 49
0.0
140
0.0
141
0.0
142
1.0
143
1.0
 70
   688
 72
     0
 73
     0
 74
     5
  7
彩色出圖.ctb
 75
    16
147
1.0
148
0.0
149
0.0
100
AcDbLayout
  1
配置2
 70
     1
 71
     2
 10
0.0
 20
0.0
 11
12.0
 21
9.0
 12
0.0
 22
0.0
 32
0.0
 14
0.0
 24
0.0
 34
0.0
 15
0.0
 25
0.0
 35
0.0
146
0.0
 13
0.0
 23
0.0
 33
0.0
 16
1.0
 26
0.0
 36
0.0
 17
0.0
 27
1.0
 37
0.0
 76
     0
330
23
  0
MLINESTYLE
  5
18
102
{ACAD_REACTORS
330
17
102
}
330
17
100
AcDbMlineStyle
  2
STANDARD
 70
     0
  3

 62
   256
 51
90.0
 52
90.0
 71
     2
 49
0.5
 62
   256
  6
BYLAYER
 49
-0.5
 62
   256
  6
BYLAYER
  0
ACDBPLACEHOLDER
  5
F
102
{ACAD_REACTORS
330
E
102
}
330
E
  0
TABLESTYLE
  5
11B
102
{ACAD_REACTORS
330
11A
102
}
330
11A
100
AcDbTableStyle
  3
Standard
 70
     0
 71
     0
 40
1.5
 41
1.5
280
     0
281
     0
  7
STANDARD
140
4.5
170
     2
 62
     0
 63
     7
283
     0
274
    -2
284
     1
 64
     0
275
    -2
285
     1
 65
     0
276
    -2
286
     1
 66
     0
277
    -2
287
     1
 67
     0
278
    -2
288
     1
 68
     0
279
    -2
289
     1
 69
     0
  7
STANDARD
140
6.0
170
     5
 62
     0
 63
     7
283
     0
274
    -2
284
     1
 64
     0
275
    -2
285
     1
 65
     0
276
    -2
286
     1
 66
     0
277
    -2
287
     1
 67
     0
278
    -2
288
     1
 68
     0
279
    -2
289
     1
 69
     0
  7
STANDARD
140
4.5
170
     5
 62
     0
 63
     7
283
     0
274
    -2
284
     1
 64
     0
275
    -2
285
     1
 65
     0
276
    -2
286
     1
 66
     0
277
    -2
287
     1
 67
     0
278
    -2
288
     1
 68
     0
279
    -2
289
     1
 69
     0
  0
DICTIONARYVAR
  5
138
102
{ACAD_REACTORS
330
94
102
}
330
94
100
DictionaryVariables
280
     0
  1
STANDARD
  0
DICTIONARYVAR
  5
96
102
{ACAD_REACTORS
330
94
102
}
330
94
100
DictionaryVariables
280
     0
  1
2
  0
DICTIONARYVAR
  5
95
102
{ACAD_REACTORS
330
94
102
}
330
94
100
DictionaryVariables
280
     0
  1
0
  0
DICTIONARYVAR
  5
25A7
102
{ACAD_REACTORS
330
94
102
}
330
94
100
DictionaryVariables
280
     0
  1

  0
DICTIONARY
  5
1B5
102
{ACAD_REACTORS
330
5B
102
}
330
5B
100
AcDbDictionary
281
     1
  0
DICTIONARY
  5
61
102
{ACAD_REACTORS
330
5B
102
}
330
5B
100
AcDbDictionary
281
     1
  0
XRECORD
  5
123
102
{ACAD_REACTORS
330
5B
102
}
330
5B
100
AcDbXrecord
280
     1
 90
-1023410169
  0
DICTIONARY
  5
324D
330
22
100
AcDbDictionary
280
     1
281
     1
  3
ACAD_XREC_ROUNDTRIP
360
324E
  0
DICTIONARY
  5
324B
330
1E
100
AcDbDictionary
280
     1
281
     1
  3
ACAD_XREC_ROUNDTRIP
360
324C
  0
DICTIONARY
  5
324F
330
26
100
AcDbDictionary
280
     1
281
     1
  3
ACAD_XREC_ROUNDTRIP
360
3250
  0
XRECORD
  5
324E
102
{ACAD_REACTORS
330
324D
102
}
330
324D
100
AcDbXrecord
280
     1
102
SHADEPLOT
 70
     0
102
SHADEPLOTRESLEVEL
 70
     2
102
SHADEPLOTCUSTOMDPI
 70
   300
  0
XRECORD
  5
324C
102
{ACAD_REACTORS
330
324B
102
}
330
324B
100
AcDbXrecord
280
     1
102
SHADEPLOT
 70
     0
102
SHADEPLOTRESLEVEL
 70
     2
102
SHADEPLOTCUSTOMDPI
 70
   300
  0
XRECORD
  5
3250
102
{ACAD_REACTORS
330
324F
102
}
330
324F
100
AcDbXrecord
280
     1
102
SHADEPLOT
 70
     0
102
SHADEPLOTRESLEVEL
 70
     2
102
SHADEPLOTCUSTOMDPI
 70
   300
  0
ENDSEC
  0
EOF
