  0
SECTION
  2
HEADER
  9
$ACADVER
  1
AC1012
  9
$DWGCODEPAGE
  3
big5
  9
$INSBASE
 10
0.0
 20
0.0
 30
0.0
  9
$EXTMIN
 10
2031.16648716882
 20
308.1411754931352
 30
0.0
  9
$EXTMAX
 10
2298.510831953588
 20
553.5307893392219
 30
0.0
  9
$LIMMIN
 10
0.0
 20
0.0
  9
$LIMMAX
 10
420.0
 20
297.0
  9
$ORTHOMODE
 70
     0
  9
$REGENMODE
 70
     1
  9
$FILLMODE
 70
     1
  9
$QTEXTMODE
 70
     0
  9
$MIRRTEXT
 70
     1
  9
$DRAGMODE
 70
     2
  9
$LTSCALE
 40
7.0
  9
$OSMODE
 70
    55
  9
$ATTMODE
 70
     1
  9
$TEXTSIZE
 40
10.0
  9
$TRACEWID
 40
1.0
  9
$TEXTSTYLE
  7
DAYUS
  9
$CLAYER
  8
0
  9
$CELTYPE
  6
BYLAYER
  9
$CECOLOR
 62
   256
  9
$CELTSCALE
 40
1.0
  9
$DELOBJ
 70
     1
  9
$DISPSILH
 70
     0
  9
$DIMSCALE
 40
1.0
  9
$DIMASZ
 40
3.0
  9
$DIMEXO
 40
1.5
  9
$DIMDLI
 40
7.0
  9
$DIMRND
 40
0.0
  9
$DIMDLE
 40
0.0
  9
$DIMEXE
 40
2.0
  9
$DIMTP
 40
0.01
  9
$DIMTM
 40
0.01
  9
$DIMTXT
 40
3.0
  9
$DIMCEN
 40
0.0
  9
$DIMTSZ
 40
0.0
  9
$DIMTOL
 70
     0
  9
$DIMLIM
 70
     0
  9
$DIMTIH
 70
     0
  9
$DIMTOH
 70
     0
  9
$DIMSE1
 70
     0
  9
$DIMSE2
 70
     0
  9
$DIMTAD
 70
     3
  9
$DIMZIN
 70
     8
  9
$DIMBLK
  1

  9
$DIMASO
 70
     1
  9
$DIMSHO
 70
     1
  9
$DIMPOST
  1

  9
$DIMAPOST
  1

  9
$DIMALT
 70
     0
  9
$DIMALTD
 70
     2
  9
$DIMALTF
 40
25.4
  9
$DIMLFAC
 40
1.0
  9
$DIMTOFL
 70
     1
  9
$DIMTVP
 40
0.0
  9
$DIMTIX
 70
     0
  9
$DIMSOXD
 70
     0
  9
$DIMSAH
 70
     0
  9
$DIMBLK1
  1

  9
$DIMBLK2
  1

  9
$DIMSTYLE
  2
STANDARD
  9
$DIMCLRD
 70
   256
  9
$DIMCLRE
 70
   256
  9
$DIMCLRT
 70
   256
  9
$DIMTFAC
 40
0.6
  9
$DIMGAP
 40
0.8
  9
$DIMJUST
 70
     0
  9
$DIMSD1
 70
     0
  9
$DIMSD2
 70
     0
  9
$DIMTOLJ
 70
     1
  9
$DIMTZIN
 70
     8
  9
$DIMALTZ
 70
     0
  9
$DIMALTTZ
 70
     0
  9
$DIMFIT
 70
     3
  9
$DIMUPT
 70
     0
  9
$DIMUNIT
 70
     2
  9
$DIMDEC
 70
     2
  9
$DIMTDEC
 70
     2
  9
$DIMALTU
 70
     2
  9
$DIMALTTD
 70
     2
  9
$DIMTXSTY
  7
CHINESET
  9
$DIMAUNIT
 70
     0
  9
$LUNITS
 70
     2
  9
$LUPREC
 70
     2
  9
$SKETCHINC
 40
1.0
  9
$FILLETRAD
 40
2.5
  9
$AUNITS
 70
     0
  9
$AUPREC
 70
     0
  9
$MENU
  1
.
  9
$ELEVATION
 40
0.0
  9
$PELEVATION
 40
0.0
  9
$THICKNESS
 40
0.0
  9
$LIMCHECK
 70
     0
  9
$BLIPMODE
 70
     0
  9
$CHAMFERA
 40
2.5
  9
$CHAMFERB
 40
2.5
  9
$CHAMFERC
 40
20.0
  9
$CHAMFERD
 40
0.0
  9
$SKPOLY
 70
     0
  9
$TDCREATE
 40
2452292.457678333
  9
$TDUPDATE
 40
2452705.590341203
  9
$TDINDWG
 40
1.9534815046
  9
$TDUSRTIMER
 40
1.9534813889
  9
$USRTIMER
 70
     1
  9
$ANGBASE
 50
0.0
  9
$ANGDIR
 70
     0
  9
$PDMODE
 70
     0
  9
$PDSIZE
 40
0.0
  9
$PLINEWID
 40
0.0
  9
$COORDS
 70
     0
  9
$SPLFRAME
 70
     0
  9
$SPLINETYPE
 70
     6
  9
$SPLINESEGS
 70
     8
  9
$ATTDIA
 70
     1
  9
$ATTREQ
 70
     1
  9
$HANDLING
 70
 22529
  9
$HANDSEED
  5
2A402
  9
$SURFTAB1
 70
     6
  9
$SURFTAB2
 70
     6
  9
$SURFTYPE
 70
     6
  9
$SURFU
 70
     6
  9
$SURFV
 70
     6
  9
$UCSNAME
  2

  9
$UCSORG
 10
0.0
 20
0.0
 30
0.0
  9
$UCSXDIR
 10
1.0
 20
0.0
 30
0.0
  9
$UCSYDIR
 10
0.0
 20
1.0
 30
0.0
  9
$PUCSNAME
  2

  9
$PUCSORG
 10
0.0
 20
0.0
 30
0.0
  9
$PUCSXDIR
 10
1.0
 20
0.0
 30
0.0
  9
$PUCSYDIR
 10
0.0
 20
1.0
 30
0.0
  9
$USERI1
 70
     0
  9
$USERI2
 70
     0
  9
$USERI3
 70
     0
  9
$USERI4
 70
     0
  9
$USERI5
 70
     0
  9
$USERR1
 40
0.0
  9
$USERR2
 40
0.0
  9
$USERR3
 40
0.0
  9
$USERR4
 40
0.0
  9
$USERR5
 40
0.0
  9
$WORLDVIEW
 70
     1
  9
$SHADEDGE
 70
     3
  9
$SHADEDIF
 70
    70
  9
$TILEMODE
 70
     1
  9
$MAXACTVP
 70
    48
  9
$PINSBASE
 10
0.0
 20
0.0
 30
0.0
  9
$PLIMCHECK
 70
     0
  9
$PEXTMIN
 10
1.000000000000000E+20
 20
1.000000000000000E+20
 30
1.000000000000000E+20
  9
$PEXTMAX
 10
-1.000000000000000E+20
 20
-1.000000000000000E+20
 30
-1.000000000000000E+20
  9
$PLIMMIN
 10
0.0
 20
0.0
  9
$PLIMMAX
 10
420.0
 20
297.0
  9
$UNITMODE
 70
     0
  9
$VISRETAIN
 70
     1
  9
$PLINEGEN
 70
     0
  9
$PSLTSCALE
 70
     1
  9
$TREEDEPTH
 70
  3020
  9
$PICKSTYLE
 70
     0
  9
$CMLSTYLE
  2
STANDARD
  9
$CMLJUST
 70
     0
  9
$CMLSCALE
 40
20.0
  9
$SAVEIMAGES
 70
     1
  0
ENDSEC
  0
SECTION
  2
CLASSES
  0
CLASS
  1
ACDBDICTIONARYWDFLT
  2
AcDbDictionaryWithDefault
  3
AutoCAD 2000
 90
    32768
280
     0
281
     0
  0
CLASS
  1
ACDBPLACEHOLDER
  2
AcDbPlaceHolder
  3
AutoCAD 2000
 90
    32768
280
     0
281
     0
  0
CLASS
  1
LAYOUT
  2
AcDbLayout
  3
AutoCAD 2000
 90
    32768
280
     0
281
     0
  0
CLASS
  1
AMGSETTINGSOBJ
  2
AmgSettingsObj
  3
"AcadM|Product Description: AutoCAD Mechanical 2000|Company: Autodesk"
 90
    32768
280
     0
281
     0
  0
CLASS
  1
ACME_DOCUMENT
  2
AcMeDbDoc
  3
AcMeServices
 90
    32768
280
     0
281
     0
  0
CLASS
  1
ACMESCOPE
  2
AcMeScope
  3
AcMeServices
 90
    32768
280
     0
281
     0
  0
CLASS
  1
ACMECOMMANDHISTORY
  2
AcMeCommandHistory
  3
AcMeServices
 90
    32768
280
     0
281
     0
  0
CLASS
  1
DICTIONARYVAR
  2
AcDbDictionaryVar
  3
AutoCAD 2000
 90
    32768
280
     0
281
     0
  0
CLASS
  1
ACIMSYSVARMAN
  2
AcImSysVarManager
  3
AcMeServices
 90
    32768
280
     0
281
     0
  0
CLASS
  1
ACIMREALSYSVAR
  2
AcImRealSysVar
  3
AcMeServices
 90
    32768
280
     0
281
     0
  0
CLASS
  1
ACIMINTSYSVAR
  2
AcImIntSysVar
  3
AcMeServices
 90
    32768
280
     0
281
     0
  0
CLASS
  1
ACMEDRAWINGMAN
  2
AcMeDrawingMan
  3
AcMeServices
 90
    32768
280
     0
281
     0
  0
CLASS
  1
ACMEVIEW
  2
AcMeView
  3
AcMeServices
 90
    32768
280
     0
281
     0
  0
CLASS
  1
ACDBENTITYCACHE
  2
AcMeEntityCache
  3
AcMeServices
 90
    32768
280
     0
281
     0
  0
CLASS
  1
GSMANAGER
  2
AcMeGSManager
  3
AcMeServices
 90
    32768
280
     0
281
     0
  0
CLASS
  1
AMDTINTERNALREACTOR
  2
AmdtInternalReactor
  3
AcMeServices
 90
    32768
280
     0
281
     0
  0
CLASS
  1
ACMESTATEMGR
  2
AcMeStateMgr
  3
AcMeServices
 90
    32768
280
     0
281
     0
  0
CLASS
  1
ACME_DATABASE
  2
AcMeDbDatabase
  3
AcMeServices
 90
    32768
280
     0
281
     0
  0
CLASS
  1
ACRFINSADJUSTERMGR
  2
AcRfInsAdjusterMgr
  3
AcMeServices
 90
    32768
280
     0
281
     0
  0
CLASS
  1
ACMDATADICTIONARY
  2
AcmDataDictionary
  3
"AcmSymBB|Product Description: AutoCAD Mechanical 2000|Company: Autodesk"
 90
    32768
280
     0
281
     0
  0
CLASS
  1
ACMDATAENTRYBLOCK
  2
AcmDataEntryBlock
  3
"AcmSymBB|Product Description: AutoCAD Mechanical 2000|Company: Autodesk"
 90
    32768
280
     0
281
     0
  0
CLASS
  1
AMGOBJPROPCFG
  2
AmgObjPropCfg
  3
"AmgLay|Product Description: AutoCAD Mechanical 2000|Company: Autodesk"
 90
    32769
280
     0
281
     0
  0
CLASS
  1
ACAMGFILTERDAT
  2
AcAmgFilterDat
  3
"AcadM|Product Description: AutoCAD Mechanical 2000|Company: Autodesk"
 90
    32768
280
     0
281
     0
  0
CLASS
  1
LAYER_INDEX
  2
AcDbLayerIndex
  3
AutoCAD 2000
 90
    32768
280
     0
281
     0
  0
CLASS
  1
IDBUFFER
  2
AcDbIdBuffer
  3
AutoCAD 2000
 90
    32768
280
     0
281
     0
  0
CLASS
  1
ACIMSTRSYSVAR
  2
AcImStrSysVar
  3
AcMeServices
 90
    32768
280
     0
281
     0
  0
CLASS
  1
ACMSTANDARDISO
  2
AcmStandardISO
  3
"Amdt_StdImp|Product Description: AutoCAD Mechanical 2000|Company: Autodesk"
 90
    32768
280
     0
281
     0
  0
CLASS
  1
AMDTEDGESTANDARDISO
  2
AmdtEdgeStdISO
  3
"Amdt_StdImp|Product Description: AutoCAD Mechanical 2000|Company: Autodesk"
 90
    32768
280
     0
281
     0
  0
CLASS
  1
ACMSURFSTANDARDISO
  2
AcmSurfTextStdISO
  3
"Amdt_StdImp|Product Description: AutoCAD Mechanical 2000|Company: Autodesk"
 90
    32768
280
     0
281
     0
  0
CLASS
  1
ACMFCFSTANDARDISO
  2
AcmFCFStdISO
  3
"Amdt_StdImp|Product Description: AutoCAD Mechanical 2000|Company: Autodesk"
 90
    32768
280
     0
281
     0
  0
CLASS
  1
ACMWELDSTANDARDISO
  2
AcmWeldingStdISO
  3
"Amdt_StdImp|Product Description: AutoCAD Mechanical 2000|Company: Autodesk"
 90
    32768
280
     0
281
     0
  0
CLASS
  1
ACMIDSTANDARDISO
  2
AcmIdStdISO
  3
"Amdt_StdImp|Product Description: AutoCAD Mechanical 2000|Company: Autodesk"
 90
    32768
280
     0
281
     0
  0
CLASS
  1
ACMDATUMSTANDARDISO
  2
AcmDatumStdISO
  3
"Amdt_StdImp|Product Description: AutoCAD Mechanical 2000|Company: Autodesk"
 90
    32768
280
     0
281
     0
  0
CLASS
  1
ACMBOMSTANDARDISO
  2
AcmBOMStdISO
  3
"Amdt_StdImp|Product Description: AutoCAD Mechanical 2000|Company: Autodesk"
 90
    32768
280
     0
281
     0
  0
CLASS
  1
AMDTNOTE
  2
AmdtNote
  3
"AcmSymBB|Product Description: AutoCAD Mechanical 2000|Company: Autodesk"
 90
    33791
280
     0
281
     1
  0
CLASS
  1
ACGREFMASTER
  2
AcGrefMaster
  3
AcAttribServices
 90
    32768
280
     0
281
     0
  0
CLASS
  1
ACGREFACADMASTER
  2
AcGrefacadMaster
  3
AcGrefServices
 90
    32768
280
     0
281
     0
  0
CLASS
  1
AMIMASTER
  2
AmiMaster
  3
AmiServices
 90
    32768
280
     0
281
     0
  0
CLASS
  1
ACAMGTITLESTD
  2
AcAmgTitleStd
  3
"TITLEAPP"
 90
    32768
280
     0
281
     0
  0
CLASS
  1
ACMDETAILSTANDARDISO
  2
AmdtDetailSymStdISO
  3
"Amdt_StdImp|Product Description: AutoCAD Mechanical 2000|Company: Autodesk"
 90
    32768
280
     0
281
     0
  0
CLASS
  1
ACMSECTIONSTANDARDISO
  2
AmdtSectionSymStdISO
  3
"Amdt_StdImp|Product Description: AutoCAD Mechanical 2000|Company: Autodesk"
 90
    32768
280
     0
281
     0
  0
CLASS
  1
ACMCENTERLINESTANDARDISO
  2
AmdtCenterLineStdISO
  3
"Amdt_StdImp|Product Description: AutoCAD Mechanical 2000|Company: Autodesk"
 90
    32768
280
     0
281
     0
  0
CLASS
  1
ACMNOTESTANDARDISO
  2
AmdtNoteStdISO
  3
"Amdt_StdImp|Product Description: AutoCAD Mechanical 2000|Company: Autodesk"
 90
    32768
280
     0
281
     0
  0
CLASS
  1
ACAMGLAYSTD
  2
AcAmgLayStd
  3
"AcAmgLayStd|Product Description: AutoCAD Mechanical 2000|Company: Autodesk"
 90
    32768
280
     0
281
     0
  0
CLASS
  1
ACAMGDIMSTD
  2
AcAmgDimStd
  3
"AcAmgDimStd|Product Description: AutoCAD Mechanical 2000|Company: Autodesk"
 90
    32768
280
     0
281
     0
  0
CLASS
  1
ACAMGHOLECHARTSTDISO
  2
AcAmgHoleChartStdISO
  3
ACMSYMBB_MODULE_NAME
 90
    32768
280
     0
281
     0
  0
CLASS
  1
AMDTFORMULAUPDATEDISPATCHER
  2
AmdtFormulaUpdateDispatcher
  3
AcMeServices
 90
    32768
280
     0
281
     0
  0
CLASS
  1
ACMSTANDARDANSI
  2
AcmStandardANSI
  3
"Amdt_StdImp|Product Description: AutoCAD Mechanical 2000|Company: Autodesk"
 90
    32768
280
     0
281
     0
  0
CLASS
  1
ACMSURFSTANDARDANSI
  2
AcmSurfTextStdANSI
  3
"Amdt_StdImp|Product Description: AutoCAD Mechanical 2000|Company: Autodesk"
 90
    32768
280
     0
281
     0
  0
CLASS
  1
ACMFCFSTANDARDANSI
  2
AcmFCFStdANSI
  3
"Amdt_StdImp|Product Description: AutoCAD Mechanical 2000|Company: Autodesk"
 90
    32768
280
     0
281
     0
  0
CLASS
  1
ACMWELDSTANDARDANSI
  2
AcmWeldingStdANSI
  3
"Amdt_StdImp|Product Description: AutoCAD Mechanical 2000|Company: Autodesk"
 90
    32768
280
     0
281
     0
  0
CLASS
  1
ACMIDSTANDARDANSI
  2
AcmIdStdANSI
  3
"Amdt_StdImp|Product Description: AutoCAD Mechanical 2000|Company: Autodesk"
 90
    32768
280
     0
281
     0
  0
CLASS
  1
ACMDATUMSTANDARDANSI
  2
AcmDatumStdANSI
  3
"Amdt_StdImp|Product Description: AutoCAD Mechanical 2000|Company: Autodesk"
 90
    32768
280
     0
281
     0
  0
CLASS
  1
ACMBOMSTANDARDANSI
  2
AcmBOMStdANSI
  3
"Amdt_StdImp|Product Description: AutoCAD Mechanical 2000|Company: Autodesk"
 90
    32768
280
     0
281
     0
  0
CLASS
  1
ACMDETAILSTANDARDANSI
  2
AmdtDetailSymStdANSI
  3
"Amdt_StdImp|Product Description: AutoCAD Mechanical 2000|Company: Autodesk"
 90
    32768
280
     0
281
     0
  0
CLASS
  1
ACMSECTIONSTANDARDANSI
  2
AmdtSectionSymStdANSI
  3
"Amdt_StdImp|Product Description: AutoCAD Mechanical 2000|Company: Autodesk"
 90
    32768
280
     0
281
     0
  0
CLASS
  1
ACMCENTERLINESTANDARDANSI
  2
AmdtCenterLineStdANSI
  3
"Amdt_StdImp|Product Description: AutoCAD Mechanical 2000|Company: Autodesk"
 90
    32768
280
     0
281
     0
  0
CLASS
  1
ACMNOTESTANDARDANSI
  2
AmdtNoteStdANSI
  3
"Amdt_StdImp|Product Description: AutoCAD Mechanical 2000|Company: Autodesk"
 90
    32768
280
     0
281
     0
  0
CLASS
  1
ACAMGHOLECHARTSTDANSI
  2
AcAmgHoleChartStdANSI
  3
ACMSYMBB_MODULE_NAME
 90
    32768
280
     0
281
     0
  0
CLASS
  1
DIMASSOC
  2
AcDbDimAssoc
  3
"AcDbDimAssoc|Product Desc:     AcDim ARX App For Dimension|Company:          Autodesk, Inc.|WEB Address:      www.autodesk.com"
 90
    32768
280
     0
281
     0
  0
CLASS
  1
ACDB_PROXY_ENTITY_DATA
  2
AcDbProxyEntityData
  3
AutoCAD 2000
 90
    32768
280
     0
281
     0
  0
CLASS
  1
ACAD_PROXY_OBJECT_WRAPPER
  2
AcDbProxyObjectWrapper
  3
AutoCAD 2000
 90
    32768
280
     0
281
     0
  0
CLASS
  1
ACAD_PROXY_ENTITY_WRAPPER
  2
AcDbProxyEntityWrapper
  3
AutoCAD 2000
 90
    32768
280
     0
281
     1
  0
CLASS
  1
LONG_TRANSACTION
  2
AcDbLongTransaction
  3
AutoCAD 2000
 90
    32768
280
     0
281
     0
  0
CLASS
  1
LWPOLYLINE
  2
AcDbPolyline
  3
AutoCAD 2000
 90
    32768
280
     0
281
     1
  0
CLASS
  1
HATCH
  2
AcDbHatch
  3
AutoCAD 2000
 90
    32768
280
     0
281
     1
  0
CLASS
  1
XRECORD
  2
AcDbXrecord
  3
AutoCAD 2000
 90
    32768
280
     0
281
     0
  0
CLASS
  1
LONG_TRANSACTION
  2
AcDbLongTransaction
  3
AutoCAD 2000
 90
    32768
280
     0
281
     0
  0
CLASS
  1
LWPOLYLINE
  2
AcDbPolyline
  3
AutoCAD 2000
 90
    32768
280
     0
281
     1
  0
CLASS
  1
HATCH
  2
AcDbHatch
  3
AutoCAD 2000
 90
    32768
280
     0
281
     1
  0
CLASS
  1
XRECORD
  2
AcDbXrecord
  3
AutoCAD 2000
 90
    32768
280
     0
281
     0
  0
ENDSEC
  0
SECTION
  2
TABLES
  0
TABLE
  2
VPORT
  5
8
330
0
100
AcDbSymbolTable
 70
     5
  0
VPORT
  5
2A3D0
330
8
100
AcDbSymbolTableRecord
100
AcDbViewportTableRecord
  2
*ACTIVE
 70
     0
 10
0.0
 20
0.0
 11
1.0
 21
1.0
 12
2164.874188902965
 22
433.5592036054775
 13
0.0
 23
0.0
 14
2.5
 24
2.5
 15
10.0
 25
10.0
 16
0.0
 26
0.0
 36
1.0
 17
0.0
 27
0.0
 37
0.0
 40
253.6581039435275
 41
1.765124555160142
 42
50.0
 43
0.0
 44
0.0
 50
0.0
 51
0.0
 71
     0
 72
   100
 73
     1
 74
     3
 75
     0
 76
     0
 77
     0
 78
     1
  0
ENDTAB
  0
TABLE
  2
LTYPE
  5
5
330
0
100
AcDbSymbolTable
 70
    16
  0
LTYPE
  5
14
330
5
100
AcDbSymbolTableRecord
100
AcDbLinetypeTableRecord
  2
BYBLOCK
 70
     0
  3

 72
    65
 73
     0
 40
0.0
  0
LTYPE
  5
15
330
5
100
AcDbSymbolTableRecord
100
AcDbLinetypeTableRecord
  2
BYLAYER
 70
     0
  3

 72
    65
 73
     0
 40
0.0
  0
LTYPE
  5
16
330
5
100
AcDbSymbolTableRecord
100
AcDbLinetypeTableRecord
  2
CONTINUOUS
 70
     0
  3
Solid line
 72
    65
 73
     0
 40
0.0
  0
LTYPE
  5
4B
330
5
100
AcDbSymbolTableRecord
100
AcDbLinetypeTableRecord
  2
AM_ISO02W050
 70
     0
  3
__ __ __ __ __ __ __ __ __ __ __ __ __ __ __
 72
    65
 73
     2
 40
7.5
 49
6.0
 74
     0
 49
-1.5
 74
     0
  0
LTYPE
  5
4C
330
5
100
AcDbSymbolTableRecord
100
AcDbLinetypeTableRecord
  2
AM_ISO08W050
 70
     0
  3
____ . ____ . ____ . ____ . ____ . ____ . ____
 72
    65
 73
     4
 40
18.0
 49
12.0
 74
     0
 49
-1.5
 74
     0
 49
3.0
 74
     0
 49
-1.5
 74
     0
  0
LTYPE
  5
4D
330
5
100
AcDbSymbolTableRecord
100
AcDbLinetypeTableRecord
  2
AM_ISO09W050
 70
     0
  3
_____ . . _____ . . _____ . . ____ .. ____
 72
    65
 73
     6
 40
22.5
 49
12.0
 74
     0
 49
-1.5
 74
     0
 49
3.0
 74
     0
 49
-1.5
 74
     0
 49
3.0
 74
     0
 49
-1.5
 74
     0
  0
LTYPE
  5
4E
330
5
100
AcDbSymbolTableRecord
100
AcDbLinetypeTableRecord
  2
AMCONSTR
 70
     0
  3
_______________________
 72
    65
 73
     2
 40
9999.0
 49
9999.0
 74
     0
 49
0.0
 74
     0
  0
LTYPE
  5
4F
330
5
100
AcDbSymbolTableRecord
100
AcDbLinetypeTableRecord
  2
AM_ISO02W050X2
 70
     0
  3
 _ _ _ _ _ _ _ _ _ _ _ _
 72
    65
 73
     2
 40
3.75
 49
3.0
 74
     0
 49
-0.75
 74
     0
  0
LTYPE
  5
50
330
5
100
AcDbSymbolTableRecord
100
AcDbLinetypeTableRecord
  2
AM_ISO08W050X2
 70
     0
  3
__ . __ . __ . __ . __ . __
 72
    65
 73
     4
 40
9.0
 49
6.0
 74
     0
 49
-0.75
 74
     0
 49
1.5
 74
     0
 49
-0.75
 74
     0
  0
LTYPE
  5
53
330
5
100
AcDbSymbolTableRecord
100
AcDbLinetypeTableRecord
  2
AMZIGZAG
 70
     0
  3
/\/-/\/-/\/-/\/-/\/-/\/
 72
    65
 73
     2
 40
11.00009999999999
 49
0.0001
 74
     4
 75
   135
340
52
 46
0.04
 50
0.0
 44
0.0
 45
0.0
 49
-11.0
 74
     0
  0
LTYPE
  5
144B
330
5
100
AcDbSymbolTableRecord
100
AcDbLinetypeTableRecord
  2
ACISOWELD
 70
     0
  3
_ _ _ _ _
 72
    65
 73
     2
 40
2.0
 49
2.0
 74
     0
 49
-1.0
 74
     0
  0
LTYPE
  5
144C
330
5
100
AcDbSymbolTableRecord
100
AcDbLinetypeTableRecord
  2
ACISOTGB
 70
     0
  3
__ . . __ . .
 72
    65
 73
     6
 40
9.0
 49
4.0
 74
     0
 49
-1.0
 74
     0
 49
1.0
 74
     0
 49
-1.0
 74
     0
 49
1.0
 74
     0
 49
-1.0
 74
     0
  0
LTYPE
  5
144D
330
5
100
AcDbSymbolTableRecord
100
AcDbLinetypeTableRecord
  2
ACISOTGL
 70
     0
  3
_ _ _ _ _
 72
    65
 73
     2
 40
3.0
 49
2.0
 74
     0
 49
-1.0
 74
     0
  0
LTYPE
  5
1C34
330
5
100
AcDbSymbolTableRecord
100
AcDbLinetypeTableRecord
  2
HIDDEN
 70
     0
  3
Hidden __ __ __ __ __ __ __ __ __ __ __ __ __ _
 72
    65
 73
     2
 40
0.375
 49
0.25
 74
     0
 49
-0.125
 74
     0
  0
LTYPE
  5
1C35
330
5
100
AcDbSymbolTableRecord
100
AcDbLinetypeTableRecord
  2
CENTER
 70
     0
  3
Center ____ _ ____ _ ____ _ ____ _ ____ _ ____
 72
    65
 73
     4
 40
2.0
 49
1.25
 74
     0
 49
-0.25
 74
     0
 49
0.25
 74
     0
 49
-0.25
 74
     0
  0
LTYPE
  5
B899
330
5
100
AcDbSymbolTableRecord
100
AcDbLinetypeTableRecord
  2
PHANTOM2
 70
     0
  3
Phantom (.5x) ___ _ _ ___ _ _ ___ _ _ ___ _ _
 72
    65
 73
     6
 40
31.75
 49
15.875
 74
     0
 49
-3.174999999999999
 74
     0
 49
3.174999999999999
 74
     0
 49
-3.174999999999999
 74
     0
 49
3.174999999999999
 74
     0
 49
-3.174999999999999
 74
     0
  0
LTYPE
  5
BE5A
330
5
100
AcDbSymbolTableRecord
100
AcDbLinetypeTableRecord
  2
ACANSTGB
 70
     0
  3
__ . . __ . .
 72
    65
 73
     6
 40
0.35433070866
 49
0.15748031496
 74
     0
 49
-0.03937007874
 74
     0
 49
0.03937007874
 74
     0
 49
-0.03937007874
 74
     0
 49
0.03937007874
 74
     0
 49
-0.03937007874
 74
     0
  0
LTYPE
  5
BE5B
330
5
100
AcDbSymbolTableRecord
100
AcDbLinetypeTableRecord
  2
ACANSTGL
 70
     0
  3
_ _ _ _ _
 72
    65
 73
     2
 40
0.11811023622
 49
0.07874015748
 74
     0
 49
-0.03937007874
 74
     0
  0
ENDTAB
  0
TABLE
  2
LAYER
  5
2
330
0
100
AcDbSymbolTable
 70
     9
  0
LAYER
  5
10
330
2
100
AcDbSymbolTableRecord
100
AcDbLayerTableRecord
  2
0
 70
     0
 62
     7
  6
CONTINUOUS
  0
LAYER
  5
D1
330
2
100
AcDbSymbolTableRecord
100
AcDbLayerTableRecord
  2
AM_VIS
 70
     2
 62
     7
  6
CONTINUOUS
  0
LAYER
  5
450
330
2
100
AcDbSymbolTableRecord
100
AcDbLayerTableRecord
  2
DEFPOINTS
 70
     0
 62
    -7
  6
CONTINUOUS
  0
LAYER
  5
451
330
2
100
AcDbSymbolTableRecord
100
AcDbLayerTableRecord
  2
AM_7
 70
     0
 62
     1
  6
CENTER
  0
LAYER
  5
989
330
2
100
AcDbSymbolTableRecord
100
AcDbLayerTableRecord
  2
AM_5
 70
     0
 62
     5
  6
CONTINUOUS
  0
LAYER
  5
1C3A
330
2
100
AcDbSymbolTableRecord
100
AcDbLayerTableRecord
  2
AM_REFDIM
 70
     0
 62
     5
  6
CONTINUOUS
  0
LAYER
  5
188F9
330
2
100
AcDbSymbolTableRecord
100
AcDbLayerTableRecord
  2
LOGO
 70
     0
 62
     7
  6
CONTINUOUS
  0
LAYER
  5
188FB
330
2
100
AcDbSymbolTableRecord
100
AcDbLayerTableRecord
  2
AM_HID
 70
     0
 62
     5
  6
HIDDEN
  0
LAYER
  5
18900
330
2
100
AcDbSymbolTableRecord
100
AcDbLayerTableRecord
  2
AM_0N
 70
     0
 62
     7
  6
CONTINUOUS
  0
ENDTAB
  0
TABLE
  2
STYLE
  5
3
330
0
100
AcDbSymbolTable
 70
     9
  0
STYLE
  5
11
330
3
100
AcDbSymbolTableRecord
100
AcDbTextStyleTableRecord
  2
STANDARD
 70
     0
 40
0.0
 41
1.0
 50
0.0
 71
     0
 42
3.0
  3
ISOCP.SHX
  4
CHINESET.SHX
  0
STYLE
  5
52
330
3
100
AcDbSymbolTableRecord
100
AcDbTextStyleTableRecord
  2

 70
     1
 40
0.0
 41
1.0
 50
0.0
 71
     0
 42
2.5
  3
ltypeshp.shx
  4

  0
STYLE
  5
1442
330
3
100
AcDbSymbolTableRecord
100
AcDbTextStyleTableRecord
  2
ACISOTS
 70
     0
 40
1.0
 41
1.0
 50
0.0
 71
     0
 42
1.0
  3
isocp.shx
  4
chineset.shx
  0
STYLE
  5
144A
330
3
100
AcDbSymbolTableRecord
100
AcDbTextStyleTableRecord
  2
ACISOGDT
 70
     0
 40
0.0
 41
1.0
 50
0.0
 71
     0
 42
2.5
  3
amgdt.shx
  4

  0
STYLE
  5
167B
330
3
100
AcDbSymbolTableRecord
100
AcDbTextStyleTableRecord
  2
DAYUS
 70
     0
 40
0.0
 41
1.0
 50
0.0
 71
     0
 42
10.0
  3
simplex
  4
dayus
  0
STYLE
  5
BE5D
330
3
100
AcDbSymbolTableRecord
100
AcDbTextStyleTableRecord
  2
CHINESET
 70
     0
 40
0.0
 41
1.0
 50
0.0
 71
     0
 42
4.0
  3
simplex.shx
  4
chineset.shx
  0
STYLE
  5
BE5E
330
3
100
AcDbSymbolTableRecord
100
AcDbTextStyleTableRecord
  2
ACANSTS
 70
     0
 40
1.0
 41
1.0
 50
0.0
 71
     0
 42
1.5
  3
romans.shx
  4
chineset.shx
  0
STYLE
  5
BE5F
330
3
100
AcDbSymbolTableRecord
100
AcDbTextStyleTableRecord
  2
ACANSGDT
 70
     0
 40
0.0
 41
1.0
 50
0.0
 71
     0
 42
1.5
  3
amgdtans.shx
  4

  0
STYLE
  5
18905
330
3
100
AcDbSymbolTableRecord
100
AcDbTextStyleTableRecord
  2
LOGO
 70
     0
 40
0.0
 41
1.0
 50
0.0
 71
     0
 42
5.0
  3
LEI00DP.TTF
  4

1001
ACAD
1000
文鼎中粗隸
1071
    34865
  0
ENDTAB
  0
TABLE
  2
VIEW
  5
6
330
0
100
AcDbSymbolTable
 70
     0
  0
ENDTAB
  0
TABLE
  2
UCS
  5
7
330
0
100
AcDbSymbolTable
 70
     0
  0
ENDTAB
  0
TABLE
  2
APPID
  5
9
330
0
100
AcDbSymbolTable
 70
    39
  0
APPID
  5
12
330
9
100
AcDbSymbolTableRecord
100
AcDbRegAppTableRecord
  2
ACAD
 70
     0
  0
APPID
  5
30
330
9
100
AcDbSymbolTableRecord
100
AcDbRegAppTableRecord
  2
MCAD_NO_VIS
 70
     0
  0
APPID
  5
31
330
9
100
AcDbSymbolTableRecord
100
AcDbRegAppTableRecord
  2
ACAD_TEMP_GRAPHIC
 70
     0
  0
APPID
  5
455
330
9
100
AcDbSymbolTableRecord
100
AcDbRegAppTableRecord
  2
GENIUS_GENDTOL_13
 70
     0
  0
APPID
  5
6B34
330
9
100
AcDbSymbolTableRecord
100
AcDbRegAppTableRecord
  2
ACATTRIBSERVICES
 70
     0
  0
APPID
  5
F2C8
330
9
100
AcDbSymbolTableRecord
100
AcDbRegAppTableRecord
  2
GENIUS_GENDIMSH_14
 70
     0
  0
APPID
  5
12FCC
330
9
100
AcDbSymbolTableRecord
100
AcDbRegAppTableRecord
  2
GENIUS_GENREC_14
 70
     0
  0
APPID
  5
12FCD
330
9
100
AcDbSymbolTableRecord
100
AcDbRegAppTableRecord
  2
GENIUS_GENOBJ-N-REC_13
 70
     0
  0
APPID
  5
12FCE
330
9
100
AcDbSymbolTableRecord
100
AcDbRegAppTableRecord
  2
GENIUS_GENODEF_13
 70
     0
  0
APPID
  5
1890C
330
9
100
AcDbSymbolTableRecord
100
AcDbRegAppTableRecord
  2
GENIUS_GENFIL_13
 70
     0
  0
APPID
  5
1890D
330
9
100
AcDbSymbolTableRecord
100
AcDbRegAppTableRecord
  2
GENIUS_GENOBJ-N-CHA_13
 70
     0
  0
APPID
  5
1890E
330
9
100
AcDbSymbolTableRecord
100
AcDbRegAppTableRecord
  2
GENIUS_GENOBJ-N-FIL_13
 70
     0
  0
APPID
  5
1890F
330
9
100
AcDbSymbolTableRecord
100
AcDbRegAppTableRecord
  2
GENIUS_GENOBJ-N-CEN_13
 70
     0
  0
APPID
  5
18910
330
9
100
AcDbSymbolTableRecord
100
AcDbRegAppTableRecord
  2
GENIUS_GENOBJ-N-HTC_13
 70
     0
  0
APPID
  5
18911
330
9
100
AcDbSymbolTableRecord
100
AcDbRegAppTableRecord
  2
GENIUS_GENHATCH_13
 70
     0
  0
APPID
  5
18912
330
9
100
AcDbSymbolTableRecord
100
AcDbRegAppTableRecord
  2
GEVID1040951320
 70
     0
  0
APPID
  5
18913
330
9
100
AcDbSymbolTableRecord
100
AcDbRegAppTableRecord
  2
GEVDC
 70
     0
  0
APPID
  5
18914
330
9
100
AcDbSymbolTableRecord
100
AcDbRegAppTableRecord
  2
GENIUS_GENBH_13
 70
     0
  0
APPID
  5
18915
330
9
100
AcDbSymbolTableRecord
100
AcDbRegAppTableRecord
  2
GENIUS_GENOENT_13
 70
     0
  0
APPID
  5
18916
330
9
100
AcDbSymbolTableRecord
100
AcDbRegAppTableRecord
  2
GENIUS_GENOBJ-NBEHI-BHF_13
 70
     0
  0
APPID
  5
18917
330
9
100
AcDbSymbolTableRecord
100
AcDbRegAppTableRecord
  2
GENIUS_GENOLIS_13
 70
     0
  0
APPID
  5
18918
330
9
100
AcDbSymbolTableRecord
100
AcDbRegAppTableRecord
  2
GENIUS_GENOREF_13
 70
     0
  0
APPID
  5
18919
330
9
100
AcDbSymbolTableRecord
100
AcDbRegAppTableRecord
  2
GENIUS_GENOBJ-NBEHI-BHB_13
 70
     0
  0
APPID
  5
1891A
330
9
100
AcDbSymbolTableRecord
100
AcDbRegAppTableRecord
  2
GEVID1040951321
 70
     0
  0
APPID
  5
1891B
330
9
100
AcDbSymbolTableRecord
100
AcDbRegAppTableRecord
  2
GEVID1040951322
 70
     0
  0
APPID
  5
1891C
330
9
100
AcDbSymbolTableRecord
100
AcDbRegAppTableRecord
  2
GEVID1040951323
 70
     0
  0
APPID
  5
200C7
330
9
100
AcDbSymbolTableRecord
100
AcDbRegAppTableRecord
  2
GENIUS_GENOBJ-N-CRS_13
 70
     0
  0
APPID
  5
200C8
330
9
100
AcDbSymbolTableRecord
100
AcDbRegAppTableRecord
  2
ACAD_DIMASSOC_DIMLFAC
 70
     0
  0
APPID
  5
200C9
330
9
100
AcDbSymbolTableRecord
100
AcDbRegAppTableRecord
  2
ACAD_DIMASSOC_CALC_DIMLFAC
 70
     0
  0
APPID
  5
200CA
330
9
100
AcDbSymbolTableRecord
100
AcDbRegAppTableRecord
  2
GEVID1036112518
 70
     0
  0
APPID
  5
200CB
330
9
100
AcDbSymbolTableRecord
100
AcDbRegAppTableRecord
  2
GEVRADREF
 70
     0
  0
APPID
  5
200CC
330
9
100
AcDbSymbolTableRecord
100
AcDbRegAppTableRecord
  2
GEVID1040267100
 70
     0
  0
APPID
  5
2210A
330
9
100
AcDbSymbolTableRecord
100
AcDbRegAppTableRecord
  2
GEVID1036112519
 70
     0
  0
APPID
  5
2210B
330
9
100
AcDbSymbolTableRecord
100
AcDbRegAppTableRecord
  2
GEVID1036112520
 70
     0
  0
APPID
  5
2210C
330
9
100
AcDbSymbolTableRecord
100
AcDbRegAppTableRecord
  2
GEVID1036112521
 70
     0
  0
APPID
  5
2210D
330
9
100
AcDbSymbolTableRecord
100
AcDbRegAppTableRecord
  2
GEVID1036112522
 70
     0
  0
APPID
  5
2210E
330
9
100
AcDbSymbolTableRecord
100
AcDbRegAppTableRecord
  2
GEVID1036112523
 70
     0
  0
APPID
  5
2210F
330
9
100
AcDbSymbolTableRecord
100
AcDbRegAppTableRecord
  2
GEVID1040267101
 70
     0
  0
APPID
  5
26DC8
330
9
100
AcDbSymbolTableRecord
100
AcDbRegAppTableRecord
  2
TCAD
 70
     0
  0
ENDTAB
  0
TABLE
  2
DIMSTYLE
  5
A
330
0
100
AcDbSymbolTable
 70
    15
  0
DIMSTYLE
105
98A
330
A
100
AcDbSymbolTableRecord
100
AcDbDimStyleTableRecord
  2
AM_ISO
 70
     0
  3

  4
"
  5

  6

  7

 40
0.6
 41
3.0
 42
2.0
 43
10.0
 44
1.5
 45
0.0
 46
0.0
 47
0.1
 48
0.1
140
3.0
141
0.0
142
0.0
143
0.0393701
144
2.0
145
0.0
146
0.71
147
0.8
 71
     0
 72
     0
 73
     0
 74
     0
 75
     0
 76
     0
 77
     1
 78
     8
170
     0
171
     2
172
     1
173
     0
174
     0
175
     0
176
     5
177
   256
178
     5
270
     2
271
     2
272
     2
273
     2
274
     2
340
11
275
     0
280
     0
281
     0
282
     0
283
     0
284
     0
285
     0
286
     0
287
     3
288
     0
  0
DIMSTYLE
105
98B
330
A
100
AcDbSymbolTableRecord
100
AcDbDimStyleTableRecord
  2
AM_ISO$3
 70
     0
  3

  4
"
  5

  6

  7

 40
0.6
 41
3.0
 42
2.0
 43
10.0
 44
1.5
 45
0.0
 46
0.0
 47
0.1
 48
0.1
140
3.0
141
0.0
142
0.0
143
0.0393701
144
2.0
145
0.0
146
0.71
147
0.8
 71
     0
 72
     0
 73
     0
 74
     1
 75
     0
 76
     0
 77
     1
 78
     8
170
     0
171
     2
172
     0
173
     0
174
     0
175
     0
176
     5
177
   256
178
     5
270
     2
271
     2
272
     2
273
     2
274
     2
340
11
275
     0
280
     0
281
     0
282
     0
283
     0
284
     0
285
     0
286
     0
287
     0
288
     1
  0
DIMSTYLE
105
98C
330
A
100
AcDbSymbolTableRecord
100
AcDbDimStyleTableRecord
  2
AM_ISO$4
 70
     0
  3

  4
"
  5

  6

  7

 40
0.6
 41
3.0
 42
2.0
 43
10.0
 44
1.5
 45
0.0
 46
0.0
 47
0.1
 48
0.1
140
3.0
141
0.0
142
0.0
143
0.0393701
144
2.0
145
0.0
146
0.71
147
0.8
 71
     0
 72
     0
 73
     0
 74
     1
 75
     0
 76
     0
 77
     1
 78
     8
170
     0
171
     2
172
     0
173
     0
174
     0
175
     0
176
     5
177
   256
178
     5
270
     2
271
     2
272
     2
273
     2
274
     2
340
11
275
     0
280
     0
281
     0
282
     0
283
     0
284
     0
285
     0
286
     0
287
     0
288
     1
  0
DIMSTYLE
105
98D
330
A
100
AcDbSymbolTableRecord
100
AcDbDimStyleTableRecord
  2
AM_ISO$6
 70
     0
  3

  4
"
  5

  6

  7

 40
0.6
 41
3.0
 42
2.0
 43
10.0
 44
1.5
 45
0.0
 46
0.0
 47
0.1
 48
0.1
140
3.0
141
0.0
142
0.0
143
0.0393701
144
2.0
145
0.0
146
0.71
147
0.8
 71
     0
 72
     0
 73
     0
 74
     0
 75
     0
 76
     0
 77
     0
 78
     8
170
     0
171
     2
172
     1
173
     0
174
     0
175
     0
176
     5
177
   256
178
     5
270
     2
271
     2
272
     2
273
     2
274
     2
340
11
275
     0
280
     0
281
     0
282
     0
283
     0
284
     0
285
     0
286
     0
287
     3
288
     0
  0
DIMSTYLE
105
98E
330
A
100
AcDbSymbolTableRecord
100
AcDbDimStyleTableRecord
  2
AM_ISO$7
 70
     0
  3

  4
"
  5

  6

  7

 40
0.6
 41
3.0
 42
2.0
 43
10.0
 44
1.5
 45
0.0
 46
0.0
 47
0.1
 48
0.1
140
5.0
141
0.0
142
0.0
143
0.0393701
144
2.0
145
0.0
146
0.71
147
0.8
 71
     0
 72
     0
 73
     0
 74
     0
 75
     0
 76
     0
 77
     1
 78
     8
170
     0
171
     2
172
     1
173
     0
174
     0
175
     0
176
     5
177
   256
178
     5
270
     2
271
     2
272
     2
273
     2
274
     2
340
11
275
     0
280
     0
281
     0
282
     0
283
     0
284
     0
285
     0
286
     0
287
     3
288
     0
  0
DIMSTYLE
105
98F
330
A
100
AcDbSymbolTableRecord
100
AcDbDimStyleTableRecord
  2
AM_ISO$SF
 70
     0
  3

  4
"
  5

  6

  7

 40
0.5
 41
2.5
 42
1.0
 43
10.0
 44
1.0
 45
0.0
 46
0.0
 47
0.1
 48
0.1
140
3.5
141
0.0
142
0.0
143
0.0393701
144
1.0
145
0.0
146
0.71
147
1.5
 71
     0
 72
     0
 73
     0
 74
     0
 75
     1
 76
     1
 77
     1
 78
     8
170
     0
171
     2
172
     1
173
     0
174
     0
175
     0
176
   256
177
   256
178
     2
270
     2
271
     2
272
     2
273
     2
274
     2
340
11
275
     0
280
     0
281
     0
282
     0
283
     0
284
     0
285
     0
286
     0
287
     3
288
     0
  0
DIMSTYLE
105
994
330
A
100
AcDbSymbolTableRecord
100
AcDbDimStyleTableRecord
  2
AM_ISO$SH
 70
     0
  3

  4
"
  5

  6
GENAXEH
  7

 40
0.5
 41
2.5
 42
1.0
 43
10.0
 44
1.0
 45
0.0
 46
0.0
 47
0.1
 48
0.1
140
3.5
141
0.0
142
0.0
143
0.0393701
144
2.0
145
0.0
146
0.71
147
1.5
 71
     0
 72
     0
 73
     0
 74
     0
 75
     1
 76
     1
 77
     1
 78
     8
170
     0
171
     2
172
     1
173
     1
174
     0
175
     0
176
   256
177
   256
178
     2
270
     2
271
     2
272
     2
273
     2
274
     2
340
11
275
     0
280
     0
281
     0
282
     0
283
     0
284
     0
285
     0
286
     0
287
     3
288
     0
  0
DIMSTYLE
105
6E5D
330
A
100
AcDbSymbolTableRecord
100
AcDbDimStyleTableRecord
  2
AM_ANSI
 70
     0
  3

  4
"
  5

  6

  7

 40
0.8
 41
3.0
 42
1.5
 43
5.0
 44
2.0
 45
0.0
 46
0.0
 47
0.1
 48
0.1
140
3.0
141
-1.5
142
0.0
143
0.0393701
144
1.0
145
0.0
146
0.6
147
0.8
 71
     0
 72
     0
 73
     0
 74
     0
 75
     0
 76
     0
 77
     1
 78
     8
170
     0
171
     2
172
     1
173
     0
174
     0
175
     0
176
   256
177
   256
178
   256
270
     2
271
     2
272
     2
273
     2
274
     2
340
167B
275
     0
280
     0
281
     0
282
     0
283
     1
284
     8
285
     0
286
     0
287
     3
288
     0
  0
DIMSTYLE
105
6E5E
330
A
100
AcDbSymbolTableRecord
100
AcDbDimStyleTableRecord
  2
AM_ANSI$3
 70
     0
  3

  4
"
  5

  6

  7

 40
0.8
 41
3.0
 42
1.5
 43
5.0
 44
2.0
 45
0.0
 46
0.0
 47
0.1
 48
0.1
140
3.0
141
-1.5
142
0.0
143
0.0393701
144
1.0
145
0.0
146
0.6
147
0.8
 71
     0
 72
     0
 73
     0
 74
     0
 75
     0
 76
     0
 77
     1
 78
     8
170
     0
171
     2
172
     1
173
     0
174
     0
175
     0
176
   256
177
   256
178
   256
270
     2
271
     2
272
     2
273
     2
274
     2
340
167B
275
     0
280
     0
281
     0
282
     0
283
     1
284
     8
285
     0
286
     0
287
     0
288
     1
  0
DIMSTYLE
105
6E5F
330
A
100
AcDbSymbolTableRecord
100
AcDbDimStyleTableRecord
  2
AM_ANSI$7
 70
     0
  3

  4
"
  5

  6

  7

 40
0.8
 41
3.0
 42
1.5
 43
5.0
 44
2.0
 45
0.0
 46
0.0
 47
0.1
 48
0.1
140
5.0
141
-1.5
142
0.0
143
0.0393701
144
1.0
145
0.0
146
0.6
147
0.8
 71
     0
 72
     0
 73
     0
 74
     0
 75
     0
 76
     0
 77
     1
 78
     8
170
     0
171
     2
172
     1
173
     0
174
     0
175
     0
176
   256
177
   256
178
   256
270
     2
271
     2
272
     2
273
     2
274
     2
340
167B
275
     0
280
     0
281
     0
282
     0
283
     1
284
     8
285
     0
286
     0
287
     3
288
     0
  0
DIMSTYLE
105
B991
102
{ACAD_REACTORS
330
26A28
330
26A35
330
26A44
330
26A51
330
26A5E
330
26A6B
330
26A87
330
26A96
330
26AA3
330
26AB0
330
26ABD
330
26ACA
330
26AD7
102
}
330
A
100
AcDbSymbolTableRecord
100
AcDbDimStyleTableRecord
  2
STANDARD
 70
     0
  3

  4

  5

  6

  7

 40
1.0
 41
3.0
 42
1.5
 43
7.0
 44
2.0
 45
0.0
 46
0.0
 47
0.01
 48
0.01
140
3.0
141
0.0
142
0.0
143
25.4
144
1.0
145
0.0
146
0.6
147
0.8
 71
     0
 72
     0
 73
     0
 74
     0
 75
     0
 76
     0
 77
     3
 78
     8
170
     0
171
     2
172
     1
173
     0
174
     0
175
     0
176
   256
177
   256
178
   256
270
     2
271
     2
272
     2
273
     2
274
     2
340
BE5D
275
     0
280
     0
281
     0
282
     0
283
     1
284
     8
285
     0
286
     0
287
     3
288
     0
  0
DIMSTYLE
105
BE61
330
A
100
AcDbSymbolTableRecord
100
AcDbDimStyleTableRecord
  2
AM_ANSI$4
 70
     0
  3

  4
mm
  5

  6

  7

 40
1.0
 41
0.1
 42
0.05
 43
0.5
 44
0.1
 45
0.0
 46
0.0
 47
0.1
 48
0.1
140
0.12
141
0.0
142
0.0
143
25.4
144
1.0
145
0.0
146
0.71
147
0.06
 71
     0
 72
     0
 73
     1
 74
     1
 75
     0
 76
     0
 77
     0
 78
     7
170
     0
171
     2
172
     0
173
     0
174
     0
175
     0
176
   256
177
   256
178
     2
270
     2
271
     4
272
     4
273
     2
274
     4
340
11
275
     0
280
     0
281
     0
282
     0
283
     1
284
     7
285
     0
286
     0
287
     0
288
     1
  0
DIMSTYLE
105
BE62
330
A
100
AcDbSymbolTableRecord
100
AcDbDimStyleTableRecord
  2
AM_ANSI$SF
 70
     0
  3

  4
mm
  5

  6

  7

 40
1.0
 41
0.1
 42
0.05
 43
0.5
 44
0.1
 45
0.0
 46
0.0
 47
0.1
 48
0.1
140
0.12
141
0.0
142
0.0
143
25.4
144
1.0
145
0.0
146
0.71
147
0.06
 71
     0
 72
     0
 73
     1
 74
     1
 75
     1
 76
     1
 77
     0
 78
     7
170
     0
171
     2
172
     0
173
     0
174
     0
175
     0
176
   256
177
   256
178
     2
270
     2
271
     4
272
     4
273
     2
274
     4
340
11
275
     0
280
     0
281
     0
282
     0
283
     1
284
     7
285
     0
286
     0
287
     3
288
     0
  0
DIMSTYLE
105
BE63
330
A
100
AcDbSymbolTableRecord
100
AcDbDimStyleTableRecord
  2
AM_ANSI$SH
 70
     0
  3

  4
mm
  5

  6
GENAXEH
  7

 40
1.0
 41
0.1
 42
0.05
 43
0.5
 44
0.1
 45
0.0
 46
0.0
 47
0.1
 48
0.1
140
0.12
141
0.0
142
0.0
143
25.4
144
1.0
145
0.0
146
0.71
147
0.06
 71
     0
 72
     0
 73
     1
 74
     1
 75
     1
 76
     1
 77
     0
 78
     7
170
     0
171
     2
172
     0
173
     1
174
     0
175
     0
176
   256
177
   256
178
     2
270
     2
271
     4
272
     4
273
     2
274
     4
340
11
275
     0
280
     0
281
     0
282
     0
283
     1
284
     7
285
     0
286
     0
287
     3
288
     0
  0
DIMSTYLE
105
18909
330
A
100
AcDbSymbolTableRecord
100
AcDbDimStyleTableRecord
  2
AUDIT_I_030306140827-1
 70
     0
  3

  4

  5

  6

  7

 40
1.0
 41
3.0
 42
2.0
 43
8.0
 44
2.0
 45
0.0
 46
0.0
 47
0.0
 48
0.0
140
3.0
141
-1.0
142
0.0
143
25.4
144
1.0
145
0.0
146
1.0
147
1.5
 71
     0
 72
     0
 73
     1
 74
     1
 75
     0
 76
     0
 77
     0
 78
     0
170
     0
171
     2
172
     0
173
     0
174
     0
175
     0
176
     0
177
     0
178
     0
270
     2
271
     2
272
     2
273
     2
274
     2
340
11
275
     0
280
     0
281
     0
282
     0
283
     1
284
     0
285
     0
286
     0
287
     5
288
     0
  0
ENDTAB
  0
TABLE
  2
BLOCK_RECORD
  5
1
330
0
100
AcDbSymbolTable
 70
    19
  0
BLOCK_RECORD
  5
1F
102
{ACAD_XDICTIONARY
360
3A4
102
}
330
1
100
AcDbSymbolTableRecord
100
AcDbBlockTableRecord
  2
*MODEL_SPACE
  0
BLOCK_RECORD
  5
1B
102
{ACAD_XDICTIONARY
360
28AD1
102
}
330
1
100
AcDbSymbolTableRecord
100
AcDbBlockTableRecord
  2
*PAPER_SPACE
  0
BLOCK_RECORD
  5
990
330
1
100
AcDbSymbolTableRecord
100
AcDbBlockTableRecord
  2
GENAXEH
  0
BLOCK_RECORD
  5
23D5D
330
1
100
AcDbSymbolTableRecord
100
AcDbBlockTableRecord
  2
A$C75484636
  0
BLOCK_RECORD
  5
26A29
330
1
100
AcDbSymbolTableRecord
100
AcDbBlockTableRecord
  2
*D3
  0
BLOCK_RECORD
  5
26A36
330
1
100
AcDbSymbolTableRecord
100
AcDbBlockTableRecord
  2
*D4
  0
BLOCK_RECORD
  5
26A45
330
1
100
AcDbSymbolTableRecord
100
AcDbBlockTableRecord
  2
*D5
  0
BLOCK_RECORD
  5
26A52
330
1
100
AcDbSymbolTableRecord
100
AcDbBlockTableRecord
  2
*D6
  0
BLOCK_RECORD
  5
26A5F
330
1
100
AcDbSymbolTableRecord
100
AcDbBlockTableRecord
  2
*D7
  0
BLOCK_RECORD
  5
26A6C
330
1
100
AcDbSymbolTableRecord
100
AcDbBlockTableRecord
  2
*D8
  0
BLOCK_RECORD
  5
26A88
330
1
100
AcDbSymbolTableRecord
100
AcDbBlockTableRecord
  2
*D9
  0
BLOCK_RECORD
  5
26A97
330
1
100
AcDbSymbolTableRecord
100
AcDbBlockTableRecord
  2
*D10
  0
BLOCK_RECORD
  5
26AA4
330
1
100
AcDbSymbolTableRecord
100
AcDbBlockTableRecord
  2
*D11
  0
BLOCK_RECORD
  5
26AB1
330
1
100
AcDbSymbolTableRecord
100
AcDbBlockTableRecord
  2
*D12
  0
BLOCK_RECORD
  5
26ABE
330
1
100
AcDbSymbolTableRecord
100
AcDbBlockTableRecord
  2
*D13
  0
BLOCK_RECORD
  5
26ACB
330
1
100
AcDbSymbolTableRecord
100
AcDbBlockTableRecord
  2
*D14
  0
BLOCK_RECORD
  5
26AD8
330
1
100
AcDbSymbolTableRecord
100
AcDbBlockTableRecord
  2
*D15
  0
BLOCK_RECORD
  5
2A3D4
330
1
100
AcDbSymbolTableRecord
100
AcDbBlockTableRecord
  2
*S16
  0
BLOCK_RECORD
  5
2A3DD
330
1
100
AcDbSymbolTableRecord
100
AcDbBlockTableRecord
  2
*S17
  0
BLOCK_RECORD
  5
2A3E5
330
1
100
AcDbSymbolTableRecord
100
AcDbBlockTableRecord
  2
*S18
  0
ENDTAB
  0
ENDSEC
  0
SECTION
  2
BLOCKS
  0
BLOCK
  5
20
330
1F
100
AcDbEntity
  8
0
100
AcDbBlockBegin
  2
*MODEL_SPACE
 70
     0
 10
0.0
 20
0.0
 30
0.0
  3
*MODEL_SPACE
  1

  0
ENDBLK
  5
21
330
1F
100
AcDbEntity
  8
0
100
AcDbBlockEnd
  0
BLOCK
  5
1C
330
1B
100
AcDbEntity
 67
     1
  8
0
100
AcDbBlockBegin
  2
*PAPER_SPACE
 70
     0
 10
0.0
 20
0.0
 30
0.0
  3
*PAPER_SPACE
  1

  0
ENDBLK
  5
1D
330
1B
100
AcDbEntity
 67
     1
  8
0
100
AcDbBlockEnd
  0
BLOCK
  5
992
330
990
100
AcDbEntity
  8
0
100
AcDbBlockBegin
  2
GENAXEH
 70
     0
 10
0.0
 20
0.0
 30
0.0
  3
GENAXEH
  1

  0
LINE
  5
991
330
990
100
AcDbEntity
  8
0
100
AcDbLine
 10
-1.0
 20
0.0
 30
0.0
 11
1.0
 21
0.0
 31
0.0
  0
ENDBLK
  5
993
330
990
100
AcDbEntity
  8
0
100
AcDbBlockEnd
  0
BLOCK
  5
23D6B
330
23D5D
100
AcDbEntity
  8
0
100
AcDbBlockBegin
  2
A$C75484636
 70
     0
 10
0.0
 20
0.0
 30
0.0
  3
A$C75484636
  1

  0
LINE
  5
23D5E
330
23D5D
100
AcDbEntity
  8
AM_0N
100
AcDbLine
 10
1.149999754443911
 20
3.005000206466093
 30
0.0
 11
2.494999754443938
 21
3.005000206466093
 31
0.0
1001
GENIUS_GENOREF_13
1005
0
  0
LINE
  5
23D5F
330
23D5D
100
AcDbEntity
  8
AM_0N
100
AcDbLine
 10
1.149999754443911
 20
2.495000206466102
 30
0.0
 11
2.494999754443938
 21
2.495000206466102
 31
0.0
1001
GENIUS_GENOREF_13
1005
0
  0
CIRCLE
  5
23D60
330
23D5D
100
AcDbEntity
  8
AM_0N
100
AcDbCircle
 10
2.749999754443933
 20
2.750000206466097
 30
0.0
 40
2.75
1001
GENIUS_GENOREF_13
1005
0
  0
LINE
  5
23D61
330
23D5D
100
AcDbEntity
  8
AM_0N
100
AcDbLine
 10
1.149999754443911
 20
3.005000206466093
 30
0.0
 11
1.149999754443911
 21
2.495000206466102
 31
0.0
1001
GENIUS_GENOREF_13
1005
0
  0
LINE
  5
23D62
330
23D5D
100
AcDbEntity
  8
AM_0N
100
AcDbLine
 10
3.004999754443929
 20
4.35000020646612
 30
0.0
 11
2.494999754443938
 21
4.35000020646612
 31
0.0
1001
GENIUS_GENOREF_13
1005
0
  0
LINE
  5
23D63
330
23D5D
100
AcDbEntity
  8
AM_0N
100
AcDbLine
 10
3.004999754443929
 20
2.495000206466102
 30
0.0
 11
4.349999754443956
 21
2.495000206466102
 31
0.0
1001
GENIUS_GENOREF_13
1005
0
  0
LINE
  5
23D64
330
23D5D
100
AcDbEntity
  8
AM_0N
100
AcDbLine
 10
3.004999754443929
 20
3.005000206466093
 30
0.0
 11
4.349999754443956
 21
3.005000206466093
 31
0.0
1001
GENIUS_GENOREF_13
1005
0
  0
LINE
  5
23D65
330
23D5D
100
AcDbEntity
  8
AM_0N
100
AcDbLine
 10
3.004999754443929
 20
1.150000206466074
 30
0.0
 11
2.494999754443938
 21
1.150000206466074
 31
0.0
1001
GENIUS_GENOREF_13
1005
0
  0
LINE
  5
23D66
330
23D5D
100
AcDbEntity
  8
AM_0N
100
AcDbLine
 10
2.494999754443938
 20
2.495000206466102
 30
0.0
 11
2.494999754443938
 21
1.150000206466074
 31
0.0
1001
GENIUS_GENOREF_13
1005
0
  0
LINE
  5
23D67
330
23D5D
100
AcDbEntity
  8
AM_0N
100
AcDbLine
 10
3.004999754443929
 20
2.495000206466102
 30
0.0
 11
3.004999754443929
 21
1.150000206466074
 31
0.0
1001
GENIUS_GENOREF_13
1005
0
  0
LINE
  5
23D68
330
23D5D
100
AcDbEntity
  8
AM_0N
100
AcDbLine
 10
4.349999754443956
 20
3.005000206466093
 30
0.0
 11
4.349999754443956
 21
2.495000206466102
 31
0.0
1001
GENIUS_GENOREF_13
1005
0
  0
LINE
  5
23D69
330
23D5D
100
AcDbEntity
  8
AM_0N
100
AcDbLine
 10
2.494999754443938
 20
4.35000020646612
 30
0.0
 11
2.494999754443938
 21
3.005000206466093
 31
0.0
1001
GENIUS_GENOREF_13
1005
0
  0
LINE
  5
23D6A
330
23D5D
100
AcDbEntity
  8
AM_0N
100
AcDbLine
 10
3.004999754443929
 20
4.35000020646612
 30
0.0
 11
3.004999754443929
 21
3.005000206466093
 31
0.0
1001
GENIUS_GENOREF_13
1005
0
  0
ENDBLK
  5
23D6C
330
23D5D
100
AcDbEntity
  8
0
100
AcDbBlockEnd
  0
BLOCK
  5
26A33
330
26A29
100
AcDbEntity
  8
0
 62
     1
100
AcDbBlockBegin
  2
*D3
 70
     1
 10
0.0
 20
0.0
 30
0.0
  3
*D3
  1

  0
LINE
  5
2A2BA
330
26A29
100
AcDbEntity
  8
AM_REFDIM
100
AcDbLine
 10
2093.99567238507
 20
515.3128446299249
 30
0.0
 11
2093.99567238507
 21
517.8543413011157
 31
0.0
  0
LINE
  5
2A2BB
330
26A29
100
AcDbEntity
  8
AM_REFDIM
100
AcDbLine
 10
2165.99567238507
 20
492.3128446299249
 30
0.0
 11
2165.99567238507
 21
517.8543413011157
 31
0.0
  0
LINE
  5
2A2BC
330
26A29
100
AcDbEntity
  8
AM_REFDIM
100
AcDbLine
 10
2096.99567238507
 20
515.8543413011157
 30
0.0
 11
2162.99567238507
 21
515.8543413011157
 31
0.0
  0
SOLID
  5
2A2BD
330
26A29
100
AcDbEntity
  8
AM_REFDIM
100
AcDbTrace
 10
2096.99567238507
 20
516.3543413011157
 30
0.0
 11
2096.99567238507
 21
515.3543413011156
 31
0.0
 12
2093.99567238507
 22
515.8543413011157
 32
0.0
 13
2093.99567238507
 23
515.8543413011157
 33
0.0
  0
SOLID
  5
2A2BE
330
26A29
100
AcDbEntity
  8
AM_REFDIM
100
AcDbTrace
 10
2162.99567238507
 20
516.3543413011157
 30
0.0
 11
2162.99567238507
 21
515.3543413011156
 31
0.0
 12
2165.99567238507
 22
515.8543413011157
 32
0.0
 13
2165.99567238507
 23
515.8543413011157
 33
0.0
  0
MTEXT
  5
2A2BF
330
26A29
100
AcDbEntity
  8
AM_REFDIM
100
AcDbMText
 10
2129.99567238507
 20
518.1543413011156
 30
0.0
 40
3.0
 41
0.0
 71
     5
 72
     1
  1
\A1;72
  7
CHINESET
1001
ACAD
1000
MTEXTBEGIN
1070
    73
1070
     1
1070
    44
1040
1.0
1070
    74
1070
     0
1000
MTEXTEND
  0
POINT
  5
2A2C0
330
26A29
100
AcDbEntity
  8
DEFPOINTS
 62
     0
100
AcDbPoint
 10
2093.99567238507
 20
513.8128446299249
 30
0.0
  0
POINT
  5
2A2C1
330
26A29
100
AcDbEntity
  8
DEFPOINTS
 62
     0
100
AcDbPoint
 10
2165.99567238507
 20
490.8128446299249
 30
0.0
  0
POINT
  5
2A2C2
330
26A29
100
AcDbEntity
  8
DEFPOINTS
 62
     0
100
AcDbPoint
 10
2165.99567238507
 20
515.8543413011157
 30
0.0
  0
ENDBLK
  5
26A34
330
26A29
100
AcDbEntity
  8
0
 62
     1
100
AcDbBlockEnd
  0
BLOCK
  5
26A42
330
26A36
100
AcDbEntity
  8
0
 62
     1
100
AcDbBlockBegin
  2
*D4
 70
     1
 10
0.0
 20
0.0
 30
0.0
  3
*D4
  1

  0
LINE
  5
2A2C3
330
26A36
100
AcDbEntity
  8
AM_REFDIM
100
AcDbLine
 10
2102.74567238507
 20
499.0628446299249
 30
0.0
 11
2071.40552609457
 21
499.0628446299249
 31
0.0
  0
LINE
  5
2A2C4
330
26A36
100
AcDbEntity
  8
AM_REFDIM
100
AcDbLine
 10
2129.74567238507
 20
494.5628446299249
 30
0.0
 11
2071.40552609457
 21
494.5628446299249
 31
0.0
  0
LINE
  5
2A2C5
330
26A36
100
AcDbEntity
  8
AM_REFDIM
100
AcDbLine
 10
2073.405526094571
 20
502.0628446299249
 30
0.0
 11
2073.405526094571
 21
505.0628446299249
 31
0.0
  0
LINE
  5
2A2C6
330
26A36
100
AcDbEntity
  8
AM_REFDIM
100
AcDbLine
 10
2073.405526094571
 20
491.5628446299249
 30
0.0
 11
2073.405526094571
 21
480.6771303442106
 31
0.0
  0
LINE
  5
2A2C7
330
26A36
100
AcDbEntity
  8
AM_REFDIM
100
AcDbLine
 10
2073.405526094571
 20
499.0628446299249
 30
0.0
 11
2073.405526094571
 21
494.5628446299249
 31
0.0
  0
SOLID
  5
2A2C8
330
26A36
100
AcDbEntity
  8
AM_REFDIM
100
AcDbTrace
 10
2072.905526094571
 20
502.0628446299249
 30
0.0
 11
2073.905526094571
 21
502.0628446299249
 31
0.0
 12
2073.405526094571
 22
499.0628446299249
 32
0.0
 13
2073.405526094571
 23
499.0628446299249
 33
0.0
  0
SOLID
  5
2A2C9
330
26A36
100
AcDbEntity
  8
AM_REFDIM
100
AcDbTrace
 10
2072.905526094571
 20
491.5628446299249
 30
0.0
 11
2073.905526094571
 21
491.5628446299249
 31
0.0
 12
2073.405526094571
 22
494.5628446299249
 32
0.0
 13
2073.405526094571
 23
494.5628446299249
 33
0.0
  0
MTEXT
  5
2A2CA
330
26A36
100
AcDbEntity
  8
AM_REFDIM
100
AcDbMText
 10
2071.105526094571
 20
484.6199874870682
 30
0.0
 40
3.0
 41
0.0
 71
     5
 72
     1
  1
\A1;4.5
  7
CHINESET
 11
0.0000000000000001
 21
1.0
 31
0.0
1001
ACAD
1000
MTEXTBEGIN
1070
    73
1070
     1
1070
    44
1040
1.0
1070
    74
1070
     0
1000
MTEXTEND
  0
POINT
  5
2A2CB
330
26A36
100
AcDbEntity
  8
DEFPOINTS
 62
     0
100
AcDbPoint
 10
2104.24567238507
 20
499.0628446299249
 30
0.0
  0
POINT
  5
2A2CC
330
26A36
100
AcDbEntity
  8
DEFPOINTS
 62
     0
100
AcDbPoint
 10
2131.24567238507
 20
494.5628446299249
 30
0.0
  0
POINT
  5
2A2CD
330
26A36
100
AcDbEntity
  8
DEFPOINTS
 62
     0
100
AcDbPoint
 10
2073.405526094571
 20
494.5628446299249
 30
0.0
  0
ENDBLK
  5
26A43
330
26A36
100
AcDbEntity
  8
0
 62
     1
100
AcDbBlockEnd
  0
BLOCK
  5
26A4F
330
26A45
100
AcDbEntity
  8
0
 62
     1
100
AcDbBlockBegin
  2
*D5
 70
     1
 10
0.0
 20
0.0
 30
0.0
  3
*D5
  1

  0
LINE
  5
2A2CE
330
26A45
100
AcDbEntity
  8
AM_REFDIM
100
AcDbLine
 10
2086.99567238507
 20
508.3128446299249
 30
0.0
 11
2064.106883228871
 21
508.3128446299249
 31
0.0
  0
LINE
  5
2A2CF
330
26A45
100
AcDbEntity
  8
AM_REFDIM
100
AcDbLine
 10
2158.99567238507
 20
485.3128446299249
 30
0.0
 11
2064.106883228871
 21
485.3128446299249
 31
0.0
  0
LINE
  5
2A2D0
330
26A45
100
AcDbEntity
  8
AM_REFDIM
100
AcDbLine
 10
2066.106883228871
 20
505.3128446299249
 30
0.0
 11
2066.106883228871
 21
488.3128446299249
 31
0.0
  0
SOLID
  5
2A2D1
330
26A45
100
AcDbEntity
  8
AM_REFDIM
100
AcDbTrace
 10
2065.606883228871
 20
505.3128446299249
 30
0.0
 11
2066.606883228871
 21
505.3128446299249
 31
0.0
 12
2066.106883228871
 22
508.3128446299249
 32
0.0
 13
2066.106883228871
 23
508.3128446299249
 33
0.0
  0
SOLID
  5
2A2D2
330
26A45
100
AcDbEntity
  8
AM_REFDIM
100
AcDbTrace
 10
2065.606883228871
 20
488.3128446299249
 30
0.0
 11
2066.606883228871
 21
488.3128446299249
 31
0.0
 12
2066.106883228871
 22
485.3128446299249
 32
0.0
 13
2066.106883228871
 23
485.3128446299249
 33
0.0
  0
MTEXT
  5
2A2D3
330
26A45
100
AcDbEntity
  8
AM_REFDIM
100
AcDbMText
 10
2063.806883228871
 20
496.8128446299252
 30
0.0
 40
3.0
 41
0.0
 71
     5
 72
     1
  1
\A1;23
  7
CHINESET
 11
0.0000000000000001
 21
1.0
 31
0.0
1001
ACAD
1000
MTEXTBEGIN
1070
    73
1070
     1
1070
    44
1040
1.0
1070
    74
1070
     0
1000
MTEXTEND
  0
POINT
  5
2A2D4
330
26A45
100
AcDbEntity
  8
DEFPOINTS
 62
     0
100
AcDbPoint
 10
2088.49567238507
 20
508.3128446299249
 30
0.0
  0
POINT
  5
2A2D5
330
26A45
100
AcDbEntity
  8
DEFPOINTS
 62
     0
100
AcDbPoint
 10
2160.49567238507
 20
485.3128446299249
 30
0.0
  0
POINT
  5
2A2D6
330
26A45
100
AcDbEntity
  8
DEFPOINTS
 62
     0
100
AcDbPoint
 10
2066.106883228871
 20
485.3128446299249
 30
0.0
  0
ENDBLK
  5
26A50
330
26A45
100
AcDbEntity
  8
0
 62
     1
100
AcDbBlockEnd
  0
BLOCK
  5
26A5C
330
26A52
100
AcDbEntity
  8
0
 62
     1
100
AcDbBlockBegin
  2
*D6
 70
     1
 10
0.0
 20
0.0
 30
0.0
  3
*D6
  1

  0
LINE
  5
2A2D7
330
26A52
100
AcDbEntity
  8
AM_REFDIM
100
AcDbLine
 10
2078.49567238507
 20
511.8128446299249
 30
0.0
 11
2055.616374017038
 21
511.8128446299249
 31
0.0
  0
LINE
  5
2A2D8
330
26A52
100
AcDbEntity
  8
AM_REFDIM
100
AcDbLine
 10
2078.49567238507
 20
481.8128446299249
 30
0.0
 11
2055.616374017038
 21
481.8128446299249
 31
0.0
  0
LINE
  5
2A2D9
330
26A52
100
AcDbEntity
  8
AM_REFDIM
100
AcDbLine
 10
2057.616374017038
 20
508.8128446299249
 30
0.0
 11
2057.616374017038
 21
484.8128446299249
 31
0.0
  0
SOLID
  5
2A2DA
330
26A52
100
AcDbEntity
  8
AM_REFDIM
100
AcDbTrace
 10
2057.116374017038
 20
508.8128446299249
 30
0.0
 11
2058.116374017038
 21
508.8128446299249
 31
0.0
 12
2057.616374017038
 22
511.8128446299249
 32
0.0
 13
2057.616374017038
 23
511.8128446299249
 33
0.0
  0
SOLID
  5
2A2DB
330
26A52
100
AcDbEntity
  8
AM_REFDIM
100
AcDbTrace
 10
2057.116374017038
 20
484.8128446299249
 30
0.0
 11
2058.116374017038
 21
484.8128446299249
 31
0.0
 12
2057.616374017038
 22
481.8128446299249
 32
0.0
 13
2057.616374017038
 23
481.8128446299249
 33
0.0
  0
MTEXT
  5
2A2DC
330
26A52
100
AcDbEntity
  8
AM_REFDIM
100
AcDbMText
 10
2055.316374017038
 20
496.8128446299252
 30
0.0
 40
3.0
 41
0.0
 71
     5
 72
     1
  1
\A1;30
  7
CHINESET
 11
0.0000000000000001
 21
1.0
 31
0.0
1001
ACAD
1000
MTEXTBEGIN
1070
    73
1070
     1
1070
    44
1040
1.0
1070
    74
1070
     0
1000
MTEXTEND
  0
POINT
  5
2A2DD
330
26A52
100
AcDbEntity
  8
DEFPOINTS
 62
     0
100
AcDbPoint
 10
2079.99567238507
 20
511.8128446299249
 30
0.0
  0
POINT
  5
2A2DE
330
26A52
100
AcDbEntity
  8
DEFPOINTS
 62
     0
100
AcDbPoint
 10
2079.99567238507
 20
481.8128446299249
 30
0.0
  0
POINT
  5
2A2DF
330
26A52
100
AcDbEntity
  8
DEFPOINTS
 62
     0
100
AcDbPoint
 10
2057.616374017038
 20
481.8128446299249
 30
0.0
  0
ENDBLK
  5
26A5D
330
26A52
100
AcDbEntity
  8
0
 62
     1
100
AcDbBlockEnd
  0
BLOCK
  5
26A69
330
26A5F
100
AcDbEntity
  8
0
 62
     1
100
AcDbBlockBegin
  2
*D7
 70
     1
 10
0.0
 20
0.0
 30
0.0
  3
*D7
  1

  0
LINE
  5
2A2E0
330
26A5F
100
AcDbEntity
  8
AM_REFDIM
100
AcDbLine
 10
2116.49567238507
 20
485.3128446299249
 30
0.0
 11
2116.49567238507
 21
473.4476718636142
 31
0.0
  0
LINE
  5
2A2E1
330
26A5F
100
AcDbEntity
  8
AM_REFDIM
100
AcDbLine
 10
2143.49567238507
 20
480.8128446299249
 30
0.0
 11
2143.49567238507
 21
473.4476718636142
 31
0.0
  0
LINE
  5
2A2E2
330
26A5F
100
AcDbEntity
  8
AM_REFDIM
100
AcDbLine
 10
2119.49567238507
 20
475.4476718636142
 30
0.0
 11
2140.49567238507
 21
475.4476718636142
 31
0.0
  0
SOLID
  5
2A2E3
330
26A5F
100
AcDbEntity
  8
AM_REFDIM
100
AcDbTrace
 10
2119.49567238507
 20
475.9476718636142
 30
0.0
 11
2119.49567238507
 21
474.9476718636142
 31
0.0
 12
2116.49567238507
 22
475.4476718636142
 32
0.0
 13
2116.49567238507
 23
475.4476718636142
 33
0.0
  0
SOLID
  5
2A2E4
330
26A5F
100
AcDbEntity
  8
AM_REFDIM
100
AcDbTrace
 10
2140.49567238507
 20
475.9476718636142
 30
0.0
 11
2140.49567238507
 21
474.9476718636142
 31
0.0
 12
2143.49567238507
 22
475.4476718636142
 32
0.0
 13
2143.49567238507
 23
475.4476718636142
 33
0.0
  0
MTEXT
  5
2A2E5
330
26A5F
100
AcDbEntity
  8
AM_REFDIM
100
AcDbMText
 10
2129.99567238507
 20
477.7476718636142
 30
0.0
 40
3.0
 41
0.0
 71
     5
 72
     1
  1
\A1;27
  7
CHINESET
1001
ACAD
1000
MTEXTBEGIN
1070
    73
1070
     1
1070
    44
1040
1.0
1070
    74
1070
     0
1000
MTEXTEND
  0
POINT
  5
2A2E6
330
26A5F
100
AcDbEntity
  8
DEFPOINTS
 62
     0
100
AcDbPoint
 10
2116.49567238507
 20
486.8128446299249
 30
0.0
  0
POINT
  5
2A2E7
330
26A5F
100
AcDbEntity
  8
DEFPOINTS
 62
     0
100
AcDbPoint
 10
2143.49567238507
 20
482.3128446299249
 30
0.0
  0
POINT
  5
2A2E8
330
26A5F
100
AcDbEntity
  8
DEFPOINTS
 62
     0
100
AcDbPoint
 10
2143.49567238507
 20
475.4476718636142
 30
0.0
  0
ENDBLK
  5
26A6A
330
26A5F
100
AcDbEntity
  8
0
 62
     1
100
AcDbBlockEnd
  0
BLOCK
  5
26A76
330
26A6C
100
AcDbEntity
  8
0
 62
     1
100
AcDbBlockBegin
  2
*D8
 70
     1
 10
0.0
 20
0.0
 30
0.0
  3
*D8
  1

  0
LINE
  5
2A2E9
330
26A6C
100
AcDbEntity
  8
AM_REFDIM
100
AcDbLine
 10
2078.99567238507
 20
481.3128446299249
 30
0.0
 11
2078.99567238507
 21
459.9535858214885
 31
0.0
  0
LINE
  5
2A2EA
330
26A6C
100
AcDbEntity
  8
AM_REFDIM
100
AcDbLine
 10
2247.49567238507
 20
486.2181863085955
 30
0.0
 11
2247.49567238507
 21
459.9535858214885
 31
0.0
  0
LINE
  5
2A2EB
330
26A6C
100
AcDbEntity
  8
AM_REFDIM
100
AcDbLine
 10
2081.99567238507
 20
461.9535858214885
 30
0.0
 11
2244.49567238507
 21
461.9535858214885
 31
0.0
  0
SOLID
  5
2A2EC
330
26A6C
100
AcDbEntity
  8
AM_REFDIM
100
AcDbTrace
 10
2081.99567238507
 20
462.4535858214885
 30
0.0
 11
2081.99567238507
 21
461.4535858214885
 31
0.0
 12
2078.99567238507
 22
461.9535858214885
 32
0.0
 13
2078.99567238507
 23
461.9535858214885
 33
0.0
  0
SOLID
  5
2A2ED
330
26A6C
100
AcDbEntity
  8
AM_REFDIM
100
AcDbTrace
 10
2244.49567238507
 20
462.4535858214885
 30
0.0
 11
2244.49567238507
 21
461.4535858214885
 31
0.0
 12
2247.49567238507
 22
461.9535858214885
 32
0.0
 13
2247.49567238507
 23
461.9535858214885
 33
0.0
  0
MTEXT
  5
2A2EE
330
26A6C
100
AcDbEntity
  8
AM_REFDIM
100
AcDbMText
 10
2163.24567238507
 20
464.2535858214885
 30
0.0
 40
3.0
 41
0.0
 71
     5
 72
     1
  1
\A1;168.5
  7
CHINESET
1001
ACAD
1000
MTEXTBEGIN
1070
    73
1070
     1
1070
    44
1040
1.0
1070
    74
1070
     0
1000
MTEXTEND
  0
POINT
  5
2A2EF
330
26A6C
100
AcDbEntity
  8
DEFPOINTS
 62
     0
100
AcDbPoint
 10
2078.99567238507
 20
482.8128446299249
 30
0.0
  0
POINT
  5
2A2F0
330
26A6C
100
AcDbEntity
  8
DEFPOINTS
 62
     0
100
AcDbPoint
 10
2247.49567238507
 20
487.7181863085954
 30
0.0
  0
POINT
  5
2A2F1
330
26A6C
100
AcDbEntity
  8
DEFPOINTS
 62
     0
100
AcDbPoint
 10
2247.49567238507
 20
461.9535858214885
 30
0.0
  0
ENDBLK
  5
26A77
330
26A6C
100
AcDbEntity
  8
0
 62
     1
100
AcDbBlockEnd
  0
BLOCK
  5
26A94
330
26A88
100
AcDbEntity
  8
0
 62
     1
100
AcDbBlockBegin
  2
*D9
 70
     1
 10
0.0
 20
0.0
 30
0.0
  3
*D9
  1

  0
LINE
  5
2A2F2
330
26A88
100
AcDbEntity
  8
AM_REFDIM
100
AcDbLine
 10
2171.49567238507
 20
420.648728814461
 30
0.0
 11
2179.795058131282
 21
420.6487288144609
 31
0.0
  0
LINE
  5
2A2F3
330
26A88
100
AcDbEntity
  8
AM_REFDIM
100
AcDbLine
 10
2171.49567238507
 20
425.148728814461
 30
0.0
 11
2179.795058131282
 21
425.1487288144609
 31
0.0
  0
LINE
  5
2A2F4
330
26A88
100
AcDbEntity
  8
AM_REFDIM
100
AcDbLine
 10
2177.795058131283
 20
417.648728814461
 30
0.0
 11
2177.795058131283
 21
414.6487288144609
 31
0.0
  0
LINE
  5
2A2F5
330
26A88
100
AcDbEntity
  8
AM_REFDIM
100
AcDbLine
 10
2177.795058131283
 20
428.1487288144609
 30
0.0
 11
2177.795058131283
 21
439.0344431001753
 31
0.0
  0
LINE
  5
2A2F6
330
26A88
100
AcDbEntity
  8
AM_REFDIM
100
AcDbLine
 10
2177.795058131283
 20
420.6487288144609
 30
0.0
 11
2177.795058131283
 21
425.1487288144609
 31
0.0
  0
SOLID
  5
2A2F7
330
26A88
100
AcDbEntity
  8
AM_REFDIM
100
AcDbTrace
 10
2177.295058131283
 20
417.648728814461
 30
0.0
 11
2178.295058131282
 21
417.648728814461
 31
0.0
 12
2177.795058131283
 22
420.6487288144609
 32
0.0
 13
2177.795058131283
 23
420.6487288144609
 33
0.0
  0
SOLID
  5
2A2F8
330
26A88
100
AcDbEntity
  8
AM_REFDIM
100
AcDbTrace
 10
2177.295058131283
 20
428.1487288144609
 30
0.0
 11
2178.295058131282
 21
428.1487288144609
 31
0.0
 12
2177.795058131283
 22
425.1487288144609
 32
0.0
 13
2177.795058131283
 23
425.1487288144609
 33
0.0
  0
MTEXT
  5
2A2F9
330
26A88
100
AcDbEntity
  8
AM_REFDIM
100
AcDbMText
 10
2175.495058131283
 20
435.0915859573184
 30
0.0
 40
3.0
 41
0.0
 71
     5
 72
     1
  1
\A1;4.5
  7
CHINESET
 11
0.0000000000000001
 21
1.0
 31
0.0
1001
ACAD
1000
MTEXTBEGIN
1070
    73
1070
     1
1070
    44
1040
1.0
1070
    74
1070
     0
1000
MTEXTEND
  0
POINT
  5
2A2FA
330
26A88
100
AcDbEntity
  8
DEFPOINTS
 62
     0
100
AcDbPoint
 10
2169.99567238507
 20
420.648728814461
 30
0.0
  0
POINT
  5
2A2FB
330
26A88
100
AcDbEntity
  8
DEFPOINTS
 62
     0
100
AcDbPoint
 10
2169.99567238507
 20
425.148728814461
 30
0.0
  0
POINT
  5
2A2FC
330
26A88
100
AcDbEntity
  8
DEFPOINTS
 62
     0
100
AcDbPoint
 10
2177.795058131283
 20
425.1487288144609
 30
0.0
  0
ENDBLK
  5
26A95
330
26A88
100
AcDbEntity
  8
0
 62
     1
100
AcDbBlockEnd
  0
BLOCK
  5
26AA1
330
26A97
100
AcDbEntity
  8
0
 62
     1
100
AcDbBlockBegin
  2
*D10
 70
     1
 10
0.0
 20
0.0
 30
0.0
  3
*D10
  1

  0
LINE
  5
2A2FD
330
26A97
100
AcDbEntity
  8
AM_REFDIM
100
AcDbLine
 10
2087.29567238507
 20
375.1487288144611
 30
0.0
 11
2071.14707377058
 21
375.1487288144611
 31
0.0
  0
LINE
  5
2A2FE
330
26A97
100
AcDbEntity
  8
AM_REFDIM
100
AcDbLine
 10
2110.24567238507
 20
383.948728814461
 30
0.0
 11
2071.14707377058
 21
383.948728814461
 31
0.0
  0
LINE
  5
2A2FF
330
26A97
100
AcDbEntity
  8
AM_REFDIM
100
AcDbLine
 10
2073.147073770579
 20
378.1487288144611
 30
0.0
 11
2073.147073770579
 21
380.9487288144611
 31
0.0
  0
SOLID
  5
2A300
330
26A97
100
AcDbEntity
  8
AM_REFDIM
100
AcDbTrace
 10
2072.64707377058
 20
378.1487288144611
 30
0.0
 11
2073.64707377058
 21
378.1487288144611
 31
0.0
 12
2073.147073770579
 22
375.1487288144611
 32
0.0
 13
2073.147073770579
 23
375.1487288144611
 33
0.0
  0
SOLID
  5
2A301
330
26A97
100
AcDbEntity
  8
AM_REFDIM
100
AcDbTrace
 10
2072.64707377058
 20
380.9487288144611
 30
0.0
 11
2073.64707377058
 21
380.9487288144611
 31
0.0
 12
2073.147073770579
 22
383.948728814461
 32
0.0
 13
2073.147073770579
 23
383.948728814461
 33
0.0
  0
MTEXT
  5
2A302
330
26A97
100
AcDbEntity
  8
AM_REFDIM
100
AcDbMText
 10
2070.847073770579
 20
379.5487288144614
 30
0.0
 40
3.0
 41
0.0
 71
     5
 72
     1
  1
\A1;8.8
  7
CHINESET
 11
0.0000000000000001
 21
1.0
 31
0.0
1001
ACAD
1000
MTEXTBEGIN
1070
    73
1070
     1
1070
    44
1040
1.0
1070
    74
1070
     0
1000
MTEXTEND
  0
POINT
  5
2A303
330
26A97
100
AcDbEntity
  8
DEFPOINTS
 62
     0
100
AcDbPoint
 10
2088.79567238507
 20
375.1487288144611
 30
0.0
  0
POINT
  5
2A304
330
26A97
100
AcDbEntity
  8
DEFPOINTS
 62
     0
100
AcDbPoint
 10
2111.74567238507
 20
383.948728814461
 30
0.0
  0
POINT
  5
2A305
330
26A97
100
AcDbEntity
  8
DEFPOINTS
 62
     0
100
AcDbPoint
 10
2073.147073770579
 20
383.948728814461
 30
0.0
  0
ENDBLK
  5
26AA2
330
26A97
100
AcDbEntity
  8
0
 62
     1
100
AcDbBlockEnd
  0
BLOCK
  5
26AAE
330
26AA4
100
AcDbEntity
  8
0
 62
     1
100
AcDbBlockBegin
  2
*D11
 70
     1
 10
0.0
 20
0.0
 30
0.0
  3
*D11
  1

  0
LINE
  5
2A306
330
26AA4
100
AcDbEntity
  8
AM_REFDIM
100
AcDbLine
 10
2087.29567238507
 20
425.148728814461
 30
0.0
 11
2061.508711745721
 21
425.148728814461
 31
0.0
  0
LINE
  5
2A307
330
26AA4
100
AcDbEntity
  8
AM_REFDIM
100
AcDbLine
 10
2087.29567238507
 20
375.1487288144611
 30
0.0
 11
2061.508711745721
 21
375.1487288144611
 31
0.0
  0
LINE
  5
2A308
330
26AA4
100
AcDbEntity
  8
AM_REFDIM
100
AcDbLine
 10
2063.508711745722
 20
422.148728814461
 30
0.0
 11
2063.508711745722
 21
378.1487288144611
 31
0.0
  0
SOLID
  5
2A309
330
26AA4
100
AcDbEntity
  8
AM_REFDIM
100
AcDbTrace
 10
2063.008711745721
 20
422.148728814461
 30
0.0
 11
2064.008711745722
 21
422.148728814461
 31
0.0
 12
2063.508711745722
 22
425.148728814461
 32
0.0
 13
2063.508711745722
 23
425.148728814461
 33
0.0
  0
SOLID
  5
2A30A
330
26AA4
100
AcDbEntity
  8
AM_REFDIM
100
AcDbTrace
 10
2063.008711745721
 20
378.1487288144611
 30
0.0
 11
2064.008711745722
 21
378.1487288144611
 31
0.0
 12
2063.508711745722
 22
375.1487288144611
 32
0.0
 13
2063.508711745722
 23
375.1487288144611
 33
0.0
  0
MTEXT
  5
2A30B
330
26AA4
100
AcDbEntity
  8
AM_REFDIM
100
AcDbMText
 10
2061.208711745722
 20
400.1487288144614
 30
0.0
 40
3.0
 41
0.0
 71
     5
 72
     1
  1
\A1;50
  7
CHINESET
 11
0.0000000000000001
 21
1.0
 31
0.0
1001
ACAD
1000
MTEXTBEGIN
1070
    73
1070
     1
1070
    44
1040
1.0
1070
    74
1070
     0
1000
MTEXTEND
  0
POINT
  5
2A30C
330
26AA4
100
AcDbEntity
  8
DEFPOINTS
 62
     0
100
AcDbPoint
 10
2088.79567238507
 20
425.148728814461
 30
0.0
  0
POINT
  5
2A30D
330
26AA4
100
AcDbEntity
  8
DEFPOINTS
 62
     0
100
AcDbPoint
 10
2088.79567238507
 20
375.1487288144611
 30
0.0
  0
POINT
  5
2A30E
330
26AA4
100
AcDbEntity
  8
DEFPOINTS
 62
     0
100
AcDbPoint
 10
2063.508711745722
 20
375.1487288144611
 30
0.0
  0
ENDBLK
  5
26AAF
330
26AA4
100
AcDbEntity
  8
0
 62
     1
100
AcDbBlockEnd
  0
BLOCK
  5
26ABB
330
26AB1
100
AcDbEntity
  8
0
 62
     1
100
AcDbBlockBegin
  2
*D12
 70
     1
 10
0.0
 20
0.0
 30
0.0
  3
*D12
  1

  0
LINE
  5
2A30F
330
26AB1
100
AcDbEntity
  8
AM_REFDIM
100
AcDbLine
 10
2115.49567238507
 20
378.6987288144611
 30
0.0
 11
2115.49567238507
 21
364.5401311383316
 31
0.0
  0
LINE
  5
2A310
330
26AB1
100
AcDbEntity
  8
AM_REFDIM
100
AcDbLine
 10
2144.49567238507
 20
378.6987288144611
 30
0.0
 11
2144.49567238507
 21
364.5401311383316
 31
0.0
  0
LINE
  5
2A311
330
26AB1
100
AcDbEntity
  8
AM_REFDIM
100
AcDbLine
 10
2118.49567238507
 20
366.5401311383316
 30
0.0
 11
2141.49567238507
 21
366.5401311383316
 31
0.0
  0
SOLID
  5
2A312
330
26AB1
100
AcDbEntity
  8
AM_REFDIM
100
AcDbTrace
 10
2118.49567238507
 20
367.0401311383316
 30
0.0
 11
2118.49567238507
 21
366.0401311383316
 31
0.0
 12
2115.49567238507
 22
366.5401311383316
 32
0.0
 13
2115.49567238507
 23
366.5401311383316
 33
0.0
  0
SOLID
  5
2A313
330
26AB1
100
AcDbEntity
  8
AM_REFDIM
100
AcDbTrace
 10
2141.49567238507
 20
367.0401311383316
 30
0.0
 11
2141.49567238507
 21
366.0401311383316
 31
0.0
 12
2144.49567238507
 22
366.5401311383316
 32
0.0
 13
2144.49567238507
 23
366.5401311383316
 33
0.0
  0
MTEXT
  5
2A314
330
26AB1
100
AcDbEntity
  8
AM_REFDIM
100
AcDbMText
 10
2129.99567238507
 20
368.8401311383316
 30
0.0
 40
3.0
 41
0.0
 71
     5
 72
     1
  1
\A1;29
  7
CHINESET
1001
ACAD
1000
MTEXTBEGIN
1070
    73
1070
     1
1070
    44
1040
1.0
1070
    74
1070
     0
1000
MTEXTEND
  0
POINT
  5
2A315
330
26AB1
100
AcDbEntity
  8
DEFPOINTS
 62
     0
100
AcDbPoint
 10
2115.49567238507
 20
380.1987288144611
 30
0.0
  0
POINT
  5
2A316
330
26AB1
100
AcDbEntity
  8
DEFPOINTS
 62
     0
100
AcDbPoint
 10
2144.49567238507
 20
380.1987288144611
 30
0.0
  0
POINT
  5
2A317
330
26AB1
100
AcDbEntity
  8
DEFPOINTS
 62
     0
100
AcDbPoint
 10
2144.49567238507
 20
366.5401311383316
 30
0.0
  0
ENDBLK
  5
26ABC
330
26AB1
100
AcDbEntity
  8
0
 62
     1
100
AcDbBlockEnd
  0
BLOCK
  5
26AC8
330
26ABE
100
AcDbEntity
  8
0
 62
     1
100
AcDbBlockBegin
  2
*D13
 70
     1
 10
0.0
 20
0.0
 30
0.0
  3
*D13
  1

  0
LINE
  5
2A318
330
26ABE
100
AcDbEntity
  8
AM_REFDIM
100
AcDbLine
 10
2100.99567238507
 20
371.3679059122121
 30
0.0
 11
2100.99567238507
 21
357.3340926582018
 31
0.0
  0
LINE
  5
2A319
330
26ABE
100
AcDbEntity
  8
AM_REFDIM
100
AcDbLine
 10
2158.99567238507
 20
371.3679059122121
 30
0.0
 11
2158.99567238507
 21
357.3340926582018
 31
0.0
  0
LINE
  5
2A31A
330
26ABE
100
AcDbEntity
  8
AM_REFDIM
100
AcDbLine
 10
2103.99567238507
 20
359.3340926582018
 30
0.0
 11
2155.99567238507
 21
359.3340926582018
 31
0.0
  0
SOLID
  5
2A31B
330
26ABE
100
AcDbEntity
  8
AM_REFDIM
100
AcDbTrace
 10
2103.99567238507
 20
359.8340926582018
 30
0.0
 11
2103.99567238507
 21
358.8340926582018
 31
0.0
 12
2100.99567238507
 22
359.3340926582018
 32
0.0
 13
2100.99567238507
 23
359.3340926582018
 33
0.0
  0
SOLID
  5
2A31C
330
26ABE
100
AcDbEntity
  8
AM_REFDIM
100
AcDbTrace
 10
2155.99567238507
 20
359.8340926582018
 30
0.0
 11
2155.99567238507
 21
358.8340926582018
 31
0.0
 12
2158.99567238507
 22
359.3340926582018
 32
0.0
 13
2158.99567238507
 23
359.3340926582018
 33
0.0
  0
MTEXT
  5
2A31D
330
26ABE
100
AcDbEntity
  8
AM_REFDIM
100
AcDbMText
 10
2129.99567238507
 20
361.6340926582018
 30
0.0
 40
3.0
 41
0.0
 71
     5
 72
     1
  1
\A1;58
  7
CHINESET
1001
ACAD
1000
MTEXTBEGIN
1070
    73
1070
     1
1070
    44
1040
1.0
1070
    74
1070
     0
1000
MTEXTEND
  0
POINT
  5
2A31E
330
26ABE
100
AcDbEntity
  8
DEFPOINTS
 62
     0
100
AcDbPoint
 10
2100.99567238507
 20
372.8679059122121
 30
0.0
  0
POINT
  5
2A31F
330
26ABE
100
AcDbEntity
  8
DEFPOINTS
 62
     0
100
AcDbPoint
 10
2158.99567238507
 20
372.8679059122121
 30
0.0
  0
POINT
  5
2A320
330
26ABE
100
AcDbEntity
  8
DEFPOINTS
 62
     0
100
AcDbPoint
 10
2158.99567238507
 20
359.3340926582018
 30
0.0
  0
ENDBLK
  5
26AC9
330
26ABE
100
AcDbEntity
  8
0
 62
     1
100
AcDbBlockEnd
  0
BLOCK
  5
26AD5
330
26ACB
100
AcDbEntity
  8
0
 62
     1
100
AcDbBlockBegin
  2
*D14
 70
     1
 10
0.0
 20
0.0
 30
0.0
  3
*D14
  1

  0
LINE
  5
2A321
330
26ACB
100
AcDbEntity
  8
AM_REFDIM
100
AcDbLine
 10
2172.69567238507
 20
375.148728814461
 30
0.0
 11
2255.671424343445
 21
375.1487288144609
 31
0.0
  0
LINE
  5
2A322
330
26ACB
100
AcDbEntity
  8
AM_REFDIM
100
AcDbLine
 10
2241.99567238507
 20
448.1487288144608
 30
0.0
 11
2255.671424343445
 21
448.1487288144608
 31
0.0
  0
LINE
  5
2A323
330
26ACB
100
AcDbEntity
  8
AM_REFDIM
100
AcDbLine
 10
2253.671424343445
 20
378.1487288144609
 30
0.0
 11
2253.671424343445
 21
445.1487288144607
 31
0.0
  0
SOLID
  5
2A324
330
26ACB
100
AcDbEntity
  8
AM_REFDIM
100
AcDbTrace
 10
2253.171424343445
 20
378.1487288144609
 30
0.0
 11
2254.171424343445
 21
378.1487288144609
 31
0.0
 12
2253.671424343445
 22
375.1487288144609
 32
0.0
 13
2253.671424343445
 23
375.1487288144609
 33
0.0
  0
SOLID
  5
2A325
330
26ACB
100
AcDbEntity
  8
AM_REFDIM
100
AcDbTrace
 10
2253.171424343445
 20
445.1487288144607
 30
0.0
 11
2254.171424343445
 21
445.1487288144607
 31
0.0
 12
2253.671424343445
 22
448.1487288144608
 32
0.0
 13
2253.671424343445
 23
448.1487288144608
 33
0.0
  0
MTEXT
  5
2A326
330
26ACB
100
AcDbEntity
  8
AM_REFDIM
100
AcDbMText
 10
2251.371424343445
 20
411.6487288144612
 30
0.0
 40
3.0
 41
0.0
 71
     5
 72
     1
  1
\A1;73
  7
CHINESET
 11
0.0000000000000001
 21
1.0
 31
0.0
1001
ACAD
1000
MTEXTBEGIN
1070
    73
1070
     1
1070
    44
1040
1.0
1070
    74
1070
     0
1000
MTEXTEND
  0
POINT
  5
2A327
330
26ACB
100
AcDbEntity
  8
DEFPOINTS
 62
     0
100
AcDbPoint
 10
2171.19567238507
 20
375.148728814461
 30
0.0
  0
POINT
  5
2A328
330
26ACB
100
AcDbEntity
  8
DEFPOINTS
 62
     0
100
AcDbPoint
 10
2240.49567238507
 20
448.1487288144608
 30
0.0
  0
POINT
  5
2A329
330
26ACB
100
AcDbEntity
  8
DEFPOINTS
 62
     0
100
AcDbPoint
 10
2253.671424343445
 20
448.1487288144608
 30
0.0
  0
ENDBLK
  5
26AD6
330
26ACB
100
AcDbEntity
  8
0
 62
     1
100
AcDbBlockEnd
  0
BLOCK
  5
26AE2
330
26AD8
100
AcDbEntity
  8
0
 62
     1
100
AcDbBlockBegin
  2
*D15
 70
     1
 10
0.0
 20
0.0
 30
0.0
  3
*D15
  1

  0
LINE
  5
2A32A
330
26AD8
100
AcDbEntity
  8
AM_REFDIM
100
AcDbLine
 10
2078.99567238507
 20
376.4487288144611
 30
0.0
 11
2078.99567238507
 21
348.517785310531
 31
0.0
  0
LINE
  5
2A32B
330
26AD8
100
AcDbEntity
  8
AM_REFDIM
100
AcDbLine
 10
2236.49567238507
 20
389.1487288144609
 30
0.0
 11
2236.49567238507
 21
348.517785310531
 31
0.0
  0
LINE
  5
2A32C
330
26AD8
100
AcDbEntity
  8
AM_REFDIM
100
AcDbLine
 10
2081.99567238507
 20
350.517785310531
 30
0.0
 11
2233.49567238507
 21
350.517785310531
 31
0.0
  0
SOLID
  5
2A32D
330
26AD8
100
AcDbEntity
  8
AM_REFDIM
100
AcDbTrace
 10
2081.99567238507
 20
351.017785310531
 30
0.0
 11
2081.99567238507
 21
350.017785310531
 31
0.0
 12
2078.99567238507
 22
350.517785310531
 32
0.0
 13
2078.99567238507
 23
350.517785310531
 33
0.0
  0
SOLID
  5
2A32E
330
26AD8
100
AcDbEntity
  8
AM_REFDIM
100
AcDbTrace
 10
2233.49567238507
 20
351.017785310531
 30
0.0
 11
2233.49567238507
 21
350.017785310531
 31
0.0
 12
2236.49567238507
 22
350.517785310531
 32
0.0
 13
2236.49567238507
 23
350.517785310531
 33
0.0
  0
MTEXT
  5
2A32F
330
26AD8
100
AcDbEntity
  8
AM_REFDIM
100
AcDbMText
 10
2157.74567238507
 20
352.817785310531
 30
0.0
 40
3.0
 41
0.0
 71
     5
 72
     1
  1
\A1;157.5
  7
CHINESET
1001
ACAD
1000
MTEXTBEGIN
1070
    73
1070
     1
1070
    44
1040
1.0
1070
    74
1070
     0
1000
MTEXTEND
  0
POINT
  5
2A330
330
26AD8
100
AcDbEntity
  8
DEFPOINTS
 62
     0
100
AcDbPoint
 10
2078.99567238507
 20
377.9487288144611
 30
0.0
  0
POINT
  5
2A331
330
26AD8
100
AcDbEntity
  8
DEFPOINTS
 62
     0
100
AcDbPoint
 10
2236.49567238507
 20
390.6487288144609
 30
0.0
  0
POINT
  5
2A332
330
26AD8
100
AcDbEntity
  8
DEFPOINTS
 62
     0
100
AcDbPoint
 10
2236.49567238507
 20
350.517785310531
 30
0.0
  0
ENDBLK
  5
26AE3
330
26AD8
100
AcDbEntity
  8
0
 62
     1
100
AcDbBlockEnd
  0
BLOCK
  5
2A3D9
330
2A3D4
100
AcDbEntity
  8
0
100
AcDbBlockBegin
  2
*S16
 70
     1
 10
0.0
 20
0.0
 30
0.0
  3
*S16
  1

  0
LINE
  5
2A3D5
330
2A3D4
100
AcDbEntity
  8
AM_5
100
AcDbLine
 10
2200.410412342492
 20
470.0961748741681
 30
0.0
 11
2179.296253467267
 21
470.0961748741681
 31
0.0
  0
LINE
  5
2A3D6
330
2A3D4
100
AcDbEntity
  8
AM_5
100
AcDbLine
 10
2179.296253467267
 20
470.0961748741681
 30
0.0
 11
2170.202769358527
 21
480.2960835848689
 31
0.0
  0
TRACE
  5
2A3D7
330
2A3D4
100
AcDbEntity
  8
AM_5
100
AcDbTrace
 10
2170.644982175922
 20
480.6903278219222
 30
0.0
 11
2169.760556541132
 21
479.9018393478156
 31
0.0
 12
2167.20818706015
 22
483.6550234262843
 32
0.0
 13
2167.20818706015
 23
483.6550234262843
 33
0.0
  0
MTEXT
  5
2A3D8
330
2A3D4
100
AcDbEntity
  8
AM_5
 62
     2
100
AcDbMText
 10
2200.410412342492
 20
463.2475362062769
 30
0.0
 40
8.75
 41
0.0
 71
     7
 72
     1
  1

  7
ACISOTS
210
0.0
220
0.0
230
-1.0
  0
ENDBLK
  5
2A3DA
330
2A3D4
100
AcDbEntity
  8
0
100
AcDbBlockEnd
  0
BLOCK
  5
2A3E2
330
2A3DD
100
AcDbEntity
  8
0
100
AcDbBlockBegin
  2
*S17
 70
     1
 10
0.0
 20
0.0
 30
0.0
  3
*S17
  1

  0
LINE
  5
2A3DE
330
2A3DD
100
AcDbEntity
  8
AM_5
100
AcDbLine
 10
2083.682041415624
 20
433.6875084943994
 30
0.0
 11
2106.572853936609
 21
433.6875084943994
 31
0.0
  0
LINE
  5
2A3DF
330
2A3DD
100
AcDbEntity
  8
AM_5
100
AcDbLine
 10
2106.572853936609
 20
433.6875084943994
 30
0.0
 11
2113.422433768037
 21
427.6526458535697
 31
0.0
  0
TRACE
  5
2A3E0
330
2A3DD
100
AcDbEntity
  8
AM_5
100
AcDbTrace
 10
2113.030789415783
 20
427.2081288171517
 30
0.0
 11
2113.814078120291
 21
428.0971628899878
 31
0.0
 12
2116.79887589065
 22
424.6778116409382
 32
0.0
 13
2116.79887589065
 23
424.6778116409382
 33
0.0
  0
MTEXT
  5
2A3E1
330
2A3DD
100
AcDbEntity
  8
AM_5
 62
     2
100
AcDbMText
 10
2083.682041415624
 20
426.8388698265082
 30
0.0
 40
8.75
 41
0.0
 71
     7
 72
     1
  1

  7
ACISOTS
 11
-1.0
 21
0.0
 31
0.0
  0
ENDBLK
  5
2A3E3
330
2A3DD
100
AcDbEntity
  8
0
100
AcDbBlockEnd
  0
BLOCK
  5
2A3EA
330
2A3E5
100
AcDbEntity
  8
0
100
AcDbBlockBegin
  2
*S18
 70
     1
 10
0.0
 20
0.0
 30
0.0
  3
*S18
  1

  0
LINE
  5
2A3E6
330
2A3E5
100
AcDbEntity
  8
AM_5
100
AcDbLine
 10
2188.237239347786
 20
360.9717429583454
 30
0.0
 11
2167.123080472561
 21
360.9717429583454
 31
0.0
  0
LINE
  5
2A3E7
330
2A3E5
100
AcDbEntity
  8
AM_5
100
AcDbLine
 10
2167.123080472561
 20
360.9717429583454
 30
0.0
 11
2149.351875540964
 21
379.2706073435752
 31
0.0
  0
TRACE
  5
2A3E8
330
2A3E5
100
AcDbEntity
  8
AM_5
100
AcDbTrace
 10
2149.776873954949
 20
379.6833506565775
 30
0.0
 11
2148.926877126978
 21
378.8578640305729
 31
0.0
 12
2146.216778809739
 22
382.4987908089103
 32
0.0
 13
2146.216778809739
 23
382.4987908089103
 33
0.0
  0
MTEXT
  5
2A3E9
330
2A3E5
100
AcDbEntity
  8
AM_5
 62
     2
100
AcDbMText
 10
2188.237239347786
 20
354.1231042904541
 30
0.0
 40
8.75
 41
0.0
 71
     7
 72
     1
  1

  7
ACISOTS
210
0.0
220
0.0
230
-1.0
  0
ENDBLK
  5
2A3EB
330
2A3E5
100
AcDbEntity
  8
0
100
AcDbBlockEnd
  0
ENDSEC
  0
SECTION
  2
ENTITIES
  0
MTEXT
  5
D622
330
1F
100
AcDbEntity
  8
AM_5
 62
     2
100
AcDbMText
 10
364.1980009625231
 20
217.5933376591914
 30
0.0
 40
3.5
 41
0.0
 71
     7
 72
     1
  1

  7
ACISOTS
1001
ACAD
1000
MTEXTBEGIN
1070
    73
1070
     1
1070
    44
1040
1.0
1070
    74
1070
     0
1000
MTEXTEND
  0
MTEXT
  5
D62D
330
1F
100
AcDbEntity
  8
AM_5
 62
     2
100
AcDbMText
 10
375.2854589832454
 20
224.3263974052412
 30
0.0
 40
3.5
 41
0.0
 71
     9
 72
     1
  1

  7
ACISOTS
1001
ACAD
1000
MTEXTBEGIN
1070
    73
1070
     1
1070
    44
1040
1.0
1070
    74
1070
     0
1000
MTEXTEND
  0
TEXT
  5
18C6F
330
1F
100
AcDbEntity
  8
LOGO
  6
CONTINUOUS
 62
     6
100
AcDbText
 10
1607.053940236462
 20
18.56092768566134
 30
0.0
 40
2.164502164502164
  1

  7
CHINESET
 72
     4
 11
1607.053940236462
 21
18.56092768566134
 31
0.0
100
AcDbText
  0
LINE
  5
18C70
330
1F
100
AcDbEntity
  8
AM_7
 60
     1
100
AcDbLine
 10
1703.42710757797
 20
494.4380328974459
 30
0.0
 11
1667.027107577969
 21
494.4380328974459
 31
0.0
  0
LINE
  5
18C71
330
1F
100
AcDbEntity
  8
AM_7
 60
     1
100
AcDbLine
 10
1598.77373621326
 20
494.4380328974459
 30
0.0
 11
1601.77373621326
 21
494.4380328974459
 31
0.0
  0
LINE
  5
18C72
330
1F
100
AcDbEntity
  8
AM_7
 60
     1
100
AcDbLine
 10
1600.27373621326
 20
492.9380328974458
 30
0.0
 11
1600.27373621326
 21
495.9380328974458
 31
0.0
  0
LINE
  5
18C73
330
1F
100
AcDbEntity
  8
AM_7
 60
     1
100
AcDbLine
 10
1591.27373621326
 20
494.4380328974459
 30
0.0
 11
1597.77373621326
 21
494.4380328974459
 31
0.0
  0
LINE
  5
18C74
330
1F
100
AcDbEntity
  8
AM_7
 60
     1
100
AcDbLine
 10
1602.77373621326
 20
494.4380328974459
 30
0.0
 11
1609.27373621326
 21
494.4380328974459
 31
0.0
  0
LINE
  5
18C75
330
1F
100
AcDbEntity
  8
AM_7
 60
     1
100
AcDbLine
 10
1600.27373621326
 20
485.4380328974458
 30
0.0
 11
1600.27373621326
 21
491.9380328974458
 31
0.0
  0
LINE
  5
18C76
330
1F
100
AcDbEntity
  8
AM_7
 60
     1
100
AcDbLine
 10
1600.27373621326
 20
496.9380328974458
 30
0.0
 11
1600.27373621326
 21
503.4380328974458
 31
0.0
  0
LINE
  5
18C77
330
1F
100
AcDbEntity
  8
AM_7
 60
     1
100
AcDbLine
 10
1590.52373621326
 20
486.1880328974458
 30
0.0
 11
1593.52373621326
 21
486.1880328974458
 31
0.0
  0
LINE
  5
18C78
330
1F
100
AcDbEntity
  8
AM_7
 60
     1
100
AcDbLine
 10
1592.02373621326
 20
484.6880328974458
 30
0.0
 11
1592.02373621326
 21
487.6880328974458
 31
0.0
  0
LINE
  5
18C79
330
1F
100
AcDbEntity
  8
AM_7
 60
     1
100
AcDbLine
 10
1588.25843621326
 20
486.1880328974458
 30
0.0
 11
1589.52373621326
 21
486.1880328974458
 31
0.0
  0
LINE
  5
18C7A
330
1F
100
AcDbEntity
  8
AM_7
 60
     1
100
AcDbLine
 10
1594.52373621326
 20
486.1880328974458
 30
0.0
 11
1595.78903621326
 21
486.1880328974458
 31
0.0
  0
LINE
  5
18C7B
330
1F
100
AcDbEntity
  8
AM_7
 60
     1
100
AcDbLine
 10
1592.02373621326
 20
482.4227328974457
 30
0.0
 11
1592.02373621326
 21
483.6880328974458
 31
0.0
  0
LINE
  5
18C7C
330
1F
100
AcDbEntity
  8
AM_7
 60
     1
100
AcDbLine
 10
1592.02373621326
 20
488.6880328974458
 30
0.0
 11
1592.02373621326
 21
489.9533328974459
 31
0.0
  0
LINE
  5
18C7D
330
1F
100
AcDbEntity
  8
AM_7
 60
     1
100
AcDbLine
 10
1607.02373621326
 20
486.1880328974458
 30
0.0
 11
1610.02373621326
 21
486.1880328974458
 31
0.0
  0
LINE
  5
18C7E
330
1F
100
AcDbEntity
  8
AM_7
 60
     1
100
AcDbLine
 10
1608.52373621326
 20
484.6880328974458
 30
0.0
 11
1608.52373621326
 21
487.6880328974458
 31
0.0
  0
LINE
  5
18C7F
330
1F
100
AcDbEntity
  8
AM_7
 60
     1
100
AcDbLine
 10
1604.75843621326
 20
486.1880328974458
 30
0.0
 11
1606.02373621326
 21
486.1880328974458
 31
0.0
  0
LINE
  5
18C80
330
1F
100
AcDbEntity
  8
AM_7
 60
     1
100
AcDbLine
 10
1611.02373621326
 20
486.1880328974458
 30
0.0
 11
1612.28903621326
 21
486.1880328974458
 31
0.0
  0
LINE
  5
18C81
330
1F
100
AcDbEntity
  8
AM_7
 60
     1
100
AcDbLine
 10
1608.52373621326
 20
482.4227328974457
 30
0.0
 11
1608.52373621326
 21
483.6880328974458
 31
0.0
  0
LINE
  5
18C82
330
1F
100
AcDbEntity
  8
AM_7
 60
     1
100
AcDbLine
 10
1608.52373621326
 20
488.6880328974458
 30
0.0
 11
1608.52373621326
 21
489.9533328974459
 31
0.0
  0
LINE
  5
18C83
330
1F
100
AcDbEntity
  8
AM_7
 60
     1
100
AcDbLine
 10
1607.02373621326
 20
502.6880328974458
 30
0.0
 11
1610.02373621326
 21
502.6880328974458
 31
0.0
  0
LINE
  5
18C84
330
1F
100
AcDbEntity
  8
AM_7
 60
     1
100
AcDbLine
 10
1608.52373621326
 20
501.1880328974458
 30
0.0
 11
1608.52373621326
 21
504.1880328974458
 31
0.0
  0
LINE
  5
18C85
330
1F
100
AcDbEntity
  8
AM_7
 60
     1
100
AcDbLine
 10
1604.75843621326
 20
502.6880328974458
 30
0.0
 11
1606.02373621326
 21
502.6880328974458
 31
0.0
  0
LINE
  5
18C86
330
1F
100
AcDbEntity
  8
AM_7
 60
     1
100
AcDbLine
 10
1611.02373621326
 20
502.6880328974458
 30
0.0
 11
1612.28903621326
 21
502.6880328974458
 31
0.0
  0
LINE
  5
18C87
330
1F
100
AcDbEntity
  8
AM_7
 60
     1
100
AcDbLine
 10
1608.52373621326
 20
498.9227328974457
 30
0.0
 11
1608.52373621326
 21
500.1880328974458
 31
0.0
  0
LINE
  5
18C88
330
1F
100
AcDbEntity
  8
AM_7
 60
     1
100
AcDbLine
 10
1608.52373621326
 20
505.1880328974458
 30
0.0
 11
1608.52373621326
 21
506.4533328974459
 31
0.0
  0
LINE
  5
18C89
330
1F
100
AcDbEntity
  8
AM_7
 60
     1
100
AcDbLine
 10
1590.52373621326
 20
502.6880328974458
 30
0.0
 11
1593.52373621326
 21
502.6880328974458
 31
0.0
  0
LINE
  5
18C8A
330
1F
100
AcDbEntity
  8
AM_7
 60
     1
100
AcDbLine
 10
1592.02373621326
 20
501.1880328974458
 30
0.0
 11
1592.02373621326
 21
504.1880328974458
 31
0.0
  0
LINE
  5
18C8B
330
1F
100
AcDbEntity
  8
AM_7
 60
     1
100
AcDbLine
 10
1588.25843621326
 20
502.6880328974458
 30
0.0
 11
1589.52373621326
 21
502.6880328974458
 31
0.0
  0
LINE
  5
18C8C
330
1F
100
AcDbEntity
  8
AM_7
 60
     1
100
AcDbLine
 10
1594.52373621326
 20
502.6880328974458
 30
0.0
 11
1595.78903621326
 21
502.6880328974458
 31
0.0
  0
LINE
  5
18C8D
330
1F
100
AcDbEntity
  8
AM_7
 60
     1
100
AcDbLine
 10
1592.02373621326
 20
498.9227328974457
 30
0.0
 11
1592.02373621326
 21
500.1880328974458
 31
0.0
  0
LINE
  5
18C8E
330
1F
100
AcDbEntity
  8
AM_7
 60
     1
100
AcDbLine
 10
1592.02373621326
 20
505.1880328974458
 30
0.0
 11
1592.02373621326
 21
506.4533328974459
 31
0.0
  0
MTEXT
  5
1A47B
330
1F
100
AcDbEntity
  8
AM_5
 62
     2
100
AcDbMText
 10
1289.208719920577
 20
248.9570252199704
 30
0.0
 40
3.5
 41
0.0
 71
     7
 72
     1
  1

  7
ACISOTS
1001
ACAD
1000
MTEXTBEGIN
1070
    73
1070
     1
1070
    44
1040
1.0
1070
    74
1070
     0
1000
MTEXTEND
  0
MTEXT
  5
1A47C
330
1F
100
AcDbEntity
  8
AM_5
 62
     2
100
AcDbMText
 10
1300.296177941299
 20
255.6900849660201
 30
0.0
 40
3.5
 41
0.0
 71
     9
 72
     1
  1

  7
ACISOTS
1001
ACAD
1000
MTEXTBEGIN
1070
    73
1070
     1
1070
    44
1040
1.0
1070
    74
1070
     0
1000
MTEXTEND
  0
MTEXT
  5
1C446
330
1F
100
AcDbEntity
  8
AM_5
 62
     2
100
AcDbMText
 10
1963.868715978793
 20
123.1992789570559
 30
0.0
 40
3.5
 41
0.0
 71
     7
 72
     1
  1

  7
ACISOTS
1001
ACAD
1000
MTEXTBEGIN
1070
    73
1070
     1
1070
    44
1040
1.0
1070
    74
1070
     0
1000
MTEXTEND
  0
MTEXT
  5
1C447
330
1F
100
AcDbEntity
  8
AM_5
 62
     2
100
AcDbMText
 10
1974.956173999515
 20
129.9323387031057
 30
0.0
 40
3.5
 41
0.0
 71
     9
 72
     1
  1

  7
ACISOTS
1001
ACAD
1000
MTEXTBEGIN
1070
    73
1070
     1
1070
    44
1040
1.0
1070
    74
1070
     0
1000
MTEXTEND
  0
MTEXT
  5
1ECBE
330
1F
100
AcDbEntity
  8
AM_5
 62
     2
100
AcDbMText
 10
1819.856714972026
 20
346.9424125699747
 30
0.0
 40
3.5
 41
0.0
 71
     7
 72
     1
  1

  7
ACISOTS
1001
ACAD
1000
MTEXTBEGIN
1070
    73
1070
     1
1070
    44
1040
1.0
1070
    74
1070
     0
1000
MTEXTEND
  0
MTEXT
  5
1ECBF
330
1F
100
AcDbEntity
  8
AM_5
 62
     2
100
AcDbMText
 10
1830.944172992748
 20
353.6754723160244
 30
0.0
 40
3.5
 41
0.0
 71
     9
 72
     1
  1

  7
ACISOTS
1001
ACAD
1000
MTEXTBEGIN
1070
    73
1070
     1
1070
    44
1040
1.0
1070
    74
1070
     0
1000
MTEXTEND
  0
MTEXT
  5
20AE8
330
1F
100
AcDbEntity
  8
AM_5
 62
     2
100
AcDbMText
 10
1186.767165626753
 20
154.6965269935661
 30
0.0
 40
3.5
 41
0.0
 71
     7
 72
     1
  1

  7
ACISOTS
1001
ACAD
1000
MTEXTBEGIN
1070
    73
1070
     1
1070
    44
1040
1.0
1070
    74
1070
     0
1000
MTEXTEND
  0
MTEXT
  5
20AE9
330
1F
100
AcDbEntity
  8
AM_5
 62
     2
100
AcDbMText
 10
1197.854623647476
 20
161.4295867396159
 30
0.0
 40
3.5
 41
0.0
 71
     9
 72
     1
  1

  7
ACISOTS
1001
ACAD
1000
MTEXTBEGIN
1070
    73
1070
     1
1070
    44
1040
1.0
1070
    74
1070
     0
1000
MTEXTEND
  0
TEXT
  5
21EA1
330
1F
100
AcDbEntity
  8
LOGO
 62
     6
100
AcDbText
 10
2041.583629966336
 20
536.4575447618475
 30
0.0
 40
10.0
  1
MVSE-500-4E1
  7
CHINESET
100
AcDbText
  0
MTEXT
  5
22CDD
330
1F
100
AcDbEntity
  8
AM_5
 62
     2
100
AcDbMText
 10
1525.576047872008
 20
655.5631167203904
 30
0.0
 40
3.5
 41
0.0
 71
     7
 72
     1
  1

  7
ACISOTS
1001
ACAD
1000
MTEXTBEGIN
1070
    73
1070
     1
1070
    44
1040
1.0
1070
    74
1070
     0
1000
MTEXTEND
  0
MTEXT
  5
22CDE
330
1F
100
AcDbEntity
  8
AM_5
 62
     2
100
AcDbMText
 10
1536.663505892731
 20
662.2961764664402
 30
0.0
 40
3.5
 41
0.0
 71
     9
 72
     1
  1

  7
ACISOTS
1001
ACAD
1000
MTEXTBEGIN
1070
    73
1070
     1
1070
    44
1040
1.0
1070
    74
1070
     0
1000
MTEXTEND
  0
MTEXT
  5
244F2
330
1F
100
AcDbEntity
  8
AM_5
 62
     2
100
AcDbMText
 10
2890.043409423864
 20
644.4185142320296
 30
0.0
 40
3.5
 41
0.0
 71
     7
 72
     1
  1

  7
ACISOTS
1001
ACAD
1000
MTEXTBEGIN
1070
    73
1070
     1
1070
    44
1040
1.0
1070
    74
1070
     0
1000
MTEXTEND
  0
MTEXT
  5
244F3
330
1F
100
AcDbEntity
  8
AM_5
 62
     2
100
AcDbMText
 10
2901.130867444587
 20
651.1515739780795
 30
0.0
 40
3.5
 41
0.0
 71
     9
 72
     1
  1

  7
ACISOTS
1001
ACAD
1000
MTEXTBEGIN
1070
    73
1070
     1
1070
    44
1040
1.0
1070
    74
1070
     0
1000
MTEXTEND
  0
LINE
  5
24C9C
330
1F
100
AcDbEntity
  8
LOGO
 62
     6
100
AcDbLine
 10
2031.16648716882
 20
553.5307893392219
 30
0.0
 11
2031.16648716882
 21
341.0113818191311
 31
0.0
  0
MTEXT
  5
254A6
330
1F
100
AcDbEntity
  8
AM_5
 62
     2
100
AcDbMText
 10
3101.732997722411
 20
1021.159448806987
 30
0.0
 40
3.5
 41
0.0
 71
     7
 72
     1
  1

  7
ACISOTS
1001
ACAD
1000
MTEXTBEGIN
1070
    73
1070
     1
1070
    44
1040
1.0
1070
    74
1070
     0
1000
MTEXTEND
  0
MTEXT
  5
254A7
330
1F
100
AcDbEntity
  8
AM_5
 62
     2
100
AcDbMText
 10
3112.820455743134
 20
1027.892508553037
 30
0.0
 40
3.5
 41
0.0
 71
     9
 72
     1
  1

  7
ACISOTS
1001
ACAD
1000
MTEXTBEGIN
1070
    73
1070
     1
1070
    44
1040
1.0
1070
    74
1070
     0
1000
MTEXTEND
  0
MTEXT
  5
26306
330
1F
100
AcDbEntity
  8
AM_5
 62
     2
100
AcDbMText
 10
3037.869590389709
 20
973.4206500936965
 30
0.0
 40
3.5
 41
0.0
 71
     7
 72
     1
  1

  7
ACISOTS
1001
ACAD
1000
MTEXTBEGIN
1070
    73
1070
     1
1070
    44
1040
1.0
1070
    74
1070
     0
1000
MTEXTEND
  0
MTEXT
  5
26307
330
1F
100
AcDbEntity
  8
AM_5
 62
     2
100
AcDbMText
 10
3048.957048410432
 20
980.1537098397462
 30
0.0
 40
3.5
 41
0.0
 71
     9
 72
     1
  1

  7
ACISOTS
1001
ACAD
1000
MTEXTBEGIN
1070
    73
1070
     1
1070
    44
1040
1.0
1070
    74
1070
     0
1000
MTEXTEND
  0
INSERT
  5
2630A
330
1F
100
AcDbEntity
  8
AM_5
100
AcDbBlockReference
  2
*S16
 10
0.0
 20
0.0
 30
0.0
  0
TEXT
  5
2630B
330
1F
100
AcDbEntity
  8
AM_5
100
AcDbText
 10
2180.044306909663
 20
471.3593310444341
 30
0.0
 40
4.5
  1
2-%%c3.2
100
AcDbText
  0
LINE
  5
2633C
330
1F
100
AcDbEntity
  8
AM_VIS
100
AcDbLine
 10
2247.49567238507
 20
435.3352808263671
 30
0.0
 11
2247.49567238507
 21
435.2747916648052
 31
0.0
  0
LINE
  5
2633D
330
1F
100
AcDbEntity
  8
AM_VIS
100
AcDbLine
 10
2247.49567238507
 20
437.5299257530582
 30
0.0
 11
2247.49567238507
 21
435.3352808263671
 31
0.0
  0
LINE
  5
2633E
330
1F
100
AcDbEntity
  8
AM_VIS
100
AcDbLine
 10
2247.49567238507
 20
440.2273012096916
 30
0.0
 11
2247.49567238507
 21
437.5299257530582
 31
0.0
  0
LINE
  5
2633F
330
1F
100
AcDbEntity
  8
AM_VIS
100
AcDbLine
 10
2247.49567238507
 20
440.5271734441912
 30
0.0
 11
2247.49567238507
 21
440.2273012096916
 31
0.0
  0
LINE
  5
26340
330
1F
100
AcDbEntity
  8
AM_VIS
100
AcDbLine
 10
2247.49567238507
 20
442.8777847030808
 30
0.0
 11
2247.49567238507
 21
440.5271734441912
 31
0.0
  0
LINE
  5
26341
330
1F
100
AcDbEntity
  8
AM_VIS
100
AcDbLine
 10
2247.49567238507
 20
443.5181569721369
 30
0.0
 11
2247.49567238507
 21
442.8777847030808
 31
0.0
  0
LINE
  5
26342
330
1F
100
AcDbEntity
  8
AM_VIS
100
AcDbLine
 10
2247.49567238507
 20
446.2155324287705
 30
0.0
 11
2247.49567238507
 21
443.5181569721369
 31
0.0
  0
LINE
  5
26343
330
1F
100
AcDbEntity
  8
AM_VIS
100
AcDbLine
 10
2247.49567238507
 20
446.7182629587127
 30
0.0
 11
2247.49567238507
 21
446.2155324287705
 31
0.0
  0
LINE
  5
26344
330
1F
100
AcDbEntity
  8
AM_VIS
100
AcDbLine
 10
2247.49567238507
 20
446.7517218527366
 30
0.0
 11
2247.49567238507
 21
446.7182629587127
 31
0.0
  0
LINE
  5
26345
330
1F
100
AcDbEntity
  8
AM_VIS
100
AcDbLine
 10
2247.49567238507
 20
447.3316049602308
 30
0.0
 11
2247.49567238507
 21
446.7517218527364
 31
0.0
  0
LINE
  5
26346
330
1F
100
AcDbEntity
  8
AM_VIS
100
AcDbLine
 10
2247.49567238507
 20
447.834335490173
 30
0.0
 11
2247.49567238507
 21
447.3316049602308
 31
0.0
  0
ARC
  5
26347
330
1F
100
AcDbEntity
  8
AM_VIS
100
AcDbCircle
 10
2234.09567238507
 20
407.1487288144608
 30
0.0
 40
0.75
100
AcDbArc
 50
180.0
 51
228.1896851042255
  0
ARC
  5
26348
330
1F
100
AcDbEntity
  8
AM_VIS
100
AcDbCircle
 10
2234.09567238507
 20
407.1487288144608
 30
0.0
 40
0.75
100
AcDbArc
 50
311.8103148957745
 51
0.0
  0
ARC
  5
26349
330
1F
100
AcDbEntity
  8
AM_VIS
100
AcDbCircle
 10
2234.09567238507
 20
393.1487288144609
 30
0.0
 40
0.75
100
AcDbArc
 50
0.0
 51
48.18968510422548
  0
ARC
  5
2634A
330
1F
100
AcDbEntity
  8
AM_VIS
100
AcDbCircle
 10
2234.09567238507
 20
393.1487288144609
 30
0.0
 40
0.75
100
AcDbArc
 50
131.8103148957745
 51
180.0
  0
LINE
  5
2634B
330
1F
100
AcDbEntity
  8
AM_VIS
100
AcDbLine
 10
2235.99567238507
 20
393.6770101181039
 30
0.0
 11
2235.99567238507
 21
396.7824943404932
 31
0.0
  0
LINE
  5
2634C
330
1F
100
AcDbEntity
  8
AM_VIS
100
AcDbLine
 10
2235.99567238507
 20
403.5149632884283
 30
0.0
 11
2235.99567238507
 21
406.6204475108177
 31
0.0
  0
LINE
  5
2634D
330
1F
100
AcDbEntity
  8
AM_VIS
100
AcDbLine
 10
2235.99567238507
 20
409.9866819847854
 30
0.0
 11
2235.99567238507
 21
410.1487288144609
 31
0.0
  0
LINE
  5
2634E
330
1F
100
AcDbEntity
  8
AM_VIS
100
AcDbLine
 10
2235.99567238507
 20
390.1487288144609
 30
0.0
 11
2235.99567238507
 21
390.3107756441364
 31
0.0
  0
LINE
  5
2634F
330
1F
100
AcDbEntity
  8
AM_VIS
100
AcDbLine
 10
2234.84567238507
 20
393.6770101181039
 30
0.0
 11
2234.84567238507
 21
396.7824943404932
 31
0.0
  0
LINE
  5
26350
330
1F
100
AcDbEntity
  8
AM_VIS
100
AcDbLine
 10
2234.84567238507
 20
393.6770101181039
 30
0.0
 11
2234.84567238507
 21
390.3107756441363
 31
0.0
  0
LINE
  5
26351
330
1F
100
AcDbEntity
  8
AM_VIS
100
AcDbLine
 10
2234.84567238507
 20
390.1487288144609
 30
0.0
 11
2234.84567238507
 21
390.3107756441364
 31
0.0
  0
LINE
  5
26352
330
1F
100
AcDbEntity
  8
AM_VIS
100
AcDbLine
 10
2234.84567238507
 20
409.9866819847854
 30
0.0
 11
2234.84567238507
 21
410.1487288144609
 31
0.0
  0
LINE
  5
26353
330
1F
100
AcDbEntity
  8
AM_VIS
100
AcDbLine
 10
2234.84567238507
 20
409.9866819847852
 30
0.0
 11
2234.84567238507
 21
406.6204475108177
 31
0.0
  0
LINE
  5
26354
330
1F
100
AcDbEntity
  8
AM_VIS
100
AcDbLine
 10
2234.84567238507
 20
403.5149632884283
 30
0.0
 11
2234.84567238507
 21
406.6204475108177
 31
0.0
  0
LINE
  5
26355
330
1F
100
AcDbEntity
  8
AM_VIS
100
AcDbLine
 10
2234.84567238507
 20
403.5149632884283
 30
0.0
 11
2234.84567238507
 21
396.7824943404932
 31
0.0
  0
LINE
  5
26356
330
1F
100
AcDbEntity
  8
AM_VIS
100
AcDbLine
 10
2233.34567238507
 20
406.6204475108177
 30
0.0
 11
2233.34567238507
 21
409.9866819847852
 31
0.0
  0
LINE
  5
26357
330
1F
100
AcDbEntity
  8
AM_VIS
100
AcDbLine
 10
2233.34567238507
 20
396.7824943404933
 30
0.0
 11
2233.34567238507
 21
403.5149632884285
 31
0.0
  0
LINE
  5
26358
330
1F
100
AcDbEntity
  8
AM_VIS
100
AcDbLine
 10
2233.34567238507
 20
396.7824943404932
 30
0.0
 11
2233.34567238507
 21
393.6770101181039
 31
0.0
  0
LINE
  5
26359
330
1F
100
AcDbEntity
  8
AM_VIS
100
AcDbLine
 10
2233.34567238507
 20
406.6204475108177
 30
0.0
 11
2233.34567238507
 21
403.5149632884283
 31
0.0
  0
LINE
  5
2635A
330
1F
100
AcDbEntity
  8
AM_VIS
100
AcDbLine
 10
2233.34567238507
 20
410.1487288144609
 30
0.0
 11
2233.34567238507
 21
409.9866819847854
 31
0.0
  0
LINE
  5
2635B
330
1F
100
AcDbEntity
  8
AM_VIS
100
AcDbLine
 10
2233.34567238507
 20
390.3107756441364
 30
0.0
 11
2233.34567238507
 21
390.1487288144609
 31
0.0
  0
LINE
  5
2635C
330
1F
100
AcDbEntity
  8
AM_VIS
100
AcDbLine
 10
2233.34567238507
 20
390.3107756441363
 30
0.0
 11
2233.34567238507
 21
393.6770101181039
 31
0.0
  0
LINE
  5
2635D
330
1F
100
AcDbEntity
  8
AM_VIS
100
AcDbLine
 10
2230.49567238507
 20
393.6770101181039
 30
0.0
 11
2230.49567238507
 21
396.7824943404932
 31
0.0
  0
LINE
  5
2635E
330
1F
100
AcDbEntity
  8
AM_VIS
100
AcDbLine
 10
2230.49567238507
 20
390.1487288144609
 30
0.0
 11
2230.49567238507
 21
390.3107756441364
 31
0.0
  0
LINE
  5
2635F
330
1F
100
AcDbEntity
  8
AM_VIS
100
AcDbLine
 10
2230.49567238507
 20
409.9866819847854
 30
0.0
 11
2230.49567238507
 21
410.1487288144609
 31
0.0
  0
LINE
  5
26360
330
1F
100
AcDbEntity
  8
AM_VIS
100
AcDbLine
 10
2230.49567238507
 20
403.5149632884283
 30
0.0
 11
2230.49567238507
 21
406.6204475108177
 31
0.0
  0
LINE
  5
26361
330
1F
100
AcDbEntity
  8
AM_VIS
100
AcDbLine
 10
2230.295672385071
 20
400.1487288144609
 30
0.0
 11
2230.295672385071
 21
407.6487288144609
 31
0.0
  0
LINE
  5
26362
330
1F
100
AcDbEntity
  8
AM_VIS
100
AcDbLine
 10
2230.295672385071
 20
392.6487288144609
 30
0.0
 11
2230.295672385071
 21
400.1487288144609
 31
0.0
  0
LINE
  5
26363
330
1F
100
AcDbEntity
  8
AM_VIS
100
AcDbLine
 10
2229.49567238507
 20
400.1487288144609
 30
0.0
 11
2229.49567238507
 21
407.6487288144609
 31
0.0
  0
LINE
  5
26364
330
1F
100
AcDbEntity
  8
AM_VIS
100
AcDbLine
 10
2229.49567238507
 20
392.6487288144609
 30
0.0
 11
2229.49567238507
 21
400.1487288144609
 31
0.0
  0
LINE
  5
26365
330
1F
100
AcDbEntity
  8
AM_VIS
100
AcDbLine
 10
2228.99567238507
 20
400.1487288144609
 30
0.0
 11
2228.99567238507
 21
390.1487288144609
 31
0.0
  0
LINE
  5
26366
330
1F
100
AcDbEntity
  8
AM_VIS
100
AcDbLine
 10
2228.99567238507
 20
410.1487288144609
 30
0.0
 11
2228.99567238507
 21
400.1487288144609
 31
0.0
  0
LINE
  5
26367
330
1F
100
AcDbEntity
  8
AM_VIS
100
AcDbLine
 10
2236.49567238507
 20
390.9471477407291
 30
0.0
 11
2236.49567238507
 21
390.6487288144609
 31
0.0
  0
LINE
  5
26368
330
1F
100
AcDbEntity
  8
AM_VIS
100
AcDbLine
 10
2236.49567238507
 20
393.5020449989374
 30
0.0
 11
2236.49567238507
 21
390.947147740729
 31
0.0
  0
LINE
  5
26369
330
1F
100
AcDbEntity
  8
AM_VIS
100
AcDbLine
 10
2236.49567238507
 20
397.5938315562526
 30
0.0
 11
2236.49567238507
 21
393.5020449989374
 31
0.0
  0
LINE
  5
2636A
330
1F
100
AcDbEntity
  8
AM_VIS
100
AcDbLine
 10
2236.49567238507
 20
402.703626072669
 30
0.0
 11
2236.49567238507
 21
397.5938315562525
 31
0.0
  0
LINE
  5
2636B
330
1F
100
AcDbEntity
  8
AM_VIS
100
AcDbLine
 10
2236.49567238507
 20
406.7954126299843
 30
0.0
 11
2236.49567238507
 21
402.703626072669
 31
0.0
  0
LINE
  5
2636C
330
1F
100
AcDbEntity
  8
AM_VIS
100
AcDbLine
 10
2236.49567238507
 20
409.3503098881926
 30
0.0
 11
2236.49567238507
 21
406.7954126299843
 31
0.0
  0
LINE
  5
2636D
330
1F
100
AcDbEntity
  8
AM_VIS
100
AcDbLine
 10
2236.49567238507
 20
409.6487288144609
 30
0.0
 11
2236.49567238507
 21
409.3503098881926
 31
0.0
  0
LINE
  5
2636E
330
1F
100
AcDbEntity
  8
AM_VIS
100
AcDbLine
 10
2236.49567238507
 20
409.6487288144609
 30
0.0
 11
2235.99567238507
 21
410.1487288144609
 31
0.0
  0
LINE
  5
2636F
330
1F
100
AcDbEntity
  8
AM_VIS
100
AcDbLine
 10
2236.49567238507
 20
390.6487288144609
 30
0.0
 11
2235.99567238507
 21
390.1487288144609
 31
0.0
  0
LINE
  5
26370
330
1F
100
AcDbEntity
  8
AM_VIS
100
AcDbLine
 10
2234.84567238507
 20
410.1487288144609
 30
0.0
 11
2235.99567238507
 21
410.1487288144609
 31
0.0
  0
LINE
  5
26371
330
1F
100
AcDbEntity
  8
AM_VIS
100
AcDbLine
 10
2234.84567238507
 20
390.1487288144609
 30
0.0
 11
2235.99567238507
 21
390.1487288144609
 31
0.0
  0
LINE
  5
26372
330
1F
100
AcDbEntity
  8
AM_VIS
100
AcDbLine
 10
2230.49567238507
 20
410.1487288144609
 30
0.0
 11
2233.34567238507
 21
410.1487288144609
 31
0.0
  0
LINE
  5
26373
330
1F
100
AcDbEntity
  8
AM_VIS
100
AcDbLine
 10
2230.49567238507
 20
390.1487288144609
 30
0.0
 11
2233.34567238507
 21
390.1487288144609
 31
0.0
  0
LINE
  5
26374
330
1F
100
AcDbEntity
  8
AM_VIS
100
AcDbLine
 10
2230.295672385071
 20
392.6487288144609
 30
0.0
 11
2230.49567238507
 21
390.1487288144609
 31
0.0
  0
LINE
  5
26375
330
1F
100
AcDbEntity
  8
AM_VIS
100
AcDbLine
 10
2230.295672385071
 20
407.6487288144609
 30
0.0
 11
2230.49567238507
 21
410.1487288144609
 31
0.0
  0
LINE
  5
26376
330
1F
100
AcDbEntity
  8
AM_VIS
100
AcDbLine
 10
2229.49567238507
 20
407.6487288144609
 30
0.0
 11
2228.99567238507
 21
410.1487288144609
 31
0.0
  0
LINE
  5
26377
330
1F
100
AcDbEntity
  8
AM_VIS
100
AcDbLine
 10
2229.49567238507
 20
392.6487288144609
 30
0.0
 11
2228.99567238507
 21
390.1487288144609
 31
0.0
  0
LINE
  5
26378
330
1F
100
AcDbEntity
  8
AM_VIS
100
AcDbLine
 10
2229.49567238507
 20
392.6487288144609
 30
0.0
 11
2230.295672385071
 21
392.6487288144609
 31
0.0
  0
LINE
  5
26379
330
1F
100
AcDbEntity
  8
AM_VIS
100
AcDbLine
 10
2229.49567238507
 20
407.6487288144609
 30
0.0
 11
2230.295672385071
 21
407.6487288144609
 31
0.0
  0
LINE
  5
2637A
330
1F
100
AcDbEntity
  8
AM_VIS
100
AcDbLine
 10
2228.49567238507
 20
390.1487288144609
 30
0.0
 11
2228.99567238507
 21
390.1487288144609
 31
0.0
  0
LINE
  5
2637B
330
1F
100
AcDbEntity
  8
AM_VIS
100
AcDbLine
 10
2228.49567238507
 20
410.1487288144609
 30
0.0
 11
2228.99567238507
 21
410.1487288144609
 31
0.0
  0
LINE
  5
2637C
330
1F
100
AcDbEntity
  8
AM_VIS
100
AcDbLine
 10
2234.84567238507
 20
409.9866819847854
 30
0.0
 11
2235.99567238507
 21
409.9866819847854
 31
0.0
  0
SPLINE
  5
2637D
330
1F
100
AcDbEntity
  8
AM_VIS
100
AcDbSpline
210
0.0
220
0.0
230
1.0
 70
     8
 71
     3
 72
     8
 73
     4
 74
     0
 42
0.0000000001
 43
0.0000000001
 40
1.630155803927018
 40
1.630155803927018
 40
1.630155803927018
 40
1.630155803927018
 40
2.566002662426991
 40
2.566002662426991
 40
2.566002662426991
 40
2.566002662426991
 10
2235.99567238507
 20
409.9866819847854
 30
0.0
 10
2236.175533618266
 20
409.7718763377862
 30
0.0
 10
2236.344633239639
 20
409.5586175362551
 30
0.0
 10
2236.49567238507
 20
409.3503098881926
 30
0.0
  0
SPLINE
  5
2637E
330
1F
100
AcDbEntity
  8
AM_VIS
100
AcDbSpline
210
0.0
220
0.0
230
1.0
 70
     8
 71
     3
 72
     8
 73
     4
 74
     0
 42
0.0000000001
 43
0.0000000001
 40
7.860869802063005
 40
7.860869802063005
 40
7.860869802063005
 40
7.860869802063005
 40
8.796716660561699
 40
8.796716660561699
 40
8.796716660561699
 40
8.796716660561699
 10
2236.49567238507
 20
406.7954126299843
 30
0.0
 10
2236.344633349036
 20
406.7229121929735
 30
0.0
 10
2236.175533733292
 20
406.6650188725478
 30
0.0
 10
2235.99567238507
 20
406.6204475108178
 30
0.0
  0
LINE
  5
2637F
330
1F
100
AcDbEntity
  8
AM_VIS
100
AcDbLine
 10
2235.99567238507
 20
406.6204475108178
 30
0.0
 11
2234.84567238507
 21
406.6204475108178
 31
0.0
  0
LINE
  5
26380
330
1F
100
AcDbEntity
  8
AM_VIS
100
AcDbLine
 10
2234.84567238507
 20
393.6770101181039
 30
0.0
 11
2235.99567238507
 21
393.6770101181039
 31
0.0
  0
SPLINE
  5
26381
330
1F
100
AcDbEntity
  8
AM_VIS
100
AcDbSpline
210
0.0
220
0.0
230
1.0
 70
     8
 71
     3
 72
     8
 73
     4
 74
     0
 42
0.0000000001
 43
0.0000000001
 40
1.630155803927018
 40
1.630155803927018
 40
1.630155803927018
 40
1.630155803927018
 40
2.566002662426996
 40
2.566002662426996
 40
2.566002662426996
 40
2.566002662426996
 10
2235.99567238507
 20
393.6770101181039
 30
0.0
 10
2236.175533618266
 20
393.6324387848786
 30
0.0
 10
2236.344633239639
 20
393.57454548846
 30
0.0
 10
2236.49567238507
 20
393.5020449989374
 30
0.0
  0
SPLINE
  5
26382
330
1F
100
AcDbEntity
  8
AM_VIS
100
AcDbSpline
210
0.0
220
0.0
230
1.0
 70
     8
 71
     3
 72
     8
 73
     4
 74
     0
 42
0.0000000001
 43
0.0000000001
 40
7.860869802063004
 40
7.860869802063004
 40
7.860869802063004
 40
7.860869802063004
 40
8.796716660561713
 40
8.796716660561713
 40
8.796716660561713
 40
8.796716660561713
 10
2236.49567238507
 20
390.9471477407291
 30
0.0
 10
2236.344633349036
 20
390.7388402435429
 30
0.0
 10
2236.175533733292
 20
390.5255814285096
 30
0.0
 10
2235.99567238507
 20
390.3107756441364
 30
0.0
  0
LINE
  5
26383
330
1F
100
AcDbEntity
  8
AM_VIS
100
AcDbLine
 10
2235.99567238507
 20
390.3107756441364
 30
0.0
 11
2234.84567238507
 21
390.3107756441364
 31
0.0
  0
LINE
  5
26384
330
1F
100
AcDbEntity
  8
AM_VIS
100
AcDbLine
 10
2234.84567238507
 20
403.5149632884283
 30
0.0
 11
2235.99567238507
 21
403.5149632884283
 31
0.0
  0
SPLINE
  5
26385
330
1F
100
AcDbEntity
  8
AM_VIS
100
AcDbSpline
210
0.0
220
0.0
230
1.0
 70
     8
 71
     3
 72
     8
 73
     4
 74
     0
 42
0.0000000001
 43
0.0000000001
 40
1.63015580392704
 40
1.63015580392704
 40
1.63015580392704
 40
1.63015580392704
 40
2.566002662427006
 40
2.566002662427006
 40
2.566002662427006
 40
2.566002662427006
 10
2235.99567238507
 20
403.5149632884283
 30
0.0
 10
2236.175533618266
 20
403.2555863082039
 30
0.0
 10
2236.344633239639
 20
402.9844342102542
 30
0.0
 10
2236.49567238507
 20
402.703626072669
 30
0.0
  0
SPLINE
  5
26386
330
1F
100
AcDbEntity
  8
AM_VIS
100
AcDbSpline
210
0.0
220
0.0
230
1.0
 70
     8
 71
     3
 72
     8
 73
     4
 74
     0
 42
0.0000000001
 43
0.0000000001
 40
7.860869802062977
 40
7.860869802062977
 40
7.860869802062977
 40
7.860869802062977
 40
8.796716660561656
 40
8.796716660561656
 40
8.796716660561656
 40
8.796716660561656
 10
2236.49567238507
 20
397.5938315562526
 30
0.0
 10
2236.344633349036
 20
397.3130236220556
 30
0.0
 10
2236.175533733292
 20
397.0418714865965
 30
0.0
 10
2235.99567238507
 20
396.7824943404933
 30
0.0
  0
LINE
  5
26387
330
1F
100
AcDbEntity
  8
AM_VIS
100
AcDbLine
 10
2235.99567238507
 20
396.7824943404933
 30
0.0
 11
2234.84567238507
 21
396.7824943404933
 31
0.0
  0
LINE
  5
26388
330
1F
100
AcDbEntity
  8
AM_VIS
100
AcDbLine
 10
2233.34567238507
 20
396.7824943404933
 30
0.0
 11
2230.49567238507
 21
396.7824943404933
 31
0.0
  0
LINE
  5
26389
330
1F
100
AcDbEntity
  8
AM_VIS
100
AcDbLine
 10
2233.34567238507
 20
406.6204475108178
 30
0.0
 11
2230.49567238507
 21
406.6204475108178
 31
0.0
  0
LINE
  5
2638A
330
1F
100
AcDbEntity
  8
AM_VIS
100
AcDbLine
 10
2230.49567238507
 20
403.5149632884283
 30
0.0
 11
2233.34567238507
 21
403.5149632884283
 31
0.0
  0
LINE
  5
2638B
330
1F
100
AcDbEntity
  8
AM_VIS
100
AcDbLine
 10
2230.49567238507
 20
409.9866819847854
 30
0.0
 11
2233.34567238507
 21
409.9866819847854
 31
0.0
  0
LINE
  5
2638C
330
1F
100
AcDbEntity
  8
AM_VIS
100
AcDbLine
 10
2230.49567238507
 20
393.6770101181039
 30
0.0
 11
2233.34567238507
 21
393.6770101181039
 31
0.0
  0
LINE
  5
2638D
330
1F
100
AcDbEntity
  8
AM_VIS
100
AcDbLine
 10
2233.34567238507
 20
390.3107756441364
 30
0.0
 11
2230.49567238507
 21
390.3107756441364
 31
0.0
  0
SPLINE
  5
2638E
330
1F
100
AcDbEntity
  8
AM_VIS
100
AcDbSpline
210
0.0
220
0.0
230
1.0
 70
     8
 71
     3
 72
    14
 73
    10
 74
     0
 42
0.0000000001
 43
0.0000000001
 40
13.28006742556181
 40
13.28006742556181
 40
13.28006742556181
 40
13.28006742556181
 40
14.27448381305596
 40
14.27448381305596
 40
16.65382904986482
 40
16.65382904986482
 40
19.03317428667365
 40
19.03317428667365
 40
20.0275906741677
 40
20.0275906741677
 40
20.0275906741677
 40
20.0275906741677
 10
2230.49567238507
 20
390.3107756441364
 30
0.0
 10
2230.477926409951
 20
390.5756976342264
 30
0.0
 10
2230.462150816248
 20
390.8285039646833
 30
0.0
 10
2230.416942004337
 20
391.6392717716131
 30
0.0
 10
2230.39967238507
 20
392.1311477216897
 30
0.0
 10
2230.39967238507
 20
392.924262800626
 30
0.0
 10
2230.416942004337
 20
393.2416521911823
 30
0.0
 10
2230.462150816248
 20
393.5488777158801
 30
0.0
 10
2230.477926409951
 20
393.6220398393242
 30
0.0
 10
2230.49567238507
 20
393.6770101181039
 30
0.0
  0
SPLINE
  5
2638F
330
1F
100
AcDbEntity
  8
AM_VIS
100
AcDbSpline
210
0.0
220
0.0
230
1.0
 70
     8
 71
     3
 72
    14
 73
    10
 74
     0
 42
0.0000000001
 43
0.0000000001
 40
13.2800674255618
 40
13.2800674255618
 40
13.2800674255618
 40
13.2800674255618
 40
14.27448381305591
 40
14.27448381305591
 40
16.65382904986476
 40
16.65382904986476
 40
19.03317428667361
 40
19.03317428667361
 40
20.02759067416769
 40
20.02759067416769
 40
20.02759067416769
 40
20.02759067416769
 10
2230.49567238507
 20
406.6204475108178
 30
0.0
 10
2230.477926409951
 20
406.6754177895975
 30
0.0
 10
2230.462150816248
 20
406.7485799130415
 30
0.0
 10
2230.416942004337
 20
407.0558054377395
 30
0.0
 10
2230.39967238507
 20
407.3731948282958
 30
0.0
 10
2230.39967238507
 20
408.166309907232
 30
0.0
 10
2230.416942004337
 20
408.6581858573087
 30
0.0
 10
2230.462150816248
 20
409.4689536642384
 30
0.0
 10
2230.477926409951
 20
409.7217599946953
 30
0.0
 10
2230.49567238507
 20
409.9866819847854
 30
0.0
  0
ARC
  5
26390
330
1F
100
AcDbEntity
  8
AM_VIS
100
AcDbCircle
 10
2289.67147721628
 20
400.1487288144605
 30
0.0
 40
59.27135386821789
100
AcDbArc
 50
176.7442201741542
 51
183.2557798258458
  0
SPLINE
  5
26391
330
1F
100
AcDbEntity
  8
AM_VIS
100
AcDbSpline
210
0.0
220
0.0
230
1.0
 70
    11
 71
     3
 72
    58
 73
    54
 74
     0
 42
0.0000000001
 43
0.0000000001
 40
-3.363896419255587
 40
-3.363896419255587
 40
-3.363896419255587
 40
-3.363896419255587
 40
-3.330080057210193
 40
-3.330080057210193
 40
-3.276087946180991
 40
-3.276087946180991
 40
-3.130129325405927
 40
-3.130129325405927
 40
-2.864475625747458
 40
-2.864475625747458
 40
-2.670984402726474
 40
-2.670984402726474
 40
-2.529876972632633
 40
-2.529876972632633
 40
-2.39414607930529
 40
-2.39414607930529
 40
-2.234845146690002
 40
-2.234845146690002
 40
-1.995446372975766
 40
-1.995446372975766
 40
-1.792732498499779
 40
-1.792732498499779
 40
-1.655061186031255
 40
-1.655061186031255
 40
-1.604023047347052
 40
-1.604023047347052
 40
-1.569394244758093
 40
-1.569394244758093
 40
-1.535224675064294
 40
-1.535224675064294
 40
-1.486406949001721
 40
-1.486406949001721
 40
-1.367760828147406
 40
-1.367760828147406
 40
-1.211422564713941
 40
-1.211422564713941
 40
-1.00947781381898
 40
-1.00947781381898
 40
-0.8308451467036132
 40
-0.8308451467036132
 40
-0.6546659190622926
 40
-0.6546659190622926
 40
-0.4706948992192896
 40
-0.4706948992192896
 40
-0.3083260207238461
 40
-0.3083260207238461
 40
-0.1833529844742129
 40
-0.1833529844742129
 40
-0.0782943285735388
 40
-0.0782943285735388
 40
-0.0333492537450304
 40
-0.0333492537450304
 40
0.0
 40
0.0
 40
0.0
 40
0.0
 10
2234.59567238507
 20
406.2713313720953
 30
0.0
 10
2234.59567238507
 20
406.2678312477596
 30
0.0
 10
2234.595328231337
 20
406.2640140650232
 30
0.0
 10
2234.5935955288
 20
406.2533437202424
 30
0.0
 10
2234.591712724502
 20
406.2460724766845
 30
0.0
 10
2234.58207540591
 20
406.2170501459259
 30
0.0
 10
2234.569746327666
 20
406.1915975410568
 30
0.0
 10
2234.52429397536
 20
406.1163412426603
 30
0.0
 10
2234.480753928151
 20
406.0610282889411
 30
0.0
 10
2234.385925984101
 20
405.9770681976152
 30
0.0
 10
2234.338526103353
 20
405.9439126725103
 30
0.0
 10
2234.244883989922
 20
405.9011547056274
 30
0.0
 10
2234.202149303086
 20
405.8877913924852
 30
0.0
 10
2234.113337119834
 20
405.8750894006084
 30
0.0
 10
2234.069587112048
 20
405.875552586722
 30
0.0
 10
2233.97579001682
 20
405.8907436127217
 30
0.0
 10
2233.928797809739
 20
405.9074454849805
 30
0.0
 10
2233.822373500314
 20
405.9618991797536
 30
0.0
 10
2233.767479603959
 20
406.0065906411138
 30
0.0
 10
2233.685859971001
 20
406.0927952904818
 30
0.0
 10
2233.655445121658
 20
406.134452940924
 30
0.0
 10
2233.618854429893
 20
406.1970770726928
 30
0.0
 10
2233.607690266751
 20
406.2209560063965
 30
0.0
 10
2233.599076857822
 20
406.2481385728117
 30
0.0
 10
2233.597420827862
 20
406.2549290407014
 30
0.0
 10
2233.595883462293
 20
406.2652053280676
 30
0.0
 10
2233.595604636012
 20
406.2690400997892
 30
0.0
 10
2233.59576681821
 20
406.275981941525
 30
0.0
 10
2233.59619804907
 20
406.2790878318017
 30
0.0
 10
2233.598131814028
 20
406.285778050594
 30
0.0
 10
2233.600007264756
 20
406.2889740622301
 30
0.0
 10
2233.609078175856
 20
406.2974476011099
 30
0.0
 10
2233.619861504654
 20
406.2989736442499
 30
0.0
 10
2233.654792000117
 20
406.2949674439123
 30
0.0
 10
2233.681599628674
 20
406.2872052323079
 30
0.0
 10
2233.755867216035
 20
406.2656987188471
 30
0.0
 10
2233.808366291403
 20
406.2504988123051
 30
0.0
 10
2233.924246005021
 20
406.2277062800809
 30
0.0
 10
2233.983361814796
 20
406.2199510197202
 30
0.0
 10
2234.105136719844
 20
406.2144919253191
 30
0.0
 10
2234.165715162446
 20
406.2167303037746
 30
0.0
 10
2234.284704242625
 20
406.2301312754763
 30
0.0
 10
2234.341179441773
 20
406.2415065658634
 30
0.0
 10
2234.434762352063
 20
406.2650231375292
 30
0.0
 10
2234.473044221225
 20
406.2768142715754
 30
0.0
 10
2234.528395939475
 20
406.2922536686683
 30
0.0
 10
2234.548212753881
 20
406.2970646812685
 30
0.0
 10
2234.575721131935
 20
406.298443506925
 30
0.0
 10
2234.584592564902
 20
406.2961608685128
 30
0.0
 10
2234.592138397434
 20
406.2876956584104
 30
0.0
 10
2234.593713352457
 20
406.2845273838388
 30
0.0
 10
2234.595337756065
 20
406.2779245213689
 30
0.0
 10
2234.59567238507
 20
406.2747831489142
 30
0.0
 10
2234.59567238507
 20
406.2713313720953
 30
0.0
  0
CIRCLE
  5
26392
330
1F
100
AcDbEntity
  8
AM_VIS
100
AcDbCircle
 10
2234.09567238507
 20
401.3987288144609
 30
0.0
 40
0.5000000000000032
  0
SPLINE
  5
26393
330
1F
100
AcDbEntity
  8
AM_VIS
100
AcDbSpline
210
0.0
220
0.0
230
1.0
 70
    11
 71
     3
 72
    58
 73
    54
 74
     0
 42
0.0000000001
 43
0.0000000001
 40
-3.310941722020734
 40
-3.310941722020734
 40
-3.310941722020734
 40
-3.310941722020734
 40
-3.295630163505362
 40
-3.295630163505362
 40
-3.25888521683784
 40
-3.25888521683784
 40
-3.197166102513703
 40
-3.197166102513703
 40
-3.038165220175974
 40
-3.038165220175974
 40
-2.856291614867816
 40
-2.856291614867816
 40
-2.666842086896373
 40
-2.666842086896373
 40
-2.492578752008394
 40
-2.492578752008394
 40
-2.312125783734214
 40
-2.312125783734214
 40
-2.13451249378157
 40
-2.13451249378157
 40
-1.991913706757117
 40
-1.991913706757117
 40
-1.842368186774402
 40
-1.842368186774402
 40
-1.791323432477104
 40
-1.791323432477104
 40
-1.757111173270509
 40
-1.757111173270509
 40
-1.723565230364853
 40
-1.723565230364853
 40
-1.676146471114944
 40
-1.676146471114944
 40
-1.5592641658533
 40
-1.5592641658533
 40
-1.304423753588805
 40
-1.304423753588805
 40
-1.102534997063944
 40
-1.102534997063944
 40
-0.9616332280833521
 40
-0.9616332280833521
 40
-0.8335600122414829
 40
-0.8335600122414829
 40
-0.6887403587885041
 40
-0.6887403587885041
 40
-0.4760113448049901
 40
-0.4760113448049901
 40
-0.2570316117964575
 40
-0.2570316117964575
 40
-0.0905362468527244
 40
-0.0905362468527244
 40
-0.0354113089023832
 40
-0.0354113089023832
 40
0.0
 40
0.0
 40
0.0
 40
0.0
 10
2234.59567238507
 20
394.0261262568265
 30
0.0
 10
2234.59567238507
 20
394.0245414512669
 30
0.0
 10
2234.595601785206
 20
394.0230229384297
 30
0.0
 10
2234.595115514447
 20
394.0180913149845
 30
0.0
 10
2234.594357036351
 20
394.0150175068777
 30
0.0
 10
2234.591163678359
 20
394.0078922860518
 30
0.0
 10
2234.587960474084
 20
394.004639663205
 30
0.0
 10
2234.572020263576
 20
393.9971073317713
 30
0.0
 10
2234.55267287113
 20
393.9995570353945
 30
0.0
 10
2234.496098254589
 20
394.0135529806641
 30
0.0
 10
2234.456384818484
 20
394.0263304190667
 30
0.0
 10
2234.357975095115
 20
394.0522178659455
 30
0.0
 10
2234.300161961306
 20
394.0647524501512
 30
0.0
 10
2234.180165487419
 20
394.0797077239862
 30
0.0
 10
2234.120182912622
 20
394.0827177008857
 30
0.0
 10
2233.998002531606
 20
394.0789036442179
 30
0.0
 10
2233.937962071008
 20
394.0717885768299
 30
0.0
 10
2233.828052504218
 20
394.051346401
 30
0.0
 10
2233.778927172476
 20
394.0382684213459
 30
0.0
 10
2233.704117513343
 20
394.0168643028095
 30
0.0
 10
2233.675702793404
 20
394.0081507288666
 30
0.0
 10
2233.629716196547
 20
393.9983076095186
 30
0.0
 10
2233.61319689788
 20
393.9978038118225
 30
0.0
 10
2233.600912699546
 20
394.0072391769755
 30
0.0
 10
2233.598694757358
 20
394.0104714022969
 30
0.0
 10
2233.596414190059
 20
394.0172681506949
 30
0.0
 10
2233.595887543293
 20
394.0203560381719
 30
0.0
 10
2233.595567775912
 20
394.0271528539405
 30
0.0
 10
2233.595761109178
 20
394.0308381631844
 30
0.0
 10
2233.597018218814
 20
394.0404430389372
 30
0.0
 10
2233.598406800755
 20
394.0466427009753
 30
0.0
 10
2233.605244996243
 20
394.069783382234
 30
0.0
 10
2233.613664471395
 20
394.0891814290831
 30
0.0
 10
2233.64901786007
 20
394.1550360247246
 30
0.0
 10
2233.687598205069
 20
394.2092088772553
 30
0.0
 10
2233.777732541483
 20
394.2987101494054
 30
0.0
 10
2233.82623671949
 20
394.3369700351013
 30
0.0
 10
2233.92210042523
 20
394.386950254324
 30
0.0
 10
2233.965355713091
 20
394.4031550874458
 30
0.0
 10
2234.053943094373
 20
394.4205836840282
 30
0.0
 10
2234.096935280043
 20
394.4226697761538
 30
0.0
 10
2234.188640637981
 20
394.4131941826706
 30
0.0
 10
2234.234531479879
 20
394.4001233835246
 30
0.0
 10
2234.338961451457
 20
394.3544943193722
 30
0.0
 10
2234.392250365127
 20
394.31624928927
 30
0.0
 10
2234.480909728914
 20
394.2344071367181
 30
0.0
 10
2234.517631359394
 20
394.1887940455891
 30
0.0
 10
2234.564844912795
 20
394.1156362307529
 30
0.0
 10
2234.580266487591
 20
394.0852495447436
 30
0.0
 10
2234.591416199721
 20
394.0524563332576
 30
0.0
 10
2234.593418131609
 20
394.044923180621
 30
0.0
 10
2234.595294993348
 20
394.0338102153578
 30
0.0
 10
2234.59567238507
 20
394.0297914643341
 30
0.0
 10
2234.59567238507
 20
394.0261262568265
 30
0.0
  0
CIRCLE
  5
26394
330
1F
100
AcDbEntity
  8
AM_VIS
100
AcDbCircle
 10
2234.09567238507
 20
398.8987288144609
 30
0.0
 40
0.5000000000000032
  0
ARC
  5
26395
330
1F
100
AcDbEntity
  8
AM_VIS
100
AcDbCircle
 10
2234.095691913761
 20
407.0797514169381
 30
0.0
 40
0.6997982445397195
100
AcDbArc
 50
224.4224702407787
 51
315.5752923890397
  0
ARC
  5
26396
330
1F
100
AcDbEntity
  8
AM_VIS
100
AcDbCircle
 10
2234.095633960551
 20
393.2177008842702
 30
0.0
 40
0.6998062945020467
100
AcDbArc
 50
44.42169926757007
 51
135.5738984971954
  0
LINE
  5
26397
330
1F
100
AcDbEntity
  8
AM_VIS
100
AcDbLine
 10
2228.49567238507
 20
393.148728814461
 30
0.0
 11
2228.49567238507
 21
389.148728814461
 31
0.0
  0
LINE
  5
26398
330
1F
100
AcDbEntity
  8
AM_VIS
100
AcDbLine
 10
2198.99567238507
 20
417.648728814461
 30
0.0
 11
2228.49567238507
 21
417.648728814461
 31
0.0
  0
LINE
  5
26399
330
1F
100
AcDbEntity
  8
AM_VIS
100
AcDbLine
 10
2228.49567238507
 20
393.148728814461
 30
0.0
 11
2228.49567238507
 21
417.648728814461
 31
0.0
  0
LINE
  5
2639A
330
1F
100
AcDbEntity
  8
AM_VIS
100
AcDbLine
 10
2198.99567238507
 20
389.148728814461
 30
0.0
 11
2228.49567238507
 21
389.148728814461
 31
0.0
  0
LINE
  5
2639B
330
1F
100
AcDbEntity
  8
AM_VIS
100
AcDbLine
 10
2196.99567238507
 20
422.4487288144611
 30
0.0
 11
2196.99567238507
 21
422.5849768709961
 31
0.0
  0
LINE
  5
2639C
330
1F
100
AcDbEntity
  8
AM_VIS
100
AcDbLine
 10
2196.99567238507
 20
422.9298072561838
 30
0.0
 11
2196.99567238507
 21
422.9487288144611
 31
0.0
  0
LINE
  5
2639D
330
1F
100
AcDbEntity
  8
AM_VIS
100
AcDbLine
 10
2196.99567238507
 20
377.3487288144611
 30
0.0
 11
2196.99567238507
 21
377.3676503727383
 31
0.0
  0
LINE
  5
2639E
330
1F
100
AcDbEntity
  8
AM_VIS
100
AcDbLine
 10
2196.99567238507
 20
377.7124807579261
 30
0.0
 11
2196.99567238507
 21
377.848728814461
 31
0.0
  0
LINE
  5
2639F
330
1F
100
AcDbEntity
  8
AM_VIS
100
AcDbLine
 10
2198.99567238507
 20
377.848728814461
 30
0.0
 11
2198.99567238507
 21
377.3487288144611
 31
0.0
  0
LINE
  5
263A0
330
1F
100
AcDbEntity
  8
AM_VIS
100
AcDbLine
 10
2198.99567238507
 20
422.9487288144611
 30
0.0
 11
2198.99567238507
 21
422.4487288144611
 31
0.0
  0
LINE
  5
263A1
330
1F
100
AcDbEntity
  8
AM_VIS
100
AcDbLine
 10
2198.99567238507
 20
422.9487288144611
 30
0.0
 11
2196.99567238507
 21
422.9487288144611
 31
0.0
  0
LINE
  5
263A2
330
1F
100
AcDbEntity
  8
AM_VIS
100
AcDbLine
 10
2196.99567238507
 20
377.848728814461
 30
0.0
 11
2196.99567238507
 21
422.4487288144611
 31
0.0
  0
LINE
  5
263A3
330
1F
100
AcDbEntity
  8
AM_VIS
100
AcDbLine
 10
2198.99567238507
 20
377.848728814461
 30
0.0
 11
2198.99567238507
 21
422.4487288144611
 31
0.0
  0
LINE
  5
263A4
330
1F
100
AcDbEntity
  8
AM_VIS
100
AcDbLine
 10
2196.99567238507
 20
377.3487288144611
 30
0.0
 11
2198.99567238507
 21
377.3487288144611
 31
0.0
  0
LINE
  5
263A5
330
1F
100
AcDbEntity
  8
AM_VIS
100
AcDbLine
 10
2184.74567238507
 20
423.648728814461
 30
0.0
 11
2191.645672385071
 21
423.648728814461
 31
0.0
  0
LINE
  5
263A6
330
1F
100
AcDbEntity
  8
AM_VIS
100
AcDbLine
 10
2184.74567238507
 20
423.648728814461
 30
0.0
 11
2184.74567238507
 21
423.1436318015544
 31
0.0
  0
LINE
  5
263A7
330
1F
100
AcDbEntity
  8
AM_VIS
100
AcDbLine
 10
2191.645672385071
 20
423.648728814461
 30
0.0
 11
2191.645672385071
 21
423.0231918535499
 31
0.0
  0
LINE
  5
263A8
330
1F
100
AcDbEntity
  8
AM_VIS
100
AcDbLine
 10
2172.99567238507
 20
376.9487288144611
 30
0.0
 11
2196.99567238507
 21
377.3676503727383
 31
0.0
  0
LINE
  5
263A9
330
1F
100
AcDbEntity
  8
AM_VIS
100
AcDbLine
 10
2172.99567238507
 20
423.348728814461
 30
0.0
 11
2196.99567238507
 21
422.9298072561839
 31
0.0
  0
LINE
  5
263AA
330
1F
100
AcDbEntity
  8
AM_VIS
100
AcDbLine
 10
2196.99567238507
 20
378.6106132118575
 30
0.0
 11
2196.910284465765
 21
378.6115811224929
 31
0.0
  0
LINE
  5
263AB
330
1F
100
AcDbEntity
  8
AM_VIS
100
AcDbLine
 10
2196.99567238507
 20
378.6115811224929
 30
0.0
 11
2196.910284465765
 21
378.6115811224929
 31
0.0
  0
LINE
  5
263AC
330
1F
100
AcDbEntity
  8
AM_VIS
100
AcDbLine
 10
2196.910284465765
 20
378.6115811224929
 30
0.0
 11
2196.99567238507
 21
378.6138762168084
 31
0.0
  0
LINE
  5
263AD
330
1F
100
AcDbEntity
  8
AM_VIS
100
AcDbLine
 10
2196.99567238507
 20
421.6835814121139
 30
0.0
 11
2196.910284465766
 21
421.6858765064293
 31
0.0
  0
LINE
  5
263AE
330
1F
100
AcDbEntity
  8
AM_VIS
100
AcDbLine
 10
2196.99567238507
 20
421.6858765064293
 30
0.0
 11
2196.910284465766
 21
421.6858765064293
 31
0.0
  0
LINE
  5
263AF
330
1F
100
AcDbEntity
  8
AM_VIS
100
AcDbLine
 10
2196.910284465766
 20
421.6858765064293
 30
0.0
 11
2196.99567238507
 21
421.6868444170646
 31
0.0
  0
LINE
  5
263B0
330
1F
100
AcDbEntity
  8
AM_VIS
100
AcDbLine
 10
2172.99567238507
 20
376.9487288144611
 30
0.0
 11
2172.99567238507
 21
423.348728814461
 31
0.0
  0
LINE
  5
263B1
330
1F
100
AcDbEntity
  8
AM_VIS
100
AcDbLine
 10
2196.99567238507
 20
422.5849768709961
 30
0.0
 11
2196.99567238507
 21
422.9298072561838
 31
0.0
  0
LINE
  5
263B2
330
1F
100
AcDbEntity
  8
AM_VIS
100
AcDbLine
 10
2196.99567238507
 20
377.3676503727383
 30
0.0
 11
2196.99567238507
 21
377.7124807579261
 31
0.0
  0
CIRCLE
  5
263B3
330
1F
100
AcDbEntity
  8
AM_VIS
100
AcDbCircle
 10
2165.99567238507
 20
485.3128446299249
 30
0.0
 40
2.25
  0
CIRCLE
  5
263B4
330
1F
100
AcDbEntity
  8
AM_VIS
100
AcDbCircle
 10
2093.99567238507
 20
508.3128446299249
 30
0.0
 40
2.25
  0
CIRCLE
  5
263B5
330
1F
100
AcDbEntity
  8
AM_VIS
100
AcDbCircle
 10
2116.49567238507
 20
499.0628446299249
 30
0.0
 40
8.8
  0
CIRCLE
  5
263B6
330
1F
100
AcDbEntity
  8
AM_VIS
100
AcDbCircle
 10
2116.49567238507
 20
499.0628446299249
 30
0.0
 40
10.74999999999999
  0
ARC
  5
263B7
330
1F
100
AcDbEntity
  8
AM_VIS
100
AcDbCircle
 10
2093.99567238507
 20
508.3128446299249
 30
0.0
 40
4.0
100
AcDbArc
 50
180.0
 51
0.0
  0
ARC
  5
263B8
330
1F
100
AcDbEntity
  8
AM_VIS
100
AcDbCircle
 10
2165.99567238507
 20
485.3128446299249
 30
0.0
 40
4.0
100
AcDbArc
 50
0.0
 51
180.0
  0
CIRCLE
  5
263B9
330
1F
100
AcDbEntity
  8
AM_VIS
100
AcDbCircle
 10
2143.49567238507
 20
494.5628446299249
 30
0.0
 40
10.74999999999999
  0
CIRCLE
  5
263BA
330
1F
100
AcDbEntity
  8
AM_VIS
100
AcDbCircle
 10
2143.49567238507
 20
494.5628446299249
 30
0.0
 40
8.8
  0
ARC
  5
263BB
330
1F
100
AcDbEntity
  8
AM_VIS
100
AcDbCircle
 10
2117.39567238507
 20
502.262844629925
 30
0.0
 40
4.5
100
AcDbArc
 50
0.0
 51
180.0
  0
ARC
  5
263BC
330
1F
100
AcDbEntity
  8
AM_VIS
100
AcDbCircle
 10
2117.39567238507
 20
495.2628446299249
 30
0.0
 40
4.5
100
AcDbArc
 50
180.0
 51
0.0
  0
ARC
  5
263BD
330
1F
100
AcDbEntity
  8
AM_VIS
100
AcDbCircle
 10
2142.59567238507
 20
498.3628446299248
 30
0.0
 40
4.499999999999992
100
AcDbArc
 50
0.0
 51
180.0
  0
ARC
  5
263BE
330
1F
100
AcDbEntity
  8
AM_VIS
100
AcDbCircle
 10
2142.59567238507
 20
491.3628446299249
 30
0.0
 40
4.5
100
AcDbArc
 50
180.0
 51
0.0
  0
LINE
  5
263BF
330
1F
100
AcDbEntity
  8
AM_VIS
100
AcDbLine
 10
2169.99567238507
 20
481.8128446299249
 30
0.0
 11
2161.99567238507
 21
481.8128446299249
 31
0.0
  0
LINE
  5
263C0
330
1F
100
AcDbEntity
  8
AM_VIS
100
AcDbLine
 10
2089.99567238507
 20
508.3128446299249
 30
0.0
 11
2089.99567238507
 21
511.8128446299246
 31
0.0
  0
LINE
  5
263C1
330
1F
100
AcDbEntity
  8
AM_VIS
100
AcDbLine
 10
2097.99567238507
 20
511.8128446299246
 30
0.0
 11
2097.99567238507
 21
508.3128446299249
 31
0.0
  0
LINE
  5
263C2
330
1F
100
AcDbEntity
  8
AM_VIS
100
AcDbLine
 10
2169.99567238507
 20
481.8128446299249
 30
0.0
 11
2171.19567238507
 21
481.8128446299249
 31
0.0
  0
LINE
  5
263C3
330
1F
100
AcDbEntity
  8
AM_VIS
100
AcDbLine
 10
2169.99567238507
 20
485.3128446299249
 30
0.0
 11
2169.99567238507
 21
481.8128446299249
 31
0.0
  0
LINE
  5
263C4
330
1F
100
AcDbEntity
  8
AM_VIS
100
AcDbLine
 10
2161.99567238507
 20
481.8128446299249
 30
0.0
 11
2161.99567238507
 21
485.3128446299249
 31
0.0
  0
LINE
  5
263C5
330
1F
100
AcDbEntity
  8
AM_VIS
100
AcDbLine
 10
2088.79567238507
 20
481.8128446299249
 30
0.0
 11
2161.99567238507
 21
481.8128446299249
 31
0.0
  0
LINE
  5
263C6
330
1F
100
AcDbEntity
  8
AM_VIS
100
AcDbLine
 10
2121.89567238507
 20
502.262844629925
 30
0.0
 11
2121.89567238507
 21
495.2628446299249
 31
0.0
  0
LINE
  5
263C7
330
1F
100
AcDbEntity
  8
AM_VIS
100
AcDbLine
 10
2112.89567238507
 20
495.2628446299249
 30
0.0
 11
2112.89567238507
 21
502.262844629925
 31
0.0
  0
LINE
  5
263C8
330
1F
100
AcDbEntity
  8
AM_VIS
100
AcDbLine
 10
2147.09567238507
 20
498.3628446299248
 30
0.0
 11
2147.09567238507
 21
491.3628446299249
 31
0.0
  0
LINE
  5
263C9
330
1F
100
AcDbEntity
  8
AM_VIS
100
AcDbLine
 10
2138.09567238507
 20
491.3628446299249
 30
0.0
 11
2138.09567238507
 21
498.3628446299248
 31
0.0
  0
LINE
  5
263CA
330
1F
100
AcDbEntity
  8
AM_VIS
100
AcDbLine
 10
2171.19567238507
 20
481.8128446299249
 30
0.0
 11
2172.99567238507
 21
481.8128446299249
 31
0.0
  0
LINE
  5
263CB
330
1F
100
AcDbEntity
  8
AM_VIS
100
AcDbLine
 10
2171.19567238507
 20
511.8128446299249
 30
0.0
 11
2171.19567238507
 21
481.8128446299249
 31
0.0
  0
LINE
  5
263CC
330
1F
100
AcDbEntity
  8
AM_VIS
100
AcDbLine
 10
2172.99567238507
 20
481.8128446299249
 30
0.0
 11
2172.99567238507
 21
511.8128446299249
 31
0.0
  0
LINE
  5
263CD
330
1F
100
AcDbEntity
  8
AM_VIS
100
AcDbLine
 10
2088.79567238507
 20
481.8128446299249
 30
0.0
 11
2088.79567238507
 21
511.8128446299249
 31
0.0
  0
LINE
  5
263CE
330
1F
100
AcDbEntity
  8
AM_VIS
100
AcDbLine
 10
2086.99567238507
 20
481.8128446299249
 30
0.0
 11
2088.79567238507
 21
481.8128446299249
 31
0.0
  0
LINE
  5
263CF
330
1F
100
AcDbEntity
  8
AM_VIS
100
AcDbLine
 10
2086.99567238507
 20
511.8128446299249
 30
0.0
 11
2086.99567238507
 21
481.8128446299249
 31
0.0
  0
LINE
  5
263D0
330
1F
100
AcDbEntity
  8
AM_VIS
100
AcDbLine
 10
2172.99567238507
 20
511.8128446299249
 30
0.0
 11
2171.19567238507
 21
511.8128446299249
 31
0.0
  0
LINE
  5
263D1
330
1F
100
AcDbEntity
  8
AM_VIS
100
AcDbLine
 10
2097.99567238507
 20
511.8128446299249
 30
0.0
 11
2171.19567238507
 21
511.8128446299249
 31
0.0
  0
LINE
  5
263D2
330
1F
100
AcDbEntity
  8
AM_VIS
100
AcDbLine
 10
2089.99567238507
 20
511.8128446299249
 30
0.0
 11
2097.99567238507
 21
511.8128446299249
 31
0.0
  0
LINE
  5
263D3
330
1F
100
AcDbEntity
  8
AM_VIS
100
AcDbLine
 10
2088.79567238507
 20
511.8128446299249
 30
0.0
 11
2089.99567238507
 21
511.8128446299249
 31
0.0
  0
LINE
  5
263D4
330
1F
100
AcDbEntity
  8
AM_VIS
100
AcDbLine
 10
2088.79567238507
 20
511.8128446299249
 30
0.0
 11
2086.99567238507
 21
511.8128446299249
 31
0.0
  0
LINE
  5
263D5
330
1F
100
AcDbEntity
  8
AM_VIS
100
AcDbLine
 10
2078.910617605039
 20
485.5013446299249
 30
0.0
 11
2078.99567238507
 21
485.5013446299249
 31
0.0
  0
LINE
  5
263D6
330
1F
100
AcDbEntity
  8
AM_VIS
100
AcDbLine
 10
2078.99567238507
 20
486.1243446299249
 30
0.0
 11
2078.910617605039
 21
486.1243446299249
 31
0.0
  0
ARC
  5
263D7
330
1F
100
AcDbEntity
  8
AM_VIS
100
AcDbCircle
 10
2085.39567238507
 20
485.8128446299249
 30
0.0
 40
6.492531690334768
100
AcDbArc
 50
170.315147966464
 51
177.2499957580093
  0
ARC
  5
263D8
330
1F
100
AcDbEntity
  8
AM_VIS
100
AcDbCircle
 10
2085.39567238507
 20
485.8128446299249
 30
0.0
 40
6.492531690334768
100
AcDbArc
 50
182.7500042419906
 51
189.6848520335359
  0
ARC
  5
263D9
330
1F
100
AcDbEntity
  8
AM_VIS
100
AcDbCircle
 10
2081.076184061339
 20
501.9994011745652
 30
0.0
 40
1.6
100
AcDbArc
 50
208.172734131862
 51
265.0
  0
ARC
  5
263DA
330
1F
100
AcDbEntity
  8
AM_VIS
100
AcDbCircle
 10
2081.076184061339
 20
506.6262880852845
 30
0.0
 40
1.6
100
AcDbArc
 50
95.00000000000001
 51
151.8272658681378
  0
ARC
  5
263DB
330
1F
100
AcDbEntity
  8
AM_VIS
100
AcDbCircle
 10
2085.39567238507
 20
504.3128446299249
 30
0.0
 40
6.5
100
AcDbArc
 50
151.8272658681378
 51
159.2772556184272
  0
ARC
  5
263DC
330
1F
100
AcDbEntity
  8
AM_VIS
100
AcDbCircle
 10
2085.39567238507
 20
504.3128446299249
 30
0.0
 40
6.499999999999998
100
AcDbArc
 50
200.7227443816124
 51
208.172734131862
  0
LINE
  5
263DD
330
1F
100
AcDbEntity
  8
AM_VIS
100
AcDbLine
 10
2081.99567238507
 20
508.3128446299249
 30
0.0
 11
2081.99567238507
 21
500.3128446299249
 31
0.0
  0
LINE
  5
263DE
330
1F
100
AcDbEntity
  8
AM_VIS
100
AcDbLine
 10
2079.316198723643
 20
502.0128446299229
 30
0.0
 11
2079.321991361804
 21
502.0186418102898
 31
0.0
  0
ARC
  5
263DF
330
1F
100
AcDbEntity
  8
AM_VIS
100
AcDbCircle
 10
2085.39567238507
 20
504.3128446299249
 30
0.0
 40
6.492531690334672
100
AcDbArc
 50
182.7500042420101
 51
200.692983185602
  0
ARC
  5
263E0
330
1F
100
AcDbEntity
  8
AM_VIS
100
AcDbCircle
 10
2085.39567238507
 20
504.3128446299249
 30
0.0
 40
6.492531690334672
100
AcDbArc
 50
159.3070168144376
 51
177.2499957580223
  0
LINE
  5
263E1
330
1F
100
AcDbEntity
  8
AM_VIS
100
AcDbLine
 10
2079.321991361803
 20
506.6070474495561
 30
0.0
 11
2079.316198723641
 21
506.612844629923
 31
0.0
  0
ELLIPSE
  5
263E2
330
1F
100
AcDbEntity
  8
AM_VIS
100
AcDbEllipse
 10
2083.50355257437
 20
504.3128446299249
 30
0.0
 11
0.0000000000000015
 21
-5.924134808644348
 31
0.0
210
0.0
220
0.0
230
1.0
 40
0.7068296022936213
 41
4.659783202667236
 42
4.764994758102814
  0
LINE
  5
263E3
330
1F
100
AcDbEntity
  8
AM_VIS
100
AcDbLine
 10
2079.321991361804
 20
504.6243446299229
 30
0.0
 11
2078.91061760504
 21
504.6243446299229
 31
0.0
  0
LINE
  5
263E4
330
1F
100
AcDbEntity
  8
AM_VIS
100
AcDbLine
 10
2078.91061760504
 20
504.0013446299231
 30
0.0
 11
2079.321991361804
 21
504.0013446299231
 31
0.0
  0
LINE
  5
263E5
330
1F
100
AcDbEntity
  8
AM_VIS
100
AcDbLine
 10
2080.936734872943
 20
500.4054896576185
 30
0.0
 11
2081.99567238507
 21
500.3128446299249
 31
0.0
  0
LINE
  5
263E6
330
1F
100
AcDbEntity
  8
AM_VIS
100
AcDbLine
 10
2080.936734872943
 20
508.2201996022313
 30
0.0
 11
2081.99567238507
 21
508.3128446299249
 31
0.0
  0
LINE
  5
263E7
330
1F
100
AcDbEntity
  8
AM_VIS
100
AcDbLine
 10
2082.99567238507
 20
508.1128446299248
 30
0.0
 11
2081.99567238507
 21
508.1128446299248
 31
0.0
  0
LINE
  5
263E8
330
1F
100
AcDbEntity
  8
AM_VIS
100
AcDbLine
 10
2082.99567238507
 20
500.512844629925
 30
0.0
 11
2081.99567238507
 21
500.512844629925
 31
0.0
  0
ELLIPSE
  5
263E9
330
1F
100
AcDbEntity
  8
AM_VIS
100
AcDbEllipse
 10
2082.545167868961
 20
504.3128446299249
 30
0.0
 11
-10.43241980388366
 21
-3.612224548200709
 31
0.0
210
0.0
220
0.0
230
1.0
 40
0.1130859463286727
 41
1.479004411223418
 42
1.574823782749175
  0
ELLIPSE
  5
263EA
330
1F
100
AcDbEntity
  8
AM_VIS
100
AcDbEllipse
 10
2081.446176901179
 20
504.3128446299249
 30
0.0
 11
-10.43241980388351
 21
-3.612224548200709
 31
0.0
210
0.0
220
0.0
230
1.0
 40
0.1130859463286739
 41
1.584316227746557
 42
1.680623848184831
  0
ARC
  5
263EB
330
1F
100
AcDbEntity
  8
AM_VIS
100
AcDbCircle
 10
2079.99567238507
 20
510.8128446299249
 30
0.0
 40
1.0
100
AcDbArc
 50
90.0
 51
180.0
  0
ARC
  5
263EC
330
1F
100
AcDbEntity
  8
AM_VIS
100
AcDbCircle
 10
2079.99567238507
 20
482.8128446299249
 30
0.0
 40
0.9999999999999998
100
AcDbArc
 50
180.0
 51
270.0
  0
ARC
  5
263ED
330
1F
100
AcDbEntity
  8
AM_VIS
100
AcDbCircle
 10
2079.99567238507
 20
509.3128446299249
 30
0.0
 40
1.0
100
AcDbArc
 50
180.0
 51
270.0
  0
ARC
  5
263EE
330
1F
100
AcDbEntity
  8
AM_VIS
100
AcDbCircle
 10
2079.99567238507
 20
499.3128446299249
 30
0.0
 40
1.0
100
AcDbArc
 50
90.0
 51
180.0
  0
LINE
  5
263EF
330
1F
100
AcDbEntity
  8
AM_VIS
100
AcDbLine
 10
2078.99567238507
 20
503.2206139995178
 30
0.0
 11
2078.99567238507
 21
499.3128446299249
 31
0.0
  0
LINE
  5
263F0
330
1F
100
AcDbEntity
  8
AM_VIS
100
AcDbLine
 10
2078.99567238507
 20
504.6243446299229
 30
0.0
 11
2078.99567238507
 21
504.0013446299231
 31
0.0
  0
LINE
  5
263F1
330
1F
100
AcDbEntity
  8
AM_VIS
100
AcDbLine
 10
2078.99567238507
 20
509.3128446299249
 30
0.0
 11
2078.99567238507
 21
505.4050752603322
 31
0.0
  0
LINE
  5
263F2
330
1F
100
AcDbEntity
  8
AM_VIS
100
AcDbLine
 10
2086.99567238507
 20
511.8128446299249
 30
0.0
 11
2079.99567238507
 21
511.8128446299249
 31
0.0
  0
LINE
  5
263F3
330
1F
100
AcDbEntity
  8
AM_VIS
100
AcDbLine
 10
2079.99567238507
 20
481.8128446299249
 30
0.0
 11
2086.99567238507
 21
481.8128446299249
 31
0.0
  0
LINE
  5
263F4
330
1F
100
AcDbEntity
  8
AM_VIS
100
AcDbLine
 10
2086.99567238507
 20
510.8128446299249
 30
0.0
 11
2086.99567238507
 21
482.8128446299249
 31
0.0
  0
LINE
  5
263F5
330
1F
100
AcDbEntity
  8
AM_VIS
100
AcDbLine
 10
2082.99567238507
 20
500.3128446299249
 30
0.0
 11
2082.99567238507
 21
508.3128446299249
 31
0.0
  0
LINE
  5
263F6
330
1F
100
AcDbEntity
  8
AM_VIS
100
AcDbLine
 10
2078.99567238507
 20
510.8128446299249
 30
0.0
 11
2078.99567238507
 21
509.3128446299249
 31
0.0
  0
LINE
  5
263F7
330
1F
100
AcDbEntity
  8
AM_VIS
100
AcDbLine
 10
2078.99567238507
 20
499.3128446299249
 30
0.0
 11
2078.99567238507
 21
482.8128446299249
 31
0.0
  0
LINE
  5
263F8
330
1F
100
AcDbEntity
  8
AM_VIS
100
AcDbLine
 10
2079.99567238507
 20
508.3128446299249
 30
0.0
 11
2082.99567238507
 21
508.3128446299249
 31
0.0
  0
LINE
  5
263F9
330
1F
100
AcDbEntity
  8
AM_VIS
100
AcDbLine
 10
2082.99567238507
 20
500.3128446299249
 30
0.0
 11
2079.99567238507
 21
500.3128446299249
 31
0.0
  0
ARC
  5
263FA
330
1F
100
AcDbEntity
  8
AM_VIS
100
AcDbCircle
 10
2224.99567238507
 20
489.8128446299251
 30
0.0
 40
3.5
100
AcDbArc
 50
270.0
 51
339.9583415914264
  0
LINE
  5
263FB
330
1F
100
AcDbEntity
  8
AM_VIS
100
AcDbLine
 10
2228.49567238507
 20
487.8128446299252
 30
0.0
 11
2228.49567238507
 21
505.8128446299251
 31
0.0
  0
LINE
  5
263FC
330
1F
100
AcDbEntity
  8
AM_VIS
100
AcDbLine
 10
2240.49567238507
 20
505.8128446299251
 30
0.0
 11
2240.49567238507
 21
487.8128446299252
 31
0.0
  0
ARC
  5
263FD
330
1F
100
AcDbEntity
  8
AM_VIS
100
AcDbCircle
 10
2202.99567238507
 20
503.8128446299252
 30
0.0
 40
3.5
100
AcDbArc
 50
90.0
 51
180.0
  0
ARC
  5
263FE
330
1F
100
AcDbEntity
  8
AM_VIS
100
AcDbCircle
 10
2224.99567238507
 20
503.8128446299252
 30
0.0
 40
3.499999999999999
100
AcDbArc
 50
20.04165840857354
 51
90.0
  0
ARC
  5
263FF
330
1F
100
AcDbEntity
  8
AM_VIS
100
AcDbCircle
 10
2202.99567238507
 20
489.8128446299251
 30
0.0
 40
3.5
100
AcDbArc
 50
180.0
 51
270.0
  0
CIRCLE
  5
26400
330
1F
100
AcDbEntity
  8
AM_VIS
100
AcDbCircle
 10
2213.99567238507
 20
496.8128446299251
 30
0.0
 40
3.5
  0
LINE
  5
26401
330
1F
100
AcDbEntity
  8
AM_VIS
100
AcDbLine
 10
2227.997016189541
 20
488.0123071081368
 30
0.0
 11
2228.49567238507
 21
487.8128446299252
 31
0.0
  0
LINE
  5
26402
330
1F
100
AcDbEntity
  8
AM_VIS
100
AcDbLine
 10
2227.997016189541
 20
505.6133821517132
 30
0.0
 11
2228.49567238507
 21
505.8128446299251
 31
0.0
  0
LINE
  5
26403
330
1F
100
AcDbEntity
  8
AM_VIS
100
AcDbLine
 10
2228.49567238507
 20
487.8128446299252
 30
0.0
 11
2240.49567238507
 21
487.8128446299252
 31
0.0
  0
LINE
  5
26404
330
1F
100
AcDbEntity
  8
AM_VIS
100
AcDbLine
 10
2228.49567238507
 20
505.8128446299251
 30
0.0
 11
2240.49567238507
 21
505.8128446299251
 31
0.0
  0
SPLINE
  5
26405
330
1F
100
AcDbEntity
  8
AM_VIS
100
AcDbSpline
210
0.0
220
0.0
230
1.0
 70
     8
 71
     3
 72
    18
 73
    14
 74
     0
 42
0.0000000001
 43
0.0000000001
 40
6.072258403086962
 40
6.072258403086962
 40
6.072258403086962
 40
6.072258403086962
 40
6.091519998582311
 40
6.091519998582311
 40
6.594079983681931
 40
6.594079983681931
 40
7.096639968781531
 40
7.096639968781531
 40
7.59919995388113
 40
7.59919995388113
 40
8.101759938980729
 40
8.101759938980729
 40
8.212872863102431
 40
8.212872863102431
 40
8.212872863102431
 40
8.212872863102431
 10
2228.283725326869
 20
488.6133831457889
 30
0.0
 10
2228.28457519707
 20
488.6157128731306
 30
0.0
 10
2228.285408571662
 20
488.6180550836506
 30
0.0
 10
2228.307539630209
 20
488.6818427379278
 30
0.0
 10
2228.317496041087
 20
488.7518289983695
 30
0.0
 10
2228.317496041087
 20
488.9016634369633
 30
0.0
 10
2228.307539630209
 20
488.9873842517013
 30
0.0
 10
2228.264911326332
 20
489.1770628267882
 30
0.0
 10
2228.232241584891
 20
489.2810173240468
 30
0.0
 10
2228.144876252142
 20
489.5008167053233
 30
0.0
 10
2228.090123691408
 20
489.616777844571
 30
0.0
 10
2228.01214980942
 20
489.7605702063019
 30
0.0
 10
2227.997593015324
 20
489.7866905343203
 30
0.0
 10
2227.982630069339
 20
489.8128446299251
 30
0.0
  0
SPLINE
  5
26406
330
1F
100
AcDbEntity
  8
AM_VIS
100
AcDbSpline
210
0.0
220
0.0
230
1.0
 70
     8
 71
     3
 72
    16
 73
    12
 74
     0
 42
0.0000000001
 43
0.0000000001
 40
1.626271716229691
 40
1.626271716229691
 40
1.626271716229691
 40
1.626271716229691
 40
2.044102946506439
 40
2.044102946506439
 40
3.066154419759659
 40
3.066154419759659
 40
4.088205893012879
 40
4.088205893012879
 40
5.443002653861024
 40
5.443002653861024
 40
6.738847868840626
 40
6.738847868840626
 40
6.738847868840626
 40
6.738847868840626
 10
2227.982630069339
 20
489.8128446299251
 30
0.0
 10
2227.926016820938
 20
489.9118002976588
 30
0.0
 10
2227.865838541043
 20
490.0134405984913
 30
0.0
 10
2227.648239830955
 20
490.3707763454583
 30
0.0
 10
2227.475920846635
 20
490.6369381836305
 30
0.0
 10
2227.113676706377
 20
491.1738740394818
 30
0.0
 10
2226.923743615793
 20
491.4446437510282
 30
0.0
 10
2226.483546756582
 20
492.0532841840554
 30
0.0
 10
2226.195464205664
 20
492.4376520230921
 30
0.0
 10
2225.602205833507
 20
493.1812482910648
 30
0.0
 10
2225.299206553554
 20
493.541348649971
 30
0.0
 10
2224.99567238507
 20
493.8531149125354
 30
0.0
  0
SPLINE
  5
26407
330
1F
100
AcDbEntity
  8
AM_VIS
100
AcDbSpline
210
0.0
220
0.0
230
1.0
 70
     8
 71
     3
 72
    18
 73
    14
 74
     0
 42
0.0000000001
 43
0.0000000001
 40
4.975287104260677
 40
4.975287104260677
 40
4.975287104260677
 40
4.975287104260677
 40
5.086400028382842
 40
5.086400028382842
 40
5.588960013482415
 40
5.588960013482415
 40
6.091519998581987
 40
6.091519998581987
 40
6.59407998368156
 40
6.59407998368156
 40
7.096639968781131
 40
7.096639968781131
 40
7.11590156427612
 40
7.11590156427612
 40
7.11590156427612
 40
7.11590156427612
 10
2227.982630069339
 20
503.8128446299252
 30
0.0
 10
2227.997593015324
 20
503.83899872553
 30
0.0
 10
2228.01214980942
 20
503.8651190535484
 30
0.0
 10
2228.090123691408
 20
504.0089114152793
 30
0.0
 10
2228.144876252142
 20
504.1248725545269
 30
0.0
 10
2228.232241584891
 20
504.3446719358034
 30
0.0
 10
2228.264911326332
 20
504.4486264330621
 30
0.0
 10
2228.307539630209
 20
504.638305008149
 30
0.0
 10
2228.317496041087
 20
504.7240258228868
 30
0.0
 10
2228.317496041087
 20
504.8738602614808
 30
0.0
 10
2228.307539630209
 20
504.9438465219223
 30
0.0
 10
2228.285408571662
 20
505.0076341761996
 30
0.0
 10
2228.28457519707
 20
505.0099763867197
 30
0.0
 10
2228.283725326869
 20
505.0123061140611
 30
0.0
  0
SPLINE
  5
26408
330
1F
100
AcDbEntity
  8
AM_VIS
100
AcDbSpline
210
0.0
220
0.0
230
1.0
 70
     8
 71
     3
 72
    16
 73
    12
 74
     0
 42
0.0000000001
 43
0.0000000001
 40
13.44245735600753
 40
13.44245735600753
 40
13.44245735600753
 40
13.44245735600753
 40
14.73830257098713
 40
14.73830257098713
 40
16.09309933183528
 40
16.09309933183528
 40
17.1151508050885
 40
17.1151508050885
 40
18.13720227834172
 40
18.13720227834172
 40
18.55503350861849
 40
18.55503350861849
 40
18.55503350861849
 40
18.55503350861849
 10
2224.99567238507
 20
499.7725743473147
 30
0.0
 10
2225.299206553554
 20
500.0843406098788
 30
0.0
 10
2225.602205833507
 20
500.4444409687853
 30
0.0
 10
2226.195464205664
 20
501.1880372367579
 30
0.0
 10
2226.483546756582
 20
501.5724050757946
 30
0.0
 10
2226.923743615793
 20
502.181045508822
 30
0.0
 10
2227.113676706377
 20
502.4518152203682
 30
0.0
 10
2227.475920846635
 20
502.9887510762196
 30
0.0
 10
2227.648239830955
 20
503.2549129143917
 30
0.0
 10
2227.865838541043
 20
503.612248661359
 30
0.0
 10
2227.926016820938
 20
503.7138889621912
 30
0.0
 10
2227.982630069339
 20
503.8128446299252
 30
0.0
  0
LINE
  5
26409
330
1F
100
AcDbEntity
  8
AM_VIS
100
AcDbLine
 10
2202.99567238507
 20
486.3128446299251
 30
0.0
 11
2224.99567238507
 21
486.3128446299251
 31
0.0
  0
SPLINE
  5
2640A
330
1F
100
AcDbEntity
  8
AM_VIS
100
AcDbSpline
210
0.0
220
0.0
230
1.0
 70
    12
 71
     2
 72
     6
 73
     3
 74
     0
 42
0.0000000001
 43
0.0000000001
 40
0.0
 40
0.0
 40
0.0
 40
3.381727793507036
 40
3.381727793507036
 40
3.381727793507036
 10
2224.99567238507
 20
493.8531149125354
 30
0.0
 41
1.0
 10
2223.49567238507
 20
495.3937961352862
 30
0.0
 41
1.021203771466384
 10
2223.49567238507
 20
496.8128446299251
 30
0.0
 41
1.0
  0
SPLINE
  5
2640B
330
1F
100
AcDbEntity
  8
AM_VIS
100
AcDbSpline
210
0.0
220
0.0
230
1.0
 70
    12
 71
     2
 72
     6
 73
     3
 74
     0
 42
0.0000000001
 43
0.0000000001
 40
3.381727793507036
 40
3.381727793507036
 40
3.381727793507036
 40
6.763455587014078
 40
6.763455587014078
 40
6.763455587014078
 10
2223.49567238507
 20
496.8128446299251
 30
0.0
 41
1.0
 10
2223.49567238507
 20
498.231893124564
 30
0.0
 41
1.021203771466384
 10
2224.99567238507
 20
499.7725743473147
 30
0.0
 41
1.0
  0
LINE
  5
2640C
330
1F
100
AcDbEntity
  8
AM_VIS
100
AcDbLine
 10
2199.49567238507
 20
503.8128446299252
 30
0.0
 11
2199.49567238507
 21
489.8128446299251
 31
0.0
  0
LINE
  5
2640D
330
1F
100
AcDbEntity
  8
AM_VIS
100
AcDbLine
 10
2224.99567238507
 20
507.3128446299251
 30
0.0
 11
2202.99567238507
 21
507.3128446299251
 31
0.0
  0
LINE
  5
2640E
330
1F
100
AcDbEntity
  8
AM_VIS
100
AcDbLine
 10
2241.99567238507
 20
503.5628446299249
 30
0.0
 11
2240.49567238507
 21
503.5628446299249
 31
0.0
  0
LINE
  5
2640F
330
1F
100
AcDbEntity
  8
AM_VIS
100
AcDbLine
 10
2241.99567238507
 20
490.0628446299249
 30
0.0
 11
2240.49567238507
 21
490.0628446299249
 31
0.0
  0
LINE
  5
26410
330
1F
100
AcDbEntity
  8
AM_VIS
100
AcDbLine
 10
2247.49567238507
 20
493.688000179555
 30
0.0
 11
2241.99567238507
 21
493.688000179555
 31
0.0
  0
LINE
  5
26411
330
1F
100
AcDbEntity
  8
AM_VIS
100
AcDbLine
 10
2241.99567238507
 20
497.1338399304973
 30
0.0
 11
2247.49567238507
 21
497.1338399304973
 31
0.0
  0
LINE
  5
26412
330
1F
100
AcDbEntity
  8
AM_VIS
100
AcDbLine
 10
2247.49567238507
 20
496.7291973948654
 30
0.0
 11
2241.99567238507
 21
496.7291973948654
 31
0.0
  0
LINE
  5
26413
330
1F
100
AcDbEntity
  8
AM_VIS
100
AcDbLine
 10
2247.49567238507
 20
494.2678832870495
 30
0.0
 11
2241.99567238507
 21
494.2678832870495
 31
0.0
  0
LINE
  5
26414
330
1F
100
AcDbEntity
  8
AM_VIS
100
AcDbLine
 10
2247.49567238507
 20
490.8635908943615
 30
0.0
 11
2241.99567238507
 21
490.8635908943615
 31
0.0
  0
LINE
  5
26415
330
1F
100
AcDbEntity
  8
AM_VIS
100
AcDbLine
 10
2247.49567238507
 20
487.7181863085954
 30
0.0
 11
2241.99567238507
 21
487.7181863085954
 31
0.0
  0
LINE
  5
26416
330
1F
100
AcDbEntity
  8
AM_VIS
100
AcDbLine
 10
2247.49567238507
 20
489.3353858100606
 30
0.0
 11
2241.99567238507
 21
489.3353858100606
 31
0.0
  0
LINE
  5
26417
330
1F
100
AcDbEntity
  8
AM_VIS
100
AcDbLine
 10
2247.49567238507
 20
488.6950135410042
 30
0.0
 11
2241.99567238507
 21
488.6950135410042
 31
0.0
  0
LINE
  5
26418
330
1F
100
AcDbEntity
  8
AM_VIS
100
AcDbLine
 10
2241.99567238507
 20
489.8867636619526
 30
0.0
 11
2247.49567238507
 21
489.8867636619526
 31
0.0
  0
LINE
  5
26419
330
1F
100
AcDbEntity
  8
AM_VIS
100
AcDbLine
 10
2247.49567238507
 20
505.9075029512544
 30
0.0
 11
2241.99567238507
 21
505.9075029512544
 31
0.0
  0
LINE
  5
2641A
330
1F
100
AcDbEntity
  8
AM_VIS
100
AcDbLine
 10
2241.99567238507
 20
499.958249215691
 30
0.0
 11
2241.99567238507
 21
497.1338399304973
 31
0.0
  0
LINE
  5
2641B
330
1F
100
AcDbEntity
  8
AM_VIS
100
AcDbLine
 10
2241.99567238507
 20
496.7291973948654
 30
0.0
 11
2241.99567238507
 21
497.1338399304973
 31
0.0
  0
LINE
  5
2641C
330
1F
100
AcDbEntity
  8
AM_VIS
100
AcDbLine
 10
2241.99567238507
 20
494.2678832870495
 30
0.0
 11
2241.99567238507
 21
496.7291973948654
 31
0.0
  0
LINE
  5
2641D
330
1F
100
AcDbEntity
  8
AM_VIS
100
AcDbLine
 10
2241.99567238507
 20
493.688000179555
 30
0.0
 11
2241.99567238507
 21
494.2678832870495
 31
0.0
  0
LINE
  5
2641E
330
1F
100
AcDbEntity
  8
AM_VIS
100
AcDbLine
 10
2241.99567238507
 20
493.688000179555
 30
0.0
 11
2241.99567238507
 21
490.8635908943615
 31
0.0
  0
LINE
  5
2641F
330
1F
100
AcDbEntity
  8
AM_VIS
100
AcDbLine
 10
2241.99567238507
 20
490.8635908943615
 30
0.0
 11
2241.99567238507
 21
489.8867636619526
 31
0.0
  0
LINE
  5
26420
330
1F
100
AcDbEntity
  8
AM_VIS
100
AcDbLine
 10
2241.99567238507
 20
489.3353858100606
 30
0.0
 11
2241.99567238507
 21
489.8867636619526
 31
0.0
  0
LINE
  5
26421
330
1F
100
AcDbEntity
  8
AM_VIS
100
AcDbLine
 10
2241.99567238507
 20
488.6950135410042
 30
0.0
 11
2241.99567238507
 21
489.3353858100606
 31
0.0
  0
LINE
  5
26422
330
1F
100
AcDbEntity
  8
AM_VIS
100
AcDbLine
 10
2241.99567238507
 20
488.6950135410042
 30
0.0
 11
2241.99567238507
 21
487.7181863085954
 31
0.0
  0
LINE
  5
26423
330
1F
100
AcDbEntity
  8
AM_VIS
100
AcDbLine
 10
2241.99567238507
 20
505.9075029512544
 30
0.0
 11
2241.99567238507
 21
504.0599208984694
 31
0.0
  0
LINE
  5
26424
330
1F
100
AcDbEntity
  8
AM_VIS
100
AcDbLine
 10
2247.49567238507
 20
499.958249215691
 30
0.0
 11
2241.99567238507
 21
499.958249215691
 31
0.0
  0
LINE
  5
26425
330
1F
100
AcDbEntity
  8
AM_VIS
100
AcDbLine
 10
2241.99567238507
 20
501.8058312684757
 30
0.0
 11
2241.99567238507
 21
499.958249215691
 31
0.0
  0
LINE
  5
26426
330
1F
100
AcDbEntity
  8
AM_VIS
100
AcDbLine
 10
2247.49567238507
 20
505.9075029512544
 30
0.0
 11
2247.49567238507
 21
504.0599208984694
 31
0.0
  0
LINE
  5
26427
330
1F
100
AcDbEntity
  8
AM_VIS
100
AcDbLine
 10
2247.49567238507
 20
488.6950135410042
 30
0.0
 11
2247.49567238507
 21
487.7181863085954
 31
0.0
  0
LINE
  5
26428
330
1F
100
AcDbEntity
  8
AM_VIS
100
AcDbLine
 10
2247.49567238507
 20
489.3353858100606
 30
0.0
 11
2247.49567238507
 21
488.6950135410042
 31
0.0
  0
LINE
  5
26429
330
1F
100
AcDbEntity
  8
AM_VIS
100
AcDbLine
 10
2247.49567238507
 20
489.8867636619526
 30
0.0
 11
2247.49567238507
 21
489.3353858100606
 31
0.0
  0
LINE
  5
2642A
330
1F
100
AcDbEntity
  8
AM_VIS
100
AcDbLine
 10
2247.49567238507
 20
490.8635908943615
 30
0.0
 11
2247.49567238507
 21
489.8867636619526
 31
0.0
  0
LINE
  5
2642B
330
1F
100
AcDbEntity
  8
AM_VIS
100
AcDbLine
 10
2247.49567238507
 20
493.688000179555
 30
0.0
 11
2247.49567238507
 21
490.8635908943615
 31
0.0
  0
LINE
  5
2642C
330
1F
100
AcDbEntity
  8
AM_VIS
100
AcDbLine
 10
2247.49567238507
 20
494.2678832870495
 30
0.0
 11
2247.49567238507
 21
493.688000179555
 31
0.0
  0
LINE
  5
2642D
330
1F
100
AcDbEntity
  8
AM_VIS
100
AcDbLine
 10
2247.49567238507
 20
496.7291973948654
 30
0.0
 11
2247.49567238507
 21
494.2678832870495
 31
0.0
  0
LINE
  5
2642E
330
1F
100
AcDbEntity
  8
AM_VIS
100
AcDbLine
 10
2247.49567238507
 20
497.1338399304973
 30
0.0
 11
2247.49567238507
 21
496.7291973948654
 31
0.0
  0
LINE
  5
2642F
330
1F
100
AcDbEntity
  8
AM_VIS
100
AcDbLine
 10
2247.49567238507
 20
499.958249215691
 30
0.0
 11
2247.49567238507
 21
497.1338399304973
 31
0.0
  0
LINE
  5
26430
330
1F
100
AcDbEntity
  8
AM_VIS
100
AcDbLine
 10
2247.49567238507
 20
501.8058312684757
 30
0.0
 11
2247.49567238507
 21
499.958249215691
 31
0.0
  0
LINE
  5
26431
330
1F
100
AcDbEntity
  8
AM_VIS
100
AcDbLine
 10
2247.49567238507
 20
501.8058312684757
 30
0.0
 11
2241.99567238507
 21
501.8058312684757
 31
0.0
  0
LINE
  5
26432
330
1F
100
AcDbEntity
  8
AM_VIS
100
AcDbLine
 10
2241.99567238507
 20
504.0599208984694
 30
0.0
 11
2247.49567238507
 21
504.0599208984694
 31
0.0
  0
LINE
  5
26433
330
1F
100
AcDbEntity
  8
AM_VIS
100
AcDbLine
 10
2247.49567238507
 20
504.0599208984694
 30
0.0
 11
2247.49567238507
 21
503.355406128338
 31
0.0
  0
LINE
  5
26434
330
1F
100
AcDbEntity
  8
AM_VIS
100
AcDbLine
 10
2241.99567238507
 20
503.355406128338
 30
0.0
 11
2241.99567238507
 21
504.0599208984694
 31
0.0
  0
LINE
  5
26435
330
1F
100
AcDbEntity
  8
AM_VIS
100
AcDbLine
 10
2247.49567238507
 20
503.355406128338
 30
0.0
 11
2241.99567238507
 21
503.355406128338
 31
0.0
  0
LINE
  5
26436
330
1F
100
AcDbEntity
  8
AM_VIS
100
AcDbLine
 10
2247.49567238507
 20
503.355406128338
 30
0.0
 11
2247.49567238507
 21
501.8058312684757
 31
0.0
  0
LINE
  5
26437
330
1F
100
AcDbEntity
  8
AM_VIS
100
AcDbLine
 10
2241.99567238507
 20
501.8058312684757
 30
0.0
 11
2241.99567238507
 21
503.355406128338
 31
0.0
  0
LINE
  5
26438
330
1F
100
AcDbEntity
  8
AM_VIS
100
AcDbLine
 10
2235.99567238507
 20
487.3964511873021
 30
0.0
 11
2235.99567238507
 21
487.8128446299252
 31
0.0
  0
LINE
  5
26439
330
1F
100
AcDbEntity
  8
AM_VIS
100
AcDbLine
 10
2235.99567238507
 20
505.8128446299251
 30
0.0
 11
2235.99567238507
 21
506.2292380725479
 31
0.0
  0
LINE
  5
2643A
330
1F
100
AcDbEntity
  8
AM_VIS
100
AcDbLine
 10
2234.84567238507
 20
505.8128446299251
 30
0.0
 11
2234.84567238507
 21
506.2292380725479
 31
0.0
  0
LINE
  5
2643B
330
1F
100
AcDbEntity
  8
AM_VIS
100
AcDbLine
 10
2234.84567238507
 20
487.3964511873021
 30
0.0
 11
2234.84567238507
 21
487.8128446299252
 31
0.0
  0
LINE
  5
2643C
330
1F
100
AcDbEntity
  8
AM_VIS
100
AcDbLine
 10
2233.34567238507
 20
487.8128446299252
 30
0.0
 11
2233.34567238507
 21
487.3964511873021
 31
0.0
  0
LINE
  5
2643D
330
1F
100
AcDbEntity
  8
AM_VIS
100
AcDbLine
 10
2233.34567238507
 20
506.2292380725479
 30
0.0
 11
2233.34567238507
 21
505.8128446299251
 31
0.0
  0
LINE
  5
2643E
330
1F
100
AcDbEntity
  8
AM_VIS
100
AcDbLine
 10
2230.49567238507
 20
505.8128446299251
 30
0.0
 11
2230.49567238507
 21
506.2292380725479
 31
0.0
  0
LINE
  5
2643F
330
1F
100
AcDbEntity
  8
AM_VIS
100
AcDbLine
 10
2230.49567238507
 20
487.3964511873021
 30
0.0
 11
2230.49567238507
 21
487.8128446299252
 31
0.0
  0
LINE
  5
26440
330
1F
100
AcDbEntity
  8
AM_VIS
100
AcDbLine
 10
2228.99567238507
 20
506.8128446299251
 30
0.0
 11
2228.99567238507
 21
505.8128446299251
 31
0.0
  0
LINE
  5
26441
330
1F
100
AcDbEntity
  8
AM_VIS
100
AcDbLine
 10
2228.99567238507
 20
487.8128446299252
 30
0.0
 11
2228.99567238507
 21
486.8128446299251
 31
0.0
  0
LINE
  5
26442
330
1F
100
AcDbEntity
  8
AM_VIS
100
AcDbLine
 10
2236.49567238507
 20
487.8128446299252
 30
0.0
 11
2236.49567238507
 21
487.6628446299251
 31
0.0
  0
LINE
  5
26443
330
1F
100
AcDbEntity
  8
AM_VIS
100
AcDbLine
 10
2236.49567238507
 20
505.962844629925
 30
0.0
 11
2236.49567238507
 21
505.8128446299251
 31
0.0
  0
LINE
  5
26444
330
1F
100
AcDbEntity
  8
AM_VIS
100
AcDbLine
 10
2229.19567238507
 20
505.8128446299251
 30
0.0
 11
2228.99567238507
 21
506.8128446299251
 31
0.0
  0
LINE
  5
26445
330
1F
100
AcDbEntity
  8
AM_VIS
100
AcDbLine
 10
2229.19567238507
 20
487.8128446299252
 30
0.0
 11
2228.99567238507
 21
486.8128446299251
 31
0.0
  0
LINE
  5
26446
330
1F
100
AcDbEntity
  8
AM_VIS
100
AcDbLine
 10
2228.49567238507
 20
486.8128446299251
 30
0.0
 11
2228.99567238507
 21
486.8128446299251
 31
0.0
  0
LINE
  5
26447
330
1F
100
AcDbEntity
  8
AM_VIS
100
AcDbLine
 10
2228.49567238507
 20
506.8128446299251
 30
0.0
 11
2228.99567238507
 21
506.8128446299251
 31
0.0
  0
SPLINE
  5
26448
330
1F
100
AcDbEntity
  8
AM_VIS
100
AcDbSpline
210
0.0
220
0.0
230
1.0
 70
     8
 71
     3
 72
     8
 73
     4
 74
     0
 42
0.0000000001
 43
0.0000000001
 40
7.8606508081159
 40
7.8606508081159
 40
7.8606508081159
 40
7.8606508081159
 40
8.796495530230886
 40
8.796495530230886
 40
8.796495530230886
 40
8.796495530230886
 10
2236.49567238507
 20
505.962844629925
 30
0.0
 10
2236.344633118619
 20
506.0412529922905
 30
0.0
 10
2236.175533377323
 20
506.1309533773281
 30
0.0
 10
2235.99567238507
 20
506.2292380725479
 30
0.0
  0
LINE
  5
26449
330
1F
100
AcDbEntity
  8
AM_VIS
100
AcDbLine
 10
2235.99567238507
 20
506.2292380725479
 30
0.0
 11
2234.84567238507
 21
506.2292380725479
 31
0.0
  0
LINE
  5
2644A
330
1F
100
AcDbEntity
  8
AM_VIS
100
AcDbLine
 10
2234.84567238507
 20
487.3964511873021
 30
0.0
 11
2235.99567238507
 21
487.3964511873021
 31
0.0
  0
SPLINE
  5
2644B
330
1F
100
AcDbEntity
  8
AM_VIS
100
AcDbSpline
210
0.0
220
0.0
230
1.0
 70
     8
 71
     3
 72
     8
 73
     4
 74
     0
 42
0.0000000001
 43
0.0000000001
 40
1.63015580392704
 40
1.63015580392704
 40
1.63015580392704
 40
1.63015580392704
 40
2.566002662427006
 40
2.566002662427006
 40
2.566002662427006
 40
2.566002662427006
 10
2235.99567238507
 20
487.3964511873021
 30
0.0
 10
2236.175533618266
 20
487.4947360141845
 30
0.0
 10
2236.344633239639
 20
487.584436330384
 30
0.0
 10
2236.49567238507
 20
487.6628446299251
 30
0.0
  0
LINE
  5
2644C
330
1F
100
AcDbEntity
  8
AM_VIS
100
AcDbLine
 10
2230.49567238507
 20
487.3964511873021
 30
0.0
 11
2233.34567238507
 21
487.3964511873021
 31
0.0
  0
LINE
  5
2644D
330
1F
100
AcDbEntity
  8
AM_VIS
100
AcDbLine
 10
2233.34567238507
 20
506.2292380725479
 30
0.0
 11
2230.49567238507
 21
506.2292380725479
 31
0.0
  0
ARC
  5
2644E
330
1F
100
AcDbEntity
  8
AM_VIS
100
AcDbCircle
 10
2197.299607719152
 20
511.0768842516318
 30
0.0
 40
33.54815021400476
100
AcDbArc
 50
350.9724142608504
 51
351.691779818856
  0
ARC
  5
2644F
330
1F
100
AcDbEntity
  8
AM_VIS
100
AcDbCircle
 10
2197.299607720016
 20
482.5488050083491
 30
0.0
 40
33.54815021313124
100
AcDbArc
 50
8.308220181137507
 51
9.027585739155984
  0
LINE
  5
26450
330
1F
100
AcDbEntity
  8
AM_VIS
100
AcDbLine
 10
2198.99567238507
 20
507.8128446299249
 30
0.0
 11
2228.49567238507
 21
507.8128446299249
 31
0.0
  0
LINE
  5
26451
330
1F
100
AcDbEntity
  8
AM_VIS
100
AcDbLine
 10
2198.99567238507
 20
485.8128446299249
 30
0.0
 11
2228.49567238507
 21
485.8128446299249
 31
0.0
  0
LINE
  5
26452
330
1F
100
AcDbEntity
  8
AM_VIS
100
AcDbLine
 10
2228.49567238507
 20
505.8128446299251
 30
0.0
 11
2228.49567238507
 21
507.8128446299249
 31
0.0
  0
LINE
  5
26453
330
1F
100
AcDbEntity
  8
AM_VIS
100
AcDbLine
 10
2228.49567238507
 20
485.8128446299249
 30
0.0
 11
2228.49567238507
 21
487.8128446299252
 31
0.0
  0
LINE
  5
26454
330
1F
100
AcDbEntity
  8
AM_VIS
100
AcDbLine
 10
2196.99567238507
 20
510.9128446299251
 30
0.0
 11
2196.99567238507
 21
511.0490926864602
 31
0.0
  0
LINE
  5
26455
330
1F
100
AcDbEntity
  8
AM_VIS
100
AcDbLine
 10
2196.99567238507
 20
511.3939230716478
 30
0.0
 11
2196.99567238507
 21
511.412844629925
 31
0.0
  0
LINE
  5
26456
330
1F
100
AcDbEntity
  8
AM_VIS
100
AcDbLine
 10
2196.99567238507
 20
482.2128446299248
 30
0.0
 11
2196.99567238507
 21
482.2317661882021
 31
0.0
  0
LINE
  5
26457
330
1F
100
AcDbEntity
  8
AM_VIS
100
AcDbLine
 10
2196.99567238507
 20
482.5765965733896
 30
0.0
 11
2196.99567238507
 21
482.712844629925
 31
0.0
  0
LINE
  5
26458
330
1F
100
AcDbEntity
  8
AM_VIS
100
AcDbLine
 10
2198.99567238507
 20
482.7128446299248
 30
0.0
 11
2198.99567238507
 21
482.2128446299248
 31
0.0
  0
LINE
  5
26459
330
1F
100
AcDbEntity
  8
AM_VIS
100
AcDbLine
 10
2198.99567238507
 20
511.412844629925
 30
0.0
 11
2198.99567238507
 21
510.9128446299251
 31
0.0
  0
LINE
  5
2645A
330
1F
100
AcDbEntity
  8
AM_VIS
100
AcDbLine
 10
2196.99567238507
 20
482.7128446299248
 30
0.0
 11
2196.99567238507
 21
510.9128446299251
 31
0.0
  0
LINE
  5
2645B
330
1F
100
AcDbEntity
  8
AM_VIS
100
AcDbLine
 10
2196.99567238507
 20
482.2128446299248
 30
0.0
 11
2198.99567238507
 21
482.2128446299248
 31
0.0
  0
LINE
  5
2645C
330
1F
100
AcDbEntity
  8
AM_VIS
100
AcDbLine
 10
2198.99567238507
 20
482.7128446299248
 30
0.0
 11
2198.99567238507
 21
510.9128446299251
 31
0.0
  0
LINE
  5
2645D
330
1F
100
AcDbEntity
  8
AM_VIS
100
AcDbLine
 10
2198.99567238507
 20
511.412844629925
 30
0.0
 11
2196.99567238507
 21
511.412844629925
 31
0.0
  0
LINE
  5
2645E
330
1F
100
AcDbEntity
  8
AM_VIS
100
AcDbLine
 10
2185.914294089239
 20
499.4008579744242
 30
0.0
 11
2185.914294089239
 21
499.4671454929219
 31
0.0
  0
CIRCLE
  5
2645F
330
1F
100
AcDbEntity
  8
AM_VIS
100
AcDbCircle
 10
2188.195672385071
 20
496.812844629925
 30
0.0
 40
3.449999999999999
  0
LINE
  5
26460
330
1F
100
AcDbEntity
  8
AM_VIS
100
AcDbLine
 10
2187.69567238507
 20
494.3128446299249
 30
0.0
 11
2187.69567238507
 21
499.3128446299249
 31
0.0
  0
LINE
  5
26461
330
1F
100
AcDbEntity
  8
AM_VIS
100
AcDbLine
 10
2187.69567238507
 20
499.3128446299249
 30
0.0
 11
2188.69567238507
 21
499.3128446299249
 31
0.0
  0
LINE
  5
26462
330
1F
100
AcDbEntity
  8
AM_VIS
100
AcDbLine
 10
2188.69567238507
 20
499.3128446299249
 30
0.0
 11
2188.69567238507
 21
494.3128446299249
 31
0.0
  0
LINE
  5
26463
330
1F
100
AcDbEntity
  8
AM_VIS
100
AcDbLine
 10
2188.69567238507
 20
494.3128446299249
 30
0.0
 11
2187.69567238507
 21
494.3128446299249
 31
0.0
  0
LINE
  5
26464
330
1F
100
AcDbEntity
  8
AM_VIS
100
AcDbLine
 10
2172.99567238507
 20
511.8128446299249
 30
0.0
 11
2196.99567238507
 21
511.3939230716478
 31
0.0
  0
LINE
  5
26465
330
1F
100
AcDbEntity
  8
AM_VIS
100
AcDbLine
 10
2172.99567238507
 20
481.8128446299249
 30
0.0
 11
2196.99567238507
 21
482.2317661882021
 31
0.0
  0
LINE
  5
26466
330
1F
100
AcDbEntity
  8
AM_VIS
100
AcDbLine
 10
2196.99567238507
 20
482.2302757365267
 30
0.0
 11
2196.910284465766
 21
482.2302757365267
 31
0.0
  0
LINE
  5
26467
330
1F
100
AcDbEntity
  8
AM_VIS
100
AcDbLine
 10
2190.695672385071
 20
499.1903433155182
 30
0.0
 11
2190.695672385071
 21
499.2623343727079
 31
0.0
  0
LINE
  5
26468
330
1F
100
AcDbEntity
  8
AM_VIS
100
AcDbLine
 10
2185.69567238507
 20
499.2623343727079
 30
0.0
 11
2185.69567238507
 21
499.1903433155187
 31
0.0
  0
CIRCLE
  5
26469
330
1F
100
AcDbEntity
  8
AM_VIS
100
AcDbCircle
 10
2188.195672385071
 20
496.812844629925
 30
0.0
 40
3.5
  0
CIRCLE
  5
2646A
330
1F
100
AcDbEntity
  8
AM_VIS
100
AcDbCircle
 10
2186.24567238507
 20
507.8128446299249
 30
0.0
 40
1.0
  0
LINE
  5
2646B
330
1F
100
AcDbEntity
  8
AM_VIS
100
AcDbLine
 10
2172.99567238507
 20
481.8128446299249
 30
0.0
 11
2172.99567238507
 21
511.8128446299249
 31
0.0
  0
LINE
  5
2646C
330
1F
100
AcDbEntity
  8
AM_VIS
100
AcDbLine
 10
2196.99567238507
 20
511.0490926864602
 30
0.0
 11
2196.99567238507
 21
511.3939230716478
 31
0.0
  0
LINE
  5
2646D
330
1F
100
AcDbEntity
  8
AM_VIS
100
AcDbLine
 10
2196.99567238507
 20
482.2317661882021
 30
0.0
 11
2196.99567238507
 21
482.5765965733896
 31
0.0
  0
LINE
  5
2646E
330
1F
100
AcDbEntity
  8
AM_VIS
100
AcDbLine
 10
2161.99567238507
 20
425.148728814461
 30
0.0
 11
2169.99567238507
 21
425.148728814461
 31
0.0
  0
CIRCLE
  5
2646F
330
1F
100
AcDbEntity
  8
AM_VIS
100
AcDbCircle
 10
2115.49567238507
 20
383.948728814461
 30
0.0
 40
2.25
  0
CIRCLE
  5
26470
330
1F
100
AcDbEntity
  8
AM_VIS
100
AcDbCircle
 10
2144.49567238507
 20
383.948728814461
 30
0.0
 40
2.25
  0
LINE
  5
26471
330
1F
100
AcDbEntity
  8
AM_VIS
100
AcDbLine
 10
2169.99567238507
 20
420.648728814461
 30
0.0
 11
2161.99567238507
 21
420.648728814461
 31
0.0
  0
LINE
  5
26472
330
1F
100
AcDbEntity
  8
AM_VIS
100
AcDbLine
 10
2161.99567238507
 20
420.648728814461
 30
0.0
 11
2161.99567238507
 21
425.148728814461
 31
0.0
  0
LINE
  5
26473
330
1F
100
AcDbEntity
  8
AM_VIS
100
AcDbLine
 10
2169.99567238507
 20
425.148728814461
 30
0.0
 11
2169.99567238507
 21
420.648728814461
 31
0.0
  0
LINE
  5
26474
330
1F
100
AcDbEntity
  8
AM_VIS
100
AcDbLine
 10
2088.79567238507
 20
375.148728814461
 30
0.0
 11
2171.19567238507
 21
375.148728814461
 31
0.0
  0
LINE
  5
26475
330
1F
100
AcDbEntity
  8
AM_VIS
100
AcDbLine
 10
2169.99567238507
 20
425.148728814461
 30
0.0
 11
2171.19567238507
 21
425.148728814461
 31
0.0
  0
LINE
  5
26476
330
1F
100
AcDbEntity
  8
AM_VIS
100
AcDbLine
 10
2088.79567238507
 20
425.148728814461
 30
0.0
 11
2161.99567238507
 21
425.148728814461
 31
0.0
  0
LINE
  5
26477
330
1F
100
AcDbEntity
  8
AM_VIS
100
AcDbLine
 10
2171.19567238507
 20
425.148728814461
 30
0.0
 11
2172.99567238507
 21
423.348728814461
 31
0.0
  0
LINE
  5
26478
330
1F
100
AcDbEntity
  8
AM_VIS
100
AcDbLine
 10
2172.99567238507
 20
376.9487288144611
 30
0.0
 11
2172.99567238507
 21
423.348728814461
 31
0.0
  0
LINE
  5
26479
330
1F
100
AcDbEntity
  8
AM_VIS
100
AcDbLine
 10
2172.99567238507
 20
376.948728814461
 30
0.0
 11
2171.19567238507
 21
375.148728814461
 31
0.0
  0
LINE
  5
2647A
330
1F
100
AcDbEntity
  8
AM_VIS
100
AcDbLine
 10
2086.99567238507
 20
423.348728814461
 30
0.0
 11
2088.79567238507
 21
425.148728814461
 31
0.0
  0
LINE
  5
2647B
330
1F
100
AcDbEntity
  8
AM_VIS
100
AcDbLine
 10
2086.99567238507
 20
423.348728814461
 30
0.0
 11
2086.99567238507
 21
376.9487288144611
 31
0.0
  0
LINE
  5
2647C
330
1F
100
AcDbEntity
  8
AM_VIS
100
AcDbLine
 10
2088.79567238507
 20
375.1487288144611
 30
0.0
 11
2086.99567238507
 21
376.9487288144611
 31
0.0
  0
ARC
  5
2647D
330
1F
100
AcDbEntity
  8
AM_VIS
100
AcDbCircle
 10
2081.076184061339
 20
378.8352853591013
 30
0.0
 40
1.6
100
AcDbArc
 50
208.172734131862
 51
265.0
  0
ARC
  5
2647E
330
1F
100
AcDbEntity
  8
AM_VIS
100
AcDbCircle
 10
2081.076184061339
 20
383.4621722698209
 30
0.0
 40
1.599999999999999
100
AcDbArc
 50
95.00000000000001
 51
151.8272658681378
  0
ARC
  5
2647F
330
1F
100
AcDbEntity
  8
AM_VIS
100
AcDbCircle
 10
2085.39567238507
 20
381.1487288144611
 30
0.0
 40
6.5
100
AcDbArc
 50
151.8272658681378
 51
159.2772556184272
  0
ARC
  5
26480
330
1F
100
AcDbEntity
  8
AM_VIS
100
AcDbCircle
 10
2085.39567238507
 20
381.1487288144611
 30
0.0
 40
6.499999999999998
100
AcDbArc
 50
200.7227443816124
 51
208.172734131862
  0
LINE
  5
26481
330
1F
100
AcDbEntity
  8
AM_VIS
100
AcDbLine
 10
2081.99567238507
 20
385.1487288144611
 30
0.0
 11
2081.99567238507
 21
377.1487288144611
 31
0.0
  0
LINE
  5
26482
330
1F
100
AcDbEntity
  8
AM_VIS
100
AcDbLine
 10
2082.96625738507
 20
381.3380226300202
 30
0.0
 11
2082.96625738507
 21
380.9380226300202
 31
0.0
  0
LINE
  5
26483
330
1F
100
AcDbEntity
  8
AM_VIS
100
AcDbLine
 10
2079.316198723643
 20
378.8487288144591
 30
0.0
 11
2079.321991361804
 21
378.8545259948259
 31
0.0
  0
ARC
  5
26484
330
1F
100
AcDbEntity
  8
AM_VIS
100
AcDbCircle
 10
2085.39567238507
 20
381.1487288144611
 30
0.0
 40
6.492531690334672
100
AcDbArc
 50
182.7500042420101
 51
200.692983185602
  0
ARC
  5
26485
330
1F
100
AcDbEntity
  8
AM_VIS
100
AcDbCircle
 10
2085.39567238507
 20
381.1487288144611
 30
0.0
 40
6.492531690334672
100
AcDbArc
 50
159.3070168144376
 51
177.2499957580223
  0
LINE
  5
26486
330
1F
100
AcDbEntity
  8
AM_VIS
100
AcDbLine
 10
2079.321991361803
 20
383.4429316340923
 30
0.0
 11
2079.316198723641
 21
383.4487288144591
 31
0.0
  0
ELLIPSE
  5
26487
330
1F
100
AcDbEntity
  8
AM_VIS
100
AcDbEllipse
 10
2083.50355257437
 20
381.1487288144611
 30
0.0
 11
0.0
 21
-5.924134808644348
 31
0.0
210
0.0
220
0.0
230
1.0
 40
0.7068296022936166
 41
4.659783202667242
 42
4.764994758102819
  0
LINE
  5
26488
330
1F
100
AcDbEntity
  8
AM_VIS
100
AcDbLine
 10
2079.321991361804
 20
381.4602288144591
 30
0.0
 11
2078.910617605039
 21
381.4602288144591
 31
0.0
  0
LINE
  5
26489
330
1F
100
AcDbEntity
  8
AM_VIS
100
AcDbLine
 10
2078.91061760504
 20
380.8372288144592
 30
0.0
 11
2079.321991361804
 21
380.8372288144592
 31
0.0
  0
LINE
  5
2648A
330
1F
100
AcDbEntity
  8
AM_VIS
100
AcDbLine
 10
2080.936734872943
 20
377.2413738421546
 30
0.0
 11
2081.99567238507
 21
377.1487288144611
 31
0.0
  0
LINE
  5
2648B
330
1F
100
AcDbEntity
  8
AM_VIS
100
AcDbLine
 10
2080.936734872943
 20
385.0560837867676
 30
0.0
 11
2081.99567238507
 21
385.1487288144611
 31
0.0
  0
LINE
  5
2648C
330
1F
100
AcDbEntity
  8
AM_VIS
100
AcDbLine
 10
2081.99567238507
 20
377.3487288144611
 30
0.0
 11
2082.99567238507
 21
377.3487288144611
 31
0.0
  0
LINE
  5
2648D
330
1F
100
AcDbEntity
  8
AM_VIS
100
AcDbLine
 10
2081.99567238507
 20
384.9487288144612
 30
0.0
 11
2082.99567238507
 21
384.9487288144612
 31
0.0
  0
LINE
  5
2648E
330
1F
100
AcDbEntity
  8
AM_VIS
100
AcDbLine
 10
2082.99567238507
 20
381.348728814461
 30
0.0
 11
2081.99567238507
 21
380.9847585801949
 31
0.0
  0
LINE
  5
2648F
330
1F
100
AcDbEntity
  8
AM_VIS
100
AcDbLine
 10
2081.99567238507
 20
380.5847585801949
 30
0.0
 11
2082.99567238507
 21
380.9487288144612
 31
0.0
  0
LINE
  5
26490
330
1F
100
AcDbEntity
  8
AM_VIS
100
AcDbLine
 10
2078.91061760504
 20
417.8372288144609
 30
0.0
 11
2078.99567238507
 21
417.8372288144609
 31
0.0
  0
LINE
  5
26491
330
1F
100
AcDbEntity
  8
AM_VIS
100
AcDbLine
 10
2078.99567238507
 20
418.4602288144608
 30
0.0
 11
2078.91061760504
 21
418.4602288144608
 31
0.0
  0
ARC
  5
26492
330
1F
100
AcDbEntity
  8
AM_VIS
100
AcDbCircle
 10
2085.39567238507
 20
418.1487288144609
 30
0.0
 40
6.492531690334577
100
AcDbArc
 50
182.7500042419906
 51
189.6848520335252
  0
ARC
  5
26493
330
1F
100
AcDbEntity
  8
AM_VIS
100
AcDbCircle
 10
2085.39567238507
 20
418.1487288144609
 30
0.0
 40
6.492531690334577
100
AcDbArc
 50
170.3151479664748
 51
177.2499957580093
  0
LINE
  5
26494
330
1F
100
AcDbEntity
  8
AM_VIS
100
AcDbLine
 10
2082.99567238507
 20
376.9487288144611
 30
0.0
 11
2082.99567238507
 21
377.9487288144611
 31
0.0
  0
ARC
  5
26495
330
1F
100
AcDbEntity
  8
AM_VIS
100
AcDbCircle
 10
2079.99567238507
 20
377.9487288144611
 30
0.0
 40
0.9999999999999989
100
AcDbArc
 50
180.0
 51
270.0
  0
ARC
  5
26496
330
1F
100
AcDbEntity
  8
AM_VIS
100
AcDbCircle
 10
2079.99567238507
 20
386.148728814461
 30
0.0
 40
1.0
100
AcDbArc
 50
180.0
 51
270.0
  0
LINE
  5
26497
330
1F
100
AcDbEntity
  8
AM_VIS
100
AcDbLine
 10
2078.99567238507
 20
381.4602288144591
 30
0.0
 11
2078.99567238507
 21
381.148728814461
 31
0.0
  0
LINE
  5
26498
330
1F
100
AcDbEntity
  8
AM_VIS
100
AcDbLine
 10
2078.99567238507
 20
386.148728814461
 30
0.0
 11
2078.99567238507
 21
382.2409594448685
 31
0.0
  0
ARC
  5
26499
330
1F
100
AcDbEntity
  8
AM_VIS
100
AcDbCircle
 10
2079.99567238507
 20
422.348728814461
 30
0.0
 40
0.9999999999999998
100
AcDbArc
 50
90.0
 51
180.0
  0
LINE
  5
2649A
330
1F
100
AcDbEntity
  8
AM_VIS
100
AcDbLine
 10
2086.99567238507
 20
422.348728814461
 30
0.0
 11
2086.99567238507
 21
377.9487288144611
 31
0.0
  0
LINE
  5
2649B
330
1F
100
AcDbEntity
  8
AM_VIS
100
AcDbLine
 10
2082.99567238507
 20
377.9487288144611
 30
0.0
 11
2082.99567238507
 21
385.1487288144611
 31
0.0
  0
LINE
  5
2649C
330
1F
100
AcDbEntity
  8
AM_VIS
100
AcDbLine
 10
2082.99567238507
 20
376.9487288144611
 30
0.0
 11
2086.99567238507
 21
376.9487288144611
 31
0.0
  0
LINE
  5
2649D
330
1F
100
AcDbEntity
  8
AM_VIS
100
AcDbLine
 10
2079.99567238507
 20
385.148728814461
 30
0.0
 11
2082.99567238507
 21
385.148728814461
 31
0.0
  0
LINE
  5
2649E
330
1F
100
AcDbEntity
  8
AM_VIS
100
AcDbLine
 10
2079.99567238507
 20
376.9487288144611
 30
0.0
 11
2082.99567238507
 21
376.9487288144611
 31
0.0
  0
LINE
  5
2649F
330
1F
100
AcDbEntity
  8
AM_VIS
100
AcDbLine
 10
2086.99567238507
 20
423.348728814461
 30
0.0
 11
2079.99567238507
 21
423.348728814461
 31
0.0
  0
LINE
  5
264A0
330
1F
100
AcDbEntity
  8
AM_VIS
100
AcDbLine
 10
2078.99567238507
 20
422.348728814461
 30
0.0
 11
2078.99567238507
 21
386.148728814461
 31
0.0
  0
LINE
  5
264A1
330
1F
100
AcDbEntity
  8
AM_VIS
100
AcDbLine
 10
2078.99567238507
 20
380.0564981840537
 30
0.0
 11
2078.99567238507
 21
377.9487288144611
 31
0.0
  0
LINE
  5
264A2
330
1F
100
AcDbEntity
  8
AM_VIS
100
AcDbLine
 10
2078.99567238507
 20
381.148728814461
 30
0.0
 11
2078.99567238507
 21
380.8372288144592
 31
0.0
  0
ARC
  5
264A3
330
1F
100
AcDbEntity
  8
AM_VIS
100
AcDbCircle
 10
2224.99567238507
 20
442.6487288144608
 30
0.0
 40
3.5
100
AcDbArc
 50
31.41476770923489
 51
90.0
  0
LINE
  5
264A4
330
1F
100
AcDbEntity
  8
AM_VIS
100
AcDbLine
 10
2228.49567238507
 20
433.4918745649684
 30
0.0
 11
2228.49567238507
 21
448.1487288144608
 31
0.0
  0
LINE
  5
264A5
330
1F
100
AcDbEntity
  8
AM_VIS
100
AcDbLine
 10
2240.49567238507
 20
448.1487288144608
 30
0.0
 11
2240.49567238507
 21
430.1487288144608
 31
0.0
  0
ARC
  5
264A6
330
1F
100
AcDbEntity
  8
AM_VIS
100
AcDbCircle
 10
2202.99567238507
 20
442.6487288144608
 30
0.0
 40
3.5
100
AcDbArc
 50
90.0
 51
180.0
  0
LINE
  5
264A7
330
1F
100
AcDbEntity
  8
AM_VIS
100
AcDbLine
 10
2223.49567238507
 20
446.1487288144608
 30
0.0
 11
2228.49567238507
 21
448.1487288144608
 31
0.0
  0
LINE
  5
264A8
330
1F
100
AcDbEntity
  8
AM_VIS
100
AcDbLine
 10
2228.49567238507
 20
430.1487288144608
 30
0.0
 11
2240.49567238507
 21
430.1487288144608
 31
0.0
  0
LINE
  5
264A9
330
1F
100
AcDbEntity
  8
AM_VIS
100
AcDbLine
 10
2228.49567238507
 20
448.1487288144608
 30
0.0
 11
2240.49567238507
 21
448.1487288144608
 31
0.0
  0
SPLINE
  5
264AA
330
1F
100
AcDbEntity
  8
AM_VIS
100
AcDbSpline
210
0.0
220
0.0
230
1.0
 70
     8
 71
     3
 72
    22
 73
    18
 74
     0
 42
0.0000000001
 43
0.0000000001
 40
6.922974191987643
 40
6.922974191987643
 40
6.922974191987643
 40
6.922974191987643
 40
7.242870958922999
 40
7.242870958922999
 40
8.615360666179645
 40
8.615360666179645
 40
9.987850373436291
 40
9.987850373436291
 40
11.36034008069293
 40
11.36034008069293
 40
12.73282978794958
 40
12.73282978794958
 40
14.10531949520622
 40
14.10531949520622
 40
15.47780920246286
 40
15.47780920246286
 40
16.1364483476482
 40
16.1364483476482
 40
16.1364483476482
 40
16.1364483476482
 10
2228.49567238507
 20
433.4918745649684
 30
0.0
 10
2228.49567238507
 20
433.5787631331202
 30
0.0
 10
2228.493558372393
 20
433.6659772425721
 30
0.0
 10
2228.474583049522
 20
434.1216307843174
 30
0.0
 10
2228.429981452536
 20
434.5274879126105
 30
0.0
 10
2228.320402288761
 20
435.3889764977136
 30
0.0
 10
2228.255494730139
 20
435.8446473127265
 30
0.0
 10
2228.138028439297
 20
436.7800197488033
 30
0.0
 10
2228.085718234654
 20
437.2600882416182
 30
0.0
 10
2228.015133343711
 20
438.2156874867312
 30
0.0
 10
2227.997016189541
 20
438.6912322453754
 30
0.0
 10
2227.997016189541
 20
439.6062253835464
 30
0.0
 10
2228.015133343711
 20
440.0817701421904
 30
0.0
 10
2228.085718234654
 20
441.0373693873034
 30
0.0
 10
2228.138028439297
 20
441.5174378801181
 30
0.0
 10
2228.224946822458
 20
442.2095603538426
 30
0.0
 10
2228.254498076015
 20
442.4312525024297
 30
0.0
 10
2228.283725326869
 20
442.6487288144608
 30
0.0
  0
SPLINE
  5
264AB
330
1F
100
AcDbEntity
  8
AM_VIS
100
AcDbSpline
210
0.0
220
0.0
230
1.0
 70
     8
 71
     3
 72
    18
 73
    14
 74
     0
 42
0.0000000001
 43
0.0000000001
 40
6.072258403086962
 40
6.072258403086962
 40
6.072258403086962
 40
6.072258403086962
 40
6.091519998582311
 40
6.091519998582311
 40
6.594079983681931
 40
6.594079983681931
 40
7.096639968781531
 40
7.096639968781531
 40
7.59919995388113
 40
7.59919995388113
 40
8.101759938980729
 40
8.101759938980729
 40
8.212872863102431
 40
8.212872863102431
 40
8.212872863102431
 40
8.212872863102431
 10
2228.283725326869
 20
442.6487288144608
 30
0.0
 10
2228.28457519707
 20
442.6550525921554
 30
0.0
 10
2228.285408571662
 20
442.6613693913552
 30
0.0
 10
2228.307539630209
 20
442.832302868243
 30
0.0
 10
2228.317496041087
 20
442.9919435819967
 30
0.0
 10
2228.317496041087
 20
443.2916124591845
 30
0.0
 10
2228.307539630209
 20
443.44338589579
 30
0.0
 10
2228.264911326332
 20
443.7392276022103
 30
0.0
 10
2228.232241584891
 20
443.883298274155
 30
0.0
 10
2228.144876252142
 20
444.1545627353185
 30
0.0
 10
2228.090123691408
 20
444.2819185986823
 30
0.0
 10
2228.01214980942
 20
444.4234584453741
 30
0.0
 10
2227.997593015324
 20
444.4485334211697
 30
0.0
 10
2227.982630069339
 20
444.4730324603449
 30
0.0
  0
LINE
  5
264AC
330
1F
100
AcDbEntity
  8
AM_VIS
100
AcDbLine
 10
2228.49567238507
 20
417.6487288144608
 30
0.0
 11
2228.49567238507
 21
433.4918745649684
 31
0.0
  0
LINE
  5
264AD
330
1F
100
AcDbEntity
  8
AM_VIS
100
AcDbLine
 10
2224.99567238507
 20
446.1487288144608
 30
0.0
 11
2202.99567238507
 21
446.1487288144608
 31
0.0
  0
LINE
  5
264AE
330
1F
100
AcDbEntity
  8
AM_VIS
100
AcDbLine
 10
2199.49567238507
 20
442.6487288144608
 30
0.0
 11
2199.49567238507
 21
417.6487288144608
 31
0.0
  0
LINE
  5
264AF
330
1F
100
AcDbEntity
  8
AM_VIS
100
AcDbLine
 10
2241.99567238507
 20
445.8987288144608
 30
0.0
 11
2240.49567238507
 21
445.8987288144608
 31
0.0
  0
LINE
  5
264B0
330
1F
100
AcDbEntity
  8
AM_VIS
100
AcDbLine
 10
2241.99567238507
 20
432.3987288144608
 30
0.0
 11
2240.49567238507
 21
432.3987288144608
 31
0.0
  0
LINE
  5
264B1
330
1F
100
AcDbEntity
  8
AM_VIS
100
AcDbLine
 10
2247.49567238507
 20
446.7182629587127
 30
0.0
 11
2241.99567238507
 21
446.7182629587127
 31
0.0
  0
LINE
  5
264B2
330
1F
100
AcDbEntity
  8
AM_VIS
100
AcDbLine
 10
2241.99567238507
 20
447.3316049602308
 30
0.0
 11
2247.49567238507
 21
447.3316049602308
 31
0.0
  0
LINE
  5
264B3
330
1F
100
AcDbEntity
  8
AM_VIS
100
AcDbLine
 10
2247.49567238507
 20
446.7517218527366
 30
0.0
 11
2241.99567238507
 21
446.7517218527366
 31
0.0
  0
LINE
  5
264B4
330
1F
100
AcDbEntity
  8
AM_VIS
100
AcDbLine
 10
2247.49567238507
 20
446.2155324287705
 30
0.0
 11
2241.99567238507
 21
446.2155324287705
 31
0.0
  0
LINE
  5
264B5
330
1F
100
AcDbEntity
  8
AM_VIS
100
AcDbLine
 10
2247.49567238507
 20
437.5299257530582
 30
0.0
 11
2241.99567238507
 21
437.5299257530582
 31
0.0
  0
LINE
  5
264B6
330
1F
100
AcDbEntity
  8
AM_VIS
100
AcDbLine
 10
2247.49567238507
 20
440.5271734441912
 30
0.0
 11
2241.99567238507
 21
440.5271734441912
 31
0.0
  0
LINE
  5
264B7
330
1F
100
AcDbEntity
  8
AM_VIS
100
AcDbLine
 10
2247.49567238507
 20
440.2273012096916
 30
0.0
 11
2241.99567238507
 21
440.2273012096916
 31
0.0
  0
LINE
  5
264B8
330
1F
100
AcDbEntity
  8
AM_VIS
100
AcDbLine
 10
2241.99567238507
 20
443.5181569721369
 30
0.0
 11
2247.49567238507
 21
443.5181569721369
 31
0.0
  0
LINE
  5
264B9
330
1F
100
AcDbEntity
  8
AM_VIS
100
AcDbLine
 10
2247.49567238507
 20
442.8777847030808
 30
0.0
 11
2241.99567238507
 21
442.8777847030808
 31
0.0
  0
LINE
  5
264BA
330
1F
100
AcDbEntity
  8
AM_VIS
100
AcDbLine
 10
2247.49567238507
 20
430.4631221387487
 30
0.0
 11
2241.99567238507
 21
430.4631221387487
 31
0.0
  0
LINE
  5
264BB
330
1F
100
AcDbEntity
  8
AM_VIS
100
AcDbLine
 10
2247.49567238507
 20
432.6577670654399
 30
0.0
 11
2241.99567238507
 21
432.6577670654399
 31
0.0
  0
LINE
  5
264BC
330
1F
100
AcDbEntity
  8
AM_VIS
100
AcDbLine
 10
2241.99567238507
 20
435.3352808263671
 30
0.0
 11
2247.49567238507
 21
435.3352808263671
 31
0.0
  0
LINE
  5
264BD
330
1F
100
AcDbEntity
  8
AM_VIS
100
AcDbLine
 10
2247.49567238507
 20
435.2747916648052
 30
0.0
 11
2241.99567238507
 21
435.2747916648052
 31
0.0
  0
LINE
  5
264BE
330
1F
100
AcDbEntity
  8
AM_VIS
100
AcDbLine
 10
2247.49567238507
 20
433.3622818355715
 30
0.0
 11
2241.99567238507
 21
433.3622818355715
 31
0.0
  0
LINE
  5
264BF
330
1F
100
AcDbEntity
  8
AM_VIS
100
AcDbLine
 10
2241.99567238507
 20
447.834335490173
 30
0.0
 11
2241.99567238507
 21
447.3316049602308
 31
0.0
  0
LINE
  5
264C0
330
1F
100
AcDbEntity
  8
AM_VIS
100
AcDbLine
 10
2241.99567238507
 20
446.7517218527366
 30
0.0
 11
2241.99567238507
 21
447.3316049602308
 31
0.0
  0
LINE
  5
264C1
330
1F
100
AcDbEntity
  8
AM_VIS
100
AcDbLine
 10
2241.99567238507
 20
446.7182629587127
 30
0.0
 11
2241.99567238507
 21
446.7517218527364
 31
0.0
  0
LINE
  5
264C2
330
1F
100
AcDbEntity
  8
AM_VIS
100
AcDbLine
 10
2241.99567238507
 20
446.7182629587127
 30
0.0
 11
2241.99567238507
 21
446.2155324287705
 31
0.0
  0
LINE
  5
264C3
330
1F
100
AcDbEntity
  8
AM_VIS
100
AcDbLine
 10
2241.99567238507
 20
446.2155324287705
 30
0.0
 11
2241.99567238507
 21
443.5181569721369
 31
0.0
  0
LINE
  5
264C4
330
1F
100
AcDbEntity
  8
AM_VIS
100
AcDbLine
 10
2241.99567238507
 20
442.8777847030808
 30
0.0
 11
2241.99567238507
 21
443.5181569721369
 31
0.0
  0
LINE
  5
264C5
330
1F
100
AcDbEntity
  8
AM_VIS
100
AcDbLine
 10
2241.99567238507
 20
440.5271734441912
 30
0.0
 11
2241.99567238507
 21
442.8777847030808
 31
0.0
  0
LINE
  5
264C6
330
1F
100
AcDbEntity
  8
AM_VIS
100
AcDbLine
 10
2241.99567238507
 20
440.2273012096916
 30
0.0
 11
2241.99567238507
 21
440.5271734441912
 31
0.0
  0
LINE
  5
264C7
330
1F
100
AcDbEntity
  8
AM_VIS
100
AcDbLine
 10
2241.99567238507
 20
440.2273012096916
 30
0.0
 11
2241.99567238507
 21
437.5299257530582
 31
0.0
  0
LINE
  5
264C8
330
1F
100
AcDbEntity
  8
AM_VIS
100
AcDbLine
 10
2241.99567238507
 20
437.5299257530582
 30
0.0
 11
2241.99567238507
 21
435.3352808263671
 31
0.0
  0
LINE
  5
264C9
330
1F
100
AcDbEntity
  8
AM_VIS
100
AcDbLine
 10
2241.99567238507
 20
435.2747916648052
 30
0.0
 11
2241.99567238507
 21
435.3352808263671
 31
0.0
  0
LINE
  5
264CA
330
1F
100
AcDbEntity
  8
AM_VIS
100
AcDbLine
 10
2241.99567238507
 20
433.3622818355715
 30
0.0
 11
2241.99567238507
 21
435.2747916648052
 31
0.0
  0
LINE
  5
264CB
330
1F
100
AcDbEntity
  8
AM_VIS
100
AcDbLine
 10
2241.99567238507
 20
432.6577670654399
 30
0.0
 11
2241.99567238507
 21
433.3622818355715
 31
0.0
  0
LINE
  5
264CC
330
1F
100
AcDbEntity
  8
AM_VIS
100
AcDbLine
 10
2241.99567238507
 20
432.65776706544
 30
0.0
 11
2241.99567238507
 21
430.463122138749
 31
0.0
  0
LINE
  5
264CD
330
1F
100
AcDbEntity
  8
AM_VIS
100
AcDbLine
 10
2247.49567238507
 20
447.834335490173
 30
0.0
 11
2241.99567238507
 21
447.834335490173
 31
0.0
  0
LINE
  5
264CE
330
1F
100
AcDbEntity
  8
AM_VIS
100
AcDbLine
 10
2247.49567238507
 20
432.65776706544
 30
0.0
 11
2247.49567238507
 21
430.463122138749
 31
0.0
  0
LINE
  5
264CF
330
1F
100
AcDbEntity
  8
AM_VIS
100
AcDbLine
 10
2247.49567238507
 20
433.3622818355715
 30
0.0
 11
2247.49567238507
 21
432.65776706544
 31
0.0
  0
LINE
  5
264D0
330
1F
100
AcDbEntity
  8
AM_VIS
100
AcDbLine
 10
2247.49567238507
 20
435.2747916648052
 30
0.0
 11
2247.49567238507
 21
433.3622818355715
 31
0.0
  0
LINE
  5
264D1
330
1F
100
AcDbEntity
  8
AM_7
100
AcDbLine
 10
2116.49567238507
 20
499.0628446299249
 30
0.0
 11
2128.74567238507
 21
499.0628446299249
 31
0.0
1001
GENIUS_GENOREF_13
1005
0
  0
LINE
  5
264D2
330
1F
100
AcDbEntity
  8
AM_7
100
AcDbLine
 10
2116.49567238507
 20
499.0628446299249
 30
0.0
 11
2116.49567238507
 21
511.3128446299249
 31
0.0
1001
GENIUS_GENOREF_13
1005
0
  0
LINE
  5
264D3
330
1F
100
AcDbEntity
  8
AM_7
100
AcDbLine
 10
2116.49567238507
 20
499.0628446299249
 30
0.0
 11
2104.24567238507
 21
499.0628446299249
 31
0.0
1001
GENIUS_GENOREF_13
1005
0
  0
LINE
  5
264D4
330
1F
100
AcDbEntity
  8
AM_7
100
AcDbLine
 10
2116.49567238507
 20
499.0628446299249
 30
0.0
 11
2116.49567238507
 21
486.8128446299249
 31
0.0
1001
GENIUS_GENOREF_13
1005
0
  0
LINE
  5
264D6
330
1F
100
AcDbEntity
  8
AM_7
100
AcDbLine
 10
2143.49567238507
 20
494.5628446299249
 30
0.0
 11
2155.74567238507
 21
494.5628446299249
 31
0.0
1001
GENIUS_GENOREF_13
1005
0
  0
LINE
  5
264D7
330
1F
100
AcDbEntity
  8
AM_7
100
AcDbLine
 10
2143.49567238507
 20
494.5628446299249
 30
0.0
 11
2143.49567238507
 21
506.8128446299249
 31
0.0
1001
GENIUS_GENOREF_13
1005
0
  0
LINE
  5
264D8
330
1F
100
AcDbEntity
  8
AM_7
100
AcDbLine
 10
2143.49567238507
 20
494.5628446299249
 30
0.0
 11
2131.24567238507
 21
494.5628446299249
 31
0.0
1001
GENIUS_GENOREF_13
1005
0
  0
LINE
  5
264D9
330
1F
100
AcDbEntity
  8
AM_7
100
AcDbLine
 10
2143.49567238507
 20
494.5628446299249
 30
0.0
 11
2143.49567238507
 21
482.3128446299249
 31
0.0
1001
GENIUS_GENOREF_13
1005
0
  0
LINE
  5
264DB
330
1F
100
AcDbEntity
  8
AM_7
  6
AM_ISO08W050X2
100
AcDbLine
 10
2165.99567238507
 20
485.3128446299249
 30
0.0
 11
2171.49567238507
 21
485.3128446299249
 31
0.0
1001
GENIUS_GENOREF_13
1005
0
  0
LINE
  5
264DC
330
1F
100
AcDbEntity
  8
AM_7
  6
AM_ISO08W050X2
100
AcDbLine
 10
2165.99567238507
 20
485.3128446299249
 30
0.0
 11
2165.99567238507
 21
490.8128446299249
 31
0.0
1001
GENIUS_GENOREF_13
1005
0
  0
LINE
  5
264DD
330
1F
100
AcDbEntity
  8
AM_7
  6
AM_ISO08W050X2
100
AcDbLine
 10
2165.99567238507
 20
485.3128446299249
 30
0.0
 11
2160.49567238507
 21
485.3128446299249
 31
0.0
1001
GENIUS_GENOREF_13
1005
0
  0
LINE
  5
264DE
330
1F
100
AcDbEntity
  8
AM_7
  6
AM_ISO08W050X2
100
AcDbLine
 10
2165.99567238507
 20
485.3128446299249
 30
0.0
 11
2165.99567238507
 21
479.8128446299249
 31
0.0
1001
GENIUS_GENOREF_13
1005
0
  0
LINE
  5
264E0
330
1F
100
AcDbEntity
  8
AM_7
  6
AM_ISO08W050X2
100
AcDbLine
 10
2093.99567238507
 20
508.3128446299249
 30
0.0
 11
2099.49567238507
 21
508.3128446299249
 31
0.0
1001
GENIUS_GENOREF_13
1005
0
  0
LINE
  5
264E1
330
1F
100
AcDbEntity
  8
AM_7
  6
AM_ISO08W050X2
100
AcDbLine
 10
2093.99567238507
 20
508.3128446299249
 30
0.0
 11
2093.99567238507
 21
513.8128446299249
 31
0.0
1001
GENIUS_GENOREF_13
1005
0
  0
LINE
  5
264E2
330
1F
100
AcDbEntity
  8
AM_7
  6
AM_ISO08W050X2
100
AcDbLine
 10
2093.99567238507
 20
508.3128446299249
 30
0.0
 11
2088.49567238507
 21
508.3128446299249
 31
0.0
1001
GENIUS_GENOREF_13
1005
0
  0
LINE
  5
264E3
330
1F
100
AcDbEntity
  8
AM_7
  6
AM_ISO08W050X2
100
AcDbLine
 10
2093.99567238507
 20
508.3128446299249
 30
0.0
 11
2093.99567238507
 21
502.8128446299249
 31
0.0
1001
GENIUS_GENOREF_13
1005
0
  0
LINE
  5
264E5
330
1F
100
AcDbEntity
  8
AM_7
  6
AM_ISO08W050X2
100
AcDbLine
 10
2115.49567238507
 20
383.948728814461
 30
0.0
 11
2119.24567238507
 21
383.948728814461
 31
0.0
1001
GENIUS_GENOREF_13
1005
0
  0
LINE
  5
264E6
330
1F
100
AcDbEntity
  8
AM_7
  6
AM_ISO08W050X2
100
AcDbLine
 10
2115.49567238507
 20
383.948728814461
 30
0.0
 11
2115.49567238507
 21
387.6987288144611
 31
0.0
1001
GENIUS_GENOREF_13
1005
0
  0
LINE
  5
264E7
330
1F
100
AcDbEntity
  8
AM_7
  6
AM_ISO08W050X2
100
AcDbLine
 10
2115.49567238507
 20
383.948728814461
 30
0.0
 11
2111.74567238507
 21
383.948728814461
 31
0.0
1001
GENIUS_GENOREF_13
1005
0
  0
LINE
  5
264E8
330
1F
100
AcDbEntity
  8
AM_7
  6
AM_ISO08W050X2
100
AcDbLine
 10
2115.49567238507
 20
383.948728814461
 30
0.0
 11
2115.49567238507
 21
380.1987288144611
 31
0.0
1001
GENIUS_GENOREF_13
1005
0
  0
LINE
  5
264EA
330
1F
100
AcDbEntity
  8
AM_7
  6
AM_ISO08W050X2
100
AcDbLine
 10
2144.49567238507
 20
383.948728814461
 30
0.0
 11
2148.24567238507
 21
383.948728814461
 31
0.0
1001
GENIUS_GENOREF_13
1005
0
  0
LINE
  5
264EB
330
1F
100
AcDbEntity
  8
AM_7
  6
AM_ISO08W050X2
100
AcDbLine
 10
2144.49567238507
 20
383.948728814461
 30
0.0
 11
2144.49567238507
 21
387.6987288144611
 31
0.0
1001
GENIUS_GENOREF_13
1005
0
  0
LINE
  5
264EC
330
1F
100
AcDbEntity
  8
AM_7
  6
AM_ISO08W050X2
100
AcDbLine
 10
2144.49567238507
 20
383.948728814461
 30
0.0
 11
2140.74567238507
 21
383.948728814461
 31
0.0
1001
GENIUS_GENOREF_13
1005
0
  0
LINE
  5
264ED
330
1F
100
AcDbEntity
  8
AM_7
  6
AM_ISO08W050X2
100
AcDbLine
 10
2144.49567238507
 20
383.948728814461
 30
0.0
 11
2144.49567238507
 21
380.1987288144611
 31
0.0
1001
GENIUS_GENOREF_13
1005
0
  0
INSERT
  5
264EF
330
1F
100
AcDbEntity
  8
0
100
AcDbBlockReference
  2
A$C75484636
 10
2211.245672630626
 20
494.0628444234589
 30
0.0
  0
LINE
  5
264F0
330
1F
100
AcDbEntity
  8
AM_7
100
AcDbLine
 10
2251.364066123238
 20
496.8128446299249
 30
0.0
 11
2077.049427803362
 21
496.8128446299249
 31
0.0
  0
TEXT
  5
26795
330
1F
100
AcDbEntity
  8
AM_5
100
AcDbText
 10
2083.393921641173
 20
434.9506646646655
 30
0.0
 40
4.5
  1
5-PT1/2
100
AcDbText
  0
INSERT
  5
26796
330
1F
100
AcDbEntity
  8
AM_5
100
AcDbBlockReference
  2
*S17
 10
0.0
 20
0.0
 30
0.0
  0
INSERT
  5
26797
330
1F
100
AcDbEntity
  8
AM_5
100
AcDbBlockReference
  2
*S18
 10
0.0
 20
0.0
 30
0.0
  0
TEXT
  5
26798
330
1F
100
AcDbEntity
  8
AM_5
100
AcDbText
 10
2167.871133914957
 20
362.2348991286114
 30
0.0
 40
4.5
  1
2-%%c4.5
100
AcDbText
  0
DIMENSION
  5
26A28
330
1F
100
AcDbEntity
  8
AM_REFDIM
100
AcDbDimension
  2
*D3
 10
2165.99567238507
 20
515.8543413011157
 30
0.0
 11
2129.99567238507
 21
518.1543413011156
 31
0.0
 70
    32
  3
STANDARD
100
AcDbAlignedDimension
 13
2093.99567238507
 23
513.8128446299249
 33
0.0
 14
2165.99567238507
 24
490.8128446299249
 34
0.0
100
AcDbRotatedDimension
  0
DIMENSION
  5
26A35
330
1F
100
AcDbEntity
  8
AM_REFDIM
100
AcDbDimension
  2
*D4
 10
2073.405526094571
 20
494.5628446299249
 30
0.0
 11
2071.105526094571
 21
484.6199874870682
 31
0.0
 70
    32
  3
STANDARD
100
AcDbAlignedDimension
 13
2104.24567238507
 23
499.0628446299249
 33
0.0
 14
2131.24567238507
 24
494.5628446299249
 34
0.0
 50
90.0
100
AcDbRotatedDimension
  0
DIMENSION
  5
26A44
330
1F
100
AcDbEntity
  8
AM_REFDIM
100
AcDbDimension
  2
*D5
 10
2066.106883228871
 20
485.3128446299249
 30
0.0
 11
2063.806883228871
 21
496.8128446299252
 31
0.0
 70
    32
  3
STANDARD
100
AcDbAlignedDimension
 13
2088.49567238507
 23
508.3128446299249
 33
0.0
 14
2160.49567238507
 24
485.3128446299249
 34
0.0
 50
90.0
100
AcDbRotatedDimension
  0
DIMENSION
  5
26A51
330
1F
100
AcDbEntity
  8
AM_REFDIM
100
AcDbDimension
  2
*D6
 10
2057.616374017038
 20
481.8128446299249
 30
0.0
 11
2055.316374017038
 21
496.8128446299252
 31
0.0
 70
    32
  3
STANDARD
100
AcDbAlignedDimension
 13
2079.99567238507
 23
511.8128446299249
 33
0.0
 14
2079.99567238507
 24
481.8128446299249
 34
0.0
 50
90.0
100
AcDbRotatedDimension
  0
DIMENSION
  5
26A5E
330
1F
100
AcDbEntity
  8
AM_REFDIM
100
AcDbDimension
  2
*D7
 10
2143.49567238507
 20
475.4476718636142
 30
0.0
 11
2129.99567238507
 21
477.7476718636142
 31
0.0
 70
    32
  3
STANDARD
100
AcDbAlignedDimension
 13
2116.49567238507
 23
486.8128446299249
 33
0.0
 14
2143.49567238507
 24
482.3128446299249
 34
0.0
100
AcDbRotatedDimension
  0
DIMENSION
  5
26A6B
330
1F
100
AcDbEntity
  8
AM_REFDIM
100
AcDbDimension
  2
*D8
 10
2247.49567238507
 20
461.9535858214885
 30
0.0
 11
2163.24567238507
 21
464.2535858214885
 31
0.0
 70
    32
  3
STANDARD
100
AcDbAlignedDimension
 13
2078.99567238507
 23
482.8128446299249
 33
0.0
 14
2247.49567238507
 24
487.7181863085954
 34
0.0
100
AcDbRotatedDimension
  0
DIMENSION
  5
26A87
330
1F
100
AcDbEntity
  8
AM_REFDIM
100
AcDbDimension
  2
*D9
 10
2177.795058131283
 20
425.1487288144609
 30
0.0
 11
2175.495058131283
 21
435.0915859573184
 31
0.0
 70
    32
  3
STANDARD
100
AcDbAlignedDimension
 13
2169.99567238507
 23
420.648728814461
 33
0.0
 14
2169.99567238507
 24
425.148728814461
 34
0.0
 50
90.0
100
AcDbRotatedDimension
  0
DIMENSION
  5
26A96
330
1F
100
AcDbEntity
  8
AM_REFDIM
100
AcDbDimension
  2
*D10
 10
2073.147073770579
 20
383.948728814461
 30
0.0
 11
2070.847073770579
 21
379.5487288144614
 31
0.0
 70
    32
  3
STANDARD
100
AcDbAlignedDimension
 13
2088.79567238507
 23
375.1487288144611
 33
0.0
 14
2111.74567238507
 24
383.948728814461
 34
0.0
 50
90.0
100
AcDbRotatedDimension
  0
DIMENSION
  5
26AA3
330
1F
100
AcDbEntity
  8
AM_REFDIM
100
AcDbDimension
  2
*D11
 10
2063.508711745722
 20
375.1487288144611
 30
0.0
 11
2061.208711745722
 21
400.1487288144614
 31
0.0
 70
    32
  3
STANDARD
100
AcDbAlignedDimension
 13
2088.79567238507
 23
425.148728814461
 33
0.0
 14
2088.79567238507
 24
375.1487288144611
 34
0.0
 50
90.0
100
AcDbRotatedDimension
  0
DIMENSION
  5
26AB0
330
1F
100
AcDbEntity
  8
AM_REFDIM
100
AcDbDimension
  2
*D12
 10
2144.49567238507
 20
366.5401311383316
 30
0.0
 11
2129.99567238507
 21
368.8401311383316
 31
0.0
 70
    32
  3
STANDARD
100
AcDbAlignedDimension
 13
2115.49567238507
 23
380.1987288144611
 33
0.0
 14
2144.49567238507
 24
380.1987288144611
 34
0.0
100
AcDbRotatedDimension
  0
DIMENSION
  5
26ABD
330
1F
100
AcDbEntity
  8
AM_REFDIM
100
AcDbDimension
  2
*D13
 10
2158.99567238507
 20
359.3340926582018
 30
0.0
 11
2129.99567238507
 21
361.6340926582018
 31
0.0
 70
    32
  3
STANDARD
100
AcDbAlignedDimension
 13
2100.99567238507
 23
372.8679059122121
 33
0.0
 14
2158.99567238507
 24
372.8679059122121
 34
0.0
100
AcDbRotatedDimension
  0
DIMENSION
  5
26ACA
330
1F
100
AcDbEntity
  8
AM_REFDIM
100
AcDbDimension
  2
*D14
 10
2253.671424343445
 20
448.1487288144608
 30
0.0
 11
2251.371424343445
 21
411.6487288144612
 31
0.0
 70
    32
  3
STANDARD
100
AcDbAlignedDimension
 13
2171.19567238507
 23
375.148728814461
 33
0.0
 14
2240.49567238507
 24
448.1487288144608
 34
0.0
 50
90.0
100
AcDbRotatedDimension
  0
DIMENSION
  5
26AD7
330
1F
100
AcDbEntity
  8
AM_REFDIM
100
AcDbDimension
  2
*D15
 10
2236.49567238507
 20
350.517785310531
 30
0.0
 11
2157.74567238507
 21
352.817785310531
 31
0.0
 70
    32
  3
STANDARD
100
AcDbAlignedDimension
 13
2078.99567238507
 23
377.9487288144611
 33
0.0
 14
2236.49567238507
 24
390.6487288144609
 34
0.0
100
AcDbRotatedDimension
  0
LINE
  5
27364
330
1F
100
AcDbEntity
  8
LOGO
 62
     6
100
AcDbLine
 10
2298.510831953586
 20
341.0113818191311
 30
0.0
 11
2298.510831953588
 21
553.5307893392217
 31
0.0
  0
LINE
  5
27365
330
1F
100
AcDbEntity
  8
LOGO
 62
     6
100
AcDbLine
 10
2031.16648716882
 20
553.5307893392219
 30
0.0
 11
2298.510831953588
 21
553.5307893392217
 31
0.0
  0
TEXT
  5
27367
330
1F
100
AcDbEntity
  8
LOGO
  6
CONTINUOUS
 62
     6
100
AcDbText
 10
2271.830059886961
 20
312.2499512838849
 30
0.0
 40
2.739183860499656
  1
LED indicator
 41
0.8
  7
CHINESET
 72
     4
 11
2282.682445467607
 21
313.6195432141348
 31
0.0
100
AcDbText
  0
LINE
  5
27368
330
1F
100
AcDbEntity
  8
LOGO
 62
     6
100
AcDbLine
 10
2294.217370039611
 20
310.8803593536351
 30
0.0
 11
2271.147520895602
 21
310.8803593536351
 31
0.0
  0
LINE
  5
27369
330
1F
100
AcDbEntity
  8
LOGO
 62
     6
100
AcDbLine
 10
2294.217370039611
 20
322.9327683398336
 30
0.0
 11
2271.147520895602
 21
322.9327683398336
 31
0.0
  0
LINE
  5
2736A
330
1F
100
AcDbEntity
  8
LOGO
 62
     1
100
AcDbLine
 10
2298.510831953586
 20
308.1411754931352
 30
0.0
 11
2031.16648716882
 21
308.1411754931352
 31
0.0
  0
LINE
  5
2736B
330
1F
100
AcDbEntity
  8
LOGO
 62
     1
100
AcDbLine
 10
2298.510831953586
 20
341.0113818191311
 30
0.0
 11
2031.16648716882
 21
341.0113818191311
 31
0.0
  0
TEXT
  5
2736C
330
1F
100
AcDbEntity
  8
LOGO
 62
     7
100
AcDbText
 10
2105.385236571074
 20
326.6115037620682
 30
0.0
 40
4.382694176799449
  1
Order example:
 41
0.8
  7
CHINESET
100
AcDbText
  0
TEXT
  5
2736D
330
1F
100
AcDbEntity
  8
LOGO
  6
CONTINUOUS
 62
     5
100
AcDbText
 10
2033.654191202768
 20
309.6669809740138
 30
0.0
 40
3.287020632599587
  1
MINDMAN INDUSTRIAL CO.,LTD
 41
0.85
  7
CHINESET
100
AcDbText
  0
TEXT
  5
2736E
330
1F
100
AcDbEntity
  8
LOGO
 62
     6
100
AcDbText
 10
2059.130619544671
 20
329.5530468129141
 30
0.0
 40
3.287020632599587
  1
投影 View:
 41
0.9
  7
CHINESET
 72
     4
 11
2068.419387671615
 21
331.1503199213324
 31
0.0
100
AcDbText
  0
LINE
  5
2736F
330
1F
100
AcDbEntity
  8
LOGO
 62
     1
100
AcDbLine
 10
2103.480941086011
 20
321.2892580235337
 30
0.0
 11
2031.16648716882
 21
321.2892580235337
 31
0.0
  0
LINE
  5
27370
330
1F
100
AcDbEntity
  8
LOGO
 62
     1
100
AcDbLine
 10
2103.480941086011
 20
327.8632992887328
 30
0.0
 11
2055.271305141217
 21
327.8632992887328
 31
0.0
  0
LINE
  5
27371
330
1F
100
AcDbEntity
  8
LOGO
 62
     1
100
AcDbLine
 10
2103.480941086011
 20
334.437340553932
 30
0.0
 11
2055.271305141217
 21
334.437340553932
 31
0.0
  0
TEXT
  5
27372
330
1F
100
AcDbEntity
  8
LOGO
 62
     6
100
AcDbText
 10
2057.981629743186
 20
336.0824684984958
 30
0.0
 40
3.287020632599587
  1
比例 Scale:
 41
0.9
  7
CHINESET
 72
     4
 11
2068.419387671615
 21
337.7243611865316
 31
0.0
100
AcDbText
  0
TEXT
  5
27373
330
1F
100
AcDbEntity
  8
LOGO
 62
     6
100
AcDbText
 10
2059.451984508305
 20
322.9327683398334
 30
0.0
 40
3.287020632599587
  1
單位 Unit:
 41
0.9
  7
CHINESET
 72
     4
 11
2068.419387671615
 21
324.5762786561332
 31
0.0
100
AcDbText
  0
SOLID
  5
27374
330
1F
100
AcDbEntity
  8
LOGO
 62
     2
100
AcDbTrace
 10
2050.700336368077
 20
340.2305621023255
 30
0.0
 11
2051.288428010884
 21
340.2305621023245
 31
0.0
 12
2050.700336368077
 22
326.7534619546857
 32
0.0
 13
2051.288428010884
 23
326.7534619546857
 33
0.0
  0
SOLID
  5
27375
330
1F
100
AcDbEntity
  8
LOGO
 62
     2
100
AcDbTrace
 10
2043.349190833002
 20
326.7534619546862
 30
0.0
 11
2043.937282475809
 21
326.7534619546862
 31
0.0
 12
2050.700336368077
 22
340.2305621023255
 32
0.0
 13
2051.288428010884
 23
340.2305621023245
 33
0.0
  0
SOLID
  5
27376
330
1F
100
AcDbEntity
  8
LOGO
 62
     2
100
AcDbTrace
 10
2043.349190833002
 20
340.2305621023245
 30
0.0
 11
2043.937282475809
 21
340.2305621023245
 31
0.0
 12
2043.349190833002
 22
326.7534619546862
 32
0.0
 13
2043.937282475809
 23
326.7534619546862
 33
0.0
  0
SOLID
  5
27377
330
1F
100
AcDbEntity
  8
LOGO
 62
     2
100
AcDbTrace
 10
2035.998045297926
 20
326.7534619546857
 30
0.0
 11
2036.586136940733
 21
326.7534619546862
 31
0.0
 12
2043.349190833002
 22
340.2305621023245
 32
0.0
 13
2043.937282475809
 23
340.2305621023245
 33
0.0
  0
SOLID
  5
27378
330
1F
100
AcDbEntity
  8
LOGO
 62
     5
100
AcDbTrace
 10
2051.288428010884
 20
326.7534619546857
 30
0.0
 11
2052.709649480998
 21
326.7534619546857
 31
0.0
 12
2051.288428010884
 22
340.2305621023245
 32
0.0
 13
2052.709649480998
 23
340.2305621023255
 33
0.0
  0
SOLID
  5
27379
330
1F
100
AcDbEntity
  8
LOGO
 62
     5
100
AcDbTrace
 10
2050.700336368077
 20
339.1523940905138
 30
0.0
 11
2049.279114897962
 21
333.9412487000931
 31
0.0
 12
2050.700336368077
 22
326.7534619546857
 32
0.0
 13
2049.279114897962
 23
326.7534619546857
 33
0.0
  0
SOLID
  5
2737A
330
1F
100
AcDbEntity
  8
LOGO
 62
     5
100
AcDbTrace
 10
2043.937282475809
 20
326.7534619546862
 30
0.0
 11
2045.358503945923
 21
326.7534619546862
 31
0.0
 12
2050.700336368077
 22
339.1523940905138
 32
0.0
 13
2049.279114897962
 23
333.9412487000931
 33
0.0
  0
SOLID
  5
2737B
330
1F
100
AcDbEntity
  8
LOGO
 62
     5
100
AcDbTrace
 10
2041.927969362887
 20
326.7534619546862
 30
0.0
 11
2043.349190833002
 21
326.7534619546862
 31
0.0
 12
2041.927969362887
 22
333.9412487000931
 32
0.0
 13
2043.349190833002
 23
339.1523940905138
 33
0.0
  0
SOLID
  5
2737C
330
1F
100
AcDbEntity
  8
LOGO
 62
     5
100
AcDbTrace
 10
2036.586136940733
 20
326.7534619546862
 30
0.0
 11
2038.007358410847
 21
326.7534619546862
 31
0.0
 12
2043.349190833002
 22
339.1523940905138
 32
0.0
 13
2041.927969362887
 23
333.9412487000931
 33
0.0
  0
SOLID
  5
2737D
330
1F
100
AcDbEntity
  8
LOGO
 62
     5
100
AcDbTrace
 10
2034.576823827811
 20
326.7534619546862
 30
0.0
 11
2035.998045297926
 21
326.7534619546857
 31
0.0
 12
2041.927969362887
 22
340.2305621023255
 32
0.0
 13
2043.349190833002
 23
340.2305621023245
 33
0.0
  0
LINE
  5
2737E
330
1F
100
AcDbEntity
  8
LOGO
 62
     1
100
AcDbLine
 10
2055.271305141217
 20
321.2892580235336
 30
0.0
 11
2055.271305141217
 21
341.0113818191311
 31
0.0
  0
LINE
  5
2737F
330
1F
100
AcDbEntity
  8
LOGO
 62
     1
100
AcDbLine
 10
2031.16648716882
 20
308.1411754931352
 30
0.0
 11
2031.16648716882
 21
341.0113818191311
 31
0.0
  0
TEXT
  5
27380
330
1F
100
AcDbEntity
  8
LOGO
  6
CONTINUOUS
 62
     5
100
AcDbText
 10
2032.242384520275
 20
314.5984779204106
 30
0.0
 40
4.930530948899381
  1
金器工業股份有限公司
 41
0.8
  7
LOGO
100
AcDbText
  0
SOLID
  5
27381
330
1F
100
AcDbEntity
  8
LOGO
 62
     5
100
AcDbTrace
 10
2034.168426853641
 20
321.8526982646359
 30
0.0
 11
2034.658503222645
 21
321.8526982646359
 31
0.0
 12
2036.038596422261
 22
324.3030801096608
 32
0.0
 13
2036.528672791265
 23
324.3030801096608
 33
0.0
  0
SOLID
  5
27382
330
1F
100
AcDbEntity
  8
LOGO
 62
     5
100
AcDbTrace
 10
2034.168426853641
 20
324.3030801096608
 30
0.0
 11
2034.658503222645
 21
324.3030801096608
 31
0.0
 12
2034.168426853641
 22
321.8526982646359
 32
0.0
 13
2034.658503222645
 23
321.8526982646359
 33
0.0
  0
SOLID
  5
27383
330
1F
100
AcDbEntity
  8
LOGO
 62
     5
100
AcDbTrace
 10
2032.29825728502
 20
321.8526982646359
 30
0.0
 11
2032.788333654027
 21
321.8526982646359
 31
0.0
 12
2034.168426853641
 22
324.3030801096608
 32
0.0
 13
2034.658503222645
 23
324.3030801096608
 33
0.0
  0
SOLID
  5
27384
330
1F
100
AcDbEntity
  8
LOGO
 62
     5
100
AcDbTrace
 10
2052.219573111994
 20
323.3229273716506
 30
0.0
 11
2052.709649480998
 21
323.3229273716506
 31
0.0
 12
2052.219573111994
 22
321.8526982646359
 32
0.0
 13
2052.709649480998
 23
321.8526982646359
 33
0.0
  0
SOLID
  5
27385
330
1F
100
AcDbEntity
  8
LOGO
 62
     5
100
AcDbTrace
 10
2050.749344004978
 20
321.8526982646359
 30
0.0
 11
2051.239420373983
 21
321.8526982646359
 31
0.0
 12
2050.749344004978
 22
324.3030801096608
 32
0.0
 13
2051.239420373983
 23
324.3030801096608
 33
0.0
  0
SOLID
  5
27386
330
1F
100
AcDbEntity
  8
LOGO
 62
     5
100
AcDbTrace
 10
2049.687495536256
 20
324.3030801096608
 30
0.0
 11
2050.177571905261
 21
324.3030801096608
 31
0.0
 12
2049.687495536256
 22
321.8526982646359
 32
0.0
 13
2050.177571905261
 23
321.8526982646359
 33
0.0
  0
POLYLINE
  5
27387
330
1F
100
AcDbEntity
  8
LOGO
 62
     5
100
AcDb2dPolyline
 66
     1
 10
0.0
 20
0.0
 30
0.0
 40
0.4908617478015383
 41
0.4908617478015383
  0
VERTEX
  5
2A3ED
330
27387
100
AcDbEntity
  8
LOGO
 62
     5
100
AcDbVertex
100
AcDb2dVertex
 10
2052.465789364691
 20
323.3229273716506
 30
0.0
 42
1.0
  0
VERTEX
  5
2A3EE
330
27387
100
AcDbEntity
  8
LOGO
 62
     5
100
AcDbVertex
100
AcDb2dVertex
 10
2050.993204121286
 20
323.3229273716506
 30
0.0
 42
1.0
  0
SEQEND
  5
2A3EF
330
27387
100
AcDbEntity
  8
LOGO
 62
     5
  0
LINE
  5
27388
330
1F
100
AcDbEntity
  8
LOGO
 62
     5
100
AcDbLine
 10
2052.709649480998
 20
321.8526982646359
 30
0.0
 11
2052.709649480998
 21
323.3229273716506
 31
0.0
  0
POLYLINE
  5
27389
330
1F
100
AcDbEntity
  8
LOGO
 62
     5
100
AcDb2dPolyline
 66
     1
 10
0.0
 20
0.0
 30
0.0
 70
     1
 40
0.4908617478015383
 41
0.4908617478015383
  0
VERTEX
  5
2A3F0
330
27389
100
AcDbEntity
  8
LOGO
 62
     5
100
AcDbVertex
100
AcDb2dVertex
 10
2047.970706494781
 20
323.0778891871481
 30
0.0
 42
1.0
  0
VERTEX
  5
2A3F1
330
27389
100
AcDbEntity
  8
LOGO
 62
     5
100
AcDbVertex
100
AcDb2dVertex
 10
2049.934153485987
 20
323.0778891871481
 30
0.0
 42
1.0
  0
SEQEND
  5
2A3F2
330
27389
100
AcDbEntity
  8
LOGO
 62
     5
  0
SOLID
  5
2738A
330
1F
100
AcDbEntity
  8
LOGO
 62
     5
100
AcDbTrace
 10
2046.665341591512
 20
323.3229273716506
 30
0.0
 11
2047.155417960516
 21
323.3229273716506
 31
0.0
 12
2046.665341591512
 22
321.852698264635
 32
0.0
 13
2047.155417960516
 23
321.852698264635
 33
0.0
  0
SOLID
  5
2738B
330
1F
100
AcDbEntity
  8
LOGO
 62
     5
100
AcDbTrace
 10
2045.195112484496
 20
323.3229273716506
 30
0.0
 11
2045.685188853501
 21
323.3229273716506
 31
0.0
 12
2045.195112484496
 22
321.8526982646359
 32
0.0
 13
2045.685188853501
 23
321.8526982646359
 33
0.0
  0
POLYLINE
  5
2738C
330
1F
100
AcDbEntity
  8
LOGO
 62
     5
100
AcDb2dPolyline
 66
     1
 10
0.0
 20
0.0
 30
0.0
 40
0.4908617478015383
 41
0.4908617478015383
  0
VERTEX
  5
2A3F3
330
2738C
100
AcDbEntity
  8
LOGO
 62
     5
100
AcDbVertex
100
AcDb2dVertex
 10
2046.911557844209
 20
323.3229273716506
 30
0.0
 42
1.0
  0
VERTEX
  5
2A3F4
330
2738C
100
AcDbEntity
  8
LOGO
 62
     5
100
AcDbVertex
100
AcDb2dVertex
 10
2045.438972600804
 20
323.3229273716506
 30
0.0
 42
1.0
  0
SEQEND
  5
2A3F5
330
2738C
100
AcDbEntity
  8
LOGO
 62
     5
  0
POLYLINE
  5
2738D
330
1F
100
AcDbEntity
  8
LOGO
 62
     5
100
AcDb2dPolyline
 66
     1
 10
0.0
 20
0.0
 30
0.0
 40
0.4908617478015383
 41
0.4908617478015383
  0
VERTEX
  5
2A3F6
330
2738D
100
AcDbEntity
  8
LOGO
 62
     5
100
AcDbVertex
100
AcDb2dVertex
 10
2045.441328737194
 20
323.3229273716506
 30
0.0
 42
1.0
  0
VERTEX
  5
2A3F7
330
2738D
100
AcDbEntity
  8
LOGO
 62
     5
100
AcDbVertex
100
AcDb2dVertex
 10
2043.968743493789
 20
323.3229273716506
 30
0.0
 42
1.0
  0
SEQEND
  5
2A3F8
330
2738D
100
AcDbEntity
  8
LOGO
 62
     5
  0
SOLID
  5
2738E
330
1F
100
AcDbEntity
  8
LOGO
 62
     5
100
AcDbTrace
 10
2043.724883377481
 20
324.3030801096608
 30
0.0
 11
2044.214959746486
 21
324.3030801096608
 31
0.0
 12
2043.724883377481
 22
321.8526982646359
 32
0.0
 13
2044.214959746486
 23
321.8526982646359
 33
0.0
  0
SOLID
  5
2738F
330
1F
100
AcDbEntity
  8
LOGO
 62
     5
100
AcDbTrace
 10
2042.663034908758
 20
325.0381946631686
 30
0.0
 11
2043.153111277763
 21
325.0381946631686
 31
0.0
 12
2042.663034908758
 22
321.8526982646359
 32
0.0
 13
2043.153111277763
 23
321.8526982646359
 33
0.0
  0
POLYLINE
  5
27390
330
1F
100
AcDbEntity
  8
LOGO
 62
     5
100
AcDb2dPolyline
 66
     1
 10
0.0
 20
0.0
 30
0.0
 70
     1
 40
0.4908617478015383
 41
0.4908617478015383
  0
VERTEX
  5
2A3F9
330
27390
100
AcDbEntity
  8
LOGO
 62
     5
100
AcDbVertex
100
AcDb2dVertex
 10
2040.946245867283
 20
323.0778891871481
 30
0.0
 42
1.0
  0
VERTEX
  5
2A3FA
330
27390
100
AcDbEntity
  8
LOGO
 62
     5
100
AcDbVertex
100
AcDb2dVertex
 10
2042.90969285849
 20
323.0778891871481
 30
0.0
 42
1.0
  0
SEQEND
  5
2A3FB
330
27390
100
AcDbEntity
  8
LOGO
 62
     5
  0
SOLID
  5
27391
330
1F
100
AcDbEntity
  8
LOGO
 62
     5
100
AcDbTrace
 10
2039.640880964014
 20
323.3229273716506
 30
0.0
 11
2040.13095733302
 21
323.3229273716506
 31
0.0
 12
2039.640880964014
 22
321.8526982646359
 32
0.0
 13
2040.13095733302
 23
321.8526982646359
 33
0.0
  0
SOLID
  5
27392
330
1F
100
AcDbEntity
  8
LOGO
 62
     5
100
AcDbTrace
 10
2038.170651856999
 20
324.3030801096608
 30
0.0
 11
2038.660728226004
 21
324.3030801096608
 31
0.0
 12
2038.170651856999
 22
321.8526982646359
 32
0.0
 13
2038.660728226004
 23
321.8526982646359
 33
0.0
  0
POLYLINE
  5
27393
330
1F
100
AcDbEntity
  8
LOGO
 62
     5
100
AcDb2dPolyline
 66
     1
 10
0.0
 20
0.0
 30
0.0
 40
0.4908617478015383
 41
0.4908617478015383
  0
VERTEX
  5
2A3FC
330
27393
100
AcDbEntity
  8
LOGO
 62
     5
100
AcDbVertex
100
AcDb2dVertex
 10
2039.887097216712
 20
323.3229273716506
 30
0.0
 42
1.0
  0
VERTEX
  5
2A3FD
330
27393
100
AcDbEntity
  8
LOGO
 62
     5
100
AcDbVertex
100
AcDb2dVertex
 10
2038.414511973307
 20
323.3229273716506
 30
0.0
 42
1.0
  0
SEQEND
  5
2A3FE
330
27393
100
AcDbEntity
  8
LOGO
 62
     5
  0
SOLID
  5
27394
330
1F
100
AcDbEntity
  8
LOGO
 62
     5
100
AcDbTrace
 10
2037.108803388276
 20
324.3030801096608
 30
0.0
 11
2037.598879757282
 21
324.3030801096608
 31
0.0
 12
2037.108803388276
 22
321.852698264635
 32
0.0
 13
2037.598879757282
 23
321.8526982646359
 33
0.0
  0
SOLID
  5
27395
330
1F
100
AcDbEntity
  8
LOGO
 62
     5
100
AcDbTrace
 10
2037.108803388276
 20
324.6461335679641
 30
0.0
 11
2037.598879757282
 21
324.6461335679641
 31
0.0
 12
2037.108803388276
 22
325.0381946631686
 32
0.0
 13
2037.598879757282
 23
325.0381946631686
 33
0.0
  0
SOLID
  5
27396
330
1F
100
AcDbEntity
  8
LOGO
 62
     5
100
AcDbTrace
 10
2036.038596422261
 20
324.3030801096608
 30
0.0
 11
2036.528672791265
 21
324.3030801096608
 31
0.0
 12
2036.038596422261
 22
321.8526982646359
 32
0.0
 13
2036.528672791265
 23
321.8526982646359
 33
0.0
  0
CIRCLE
  5
27397
330
1F
100
AcDbEntity
  8
LOGO
 62
     5
100
AcDbCircle
 10
2048.952429990384
 20
323.0778891871484
 30
0.0
 40
0.7351145535075841
  0
POLYLINE
  5
27398
330
1F
100
AcDbEntity
  8
LOGO
 62
     5
100
AcDb2dPolyline
 66
     1
 10
0.0
 20
0.0
 30
0.0
 70
     1
  0
VERTEX
  5
2A3FF
330
27398
100
AcDbEntity
  8
LOGO
 62
     5
100
AcDbVertex
100
AcDb2dVertex
 10
2048.217315436876
 20
323.0778891871484
 30
0.0
 42
1.000000057330635
  0
VERTEX
  5
2A400
330
27398
100
AcDbEntity
  8
LOGO
 62
     5
100
AcDbVertex
100
AcDb2dVertex
 10
2049.687544543892
 20
323.0778891871484
 30
0.0
 42
1.000000057330635
  0
SEQEND
  5
2A401
330
27398
100
AcDbEntity
  8
LOGO
 62
     5
  0
SOLID
  5
27399
330
1F
100
AcDbEntity
  8
LOGO
 62
     5
100
AcDbTrace
 10
2043.937282475809
 20
327.8316299664969
 30
0.0
 11
2045.358503945923
 21
333.0427753569176
 31
0.0
 12
2050.700336368077
 22
340.2305621023255
 32
0.0
 13
2049.279114897962
 23
340.2305621023255
 33
0.0
  0
SOLID
  5
2739A
330
1F
100
AcDbEntity
  8
LOGO
 62
     5
100
AcDbTrace
 10
2043.937282475809
 20
340.2305621023245
 30
0.0
 11
2045.358503945923
 21
340.2305621023255
 31
0.0
 12
2043.937282475809
 22
327.8316299664969
 32
0.0
 13
2045.358503945923
 23
333.0427753569176
 33
0.0
  0
LINE
  5
2739B
330
1F
100
AcDbEntity
  8
LOGO
 62
     1
100
AcDbLine
 10
2103.480941086011
 20
308.1411754931352
 30
0.0
 11
2103.480941086011
 21
341.0113818191311
 31
0.0
  0
LINE
  5
2739C
330
1F
100
AcDbEntity
  8
LOGO
 62
     1
100
AcDbLine
 10
2081.567470202013
 20
321.2892580235336
 30
0.0
 11
2081.567470202013
 21
341.0113818191311
 31
0.0
  0
TEXT
  5
2739D
330
1F
100
AcDbEntity
  8
LOGO
 62
     6
100
AcDbText
 10
2086.498543137014
 20
322.9327683398334
 30
0.0
 40
3.287020632599587
  1
m/m
  7
CHINESET
 72
     1
 11
2092.28996044207
 21
324.5762786561332
 31
0.0
100
AcDbText
 73
     2
  0
TEXT
  5
2739E
330
1F
100
AcDbEntity
  8
LOGO
 62
     7
100
AcDbText
 10
2106.171528149798
 20
332.7814297145935
 30
0.0
 40
6.574041265199174
  1
訂購代號:
  7
CHINESET
100
AcDbText
  0
LINE
  5
2739F
330
1F
100
AcDbEntity
  8
LOGO
 62
     6
100
AcDbLine
 10
2099.647170894336
 20
329.2488293354878
 30
0.0
 11
2099.647170894336
 21
333.065872429551
 31
0.0
  0
LINE
  5
273A0
330
1F
100
AcDbEntity
  8
LOGO
 62
     6
100
AcDbLine
 10
2093.664065398755
 20
330.0391262078123
 30
0.0
 11
2093.664065398755
 21
332.2755755572264
 31
0.0
  0
LINE
  5
273A1
330
1F
100
AcDbEntity
  8
LOGO
  6
CONTINUOUS
 62
     6
100
AcDbLine
 10
2093.664065398755
 20
330.0391262078123
 30
0.0
 11
2099.647170894336
 21
329.2488293354878
 31
0.0
  0
LINE
  5
273A2
330
1F
100
AcDbEntity
  8
LOGO
  6
CONTINUOUS
 62
     6
100
AcDbLine
 10
2093.664065398755
 20
332.2755755572264
 30
0.0
 11
2099.647170894336
 21
333.065872429551
 31
0.0
  0
CIRCLE
  5
273A3
330
1F
100
AcDbEntity
  8
LOGO
  6
CONTINUOUS
 62
     6
100
AcDbCircle
 10
2087.653800037313
 20
331.1573508825194
 30
0.0
 40
1.118224674707039
  0
CIRCLE
  5
273A4
330
1F
100
AcDbEntity
  8
LOGO
  6
CONTINUOUS
 62
     6
100
AcDbCircle
 10
2087.653800037313
 20
331.1573508825194
 30
0.0
 40
1.908521547031622
  0
TEXT
  5
273A5
330
1F
100
AcDbEntity
  8
LOGO
 62
     6
100
AcDbText
 10
2086.498543137014
 20
336.0808508702318
 30
0.0
 40
3.287020632599587
  1
1 : 1
  7
CHINESET
 72
     1
 11
2092.28996044207
 21
337.7243611865316
 31
0.0
100
AcDbText
 73
     2
  0
LINE
  5
273A6
330
1F
100
AcDbEntity
  8
LOGO
 62
     6
100
AcDbLine
 10
2217.988544008781
 20
325.3980338142832
 30
0.0
 11
2212.510176540427
 21
325.3980338142832
 31
0.0
  0
TEXT
  5
273A7
330
1F
100
AcDbEntity
  8
LOGO
  6
CONTINUOUS
 62
     6
100
AcDbText
 10
2207.55355812619
 20
312.7064819273014
 30
0.0
 40
2.739183860499656
  1
4 Way
 41
0.8
  7
CHINESET
 72
     4
 11
2212.510176540427
 21
313.6195432141346
 31
0.0
100
AcDbText
  0
LINE
  5
273A8
330
1F
100
AcDbEntity
  8
LOGO
 62
     6
100
AcDbLine
 10
2221.305917251932
 20
310.880359353635
 30
0.0
 11
2203.714435828922
 21
310.880359353635
 31
0.0
  0
TEXT
  5
273A9
330
1F
100
AcDbEntity
  8
LOGO
 62
     6
100
AcDbText
 10
2205.108510437377
 20
316.9216617105323
 30
0.0
 40
4.382694176799449
  1
4 方向
 41
0.9
  7
CHINESET
 72
     4
 11
2212.510176540427
 21
319.0979109351339
 31
0.0
100
AcDbText
  0
LINE
  5
273AA
330
1F
100
AcDbEntity
  8
LOGO
 62
     6
100
AcDbLine
 10
2221.305917251932
 20
327.8632992887328
 30
0.0
 11
2214.671171270921
 21
327.8632992887328
 31
0.0
  0
LINE
  5
273AB
330
1F
100
AcDbEntity
  8
LOGO
 62
     6
100
AcDbLine
 10
2221.305917251932
 20
322.9327683398334
 30
0.0
 11
2203.714435828922
 21
322.9327683398334
 31
0.0
  0
LINE
  5
273AC
330
1F
100
AcDbEntity
  8
LOGO
 62
     6
100
AcDbLine
 10
2221.305917251932
 20
337.7243611865317
 30
0.0
 11
2214.671171270921
 21
337.7243611865317
 31
0.0
  0
TEXT
  5
273AD
330
1F
100
AcDbEntity
  8
LOGO
  6
CONTINUOUS
 62
     7
100
AcDbText
 10
2216.03198436107
 20
330.0546463771325
 30
0.0
 40
5.478367720999312
  1
4
  7
CHINESET
 72
     1
 11
2217.988544261426
 21
332.7938302376322
 31
0.0
100
AcDbText
 73
     2
  0
LINE
  5
273AE
330
1F
100
AcDbEntity
  8
LOGO
 62
     6
100
AcDbLine
 10
2161.840533564001
 20
327.8632992887328
 30
0.0
 11
2161.840533564001
 21
322.9327683398334
 31
0.0
  0
LINE
  5
273AF
330
1F
100
AcDbEntity
  8
LOGO
 62
     6
100
AcDbLine
 10
2194.82989368266
 20
327.8632992887328
 30
0.0
 11
2194.82989368266
 21
325.3980338142831
 31
0.0
  0
TEXT
  5
273B0
330
1F
100
AcDbEntity
  8
LOGO
  6
CONTINUOUS
 62
     6
100
AcDbText
 10
2177.299116975463
 20
312.7064819273014
 30
0.0
 40
2.739183860499656
  1
Body width
  7
CHINESET
 72
     4
 11
2188.255852417461
 21
313.6195432141346
 31
0.0
100
AcDbText
  0
TEXT
  5
273B1
330
1F
100
AcDbEntity
  8
LOGO
 62
     6
100
AcDbText
 10
2179.490464063862
 20
316.9836707939885
 30
0.0
 40
4.382694176799449
  1
本體寬幅
  7
CHINESET
 72
     4
 11
2188.255852417461
 21
319.0979109351339
 31
0.0
100
AcDbText
  0
LINE
  5
273B2
330
1F
100
AcDbEntity
  8
LOGO
 62
     6
100
AcDbLine
 10
2200.338613761566
 20
322.9327683398334
 30
0.0
 11
2176.173091073356
 21
322.9327683398334
 31
0.0
  0
LINE
  5
273B3
330
1F
100
AcDbEntity
  8
LOGO
 62
     6
100
AcDbLine
 10
2200.338613761566
 20
310.880359353635
 30
0.0
 11
2176.173091073356
 21
310.8803593536349
 31
0.0
  0
LINE
  5
273B4
330
1F
100
AcDbEntity
  8
LOGO
 62
     6
100
AcDbLine
 10
2172.797269006
 20
310.880359353635
 30
0.0
 11
2150.883798122002
 21
310.8803593536349
 31
0.0
  0
LINE
  5
273B5
330
1F
100
AcDbEntity
  8
LOGO
 62
     6
100
AcDbLine
 10
2172.797269006
 20
322.9327683398334
 30
0.0
 11
2150.883798122002
 21
322.9327683398334
 31
0.0
  0
LINE
  5
273B6
330
1F
100
AcDbEntity
  8
LOGO
 62
     6
100
AcDbLine
 10
2172.797269006
 20
322.9327683398334
 30
0.0
 11
2172.797269006
 21
310.880359353635
 31
0.0
  0
TEXT
  5
273B7
330
1F
100
AcDbEntity
  8
LOGO
  6
CONTINUOUS
 62
     6
100
AcDbText
 10
2156.623040496383
 20
312.2499512838848
 30
0.0
 40
2.739183860499656
  1
Model
  7
CHINESET
 72
     4
 11
2161.840533564001
 21
313.6195432141346
 31
0.0
100
AcDbText
  0
LINE
  5
273B8
330
1F
100
AcDbEntity
  8
LOGO
 62
     6
100
AcDbLine
 10
2150.883798122002
 20
322.9327683398334
 30
0.0
 11
2150.883798122002
 21
310.8803593536349
 31
0.0
  0
LINE
  5
273B9
330
1F
100
AcDbEntity
  8
LOGO
 62
     6
100
AcDbLine
 10
2176.173091073356
 20
322.9327683398334
 30
0.0
 11
2176.173091073356
 21
310.880359353635
 31
0.0
  0
TEXT
  5
273BA
330
1F
100
AcDbEntity
  8
LOGO
 62
     6
100
AcDbText
 10
2157.457839387201
 20
317.0187194063767
 30
0.0
 40
4.382694176799449
  1
型式
  7
CHINESET
 72
     4
 11
2161.840533564001
 21
319.0979109351339
 31
0.0
100
AcDbText
  0
LINE
  5
273BB
330
1F
100
AcDbEntity
  8
LOGO
 62
     6
100
AcDbLine
 10
2188.255852417461
 20
322.9327683398334
 30
0.0
 11
2188.255852417461
 21
325.3980338142831
 31
0.0
  0
LINE
  5
273BC
330
1F
100
AcDbEntity
  8
LOGO
 62
     6
100
AcDbLine
 10
2194.82989368266
 20
325.3980338142831
 30
0.0
 11
2188.255852417461
 21
325.3980338142831
 31
0.0
  0
LINE
  5
273BD
330
1F
100
AcDbEntity
  8
LOGO
 62
     6
100
AcDbLine
 10
2212.510176540427
 20
322.9327683398334
 30
0.0
 11
2212.510176540427
 21
325.3980338142832
 31
0.0
  0
LINE
  5
273BE
330
1F
100
AcDbEntity
  8
LOGO
 62
     6
100
AcDbLine
 10
2203.714435828922
 20
322.9327683398334
 30
0.0
 11
2203.714435828922
 21
310.880359353635
 31
0.0
  0
LINE
  5
273BF
330
1F
100
AcDbEntity
  8
LOGO
 62
     6
100
AcDbLine
 10
2200.338613761566
 20
322.9327683398334
 30
0.0
 11
2200.338613761566
 21
310.880359353635
 31
0.0
  0
LINE
  5
273C0
330
1F
100
AcDbEntity
  8
LOGO
  6
CONTINUOUS
 62
     7
100
AcDbLine
 10
2176.687528862477
 20
332.758900797974
 30
0.0
 11
2181.041813982385
 21
332.758900797974
 31
0.0
  0
LINE
  5
273C1
330
1F
100
AcDbEntity
  8
LOGO
 62
     6
100
AcDbLine
 10
2174.988616094399
 20
327.8632992887328
 30
0.0
 11
2148.692451033603
 21
327.8632992887328
 31
0.0
  0
LINE
  5
273C2
330
1F
100
AcDbEntity
  8
LOGO
 62
     6
100
AcDbLine
 10
2174.988616094399
 20
337.7243611865316
 30
0.0
 11
2148.692451033603
 21
337.7243611865316
 31
0.0
  0
LINE
  5
273C3
330
1F
100
AcDbEntity
  8
LOGO
 62
     6
100
AcDbLine
 10
2174.988616094399
 20
337.7243611865316
 30
0.0
 11
2174.988616094399
 21
327.8632992887328
 31
0.0
  0
TEXT
  5
273C4
330
1F
100
AcDbEntity
  8
LOGO
  6
CONTINUOUS
 62
     7
100
AcDbText
 10
2151.796859408836
 20
330.0546463771325
 30
0.0
 40
5.478367720999312
  1
MVSE
  7
CHINESET
 72
     1
 11
2161.840533564001
 21
332.7938302376322
 31
0.0
100
AcDbText
 73
     2
  0
LINE
  5
273C5
330
1F
100
AcDbEntity
  8
LOGO
 62
     6
100
AcDbLine
 10
2148.692451033603
 20
337.7243611865316
 30
0.0
 11
2148.692451033603
 21
327.8632992887328
 31
0.0
  0
LINE
  5
273C6
330
1F
100
AcDbEntity
  8
LOGO
  6
CONTINUOUS
 62
     7
100
AcDbLine
 10
2208.611567794843
 20
332.7589007979742
 30
0.0
 11
2212.96585291475
 21
332.7589007979742
 31
0.0
  0
LINE
  5
273C7
330
1F
100
AcDbEntity
  8
LOGO
 62
     6
100
AcDbLine
 10
2214.671171270921
 20
337.7243611865317
 30
0.0
 11
2214.671171270921
 21
327.8632992887328
 31
0.0
  0
TEXT
  5
273C8
330
1F
100
AcDbEntity
  8
LOGO
  6
CONTINUOUS
 62
     7
100
AcDbText
 10
2187.786278041375
 20
329.9925213419693
 30
0.0
 40
5.478367720999312
  1
500
  7
CHINESET
 72
     1
 11
2194.82989368266
 21
332.7317052024689
 31
0.0
100
AcDbText
 73
     2
  0
LINE
  5
273C9
330
1F
100
AcDbEntity
  8
LOGO
 62
     6
100
AcDbLine
 10
2206.912655026765
 20
337.7243611865317
 30
0.0
 11
2206.912655026765
 21
327.8632992887328
 31
0.0
  0
LINE
  5
273CA
330
1F
100
AcDbEntity
  8
LOGO
 62
     6
100
AcDbLine
 10
2182.747132338556
 20
337.7243611865316
 30
0.0
 11
2182.747132338556
 21
327.8632992887328
 31
0.0
  0
LINE
  5
273CB
330
1F
100
AcDbEntity
  8
LOGO
 62
     6
100
AcDbLine
 10
2206.912655026765
 20
337.7243611865317
 30
0.0
 11
2182.747132338556
 21
337.7243611865316
 31
0.0
  0
LINE
  5
273CC
330
1F
100
AcDbEntity
  8
LOGO
 62
     6
100
AcDbLine
 10
2206.912655026765
 20
327.8632992887328
 30
0.0
 11
2182.747132338556
 21
327.8632992887328
 31
0.0
  0
LINE
  5
273CD
330
1F
100
AcDbEntity
  8
LOGO
 62
     6
100
AcDbLine
 10
2282.134608948152
 20
327.863299288733
 30
0.0
 11
2282.134608948152
 21
322.9327683398336
 31
0.0
  0
LINE
  5
273CE
330
1F
100
AcDbEntity
  8
LOGO
 62
     6
100
AcDbLine
 10
2257.003065559599
 20
327.8632992887329
 30
0.0
 11
2257.003065559599
 21
325.3980338142832
 31
0.0
  0
LINE
  5
273CF
330
1F
100
AcDbEntity
  8
LOGO
 62
     6
100
AcDbLine
 10
2217.988544008781
 20
327.8632992887328
 30
0.0
 11
2217.988544008781
 21
325.3980338142832
 31
0.0
  0
LINE
  5
273D0
330
1F
100
AcDbEntity
  8
LOGO
 62
     6
100
AcDbLine
 10
2228.240664196439
 20
327.8632992887329
 30
0.0
 11
2228.240664196439
 21
325.3980338142832
 31
0.0
  0
LINE
  5
273D1
330
1F
100
AcDbEntity
  8
LOGO
 62
     6
100
AcDbLine
 10
2266.849600123205
 20
322.9327683398335
 30
0.0
 11
2252.331925662557
 21
322.9327683398335
 31
0.0
  0
LINE
  5
273D2
330
1F
100
AcDbEntity
  8
LOGO
 62
     6
100
AcDbLine
 10
2266.849600123205
 20
310.8803593536351
 30
0.0
 11
2252.331925662557
 21
310.880359353635
 31
0.0
  0
LINE
  5
273D3
330
1F
100
AcDbEntity
  8
LOGO
 62
     6
100
AcDbLine
 10
2252.331925662557
 20
322.9327683398335
 30
0.0
 11
2252.331925662557
 21
310.8349137800694
 31
0.0
  0
LINE
  5
273D4
330
1F
100
AcDbEntity
  8
LOGO
 62
     6
100
AcDbLine
 10
2235.362542233737
 20
322.9327683398335
 30
0.0
 11
2235.362542233737
 21
325.3980338142832
 31
0.0
  0
LINE
  5
273D5
330
1F
100
AcDbEntity
  8
LOGO
 62
     6
100
AcDbLine
 10
2228.240664196439
 20
325.3980338142832
 30
0.0
 11
2235.362542233737
 21
325.3980338142832
 31
0.0
  0
LINE
  5
273D6
330
1F
100
AcDbEntity
  8
LOGO
 62
     6
100
AcDbLine
 10
2221.305917251932
 20
322.9327683398334
 30
0.0
 11
2221.305917251932
 21
310.880359353635
 31
0.0
  0
TEXT
  5
273D7
330
1F
100
AcDbEntity
  8
LOGO
  6
CONTINUOUS
 62
     6
100
AcDbText
 10
2223.310133247539
 20
312.7064819273014
 30
0.0
 40
2.739183860499656
  1
Single solenoid
 41
0.8
  7
CHINESET
 72
     4
 11
2235.362542233737
 21
313.6195432141346
 31
0.0
100
AcDbText
  0
TEXT
  5
273D8
330
1F
100
AcDbEntity
  8
LOGO
 62
     6
100
AcDbText
 10
2229.528080610873
 20
316.9065638467343
 30
0.0
 40
4.382694176799449
  1
單線圈
 41
0.9
  7
CHINESET
 72
     4
 11
2235.362542233737
 21
319.097910935134
 31
0.0
100
AcDbText
  0
LINE
  5
273D9
330
1F
100
AcDbEntity
  8
LOGO
 62
     6
100
AcDbLine
 10
2222.401590796132
 20
322.9327683398335
 30
0.0
 11
2222.401590796132
 21
310.880359353635
 31
0.0
  0
LINE
  5
273DA
330
1F
100
AcDbEntity
  8
LOGO
 62
     6
100
AcDbLine
 10
2248.323493671343
 20
322.9327683398335
 30
0.0
 11
2248.323493671343
 21
310.8349137800694
 31
0.0
  0
LINE
  5
273DB
330
1F
100
AcDbEntity
  8
LOGO
 62
     6
100
AcDbLine
 10
2248.323493671343
 20
310.880359353635
 30
0.0
 11
2222.401590796132
 21
310.880359353635
 31
0.0
  0
LINE
  5
273DC
330
1F
100
AcDbEntity
  8
LOGO
 62
     6
100
AcDbLine
 10
2248.323493671343
 20
322.9327683398335
 30
0.0
 11
2222.401590796132
 21
322.9327683398335
 31
0.0
  0
LINE
  5
273DD
330
1F
100
AcDbEntity
  8
LOGO
 62
     6
100
AcDbLine
 10
2271.147520895602
 20
322.9327683398335
 30
0.0
 11
2271.147520895602
 21
310.8803593536351
 31
0.0
  0
TEXT
  5
273DE
330
1F
100
AcDbEntity
  8
LOGO
 62
     6
100
AcDbText
 10
2276.806896086835
 20
316.952216911076
 30
0.0
 40
4.382694176799449
  1
附燈型
 41
0.9
  7
CHINESET
 72
     4
 11
2282.682445467607
 21
319.0979109351341
 31
0.0
100
AcDbText
  0
LINE
  5
273DF
330
1F
100
AcDbEntity
  8
LOGO
 62
     6
100
AcDbLine
 10
2257.003065559599
 20
325.3980338142832
 30
0.0
 11
2259.590762892881
 21
325.3980338142832
 31
0.0
  0
TEXT
  5
273E0
330
1F
100
AcDbEntity
  8
LOGO
  6
CONTINUOUS
 62
     6
100
AcDbText
 10
2253.799345587824
 20
312.7064819273015
 30
0.0
 40
2.739183860499656
  1
Voltage
 41
0.8
  7
CHINESET
 72
     4
 11
2259.590762892881
 21
313.6195432141348
 31
0.0
100
AcDbText
  0
LINE
  5
273E1
330
1F
100
AcDbEntity
  8
LOGO
 62
     6
100
AcDbLine
 10
2259.590762892881
 20
325.3980338142832
 30
0.0
 11
2259.590762892881
 21
322.9327683398335
 31
0.0
  0
LINE
  5
273E2
330
1F
100
AcDbEntity
  8
LOGO
 62
     6
100
AcDbLine
 10
2266.849600123205
 20
322.9327683398335
 30
0.0
 11
2266.849600123205
 21
310.8803593536351
 31
0.0
  0
TEXT
  5
273E3
330
1F
100
AcDbEntity
  8
LOGO
 62
     6
100
AcDbText
 10
2255.605250375853
 20
316.9532953299187
 30
0.0
 40
4.382694176799449
  1
電壓
 41
0.9
  7
CHINESET
 72
     4
 11
2259.590762892881
 21
319.097910935134
 31
0.0
100
AcDbText
  0
LINE
  5
273E4
330
1F
100
AcDbEntity
  8
LOGO
 62
     6
100
AcDbLine
 10
2271.058719713491
 20
337.7243611865318
 30
0.0
 11
2242.947411405707
 21
337.7243611865318
 31
0.0
  0
LINE
  5
273E5
330
1F
100
AcDbEntity
  8
LOGO
 62
     6
100
AcDbLine
 10
2271.058719713491
 20
327.8632992887329
 30
0.0
 11
2242.947411405707
 21
327.8632992887329
 31
0.0
  0
LINE
  5
273E6
330
1F
100
AcDbEntity
  8
LOGO
 62
     6
100
AcDbLine
 10
2222.401590796132
 20
337.7243611865317
 30
0.0
 11
2222.401590796132
 21
327.8632992887328
 31
0.0
  0
LINE
  5
273E7
330
1F
100
AcDbEntity
  8
LOGO
 62
     6
100
AcDbLine
 10
2221.305917251932
 20
337.7243611865317
 30
0.0
 11
2221.305917251932
 21
327.8632992887328
 31
0.0
  0
TEXT
  5
273E8
330
1F
100
AcDbEntity
  8
LOGO
  6
CONTINUOUS
 62
     7
100
AcDbText
 10
2225.621482817606
 20
329.9925213419693
 30
0.0
 40
5.478367720999312
  1
E1
  7
CHINESET
 72
     1
 11
2228.751978658177
 21
332.731705202469
 31
0.0
100
AcDbText
 73
     2
  0
LINE
  5
273E9
330
1F
100
AcDbEntity
  8
LOGO
 62
     6
100
AcDbLine
 10
2242.947411405707
 20
337.7592906261899
 30
0.0
 11
2242.947411405707
 21
327.898228728391
 31
0.0
  0
LINE
  5
273EA
330
1F
100
AcDbEntity
  8
LOGO
 62
     6
100
AcDbLine
 10
2234.079737596745
 20
337.7243611865317
 30
0.0
 11
2234.079737596745
 21
327.8632992887329
 31
0.0
  0
LINE
  5
273EB
330
1F
100
AcDbEntity
  8
LOGO
 62
     6
100
AcDbLine
 10
2234.079737596745
 20
337.7243611865317
 30
0.0
 11
2222.401590796132
 21
337.7243611865317
 31
0.0
  0
LINE
  5
273EC
330
1F
100
AcDbEntity
  8
LOGO
  6
CONTINUOUS
 62
     7
100
AcDbLine
 10
2236.972338368583
 20
332.7938302376324
 30
0.0
 11
2241.32662348849
 21
332.7938302376324
 31
0.0
  0
LINE
  5
273ED
330
1F
100
AcDbEntity
  8
LOGO
 62
     6
100
AcDbLine
 10
2234.079737596745
 20
327.8632992887329
 30
0.0
 11
2222.401590796132
 21
327.8632992887329
 31
0.0
  0
LINE
  5
273EE
330
1F
100
AcDbEntity
  8
LOGO
  6
CONTINUOUS
 62
     7
100
AcDbLine
 10
2272.757632481568
 20
332.7589007979742
 30
0.0
 11
2277.111917601476
 21
332.7589007979742
 31
0.0
  0
LINE
  5
273EF
330
1F
100
AcDbEntity
  8
LOGO
 62
     6
100
AcDbLine
 10
2285.451981938658
 20
337.7243611865318
 30
0.0
 11
2285.451981938658
 21
327.863299288733
 31
0.0
  0
TEXT
  5
273F0
330
1F
100
AcDbEntity
  8
LOGO
  6
CONTINUOUS
 62
     7
100
AcDbText
 10
2280.569361027867
 20
330.0546463771327
 30
0.0
 40
5.478367720999312
  1
L
  7
CHINESET
 72
     1
 11
2282.134608948152
 21
332.7938302376324
 31
0.0
100
AcDbText
 73
     2
  0
LINE
  5
273F1
330
1F
100
AcDbEntity
  8
LOGO
 62
     6
100
AcDbLine
 10
2285.451981938658
 20
337.7243611865318
 30
0.0
 11
2278.817235957647
 21
337.7243611865318
 31
0.0
  0
LINE
  5
273F2
330
1F
100
AcDbEntity
  8
LOGO
 62
     6
100
AcDbLine
 10
2285.451981938658
 20
327.863299288733
 30
0.0
 11
2278.817235957647
 21
327.863299288733
 31
0.0
  0
LINE
  5
273F3
330
1F
100
AcDbEntity
  8
LOGO
 62
     6
100
AcDbLine
 10
2278.817235957647
 20
337.7243611865318
 30
0.0
 11
2278.817235957647
 21
327.863299288733
 31
0.0
  0
TEXT
  5
273F4
330
1F
100
AcDbEntity
  8
LOGO
  6
CONTINUOUS
 62
     7
100
AcDbText
 10
2256.004405077044
 20
329.9925213419693
 30
0.0
 40
5.478367720999312
  1
?
  7
CHINESET
 72
     1
 11
2257.439215670639
 21
332.731705202469
 31
0.0
100
AcDbText
 73
     2
  0
LINE
  5
273F5
330
1F
100
AcDbEntity
  8
LOGO
 62
     6
100
AcDbLine
 10
2271.05871971349
 20
337.7243611865318
 30
0.0
 11
2271.05871971349
 21
327.8632992887329
 31
0.0
  0
LINE
  5
273F6
330
1F
100
AcDbEntity
  8
LOGO
 62
     1
100
AcDbLine
 10
2298.510831953586
 20
308.1411754931352
 30
0.0
 11
2298.510831953586
 21
341.0113818191311
 31
0.0
  0
LINE
  5
273F7
330
1F
100
AcDbEntity
  8
LOGO
 62
     6
100
AcDbLine
 10
2294.217370039611
 20
322.9327683398336
 30
0.0
 11
2294.217370039611
 21
310.8803593536352
 31
0.0
  0
LINE
  5
27411
330
1F
100
AcDbEntity
  8
AM_7
100
AcDbLine
 10
2100.99567238507
 20
372.8679059122121
 30
0.0
 11
2100.99567238507
 21
390.7486664191409
 31
0.0
  0
LINE
  5
27412
330
1F
100
AcDbEntity
  8
AM_HID
  6
HIDDEN
100
AcDbLine
 10
2109.79563718771
 20
377.0987210150459
 30
0.0
 11
2108.815446806074
 21
389.1486728186609
 31
0.0
  0
LINE
  5
27413
330
1F
100
AcDbEntity
  8
AM_HID
  6
HIDDEN
100
AcDbLine
 10
2111.745629388296
 20
375.148728814461
 30
0.0
 11
2110.76543900666
 21
387.1986806180759
 31
0.0
  0
LINE
  5
27414
330
1F
100
AcDbEntity
  8
AM_HID
  6
HIDDEN
100
AcDbLine
 10
2090.245715381845
 20
375.148728814461
 30
0.0
 11
2091.225905763481
 21
387.1986806180759
 31
0.0
  0
LINE
  5
27415
330
1F
100
AcDbEntity
  8
AM_HID
  6
HIDDEN
100
AcDbLine
 10
2092.19570758243
 20
377.0987210150459
 30
0.0
 11
2093.175897964066
 21
389.1486728186609
 31
0.0
  0
LINE
  5
27416
330
1F
100
AcDbEntity
  8
AM_HID
  6
HIDDEN
100
AcDbLine
 10
2111.603191940644
 20
377.0987210150459
 30
0.0
 11
2092.19570758243
 21
377.0987210150459
 31
0.0
  0
LINE
  5
27417
330
1F
100
AcDbEntity
  8
AM_HID
  6
HIDDEN
100
AcDbLine
 10
2092.19570758243
 20
377.098721015046
 30
0.0
 11
2090.245715381845
 21
375.148728814461
 31
0.0
  0
LINE
  5
27418
330
1F
100
AcDbEntity
  8
AM_HID
  6
HIDDEN
100
AcDbLine
 10
2109.79563718771
 20
377.098721015046
 30
0.0
 11
2111.745629388296
 21
375.148728814461
 31
0.0
  0
LINE
  5
27419
330
1F
100
AcDbEntity
  8
AM_HID
  6
HIDDEN
100
AcDbLine
 10
2110.76543900666
 20
387.1986806180759
 30
0.0
 11
2091.225905763481
 21
387.1986806180759
 31
0.0
  0
LINE
  5
2741A
330
1F
100
AcDbEntity
  8
AM_HID
  6
HIDDEN
100
AcDbLine
 10
2108.815446806074
 20
389.148672818661
 30
0.0
 11
2093.175897964066
 21
389.148672818661
 31
0.0
  0
LINE
  5
2741B
330
1F
100
AcDbEntity
  8
AM_HID
  6
HIDDEN
100
AcDbLine
 10
2091.225905763481
 20
387.1986806180759
 30
0.0
 11
2093.175897964066
 21
389.1486728186609
 31
0.0
  0
LINE
  5
2741C
330
1F
100
AcDbEntity
  8
AM_HID
  6
HIDDEN
100
AcDbLine
 10
2110.76543900666
 20
387.1986806180759
 30
0.0
 11
2108.815446806074
 21
389.1486728186609
 31
0.0
  0
LINE
  5
2741D
330
1F
100
AcDbEntity
  8
AM_7
100
AcDbLine
 10
2129.99567238507
 20
372.8679059122121
 30
0.0
 11
2129.99567238507
 21
390.7486664191409
 31
0.0
  0
LINE
  5
2741E
330
1F
100
AcDbEntity
  8
AM_HID
  6
HIDDEN
100
AcDbLine
 10
2138.795637187711
 20
377.0987210150459
 30
0.0
 11
2137.815446806075
 21
389.1486728186609
 31
0.0
  0
LINE
  5
2741F
330
1F
100
AcDbEntity
  8
AM_HID
  6
HIDDEN
100
AcDbLine
 10
2140.745629388296
 20
375.148728814461
 30
0.0
 11
2139.76543900666
 21
387.1986806180759
 31
0.0
  0
LINE
  5
27420
330
1F
100
AcDbEntity
  8
AM_HID
  6
HIDDEN
100
AcDbLine
 10
2119.245715381845
 20
375.148728814461
 30
0.0
 11
2120.225905763481
 21
387.1986806180759
 31
0.0
  0
LINE
  5
27421
330
1F
100
AcDbEntity
  8
AM_HID
  6
HIDDEN
100
AcDbLine
 10
2121.19570758243
 20
377.0987210150459
 30
0.0
 11
2122.175897964066
 21
389.1486728186609
 31
0.0
  0
LINE
  5
27422
330
1F
100
AcDbEntity
  8
AM_HID
  6
HIDDEN
100
AcDbLine
 10
2140.603191940645
 20
377.0987210150459
 30
0.0
 11
2121.19570758243
 21
377.0987210150459
 31
0.0
  0
LINE
  5
27423
330
1F
100
AcDbEntity
  8
AM_HID
  6
HIDDEN
100
AcDbLine
 10
2121.19570758243
 20
377.098721015046
 30
0.0
 11
2119.245715381845
 21
375.148728814461
 31
0.0
  0
LINE
  5
27424
330
1F
100
AcDbEntity
  8
AM_HID
  6
HIDDEN
100
AcDbLine
 10
2138.795637187711
 20
377.098721015046
 30
0.0
 11
2140.745629388296
 21
375.148728814461
 31
0.0
  0
LINE
  5
27425
330
1F
100
AcDbEntity
  8
AM_HID
  6
HIDDEN
100
AcDbLine
 10
2139.76543900666
 20
387.1986806180759
 30
0.0
 11
2120.225905763481
 21
387.1986806180759
 31
0.0
  0
LINE
  5
27426
330
1F
100
AcDbEntity
  8
AM_HID
  6
HIDDEN
100
AcDbLine
 10
2137.815446806075
 20
389.148672818661
 30
0.0
 11
2122.175897964066
 21
389.148672818661
 31
0.0
  0
LINE
  5
27427
330
1F
100
AcDbEntity
  8
AM_HID
  6
HIDDEN
100
AcDbLine
 10
2120.225905763481
 20
387.1986806180759
 30
0.0
 11
2122.175897964066
 21
389.1486728186609
 31
0.0
  0
LINE
  5
27428
330
1F
100
AcDbEntity
  8
AM_HID
  6
HIDDEN
100
AcDbLine
 10
2139.76543900666
 20
387.1986806180759
 30
0.0
 11
2137.815446806075
 21
389.1486728186609
 31
0.0
  0
LINE
  5
27429
330
1F
100
AcDbEntity
  8
AM_7
100
AcDbLine
 10
2158.99567238507
 20
372.8679059122121
 30
0.0
 11
2158.99567238507
 21
390.7486664191409
 31
0.0
  0
LINE
  5
2742A
330
1F
100
AcDbEntity
  8
AM_HID
  6
HIDDEN
100
AcDbLine
 10
2167.79563718771
 20
377.0987210150459
 30
0.0
 11
2166.815446806074
 21
389.1486728186609
 31
0.0
  0
LINE
  5
2742B
330
1F
100
AcDbEntity
  8
AM_HID
  6
HIDDEN
100
AcDbLine
 10
2169.745629388296
 20
375.148728814461
 30
0.0
 11
2168.76543900666
 21
387.1986806180759
 31
0.0
  0
LINE
  5
2742C
330
1F
100
AcDbEntity
  8
AM_HID
  6
HIDDEN
100
AcDbLine
 10
2148.245715381845
 20
375.148728814461
 30
0.0
 11
2149.225905763481
 21
387.1986806180759
 31
0.0
  0
LINE
  5
2742D
330
1F
100
AcDbEntity
  8
AM_HID
  6
HIDDEN
100
AcDbLine
 10
2150.19570758243
 20
377.0987210150459
 30
0.0
 11
2151.175897964066
 21
389.1486728186609
 31
0.0
  0
LINE
  5
2742E
330
1F
100
AcDbEntity
  8
AM_HID
  6
HIDDEN
100
AcDbLine
 10
2169.603191940645
 20
377.0987210150459
 30
0.0
 11
2150.19570758243
 21
377.0987210150459
 31
0.0
  0
LINE
  5
2742F
330
1F
100
AcDbEntity
  8
AM_HID
  6
HIDDEN
100
AcDbLine
 10
2150.19570758243
 20
377.098721015046
 30
0.0
 11
2148.245715381845
 21
375.148728814461
 31
0.0
  0
LINE
  5
27430
330
1F
100
AcDbEntity
  8
AM_HID
  6
HIDDEN
100
AcDbLine
 10
2167.79563718771
 20
377.098721015046
 30
0.0
 11
2169.745629388296
 21
375.148728814461
 31
0.0
  0
LINE
  5
27431
330
1F
100
AcDbEntity
  8
AM_HID
  6
HIDDEN
100
AcDbLine
 10
2168.76543900666
 20
387.1986806180759
 30
0.0
 11
2149.225905763481
 21
387.1986806180759
 31
0.0
  0
LINE
  5
27432
330
1F
100
AcDbEntity
  8
AM_HID
  6
HIDDEN
100
AcDbLine
 10
2166.815446806074
 20
389.148672818661
 30
0.0
 11
2151.175897964066
 21
389.148672818661
 31
0.0
  0
LINE
  5
27433
330
1F
100
AcDbEntity
  8
AM_HID
  6
HIDDEN
100
AcDbLine
 10
2149.225905763481
 20
387.1986806180759
 30
0.0
 11
2151.175897964066
 21
389.1486728186609
 31
0.0
  0
LINE
  5
27434
330
1F
100
AcDbEntity
  8
AM_HID
  6
HIDDEN
100
AcDbLine
 10
2168.76543900666
 20
387.1986806180759
 30
0.0
 11
2166.815446806074
 21
389.1486728186609
 31
0.0
  0
LINE
  5
27435
330
1F
100
AcDbEntity
  8
AM_7
100
AcDbLine
 10
2116.49567238507
 20
427.4295517167099
 30
0.0
 11
2116.49567238507
 21
409.5487912097811
 31
0.0
  0
LINE
  5
27436
330
1F
100
AcDbEntity
  8
AM_HID
  6
HIDDEN
100
AcDbLine
 10
2125.29563718771
 20
423.198736613876
 30
0.0
 11
2124.315446806074
 21
411.1487848102611
 31
0.0
  0
LINE
  5
27437
330
1F
100
AcDbEntity
  8
AM_HID
  6
HIDDEN
100
AcDbLine
 10
2127.245629388295
 20
425.148728814461
 30
0.0
 11
2126.265439006659
 21
413.098777010846
 31
0.0
  0
LINE
  5
27438
330
1F
100
AcDbEntity
  8
AM_HID
  6
HIDDEN
100
AcDbLine
 10
2105.745715381845
 20
425.148728814461
 30
0.0
 11
2106.725905763481
 21
413.098777010846
 31
0.0
  0
LINE
  5
27439
330
1F
100
AcDbEntity
  8
AM_HID
  6
HIDDEN
100
AcDbLine
 10
2107.69570758243
 20
423.1987366138761
 30
0.0
 11
2108.675897964066
 21
411.1487848102611
 31
0.0
  0
LINE
  5
2743A
330
1F
100
AcDbEntity
  8
AM_HID
  6
HIDDEN
100
AcDbLine
 10
2127.103191940645
 20
423.198736613876
 30
0.0
 11
2107.69570758243
 21
423.1987366138761
 31
0.0
  0
LINE
  5
2743B
330
1F
100
AcDbEntity
  8
AM_HID
  6
HIDDEN
100
AcDbLine
 10
2107.69570758243
 20
423.198736613876
 30
0.0
 11
2105.745715381845
 21
425.148728814461
 31
0.0
  0
LINE
  5
2743C
330
1F
100
AcDbEntity
  8
AM_HID
  6
HIDDEN
100
AcDbLine
 10
2125.29563718771
 20
423.198736613876
 30
0.0
 11
2127.245629388295
 21
425.148728814461
 31
0.0
  0
LINE
  5
2743D
330
1F
100
AcDbEntity
  8
AM_HID
  6
HIDDEN
100
AcDbLine
 10
2126.265439006659
 20
413.098777010846
 30
0.0
 11
2106.725905763481
 21
413.098777010846
 31
0.0
  0
LINE
  5
2743E
330
1F
100
AcDbEntity
  8
AM_HID
  6
HIDDEN
100
AcDbLine
 10
2124.315446806074
 20
411.148784810261
 30
0.0
 11
2108.675897964066
 21
411.148784810261
 31
0.0
  0
LINE
  5
2743F
330
1F
100
AcDbEntity
  8
AM_HID
  6
HIDDEN
100
AcDbLine
 10
2106.725905763481
 20
413.098777010846
 30
0.0
 11
2108.675897964066
 21
411.1487848102611
 31
0.0
  0
LINE
  5
27440
330
1F
100
AcDbEntity
  8
AM_HID
  6
HIDDEN
100
AcDbLine
 10
2126.265439006659
 20
413.098777010846
 30
0.0
 11
2124.315446806074
 21
411.1487848102611
 31
0.0
  0
LINE
  5
27441
330
1F
100
AcDbEntity
  8
AM_7
100
AcDbLine
 10
2143.49567238507
 20
427.4295517167099
 30
0.0
 11
2143.49567238507
 21
409.5487912097811
 31
0.0
  0
LINE
  5
27442
330
1F
100
AcDbEntity
  8
AM_HID
  6
HIDDEN
100
AcDbLine
 10
2152.29563718771
 20
423.198736613876
 30
0.0
 11
2151.315446806074
 21
411.1487848102611
 31
0.0
  0
LINE
  5
27443
330
1F
100
AcDbEntity
  8
AM_HID
  6
HIDDEN
100
AcDbLine
 10
2154.245629388296
 20
425.148728814461
 30
0.0
 11
2153.265439006659
 21
413.098777010846
 31
0.0
  0
LINE
  5
27444
330
1F
100
AcDbEntity
  8
AM_HID
  6
HIDDEN
100
AcDbLine
 10
2132.745715381845
 20
425.148728814461
 30
0.0
 11
2133.725905763481
 21
413.098777010846
 31
0.0
  0
LINE
  5
27445
330
1F
100
AcDbEntity
  8
AM_HID
  6
HIDDEN
100
AcDbLine
 10
2134.69570758243
 20
423.1987366138761
 30
0.0
 11
2135.675897964066
 21
411.1487848102611
 31
0.0
  0
LINE
  5
27446
330
1F
100
AcDbEntity
  8
AM_HID
  6
HIDDEN
100
AcDbLine
 10
2154.103191940645
 20
423.198736613876
 30
0.0
 11
2134.69570758243
 21
423.1987366138761
 31
0.0
  0
LINE
  5
27447
330
1F
100
AcDbEntity
  8
AM_HID
  6
HIDDEN
100
AcDbLine
 10
2134.69570758243
 20
423.198736613876
 30
0.0
 11
2132.745715381845
 21
425.148728814461
 31
0.0
  0
LINE
  5
27448
330
1F
100
AcDbEntity
  8
AM_HID
  6
HIDDEN
100
AcDbLine
 10
2152.29563718771
 20
423.198736613876
 30
0.0
 11
2154.245629388296
 21
425.148728814461
 31
0.0
  0
LINE
  5
27449
330
1F
100
AcDbEntity
  8
AM_HID
  6
HIDDEN
100
AcDbLine
 10
2153.265439006659
 20
413.098777010846
 30
0.0
 11
2133.725905763481
 21
413.098777010846
 31
0.0
  0
LINE
  5
2744A
330
1F
100
AcDbEntity
  8
AM_HID
  6
HIDDEN
100
AcDbLine
 10
2151.315446806074
 20
411.148784810261
 30
0.0
 11
2135.675897964066
 21
411.148784810261
 31
0.0
  0
LINE
  5
2744B
330
1F
100
AcDbEntity
  8
AM_HID
  6
HIDDEN
100
AcDbLine
 10
2133.725905763481
 20
413.098777010846
 30
0.0
 11
2135.675897964066
 21
411.1487848102611
 31
0.0
  0
LINE
  5
2744C
330
1F
100
AcDbEntity
  8
AM_HID
  6
HIDDEN
100
AcDbLine
 10
2153.265439006659
 20
413.098777010846
 30
0.0
 11
2151.315446806074
 21
411.1487848102611
 31
0.0
  0
ENDSEC
  0
SECTION
  2
OBJECTS
  0
DICTIONARY
  5
C
330
0
100
AcDbDictionary
  3
ACAD_GROUP
350
D
  3
ACAD_LAYOUT
350
1A
  3
ACAD_MLINESTYLE
350
17
  3
ACAD_PLOTSETTINGS
350
19
  3
ACMDICTIONARY
350
43
  3
AMG
350
2B
  3
AMGSNAPSETTINGS
350
240
  3
DWGPROPS
350
2A344
1001
ACAD
1000
TREAT_AS_HARD
1070
     0
  0
DICTIONARY
  5
3A4
330
1F
100
AcDbDictionary
  3
ACAD_INDEX
350
21C6B
  3
ACAD_LAYOUTSELFREF
350
2A3D2
1001
ACAD
1000
TREAT_AS_HARD
1070
     1
  0
DICTIONARY
  5
28AD1
330
1B
100
AcDbDictionary
  3
ACAD_LAYOUTSELFREF
350
2A3D1
1001
ACAD
1000
TREAT_AS_HARD
1070
     1
  0
DICTIONARY
  5
D
102
{ACAD_REACTORS
330
C
102
}
330
C
100
AcDbDictionary
1001
ACAD
1000
TREAT_AS_HARD
1070
     0
  0
DICTIONARY
  5
1A
102
{ACAD_REACTORS
330
C
102
}
330
C
100
AcDbDictionary
1001
ACAD
1000
TREAT_AS_HARD
1070
     0
  0
DICTIONARY
  5
17
102
{ACAD_REACTORS
330
C
102
}
330
C
100
AcDbDictionary
  3
STANDARD
350
18
1001
ACAD
1000
TREAT_AS_HARD
1070
     0
  0
DICTIONARY
  5
19
102
{ACAD_REACTORS
330
C
102
}
330
C
100
AcDbDictionary
1001
ACAD
1000
TREAT_AS_HARD
1070
     0
  0
DICTIONARY
  5
43
102
{ACAD_REACTORS
330
C
102
}
330
C
100
AcDbDictionary
  3
ACMSTDDICTIONARY
350
1440
1001
ACAD
1000
TREAT_AS_HARD
1070
     0
  0
DICTIONARY
  5
2B
102
{ACAD_REACTORS
330
C
102
}
330
C
100
AcDbDictionary
  3
ACMGSETTINGS
350
2C
1001
ACAD
1000
TREAT_AS_HARD
1070
     0
  0
DICTIONARY
  5
240
102
{ACAD_REACTORS
330
C
102
}
330
C
100
AcDbDictionary
1001
ACAD
1000
TREAT_AS_HARD
1070
     0
  0
XRECORD
  5
2A344
102
{ACAD_REACTORS
330
C
102
}
330
C
100
AcDbXrecord
  1
DWGPROPS COOKIE
  2

  3

  4

  6

  7

  8

  9

300
AmdtFileType=84
301
=
302
=
303
=
304
=
305
=
306
=
307
=
308
=
309
=
 40
1.944532060185185
 41
2452292.457678333
 42
2452655.690991933
  1

 90
        1
  0
DICTIONARY
  5
21C6B
102
{ACAD_REACTORS
330
3A4
102
}
330
3A4
100
AcDbDictionary
  3
*A1
350
21C6C
1001
ACAD
1000
TREAT_AS_HARD
1070
     0
  0
XRECORD
  5
2A3D2
102
{ACAD_REACTORS
330
3A4
102
}
330
3A4
100
AcDbXrecord
340
1F
  0
XRECORD
  5
2A3D1
102
{ACAD_REACTORS
330
28AD1
102
}
330
28AD1
100
AcDbXrecord
340
1B
  0
MLINESTYLE
  5
18
102
{ACAD_REACTORS
330
17
102
}
330
17
100
AcDbMlineStyle
  2
STANDARD
 70
     0
  3

 62
   256
 51
90.0
 52
90.0
 71
     2
 49
0.5
 62
   256
  6
BYLAYER
 49
-0.5
 62
   256
  6
BYLAYER
  0
DICTIONARY
  5
1440
102
{ACAD_REACTORS
330
43
102
}
330
43
100
AcDbDictionary
1001
ACAD
1000
TREAT_AS_HARD
1070
     0
  0
DICTIONARY
  5
2C
102
{ACAD_REACTORS
330
2B
102
}
330
2B
100
AcDbDictionary
1001
ACAD
1000
TREAT_AS_HARD
1070
     0
  0
LAYER_INDEX
  5
21C6C
102
{ACAD_REACTORS
330
21C6B
102
}
330
21C6B
100
AcDbIndex
 40
2452705.590195509
100
AcDbLayerIndex
  8
0
360
21C6D
 90
        1
  8
AM_VIS
360
21C6F
 90
      405
  8
Defpoints
360
21C70
 90
        0
  8
AM_7
360
21C71
 90
       61
  8
AM_5
360
21C72
 90
       24
  8
AM_REFDIM
360
21C73
 90
       13
  8
LOGO
360
21C74
 90
      150
  8
AM_HID
360
21C79
 90
       55
  8
AM_0N
360
21C7D
 90
        0
  0
IDBUFFER
  5
21C6D
330
0
100
AcDbIdBuffer
330
264EF
  0
IDBUFFER
  5
21C6F
330
0
100
AcDbIdBuffer
330
2633C
330
2633D
330
2633E
330
2633F
330
26340
330
26341
330
26342
330
26343
330
26344
330
26345
330
26346
330
26347
330
26348
330
26349
330
2634A
330
2634B
330
2634C
330
2634D
330
2634E
330
2634F
330
26350
330
26351
330
26352
330
26353
330
26354
330
26355
330
26356
330
26357
330
26358
330
26359
330
2635A
330
2635B
330
2635C
330
2635D
330
2635E
330
2635F
330
26360
330
26361
330
26362
330
26363
330
26364
330
26365
330
26366
330
26367
330
26368
330
26369
330
2636A
330
2636B
330
2636C
330
2636D
330
2636E
330
2636F
330
26370
330
26371
330
26372
330
26373
330
26374
330
26375
330
26376
330
26377
330
26378
330
26379
330
2637A
330
2637B
330
2637C
330
2637D
330
2637E
330
2637F
330
26380
330
26381
330
26382
330
26383
330
26384
330
26385
330
26386
330
26387
330
26388
330
26389
330
2638A
330
2638B
330
2638C
330
2638D
330
2638E
330
2638F
330
26390
330
26391
330
26392
330
26393
330
26394
330
26395
330
26396
330
26397
330
26398
330
26399
330
2639A
330
2639B
330
2639C
330
2639D
330
2639E
330
2639F
330
263A0
330
263A1
330
263A2
330
263A3
330
263A4
330
263A5
330
263A6
330
263A7
330
263A8
330
263A9
330
263AA
330
263AB
330
263AC
330
263AD
330
263AE
330
263AF
330
263B0
330
263B1
330
263B2
330
263B3
330
263B4
330
263B5
330
263B6
330
263B7
330
263B8
330
263B9
330
263BA
330
263BB
330
263BC
330
263BD
330
263BE
330
263BF
330
263C0
330
263C1
330
263C2
330
263C3
330
263C4
330
263C5
330
263C6
330
263C7
330
263C8
330
263C9
330
263CA
330
263CB
330
263CC
330
263CD
330
263CE
330
263CF
330
263D0
330
263D1
330
263D2
330
263D3
330
263D4
330
263D5
330
263D6
330
263D7
330
263D8
330
263D9
330
263DA
330
263DB
330
263DC
330
263DD
330
263DE
330
263DF
330
263E0
330
263E1
330
263E2
330
263E3
330
263E4
330
263E5
330
263E6
330
263E7
330
263E8
330
263E9
330
263EA
330
263EB
330
263EC
330
263ED
330
263EE
330
263EF
330
263F0
330
263F1
330
263F2
330
263F3
330
263F4
330
263F5
330
263F6
330
263F7
330
263F8
330
263F9
330
263FA
330
263FB
330
263FC
330
263FD
330
263FE
330
263FF
330
26400
330
26401
330
26402
330
26403
330
26404
330
26405
330
26406
330
26407
330
26408
330
26409
330
2640A
330
2640B
330
2640C
330
2640D
330
2640E
330
2640F
330
26410
330
26411
330
26412
330
26413
330
26414
330
26415
330
26416
330
26417
330
26418
330
26419
330
2641A
330
2641B
330
2641C
330
2641D
330
2641E
330
2641F
330
26420
330
26421
330
26422
330
26423
330
26424
330
26425
330
26426
330
26427
330
26428
330
26429
330
2642A
330
2642B
330
2642C
330
2642D
330
2642E
330
2642F
330
26430
330
26431
330
26432
330
26433
330
26434
330
26435
330
26436
330
26437
330
26438
330
26439
330
2643A
330
2643B
330
2643C
330
2643D
330
2643E
330
2643F
330
26440
330
26441
330
26442
330
26443
330
26444
330
26445
330
26446
330
26447
330
26448
330
26449
330
2644A
330
2644B
330
2644C
330
2644D
330
2644E
330
2644F
330
26450
330
26451
330
26452
330
26453
330
26454
330
26455
330
26456
330
26457
330
26458
330
26459
330
2645A
330
2645B
330
2645C
330
2645D
330
2645E
330
2645F
330
26460
330
26461
330
26462
330
26463
330
26464
330
26465
330
26466
330
26467
330
26468
330
26469
330
2646A
330
2646B
330
2646C
330
2646D
330
2646E
330
2646F
330
26470
330
26471
330
26472
330
26473
330
26474
330
26475
330
26476
330
26477
330
26478
330
26479
330
2647A
330
2647B
330
2647C
330
2647D
330
2647E
330
2647F
330
26480
330
26481
330
26482
330
26483
330
26484
330
26485
330
26486
330
26487
330
26488
330
26489
330
2648A
330
2648B
330
2648C
330
2648D
330
2648E
330
2648F
330
26490
330
26491
330
26492
330
26493
330
26494
330
26495
330
26496
330
26497
330
26498
330
26499
330
2649A
330
2649B
330
2649C
330
2649D
330
2649E
330
2649F
330
264A0
330
264A1
330
264A2
330
264A3
330
264A4
330
264A5
330
264A6
330
264A7
330
264A8
330
264A9
330
264AA
330
264AB
330
264AC
330
264AD
330
264AE
330
264AF
330
264B0
330
264B1
330
264B2
330
264B3
330
264B4
330
264B5
330
264B6
330
264B7
330
264B8
330
264B9
330
264BA
330
264BB
330
264BC
330
264BD
330
264BE
330
264BF
330
264C0
330
264C1
330
264C2
330
264C3
330
264C4
330
264C5
330
264C6
330
264C7
330
264C8
330
264C9
330
264CA
330
264CB
330
264CC
330
264CD
330
264CE
330
264CF
330
264D0
  0
IDBUFFER
  5
21C70
330
0
100
AcDbIdBuffer
  0
IDBUFFER
  5
21C71
330
0
100
AcDbIdBuffer
330
18C70
330
18C71
330
18C72
330
18C73
330
18C74
330
18C75
330
18C76
330
18C77
330
18C78
330
18C79
330
18C7A
330
18C7B
330
18C7C
330
18C7D
330
18C7E
330
18C7F
330
18C80
330
18C81
330
18C82
330
18C83
330
18C84
330
18C85
330
18C86
330
18C87
330
18C88
330
18C89
330
18C8A
330
18C8B
330
18C8C
330
18C8D
330
18C8E
330
264D1
330
264D2
330
264D3
330
264D4
330
264D6
330
264D7
330
264D8
330
264D9
330
264DB
330
264DC
330
264DD
330
264DE
330
264E0
330
264E1
330
264E2
330
264E3
330
264E5
330
264E6
330
264E7
330
264E8
330
264EA
330
264EB
330
264EC
330
264ED
330
264F0
330
27411
330
2741D
330
27429
330
27435
330
27441
  0
IDBUFFER
  5
21C72
330
0
100
AcDbIdBuffer
330
D622
330
D62D
330
1A47B
330
1A47C
330
1C446
330
1C447
330
1ECBE
330
1ECBF
330
20AE8
330
20AE9
330
22CDD
330
22CDE
330
244F2
330
244F3
330
254A6
330
254A7
330
26306
330
26307
330
2630A
330
2630B
330
26795
330
26796
330
26797
330
26798
  0
IDBUFFER
  5
21C73
330
0
100
AcDbIdBuffer
330
26A28
330
26A35
330
26A44
330
26A51
330
26A5E
330
26A6B
330
26A87
330
26A96
330
26AA3
330
26AB0
330
26ABD
330
26ACA
330
26AD7
  0
IDBUFFER
  5
21C74
330
0
100
AcDbIdBuffer
330
18C6F
330
21EA1
330
24C9C
330
27364
330
27365
330
27367
330
27368
330
27369
330
2736A
330
2736B
330
2736C
330
2736D
330
2736E
330
2736F
330
27370
330
27371
330
27372
330
27373
330
27374
330
27375
330
27376
330
27377
330
27378
330
27379
330
2737A
330
2737B
330
2737C
330
2737D
330
2737E
330
2737F
330
27380
330
27381
330
27382
330
27383
330
27384
330
27385
330
27386
330
27387
330
27388
330
27389
330
2738A
330
2738B
330
2738C
330
2738D
330
2738E
330
2738F
330
27390
330
27391
330
27392
330
27393
330
27394
330
27395
330
27396
330
27397
330
27398
330
27399
330
2739A
330
2739B
330
2739C
330
2739D
330
2739E
330
2739F
330
273A0
330
273A1
330
273A2
330
273A3
330
273A4
330
273A5
330
273A6
330
273A7
330
273A8
330
273A9
330
273AA
330
273AB
330
273AC
330
273AD
330
273AE
330
273AF
330
273B0
330
273B1
330
273B2
330
273B3
330
273B4
330
273B5
330
273B6
330
273B7
330
273B8
330
273B9
330
273BA
330
273BB
330
273BC
330
273BD
330
273BE
330
273BF
330
273C0
330
273C1
330
273C2
330
273C3
330
273C4
330
273C5
330
273C6
330
273C7
330
273C8
330
273C9
330
273CA
330
273CB
330
273CC
330
273CD
330
273CE
330
273CF
330
273D0
330
273D1
330
273D2
330
273D3
330
273D4
330
273D5
330
273D6
330
273D7
330
273D8
330
273D9
330
273DA
330
273DB
330
273DC
330
273DD
330
273DE
330
273DF
330
273E0
330
273E1
330
273E2
330
273E3
330
273E4
330
273E5
330
273E6
330
273E7
330
273E8
330
273E9
330
273EA
330
273EB
330
273EC
330
273ED
330
273EE
330
273EF
330
273F0
330
273F1
330
273F2
330
273F3
330
273F4
330
273F5
330
273F6
330
273F7
  0
IDBUFFER
  5
21C79
330
0
100
AcDbIdBuffer
330
27412
330
27413
330
27414
330
27415
330
27416
330
27417
330
27418
330
27419
330
2741A
330
2741B
330
2741C
330
2741E
330
2741F
330
27420
330
27421
330
27422
330
27423
330
27424
330
27425
330
27426
330
27427
330
27428
330
2742A
330
2742B
330
2742C
330
2742D
330
2742E
330
2742F
330
27430
330
27431
330
27432
330
27433
330
27434
330
27436
330
27437
330
27438
330
27439
330
2743A
330
2743B
330
2743C
330
2743D
330
2743E
330
2743F
330
27440
330
27442
330
27443
330
27444
330
27445
330
27446
330
27447
330
27448
330
27449
330
2744A
330
2744B
330
2744C
  0
IDBUFFER
  5
21C7D
330
0
100
AcDbIdBuffer
  0
ENDSEC
  0
EOF
