  0
SECTION
  2
HEADER
  9
$ACADVER
  1
AC1012
  9
$DWGCODEPAGE
  3
big5
  9
$INSBASE
 10
0.0
 20
0.0
 30
0.0
  9
$EXTMIN
 10
2339.763982807906
 20
-96.12065314313964
 30
-0.0000000000000153
  9
$EXTMAX
 10
2607.328133349437
 20
149.3023312251915
 30
0.0
  9
$LIMMIN
 10
0.0
 20
0.0
  9
$LIMMAX
 10
420.0
 20
297.0
  9
$ORTHOMODE
 70
     0
  9
$REGENMODE
 70
     1
  9
$FILLMODE
 70
     1
  9
$QTEXTMODE
 70
     0
  9
$MIRRTEXT
 70
     1
  9
$DRAGMODE
 70
     2
  9
$LTSCALE
 40
7.0
  9
$OSMODE
 70
    55
  9
$ATTMODE
 70
     1
  9
$TEXTSIZE
 40
10.0
  9
$TRACEWID
 40
1.0
  9
$TEXTSTYLE
  7
DAYUS
  9
$CLAYER
  8
0
  9
$CELTYPE
  6
BYLAYER
  9
$CECOLOR
 62
   256
  9
$CELTSCALE
 40
1.0
  9
$DELOBJ
 70
     1
  9
$DISPSILH
 70
     0
  9
$DIMSCALE
 40
1.0
  9
$DIMASZ
 40
3.0
  9
$DIMEXO
 40
1.5
  9
$DIMDLI
 40
7.0
  9
$DIMRND
 40
0.0
  9
$DIMDLE
 40
0.0
  9
$DIMEXE
 40
2.0
  9
$DIMTP
 40
0.01
  9
$DIMTM
 40
0.01
  9
$DIMTXT
 40
3.0
  9
$DIMCEN
 40
0.0
  9
$DIMTSZ
 40
0.0
  9
$DIMTOL
 70
     0
  9
$DIMLIM
 70
     0
  9
$DIMTIH
 70
     0
  9
$DIMTOH
 70
     0
  9
$DIMSE1
 70
     0
  9
$DIMSE2
 70
     0
  9
$DIMTAD
 70
     3
  9
$DIMZIN
 70
     8
  9
$DIMBLK
  1

  9
$DIMASO
 70
     1
  9
$DIMSHO
 70
     1
  9
$DIMPOST
  1

  9
$DIMAPOST
  1

  9
$DIMALT
 70
     0
  9
$DIMALTD
 70
     2
  9
$DIMALTF
 40
25.4
  9
$DIMLFAC
 40
1.0
  9
$DIMTOFL
 70
     1
  9
$DIMTVP
 40
0.0
  9
$DIMTIX
 70
     0
  9
$DIMSOXD
 70
     0
  9
$DIMSAH
 70
     0
  9
$DIMBLK1
  1

  9
$DIMBLK2
  1

  9
$DIMSTYLE
  2
STANDARD
  9
$DIMCLRD
 70
   256
  9
$DIMCLRE
 70
   256
  9
$DIMCLRT
 70
   256
  9
$DIMTFAC
 40
0.6
  9
$DIMGAP
 40
0.8
  9
$DIMJUST
 70
     0
  9
$DIMSD1
 70
     0
  9
$DIMSD2
 70
     0
  9
$DIMTOLJ
 70
     1
  9
$DIMTZIN
 70
     8
  9
$DIMALTZ
 70
     0
  9
$DIMALTTZ
 70
     0
  9
$DIMFIT
 70
     3
  9
$DIMUPT
 70
     0
  9
$DIMUNIT
 70
     2
  9
$DIMDEC
 70
     2
  9
$DIMTDEC
 70
     2
  9
$DIMALTU
 70
     2
  9
$DIMALTTD
 70
     2
  9
$DIMTXSTY
  7
CHINESET
  9
$DIMAUNIT
 70
     0
  9
$LUNITS
 70
     2
  9
$LUPREC
 70
     2
  9
$SKETCHINC
 40
1.0
  9
$FILLETRAD
 40
2.5
  9
$AUNITS
 70
     0
  9
$AUPREC
 70
     0
  9
$MENU
  1
.
  9
$ELEVATION
 40
0.0
  9
$PELEVATION
 40
0.0
  9
$THICKNESS
 40
0.0
  9
$LIMCHECK
 70
     0
  9
$BLIPMODE
 70
     0
  9
$CHAMFERA
 40
2.5
  9
$CHAMFERB
 40
2.5
  9
$CHAMFERC
 40
20.0
  9
$CHAMFERD
 40
0.0
  9
$SKPOLY
 70
     0
  9
$TDCREATE
 40
2452292.457678333
  9
$TDUPDATE
 40
2452705.589842916
  9
$TDINDWG
 40
2.2863944792
  9
$TDUSRTIMER
 40
2.2863943634
  9
$USRTIMER
 70
     1
  9
$ANGBASE
 50
0.0
  9
$ANGDIR
 70
     0
  9
$PDMODE
 70
     0
  9
$PDSIZE
 40
0.0
  9
$PLINEWID
 40
0.0
  9
$COORDS
 70
     0
  9
$SPLFRAME
 70
     0
  9
$SPLINETYPE
 70
     6
  9
$SPLINESEGS
 70
     8
  9
$ATTDIA
 70
     1
  9
$ATTREQ
 70
     1
  9
$HANDLING
 70
 22529
  9
$HANDSEED
  5
28D59
  9
$SURFTAB1
 70
     6
  9
$SURFTAB2
 70
     6
  9
$SURFTYPE
 70
     6
  9
$SURFU
 70
     6
  9
$SURFV
 70
     6
  9
$UCSNAME
  2

  9
$UCSORG
 10
0.0
 20
0.0
 30
0.0
  9
$UCSXDIR
 10
1.0
 20
0.0
 30
0.0
  9
$UCSYDIR
 10
0.0
 20
1.0
 30
0.0
  9
$PUCSNAME
  2

  9
$PUCSORG
 10
0.0
 20
0.0
 30
0.0
  9
$PUCSXDIR
 10
1.0
 20
0.0
 30
0.0
  9
$PUCSYDIR
 10
0.0
 20
1.0
 30
0.0
  9
$USERI1
 70
     0
  9
$USERI2
 70
     0
  9
$USERI3
 70
     0
  9
$USERI4
 70
     0
  9
$USERI5
 70
     0
  9
$USERR1
 40
0.0
  9
$USERR2
 40
0.0
  9
$USERR3
 40
0.0
  9
$USERR4
 40
0.0
  9
$USERR5
 40
0.0
  9
$WORLDVIEW
 70
     1
  9
$SHADEDGE
 70
     3
  9
$SHADEDIF
 70
    70
  9
$TILEMODE
 70
     1
  9
$MAXACTVP
 70
    48
  9
$PINSBASE
 10
0.0
 20
0.0
 30
0.0
  9
$PLIMCHECK
 70
     0
  9
$PEXTMIN
 10
1.000000000000000E+20
 20
1.000000000000000E+20
 30
1.000000000000000E+20
  9
$PEXTMAX
 10
-1.000000000000000E+20
 20
-1.000000000000000E+20
 30
-1.000000000000000E+20
  9
$PLIMMIN
 10
0.0
 20
0.0
  9
$PLIMMAX
 10
420.0
 20
297.0
  9
$UNITMODE
 70
     0
  9
$VISRETAIN
 70
     1
  9
$PLINEGEN
 70
     0
  9
$PSLTSCALE
 70
     1
  9
$TREEDEPTH
 70
  3020
  9
$PICKSTYLE
 70
     0
  9
$CMLSTYLE
  2
STANDARD
  9
$CMLJUST
 70
     0
  9
$CMLSCALE
 40
20.0
  9
$SAVEIMAGES
 70
     1
  0
ENDSEC
  0
SECTION
  2
CLASSES
  0
CLASS
  1
ACDBDICTIONARYWDFLT
  2
AcDbDictionaryWithDefault
  3
AutoCAD 2000
 90
    32768
280
     0
281
     0
  0
CLASS
  1
ACDBPLACEHOLDER
  2
AcDbPlaceHolder
  3
AutoCAD 2000
 90
    32768
280
     0
281
     0
  0
CLASS
  1
LAYOUT
  2
AcDbLayout
  3
AutoCAD 2000
 90
    32768
280
     0
281
     0
  0
CLASS
  1
AMGSETTINGSOBJ
  2
AmgSettingsObj
  3
"AcadM|Product Description: AutoCAD Mechanical 2000|Company: Autodesk"
 90
    32768
280
     0
281
     0
  0
CLASS
  1
ACME_DOCUMENT
  2
AcMeDbDoc
  3
AcMeServices
 90
    32768
280
     0
281
     0
  0
CLASS
  1
ACMESCOPE
  2
AcMeScope
  3
AcMeServices
 90
    32768
280
     0
281
     0
  0
CLASS
  1
ACMECOMMANDHISTORY
  2
AcMeCommandHistory
  3
AcMeServices
 90
    32768
280
     0
281
     0
  0
CLASS
  1
DICTIONARYVAR
  2
AcDbDictionaryVar
  3
AutoCAD 2000
 90
    32768
280
     0
281
     0
  0
CLASS
  1
ACIMSYSVARMAN
  2
AcImSysVarManager
  3
AcMeServices
 90
    32768
280
     0
281
     0
  0
CLASS
  1
ACIMREALSYSVAR
  2
AcImRealSysVar
  3
AcMeServices
 90
    32768
280
     0
281
     0
  0
CLASS
  1
ACIMINTSYSVAR
  2
AcImIntSysVar
  3
AcMeServices
 90
    32768
280
     0
281
     0
  0
CLASS
  1
ACMEDRAWINGMAN
  2
AcMeDrawingMan
  3
AcMeServices
 90
    32768
280
     0
281
     0
  0
CLASS
  1
ACMEVIEW
  2
AcMeView
  3
AcMeServices
 90
    32768
280
     0
281
     0
  0
CLASS
  1
ACDBENTITYCACHE
  2
AcMeEntityCache
  3
AcMeServices
 90
    32768
280
     0
281
     0
  0
CLASS
  1
GSMANAGER
  2
AcMeGSManager
  3
AcMeServices
 90
    32768
280
     0
281
     0
  0
CLASS
  1
AMDTINTERNALREACTOR
  2
AmdtInternalReactor
  3
AcMeServices
 90
    32768
280
     0
281
     0
  0
CLASS
  1
ACMESTATEMGR
  2
AcMeStateMgr
  3
AcMeServices
 90
    32768
280
     0
281
     0
  0
CLASS
  1
ACME_DATABASE
  2
AcMeDbDatabase
  3
AcMeServices
 90
    32768
280
     0
281
     0
  0
CLASS
  1
ACRFINSADJUSTERMGR
  2
AcRfInsAdjusterMgr
  3
AcMeServices
 90
    32768
280
     0
281
     0
  0
CLASS
  1
ACMDATADICTIONARY
  2
AcmDataDictionary
  3
"AcmSymBB|Product Description: AutoCAD Mechanical 2000|Company: Autodesk"
 90
    32768
280
     0
281
     0
  0
CLASS
  1
ACMDATAENTRYBLOCK
  2
AcmDataEntryBlock
  3
"AcmSymBB|Product Description: AutoCAD Mechanical 2000|Company: Autodesk"
 90
    32768
280
     0
281
     0
  0
CLASS
  1
AMGOBJPROPCFG
  2
AmgObjPropCfg
  3
"AmgLay|Product Description: AutoCAD Mechanical 2000|Company: Autodesk"
 90
    32769
280
     0
281
     0
  0
CLASS
  1
ACAMGFILTERDAT
  2
AcAmgFilterDat
  3
"AcadM|Product Description: AutoCAD Mechanical 2000|Company: Autodesk"
 90
    32768
280
     0
281
     0
  0
CLASS
  1
LAYER_INDEX
  2
AcDbLayerIndex
  3
AutoCAD 2000
 90
    32768
280
     0
281
     0
  0
CLASS
  1
IDBUFFER
  2
AcDbIdBuffer
  3
AutoCAD 2000
 90
    32768
280
     0
281
     0
  0
CLASS
  1
ACIMSTRSYSVAR
  2
AcImStrSysVar
  3
AcMeServices
 90
    32768
280
     0
281
     0
  0
CLASS
  1
ACMSTANDARDISO
  2
AcmStandardISO
  3
"Amdt_StdImp|Product Description: AutoCAD Mechanical 2000|Company: Autodesk"
 90
    32768
280
     0
281
     0
  0
CLASS
  1
AMDTEDGESTANDARDISO
  2
AmdtEdgeStdISO
  3
"Amdt_StdImp|Product Description: AutoCAD Mechanical 2000|Company: Autodesk"
 90
    32768
280
     0
281
     0
  0
CLASS
  1
ACMSURFSTANDARDISO
  2
AcmSurfTextStdISO
  3
"Amdt_StdImp|Product Description: AutoCAD Mechanical 2000|Company: Autodesk"
 90
    32768
280
     0
281
     0
  0
CLASS
  1
ACMFCFSTANDARDISO
  2
AcmFCFStdISO
  3
"Amdt_StdImp|Product Description: AutoCAD Mechanical 2000|Company: Autodesk"
 90
    32768
280
     0
281
     0
  0
CLASS
  1
ACMWELDSTANDARDISO
  2
AcmWeldingStdISO
  3
"Amdt_StdImp|Product Description: AutoCAD Mechanical 2000|Company: Autodesk"
 90
    32768
280
     0
281
     0
  0
CLASS
  1
ACMIDSTANDARDISO
  2
AcmIdStdISO
  3
"Amdt_StdImp|Product Description: AutoCAD Mechanical 2000|Company: Autodesk"
 90
    32768
280
     0
281
     0
  0
CLASS
  1
ACMDATUMSTANDARDISO
  2
AcmDatumStdISO
  3
"Amdt_StdImp|Product Description: AutoCAD Mechanical 2000|Company: Autodesk"
 90
    32768
280
     0
281
     0
  0
CLASS
  1
ACMBOMSTANDARDISO
  2
AcmBOMStdISO
  3
"Amdt_StdImp|Product Description: AutoCAD Mechanical 2000|Company: Autodesk"
 90
    32768
280
     0
281
     0
  0
CLASS
  1
AMDTNOTE
  2
AmdtNote
  3
"AcmSymBB|Product Description: AutoCAD Mechanical 2000|Company: Autodesk"
 90
    33791
280
     0
281
     1
  0
CLASS
  1
ACGREFMASTER
  2
AcGrefMaster
  3
AcAttribServices
 90
    32768
280
     0
281
     0
  0
CLASS
  1
ACGREFACADMASTER
  2
AcGrefacadMaster
  3
AcGrefServices
 90
    32768
280
     0
281
     0
  0
CLASS
  1
AMIMASTER
  2
AmiMaster
  3
AmiServices
 90
    32768
280
     0
281
     0
  0
CLASS
  1
ACAMGTITLESTD
  2
AcAmgTitleStd
  3
"TITLEAPP"
 90
    32768
280
     0
281
     0
  0
CLASS
  1
ACMDETAILSTANDARDISO
  2
AmdtDetailSymStdISO
  3
"Amdt_StdImp|Product Description: AutoCAD Mechanical 2000|Company: Autodesk"
 90
    32768
280
     0
281
     0
  0
CLASS
  1
ACMSECTIONSTANDARDISO
  2
AmdtSectionSymStdISO
  3
"Amdt_StdImp|Product Description: AutoCAD Mechanical 2000|Company: Autodesk"
 90
    32768
280
     0
281
     0
  0
CLASS
  1
ACMCENTERLINESTANDARDISO
  2
AmdtCenterLineStdISO
  3
"Amdt_StdImp|Product Description: AutoCAD Mechanical 2000|Company: Autodesk"
 90
    32768
280
     0
281
     0
  0
CLASS
  1
ACMNOTESTANDARDISO
  2
AmdtNoteStdISO
  3
"Amdt_StdImp|Product Description: AutoCAD Mechanical 2000|Company: Autodesk"
 90
    32768
280
     0
281
     0
  0
CLASS
  1
ACAMGLAYSTD
  2
AcAmgLayStd
  3
"AcAmgLayStd|Product Description: AutoCAD Mechanical 2000|Company: Autodesk"
 90
    32768
280
     0
281
     0
  0
CLASS
  1
ACAMGDIMSTD
  2
AcAmgDimStd
  3
"AcAmgDimStd|Product Description: AutoCAD Mechanical 2000|Company: Autodesk"
 90
    32768
280
     0
281
     0
  0
CLASS
  1
ACAMGHOLECHARTSTDISO
  2
AcAmgHoleChartStdISO
  3
ACMSYMBB_MODULE_NAME
 90
    32768
280
     0
281
     0
  0
CLASS
  1
AMDTFORMULAUPDATEDISPATCHER
  2
AmdtFormulaUpdateDispatcher
  3
AcMeServices
 90
    32768
280
     0
281
     0
  0
CLASS
  1
ACMSTANDARDANSI
  2
AcmStandardANSI
  3
"Amdt_StdImp|Product Description: AutoCAD Mechanical 2000|Company: Autodesk"
 90
    32768
280
     0
281
     0
  0
CLASS
  1
ACMSURFSTANDARDANSI
  2
AcmSurfTextStdANSI
  3
"Amdt_StdImp|Product Description: AutoCAD Mechanical 2000|Company: Autodesk"
 90
    32768
280
     0
281
     0
  0
CLASS
  1
ACMFCFSTANDARDANSI
  2
AcmFCFStdANSI
  3
"Amdt_StdImp|Product Description: AutoCAD Mechanical 2000|Company: Autodesk"
 90
    32768
280
     0
281
     0
  0
CLASS
  1
ACMWELDSTANDARDANSI
  2
AcmWeldingStdANSI
  3
"Amdt_StdImp|Product Description: AutoCAD Mechanical 2000|Company: Autodesk"
 90
    32768
280
     0
281
     0
  0
CLASS
  1
ACMIDSTANDARDANSI
  2
AcmIdStdANSI
  3
"Amdt_StdImp|Product Description: AutoCAD Mechanical 2000|Company: Autodesk"
 90
    32768
280
     0
281
     0
  0
CLASS
  1
ACMDATUMSTANDARDANSI
  2
AcmDatumStdANSI
  3
"Amdt_StdImp|Product Description: AutoCAD Mechanical 2000|Company: Autodesk"
 90
    32768
280
     0
281
     0
  0
CLASS
  1
ACMBOMSTANDARDANSI
  2
AcmBOMStdANSI
  3
"Amdt_StdImp|Product Description: AutoCAD Mechanical 2000|Company: Autodesk"
 90
    32768
280
     0
281
     0
  0
CLASS
  1
ACMDETAILSTANDARDANSI
  2
AmdtDetailSymStdANSI
  3
"Amdt_StdImp|Product Description: AutoCAD Mechanical 2000|Company: Autodesk"
 90
    32768
280
     0
281
     0
  0
CLASS
  1
ACMSECTIONSTANDARDANSI
  2
AmdtSectionSymStdANSI
  3
"Amdt_StdImp|Product Description: AutoCAD Mechanical 2000|Company: Autodesk"
 90
    32768
280
     0
281
     0
  0
CLASS
  1
ACMCENTERLINESTANDARDANSI
  2
AmdtCenterLineStdANSI
  3
"Amdt_StdImp|Product Description: AutoCAD Mechanical 2000|Company: Autodesk"
 90
    32768
280
     0
281
     0
  0
CLASS
  1
ACMNOTESTANDARDANSI
  2
AmdtNoteStdANSI
  3
"Amdt_StdImp|Product Description: AutoCAD Mechanical 2000|Company: Autodesk"
 90
    32768
280
     0
281
     0
  0
CLASS
  1
ACAMGHOLECHARTSTDANSI
  2
AcAmgHoleChartStdANSI
  3
ACMSYMBB_MODULE_NAME
 90
    32768
280
     0
281
     0
  0
CLASS
  1
DIMASSOC
  2
AcDbDimAssoc
  3
"AcDbDimAssoc|Product Desc:     AcDim ARX App For Dimension|Company:          Autodesk, Inc.|WEB Address:      www.autodesk.com"
 90
    32768
280
     0
281
     0
  0
CLASS
  1
ACDB_PROXY_ENTITY_DATA
  2
AcDbProxyEntityData
  3
AutoCAD 2000
 90
    32768
280
     0
281
     0
  0
CLASS
  1
ACAD_PROXY_OBJECT_WRAPPER
  2
AcDbProxyObjectWrapper
  3
AutoCAD 2000
 90
    32768
280
     0
281
     0
  0
CLASS
  1
ACAD_PROXY_ENTITY_WRAPPER
  2
AcDbProxyEntityWrapper
  3
AutoCAD 2000
 90
    32768
280
     0
281
     1
  0
CLASS
  1
LONG_TRANSACTION
  2
AcDbLongTransaction
  3
AutoCAD 2000
 90
    32768
280
     0
281
     0
  0
CLASS
  1
LWPOLYLINE
  2
AcDbPolyline
  3
AutoCAD 2000
 90
    32768
280
     0
281
     1
  0
CLASS
  1
HATCH
  2
AcDbHatch
  3
AutoCAD 2000
 90
    32768
280
     0
281
     1
  0
CLASS
  1
XRECORD
  2
AcDbXrecord
  3
AutoCAD 2000
 90
    32768
280
     0
281
     0
  0
CLASS
  1
LONG_TRANSACTION
  2
AcDbLongTransaction
  3
AutoCAD 2000
 90
    32768
280
     0
281
     0
  0
CLASS
  1
LWPOLYLINE
  2
AcDbPolyline
  3
AutoCAD 2000
 90
    32768
280
     0
281
     1
  0
CLASS
  1
HATCH
  2
AcDbHatch
  3
AutoCAD 2000
 90
    32768
280
     0
281
     1
  0
CLASS
  1
XRECORD
  2
AcDbXrecord
  3
AutoCAD 2000
 90
    32768
280
     0
281
     0
  0
ENDSEC
  0
SECTION
  2
TABLES
  0
TABLE
  2
VPORT
  5
8
330
0
100
AcDbSymbolTable
 70
     5
  0
VPORT
  5
28D27
330
8
100
AcDbSymbolTableRecord
100
AcDbViewportTableRecord
  2
*ACTIVE
 70
     0
 10
0.0
 20
0.0
 11
1.0
 21
1.0
 12
2473.546058078671
 22
26.59083904102596
 13
0.0
 23
0.0
 14
2.5
 24
2.5
 15
10.0
 25
10.0
 16
0.0
 26
0.0
 36
1.0
 17
0.0
 27
0.0
 37
0.0
 40
248.0385046280292
 41
1.765124555160142
 42
50.0
 43
0.0
 44
0.0
 50
0.0
 51
0.0
 71
     0
 72
   100
 73
     1
 74
     3
 75
     0
 76
     0
 77
     0
 78
     1
  0
ENDTAB
  0
TABLE
  2
LTYPE
  5
5
330
0
100
AcDbSymbolTable
 70
    16
  0
LTYPE
  5
14
330
5
100
AcDbSymbolTableRecord
100
AcDbLinetypeTableRecord
  2
BYBLOCK
 70
     0
  3

 72
    65
 73
     0
 40
0.0
  0
LTYPE
  5
15
330
5
100
AcDbSymbolTableRecord
100
AcDbLinetypeTableRecord
  2
BYLAYER
 70
     0
  3

 72
    65
 73
     0
 40
0.0
  0
LTYPE
  5
16
330
5
100
AcDbSymbolTableRecord
100
AcDbLinetypeTableRecord
  2
CONTINUOUS
 70
     0
  3
Solid line
 72
    65
 73
     0
 40
0.0
  0
LTYPE
  5
4B
330
5
100
AcDbSymbolTableRecord
100
AcDbLinetypeTableRecord
  2
AM_ISO02W050
 70
     0
  3
__ __ __ __ __ __ __ __ __ __ __ __ __ __ __
 72
    65
 73
     2
 40
7.5
 49
6.0
 74
     0
 49
-1.5
 74
     0
  0
LTYPE
  5
4C
330
5
100
AcDbSymbolTableRecord
100
AcDbLinetypeTableRecord
  2
AM_ISO08W050
 70
     0
  3
____ . ____ . ____ . ____ . ____ . ____ . ____
 72
    65
 73
     4
 40
18.0
 49
12.0
 74
     0
 49
-1.5
 74
     0
 49
3.0
 74
     0
 49
-1.5
 74
     0
  0
LTYPE
  5
4D
330
5
100
AcDbSymbolTableRecord
100
AcDbLinetypeTableRecord
  2
AM_ISO09W050
 70
     0
  3
_____ . . _____ . . _____ . . ____ .. ____
 72
    65
 73
     6
 40
22.5
 49
12.0
 74
     0
 49
-1.5
 74
     0
 49
3.0
 74
     0
 49
-1.5
 74
     0
 49
3.0
 74
     0
 49
-1.5
 74
     0
  0
LTYPE
  5
4E
330
5
100
AcDbSymbolTableRecord
100
AcDbLinetypeTableRecord
  2
AMCONSTR
 70
     0
  3
_______________________
 72
    65
 73
     2
 40
9999.0
 49
9999.0
 74
     0
 49
0.0
 74
     0
  0
LTYPE
  5
4F
330
5
100
AcDbSymbolTableRecord
100
AcDbLinetypeTableRecord
  2
AM_ISO02W050X2
 70
     0
  3
 _ _ _ _ _ _ _ _ _ _ _ _
 72
    65
 73
     2
 40
3.75
 49
3.0
 74
     0
 49
-0.75
 74
     0
  0
LTYPE
  5
50
330
5
100
AcDbSymbolTableRecord
100
AcDbLinetypeTableRecord
  2
AM_ISO08W050X2
 70
     0
  3
__ . __ . __ . __ . __ . __
 72
    65
 73
     4
 40
9.0
 49
6.0
 74
     0
 49
-0.75
 74
     0
 49
1.5
 74
     0
 49
-0.75
 74
     0
  0
LTYPE
  5
53
330
5
100
AcDbSymbolTableRecord
100
AcDbLinetypeTableRecord
  2
AMZIGZAG
 70
     0
  3
/\/-/\/-/\/-/\/-/\/-/\/
 72
    65
 73
     2
 40
11.00009999999999
 49
0.0001
 74
     4
 75
   135
340
52
 46
0.04
 50
0.0
 44
0.0
 45
0.0
 49
-11.0
 74
     0
  0
LTYPE
  5
144B
330
5
100
AcDbSymbolTableRecord
100
AcDbLinetypeTableRecord
  2
ACISOWELD
 70
     0
  3
_ _ _ _ _
 72
    65
 73
     2
 40
2.0
 49
2.0
 74
     0
 49
-1.0
 74
     0
  0
LTYPE
  5
144C
330
5
100
AcDbSymbolTableRecord
100
AcDbLinetypeTableRecord
  2
ACISOTGB
 70
     0
  3
__ . . __ . .
 72
    65
 73
     6
 40
9.0
 49
4.0
 74
     0
 49
-1.0
 74
     0
 49
1.0
 74
     0
 49
-1.0
 74
     0
 49
1.0
 74
     0
 49
-1.0
 74
     0
  0
LTYPE
  5
144D
330
5
100
AcDbSymbolTableRecord
100
AcDbLinetypeTableRecord
  2
ACISOTGL
 70
     0
  3
_ _ _ _ _
 72
    65
 73
     2
 40
3.0
 49
2.0
 74
     0
 49
-1.0
 74
     0
  0
LTYPE
  5
1C34
330
5
100
AcDbSymbolTableRecord
100
AcDbLinetypeTableRecord
  2
HIDDEN
 70
     0
  3
Hidden __ __ __ __ __ __ __ __ __ __ __ __ __ _
 72
    65
 73
     2
 40
0.375
 49
0.25
 74
     0
 49
-0.125
 74
     0
  0
LTYPE
  5
1C35
330
5
100
AcDbSymbolTableRecord
100
AcDbLinetypeTableRecord
  2
CENTER
 70
     0
  3
Center ____ _ ____ _ ____ _ ____ _ ____ _ ____
 72
    65
 73
     4
 40
2.0
 49
1.25
 74
     0
 49
-0.25
 74
     0
 49
0.25
 74
     0
 49
-0.25
 74
     0
  0
LTYPE
  5
B899
330
5
100
AcDbSymbolTableRecord
100
AcDbLinetypeTableRecord
  2
PHANTOM2
 70
     0
  3
Phantom (.5x) ___ _ _ ___ _ _ ___ _ _ ___ _ _
 72
    65
 73
     6
 40
31.75
 49
15.875
 74
     0
 49
-3.174999999999999
 74
     0
 49
3.174999999999999
 74
     0
 49
-3.174999999999999
 74
     0
 49
3.174999999999999
 74
     0
 49
-3.174999999999999
 74
     0
  0
LTYPE
  5
BE5A
330
5
100
AcDbSymbolTableRecord
100
AcDbLinetypeTableRecord
  2
ACANSTGB
 70
     0
  3
__ . . __ . .
 72
    65
 73
     6
 40
0.35433070866
 49
0.15748031496
 74
     0
 49
-0.03937007874
 74
     0
 49
0.03937007874
 74
     0
 49
-0.03937007874
 74
     0
 49
0.03937007874
 74
     0
 49
-0.03937007874
 74
     0
  0
LTYPE
  5
BE5B
330
5
100
AcDbSymbolTableRecord
100
AcDbLinetypeTableRecord
  2
ACANSTGL
 70
     0
  3
_ _ _ _ _
 72
    65
 73
     2
 40
0.11811023622
 49
0.07874015748
 74
     0
 49
-0.03937007874
 74
     0
  0
ENDTAB
  0
TABLE
  2
LAYER
  5
2
330
0
100
AcDbSymbolTable
 70
     8
  0
LAYER
  5
10
330
2
100
AcDbSymbolTableRecord
100
AcDbLayerTableRecord
  2
0
 70
     0
 62
     7
  6
CONTINUOUS
  0
LAYER
  5
D1
330
2
100
AcDbSymbolTableRecord
100
AcDbLayerTableRecord
  2
AM_VIS
 70
     2
 62
     7
  6
CONTINUOUS
  0
LAYER
  5
450
330
2
100
AcDbSymbolTableRecord
100
AcDbLayerTableRecord
  2
DEFPOINTS
 70
     0
 62
    -7
  6
CONTINUOUS
  0
LAYER
  5
451
330
2
100
AcDbSymbolTableRecord
100
AcDbLayerTableRecord
  2
AM_7
 70
     0
 62
     1
  6
CENTER
  0
LAYER
  5
1C3A
330
2
100
AcDbSymbolTableRecord
100
AcDbLayerTableRecord
  2
AM_REFDIM
 70
     0
 62
     5
  6
CONTINUOUS
  0
LAYER
  5
188F9
330
2
100
AcDbSymbolTableRecord
100
AcDbLayerTableRecord
  2
LOGO
 70
     0
 62
     7
  6
CONTINUOUS
  0
LAYER
  5
188FB
330
2
100
AcDbSymbolTableRecord
100
AcDbLayerTableRecord
  2
AM_HID
 70
     0
 62
     5
  6
HIDDEN
  0
LAYER
  5
18900
330
2
100
AcDbSymbolTableRecord
100
AcDbLayerTableRecord
  2
AM_0N
 70
     0
 62
     7
  6
CONTINUOUS
  0
ENDTAB
  0
TABLE
  2
STYLE
  5
3
330
0
100
AcDbSymbolTable
 70
     9
  0
STYLE
  5
11
330
3
100
AcDbSymbolTableRecord
100
AcDbTextStyleTableRecord
  2
STANDARD
 70
     0
 40
0.0
 41
1.0
 50
0.0
 71
     0
 42
3.0
  3
ISOCP.SHX
  4
CHINESET.SHX
  0
STYLE
  5
52
330
3
100
AcDbSymbolTableRecord
100
AcDbTextStyleTableRecord
  2

 70
     1
 40
0.0
 41
1.0
 50
0.0
 71
     0
 42
2.5
  3
ltypeshp.shx
  4

  0
STYLE
  5
1442
330
3
100
AcDbSymbolTableRecord
100
AcDbTextStyleTableRecord
  2
ACISOTS
 70
     0
 40
1.0
 41
1.0
 50
0.0
 71
     0
 42
1.0
  3
isocp.shx
  4
chineset.shx
  0
STYLE
  5
144A
330
3
100
AcDbSymbolTableRecord
100
AcDbTextStyleTableRecord
  2
ACISOGDT
 70
     0
 40
0.0
 41
1.0
 50
0.0
 71
     0
 42
2.5
  3
amgdt.shx
  4

  0
STYLE
  5
167B
330
3
100
AcDbSymbolTableRecord
100
AcDbTextStyleTableRecord
  2
DAYUS
 70
     0
 40
0.0
 41
1.0
 50
0.0
 71
     0
 42
10.0
  3
simplex
  4
dayus
  0
STYLE
  5
BE5D
330
3
100
AcDbSymbolTableRecord
100
AcDbTextStyleTableRecord
  2
CHINESET
 70
     0
 40
0.0
 41
1.0
 50
0.0
 71
     0
 42
4.0
  3
simplex.shx
  4
chineset.shx
  0
STYLE
  5
BE5E
330
3
100
AcDbSymbolTableRecord
100
AcDbTextStyleTableRecord
  2
ACANSTS
 70
     0
 40
1.0
 41
1.0
 50
0.0
 71
     0
 42
1.5
  3
romans.shx
  4
chineset.shx
  0
STYLE
  5
BE5F
330
3
100
AcDbSymbolTableRecord
100
AcDbTextStyleTableRecord
  2
ACANSGDT
 70
     0
 40
0.0
 41
1.0
 50
0.0
 71
     0
 42
1.5
  3
amgdtans.shx
  4

  0
STYLE
  5
18905
330
3
100
AcDbSymbolTableRecord
100
AcDbTextStyleTableRecord
  2
LOGO
 70
     0
 40
0.0
 41
1.0
 50
0.0
 71
     0
 42
5.0
  3
LEI00DP.TTF
  4

1001
ACAD
1000
文鼎中粗隸
1071
    34865
  0
ENDTAB
  0
TABLE
  2
VIEW
  5
6
330
0
100
AcDbSymbolTable
 70
     0
  0
ENDTAB
  0
TABLE
  2
UCS
  5
7
330
0
100
AcDbSymbolTable
 70
     0
  0
ENDTAB
  0
TABLE
  2
APPID
  5
9
330
0
100
AcDbSymbolTable
 70
    39
  0
APPID
  5
12
330
9
100
AcDbSymbolTableRecord
100
AcDbRegAppTableRecord
  2
ACAD
 70
     0
  0
APPID
  5
30
330
9
100
AcDbSymbolTableRecord
100
AcDbRegAppTableRecord
  2
MCAD_NO_VIS
 70
     0
  0
APPID
  5
31
330
9
100
AcDbSymbolTableRecord
100
AcDbRegAppTableRecord
  2
ACAD_TEMP_GRAPHIC
 70
     0
  0
APPID
  5
455
330
9
100
AcDbSymbolTableRecord
100
AcDbRegAppTableRecord
  2
GENIUS_GENDTOL_13
 70
     0
  0
APPID
  5
6B34
330
9
100
AcDbSymbolTableRecord
100
AcDbRegAppTableRecord
  2
ACATTRIBSERVICES
 70
     0
  0
APPID
  5
F2C8
330
9
100
AcDbSymbolTableRecord
100
AcDbRegAppTableRecord
  2
GENIUS_GENDIMSH_14
 70
     0
  0
APPID
  5
12FCC
330
9
100
AcDbSymbolTableRecord
100
AcDbRegAppTableRecord
  2
GENIUS_GENREC_14
 70
     0
  0
APPID
  5
12FCD
330
9
100
AcDbSymbolTableRecord
100
AcDbRegAppTableRecord
  2
GENIUS_GENOBJ-N-REC_13
 70
     0
  0
APPID
  5
12FCE
330
9
100
AcDbSymbolTableRecord
100
AcDbRegAppTableRecord
  2
GENIUS_GENODEF_13
 70
     0
  0
APPID
  5
1890C
330
9
100
AcDbSymbolTableRecord
100
AcDbRegAppTableRecord
  2
GENIUS_GENFIL_13
 70
     0
  0
APPID
  5
1890D
330
9
100
AcDbSymbolTableRecord
100
AcDbRegAppTableRecord
  2
GENIUS_GENOBJ-N-CHA_13
 70
     0
  0
APPID
  5
1890E
330
9
100
AcDbSymbolTableRecord
100
AcDbRegAppTableRecord
  2
GENIUS_GENOBJ-N-FIL_13
 70
     0
  0
APPID
  5
1890F
330
9
100
AcDbSymbolTableRecord
100
AcDbRegAppTableRecord
  2
GENIUS_GENOBJ-N-CEN_13
 70
     0
  0
APPID
  5
18910
330
9
100
AcDbSymbolTableRecord
100
AcDbRegAppTableRecord
  2
GENIUS_GENOBJ-N-HTC_13
 70
     0
  0
APPID
  5
18911
330
9
100
AcDbSymbolTableRecord
100
AcDbRegAppTableRecord
  2
GENIUS_GENHATCH_13
 70
     0
  0
APPID
  5
18912
330
9
100
AcDbSymbolTableRecord
100
AcDbRegAppTableRecord
  2
GEVID1040951320
 70
     0
  0
APPID
  5
18913
330
9
100
AcDbSymbolTableRecord
100
AcDbRegAppTableRecord
  2
GEVDC
 70
     0
  0
APPID
  5
18914
330
9
100
AcDbSymbolTableRecord
100
AcDbRegAppTableRecord
  2
GENIUS_GENBH_13
 70
     0
  0
APPID
  5
18915
330
9
100
AcDbSymbolTableRecord
100
AcDbRegAppTableRecord
  2
GENIUS_GENOENT_13
 70
     0
  0
APPID
  5
18916
330
9
100
AcDbSymbolTableRecord
100
AcDbRegAppTableRecord
  2
GENIUS_GENOBJ-NBEHI-BHF_13
 70
     0
  0
APPID
  5
18917
330
9
100
AcDbSymbolTableRecord
100
AcDbRegAppTableRecord
  2
GENIUS_GENOLIS_13
 70
     0
  0
APPID
  5
18918
330
9
100
AcDbSymbolTableRecord
100
AcDbRegAppTableRecord
  2
GENIUS_GENOREF_13
 70
     0
  0
APPID
  5
18919
330
9
100
AcDbSymbolTableRecord
100
AcDbRegAppTableRecord
  2
GENIUS_GENOBJ-NBEHI-BHB_13
 70
     0
  0
APPID
  5
1891A
330
9
100
AcDbSymbolTableRecord
100
AcDbRegAppTableRecord
  2
GEVID1040951321
 70
     0
  0
APPID
  5
1891B
330
9
100
AcDbSymbolTableRecord
100
AcDbRegAppTableRecord
  2
GEVID1040951322
 70
     0
  0
APPID
  5
1891C
330
9
100
AcDbSymbolTableRecord
100
AcDbRegAppTableRecord
  2
GEVID1040951323
 70
     0
  0
APPID
  5
200C7
330
9
100
AcDbSymbolTableRecord
100
AcDbRegAppTableRecord
  2
GENIUS_GENOBJ-N-CRS_13
 70
     0
  0
APPID
  5
200C8
330
9
100
AcDbSymbolTableRecord
100
AcDbRegAppTableRecord
  2
ACAD_DIMASSOC_DIMLFAC
 70
     0
  0
APPID
  5
200C9
330
9
100
AcDbSymbolTableRecord
100
AcDbRegAppTableRecord
  2
ACAD_DIMASSOC_CALC_DIMLFAC
 70
     0
  0
APPID
  5
200CA
330
9
100
AcDbSymbolTableRecord
100
AcDbRegAppTableRecord
  2
GEVID1036112518
 70
     0
  0
APPID
  5
200CB
330
9
100
AcDbSymbolTableRecord
100
AcDbRegAppTableRecord
  2
GEVRADREF
 70
     0
  0
APPID
  5
200CC
330
9
100
AcDbSymbolTableRecord
100
AcDbRegAppTableRecord
  2
GEVID1040267100
 70
     0
  0
APPID
  5
2210A
330
9
100
AcDbSymbolTableRecord
100
AcDbRegAppTableRecord
  2
GEVID1036112519
 70
     0
  0
APPID
  5
2210B
330
9
100
AcDbSymbolTableRecord
100
AcDbRegAppTableRecord
  2
GEVID1036112520
 70
     0
  0
APPID
  5
2210C
330
9
100
AcDbSymbolTableRecord
100
AcDbRegAppTableRecord
  2
GEVID1036112521
 70
     0
  0
APPID
  5
2210D
330
9
100
AcDbSymbolTableRecord
100
AcDbRegAppTableRecord
  2
GEVID1036112522
 70
     0
  0
APPID
  5
2210E
330
9
100
AcDbSymbolTableRecord
100
AcDbRegAppTableRecord
  2
GEVID1036112523
 70
     0
  0
APPID
  5
2210F
330
9
100
AcDbSymbolTableRecord
100
AcDbRegAppTableRecord
  2
GEVID1040267101
 70
     0
  0
APPID
  5
26DC8
330
9
100
AcDbSymbolTableRecord
100
AcDbRegAppTableRecord
  2
TCAD
 70
     0
  0
ENDTAB
  0
TABLE
  2
DIMSTYLE
  5
A
330
0
100
AcDbSymbolTable
 70
    15
  0
DIMSTYLE
105
98A
330
A
100
AcDbSymbolTableRecord
100
AcDbDimStyleTableRecord
  2
AM_ISO
 70
     0
  3

  4
"
  5

  6

  7

 40
0.6
 41
3.0
 42
2.0
 43
10.0
 44
1.5
 45
0.0
 46
0.0
 47
0.1
 48
0.1
140
3.0
141
0.0
142
0.0
143
0.0393701
144
2.0
145
0.0
146
0.71
147
0.8
 71
     0
 72
     0
 73
     0
 74
     0
 75
     0
 76
     0
 77
     1
 78
     8
170
     0
171
     2
172
     1
173
     0
174
     0
175
     0
176
     5
177
   256
178
     5
270
     2
271
     2
272
     2
273
     2
274
     2
340
11
275
     0
280
     0
281
     0
282
     0
283
     0
284
     0
285
     0
286
     0
287
     3
288
     0
  0
DIMSTYLE
105
98B
330
A
100
AcDbSymbolTableRecord
100
AcDbDimStyleTableRecord
  2
AM_ISO$3
 70
     0
  3

  4
"
  5

  6

  7

 40
0.6
 41
3.0
 42
2.0
 43
10.0
 44
1.5
 45
0.0
 46
0.0
 47
0.1
 48
0.1
140
3.0
141
0.0
142
0.0
143
0.0393701
144
2.0
145
0.0
146
0.71
147
0.8
 71
     0
 72
     0
 73
     0
 74
     1
 75
     0
 76
     0
 77
     1
 78
     8
170
     0
171
     2
172
     0
173
     0
174
     0
175
     0
176
     5
177
   256
178
     5
270
     2
271
     2
272
     2
273
     2
274
     2
340
11
275
     0
280
     0
281
     0
282
     0
283
     0
284
     0
285
     0
286
     0
287
     0
288
     1
  0
DIMSTYLE
105
98C
330
A
100
AcDbSymbolTableRecord
100
AcDbDimStyleTableRecord
  2
AM_ISO$4
 70
     0
  3

  4
"
  5

  6

  7

 40
0.6
 41
3.0
 42
2.0
 43
10.0
 44
1.5
 45
0.0
 46
0.0
 47
0.1
 48
0.1
140
3.0
141
0.0
142
0.0
143
0.0393701
144
2.0
145
0.0
146
0.71
147
0.8
 71
     0
 72
     0
 73
     0
 74
     1
 75
     0
 76
     0
 77
     1
 78
     8
170
     0
171
     2
172
     0
173
     0
174
     0
175
     0
176
     5
177
   256
178
     5
270
     2
271
     2
272
     2
273
     2
274
     2
340
11
275
     0
280
     0
281
     0
282
     0
283
     0
284
     0
285
     0
286
     0
287
     0
288
     1
  0
DIMSTYLE
105
98D
330
A
100
AcDbSymbolTableRecord
100
AcDbDimStyleTableRecord
  2
AM_ISO$6
 70
     0
  3

  4
"
  5

  6

  7

 40
0.6
 41
3.0
 42
2.0
 43
10.0
 44
1.5
 45
0.0
 46
0.0
 47
0.1
 48
0.1
140
3.0
141
0.0
142
0.0
143
0.0393701
144
2.0
145
0.0
146
0.71
147
0.8
 71
     0
 72
     0
 73
     0
 74
     0
 75
     0
 76
     0
 77
     0
 78
     8
170
     0
171
     2
172
     1
173
     0
174
     0
175
     0
176
     5
177
   256
178
     5
270
     2
271
     2
272
     2
273
     2
274
     2
340
11
275
     0
280
     0
281
     0
282
     0
283
     0
284
     0
285
     0
286
     0
287
     3
288
     0
  0
DIMSTYLE
105
98E
330
A
100
AcDbSymbolTableRecord
100
AcDbDimStyleTableRecord
  2
AM_ISO$7
 70
     0
  3

  4
"
  5

  6

  7

 40
0.6
 41
3.0
 42
2.0
 43
10.0
 44
1.5
 45
0.0
 46
0.0
 47
0.1
 48
0.1
140
5.0
141
0.0
142
0.0
143
0.0393701
144
2.0
145
0.0
146
0.71
147
0.8
 71
     0
 72
     0
 73
     0
 74
     0
 75
     0
 76
     0
 77
     1
 78
     8
170
     0
171
     2
172
     1
173
     0
174
     0
175
     0
176
     5
177
   256
178
     5
270
     2
271
     2
272
     2
273
     2
274
     2
340
11
275
     0
280
     0
281
     0
282
     0
283
     0
284
     0
285
     0
286
     0
287
     3
288
     0
  0
DIMSTYLE
105
98F
330
A
100
AcDbSymbolTableRecord
100
AcDbDimStyleTableRecord
  2
AM_ISO$SF
 70
     0
  3

  4
"
  5

  6

  7

 40
0.5
 41
2.5
 42
1.0
 43
10.0
 44
1.0
 45
0.0
 46
0.0
 47
0.1
 48
0.1
140
3.5
141
0.0
142
0.0
143
0.0393701
144
1.0
145
0.0
146
0.71
147
1.5
 71
     0
 72
     0
 73
     0
 74
     0
 75
     1
 76
     1
 77
     1
 78
     8
170
     0
171
     2
172
     1
173
     0
174
     0
175
     0
176
   256
177
   256
178
     2
270
     2
271
     2
272
     2
273
     2
274
     2
340
11
275
     0
280
     0
281
     0
282
     0
283
     0
284
     0
285
     0
286
     0
287
     3
288
     0
  0
DIMSTYLE
105
994
330
A
100
AcDbSymbolTableRecord
100
AcDbDimStyleTableRecord
  2
AM_ISO$SH
 70
     0
  3

  4
"
  5

  6
GENAXEH
  7

 40
0.5
 41
2.5
 42
1.0
 43
10.0
 44
1.0
 45
0.0
 46
0.0
 47
0.1
 48
0.1
140
3.5
141
0.0
142
0.0
143
0.0393701
144
2.0
145
0.0
146
0.71
147
1.5
 71
     0
 72
     0
 73
     0
 74
     0
 75
     1
 76
     1
 77
     1
 78
     8
170
     0
171
     2
172
     1
173
     1
174
     0
175
     0
176
   256
177
   256
178
     2
270
     2
271
     2
272
     2
273
     2
274
     2
340
11
275
     0
280
     0
281
     0
282
     0
283
     0
284
     0
285
     0
286
     0
287
     3
288
     0
  0
DIMSTYLE
105
6E5D
330
A
100
AcDbSymbolTableRecord
100
AcDbDimStyleTableRecord
  2
AM_ANSI
 70
     0
  3

  4
"
  5

  6

  7

 40
0.8
 41
3.0
 42
1.5
 43
5.0
 44
2.0
 45
0.0
 46
0.0
 47
0.1
 48
0.1
140
3.0
141
-1.5
142
0.0
143
0.0393701
144
1.0
145
0.0
146
0.6
147
0.8
 71
     0
 72
     0
 73
     0
 74
     0
 75
     0
 76
     0
 77
     1
 78
     8
170
     0
171
     2
172
     1
173
     0
174
     0
175
     0
176
   256
177
   256
178
   256
270
     2
271
     2
272
     2
273
     2
274
     2
340
167B
275
     0
280
     0
281
     0
282
     0
283
     1
284
     8
285
     0
286
     0
287
     3
288
     0
  0
DIMSTYLE
105
6E5E
330
A
100
AcDbSymbolTableRecord
100
AcDbDimStyleTableRecord
  2
AM_ANSI$3
 70
     0
  3

  4
"
  5

  6

  7

 40
0.8
 41
3.0
 42
1.5
 43
5.0
 44
2.0
 45
0.0
 46
0.0
 47
0.1
 48
0.1
140
3.0
141
-1.5
142
0.0
143
0.0393701
144
1.0
145
0.0
146
0.6
147
0.8
 71
     0
 72
     0
 73
     0
 74
     0
 75
     0
 76
     0
 77
     1
 78
     8
170
     0
171
     2
172
     1
173
     0
174
     0
175
     0
176
   256
177
   256
178
   256
270
     2
271
     2
272
     2
273
     2
274
     2
340
167B
275
     0
280
     0
281
     0
282
     0
283
     1
284
     8
285
     0
286
     0
287
     0
288
     1
  0
DIMSTYLE
105
6E5F
330
A
100
AcDbSymbolTableRecord
100
AcDbDimStyleTableRecord
  2
AM_ANSI$7
 70
     0
  3

  4
"
  5

  6

  7

 40
0.8
 41
3.0
 42
1.5
 43
5.0
 44
2.0
 45
0.0
 46
0.0
 47
0.1
 48
0.1
140
5.0
141
-1.5
142
0.0
143
0.0393701
144
1.0
145
0.0
146
0.6
147
0.8
 71
     0
 72
     0
 73
     0
 74
     0
 75
     0
 76
     0
 77
     1
 78
     8
170
     0
171
     2
172
     1
173
     0
174
     0
175
     0
176
   256
177
   256
178
   256
270
     2
271
     2
272
     2
273
     2
274
     2
340
167B
275
     0
280
     0
281
     0
282
     0
283
     1
284
     8
285
     0
286
     0
287
     3
288
     0
  0
DIMSTYLE
105
B991
102
{ACAD_REACTORS
330
26AE4
330
26AF1
330
26AFE
330
26B0B
330
26B18
330
26B27
330
26B34
330
26B41
330
26B4E
330
26B5B
330
26B68
102
}
330
A
100
AcDbSymbolTableRecord
100
AcDbDimStyleTableRecord
  2
STANDARD
 70
     0
  3

  4

  5

  6

  7

 40
1.0
 41
3.0
 42
1.5
 43
7.0
 44
2.0
 45
0.0
 46
0.0
 47
0.01
 48
0.01
140
3.0
141
0.0
142
0.0
143
25.4
144
1.0
145
0.0
146
0.6
147
0.8
 71
     0
 72
     0
 73
     0
 74
     0
 75
     0
 76
     0
 77
     3
 78
     8
170
     0
171
     2
172
     1
173
     0
174
     0
175
     0
176
   256
177
   256
178
   256
270
     2
271
     2
272
     2
273
     2
274
     2
340
BE5D
275
     0
280
     0
281
     0
282
     0
283
     1
284
     8
285
     0
286
     0
287
     3
288
     0
  0
DIMSTYLE
105
BE61
330
A
100
AcDbSymbolTableRecord
100
AcDbDimStyleTableRecord
  2
AM_ANSI$4
 70
     0
  3

  4
mm
  5

  6

  7

 40
1.0
 41
0.1
 42
0.05
 43
0.5
 44
0.1
 45
0.0
 46
0.0
 47
0.1
 48
0.1
140
0.12
141
0.0
142
0.0
143
25.4
144
1.0
145
0.0
146
0.71
147
0.06
 71
     0
 72
     0
 73
     1
 74
     1
 75
     0
 76
     0
 77
     0
 78
     7
170
     0
171
     2
172
     0
173
     0
174
     0
175
     0
176
   256
177
   256
178
     2
270
     2
271
     4
272
     4
273
     2
274
     4
340
11
275
     0
280
     0
281
     0
282
     0
283
     1
284
     7
285
     0
286
     0
287
     0
288
     1
  0
DIMSTYLE
105
BE62
330
A
100
AcDbSymbolTableRecord
100
AcDbDimStyleTableRecord
  2
AM_ANSI$SF
 70
     0
  3

  4
mm
  5

  6

  7

 40
1.0
 41
0.1
 42
0.05
 43
0.5
 44
0.1
 45
0.0
 46
0.0
 47
0.1
 48
0.1
140
0.12
141
0.0
142
0.0
143
25.4
144
1.0
145
0.0
146
0.71
147
0.06
 71
     0
 72
     0
 73
     1
 74
     1
 75
     1
 76
     1
 77
     0
 78
     7
170
     0
171
     2
172
     0
173
     0
174
     0
175
     0
176
   256
177
   256
178
     2
270
     2
271
     4
272
     4
273
     2
274
     4
340
11
275
     0
280
     0
281
     0
282
     0
283
     1
284
     7
285
     0
286
     0
287
     3
288
     0
  0
DIMSTYLE
105
BE63
330
A
100
AcDbSymbolTableRecord
100
AcDbDimStyleTableRecord
  2
AM_ANSI$SH
 70
     0
  3

  4
mm
  5

  6
GENAXEH
  7

 40
1.0
 41
0.1
 42
0.05
 43
0.5
 44
0.1
 45
0.0
 46
0.0
 47
0.1
 48
0.1
140
0.12
141
0.0
142
0.0
143
25.4
144
1.0
145
0.0
146
0.71
147
0.06
 71
     0
 72
     0
 73
     1
 74
     1
 75
     1
 76
     1
 77
     0
 78
     7
170
     0
171
     2
172
     0
173
     1
174
     0
175
     0
176
   256
177
   256
178
     2
270
     2
271
     4
272
     4
273
     2
274
     4
340
11
275
     0
280
     0
281
     0
282
     0
283
     1
284
     7
285
     0
286
     0
287
     3
288
     0
  0
DIMSTYLE
105
18909
330
A
100
AcDbSymbolTableRecord
100
AcDbDimStyleTableRecord
  2
AUDIT_I_030306140827-0
 70
     0
  3

  4

  5

  6

  7

 40
1.0
 41
3.0
 42
2.0
 43
8.0
 44
2.0
 45
0.0
 46
0.0
 47
0.0
 48
0.0
140
3.0
141
-1.0
142
0.0
143
25.4
144
1.0
145
0.0
146
1.0
147
1.5
 71
     0
 72
     0
 73
     1
 74
     1
 75
     0
 76
     0
 77
     0
 78
     0
170
     0
171
     2
172
     0
173
     0
174
     0
175
     0
176
     0
177
     0
178
     0
270
     2
271
     2
272
     2
273
     2
274
     2
340
11
275
     0
280
     0
281
     0
282
     0
283
     1
284
     0
285
     0
286
     0
287
     5
288
     0
  0
ENDTAB
  0
TABLE
  2
BLOCK_RECORD
  5
1
330
0
100
AcDbSymbolTable
 70
    17
  0
BLOCK_RECORD
  5
1F
102
{ACAD_XDICTIONARY
360
3A4
102
}
330
1
100
AcDbSymbolTableRecord
100
AcDbBlockTableRecord
  2
*MODEL_SPACE
  0
BLOCK_RECORD
  5
1B
102
{ACAD_XDICTIONARY
360
28C12
102
}
330
1
100
AcDbSymbolTableRecord
100
AcDbBlockTableRecord
  2
*PAPER_SPACE
  0
BLOCK_RECORD
  5
990
330
1
100
AcDbSymbolTableRecord
100
AcDbBlockTableRecord
  2
GENAXEH
  0
BLOCK_RECORD
  5
23D5D
330
1
100
AcDbSymbolTableRecord
100
AcDbBlockTableRecord
  2
A$C75484636
  0
BLOCK_RECORD
  5
26AE5
330
1
100
AcDbSymbolTableRecord
100
AcDbBlockTableRecord
  2
*D3
  0
BLOCK_RECORD
  5
26AF2
330
1
100
AcDbSymbolTableRecord
100
AcDbBlockTableRecord
  2
*D4
  0
BLOCK_RECORD
  5
26AFF
330
1
100
AcDbSymbolTableRecord
100
AcDbBlockTableRecord
  2
*D5
  0
BLOCK_RECORD
  5
26B0C
330
1
100
AcDbSymbolTableRecord
100
AcDbBlockTableRecord
  2
*D6
  0
BLOCK_RECORD
  5
26B19
330
1
100
AcDbSymbolTableRecord
100
AcDbBlockTableRecord
  2
*D7
  0
BLOCK_RECORD
  5
26B28
330
1
100
AcDbSymbolTableRecord
100
AcDbBlockTableRecord
  2
*D8
  0
BLOCK_RECORD
  5
26B35
330
1
100
AcDbSymbolTableRecord
100
AcDbBlockTableRecord
  2
*D9
  0
BLOCK_RECORD
  5
26B42
330
1
100
AcDbSymbolTableRecord
100
AcDbBlockTableRecord
  2
*D10
  0
BLOCK_RECORD
  5
26B4F
330
1
100
AcDbSymbolTableRecord
100
AcDbBlockTableRecord
  2
*D11
  0
BLOCK_RECORD
  5
26B5C
330
1
100
AcDbSymbolTableRecord
100
AcDbBlockTableRecord
  2
*D12
  0
BLOCK_RECORD
  5
26B69
330
1
100
AcDbSymbolTableRecord
100
AcDbBlockTableRecord
  2
*D13
  0
BLOCK_RECORD
  5
28D2B
330
1
100
AcDbSymbolTableRecord
100
AcDbBlockTableRecord
  2
*S14
  0
BLOCK_RECORD
  5
28D34
330
1
100
AcDbSymbolTableRecord
100
AcDbBlockTableRecord
  2
*S15
  0
BLOCK_RECORD
  5
28D3C
330
1
100
AcDbSymbolTableRecord
100
AcDbBlockTableRecord
  2
*S16
  0
ENDTAB
  0
ENDSEC
  0
SECTION
  2
BLOCKS
  0
BLOCK
  5
20
330
1F
100
AcDbEntity
  8
0
100
AcDbBlockBegin
  2
*MODEL_SPACE
 70
     0
 10
0.0
 20
0.0
 30
0.0
  3
*MODEL_SPACE
  1

  0
ENDBLK
  5
21
330
1F
100
AcDbEntity
  8
0
100
AcDbBlockEnd
  0
BLOCK
  5
1C
330
1B
100
AcDbEntity
 67
     1
  8
0
100
AcDbBlockBegin
  2
*PAPER_SPACE
 70
     0
 10
0.0
 20
0.0
 30
0.0
  3
*PAPER_SPACE
  1

  0
ENDBLK
  5
1D
330
1B
100
AcDbEntity
 67
     1
  8
0
100
AcDbBlockEnd
  0
BLOCK
  5
992
330
990
100
AcDbEntity
  8
0
100
AcDbBlockBegin
  2
GENAXEH
 70
     0
 10
0.0
 20
0.0
 30
0.0
  3
GENAXEH
  1

  0
LINE
  5
991
330
990
100
AcDbEntity
  8
0
100
AcDbLine
 10
-1.0
 20
0.0
 30
0.0
 11
1.0
 21
0.0
 31
0.0
  0
ENDBLK
  5
993
330
990
100
AcDbEntity
  8
0
100
AcDbBlockEnd
  0
BLOCK
  5
23D6B
330
23D5D
100
AcDbEntity
  8
0
100
AcDbBlockBegin
  2
A$C75484636
 70
     0
 10
0.0
 20
0.0
 30
0.0
  3
A$C75484636
  1

  0
LINE
  5
23D5E
330
23D5D
100
AcDbEntity
  8
AM_0N
100
AcDbLine
 10
1.149999754443911
 20
3.005000206466093
 30
0.0
 11
2.494999754443938
 21
3.005000206466093
 31
0.0
1001
GENIUS_GENOREF_13
1005
0
  0
LINE
  5
23D5F
330
23D5D
100
AcDbEntity
  8
AM_0N
100
AcDbLine
 10
1.149999754443911
 20
2.495000206466102
 30
0.0
 11
2.494999754443938
 21
2.495000206466102
 31
0.0
1001
GENIUS_GENOREF_13
1005
0
  0
CIRCLE
  5
23D60
330
23D5D
100
AcDbEntity
  8
AM_0N
100
AcDbCircle
 10
2.749999754443933
 20
2.750000206466097
 30
0.0
 40
2.75
1001
GENIUS_GENOREF_13
1005
0
  0
LINE
  5
23D61
330
23D5D
100
AcDbEntity
  8
AM_0N
100
AcDbLine
 10
1.149999754443911
 20
3.005000206466093
 30
0.0
 11
1.149999754443911
 21
2.495000206466102
 31
0.0
1001
GENIUS_GENOREF_13
1005
0
  0
LINE
  5
23D62
330
23D5D
100
AcDbEntity
  8
AM_0N
100
AcDbLine
 10
3.004999754443929
 20
4.35000020646612
 30
0.0
 11
2.494999754443938
 21
4.35000020646612
 31
0.0
1001
GENIUS_GENOREF_13
1005
0
  0
LINE
  5
23D63
330
23D5D
100
AcDbEntity
  8
AM_0N
100
AcDbLine
 10
3.004999754443929
 20
2.495000206466102
 30
0.0
 11
4.349999754443956
 21
2.495000206466102
 31
0.0
1001
GENIUS_GENOREF_13
1005
0
  0
LINE
  5
23D64
330
23D5D
100
AcDbEntity
  8
AM_0N
100
AcDbLine
 10
3.004999754443929
 20
3.005000206466093
 30
0.0
 11
4.349999754443956
 21
3.005000206466093
 31
0.0
1001
GENIUS_GENOREF_13
1005
0
  0
LINE
  5
23D65
330
23D5D
100
AcDbEntity
  8
AM_0N
100
AcDbLine
 10
3.004999754443929
 20
1.150000206466074
 30
0.0
 11
2.494999754443938
 21
1.150000206466074
 31
0.0
1001
GENIUS_GENOREF_13
1005
0
  0
LINE
  5
23D66
330
23D5D
100
AcDbEntity
  8
AM_0N
100
AcDbLine
 10
2.494999754443938
 20
2.495000206466102
 30
0.0
 11
2.494999754443938
 21
1.150000206466074
 31
0.0
1001
GENIUS_GENOREF_13
1005
0
  0
LINE
  5
23D67
330
23D5D
100
AcDbEntity
  8
AM_0N
100
AcDbLine
 10
3.004999754443929
 20
2.495000206466102
 30
0.0
 11
3.004999754443929
 21
1.150000206466074
 31
0.0
1001
GENIUS_GENOREF_13
1005
0
  0
LINE
  5
23D68
330
23D5D
100
AcDbEntity
  8
AM_0N
100
AcDbLine
 10
4.349999754443956
 20
3.005000206466093
 30
0.0
 11
4.349999754443956
 21
2.495000206466102
 31
0.0
1001
GENIUS_GENOREF_13
1005
0
  0
LINE
  5
23D69
330
23D5D
100
AcDbEntity
  8
AM_0N
100
AcDbLine
 10
2.494999754443938
 20
4.35000020646612
 30
0.0
 11
2.494999754443938
 21
3.005000206466093
 31
0.0
1001
GENIUS_GENOREF_13
1005
0
  0
LINE
  5
23D6A
330
23D5D
100
AcDbEntity
  8
AM_0N
100
AcDbLine
 10
3.004999754443929
 20
4.35000020646612
 30
0.0
 11
3.004999754443929
 21
3.005000206466093
 31
0.0
1001
GENIUS_GENOREF_13
1005
0
  0
ENDBLK
  5
23D6C
330
23D5D
100
AcDbEntity
  8
0
100
AcDbBlockEnd
  0
BLOCK
  5
26AEF
330
26AE5
100
AcDbEntity
  8
0
 62
     1
100
AcDbBlockBegin
  2
*D3
 70
     1
 10
0.0
 20
0.0
 30
0.0
  3
*D3
  1

  0
LINE
  5
27529
330
26AE5
100
AcDbEntity
  8
AM_REFDIM
100
AcDbLine
 10
2437.726027470512
 20
111.24097445497
 30
0.0
 11
2437.726027470512
 21
116.9873396276827
 31
0.0
  0
LINE
  5
2752A
330
26AE5
100
AcDbEntity
  8
AM_REFDIM
100
AcDbLine
 10
2509.726027470512
 20
88.24097445497001
 30
0.0
 11
2509.726027470512
 21
116.9873396276827
 31
0.0
  0
LINE
  5
2752B
330
26AE5
100
AcDbEntity
  8
AM_REFDIM
100
AcDbLine
 10
2440.726027470512
 20
114.9873396276827
 30
0.0
 11
2506.726027470512
 21
114.9873396276827
 31
0.0
  0
SOLID
  5
2752C
330
26AE5
100
AcDbEntity
  8
AM_REFDIM
100
AcDbTrace
 10
2440.726027470512
 20
115.4873396276827
 30
0.0
 11
2440.726027470512
 21
114.4873396276827
 31
0.0
 12
2437.726027470512
 22
114.9873396276827
 32
0.0
 13
2437.726027470512
 23
114.9873396276827
 33
0.0
  0
SOLID
  5
2752D
330
26AE5
100
AcDbEntity
  8
AM_REFDIM
100
AcDbTrace
 10
2506.726027470512
 20
115.4873396276827
 30
0.0
 11
2506.726027470512
 21
114.4873396276827
 31
0.0
 12
2509.726027470512
 22
114.9873396276827
 32
0.0
 13
2509.726027470512
 23
114.9873396276827
 33
0.0
  0
MTEXT
  5
2752E
330
26AE5
100
AcDbEntity
  8
AM_REFDIM
100
AcDbMText
 10
2473.726027470512
 20
117.2873396276827
 30
0.0
 40
3.0
 41
0.0
 71
     5
 72
     1
  1
\A1;72
  7
CHINESET
1001
ACAD
1000
MTEXTBEGIN
1070
    73
1070
     1
1070
    44
1040
1.0
1070
    74
1070
     0
1000
MTEXTEND
  0
POINT
  5
2752F
330
26AE5
100
AcDbEntity
  8
DEFPOINTS
 62
     0
100
AcDbPoint
 10
2437.726027470512
 20
109.7409744549699
 30
0.0
  0
POINT
  5
27530
330
26AE5
100
AcDbEntity
  8
DEFPOINTS
 62
     0
100
AcDbPoint
 10
2509.726027470512
 20
86.74097445497
 30
0.0
  0
POINT
  5
27531
330
26AE5
100
AcDbEntity
  8
DEFPOINTS
 62
     0
100
AcDbPoint
 10
2509.726027470512
 20
114.9873396276827
 30
0.0
  0
ENDBLK
  5
26AF0
330
26AE5
100
AcDbEntity
  8
0
 62
     1
100
AcDbBlockEnd
  0
BLOCK
  5
26AFC
330
26AF2
100
AcDbEntity
  8
0
 62
     1
100
AcDbBlockBegin
  2
*D4
 70
     1
 10
0.0
 20
0.0
 30
0.0
  3
*D4
  1

  0
LINE
  5
27532
330
26AF2
100
AcDbEntity
  8
AM_REFDIM
100
AcDbLine
 10
2460.226027470512
 20
81.24097445497
 30
0.0
 11
2460.226027470512
 21
70.47659276015633
 31
0.0
  0
LINE
  5
27533
330
26AF2
100
AcDbEntity
  8
AM_REFDIM
100
AcDbLine
 10
2487.226027470512
 20
76.74097445497
 30
0.0
 11
2487.226027470512
 21
70.47659276015633
 31
0.0
  0
LINE
  5
27534
330
26AF2
100
AcDbEntity
  8
AM_REFDIM
100
AcDbLine
 10
2463.226027470512
 20
72.47659276015633
 30
0.0
 11
2484.226027470512
 21
72.47659276015633
 31
0.0
  0
SOLID
  5
27535
330
26AF2
100
AcDbEntity
  8
AM_REFDIM
100
AcDbTrace
 10
2463.226027470512
 20
72.97659276015633
 30
0.0
 11
2463.226027470512
 21
71.97659276015634
 31
0.0
 12
2460.226027470512
 22
72.47659276015633
 32
0.0
 13
2460.226027470512
 23
72.47659276015633
 33
0.0
  0
SOLID
  5
27536
330
26AF2
100
AcDbEntity
  8
AM_REFDIM
100
AcDbTrace
 10
2484.226027470512
 20
72.97659276015633
 30
0.0
 11
2484.226027470512
 21
71.97659276015634
 31
0.0
 12
2487.226027470512
 22
72.47659276015633
 32
0.0
 13
2487.226027470512
 23
72.47659276015633
 33
0.0
  0
MTEXT
  5
27537
330
26AF2
100
AcDbEntity
  8
AM_REFDIM
100
AcDbMText
 10
2473.726027470512
 20
74.77659276015633
 30
0.0
 40
3.0
 41
0.0
 71
     5
 72
     1
  1
\A1;27
  7
CHINESET
1001
ACAD
1000
MTEXTBEGIN
1070
    73
1070
     1
1070
    44
1040
1.0
1070
    74
1070
     0
1000
MTEXTEND
  0
POINT
  5
27538
330
26AF2
100
AcDbEntity
  8
DEFPOINTS
 62
     0
100
AcDbPoint
 10
2460.226027470512
 20
82.74097445497
 30
0.0
  0
POINT
  5
27539
330
26AF2
100
AcDbEntity
  8
DEFPOINTS
 62
     0
100
AcDbPoint
 10
2487.226027470512
 20
78.24097445497
 30
0.0
  0
POINT
  5
2753A
330
26AF2
100
AcDbEntity
  8
DEFPOINTS
 62
     0
100
AcDbPoint
 10
2487.226027470512
 20
72.47659276015633
 30
0.0
  0
ENDBLK
  5
26AFD
330
26AF2
100
AcDbEntity
  8
0
 62
     1
100
AcDbBlockEnd
  0
BLOCK
  5
26B09
330
26AFF
100
AcDbEntity
  8
0
 62
     1
100
AcDbBlockBegin
  2
*D5
 70
     1
 10
0.0
 20
0.0
 30
0.0
  3
*D5
  1

  0
LINE
  5
2753B
330
26AFF
100
AcDbEntity
  8
AM_REFDIM
100
AcDbLine
 10
2431.026027470512
 20
107.7409744549699
 30
0.0
 11
2347.659489071515
 21
107.74097445497
 31
0.0
  0
LINE
  5
2753C
330
26AFF
100
AcDbEntity
  8
AM_REFDIM
100
AcDbLine
 10
2431.026027470512
 20
77.74097445497
 30
0.0
 11
2347.659489071515
 21
77.74097445497002
 31
0.0
  0
LINE
  5
2753D
330
26AFF
100
AcDbEntity
  8
AM_REFDIM
100
AcDbLine
 10
2349.659489071515
 20
104.74097445497
 30
0.0
 11
2349.659489071515
 21
80.74097445497001
 31
0.0
  0
SOLID
  5
2753E
330
26AFF
100
AcDbEntity
  8
AM_REFDIM
100
AcDbTrace
 10
2349.159489071515
 20
104.74097445497
 30
0.0
 11
2350.159489071514
 21
104.74097445497
 31
0.0
 12
2349.659489071515
 22
107.74097445497
 32
0.0
 13
2349.659489071515
 23
107.74097445497
 33
0.0
  0
SOLID
  5
2753F
330
26AFF
100
AcDbEntity
  8
AM_REFDIM
100
AcDbTrace
 10
2349.159489071515
 20
80.74097445497001
 30
0.0
 11
2350.159489071514
 21
80.74097445497001
 31
0.0
 12
2349.659489071515
 22
77.74097445497002
 32
0.0
 13
2349.659489071515
 23
77.74097445497002
 33
0.0
  0
MTEXT
  5
27540
330
26AFF
100
AcDbEntity
  8
AM_REFDIM
100
AcDbMText
 10
2347.359489071514
 20
92.74097445497039
 30
0.0
 40
3.0
 41
0.0
 71
     5
 72
     1
  1
\A1;30
  7
CHINESET
 11
0.0000000000000001
 21
1.0
 31
0.0
1001
ACAD
1000
MTEXTBEGIN
1070
    73
1070
     1
1070
    44
1040
1.0
1070
    74
1070
     0
1000
MTEXTEND
  0
POINT
  5
27541
330
26AFF
100
AcDbEntity
  8
DEFPOINTS
 62
     0
100
AcDbPoint
 10
2432.526027470512
 20
107.7409744549699
 30
0.0
  0
POINT
  5
27542
330
26AFF
100
AcDbEntity
  8
DEFPOINTS
 62
     0
100
AcDbPoint
 10
2432.526027470512
 20
77.74097445497
 30
0.0
  0
POINT
  5
27543
330
26AFF
100
AcDbEntity
  8
DEFPOINTS
 62
     0
100
AcDbPoint
 10
2349.659489071515
 20
77.74097445497002
 30
0.0
  0
ENDBLK
  5
26B0A
330
26AFF
100
AcDbEntity
  8
0
 62
     1
100
AcDbBlockEnd
  0
BLOCK
  5
26B16
330
26B0C
100
AcDbEntity
  8
0
 62
     1
100
AcDbBlockBegin
  2
*D6
 70
     1
 10
0.0
 20
0.0
 30
0.0
  3
*D6
  1

  0
LINE
  5
27544
330
26B0C
100
AcDbEntity
  8
AM_REFDIM
100
AcDbLine
 10
2356.226027470512
 20
82.14631613364053
 30
0.0
 11
2356.226027470512
 21
59.80270898199319
 31
0.0
  0
LINE
  5
27545
330
26B0C
100
AcDbEntity
  8
AM_REFDIM
100
AcDbLine
 10
2591.226027470512
 20
82.14631613364053
 30
0.0
 11
2591.226027470512
 21
59.80270898199319
 31
0.0
  0
LINE
  5
27546
330
26B0C
100
AcDbEntity
  8
AM_REFDIM
100
AcDbLine
 10
2359.226027470512
 20
61.80270898199319
 30
0.0
 11
2588.226027470512
 21
61.80270898199319
 31
0.0
  0
SOLID
  5
27547
330
26B0C
100
AcDbEntity
  8
AM_REFDIM
100
AcDbTrace
 10
2359.226027470512
 20
62.30270898199319
 30
0.0
 11
2359.226027470512
 21
61.30270898199319
 31
0.0
 12
2356.226027470512
 22
61.80270898199319
 32
0.0
 13
2356.226027470512
 23
61.80270898199319
 33
0.0
  0
SOLID
  5
27548
330
26B0C
100
AcDbEntity
  8
AM_REFDIM
100
AcDbTrace
 10
2588.226027470512
 20
62.30270898199319
 30
0.0
 11
2588.226027470512
 21
61.30270898199319
 31
0.0
 12
2591.226027470512
 22
61.80270898199319
 32
0.0
 13
2591.226027470512
 23
61.80270898199319
 33
0.0
  0
MTEXT
  5
27549
330
26B0C
100
AcDbEntity
  8
AM_REFDIM
100
AcDbMText
 10
2473.726027470512
 20
64.10270898199319
 30
0.0
 40
3.0
 41
0.0
 71
     5
 72
     1
  1
\A1;235
  7
CHINESET
1001
ACAD
1000
MTEXTBEGIN
1070
    73
1070
     1
1070
    44
1040
1.0
1070
    74
1070
     0
1000
MTEXTEND
  0
POINT
  5
2754A
330
26B0C
100
AcDbEntity
  8
DEFPOINTS
 62
     0
100
AcDbPoint
 10
2356.226027470512
 20
83.64631613364053
 30
0.0
  0
POINT
  5
2754B
330
26B0C
100
AcDbEntity
  8
DEFPOINTS
 62
     0
100
AcDbPoint
 10
2591.226027470512
 20
83.64631613364053
 30
0.0
  0
POINT
  5
2754C
330
26B0C
100
AcDbEntity
  8
DEFPOINTS
 62
     0
100
AcDbPoint
 10
2591.226027470512
 20
61.80270898199319
 30
0.0
  0
ENDBLK
  5
26B17
330
26B0C
100
AcDbEntity
  8
0
 62
     1
100
AcDbBlockEnd
  0
BLOCK
  5
26B25
330
26B19
100
AcDbEntity
  8
0
 62
     1
100
AcDbBlockBegin
  2
*D7
 70
     1
 10
0.0
 20
0.0
 30
0.0
  3
*D7
  1

  0
LINE
  5
2754D
330
26B19
100
AcDbEntity
  8
AM_REFDIM
100
AcDbLine
 10
2515.226027470512
 20
16.5768586395061
 30
0.0
 11
2524.307851473562
 21
16.57685863950609
 31
0.0
  0
LINE
  5
2754E
330
26B19
100
AcDbEntity
  8
AM_REFDIM
100
AcDbLine
 10
2515.226027470512
 20
21.0768586395061
 30
0.0
 11
2524.307851473562
 21
21.07685863950609
 31
0.0
  0
LINE
  5
2754F
330
26B19
100
AcDbEntity
  8
AM_REFDIM
100
AcDbLine
 10
2522.307851473561
 20
13.57685863950609
 30
0.0
 11
2522.307851473561
 21
10.57685863950609
 31
0.0
  0
LINE
  5
27550
330
26B19
100
AcDbEntity
  8
AM_REFDIM
100
AcDbLine
 10
2522.307851473561
 20
24.07685863950609
 30
0.0
 11
2522.307851473561
 21
34.96257292522038
 31
0.0
  0
LINE
  5
27551
330
26B19
100
AcDbEntity
  8
AM_REFDIM
100
AcDbLine
 10
2522.307851473561
 20
16.57685863950609
 30
0.0
 11
2522.307851473561
 21
21.07685863950609
 31
0.0
  0
SOLID
  5
27552
330
26B19
100
AcDbEntity
  8
AM_REFDIM
100
AcDbTrace
 10
2521.807851473561
 20
13.57685863950609
 30
0.0
 11
2522.807851473562
 21
13.57685863950609
 31
0.0
 12
2522.307851473561
 22
16.57685863950609
 32
0.0
 13
2522.307851473561
 23
16.57685863950609
 33
0.0
  0
SOLID
  5
27553
330
26B19
100
AcDbEntity
  8
AM_REFDIM
100
AcDbTrace
 10
2521.807851473561
 20
24.07685863950609
 30
0.0
 11
2522.807851473562
 21
24.07685863950609
 31
0.0
 12
2522.307851473561
 22
21.07685863950609
 32
0.0
 13
2522.307851473561
 23
21.07685863950609
 33
0.0
  0
MTEXT
  5
27554
330
26B19
100
AcDbEntity
  8
AM_REFDIM
100
AcDbMText
 10
2520.007851473561
 20
31.01971578236364
 30
0.0
 40
3.0
 41
0.0
 71
     5
 72
     1
  1
\A1;4.5
  7
CHINESET
 11
0.0000000000000001
 21
1.0
 31
0.0
1001
ACAD
1000
MTEXTBEGIN
1070
    73
1070
     1
1070
    44
1040
1.0
1070
    74
1070
     0
1000
MTEXTEND
  0
POINT
  5
27555
330
26B19
100
AcDbEntity
  8
DEFPOINTS
 62
     0
100
AcDbPoint
 10
2513.726027470512
 20
16.5768586395061
 30
0.0
  0
POINT
  5
27556
330
26B19
100
AcDbEntity
  8
DEFPOINTS
 62
     0
100
AcDbPoint
 10
2513.726027470512
 20
21.0768586395061
 30
0.0
  0
POINT
  5
27557
330
26B19
100
AcDbEntity
  8
DEFPOINTS
 62
     0
100
AcDbPoint
 10
2522.307851473561
 20
21.07685863950609
 30
0.0
  0
ENDBLK
  5
26B26
330
26B19
100
AcDbEntity
  8
0
 62
     1
100
AcDbBlockEnd
  0
BLOCK
  5
26B32
330
26B28
100
AcDbEntity
  8
0
 62
     1
100
AcDbBlockBegin
  2
*D8
 70
     1
 10
0.0
 20
0.0
 30
0.0
  3
*D8
  1

  0
LINE
  5
27558
330
26B28
100
AcDbEntity
  8
AM_REFDIM
100
AcDbLine
 10
2431.026027470512
 20
-28.9231413604939
 30
0.0
 11
2398.144576036285
 21
-28.92314136049389
 31
0.0
  0
LINE
  5
27559
330
26B28
100
AcDbEntity
  8
AM_REFDIM
100
AcDbLine
 10
2455.476027470512
 20
-20.12314136049382
 30
0.0
 11
2398.144576036285
 21
-20.12314136049381
 31
0.0
  0
LINE
  5
2755A
330
26B28
100
AcDbEntity
  8
AM_REFDIM
100
AcDbLine
 10
2400.144576036284
 20
-25.92314136049389
 30
0.0
 11
2400.144576036284
 21
-23.12314136049381
 31
0.0
  0
SOLID
  5
2755B
330
26B28
100
AcDbEntity
  8
AM_REFDIM
100
AcDbTrace
 10
2399.644576036285
 20
-25.92314136049389
 30
0.0
 11
2400.644576036285
 21
-25.92314136049389
 31
0.0
 12
2400.144576036284
 22
-28.92314136049389
 32
0.0
 13
2400.144576036284
 23
-28.92314136049389
 33
0.0
  0
SOLID
  5
2755C
330
26B28
100
AcDbEntity
  8
AM_REFDIM
100
AcDbTrace
 10
2399.644576036285
 20
-23.12314136049381
 30
0.0
 11
2400.644576036285
 21
-23.12314136049381
 31
0.0
 12
2400.144576036284
 22
-20.12314136049381
 32
0.0
 13
2400.144576036284
 23
-20.12314136049381
 33
0.0
  0
MTEXT
  5
2755D
330
26B28
100
AcDbEntity
  8
AM_REFDIM
100
AcDbMText
 10
2397.844576036284
 20
-24.52314136049346
 30
0.0
 40
3.0
 41
0.0
 71
     5
 72
     1
  1
\A1;8.8
  7
CHINESET
 11
0.0000000000000001
 21
1.0
 31
0.0
1001
ACAD
1000
MTEXTBEGIN
1070
    73
1070
     1
1070
    44
1040
1.0
1070
    74
1070
     0
1000
MTEXTEND
  0
POINT
  5
2755E
330
26B28
100
AcDbEntity
  8
DEFPOINTS
 62
     0
100
AcDbPoint
 10
2432.526027470512
 20
-28.9231413604939
 30
0.0
  0
POINT
  5
2755F
330
26B28
100
AcDbEntity
  8
DEFPOINTS
 62
     0
100
AcDbPoint
 10
2456.976027470512
 20
-20.12314136049383
 30
0.0
  0
POINT
  5
27560
330
26B28
100
AcDbEntity
  8
DEFPOINTS
 62
     0
100
AcDbPoint
 10
2400.144576036284
 20
-20.12314136049381
 30
0.0
  0
ENDBLK
  5
26B33
330
26B28
100
AcDbEntity
  8
0
 62
     1
100
AcDbBlockEnd
  0
BLOCK
  5
26B3F
330
26B35
100
AcDbEntity
  8
0
 62
     1
100
AcDbBlockBegin
  2
*D9
 70
     1
 10
0.0
 20
0.0
 30
0.0
  3
*D9
  1

  0
LINE
  5
27561
330
26B35
100
AcDbEntity
  8
AM_REFDIM
100
AcDbLine
 10
2459.226027470512
 20
-25.37314136049383
 30
0.0
 11
2459.226027470512
 21
-38.48301543847424
 31
0.0
  0
LINE
  5
27562
330
26B35
100
AcDbEntity
  8
AM_REFDIM
100
AcDbLine
 10
2488.226027470512
 20
-25.37314136049383
 30
0.0
 11
2488.226027470512
 21
-38.48301543847424
 31
0.0
  0
LINE
  5
27563
330
26B35
100
AcDbEntity
  8
AM_REFDIM
100
AcDbLine
 10
2462.226027470512
 20
-36.48301543847423
 30
0.0
 11
2485.226027470512
 21
-36.48301543847423
 31
0.0
  0
SOLID
  5
27564
330
26B35
100
AcDbEntity
  8
AM_REFDIM
100
AcDbTrace
 10
2462.226027470512
 20
-35.98301543847424
 30
0.0
 11
2462.226027470512
 21
-36.98301543847424
 31
0.0
 12
2459.226027470512
 22
-36.48301543847423
 32
0.0
 13
2459.226027470512
 23
-36.48301543847423
 33
0.0
  0
SOLID
  5
27565
330
26B35
100
AcDbEntity
  8
AM_REFDIM
100
AcDbTrace
 10
2485.226027470512
 20
-35.98301543847424
 30
0.0
 11
2485.226027470512
 21
-36.98301543847424
 31
0.0
 12
2488.226027470512
 22
-36.48301543847423
 32
0.0
 13
2488.226027470512
 23
-36.48301543847423
 33
0.0
  0
MTEXT
  5
27566
330
26B35
100
AcDbEntity
  8
AM_REFDIM
100
AcDbMText
 10
2473.726027470512
 20
-34.18301543847424
 30
0.0
 40
3.0
 41
0.0
 71
     5
 72
     1
  1
\A1;29
  7
CHINESET
1001
ACAD
1000
MTEXTBEGIN
1070
    73
1070
     1
1070
    44
1040
1.0
1070
    74
1070
     0
1000
MTEXTEND
  0
POINT
  5
27567
330
26B35
100
AcDbEntity
  8
DEFPOINTS
 62
     0
100
AcDbPoint
 10
2459.226027470512
 20
-23.87314136049383
 30
0.0
  0
POINT
  5
27568
330
26B35
100
AcDbEntity
  8
DEFPOINTS
 62
     0
100
AcDbPoint
 10
2488.226027470512
 20
-23.87314136049383
 30
0.0
  0
POINT
  5
27569
330
26B35
100
AcDbEntity
  8
DEFPOINTS
 62
     0
100
AcDbPoint
 10
2488.226027470512
 20
-36.48301543847423
 30
0.0
  0
ENDBLK
  5
26B40
330
26B35
100
AcDbEntity
  8
0
 62
     1
100
AcDbBlockEnd
  0
BLOCK
  5
26B4C
330
26B42
100
AcDbEntity
  8
0
 62
     1
100
AcDbBlockBegin
  2
*D10
 70
     1
 10
0.0
 20
0.0
 30
0.0
  3
*D10
  1

  0
LINE
  5
2756A
330
26B42
100
AcDbEntity
  8
AM_REFDIM
100
AcDbLine
 10
2444.726027470512
 20
-32.70396426274283
 30
0.0
 11
2444.726027470512
 21
-45.39674924768564
 31
0.0
  0
LINE
  5
2756B
330
26B42
100
AcDbEntity
  8
AM_REFDIM
100
AcDbLine
 10
2502.726027470512
 20
-32.70396426274283
 30
0.0
 11
2502.726027470512
 21
-45.39674924768564
 31
0.0
  0
LINE
  5
2756C
330
26B42
100
AcDbEntity
  8
AM_REFDIM
100
AcDbLine
 10
2447.726027470512
 20
-43.39674924768565
 30
0.0
 11
2499.726027470512
 21
-43.39674924768565
 31
0.0
  0
SOLID
  5
2756D
330
26B42
100
AcDbEntity
  8
AM_REFDIM
100
AcDbTrace
 10
2447.726027470512
 20
-42.89674924768564
 30
0.0
 11
2447.726027470512
 21
-43.89674924768565
 31
0.0
 12
2444.726027470512
 22
-43.39674924768565
 32
0.0
 13
2444.726027470512
 23
-43.39674924768565
 33
0.0
  0
SOLID
  5
2756E
330
26B42
100
AcDbEntity
  8
AM_REFDIM
100
AcDbTrace
 10
2499.726027470512
 20
-42.89674924768564
 30
0.0
 11
2499.726027470512
 21
-43.89674924768565
 31
0.0
 12
2502.726027470512
 22
-43.39674924768565
 32
0.0
 13
2502.726027470512
 23
-43.39674924768565
 33
0.0
  0
MTEXT
  5
2756F
330
26B42
100
AcDbEntity
  8
AM_REFDIM
100
AcDbMText
 10
2473.726027470512
 20
-41.09674924768564
 30
0.0
 40
3.0
 41
0.0
 71
     5
 72
     1
  1
\A1;58
  7
CHINESET
1001
ACAD
1000
MTEXTBEGIN
1070
    73
1070
     1
1070
    44
1040
1.0
1070
    74
1070
     0
1000
MTEXTEND
  0
POINT
  5
27570
330
26B42
100
AcDbEntity
  8
DEFPOINTS
 62
     0
100
AcDbPoint
 10
2444.726027470512
 20
-31.20396426274282
 30
0.0
  0
POINT
  5
27571
330
26B42
100
AcDbEntity
  8
DEFPOINTS
 62
     0
100
AcDbPoint
 10
2502.726027470512
 20
-31.20396426274282
 30
0.0
  0
POINT
  5
27572
330
26B42
100
AcDbEntity
  8
DEFPOINTS
 62
     0
100
AcDbPoint
 10
2502.726027470512
 20
-43.39674924768565
 30
0.0
  0
ENDBLK
  5
26B4D
330
26B42
100
AcDbEntity
  8
0
 62
     1
100
AcDbBlockEnd
  0
BLOCK
  5
26B59
330
26B4F
100
AcDbEntity
  8
0
 62
     1
100
AcDbBlockBegin
  2
*D11
 70
     1
 10
0.0
 20
0.0
 30
0.0
  3
*D11
  1

  0
LINE
  5
27573
330
26B4F
100
AcDbEntity
  8
AM_REFDIM
100
AcDbLine
 10
2516.426027470512
 20
-28.9231413604939
 30
0.0
 11
2590.489194938027
 21
-28.92314136049392
 31
0.0
  0
LINE
  5
27574
330
26B4F
100
AcDbEntity
  8
AM_REFDIM
100
AcDbLine
 10
2516.426027470512
 20
21.0768586395061
 30
0.0
 11
2590.489194938027
 21
21.07685863950607
 31
0.0
  0
LINE
  5
27575
330
26B4F
100
AcDbEntity
  8
AM_REFDIM
100
AcDbLine
 10
2588.489194938027
 20
-25.92314136049392
 30
0.0
 11
2588.489194938027
 21
18.07685863950607
 31
0.0
  0
SOLID
  5
27576
330
26B4F
100
AcDbEntity
  8
AM_REFDIM
100
AcDbTrace
 10
2587.989194938027
 20
-25.92314136049392
 30
0.0
 11
2588.989194938027
 21
-25.92314136049392
 31
0.0
 12
2588.489194938027
 22
-28.92314136049392
 32
0.0
 13
2588.489194938027
 23
-28.92314136049392
 33
0.0
  0
SOLID
  5
27577
330
26B4F
100
AcDbEntity
  8
AM_REFDIM
100
AcDbTrace
 10
2587.989194938027
 20
18.07685863950607
 30
0.0
 11
2588.989194938027
 21
18.07685863950607
 31
0.0
 12
2588.489194938027
 22
21.07685863950607
 32
0.0
 13
2588.489194938027
 23
21.07685863950607
 33
0.0
  0
MTEXT
  5
27578
330
26B4F
100
AcDbEntity
  8
AM_REFDIM
100
AcDbMText
 10
2586.189194938027
 20
-3.923141360493504
 30
0.0
 40
3.0
 41
0.0
 71
     5
 72
     1
  1
\A1;50
  7
CHINESET
 11
0.0000000000000001
 21
1.0
 31
0.0
1001
ACAD
1000
MTEXTBEGIN
1070
    73
1070
     1
1070
    44
1040
1.0
1070
    74
1070
     0
1000
MTEXTEND
  0
POINT
  5
27579
330
26B4F
100
AcDbEntity
  8
DEFPOINTS
 62
     0
100
AcDbPoint
 10
2514.926027470512
 20
-28.9231413604939
 30
0.0
  0
POINT
  5
2757A
330
26B4F
100
AcDbEntity
  8
DEFPOINTS
 62
     0
100
AcDbPoint
 10
2514.926027470512
 20
21.0768586395061
 30
0.0
  0
POINT
  5
2757B
330
26B4F
100
AcDbEntity
  8
DEFPOINTS
 62
     0
100
AcDbPoint
 10
2588.489194938027
 20
21.07685863950607
 30
0.0
  0
ENDBLK
  5
26B5A
330
26B4F
100
AcDbEntity
  8
0
 62
     1
100
AcDbBlockEnd
  0
BLOCK
  5
26B66
330
26B5C
100
AcDbEntity
  8
0
 62
     1
100
AcDbBlockBegin
  2
*D12
 70
     1
 10
0.0
 20
0.0
 30
0.0
  3
*D12
  1

  0
LINE
  5
2757C
330
26B5C
100
AcDbEntity
  8
AM_REFDIM
100
AcDbLine
 10
2516.426027470512
 20
-28.9231413604939
 30
0.0
 11
2602.407349667257
 21
-28.92314136049392
 31
0.0
  0
LINE
  5
2757D
330
26B5C
100
AcDbEntity
  8
AM_REFDIM
100
AcDbLine
 10
2585.726027470512
 20
44.07685863950587
 30
0.0
 11
2602.407349667257
 21
44.07685863950587
 31
0.0
  0
LINE
  5
2757E
330
26B5C
100
AcDbEntity
  8
AM_REFDIM
100
AcDbLine
 10
2600.407349667257
 20
-25.92314136049392
 30
0.0
 11
2600.407349667257
 21
41.07685863950587
 31
0.0
  0
SOLID
  5
2757F
330
26B5C
100
AcDbEntity
  8
AM_REFDIM
100
AcDbTrace
 10
2599.907349667257
 20
-25.92314136049392
 30
0.0
 11
2600.907349667257
 21
-25.92314136049392
 31
0.0
 12
2600.407349667257
 22
-28.92314136049392
 32
0.0
 13
2600.407349667257
 23
-28.92314136049392
 33
0.0
  0
SOLID
  5
27580
330
26B5C
100
AcDbEntity
  8
AM_REFDIM
100
AcDbTrace
 10
2599.907349667257
 20
41.07685863950587
 30
0.0
 11
2600.907349667257
 21
41.07685863950587
 31
0.0
 12
2600.407349667257
 22
44.07685863950587
 32
0.0
 13
2600.407349667257
 23
44.07685863950587
 33
0.0
  0
MTEXT
  5
27581
330
26B5C
100
AcDbEntity
  8
AM_REFDIM
100
AcDbMText
 10
2598.107349667257
 20
7.576858639506391
 30
0.0
 40
3.0
 41
0.0
 71
     5
 72
     1
  1
\A1;73
  7
CHINESET
 11
0.0000000000000001
 21
1.0
 31
0.0
1001
ACAD
1000
MTEXTBEGIN
1070
    73
1070
     1
1070
    44
1040
1.0
1070
    74
1070
     0
1000
MTEXTEND
  0
POINT
  5
27582
330
26B5C
100
AcDbEntity
  8
DEFPOINTS
 62
     0
100
AcDbPoint
 10
2514.926027470512
 20
-28.9231413604939
 30
0.0
  0
POINT
  5
27583
330
26B5C
100
AcDbEntity
  8
DEFPOINTS
 62
     0
100
AcDbPoint
 10
2584.226027470512
 20
44.07685863950587
 30
0.0
  0
POINT
  5
27584
330
26B5C
100
AcDbEntity
  8
DEFPOINTS
 62
     0
100
AcDbPoint
 10
2600.407349667257
 20
44.07685863950587
 30
0.0
  0
ENDBLK
  5
26B67
330
26B5C
100
AcDbEntity
  8
0
 62
     1
100
AcDbBlockEnd
  0
BLOCK
  5
26B73
330
26B69
100
AcDbEntity
  8
0
 62
     1
100
AcDbBlockBegin
  2
*D13
 70
     1
 10
0.0
 20
0.0
 30
0.0
  3
*D13
  1

  0
LINE
  5
27585
330
26B69
100
AcDbEntity
  8
AM_REFDIM
100
AcDbLine
 10
2367.226027470512
 20
-14.92314136049401
 30
0.0
 11
2367.226027470512
 21
-53.59280628123247
 31
0.0
  0
LINE
  5
27586
330
26B69
100
AcDbEntity
  8
AM_REFDIM
100
AcDbLine
 10
2580.226027470512
 20
-14.92314136049401
 30
0.0
 11
2580.226027470512
 21
-53.59280628123247
 31
0.0
  0
LINE
  5
27587
330
26B69
100
AcDbEntity
  8
AM_REFDIM
100
AcDbLine
 10
2370.226027470512
 20
-51.59280628123247
 30
0.0
 11
2577.226027470512
 21
-51.59280628123247
 31
0.0
  0
SOLID
  5
27588
330
26B69
100
AcDbEntity
  8
AM_REFDIM
100
AcDbTrace
 10
2370.226027470512
 20
-51.09280628123247
 30
0.0
 11
2370.226027470512
 21
-52.09280628123247
 31
0.0
 12
2367.226027470512
 22
-51.59280628123247
 32
0.0
 13
2367.226027470512
 23
-51.59280628123247
 33
0.0
  0
SOLID
  5
27589
330
26B69
100
AcDbEntity
  8
AM_REFDIM
100
AcDbTrace
 10
2577.226027470512
 20
-51.09280628123247
 30
0.0
 11
2577.226027470512
 21
-52.09280628123247
 31
0.0
 12
2580.226027470512
 22
-51.59280628123247
 32
0.0
 13
2580.226027470512
 23
-51.59280628123247
 33
0.0
  0
MTEXT
  5
2758A
330
26B69
100
AcDbEntity
  8
AM_REFDIM
100
AcDbMText
 10
2473.726027470512
 20
-49.29280628123247
 30
0.0
 40
3.0
 41
0.0
 71
     5
 72
     1
  1
\A1;213
  7
CHINESET
1001
ACAD
1000
MTEXTBEGIN
1070
    73
1070
     1
1070
    44
1040
1.0
1070
    74
1070
     0
1000
MTEXTEND
  0
POINT
  5
2758B
330
26B69
100
AcDbEntity
  8
DEFPOINTS
 62
     0
100
AcDbPoint
 10
2367.226027470512
 20
-13.42314136049401
 30
0.0
  0
POINT
  5
2758C
330
26B69
100
AcDbEntity
  8
DEFPOINTS
 62
     0
100
AcDbPoint
 10
2580.226027470512
 20
-13.42314136049401
 30
0.0
  0
POINT
  5
2758D
330
26B69
100
AcDbEntity
  8
DEFPOINTS
 62
     0
100
AcDbPoint
 10
2580.226027470512
 20
-51.59280628123247
 30
0.0
  0
ENDBLK
  5
26B74
330
26B69
100
AcDbEntity
  8
0
 62
     1
100
AcDbBlockEnd
  0
BLOCK
  5
28D30
330
28D2B
100
AcDbEntity
  8
0
100
AcDbBlockBegin
  2
*S14
 70
     1
 10
0.0
 20
0.0
 30
0.0
  3
*S14
  1

  0
LINE
  5
28D2C
330
28D2B
100
AcDbEntity
  8
AM_REFDIM
100
AcDbLine
 10
2544.140767427934
 20
66.02430469921319
 30
0.0
 11
2523.026608552708
 21
66.02430469921319
 31
0.0
  0
LINE
  5
28D2D
330
28D2B
100
AcDbEntity
  8
AM_REFDIM
100
AcDbLine
 10
2523.026608552708
 20
66.02430469921319
 30
0.0
 11
2513.933124443969
 21
76.22421340991398
 31
0.0
  0
TRACE
  5
28D2E
330
28D2B
100
AcDbEntity
  8
AM_REFDIM
100
AcDbTrace
 10
2514.375337261364
 20
76.61845764696728
 30
0.0
 11
2513.490911626574
 21
75.82996917286068
 31
0.0
 12
2510.938542145592
 22
79.58315325132947
 32
0.0
 13
2510.938542145592
 23
79.58315325132947
 33
0.0
  0
MTEXT
  5
28D2F
330
28D2B
100
AcDbEntity
  8
AM_REFDIM
 62
     2
100
AcDbMText
 10
2544.140767427934
 20
59.17566603132195
 30
0.0
 40
8.75
 41
0.0
 71
     7
 72
     1
  1

  7
ACISOTS
210
0.0
220
0.0
230
-1.0
  0
ENDBLK
  5
28D31
330
28D2B
100
AcDbEntity
  8
0
100
AcDbBlockEnd
  0
BLOCK
  5
28D39
330
28D34
100
AcDbEntity
  8
0
100
AcDbBlockBegin
  2
*S15
 70
     1
 10
0.0
 20
0.0
 30
0.0
  3
*S15
  1

  0
LINE
  5
28D35
330
28D34
100
AcDbEntity
  8
AM_REFDIM
100
AcDbLine
 10
2427.412396501066
 20
29.61563831944454
 30
0.0
 11
2450.303209022051
 21
29.61563831944454
 31
0.0
  0
LINE
  5
28D36
330
28D34
100
AcDbEntity
  8
AM_REFDIM
100
AcDbLine
 10
2450.303209022051
 20
29.61563831944454
 30
0.0
 11
2457.152788853479
 21
23.58077567861482
 31
0.0
  0
TRACE
  5
28D37
330
28D34
100
AcDbEntity
  8
AM_REFDIM
100
AcDbTrace
 10
2456.761144501225
 20
23.1362586421968
 30
0.0
 11
2457.544433205733
 21
24.02529271503284
 31
0.0
 12
2460.529230976092
 22
20.60594146598333
 32
0.0
 13
2460.529230976092
 23
20.60594146598333
 33
0.0
  0
MTEXT
  5
28D38
330
28D34
100
AcDbEntity
  8
AM_REFDIM
 62
     2
100
AcDbMText
 10
2427.412396501066
 20
22.7669996515533
 30
0.0
 40
8.75
 41
0.0
 71
     7
 72
     1
  1

  7
ACISOTS
 11
-1.0
 21
0.0
 31
0.0
  0
ENDBLK
  5
28D3A
330
28D34
100
AcDbEntity
  8
0
100
AcDbBlockEnd
  0
BLOCK
  5
28D41
330
28D3C
100
AcDbEntity
  8
0
100
AcDbBlockBegin
  2
*S16
 70
     1
 10
0.0
 20
0.0
 30
0.0
  3
*S16
  1

  0
LINE
  5
28D3D
330
28D3C
100
AcDbEntity
  8
AM_REFDIM
100
AcDbLine
 10
2531.967594433228
 20
-43.1001272166095
 30
0.0
 11
2510.853435558002
 21
-43.1001272166095
 31
0.0
  0
LINE
  5
28D3E
330
28D3C
100
AcDbEntity
  8
AM_REFDIM
100
AcDbLine
 10
2510.853435558002
 20
-43.1001272166095
 30
0.0
 11
2493.082230626406
 21
-24.80126283137963
 31
0.0
  0
TRACE
  5
28D3F
330
28D3C
100
AcDbEntity
  8
AM_REFDIM
100
AcDbTrace
 10
2493.507229040391
 20
-24.38851951837733
 30
0.0
 11
2492.65723221242
 21
-25.21400614438193
 31
0.0
 12
2489.947133895181
 22
-21.57307936604456
 32
0.0
 13
2489.947133895181
 23
-21.57307936604456
 33
0.0
  0
MTEXT
  5
28D40
330
28D3C
100
AcDbEntity
  8
AM_REFDIM
 62
     2
100
AcDbMText
 10
2531.967594433228
 20
-49.94876588450074
 30
0.0
 40
8.75
 41
0.0
 71
     7
 72
     1
  1

  7
ACISOTS
210
0.0
220
0.0
230
-1.0
  0
ENDBLK
  5
28D42
330
28D3C
100
AcDbEntity
  8
0
100
AcDbBlockEnd
  0
ENDSEC
  0
SECTION
  2
ENTITIES
  0
TEXT
  5
18C6F
330
1F
100
AcDbEntity
  8
LOGO
  6
CONTINUOUS
 62
     6
100
AcDbText
 10
1607.053940236462
 20
18.56092768566134
 30
0.0
 40
2.164502164502164
  1

  7
CHINESET
 72
     4
 11
1607.053940236462
 21
18.56092768566134
 31
0.0
100
AcDbText
  0
LINE
  5
18C70
330
1F
100
AcDbEntity
  8
AM_7
 60
     1
100
AcDbLine
 10
1703.42710757797
 20
494.4380328974459
 30
0.0
 11
1667.027107577969
 21
494.4380328974459
 31
0.0
  0
LINE
  5
18C71
330
1F
100
AcDbEntity
  8
AM_7
 60
     1
100
AcDbLine
 10
1598.77373621326
 20
494.4380328974459
 30
0.0
 11
1601.77373621326
 21
494.4380328974459
 31
0.0
  0
LINE
  5
18C72
330
1F
100
AcDbEntity
  8
AM_7
 60
     1
100
AcDbLine
 10
1600.27373621326
 20
492.9380328974458
 30
0.0
 11
1600.27373621326
 21
495.9380328974458
 31
0.0
  0
LINE
  5
18C73
330
1F
100
AcDbEntity
  8
AM_7
 60
     1
100
AcDbLine
 10
1591.27373621326
 20
494.4380328974459
 30
0.0
 11
1597.77373621326
 21
494.4380328974459
 31
0.0
  0
LINE
  5
18C74
330
1F
100
AcDbEntity
  8
AM_7
 60
     1
100
AcDbLine
 10
1602.77373621326
 20
494.4380328974459
 30
0.0
 11
1609.27373621326
 21
494.4380328974459
 31
0.0
  0
LINE
  5
18C75
330
1F
100
AcDbEntity
  8
AM_7
 60
     1
100
AcDbLine
 10
1600.27373621326
 20
485.4380328974458
 30
0.0
 11
1600.27373621326
 21
491.9380328974458
 31
0.0
  0
LINE
  5
18C76
330
1F
100
AcDbEntity
  8
AM_7
 60
     1
100
AcDbLine
 10
1600.27373621326
 20
496.9380328974458
 30
0.0
 11
1600.27373621326
 21
503.4380328974458
 31
0.0
  0
LINE
  5
18C77
330
1F
100
AcDbEntity
  8
AM_7
 60
     1
100
AcDbLine
 10
1590.52373621326
 20
486.1880328974458
 30
0.0
 11
1593.52373621326
 21
486.1880328974458
 31
0.0
  0
LINE
  5
18C78
330
1F
100
AcDbEntity
  8
AM_7
 60
     1
100
AcDbLine
 10
1592.02373621326
 20
484.6880328974458
 30
0.0
 11
1592.02373621326
 21
487.6880328974458
 31
0.0
  0
LINE
  5
18C79
330
1F
100
AcDbEntity
  8
AM_7
 60
     1
100
AcDbLine
 10
1588.25843621326
 20
486.1880328974458
 30
0.0
 11
1589.52373621326
 21
486.1880328974458
 31
0.0
  0
LINE
  5
18C7A
330
1F
100
AcDbEntity
  8
AM_7
 60
     1
100
AcDbLine
 10
1594.52373621326
 20
486.1880328974458
 30
0.0
 11
1595.78903621326
 21
486.1880328974458
 31
0.0
  0
LINE
  5
18C7B
330
1F
100
AcDbEntity
  8
AM_7
 60
     1
100
AcDbLine
 10
1592.02373621326
 20
482.4227328974457
 30
0.0
 11
1592.02373621326
 21
483.6880328974458
 31
0.0
  0
LINE
  5
18C7C
330
1F
100
AcDbEntity
  8
AM_7
 60
     1
100
AcDbLine
 10
1592.02373621326
 20
488.6880328974458
 30
0.0
 11
1592.02373621326
 21
489.9533328974459
 31
0.0
  0
LINE
  5
18C7D
330
1F
100
AcDbEntity
  8
AM_7
 60
     1
100
AcDbLine
 10
1607.02373621326
 20
486.1880328974458
 30
0.0
 11
1610.02373621326
 21
486.1880328974458
 31
0.0
  0
LINE
  5
18C7E
330
1F
100
AcDbEntity
  8
AM_7
 60
     1
100
AcDbLine
 10
1608.52373621326
 20
484.6880328974458
 30
0.0
 11
1608.52373621326
 21
487.6880328974458
 31
0.0
  0
LINE
  5
18C7F
330
1F
100
AcDbEntity
  8
AM_7
 60
     1
100
AcDbLine
 10
1604.75843621326
 20
486.1880328974458
 30
0.0
 11
1606.02373621326
 21
486.1880328974458
 31
0.0
  0
LINE
  5
18C80
330
1F
100
AcDbEntity
  8
AM_7
 60
     1
100
AcDbLine
 10
1611.02373621326
 20
486.1880328974458
 30
0.0
 11
1612.28903621326
 21
486.1880328974458
 31
0.0
  0
LINE
  5
18C81
330
1F
100
AcDbEntity
  8
AM_7
 60
     1
100
AcDbLine
 10
1608.52373621326
 20
482.4227328974457
 30
0.0
 11
1608.52373621326
 21
483.6880328974458
 31
0.0
  0
LINE
  5
18C82
330
1F
100
AcDbEntity
  8
AM_7
 60
     1
100
AcDbLine
 10
1608.52373621326
 20
488.6880328974458
 30
0.0
 11
1608.52373621326
 21
489.9533328974459
 31
0.0
  0
LINE
  5
18C83
330
1F
100
AcDbEntity
  8
AM_7
 60
     1
100
AcDbLine
 10
1607.02373621326
 20
502.6880328974458
 30
0.0
 11
1610.02373621326
 21
502.6880328974458
 31
0.0
  0
LINE
  5
18C84
330
1F
100
AcDbEntity
  8
AM_7
 60
     1
100
AcDbLine
 10
1608.52373621326
 20
501.1880328974458
 30
0.0
 11
1608.52373621326
 21
504.1880328974458
 31
0.0
  0
LINE
  5
18C85
330
1F
100
AcDbEntity
  8
AM_7
 60
     1
100
AcDbLine
 10
1604.75843621326
 20
502.6880328974458
 30
0.0
 11
1606.02373621326
 21
502.6880328974458
 31
0.0
  0
LINE
  5
18C86
330
1F
100
AcDbEntity
  8
AM_7
 60
     1
100
AcDbLine
 10
1611.02373621326
 20
502.6880328974458
 30
0.0
 11
1612.28903621326
 21
502.6880328974458
 31
0.0
  0
LINE
  5
18C87
330
1F
100
AcDbEntity
  8
AM_7
 60
     1
100
AcDbLine
 10
1608.52373621326
 20
498.9227328974457
 30
0.0
 11
1608.52373621326
 21
500.1880328974458
 31
0.0
  0
LINE
  5
18C88
330
1F
100
AcDbEntity
  8
AM_7
 60
     1
100
AcDbLine
 10
1608.52373621326
 20
505.1880328974458
 30
0.0
 11
1608.52373621326
 21
506.4533328974459
 31
0.0
  0
LINE
  5
18C89
330
1F
100
AcDbEntity
  8
AM_7
 60
     1
100
AcDbLine
 10
1590.52373621326
 20
502.6880328974458
 30
0.0
 11
1593.52373621326
 21
502.6880328974458
 31
0.0
  0
LINE
  5
18C8A
330
1F
100
AcDbEntity
  8
AM_7
 60
     1
100
AcDbLine
 10
1592.02373621326
 20
501.1880328974458
 30
0.0
 11
1592.02373621326
 21
504.1880328974458
 31
0.0
  0
LINE
  5
18C8B
330
1F
100
AcDbEntity
  8
AM_7
 60
     1
100
AcDbLine
 10
1588.25843621326
 20
502.6880328974458
 30
0.0
 11
1589.52373621326
 21
502.6880328974458
 31
0.0
  0
LINE
  5
18C8C
330
1F
100
AcDbEntity
  8
AM_7
 60
     1
100
AcDbLine
 10
1594.52373621326
 20
502.6880328974458
 30
0.0
 11
1595.78903621326
 21
502.6880328974458
 31
0.0
  0
LINE
  5
18C8D
330
1F
100
AcDbEntity
  8
AM_7
 60
     1
100
AcDbLine
 10
1592.02373621326
 20
498.9227328974457
 30
0.0
 11
1592.02373621326
 21
500.1880328974458
 31
0.0
  0
LINE
  5
18C8E
330
1F
100
AcDbEntity
  8
AM_7
 60
     1
100
AcDbLine
 10
1592.02373621326
 20
505.1880328974458
 30
0.0
 11
1592.02373621326
 21
506.4533328974459
 31
0.0
  0
TEXT
  5
21EA2
330
1F
100
AcDbEntity
  8
LOGO
 62
     6
100
AcDbText
 10
2354.421989000843
 20
131.05622422939
 30
0.0
 40
10.0
  1
MVSE-500-4E2
  7
CHINESET
100
AcDbText
  0
LINE
  5
24CA0
330
1F
100
AcDbEntity
  8
LOGO
 62
     6
100
AcDbLine
 10
2339.943991146557
 20
149.2902707207101
 30
0.0
 11
2339.943991146557
 21
-63.22913679938051
 31
0.0
  0
LINE
  5
264F8
330
1F
100
AcDbEntity
  8
AM_7
100
AcDbLine
 10
2595.09442120868
 20
92.74097445497
 30
0.0
 11
2352.160392957503
 21
92.74097445497
 31
0.0
  0
LINE
  5
264F9
330
1F
100
AcDbEntity
  8
AM_VIS
100
AcDbLine
 10
2542.726027470512
 20
81.74097445497
 30
0.0
 11
2572.226027470512
 21
81.74097445497
 31
0.0
  0
LINE
  5
264FA
330
1F
100
AcDbEntity
  8
AM_VIS
100
AcDbLine
 10
2542.726027470512
 20
103.7409744549699
 30
0.0
 11
2572.226027470512
 21
103.7409744549699
 31
0.0
  0
ARC
  5
264FB
330
1F
100
AcDbEntity
  8
AM_VIS
100
AcDbCircle
 10
2546.726027470512
 20
85.74097445497011
 30
0.0
 40
3.5
100
AcDbArc
 50
180.0
 51
270.0
  0
ARC
  5
264FC
330
1F
100
AcDbEntity
  8
AM_VIS
100
AcDbCircle
 10
2546.726027470512
 20
99.74097445497012
 30
0.0
 40
3.5
100
AcDbArc
 50
90.0
 51
180.0
  0
ARC
  5
264FD
330
1F
100
AcDbEntity
  8
AM_VIS
100
AcDbCircle
 10
2546.726027470512
 20
38.57685863950587
 30
0.0
 40
3.5
100
AcDbArc
 50
90.0
 51
180.0
  0
LINE
  5
264FE
330
1F
100
AcDbEntity
  8
AM_VIS
100
AcDbLine
 10
2542.726027470512
 20
-14.9231413604939
 30
0.0
 11
2572.226027470512
 21
-14.9231413604939
 31
0.0
  0
LINE
  5
264FF
330
1F
100
AcDbEntity
  8
AM_VIS
100
AcDbLine
 10
2542.726027470512
 20
13.57685863950609
 30
0.0
 11
2572.226027470512
 21
13.57685863950609
 31
0.0
  0
CIRCLE
  5
26500
330
1F
100
AcDbEntity
  8
AM_VIS
100
AcDbCircle
 10
2531.926027470512
 20
92.74097445497
 30
0.0
 40
3.5
  0
CIRCLE
  5
26501
330
1F
100
AcDbEntity
  8
AM_VIS
100
AcDbCircle
 10
2531.926027470512
 20
92.74097445497
 30
0.0
 40
3.449999999999999
  0
LINE
  5
26502
330
1F
100
AcDbEntity
  8
AM_7
100
AcDbLine
 10
2487.226027470512
 20
90.49097445497
 30
0.0
 11
2487.226027470512
 21
102.74097445497
 31
0.0
1001
GENIUS_GENOREF_13
1005
0
  0
ARC
  5
26503
330
1F
100
AcDbEntity
  8
AM_VIS
100
AcDbCircle
 10
2486.326027470512
 20
94.29097445496996
 30
0.0
 40
4.499999999999992
100
AcDbArc
 50
0.0
 51
180.0
  0
CIRCLE
  5
26504
330
1F
100
AcDbEntity
  8
AM_VIS
100
AcDbCircle
 10
2487.226027470512
 20
90.49097445497
 30
0.0
 40
8.8
  0
LINE
  5
26505
330
1F
100
AcDbEntity
  8
AM_VIS
100
AcDbLine
 10
2465.626027470512
 20
98.19097445497005
 30
0.0
 11
2465.626027470512
 21
91.19097445497004
 31
0.0
  0
LINE
  5
26506
330
1F
100
AcDbEntity
  8
AM_VIS
100
AcDbLine
 10
2456.626027470512
 20
91.19097445497004
 30
0.0
 11
2456.626027470512
 21
98.19097445497005
 31
0.0
  0
CIRCLE
  5
26507
330
1F
100
AcDbEntity
  8
AM_VIS
100
AcDbCircle
 10
2460.226027470512
 20
94.99097445497
 30
0.0
 40
8.8
  0
CIRCLE
  5
26508
330
1F
100
AcDbEntity
  8
AM_VIS
100
AcDbCircle
 10
2487.226027470512
 20
90.49097445497
 30
0.0
 40
10.74999999999999
  0
LINE
  5
26509
330
1F
100
AcDbEntity
  8
AM_VIS
100
AcDbLine
 10
2430.726027470512
 20
106.7409744549699
 30
0.0
 11
2430.726027470512
 21
78.74097445497
 31
0.0
  0
LINE
  5
2650A
330
1F
100
AcDbEntity
  8
AM_VIS
100
AcDbLine
 10
2430.726027470512
 20
107.7409744549699
 30
0.0
 11
2430.726027470512
 21
77.74097445497
 31
0.0
  0
LINE
  5
2650B
330
1F
100
AcDbEntity
  8
AM_VIS
100
AcDbLine
 10
2432.526027470512
 20
77.74097445497
 30
0.0
 11
2432.526027470512
 21
107.7409744549699
 31
0.0
  0
CIRCLE
  5
2650C
330
1F
100
AcDbEntity
  8
AM_VIS
100
AcDbCircle
 10
2460.226027470512
 20
94.99097445497
 30
0.0
 40
10.74999999999999
  0
LINE
  5
2650D
330
1F
100
AcDbEntity
  8
AM_7
100
AcDbLine
 10
2460.226027470512
 20
94.99097445497
 30
0.0
 11
2460.226027470512
 21
107.24097445497
 31
0.0
1001
GENIUS_GENOREF_13
1005
0
  0
LINE
  5
2650E
330
1F
100
AcDbEntity
  8
AM_VIS
100
AcDbLine
 10
2516.726027470512
 20
77.74097445497
 30
0.0
 11
2516.726027470512
 21
107.7409744549699
 31
0.0
  0
LINE
  5
2650F
330
1F
100
AcDbEntity
  8
AM_VIS
100
AcDbLine
 10
2516.726027470512
 20
77.74097445497
 30
0.0
 11
2516.726027470512
 21
107.7409744549699
 31
0.0
  0
LINE
  5
26510
330
1F
100
AcDbEntity
  8
AM_VIS
100
AcDbLine
 10
2514.926027470512
 20
107.7409744549699
 30
0.0
 11
2514.926027470512
 21
77.74097445497
 31
0.0
  0
LINE
  5
26511
330
1F
100
AcDbEntity
  8
AM_VIS
100
AcDbLine
 10
2542.726027470512
 20
78.64097445496998
 30
0.0
 11
2542.726027470512
 21
106.84097445497
 31
0.0
  0
LINE
  5
26512
330
1F
100
AcDbEntity
  8
AM_VIS
100
AcDbLine
 10
2540.726027470512
 20
78.64097445496998
 30
0.0
 11
2540.726027470512
 21
106.84097445497
 31
0.0
  0
LINE
  5
26515
330
1F
100
AcDbEntity
  8
AM_7
100
AcDbLine
 10
2487.226027470512
 20
90.49097445497
 30
0.0
 11
2474.976027470512
 21
90.49097445497
 31
0.0
1001
GENIUS_GENOREF_13
1005
0
  0
LINE
  5
26516
330
1F
100
AcDbEntity
  8
AM_VIS
100
AcDbLine
 10
2432.526027470512
 20
77.74097445497
 30
0.0
 11
2505.726027470512
 21
77.74097445497
 31
0.0
  0
LINE
  5
26517
330
1F
100
AcDbEntity
  8
AM_VIS
100
AcDbLine
 10
2432.526027470512
 20
21.0768586395061
 30
0.0
 11
2505.726027470512
 21
21.0768586395061
 31
0.0
  0
LINE
  5
26518
330
1F
100
AcDbEntity
  8
AM_VIS
100
AcDbLine
 10
2432.526027470512
 20
-28.9231413604939
 30
0.0
 11
2514.926027470512
 21
-28.9231413604939
 31
0.0
  0
LINE
  5
2651A
330
1F
100
AcDbEntity
  8
AM_VIS
100
AcDbLine
 10
2430.726027470512
 20
18.27685863950614
 30
0.0
 11
2430.726027470512
 21
-26.12314136049383
 31
0.0
  0
LINE
  5
2651B
330
1F
100
AcDbEntity
  8
AM_VIS
100
AcDbLine
 10
2430.726027470512
 20
19.27685863950614
 30
0.0
 11
2430.726027470512
 21
-27.12314136049383
 31
0.0
  0
LINE
  5
2651D
330
1F
100
AcDbEntity
  8
AM_VIS
100
AcDbLine
 10
2432.526027470512
 20
-28.92314136049378
 30
0.0
 11
2430.726027470512
 21
-27.12314136049383
 31
0.0
  0
LINE
  5
2651E
330
1F
100
AcDbEntity
  8
AM_7
  6
AM_ISO08W050X2
100
AcDbLine
 10
2459.226027470512
 20
-20.12314136049383
 30
0.0
 11
2462.976027470512
 21
-20.12314136049383
 31
0.0
1001
GENIUS_GENOREF_13
1005
0
  0
CIRCLE
  5
2651F
330
1F
100
AcDbEntity
  8
AM_VIS
100
AcDbCircle
 10
2459.226027470512
 20
-20.12314136049383
 30
0.0
 40
2.25
  0
LINE
  5
26520
330
1F
100
AcDbEntity
  8
AM_7
  6
AM_ISO08W050X2
100
AcDbLine
 10
2459.226027470512
 20
-20.12314136049383
 30
0.0
 11
2455.476027470512
 21
-20.12314136049383
 31
0.0
1001
GENIUS_GENOREF_13
1005
0
  0
LINE
  5
26521
330
1F
100
AcDbEntity
  8
AM_7
  6
AM_ISO08W050X2
100
AcDbLine
 10
2459.226027470512
 20
-20.12314136049383
 30
0.0
 11
2459.226027470512
 21
-23.87314136049383
 31
0.0
1001
GENIUS_GENOREF_13
1005
0
  0
LINE
  5
26522
330
1F
100
AcDbEntity
  8
AM_7
  6
AM_ISO08W050X2
100
AcDbLine
 10
2459.226027470512
 20
-20.12314136049383
 30
0.0
 11
2459.226027470512
 21
-16.37314136049383
 31
0.0
1001
GENIUS_GENOREF_13
1005
0
  0
LINE
  5
26523
330
1F
100
AcDbEntity
  8
AM_VIS
100
AcDbLine
 10
2430.726027470512
 20
19.27685863950614
 30
0.0
 11
2432.526027470512
 21
21.0768586395061
 31
0.0
  0
LINE
  5
26524
330
1F
100
AcDbEntity
  8
AM_VIS
100
AcDbLine
 10
2430.726027470512
 20
77.74097445497
 30
0.0
 11
2432.526027470512
 21
77.74097445497
 31
0.0
  0
LINE
  5
26525
330
1F
100
AcDbEntity
  8
AM_7
100
AcDbLine
 10
2460.226027470512
 20
94.99097445497
 30
0.0
 11
2472.476027470512
 21
94.99097445497
 31
0.0
1001
GENIUS_GENOREF_13
1005
0
  0
ARC
  5
26526
330
1F
100
AcDbEntity
  8
AM_VIS
100
AcDbCircle
 10
2461.126027470512
 20
91.19097445497004
 30
0.0
 40
4.5
100
AcDbArc
 50
180.0
 51
0.0
  0
LINE
  5
26527
330
1F
100
AcDbEntity
  8
AM_7
100
AcDbLine
 10
2460.226027470512
 20
94.99097445497
 30
0.0
 11
2447.976027470512
 21
94.99097445497
 31
0.0
1001
GENIUS_GENOREF_13
1005
0
  0
LINE
  5
26528
330
1F
100
AcDbEntity
  8
AM_7
100
AcDbLine
 10
2460.226027470512
 20
94.99097445497
 30
0.0
 11
2460.226027470512
 21
82.74097445497
 31
0.0
1001
GENIUS_GENOREF_13
1005
0
  0
LINE
  5
26529
330
1F
100
AcDbEntity
  8
AM_VIS
100
AcDbLine
 10
2516.726027470512
 20
-27.12314136049383
 30
0.0
 11
2516.726027470512
 21
19.27685863950614
 31
0.0
  0
LINE
  5
2652A
330
1F
100
AcDbEntity
  8
AM_VIS
100
AcDbLine
 10
2516.726027470512
 20
-27.12314136049383
 30
0.0
 11
2516.726027470512
 21
19.27685863950614
 31
0.0
  0
LINE
  5
2652B
330
1F
100
AcDbEntity
  8
AM_VIS
100
AcDbLine
 10
2542.726027470512
 20
-26.22314136049385
 30
0.0
 11
2542.726027470512
 21
18.37685863950616
 31
0.0
  0
LINE
  5
2652C
330
1F
100
AcDbEntity
  8
AM_VIS
100
AcDbLine
 10
2540.726027470512
 20
-26.22314136049385
 30
0.0
 11
2540.726027470512
 21
18.37685863950616
 31
0.0
  0
LINE
  5
2652E
330
1F
100
AcDbEntity
  8
AM_7
  6
AM_ISO08W050X2
100
AcDbLine
 10
2488.226027470512
 20
-20.12314136049383
 30
0.0
 11
2484.476027470512
 21
-20.12314136049383
 31
0.0
1001
GENIUS_GENOREF_13
1005
0
  0
LINE
  5
2652F
330
1F
100
AcDbEntity
  8
AM_7
  6
AM_ISO08W050X2
100
AcDbLine
 10
2488.226027470512
 20
-20.12314136049383
 30
0.0
 11
2491.976027470512
 21
-20.12314136049383
 31
0.0
1001
GENIUS_GENOREF_13
1005
0
  0
CIRCLE
  5
26530
330
1F
100
AcDbEntity
  8
AM_VIS
100
AcDbCircle
 10
2488.226027470512
 20
-20.12314136049383
 30
0.0
 40
2.25
  0
LINE
  5
26531
330
1F
100
AcDbEntity
  8
AM_7
  6
AM_ISO08W050X2
100
AcDbLine
 10
2488.226027470512
 20
-20.12314136049383
 30
0.0
 11
2488.226027470512
 21
-23.87314136049383
 31
0.0
1001
GENIUS_GENOREF_13
1005
0
  0
LINE
  5
26532
330
1F
100
AcDbEntity
  8
AM_7
  6
AM_ISO08W050X2
100
AcDbLine
 10
2488.226027470512
 20
-20.12314136049383
 30
0.0
 11
2488.226027470512
 21
-16.37314136049383
 31
0.0
1001
GENIUS_GENOREF_13
1005
0
  0
LINE
  5
26533
330
1F
100
AcDbEntity
  8
AM_VIS
100
AcDbLine
 10
2516.726027470512
 20
-27.12314136049383
 30
0.0
 11
2540.726027470512
 21
-26.70421980221658
 31
0.0
  0
LINE
  5
26534
330
1F
100
AcDbEntity
  8
AM_VIS
100
AcDbLine
 10
2516.726027470512
 20
-27.12314136049394
 30
0.0
 11
2514.926027470512
 21
-28.9231413604939
 31
0.0
  0
LINE
  5
26535
330
1F
100
AcDbEntity
  8
AM_VIS
100
AcDbLine
 10
2540.726027470512
 20
-26.70421980221658
 30
0.0
 11
2540.726027470512
 21
-26.35938941702875
 31
0.0
  0
LINE
  5
26536
330
1F
100
AcDbEntity
  8
AM_VIS
100
AcDbLine
 10
2540.726027470512
 20
-26.72314136049385
 30
0.0
 11
2542.726027470512
 21
-26.72314136049385
 31
0.0
  0
LINE
  5
26537
330
1F
100
AcDbEntity
  8
AM_VIS
100
AcDbLine
 10
2542.726027470512
 20
-26.22314136049385
 30
0.0
 11
2542.726027470512
 21
-26.72314136049385
 31
0.0
  0
LINE
  5
26538
330
1F
100
AcDbEntity
  8
AM_VIS
100
AcDbLine
 10
2540.726027470512
 20
-26.35938941702875
 30
0.0
 11
2540.726027470512
 21
-26.22314136049385
 31
0.0
  0
LINE
  5
26539
330
1F
100
AcDbEntity
  8
AM_VIS
100
AcDbLine
 10
2540.726027470512
 20
-26.72314136049385
 30
0.0
 11
2540.726027470512
 21
-26.70421980221658
 31
0.0
  0
LINE
  5
2653A
330
1F
100
AcDbEntity
  8
AM_VIS
100
AcDbLine
 10
2540.640639551207
 20
-25.46028905246203
 30
0.0
 11
2540.726027470512
 21
-25.45799395814651
 31
0.0
  0
LINE
  5
2653B
330
1F
100
AcDbEntity
  8
AM_VIS
100
AcDbLine
 10
2540.726027470512
 20
-25.46028905246203
 30
0.0
 11
2540.640639551207
 21
-25.46028905246203
 31
0.0
  0
LINE
  5
2653C
330
1F
100
AcDbEntity
  8
AM_VIS
100
AcDbLine
 10
2540.726027470512
 20
-25.46125696309741
 30
0.0
 11
2540.640639551207
 21
-25.46028905246203
 31
0.0
  0
LINE
  5
2653D
330
1F
100
AcDbEntity
  8
AM_7
  6
AM_ISO08W050X2
100
AcDbLine
 10
2509.726027470512
 20
81.24097445497
 30
0.0
 11
2515.226027470512
 21
81.24097445497
 31
0.0
1001
GENIUS_GENOREF_13
1005
0
  0
LINE
  5
2653E
330
1F
100
AcDbEntity
  8
AM_VIS
100
AcDbLine
 10
2513.726027470512
 20
77.74097445497
 30
0.0
 11
2505.726027470512
 21
77.74097445497
 31
0.0
  0
ARC
  5
2653F
330
1F
100
AcDbEntity
  8
AM_VIS
100
AcDbCircle
 10
2509.726027470512
 20
81.24097445497
 30
0.0
 40
4.0
100
AcDbArc
 50
0.0
 51
180.0
  0
CIRCLE
  5
26540
330
1F
100
AcDbEntity
  8
AM_VIS
100
AcDbCircle
 10
2509.726027470512
 20
81.24097445497
 30
0.0
 40
2.25
  0
LINE
  5
26541
330
1F
100
AcDbEntity
  8
AM_VIS
100
AcDbLine
 10
2513.726027470512
 20
16.5768586395061
 30
0.0
 11
2505.726027470512
 21
16.5768586395061
 31
0.0
  0
LINE
  5
26542
330
1F
100
AcDbEntity
  8
AM_VIS
100
AcDbLine
 10
2505.726027470512
 20
21.0768586395061
 30
0.0
 11
2513.726027470512
 21
21.0768586395061
 31
0.0
  0
LINE
  5
26543
330
1F
100
AcDbEntity
  8
AM_VIS
100
AcDbLine
 10
2505.726027470512
 20
16.5768586395061
 30
0.0
 11
2505.726027470512
 21
21.0768586395061
 31
0.0
  0
LINE
  5
26544
330
1F
100
AcDbEntity
  8
AM_7
100
AcDbLine
 10
2487.226027470512
 20
90.49097445497
 30
0.0
 11
2499.476027470512
 21
90.49097445497
 31
0.0
1001
GENIUS_GENOREF_13
1005
0
  0
ARC
  5
26545
330
1F
100
AcDbEntity
  8
AM_VIS
100
AcDbCircle
 10
2486.326027470512
 20
87.29097445496995
 30
0.0
 40
4.5
100
AcDbArc
 50
180.0
 51
0.0
  0
LINE
  5
26546
330
1F
100
AcDbEntity
  8
AM_VIS
100
AcDbLine
 10
2481.826027470512
 20
87.29097445496995
 30
0.0
 11
2481.826027470512
 21
94.29097445496996
 31
0.0
  0
LINE
  5
26547
330
1F
100
AcDbEntity
  8
AM_7
100
AcDbLine
 10
2487.226027470512
 20
90.49097445497
 30
0.0
 11
2487.226027470512
 21
78.24097445497
 31
0.0
1001
GENIUS_GENOREF_13
1005
0
  0
LINE
  5
26548
330
1F
100
AcDbEntity
  8
AM_VIS
100
AcDbLine
 10
2490.826027470512
 20
94.29097445496996
 30
0.0
 11
2490.826027470512
 21
87.29097445496995
 31
0.0
  0
LINE
  5
26549
330
1F
100
AcDbEntity
  8
AM_7
  6
AM_ISO08W050X2
100
AcDbLine
 10
2509.726027470512
 20
81.24097445497
 30
0.0
 11
2509.726027470512
 21
86.74097445497
 31
0.0
1001
GENIUS_GENOREF_13
1005
0
  0
LINE
  5
2654A
330
1F
100
AcDbEntity
  8
AM_7
  6
AM_ISO08W050X2
100
AcDbLine
 10
2509.726027470512
 20
81.24097445497
 30
0.0
 11
2504.226027470512
 21
81.24097445497
 31
0.0
1001
GENIUS_GENOREF_13
1005
0
  0
LINE
  5
2654B
330
1F
100
AcDbEntity
  8
AM_VIS
100
AcDbLine
 10
2505.726027470512
 20
77.74097445497
 30
0.0
 11
2505.726027470512
 21
81.24097445497
 31
0.0
  0
LINE
  5
2654C
330
1F
100
AcDbEntity
  8
AM_7
  6
AM_ISO08W050X2
100
AcDbLine
 10
2509.726027470512
 20
81.24097445497
 30
0.0
 11
2509.726027470512
 21
75.74097445497
 31
0.0
1001
GENIUS_GENOREF_13
1005
0
  0
LINE
  5
2654D
330
1F
100
AcDbEntity
  8
AM_VIS
100
AcDbLine
 10
2516.726027470512
 20
19.27685863950614
 30
0.0
 11
2540.726027470512
 21
18.85793708122901
 31
0.0
  0
LINE
  5
2654E
330
1F
100
AcDbEntity
  8
AM_VIS
100
AcDbLine
 10
2513.726027470512
 20
21.0768586395061
 30
0.0
 11
2514.926027470512
 21
21.0768586395061
 31
0.0
  0
LINE
  5
2654F
330
1F
100
AcDbEntity
  8
AM_VIS
100
AcDbLine
 10
2513.726027470512
 20
21.0768586395061
 30
0.0
 11
2513.726027470512
 21
16.5768586395061
 31
0.0
  0
LINE
  5
26550
330
1F
100
AcDbEntity
  8
AM_VIS
100
AcDbLine
 10
2514.926027470512
 20
21.0768586395061
 30
0.0
 11
2516.726027470512
 21
19.27685863950614
 31
0.0
  0
LINE
  5
26551
330
1F
100
AcDbEntity
  8
AM_VIS
100
AcDbLine
 10
2528.476027470512
 20
19.5768586395061
 30
0.0
 11
2535.376027470512
 21
19.5768586395061
 31
0.0
  0
LINE
  5
26552
330
1F
100
AcDbEntity
  8
AM_VIS
100
AcDbLine
 10
2528.476027470512
 20
19.5768586395061
 30
0.0
 11
2528.476027470512
 21
19.07176162659959
 31
0.0
  0
LINE
  5
26553
330
1F
100
AcDbEntity
  8
AM_VIS
100
AcDbLine
 10
2535.376027470512
 20
19.5768586395061
 30
0.0
 11
2535.376027470512
 21
18.95132167859492
 31
0.0
  0
LINE
  5
26554
330
1F
100
AcDbEntity
  8
AM_VIS
100
AcDbLine
 10
2540.726027470512
 20
18.51310669604117
 30
0.0
 11
2540.726027470512
 21
18.85793708122889
 31
0.0
  0
LINE
  5
26555
330
1F
100
AcDbEntity
  8
AM_VIS
100
AcDbLine
 10
2540.640639551208
 20
17.61400633147434
 30
0.0
 11
2540.726027470512
 21
17.61497424210972
 31
0.0
  0
LINE
  5
26556
330
1F
100
AcDbEntity
  8
AM_VIS
100
AcDbLine
 10
2540.726027470512
 20
17.61400633147434
 30
0.0
 11
2540.640639551208
 21
17.61400633147434
 31
0.0
  0
LINE
  5
26557
330
1F
100
AcDbEntity
  8
AM_VIS
100
AcDbLine
 10
2540.726027470512
 20
17.61171123715894
 30
0.0
 11
2540.640639551208
 21
17.61400633147445
 31
0.0
  0
LINE
  5
26558
330
1F
100
AcDbEntity
  8
AM_VIS
100
AcDbLine
 10
2542.726027470512
 20
18.87685863950616
 30
0.0
 11
2540.726027470512
 21
18.87685863950616
 31
0.0
  0
LINE
  5
26559
330
1F
100
AcDbEntity
  8
AM_VIS
100
AcDbLine
 10
2542.726027470512
 20
18.87685863950616
 30
0.0
 11
2542.726027470512
 21
18.37685863950616
 31
0.0
  0
LINE
  5
2655A
330
1F
100
AcDbEntity
  8
AM_VIS
100
AcDbLine
 10
2540.726027470512
 20
18.85793708122889
 30
0.0
 11
2540.726027470512
 21
18.87685863950616
 31
0.0
  0
LINE
  5
2655B
330
1F
100
AcDbEntity
  8
AM_VIS
100
AcDbLine
 10
2540.726027470512
 20
18.37685863950616
 30
0.0
 11
2540.726027470512
 21
18.51310669604117
 31
0.0
  0
LINE
  5
2655C
330
1F
100
AcDbEntity
  8
AM_VIS
100
AcDbLine
 10
2516.726027470512
 20
77.74097445497
 30
0.0
 11
2540.726027470512
 21
78.15989601324725
 31
0.0
  0
LINE
  5
2655D
330
1F
100
AcDbEntity
  8
AM_VIS
100
AcDbLine
 10
2513.726027470512
 20
77.74097445497
 30
0.0
 11
2514.926027470512
 21
77.74097445497
 31
0.0
  0
LINE
  5
2655E
330
1F
100
AcDbEntity
  8
AM_VIS
100
AcDbLine
 10
2513.726027470512
 20
81.24097445497
 30
0.0
 11
2513.726027470512
 21
77.74097445497
 31
0.0
  0
LINE
  5
2655F
330
1F
100
AcDbEntity
  8
AM_VIS
100
AcDbLine
 10
2514.926027470512
 20
77.74097445497
 30
0.0
 11
2516.726027470512
 21
77.74097445497
 31
0.0
  0
LINE
  5
26560
330
1F
100
AcDbEntity
  8
AM_VIS
100
AcDbLine
 10
2534.426027470512
 20
92.24097445496999
 30
0.0
 11
2529.426027470512
 21
92.24097445496999
 31
0.0
  0
LINE
  5
26561
330
1F
100
AcDbEntity
  8
AM_VIS
100
AcDbLine
 10
2529.426027470512
 20
93.24097445497001
 30
0.0
 11
2534.426027470512
 21
93.24097445497001
 31
0.0
  0
LINE
  5
26562
330
1F
100
AcDbEntity
  8
AM_VIS
100
AcDbLine
 10
2529.426027470512
 20
92.24097445496999
 30
0.0
 11
2529.426027470512
 21
93.24097445497001
 31
0.0
  0
LINE
  5
26563
330
1F
100
AcDbEntity
  8
AM_VIS
100
AcDbLine
 10
2534.303526156106
 20
90.24097445497
 30
0.0
 11
2534.375517213295
 21
90.24097445497
 31
0.0
  0
LINE
  5
26564
330
1F
100
AcDbEntity
  8
AM_VIS
100
AcDbLine
 10
2534.426027470512
 20
93.24097445497001
 30
0.0
 11
2534.426027470512
 21
92.24097445496999
 31
0.0
  0
LINE
  5
26565
330
1F
100
AcDbEntity
  8
AM_VIS
100
AcDbLine
 10
2540.726027470512
 20
78.15989601324725
 30
0.0
 11
2540.726027470512
 21
78.50472639843474
 31
0.0
  0
LINE
  5
26566
330
1F
100
AcDbEntity
  8
AM_VIS
100
AcDbLine
 10
2540.726027470512
 20
78.15840556157173
 30
0.0
 11
2540.640639551208
 21
78.15840556157173
 31
0.0
  0
LINE
  5
26567
330
1F
100
AcDbEntity
  8
AM_VIS
100
AcDbLine
 10
2540.726027470512
 20
78.14097445496997
 30
0.0
 11
2542.726027470512
 21
78.14097445496997
 31
0.0
  0
LINE
  5
26568
330
1F
100
AcDbEntity
  8
AM_VIS
100
AcDbLine
 10
2542.726027470512
 20
78.64097445496998
 30
0.0
 11
2542.726027470512
 21
78.14097445496997
 31
0.0
  0
LINE
  5
26569
330
1F
100
AcDbEntity
  8
AM_VIS
100
AcDbLine
 10
2540.726027470512
 20
78.50472639843474
 30
0.0
 11
2540.726027470512
 21
78.64097445497009
 31
0.0
  0
LINE
  5
2656A
330
1F
100
AcDbEntity
  8
AM_VIS
100
AcDbLine
 10
2540.726027470512
 20
78.14097445496997
 30
0.0
 11
2540.726027470512
 21
78.15989601324725
 31
0.0
  0
LINE
  5
2656B
330
1F
100
AcDbEntity
  8
AM_VIS
100
AcDbLine
 10
2441.726027470512
 20
107.7409744549699
 30
0.0
 11
2514.926027470512
 21
107.7409744549699
 31
0.0
  0
LINE
  5
2656C
330
1F
100
AcDbEntity
  8
AM_VIS
100
AcDbLine
 10
2433.726027470512
 20
107.7409744549699
 30
0.0
 11
2441.726027470512
 21
107.7409744549699
 31
0.0
  0
LINE
  5
2656D
330
1F
100
AcDbEntity
  8
AM_7
  6
AM_ISO08W050X2
100
AcDbLine
 10
2437.726027470512
 20
104.24097445497
 30
0.0
 11
2432.226027470512
 21
104.24097445497
 31
0.0
1001
GENIUS_GENOREF_13
1005
0
  0
ARC
  5
2656E
330
1F
100
AcDbEntity
  8
AM_VIS
100
AcDbCircle
 10
2437.726027470512
 20
104.24097445497
 30
0.0
 40
4.0
100
AcDbArc
 50
180.0
 51
0.0
  0
CIRCLE
  5
2656F
330
1F
100
AcDbEntity
  8
AM_VIS
100
AcDbCircle
 10
2437.726027470512
 20
104.24097445497
 30
0.0
 40
2.25
  0
LINE
  5
26570
330
1F
100
AcDbEntity
  8
AM_VIS
100
AcDbLine
 10
2433.726027470512
 20
104.24097445497
 30
0.0
 11
2433.726027470512
 21
107.7409744549697
 31
0.0
  0
LINE
  5
26571
330
1F
100
AcDbEntity
  8
AM_VIS
100
AcDbLine
 10
2432.526027470512
 20
107.7409744549699
 30
0.0
 11
2430.726027470512
 21
107.7409744549699
 31
0.0
  0
LINE
  5
26572
330
1F
100
AcDbEntity
  8
AM_VIS
100
AcDbLine
 10
2432.526027470512
 20
107.7409744549699
 30
0.0
 11
2433.726027470512
 21
107.7409744549699
 31
0.0
  0
LINE
  5
26573
330
1F
100
AcDbEntity
  8
AM_7
  6
AM_ISO08W050X2
100
AcDbLine
 10
2437.726027470512
 20
104.24097445497
 30
0.0
 11
2437.726027470512
 21
109.7409744549699
 31
0.0
1001
GENIUS_GENOREF_13
1005
0
  0
LINE
  5
26574
330
1F
100
AcDbEntity
  8
AM_VIS
100
AcDbLine
 10
2441.726027470512
 20
107.7409744549697
 30
0.0
 11
2441.726027470512
 21
104.24097445497
 31
0.0
  0
LINE
  5
26575
330
1F
100
AcDbEntity
  8
AM_7
  6
AM_ISO08W050X2
100
AcDbLine
 10
2437.726027470512
 20
104.24097445497
 30
0.0
 11
2443.226027470512
 21
104.24097445497
 31
0.0
1001
GENIUS_GENOREF_13
1005
0
  0
LINE
  5
26576
330
1F
100
AcDbEntity
  8
AM_7
  6
AM_ISO08W050X2
100
AcDbLine
 10
2437.726027470512
 20
104.24097445497
 30
0.0
 11
2437.726027470512
 21
98.74097445497
 31
0.0
1001
GENIUS_GENOREF_13
1005
0
  0
ARC
  5
26577
330
1F
100
AcDbEntity
  8
AM_VIS
100
AcDbCircle
 10
2461.126027470512
 20
98.19097445497005
 30
0.0
 40
4.5
100
AcDbArc
 50
0.0
 51
180.0
  0
LINE
  5
26578
330
1F
100
AcDbEntity
  8
AM_VIS
100
AcDbLine
 10
2516.726027470512
 20
107.7409744549699
 30
0.0
 11
2540.726027470512
 21
107.3220528966927
 31
0.0
  0
LINE
  5
26579
330
1F
100
AcDbEntity
  8
AM_VIS
100
AcDbLine
 10
2516.726027470512
 20
107.7409744549699
 30
0.0
 11
2514.926027470512
 21
107.7409744549699
 31
0.0
  0
LINE
  5
2657A
330
1F
100
AcDbEntity
  8
AM_VIS
100
AcDbLine
 10
2534.514040815011
 20
95.02235275080193
 30
0.0
 11
2534.580328333509
 21
95.02235275080193
 31
0.0
  0
LINE
  5
2657B
330
1F
100
AcDbEntity
  8
AM_VIS
100
AcDbLine
 10
2534.375517213295
 20
95.24097445497
 30
0.0
 11
2534.303526156106
 21
95.24097445497
 31
0.0
  0
LINE
  5
2657C
330
1F
100
AcDbEntity
  8
AM_VIS
100
AcDbLine
 10
2540.726027470512
 20
106.9772225115052
 30
0.0
 11
2540.726027470512
 21
107.3220528966928
 31
0.0
  0
LINE
  5
2657D
330
1F
100
AcDbEntity
  8
AM_VIS
100
AcDbLine
 10
2542.726027470512
 20
107.34097445497
 30
0.0
 11
2540.726027470512
 21
107.34097445497
 31
0.0
  0
LINE
  5
2657E
330
1F
100
AcDbEntity
  8
AM_VIS
100
AcDbLine
 10
2542.726027470512
 20
107.34097445497
 30
0.0
 11
2542.726027470512
 21
106.84097445497
 31
0.0
  0
LINE
  5
2657F
330
1F
100
AcDbEntity
  8
AM_VIS
100
AcDbLine
 10
2540.726027470512
 20
107.3220528966927
 30
0.0
 11
2540.726027470512
 21
107.34097445497
 31
0.0
  0
LINE
  5
26580
330
1F
100
AcDbEntity
  8
AM_VIS
100
AcDbLine
 10
2540.726027470512
 20
106.84097445497
 30
0.0
 11
2540.726027470512
 21
106.9772225115052
 31
0.0
  0
LINE
  5
26581
330
1F
100
AcDbEntity
  8
AM_VIS
100
AcDbLine
 10
2591.226027470512
 20
95.88637904073607
 30
0.0
 11
2591.226027470512
 21
93.06196975554234
 31
0.0
  0
LINE
  5
26582
330
1F
100
AcDbEntity
  8
AM_VIS
100
AcDbLine
 10
2585.726027470512
 20
95.88637904073607
 30
0.0
 11
2585.726027470512
 21
93.06196975554234
 31
0.0
  0
LINE
  5
26583
330
1F
100
AcDbEntity
  8
AM_VIS
100
AcDbLine
 10
2584.226027470512
 20
101.7409744549701
 30
0.0
 11
2584.226027470512
 21
83.74097445497012
 31
0.0
  0
SPLINE
  5
26584
330
1F
100
AcDbEntity
  8
AM_VIS
100
AcDbSpline
210
0.0
220
0.0
230
1.0
 70
    12
 71
     2
 72
     6
 73
     3
 74
     0
 42
0.0000000001
 43
0.0000000001
 40
3.381727793507036
 40
3.381727793507036
 40
3.381727793507036
 40
6.763455587014078
 40
6.763455587014078
 40
6.763455587014078
 10
2567.226027470512
 20
92.74097445497011
 30
0.0
 41
1.0
 10
2567.226027470512
 20
94.16002294960902
 30
0.0
 41
1.021203771466384
 10
2568.726027470512
 20
95.7007041723598
 30
0.0
 41
1.0
  0
LINE
  5
26585
330
1F
100
AcDbEntity
  8
AM_VIS
100
AcDbLine
 10
2572.226027470512
 20
83.74097445497012
 30
0.0
 11
2572.226027470512
 21
101.7409744549701
 31
0.0
  0
LINE
  5
26586
330
1F
100
AcDbEntity
  8
AM_VIS
100
AcDbLine
 10
2543.226027470512
 20
99.74097445497012
 30
0.0
 11
2543.226027470512
 21
85.74097445497011
 31
0.0
  0
INSERT
  5
26587
330
1F
100
AcDbEntity
  8
0
100
AcDbBlockReference
  2
A$C75484636
 10
2554.976027716068
 20
89.99097424850402
 30
0.0
  0
CIRCLE
  5
26588
330
1F
100
AcDbEntity
  8
AM_VIS
100
AcDbCircle
 10
2557.726027470512
 20
92.74097445497011
 30
0.0
 40
3.5
  0
LINE
  5
26589
330
1F
100
AcDbEntity
  8
AM_VIS
100
AcDbLine
 10
2543.226027470512
 20
38.57685863950587
 30
0.0
 11
2543.226027470512
 21
13.57685863950587
 31
0.0
  0
LINE
  5
2658A
330
1F
100
AcDbEntity
  8
AM_VIS
100
AcDbLine
 10
2572.226027470512
 20
13.57685863950587
 30
0.0
 11
2572.226027470512
 21
29.42000439001356
 31
0.0
  0
LINE
  5
2658B
330
1F
100
AcDbEntity
  8
AM_VIS
100
AcDbLine
 10
2577.076027470512
 20
-13.76109453081846
 30
0.0
 11
2574.226027470512
 21
-13.76109453081846
 31
0.0
  0
LINE
  5
2658C
330
1F
100
AcDbEntity
  8
AM_VIS
100
AcDbLine
 10
2574.226027470512
 20
-10.39486005685102
 30
0.0
 11
2577.076027470512
 21
-10.39486005685102
 31
0.0
  0
LINE
  5
2658D
330
1F
100
AcDbEntity
  8
AM_VIS
100
AcDbLine
 10
2574.226027470512
 20
5.914811809830439
 30
0.0
 11
2577.076027470512
 21
5.914811809830439
 31
0.0
  0
LINE
  5
2658E
330
1F
100
AcDbEntity
  8
AM_VIS
100
AcDbLine
 10
2574.226027470512
 20
-0.5569068865265763
 30
0.0
 11
2577.076027470512
 21
-0.5569068865265763
 31
0.0
  0
LINE
  5
2658F
330
1F
100
AcDbEntity
  8
AM_VIS
100
AcDbLine
 10
2577.076027470512
 20
2.548577335862887
 30
0.0
 11
2574.226027470512
 21
2.548577335862887
 31
0.0
  0
LINE
  5
26590
330
1F
100
AcDbEntity
  8
AM_VIS
100
AcDbLine
 10
2577.076027470512
 20
-7.289375834461566
 30
0.0
 11
2574.226027470512
 21
-7.289375834461566
 31
0.0
  0
LINE
  5
26591
330
1F
100
AcDbEntity
  8
AM_VIS
100
AcDbLine
 10
2574.226027470512
 20
-13.92314136049401
 30
0.0
 11
2577.076027470512
 21
-13.92314136049401
 31
0.0
  0
LINE
  5
26592
330
1F
100
AcDbEntity
  8
AM_VIS
100
AcDbLine
 10
2574.226027470512
 20
6.076858639505985
 30
0.0
 11
2577.076027470512
 21
6.076858639505985
 31
0.0
  0
LINE
  5
26593
330
1F
100
AcDbEntity
  8
AM_VIS
100
AcDbLine
 10
2572.226027470512
 20
-10.9231413604939
 30
0.0
 11
2572.226027470512
 21
13.57685863950609
 31
0.0
  0
ARC
  5
26594
330
1F
100
AcDbEntity
  8
AM_VIS
100
AcDbCircle
 10
2633.401832301722
 20
-3.923141360494355
 30
0.0
 40
59.27135386821789
100
AcDbArc
 50
176.7442201741542
 51
183.2557798258458
  0
LINE
  5
26595
330
1F
100
AcDbEntity
  8
AM_VIS
100
AcDbLine
 10
2572.726027470512
 20
-3.923141360494014
 30
0.0
 11
2572.726027470512
 21
-13.92314136049401
 31
0.0
  0
LINE
  5
26596
330
1F
100
AcDbEntity
  8
AM_VIS
100
AcDbLine
 10
2573.226027470512
 20
-11.42314136049401
 30
0.0
 11
2573.226027470512
 21
-3.923141360494014
 31
0.0
  0
LINE
  5
26597
330
1F
100
AcDbEntity
  8
AM_VIS
100
AcDbLine
 10
2574.026027470512
 20
-11.42314136049401
 30
0.0
 11
2574.026027470512
 21
-3.923141360494014
 31
0.0
  0
LINE
  5
26598
330
1F
100
AcDbEntity
  8
AM_VIS
100
AcDbLine
 10
2572.226027470512
 20
-10.9231413604939
 30
0.0
 11
2572.226027470512
 21
-14.9231413604939
 31
0.0
  0
SPLINE
  5
26599
330
1F
100
AcDbEntity
  8
AM_VIS
100
AcDbSpline
210
0.0
220
0.0
230
1.0
 70
     8
 71
     3
 72
    14
 73
    10
 74
     0
 42
0.0000000001
 43
0.0000000001
 40
13.28006742556181
 40
13.28006742556181
 40
13.28006742556181
 40
13.28006742556181
 40
14.27448381305596
 40
14.27448381305596
 40
16.65382904986482
 40
16.65382904986482
 40
19.03317428667365
 40
19.03317428667365
 40
20.0275906741677
 40
20.0275906741677
 40
20.0275906741677
 40
20.0275906741677
 10
2574.226027470512
 20
-13.76109453081846
 30
0.0
 10
2574.208281495393
 20
-13.49617254072848
 30
0.0
 10
2574.19250590169
 20
-13.24336621027157
 30
0.0
 10
2574.147297089779
 20
-12.43259840334178
 30
0.0
 10
2574.130027470512
 20
-11.94072245326515
 30
0.0
 10
2574.130027470512
 20
-11.14760737432891
 30
0.0
 10
2574.147297089779
 20
-10.83021798377262
 30
0.0
 10
2574.19250590169
 20
-10.52299245907477
 30
0.0
 10
2574.208281495393
 20
-10.44983033563073
 30
0.0
 10
2574.226027470512
 20
-10.39486005685102
 30
0.0
  0
LINE
  5
2659A
330
1F
100
AcDbEntity
  8
AM_VIS
100
AcDbLine
 10
2572.226027470512
 20
-13.92314136049401
 30
0.0
 11
2572.726027470512
 21
-13.92314136049401
 31
0.0
  0
LINE
  5
2659B
330
1F
100
AcDbEntity
  8
AM_VIS
100
AcDbLine
 10
2573.226027470512
 20
-11.42314136049401
 30
0.0
 11
2574.026027470512
 21
-11.42314136049401
 31
0.0
  0
LINE
  5
2659C
330
1F
100
AcDbEntity
  8
AM_VIS
100
AcDbLine
 10
2573.226027470512
 20
-11.42314136049401
 30
0.0
 11
2572.726027470512
 21
-13.92314136049401
 31
0.0
  0
LINE
  5
2659D
330
1F
100
AcDbEntity
  8
AM_VIS
100
AcDbLine
 10
2574.026027470512
 20
-11.42314136049401
 30
0.0
 11
2574.226027470512
 21
-13.92314136049401
 31
0.0
  0
LINE
  5
2659E
330
1F
100
AcDbEntity
  8
AM_VIS
100
AcDbLine
 10
2574.226027470512
 20
-13.92314136049401
 30
0.0
 11
2574.226027470512
 21
-13.76109453081846
 31
0.0
  0
LINE
  5
2659F
330
1F
100
AcDbEntity
  8
AM_VIS
100
AcDbLine
 10
2574.226027470512
 20
-10.39486005685102
 30
0.0
 11
2574.226027470512
 21
-7.289375834461679
 31
0.0
  0
SPLINE
  5
265A0
330
1F
100
AcDbEntity
  8
AM_VIS
100
AcDbSpline
210
0.0
220
0.0
230
1.0
 70
     8
 71
     3
 72
    14
 73
    10
 74
     0
 42
0.0000000001
 43
0.0000000001
 40
13.2800674255618
 40
13.2800674255618
 40
13.2800674255618
 40
13.2800674255618
 40
14.27448381305591
 40
14.27448381305591
 40
16.65382904986476
 40
16.65382904986476
 40
19.03317428667361
 40
19.03317428667361
 40
20.02759067416769
 40
20.02759067416769
 40
20.02759067416769
 40
20.02759067416769
 10
2574.226027470512
 20
2.548577335862887
 30
0.0
 10
2574.208281495393
 20
2.603547614642593
 30
0.0
 10
2574.19250590169
 20
2.676709738086628
 30
0.0
 10
2574.147297089779
 20
2.983935262784598
 30
0.0
 10
2574.130027470512
 20
3.301324653340884
 30
0.0
 10
2574.130027470512
 20
4.094439732277123
 30
0.0
 10
2574.147297089779
 20
4.586315682353756
 30
0.0
 10
2574.19250590169
 20
5.397083489283545
 30
0.0
 10
2574.208281495393
 20
5.649889819740337
 30
0.0
 10
2574.226027470512
 20
5.914811809830439
 30
0.0
  0
LINE
  5
265A1
330
1F
100
AcDbEntity
  8
AM_VIS
100
AcDbLine
 10
2573.226027470512
 20
3.576858639505985
 30
0.0
 11
2572.726027470512
 21
6.076858639505985
 31
0.0
  0
LINE
  5
265A2
330
1F
100
AcDbEntity
  8
AM_VIS
100
AcDbLine
 10
2574.026027470512
 20
3.576858639505985
 30
0.0
 11
2574.226027470512
 21
6.076858639505985
 31
0.0
  0
LINE
  5
265A3
330
1F
100
AcDbEntity
  8
AM_VIS
100
AcDbLine
 10
2572.726027470512
 20
6.076858639505985
 30
0.0
 11
2572.726027470512
 21
-3.923141360494014
 31
0.0
  0
LINE
  5
265A4
330
1F
100
AcDbEntity
  8
AM_VIS
100
AcDbLine
 10
2573.226027470512
 20
3.576858639505985
 30
0.0
 11
2574.026027470512
 21
3.576858639505985
 31
0.0
  0
LINE
  5
265A5
330
1F
100
AcDbEntity
  8
AM_VIS
100
AcDbLine
 10
2573.226027470512
 20
-3.923141360494014
 30
0.0
 11
2573.226027470512
 21
3.576858639505985
 31
0.0
  0
LINE
  5
265A6
330
1F
100
AcDbEntity
  8
AM_VIS
100
AcDbLine
 10
2574.026027470512
 20
-3.923141360494014
 30
0.0
 11
2574.026027470512
 21
3.576858639505985
 31
0.0
  0
LINE
  5
265A7
330
1F
100
AcDbEntity
  8
AM_VIS
100
AcDbLine
 10
2574.226027470512
 20
-0.5569068865265763
 30
0.0
 11
2574.226027470512
 21
2.548577335862773
 31
0.0
  0
LINE
  5
265A8
330
1F
100
AcDbEntity
  8
AM_VIS
100
AcDbLine
 10
2572.226027470512
 20
6.076858639505985
 30
0.0
 11
2572.726027470512
 21
6.076858639505985
 31
0.0
  0
LINE
  5
265A9
330
1F
100
AcDbEntity
  8
AM_VIS
100
AcDbLine
 10
2574.226027470512
 20
5.914811809830439
 30
0.0
 11
2574.226027470512
 21
6.076858639505985
 31
0.0
  0
LINE
  5
265AA
330
1F
100
AcDbEntity
  8
AM_VIS
100
AcDbLine
 10
2580.226027470512
 20
-1.368244102285871
 30
0.0
 11
2580.226027470512
 21
-6.478038618702385
 31
0.0
  0
LINE
  5
265AB
330
1F
100
AcDbEntity
  8
AM_VIS
100
AcDbLine
 10
2577.076027470512
 20
-7.289375834461566
 30
0.0
 11
2577.076027470512
 21
-0.5569068865263489
 31
0.0
  0
LINE
  5
265AC
330
1F
100
AcDbEntity
  8
AM_VIS
100
AcDbLine
 10
2578.576027470512
 20
-0.5569068865265763
 30
0.0
 11
2578.576027470512
 21
-7.289375834461679
 31
0.0
  0
LINE
  5
265AD
330
1F
100
AcDbEntity
  8
AM_VIS
100
AcDbLine
 10
2579.726027470512
 20
-7.289375834461566
 30
0.0
 11
2578.576027470512
 21
-7.289375834461566
 31
0.0
  0
LINE
  5
265AE
330
1F
100
AcDbEntity
  8
AM_VIS
100
AcDbLine
 10
2579.726027470512
 20
-13.76109453081846
 30
0.0
 11
2578.576027470512
 21
-13.76109453081846
 31
0.0
  0
LINE
  5
265AF
330
1F
100
AcDbEntity
  8
AM_VIS
100
AcDbLine
 10
2578.576027470512
 20
-10.39486005685102
 30
0.0
 11
2579.726027470512
 21
-10.39486005685102
 31
0.0
  0
LINE
  5
265B0
330
1F
100
AcDbEntity
  8
AM_VIS
100
AcDbLine
 10
2578.576027470512
 20
-13.92314136049401
 30
0.0
 11
2579.726027470512
 21
-13.92314136049401
 31
0.0
  0
ARC
  5
265B1
330
1F
100
AcDbEntity
  8
AM_VIS
100
AcDbCircle
 10
2577.825989045993
 20
-10.85416929068469
 30
0.0
 40
0.6998062945020467
100
AcDbArc
 50
44.42169926757007
 51
135.5738984971954
  0
SPLINE
  5
265B2
330
1F
100
AcDbEntity
  8
AM_VIS
100
AcDbSpline
210
0.0
220
0.0
230
1.0
 70
    11
 71
     3
 72
    58
 73
    54
 74
     0
 42
0.0000000001
 43
0.0000000001
 40
-3.310941722020734
 40
-3.310941722020734
 40
-3.310941722020734
 40
-3.310941722020734
 40
-3.295630163505362
 40
-3.295630163505362
 40
-3.25888521683784
 40
-3.25888521683784
 40
-3.197166102513703
 40
-3.197166102513703
 40
-3.038165220175974
 40
-3.038165220175974
 40
-2.856291614867816
 40
-2.856291614867816
 40
-2.666842086896373
 40
-2.666842086896373
 40
-2.492578752008394
 40
-2.492578752008394
 40
-2.312125783734214
 40
-2.312125783734214
 40
-2.13451249378157
 40
-2.13451249378157
 40
-1.991913706757117
 40
-1.991913706757117
 40
-1.842368186774402
 40
-1.842368186774402
 40
-1.791323432477104
 40
-1.791323432477104
 40
-1.757111173270509
 40
-1.757111173270509
 40
-1.723565230364853
 40
-1.723565230364853
 40
-1.676146471114944
 40
-1.676146471114944
 40
-1.5592641658533
 40
-1.5592641658533
 40
-1.304423753588805
 40
-1.304423753588805
 40
-1.102534997063944
 40
-1.102534997063944
 40
-0.9616332280833521
 40
-0.9616332280833521
 40
-0.8335600122414829
 40
-0.8335600122414829
 40
-0.6887403587885041
 40
-0.6887403587885041
 40
-0.4760113448049901
 40
-0.4760113448049901
 40
-0.2570316117964575
 40
-0.2570316117964575
 40
-0.0905362468527244
 40
-0.0905362468527244
 40
-0.0354113089023832
 40
-0.0354113089023832
 40
0.0
 40
0.0
 40
0.0
 40
0.0
 10
2578.326027470512
 20
-10.04574391812843
 30
0.0
 10
2578.326027470512
 20
-10.04732872368799
 30
0.0
 10
2578.325956870648
 20
-10.04884723652526
 30
0.0
 10
2578.32547059989
 20
-10.0537788599704
 30
0.0
 10
2578.324712121793
 20
-10.05685266807722
 30
0.0
 10
2578.321518763801
 20
-10.06397788890308
 30
0.0
 10
2578.318315559525
 20
-10.06723051174992
 30
0.0
 10
2578.302375349018
 20
-10.07476284318363
 30
0.0
 10
2578.283027956572
 20
-10.07231313956037
 30
0.0
 10
2578.226453340031
 20
-10.05831719429079
 30
0.0
 10
2578.186739903926
 20
-10.04553975588817
 30
0.0
 10
2578.088330180556
 20
-10.01965230900941
 30
0.0
 10
2578.030517046748
 20
-10.00711772480372
 30
0.0
 10
2577.910520572861
 20
-9.992162450968748
 30
0.0
 10
2577.850537998064
 20
-9.989152474069214
 30
0.0
 10
2577.728357617047
 20
-9.992966530737021
 30
0.0
 10
2577.668317156449
 20
-10.000081598125
 30
0.0
 10
2577.55840758966
 20
-10.02052377395489
 30
0.0
 10
2577.509282257917
 20
-10.03360175360899
 30
0.0
 10
2577.434472598785
 20
-10.05500587214544
 30
0.0
 10
2577.406057878846
 20
-10.06371944608827
 30
0.0
 10
2577.360071281989
 20
-10.0735625654363
 30
0.0
 10
2577.343551983322
 20
-10.07406636313237
 30
0.0
 10
2577.331267784988
 20
-10.0646309979794
 30
0.0
 10
2577.3290498428
 20
-10.06139877265798
 30
0.0
 10
2577.326769275501
 20
-10.05460202426002
 30
0.0
 10
2577.326242628735
 20
-10.05151413678299
 30
0.0
 10
2577.325922861354
 20
-10.04471732101444
 30
0.0
 10
2577.326116194619
 20
-10.04103201177054
 30
0.0
 10
2577.327373304256
 20
-10.03142713601766
 30
0.0
 10
2577.328761886197
 20
-10.02522747397961
 30
0.0
 10
2577.335600081684
 20
-10.00208679272088
 30
0.0
 10
2577.344019556837
 20
-9.982688745871769
 30
0.0
 10
2577.379372945512
 20
-9.916834150230329
 30
0.0
 10
2577.417953290511
 20
-9.86266129769956
 30
0.0
 10
2577.508087626925
 20
-9.773160025549486
 30
0.0
 10
2577.556591804932
 20
-9.734900139853607
 30
0.0
 10
2577.652455510672
 20
-9.684919920630932
 30
0.0
 10
2577.695710798533
 20
-9.668715087509099
 30
0.0
 10
2577.784298179814
 20
-9.651286490926736
 30
0.0
 10
2577.827290365485
 20
-9.649200398801099
 30
0.0
 10
2577.918995723423
 20
-9.658675992284315
 30
0.0
 10
2577.96488656532
 20
-9.671746791430336
 30
0.0
 10
2578.069316536899
 20
-9.717375855582645
 30
0.0
 10
2578.12260545057
 20
-9.755620885684834
 30
0.0
 10
2578.211264814356
 20
-9.837463038236819
 30
0.0
 10
2578.247986444836
 20
-9.883076129365804
 30
0.0
 10
2578.295199998237
 20
-9.95623394420204
 30
0.0
 10
2578.310621573033
 20
-9.986620630211291
 30
0.0
 10
2578.321771285163
 20
-10.01941384169731
 30
0.0
 10
2578.32377321705
 20
-10.02694699433391
 30
0.0
 10
2578.32565007879
 20
-10.03805995959703
 30
0.0
 10
2578.326027470512
 20
-10.04207871062078
 30
0.0
 10
2578.326027470512
 20
-10.04574391812843
 30
0.0
  0
LINE
  5
265B3
330
1F
100
AcDbEntity
  8
AM_VIS
100
AcDbLine
 10
2577.076027470512
 20
-13.76109453081858
 30
0.0
 11
2577.076027470512
 21
-10.39486005685102
 31
0.0
  0
LINE
  5
265B4
330
1F
100
AcDbEntity
  8
AM_VIS
100
AcDbLine
 10
2577.076027470512
 20
-13.76109453081846
 30
0.0
 11
2577.076027470512
 21
-13.92314136049401
 31
0.0
  0
LINE
  5
265B5
330
1F
100
AcDbEntity
  8
AM_VIS
100
AcDbLine
 10
2577.076027470512
 20
-7.289375834461679
 30
0.0
 11
2577.076027470512
 21
-10.39486005685102
 31
0.0
  0
LINE
  5
265B6
330
1F
100
AcDbEntity
  8
AM_VIS
100
AcDbLine
 10
2578.576027470512
 20
-13.92314136049401
 30
0.0
 11
2578.576027470512
 21
-13.76109453081846
 31
0.0
  0
LINE
  5
265B7
330
1F
100
AcDbEntity
  8
AM_VIS
100
AcDbLine
 10
2578.576027470512
 20
-10.39486005685102
 30
0.0
 11
2578.576027470512
 21
-13.76109453081858
 31
0.0
  0
LINE
  5
265B8
330
1F
100
AcDbEntity
  8
AM_VIS
100
AcDbLine
 10
2578.576027470512
 20
-10.39486005685102
 30
0.0
 11
2578.576027470512
 21
-7.289375834461679
 31
0.0
  0
ARC
  5
265B9
330
1F
100
AcDbEntity
  8
AM_VIS
100
AcDbCircle
 10
2577.826027470512
 20
-10.92314136049401
 30
0.0
 40
0.75
100
AcDbArc
 50
131.8103148957745
 51
180.0
  0
ARC
  5
265BA
330
1F
100
AcDbEntity
  8
AM_VIS
100
AcDbCircle
 10
2577.826027470512
 20
-10.92314136049401
 30
0.0
 40
0.75
100
AcDbArc
 50
0.0
 51
48.18968510422548
  0
SPLINE
  5
265BB
330
1F
100
AcDbEntity
  8
AM_VIS
100
AcDbSpline
210
0.0
220
0.0
230
1.0
 70
     8
 71
     3
 72
     8
 73
     4
 74
     0
 42
0.0000000001
 43
0.0000000001
 40
7.860869802062977
 40
7.860869802062977
 40
7.860869802062977
 40
7.860869802062977
 40
8.796716660561656
 40
8.796716660561656
 40
8.796716660561656
 40
8.796716660561656
 10
2580.226027470512
 20
-6.478038618702271
 30
0.0
 10
2580.074988434478
 20
-6.758846552899285
 30
0.0
 10
2579.905888818734
 20
-7.029998688358432
 30
0.0
 10
2579.726027470512
 20
-7.289375834461566
 30
0.0
  0
SPLINE
  5
265BC
330
1F
100
AcDbEntity
  8
AM_VIS
100
AcDbSpline
210
0.0
220
0.0
230
1.0
 70
     8
 71
     3
 72
     8
 73
     4
 74
     0
 42
0.0000000001
 43
0.0000000001
 40
7.860869802063004
 40
7.860869802063004
 40
7.860869802063004
 40
7.860869802063004
 40
8.796716660561713
 40
8.796716660561713
 40
8.796716660561713
 40
8.796716660561713
 10
2580.226027470512
 20
-13.12472243422575
 30
0.0
 10
2580.074988434478
 20
-13.33302993141194
 30
0.0
 10
2579.905888818734
 20
-13.54628874644527
 30
0.0
 10
2579.726027470512
 20
-13.76109453081846
 30
0.0
  0
SPLINE
  5
265BD
330
1F
100
AcDbEntity
  8
AM_VIS
100
AcDbSpline
210
0.0
220
0.0
230
1.0
 70
     8
 71
     3
 72
     8
 73
     4
 74
     0
 42
0.0000000001
 43
0.0000000001
 40
1.630155803927018
 40
1.630155803927018
 40
1.630155803927018
 40
1.630155803927018
 40
2.566002662426996
 40
2.566002662426996
 40
2.566002662426996
 40
2.566002662426996
 10
2579.726027470512
 20
-10.39486005685102
 30
0.0
 10
2579.905888703708
 20
-10.43943139007626
 30
0.0
 10
2580.074988325081
 20
-10.49732468649494
 30
0.0
 10
2580.226027470512
 20
-10.5698251760175
 30
0.0
  0
LINE
  5
265BE
330
1F
100
AcDbEntity
  8
AM_VIS
100
AcDbLine
 10
2580.226027470512
 20
-13.42314136049401
 30
0.0
 11
2579.726027470512
 21
-13.92314136049401
 31
0.0
  0
LINE
  5
265BF
330
1F
100
AcDbEntity
  8
AM_VIS
100
AcDbLine
 10
2580.226027470512
 20
-6.478038618702271
 30
0.0
 11
2580.226027470512
 21
-10.5698251760175
 31
0.0
  0
LINE
  5
265C0
330
1F
100
AcDbEntity
  8
AM_VIS
100
AcDbLine
 10
2580.226027470512
 20
-10.5698251760175
 30
0.0
 11
2580.226027470512
 21
-13.12472243422587
 31
0.0
  0
LINE
  5
265C1
330
1F
100
AcDbEntity
  8
AM_VIS
100
AcDbLine
 10
2580.226027470512
 20
-13.12472243422575
 30
0.0
 11
2580.226027470512
 21
-13.42314136049401
 31
0.0
  0
LINE
  5
265C2
330
1F
100
AcDbEntity
  8
AM_VIS
100
AcDbLine
 10
2579.726027470512
 20
-13.92314136049401
 30
0.0
 11
2579.726027470512
 21
-13.76109453081846
 31
0.0
  0
LINE
  5
265C3
330
1F
100
AcDbEntity
  8
AM_VIS
100
AcDbLine
 10
2579.726027470512
 20
-10.39486005685102
 30
0.0
 11
2579.726027470512
 21
-7.289375834461679
 31
0.0
  0
LINE
  5
265C4
330
1F
100
AcDbEntity
  8
AM_VIS
100
AcDbLine
 10
2580.226027470512
 20
5.27843971323773
 30
0.0
 11
2580.226027470512
 21
2.723542455029473
 31
0.0
  0
LINE
  5
265C5
330
1F
100
AcDbEntity
  8
AM_VIS
100
AcDbLine
 10
2577.076027470512
 20
2.548577335862773
 30
0.0
 11
2577.076027470512
 21
5.914811809830325
 31
0.0
  0
LINE
  5
265C6
330
1F
100
AcDbEntity
  8
AM_VIS
100
AcDbLine
 10
2578.576027470512
 20
5.914811809830325
 30
0.0
 11
2578.576027470512
 21
2.548577335862773
 31
0.0
  0
LINE
  5
265C7
330
1F
100
AcDbEntity
  8
AM_VIS
100
AcDbLine
 10
2578.576027470512
 20
-0.5569068865265763
 30
0.0
 11
2579.726027470512
 21
-0.5569068865265763
 31
0.0
  0
LINE
  5
265C8
330
1F
100
AcDbEntity
  8
AM_VIS
100
AcDbLine
 10
2579.726027470512
 20
2.548577335862887
 30
0.0
 11
2578.576027470512
 21
2.548577335862887
 31
0.0
  0
ARC
  5
265C9
330
1F
100
AcDbEntity
  8
AM_VIS
100
AcDbCircle
 10
2577.826046999203
 20
3.007881241983227
 30
0.0
 40
0.6997982445397195
100
AcDbArc
 50
224.4224702407787
 51
315.5752923890397
  0
CIRCLE
  5
265CA
330
1F
100
AcDbEntity
  8
AM_VIS
100
AcDbCircle
 10
2577.826027470512
 20
-5.173141360494014
 30
0.0
 40
0.5000000000000032
  0
CIRCLE
  5
265CB
330
1F
100
AcDbEntity
  8
AM_VIS
100
AcDbCircle
 10
2577.826027470512
 20
-2.673141360494014
 30
0.0
 40
0.5000000000000032
  0
SPLINE
  5
265CC
330
1F
100
AcDbEntity
  8
AM_VIS
100
AcDbSpline
210
0.0
220
0.0
230
1.0
 70
    11
 71
     3
 72
    58
 73
    54
 74
     0
 42
0.0000000001
 43
0.0000000001
 40
-3.363896419255587
 40
-3.363896419255587
 40
-3.363896419255587
 40
-3.363896419255587
 40
-3.330080057210193
 40
-3.330080057210193
 40
-3.276087946180991
 40
-3.276087946180991
 40
-3.130129325405927
 40
-3.130129325405927
 40
-2.864475625747458
 40
-2.864475625747458
 40
-2.670984402726474
 40
-2.670984402726474
 40
-2.529876972632633
 40
-2.529876972632633
 40
-2.39414607930529
 40
-2.39414607930529
 40
-2.234845146690002
 40
-2.234845146690002
 40
-1.995446372975766
 40
-1.995446372975766
 40
-1.792732498499779
 40
-1.792732498499779
 40
-1.655061186031255
 40
-1.655061186031255
 40
-1.604023047347052
 40
-1.604023047347052
 40
-1.569394244758093
 40
-1.569394244758093
 40
-1.535224675064294
 40
-1.535224675064294
 40
-1.486406949001721
 40
-1.486406949001721
 40
-1.367760828147406
 40
-1.367760828147406
 40
-1.211422564713941
 40
-1.211422564713941
 40
-1.00947781381898
 40
-1.00947781381898
 40
-0.8308451467036132
 40
-0.8308451467036132
 40
-0.6546659190622926
 40
-0.6546659190622926
 40
-0.4706948992192896
 40
-0.4706948992192896
 40
-0.3083260207238461
 40
-0.3083260207238461
 40
-0.1833529844742129
 40
-0.1833529844742129
 40
-0.0782943285735388
 40
-0.0782943285735388
 40
-0.0333492537450304
 40
-0.0333492537450304
 40
0.0
 40
0.0
 40
0.0
 40
0.0
 10
2578.326027470512
 20
2.199461197140408
 30
0.0
 10
2578.326027470512
 20
2.19596107280472
 30
0.0
 10
2578.325683316779
 20
2.192143890068336
 30
0.0
 10
2578.323950614242
 20
2.181473545287531
 30
0.0
 10
2578.322067809944
 20
2.174202301729565
 30
0.0
 10
2578.312430491353
 20
2.145179970971071
 30
0.0
 10
2578.300101413108
 20
2.119727366101869
 30
0.0
 10
2578.254649060801
 20
2.044471067705444
 30
0.0
 10
2578.211109013594
 20
1.989158113986263
 30
0.0
 10
2578.116281069542
 20
1.905198022660329
 30
0.0
 10
2578.068881188794
 20
1.872042497555412
 30
0.0
 10
2577.975239075364
 20
1.829284530672566
 30
0.0
 10
2577.932504388527
 20
1.81592121753033
 30
0.0
 10
2577.843692205275
 20
1.803219225653492
 30
0.0
 10
2577.79994219749
 20
1.803682411767113
 30
0.0
 10
2577.706145102261
 20
1.818873437766796
 30
0.0
 10
2577.659152895181
 20
1.83557531002566
 30
0.0
 10
2577.552728585756
 20
1.890029004798634
 30
0.0
 10
2577.497834689401
 20
1.934720466158978
 30
0.0
 10
2577.416215056443
 20
2.020925115526893
 30
0.0
 10
2577.3858002071
 20
2.062582765969068
 30
0.0
 10
2577.349209515335
 20
2.125206897737825
 30
0.0
 10
2577.338045352194
 20
2.149085831441539
 30
0.0
 10
2577.329431943264
 20
2.176268397856802
 30
0.0
 10
2577.327775913303
 20
2.183058865746488
 30
0.0
 10
2577.326238547735
 20
2.193335153112684
 30
0.0
 10
2577.325959721454
 20
2.19716992483427
 30
0.0
 10
2577.326121903651
 20
2.204111766570122
 30
0.0
 10
2577.326553134512
 20
2.207217656846751
 30
0.0
 10
2577.328486899469
 20
2.213907875639051
 30
0.0
 10
2577.330362350198
 20
2.217103887275243
 30
0.0
 10
2577.339433261298
 20
2.225577426155041
 30
0.0
 10
2577.350216590096
 20
2.227103469295002
 30
0.0
 10
2577.385147085559
 20
2.223097268957417
 30
0.0
 10
2577.411954714116
 20
2.215335057353058
 30
0.0
 10
2577.486222301477
 20
2.193828543892209
 30
0.0
 10
2577.538721376845
 20
2.178628637350243
 30
0.0
 10
2577.654601090463
 20
2.155836105126013
 30
0.0
 10
2577.713716900238
 20
2.148080844765331
 30
0.0
 10
2577.835491805286
 20
2.142621750364241
 30
0.0
 10
2577.896070247888
 20
2.144860128819686
 30
0.0
 10
2578.015059328067
 20
2.158261100521372
 30
0.0
 10
2578.071534527215
 20
2.169636390908522
 30
0.0
 10
2578.165117437505
 20
2.193152962574345
 30
0.0
 10
2578.203399306667
 20
2.204944096620465
 30
0.0
 10
2578.258751024917
 20
2.22038349371337
 30
0.0
 10
2578.278567839323
 20
2.225194506313528
 30
0.0
 10
2578.306076217376
 20
2.226573331970143
 30
0.0
 10
2578.314947650344
 20
2.224290693557918
 30
0.0
 10
2578.322493482876
 20
2.215825483455546
 30
0.0
 10
2578.324068437899
 20
2.212657208883911
 30
0.0
 10
2578.325692841507
 20
2.20605434641402
 30
0.0
 10
2578.326027470512
 20
2.202912973959314
 30
0.0
 10
2578.326027470512
 20
2.199461197140408
 30
0.0
  0
LINE
  5
265CD
330
1F
100
AcDbEntity
  8
AM_VIS
100
AcDbLine
 10
2577.076027470512
 20
2.548577335862773
 30
0.0
 11
2577.076027470512
 21
-0.5569068865265763
 31
0.0
  0
LINE
  5
265CE
330
1F
100
AcDbEntity
  8
AM_VIS
100
AcDbLine
 10
2578.576027470512
 20
-0.5569068865265763
 30
0.0
 11
2578.576027470512
 21
2.548577335862773
 31
0.0
  0
ARC
  5
265CF
330
1F
100
AcDbEntity
  8
AM_VIS
100
AcDbCircle
 10
2577.826027470512
 20
3.076858639505985
 30
0.0
 40
0.75
100
AcDbArc
 50
311.8103148957745
 51
0.0
  0
ARC
  5
265D0
330
1F
100
AcDbEntity
  8
AM_VIS
100
AcDbCircle
 10
2577.826027470512
 20
3.076858639505985
 30
0.0
 40
0.75
100
AcDbArc
 50
180.0
 51
228.1896851042255
  0
SPLINE
  5
265D1
330
1F
100
AcDbEntity
  8
AM_VIS
100
AcDbSpline
210
0.0
220
0.0
230
1.0
 70
     8
 71
     3
 72
     8
 73
     4
 74
     0
 42
0.0000000001
 43
0.0000000001
 40
1.63015580392704
 40
1.63015580392704
 40
1.63015580392704
 40
1.63015580392704
 40
2.566002662427006
 40
2.566002662427006
 40
2.566002662427006
 40
2.566002662427006
 10
2579.726027470512
 20
-0.5569068865265763
 30
0.0
 10
2579.905888703708
 20
-0.8162838667510641
 30
0.0
 10
2580.074988325081
 20
-1.087435964700716
 30
0.0
 10
2580.226027470512
 20
-1.368244102285871
 30
0.0
  0
SPLINE
  5
265D2
330
1F
100
AcDbEntity
  8
AM_VIS
100
AcDbSpline
210
0.0
220
0.0
230
1.0
 70
     8
 71
     3
 72
     8
 73
     4
 74
     0
 42
0.0000000001
 43
0.0000000001
 40
7.860869802063005
 40
7.860869802063005
 40
7.860869802063005
 40
7.860869802063005
 40
8.796716660561699
 40
8.796716660561699
 40
8.796716660561699
 40
8.796716660561699
 10
2580.226027470512
 20
2.723542455029473
 30
0.0
 10
2580.074988434478
 20
2.651042018018642
 30
0.0
 10
2579.905888818734
 20
2.593148697592823
 30
0.0
 10
2579.726027470512
 20
2.548577335862887
 30
0.0
  0
LINE
  5
265D3
330
1F
100
AcDbEntity
  8
AM_VIS
100
AcDbLine
 10
2580.226027470512
 20
2.723542455029473
 30
0.0
 11
2580.226027470512
 21
-1.368244102285871
 31
0.0
  0
LINE
  5
265D4
330
1F
100
AcDbEntity
  8
AM_VIS
100
AcDbLine
 10
2579.726027470512
 20
-0.5569068865265763
 30
0.0
 11
2579.726027470512
 21
2.548577335862773
 31
0.0
  0
LINE
  5
265D5
330
1F
100
AcDbEntity
  8
AM_VIS
100
AcDbLine
 10
2578.576027470512
 20
5.914811809830439
 30
0.0
 11
2579.726027470512
 21
5.914811809830439
 31
0.0
  0
LINE
  5
265D6
330
1F
100
AcDbEntity
  8
AM_VIS
100
AcDbLine
 10
2578.576027470512
 20
6.076858639505985
 30
0.0
 11
2579.726027470512
 21
6.076858639505985
 31
0.0
  0
LINE
  5
265D7
330
1F
100
AcDbEntity
  8
AM_VIS
100
AcDbLine
 10
2577.076027470512
 20
6.076858639505985
 30
0.0
 11
2577.076027470512
 21
5.914811809830439
 31
0.0
  0
LINE
  5
265D8
330
1F
100
AcDbEntity
  8
AM_VIS
100
AcDbLine
 10
2578.576027470512
 20
5.914811809830439
 30
0.0
 11
2578.576027470512
 21
6.076858639505985
 31
0.0
  0
SPLINE
  5
265D9
330
1F
100
AcDbEntity
  8
AM_VIS
100
AcDbSpline
210
0.0
220
0.0
230
1.0
 70
     8
 71
     3
 72
     8
 73
     4
 74
     0
 42
0.0000000001
 43
0.0000000001
 40
1.630155803927018
 40
1.630155803927018
 40
1.630155803927018
 40
1.630155803927018
 40
2.566002662426991
 40
2.566002662426991
 40
2.566002662426991
 40
2.566002662426991
 10
2579.726027470512
 20
5.914811809830439
 30
0.0
 10
2579.905888703708
 20
5.7000061628313
 30
0.0
 10
2580.074988325081
 20
5.486747361300217
 30
0.0
 10
2580.226027470512
 20
5.27843971323773
 30
0.0
  0
LINE
  5
265DA
330
1F
100
AcDbEntity
  8
AM_VIS
100
AcDbLine
 10
2580.226027470512
 20
5.576858639505985
 30
0.0
 11
2579.726027470512
 21
6.076858639505985
 31
0.0
  0
LINE
  5
265DB
330
1F
100
AcDbEntity
  8
AM_VIS
100
AcDbLine
 10
2580.226027470512
 20
5.576858639505985
 30
0.0
 11
2580.226027470512
 21
5.27843971323773
 31
0.0
  0
LINE
  5
265DC
330
1F
100
AcDbEntity
  8
AM_VIS
100
AcDbLine
 10
2579.726027470512
 20
5.914811809830439
 30
0.0
 11
2579.726027470512
 21
6.076858639505985
 31
0.0
  0
LINE
  5
265DD
330
1F
100
AcDbEntity
  8
AM_VIS
100
AcDbLine
 10
2574.226027470512
 20
83.32458101234715
 30
0.0
 11
2577.076027470512
 21
83.32458101234715
 31
0.0
  0
LINE
  5
265DE
330
1F
100
AcDbEntity
  8
AM_VIS
100
AcDbLine
 10
2572.226027470512
 20
83.74097445497012
 30
0.0
 11
2584.226027470512
 21
83.74097445497012
 31
0.0
  0
LINE
  5
265DF
330
1F
100
AcDbEntity
  8
AM_VIS
100
AcDbLine
 10
2572.226027470512
 20
44.07685863950587
 30
0.0
 11
2584.226027470512
 21
44.07685863950587
 31
0.0
  0
LINE
  5
265E0
330
1F
100
AcDbEntity
  8
AM_VIS
100
AcDbLine
 10
2572.226027470512
 20
26.07685863950587
 30
0.0
 11
2584.226027470512
 21
26.07685863950587
 31
0.0
  0
LINE
  5
265E1
330
1F
100
AcDbEntity
  8
AM_VIS
100
AcDbLine
 10
2568.726027470512
 20
42.07685863950587
 30
0.0
 11
2546.726027470512
 21
42.07685863950587
 31
0.0
  0
SPLINE
  5
265E2
330
1F
100
AcDbEntity
  8
AM_VIS
100
AcDbSpline
210
0.0
220
0.0
230
1.0
 70
     8
 71
     3
 72
    22
 73
    18
 74
     0
 42
0.0000000001
 43
0.0000000001
 40
6.922974191987643
 40
6.922974191987643
 40
6.922974191987643
 40
6.922974191987643
 40
7.242870958922999
 40
7.242870958922999
 40
8.615360666179645
 40
8.615360666179645
 40
9.987850373436291
 40
9.987850373436291
 40
11.36034008069293
 40
11.36034008069293
 40
12.73282978794958
 40
12.73282978794958
 40
14.10531949520622
 40
14.10531949520622
 40
15.47780920246286
 40
15.47780920246286
 40
16.1364483476482
 40
16.1364483476482
 40
16.1364483476482
 40
16.1364483476482
 10
2572.226027470512
 20
29.42000439001356
 30
0.0
 10
2572.226027470512
 20
29.50689295816528
 30
0.0
 10
2572.223913457834
 20
29.59410706761719
 30
0.0
 10
2572.204938134964
 20
30.04976060936246
 30
0.0
 10
2572.160336537978
 20
30.45561773765553
 30
0.0
 10
2572.050757374202
 20
31.31710632275872
 30
0.0
 10
2571.985849815581
 20
31.77277713777153
 30
0.0
 10
2571.868383524739
 20
32.70814957384846
 30
0.0
 10
2571.816073320095
 20
33.18821806666324
 30
0.0
 10
2571.745488429153
 20
34.14381731177627
 30
0.0
 10
2571.727371274982
 20
34.61936207042038
 30
0.0
 10
2571.727371274982
 20
35.53435520859148
 30
0.0
 10
2571.745488429153
 20
36.00989996723547
 30
0.0
 10
2571.816073320095
 20
36.96549921234861
 30
0.0
 10
2571.868383524739
 20
37.44556770516328
 30
0.0
 10
2571.9553019079
 20
38.13769017888762
 30
0.0
 10
2571.984853161456
 20
38.35938232747492
 30
0.0
 10
2572.014080412311
 20
38.57685863950587
 30
0.0
  0
LINE
  5
265E3
330
1F
100
AcDbEntity
  8
AM_VIS
100
AcDbLine
 10
2572.226027470512
 20
29.42000439001356
 30
0.0
 11
2572.226027470512
 21
44.07685863950587
 31
0.0
  0
LINE
  5
265E4
330
1F
100
AcDbEntity
  8
AM_VIS
100
AcDbLine
 10
2567.226027470512
 20
42.07685863950587
 30
0.0
 11
2572.226027470512
 21
44.07685863950587
 31
0.0
  0
ARC
  5
265E5
330
1F
100
AcDbEntity
  8
AM_VIS
100
AcDbCircle
 10
2568.726027470512
 20
38.57685863950587
 30
0.0
 40
3.5
100
AcDbArc
 50
31.41476770923489
 51
90.0
  0
SPLINE
  5
265E6
330
1F
100
AcDbEntity
  8
AM_VIS
100
AcDbSpline
210
0.0
220
0.0
230
1.0
 70
     8
 71
     3
 72
    18
 73
    14
 74
     0
 42
0.0000000001
 43
0.0000000001
 40
6.072258403086962
 40
6.072258403086962
 40
6.072258403086962
 40
6.072258403086962
 40
6.091519998582311
 40
6.091519998582311
 40
6.594079983681931
 40
6.594079983681931
 40
7.096639968781531
 40
7.096639968781531
 40
7.59919995388113
 40
7.59919995388113
 40
8.101759938980729
 40
8.101759938980729
 40
8.212872863102431
 40
8.212872863102431
 40
8.212872863102431
 40
8.212872863102431
 10
2572.014080412311
 20
38.57685863950587
 30
0.0
 10
2572.014930282512
 20
38.58318241720053
 30
0.0
 10
2572.015763657104
 20
38.58949921640032
 30
0.0
 10
2572.037894715651
 20
38.76043269328807
 30
0.0
 10
2572.04785112653
 20
38.92007340704185
 30
0.0
 10
2572.04785112653
 20
39.21974228422959
 30
0.0
 10
2572.037894715651
 20
39.37151572083507
 30
0.0
 10
2571.995266411774
 20
39.66735742725541
 30
0.0
 10
2571.962596670333
 20
39.81142809920027
 30
0.0
 10
2571.875231337584
 20
40.08269256036351
 30
0.0
 10
2571.820478776849
 20
40.21004842372735
 30
0.0
 10
2571.742504894862
 20
40.35158827041914
 30
0.0
 10
2571.727948100765
 20
40.37666324621477
 30
0.0
 10
2571.712985154781
 20
40.40116228539
 30
0.0
  0
LINE
  5
265E7
330
1F
100
AcDbEntity
  8
AM_VIS
100
AcDbLine
 10
2546.726027470512
 20
82.24097445497012
 30
0.0
 11
2568.726027470512
 21
82.24097445497012
 31
0.0
  0
SPLINE
  5
265E8
330
1F
100
AcDbEntity
  8
AM_VIS
100
AcDbSpline
210
0.0
220
0.0
230
1.0
 70
    12
 71
     2
 72
     6
 73
     3
 74
     0
 42
0.0000000001
 43
0.0000000001
 40
0.0
 40
0.0
 40
0.0
 40
3.381727793507036
 40
3.381727793507036
 40
3.381727793507036
 10
2568.726027470512
 20
89.78124473758043
 30
0.0
 41
1.0
 10
2567.226027470512
 20
91.32192596033121
 30
0.0
 41
1.021203771466384
 10
2567.226027470512
 20
92.74097445497011
 30
0.0
 41
1.0
  0
SPLINE
  5
265E9
330
1F
100
AcDbEntity
  8
AM_VIS
100
AcDbSpline
210
0.0
220
0.0
230
1.0
 70
     8
 71
     3
 72
    18
 73
    14
 74
     0
 42
0.0000000001
 43
0.0000000001
 40
6.072258403086962
 40
6.072258403086962
 40
6.072258403086962
 40
6.072258403086962
 40
6.091519998582311
 40
6.091519998582311
 40
6.594079983681931
 40
6.594079983681931
 40
7.096639968781531
 40
7.096639968781531
 40
7.59919995388113
 40
7.59919995388113
 40
8.101759938980729
 40
8.101759938980729
 40
8.212872863102431
 40
8.212872863102431
 40
8.212872863102431
 40
8.212872863102431
 10
2572.014080412311
 20
84.54151297083399
 30
0.0
 10
2572.014930282512
 20
84.54384269817557
 30
0.0
 10
2572.015763657104
 20
84.54618490869576
 30
0.0
 10
2572.037894715651
 20
84.60997256297288
 30
0.0
 10
2572.04785112653
 20
84.6799588234146
 30
0.0
 10
2572.04785112653
 20
84.82979326200847
 30
0.0
 10
2572.037894715651
 20
84.91551407674638
 30
0.0
 10
2571.995266411774
 20
85.10519265183313
 30
0.0
 10
2571.962596670333
 20
85.2091471490918
 30
0.0
 10
2571.875231337584
 20
85.42894653036842
 30
0.0
 10
2571.820478776849
 20
85.54490766961611
 30
0.0
 10
2571.742504894862
 20
85.68870003134703
 30
0.0
 10
2571.727948100765
 20
85.71482035936538
 30
0.0
 10
2571.712985154781
 20
85.74097445497011
 30
0.0
  0
ARC
  5
265EA
330
1F
100
AcDbEntity
  8
AM_VIS
100
AcDbCircle
 10
2568.726027470512
 20
85.74097445497011
 30
0.0
 40
3.5
100
AcDbArc
 50
270.0
 51
339.9583415914264
  0
LINE
  5
265EB
330
1F
100
AcDbEntity
  8
AM_VIS
100
AcDbLine
 10
2572.226027470512
 20
81.74097445497
 30
0.0
 11
2572.226027470512
 21
83.74097445497012
 31
0.0
  0
ARC
  5
265EC
330
1F
100
AcDbEntity
  8
AM_VIS
100
AcDbCircle
 10
2541.029962805458
 20
78.47693483339401
 30
0.0
 40
33.54815021313124
100
AcDbArc
 50
8.308220181137507
 51
9.027585739155984
  0
LINE
  5
265ED
330
1F
100
AcDbEntity
  8
AM_VIS
100
AcDbLine
 10
2572.226027470512
 20
82.74097445497011
 30
0.0
 11
2572.726027470512
 21
82.74097445497011
 31
0.0
  0
LINE
  5
265EE
330
1F
100
AcDbEntity
  8
AM_VIS
100
AcDbLine
 10
2572.926027470512
 20
83.74097445497012
 30
0.0
 11
2572.726027470512
 21
82.74097445497011
 31
0.0
  0
LINE
  5
265EF
330
1F
100
AcDbEntity
  8
AM_VIS
100
AcDbLine
 10
2572.726027470512
 20
83.74097445497012
 30
0.0
 11
2572.726027470512
 21
82.74097445497011
 31
0.0
  0
LINE
  5
265F0
330
1F
100
AcDbEntity
  8
AM_VIS
100
AcDbLine
 10
2574.226027470512
 20
83.32458101234715
 30
0.0
 11
2574.226027470512
 21
83.74097445497012
 31
0.0
  0
LINE
  5
265F1
330
1F
100
AcDbEntity
  8
AM_VIS
100
AcDbLine
 10
2571.727371274982
 20
83.9404369331819
 30
0.0
 11
2572.226027470512
 21
83.74097445497012
 31
0.0
  0
SPLINE
  5
265F2
330
1F
100
AcDbEntity
  8
AM_VIS
100
AcDbSpline
210
0.0
220
0.0
230
1.0
 70
     8
 71
     3
 72
    16
 73
    12
 74
     0
 42
0.0000000001
 43
0.0000000001
 40
1.626271716229691
 40
1.626271716229691
 40
1.626271716229691
 40
1.626271716229691
 40
2.044102946506439
 40
2.044102946506439
 40
3.066154419759659
 40
3.066154419759659
 40
4.088205893012879
 40
4.088205893012879
 40
5.443002653861024
 40
5.443002653861024
 40
6.738847868840626
 40
6.738847868840626
 40
6.738847868840626
 40
6.738847868840626
 10
2571.712985154781
 20
85.74097445497011
 30
0.0
 10
2571.65637190638
 20
85.83993012270401
 30
0.0
 10
2571.596193626485
 20
85.94157042353629
 30
0.0
 10
2571.378594916398
 20
86.29890617050341
 30
0.0
 10
2571.206275932077
 20
86.56506800867555
 30
0.0
 10
2570.844031791819
 20
87.10200386452697
 30
0.0
 10
2570.654098701234
 20
87.3727735760732
 30
0.0
 10
2570.213901842024
 20
87.98141400910049
 30
0.0
 10
2569.925819291106
 20
88.36578184813721
 30
0.0
 10
2569.332560918949
 20
89.10937811610983
 30
0.0
 10
2569.029561638996
 20
89.46947847501622
 30
0.0
 10
2568.726027470512
 20
89.78124473758043
 30
0.0
  0
LINE
  5
265F3
330
1F
100
AcDbEntity
  8
AM_VIS
100
AcDbLine
 10
2584.226027470512
 20
44.07685863950587
 30
0.0
 11
2584.226027470512
 21
26.07685863950587
 31
0.0
  0
LINE
  5
265F4
330
1F
100
AcDbEntity
  8
AM_VIS
100
AcDbLine
 10
2591.226027470512
 20
36.15543103473669
 30
0.0
 11
2591.226027470512
 21
33.45805557810331
 31
0.0
  0
LINE
  5
265F5
330
1F
100
AcDbEntity
  8
AM_VIS
100
AcDbLine
 10
2585.726027470512
 20
36.15543103473669
 30
0.0
 11
2585.726027470512
 21
33.45805557810331
 31
0.0
  0
LINE
  5
265F6
330
1F
100
AcDbEntity
  8
AM_VIS
100
AcDbLine
 10
2591.226027470512
 20
29.29041166061665
 30
0.0
 11
2585.726027470512
 21
29.29041166061665
 31
0.0
  0
LINE
  5
265F7
330
1F
100
AcDbEntity
  8
AM_VIS
100
AcDbLine
 10
2591.226027470512
 20
31.20292148985027
 30
0.0
 11
2585.726027470512
 21
31.20292148985027
 31
0.0
  0
LINE
  5
265F8
330
1F
100
AcDbEntity
  8
AM_VIS
100
AcDbLine
 10
2585.726027470512
 20
31.26341065141218
 30
0.0
 11
2591.226027470512
 21
31.26341065141218
 31
0.0
  0
LINE
  5
265F9
330
1F
100
AcDbEntity
  8
AM_VIS
100
AcDbLine
 10
2591.226027470512
 20
28.58589689048494
 30
0.0
 11
2585.726027470512
 21
28.58589689048494
 31
0.0
  0
LINE
  5
265FA
330
1F
100
AcDbEntity
  8
AM_VIS
100
AcDbLine
 10
2591.226027470512
 20
26.39125196379382
 30
0.0
 11
2585.726027470512
 21
26.39125196379382
 31
0.0
  0
LINE
  5
265FB
330
1F
100
AcDbEntity
  8
AM_VIS
100
AcDbLine
 10
2591.226027470512
 20
33.45805557810331
 30
0.0
 11
2585.726027470512
 21
33.45805557810331
 31
0.0
  0
LINE
  5
265FC
330
1F
100
AcDbEntity
  8
AM_VIS
100
AcDbLine
 10
2585.726027470512
 20
28.32685863950598
 30
0.0
 11
2584.226027470512
 21
28.32685863950598
 31
0.0
  0
LINE
  5
265FD
330
1F
100
AcDbEntity
  8
AM_VIS
100
AcDbLine
 10
2585.726027470512
 20
28.58589689048505
 30
0.0
 11
2585.726027470512
 21
26.39125196379393
 31
0.0
  0
LINE
  5
265FE
330
1F
100
AcDbEntity
  8
AM_VIS
100
AcDbLine
 10
2585.726027470512
 20
28.58589689048494
 30
0.0
 11
2585.726027470512
 21
29.29041166061665
 31
0.0
  0
LINE
  5
265FF
330
1F
100
AcDbEntity
  8
AM_VIS
100
AcDbLine
 10
2585.726027470512
 20
29.29041166061665
 30
0.0
 11
2585.726027470512
 21
31.20292148985027
 31
0.0
  0
LINE
  5
26600
330
1F
100
AcDbEntity
  8
AM_VIS
100
AcDbLine
 10
2585.726027470512
 20
31.20292148985027
 30
0.0
 11
2585.726027470512
 21
31.26341065141218
 31
0.0
  0
LINE
  5
26601
330
1F
100
AcDbEntity
  8
AM_VIS
100
AcDbLine
 10
2585.726027470512
 20
33.45805557810331
 30
0.0
 11
2585.726027470512
 21
31.26341065141218
 31
0.0
  0
LINE
  5
26602
330
1F
100
AcDbEntity
  8
AM_VIS
100
AcDbLine
 10
2591.226027470512
 20
33.45805557810331
 30
0.0
 11
2591.226027470512
 21
31.26341065141218
 31
0.0
  0
LINE
  5
26603
330
1F
100
AcDbEntity
  8
AM_VIS
100
AcDbLine
 10
2591.226027470512
 20
31.26341065141218
 30
0.0
 11
2591.226027470512
 21
31.20292148985027
 31
0.0
  0
LINE
  5
26604
330
1F
100
AcDbEntity
  8
AM_VIS
100
AcDbLine
 10
2591.226027470512
 20
31.20292148985027
 30
0.0
 11
2591.226027470512
 21
29.29041166061665
 31
0.0
  0
LINE
  5
26605
330
1F
100
AcDbEntity
  8
AM_VIS
100
AcDbLine
 10
2591.226027470512
 20
29.29041166061665
 30
0.0
 11
2591.226027470512
 21
28.58589689048505
 31
0.0
  0
LINE
  5
26606
330
1F
100
AcDbEntity
  8
AM_VIS
100
AcDbLine
 10
2591.226027470512
 20
28.58589689048505
 30
0.0
 11
2591.226027470512
 21
26.39125196379393
 31
0.0
  0
LINE
  5
26607
330
1F
100
AcDbEntity
  8
AM_VIS
100
AcDbLine
 10
2585.726027470512
 20
43.76246531521815
 30
0.0
 11
2585.726027470512
 21
43.25973478527589
 31
0.0
  0
LINE
  5
26608
330
1F
100
AcDbEntity
  8
AM_VIS
100
AcDbLine
 10
2591.226027470512
 20
43.76246531521815
 30
0.0
 11
2591.226027470512
 21
43.25973478527589
 31
0.0
  0
LINE
  5
26609
330
1F
100
AcDbEntity
  8
AM_VIS
100
AcDbLine
 10
2591.226027470512
 20
38.80591452812586
 30
0.0
 11
2585.726027470512
 21
38.80591452812586
 31
0.0
  0
LINE
  5
2660A
330
1F
100
AcDbEntity
  8
AM_VIS
100
AcDbLine
 10
2585.726027470512
 20
39.44628679718198
 30
0.0
 11
2591.226027470512
 21
39.44628679718198
 31
0.0
  0
LINE
  5
2660B
330
1F
100
AcDbEntity
  8
AM_VIS
100
AcDbLine
 10
2591.226027470512
 20
36.15543103473669
 30
0.0
 11
2585.726027470512
 21
36.15543103473669
 31
0.0
  0
LINE
  5
2660C
330
1F
100
AcDbEntity
  8
AM_VIS
100
AcDbLine
 10
2591.226027470512
 20
36.45530326923631
 30
0.0
 11
2585.726027470512
 21
36.45530326923631
 31
0.0
  0
LINE
  5
2660D
330
1F
100
AcDbEntity
  8
AM_VIS
100
AcDbLine
 10
2591.226027470512
 20
42.14366225381559
 30
0.0
 11
2585.726027470512
 21
42.14366225381559
 31
0.0
  0
LINE
  5
2660E
330
1F
100
AcDbEntity
  8
AM_VIS
100
AcDbLine
 10
2591.226027470512
 20
42.6798516777817
 30
0.0
 11
2585.726027470512
 21
42.6798516777817
 31
0.0
  0
LINE
  5
2660F
330
1F
100
AcDbEntity
  8
AM_VIS
100
AcDbLine
 10
2585.726027470512
 20
43.25973478527589
 30
0.0
 11
2591.226027470512
 21
43.25973478527589
 31
0.0
  0
LINE
  5
26610
330
1F
100
AcDbEntity
  8
AM_VIS
100
AcDbLine
 10
2591.226027470512
 20
42.64639278375773
 30
0.0
 11
2585.726027470512
 21
42.64639278375773
 31
0.0
  0
LINE
  5
26611
330
1F
100
AcDbEntity
  8
AM_VIS
100
AcDbLine
 10
2585.726027470512
 20
36.45530326923631
 30
0.0
 11
2585.726027470512
 21
38.80591452812586
 31
0.0
  0
LINE
  5
26612
330
1F
100
AcDbEntity
  8
AM_VIS
100
AcDbLine
 10
2585.726027470512
 20
38.80591452812586
 30
0.0
 11
2585.726027470512
 21
39.44628679718198
 31
0.0
  0
LINE
  5
26613
330
1F
100
AcDbEntity
  8
AM_VIS
100
AcDbLine
 10
2585.726027470512
 20
42.14366225381559
 30
0.0
 11
2585.726027470512
 21
39.44628679718198
 31
0.0
  0
LINE
  5
26614
330
1F
100
AcDbEntity
  8
AM_VIS
100
AcDbLine
 10
2585.726027470512
 20
42.64639278375784
 30
0.0
 11
2585.726027470512
 21
42.14366225381559
 31
0.0
  0
LINE
  5
26615
330
1F
100
AcDbEntity
  8
AM_VIS
100
AcDbLine
 10
2585.726027470512
 20
42.64639278375773
 30
0.0
 11
2585.726027470512
 21
42.67985167778158
 31
0.0
  0
LINE
  5
26616
330
1F
100
AcDbEntity
  8
AM_VIS
100
AcDbLine
 10
2585.726027470512
 20
42.6798516777817
 30
0.0
 11
2585.726027470512
 21
43.25973478527589
 31
0.0
  0
LINE
  5
26617
330
1F
100
AcDbEntity
  8
AM_VIS
100
AcDbLine
 10
2585.726027470512
 20
41.82685863950598
 30
0.0
 11
2584.226027470512
 21
41.82685863950598
 31
0.0
  0
LINE
  5
26618
330
1F
100
AcDbEntity
  8
AM_VIS
100
AcDbLine
 10
2585.726027470512
 20
36.15543103473669
 30
0.0
 11
2585.726027470512
 21
36.45530326923631
 31
0.0
  0
LINE
  5
26619
330
1F
100
AcDbEntity
  8
AM_VIS
100
AcDbLine
 10
2591.226027470512
 20
43.25973478527589
 30
0.0
 11
2591.226027470512
 21
42.67985167778158
 31
0.0
  0
LINE
  5
2661A
330
1F
100
AcDbEntity
  8
AM_VIS
100
AcDbLine
 10
2591.226027470512
 20
42.6798516777817
 30
0.0
 11
2591.226027470512
 21
42.64639278375773
 31
0.0
  0
LINE
  5
2661B
330
1F
100
AcDbEntity
  8
AM_VIS
100
AcDbLine
 10
2591.226027470512
 20
42.64639278375784
 30
0.0
 11
2591.226027470512
 21
42.14366225381559
 31
0.0
  0
LINE
  5
2661C
330
1F
100
AcDbEntity
  8
AM_VIS
100
AcDbLine
 10
2591.226027470512
 20
42.14366225381559
 30
0.0
 11
2591.226027470512
 21
39.44628679718198
 31
0.0
  0
LINE
  5
2661D
330
1F
100
AcDbEntity
  8
AM_VIS
100
AcDbLine
 10
2591.226027470512
 20
39.44628679718198
 30
0.0
 11
2591.226027470512
 21
38.80591452812586
 31
0.0
  0
LINE
  5
2661E
330
1F
100
AcDbEntity
  8
AM_VIS
100
AcDbLine
 10
2591.226027470512
 20
38.80591452812586
 30
0.0
 11
2591.226027470512
 21
36.45530326923631
 31
0.0
  0
LINE
  5
2661F
330
1F
100
AcDbEntity
  8
AM_VIS
100
AcDbLine
 10
2591.226027470512
 20
36.45530326923631
 30
0.0
 11
2591.226027470512
 21
36.15543103473669
 31
0.0
  0
LINE
  5
26620
330
1F
100
AcDbEntity
  8
AM_VIS
100
AcDbLine
 10
2591.226027470512
 20
43.76246531521815
 30
0.0
 11
2585.726027470512
 21
43.76246531521815
 31
0.0
  0
LINE
  5
26621
330
1F
100
AcDbEntity
  8
AM_VIS
100
AcDbLine
 10
2578.576027470512
 20
83.32458101234715
 30
0.0
 11
2579.726027470512
 21
83.32458101234715
 31
0.0
  0
LINE
  5
26622
330
1F
100
AcDbEntity
  8
AM_VIS
100
AcDbLine
 10
2577.076027470512
 20
83.74097445497012
 30
0.0
 11
2577.076027470512
 21
83.32458101234715
 31
0.0
  0
LINE
  5
26623
330
1F
100
AcDbEntity
  8
AM_VIS
100
AcDbLine
 10
2578.576027470512
 20
83.32458101234715
 30
0.0
 11
2578.576027470512
 21
83.74097445497012
 31
0.0
  0
SPLINE
  5
26624
330
1F
100
AcDbEntity
  8
AM_VIS
100
AcDbSpline
210
0.0
220
0.0
230
1.0
 70
     8
 71
     3
 72
     8
 73
     4
 74
     0
 42
0.0000000001
 43
0.0000000001
 40
1.63015580392704
 40
1.63015580392704
 40
1.63015580392704
 40
1.63015580392704
 40
2.566002662427006
 40
2.566002662427006
 40
2.566002662427006
 40
2.566002662427006
 10
2579.726027470512
 20
83.32458101234715
 30
0.0
 10
2579.905888703708
 20
83.42286583922975
 30
0.0
 10
2580.074988325081
 20
83.51256615542922
 30
0.0
 10
2580.226027470512
 20
83.59097445497013
 30
0.0
  0
LINE
  5
26625
330
1F
100
AcDbEntity
  8
AM_VIS
100
AcDbLine
 10
2580.226027470512
 20
83.74097445497012
 30
0.0
 11
2580.226027470512
 21
83.59097445497003
 31
0.0
  0
LINE
  5
26626
330
1F
100
AcDbEntity
  8
AM_VIS
100
AcDbLine
 10
2579.726027470512
 20
83.32458101234715
 30
0.0
 11
2579.726027470512
 21
83.74097445497012
 31
0.0
  0
LINE
  5
26627
330
1F
100
AcDbEntity
  8
AM_VIS
100
AcDbLine
 10
2591.226027470512
 20
85.26351563510571
 30
0.0
 11
2591.226027470512
 21
84.62314336604947
 31
0.0
  0
LINE
  5
26628
330
1F
100
AcDbEntity
  8
AM_VIS
100
AcDbLine
 10
2585.726027470512
 20
84.62314336604947
 30
0.0
 11
2585.726027470512
 21
85.26351563510571
 31
0.0
  0
LINE
  5
26629
330
1F
100
AcDbEntity
  8
AM_VIS
100
AcDbLine
 10
2591.226027470512
 20
84.62314336604936
 30
0.0
 11
2585.726027470512
 21
84.62314336604936
 31
0.0
  0
LINE
  5
2662A
330
1F
100
AcDbEntity
  8
AM_VIS
100
AcDbLine
 10
2591.226027470512
 20
83.64631613364053
 30
0.0
 11
2585.726027470512
 21
83.64631613364053
 31
0.0
  0
LINE
  5
2662B
330
1F
100
AcDbEntity
  8
AM_VIS
100
AcDbLine
 10
2585.726027470512
 20
84.62314336604936
 30
0.0
 11
2585.726027470512
 21
83.64631613364053
 31
0.0
  0
LINE
  5
2662C
330
1F
100
AcDbEntity
  8
AM_VIS
100
AcDbLine
 10
2591.226027470512
 20
84.62314336604936
 30
0.0
 11
2591.226027470512
 21
83.64631613364053
 31
0.0
  0
LINE
  5
2662D
330
1F
100
AcDbEntity
  8
AM_VIS
100
AcDbLine
 10
2585.726027470512
 20
85.81489348699779
 30
0.0
 11
2591.226027470512
 21
85.81489348699779
 31
0.0
  0
LINE
  5
2662E
330
1F
100
AcDbEntity
  8
AM_VIS
100
AcDbLine
 10
2591.226027470512
 20
85.26351563510571
 30
0.0
 11
2585.726027470512
 21
85.26351563510571
 31
0.0
  0
LINE
  5
2662F
330
1F
100
AcDbEntity
  8
AM_VIS
100
AcDbLine
 10
2591.226027470512
 20
86.7917207194066
 30
0.0
 11
2585.726027470512
 21
86.7917207194066
 31
0.0
  0
LINE
  5
26630
330
1F
100
AcDbEntity
  8
AM_VIS
100
AcDbLine
 10
2591.226027470512
 20
90.19601311209454
 30
0.0
 11
2585.726027470512
 21
90.19601311209454
 31
0.0
  0
LINE
  5
26631
330
1F
100
AcDbEntity
  8
AM_VIS
100
AcDbLine
 10
2591.226027470512
 20
92.65732721991037
 30
0.0
 11
2585.726027470512
 21
92.65732721991037
 31
0.0
  0
LINE
  5
26632
330
1F
100
AcDbEntity
  8
AM_VIS
100
AcDbLine
 10
2585.726027470512
 20
93.06196975554234
 30
0.0
 11
2591.226027470512
 21
93.06196975554234
 31
0.0
  0
LINE
  5
26633
330
1F
100
AcDbEntity
  8
AM_VIS
100
AcDbLine
 10
2591.226027470512
 20
89.6161300046001
 30
0.0
 11
2585.726027470512
 21
89.6161300046001
 31
0.0
  0
LINE
  5
26634
330
1F
100
AcDbEntity
  8
AM_VIS
100
AcDbLine
 10
2585.726027470512
 20
85.26351563510571
 30
0.0
 11
2585.726027470512
 21
85.81489348699779
 31
0.0
  0
LINE
  5
26635
330
1F
100
AcDbEntity
  8
AM_VIS
100
AcDbLine
 10
2585.726027470512
 20
86.7917207194066
 30
0.0
 11
2585.726027470512
 21
85.81489348699779
 31
0.0
  0
LINE
  5
26636
330
1F
100
AcDbEntity
  8
AM_VIS
100
AcDbLine
 10
2585.726027470512
 20
89.6161300046001
 30
0.0
 11
2585.726027470512
 21
86.7917207194066
 31
0.0
  0
LINE
  5
26637
330
1F
100
AcDbEntity
  8
AM_VIS
100
AcDbLine
 10
2585.726027470512
 20
89.6161300046001
 30
0.0
 11
2585.726027470512
 21
90.19601311209454
 31
0.0
  0
LINE
  5
26638
330
1F
100
AcDbEntity
  8
AM_VIS
100
AcDbLine
 10
2585.726027470512
 20
90.19601311209454
 30
0.0
 11
2585.726027470512
 21
92.65732721991037
 31
0.0
  0
LINE
  5
26639
330
1F
100
AcDbEntity
  8
AM_VIS
100
AcDbLine
 10
2585.726027470512
 20
92.65732721991037
 30
0.0
 11
2585.726027470512
 21
93.06196975554234
 31
0.0
  0
LINE
  5
2663A
330
1F
100
AcDbEntity
  8
AM_VIS
100
AcDbLine
 10
2585.726027470512
 20
85.99097445496999
 30
0.0
 11
2584.226027470512
 21
85.99097445496999
 31
0.0
  0
LINE
  5
2663B
330
1F
100
AcDbEntity
  8
AM_VIS
100
AcDbLine
 10
2591.226027470512
 20
93.06196975554234
 30
0.0
 11
2591.226027470512
 21
92.65732721991037
 31
0.0
  0
LINE
  5
2663C
330
1F
100
AcDbEntity
  8
AM_VIS
100
AcDbLine
 10
2591.226027470512
 20
92.65732721991037
 30
0.0
 11
2591.226027470512
 21
90.19601311209454
 31
0.0
  0
LINE
  5
2663D
330
1F
100
AcDbEntity
  8
AM_VIS
100
AcDbLine
 10
2591.226027470512
 20
90.19601311209454
 30
0.0
 11
2591.226027470512
 21
89.6161300046001
 31
0.0
  0
LINE
  5
2663E
330
1F
100
AcDbEntity
  8
AM_VIS
100
AcDbLine
 10
2591.226027470512
 20
89.6161300046001
 30
0.0
 11
2591.226027470512
 21
86.7917207194066
 31
0.0
  0
LINE
  5
2663F
330
1F
100
AcDbEntity
  8
AM_VIS
100
AcDbLine
 10
2591.226027470512
 20
86.7917207194066
 30
0.0
 11
2591.226027470512
 21
85.81489348699779
 31
0.0
  0
LINE
  5
26640
330
1F
100
AcDbEntity
  8
AM_VIS
100
AcDbLine
 10
2591.226027470512
 20
85.81489348699779
 30
0.0
 11
2591.226027470512
 21
85.26351563510571
 31
0.0
  0
LINE
  5
26641
330
1F
100
AcDbEntity
  8
AM_VIS
100
AcDbLine
 10
2577.076027470512
 20
102.157367897593
 30
0.0
 11
2574.226027470512
 21
102.157367897593
 31
0.0
  0
LINE
  5
26642
330
1F
100
AcDbEntity
  8
AM_VIS
100
AcDbLine
 10
2572.226027470512
 20
101.7409744549701
 30
0.0
 11
2584.226027470512
 21
101.7409744549701
 31
0.0
  0
LINE
  5
26643
330
1F
100
AcDbEntity
  8
AM_VIS
100
AcDbLine
 10
2568.726027470512
 20
103.2409744549701
 30
0.0
 11
2546.726027470512
 21
103.2409744549701
 31
0.0
  0
SPLINE
  5
26644
330
1F
100
AcDbEntity
  8
AM_VIS
100
AcDbSpline
210
0.0
220
0.0
230
1.0
 70
     8
 71
     3
 72
    16
 73
    12
 74
     0
 42
0.0000000001
 43
0.0000000001
 40
13.44245735600753
 40
13.44245735600753
 40
13.44245735600753
 40
13.44245735600753
 40
14.73830257098713
 40
14.73830257098713
 40
16.09309933183528
 40
16.09309933183528
 40
17.1151508050885
 40
17.1151508050885
 40
18.13720227834172
 40
18.13720227834172
 40
18.55503350861849
 40
18.55503350861849
 40
18.55503350861849
 40
18.55503350861849
 10
2568.726027470512
 20
95.7007041723598
 30
0.0
 10
2569.029561638996
 20
96.01247043492401
 30
0.0
 10
2569.332560918949
 20
96.3725707938304
 30
0.0
 10
2569.925819291106
 20
97.11616706180302
 30
0.0
 10
2570.213901842024
 20
97.50053490083974
 30
0.0
 10
2570.654098701234
 20
98.10917533386703
 30
0.0
 10
2570.844031791819
 20
98.37994504541326
 30
0.0
 10
2571.206275932077
 20
98.91688090126468
 30
0.0
 10
2571.378594916398
 20
99.18304273943682
 30
0.0
 10
2571.596193626485
 20
99.54037848640394
 30
0.0
 10
2571.65637190638
 20
99.64201878723635
 30
0.0
 10
2571.712985154781
 20
99.74097445497012
 30
0.0
  0
ARC
  5
26645
330
1F
100
AcDbEntity
  8
AM_VIS
100
AcDbCircle
 10
2568.726027470512
 20
99.74097445497012
 30
0.0
 40
3.499999999999999
100
AcDbArc
 50
20.04165840857354
 51
90.0
  0
LINE
  5
26646
330
1F
100
AcDbEntity
  8
AM_VIS
100
AcDbLine
 10
2572.226027470512
 20
101.7409744549701
 30
0.0
 11
2572.226027470512
 21
103.7409744549699
 31
0.0
  0
ARC
  5
26647
330
1F
100
AcDbEntity
  8
AM_VIS
100
AcDbCircle
 10
2541.029962804593
 20
107.0050140766768
 30
0.0
 40
33.54815021400476
100
AcDbArc
 50
350.9724142608504
 51
351.691779818856
  0
LINE
  5
26648
330
1F
100
AcDbEntity
  8
AM_VIS
100
AcDbLine
 10
2572.226027470512
 20
102.7409744549701
 30
0.0
 11
2572.726027470512
 21
102.7409744549701
 31
0.0
  0
LINE
  5
26649
330
1F
100
AcDbEntity
  8
AM_VIS
100
AcDbLine
 10
2572.926027470512
 20
101.7409744549701
 30
0.0
 11
2572.726027470512
 21
102.7409744549701
 31
0.0
  0
LINE
  5
2664A
330
1F
100
AcDbEntity
  8
AM_VIS
100
AcDbLine
 10
2572.726027470512
 20
102.7409744549701
 30
0.0
 11
2572.726027470512
 21
101.7409744549701
 31
0.0
  0
LINE
  5
2664B
330
1F
100
AcDbEntity
  8
AM_VIS
100
AcDbLine
 10
2574.226027470512
 20
101.7409744549701
 30
0.0
 11
2574.226027470512
 21
102.157367897593
 31
0.0
  0
SPLINE
  5
2664C
330
1F
100
AcDbEntity
  8
AM_VIS
100
AcDbSpline
210
0.0
220
0.0
230
1.0
 70
     8
 71
     3
 72
    18
 73
    14
 74
     0
 42
0.0000000001
 43
0.0000000001
 40
4.975287104260677
 40
4.975287104260677
 40
4.975287104260677
 40
4.975287104260677
 40
5.086400028382842
 40
5.086400028382842
 40
5.588960013482415
 40
5.588960013482415
 40
6.091519998581987
 40
6.091519998581987
 40
6.59407998368156
 40
6.59407998368156
 40
7.096639968781131
 40
7.096639968781131
 40
7.11590156427612
 40
7.11590156427612
 40
7.11590156427612
 40
7.11590156427612
 10
2571.712985154781
 20
99.74097445497012
 30
0.0
 10
2571.727948100765
 20
99.76712855057497
 30
0.0
 10
2571.742504894862
 20
99.79324887859343
 30
0.0
 10
2571.820478776849
 20
99.93704124032433
 30
0.0
 10
2571.875231337584
 20
100.0530023795721
 30
0.0
 10
2571.962596670333
 20
100.2728017608486
 30
0.0
 10
2571.995266411774
 20
100.3767562581073
 30
0.0
 10
2572.037894715651
 20
100.566434833194
 30
0.0
 10
2572.04785112653
 20
100.6521556479319
 30
0.0
 10
2572.04785112653
 20
100.8019900865258
 30
0.0
 10
2572.037894715651
 20
100.8719763469674
 30
0.0
 10
2572.015763657104
 20
100.9357640012445
 30
0.0
 10
2572.014930282512
 20
100.9381062117646
 30
0.0
 10
2572.014080412311
 20
100.9404359391062
 30
0.0
  0
LINE
  5
2664D
330
1F
100
AcDbEntity
  8
AM_VIS
100
AcDbLine
 10
2571.727371274982
 20
101.5415119767583
 30
0.0
 11
2572.226027470512
 21
101.7409744549701
 31
0.0
  0
LINE
  5
2664E
330
1F
100
AcDbEntity
  8
AM_VIS
100
AcDbLine
 10
2579.726027470512
 20
102.157367897593
 30
0.0
 11
2578.576027470512
 21
102.157367897593
 31
0.0
  0
LINE
  5
2664F
330
1F
100
AcDbEntity
  8
AM_VIS
100
AcDbLine
 10
2577.076027470512
 20
102.157367897593
 30
0.0
 11
2577.076027470512
 21
101.7409744549701
 31
0.0
  0
LINE
  5
26650
330
1F
100
AcDbEntity
  8
AM_VIS
100
AcDbLine
 10
2578.576027470512
 20
101.7409744549701
 30
0.0
 11
2578.576027470512
 21
102.157367897593
 31
0.0
  0
SPLINE
  5
26651
330
1F
100
AcDbEntity
  8
AM_VIS
100
AcDbSpline
210
0.0
220
0.0
230
1.0
 70
     8
 71
     3
 72
     8
 73
     4
 74
     0
 42
0.0000000001
 43
0.0000000001
 40
7.8606508081159
 40
7.8606508081159
 40
7.8606508081159
 40
7.8606508081159
 40
8.796495530230886
 40
8.796495530230886
 40
8.796495530230886
 40
8.796495530230886
 10
2580.226027470512
 20
101.89097445497
 30
0.0
 10
2580.07498820406
 20
101.9693828173357
 30
0.0
 10
2579.905888462764
 20
102.0590832023731
 30
0.0
 10
2579.726027470512
 20
102.157367897593
 30
0.0
  0
LINE
  5
26652
330
1F
100
AcDbEntity
  8
AM_VIS
100
AcDbLine
 10
2580.226027470512
 20
101.89097445497
 30
0.0
 11
2580.226027470512
 21
101.7409744549701
 31
0.0
  0
LINE
  5
26653
330
1F
100
AcDbEntity
  8
AM_VIS
100
AcDbLine
 10
2579.726027470512
 20
101.7409744549701
 30
0.0
 11
2579.726027470512
 21
102.157367897593
 31
0.0
  0
LINE
  5
26654
330
1F
100
AcDbEntity
  8
AM_VIS
100
AcDbLine
 10
2591.226027470512
 20
99.28353595338307
 30
0.0
 11
2585.726027470512
 21
99.28353595338307
 31
0.0
  0
LINE
  5
26655
330
1F
100
AcDbEntity
  8
AM_VIS
100
AcDbLine
 10
2585.726027470512
 20
99.98805072351467
 30
0.0
 11
2591.226027470512
 21
99.98805072351467
 31
0.0
  0
LINE
  5
26656
330
1F
100
AcDbEntity
  8
AM_VIS
100
AcDbLine
 10
2591.226027470512
 20
97.73396109352075
 30
0.0
 11
2585.726027470512
 21
97.73396109352075
 31
0.0
  0
LINE
  5
26657
330
1F
100
AcDbEntity
  8
AM_VIS
100
AcDbLine
 10
2591.226027470512
 20
95.88637904073607
 30
0.0
 11
2585.726027470512
 21
95.88637904073607
 31
0.0
  0
LINE
  5
26658
330
1F
100
AcDbEntity
  8
AM_VIS
100
AcDbLine
 10
2591.226027470512
 20
101.8356327762994
 30
0.0
 11
2585.726027470512
 21
101.8356327762994
 31
0.0
  0
LINE
  5
26659
330
1F
100
AcDbEntity
  8
AM_VIS
100
AcDbLine
 10
2585.726027470512
 20
97.73396109352075
 30
0.0
 11
2585.726027470512
 21
99.28353595338307
 31
0.0
  0
LINE
  5
2665A
330
1F
100
AcDbEntity
  8
AM_VIS
100
AcDbLine
 10
2585.726027470512
 20
99.28353595338307
 30
0.0
 11
2585.726027470512
 21
99.98805072351457
 31
0.0
  0
LINE
  5
2665B
330
1F
100
AcDbEntity
  8
AM_VIS
100
AcDbLine
 10
2585.726027470512
 20
97.73396109352075
 30
0.0
 11
2585.726027470512
 21
95.88637904073607
 31
0.0
  0
LINE
  5
2665C
330
1F
100
AcDbEntity
  8
AM_VIS
100
AcDbLine
 10
2585.726027470512
 20
101.8356327762994
 30
0.0
 11
2585.726027470512
 21
99.98805072351457
 31
0.0
  0
LINE
  5
2665D
330
1F
100
AcDbEntity
  8
AM_VIS
100
AcDbLine
 10
2585.726027470512
 20
99.49097445497001
 30
0.0
 11
2584.226027470512
 21
99.49097445497001
 31
0.0
  0
LINE
  5
2665E
330
1F
100
AcDbEntity
  8
AM_VIS
100
AcDbLine
 10
2591.226027470512
 20
99.28353595338307
 30
0.0
 11
2591.226027470512
 21
97.73396109352075
 31
0.0
  0
LINE
  5
2665F
330
1F
100
AcDbEntity
  8
AM_VIS
100
AcDbLine
 10
2591.226027470512
 20
99.98805072351457
 30
0.0
 11
2591.226027470512
 21
99.28353595338297
 31
0.0
  0
LINE
  5
26660
330
1F
100
AcDbEntity
  8
AM_VIS
100
AcDbLine
 10
2591.226027470512
 20
97.73396109352075
 30
0.0
 11
2591.226027470512
 21
95.88637904073607
 31
0.0
  0
LINE
  5
26661
330
1F
100
AcDbEntity
  8
AM_VIS
100
AcDbLine
 10
2591.226027470512
 20
101.8356327762994
 30
0.0
 11
2591.226027470512
 21
99.98805072351457
 31
0.0
  0
CIRCLE
  5
26668
330
1F
100
AcDbEntity
  8
AM_VIS
100
AcDbCircle
 10
2389.726027470512
 20
92.74097445497011
 30
0.0
 40
3.5
  0
INSERT
  5
26669
330
1F
100
AcDbEntity
  8
0
100
AcDbBlockReference
  2
A$C75484636
 10
2392.476027224956
 20
89.99097424850402
 30
0.0
 41
-1.0
  0
LINE
  5
2666A
330
1F
100
AcDbEntity
  8
AM_VIS
100
AcDbLine
 10
2404.226027470512
 20
99.74097445497012
 30
0.0
 11
2404.226027470512
 21
85.74097445497011
 31
0.0
  0
LINE
  5
2666B
330
1F
100
AcDbEntity
  8
AM_VIS
100
AcDbLine
 10
2375.226027470512
 20
83.74097445497012
 30
0.0
 11
2375.226027470512
 21
101.7409744549701
 31
0.0
  0
SPLINE
  5
2666C
330
1F
100
AcDbEntity
  8
AM_VIS
100
AcDbSpline
210
0.0
220
0.0
230
1.0
 70
    12
 71
     2
 72
     6
 73
     3
 74
     0
 42
0.0000000001
 43
0.0000000001
 40
3.381727793507036
 40
3.381727793507036
 40
3.381727793507036
 40
6.763455587014078
 40
6.763455587014078
 40
6.763455587014078
 10
2380.226027470512
 20
92.74097445497011
 30
0.0
 41
1.0
 10
2380.226027470512
 20
94.16002294960902
 30
0.0
 41
1.021203771466384
 10
2378.726027470512
 20
95.7007041723598
 30
0.0
 41
1.0
  0
LINE
  5
2666D
330
1F
100
AcDbEntity
  8
AM_VIS
100
AcDbLine
 10
2363.226027470512
 20
101.7409744549701
 30
0.0
 11
2363.226027470512
 21
83.74097445497012
 31
0.0
  0
LINE
  5
2666E
330
1F
100
AcDbEntity
  8
AM_VIS
100
AcDbLine
 10
2361.726027470512
 20
95.88637904073607
 30
0.0
 11
2361.726027470512
 21
93.06196975554234
 31
0.0
  0
LINE
  5
2666F
330
1F
100
AcDbEntity
  8
AM_VIS
100
AcDbLine
 10
2356.226027470512
 20
95.88637904073607
 30
0.0
 11
2356.226027470512
 21
93.06196975554234
 31
0.0
  0
LINE
  5
26670
330
1F
100
AcDbEntity
  8
AM_VIS
100
AcDbLine
 10
2406.726027470512
 20
106.84097445497
 30
0.0
 11
2406.726027470512
 21
106.9772225115052
 31
0.0
  0
LINE
  5
26671
330
1F
100
AcDbEntity
  8
AM_VIS
100
AcDbLine
 10
2406.726027470512
 20
107.3220528966927
 30
0.0
 11
2406.726027470512
 21
107.34097445497
 31
0.0
  0
LINE
  5
26672
330
1F
100
AcDbEntity
  8
AM_VIS
100
AcDbLine
 10
2404.726027470512
 20
107.34097445497
 30
0.0
 11
2404.726027470512
 21
106.84097445497
 31
0.0
  0
LINE
  5
26673
330
1F
100
AcDbEntity
  8
AM_VIS
100
AcDbLine
 10
2404.726027470512
 20
107.34097445497
 30
0.0
 11
2406.726027470512
 21
107.34097445497
 31
0.0
  0
LINE
  5
26674
330
1F
100
AcDbEntity
  8
AM_VIS
100
AcDbLine
 10
2406.726027470512
 20
106.9772225115052
 30
0.0
 11
2406.726027470512
 21
107.3220528966928
 31
0.0
  0
LINE
  5
26675
330
1F
100
AcDbEntity
  8
AM_VIS
100
AcDbLine
 10
2413.076537727729
 20
95.24097445497
 30
0.0
 11
2413.148528784918
 21
95.24097445497
 31
0.0
  0
LINE
  5
26676
330
1F
100
AcDbEntity
  8
AM_VIS
100
AcDbLine
 10
2412.938014126012
 20
95.02235275080193
 30
0.0
 11
2412.871726607515
 21
95.02235275080193
 31
0.0
  0
LINE
  5
26677
330
1F
100
AcDbEntity
  8
AM_VIS
100
AcDbLine
 10
2406.726027470512
 20
78.14097445496997
 30
0.0
 11
2406.726027470512
 21
78.15989601324725
 31
0.0
  0
LINE
  5
26678
330
1F
100
AcDbEntity
  8
AM_VIS
100
AcDbLine
 10
2406.726027470512
 20
78.50472639843474
 30
0.0
 11
2406.726027470512
 21
78.64097445497009
 31
0.0
  0
LINE
  5
26679
330
1F
100
AcDbEntity
  8
AM_VIS
100
AcDbLine
 10
2404.726027470512
 20
78.64097445496998
 30
0.0
 11
2404.726027470512
 21
78.14097445496997
 31
0.0
  0
LINE
  5
2667A
330
1F
100
AcDbEntity
  8
AM_VIS
100
AcDbLine
 10
2406.726027470512
 20
78.14097445496997
 30
0.0
 11
2404.726027470512
 21
78.14097445496997
 31
0.0
  0
LINE
  5
2667B
330
1F
100
AcDbEntity
  8
AM_VIS
100
AcDbLine
 10
2406.726027470512
 20
78.15840556157173
 30
0.0
 11
2406.811415389816
 21
78.15840556157173
 31
0.0
  0
LINE
  5
2667C
330
1F
100
AcDbEntity
  8
AM_VIS
100
AcDbLine
 10
2406.726027470512
 20
78.15989601324725
 30
0.0
 11
2406.726027470512
 21
78.50472639843474
 31
0.0
  0
LINE
  5
2667D
330
1F
100
AcDbEntity
  8
AM_VIS
100
AcDbLine
 10
2413.026027470511
 20
93.24097445497001
 30
0.0
 11
2413.026027470511
 21
92.24097445496999
 31
0.0
  0
LINE
  5
2667E
330
1F
100
AcDbEntity
  8
AM_VIS
100
AcDbLine
 10
2413.148528784919
 20
90.24097445497
 30
0.0
 11
2413.076537727729
 21
90.24097445497
 31
0.0
  0
LINE
  5
2667F
330
1F
100
AcDbEntity
  8
AM_VIS
100
AcDbLine
 10
2418.026027470512
 20
92.24097445496999
 30
0.0
 11
2418.026027470512
 21
93.24097445497001
 31
0.0
  0
LINE
  5
26680
330
1F
100
AcDbEntity
  8
AM_VIS
100
AcDbLine
 10
2418.026027470512
 20
93.24097445497001
 30
0.0
 11
2413.026027470511
 21
93.24097445497001
 31
0.0
  0
LINE
  5
26681
330
1F
100
AcDbEntity
  8
AM_VIS
100
AcDbLine
 10
2413.026027470511
 20
92.24097445496999
 30
0.0
 11
2418.026027470512
 21
92.24097445496999
 31
0.0
  0
LINE
  5
26682
330
1F
100
AcDbEntity
  8
AM_VIS
100
AcDbLine
 10
2406.726027470512
 20
78.64097445496998
 30
0.0
 11
2406.726027470512
 21
106.84097445497
 31
0.0
  0
LINE
  5
26683
330
1F
100
AcDbEntity
  8
AM_VIS
100
AcDbLine
 10
2404.726027470512
 20
78.64097445496998
 30
0.0
 11
2404.726027470512
 21
106.84097445497
 31
0.0
  0
CIRCLE
  5
26684
330
1F
100
AcDbEntity
  8
AM_VIS
100
AcDbCircle
 10
2415.526027470512
 20
92.74097445497
 30
0.0
 40
3.449999999999999
  0
CIRCLE
  5
26685
330
1F
100
AcDbEntity
  8
AM_VIS
100
AcDbCircle
 10
2415.526027470512
 20
92.74097445497
 30
0.0
 40
3.5
  0
ARC
  5
26686
330
1F
100
AcDbEntity
  8
AM_VIS
100
AcDbCircle
 10
2400.726027470512
 20
99.74097445497012
 30
0.0
 40
3.5
100
AcDbArc
 50
0.0
 51
90.0
  0
ARC
  5
26687
330
1F
100
AcDbEntity
  8
AM_VIS
100
AcDbCircle
 10
2400.726027470512
 20
85.74097445497011
 30
0.0
 40
3.5
100
AcDbArc
 50
270.0
 51
0.0
  0
LINE
  5
26688
330
1F
100
AcDbEntity
  8
AM_VIS
100
AcDbLine
 10
2404.726027470512
 20
103.7409744549699
 30
0.0
 11
2375.226027470512
 21
103.7409744549699
 31
0.0
  0
LINE
  5
26689
330
1F
100
AcDbEntity
  8
AM_VIS
100
AcDbLine
 10
2404.726027470512
 20
81.74097445497
 30
0.0
 11
2375.226027470512
 21
81.74097445497
 31
0.0
  0
LINE
  5
2668A
330
1F
100
AcDbEntity
  8
AM_VIS
100
AcDbLine
 10
2356.226027470512
 20
101.8356327762994
 30
0.0
 11
2356.226027470512
 21
99.98805072351457
 31
0.0
  0
LINE
  5
2668B
330
1F
100
AcDbEntity
  8
AM_VIS
100
AcDbLine
 10
2356.226027470512
 20
97.73396109352075
 30
0.0
 11
2356.226027470512
 21
95.88637904073607
 31
0.0
  0
LINE
  5
2668C
330
1F
100
AcDbEntity
  8
AM_VIS
100
AcDbLine
 10
2356.226027470512
 20
99.98805072351457
 30
0.0
 11
2356.226027470512
 21
99.28353595338297
 31
0.0
  0
LINE
  5
2668D
330
1F
100
AcDbEntity
  8
AM_VIS
100
AcDbLine
 10
2356.226027470512
 20
99.28353595338307
 30
0.0
 11
2356.226027470512
 21
97.73396109352075
 31
0.0
  0
LINE
  5
2668E
330
1F
100
AcDbEntity
  8
AM_VIS
100
AcDbLine
 10
2361.726027470512
 20
99.49097445497001
 30
0.0
 11
2363.226027470512
 21
99.49097445497001
 31
0.0
  0
LINE
  5
2668F
330
1F
100
AcDbEntity
  8
AM_VIS
100
AcDbLine
 10
2361.726027470512
 20
101.8356327762994
 30
0.0
 11
2361.726027470512
 21
99.98805072351457
 31
0.0
  0
LINE
  5
26690
330
1F
100
AcDbEntity
  8
AM_VIS
100
AcDbLine
 10
2361.726027470512
 20
97.73396109352075
 30
0.0
 11
2361.726027470512
 21
95.88637904073607
 31
0.0
  0
LINE
  5
26691
330
1F
100
AcDbEntity
  8
AM_VIS
100
AcDbLine
 10
2361.726027470512
 20
99.28353595338307
 30
0.0
 11
2361.726027470512
 21
99.98805072351457
 31
0.0
  0
LINE
  5
26692
330
1F
100
AcDbEntity
  8
AM_VIS
100
AcDbLine
 10
2361.726027470512
 20
97.73396109352075
 30
0.0
 11
2361.726027470512
 21
99.28353595338307
 31
0.0
  0
LINE
  5
26693
330
1F
100
AcDbEntity
  8
AM_VIS
100
AcDbLine
 10
2356.226027470512
 20
101.8356327762994
 30
0.0
 11
2361.726027470512
 21
101.8356327762994
 31
0.0
  0
LINE
  5
26694
330
1F
100
AcDbEntity
  8
AM_VIS
100
AcDbLine
 10
2356.226027470512
 20
95.88637904073607
 30
0.0
 11
2361.726027470512
 21
95.88637904073607
 31
0.0
  0
LINE
  5
26695
330
1F
100
AcDbEntity
  8
AM_VIS
100
AcDbLine
 10
2356.226027470512
 20
97.73396109352075
 30
0.0
 11
2361.726027470512
 21
97.73396109352075
 31
0.0
  0
LINE
  5
26696
330
1F
100
AcDbEntity
  8
AM_VIS
100
AcDbLine
 10
2361.726027470512
 20
99.98805072351467
 30
0.0
 11
2356.226027470512
 21
99.98805072351467
 31
0.0
  0
LINE
  5
26697
330
1F
100
AcDbEntity
  8
AM_VIS
100
AcDbLine
 10
2356.226027470512
 20
99.28353595338307
 30
0.0
 11
2361.726027470512
 21
99.28353595338307
 31
0.0
  0
LINE
  5
26698
330
1F
100
AcDbEntity
  8
AM_VIS
100
AcDbLine
 10
2367.726027470512
 20
101.7409744549701
 30
0.0
 11
2367.726027470512
 21
102.157367897593
 31
0.0
  0
LINE
  5
26699
330
1F
100
AcDbEntity
  8
AM_VIS
100
AcDbLine
 10
2367.226027470512
 20
101.89097445497
 30
0.0
 11
2367.226027470512
 21
101.7409744549701
 31
0.0
  0
SPLINE
  5
2669A
330
1F
100
AcDbEntity
  8
AM_VIS
100
AcDbSpline
210
0.0
220
0.0
230
1.0
 70
     8
 71
     3
 72
     8
 73
     4
 74
     0
 42
0.0000000001
 43
0.0000000001
 40
7.8606508081159
 40
7.8606508081159
 40
7.8606508081159
 40
7.8606508081159
 40
8.796495530230886
 40
8.796495530230886
 40
8.796495530230886
 40
8.796495530230886
 10
2367.226027470512
 20
101.89097445497
 30
0.0
 10
2367.377066736964
 20
101.9693828173357
 30
0.0
 10
2367.546166478259
 20
102.0590832023731
 30
0.0
 10
2367.726027470512
 20
102.157367897593
 30
0.0
  0
LINE
  5
2669B
330
1F
100
AcDbEntity
  8
AM_VIS
100
AcDbLine
 10
2368.876027470512
 20
101.7409744549701
 30
0.0
 11
2368.876027470512
 21
102.157367897593
 31
0.0
  0
LINE
  5
2669C
330
1F
100
AcDbEntity
  8
AM_VIS
100
AcDbLine
 10
2370.376027470512
 20
102.157367897593
 30
0.0
 11
2370.376027470512
 21
101.7409744549701
 31
0.0
  0
LINE
  5
2669D
330
1F
100
AcDbEntity
  8
AM_VIS
100
AcDbLine
 10
2367.726027470512
 20
102.157367897593
 30
0.0
 11
2368.876027470512
 21
102.157367897593
 31
0.0
  0
LINE
  5
2669E
330
1F
100
AcDbEntity
  8
AM_VIS
100
AcDbLine
 10
2375.724683666042
 20
101.5415119767583
 30
0.0
 11
2375.226027470512
 21
101.7409744549701
 31
0.0
  0
SPLINE
  5
2669F
330
1F
100
AcDbEntity
  8
AM_VIS
100
AcDbSpline
210
0.0
220
0.0
230
1.0
 70
     8
 71
     3
 72
    18
 73
    14
 74
     0
 42
0.0000000001
 43
0.0000000001
 40
4.975287104260677
 40
4.975287104260677
 40
4.975287104260677
 40
4.975287104260677
 40
5.086400028382842
 40
5.086400028382842
 40
5.588960013482415
 40
5.588960013482415
 40
6.091519998581987
 40
6.091519998581987
 40
6.59407998368156
 40
6.59407998368156
 40
7.096639968781131
 40
7.096639968781131
 40
7.11590156427612
 40
7.11590156427612
 40
7.11590156427612
 40
7.11590156427612
 10
2375.739069786243
 20
99.74097445497012
 30
0.0
 10
2375.724106840258
 20
99.76712855057497
 30
0.0
 10
2375.709550046162
 20
99.79324887859343
 30
0.0
 10
2375.631576164174
 20
99.93704124032433
 30
0.0
 10
2375.57682360344
 20
100.0530023795721
 30
0.0
 10
2375.489458270692
 20
100.2728017608486
 30
0.0
 10
2375.45678852925
 20
100.3767562581073
 30
0.0
 10
2375.414160225373
 20
100.566434833194
 30
0.0
 10
2375.404203814495
 20
100.6521556479319
 30
0.0
 10
2375.404203814495
 20
100.8019900865258
 30
0.0
 10
2375.414160225373
 20
100.8719763469674
 30
0.0
 10
2375.43629128392
 20
100.9357640012445
 30
0.0
 10
2375.437124658512
 20
100.9381062117646
 30
0.0
 10
2375.437974528713
 20
100.9404359391062
 30
0.0
  0
LINE
  5
266A0
330
1F
100
AcDbEntity
  8
AM_VIS
100
AcDbLine
 10
2373.226027470512
 20
101.7409744549701
 30
0.0
 11
2373.226027470512
 21
102.157367897593
 31
0.0
  0
LINE
  5
266A1
330
1F
100
AcDbEntity
  8
AM_VIS
100
AcDbLine
 10
2374.726027470512
 20
102.7409744549701
 30
0.0
 11
2374.726027470512
 21
101.7409744549701
 31
0.0
  0
LINE
  5
266A2
330
1F
100
AcDbEntity
  8
AM_VIS
100
AcDbLine
 10
2374.526027470512
 20
101.7409744549701
 30
0.0
 11
2374.726027470512
 21
102.7409744549701
 31
0.0
  0
LINE
  5
266A3
330
1F
100
AcDbEntity
  8
AM_VIS
100
AcDbLine
 10
2375.226027470512
 20
102.7409744549701
 30
0.0
 11
2374.726027470512
 21
102.7409744549701
 31
0.0
  0
ARC
  5
266A4
330
1F
100
AcDbEntity
  8
AM_VIS
100
AcDbCircle
 10
2406.42209213643
 20
107.0050140766768
 30
0.0
 40
33.54815021400476
100
AcDbArc
 50
188.3082201811439
 51
189.0275857391495
  0
LINE
  5
266A5
330
1F
100
AcDbEntity
  8
AM_VIS
100
AcDbLine
 10
2375.226027470512
 20
101.7409744549701
 30
0.0
 11
2375.226027470512
 21
103.7409744549699
 31
0.0
  0
ARC
  5
266A6
330
1F
100
AcDbEntity
  8
AM_VIS
100
AcDbCircle
 10
2378.726027470512
 20
99.74097445497012
 30
0.0
 40
3.499999999999999
100
AcDbArc
 50
90.0
 51
159.9583415914264
  0
SPLINE
  5
266A7
330
1F
100
AcDbEntity
  8
AM_VIS
100
AcDbSpline
210
0.0
220
0.0
230
1.0
 70
     8
 71
     3
 72
    16
 73
    12
 74
     0
 42
0.0000000001
 43
0.0000000001
 40
13.44245735600753
 40
13.44245735600753
 40
13.44245735600753
 40
13.44245735600753
 40
14.73830257098713
 40
14.73830257098713
 40
16.09309933183528
 40
16.09309933183528
 40
17.1151508050885
 40
17.1151508050885
 40
18.13720227834172
 40
18.13720227834172
 40
18.55503350861849
 40
18.55503350861849
 40
18.55503350861849
 40
18.55503350861849
 10
2378.726027470512
 20
95.7007041723598
 30
0.0
 10
2378.422493302028
 20
96.01247043492401
 30
0.0
 10
2378.119494022075
 20
96.3725707938304
 30
0.0
 10
2377.526235649918
 20
97.11616706180302
 30
0.0
 10
2377.238153098999
 20
97.50053490083974
 30
0.0
 10
2376.797956239789
 20
98.10917533386703
 30
0.0
 10
2376.608023149205
 20
98.37994504541326
 30
0.0
 10
2376.245779008947
 20
98.91688090126468
 30
0.0
 10
2376.073460024627
 20
99.18304273943682
 30
0.0
 10
2375.855861314539
 20
99.54037848640394
 30
0.0
 10
2375.795683034644
 20
99.64201878723635
 30
0.0
 10
2375.739069786243
 20
99.74097445497012
 30
0.0
  0
LINE
  5
266A8
330
1F
100
AcDbEntity
  8
AM_VIS
100
AcDbLine
 10
2378.726027470512
 20
103.2409744549701
 30
0.0
 11
2400.726027470512
 21
103.2409744549701
 31
0.0
  0
LINE
  5
266A9
330
1F
100
AcDbEntity
  8
AM_VIS
100
AcDbLine
 10
2375.226027470512
 20
101.7409744549701
 30
0.0
 11
2363.226027470512
 21
101.7409744549701
 31
0.0
  0
LINE
  5
266AA
330
1F
100
AcDbEntity
  8
AM_VIS
100
AcDbLine
 10
2370.376027470512
 20
102.157367897593
 30
0.0
 11
2373.226027470512
 21
102.157367897593
 31
0.0
  0
LINE
  5
266AB
330
1F
100
AcDbEntity
  8
AM_VIS
100
AcDbLine
 10
2356.226027470512
 20
85.81489348699779
 30
0.0
 11
2356.226027470512
 21
85.26351563510571
 31
0.0
  0
LINE
  5
266AC
330
1F
100
AcDbEntity
  8
AM_VIS
100
AcDbLine
 10
2356.226027470512
 20
86.7917207194066
 30
0.0
 11
2356.226027470512
 21
85.81489348699779
 31
0.0
  0
LINE
  5
266AD
330
1F
100
AcDbEntity
  8
AM_VIS
100
AcDbLine
 10
2356.226027470512
 20
89.6161300046001
 30
0.0
 11
2356.226027470512
 21
86.7917207194066
 31
0.0
  0
LINE
  5
266AE
330
1F
100
AcDbEntity
  8
AM_VIS
100
AcDbLine
 10
2356.226027470512
 20
90.19601311209454
 30
0.0
 11
2356.226027470512
 21
89.6161300046001
 31
0.0
  0
LINE
  5
266AF
330
1F
100
AcDbEntity
  8
AM_VIS
100
AcDbLine
 10
2356.226027470512
 20
92.65732721991037
 30
0.0
 11
2356.226027470512
 21
90.19601311209454
 31
0.0
  0
LINE
  5
266B0
330
1F
100
AcDbEntity
  8
AM_VIS
100
AcDbLine
 10
2356.226027470512
 20
93.06196975554234
 30
0.0
 11
2356.226027470512
 21
92.65732721991037
 31
0.0
  0
LINE
  5
266B1
330
1F
100
AcDbEntity
  8
AM_VIS
100
AcDbLine
 10
2361.726027470512
 20
85.99097445496999
 30
0.0
 11
2363.226027470512
 21
85.99097445496999
 31
0.0
  0
LINE
  5
266B2
330
1F
100
AcDbEntity
  8
AM_VIS
100
AcDbLine
 10
2361.726027470512
 20
92.65732721991037
 30
0.0
 11
2361.726027470512
 21
93.06196975554234
 31
0.0
  0
LINE
  5
266B3
330
1F
100
AcDbEntity
  8
AM_VIS
100
AcDbLine
 10
2361.726027470512
 20
90.19601311209454
 30
0.0
 11
2361.726027470512
 21
92.65732721991037
 31
0.0
  0
LINE
  5
266B4
330
1F
100
AcDbEntity
  8
AM_VIS
100
AcDbLine
 10
2361.726027470512
 20
89.6161300046001
 30
0.0
 11
2361.726027470512
 21
90.19601311209454
 31
0.0
  0
LINE
  5
266B5
330
1F
100
AcDbEntity
  8
AM_VIS
100
AcDbLine
 10
2361.726027470512
 20
89.6161300046001
 30
0.0
 11
2361.726027470512
 21
86.7917207194066
 31
0.0
  0
LINE
  5
266B6
330
1F
100
AcDbEntity
  8
AM_VIS
100
AcDbLine
 10
2361.726027470512
 20
86.7917207194066
 30
0.0
 11
2361.726027470512
 21
85.81489348699779
 31
0.0
  0
LINE
  5
266B7
330
1F
100
AcDbEntity
  8
AM_VIS
100
AcDbLine
 10
2361.726027470512
 20
85.26351563510571
 30
0.0
 11
2361.726027470512
 21
85.81489348699779
 31
0.0
  0
LINE
  5
266B8
330
1F
100
AcDbEntity
  8
AM_VIS
100
AcDbLine
 10
2356.226027470512
 20
89.6161300046001
 30
0.0
 11
2361.726027470512
 21
89.6161300046001
 31
0.0
  0
LINE
  5
266B9
330
1F
100
AcDbEntity
  8
AM_VIS
100
AcDbLine
 10
2361.726027470512
 20
93.06196975554234
 30
0.0
 11
2356.226027470512
 21
93.06196975554234
 31
0.0
  0
LINE
  5
266BA
330
1F
100
AcDbEntity
  8
AM_VIS
100
AcDbLine
 10
2356.226027470512
 20
92.65732721991037
 30
0.0
 11
2361.726027470512
 21
92.65732721991037
 31
0.0
  0
LINE
  5
266BB
330
1F
100
AcDbEntity
  8
AM_VIS
100
AcDbLine
 10
2356.226027470512
 20
90.19601311209454
 30
0.0
 11
2361.726027470512
 21
90.19601311209454
 31
0.0
  0
LINE
  5
266BC
330
1F
100
AcDbEntity
  8
AM_VIS
100
AcDbLine
 10
2356.226027470512
 20
86.7917207194066
 30
0.0
 11
2361.726027470512
 21
86.7917207194066
 31
0.0
  0
LINE
  5
266BD
330
1F
100
AcDbEntity
  8
AM_VIS
100
AcDbLine
 10
2356.226027470512
 20
85.26351563510571
 30
0.0
 11
2361.726027470512
 21
85.26351563510571
 31
0.0
  0
LINE
  5
266BE
330
1F
100
AcDbEntity
  8
AM_VIS
100
AcDbLine
 10
2361.726027470512
 20
85.81489348699779
 30
0.0
 11
2356.226027470512
 21
85.81489348699779
 31
0.0
  0
LINE
  5
266BF
330
1F
100
AcDbEntity
  8
AM_VIS
100
AcDbLine
 10
2356.226027470512
 20
84.62314336604936
 30
0.0
 11
2356.226027470512
 21
83.64631613364053
 31
0.0
  0
LINE
  5
266C0
330
1F
100
AcDbEntity
  8
AM_VIS
100
AcDbLine
 10
2361.726027470512
 20
84.62314336604936
 30
0.0
 11
2361.726027470512
 21
83.64631613364053
 31
0.0
  0
LINE
  5
266C1
330
1F
100
AcDbEntity
  8
AM_VIS
100
AcDbLine
 10
2356.226027470512
 20
83.64631613364053
 30
0.0
 11
2361.726027470512
 21
83.64631613364053
 31
0.0
  0
LINE
  5
266C2
330
1F
100
AcDbEntity
  8
AM_VIS
100
AcDbLine
 10
2356.226027470512
 20
84.62314336604936
 30
0.0
 11
2361.726027470512
 21
84.62314336604936
 31
0.0
  0
LINE
  5
266C3
330
1F
100
AcDbEntity
  8
AM_VIS
100
AcDbLine
 10
2361.726027470512
 20
84.62314336604947
 30
0.0
 11
2361.726027470512
 21
85.26351563510571
 31
0.0
  0
LINE
  5
266C4
330
1F
100
AcDbEntity
  8
AM_VIS
100
AcDbLine
 10
2356.226027470512
 20
85.26351563510571
 30
0.0
 11
2356.226027470512
 21
84.62314336604947
 31
0.0
  0
LINE
  5
266C5
330
1F
100
AcDbEntity
  8
AM_VIS
100
AcDbLine
 10
2367.726027470512
 20
83.32458101234715
 30
0.0
 11
2367.726027470512
 21
83.74097445497012
 31
0.0
  0
LINE
  5
266C6
330
1F
100
AcDbEntity
  8
AM_VIS
100
AcDbLine
 10
2367.226027470512
 20
83.74097445497012
 30
0.0
 11
2367.226027470512
 21
83.59097445497003
 31
0.0
  0
SPLINE
  5
266C7
330
1F
100
AcDbEntity
  8
AM_VIS
100
AcDbSpline
210
0.0
220
0.0
230
1.0
 70
     8
 71
     3
 72
     8
 73
     4
 74
     0
 42
0.0000000001
 43
0.0000000001
 40
1.63015580392704
 40
1.63015580392704
 40
1.63015580392704
 40
1.63015580392704
 40
2.566002662427006
 40
2.566002662427006
 40
2.566002662427006
 40
2.566002662427006
 10
2367.726027470512
 20
83.32458101234715
 30
0.0
 10
2367.546166237317
 20
83.42286583922975
 30
0.0
 10
2367.377066615943
 20
83.51256615542922
 30
0.0
 10
2367.226027470512
 20
83.59097445497013
 30
0.0
  0
LINE
  5
266C8
330
1F
100
AcDbEntity
  8
AM_VIS
100
AcDbLine
 10
2368.876027470512
 20
83.32458101234715
 30
0.0
 11
2368.876027470512
 21
83.74097445497012
 31
0.0
  0
LINE
  5
266C9
330
1F
100
AcDbEntity
  8
AM_VIS
100
AcDbLine
 10
2370.376027470512
 20
83.74097445497012
 30
0.0
 11
2370.376027470512
 21
83.32458101234715
 31
0.0
  0
LINE
  5
266CA
330
1F
100
AcDbEntity
  8
AM_VIS
100
AcDbLine
 10
2368.876027470512
 20
83.32458101234715
 30
0.0
 11
2367.726027470512
 21
83.32458101234715
 31
0.0
  0
SPLINE
  5
266CB
330
1F
100
AcDbEntity
  8
AM_VIS
100
AcDbSpline
210
0.0
220
0.0
230
1.0
 70
     8
 71
     3
 72
    16
 73
    12
 74
     0
 42
0.0000000001
 43
0.0000000001
 40
1.626271716229691
 40
1.626271716229691
 40
1.626271716229691
 40
1.626271716229691
 40
2.044102946506439
 40
2.044102946506439
 40
3.066154419759659
 40
3.066154419759659
 40
4.088205893012879
 40
4.088205893012879
 40
5.443002653861024
 40
5.443002653861024
 40
6.738847868840626
 40
6.738847868840626
 40
6.738847868840626
 40
6.738847868840626
 10
2375.739069786243
 20
85.74097445497011
 30
0.0
 10
2375.795683034644
 20
85.83993012270401
 30
0.0
 10
2375.855861314539
 20
85.94157042353629
 30
0.0
 10
2376.073460024627
 20
86.29890617050341
 30
0.0
 10
2376.245779008947
 20
86.56506800867555
 30
0.0
 10
2376.608023149205
 20
87.10200386452697
 30
0.0
 10
2376.797956239789
 20
87.3727735760732
 30
0.0
 10
2377.238153098999
 20
87.98141400910049
 30
0.0
 10
2377.526235649918
 20
88.36578184813721
 30
0.0
 10
2378.119494022075
 20
89.10937811610983
 30
0.0
 10
2378.422493302028
 20
89.46947847501622
 30
0.0
 10
2378.726027470512
 20
89.78124473758043
 30
0.0
  0
LINE
  5
266CC
330
1F
100
AcDbEntity
  8
AM_VIS
100
AcDbLine
 10
2375.724683666042
 20
83.9404369331819
 30
0.0
 11
2375.226027470512
 21
83.74097445497012
 31
0.0
  0
LINE
  5
266CD
330
1F
100
AcDbEntity
  8
AM_VIS
100
AcDbLine
 10
2373.226027470512
 20
83.32458101234715
 30
0.0
 11
2373.226027470512
 21
83.74097445497012
 31
0.0
  0
LINE
  5
266CE
330
1F
100
AcDbEntity
  8
AM_VIS
100
AcDbLine
 10
2374.726027470512
 20
83.74097445497012
 30
0.0
 11
2374.726027470512
 21
82.74097445497011
 31
0.0
  0
LINE
  5
266CF
330
1F
100
AcDbEntity
  8
AM_VIS
100
AcDbLine
 10
2374.526027470512
 20
83.74097445497012
 30
0.0
 11
2374.726027470512
 21
82.74097445497011
 31
0.0
  0
LINE
  5
266D0
330
1F
100
AcDbEntity
  8
AM_VIS
100
AcDbLine
 10
2375.226027470512
 20
82.74097445497011
 30
0.0
 11
2374.726027470512
 21
82.74097445497011
 31
0.0
  0
ARC
  5
266D1
330
1F
100
AcDbEntity
  8
AM_VIS
100
AcDbCircle
 10
2406.422092135567
 20
78.47693483339401
 30
0.0
 40
33.54815021313124
100
AcDbArc
 50
170.972414260844
 51
171.6917798188624
  0
LINE
  5
266D2
330
1F
100
AcDbEntity
  8
AM_VIS
100
AcDbLine
 10
2375.226027470512
 20
81.74097445497
 30
0.0
 11
2375.226027470512
 21
83.74097445497012
 31
0.0
  0
ARC
  5
266D3
330
1F
100
AcDbEntity
  8
AM_VIS
100
AcDbCircle
 10
2378.726027470512
 20
85.74097445497011
 30
0.0
 40
3.5
100
AcDbArc
 50
200.0416584085735
 51
270.0
  0
SPLINE
  5
266D4
330
1F
100
AcDbEntity
  8
AM_VIS
100
AcDbSpline
210
0.0
220
0.0
230
1.0
 70
     8
 71
     3
 72
    18
 73
    14
 74
     0
 42
0.0000000001
 43
0.0000000001
 40
6.072258403086962
 40
6.072258403086962
 40
6.072258403086962
 40
6.072258403086962
 40
6.091519998582311
 40
6.091519998582311
 40
6.594079983681931
 40
6.594079983681931
 40
7.096639968781531
 40
7.096639968781531
 40
7.59919995388113
 40
7.59919995388113
 40
8.101759938980729
 40
8.101759938980729
 40
8.212872863102431
 40
8.212872863102431
 40
8.212872863102431
 40
8.212872863102431
 10
2375.437974528713
 20
84.54151297083399
 30
0.0
 10
2375.437124658512
 20
84.54384269817557
 30
0.0
 10
2375.43629128392
 20
84.54618490869576
 30
0.0
 10
2375.414160225373
 20
84.60997256297288
 30
0.0
 10
2375.404203814495
 20
84.6799588234146
 30
0.0
 10
2375.404203814495
 20
84.82979326200847
 30
0.0
 10
2375.414160225373
 20
84.91551407674638
 30
0.0
 10
2375.45678852925
 20
85.10519265183313
 30
0.0
 10
2375.489458270692
 20
85.2091471490918
 30
0.0
 10
2375.57682360344
 20
85.42894653036842
 30
0.0
 10
2375.631576164174
 20
85.54490766961611
 30
0.0
 10
2375.709550046162
 20
85.68870003134703
 30
0.0
 10
2375.724106840258
 20
85.71482035936538
 30
0.0
 10
2375.739069786243
 20
85.74097445497011
 30
0.0
  0
SPLINE
  5
266D5
330
1F
100
AcDbEntity
  8
AM_VIS
100
AcDbSpline
210
0.0
220
0.0
230
1.0
 70
    12
 71
     2
 72
     6
 73
     3
 74
     0
 42
0.0000000001
 43
0.0000000001
 40
0.0
 40
0.0
 40
0.0
 40
3.381727793507036
 40
3.381727793507036
 40
3.381727793507036
 10
2378.726027470512
 20
89.78124473758043
 30
0.0
 41
1.0
 10
2380.226027470512
 20
91.32192596033121
 30
0.0
 41
1.021203771466384
 10
2380.226027470512
 20
92.74097445497011
 30
0.0
 41
1.0
  0
LINE
  5
266D6
330
1F
100
AcDbEntity
  8
AM_VIS
100
AcDbLine
 10
2400.726027470512
 20
82.24097445497012
 30
0.0
 11
2378.726027470512
 21
82.24097445497012
 31
0.0
  0
LINE
  5
266D7
330
1F
100
AcDbEntity
  8
AM_VIS
100
AcDbLine
 10
2375.226027470512
 20
83.74097445497012
 30
0.0
 11
2363.226027470512
 21
83.74097445497012
 31
0.0
  0
LINE
  5
266D8
330
1F
100
AcDbEntity
  8
AM_VIS
100
AcDbLine
 10
2373.226027470512
 20
83.32458101234715
 30
0.0
 11
2370.376027470512
 21
83.32458101234715
 31
0.0
  0
LINE
  5
266D9
330
1F
100
AcDbEntity
  8
AM_VIS
100
AcDbLine
 10
2430.726027470512
 20
107.7409744549699
 30
0.0
 11
2406.726027470512
 21
107.3220528966927
 31
0.0
  0
LINE
  5
266DA
330
1F
100
AcDbEntity
  8
AM_VIS
100
AcDbLine
 10
2430.726027470512
 20
77.74097445497
 30
0.0
 11
2406.726027470512
 21
78.15989601324725
 31
0.0
  0
LINE
  5
266DB
330
1F
100
AcDbEntity
  8
AM_VIS
100
AcDbLine
 10
2375.226027470512
 20
13.57685863950587
 30
0.0
 11
2375.226027470512
 21
29.42000439001356
 31
0.0
  0
LINE
  5
266DC
330
1F
100
AcDbEntity
  8
AM_VIS
100
AcDbLine
 10
2404.226027470512
 20
38.57685863950587
 30
0.0
 11
2404.226027470512
 21
13.57685863950587
 31
0.0
  0
LINE
  5
266DD
330
1F
100
AcDbEntity
  8
AM_VIS
100
AcDbLine
 10
2406.726027470512
 20
18.37685863950616
 30
0.0
 11
2406.726027470512
 21
18.51310669604117
 31
0.0
  0
LINE
  5
266DE
330
1F
100
AcDbEntity
  8
AM_VIS
100
AcDbLine
 10
2406.726027470512
 20
18.85793708122889
 30
0.0
 11
2406.726027470512
 21
18.87685863950616
 31
0.0
  0
LINE
  5
266DF
330
1F
100
AcDbEntity
  8
AM_VIS
100
AcDbLine
 10
2404.726027470512
 20
18.87685863950616
 30
0.0
 11
2404.726027470512
 21
18.37685863950616
 31
0.0
  0
LINE
  5
266E0
330
1F
100
AcDbEntity
  8
AM_VIS
100
AcDbLine
 10
2404.726027470512
 20
18.87685863950616
 30
0.0
 11
2406.726027470512
 21
18.87685863950616
 31
0.0
  0
LINE
  5
266E1
330
1F
100
AcDbEntity
  8
AM_VIS
100
AcDbLine
 10
2406.726027470512
 20
17.61171123715894
 30
0.0
 11
2406.811415389816
 21
17.61400633147445
 31
0.0
  0
LINE
  5
266E2
330
1F
100
AcDbEntity
  8
AM_VIS
100
AcDbLine
 10
2406.726027470512
 20
17.61400633147434
 30
0.0
 11
2406.811415389816
 21
17.61400633147434
 31
0.0
  0
LINE
  5
266E3
330
1F
100
AcDbEntity
  8
AM_VIS
100
AcDbLine
 10
2406.811415389816
 20
17.61400633147434
 30
0.0
 11
2406.726027470512
 21
17.61497424210972
 31
0.0
  0
LINE
  5
266E4
330
1F
100
AcDbEntity
  8
AM_VIS
100
AcDbLine
 10
2406.726027470512
 20
18.51310669604117
 30
0.0
 11
2406.726027470512
 21
18.85793708122889
 31
0.0
  0
LINE
  5
266E5
330
1F
100
AcDbEntity
  8
AM_VIS
100
AcDbLine
 10
2412.076027470512
 20
19.5768586395061
 30
0.0
 11
2412.076027470512
 21
18.95132167859492
 31
0.0
  0
LINE
  5
266E6
330
1F
100
AcDbEntity
  8
AM_VIS
100
AcDbLine
 10
2418.976027470512
 20
19.5768586395061
 30
0.0
 11
2418.976027470512
 21
19.07176162659959
 31
0.0
  0
LINE
  5
266E7
330
1F
100
AcDbEntity
  8
AM_VIS
100
AcDbLine
 10
2418.976027470512
 20
19.5768586395061
 30
0.0
 11
2412.076027470512
 21
19.5768586395061
 31
0.0
  0
LINE
  5
266E8
330
1F
100
AcDbEntity
  8
AM_VIS
100
AcDbLine
 10
2406.726027470512
 20
-25.46125696309741
 30
0.0
 11
2406.811415389817
 21
-25.46028905246203
 31
0.0
  0
LINE
  5
266E9
330
1F
100
AcDbEntity
  8
AM_VIS
100
AcDbLine
 10
2406.726027470512
 20
-25.46028905246203
 30
0.0
 11
2406.811415389817
 21
-25.46028905246203
 31
0.0
  0
LINE
  5
266EA
330
1F
100
AcDbEntity
  8
AM_VIS
100
AcDbLine
 10
2406.811415389817
 20
-25.46028905246203
 30
0.0
 11
2406.726027470512
 21
-25.45799395814651
 31
0.0
  0
LINE
  5
266EB
330
1F
100
AcDbEntity
  8
AM_VIS
100
AcDbLine
 10
2406.726027470512
 20
-26.72314136049385
 30
0.0
 11
2406.726027470512
 21
-26.70421980221658
 31
0.0
  0
LINE
  5
266EC
330
1F
100
AcDbEntity
  8
AM_VIS
100
AcDbLine
 10
2406.726027470512
 20
-26.35938941702875
 30
0.0
 11
2406.726027470512
 21
-26.22314136049385
 31
0.0
  0
LINE
  5
266ED
330
1F
100
AcDbEntity
  8
AM_VIS
100
AcDbLine
 10
2404.726027470512
 20
-26.22314136049385
 30
0.0
 11
2404.726027470512
 21
-26.72314136049385
 31
0.0
  0
LINE
  5
266EE
330
1F
100
AcDbEntity
  8
AM_VIS
100
AcDbLine
 10
2406.726027470512
 20
-26.72314136049385
 30
0.0
 11
2404.726027470512
 21
-26.72314136049385
 31
0.0
  0
LINE
  5
266EF
330
1F
100
AcDbEntity
  8
AM_VIS
100
AcDbLine
 10
2406.726027470512
 20
-26.70421980221658
 30
0.0
 11
2406.726027470512
 21
-26.35938941702875
 31
0.0
  0
LINE
  5
266F0
330
1F
100
AcDbEntity
  8
AM_VIS
100
AcDbLine
 10
2406.726027470512
 20
-26.22314136049385
 30
0.0
 11
2406.726027470512
 21
18.37685863950616
 31
0.0
  0
LINE
  5
266F1
330
1F
100
AcDbEntity
  8
AM_VIS
100
AcDbLine
 10
2404.726027470512
 20
-26.22314136049385
 30
0.0
 11
2404.726027470512
 21
18.37685863950616
 31
0.0
  0
LINE
  5
266F2
330
1F
100
AcDbEntity
  8
AM_VIS
100
AcDbLine
 10
2404.726027470512
 20
13.57685863950609
 30
0.0
 11
2375.226027470512
 21
13.57685863950609
 31
0.0
  0
LINE
  5
266F3
330
1F
100
AcDbEntity
  8
AM_VIS
100
AcDbLine
 10
2404.726027470512
 20
-14.9231413604939
 30
0.0
 11
2375.226027470512
 21
-14.9231413604939
 31
0.0
  0
ARC
  5
266F4
330
1F
100
AcDbEntity
  8
AM_VIS
100
AcDbCircle
 10
2400.726027470512
 20
38.57685863950587
 30
0.0
 40
3.5
100
AcDbArc
 50
0.0
 51
90.0
  0
LINE
  5
266F5
330
1F
100
AcDbEntity
  8
AM_VIS
100
AcDbLine
 10
2356.226027470512
 20
43.76246531521815
 30
0.0
 11
2361.726027470512
 21
43.76246531521815
 31
0.0
  0
LINE
  5
266F6
330
1F
100
AcDbEntity
  8
AM_VIS
100
AcDbLine
 10
2356.226027470512
 20
36.45530326923631
 30
0.0
 11
2356.226027470512
 21
36.15543103473669
 31
0.0
  0
LINE
  5
266F7
330
1F
100
AcDbEntity
  8
AM_VIS
100
AcDbLine
 10
2356.226027470512
 20
38.80591452812586
 30
0.0
 11
2356.226027470512
 21
36.45530326923631
 31
0.0
  0
LINE
  5
266F8
330
1F
100
AcDbEntity
  8
AM_VIS
100
AcDbLine
 10
2356.226027470512
 20
39.44628679718198
 30
0.0
 11
2356.226027470512
 21
38.80591452812586
 31
0.0
  0
LINE
  5
266F9
330
1F
100
AcDbEntity
  8
AM_VIS
100
AcDbLine
 10
2356.226027470512
 20
42.14366225381559
 30
0.0
 11
2356.226027470512
 21
39.44628679718198
 31
0.0
  0
LINE
  5
266FA
330
1F
100
AcDbEntity
  8
AM_VIS
100
AcDbLine
 10
2356.226027470512
 20
42.64639278375784
 30
0.0
 11
2356.226027470512
 21
42.14366225381559
 31
0.0
  0
LINE
  5
266FB
330
1F
100
AcDbEntity
  8
AM_VIS
100
AcDbLine
 10
2356.226027470512
 20
42.6798516777817
 30
0.0
 11
2356.226027470512
 21
42.64639278375773
 31
0.0
  0
LINE
  5
266FC
330
1F
100
AcDbEntity
  8
AM_VIS
100
AcDbLine
 10
2356.226027470512
 20
43.25973478527589
 30
0.0
 11
2356.226027470512
 21
42.67985167778158
 31
0.0
  0
LINE
  5
266FD
330
1F
100
AcDbEntity
  8
AM_VIS
100
AcDbLine
 10
2361.726027470512
 20
36.15543103473669
 30
0.0
 11
2361.726027470512
 21
36.45530326923631
 31
0.0
  0
LINE
  5
266FE
330
1F
100
AcDbEntity
  8
AM_VIS
100
AcDbLine
 10
2361.726027470512
 20
41.82685863950598
 30
0.0
 11
2363.226027470512
 21
41.82685863950598
 31
0.0
  0
LINE
  5
266FF
330
1F
100
AcDbEntity
  8
AM_VIS
100
AcDbLine
 10
2361.726027470512
 20
42.6798516777817
 30
0.0
 11
2361.726027470512
 21
43.25973478527589
 31
0.0
  0
LINE
  5
26700
330
1F
100
AcDbEntity
  8
AM_VIS
100
AcDbLine
 10
2361.726027470512
 20
42.64639278375773
 30
0.0
 11
2361.726027470512
 21
42.67985167778158
 31
0.0
  0
LINE
  5
26701
330
1F
100
AcDbEntity
  8
AM_VIS
100
AcDbLine
 10
2361.726027470512
 20
42.64639278375784
 30
0.0
 11
2361.726027470512
 21
42.14366225381559
 31
0.0
  0
LINE
  5
26702
330
1F
100
AcDbEntity
  8
AM_VIS
100
AcDbLine
 10
2361.726027470512
 20
42.14366225381559
 30
0.0
 11
2361.726027470512
 21
39.44628679718198
 31
0.0
  0
LINE
  5
26703
330
1F
100
AcDbEntity
  8
AM_VIS
100
AcDbLine
 10
2361.726027470512
 20
38.80591452812586
 30
0.0
 11
2361.726027470512
 21
39.44628679718198
 31
0.0
  0
LINE
  5
26704
330
1F
100
AcDbEntity
  8
AM_VIS
100
AcDbLine
 10
2361.726027470512
 20
36.45530326923631
 30
0.0
 11
2361.726027470512
 21
38.80591452812586
 31
0.0
  0
LINE
  5
26705
330
1F
100
AcDbEntity
  8
AM_VIS
100
AcDbLine
 10
2356.226027470512
 20
42.64639278375773
 30
0.0
 11
2361.726027470512
 21
42.64639278375773
 31
0.0
  0
LINE
  5
26706
330
1F
100
AcDbEntity
  8
AM_VIS
100
AcDbLine
 10
2361.726027470512
 20
43.25973478527589
 30
0.0
 11
2356.226027470512
 21
43.25973478527589
 31
0.0
  0
LINE
  5
26707
330
1F
100
AcDbEntity
  8
AM_VIS
100
AcDbLine
 10
2356.226027470512
 20
42.6798516777817
 30
0.0
 11
2361.726027470512
 21
42.6798516777817
 31
0.0
  0
LINE
  5
26708
330
1F
100
AcDbEntity
  8
AM_VIS
100
AcDbLine
 10
2356.226027470512
 20
42.14366225381559
 30
0.0
 11
2361.726027470512
 21
42.14366225381559
 31
0.0
  0
LINE
  5
26709
330
1F
100
AcDbEntity
  8
AM_VIS
100
AcDbLine
 10
2356.226027470512
 20
36.45530326923631
 30
0.0
 11
2361.726027470512
 21
36.45530326923631
 31
0.0
  0
LINE
  5
2670A
330
1F
100
AcDbEntity
  8
AM_VIS
100
AcDbLine
 10
2356.226027470512
 20
36.15543103473669
 30
0.0
 11
2361.726027470512
 21
36.15543103473669
 31
0.0
  0
LINE
  5
2670B
330
1F
100
AcDbEntity
  8
AM_VIS
100
AcDbLine
 10
2361.726027470512
 20
39.44628679718198
 30
0.0
 11
2356.226027470512
 21
39.44628679718198
 31
0.0
  0
LINE
  5
2670C
330
1F
100
AcDbEntity
  8
AM_VIS
100
AcDbLine
 10
2356.226027470512
 20
38.80591452812586
 30
0.0
 11
2361.726027470512
 21
38.80591452812586
 31
0.0
  0
LINE
  5
2670D
330
1F
100
AcDbEntity
  8
AM_VIS
100
AcDbLine
 10
2356.226027470512
 20
43.76246531521815
 30
0.0
 11
2356.226027470512
 21
43.25973478527589
 31
0.0
  0
LINE
  5
2670E
330
1F
100
AcDbEntity
  8
AM_VIS
100
AcDbLine
 10
2361.726027470512
 20
43.76246531521815
 30
0.0
 11
2361.726027470512
 21
43.25973478527589
 31
0.0
  0
LINE
  5
2670F
330
1F
100
AcDbEntity
  8
AM_VIS
100
AcDbLine
 10
2356.226027470512
 20
28.58589689048505
 30
0.0
 11
2356.226027470512
 21
26.39125196379393
 31
0.0
  0
LINE
  5
26710
330
1F
100
AcDbEntity
  8
AM_VIS
100
AcDbLine
 10
2356.226027470512
 20
29.29041166061665
 30
0.0
 11
2356.226027470512
 21
28.58589689048505
 31
0.0
  0
LINE
  5
26711
330
1F
100
AcDbEntity
  8
AM_VIS
100
AcDbLine
 10
2356.226027470512
 20
31.20292148985027
 30
0.0
 11
2356.226027470512
 21
29.29041166061665
 31
0.0
  0
LINE
  5
26712
330
1F
100
AcDbEntity
  8
AM_VIS
100
AcDbLine
 10
2356.226027470512
 20
31.26341065141218
 30
0.0
 11
2356.226027470512
 21
31.20292148985027
 31
0.0
  0
LINE
  5
26713
330
1F
100
AcDbEntity
  8
AM_VIS
100
AcDbLine
 10
2356.226027470512
 20
33.45805557810331
 30
0.0
 11
2356.226027470512
 21
31.26341065141218
 31
0.0
  0
LINE
  5
26714
330
1F
100
AcDbEntity
  8
AM_VIS
100
AcDbLine
 10
2361.726027470512
 20
33.45805557810331
 30
0.0
 11
2361.726027470512
 21
31.26341065141218
 31
0.0
  0
LINE
  5
26715
330
1F
100
AcDbEntity
  8
AM_VIS
100
AcDbLine
 10
2361.726027470512
 20
31.20292148985027
 30
0.0
 11
2361.726027470512
 21
31.26341065141218
 31
0.0
  0
LINE
  5
26716
330
1F
100
AcDbEntity
  8
AM_VIS
100
AcDbLine
 10
2361.726027470512
 20
29.29041166061665
 30
0.0
 11
2361.726027470512
 21
31.20292148985027
 31
0.0
  0
LINE
  5
26717
330
1F
100
AcDbEntity
  8
AM_VIS
100
AcDbLine
 10
2361.726027470512
 20
28.58589689048494
 30
0.0
 11
2361.726027470512
 21
29.29041166061665
 31
0.0
  0
LINE
  5
26718
330
1F
100
AcDbEntity
  8
AM_VIS
100
AcDbLine
 10
2361.726027470512
 20
28.58589689048505
 30
0.0
 11
2361.726027470512
 21
26.39125196379393
 31
0.0
  0
LINE
  5
26719
330
1F
100
AcDbEntity
  8
AM_VIS
100
AcDbLine
 10
2361.726027470512
 20
28.32685863950598
 30
0.0
 11
2363.226027470512
 21
28.32685863950598
 31
0.0
  0
LINE
  5
2671A
330
1F
100
AcDbEntity
  8
AM_VIS
100
AcDbLine
 10
2356.226027470512
 20
33.45805557810331
 30
0.0
 11
2361.726027470512
 21
33.45805557810331
 31
0.0
  0
LINE
  5
2671B
330
1F
100
AcDbEntity
  8
AM_VIS
100
AcDbLine
 10
2356.226027470512
 20
26.39125196379382
 30
0.0
 11
2361.726027470512
 21
26.39125196379382
 31
0.0
  0
LINE
  5
2671C
330
1F
100
AcDbEntity
  8
AM_VIS
100
AcDbLine
 10
2356.226027470512
 20
28.58589689048494
 30
0.0
 11
2361.726027470512
 21
28.58589689048494
 31
0.0
  0
LINE
  5
2671D
330
1F
100
AcDbEntity
  8
AM_VIS
100
AcDbLine
 10
2361.726027470512
 20
31.26341065141218
 30
0.0
 11
2356.226027470512
 21
31.26341065141218
 31
0.0
  0
LINE
  5
2671E
330
1F
100
AcDbEntity
  8
AM_VIS
100
AcDbLine
 10
2356.226027470512
 20
31.20292148985027
 30
0.0
 11
2361.726027470512
 21
31.20292148985027
 31
0.0
  0
LINE
  5
2671F
330
1F
100
AcDbEntity
  8
AM_VIS
100
AcDbLine
 10
2356.226027470512
 20
29.29041166061665
 30
0.0
 11
2361.726027470512
 21
29.29041166061665
 31
0.0
  0
LINE
  5
26720
330
1F
100
AcDbEntity
  8
AM_VIS
100
AcDbLine
 10
2361.726027470512
 20
36.15543103473669
 30
0.0
 11
2361.726027470512
 21
33.45805557810331
 31
0.0
  0
LINE
  5
26721
330
1F
100
AcDbEntity
  8
AM_VIS
100
AcDbLine
 10
2356.226027470512
 20
36.15543103473669
 30
0.0
 11
2356.226027470512
 21
33.45805557810331
 31
0.0
  0
LINE
  5
26722
330
1F
100
AcDbEntity
  8
AM_VIS
100
AcDbLine
 10
2363.226027470512
 20
44.07685863950587
 30
0.0
 11
2363.226027470512
 21
26.07685863950587
 31
0.0
  0
SPLINE
  5
26723
330
1F
100
AcDbEntity
  8
AM_VIS
100
AcDbSpline
210
0.0
220
0.0
230
1.0
 70
     8
 71
     3
 72
    18
 73
    14
 74
     0
 42
0.0000000001
 43
0.0000000001
 40
6.072258403086962
 40
6.072258403086962
 40
6.072258403086962
 40
6.072258403086962
 40
6.091519998582311
 40
6.091519998582311
 40
6.594079983681931
 40
6.594079983681931
 40
7.096639968781531
 40
7.096639968781531
 40
7.59919995388113
 40
7.59919995388113
 40
8.101759938980729
 40
8.101759938980729
 40
8.212872863102431
 40
8.212872863102431
 40
8.212872863102431
 40
8.212872863102431
 10
2375.437974528713
 20
38.57685863950587
 30
0.0
 10
2375.437124658512
 20
38.58318241720053
 30
0.0
 10
2375.43629128392
 20
38.58949921640032
 30
0.0
 10
2375.414160225373
 20
38.76043269328807
 30
0.0
 10
2375.404203814495
 20
38.92007340704185
 30
0.0
 10
2375.404203814495
 20
39.21974228422959
 30
0.0
 10
2375.414160225373
 20
39.37151572083507
 30
0.0
 10
2375.45678852925
 20
39.66735742725541
 30
0.0
 10
2375.489458270692
 20
39.81142809920027
 30
0.0
 10
2375.57682360344
 20
40.08269256036351
 30
0.0
 10
2375.631576164174
 20
40.21004842372735
 30
0.0
 10
2375.709550046162
 20
40.35158827041914
 30
0.0
 10
2375.724106840258
 20
40.37666324621477
 30
0.0
 10
2375.739069786243
 20
40.40116228539
 30
0.0
  0
ARC
  5
26724
330
1F
100
AcDbEntity
  8
AM_VIS
100
AcDbCircle
 10
2378.726027470512
 20
38.57685863950587
 30
0.0
 40
3.5
100
AcDbArc
 50
90.0
 51
148.5852322907651
  0
LINE
  5
26725
330
1F
100
AcDbEntity
  8
AM_VIS
100
AcDbLine
 10
2380.226027470512
 20
42.07685863950587
 30
0.0
 11
2375.226027470512
 21
44.07685863950587
 31
0.0
  0
LINE
  5
26726
330
1F
100
AcDbEntity
  8
AM_VIS
100
AcDbLine
 10
2375.226027470512
 20
29.42000439001356
 30
0.0
 11
2375.226027470512
 21
44.07685863950587
 31
0.0
  0
SPLINE
  5
26727
330
1F
100
AcDbEntity
  8
AM_VIS
100
AcDbSpline
210
0.0
220
0.0
230
1.0
 70
     8
 71
     3
 72
    22
 73
    18
 74
     0
 42
0.0000000001
 43
0.0000000001
 40
6.922974191987643
 40
6.922974191987643
 40
6.922974191987643
 40
6.922974191987643
 40
7.242870958922999
 40
7.242870958922999
 40
8.615360666179645
 40
8.615360666179645
 40
9.987850373436291
 40
9.987850373436291
 40
11.36034008069293
 40
11.36034008069293
 40
12.73282978794958
 40
12.73282978794958
 40
14.10531949520622
 40
14.10531949520622
 40
15.47780920246286
 40
15.47780920246286
 40
16.1364483476482
 40
16.1364483476482
 40
16.1364483476482
 40
16.1364483476482
 10
2375.226027470512
 20
29.42000439001356
 30
0.0
 10
2375.226027470512
 20
29.50689295816528
 30
0.0
 10
2375.22814148319
 20
29.59410706761719
 30
0.0
 10
2375.24711680606
 20
30.04976060936246
 30
0.0
 10
2375.291718403046
 20
30.45561773765553
 30
0.0
 10
2375.401297566822
 20
31.31710632275872
 30
0.0
 10
2375.466205125443
 20
31.77277713777153
 30
0.0
 10
2375.583671416285
 20
32.70814957384846
 30
0.0
 10
2375.635981620928
 20
33.18821806666324
 30
0.0
 10
2375.706566511871
 20
34.14381731177627
 30
0.0
 10
2375.724683666042
 20
34.61936207042038
 30
0.0
 10
2375.724683666042
 20
35.53435520859148
 30
0.0
 10
2375.706566511871
 20
36.00989996723547
 30
0.0
 10
2375.635981620928
 20
36.96549921234861
 30
0.0
 10
2375.583671416285
 20
37.44556770516328
 30
0.0
 10
2375.496753033124
 20
38.13769017888762
 30
0.0
 10
2375.467201779568
 20
38.35938232747492
 30
0.0
 10
2375.437974528713
 20
38.57685863950587
 30
0.0
  0
LINE
  5
26728
330
1F
100
AcDbEntity
  8
AM_VIS
100
AcDbLine
 10
2378.726027470512
 20
42.07685863950587
 30
0.0
 11
2400.726027470512
 21
42.07685863950587
 31
0.0
  0
LINE
  5
26729
330
1F
100
AcDbEntity
  8
AM_VIS
100
AcDbLine
 10
2375.226027470512
 20
26.07685863950587
 30
0.0
 11
2363.226027470512
 21
26.07685863950587
 31
0.0
  0
LINE
  5
2672A
330
1F
100
AcDbEntity
  8
AM_VIS
100
AcDbLine
 10
2375.226027470512
 20
44.07685863950587
 30
0.0
 11
2363.226027470512
 21
44.07685863950587
 31
0.0
  0
LINE
  5
2672B
330
1F
100
AcDbEntity
  8
AM_VIS
100
AcDbLine
 10
2367.726027470512
 20
5.914811809830439
 30
0.0
 11
2367.726027470512
 21
6.076858639505985
 31
0.0
  0
LINE
  5
2672C
330
1F
100
AcDbEntity
  8
AM_VIS
100
AcDbLine
 10
2367.226027470512
 20
5.576858639505985
 30
0.0
 11
2367.226027470512
 21
5.27843971323773
 31
0.0
  0
LINE
  5
2672D
330
1F
100
AcDbEntity
  8
AM_VIS
100
AcDbLine
 10
2367.226027470512
 20
5.576858639505985
 30
0.0
 11
2367.726027470512
 21
6.076858639505985
 31
0.0
  0
SPLINE
  5
2672E
330
1F
100
AcDbEntity
  8
AM_VIS
100
AcDbSpline
210
0.0
220
0.0
230
1.0
 70
     8
 71
     3
 72
     8
 73
     4
 74
     0
 42
0.0000000001
 43
0.0000000001
 40
1.630155803927018
 40
1.630155803927018
 40
1.630155803927018
 40
1.630155803927018
 40
2.566002662426991
 40
2.566002662426991
 40
2.566002662426991
 40
2.566002662426991
 10
2367.726027470512
 20
5.914811809830439
 30
0.0
 10
2367.546166237317
 20
5.7000061628313
 30
0.0
 10
2367.377066615943
 20
5.486747361300217
 30
0.0
 10
2367.226027470512
 20
5.27843971323773
 30
0.0
  0
LINE
  5
2672F
330
1F
100
AcDbEntity
  8
AM_VIS
100
AcDbLine
 10
2368.876027470512
 20
5.914811809830439
 30
0.0
 11
2368.876027470512
 21
6.076858639505985
 31
0.0
  0
LINE
  5
26730
330
1F
100
AcDbEntity
  8
AM_VIS
100
AcDbLine
 10
2370.376027470512
 20
6.076858639505985
 30
0.0
 11
2370.376027470512
 21
5.914811809830439
 31
0.0
  0
LINE
  5
26731
330
1F
100
AcDbEntity
  8
AM_VIS
100
AcDbLine
 10
2368.876027470512
 20
6.076858639505985
 30
0.0
 11
2367.726027470512
 21
6.076858639505985
 31
0.0
  0
LINE
  5
26732
330
1F
100
AcDbEntity
  8
AM_VIS
100
AcDbLine
 10
2368.876027470512
 20
5.914811809830439
 30
0.0
 11
2367.726027470512
 21
5.914811809830439
 31
0.0
  0
LINE
  5
26733
330
1F
100
AcDbEntity
  8
AM_VIS
100
AcDbLine
 10
2367.726027470512
 20
-0.5569068865265763
 30
0.0
 11
2367.726027470512
 21
2.548577335862773
 31
0.0
  0
LINE
  5
26734
330
1F
100
AcDbEntity
  8
AM_VIS
100
AcDbLine
 10
2367.226027470512
 20
2.723542455029473
 30
0.0
 11
2367.226027470512
 21
-1.368244102285871
 31
0.0
  0
SPLINE
  5
26735
330
1F
100
AcDbEntity
  8
AM_VIS
100
AcDbSpline
210
0.0
220
0.0
230
1.0
 70
     8
 71
     3
 72
     8
 73
     4
 74
     0
 42
0.0000000001
 43
0.0000000001
 40
7.860869802063005
 40
7.860869802063005
 40
7.860869802063005
 40
7.860869802063005
 40
8.796716660561699
 40
8.796716660561699
 40
8.796716660561699
 40
8.796716660561699
 10
2367.226027470512
 20
2.723542455029473
 30
0.0
 10
2367.377066506546
 20
2.651042018018642
 30
0.0
 10
2367.54616612229
 20
2.593148697592823
 30
0.0
 10
2367.726027470512
 20
2.548577335862887
 30
0.0
  0
SPLINE
  5
26736
330
1F
100
AcDbEntity
  8
AM_VIS
100
AcDbSpline
210
0.0
220
0.0
230
1.0
 70
     8
 71
     3
 72
     8
 73
     4
 74
     0
 42
0.0000000001
 43
0.0000000001
 40
1.63015580392704
 40
1.63015580392704
 40
1.63015580392704
 40
1.63015580392704
 40
2.566002662427006
 40
2.566002662427006
 40
2.566002662427006
 40
2.566002662427006
 10
2367.726027470512
 20
-0.5569068865265763
 30
0.0
 10
2367.546166237317
 20
-0.8162838667510641
 30
0.0
 10
2367.377066615943
 20
-1.087435964700716
 30
0.0
 10
2367.226027470512
 20
-1.368244102285871
 30
0.0
  0
ARC
  5
26737
330
1F
100
AcDbEntity
  8
AM_VIS
100
AcDbCircle
 10
2369.626027470512
 20
3.076858639505985
 30
0.0
 40
0.75
100
AcDbArc
 50
311.8103148957745
 51
0.0
  0
ARC
  5
26738
330
1F
100
AcDbEntity
  8
AM_VIS
100
AcDbCircle
 10
2369.626027470512
 20
3.076858639505985
 30
0.0
 40
0.75
100
AcDbArc
 50
180.0
 51
228.1896851042255
  0
LINE
  5
26739
330
1F
100
AcDbEntity
  8
AM_VIS
100
AcDbLine
 10
2368.876027470512
 20
-0.5569068865265763
 30
0.0
 11
2368.876027470512
 21
2.548577335862773
 31
0.0
  0
LINE
  5
2673A
330
1F
100
AcDbEntity
  8
AM_VIS
100
AcDbLine
 10
2370.376027470512
 20
2.548577335862773
 30
0.0
 11
2370.376027470512
 21
-0.5569068865265763
 31
0.0
  0
SPLINE
  5
2673B
330
1F
100
AcDbEntity
  8
AM_VIS
100
AcDbSpline
210
0.0
220
0.0
230
1.0
 70
    11
 71
     3
 72
    58
 73
    54
 74
     0
 42
0.0000000001
 43
0.0000000001
 40
-3.363896419255587
 40
-3.363896419255587
 40
-3.363896419255587
 40
-3.363896419255587
 40
-3.330080057210193
 40
-3.330080057210193
 40
-3.276087946180991
 40
-3.276087946180991
 40
-3.130129325405927
 40
-3.130129325405927
 40
-2.864475625747458
 40
-2.864475625747458
 40
-2.670984402726474
 40
-2.670984402726474
 40
-2.529876972632633
 40
-2.529876972632633
 40
-2.39414607930529
 40
-2.39414607930529
 40
-2.234845146690002
 40
-2.234845146690002
 40
-1.995446372975766
 40
-1.995446372975766
 40
-1.792732498499779
 40
-1.792732498499779
 40
-1.655061186031255
 40
-1.655061186031255
 40
-1.604023047347052
 40
-1.604023047347052
 40
-1.569394244758093
 40
-1.569394244758093
 40
-1.535224675064294
 40
-1.535224675064294
 40
-1.486406949001721
 40
-1.486406949001721
 40
-1.367760828147406
 40
-1.367760828147406
 40
-1.211422564713941
 40
-1.211422564713941
 40
-1.00947781381898
 40
-1.00947781381898
 40
-0.8308451467036132
 40
-0.8308451467036132
 40
-0.6546659190622926
 40
-0.6546659190622926
 40
-0.4706948992192896
 40
-0.4706948992192896
 40
-0.3083260207238461
 40
-0.3083260207238461
 40
-0.1833529844742129
 40
-0.1833529844742129
 40
-0.0782943285735388
 40
-0.0782943285735388
 40
-0.0333492537450304
 40
-0.0333492537450304
 40
0.0
 40
0.0
 40
0.0
 40
0.0
 10
2369.126027470512
 20
2.199461197140408
 30
0.0
 10
2369.126027470512
 20
2.19596107280472
 30
0.0
 10
2369.126371624245
 20
2.192143890068336
 30
0.0
 10
2369.128104326783
 20
2.181473545287531
 30
0.0
 10
2369.12998713108
 20
2.174202301729565
 30
0.0
 10
2369.139624449672
 20
2.145179970971071
 30
0.0
 10
2369.151953527916
 20
2.119727366101869
 30
0.0
 10
2369.197405880222
 20
2.044471067705444
 30
0.0
 10
2369.240945927431
 20
1.989158113986263
 30
0.0
 10
2369.335773871482
 20
1.905198022660329
 30
0.0
 10
2369.383173752229
 20
1.872042497555412
 30
0.0
 10
2369.47681586566
 20
1.829284530672566
 30
0.0
 10
2369.519550552496
 20
1.81592121753033
 30
0.0
 10
2369.608362735748
 20
1.803219225653492
 30
0.0
 10
2369.652112743534
 20
1.803682411767113
 30
0.0
 10
2369.745909838763
 20
1.818873437766796
 30
0.0
 10
2369.792902045843
 20
1.83557531002566
 30
0.0
 10
2369.899326355268
 20
1.890029004798634
 30
0.0
 10
2369.954220251623
 20
1.934720466158978
 30
0.0
 10
2370.035839884581
 20
2.020925115526893
 30
0.0
 10
2370.066254733924
 20
2.062582765969068
 30
0.0
 10
2370.102845425689
 20
2.125206897737825
 30
0.0
 10
2370.114009588831
 20
2.149085831441539
 30
0.0
 10
2370.12262299776
 20
2.176268397856802
 30
0.0
 10
2370.12427902772
 20
2.183058865746488
 30
0.0
 10
2370.125816393289
 20
2.193335153112684
 30
0.0
 10
2370.12609521957
 20
2.19716992483427
 30
0.0
 10
2370.125933037372
 20
2.204111766570122
 30
0.0
 10
2370.125501806512
 20
2.207217656846751
 30
0.0
 10
2370.123568041554
 20
2.213907875639051
 30
0.0
 10
2370.121692590826
 20
2.217103887275243
 30
0.0
 10
2370.112621679726
 20
2.225577426155041
 30
0.0
 10
2370.101838350928
 20
2.227103469295002
 30
0.0
 10
2370.066907855465
 20
2.223097268957417
 30
0.0
 10
2370.040100226908
 20
2.215335057353058
 30
0.0
 10
2369.965832639547
 20
2.193828543892209
 30
0.0
 10
2369.913333564179
 20
2.178628637350243
 30
0.0
 10
2369.797453850561
 20
2.155836105126013
 30
0.0
 10
2369.738338040785
 20
2.148080844765331
 30
0.0
 10
2369.616563135738
 20
2.142621750364241
 30
0.0
 10
2369.555984693135
 20
2.144860128819686
 30
0.0
 10
2369.436995612957
 20
2.158261100521372
 30
0.0
 10
2369.380520413809
 20
2.169636390908522
 30
0.0
 10
2369.286937503519
 20
2.193152962574345
 30
0.0
 10
2369.248655634357
 20
2.204944096620465
 30
0.0
 10
2369.193303916107
 20
2.22038349371337
 30
0.0
 10
2369.173487101701
 20
2.225194506313528
 30
0.0
 10
2369.145978723647
 20
2.226573331970143
 30
0.0
 10
2369.13710729068
 20
2.224290693557918
 30
0.0
 10
2369.129561458148
 20
2.215825483455546
 30
0.0
 10
2369.127986503125
 20
2.212657208883911
 30
0.0
 10
2369.126362099517
 20
2.20605434641402
 30
0.0
 10
2369.126027470512
 20
2.202912973959314
 30
0.0
 10
2369.126027470512
 20
2.199461197140408
 30
0.0
  0
CIRCLE
  5
2673C
330
1F
100
AcDbEntity
  8
AM_VIS
100
AcDbCircle
 10
2369.626027470512
 20
-2.673141360494014
 30
0.0
 40
0.5000000000000032
  0
CIRCLE
  5
2673D
330
1F
100
AcDbEntity
  8
AM_VIS
100
AcDbCircle
 10
2369.626027470512
 20
-5.173141360494014
 30
0.0
 40
0.5000000000000032
  0
ARC
  5
2673E
330
1F
100
AcDbEntity
  8
AM_VIS
100
AcDbCircle
 10
2369.626007941821
 20
3.007881241983227
 30
0.0
 40
0.6997982445397195
100
AcDbArc
 50
224.4247076109603
 51
315.5775297592212
  0
LINE
  5
2673F
330
1F
100
AcDbEntity
  8
AM_VIS
100
AcDbLine
 10
2367.726027470512
 20
2.548577335862887
 30
0.0
 11
2368.876027470512
 21
2.548577335862887
 31
0.0
  0
LINE
  5
26740
330
1F
100
AcDbEntity
  8
AM_VIS
100
AcDbLine
 10
2368.876027470512
 20
-0.5569068865265763
 30
0.0
 11
2367.726027470512
 21
-0.5569068865265763
 31
0.0
  0
LINE
  5
26741
330
1F
100
AcDbEntity
  8
AM_VIS
100
AcDbLine
 10
2368.876027470512
 20
5.914811809830325
 30
0.0
 11
2368.876027470512
 21
2.548577335862773
 31
0.0
  0
LINE
  5
26742
330
1F
100
AcDbEntity
  8
AM_VIS
100
AcDbLine
 10
2370.376027470512
 20
2.548577335862773
 30
0.0
 11
2370.376027470512
 21
5.914811809830325
 31
0.0
  0
LINE
  5
26743
330
1F
100
AcDbEntity
  8
AM_VIS
100
AcDbLine
 10
2367.226027470512
 20
5.27843971323773
 30
0.0
 11
2367.226027470512
 21
2.723542455029473
 31
0.0
  0
LINE
  5
26744
330
1F
100
AcDbEntity
  8
AM_VIS
100
AcDbLine
 10
2367.726027470512
 20
-10.39486005685102
 30
0.0
 11
2367.726027470512
 21
-7.289375834461679
 31
0.0
  0
LINE
  5
26745
330
1F
100
AcDbEntity
  8
AM_VIS
100
AcDbLine
 10
2367.726027470512
 20
-13.92314136049401
 30
0.0
 11
2367.726027470512
 21
-13.76109453081846
 31
0.0
  0
LINE
  5
26746
330
1F
100
AcDbEntity
  8
AM_VIS
100
AcDbLine
 10
2367.226027470512
 20
-13.12472243422575
 30
0.0
 11
2367.226027470512
 21
-13.42314136049401
 31
0.0
  0
LINE
  5
26747
330
1F
100
AcDbEntity
  8
AM_VIS
100
AcDbLine
 10
2367.226027470512
 20
-10.5698251760175
 30
0.0
 11
2367.226027470512
 21
-13.12472243422587
 31
0.0
  0
LINE
  5
26748
330
1F
100
AcDbEntity
  8
AM_VIS
100
AcDbLine
 10
2367.226027470512
 20
-6.478038618702271
 30
0.0
 11
2367.226027470512
 21
-10.5698251760175
 31
0.0
  0
LINE
  5
26749
330
1F
100
AcDbEntity
  8
AM_VIS
100
AcDbLine
 10
2367.226027470512
 20
-13.42314136049401
 30
0.0
 11
2367.726027470512
 21
-13.92314136049401
 31
0.0
  0
SPLINE
  5
2674A
330
1F
100
AcDbEntity
  8
AM_VIS
100
AcDbSpline
210
0.0
220
0.0
230
1.0
 70
     8
 71
     3
 72
     8
 73
     4
 74
     0
 42
0.0000000001
 43
0.0000000001
 40
1.630155803927018
 40
1.630155803927018
 40
1.630155803927018
 40
1.630155803927018
 40
2.566002662426996
 40
2.566002662426996
 40
2.566002662426996
 40
2.566002662426996
 10
2367.726027470512
 20
-10.39486005685102
 30
0.0
 10
2367.546166237317
 20
-10.43943139007626
 30
0.0
 10
2367.377066615943
 20
-10.49732468649494
 30
0.0
 10
2367.226027470512
 20
-10.5698251760175
 30
0.0
  0
SPLINE
  5
2674B
330
1F
100
AcDbEntity
  8
AM_VIS
100
AcDbSpline
210
0.0
220
0.0
230
1.0
 70
     8
 71
     3
 72
     8
 73
     4
 74
     0
 42
0.0000000001
 43
0.0000000001
 40
7.860869802063004
 40
7.860869802063004
 40
7.860869802063004
 40
7.860869802063004
 40
8.796716660561713
 40
8.796716660561713
 40
8.796716660561713
 40
8.796716660561713
 10
2367.226027470512
 20
-13.12472243422575
 30
0.0
 10
2367.377066506546
 20
-13.33302993141194
 30
0.0
 10
2367.54616612229
 20
-13.54628874644527
 30
0.0
 10
2367.726027470512
 20
-13.76109453081846
 30
0.0
  0
SPLINE
  5
2674C
330
1F
100
AcDbEntity
  8
AM_VIS
100
AcDbSpline
210
0.0
220
0.0
230
1.0
 70
     8
 71
     3
 72
     8
 73
     4
 74
     0
 42
0.0000000001
 43
0.0000000001
 40
7.860869802062977
 40
7.860869802062977
 40
7.860869802062977
 40
7.860869802062977
 40
8.796716660561656
 40
8.796716660561656
 40
8.796716660561656
 40
8.796716660561656
 10
2367.226027470512
 20
-6.478038618702271
 30
0.0
 10
2367.377066506546
 20
-6.758846552899285
 30
0.0
 10
2367.54616612229
 20
-7.029998688358432
 30
0.0
 10
2367.726027470512
 20
-7.289375834461566
 30
0.0
  0
ARC
  5
2674D
330
1F
100
AcDbEntity
  8
AM_VIS
100
AcDbCircle
 10
2369.626027470512
 20
-10.92314136049401
 30
0.0
 40
0.75
100
AcDbArc
 50
131.8103148957745
 51
180.0
  0
ARC
  5
2674E
330
1F
100
AcDbEntity
  8
AM_VIS
100
AcDbCircle
 10
2369.626027470512
 20
-10.92314136049401
 30
0.0
 40
0.75
100
AcDbArc
 50
0.0
 51
48.18968510422548
  0
LINE
  5
2674F
330
1F
100
AcDbEntity
  8
AM_VIS
100
AcDbLine
 10
2368.876027470512
 20
-10.39486005685102
 30
0.0
 11
2368.876027470512
 21
-7.289375834461679
 31
0.0
  0
LINE
  5
26750
330
1F
100
AcDbEntity
  8
AM_VIS
100
AcDbLine
 10
2368.876027470512
 20
-10.39486005685102
 30
0.0
 11
2368.876027470512
 21
-13.76109453081858
 31
0.0
  0
LINE
  5
26751
330
1F
100
AcDbEntity
  8
AM_VIS
100
AcDbLine
 10
2368.876027470512
 20
-13.92314136049401
 30
0.0
 11
2368.876027470512
 21
-13.76109453081846
 31
0.0
  0
LINE
  5
26752
330
1F
100
AcDbEntity
  8
AM_VIS
100
AcDbLine
 10
2370.376027470512
 20
-7.289375834461679
 30
0.0
 11
2370.376027470512
 21
-10.39486005685102
 31
0.0
  0
LINE
  5
26753
330
1F
100
AcDbEntity
  8
AM_VIS
100
AcDbLine
 10
2370.376027470512
 20
-13.76109453081846
 30
0.0
 11
2370.376027470512
 21
-13.92314136049401
 31
0.0
  0
LINE
  5
26754
330
1F
100
AcDbEntity
  8
AM_VIS
100
AcDbLine
 10
2370.376027470512
 20
-13.76109453081858
 30
0.0
 11
2370.376027470512
 21
-10.39486005685102
 31
0.0
  0
SPLINE
  5
26755
330
1F
100
AcDbEntity
  8
AM_VIS
100
AcDbSpline
210
0.0
220
0.0
230
1.0
 70
    11
 71
     3
 72
    58
 73
    54
 74
     0
 42
0.0000000001
 43
0.0000000001
 40
-3.310941722020734
 40
-3.310941722020734
 40
-3.310941722020734
 40
-3.310941722020734
 40
-3.295630163505362
 40
-3.295630163505362
 40
-3.25888521683784
 40
-3.25888521683784
 40
-3.197166102513703
 40
-3.197166102513703
 40
-3.038165220175974
 40
-3.038165220175974
 40
-2.856291614867816
 40
-2.856291614867816
 40
-2.666842086896373
 40
-2.666842086896373
 40
-2.492578752008394
 40
-2.492578752008394
 40
-2.312125783734214
 40
-2.312125783734214
 40
-2.13451249378157
 40
-2.13451249378157
 40
-1.991913706757117
 40
-1.991913706757117
 40
-1.842368186774402
 40
-1.842368186774402
 40
-1.791323432477104
 40
-1.791323432477104
 40
-1.757111173270509
 40
-1.757111173270509
 40
-1.723565230364853
 40
-1.723565230364853
 40
-1.676146471114944
 40
-1.676146471114944
 40
-1.5592641658533
 40
-1.5592641658533
 40
-1.304423753588805
 40
-1.304423753588805
 40
-1.102534997063944
 40
-1.102534997063944
 40
-0.9616332280833521
 40
-0.9616332280833521
 40
-0.8335600122414829
 40
-0.8335600122414829
 40
-0.6887403587885041
 40
-0.6887403587885041
 40
-0.4760113448049901
 40
-0.4760113448049901
 40
-0.2570316117964575
 40
-0.2570316117964575
 40
-0.0905362468527244
 40
-0.0905362468527244
 40
-0.0354113089023832
 40
-0.0354113089023832
 40
0.0
 40
0.0
 40
0.0
 40
0.0
 10
2369.126027470512
 20
-10.04574391812843
 30
0.0
 10
2369.126027470512
 20
-10.04732872368799
 30
0.0
 10
2369.126098070377
 20
-10.04884723652526
 30
0.0
 10
2369.126584341134
 20
-10.0537788599704
 30
0.0
 10
2369.127342819231
 20
-10.05685266807722
 30
0.0
 10
2369.130536177223
 20
-10.06397788890308
 30
0.0
 10
2369.133739381498
 20
-10.06723051174992
 30
0.0
 10
2369.149679592006
 20
-10.07476284318363
 30
0.0
 10
2369.169026984452
 20
-10.07231313956037
 30
0.0
 10
2369.225601600993
 20
-10.05831719429079
 30
0.0
 10
2369.265315037098
 20
-10.04553975588817
 30
0.0
 10
2369.363724760467
 20
-10.01965230900941
 30
0.0
 10
2369.421537894276
 20
-10.00711772480372
 30
0.0
 10
2369.541534368163
 20
-9.992162450968748
 30
0.0
 10
2369.60151694296
 20
-9.989152474069214
 30
0.0
 10
2369.723697323976
 20
-9.992966530737021
 30
0.0
 10
2369.783737784575
 20
-10.000081598125
 30
0.0
 10
2369.893647351364
 20
-10.02052377395489
 30
0.0
 10
2369.942772683106
 20
-10.03360175360899
 30
0.0
 10
2370.017582342239
 20
-10.05500587214544
 30
0.0
 10
2370.045997062178
 20
-10.06371944608827
 30
0.0
 10
2370.091983659035
 20
-10.0735625654363
 30
0.0
 10
2370.108502957702
 20
-10.07406636313237
 30
0.0
 10
2370.120787156035
 20
-10.0646309979794
 30
0.0
 10
2370.123005098224
 20
-10.06139877265798
 30
0.0
 10
2370.125285665523
 20
-10.05460202426002
 30
0.0
 10
2370.125812312289
 20
-10.05151413678299
 30
0.0
 10
2370.12613207967
 20
-10.04471732101444
 30
0.0
 10
2370.125938746404
 20
-10.04103201177054
 30
0.0
 10
2370.124681636768
 20
-10.03142713601766
 30
0.0
 10
2370.123293054827
 20
-10.02522747397961
 30
0.0
 10
2370.116454859339
 20
-10.00208679272088
 30
0.0
 10
2370.108035384187
 20
-9.982688745871769
 30
0.0
 10
2370.072681995512
 20
-9.916834150230329
 30
0.0
 10
2370.034101650513
 20
-9.86266129769956
 30
0.0
 10
2369.943967314099
 20
-9.773160025549486
 30
0.0
 10
2369.895463136092
 20
-9.734900139853607
 30
0.0
 10
2369.799599430352
 20
-9.684919920630932
 30
0.0
 10
2369.756344142491
 20
-9.668715087509099
 30
0.0
 10
2369.667756761209
 20
-9.651286490926736
 30
0.0
 10
2369.624764575539
 20
-9.649200398801099
 30
0.0
 10
2369.533059217601
 20
-9.658675992284315
 30
0.0
 10
2369.487168375703
 20
-9.671746791430336
 30
0.0
 10
2369.382738404125
 20
-9.717375855582645
 30
0.0
 10
2369.329449490455
 20
-9.755620885684834
 30
0.0
 10
2369.240790126668
 20
-9.837463038236819
 30
0.0
 10
2369.204068496188
 20
-9.883076129365804
 30
0.0
 10
2369.156854942787
 20
-9.95623394420204
 30
0.0
 10
2369.141433367992
 20
-9.986620630211291
 30
0.0
 10
2369.130283655861
 20
-10.01941384169731
 30
0.0
 10
2369.128281723973
 20
-10.02694699433391
 30
0.0
 10
2369.126404862234
 20
-10.03805995959703
 30
0.0
 10
2369.126027470512
 20
-10.04207871062078
 30
0.0
 10
2369.126027470512
 20
-10.04574391812843
 30
0.0
  0
ARC
  5
26756
330
1F
100
AcDbEntity
  8
AM_VIS
100
AcDbCircle
 10
2369.62606589503
 20
-10.85416929068469
 30
0.0
 40
0.6998062945020467
100
AcDbArc
 50
44.42610150280454
 51
135.5783007324299
  0
LINE
  5
26757
330
1F
100
AcDbEntity
  8
AM_VIS
100
AcDbLine
 10
2368.876027470512
 20
-13.92314136049401
 30
0.0
 11
2367.726027470512
 21
-13.92314136049401
 31
0.0
  0
LINE
  5
26758
330
1F
100
AcDbEntity
  8
AM_VIS
100
AcDbLine
 10
2368.876027470512
 20
-10.39486005685102
 30
0.0
 11
2367.726027470512
 21
-10.39486005685102
 31
0.0
  0
LINE
  5
26759
330
1F
100
AcDbEntity
  8
AM_VIS
100
AcDbLine
 10
2367.726027470512
 20
-13.76109453081846
 30
0.0
 11
2368.876027470512
 21
-13.76109453081846
 31
0.0
  0
LINE
  5
2675A
330
1F
100
AcDbEntity
  8
AM_VIS
100
AcDbLine
 10
2367.726027470512
 20
-7.289375834461566
 30
0.0
 11
2368.876027470512
 21
-7.289375834461566
 31
0.0
  0
LINE
  5
2675B
330
1F
100
AcDbEntity
  8
AM_VIS
100
AcDbLine
 10
2368.876027470512
 20
-0.5569068865265763
 30
0.0
 11
2368.876027470512
 21
-7.289375834461679
 31
0.0
  0
LINE
  5
2675C
330
1F
100
AcDbEntity
  8
AM_VIS
100
AcDbLine
 10
2370.376027470512
 20
-7.289375834461566
 30
0.0
 11
2370.376027470512
 21
-0.5569068865263489
 31
0.0
  0
LINE
  5
2675D
330
1F
100
AcDbEntity
  8
AM_VIS
100
AcDbLine
 10
2367.226027470512
 20
-1.368244102285871
 30
0.0
 11
2367.226027470512
 21
-6.478038618702385
 31
0.0
  0
LINE
  5
2675E
330
1F
100
AcDbEntity
  8
AM_VIS
100
AcDbLine
 10
2373.226027470512
 20
5.914811809830439
 30
0.0
 11
2373.226027470512
 21
6.076858639505985
 31
0.0
  0
LINE
  5
2675F
330
1F
100
AcDbEntity
  8
AM_VIS
100
AcDbLine
 10
2375.226027470512
 20
6.076858639505985
 30
0.0
 11
2374.726027470512
 21
6.076858639505985
 31
0.0
  0
LINE
  5
26760
330
1F
100
AcDbEntity
  8
AM_VIS
100
AcDbLine
 10
2373.226027470512
 20
-0.5569068865265763
 30
0.0
 11
2373.226027470512
 21
2.548577335862773
 31
0.0
  0
LINE
  5
26761
330
1F
100
AcDbEntity
  8
AM_VIS
100
AcDbLine
 10
2373.426027470512
 20
-3.923141360494014
 30
0.0
 11
2373.426027470512
 21
3.576858639505985
 31
0.0
  0
LINE
  5
26762
330
1F
100
AcDbEntity
  8
AM_VIS
100
AcDbLine
 10
2374.226027470512
 20
-3.923141360494014
 30
0.0
 11
2374.226027470512
 21
3.576858639505985
 31
0.0
  0
LINE
  5
26763
330
1F
100
AcDbEntity
  8
AM_VIS
100
AcDbLine
 10
2374.226027470512
 20
3.576858639505985
 30
0.0
 11
2373.426027470512
 21
3.576858639505985
 31
0.0
  0
LINE
  5
26764
330
1F
100
AcDbEntity
  8
AM_VIS
100
AcDbLine
 10
2374.726027470512
 20
6.076858639505985
 30
0.0
 11
2374.726027470512
 21
-3.923141360494014
 31
0.0
  0
LINE
  5
26765
330
1F
100
AcDbEntity
  8
AM_VIS
100
AcDbLine
 10
2373.426027470512
 20
3.576858639505985
 30
0.0
 11
2373.226027470512
 21
6.076858639505985
 31
0.0
  0
LINE
  5
26766
330
1F
100
AcDbEntity
  8
AM_VIS
100
AcDbLine
 10
2374.226027470512
 20
3.576858639505985
 30
0.0
 11
2374.726027470512
 21
6.076858639505985
 31
0.0
  0
SPLINE
  5
26767
330
1F
100
AcDbEntity
  8
AM_VIS
100
AcDbSpline
210
0.0
220
0.0
230
1.0
 70
     8
 71
     3
 72
    14
 73
    10
 74
     0
 42
0.0000000001
 43
0.0000000001
 40
13.2800674255618
 40
13.2800674255618
 40
13.2800674255618
 40
13.2800674255618
 40
14.27448381305591
 40
14.27448381305591
 40
16.65382904986476
 40
16.65382904986476
 40
19.03317428667361
 40
19.03317428667361
 40
20.02759067416769
 40
20.02759067416769
 40
20.02759067416769
 40
20.02759067416769
 10
2373.226027470512
 20
2.548577335862887
 30
0.0
 10
2373.243773445631
 20
2.603547614642593
 30
0.0
 10
2373.259549039334
 20
2.676709738086628
 30
0.0
 10
2373.304757851245
 20
2.983935262784598
 30
0.0
 10
2373.322027470512
 20
3.301324653340884
 30
0.0
 10
2373.322027470512
 20
4.094439732277123
 30
0.0
 10
2373.304757851245
 20
4.586315682353756
 30
0.0
 10
2373.259549039334
 20
5.397083489283545
 30
0.0
 10
2373.243773445631
 20
5.649889819740337
 30
0.0
 10
2373.226027470512
 20
5.914811809830439
 30
0.0
  0
LINE
  5
26768
330
1F
100
AcDbEntity
  8
AM_VIS
100
AcDbLine
 10
2373.226027470512
 20
-10.39486005685102
 30
0.0
 11
2373.226027470512
 21
-7.289375834461679
 31
0.0
  0
LINE
  5
26769
330
1F
100
AcDbEntity
  8
AM_VIS
100
AcDbLine
 10
2373.226027470512
 20
-13.92314136049401
 30
0.0
 11
2373.226027470512
 21
-13.76109453081846
 31
0.0
  0
LINE
  5
2676A
330
1F
100
AcDbEntity
  8
AM_VIS
100
AcDbLine
 10
2373.426027470512
 20
-11.42314136049401
 30
0.0
 11
2373.226027470512
 21
-13.92314136049401
 31
0.0
  0
LINE
  5
2676B
330
1F
100
AcDbEntity
  8
AM_VIS
100
AcDbLine
 10
2374.226027470512
 20
-11.42314136049401
 30
0.0
 11
2374.726027470512
 21
-13.92314136049401
 31
0.0
  0
LINE
  5
2676C
330
1F
100
AcDbEntity
  8
AM_VIS
100
AcDbLine
 10
2374.226027470512
 20
-11.42314136049401
 30
0.0
 11
2373.426027470512
 21
-11.42314136049401
 31
0.0
  0
LINE
  5
2676D
330
1F
100
AcDbEntity
  8
AM_VIS
100
AcDbLine
 10
2375.226027470512
 20
-13.92314136049401
 30
0.0
 11
2374.726027470512
 21
-13.92314136049401
 31
0.0
  0
SPLINE
  5
2676E
330
1F
100
AcDbEntity
  8
AM_VIS
100
AcDbSpline
210
0.0
220
0.0
230
1.0
 70
     8
 71
     3
 72
    14
 73
    10
 74
     0
 42
0.0000000001
 43
0.0000000001
 40
13.28006742556181
 40
13.28006742556181
 40
13.28006742556181
 40
13.28006742556181
 40
14.27448381305596
 40
14.27448381305596
 40
16.65382904986482
 40
16.65382904986482
 40
19.03317428667365
 40
19.03317428667365
 40
20.0275906741677
 40
20.0275906741677
 40
20.0275906741677
 40
20.0275906741677
 10
2373.226027470512
 20
-13.76109453081846
 30
0.0
 10
2373.243773445631
 20
-13.49617254072848
 30
0.0
 10
2373.259549039334
 20
-13.24336621027157
 30
0.0
 10
2373.304757851245
 20
-12.43259840334178
 30
0.0
 10
2373.322027470512
 20
-11.94072245326515
 30
0.0
 10
2373.322027470512
 20
-11.14760737432891
 30
0.0
 10
2373.304757851245
 20
-10.83021798377262
 30
0.0
 10
2373.259549039334
 20
-10.52299245907477
 30
0.0
 10
2373.243773445631
 20
-10.44983033563073
 30
0.0
 10
2373.226027470512
 20
-10.39486005685102
 30
0.0
  0
LINE
  5
2676F
330
1F
100
AcDbEntity
  8
AM_VIS
100
AcDbLine
 10
2375.226027470512
 20
-10.9231413604939
 30
0.0
 11
2375.226027470512
 21
-14.9231413604939
 31
0.0
  0
LINE
  5
26770
330
1F
100
AcDbEntity
  8
AM_VIS
100
AcDbLine
 10
2373.426027470512
 20
-11.42314136049401
 30
0.0
 11
2373.426027470512
 21
-3.923141360494014
 31
0.0
  0
LINE
  5
26771
330
1F
100
AcDbEntity
  8
AM_VIS
100
AcDbLine
 10
2374.226027470512
 20
-11.42314136049401
 30
0.0
 11
2374.226027470512
 21
-3.923141360494014
 31
0.0
  0
LINE
  5
26772
330
1F
100
AcDbEntity
  8
AM_VIS
100
AcDbLine
 10
2374.726027470512
 20
-3.923141360494014
 30
0.0
 11
2374.726027470512
 21
-13.92314136049401
 31
0.0
  0
ARC
  5
26773
330
1F
100
AcDbEntity
  8
AM_VIS
100
AcDbCircle
 10
2314.050222639302
 20
-3.923141360494355
 30
0.0
 40
59.27135386821789
100
AcDbArc
 50
356.7442201741542
 51
3.255779825845782
  0
LINE
  5
26774
330
1F
100
AcDbEntity
  8
AM_VIS
100
AcDbLine
 10
2375.226027470512
 20
-10.9231413604939
 30
0.0
 11
2375.226027470512
 21
13.57685863950609
 31
0.0
  0
LINE
  5
26775
330
1F
100
AcDbEntity
  8
AM_VIS
100
AcDbLine
 10
2373.226027470512
 20
6.076858639505985
 30
0.0
 11
2370.376027470512
 21
6.076858639505985
 31
0.0
  0
LINE
  5
26776
330
1F
100
AcDbEntity
  8
AM_VIS
100
AcDbLine
 10
2373.226027470512
 20
-13.92314136049401
 30
0.0
 11
2370.376027470512
 21
-13.92314136049401
 31
0.0
  0
LINE
  5
26777
330
1F
100
AcDbEntity
  8
AM_VIS
100
AcDbLine
 10
2370.376027470512
 20
-7.289375834461566
 30
0.0
 11
2373.226027470512
 21
-7.289375834461566
 31
0.0
  0
LINE
  5
26778
330
1F
100
AcDbEntity
  8
AM_VIS
100
AcDbLine
 10
2370.376027470512
 20
2.548577335862887
 30
0.0
 11
2373.226027470512
 21
2.548577335862887
 31
0.0
  0
LINE
  5
26779
330
1F
100
AcDbEntity
  8
AM_VIS
100
AcDbLine
 10
2373.226027470512
 20
-0.5569068865265763
 30
0.0
 11
2370.376027470512
 21
-0.5569068865265763
 31
0.0
  0
LINE
  5
2677A
330
1F
100
AcDbEntity
  8
AM_VIS
100
AcDbLine
 10
2373.226027470512
 20
5.914811809830439
 30
0.0
 11
2370.376027470512
 21
5.914811809830439
 31
0.0
  0
LINE
  5
2677B
330
1F
100
AcDbEntity
  8
AM_VIS
100
AcDbLine
 10
2373.226027470512
 20
-10.39486005685102
 30
0.0
 11
2370.376027470512
 21
-10.39486005685102
 31
0.0
  0
LINE
  5
2677C
330
1F
100
AcDbEntity
  8
AM_VIS
100
AcDbLine
 10
2370.376027470512
 20
-13.76109453081846
 30
0.0
 11
2373.226027470512
 21
-13.76109453081846
 31
0.0
  0
LINE
  5
2677D
330
1F
100
AcDbEntity
  8
AM_VIS
100
AcDbLine
 10
2430.726027470512
 20
19.27685863950614
 30
0.0
 11
2406.726027470512
 21
18.85793708122901
 31
0.0
  0
LINE
  5
2677E
330
1F
100
AcDbEntity
  8
AM_VIS
100
AcDbLine
 10
2430.726027470512
 20
-27.12314136049383
 30
0.0
 11
2406.726027470512
 21
-26.70421980221658
 31
0.0
  0
TEXT
  5
2679B
330
1F
100
AcDbEntity
  8
AM_REFDIM
100
AcDbText
 10
2523.774661995105
 20
67.28746086947921
 30
0.0
 40
4.5
  1
2-%%c3.2
100
AcDbText
  0
INSERT
  5
2679C
330
1F
100
AcDbEntity
  8
AM_REFDIM
100
AcDbBlockReference
  2
*S14
 10
0.0
 20
0.0
 30
0.0
  0
TEXT
  5
2679D
330
1F
100
AcDbEntity
  8
AM_REFDIM
100
AcDbText
 10
2427.124276726615
 20
30.87879448971057
 30
0.0
 40
4.5
  1
5-PT1/2
100
AcDbText
  0
INSERT
  5
2679E
330
1F
100
AcDbEntity
  8
AM_REFDIM
100
AcDbBlockReference
  2
*S15
 10
0.0
 20
0.0
 30
0.0
  0
INSERT
  5
2679F
330
1F
100
AcDbEntity
  8
AM_REFDIM
100
AcDbBlockReference
  2
*S16
 10
0.0
 20
0.0
 30
0.0
  0
TEXT
  5
267A0
330
1F
100
AcDbEntity
  8
AM_REFDIM
100
AcDbText
 10
2511.601489000399
 20
-41.83697104634347
 30
0.0
 40
4.5
  1
2-%%c4.5
100
AcDbText
  0
DIMENSION
  5
26AE4
330
1F
100
AcDbEntity
  8
AM_REFDIM
100
AcDbDimension
  2
*D3
 10
2509.726027470512
 20
114.9873396276827
 30
0.0
 11
2473.726027470512
 21
117.2873396276827
 31
0.0
 70
    32
  3
STANDARD
100
AcDbAlignedDimension
 13
2437.726027470512
 23
109.7409744549699
 33
0.0
 14
2509.726027470512
 24
86.74097445497
 34
0.0
100
AcDbRotatedDimension
  0
DIMENSION
  5
26AF1
330
1F
100
AcDbEntity
  8
AM_REFDIM
100
AcDbDimension
  2
*D4
 10
2487.226027470512
 20
72.47659276015633
 30
0.0
 11
2473.726027470512
 21
74.77659276015633
 31
0.0
 70
    32
  3
STANDARD
100
AcDbAlignedDimension
 13
2460.226027470512
 23
82.74097445497
 33
0.0
 14
2487.226027470512
 24
78.24097445497
 34
0.0
100
AcDbRotatedDimension
  0
DIMENSION
  5
26AFE
330
1F
100
AcDbEntity
  8
AM_REFDIM
100
AcDbDimension
  2
*D5
 10
2349.659489071515
 20
77.74097445497002
 30
0.0
 11
2347.359489071514
 21
92.74097445497039
 31
0.0
 70
    32
  3
STANDARD
100
AcDbAlignedDimension
 13
2432.526027470512
 23
107.7409744549699
 33
0.0
 14
2432.526027470512
 24
77.74097445497
 34
0.0
 50
90.0
100
AcDbRotatedDimension
  0
DIMENSION
  5
26B0B
330
1F
100
AcDbEntity
  8
AM_REFDIM
100
AcDbDimension
  2
*D6
 10
2591.226027470512
 20
61.80270898199319
 30
0.0
 11
2473.726027470512
 21
64.10270898199319
 31
0.0
 70
    32
  3
STANDARD
100
AcDbAlignedDimension
 13
2356.226027470512
 23
83.64631613364053
 33
0.0
 14
2591.226027470512
 24
83.64631613364053
 34
0.0
100
AcDbRotatedDimension
  0
DIMENSION
  5
26B18
330
1F
100
AcDbEntity
  8
AM_REFDIM
100
AcDbDimension
  2
*D7
 10
2522.307851473561
 20
21.07685863950609
 30
0.0
 11
2520.007851473561
 21
31.01971578236364
 31
0.0
 70
    32
  3
STANDARD
100
AcDbAlignedDimension
 13
2513.726027470512
 23
16.5768586395061
 33
0.0
 14
2513.726027470512
 24
21.0768586395061
 34
0.0
 50
90.0
100
AcDbRotatedDimension
  0
DIMENSION
  5
26B27
330
1F
100
AcDbEntity
  8
AM_REFDIM
100
AcDbDimension
  2
*D8
 10
2400.144576036284
 20
-20.12314136049381
 30
0.0
 11
2397.844576036284
 21
-24.52314136049346
 31
0.0
 70
    32
  3
STANDARD
100
AcDbAlignedDimension
 13
2432.526027470512
 23
-28.9231413604939
 33
0.0
 14
2456.976027470512
 24
-20.12314136049383
 34
0.0
 50
90.0
100
AcDbRotatedDimension
  0
DIMENSION
  5
26B34
330
1F
100
AcDbEntity
  8
AM_REFDIM
100
AcDbDimension
  2
*D9
 10
2488.226027470512
 20
-36.48301543847423
 30
0.0
 11
2473.726027470512
 21
-34.18301543847424
 31
0.0
 70
    32
  3
STANDARD
100
AcDbAlignedDimension
 13
2459.226027470512
 23
-23.87314136049383
 33
0.0
 14
2488.226027470512
 24
-23.87314136049383
 34
0.0
100
AcDbRotatedDimension
  0
DIMENSION
  5
26B41
330
1F
100
AcDbEntity
  8
AM_REFDIM
100
AcDbDimension
  2
*D10
 10
2502.726027470512
 20
-43.39674924768565
 30
0.0
 11
2473.726027470512
 21
-41.09674924768564
 31
0.0
 70
    32
  3
STANDARD
100
AcDbAlignedDimension
 13
2444.726027470512
 23
-31.20396426274282
 33
0.0
 14
2502.726027470512
 24
-31.20396426274282
 34
0.0
100
AcDbRotatedDimension
  0
DIMENSION
  5
26B4E
330
1F
100
AcDbEntity
  8
AM_REFDIM
100
AcDbDimension
  2
*D11
 10
2588.489194938027
 20
21.07685863950607
 30
0.0
 11
2586.189194938027
 21
-3.923141360493504
 31
0.0
 70
    32
  3
STANDARD
100
AcDbAlignedDimension
 13
2514.926027470512
 23
-28.9231413604939
 33
0.0
 14
2514.926027470512
 24
21.0768586395061
 34
0.0
 50
90.0
100
AcDbRotatedDimension
  0
DIMENSION
  5
26B5B
330
1F
100
AcDbEntity
  8
AM_REFDIM
100
AcDbDimension
  2
*D12
 10
2600.407349667257
 20
44.07685863950587
 30
0.0
 11
2598.107349667257
 21
7.576858639506391
 31
0.0
 70
    32
  3
STANDARD
100
AcDbAlignedDimension
 13
2514.926027470512
 23
-28.9231413604939
 33
0.0
 14
2584.226027470512
 24
44.07685863950587
 34
0.0
 50
90.0
100
AcDbRotatedDimension
  0
DIMENSION
  5
26B68
330
1F
100
AcDbEntity
  8
AM_REFDIM
100
AcDbDimension
  2
*D13
 10
2580.226027470512
 20
-51.59280628123247
 30
0.0
 11
2473.726027470512
 21
-49.29280628123247
 31
0.0
 70
    32
  3
STANDARD
100
AcDbAlignedDimension
 13
2367.226027470512
 23
-13.42314136049401
 33
0.0
 14
2580.226027470512
 24
-13.42314136049401
 34
0.0
100
AcDbRotatedDimension
  0
LINE
  5
26C3F
330
1F
100
AcDbEntity
  8
LOGO
 62
     6
100
AcDbLine
 10
2607.288335931324
 20
-63.22913679938062
 30
0.0
 11
2607.288335931326
 21
149.29027072071
 31
0.0
  0
TEXT
  5
2716E
330
1F
100
AcDbEntity
  8
LOGO
 62
     6
100
AcDbText
 10
2395.276047114751
 20
-81.30775027867825
 30
0.0
 40
3.287020632599587
  1
m/m
  7
CHINESET
 72
     1
 11
2401.067464419808
 21
-79.66423996237846
 31
0.0
100
AcDbText
 73
     2
  0
TEXT
  5
2716F
330
1F
100
AcDbEntity
  8
LOGO
 62
     6
100
AcDbText
 10
2395.276047114751
 20
-68.15966774827988
 30
0.0
 40
3.287020632599587
  1
1 : 1
  7
CHINESET
 72
     1
 11
2401.067464419808
 21
-66.51615743198009
 31
0.0
100
AcDbText
 73
     2
  0
TEXT
  5
27170
330
1F
100
AcDbEntity
  8
LOGO
 62
     6
100
AcDbText
 10
2368.229488486042
 20
-81.30775027867825
 30
0.0
 40
3.287020632599587
  1
單位 Unit:
 41
0.9
  7
CHINESET
 72
     4
 11
2377.196891649353
 21
-79.66423996237846
 31
0.0
100
AcDbText
  0
TEXT
  5
27171
330
1F
100
AcDbEntity
  8
LOGO
 62
     6
100
AcDbText
 10
2366.759133720924
 20
-68.15805012001582
 30
0.0
 40
3.287020632599587
  1
比例 Scale:
 41
0.9
  7
CHINESET
 72
     4
 11
2377.196891649353
 21
-66.51615743198009
 31
0.0
100
AcDbText
  0
LINE
  5
27172
330
1F
100
AcDbEntity
  8
LOGO
 62
     1
100
AcDbLine
 10
2607.288335931324
 20
-96.09934312537641
 30
0.0
 11
2607.288335931324
 21
-63.22913679938051
 31
0.0
  0
LINE
  5
27173
330
1F
100
AcDbEntity
  8
LOGO
 62
     1
100
AcDbLine
 10
2390.344974179751
 20
-82.95126059497803
 30
0.0
 11
2390.344974179751
 21
-63.22913679938051
 31
0.0
  0
LINE
  5
27174
330
1F
100
AcDbEntity
  8
LOGO
 62
     1
100
AcDbLine
 10
2412.258445063748
 20
-69.80317806457967
 30
0.0
 11
2364.048809118954
 21
-69.80317806457967
 31
0.0
  0
LINE
  5
27175
330
1F
100
AcDbEntity
  8
LOGO
 62
     1
100
AcDbLine
 10
2412.258445063748
 20
-76.37721932977888
 30
0.0
 11
2364.048809118954
 21
-76.37721932977888
 31
0.0
  0
LINE
  5
27176
330
1F
100
AcDbEntity
  8
LOGO
 62
     1
100
AcDbLine
 10
2339.943991146557
 20
-96.09934312537641
 30
0.0
 11
2339.943991146557
 21
-63.22913679938051
 31
0.0
  0
LINE
  5
27177
330
1F
100
AcDbEntity
  8
LOGO
 62
     1
100
AcDbLine
 10
2412.258445063748
 20
-82.95126059497796
 30
0.0
 11
2339.943991146557
 21
-82.95126059497796
 31
0.0
  0
TEXT
  5
27178
330
1F
100
AcDbEntity
  8
LOGO
 62
     6
100
AcDbText
 10
2367.908123522409
 20
-74.68747180559763
 30
0.0
 40
3.287020632599587
  1
投影 View:
 41
0.9
  7
CHINESET
 72
     4
 11
2377.196891649353
 21
-73.0901986971793
 31
0.0
100
AcDbText
  0
CIRCLE
  5
27179
330
1F
100
AcDbEntity
  8
LOGO
  6
CONTINUOUS
 62
     6
100
AcDbCircle
 10
2396.431304015051
 20
-73.0831677359923
 30
0.0
 40
1.908521547031622
  0
CIRCLE
  5
2717A
330
1F
100
AcDbEntity
  8
LOGO
  6
CONTINUOUS
 62
     6
100
AcDbCircle
 10
2396.431304015051
 20
-73.0831677359923
 30
0.0
 40
1.118224674707039
  0
LINE
  5
2717B
330
1F
100
AcDbEntity
  8
LOGO
  6
CONTINUOUS
 62
     6
100
AcDbLine
 10
2402.441569376493
 20
-71.96494306128531
 30
0.0
 11
2408.424674872074
 21
-71.17464618896069
 31
0.0
  0
LINE
  5
2717C
330
1F
100
AcDbEntity
  8
LOGO
  6
CONTINUOUS
 62
     6
100
AcDbLine
 10
2402.441569376493
 20
-74.20139241069938
 30
0.0
 11
2408.424674872074
 21
-74.99168928302393
 31
0.0
  0
LINE
  5
2717D
330
1F
100
AcDbEntity
  8
LOGO
 62
     6
100
AcDbLine
 10
2402.441569376493
 20
-74.20139241069938
 30
0.0
 11
2402.441569376493
 21
-71.96494306128531
 31
0.0
  0
LINE
  5
2717E
330
1F
100
AcDbEntity
  8
LOGO
 62
     6
100
AcDbLine
 10
2408.424674872074
 20
-74.99168928302393
 30
0.0
 11
2408.424674872074
 21
-71.17464618896069
 31
0.0
  0
LINE
  5
2717F
330
1F
100
AcDbEntity
  8
LOGO
 62
     6
100
AcDbLine
 10
2557.100997649081
 20
-81.30775027867814
 30
0.0
 11
2531.17909477387
 21
-81.30775027867814
 31
0.0
  0
LINE
  5
27180
330
1F
100
AcDbEntity
  8
LOGO
 62
     6
100
AcDbLine
 10
2542.857241574482
 20
-76.37721932977874
 30
0.0
 11
2531.17909477387
 21
-76.37721932977874
 31
0.0
  0
LINE
  5
27181
330
1F
100
AcDbEntity
  8
LOGO
 62
     6
100
AcDbLine
 10
2557.100997649081
 20
-93.36015926487664
 30
0.0
 11
2531.17909477387
 21
-93.36015926487664
 31
0.0
  0
LINE
  5
27182
330
1F
100
AcDbEntity
  8
LOGO
 62
     6
100
AcDbLine
 10
2557.100997649081
 20
-81.30775027867814
 30
0.0
 11
2557.100997649081
 21
-93.40560483844221
 31
0.0
  0
LINE
  5
27183
330
1F
100
AcDbEntity
  8
LOGO
 62
     6
100
AcDbLine
 10
2575.627104100942
 20
-93.36015926487657
 30
0.0
 11
2561.109429640294
 21
-93.36015926487664
 31
0.0
  0
TEXT
  5
27184
330
1F
100
AcDbEntity
  8
LOGO
 62
     6
100
AcDbText
 10
2564.382754353591
 20
-87.28722328859301
 30
0.0
 40
4.382694176799449
  1
電壓
 41
0.9
  7
CHINESET
 72
     4
 11
2568.368266870618
 21
-85.14260768337766
 31
0.0
100
AcDbText
  0
LINE
  5
27185
330
1F
100
AcDbEntity
  8
LOGO
 62
     6
100
AcDbLine
 10
2579.836223691228
 20
-76.37721932977874
 30
0.0
 11
2551.724915383445
 21
-76.37721932977874
 31
0.0
  0
LINE
  5
27186
330
1F
100
AcDbEntity
  8
LOGO
 62
     6
100
AcDbLine
 10
2575.627104100942
 20
-81.30775027867814
 30
0.0
 11
2561.109429640294
 21
-81.30775027867814
 31
0.0
  0
TEXT
  5
27187
330
1F
100
AcDbEntity
  8
LOGO
 62
     6
100
AcDbText
 10
2466.235343364939
 20
-87.22179921213495
 30
0.0
 40
4.382694176799449
  1
型式
  7
CHINESET
 72
     4
 11
2470.618037541739
 21
-85.14260768337774
 31
0.0
100
AcDbText
  0
TEXT
  5
27188
330
1F
100
AcDbEntity
  8
LOGO
 62
     7
100
AcDbText
 10
2414.162740548812
 20
-77.62901485644349
 30
0.0
 40
4.382694176799449
  1
Order example:
 41
0.8
  7
CHINESET
100
AcDbText
  0
LINE
  5
27189
330
1F
100
AcDbEntity
  8
LOGO
 62
     6
100
AcDbLine
 10
2531.17909477387
 20
-81.30775027867814
 30
0.0
 11
2531.17909477387
 21
-93.36015926487664
 31
0.0
  0
LINE
  5
2718A
330
1F
100
AcDbEntity
  8
LOGO
 62
     6
100
AcDbLine
 10
2509.116117739303
 20
-81.30775027867821
 30
0.0
 11
2509.116117739303
 21
-93.3601592648767
 31
0.0
  0
LINE
  5
2718B
330
1F
100
AcDbEntity
  8
LOGO
 62
     6
100
AcDbLine
 10
2484.950595051095
 20
-81.30775027867821
 30
0.0
 11
2484.950595051095
 21
-93.3601592648767
 31
0.0
  0
LINE
  5
2718C
330
1F
100
AcDbEntity
  8
LOGO
 62
     6
100
AcDbLine
 10
2509.116117739303
 20
-93.3601592648767
 30
0.0
 11
2484.950595051095
 21
-93.36015926487677
 31
0.0
  0
LINE
  5
2718D
330
1F
100
AcDbEntity
  8
LOGO
 62
     6
100
AcDbLine
 10
2537.018168174176
 20
-76.37721932977874
 30
0.0
 11
2537.018168174176
 21
-78.84248480422844
 31
0.0
  0
TEXT
  5
2718E
330
1F
100
AcDbEntity
  8
LOGO
 62
     6
100
AcDbText
 10
2538.305584588611
 20
-87.14523147430202
 30
0.0
 40
4.382694176799449
  1
雙線圈
 41
0.9
  7
CHINESET
 72
     4
 11
2544.140046211475
 21
-85.14260768337766
 31
0.0
100
AcDbText
  0
LINE
  5
2718F
330
1F
100
AcDbEntity
  8
LOGO
 62
     6
100
AcDbLine
 10
2509.116117739303
 20
-81.30775027867821
 30
0.0
 11
2484.950595051095
 21
-81.30775027867821
 31
0.0
  0
LINE
  5
27190
330
1F
100
AcDbEntity
  8
LOGO
 62
     6
100
AcDbLine
 10
2515.690159004503
 20
-76.37721932977888
 30
0.0
 11
2491.524636316293
 21
-76.37721932977888
 31
0.0
  0
LINE
  5
27191
330
1F
100
AcDbEntity
  8
LOGO
 62
     6
100
AcDbLine
 10
2503.607397660398
 20
-76.37721932977888
 30
0.0
 11
2503.607397660398
 21
-78.84248480422859
 31
0.0
  0
TEXT
  5
27192
330
1F
100
AcDbEntity
  8
LOGO
 62
     6
100
AcDbText
 10
2488.2679680416
 20
-87.25684782452324
 30
0.0
 40
4.382694176799449
  1
本體寬幅
  7
CHINESET
 72
     4
 11
2497.033356395199
 21
-85.14260768337774
 31
0.0
100
AcDbText
  0
LINE
  5
27193
330
1F
100
AcDbEntity
  8
LOGO
 62
     6
100
AcDbLine
 10
2470.618037541739
 20
-76.37721932977888
 30
0.0
 11
2470.618037541739
 21
-81.30775027867821
 31
0.0
  0
LINE
  5
27194
330
1F
100
AcDbEntity
  8
LOGO
 62
     6
100
AcDbLine
 10
2459.66130209974
 20
-81.30775027867821
 30
0.0
 11
2459.66130209974
 21
-93.36015926487677
 31
0.0
  0
TEXT
  5
27195
330
1F
100
AcDbEntity
  8
LOGO
 62
     7
100
AcDbText
 10
2414.949032127536
 20
-71.45908890391822
 30
0.0
 40
6.574041265199174
  1
訂購代號:
  7
CHINESET
100
AcDbText
  0
LINE
  5
27196
330
1F
100
AcDbEntity
  8
LOGO
 62
     6
100
AcDbLine
 10
2575.627104100942
 20
-81.30775027867814
 30
0.0
 11
2575.627104100942
 21
-93.36015926487657
 31
0.0
  0
LINE
  5
27197
330
1F
100
AcDbEntity
  8
LOGO
  6
CONTINUOUS
 62
     7
100
AcDbLine
 10
2545.74984234632
 20
-71.44668838087928
 30
0.0
 11
2550.104127466228
 21
-71.44668838087928
 31
0.0
  0
LINE
  5
27198
330
1F
100
AcDbEntity
  8
LOGO
 62
     6
100
AcDbLine
 10
2568.368266870618
 20
-78.84248480422844
 30
0.0
 11
2568.368266870618
 21
-81.30775027867814
 31
0.0
  0
LINE
  5
27199
330
1F
100
AcDbEntity
  8
LOGO
 62
     6
100
AcDbLine
 10
2542.857241574483
 20
-66.51615743197995
 30
0.0
 11
2531.17909477387
 21
-66.51615743197995
 31
0.0
  0
LINE
  5
2719A
330
1F
100
AcDbEntity
  8
LOGO
 62
     6
100
AcDbLine
 10
2579.836223691228
 20
-66.51615743197988
 30
0.0
 11
2551.724915383445
 21
-66.51615743197988
 31
0.0
  0
LINE
  5
2719B
330
1F
100
AcDbEntity
  8
LOGO
 62
     6
100
AcDbLine
 10
2515.690159004503
 20
-66.51615743198002
 30
0.0
 11
2491.524636316293
 21
-66.51615743198009
 31
0.0
  0
LINE
  5
2719C
330
1F
100
AcDbEntity
  8
LOGO
 62
     6
100
AcDbLine
 10
2457.46995501134
 20
-66.51615743198009
 30
0.0
 11
2457.46995501134
 21
-76.37721932977888
 31
0.0
  0
LINE
  5
2719D
330
1F
100
AcDbEntity
  8
LOGO
 62
     6
100
AcDbLine
 10
2491.524636316293
 20
-66.51615743198009
 30
0.0
 11
2491.524636316293
 21
-76.37721932977888
 31
0.0
  0
LINE
  5
2719E
330
1F
100
AcDbEntity
  8
LOGO
 62
     6
100
AcDbLine
 10
2515.690159004503
 20
-66.51615743198002
 30
0.0
 11
2515.690159004503
 21
-76.37721932977888
 31
0.0
  0
LINE
  5
2719F
330
1F
100
AcDbEntity
  8
LOGO
 62
     6
100
AcDbLine
 10
2542.857241574483
 20
-66.51615743197995
 30
0.0
 11
2542.857241574482
 21
-76.37721932977874
 31
0.0
  0
LINE
  5
271A0
330
1F
100
AcDbEntity
  8
LOGO
 62
     6
100
AcDbLine
 10
2551.724915383445
 20
-66.48122799232176
 30
0.0
 11
2551.724915383445
 21
-76.34228989012062
 31
0.0
  0
LINE
  5
271A1
330
1F
100
AcDbEntity
  8
LOGO
 62
     6
100
AcDbLine
 10
2579.836223691227
 20
-66.51615743197988
 30
0.0
 11
2579.836223691227
 21
-76.37721932977874
 31
0.0
  0
TEXT
  5
271A2
330
1F
100
AcDbEntity
  8
LOGO
  6
CONTINUOUS
 62
     6
100
AcDbText
 10
2532.45286174001
 20
-91.99056733462683
 30
0.0
 40
2.739183860499656
  1
Duble solenoid
 41
0.8
  7
CHINESET
 72
     4
 11
2544.140046211475
 21
-90.62097540437701
 31
0.0
100
AcDbText
  0
TEXT
  5
271A3
330
1F
100
AcDbEntity
  8
LOGO
  6
CONTINUOUS
 62
     6
100
AcDbText
 10
2562.576849565562
 20
-91.53403669121015
 30
0.0
 40
2.739183860499656
  1
Voltage
 41
0.8
  7
CHINESET
 72
     4
 11
2568.368266870618
 21
-90.62097540437694
 31
0.0
100
AcDbText
  0
TEXT
  5
271A4
330
1F
100
AcDbEntity
  8
LOGO
  6
CONTINUOUS
 62
     6
100
AcDbText
 10
2486.0766209532
 20
-91.53403669121031
 30
0.0
 40
2.739183860499656
  1
Body width
  7
CHINESET
 72
     4
 11
2497.033356395199
 21
-90.62097540437708
 31
0.0
100
AcDbText
  0
TEXT
  5
271A5
330
1F
100
AcDbEntity
  8
LOGO
  6
CONTINUOUS
 62
     6
100
AcDbText
 10
2465.40054447412
 20
-91.9905673346269
 30
0.0
 40
2.739183860499656
  1
Model
  7
CHINESET
 72
     4
 11
2470.618037541739
 21
-90.62097540437708
 31
0.0
100
AcDbText
  0
TEXT
  5
271A6
330
1F
100
AcDbEntity
  8
LOGO
  6
CONTINUOUS
 62
     7
100
AcDbText
 10
2533.22505085513
 20
-74.24799727654229
 30
0.0
 40
5.478367720999312
  1
E2
  7
CHINESET
 72
     1
 11
2537.529482635915
 21
-71.50881341604264
 31
0.0
100
AcDbText
 73
     2
  0
TEXT
  5
271A7
330
1F
100
AcDbEntity
  8
LOGO
  6
CONTINUOUS
 62
     7
100
AcDbText
 10
2496.563782019113
 20
-74.24799727654243
 30
0.0
 40
5.478367720999312
  1
500
  7
CHINESET
 72
     1
 11
2503.607397660398
 21
-71.50881341604279
 31
0.0
100
AcDbText
 73
     2
  0
TEXT
  5
271A8
330
1F
100
AcDbEntity
  8
LOGO
  6
CONTINUOUS
 62
     7
100
AcDbText
 10
2460.574363386573
 20
-74.18587224137914
 30
0.0
 40
5.478367720999312
  1
MVSE
  7
CHINESET
 72
     1
 11
2470.618037541739
 21
-71.44668838087949
 31
0.0
100
AcDbText
 73
     2
  0
LINE
  5
271A9
330
1F
100
AcDbEntity
  8
LOGO
 62
     1
100
AcDbLine
 10
2412.258445063748
 20
-96.09934312537641
 30
0.0
 11
2412.258445063748
 21
-63.22913679938051
 31
0.0
  0
LINE
  5
271AA
330
1F
100
AcDbEntity
  8
LOGO
 62
     1
100
AcDbLine
 10
2607.288335931324
 20
-63.22913679938051
 30
0.0
 11
2339.943991146557
 21
-63.22913679938051
 31
0.0
  0
LINE
  5
271AB
330
1F
100
AcDbEntity
  8
LOGO
 62
     1
100
AcDbLine
 10
2607.288335931324
 20
-96.09934312537641
 30
0.0
 11
2339.943991146557
 21
-96.09934312537641
 31
0.0
  0
LINE
  5
271AC
330
1F
100
AcDbEntity
  8
LOGO
 62
     6
100
AcDbLine
 10
2483.766120072137
 20
-66.51615743198009
 30
0.0
 11
2483.766120072137
 21
-76.37721932977888
 31
0.0
  0
LINE
  5
271AD
330
1F
100
AcDbEntity
  8
LOGO
 62
     6
100
AcDbLine
 10
2481.574772983737
 20
-81.30775027867821
 30
0.0
 11
2481.574772983737
 21
-93.3601592648767
 31
0.0
  0
LINE
  5
271AE
330
1F
100
AcDbEntity
  8
LOGO
 62
     6
100
AcDbLine
 10
2483.766120072137
 20
-66.51615743198009
 30
0.0
 11
2457.46995501134
 21
-66.51615743198009
 31
0.0
  0
LINE
  5
271AF
330
1F
100
AcDbEntity
  8
LOGO
 62
     6
100
AcDbLine
 10
2483.766120072137
 20
-76.37721932977888
 30
0.0
 11
2457.46995501134
 21
-76.37721932977888
 31
0.0
  0
LINE
  5
271B0
330
1F
100
AcDbEntity
  8
LOGO
 62
     6
100
AcDbLine
 10
2481.574772983737
 20
-81.30775027867821
 30
0.0
 11
2459.66130209974
 21
-81.30775027867821
 31
0.0
  0
LINE
  5
271B1
330
1F
100
AcDbEntity
  8
LOGO
 62
     6
100
AcDbLine
 10
2481.574772983737
 20
-93.3601592648767
 30
0.0
 11
2459.66130209974
 21
-93.36015926487677
 31
0.0
  0
TEXT
  5
271B2
330
1F
100
AcDbEntity
  8
LOGO
  6
CONTINUOUS
 62
     7
100
AcDbText
 10
2564.781909054782
 20
-74.24799727654229
 30
0.0
 40
5.478367720999312
  1
?
  7
CHINESET
 72
     1
 11
2566.216719648377
 21
-71.50881341604264
 31
0.0
100
AcDbText
 73
     2
  0
TEXT
  5
271B3
330
1F
100
AcDbEntity
  8
LOGO
  6
CONTINUOUS
 62
     7
100
AcDbText
 10
2524.809488338807
 20
-74.18587224137907
 30
0.0
 40
5.478367720999312
  1
4
  7
CHINESET
 72
     1
 11
2526.766048239164
 21
-71.44668838087942
 31
0.0
100
AcDbText
 73
     2
  0
LINE
  5
271B4
330
1F
100
AcDbEntity
  8
LOGO
 62
     6
100
AcDbLine
 10
2530.08342122967
 20
-66.51615743197995
 30
0.0
 11
2523.448675248658
 21
-66.51615743198002
 31
0.0
  0
LINE
  5
271B5
330
1F
100
AcDbEntity
  8
LOGO
 62
     6
100
AcDbLine
 10
2530.08342122967
 20
-81.30775027867821
 30
0.0
 11
2512.49193980666
 21
-81.30775027867821
 31
0.0
  0
LINE
  5
271B6
330
1F
100
AcDbEntity
  8
LOGO
 62
     6
100
AcDbLine
 10
2530.08342122967
 20
-76.37721932977881
 30
0.0
 11
2523.448675248658
 21
-76.37721932977881
 31
0.0
  0
TEXT
  5
271B7
330
1F
100
AcDbEntity
  8
LOGO
 62
     6
100
AcDbText
 10
2513.886014415115
 20
-87.31885690797943
 30
0.0
 40
4.382694176799449
  1
4 方向
 41
0.9
  7
CHINESET
 72
     4
 11
2521.287680518165
 21
-85.14260768337774
 31
0.0
100
AcDbText
  0
LINE
  5
271B8
330
1F
100
AcDbEntity
  8
LOGO
 62
     6
100
AcDbLine
 10
2530.08342122967
 20
-93.36015926487664
 30
0.0
 11
2512.49193980666
 21
-93.3601592648767
 31
0.0
  0
TEXT
  5
271B9
330
1F
100
AcDbEntity
  8
LOGO
  6
CONTINUOUS
 62
     6
100
AcDbText
 10
2516.331062103927
 20
-91.53403669121029
 30
0.0
 40
2.739183860499656
  1
4 Way
 41
0.8
  7
CHINESET
 72
     4
 11
2521.287680518165
 21
-90.62097540437708
 31
0.0
100
AcDbText
  0
LINE
  5
271BA
330
1F
100
AcDbEntity
  8
LOGO
 62
     6
100
AcDbLine
 10
2523.448675248658
 20
-66.51615743198002
 30
0.0
 11
2523.448675248658
 21
-76.37721932977881
 31
0.0
  0
LINE
  5
271BB
330
1F
100
AcDbEntity
  8
LOGO
 62
     6
100
AcDbLine
 10
2512.49193980666
 20
-81.30775027867821
 30
0.0
 11
2512.49193980666
 21
-93.36015926487664
 31
0.0
  0
LINE
  5
271BC
330
1F
100
AcDbEntity
  8
LOGO
 62
     6
100
AcDbLine
 10
2530.08342122967
 20
-66.51615743197995
 30
0.0
 11
2530.08342122967
 21
-76.37721932977881
 31
0.0
  0
LINE
  5
271BD
330
1F
100
AcDbEntity
  8
LOGO
 62
     6
100
AcDbLine
 10
2530.08342122967
 20
-81.30775027867821
 30
0.0
 11
2530.08342122967
 21
-93.36015926487664
 31
0.0
  0
LINE
  5
271BE
330
1F
100
AcDbEntity
  8
LOGO
 62
     6
100
AcDbLine
 10
2526.766047986519
 20
-76.37721932977881
 30
0.0
 11
2526.766047986519
 21
-78.84248480422852
 31
0.0
  0
LINE
  5
271BF
330
1F
100
AcDbEntity
  8
LOGO
  6
CONTINUOUS
 62
     7
100
AcDbLine
 10
2485.465032840215
 20
-71.48161782053761
 30
0.0
 11
2489.819317960122
 21
-71.48161782053761
 31
0.0
  0
LINE
  5
271C0
330
1F
100
AcDbEntity
  8
LOGO
  6
CONTINUOUS
 62
     7
100
AcDbLine
 10
2517.38907177258
 20
-71.48161782053754
 30
0.0
 11
2521.743356892487
 21
-71.48161782053754
 31
0.0
  0
LINE
  5
271C1
330
1F
100
AcDbEntity
  8
LOGO
 62
     1
100
AcDbLine
 10
2364.048809118954
 20
-82.95126059497803
 30
0.0
 11
2364.048809118954
 21
-63.22913679938051
 31
0.0
  0
POLYLINE
  5
271C2
330
1F
100
AcDbEntity
  8
LOGO
 62
     5
100
AcDb2dPolyline
 66
     1
 10
0.0
 20
0.0
 30
0.0
 70
     1
  0
VERTEX
  5
28D44
330
271C2
100
AcDbEntity
  8
LOGO
 62
     5
100
AcDbVertex
100
AcDb2dVertex
 10
2356.994819414614
 20
-81.16262943136332
 30
0.0
 42
1.000000057330635
  0
VERTEX
  5
28D45
330
271C2
100
AcDbEntity
  8
LOGO
 62
     5
100
AcDbVertex
100
AcDb2dVertex
 10
2358.46504852163
 20
-81.16262943136332
 30
0.0
 42
1.000000057330635
  0
SEQEND
  5
28D46
330
271C2
100
AcDbEntity
  8
LOGO
 62
     5
  0
CIRCLE
  5
271C3
330
1F
100
AcDbEntity
  8
LOGO
 62
     5
100
AcDbCircle
 10
2357.729933968122
 20
-81.16262943136332
 30
0.0
 40
0.7351145535075841
  0
SOLID
  5
271C4
330
1F
100
AcDbEntity
  8
LOGO
 62
     5
100
AcDbTrace
 10
2343.354327805549
 20
-77.4870566638255
 30
0.0
 11
2344.775549275663
 21
-77.48705666382598
 31
0.0
 12
2350.705473340625
 22
-64.00995651618621
 32
0.0
 13
2352.126694810739
 23
-64.00995651618711
 33
0.0
  0
SOLID
  5
271C5
330
1F
100
AcDbEntity
  8
LOGO
 62
     5
100
AcDbTrace
 10
2345.36364091847
 20
-77.4870566638255
 30
0.0
 11
2346.784862388584
 21
-77.4870566638255
 31
0.0
 12
2352.126694810739
 22
-65.08812452799787
 32
0.0
 13
2350.705473340625
 23
-70.29926991841856
 33
0.0
  0
SOLID
  5
271C6
330
1F
100
AcDbEntity
  8
LOGO
 62
     5
100
AcDbTrace
 10
2350.705473340625
 20
-77.4870566638255
 30
0.0
 11
2352.126694810739
 21
-77.4870566638255
 31
0.0
 12
2350.705473340625
 22
-70.29926991841856
 32
0.0
 13
2352.126694810739
 23
-65.08812452799787
 33
0.0
  0
SOLID
  5
271C7
330
1F
100
AcDbEntity
  8
LOGO
 62
     5
100
AcDbTrace
 10
2352.714786453546
 20
-64.00995651618711
 30
0.0
 11
2354.136007923659
 21
-64.00995651618621
 31
0.0
 12
2352.714786453546
 22
-76.40888865201479
 32
0.0
 13
2354.136007923659
 23
-71.19774326159411
 33
0.0
  0
SOLID
  5
271C8
330
1F
100
AcDbEntity
  8
LOGO
 62
     5
100
AcDbTrace
 10
2352.714786453546
 20
-76.40888865201479
 30
0.0
 11
2354.136007923659
 21
-71.19774326159411
 31
0.0
 12
2359.477840345815
 22
-64.00995651618621
 32
0.0
 13
2358.0566188757
 23
-64.00995651618621
 33
0.0
  0
SOLID
  5
271C9
330
1F
100
AcDbEntity
  8
LOGO
 62
     5
100
AcDbTrace
 10
2352.714786453546
 20
-77.4870566638255
 30
0.0
 11
2354.136007923659
 21
-77.4870566638255
 31
0.0
 12
2359.477840345815
 22
-65.08812452799787
 32
0.0
 13
2358.0566188757
 23
-70.29926991841856
 33
0.0
  0
SOLID
  5
271CA
330
1F
100
AcDbEntity
  8
LOGO
 62
     5
100
AcDbTrace
 10
2359.477840345815
 20
-65.08812452799787
 30
0.0
 11
2358.0566188757
 21
-70.29926991841856
 31
0.0
 12
2359.477840345815
 22
-77.48705666382598
 32
0.0
 13
2358.0566188757
 23
-77.48705666382598
 33
0.0
  0
SOLID
  5
271CB
330
1F
100
AcDbEntity
  8
LOGO
 62
     5
100
AcDbTrace
 10
2360.065931988621
 20
-77.48705666382598
 30
0.0
 11
2361.487153458736
 21
-77.48705666382598
 31
0.0
 12
2360.065931988621
 22
-64.00995651618711
 32
0.0
 13
2361.487153458736
 23
-64.00995651618621
 33
0.0
  0
SOLID
  5
271CC
330
1F
100
AcDbEntity
  8
LOGO
 62
     5
100
AcDbTrace
 10
2341.075761262758
 20
-82.38782035387581
 30
0.0
 11
2341.565837631764
 21
-82.38782035387581
 31
0.0
 12
2342.945930831378
 22
-79.93743850885086
 32
0.0
 13
2343.436007200383
 23
-79.93743850885086
 33
0.0
  0
SOLID
  5
271CD
330
1F
100
AcDbEntity
  8
LOGO
 62
     5
100
AcDbTrace
 10
2342.945930831378
 20
-79.93743850885086
 30
0.0
 11
2343.436007200383
 21
-79.93743850885086
 31
0.0
 12
2342.945930831378
 22
-82.38782035387581
 32
0.0
 13
2343.436007200383
 23
-82.38782035387581
 33
0.0
  0
SOLID
  5
271CE
330
1F
100
AcDbEntity
  8
LOGO
 62
     5
100
AcDbTrace
 10
2342.945930831378
 20
-82.38782035387581
 30
0.0
 11
2343.436007200383
 21
-82.38782035387581
 31
0.0
 12
2344.816100399998
 22
-79.93743850885086
 32
0.0
 13
2345.306176769003
 23
-79.93743850885086
 33
0.0
  0
SOLID
  5
271CF
330
1F
100
AcDbEntity
  8
LOGO
 62
     5
100
AcDbTrace
 10
2344.816100399998
 20
-79.93743850885086
 30
0.0
 11
2345.306176769003
 21
-79.93743850885086
 31
0.0
 12
2344.816100399998
 22
-82.38782035387581
 32
0.0
 13
2345.306176769003
 23
-82.38782035387581
 33
0.0
  0
SOLID
  5
271D0
330
1F
100
AcDbEntity
  8
LOGO
 62
     5
100
AcDbTrace
 10
2345.886307366013
 20
-79.59438505054759
 30
0.0
 11
2346.376383735019
 21
-79.59438505054759
 31
0.0
 12
2345.886307366013
 22
-79.20232395534307
 32
0.0
 13
2346.376383735019
 23
-79.20232395534307
 33
0.0
  0
SOLID
  5
271D1
330
1F
100
AcDbEntity
  8
LOGO
 62
     5
100
AcDbTrace
 10
2345.886307366013
 20
-79.93743850885086
 30
0.0
 11
2346.376383735019
 21
-79.93743850885086
 31
0.0
 12
2345.886307366013
 22
-82.3878203538767
 32
0.0
 13
2346.376383735019
 23
-82.38782035387581
 33
0.0
  0
POLYLINE
  5
271D2
330
1F
100
AcDbEntity
  8
LOGO
 62
     5
100
AcDb2dPolyline
 66
     1
 10
0.0
 20
0.0
 30
0.0
 40
0.4908617478015383
 41
0.4908617478015383
  0
VERTEX
  5
28D47
330
271D2
100
AcDbEntity
  8
LOGO
 62
     5
100
AcDbVertex
100
AcDb2dVertex
 10
2348.66460119445
 20
-80.91759124686102
 30
0.0
 42
1.0
  0
VERTEX
  5
28D48
330
271D2
100
AcDbEntity
  8
LOGO
 62
     5
100
AcDbVertex
100
AcDb2dVertex
 10
2347.192015951045
 20
-80.91759124686102
 30
0.0
 42
1.0
  0
SEQEND
  5
28D49
330
271D2
100
AcDbEntity
  8
LOGO
 62
     5
  0
SOLID
  5
271D3
330
1F
100
AcDbEntity
  8
LOGO
 62
     5
100
AcDbTrace
 10
2346.948155834737
 20
-79.93743850885086
 30
0.0
 11
2347.438232203741
 21
-79.93743850885086
 31
0.0
 12
2346.948155834737
 22
-82.38782035387581
 32
0.0
 13
2347.438232203741
 23
-82.38782035387581
 33
0.0
  0
SOLID
  5
271D4
330
1F
100
AcDbEntity
  8
LOGO
 62
     5
100
AcDbTrace
 10
2348.418384941752
 20
-80.91759124686101
 30
0.0
 11
2348.908461310757
 21
-80.91759124686101
 31
0.0
 12
2348.418384941752
 22
-82.38782035387581
 32
0.0
 13
2348.908461310757
 23
-82.38782035387581
 33
0.0
  0
POLYLINE
  5
271D5
330
1F
100
AcDbEntity
  8
LOGO
 62
     5
100
AcDb2dPolyline
 66
     1
 10
0.0
 20
0.0
 30
0.0
 70
     1
 40
0.4908617478015383
 41
0.4908617478015383
  0
VERTEX
  5
28D4A
330
271D5
100
AcDbEntity
  8
LOGO
 62
     5
100
AcDbVertex
100
AcDb2dVertex
 10
2349.723749845022
 20
-81.1626294313636
 30
0.0
 42
1.0
  0
VERTEX
  5
28D4B
330
271D5
100
AcDbEntity
  8
LOGO
 62
     5
100
AcDbVertex
100
AcDb2dVertex
 10
2351.687196836228
 20
-81.1626294313636
 30
0.0
 42
1.0
  0
SEQEND
  5
28D4C
330
271D5
100
AcDbEntity
  8
LOGO
 62
     5
  0
SOLID
  5
271D6
330
1F
100
AcDbEntity
  8
LOGO
 62
     5
100
AcDbTrace
 10
2351.440538886496
 20
-79.20232395534307
 30
0.0
 11
2351.9306152555
 21
-79.20232395534307
 31
0.0
 12
2351.440538886496
 22
-82.38782035387581
 32
0.0
 13
2351.9306152555
 23
-82.38782035387581
 33
0.0
  0
SOLID
  5
271D7
330
1F
100
AcDbEntity
  8
LOGO
 62
     5
100
AcDbTrace
 10
2352.502387355219
 20
-79.93743850885086
 30
0.0
 11
2352.992463724224
 21
-79.93743850885086
 31
0.0
 12
2352.502387355219
 22
-82.38782035387581
 32
0.0
 13
2352.992463724224
 23
-82.38782035387581
 33
0.0
  0
POLYLINE
  5
271D8
330
1F
100
AcDbEntity
  8
LOGO
 62
     5
100
AcDb2dPolyline
 66
     1
 10
0.0
 20
0.0
 30
0.0
 40
0.4908617478015383
 41
0.4908617478015383
  0
VERTEX
  5
28D4D
330
271D8
100
AcDbEntity
  8
LOGO
 62
     5
100
AcDbVertex
100
AcDb2dVertex
 10
2354.218832714932
 20
-80.91759124686102
 30
0.0
 42
1.0
  0
VERTEX
  5
28D4E
330
271D8
100
AcDbEntity
  8
LOGO
 62
     5
100
AcDbVertex
100
AcDb2dVertex
 10
2352.746247471527
 20
-80.91759124686102
 30
0.0
 42
1.0
  0
SEQEND
  5
28D4F
330
271D8
100
AcDbEntity
  8
LOGO
 62
     5
  0
POLYLINE
  5
271D9
330
1F
100
AcDbEntity
  8
LOGO
 62
     5
100
AcDb2dPolyline
 66
     1
 10
0.0
 20
0.0
 30
0.0
 40
0.4908617478015383
 41
0.4908617478015383
  0
VERTEX
  5
28D50
330
271D9
100
AcDbEntity
  8
LOGO
 62
     5
100
AcDbVertex
100
AcDb2dVertex
 10
2355.689061821946
 20
-80.91759124686102
 30
0.0
 42
1.0
  0
VERTEX
  5
28D51
330
271D9
100
AcDbEntity
  8
LOGO
 62
     5
100
AcDbVertex
100
AcDb2dVertex
 10
2354.216476578542
 20
-80.91759124686102
 30
0.0
 42
1.0
  0
SEQEND
  5
28D52
330
271D9
100
AcDbEntity
  8
LOGO
 62
     5
  0
SOLID
  5
271DA
330
1F
100
AcDbEntity
  8
LOGO
 62
     5
100
AcDbTrace
 10
2353.972616462234
 20
-80.91759124686101
 30
0.0
 11
2354.462692831239
 21
-80.91759124686101
 31
0.0
 12
2353.972616462234
 22
-82.38782035387581
 32
0.0
 13
2354.462692831239
 23
-82.38782035387581
 33
0.0
  0
SOLID
  5
271DB
330
1F
100
AcDbEntity
  8
LOGO
 62
     5
100
AcDbTrace
 10
2355.442845569249
 20
-80.91759124686101
 30
0.0
 11
2355.932921938254
 21
-80.91759124686101
 31
0.0
 12
2355.442845569249
 22
-82.3878203538767
 32
0.0
 13
2355.932921938254
 23
-82.3878203538767
 33
0.0
  0
POLYLINE
  5
271DC
330
1F
100
AcDbEntity
  8
LOGO
 62
     5
100
AcDb2dPolyline
 66
     1
 10
0.0
 20
0.0
 30
0.0
 70
     1
 40
0.4908617478015383
 41
0.4908617478015383
  0
VERTEX
  5
28D53
330
271DC
100
AcDbEntity
  8
LOGO
 62
     5
100
AcDbVertex
100
AcDb2dVertex
 10
2356.748210472519
 20
-81.1626294313636
 30
0.0
 42
1.0
  0
VERTEX
  5
28D54
330
271DC
100
AcDbEntity
  8
LOGO
 62
     5
100
AcDbVertex
100
AcDb2dVertex
 10
2358.711657463725
 20
-81.1626294313636
 30
0.0
 42
1.0
  0
SEQEND
  5
28D55
330
271DC
100
AcDbEntity
  8
LOGO
 62
     5
  0
LINE
  5
271DD
330
1F
100
AcDbEntity
  8
LOGO
 62
     5
100
AcDbLine
 10
2361.487153458736
 20
-82.38782035387581
 30
0.0
 11
2361.487153458736
 21
-80.91759124686101
 31
0.0
  0
POLYLINE
  5
271DE
330
1F
100
AcDbEntity
  8
LOGO
 62
     5
100
AcDb2dPolyline
 66
     1
 10
0.0
 20
0.0
 30
0.0
 40
0.4908617478015383
 41
0.4908617478015383
  0
VERTEX
  5
28D56
330
271DE
100
AcDbEntity
  8
LOGO
 62
     5
100
AcDbVertex
100
AcDb2dVertex
 10
2361.243293342429
 20
-80.91759124686102
 30
0.0
 42
1.0
  0
VERTEX
  5
28D57
330
271DE
100
AcDbEntity
  8
LOGO
 62
     5
100
AcDbVertex
100
AcDb2dVertex
 10
2359.770708099024
 20
-80.91759124686102
 30
0.0
 42
1.0
  0
SEQEND
  5
28D58
330
271DE
100
AcDbEntity
  8
LOGO
 62
     5
  0
SOLID
  5
271DF
330
1F
100
AcDbEntity
  8
LOGO
 62
     5
100
AcDbTrace
 10
2358.464999513993
 20
-79.93743850885086
 30
0.0
 11
2358.955075882998
 21
-79.93743850885086
 31
0.0
 12
2358.464999513993
 22
-82.38782035387581
 32
0.0
 13
2358.955075882998
 23
-82.38782035387581
 33
0.0
  0
SOLID
  5
271E0
330
1F
100
AcDbEntity
  8
LOGO
 62
     5
100
AcDbTrace
 10
2359.526847982715
 20
-82.38782035387581
 30
0.0
 11
2360.016924351721
 21
-82.38782035387581
 31
0.0
 12
2359.526847982715
 22
-79.93743850885086
 32
0.0
 13
2360.016924351721
 23
-79.93743850885086
 33
0.0
  0
SOLID
  5
271E1
330
1F
100
AcDbEntity
  8
LOGO
 62
     5
100
AcDbTrace
 10
2360.997077089731
 20
-80.91759124686101
 30
0.0
 11
2361.487153458736
 21
-80.9175912468611
 31
0.0
 12
2360.997077089731
 22
-82.38782035387581
 32
0.0
 13
2361.487153458736
 23
-82.38782035387581
 33
0.0
  0
SOLID
  5
271E2
330
1F
100
AcDbEntity
  8
LOGO
 62
     2
100
AcDbTrace
 10
2344.775549275663
 20
-77.48705666382598
 30
0.0
 11
2345.36364091847
 21
-77.4870566638255
 31
0.0
 12
2352.126694810739
 22
-64.00995651618711
 32
0.0
 13
2352.714786453546
 23
-64.00995651618711
 33
0.0
  0
SOLID
  5
271E3
330
1F
100
AcDbEntity
  8
LOGO
 62
     2
100
AcDbTrace
 10
2352.126694810739
 20
-64.00995651618711
 30
0.0
 11
2352.714786453546
 21
-64.00995651618711
 31
0.0
 12
2352.126694810739
 22
-77.4870566638255
 32
0.0
 13
2352.714786453546
 23
-77.4870566638255
 33
0.0
  0
SOLID
  5
271E4
330
1F
100
AcDbEntity
  8
LOGO
 62
     2
100
AcDbTrace
 10
2352.126694810739
 20
-77.4870566638255
 30
0.0
 11
2352.714786453546
 21
-77.4870566638255
 31
0.0
 12
2359.477840345815
 22
-64.00995651618621
 32
0.0
 13
2360.065931988621
 23
-64.00995651618711
 33
0.0
  0
SOLID
  5
271E5
330
1F
100
AcDbEntity
  8
LOGO
 62
     2
100
AcDbTrace
 10
2359.477840345815
 20
-64.00995651618621
 30
0.0
 11
2360.065931988621
 21
-64.00995651618711
 31
0.0
 12
2359.477840345815
 22
-77.48705666382598
 32
0.0
 13
2360.065931988621
 23
-77.48705666382598
 33
0.0
  0
TEXT
  5
271E6
330
1F
100
AcDbEntity
  8
LOGO
  6
CONTINUOUS
 62
     5
100
AcDbText
 10
2341.019888498013
 20
-89.64204069810099
 30
0.0
 40
4.930530948899381
  1
金器工業股份有限公司
 41
0.8
  7
LOGO
100
AcDbText
  0
TEXT
  5
271E7
330
1F
100
AcDbEntity
  8
LOGO
  6
CONTINUOUS
 62
     5
100
AcDbText
 10
2342.431695180505
 20
-94.57353764449782
 30
0.0
 40
3.287020632599587
  1
MINDMAN INDUSTRIAL CO.,LTD
 41
0.85
  7
CHINESET
100
AcDbText
  0
LINE
  5
271E8
330
1F
100
AcDbEntity
  8
LOGO
 62
     6
100
AcDbLine
 10
2531.17909477387
 20
-66.51615743197995
 30
0.0
 11
2531.17909477387
 21
-76.37721932977881
 31
0.0
  0
LINE
  5
271E9
330
1F
100
AcDbEntity
  8
LOGO
 62
     6
100
AcDbLine
 10
2526.766047986519
 20
-78.84248480422852
 30
0.0
 11
2521.287680518165
 21
-78.84248480422852
 31
0.0
  0
LINE
  5
271EA
330
1F
100
AcDbEntity
  8
LOGO
 62
     6
100
AcDbLine
 10
2521.287680518165
 20
-81.30775027867821
 30
0.0
 11
2521.287680518165
 21
-78.84248480422852
 31
0.0
  0
LINE
  5
271EB
330
1F
100
AcDbEntity
  8
LOGO
 62
     6
100
AcDbLine
 10
2503.607397660398
 20
-78.84248480422859
 30
0.0
 11
2497.033356395199
 21
-78.84248480422859
 31
0.0
  0
LINE
  5
271EC
330
1F
100
AcDbEntity
  8
LOGO
 62
     6
100
AcDbLine
 10
2497.033356395199
 20
-81.30775027867821
 30
0.0
 11
2497.033356395199
 21
-78.84248480422859
 31
0.0
  0
LINE
  5
271ED
330
1F
100
AcDbEntity
  8
LOGO
 62
     6
100
AcDbLine
 10
2537.018168174176
 20
-78.84248480422844
 30
0.0
 11
2544.140046211475
 21
-78.84248480422844
 31
0.0
  0
LINE
  5
271EE
330
1F
100
AcDbEntity
  8
LOGO
 62
     6
100
AcDbLine
 10
2544.140046211475
 20
-81.30775027867814
 30
0.0
 11
2544.140046211475
 21
-78.84248480422844
 31
0.0
  0
LINE
  5
271EF
330
1F
100
AcDbEntity
  8
LOGO
 62
     6
100
AcDbLine
 10
2561.109429640294
 20
-81.30775027867814
 30
0.0
 11
2561.109429640294
 21
-93.40560483844221
 31
0.0
  0
LINE
  5
271F0
330
1F
100
AcDbEntity
  8
LOGO
 62
     6
100
AcDbLine
 10
2565.780569537336
 20
-78.84248480422844
 30
0.0
 11
2568.368266870618
 21
-78.84248480422844
 31
0.0
  0
LINE
  5
271F1
330
1F
100
AcDbEntity
  8
LOGO
 62
     6
100
AcDbLine
 10
2565.780569537336
 20
-76.37721932977874
 30
0.0
 11
2565.780569537336
 21
-78.84248480422844
 31
0.0
  0
LINE
  5
271F2
330
1F
100
AcDbEntity
  8
LOGO
 62
     6
100
AcDbLine
 10
2587.594739935384
 20
-66.51615743197988
 30
0.0
 11
2587.594739935384
 21
-76.37721932977868
 31
0.0
  0
LINE
  5
271F3
330
1F
100
AcDbEntity
  8
LOGO
 62
     6
100
AcDbLine
 10
2594.229485916395
 20
-76.37721932977868
 30
0.0
 11
2587.594739935384
 21
-76.37721932977868
 31
0.0
  0
LINE
  5
271F4
330
1F
100
AcDbEntity
  8
LOGO
 62
     6
100
AcDbLine
 10
2590.91211292589
 20
-76.37721932977868
 30
0.0
 11
2590.91211292589
 21
-81.30775027867807
 31
0.0
  0
LINE
  5
271F5
330
1F
100
AcDbEntity
  8
LOGO
 62
     6
100
AcDbLine
 10
2594.229485916395
 20
-66.5161574319798
 30
0.0
 11
2587.594739935384
 21
-66.51615743197988
 31
0.0
  0
TEXT
  5
271F6
330
1F
100
AcDbEntity
  8
LOGO
  6
CONTINUOUS
 62
     7
100
AcDbText
 10
2589.346865005604
 20
-74.18587224137893
 30
0.0
 40
5.478367720999312
  1
L
  7
CHINESET
 72
     1
 11
2590.91211292589
 21
-71.44668838087928
 31
0.0
100
AcDbText
 73
     2
  0
LINE
  5
271F7
330
1F
100
AcDbEntity
  8
LOGO
 62
     6
100
AcDbLine
 10
2594.229485916395
 20
-66.5161574319798
 30
0.0
 11
2594.229485916395
 21
-76.37721932977868
 31
0.0
  0
TEXT
  5
271F8
330
1F
100
AcDbEntity
  8
LOGO
 62
     6
100
AcDbText
 10
2585.584400064573
 20
-87.28830170743565
 30
0.0
 40
4.382694176799449
  1
附燈型
 41
0.9
  7
CHINESET
 72
     4
 11
2591.459949445344
 21
-85.14260768337759
 31
0.0
100
AcDbText
  0
LINE
  5
271F9
330
1F
100
AcDbEntity
  8
LOGO
 62
     6
100
AcDbLine
 10
2602.994874017349
 20
-81.30775027867807
 30
0.0
 11
2579.92502487334
 21
-81.30775027867807
 31
0.0
  0
LINE
  5
271FA
330
1F
100
AcDbEntity
  8
LOGO
 62
     6
100
AcDbLine
 10
2602.994874017349
 20
-93.36015926487657
 30
0.0
 11
2579.92502487334
 21
-93.36015926487657
 31
0.0
  0
TEXT
  5
271FB
330
1F
100
AcDbEntity
  8
LOGO
  6
CONTINUOUS
 62
     6
100
AcDbText
 10
2580.607563864698
 20
-91.99056733462676
 30
0.0
 40
2.739183860499656
  1
LED indicator
 41
0.8
  7
CHINESET
 72
     4
 11
2591.459949445344
 21
-90.62097540437694
 31
0.0
100
AcDbText
  0
LINE
  5
271FC
330
1F
100
AcDbEntity
  8
LOGO
 62
     6
100
AcDbLine
 10
2602.994874017349
 20
-81.30775027867807
 30
0.0
 11
2602.994874017349
 21
-93.3601592648765
 31
0.0
  0
LINE
  5
271FD
330
1F
100
AcDbEntity
  8
LOGO
  6
CONTINUOUS
 62
     7
100
AcDbLine
 10
2581.535136459305
 20
-71.48161782053747
 30
0.0
 11
2585.889421579213
 21
-71.48161782053747
 31
0.0
  0
LINE
  5
271FE
330
1F
100
AcDbEntity
  8
LOGO
 62
     6
100
AcDbLine
 10
2579.92502487334
 20
-81.30775027867814
 30
0.0
 11
2579.92502487334
 21
-93.36015926487657
 31
0.0
  0
LINE
  5
27366
330
1F
100
AcDbEntity
  8
LOGO
 62
     6
100
AcDbLine
 10
2339.943991146557
 20
149.2902707207101
 30
0.0
 11
2607.288335931326
 21
149.29027072071
 31
0.0
  0
LINE
  5
274ED
330
1F
100
AcDbEntity
  8
AM_7
100
AcDbLine
 10
2444.726027470512
 20
-31.20396426274286
 30
0.0
 11
2444.726027470512
 21
-13.32320375581397
 31
0.0
  0
LINE
  5
274EE
330
1F
100
AcDbEntity
  8
AM_HID
  6
HIDDEN
100
AcDbLine
 10
2453.525992273153
 20
-26.97314915990896
 30
0.0
 11
2452.545801891517
 21
-14.92319735629399
 31
0.0
  0
LINE
  5
274EF
330
1F
100
AcDbEntity
  8
AM_HID
  6
HIDDEN
100
AcDbLine
 10
2455.475984473737
 20
-28.9231413604939
 30
0.0
 11
2454.495794092101
 21
-16.87318955687894
 31
0.0
  0
LINE
  5
274F0
330
1F
100
AcDbEntity
  8
AM_HID
  6
HIDDEN
100
AcDbLine
 10
2433.976070467287
 20
-28.9231413604939
 30
0.0
 11
2434.956260848923
 21
-16.87318955687894
 31
0.0
  0
LINE
  5
274F1
330
1F
100
AcDbEntity
  8
AM_HID
  6
HIDDEN
100
AcDbLine
 10
2435.926062667872
 20
-26.97314915990896
 30
0.0
 11
2436.906253049508
 21
-14.92319735629399
 31
0.0
  0
LINE
  5
274F2
330
1F
100
AcDbEntity
  8
AM_HID
  6
HIDDEN
100
AcDbLine
 10
2455.333547026087
 20
-26.97314915990896
 30
0.0
 11
2435.926062667872
 21
-26.97314915990896
 31
0.0
  0
LINE
  5
274F3
330
1F
100
AcDbEntity
  8
AM_HID
  6
HIDDEN
100
AcDbLine
 10
2435.926062667872
 20
-26.97314915990887
 30
0.0
 11
2433.976070467287
 21
-28.9231413604939
 31
0.0
  0
LINE
  5
274F4
330
1F
100
AcDbEntity
  8
AM_HID
  6
HIDDEN
100
AcDbLine
 10
2453.525992273152
 20
-26.97314915990887
 30
0.0
 11
2455.475984473737
 21
-28.9231413604939
 31
0.0
  0
LINE
  5
274F5
330
1F
100
AcDbEntity
  8
AM_HID
  6
HIDDEN
100
AcDbLine
 10
2454.495794092101
 20
-16.87318955687894
 30
0.0
 11
2434.956260848923
 21
-16.87318955687894
 31
0.0
  0
LINE
  5
274F6
330
1F
100
AcDbEntity
  8
AM_HID
  6
HIDDEN
100
AcDbLine
 10
2452.545801891517
 20
-14.92319735629394
 30
0.0
 11
2436.906253049508
 21
-14.92319735629394
 31
0.0
  0
LINE
  5
274F7
330
1F
100
AcDbEntity
  8
AM_HID
  6
HIDDEN
100
AcDbLine
 10
2434.956260848923
 20
-16.87318955687894
 30
0.0
 11
2436.906253049508
 21
-14.92319735629399
 31
0.0
  0
LINE
  5
274F8
330
1F
100
AcDbEntity
  8
AM_HID
  6
HIDDEN
100
AcDbLine
 10
2454.495794092101
 20
-16.87318955687894
 30
0.0
 11
2452.545801891517
 21
-14.92319735629399
 31
0.0
  0
LINE
  5
274F9
330
1F
100
AcDbEntity
  8
AM_7
100
AcDbLine
 10
2460.226027470512
 20
23.35768154175505
 30
0.0
 11
2460.226027470512
 21
5.476921034826176
 31
0.0
  0
LINE
  5
274FA
330
1F
100
AcDbEntity
  8
AM_HID
  6
HIDDEN
100
AcDbLine
 10
2469.025992273153
 20
19.12686643892115
 30
0.0
 11
2468.045801891516
 21
7.076914635306193
 31
0.0
  0
LINE
  5
274FB
330
1F
100
AcDbEntity
  8
AM_HID
  6
HIDDEN
100
AcDbLine
 10
2470.975984473737
 20
21.0768586395061
 30
0.0
 11
2469.995794092101
 21
9.026906835891137
 31
0.0
  0
LINE
  5
274FC
330
1F
100
AcDbEntity
  8
AM_HID
  6
HIDDEN
100
AcDbLine
 10
2449.476070467287
 20
21.0768586395061
 30
0.0
 11
2450.456260848923
 21
9.026906835891141
 31
0.0
  0
LINE
  5
274FD
330
1F
100
AcDbEntity
  8
AM_HID
  6
HIDDEN
100
AcDbLine
 10
2451.426062667872
 20
19.12686643892115
 30
0.0
 11
2452.406253049508
 21
7.076914635306197
 31
0.0
  0
LINE
  5
274FE
330
1F
100
AcDbEntity
  8
AM_HID
  6
HIDDEN
100
AcDbLine
 10
2470.833547026086
 20
19.12686643892115
 30
0.0
 11
2451.426062667872
 21
19.12686643892115
 31
0.0
  0
LINE
  5
274FF
330
1F
100
AcDbEntity
  8
AM_HID
  6
HIDDEN
100
AcDbLine
 10
2451.426062667872
 20
19.12686643892106
 30
0.0
 11
2449.476070467287
 21
21.0768586395061
 31
0.0
  0
LINE
  5
27500
330
1F
100
AcDbEntity
  8
AM_HID
  6
HIDDEN
100
AcDbLine
 10
2469.025992273152
 20
19.12686643892106
 30
0.0
 11
2470.975984473737
 21
21.0768586395061
 31
0.0
  0
LINE
  5
27501
330
1F
100
AcDbEntity
  8
AM_HID
  6
HIDDEN
100
AcDbLine
 10
2469.995794092101
 20
9.026906835891137
 30
0.0
 11
2450.456260848923
 21
9.026906835891141
 31
0.0
  0
LINE
  5
27502
330
1F
100
AcDbEntity
  8
AM_HID
  6
HIDDEN
100
AcDbLine
 10
2468.045801891516
 20
7.076914635306136
 30
0.0
 11
2452.406253049508
 21
7.07691463530614
 31
0.0
  0
LINE
  5
27503
330
1F
100
AcDbEntity
  8
AM_HID
  6
HIDDEN
100
AcDbLine
 10
2450.456260848923
 20
9.026906835891141
 30
0.0
 11
2452.406253049508
 21
7.076914635306197
 31
0.0
  0
LINE
  5
27504
330
1F
100
AcDbEntity
  8
AM_HID
  6
HIDDEN
100
AcDbLine
 10
2469.995794092101
 20
9.026906835891137
 30
0.0
 11
2468.045801891516
 21
7.076914635306193
 31
0.0
  0
LINE
  5
27505
330
1F
100
AcDbEntity
  8
AM_7
100
AcDbLine
 10
2487.226027470512
 20
23.35768154175505
 30
0.0
 11
2487.226027470512
 21
5.476921034826176
 31
0.0
  0
LINE
  5
27506
330
1F
100
AcDbEntity
  8
AM_HID
  6
HIDDEN
100
AcDbLine
 10
2496.025992273153
 20
19.12686643892115
 30
0.0
 11
2495.045801891516
 21
7.076914635306193
 31
0.0
  0
LINE
  5
27507
330
1F
100
AcDbEntity
  8
AM_HID
  6
HIDDEN
100
AcDbLine
 10
2497.975984473737
 20
21.0768586395061
 30
0.0
 11
2496.995794092101
 21
9.026906835891137
 31
0.0
  0
LINE
  5
27508
330
1F
100
AcDbEntity
  8
AM_HID
  6
HIDDEN
100
AcDbLine
 10
2476.476070467287
 20
21.0768586395061
 30
0.0
 11
2477.456260848923
 21
9.026906835891141
 31
0.0
  0
LINE
  5
27509
330
1F
100
AcDbEntity
  8
AM_HID
  6
HIDDEN
100
AcDbLine
 10
2478.426062667872
 20
19.12686643892115
 30
0.0
 11
2479.406253049508
 21
7.076914635306197
 31
0.0
  0
LINE
  5
2750A
330
1F
100
AcDbEntity
  8
AM_HID
  6
HIDDEN
100
AcDbLine
 10
2497.833547026087
 20
19.12686643892115
 30
0.0
 11
2478.426062667872
 21
19.12686643892115
 31
0.0
  0
LINE
  5
2750B
330
1F
100
AcDbEntity
  8
AM_HID
  6
HIDDEN
100
AcDbLine
 10
2478.426062667872
 20
19.12686643892106
 30
0.0
 11
2476.476070467287
 21
21.0768586395061
 31
0.0
  0
LINE
  5
2750C
330
1F
100
AcDbEntity
  8
AM_HID
  6
HIDDEN
100
AcDbLine
 10
2496.025992273152
 20
19.12686643892106
 30
0.0
 11
2497.975984473737
 21
21.0768586395061
 31
0.0
  0
LINE
  5
2750D
330
1F
100
AcDbEntity
  8
AM_HID
  6
HIDDEN
100
AcDbLine
 10
2496.995794092101
 20
9.026906835891137
 30
0.0
 11
2477.456260848923
 21
9.026906835891141
 31
0.0
  0
LINE
  5
2750E
330
1F
100
AcDbEntity
  8
AM_HID
  6
HIDDEN
100
AcDbLine
 10
2495.045801891516
 20
7.076914635306136
 30
0.0
 11
2479.406253049508
 21
7.07691463530614
 31
0.0
  0
LINE
  5
2750F
330
1F
100
AcDbEntity
  8
AM_HID
  6
HIDDEN
100
AcDbLine
 10
2477.456260848923
 20
9.026906835891141
 30
0.0
 11
2479.406253049508
 21
7.076914635306197
 31
0.0
  0
LINE
  5
27510
330
1F
100
AcDbEntity
  8
AM_HID
  6
HIDDEN
100
AcDbLine
 10
2496.995794092101
 20
9.026906835891137
 30
0.0
 11
2495.045801891516
 21
7.076914635306193
 31
0.0
  0
LINE
  5
27511
330
1F
100
AcDbEntity
  8
AM_7
100
AcDbLine
 10
2473.726027470512
 20
-31.20396426274286
 30
0.0
 11
2473.726027470512
 21
-13.32320375581397
 31
0.0
  0
LINE
  5
27512
330
1F
100
AcDbEntity
  8
AM_HID
  6
HIDDEN
100
AcDbLine
 10
2482.525992273153
 20
-26.97314915990896
 30
0.0
 11
2481.545801891517
 21
-14.92319735629399
 31
0.0
  0
LINE
  5
27513
330
1F
100
AcDbEntity
  8
AM_HID
  6
HIDDEN
100
AcDbLine
 10
2484.475984473737
 20
-28.9231413604939
 30
0.0
 11
2483.495794092101
 21
-16.87318955687894
 31
0.0
  0
LINE
  5
27514
330
1F
100
AcDbEntity
  8
AM_HID
  6
HIDDEN
100
AcDbLine
 10
2462.976070467287
 20
-28.9231413604939
 30
0.0
 11
2463.956260848923
 21
-16.87318955687894
 31
0.0
  0
LINE
  5
27515
330
1F
100
AcDbEntity
  8
AM_HID
  6
HIDDEN
100
AcDbLine
 10
2464.926062667872
 20
-26.97314915990896
 30
0.0
 11
2465.906253049508
 21
-14.92319735629399
 31
0.0
  0
LINE
  5
27516
330
1F
100
AcDbEntity
  8
AM_HID
  6
HIDDEN
100
AcDbLine
 10
2484.333547026086
 20
-26.97314915990896
 30
0.0
 11
2464.926062667872
 21
-26.97314915990896
 31
0.0
  0
LINE
  5
27517
330
1F
100
AcDbEntity
  8
AM_HID
  6
HIDDEN
100
AcDbLine
 10
2464.926062667872
 20
-26.97314915990887
 30
0.0
 11
2462.976070467287
 21
-28.9231413604939
 31
0.0
  0
LINE
  5
27518
330
1F
100
AcDbEntity
  8
AM_HID
  6
HIDDEN
100
AcDbLine
 10
2482.525992273152
 20
-26.97314915990887
 30
0.0
 11
2484.475984473737
 21
-28.9231413604939
 31
0.0
  0
LINE
  5
27519
330
1F
100
AcDbEntity
  8
AM_HID
  6
HIDDEN
100
AcDbLine
 10
2483.495794092101
 20
-16.87318955687894
 30
0.0
 11
2463.956260848923
 21
-16.87318955687894
 31
0.0
  0
LINE
  5
2751A
330
1F
100
AcDbEntity
  8
AM_HID
  6
HIDDEN
100
AcDbLine
 10
2481.545801891517
 20
-14.92319735629394
 30
0.0
 11
2465.906253049508
 21
-14.92319735629394
 31
0.0
  0
LINE
  5
2751B
330
1F
100
AcDbEntity
  8
AM_HID
  6
HIDDEN
100
AcDbLine
 10
2463.956260848923
 20
-16.87318955687894
 30
0.0
 11
2465.906253049508
 21
-14.92319735629399
 31
0.0
  0
LINE
  5
2751C
330
1F
100
AcDbEntity
  8
AM_HID
  6
HIDDEN
100
AcDbLine
 10
2483.495794092101
 20
-16.87318955687894
 30
0.0
 11
2481.545801891517
 21
-14.92319735629399
 31
0.0
  0
LINE
  5
2751D
330
1F
100
AcDbEntity
  8
AM_7
100
AcDbLine
 10
2502.726027470512
 20
-31.20396426274286
 30
0.0
 11
2502.726027470512
 21
-13.32320375581397
 31
0.0
  0
LINE
  5
2751E
330
1F
100
AcDbEntity
  8
AM_HID
  6
HIDDEN
100
AcDbLine
 10
2511.525992273153
 20
-26.97314915990896
 30
0.0
 11
2510.545801891517
 21
-14.92319735629399
 31
0.0
  0
LINE
  5
2751F
330
1F
100
AcDbEntity
  8
AM_HID
  6
HIDDEN
100
AcDbLine
 10
2513.475984473737
 20
-28.9231413604939
 30
0.0
 11
2512.495794092101
 21
-16.87318955687894
 31
0.0
  0
LINE
  5
27520
330
1F
100
AcDbEntity
  8
AM_HID
  6
HIDDEN
100
AcDbLine
 10
2491.976070467287
 20
-28.9231413604939
 30
0.0
 11
2492.956260848923
 21
-16.87318955687894
 31
0.0
  0
LINE
  5
27521
330
1F
100
AcDbEntity
  8
AM_HID
  6
HIDDEN
100
AcDbLine
 10
2493.926062667872
 20
-26.97314915990896
 30
0.0
 11
2494.906253049508
 21
-14.92319735629399
 31
0.0
  0
LINE
  5
27522
330
1F
100
AcDbEntity
  8
AM_HID
  6
HIDDEN
100
AcDbLine
 10
2513.333547026086
 20
-26.97314915990896
 30
0.0
 11
2493.926062667872
 21
-26.97314915990896
 31
0.0
  0
LINE
  5
27523
330
1F
100
AcDbEntity
  8
AM_HID
  6
HIDDEN
100
AcDbLine
 10
2493.926062667872
 20
-26.97314915990887
 30
0.0
 11
2491.976070467287
 21
-28.9231413604939
 31
0.0
  0
LINE
  5
27524
330
1F
100
AcDbEntity
  8
AM_HID
  6
HIDDEN
100
AcDbLine
 10
2511.525992273152
 20
-26.97314915990887
 30
0.0
 11
2513.475984473737
 21
-28.9231413604939
 31
0.0
  0
LINE
  5
27525
330
1F
100
AcDbEntity
  8
AM_HID
  6
HIDDEN
100
AcDbLine
 10
2512.495794092101
 20
-16.87318955687894
 30
0.0
 11
2492.956260848923
 21
-16.87318955687894
 31
0.0
  0
LINE
  5
27526
330
1F
100
AcDbEntity
  8
AM_HID
  6
HIDDEN
100
AcDbLine
 10
2510.545801891517
 20
-14.92319735629394
 30
0.0
 11
2494.906253049508
 21
-14.92319735629394
 31
0.0
  0
LINE
  5
27527
330
1F
100
AcDbEntity
  8
AM_HID
  6
HIDDEN
100
AcDbLine
 10
2492.956260848923
 20
-16.87318955687894
 30
0.0
 11
2494.906253049508
 21
-14.92319735629399
 31
0.0
  0
LINE
  5
27528
330
1F
100
AcDbEntity
  8
AM_HID
  6
HIDDEN
100
AcDbLine
 10
2512.495794092101
 20
-16.87318955687894
 30
0.0
 11
2510.545801891517
 21
-14.92319735629399
 31
0.0
  0
ENDSEC
  0
SECTION
  2
OBJECTS
  0
DICTIONARY
  5
C
330
0
100
AcDbDictionary
  3
ACAD_GROUP
350
D
  3
ACAD_LAYOUT
350
1A
  3
ACAD_MLINESTYLE
350
17
  3
ACAD_PLOTSETTINGS
350
19
  3
ACMDICTIONARY
350
43
  3
AMG
350
2B
  3
AMGSNAPSETTINGS
350
240
  3
DWGPROPS
350
28C9D
1001
ACAD
1000
TREAT_AS_HARD
1070
     0
  0
DICTIONARY
  5
3A4
330
1F
100
AcDbDictionary
  3
ACAD_INDEX
350
21C6B
  3
ACAD_LAYOUTSELFREF
350
28D29
1001
ACAD
1000
TREAT_AS_HARD
1070
     1
  0
DICTIONARY
  5
28C12
330
1B
100
AcDbDictionary
  3
ACAD_LAYOUTSELFREF
350
28D28
1001
ACAD
1000
TREAT_AS_HARD
1070
     1
  0
DICTIONARY
  5
D
102
{ACAD_REACTORS
330
C
102
}
330
C
100
AcDbDictionary
1001
ACAD
1000
TREAT_AS_HARD
1070
     0
  0
DICTIONARY
  5
1A
102
{ACAD_REACTORS
330
C
102
}
330
C
100
AcDbDictionary
1001
ACAD
1000
TREAT_AS_HARD
1070
     0
  0
DICTIONARY
  5
17
102
{ACAD_REACTORS
330
C
102
}
330
C
100
AcDbDictionary
  3
STANDARD
350
18
1001
ACAD
1000
TREAT_AS_HARD
1070
     0
  0
DICTIONARY
  5
19
102
{ACAD_REACTORS
330
C
102
}
330
C
100
AcDbDictionary
1001
ACAD
1000
TREAT_AS_HARD
1070
     0
  0
DICTIONARY
  5
43
102
{ACAD_REACTORS
330
C
102
}
330
C
100
AcDbDictionary
  3
ACMSTDDICTIONARY
350
1440
1001
ACAD
1000
TREAT_AS_HARD
1070
     0
  0
DICTIONARY
  5
2B
102
{ACAD_REACTORS
330
C
102
}
330
C
100
AcDbDictionary
  3
ACMGSETTINGS
350
2C
1001
ACAD
1000
TREAT_AS_HARD
1070
     0
  0
DICTIONARY
  5
240
102
{ACAD_REACTORS
330
C
102
}
330
C
100
AcDbDictionary
1001
ACAD
1000
TREAT_AS_HARD
1070
     0
  0
XRECORD
  5
28C9D
102
{ACAD_REACTORS
330
C
102
}
330
C
100
AcDbXrecord
  1
DWGPROPS COOKIE
  2

  3

  4

  6

  7

  8

  9

300
AmdtFileType=84
301
=
302
=
303
=
304
=
305
=
306
=
307
=
308
=
309
=
 40
2.277960706018518
 41
2452292.457678333
 42
2452655.699534675
  1

 90
        1
  0
DICTIONARY
  5
21C6B
102
{ACAD_REACTORS
330
3A4
102
}
330
3A4
100
AcDbDictionary
  3
*A1
350
21C6C
1001
ACAD
1000
TREAT_AS_HARD
1070
     0
  0
XRECORD
  5
28D29
102
{ACAD_REACTORS
330
3A4
102
}
330
3A4
100
AcDbXrecord
340
1F
  0
XRECORD
  5
28D28
102
{ACAD_REACTORS
330
28C12
102
}
330
28C12
100
AcDbXrecord
340
1B
  0
MLINESTYLE
  5
18
102
{ACAD_REACTORS
330
17
102
}
330
17
100
AcDbMlineStyle
  2
STANDARD
 70
     0
  3

 62
   256
 51
90.0
 52
90.0
 71
     2
 49
0.5
 62
   256
  6
BYLAYER
 49
-0.5
 62
   256
  6
BYLAYER
  0
DICTIONARY
  5
1440
102
{ACAD_REACTORS
330
43
102
}
330
43
100
AcDbDictionary
1001
ACAD
1000
TREAT_AS_HARD
1070
     0
  0
DICTIONARY
  5
2C
102
{ACAD_REACTORS
330
2B
102
}
330
2B
100
AcDbDictionary
1001
ACAD
1000
TREAT_AS_HARD
1070
     0
  0
LAYER_INDEX
  5
21C6C
102
{ACAD_REACTORS
330
21C6B
102
}
330
21C6B
100
AcDbIndex
 40
2452705.589543298
100
AcDbLayerIndex
  8
0
360
21C6D
 90
        2
  8
AM_VIS
360
21C70
 90
      609
  8
Defpoints
360
21C71
 90
        0
  8
AM_7
360
21C72
 90
       61
  8
AM_REFDIM
360
21C74
 90
       17
  8
LOGO
360
21C7D
 90
      150
  8
AM_HID
360
21C7F
 90
       55
  8
AM_0N
360
21C84
 90
        0
  0
IDBUFFER
  5
21C6D
330
0
100
AcDbIdBuffer
330
26587
330
26669
  0
IDBUFFER
  5
21C70
330
0
100
AcDbIdBuffer
330
264F9
330
264FA
330
264FB
330
264FC
330
264FD
330
264FE
330
264FF
330
26500
330
26501
330
26503
330
26504
330
26505
330
26506
330
26507
330
26508
330
26509
330
2650A
330
2650B
330
2650C
330
2650E
330
2650F
330
26510
330
26511
330
26512
330
26516
330
26517
330
26518
330
2651A
330
2651B
330
2651D
330
2651F
330
26523
330
26524
330
26526
330
26529
330
2652A
330
2652B
330
2652C
330
26530
330
26533
330
26534
330
26535
330
26536
330
26537
330
26538
330
26539
330
2653A
330
2653B
330
2653C
330
2653E
330
2653F
330
26540
330
26541
330
26542
330
26543
330
26545
330
26546
330
26548
330
2654B
330
2654D
330
2654E
330
2654F
330
26550
330
26551
330
26552
330
26553
330
26554
330
26555
330
26556
330
26557
330
26558
330
26559
330
2655A
330
2655B
330
2655C
330
2655D
330
2655E
330
2655F
330
26560
330
26561
330
26562
330
26563
330
26564
330
26565
330
26566
330
26567
330
26568
330
26569
330
2656A
330
2656B
330
2656C
330
2656E
330
2656F
330
26570
330
26571
330
26572
330
26574
330
26577
330
26578
330
26579
330
2657A
330
2657B
330
2657C
330
2657D
330
2657E
330
2657F
330
26580
330
26581
330
26582
330
26583
330
26584
330
26585
330
26586
330
26588
330
26589
330
2658A
330
2658B
330
2658C
330
2658D
330
2658E
330
2658F
330
26590
330
26591
330
26592
330
26593
330
26594
330
26595
330
26596
330
26597
330
26598
330
26599
330
2659A
330
2659B
330
2659C
330
2659D
330
2659E
330
2659F
330
265A0
330
265A1
330
265A2
330
265A3
330
265A4
330
265A5
330
265A6
330
265A7
330
265A8
330
265A9
330
265AA
330
265AB
330
265AC
330
265AD
330
265AE
330
265AF
330
265B0
330
265B1
330
265B2
330
265B3
330
265B4
330
265B5
330
265B6
330
265B7
330
265B8
330
265B9
330
265BA
330
265BB
330
265BC
330
265BD
330
265BE
330
265BF
330
265C0
330
265C1
330
265C2
330
265C3
330
265C4
330
265C5
330
265C6
330
265C7
330
265C8
330
265C9
330
265CA
330
265CB
330
265CC
330
265CD
330
265CE
330
265CF
330
265D0
330
265D1
330
265D2
330
265D3
330
265D4
330
265D5
330
265D6
330
265D7
330
265D8
330
265D9
330
265DA
330
265DB
330
265DC
330
265DD
330
265DE
330
265DF
330
265E0
330
265E1
330
265E2
330
265E3
330
265E4
330
265E5
330
265E6
330
265E7
330
265E8
330
265E9
330
265EA
330
265EB
330
265EC
330
265ED
330
265EE
330
265EF
330
265F0
330
265F1
330
265F2
330
265F3
330
265F4
330
265F5
330
265F6
330
265F7
330
265F8
330
265F9
330
265FA
330
265FB
330
265FC
330
265FD
330
265FE
330
265FF
330
26600
330
26601
330
26602
330
26603
330
26604
330
26605
330
26606
330
26607
330
26608
330
26609
330
2660A
330
2660B
330
2660C
330
2660D
330
2660E
330
2660F
330
26610
330
26611
330
26612
330
26613
330
26614
330
26615
330
26616
330
26617
330
26618
330
26619
330
2661A
330
2661B
330
2661C
330
2661D
330
2661E
330
2661F
330
26620
330
26621
330
26622
330
26623
330
26624
330
26625
330
26626
330
26627
330
26628
330
26629
330
2662A
330
2662B
330
2662C
330
2662D
330
2662E
330
2662F
330
26630
330
26631
330
26632
330
26633
330
26634
330
26635
330
26636
330
26637
330
26638
330
26639
330
2663A
330
2663B
330
2663C
330
2663D
330
2663E
330
2663F
330
26640
330
26641
330
26642
330
26643
330
26644
330
26645
330
26646
330
26647
330
26648
330
26649
330
2664A
330
2664B
330
2664C
330
2664D
330
2664E
330
2664F
330
26650
330
26651
330
26652
330
26653
330
26654
330
26655
330
26656
330
26657
330
26658
330
26659
330
2665A
330
2665B
330
2665C
330
2665D
330
2665E
330
2665F
330
26660
330
26661
330
26668
330
2666A
330
2666B
330
2666C
330
2666D
330
2666E
330
2666F
330
26670
330
26671
330
26672
330
26673
330
26674
330
26675
330
26676
330
26677
330
26678
330
26679
330
2667A
330
2667B
330
2667C
330
2667D
330
2667E
330
2667F
330
26680
330
26681
330
26682
330
26683
330
26684
330
26685
330
26686
330
26687
330
26688
330
26689
330
2668A
330
2668B
330
2668C
330
2668D
330
2668E
330
2668F
330
26690
330
26691
330
26692
330
26693
330
26694
330
26695
330
26696
330
26697
330
26698
330
26699
330
2669A
330
2669B
330
2669C
330
2669D
330
2669E
330
2669F
330
266A0
330
266A1
330
266A2
330
266A3
330
266A4
330
266A5
330
266A6
330
266A7
330
266A8
330
266A9
330
266AA
330
266AB
330
266AC
330
266AD
330
266AE
330
266AF
330
266B0
330
266B1
330
266B2
330
266B3
330
266B4
330
266B5
330
266B6
330
266B7
330
266B8
330
266B9
330
266BA
330
266BB
330
266BC
330
266BD
330
266BE
330
266BF
330
266C0
330
266C1
330
266C2
330
266C3
330
266C4
330
266C5
330
266C6
330
266C7
330
266C8
330
266C9
330
266CA
330
266CB
330
266CC
330
266CD
330
266CE
330
266CF
330
266D0
330
266D1
330
266D2
330
266D3
330
266D4
330
266D5
330
266D6
330
266D7
330
266D8
330
266D9
330
266DA
330
266DB
330
266DC
330
266DD
330
266DE
330
266DF
330
266E0
330
266E1
330
266E2
330
266E3
330
266E4
330
266E5
330
266E6
330
266E7
330
266E8
330
266E9
330
266EA
330
266EB
330
266EC
330
266ED
330
266EE
330
266EF
330
266F0
330
266F1
330
266F2
330
266F3
330
266F4
330
266F5
330
266F6
330
266F7
330
266F8
330
266F9
330
266FA
330
266FB
330
266FC
330
266FD
330
266FE
330
266FF
330
26700
330
26701
330
26702
330
26703
330
26704
330
26705
330
26706
330
26707
330
26708
330
26709
330
2670A
330
2670B
330
2670C
330
2670D
330
2670E
330
2670F
330
26710
330
26711
330
26712
330
26713
330
26714
330
26715
330
26716
330
26717
330
26718
330
26719
330
2671A
330
2671B
330
2671C
330
2671D
330
2671E
330
2671F
330
26720
330
26721
330
26722
330
26723
330
26724
330
26725
330
26726
330
26727
330
26728
330
26729
330
2672A
330
2672B
330
2672C
330
2672D
330
2672E
330
2672F
330
26730
330
26731
330
26732
330
26733
330
26734
330
26735
330
26736
330
26737
330
26738
330
26739
330
2673A
330
2673B
330
2673C
330
2673D
330
2673E
330
2673F
330
26740
330
26741
330
26742
330
26743
330
26744
330
26745
330
26746
330
26747
330
26748
330
26749
330
2674A
330
2674B
330
2674C
330
2674D
330
2674E
330
2674F
330
26750
330
26751
330
26752
330
26753
330
26754
330
26755
330
26756
330
26757
330
26758
330
26759
330
2675A
330
2675B
330
2675C
330
2675D
330
2675E
330
2675F
330
26760
330
26761
330
26762
330
26763
330
26764
330
26765
330
26766
330
26767
330
26768
330
26769
330
2676A
330
2676B
330
2676C
330
2676D
330
2676E
330
2676F
330
26770
330
26771
330
26772
330
26773
330
26774
330
26775
330
26776
330
26777
330
26778
330
26779
330
2677A
330
2677B
330
2677C
330
2677D
330
2677E
  0
IDBUFFER
  5
21C71
330
0
100
AcDbIdBuffer
  0
IDBUFFER
  5
21C72
330
0
100
AcDbIdBuffer
330
18C70
330
18C71
330
18C72
330
18C73
330
18C74
330
18C75
330
18C76
330
18C77
330
18C78
330
18C79
330
18C7A
330
18C7B
330
18C7C
330
18C7D
330
18C7E
330
18C7F
330
18C80
330
18C81
330
18C82
330
18C83
330
18C84
330
18C85
330
18C86
330
18C87
330
18C88
330
18C89
330
18C8A
330
18C8B
330
18C8C
330
18C8D
330
18C8E
330
264F8
330
26502
330
2650D
330
26515
330
2651E
330
26520
330
26521
330
26522
330
26525
330
26527
330
26528
330
2652E
330
2652F
330
26531
330
26532
330
2653D
330
26544
330
26547
330
26549
330
2654A
330
2654C
330
2656D
330
26573
330
26575
330
26576
330
274ED
330
274F9
330
27505
330
27511
330
2751D
  0
IDBUFFER
  5
21C74
330
0
100
AcDbIdBuffer
330
2679B
330
2679C
330
2679D
330
2679E
330
2679F
330
267A0
330
26AE4
330
26AF1
330
26AFE
330
26B0B
330
26B18
330
26B27
330
26B34
330
26B41
330
26B4E
330
26B5B
330
26B68
  0
IDBUFFER
  5
21C7D
330
0
100
AcDbIdBuffer
330
18C6F
330
21EA2
330
24CA0
330
26C3F
330
2716E
330
2716F
330
27170
330
27171
330
27172
330
27173
330
27174
330
27175
330
27176
330
27177
330
27178
330
27179
330
2717A
330
2717B
330
2717C
330
2717D
330
2717E
330
2717F
330
27180
330
27181
330
27182
330
27183
330
27184
330
27185
330
27186
330
27187
330
27188
330
27189
330
2718A
330
2718B
330
2718C
330
2718D
330
2718E
330
2718F
330
27190
330
27191
330
27192
330
27193
330
27194
330
27195
330
27196
330
27197
330
27198
330
27199
330
2719A
330
2719B
330
2719C
330
2719D
330
2719E
330
2719F
330
271A0
330
271A1
330
271A2
330
271A3
330
271A4
330
271A5
330
271A6
330
271A7
330
271A8
330
271A9
330
271AA
330
271AB
330
271AC
330
271AD
330
271AE
330
271AF
330
271B0
330
271B1
330
271B2
330
271B3
330
271B4
330
271B5
330
271B6
330
271B7
330
271B8
330
271B9
330
271BA
330
271BB
330
271BC
330
271BD
330
271BE
330
271BF
330
271C0
330
271C1
330
271C2
330
271C3
330
271C4
330
271C5
330
271C6
330
271C7
330
271C8
330
271C9
330
271CA
330
271CB
330
271CC
330
271CD
330
271CE
330
271CF
330
271D0
330
271D1
330
271D2
330
271D3
330
271D4
330
271D5
330
271D6
330
271D7
330
271D8
330
271D9
330
271DA
330
271DB
330
271DC
330
271DD
330
271DE
330
271DF
330
271E0
330
271E1
330
271E2
330
271E3
330
271E4
330
271E5
330
271E6
330
271E7
330
271E8
330
271E9
330
271EA
330
271EB
330
271EC
330
271ED
330
271EE
330
271EF
330
271F0
330
271F1
330
271F2
330
271F3
330
271F4
330
271F5
330
271F6
330
271F7
330
271F8
330
271F9
330
271FA
330
271FB
330
271FC
330
271FD
330
271FE
330
27366
  0
IDBUFFER
  5
21C7F
330
0
100
AcDbIdBuffer
330
274EE
330
274EF
330
274F0
330
274F1
330
274F2
330
274F3
330
274F4
330
274F5
330
274F6
330
274F7
330
274F8
330
274FA
330
274FB
330
274FC
330
274FD
330
274FE
330
274FF
330
27500
330
27501
330
27502
330
27503
330
27504
330
27506
330
27507
330
27508
330
27509
330
2750A
330
2750B
330
2750C
330
2750D
330
2750E
330
2750F
330
27510
330
27512
330
27513
330
27514
330
27515
330
27516
330
27517
330
27518
330
27519
330
2751A
330
2751B
330
2751C
330
2751E
330
2751F
330
27520
330
27521
330
27522
330
27523
330
27524
330
27525
330
27526
330
27527
330
27528
  0
IDBUFFER
  5
21C84
330
0
100
AcDbIdBuffer
  0
ENDSEC
  0
EOF
