  0
SECTION
  2
HEADER
  9
$ACADVER
  1
AC1015
  9
$ACADMAINTVER
 70
    20
  9
$DWGCODEPAGE
  3
ANSI_950
  9
$INSBASE
 10
0.0
 20
0.0
 30
0.0
  9
$EXTMIN
 10
515.4502989813883
 20
-156.8472887900138
 30
0.0
  9
$EXTMAX
 10
663.7735213056678
 20
41.97014700729791
 30
121.2734801857075
  9
$LIMMIN
 10
0.0
 20
0.0
  9
$LIMMAX
 10
420.0
 20
297.0
  9
$ORTHOMODE
 70
     1
  9
$REGENMODE
 70
     1
  9
$FILLMODE
 70
     1
  9
$QTEXTMODE
 70
     0
  9
$MIRRTEXT
 70
     1
  9
$LTSCALE
 40
0.3
  9
$ATTMODE
 70
     1
  9
$TEXTSIZE
 40
2.5
  9
$TRACEWID
 40
1.0
  9
$TEXTSTYLE
  7
STANDARD
  9
$CLAYER
  8
0
  9
$CELTYPE
  6
ByLayer
  9
$CECOLOR
 62
   256
  9
$CELTSCALE
 40
1.0
  9
$DISPSILH
 70
     0
  9
$DIMSCALE
 40
0.7
  9
$DIMASZ
 40
3.0
  9
$DIMEXO
 40
1.0
  9
$DIMDLI
 40
6.5
  9
$DIMRND
 40
0.0
  9
$DIMDLE
 40
0.0
  9
$DIMEXE
 40
1.0
  9
$DIMTP
 40
0.01
  9
$DIMTM
 40
0.01
  9
$DIMTXT
 40
3.5
  9
$DIMCEN
 40
0.0
  9
$DIMTSZ
 40
0.0
  9
$DIMTOL
 70
     0
  9
$DIMLIM
 70
     0
  9
$DIMTIH
 70
     0
  9
$DIMTOH
 70
     0
  9
$DIMSE1
 70
     0
  9
$DIMSE2
 70
     0
  9
$DIMTAD
 70
     1
  9
$DIMZIN
 70
     8
  9
$DIMBLK
  1

  9
$DIMASO
 70
     1
  9
$DIMSHO
 70
     1
  9
$DIMPOST
  1

  9
$DIMAPOST
  1

  9
$DIMALT
 70
     0
  9
$DIMALTD
 70
     2
  9
$DIMALTF
 40
25.4
  9
$DIMLFAC
 40
1.0
  9
$DIMTOFL
 70
     1
  9
$DIMTVP
 40
0.0
  9
$DIMTIX
 70
     0
  9
$DIMSOXD
 70
     0
  9
$DIMSAH
 70
     0
  9
$DIMBLK1
  1

  9
$DIMBLK2
  1

  9
$DIMSTYLE
  2
STANDARD
  9
$DIMCLRD
 70
   256
  9
$DIMCLRE
 70
   256
  9
$DIMCLRT
 70
   256
  9
$DIMTFAC
 40
0.6
  9
$DIMGAP
 40
0.8
  9
$DIMJUST
 70
     0
  9
$DIMSD1
 70
     0
  9
$DIMSD2
 70
     0
  9
$DIMTOLJ
 70
     1
  9
$DIMTZIN
 70
     8
  9
$DIMALTZ
 70
     0
  9
$DIMALTTZ
 70
     0
  9
$DIMUPT
 70
     0
  9
$DIMDEC
 70
     2
  9
$DIMTDEC
 70
     2
  9
$DIMALTU
 70
     2
  9
$DIMALTTD
 70
     2
  9
$DIMTXSTY
  7
CHINESET
  9
$DIMAUNIT
 70
     0
  9
$DIMADEC
 70
     0
  9
$DIMALTRND
 40
0.0
  9
$DIMAZIN
 70
     2
  9
$DIMDSEP
 70
    46
  9
$DIMATFIT
 70
     3
  9
$DIMFRAC
 70
     0
  9
$DIMLDRBLK
  1

  9
$DIMLUNIT
 70
     2
  9
$DIMLWD
 70
    -1
  9
$DIMLWE
 70
    -1
  9
$DIMTMOVE
 70
     0
  9
$LUNITS
 70
     2
  9
$LUPREC
 70
     2
  9
$SKETCHINC
 40
1.0
  9
$FILLETRAD
 40
2.5
  9
$AUNITS
 70
     0
  9
$AUPREC
 70
     0
  9
$MENU
  1
.
  9
$ELEVATION
 40
0.0
  9
$PELEVATION
 40
0.0
  9
$THICKNESS
 40
0.0
  9
$LIMCHECK
 70
     0
  9
$CHAMFERA
 40
1.5
  9
$CHAMFERB
 40
1.5
  9
$CHAMFERC
 40
20.0
  9
$CHAMFERD
 40
0.0
  9
$SKPOLY
 70
     0
  9
$TDCREATE
 40
2452691.454954444
  9
$TDUCREATE
 40
2452691.121621111
  9
$TDUPDATE
 40
2454658.579417315
  9
$TDUUPDATE
 40
2454658.246083981
  9
$TDINDWG
 40
0.1646678588
  9
$TDUSRTIMER
 40
0.1646677431
  9
$USRTIMER
 70
     1
  9
$ANGBASE
 50
0.0
  9
$ANGDIR
 70
     0
  9
$PDMODE
 70
     0
  9
$PDSIZE
 40
0.0
  9
$PLINEWID
 40
0.0
  9
$SPLFRAME
 70
     0
  9
$SPLINETYPE
 70
     6
  9
$SPLINESEGS
 70
     8
  9
$HANDSEED
  5
4C47
  9
$SURFTAB1
 70
     6
  9
$SURFTAB2
 70
     6
  9
$SURFTYPE
 70
     6
  9
$SURFU
 70
     6
  9
$SURFV
 70
     6
  9
$UCSBASE
  2

  9
$UCSNAME
  2

  9
$UCSORG
 10
0.0
 20
0.0
 30
0.0
  9
$UCSXDIR
 10
1.0
 20
0.0
 30
0.0
  9
$UCSYDIR
 10
0.0
 20
1.0
 30
0.0
  9
$UCSORTHOREF
  2

  9
$UCSORTHOVIEW
 70
     0
  9
$UCSORGTOP
 10
0.0
 20
0.0
 30
0.0
  9
$UCSORGBOTTOM
 10
0.0
 20
0.0
 30
0.0
  9
$UCSORGLEFT
 10
0.0
 20
0.0
 30
0.0
  9
$UCSORGRIGHT
 10
0.0
 20
0.0
 30
0.0
  9
$UCSORGFRONT
 10
0.0
 20
0.0
 30
0.0
  9
$UCSORGBACK
 10
0.0
 20
0.0
 30
0.0
  9
$PUCSBASE
  2

  9
$PUCSNAME
  2

  9
$PUCSORG
 10
0.0
 20
0.0
 30
0.0
  9
$PUCSXDIR
 10
1.0
 20
0.0
 30
0.0
  9
$PUCSYDIR
 10
0.0
 20
1.0
 30
0.0
  9
$PUCSORTHOREF
  2

  9
$PUCSORTHOVIEW
 70
     0
  9
$PUCSORGTOP
 10
0.0
 20
0.0
 30
0.0
  9
$PUCSORGBOTTOM
 10
0.0
 20
0.0
 30
0.0
  9
$PUCSORGLEFT
 10
0.0
 20
0.0
 30
0.0
  9
$PUCSORGRIGHT
 10
0.0
 20
0.0
 30
0.0
  9
$PUCSORGFRONT
 10
0.0
 20
0.0
 30
0.0
  9
$PUCSORGBACK
 10
0.0
 20
0.0
 30
0.0
  9
$USERI1
 70
     0
  9
$USERI2
 70
     0
  9
$USERI3
 70
     0
  9
$USERI4
 70
     0
  9
$USERI5
 70
     0
  9
$USERR1
 40
0.0
  9
$USERR2
 40
0.0
  9
$USERR3
 40
0.0
  9
$USERR4
 40
0.0
  9
$USERR5
 40
0.0
  9
$WORLDVIEW
 70
     1
  9
$SHADEDGE
 70
     3
  9
$SHADEDIF
 70
    70
  9
$TILEMODE
 70
     1
  9
$MAXACTVP
 70
    48
  9
$PINSBASE
 10
0.0
 20
0.0
 30
0.0
  9
$PLIMCHECK
 70
     0
  9
$PEXTMIN
 10
26.80208481208632
 20
60.62932117531272
 30
-0.0000000000000153
  9
$PEXTMAX
 10
155.7606180029584
 20
204.40991305297
 30
0.0
  9
$PLIMMIN
 10
-3.757083177566528
 20
-14.7637300491333
  9
$PLIMMAX
 10
206.2162444591522
 20
282.2045927047729
  9
$UNITMODE
 70
     0
  9
$VISRETAIN
 70
     1
  9
$PLINEGEN
 70
     0
  9
$PSLTSCALE
 70
     1
  9
$TREEDEPTH
 70
  3020
  9
$CMLSTYLE
  2
Standard
  9
$CMLJUST
 70
     0
  9
$CMLSCALE
 40
20.0
  9
$PROXYGRAPHICS
 70
     1
  9
$MEASUREMENT
 70
     1
  9
$CELWEIGHT
370
    -1
  9
$ENDCAPS
280
     0
  9
$JOINSTYLE
280
     0
  9
$LWDISPLAY
290
     0
  9
$INSUNITS
 70
     4
  9
$HYPERLINKBASE
  1

  9
$STYLESHEET
  1
單色出圖.ctb
  9
$XEDIT
290
     1
  9
$CEPSNTYPE
380
     0
  9
$PSTYLEMODE
290
     1
  9
$FINGERPRINTGUID
  2
{F78C675B-544A-4F03-A4D5-203705509F9E}
  9
$VERSIONGUID
  2
{18760AAA-576B-47ED-BFF0-0BEC41FC41EC}
  9
$EXTNAMES
290
     1
  9
$PSVPSCALE
 40
0.0
  9
$OLESTARTUP
290
     0
  0
ENDSEC
  0
SECTION
  2
CLASSES
  0
CLASS
  1
ACDBDICTIONARYWDFLT
  2
AcDbDictionaryWithDefault
  3
ObjectDBX Classes
 90
        0
280
     0
281
     0
  0
CLASS
  1
ACDBPLACEHOLDER
  2
AcDbPlaceHolder
  3
ObjectDBX Classes
 90
        0
280
     0
281
     0
  0
CLASS
  1
LAYOUT
  2
AcDbLayout
  3
ObjectDBX Classes
 90
        0
280
     0
281
     0
  0
CLASS
  1
AMGSETTINGSOBJ
  2
AmgSettingsObj
  3
"AcadM|Product Description: AutoCAD Mechanical 2000|Company: Autodesk"
 90
        0
280
     0
281
     0
  0
CLASS
  1
ACME_DOCUMENT
  2
AcMeDbDoc
  3
AcMeServices
 90
        0
280
     0
281
     0
  0
CLASS
  1
ACMESCOPE
  2
AcMeScope
  3
AcMeServices
 90
        0
280
     0
281
     0
  0
CLASS
  1
ACMECOMMANDHISTORY
  2
AcMeCommandHistory
  3
AcMeServices
 90
        0
280
     0
281
     0
  0
CLASS
  1
ACIMSYSVARMAN
  2
AcImSysVarManager
  3
AcMeServices
 90
        0
280
     0
281
     0
  0
CLASS
  1
ACIMREALSYSVAR
  2
AcImRealSysVar
  3
AcMeServices
 90
        0
280
     0
281
     0
  0
CLASS
  1
ACIMINTSYSVAR
  2
AcImIntSysVar
  3
AcMeServices
 90
        0
280
     0
281
     0
  0
CLASS
  1
ACMEDRAWINGMAN
  2
AcMeDrawingMan
  3
AcMeServices
 90
        0
280
     0
281
     0
  0
CLASS
  1
ACMEVIEW
  2
AcMeView
  3
AcMeServices
 90
        0
280
     0
281
     0
  0
CLASS
  1
ACDBENTITYCACHE
  2
AcMeEntityCache
  3
AcMeServices
 90
        0
280
     0
281
     0
  0
CLASS
  1
GSMANAGER
  2
AcMeGSManager
  3
AcMeServices
 90
        0
280
     0
281
     0
  0
CLASS
  1
AMDTINTERNALREACTOR
  2
AmdtInternalReactor
  3
AcMeServices
 90
        0
280
     0
281
     0
  0
CLASS
  1
ACMESTATEMGR
  2
AcMeStateMgr
  3
AcMeServices
 90
        0
280
     0
281
     0
  0
CLASS
  1
ACGREFMASTER
  2
AcGrefMaster
  3
AcAttribServices
 90
        0
280
     0
281
     0
  0
CLASS
  1
AM_DRAWING_MGR
  2
AcDmDwgMgr
  3
AcMechDwgViewMgmt
 90
        0
280
     0
281
     0
  0
CLASS
  1
AM_DWG_DOCUMENT
  2
AcDmDwgDocument
  3
AcMechDwgViewMgmt
 90
        0
280
     0
281
     0
  0
CLASS
  1
AM_DWG_SHEET
  2
AcDmSheet
  3
AcMechDwgViewMgmt
 90
        0
280
     0
281
     0
  0
CLASS
  1
AM_VIEWDIMPARMAP
  2
AcDmViewDimParMap
  3
AcMechDwgViewMgmt
 90
        0
280
     0
281
     0
  0
CLASS
  1
AM_DWGMGR_NAME
  2
AcDmDwgMgrName
  3
AcMechDwgViewMgmt
 90
        0
280
     0
281
     0
  0
CLASS
  1
ACME_DATABASE
  2
AcMeDbDatabase
  3
AcMeServices
 90
        0
280
     0
281
     0
  0
CLASS
  1
ACRFINSADJUSTERMGR
  2
AcRfInsAdjusterMgr
  3
AcMeServices
 90
        0
280
     0
281
     0
  0
CLASS
  1
ACGREFACADMASTER
  2
AcGrefacadMaster
  3
AcGrefServices
 90
        0
280
     0
281
     0
  0
CLASS
  1
AMDTMENUSTATEMGR
  2
AmdtMenuStateMgr
  3
McadcomServices
 90
        0
280
     0
281
     0
  0
CLASS
  1
AMDTMCOMMENUSTATE
  2
AmdtMcomMenuState
  3
McadcomServices
 90
        0
280
     0
281
     0
  0
CLASS
  1
AMIMASTER
  2
AmiMaster
  3
AmiServices
 90
        0
280
     0
281
     0
  0
CLASS
  1
ASAPP
  2
AcAsAppObject
  3
AutoSurfServices
 90
    32768
280
     0
281
     0
  0
CLASS
  1
IM_STATIC_MAN
  2
AcImStaticVarManager
  3
AcMeServices
 90
    32768
280
     0
281
     0
  0
CLASS
  1
ACIMSTRSYSVAR
  2
AcImStrSysVar
  3
AcMeServices
 90
        0
280
     0
281
     0
  0
CLASS
  1
ACIMDBLSTATICVAR
  2
AcImDblStaticVar
  3
AcMeServices
 90
    32768
280
     0
281
     0
  0
CLASS
  1
ACIMSTRSTATICVAR
  2
AcImStrStaticVar
  3
AcMeServices
 90
    32768
280
     0
281
     0
  0
CLASS
  1
ACIMINTSTATICVAR
  2
AcImIntStaticVar
  3
AcMeServices
 90
    32768
280
     0
281
     0
  0
CLASS
  1
ACASGREFMASTER
  2
AcAsGrefMaster
  3
AutoSurfResolverServices
 90
    32768
280
     0
281
     0
  0
CLASS
  1
ACADGREFMODULE
  2
AcAdGrefModule
  3
AdGrefServices
 90
    32768
280
     0
281
     0
  0
CLASS
  1
AMDTMAPISURFMOUDULE
  2
AmdtMApiSurfModule
  3
MApiSurfServices
 90
    32768
280
     0
281
     0
  0
CLASS
  1
MAPIAMMOUDLE
  2
MApiAmModule
  3
MApiAmServices
 90
        0
280
     0
281
     0
  0
CLASS
  1
AMDTADMENUSTATE
  2
AmdtAdMenuState
  3
DesignerServices
 90
        0
280
     0
281
     0
  0
CLASS
  1
ADAPPL
  2
AcAdAppl
  3
DesignerServices
 90
        0
280
     0
281
     0
  0
CLASS
  1
DEPMGR
  2
AcAdDepMgr
  3
DesignerServices
 90
        0
280
     0
281
     0
  0
CLASS
  1
PARAMMGR
  2
AcAdParamMgr
  3
DesignerServices
 90
        0
280
     0
281
     0
  0
CLASS
  1
PARAMSCOPE
  2
AcAdParamScope
  3
DesignerServices
 90
        0
280
     0
281
     0
  0
CLASS
  1
NAMEDAPPL
  2
AcAdNamedAppl
  3
DesignerServices
 90
        0
280
     0
281
     0
  0
CLASS
  1
AMDTDMMENUSTATE
  2
AmdtDmMenuState
  3
AcMechDwgViewMgmt
 90
        0
280
     0
281
     0
  0
CLASS
  1
MAPIADMODULE
  2
MApiAdModule
  3
MApiAdServices
 90
    32768
280
     0
281
     0
  0
CLASS
  1
AMDTAMMENUSTATE
  2
AmdtAmMenuState
  3
DesignerAssemblies
 90
        0
280
     0
281
     0
  0
CLASS
  1
ACAMPROJECT
  2
AcAmProject
  3
DesignerAssemblies
 90
        0
280
     0
281
     0
  0
CLASS
  1
ACAMCOMPDEFMGR
  2
AcAmCompDefMgr
  3
DesignerAssemblies
 90
        0
280
     0
281
     0
  0
CLASS
  1
AMCONTEXTMGR
  2
AcAmContextMgr
  3
DesignerAssemblies
 90
        0
280
     0
281
     0
  0
CLASS
  1
ACAMCONTEXTPARTMODELER
  2
AcAmContextPartModeler
  3
DesignerAssemblies
 90
    32768
280
     0
281
     0
  0
CLASS
  1
ACMDATADICTIONARY
  2
AcmDataDictionary
  3
"AcmSymBB|Product Description: AutoCAD Mechanical 2004 DX|Company: Autodesk"
 90
        0
280
     0
281
     0
  0
CLASS
  1
ACMDATAENTRYBLOCK
  2
AcmDataEntryBlock
  3
"AcmSymBB|Product Description: AutoCAD Mechanical 2004 DX|Company: Autodesk"
 90
    32768
280
     0
281
     0
  0
CLASS
  1
ACMSTANDARDISO
  2
AcmStandardISO
  3
"Amdt_StdImp|Product Description: AutoCAD Mechanical 2004 DX|Company: Autodesk"
 90
        0
280
     0
281
     0
  0
CLASS
  1
AMGOBJPROPCFG
  2
AmgObjPropCfg
  3
"AmgLay|Product Description: AutoCAD Mechanical 2000|Company: Autodesk"
 90
        1
280
     0
281
     0
  0
CLASS
  1
AMDTEDGESTANDARDISO
  2
AmdtEdgeStdISO
  3
"Amdt_StdImp|Product Description: AutoCAD Mechanical 2004 DX|Company: Autodesk"
 90
    32768
280
     0
281
     0
  0
CLASS
  1
ACMSURFSTANDARDISO
  2
AcmSurfTextStdISO
  3
"Amdt_StdImp|Product Description: AutoCAD Mechanical 2004 DX|Company: Autodesk"
 90
        0
280
     0
281
     0
  0
CLASS
  1
ACMFCFSTANDARDISO
  2
AcmFCFStdISO
  3
"Amdt_StdImp|Product Description: AutoCAD Mechanical 2004 DX|Company: Autodesk"
 90
        0
280
     0
281
     0
  0
CLASS
  1
ACMWELDSTANDARDISO
  2
AcmWeldingStdISO
  3
"Amdt_StdImp|Product Description: AutoCAD Mechanical 2004 DX|Company: Autodesk"
 90
        0
280
     0
281
     0
  0
CLASS
  1
ACMIDSTANDARDISO
  2
AcmIdStdISO
  3
"Amdt_StdImp|Product Description: AutoCAD Mechanical 2004 DX|Company: Autodesk"
 90
        0
280
     0
281
     0
  0
CLASS
  1
ACMDATUMSTANDARDISO
  2
AcmDatumStdISO
  3
"Amdt_StdImp|Product Description: AutoCAD Mechanical 2004 DX|Company: Autodesk"
 90
        0
280
     0
281
     0
  0
CLASS
  1
ACMBOMSTANDARDISO
  2
AcmBOMStdISO
  3
"Amdt_StdImp|Product Description: AutoCAD Mechanical 2004 DX|Company: Autodesk"
 90
        0
280
     0
281
     0
  0
CLASS
  1
ACMDETAILSTANDARDISO
  2
AmdtDetailSymStdISO
  3
"Amdt_StdImp|Product Description: AutoCAD Mechanical 2004 DX|Company: Autodesk"
 90
        0
280
     0
281
     0
  0
CLASS
  1
ACMSECTIONSTANDARDISO
  2
AmdtSectionSymStdISO
  3
"Amdt_StdImp|Product Description: AutoCAD Mechanical 2004 DX|Company: Autodesk"
 90
        0
280
     0
281
     0
  0
CLASS
  1
ACMCENTERLINESTANDARDISO
  2
AmdtCenterLineStdISO
  3
"Amdt_StdImp|Product Description: AutoCAD Mechanical 2004 DX|Company: Autodesk"
 90
        0
280
     0
281
     0
  0
CLASS
  1
ACMTHREADLINESTANDARDISO
  2
AmdtThreadLineStdISO
  3
"Amdt_StdImp|Product Description: AutoCAD Mechanical 2004 DX|Company: Autodesk"
 90
        0
280
     0
281
     0
  0
CLASS
  1
ACMNOTESTANDARDISO
  2
AmdtNoteStdISO
  3
"Amdt_StdImp|Product Description: AutoCAD Mechanical 2004 DX|Company: Autodesk"
 90
        0
280
     0
281
     0
  0
CLASS
  1
ACAMGLAYSTD
  2
AcAmgLayStd
  3
"AcAmgLayStd|Product Description: AutoCAD Mechanical 2000|Company: Autodesk"
 90
        0
280
     0
281
     0
  0
CLASS
  1
ACAMGDIMSTD
  2
AcAmgDimStd
  3
"AcAmgDimStd|Product Description: AutoCAD Mechanical 2000|Company: Autodesk"
 90
        0
280
     0
281
     0
  0
CLASS
  1
ACAMGHOLECHARTSTDISO
  2
AcAmgHoleChartStdISO
  3
ACMSYMBB_MODULE_NAME
 90
        0
280
     0
281
     0
  0
CLASS
  1
ACAMGTITLESTD
  2
AcAmgTitleStd
  3
"TITLEAPP"
 90
        0
280
     0
281
     0
  0
CLASS
  1
CATALOGSTATE
  2
AcAmCatalogState
  3
DesignerAssemblies
 90
        0
280
     0
281
     0
  0
CLASS
  1
ACAMGRCOMPDEFSET
  2
AcAmGrCompDefSet
  3
DesignerAssemblies
 90
        0
280
     0
281
     0
  0
CLASS
  1
AMDTBROWSERDBTAB
  2
AmdtBrowserDbTab
  3
McadcomServices
 90
        0
280
     0
281
     0
  0
CLASS
  1
CBROWSERAPPOBJECT
  2
CBrowserAppObject
  3
McadcomServices
 90
        0
280
     0
281
     0
  0
CLASS
  1
DM_PLACEHOLDER
  2
AcDmSelsetPlaceholder
  3
AcMechDwgViewMgmt
 90
        0
280
     0
281
     0
  0
CLASS
  1
ACAMGFILTERDAT
  2
AcAmgFilterDat
  3
"AcadM|Product Description: AutoCAD Mechanical 2000|Company: Autodesk"
 90
    32768
280
     0
281
     0
  0
CLASS
  1
LAYER_INDEX
  2
AcDbLayerIndex
  3
ObjectDBX Classes
 90
        0
280
     0
281
     0
  0
CLASS
  1
IDBUFFER
  2
AcDbIdBuffer
  3
ObjectDBX Classes
 90
        0
280
     0
281
     0
  0
CLASS
  1
DICTIONARYVAR
  2
AcDbDictionaryVar
  3
ObjectDBX Classes
 90
        0
280
     0
281
     0
  0
CLASS
  1
ACAMGRCOMPDEF
  2
AcAmGrCompDef
  3
DesignerAssemblies
 90
        0
280
     0
281
     0
  0
CLASS
  1
ACCMCONTEXT
  2
AcCmContext
  3
DesignerAssemblies
 90
        0
280
     0
281
     0
  0
CLASS
  1
ACAMCOMPDEF
  2
AcAmCompDef
  3
DesignerAssemblies
 90
        0
280
     0
281
     0
  0
CLASS
  1
ADPART
  2
AcAdPart
  3
DesignerServices
 90
    32768
280
     0
281
     1
  0
CLASS
  1
ADBASE
  2
AcAdBase
  3
DesignerServices
 90
    32768
280
     0
281
     0
  0
CLASS
  1
BODYID
  2
AcAdBodyId
  3
DesignerServices
 90
    32768
280
     0
281
     0
  0
CLASS
  1
WORKPLANEDISPLAYMGR
  2
AcAdDisplayMgr
  3
DesignerServices
 90
    32768
280
     0
281
     0
  0
CLASS
  1
ACCMBODY
  2
AcCmBody
  3
DesignerAssemblies
 90
    32768
280
     0
281
     0
  0
CLASS
  1
ACAMCOMPENT
  2
AcAmCompEnt
  3
DesignerAssemblies
 90
    32768
280
     0
281
     1
  0
CLASS
  1
ACAMCOMPFEEDBACK
  2
AcAmCompFeedback
  3
DesignerAssemblies
 90
    32768
280
     0
281
     0
  0
CLASS
  1
ACAMGROUNDEDBASECOMP
  2
AcAmGroundedBaseComp
  3
DesignerAssemblies
 90
    32768
280
     0
281
     0
  0
CLASS
  1
ACAMCOMPENTCLONE
  2
AcAmCompEntClone
  3
DesignerAssemblies
 90
    32768
280
     0
281
     1
  0
CLASS
  1
ACAMCLONEREACTOR
  2
AcAmGrCompCloneReactor
  3
DesignerAssemblies
 90
    32768
280
     0
281
     0
  0
CLASS
  1
ADDATUMPLANEABS
  2
AcAdDatumPlaneAbs
  3
DesignerServices
 90
    32768
280
     0
281
     0
  0
CLASS
  1
ADDATUMAXISABS
  2
AcAdDatumAxisAbs
  3
DesignerServices
 90
    32768
280
     0
281
     0
  0
CLASS
  1
ADDATUMORIENTEDPLANE
  2
AcAdDatumOrientedPlane
  3
DesignerServices
 90
    32768
280
     0
281
     0
  0
CLASS
  1
ACAD_LINE
  2
AcAdLine
  3
DesignerServices
 90
    32768
280
     0
281
     1
  0
CLASS
  1
ACADLINEACAD
  2
AcAdVirtualBoundedLineAcad
  3
DesignerServices
 90
    32768
280
     0
281
     0
  0
CLASS
  1
ACADREFLINEACAD
  2
AcAdVirtualReferenceLine
  3
DesignerServices
 90
    32768
280
     0
281
     0
  0
CLASS
  1
ACADCONSLINE
  2
AcAdConstrainedLine
  3
DesignerServices
 90
    32768
280
     0
281
     0
  0
CLASS
  1
ACADCONSGROUP
  2
AcAdConstraintGroup
  3
DesignerServices
 90
    32768
280
     0
281
     0
  0
CLASS
  1
ACADIMPPTACAD
  2
AcAdVirtualImplicitPoint
  3
DesignerServices
 90
    32768
280
     0
281
     0
  0
CLASS
  1
ACADCONSPOINT
  2
AcAdConstrainedPoint
  3
DesignerServices
 90
    32768
280
     0
281
     0
  0
CLASS
  1
ADPCURCNS
  2
AcAdPointCurveConstr
  3
DesignerServices
 90
    32768
280
     0
281
     0
  0
CLASS
  1
ADVERCNS
  2
AcAdVerticalConstr
  3
DesignerServices
 90
    32768
280
     0
281
     0
  0
CLASS
  1
ADHORCNS
  2
AcAdHorizontalConstr
  3
DesignerServices
 90
    32768
280
     0
281
     0
  0
CLASS
  1
ADCLPROF2D
  2
AcAdClosedProfile2d
  3
DesignerServices
 90
    32768
280
     0
281
     0
  0
CLASS
  1
ACAD_FIXCONSTRAINT
  2
AcAdFixedConstraint
  3
DesignerServices
 90
    32768
280
     0
281
     0
  0
CLASS
  1
AMDTFORMULAUPDATEDISPATCHER
  2
AmdtFormulaUpdateDispatcher
  3
AcMeServices
 90
    32768
280
     0
281
     0
  0
CLASS
  1
ADCONSDISP
  2
AcAdConstraintDisplay
  3
DesignerServices
 90
    32768
280
     0
281
     1
  0
CLASS
  1
ADCONSTDSP
  2
AcAdConstraintDisplayTag
  3
DesignerServices
 90
    32768
280
     0
281
     1
  0
CLASS
  1
PARAM
  2
AcAdParam
  3
DesignerServices
 90
    32768
280
     0
281
     0
  0
CLASS
  1
ADVDISTCNS
  2
AcAdVerticalDistanceConstr
  3
DesignerServices
 90
    32768
280
     0
281
     0
  0
CLASS
  1
ADHDISTCNS
  2
AcAdHorizontalDistanceConstr
  3
DesignerServices
 90
    32768
280
     0
281
     0
  0
CLASS
  1
ACMEROTATIONARROW
  2
AcImRotationArrowDisplay
  3
AcMeServices
 90
    32768
280
     0
281
     1
  0
CLASS
  1
ACADVOLFEATWITHTRIM
  2
AcAdVolFeatWithTrim
  3
DesignerServices
 90
    32768
280
     0
281
     0
  0
CLASS
  1
DEPEDGEFEATUREORDERING
  2
AcAdDepEdgeFeatureOrdering
  3
DesignerServices
 90
    32768
280
     0
281
     0
  0
CLASS
  1
DATUMAXISDISPLAY
  2
AcAdDatumAxisDisplay
  3
DesignerServices
 90
    32768
280
     0
281
     1
  0
CLASS
  1
ADDATUMAXISCENTER
  2
AcAdDatumAxisCenter
  3
DesignerServices
 90
    32768
280
     0
281
     0
  0
CLASS
  1
ADSURFGEOMID
  2
AcAdSurfGeomId
  3
DesignerServices
 90
    32768
280
     0
281
     0
  0
CLASS
  1
ACMEPOINT
  2
AcImPointDisplay
  3
AcMeServices
 90
    32768
280
     0
281
     1
  0
CLASS
  1
ADPLANEID
  2
AcAdPlaneId
  3
DesignerServices
 90
    32768
280
     0
281
     0
  0
CLASS
  1
ADDATUMPLANEFACE
  2
AcAdDatumPlaneFace
  3
DesignerServices
 90
    32768
280
     0
281
     0
  0
CLASS
  1
ADDATUMPOINTAXISPLANE
  2
AcAdDatumPointAxisPlane
  3
DesignerServices
 90
    32768
280
     0
281
     0
  0
CLASS
  1
ADHOLEFEAT
  2
AcAdHoleFeat
  3
DesignerServices
 90
    32768
280
     0
281
     0
  0
CLASS
  1
CIRREFID
  2
AcAdCircleRefId
  3
DesignerServices
 90
    32768
280
     0
281
     0
  0
CLASS
  1
ACADCIRCDEPID
  2
AcAdVirtualCircleDepId
  3
DesignerServices
 90
    32768
280
     0
281
     0
  0
CLASS
  1
ACADCONSCIRCLE
  2
AcAdConstrainedCircle
  3
DesignerServices
 90
    32768
280
     0
281
     0
  0
CLASS
  1
ADCTRPTCNS
  2
AcAdCenterPointConstr
  3
DesignerServices
 90
    32768
280
     0
281
     0
  0
CLASS
  1
AMDT_ALIGNED_DIM
  2
AmdtAlignedDimension
  3
AcMeServices
 90
    32768
280
     0
281
     1
  0
CLASS
  1
ACADBOUNDEDLINEDATUMID
  2
AcAdVirtualBoundedLineDatumId
  3
DesignerServices
 90
    32768
280
     0
281
     0
  0
CLASS
  1
AMDT_ORDINATE_DIM
  2
AmdtOrdinateDimension
  3
AcMeServices
 90
    32768
280
     0
281
     1
  0
CLASS
  1
EDGEID
  2
AcAdEdgeId
  3
DesignerServices
 90
    32768
280
     0
281
     0
  0
CLASS
  1
ADFILLET
  2
AcAdFillet
  3
DesignerServices
 90
    32768
280
     0
281
     0
  0
CLASS
  1
DATUMPLANEDISPLAY
  2
AcAdDatumPlaneDisplay
  3
DesignerServices
 90
    32768
280
     0
281
     1
  0
CLASS
  1
ADDATUMPLANEAXISPLANE
  2
AcAdDatumPlaneAxisPlane
  3
DesignerServices
 90
    32768
280
     0
281
     0
  0
CLASS
  1
ACMEPLINE
  2
AcImPlineDisplay
  3
AcMeServices
 90
    32768
280
     0
281
     1
  0
CLASS
  1
ACMELINEARARROW
  2
AcImLinearArrowDisplay
  3
AcMeServices
 90
    32768
280
     0
281
     1
  0
CLASS
  1
ACMETEXT
  2
AcImTextDisplay
  3
AcMeServices
 90
    32768
280
     0
281
     1
  0
CLASS
  1
ADDATUMPLANEOFFSET
  2
AcAdDatumPlaneOffset
  3
DesignerServices
 90
    32768
280
     0
281
     0
  0
CLASS
  1
ADCOLNCNS
  2
AcAdColinearConstr
  3
DesignerServices
 90
    32768
280
     0
281
     0
  0
CLASS
  1
STREFID
  2
AcAdStraightRefId
  3
DesignerServices
 90
    32768
280
     0
281
     0
  0
CLASS
  1
ACADLINEDEPID
  2
AcAdVirtualLineDepId
  3
DesignerServices
 90
    32768
280
     0
281
     0
  0
CLASS
  1
ADFEATUREDISPLAY
  2
AcImFeatureDisplay
  3
ACME_MODULE_NAME
 90
    32768
280
     0
281
     1
  0
CLASS
  1
ACMEAXIS
  2
AcImAxisDisplay
  3
AcMeServices
 90
    32768
280
     0
281
     1
  0
CLASS
  1
DEPEDGEPATTERNFEATURE
  2
AcAdDepEdgePatternFeature
  3
DesignerServices
 90
    32768
280
     0
281
     0
  0
CLASS
  1
ACADPATTNFEAT
  2
AcAdPatternFeat
  3
DesignerServices
 90
    32768
280
     0
281
     0
  0
CLASS
  1
ACADORDORIGPT
  2
AcAdOrdinateOriginPoint
  3
DesignerServices
 90
    32768
280
     0
281
     0
  0
CLASS
  1
ADORDBASECNS
  2
AcAdOrdinateBaseConstr
  3
DesignerServices
 90
    32768
280
     0
281
     0
  0
CLASS
  1
DEPEDGESECONDARYDEPID
  2
AcAdDepEdgeSecondaryDepId
  3
DesignerServices
 90
    32768
280
     0
281
     0
  0
CLASS
  1
DEPEDGEPATTERNINSTANCE
  2
AcAdDepEdgePatternInstance
  3
DesignerServices
 90
    32768
280
     0
281
     0
  0
CLASS
  1
AMACTIVEPARTSELECTFILTER
  2
AcDmActivePartViewEntFilter
  3
DesignerServices
 90
    32768
280
     0
281
     0
  0
CLASS
  1
AM_ABS_PLANE
  2
AcDmAbsPlnDef
  3
AcMechDwgViewMgmt
 90
    32768
280
     0
281
     0
  0
CLASS
  1
AM_ABS_AXIS
  2
AcDmAbsAxisDef
  3
AcMechDwgViewMgmt
 90
    32768
280
     0
281
     0
  0
CLASS
  1
AM_BASE_VIEW_ORIENT
  2
AcDmBaseViewOr
  3
AcMechDwgViewMgmt
 90
    32768
280
     0
281
     0
  0
CLASS
  1
AM_DWG_VIEWPORT
  2
AcDmViewport
  3
AcMechDwgViewMgmt
 90
    32768
280
     0
281
     0
  0
CLASS
  1
AM_VIEW_DISPLAY
  2
AcDmDwgViewDisplay
  3
AcMechDwgViewMgmt
 90
    32768
280
     0
281
     0
  0
CLASS
  1
AM_CLDFLTS
  2
AcDmClDflts
  3
AcMechDwgViewMgmt
 90
    32768
280
     0
281
     0
  0
CLASS
  1
AM_BASE_VIEW
  2
AcDmBaseView
  3
AcMechDwgViewMgmt
 90
    32768
280
     0
281
     0
  0
CLASS
  1
AM_ISO_VIEW_ORIENT
  2
AcDmIsoViewOr
  3
AcMechDwgViewMgmt
 90
    32768
280
     0
281
     0
  0
CLASS
  1
AM_ISO_VIEW
  2
AcDmIsoView
  3
AcMechDwgViewMgmt
 90
    32768
280
     0
281
     0
  0
CLASS
  1
AM_ORTHO_VIEW_ORIENT
  2
AcDmOrthoViewOr
  3
AcMechDwgViewMgmt
 90
    32768
280
     0
281
     0
  0
CLASS
  1
AM_ORTHO_VIEW
  2
AcDmOrthoView
  3
AcMechDwgViewMgmt
 90
    32768
280
     0
281
     0
  0
CLASS
  1
ACDMPARTVIEWDATA
  2
AcDmPartViewData
  3
AcMechDwgViewMgmt
 90
    32768
280
     0
281
     0
  0
CLASS
  1
ACDMDISPLAYATTRIBS
  2
AcDmDisplayAttribs
  3
AcMechDwgViewMgmt
 90
    32768
280
     0
281
     0
  0
CLASS
  1
ACDMBODYINSTANCEDATA
  2
AcDmBodyInstanceData
  3
AcMechDwgViewMgmt
 90
    32768
280
     0
281
     0
  0
CLASS
  1
ACDMVWEDLINE
  2
AcDmViewEdgeLine
  3
AcMechDwgViewMgmt
 90
    32768
280
     0
281
     1
  0
CLASS
  1
ACDMVWEDARC
  2
AcDmViewEdgeArc
  3
AcMechDwgViewMgmt
 90
    32768
280
     0
281
     1
  0
CLASS
  1
ACADSKETCHPOINTRES
  2
AcAdSketchPointRes
  3
DesignerServices
 90
    32768
280
     0
281
     0
  0
CLASS
  1
AM_VIEWDIMLINEAR
  2
AcDmViewDimLinear
  3
AcMechDwgViewMgmt
 90
    32768
280
     0
281
     0
  0
CLASS
  1
AMDTDMPARMAPDATA
  2
AmdtDmDimParMapData
  3
AcMechDwgViewMgmt
 90
    32768
280
     0
281
     0
  0
CLASS
  1
AM_ADLINCTRLINE
  2
AcAdLineCl
  3
DesignerServices
 90
    32768
280
     0
281
     0
  0
CLASS
  1
ACDMVWEDCIRC
  2
AcDmViewEdgeCircle
  3
AcMechDwgViewMgmt
 90
    32768
280
     0
281
     1
  0
CLASS
  1
AM_ADCIRCTRLINE
  2
AcAdBullsEyeCl
  3
DesignerServices
 90
    32768
280
     0
281
     0
  0
CLASS
  1
AD_CIRCTAPH
  2
AcAdTapHoleCircDisp
  3
DesignerServices
 90
    32768
280
     0
281
     0
  0
CLASS
  1
ACDMVIEWGEOM
  2
AcDmViewGeometry
  3
AcMechDwgViewMgmt
 90
    32768
280
     0
281
     1
  0
CLASS
  1
FACEID
  2
AcAdFaceId
  3
DesignerServices
 90
    32768
280
     0
281
     0
  0
CLASS
  1
ACADPARTPLANARFACERES
  2
AcAdPartPlanarFaceRes
  3
AdGrefServices
 90
    32768
280
     0
281
     0
  0
CLASS
  1
AM_GREF_PLANE
  2
AcDmGrefPlnDef
  3
AcMechDwgViewMgmt
 90
    32768
280
     0
281
     0
  0
CLASS
  1
ACADPARTLINEDGRES
  2
AcAdPartLinEdgRes
  3
AdGrefServices
 90
    32768
280
     0
281
     0
  0
CLASS
  1
AM_GREF_AXIS
  2
AcDmGrefAxisDef
  3
AcMechDwgViewMgmt
 90
    32768
280
     0
281
     0
  0
CLASS
  1
AMDTEXTERNALTHREAD
  2
AmdtExternalThreadFeat
  3
DesignerServices
 90
    32768
280
     0
281
     0
  0
CLASS
  1
THREADDISPLAY
  2
AcAdThreadDisplay
  3
DesignerServices
 90
    32768
280
     0
281
     1
  0
CLASS
  1
AD_LINETAPH
  2
AcAdTapHoleLineDisp
  3
DesignerServices
 90
    32768
280
     0
281
     0
  0
CLASS
  1
ADRADDISP
  2
AcAdRadiusDisplay
  3
DesignerServices
 90
    32768
280
     0
281
     1
  0
CLASS
  1
ACDBLINERES
  2
AcDbLineRes
  3
AcGrefServices
 90
    32768
280
     0
281
     0
  0
CLASS
  1
ACADPARTCONICALFACERES
  2
AcAdPartConicalFaceRes
  3
AdGrefServices
 90
    32768
280
     0
281
     0
  0
CLASS
  1
ACDMGREFEDIT
  2
AcDmViewEntityGeomrefEdit
  3
AcMechDwgViewMgmt
 90
    32768
280
     0
281
     0
  0
CLASS
  1
ACDMVIEWLINEDGERES
  2
AcDmViewLinEdgeRes
  3
AcMechDwgViewMgmt
 90
    32768
280
     0
281
     0
  0
CLASS
  1
SILEDGEID
  2
AcAdSilhouetteEdgeId
  3
DesignerServices
 90
    32768
280
     0
281
     0
  0
CLASS
  1
ACADPARTCYLINDERFACERES
  2
AcAdPartCylinderFaceRes
  3
AdGrefServices
 90
    32768
280
     0
281
     0
  0
CLASS
  1
CNRREFID
  2
AcAdCornerId
  3
DesignerServices
 90
    32768
280
     0
281
     0
  0
CLASS
  1
ACADPARTPOINTRES
  2
AcAdPartPointRes
  3
AdGrefServices
 90
    32768
280
     0
281
     0
  0
CLASS
  1
ACADPARTCIRCEDGRES
  2
AcAdPartCircEdgRes
  3
AdGrefServices
 90
    32768
280
     0
281
     0
  0
CLASS
  1
ACRFDMINSADJ
  2
AcRfDMInsAdjuster
  3
AcMechDwgViewMgmt
 90
    32768
280
     0
281
     0
  0
CLASS
  1
AM_VIEWDIMRADIUS
  2
AcDmViewDimRadius
  3
AcMechDwgViewMgmt
 90
    32768
280
     0
281
     0
  0
CLASS
  1
ACADPARTDATUMPLANERES
  2
AcAdPartDatumPlaneRes
  3
AdGrefServices
 90
    32768
280
     0
281
     0
  0
CLASS
  1
AM_FULLPLANESECTION
  2
AcDmFullPlaneSection
  3
AcMechDwgViewMgmt
 90
    32768
280
     0
281
     0
  0
CLASS
  1
AMDTSECTIONSYM
  2
AmdtSectionSym
  3
"AcmSymBB|Product Description: AutoCAD Mechanical 2004 DX|Company: Autodesk"
 90
    33791
280
     0
281
     1
  0
CLASS
  1
AM_VWNOTEADAPTER
  2
AcDmViewAnnotAdapter
  3
AcMechDwgViewMgmt
 90
    32768
280
     0
281
     0
  0
CLASS
  1
AMDTSECTIONSYMLABEL
  2
AmdtSectionSymLabel
  3
"AcmSymBB|Product Description: AutoCAD Mechanical 2004 DX|Company: Autodesk"
 90
    33791
280
     0
281
     1
  0
CLASS
  1
AMDTNOTE
  2
AmdtNote
  3
"AcmSymBB|Product Description: AutoCAD Mechanical 2004 DX|Company: Autodesk"
 90
    33791
280
     0
281
     1
  0
CLASS
  1
DIMASSOC
  2
AcDbDimAssoc
  3
"AcDbDimAssoc|Product Desc:     AcDim ARX App For Dimension|Company:          Autodesk, Inc.|WEB Address:      www.autodesk.com"
 90
        0
280
     0
281
     0
  0
CLASS
  1
TABLESTYLE
  2
AcDbTableStyle
  3
ObjectDBX Classes
 90
     2047
280
     0
281
     0
  0
CLASS
  1
ACAMCONTEXTMODELER
  2
AcAmContextModeler
  3
DesignerAssemblies
 90
        0
280
     0
281
     0
  0
CLASS
  1
AMDTEDGESTANDARDISO13715
  2
AmdtEdgeStdISO13715
  3
"Amdt_StdImp|Product Description: AutoCAD Mechanical 2004 DX|Company: Autodesk"
 90
        0
280
     0
281
     0
  0
CLASS
  1
AMDTNOTETEMPLATEDB
  2
AmdtNoteTemplateDB
  3
AMDT_STDIMP_MODULE_NAME
 90
        0
280
     0
281
     0
  0
CLASS
  1
ACRFATTGENMGR
  2
AcRfAttGeneralMgr
  3
AcAttribServices
 90
        0
280
     0
281
     0
  0
CLASS
  1
ACMDIMBREAKPERSREACTOR
  2
AcmDimBreakPersReactor
  3
amgDimApp().moduleName()
 90
     1023
280
     0
281
     0
  0
ENDSEC
  0
SECTION
  2
TABLES
  0
TABLE
  2
VPORT
  5
1A
330
0
100
AcDbSymbolTable
 70
     3
  0
VPORT
  5
4C40
330
1A
100
AcDbSymbolTableRecord
100
AcDbViewportTableRecord
  2
*Active
 70
     0
 10
0.0
 20
0.0
 11
1.0
 21
1.0
 12
589.6057156724284
 22
-57.43854719468797
 13
0.0
 23
0.0
 14
2.5
 24
2.5
 15
10.0
 25
10.0
 16
0.0
 26
0.0
 36
1.0
 17
0.0
 27
0.0
 37
0.0
 40
200.474073838157
 41
0.9354838709677418
 42
50.0
 43
0.0
 44
0.0
 50
0.0
 51
0.0
 71
     0
 72
   100
 73
     1
 74
     3
 75
     0
 76
     0
 77
     0
 78
     0
281
     0
 65
     0
110
0.0
120
0.0
130
0.0
111
1.0
121
0.0
131
0.0
112
0.0
122
1.0
132
0.0
 79
     0
146
0.0
  0
ENDTAB
  0
TABLE
  2
LTYPE
  5
15
330
0
100
AcDbSymbolTable
 70
    15
  0
LTYPE
  5
16
330
15
100
AcDbSymbolTableRecord
100
AcDbLinetypeTableRecord
  2
ByBlock
 70
     0
  3

 72
    65
 73
     0
 40
0.0
  0
LTYPE
  5
17
330
15
100
AcDbSymbolTableRecord
100
AcDbLinetypeTableRecord
  2
ByLayer
 70
     0
  3

 72
    65
 73
     0
 40
0.0
  0
LTYPE
  5
9
330
15
100
AcDbSymbolTableRecord
100
AcDbLinetypeTableRecord
  2
Continuous
 70
     0
  3
Solid line
 72
    65
 73
     0
 40
0.0
  0
LTYPE
  5
161
330
15
100
AcDbSymbolTableRecord
100
AcDbLinetypeTableRecord
  2
HIDDEN
 70
     0
  3
Hidden __ __ __ __ __ __ __ __ __ __ __ __ __ _
 72
    65
 73
     2
 40
9.524999999999998
 49
6.349999999999999
 74
     0
 49
-3.174999999999999
 74
     0
  0
LTYPE
  5
BF
330
15
100
AcDbSymbolTableRecord
100
AcDbLinetypeTableRecord
  2
AM_ISO08W050
 70
     0
  3
____ . ____ . ____ . ____ . ____ . ____ . ____
 72
    65
 73
     4
 40
18.0
 49
12.0
 74
     0
 49
-1.5
 74
     0
 49
3.0
 74
     0
 49
-1.5
 74
     0
  0
LTYPE
  5
1FD
330
15
100
AcDbSymbolTableRecord
100
AcDbLinetypeTableRecord
  2
AM_ISO02W050
 70
     0
  3
__ __ __ __ __ __ __ __ __ __ __ __ __ __ __
 72
    65
 73
     2
 40
7.5
 49
6.0
 74
     0
 49
-1.5
 74
     0
  0
LTYPE
  5
1FE
330
15
100
AcDbSymbolTableRecord
100
AcDbLinetypeTableRecord
  2
AM_ISO09W050
 70
     0
  3
_____ . . _____ . . _____ . . ____ .. ____
 72
    65
 73
     6
 40
22.5
 49
12.0
 74
     0
 49
-1.5
 74
     0
 49
3.0
 74
     0
 49
-1.5
 74
     0
 49
3.0
 74
     0
 49
-1.5
 74
     0
  0
LTYPE
  5
1FF
330
15
100
AcDbSymbolTableRecord
100
AcDbLinetypeTableRecord
  2
Amconstr
 70
     0
  3
_______________________
 72
    65
 73
     2
 40
9999.0
 49
9999.0
 74
     0
 49
0.0
 74
     0
  0
LTYPE
  5
200
330
15
100
AcDbSymbolTableRecord
100
AcDbLinetypeTableRecord
  2
AM_ISO08W050x2
 70
     0
  3
__ . __ . __ . __ . __ . __
 72
    65
 73
     4
 40
9.0
 49
6.0
 74
     0
 49
-0.75
 74
     0
 49
1.5
 74
     0
 49
-0.75
 74
     0
  0
LTYPE
  5
201
330
15
100
AcDbSymbolTableRecord
100
AcDbLinetypeTableRecord
  2
AM_ISO02W050x2
 70
     0
  3
 _ _ _ _ _ _ _ _ _ _ _ _
 72
    65
 73
     2
 40
3.75
 49
3.0
 74
     0
 49
-0.75
 74
     0
  0
LTYPE
  5
204
330
15
100
AcDbSymbolTableRecord
100
AcDbLinetypeTableRecord
  2
Amzigzag
 70
     0
  3
/\/-/\/-/\/-/\/-/\/-/\/
 72
    65
 73
     2
 40
11.0001
 49
0.0001
 74
     4
 75
   135
340
203
 46
0.04
 50
0.0
 44
0.0
 45
0.0
 49
-11.0
 74
     0
  0
LTYPE
  5
211
330
15
100
AcDbSymbolTableRecord
100
AcDbLinetypeTableRecord
  2
ACISOWELD
 70
     0
  3
_ _ _ _ _
 72
    65
 73
     2
 40
2.0
 49
2.0
 74
     0
 49
-1.0
 74
     0
  0
LTYPE
  5
212
330
15
100
AcDbSymbolTableRecord
100
AcDbLinetypeTableRecord
  2
ACISOTGB
 70
     0
  3
__ . . __ . .
 72
    65
 73
     6
 40
9.0
 49
4.0
 74
     0
 49
-1.0
 74
     0
 49
1.0
 74
     0
 49
-1.0
 74
     0
 49
1.0
 74
     0
 49
-1.0
 74
     0
  0
LTYPE
  5
213
330
15
100
AcDbSymbolTableRecord
100
AcDbLinetypeTableRecord
  2
ACISOTGL
 70
     0
  3
_ _ _ _ _
 72
    65
 73
     2
 40
3.0
 49
2.0
 74
     0
 49
-1.0
 74
     0
  0
LTYPE
  5
214
330
15
100
AcDbSymbolTableRecord
100
AcDbLinetypeTableRecord
  2
CENTER
 70
     0
  3
__ . __
 72
    65
 73
     4
 40
7.0
 49
4.0
 74
     0
 49
-1.0
 74
     0
 49
1.0
 74
     0
 49
-1.0
 74
     0
  0
LTYPE
  5
2325
330
15
100
AcDbSymbolTableRecord
100
AcDbLinetypeTableRecord
  2
PHANTOM2
 70
     0
  3
Phantom (.5x) ___ _ _ ___ _ _ ___ _ _ ___ _ _
 72
    65
 73
     6
 40
31.75
 49
15.875
 74
     0
 49
-3.174999999999999
 74
     0
 49
3.174999999999999
 74
     0
 49
-3.174999999999999
 74
     0
 49
3.174999999999999
 74
     0
 49
-3.174999999999999
 74
     0
  0
LTYPE
  5
3014
330
15
100
AcDbSymbolTableRecord
100
AcDbLinetypeTableRecord
  2
HIDDEN2
 70
     0
  3
Hidden (.5x) _ _ _ _ _ _ _ _ _ _ _ _ _ _ _ _ _
 72
    65
 73
     2
 40
0.1875
 49
0.125
 74
     0
 49
-0.0625
 74
     0
  0
ENDTAB
  0
TABLE
  2
LAYER
  5
11
102
{ACAD_XDICTIONARY
360
2434
102
}
330
0
100
AcDbSymbolTable
 70
     9
  0
LAYER
  5
5
330
11
100
AcDbSymbolTableRecord
100
AcDbLayerTableRecord
  2
0
 70
     0
 62
     7
  6
Continuous
370
    -3
390
6
  0
LAYER
  5
3B
330
11
100
AcDbSymbolTableRecord
100
AcDbLayerTableRecord
  2
Defpoints
 70
     0
 62
     7
  6
Continuous
290
     0
370
    -3
390
6
  0
LAYER
  5
14E
330
11
100
AcDbSymbolTableRecord
100
AcDbLayerTableRecord
  2
AM_5
 70
     0
 62
     3
  6
Continuous
370
    25
390
6
  0
LAYER
  5
158
330
11
100
AcDbSymbolTableRecord
100
AcDbLayerTableRecord
  2
AM_VIS
 70
     0
 62
     7
  6
Continuous
370
    50
390
6
  0
LAYER
  5
32
330
11
100
AcDbSymbolTableRecord
100
AcDbLayerTableRecord
  2
AM_PARDIM
 70
     0
 62
     5
  6
Continuous
370
    25
390
6
  0
LAYER
  5
BE
330
11
100
AcDbSymbolTableRecord
100
AcDbLayerTableRecord
  2
AM_7
 70
     0
 62
     1
  6
AM_ISO08W050
370
    25
390
6
  0
LAYER
  5
11A7
330
11
100
AcDbSymbolTableRecord
100
AcDbLayerTableRecord
  2
LOGO
 70
     0
 62
     7
  6
Continuous
370
    -3
390
6
  0
LAYER
  5
242D
330
11
100
AcDbSymbolTableRecord
100
AcDbLayerTableRecord
  2
AM_REFDIM
 70
     0
 62
     5
  6
Continuous
370
    25
390
6
  0
LAYER
  5
3015
330
11
100
AcDbSymbolTableRecord
100
AcDbLayerTableRecord
  2
AM_4
 70
     0
 62
     3
  6
Continuous
370
    25
390
6
  0
ENDTAB
  0
TABLE
  2
STYLE
  5
12
330
0
100
AcDbSymbolTable
 70
     5
  0
STYLE
  5
13
330
12
100
AcDbSymbolTableRecord
100
AcDbTextStyleTableRecord
  2
STANDARD
 70
     0
 40
0.0
 41
1.0
 50
0.0
 71
     0
 42
2.5
  3
ISOCP.SHX
  4
CHINESET.SHX
  0
STYLE
  5
152
330
12
100
AcDbSymbolTableRecord
100
AcDbTextStyleTableRecord
  2
ACISOTS
 70
     0
 40
1.0
 41
1.0
 50
0.0
 71
     0
 42
2.5
  3
isocp.shx
  4
chineset.shx
  0
STYLE
  5
203
330
12
100
AcDbSymbolTableRecord
100
AcDbTextStyleTableRecord
  2

 70
     1
 40
0.0
 41
1.0
 50
0.0
 71
     0
 42
2.5
  3
ltypeshp.shx
  4

  0
STYLE
  5
210
330
12
100
AcDbSymbolTableRecord
100
AcDbTextStyleTableRecord
  2
ACISOGDT
 70
     0
 40
0.0
 41
1.0
 50
0.0
 71
     0
 42
2.5
  3
amgdt.shx
  4

  0
STYLE
  5
356
330
12
100
AcDbSymbolTableRecord
100
AcDbTextStyleTableRecord
  2
CHINESET
 70
     0
 40
0.0
 41
1.0
 50
0.0
 71
     0
 42
2.5
  3
simplex.shx
  4
CHINESET.shx
  0
ENDTAB
  0
TABLE
  2
VIEW
  5
18
330
0
100
AcDbSymbolTable
 70
     0
  0
ENDTAB
  0
TABLE
  2
UCS
  5
19
330
0
100
AcDbSymbolTable
 70
     0
  0
ENDTAB
  0
TABLE
  2
APPID
  5
1C
330
0
100
AcDbSymbolTable
 70
    28
  0
APPID
  5
1D
330
1C
100
AcDbSymbolTableRecord
100
AcDbRegAppTableRecord
  2
ACAD
 70
     0
  0
APPID
  5
41
330
1C
100
AcDbSymbolTableRecord
100
AcDbRegAppTableRecord
  2
AD_SKETCHDIM
 70
     0
  0
APPID
  5
42
330
1C
100
AcDbSymbolTableRecord
100
AcDbRegAppTableRecord
  2
ACAD_DIMASSOC_DIMLFAC
 70
     0
  0
APPID
  5
40
330
1C
100
AcDbSymbolTableRecord
100
AcDbRegAppTableRecord
  2
ACAD_DIMASSOC_CALC_DIMLFAC
 70
     0
  0
APPID
  5
1DF
330
1C
100
AcDbSymbolTableRecord
100
AcDbRegAppTableRecord
  2
MCAD_NO_VIS
 70
     0
  0
APPID
  5
1E0
330
1C
100
AcDbSymbolTableRecord
100
AcDbRegAppTableRecord
  2
ACAD_TEMP_GRAPHIC
 70
     0
  0
APPID
  5
1F1
330
1C
100
AcDbSymbolTableRecord
100
AcDbRegAppTableRecord
  2
ACATTRIBSERVICES
 70
     0
  0
APPID
  5
CAF
330
1C
100
AcDbSymbolTableRecord
100
AcDbRegAppTableRecord
  2
GENIUS_GENODEF_13
 70
     0
  0
APPID
  5
CB0
330
1C
100
AcDbSymbolTableRecord
100
AcDbRegAppTableRecord
  2
GENIUS_GENOBJ-N-DIM_13
 70
     0
  0
APPID
  5
CBC
330
1C
100
AcDbSymbolTableRecord
100
AcDbRegAppTableRecord
  2
GENIUS_GENDIM_13
 70
     0
  0
APPID
  5
CDC
330
1C
100
AcDbSymbolTableRecord
100
AcDbRegAppTableRecord
  2
GENIUS_GENDIMSH_14
 70
     0
  0
APPID
  5
E3C
330
1C
100
AcDbSymbolTableRecord
100
AcDbRegAppTableRecord
  2
GENIUS_GENOBJ-N-HTC_13
 70
     0
  0
APPID
  5
E3D
330
1C
100
AcDbSymbolTableRecord
100
AcDbRegAppTableRecord
  2
GENIUS_GENHATCH_13
 70
     0
  0
APPID
  5
E59
330
1C
100
AcDbSymbolTableRecord
100
AcDbRegAppTableRecord
  2
DCO15
 70
     0
  0
APPID
  5
19D0
330
1C
100
AcDbSymbolTableRecord
100
AcDbRegAppTableRecord
  2
GENIUS_GENOREF_13
 70
     0
  0
APPID
  5
19D1
330
1C
100
AcDbSymbolTableRecord
100
AcDbRegAppTableRecord
  2
GENIUS_GENOENT_13
 70
     0
  0
APPID
  5
19D2
330
1C
100
AcDbSymbolTableRecord
100
AcDbRegAppTableRecord
  2
GENIUS_GENOLIS_13
 70
     0
  0
APPID
  5
19D3
330
1C
100
AcDbSymbolTableRecord
100
AcDbRegAppTableRecord
  2
GENIUS_GENOBJ-N-CRS_13
 70
     0
  0
APPID
  5
19D4
330
1C
100
AcDbSymbolTableRecord
100
AcDbRegAppTableRecord
  2
GENIUS_GENOBJ-N-CEN_13
 70
     0
  0
APPID
  5
2327
330
1C
100
AcDbSymbolTableRecord
100
AcDbRegAppTableRecord
  2
AD_DRAW
 70
     0
  0
APPID
  5
2345
330
1C
100
AcDbSymbolTableRecord
100
AcDbRegAppTableRecord
  2
DESIGNERASSEMBLIES
 70
     0
  0
APPID
  5
234A
330
1C
100
AcDbSymbolTableRecord
100
AcDbRegAppTableRecord
  2
ACADM_DIM_EDIT
 70
     0
  0
APPID
  5
234B
330
1C
100
AcDbSymbolTableRecord
100
AcDbRegAppTableRecord
  2
AMDT_DM_ADJ
 70
     0
  0
APPID
  5
2432
330
1C
100
AcDbSymbolTableRecord
100
AcDbRegAppTableRecord
  2
GENIUS_GENDTOL_13
 70
     0
  0
APPID
  5
2433
330
1C
100
AcDbSymbolTableRecord
100
AcDbRegAppTableRecord
  2
ACAD_PSEXT
 70
     0
  0
APPID
  5
2AA8
330
1C
100
AcDbSymbolTableRecord
100
AcDbRegAppTableRecord
  2
GENIUS_GENREC_14
 70
     0
  0
APPID
  5
2AA9
330
1C
100
AcDbSymbolTableRecord
100
AcDbRegAppTableRecord
  2
GENIUS_GENOBJ-N-REC_13
 70
     0
  0
APPID
  5
37CD
330
1C
100
AcDbSymbolTableRecord
100
AcDbRegAppTableRecord
  2
ACAD_DSTYLE_DIMTEXT_FILL
 70
     0
  0
ENDTAB
  0
TABLE
  2
DIMSTYLE
  5
1E
330
0
100
AcDbSymbolTable
 70
    10
100
AcDbDimStyleTable
 71
     2
340
11AA
340
1F
  0
DIMSTYLE
105
1F
330
1E
100
AcDbSymbolTableRecord
100
AcDbDimStyleTableRecord
  2
AM_ISO
 70
     0
  4
"
 41
3.0
 42
1.5
 43
7.0
 44
1.5
 47
0.1
 48
0.1
 73
     0
 74
     0
 77
     1
 78
     8
 79
     2
140
3.5
141
0.0
143
0.0393701
146
0.71
147
1.0
172
     1
176
   256
177
   256
178
   256
271
     2
272
     2
283
     0
284
     8
285
     8
340
13
371
    -1
372
    -1
  0
DIMSTYLE
105
217
102
{ACAD_REACTORS
330
36E8
102
}
330
1E
100
AcDbSymbolTableRecord
100
AcDbDimStyleTableRecord
  2
AM_ISO$3
 70
     0
  4
"
 41
3.0
 42
1.5
 43
7.0
 44
1.5
 47
0.1
 48
0.1
 73
     0
 77
     1
 78
     8
 79
     2
140
3.5
141
0.0
143
0.0393701
146
0.71
147
1.0
176
   256
177
   256
178
   256
271
     2
272
     2
283
     0
284
     8
285
     8
288
     1
289
     0
340
13
371
    -1
372
    -1
  0
DIMSTYLE
105
218
330
1E
100
AcDbSymbolTableRecord
100
AcDbDimStyleTableRecord
  2
AM_ISO$4
 70
     0
  4
"
 41
3.0
 42
1.5
 43
7.0
 44
1.5
 47
0.1
 48
0.1
 73
     0
 77
     1
 78
     8
 79
     2
140
3.5
141
0.0
143
0.0393701
146
0.71
147
1.0
176
   256
177
   256
178
   256
271
     2
272
     2
283
     0
284
     8
285
     8
288
     1
289
     0
340
13
371
    -1
372
    -1
  0
DIMSTYLE
105
219
330
1E
100
AcDbSymbolTableRecord
100
AcDbDimStyleTableRecord
  2
AM_ISO$6
 70
     0
  4
"
 41
3.0
 42
1.5
 43
7.0
 44
1.5
 47
0.1
 48
0.1
 73
     0
 74
     0
 78
     8
 79
     2
140
3.5
141
0.0
143
0.0393701
146
0.71
147
1.0
172
     1
176
   256
177
   256
178
   256
271
     2
272
     2
283
     0
284
     8
285
     8
340
13
371
    -1
372
    -1
  0
DIMSTYLE
105
21A
330
1E
100
AcDbSymbolTableRecord
100
AcDbDimStyleTableRecord
  2
AM_ISO$7
 70
     0
  4
"
 41
2.5
 42
1.5
 43
7.0
 44
1.5
 47
0.1
 48
0.1
 73
     0
 74
     0
 77
     1
 78
     8
 79
     2
140
3.5
141
0.0
143
0.0393701
146
0.71
147
1.5
172
     1
176
   256
177
   256
178
   256
271
     2
272
     2
283
     0
284
     8
285
     8
340
13
371
    -1
372
    -1
  0
DIMSTYLE
105
21B
330
1E
100
AcDbSymbolTableRecord
100
AcDbDimStyleTableRecord
  2
AM_ISO$SF
 70
     0
  4
"
 41
3.0
 42
2.0
 43
5.0
 44
1.5
 47
0.1
 48
0.1
 73
     0
 74
     0
 75
     1
 76
     1
 77
     1
 78
     8
 79
     2
140
3.0
141
0.0
143
0.0393701
146
0.71
147
1.0
172
     1
176
   256
177
   256
178
     5
271
     2
272
     2
283
     0
284
     8
340
13
371
    -1
372
    -1
  0
DIMSTYLE
105
220
330
1E
100
AcDbSymbolTableRecord
100
AcDbDimStyleTableRecord
  2
AM_ISO$SH
 70
     0
  4
"
 41
3.0
 42
2.0
 43
5.0
 44
1.5
 47
0.1
 48
0.1
 73
     0
 74
     0
 75
     1
 76
     1
 77
     1
 78
     8
 79
     2
140
3.0
141
0.0
143
0.0393701
144
2.0
146
0.71
147
1.0
172
     1
173
     1
176
   256
177
   256
178
     5
271
     2
272
     2
283
     0
284
     8
340
13
341
21C
343
21C
371
    -1
372
    -1
  0
DIMSTYLE
105
11AA
102
{ACAD_REACTORS
330
330D
330
42AC
330
447C
330
3309
330
4156
330
4410
330
46A1
330
4782
102
}
330
1E
100
AcDbSymbolTableRecord
100
AcDbDimStyleTableRecord
  2
STANDARD
 70
     0
 40
0.7
 41
3.0
 42
1.0
 43
6.5
 44
1.0
 47
0.01
 48
0.01
 73
     0
 74
     0
 77
     1
 78
     8
 79
     2
140
3.5
141
0.0
146
0.6
147
0.8
172
     1
176
   256
177
   256
178
   256
271
     2
272
     2
284
     8
340
356
371
    -1
372
    -1
  0
DIMSTYLE
105
2431
102
{ACAD_REACTORS
330
31
330
43
330
52
330
5F
330
6C
330
79
330
86
330
95
330
A3
330
B0
102
}
330
1E
100
AcDbSymbolTableRecord
100
AcDbDimStyleTableRecord
  2
AM_ISO$0
 70
     0
  4
"
 41
3.0
 42
1.0
 43
7.0
 44
1.0
 47
0.1
 48
0.1
 73
     0
 74
     0
 77
     1
 78
     8
 79
     2
140
3.5
141
0.0
143
0.0393701
146
0.71
147
1.0
172
     1
176
   256
177
   256
178
   256
271
     2
272
     2
283
     0
284
     8
285
     8
340
13
371
    -1
372
    -1
  0
DIMSTYLE
105
49E2
102
{ACAD_REACTORS
330
330D
330
392E
330
3A75
330
3A59
330
42AC
330
447C
330
3309
330
4156
330
4410
330
4035
330
46A1
330
474E
330
4782
330
49E6
330
409B
330
3B11
102
}
330
1E
100
AcDbSymbolTableRecord
100
AcDbDimStyleTableRecord
  2
STANDARD$0
 70
     0
 40
0.7
 41
3.0
 42
1.0
 43
6.5
 44
1.0
 47
0.01
 48
0.01
 73
     0
 74
     0
 77
     1
 78
     8
 79
     2
140
3.5
141
0.0
146
0.6
147
0.8
172
     1
176
   256
177
   256
178
   256
271
     2
272
     2
284
     8
340
356
371
    -1
372
    -1
  0
ENDTAB
  0
TABLE
  2
BLOCK_RECORD
  5
1
330
0
100
AcDbSymbolTable
 70
    29
  0
BLOCK_RECORD
  5
2
102
{ACAD_XDICTIONARY
360
3
102
}
330
1
100
AcDbSymbolTableRecord
100
AcDbBlockTableRecord
  2
*Model_Space
340
B
  0
BLOCK_RECORD
  5
D
102
{ACAD_XDICTIONARY
360
1848
102
}
330
1
100
AcDbSymbolTableRecord
100
AcDbBlockTableRecord
  2
*Paper_Space
340
10
  0
BLOCK_RECORD
  5
21C
330
1
100
AcDbSymbolTableRecord
100
AcDbBlockTableRecord
  2
GENAXEH
340
0
  0
BLOCK_RECORD
  5
F83
330
1
100
AcDbSymbolTableRecord
100
AcDbBlockTableRecord
  2
*D1
340
0
  0
BLOCK_RECORD
  5
F8F
330
1
100
AcDbSymbolTableRecord
100
AcDbBlockTableRecord
  2
*D2
340
0
  0
BLOCK_RECORD
  5
F9D
330
1
100
AcDbSymbolTableRecord
100
AcDbBlockTableRecord
  2
*D3
340
0
  0
BLOCK_RECORD
  5
FA9
330
1
100
AcDbSymbolTableRecord
100
AcDbBlockTableRecord
  2
*D4
340
0
  0
BLOCK_RECORD
  5
FB5
330
1
100
AcDbSymbolTableRecord
100
AcDbBlockTableRecord
  2
*D5
340
0
  0
BLOCK_RECORD
  5
FC1
330
1
100
AcDbSymbolTableRecord
100
AcDbBlockTableRecord
  2
*D6
340
0
  0
BLOCK_RECORD
  5
FCD
330
1
100
AcDbSymbolTableRecord
100
AcDbBlockTableRecord
  2
*D7
340
0
  0
BLOCK_RECORD
  5
FDB
330
1
100
AcDbSymbolTableRecord
100
AcDbBlockTableRecord
  2
*D8
340
0
  0
BLOCK_RECORD
  5
FE8
330
1
100
AcDbSymbolTableRecord
100
AcDbBlockTableRecord
  2
*D9
340
0
  0
BLOCK_RECORD
  5
FF4
330
1
100
AcDbSymbolTableRecord
100
AcDbBlockTableRecord
  2
*D10
340
0
  0
BLOCK_RECORD
  5
35C0
330
1
100
AcDbSymbolTableRecord
100
AcDbBlockTableRecord
  2
*D12
340
0
  0
BLOCK_RECORD
  5
35F4
330
1
100
AcDbSymbolTableRecord
100
AcDbBlockTableRecord
  2
*D13
340
0
  0
BLOCK_RECORD
  5
36E9
330
1
100
AcDbSymbolTableRecord
100
AcDbBlockTableRecord
  2
*D14
340
0
  0
BLOCK_RECORD
  5
392F
330
1
100
AcDbSymbolTableRecord
100
AcDbBlockTableRecord
  2
*D15
340
0
  0
BLOCK_RECORD
  5
3A5A
330
1
100
AcDbSymbolTableRecord
100
AcDbBlockTableRecord
  2
*D16
340
0
  0
BLOCK_RECORD
  5
3A76
330
1
100
AcDbSymbolTableRecord
100
AcDbBlockTableRecord
  2
*D17
340
0
  0
BLOCK_RECORD
  5
3B12
330
1
100
AcDbSymbolTableRecord
100
AcDbBlockTableRecord
  2
*D18
340
0
  0
BLOCK_RECORD
  5
4036
330
1
100
AcDbSymbolTableRecord
100
AcDbBlockTableRecord
  2
*D19
340
0
  0
BLOCK_RECORD
  5
409C
330
1
100
AcDbSymbolTableRecord
100
AcDbBlockTableRecord
  2
*D20
340
0
  0
BLOCK_RECORD
  5
4157
330
1
100
AcDbSymbolTableRecord
100
AcDbBlockTableRecord
  2
*D21
340
0
  0
BLOCK_RECORD
  5
42AD
330
1
100
AcDbSymbolTableRecord
100
AcDbBlockTableRecord
  2
*D22
340
0
  0
BLOCK_RECORD
  5
4411
330
1
100
AcDbSymbolTableRecord
100
AcDbBlockTableRecord
  2
*D23
340
0
  0
BLOCK_RECORD
  5
447D
330
1
100
AcDbSymbolTableRecord
100
AcDbBlockTableRecord
  2
*D24
340
0
  0
BLOCK_RECORD
  5
46A2
330
1
100
AcDbSymbolTableRecord
100
AcDbBlockTableRecord
  2
*D25
340
0
  0
BLOCK_RECORD
  5
474F
330
1
100
AcDbSymbolTableRecord
100
AcDbBlockTableRecord
  2
*D26
340
0
  0
BLOCK_RECORD
  5
4783
330
1
100
AcDbSymbolTableRecord
100
AcDbBlockTableRecord
  2
*D27
340
0
  0
BLOCK_RECORD
  5
49E7
330
1
100
AcDbSymbolTableRecord
100
AcDbBlockTableRecord
  2
*D28
340
0
  0
ENDTAB
  0
ENDSEC
  0
SECTION
  2
BLOCKS
  0
BLOCK
  5
4
330
2
100
AcDbEntity
  8
0
100
AcDbBlockBegin
  2
*Model_Space
 70
     0
 10
0.0
 20
0.0
 30
0.0
  3
*Model_Space
  1

  0
ENDBLK
  5
A
330
2
100
AcDbEntity
  8
0
100
AcDbBlockEnd
  0
BLOCK
  5
E
330
D
100
AcDbEntity
 67
     1
  8
0
100
AcDbBlockBegin
  2
*Paper_Space
 70
     0
 10
0.0
 20
0.0
 30
0.0
  3
*Paper_Space
  1

  0
ENDBLK
  5
F
330
D
100
AcDbEntity
 67
     1
  8
0
100
AcDbBlockEnd
  0
BLOCK
  5
21E
330
21C
100
AcDbEntity
  8
0
100
AcDbBlockBegin
  2
GENAXEH
 70
     0
 10
0.0
 20
0.0
 30
0.0
  3
GENAXEH
  1

  0
LINE
  5
21D
330
21C
100
AcDbEntity
  8
0
100
AcDbLine
 10
-1.0
 20
0.0
 30
0.0
 11
1.0
 21
0.0
 31
0.0
  0
ENDBLK
  5
21F
330
21C
100
AcDbEntity
  8
0
100
AcDbBlockEnd
  0
BLOCK
  5
F8D
330
F83
100
AcDbEntity
  8
0
100
AcDbBlockBegin
  2
*D1
 70
     1
 10
0.0
 20
0.0
 30
0.0
  3
*D1
  1

  0
LINE
  5
3896
330
F83
100
AcDbEntity
  8
AM_PARDIM
100
AcDbLine
 10
76.3746488765642
 20
116.1938113892625
 30
0.0
 11
115.5325708695175
 21
116.1938113892625
 31
0.0
  0
LINE
  5
3897
330
F83
100
AcDbEntity
  8
AM_PARDIM
100
AcDbLine
 10
76.3746488765642
 20
128.6938113892625
 30
0.0
 11
115.5325708695175
 21
128.6938113892625
 31
0.0
  0
LINE
  5
3898
330
F83
100
AcDbEntity
  8
AM_PARDIM
100
AcDbLine
 10
114.5325708695175
 20
119.1938113892625
 30
0.0
 11
114.5325708695175
 21
125.6938113892625
 31
0.0
  0
SOLID
  5
3899
330
F83
100
AcDbEntity
  8
AM_PARDIM
100
AcDbTrace
 10
114.0325708695175
 20
119.1938113892625
 30
0.0
 11
115.0325708695175
 21
119.1938113892625
 31
0.0
 12
114.5325708695175
 22
116.1938113892625
 32
0.0
 13
114.5325708695175
 23
116.1938113892625
 33
0.0
  0
SOLID
  5
389A
330
F83
100
AcDbEntity
  8
AM_PARDIM
100
AcDbTrace
 10
114.0325708695175
 20
125.6938113892625
 30
0.0
 11
115.0325708695175
 21
125.6938113892625
 31
0.0
 12
114.5325708695175
 22
128.6938113892625
 32
0.0
 13
114.5325708695175
 23
128.6938113892625
 33
0.0
  0
MTEXT
  5
389B
330
F83
100
AcDbEntity
  8
AM_PARDIM
100
AcDbMText
 10
111.7822263813285
 20
122.4438113892625
 30
0.0
 40
3.5
 41
0.0
 71
     5
 72
     1
  1
12.5
 11
0.0000000000000001
 21
1.0
 31
0.0
 73
     1
 44
1.0
1001
ACAD
1000
MTEXTBEGIN
1070
    73
1070
     1
1070
    44
1040
1.0
1070
    74
1070
     0
1000
MTEXTEND
  0
POINT
  5
389C
330
F83
100
AcDbEntity
  8
Defpoints
 62
     0
100
AcDbPoint
 10
75.37464887656421
 20
116.1938113892625
 30
0.0
  0
POINT
  5
389D
330
F83
100
AcDbEntity
  8
Defpoints
 62
     0
100
AcDbPoint
 10
75.37464887656421
 20
128.6938113892625
 30
0.0
  0
POINT
  5
389E
330
F83
100
AcDbEntity
  8
Defpoints
 62
     0
100
AcDbPoint
 10
114.5325708695175
 20
128.6938113892625
 30
0.0
  0
ENDBLK
  5
F8E
330
F83
100
AcDbEntity
  8
0
100
AcDbBlockEnd
  0
BLOCK
  5
F9B
330
F8F
100
AcDbEntity
  8
0
100
AcDbBlockBegin
  2
*D2
 70
     1
 10
0.0
 20
0.0
 30
0.0
  3
*D2
  1

  0
LINE
  5
389F
330
F8F
100
AcDbEntity
  8
AM_PARDIM
100
AcDbLine
 10
37.87464887656421
 20
116.1938113892625
 30
0.0
 11
25.87464887656421
 21
116.1938113892625
 31
0.0
  0
LINE
  5
38A0
330
F8F
100
AcDbEntity
  8
AM_PARDIM
100
AcDbLine
 10
37.87464887656421
 20
122.1938113892625
 30
0.0
 11
25.87464887656421
 21
122.1938113892625
 31
0.0
  0
LINE
  5
38A1
330
F8F
100
AcDbEntity
  8
AM_PARDIM
100
AcDbLine
 10
26.87464887656421
 20
113.1938113892625
 30
0.0
 11
26.87464887656421
 21
110.1938113892625
 31
0.0
  0
LINE
  5
38A2
330
F8F
100
AcDbEntity
  8
AM_PARDIM
100
AcDbLine
 10
26.87464887656421
 20
125.1938113892625
 30
0.0
 11
26.87464887656421
 21
128.1938113892625
 31
0.0
  0
LINE
  5
38A3
330
F8F
100
AcDbEntity
  8
AM_PARDIM
100
AcDbLine
 10
26.87464887656421
 20
116.1938113892625
 30
0.0
 11
26.87464887656421
 21
122.1938113892625
 31
0.0
  0
SOLID
  5
38A4
330
F8F
100
AcDbEntity
  8
AM_PARDIM
100
AcDbTrace
 10
26.37464887656421
 20
113.1938113892625
 30
0.0
 11
27.3746488765642
 21
113.1938113892625
 31
0.0
 12
26.87464887656421
 22
116.1938113892625
 32
0.0
 13
26.87464887656421
 23
116.1938113892625
 33
0.0
  0
SOLID
  5
38A5
330
F8F
100
AcDbEntity
  8
AM_PARDIM
100
AcDbTrace
 10
26.37464887656421
 20
125.1938113892625
 30
0.0
 11
27.37464887656421
 21
125.1938113892625
 31
0.0
 12
26.87464887656421
 22
122.1938113892625
 32
0.0
 13
26.87464887656421
 23
122.1938113892625
 33
0.0
  0
MTEXT
  5
38A6
330
F8F
100
AcDbEntity
  8
AM_PARDIM
100
AcDbMText
 10
24.12464887656419
 20
119.1938113892625
 30
0.0
 40
3.5
 41
0.0
 71
     5
 72
     1
  1
6
 11
0.0000000000000001
 21
1.0
 31
0.0
 73
     1
 44
1.0
1001
ACAD
1000
MTEXTBEGIN
1070
    73
1070
     1
1070
    44
1040
1.0
1070
    74
1070
     0
1000
MTEXTEND
  0
POINT
  5
38A7
330
F8F
100
AcDbEntity
  8
Defpoints
 62
     0
100
AcDbPoint
 10
38.87464887656421
 20
116.1938113892625
 30
0.0
  0
POINT
  5
38A8
330
F8F
100
AcDbEntity
  8
Defpoints
 62
     0
100
AcDbPoint
 10
38.87464887656421
 20
122.1938113892625
 30
0.0
  0
POINT
  5
38A9
330
F8F
100
AcDbEntity
  8
Defpoints
 62
     0
100
AcDbPoint
 10
26.87464887656421
 20
122.1938113892625
 30
0.0
  0
ENDBLK
  5
F9C
330
F8F
100
AcDbEntity
  8
0
100
AcDbBlockEnd
  0
BLOCK
  5
FA7
330
F9D
100
AcDbEntity
  8
0
100
AcDbBlockBegin
  2
*D3
 70
     1
 10
0.0
 20
0.0
 30
0.0
  3
*D3
  1

  0
LINE
  5
38AA
330
F9D
100
AcDbEntity
  8
AM_PARDIM
100
AcDbLine
 10
38.87464887656421
 20
123.1938113892625
 30
0.0
 11
38.87464887656421
 21
141.6938113892625
 31
0.0
  0
LINE
  5
38AB
330
F9D
100
AcDbEntity
  8
AM_PARDIM
100
AcDbLine
 10
50.87464887656421
 20
123.1938113892625
 30
0.0
 11
50.87464887656421
 21
141.6938113892625
 31
0.0
  0
LINE
  5
38AC
330
F9D
100
AcDbEntity
  8
AM_PARDIM
100
AcDbLine
 10
41.8746488765642
 20
140.6938113892625
 30
0.0
 11
47.87464887656421
 21
140.6938113892625
 31
0.0
  0
SOLID
  5
38AD
330
F9D
100
AcDbEntity
  8
AM_PARDIM
100
AcDbTrace
 10
41.8746488765642
 20
141.1938113892625
 30
0.0
 11
41.8746488765642
 21
140.1938113892625
 31
0.0
 12
38.87464887656421
 22
140.6938113892625
 32
0.0
 13
38.87464887656421
 23
140.6938113892625
 33
0.0
  0
SOLID
  5
38AE
330
F9D
100
AcDbEntity
  8
AM_PARDIM
100
AcDbTrace
 10
47.87464887656421
 20
141.1938113892625
 30
0.0
 11
47.87464887656421
 21
140.1938113892625
 31
0.0
 12
50.87464887656421
 22
140.6938113892625
 32
0.0
 13
50.87464887656421
 23
140.6938113892625
 33
0.0
  0
MTEXT
  5
38AF
330
F9D
100
AcDbEntity
  8
AM_PARDIM
100
AcDbMText
 10
44.87464887656421
 20
143.4441558774515
 30
0.0
 40
3.5
 41
0.0
 71
     5
 72
     1
  1
12
 73
     1
 44
1.0
1001
ACAD
1000
MTEXTBEGIN
1070
    73
1070
     1
1070
    44
1040
1.0
1070
    74
1070
     0
1000
MTEXTEND
  0
POINT
  5
38B0
330
F9D
100
AcDbEntity
  8
Defpoints
 62
     0
100
AcDbPoint
 10
38.87464887656421
 20
122.1938113892625
 30
0.0
  0
POINT
  5
38B1
330
F9D
100
AcDbEntity
  8
Defpoints
 62
     0
100
AcDbPoint
 10
50.87464887656421
 20
122.1938113892625
 30
0.0
  0
POINT
  5
38B2
330
F9D
100
AcDbEntity
  8
Defpoints
 62
     0
100
AcDbPoint
 10
50.87464887656421
 20
140.6938113892625
 30
0.0
  0
ENDBLK
  5
FA8
330
F9D
100
AcDbEntity
  8
0
100
AcDbBlockEnd
  0
BLOCK
  5
FB3
330
FA9
100
AcDbEntity
  8
0
100
AcDbBlockBegin
  2
*D4
 70
     1
 10
0.0
 20
0.0
 30
0.0
  3
*D4
  1

  0
LINE
  5
38B3
330
FA9
100
AcDbEntity
  8
AM_PARDIM
100
AcDbLine
 10
38.87464887656421
 20
117.1938113892625
 30
0.0
 11
38.87464887656421
 21
161.6938113892625
 31
0.0
  0
LINE
  5
38B4
330
FA9
100
AcDbEntity
  8
AM_PARDIM
100
AcDbLine
 10
75.37464887656421
 20
117.1938113892625
 30
0.0
 11
75.37464887656421
 21
161.6938113892625
 31
0.0
  0
LINE
  5
38B5
330
FA9
100
AcDbEntity
  8
AM_PARDIM
100
AcDbLine
 10
41.8746488765642
 20
160.6938113892625
 30
0.0
 11
72.37464887656421
 21
160.6938113892625
 31
0.0
  0
SOLID
  5
38B6
330
FA9
100
AcDbEntity
  8
AM_PARDIM
100
AcDbTrace
 10
41.8746488765642
 20
161.1938113892625
 30
0.0
 11
41.8746488765642
 21
160.1938113892625
 31
0.0
 12
38.87464887656421
 22
160.6938113892625
 32
0.0
 13
38.87464887656421
 23
160.6938113892625
 33
0.0
  0
SOLID
  5
38B7
330
FA9
100
AcDbEntity
  8
AM_PARDIM
100
AcDbTrace
 10
72.37464887656421
 20
161.1938113892625
 30
0.0
 11
72.37464887656421
 21
160.1938113892625
 31
0.0
 12
75.37464887656421
 22
160.6938113892625
 32
0.0
 13
75.37464887656421
 23
160.6938113892625
 33
0.0
  0
MTEXT
  5
38B8
330
FA9
100
AcDbEntity
  8
AM_PARDIM
100
AcDbMText
 10
57.12464887656421
 20
163.4438113892625
 30
0.0
 40
3.5
 41
0.0
 71
     5
 72
     1
  1
36.5
 73
     1
 44
1.0
1001
ACAD
1000
MTEXTBEGIN
1070
    73
1070
     1
1070
    44
1040
1.0
1070
    74
1070
     0
1000
MTEXTEND
  0
POINT
  5
38B9
330
FA9
100
AcDbEntity
  8
Defpoints
 62
     0
100
AcDbPoint
 10
38.87464887656421
 20
116.1938113892625
 30
0.0
  0
POINT
  5
38BA
330
FA9
100
AcDbEntity
  8
Defpoints
 62
     0
100
AcDbPoint
 10
75.37464887656421
 20
116.1938113892625
 30
0.0
  0
POINT
  5
38BB
330
FA9
100
AcDbEntity
  8
Defpoints
 62
     0
100
AcDbPoint
 10
75.37464887656421
 20
160.6938113892625
 30
0.0
  0
ENDBLK
  5
FB4
330
FA9
100
AcDbEntity
  8
0
100
AcDbBlockEnd
  0
BLOCK
  5
FBF
330
FB5
100
AcDbEntity
  8
0
100
AcDbBlockBegin
  2
*D5
 70
     1
 10
0.0
 20
0.0
 30
0.0
  3
*D5
  1

  0
LINE
  5
38BC
330
FB5
100
AcDbEntity
  8
AM_PARDIM
100
AcDbLine
 10
51.87464887656421
 20
127.1938113892625
 30
0.0
 11
105.5325708695175
 21
127.1938113892625
 31
0.0
  0
LINE
  5
38BD
330
FB5
100
AcDbEntity
  8
AM_PARDIM
100
AcDbLine
 10
76.3746488765642
 20
116.1938113892625
 30
0.0
 11
105.5325708695175
 21
116.1938113892625
 31
0.0
  0
LINE
  5
38BE
330
FB5
100
AcDbEntity
  8
AM_PARDIM
100
AcDbLine
 10
104.5325708695175
 20
124.1938113892625
 30
0.0
 11
104.5325708695175
 21
119.1938113892625
 31
0.0
  0
SOLID
  5
38BF
330
FB5
100
AcDbEntity
  8
AM_PARDIM
100
AcDbTrace
 10
104.0325708695175
 20
124.1938113892625
 30
0.0
 11
105.0325708695175
 21
124.1938113892625
 31
0.0
 12
104.5325708695175
 22
127.1938113892625
 32
0.0
 13
104.5325708695175
 23
127.1938113892625
 33
0.0
  0
SOLID
  5
38C0
330
FB5
100
AcDbEntity
  8
AM_PARDIM
100
AcDbTrace
 10
104.0325708695175
 20
119.1938113892625
 30
0.0
 11
105.0325708695175
 21
119.1938113892625
 31
0.0
 12
104.5325708695175
 22
116.1938113892625
 32
0.0
 13
104.5325708695175
 23
116.1938113892625
 33
0.0
  0
MTEXT
  5
38C1
330
FB5
100
AcDbEntity
  8
AM_PARDIM
100
AcDbMText
 10
101.7825708695175
 20
121.6938113892625
 30
0.0
 40
3.5
 41
0.0
 71
     5
 72
     1
  1
11
 11
0.0000000000000001
 21
1.0
 31
0.0
 73
     1
 44
1.0
1001
ACAD
1000
MTEXTBEGIN
1070
    73
1070
     1
1070
    44
1040
1.0
1070
    74
1070
     0
1000
MTEXTEND
  0
POINT
  5
38C2
330
FB5
100
AcDbEntity
  8
Defpoints
 62
     0
100
AcDbPoint
 10
50.87464887656421
 20
127.1938113892625
 30
0.0
  0
POINT
  5
38C3
330
FB5
100
AcDbEntity
  8
Defpoints
 62
     0
100
AcDbPoint
 10
75.37464887656421
 20
116.1938113892625
 30
0.0
  0
POINT
  5
38C4
330
FB5
100
AcDbEntity
  8
Defpoints
 62
     0
100
AcDbPoint
 10
104.5325708695175
 20
116.1938113892625
 30
0.0
  0
ENDBLK
  5
FC0
330
FB5
100
AcDbEntity
  8
0
100
AcDbBlockEnd
  0
BLOCK
  5
FCB
330
FC1
100
AcDbEntity
  8
0
100
AcDbBlockBegin
  2
*D6
 70
     1
 10
0.0
 20
0.0
 30
0.0
  3
*D6
  1

  0
LINE
  5
38C5
330
FC1
100
AcDbEntity
  8
AM_PARDIM
100
AcDbLine
 10
66.3746488765642
 20
129.6938113892625
 30
0.0
 11
66.3746488765642
 21
151.6938113892625
 31
0.0
  0
LINE
  5
38C6
330
FC1
100
AcDbEntity
  8
AM_PARDIM
100
AcDbLine
 10
75.37464887656421
 20
129.6938113892625
 30
0.0
 11
75.37464887656421
 21
151.6938113892625
 31
0.0
  0
LINE
  5
38C7
330
FC1
100
AcDbEntity
  8
AM_PARDIM
100
AcDbLine
 10
69.37464887656421
 20
150.6938113892625
 30
0.0
 11
72.37464887656421
 21
150.6938113892625
 31
0.0
  0
SOLID
  5
38C8
330
FC1
100
AcDbEntity
  8
AM_PARDIM
100
AcDbTrace
 10
69.37464887656421
 20
151.1938113892625
 30
0.0
 11
69.37464887656421
 21
150.1938113892625
 31
0.0
 12
66.3746488765642
 22
150.6938113892625
 32
0.0
 13
66.3746488765642
 23
150.6938113892625
 33
0.0
  0
SOLID
  5
38C9
330
FC1
100
AcDbEntity
  8
AM_PARDIM
100
AcDbTrace
 10
72.37464887656421
 20
151.1938113892625
 30
0.0
 11
72.37464887656421
 21
150.1938113892625
 31
0.0
 12
75.37464887656421
 22
150.6938113892625
 32
0.0
 13
75.37464887656421
 23
150.6938113892625
 33
0.0
  0
MTEXT
  5
38CA
330
FC1
100
AcDbEntity
  8
AM_PARDIM
100
AcDbMText
 10
70.87464887656421
 20
153.4438113892625
 30
0.0
 40
3.5
 41
0.0
 71
     5
 72
     1
  1
9
 73
     1
 44
1.0
1001
ACAD
1000
MTEXTBEGIN
1070
    73
1070
     1
1070
    44
1040
1.0
1070
    74
1070
     0
1000
MTEXTEND
  0
POINT
  5
38CB
330
FC1
100
AcDbEntity
  8
Defpoints
 62
     0
100
AcDbPoint
 10
66.3746488765642
 20
128.6938113892625
 30
0.0
  0
POINT
  5
38CC
330
FC1
100
AcDbEntity
  8
Defpoints
 62
     0
100
AcDbPoint
 10
75.37464887656421
 20
128.6938113892625
 30
0.0
  0
POINT
  5
38CD
330
FC1
100
AcDbEntity
  8
Defpoints
 62
     0
100
AcDbPoint
 10
75.37464887656421
 20
150.6938113892625
 30
0.0
  0
ENDBLK
  5
FCC
330
FC1
100
AcDbEntity
  8
0
100
AcDbBlockEnd
  0
BLOCK
  5
FD9
330
FCD
100
AcDbEntity
  8
0
100
AcDbBlockBegin
  2
*D7
 70
     1
 10
0.0
 20
0.0
 30
0.0
  3
*D7
  1

  0
LINE
  5
38CE
330
FCD
100
AcDbEntity
  8
AM_PARDIM
100
AcDbLine
 10
63.87464887656418
 20
129.6938113892624
 30
0.0
 11
63.87464887656418
 21
141.6938113892625
 31
0.0
  0
LINE
  5
38CF
330
FCD
100
AcDbEntity
  8
AM_PARDIM
100
AcDbLine
 10
66.37464887656418
 20
129.6938113892624
 30
0.0
 11
66.37464887656418
 21
141.6938113892625
 31
0.0
  0
LINE
  5
38D0
330
FCD
100
AcDbEntity
  8
AM_PARDIM
100
AcDbLine
 10
60.87464887656418
 20
140.6938113892625
 30
0.0
 11
57.87464887656418
 21
140.6938113892625
 31
0.0
  0
LINE
  5
38D1
330
FCD
100
AcDbEntity
  8
AM_PARDIM
100
AcDbLine
 10
69.37464887656418
 20
140.6938113892625
 30
0.0
 11
79.50850157615066
 21
140.6938113892625
 31
0.0
  0
LINE
  5
38D2
330
FCD
100
AcDbEntity
  8
AM_PARDIM
100
AcDbLine
 10
63.87464887656418
 20
140.6938113892625
 30
0.0
 11
66.37464887656418
 21
140.6938113892625
 31
0.0
  0
SOLID
  5
38D3
330
FCD
100
AcDbEntity
  8
AM_PARDIM
100
AcDbTrace
 10
60.87464887656418
 20
141.1938113892625
 30
0.0
 11
60.87464887656418
 21
140.1938113892625
 31
0.0
 12
63.87464887656418
 22
140.6938113892625
 32
0.0
 13
63.87464887656418
 23
140.6938113892625
 33
0.0
  0
SOLID
  5
38D4
330
FCD
100
AcDbEntity
  8
AM_PARDIM
100
AcDbTrace
 10
69.37464887656418
 20
141.1938113892625
 30
0.0
 11
69.37464887656418
 21
140.1938113892625
 31
0.0
 12
66.37464887656418
 22
140.6938113892625
 32
0.0
 13
66.37464887656418
 23
140.6938113892625
 33
0.0
  0
MTEXT
  5
38D5
330
FCD
100
AcDbEntity
  8
AM_PARDIM
100
AcDbMText
 10
75.94157522635743
 20
143.4441558774515
 30
0.0
 40
3.5
 41
0.0
 71
     5
 72
     1
  1
2.5
 73
     1
 44
1.0
1001
ACAD
1000
MTEXTBEGIN
1070
    73
1070
     1
1070
    44
1040
1.0
1070
    74
1070
     0
1000
MTEXTEND
  0
POINT
  5
38D6
330
FCD
100
AcDbEntity
  8
Defpoints
 62
     0
100
AcDbPoint
 10
63.87464887656418
 20
128.6938113892624
 30
0.0
  0
POINT
  5
38D7
330
FCD
100
AcDbEntity
  8
Defpoints
 62
     0
100
AcDbPoint
 10
66.37464887656418
 20
128.6938113892624
 30
0.0
  0
POINT
  5
38D8
330
FCD
100
AcDbEntity
  8
Defpoints
 62
     0
100
AcDbPoint
 10
66.37464887656418
 20
140.6938113892625
 30
0.0
  0
ENDBLK
  5
FDA
330
FCD
100
AcDbEntity
  8
0
100
AcDbBlockEnd
  0
BLOCK
  5
FE6
330
FDB
100
AcDbEntity
  8
0
100
AcDbBlockBegin
  2
*D8
 70
     1
 10
0.0
 20
0.0
 30
0.0
  3
*D8
  1

  0
LINE
  5
38D9
330
FDB
100
AcDbEntity
  8
AM_PARDIM
100
AcDbLine
 10
66.37464887656418
 20
129.6938113892624
 30
0.0
 11
66.37464887656418
 21
137.030378563861
 31
0.0
  0
LINE
  5
38DA
330
FDB
100
AcDbEntity
  8
AM_PARDIM
100
AcDbLine
 10
66.37464887656418
 20
117.1938113892624
 30
0.0
 11
66.37464887656418
 21
137.030378563861
 31
0.0
  0
LINE
  5
38DB
330
FDB
100
AcDbEntity
  8
AM_PARDIM
100
AcDbLine
 10
63.37464887656418
 20
136.030378563861
 30
0.0
 11
60.37464887656418
 21
136.030378563861
 31
0.0
  0
LINE
  5
38DC
330
FDB
100
AcDbEntity
  8
AM_PARDIM
100
AcDbLine
 10
69.37464887656418
 20
136.030378563861
 30
0.0
 11
75.78016068758779
 21
136.030378563861
 31
0.0
  0
SOLID
  5
38DD
330
FDB
100
AcDbEntity
  8
AM_PARDIM
100
AcDbTrace
 10
63.37464887656418
 20
136.530378563861
 30
0.0
 11
63.37464887656418
 21
135.530378563861
 31
0.0
 12
66.37464887656418
 22
136.030378563861
 32
0.0
 13
66.37464887656418
 23
136.030378563861
 33
0.0
  0
SOLID
  5
38DE
330
FDB
100
AcDbEntity
  8
AM_PARDIM
100
AcDbTrace
 10
69.37464887656418
 20
136.530378563861
 30
0.0
 11
69.37464887656418
 21
135.530378563861
 31
0.0
 12
66.37464887656418
 22
136.030378563861
 32
0.0
 13
66.37464887656418
 23
136.030378563861
 33
0.0
  0
MTEXT
  5
38DF
330
FDB
100
AcDbEntity
  8
AM_PARDIM
100
AcDbMText
 10
74.07740478207599
 20
138.780378563861
 30
0.0
 40
3.5
 41
0.0
 71
     5
 72
     1
  1
0
 73
     1
 44
1.0
1001
ACAD
1000
MTEXTBEGIN
1070
    73
1070
     1
1070
    44
1040
1.0
1070
    74
1070
     0
1000
MTEXTEND
  0
POINT
  5
38E0
330
FDB
100
AcDbEntity
  8
Defpoints
 62
     0
100
AcDbPoint
 10
66.37464887656418
 20
128.6938113892624
 30
0.0
  0
POINT
  5
38E1
330
FDB
100
AcDbEntity
  8
Defpoints
 62
     0
100
AcDbPoint
 10
66.37464887656418
 20
116.1938113892624
 30
0.0
  0
POINT
  5
38E2
330
FDB
100
AcDbEntity
  8
Defpoints
 62
     0
100
AcDbPoint
 10
66.37464887656418
 20
136.030378563861
 30
0.0
  0
ENDBLK
  5
FE7
330
FDB
100
AcDbEntity
  8
0
100
AcDbBlockEnd
  0
BLOCK
  5
FF2
330
FE8
100
AcDbEntity
  8
0
100
AcDbBlockBegin
  2
*D9
 70
     1
 10
0.0
 20
0.0
 30
0.0
  3
*D9
  1

  0
LINE
  5
38E3
330
FE8
100
AcDbEntity
  8
AM_PARDIM
100
AcDbLine
 10
64.87464887656418
 20
125.6938113892624
 30
0.0
 11
95.53257086951754
 21
125.6938113892624
 31
0.0
  0
LINE
  5
38E4
330
FE8
100
AcDbEntity
  8
AM_PARDIM
100
AcDbLine
 10
83.53257086951755
 20
116.1938113892624
 30
0.0
 11
95.53257086951754
 21
116.1938113892624
 31
0.0
  0
LINE
  5
38E5
330
FE8
100
AcDbEntity
  8
AM_PARDIM
100
AcDbLine
 10
94.53257086951754
 20
122.6938113892624
 30
0.0
 11
94.53257086951754
 21
119.1938113892624
 31
0.0
  0
SOLID
  5
38E6
330
FE8
100
AcDbEntity
  8
AM_PARDIM
100
AcDbTrace
 10
94.03257086951754
 20
122.6938113892624
 30
0.0
 11
95.03257086951753
 21
122.6938113892624
 31
0.0
 12
94.53257086951754
 22
125.6938113892624
 32
0.0
 13
94.53257086951754
 23
125.6938113892624
 33
0.0
  0
SOLID
  5
38E7
330
FE8
100
AcDbEntity
  8
AM_PARDIM
100
AcDbTrace
 10
94.03257086951754
 20
119.1938113892624
 30
0.0
 11
95.03257086951753
 21
119.1938113892624
 31
0.0
 12
94.53257086951754
 22
116.1938113892624
 32
0.0
 13
94.53257086951754
 23
116.1938113892624
 33
0.0
  0
MTEXT
  5
38E8
330
FE8
100
AcDbEntity
  8
AM_PARDIM
100
AcDbMText
 10
91.78257086951752
 20
120.9438113892624
 30
0.0
 40
3.5
 41
0.0
 71
     5
 72
     1
  1
9.5
 11
0.0000000000000001
 21
1.0
 31
0.0
 73
     1
 44
1.0
1001
ACAD
1000
MTEXTBEGIN
1070
    73
1070
     1
1070
    44
1040
1.0
1070
    74
1070
     0
1000
MTEXTEND
  0
POINT
  5
38E9
330
FE8
100
AcDbEntity
  8
Defpoints
 62
     0
100
AcDbPoint
 10
63.87464887656418
 20
125.6938113892624
 30
0.0
  0
POINT
  5
38EA
330
FE8
100
AcDbEntity
  8
Defpoints
 62
     0
100
AcDbPoint
 10
82.53257086951753
 20
116.1938113892624
 30
0.0
  0
POINT
  5
38EB
330
FE8
100
AcDbEntity
  8
Defpoints
 62
     0
100
AcDbPoint
 10
94.53257086951754
 20
116.1938113892624
 30
0.0
  0
ENDBLK
  5
FF3
330
FE8
100
AcDbEntity
  8
0
100
AcDbBlockEnd
  0
BLOCK
  5
FFE
330
FF4
100
AcDbEntity
  8
0
100
AcDbBlockBegin
  2
*D10
 70
     1
 10
0.0
 20
0.0
 30
0.0
  3
*D10
  1

  0
LINE
  5
38EC
330
FF4
100
AcDbEntity
  8
AM_PARDIM
100
AcDbLine
 10
67.37464887656418
 20
128.6938113892624
 30
0.0
 11
125.5325708695175
 21
128.6938113892624
 31
0.0
  0
LINE
  5
38ED
330
FF4
100
AcDbEntity
  8
AM_PARDIM
100
AcDbLine
 10
83.53257086951755
 20
116.1938113892624
 30
0.0
 11
125.5325708695175
 21
116.1938113892624
 31
0.0
  0
LINE
  5
38EE
330
FF4
100
AcDbEntity
  8
AM_PARDIM
100
AcDbLine
 10
124.5325708695175
 20
125.6938113892624
 30
0.0
 11
124.5325708695175
 21
119.1938113892624
 31
0.0
  0
SOLID
  5
38EF
330
FF4
100
AcDbEntity
  8
AM_PARDIM
100
AcDbTrace
 10
124.0325708695175
 20
125.6938113892624
 30
0.0
 11
125.0325708695175
 21
125.6938113892624
 31
0.0
 12
124.5325708695175
 22
128.6938113892624
 32
0.0
 13
124.5325708695175
 23
128.6938113892624
 33
0.0
  0
SOLID
  5
38F0
330
FF4
100
AcDbEntity
  8
AM_PARDIM
100
AcDbTrace
 10
124.0325708695175
 20
119.1938113892624
 30
0.0
 11
125.0325708695175
 21
119.1938113892624
 31
0.0
 12
124.5325708695175
 22
116.1938113892624
 32
0.0
 13
124.5325708695175
 23
116.1938113892624
 33
0.0
  0
MTEXT
  5
38F1
330
FF4
100
AcDbEntity
  8
AM_PARDIM
100
AcDbMText
 10
121.7822263813285
 20
122.4438113892624
 30
0.0
 40
3.5
 41
0.0
 71
     5
 72
     1
  1
12.5
 11
0.0000000000000001
 21
1.0
 31
0.0
 73
     1
 44
1.0
1001
ACAD
1000
MTEXTBEGIN
1070
    73
1070
     1
1070
    44
1040
1.0
1070
    74
1070
     0
1000
MTEXTEND
  0
POINT
  5
38F2
330
FF4
100
AcDbEntity
  8
Defpoints
 62
     0
100
AcDbPoint
 10
66.37464887656418
 20
128.6938113892624
 30
0.0
  0
POINT
  5
38F3
330
FF4
100
AcDbEntity
  8
Defpoints
 62
     0
100
AcDbPoint
 10
82.53257086951753
 20
116.1938113892624
 30
0.0
  0
POINT
  5
38F4
330
FF4
100
AcDbEntity
  8
Defpoints
 62
     0
100
AcDbPoint
 10
124.5325708695175
 20
116.1938113892624
 30
0.0
  0
ENDBLK
  5
FFF
330
FF4
100
AcDbEntity
  8
0
100
AcDbBlockEnd
  0
BLOCK
  5
35CC
330
35C0
100
AcDbEntity
  8
0
100
AcDbBlockBegin
  2
*D12
 70
     1
 10
0.0
 20
0.0
 30
0.0
  3
*D12
  1

  0
LINE
  5
4B43
330
35C0
100
AcDbEntity
  8
AM_REFDIM
100
AcDbLine
 10
575.7795641800433
 20
-10.46471144111397
 30
0.0
 11
575.7795641800433
 21
-18.41776274746617
 31
0.0
  0
LINE
  5
4B44
330
35C0
100
AcDbEntity
  8
AM_REFDIM
100
AcDbLine
 10
582.7795641800434
 20
-6.464711441113974
 30
0.0
 11
582.7795641800434
 21
-18.41776274746617
 31
0.0
  0
LINE
  5
4B45
330
35C0
100
AcDbEntity
  8
AM_REFDIM
100
AcDbLine
 10
577.8795641800434
 20
-17.71776274746617
 30
0.0
 11
580.6795641800433
 21
-17.71776274746617
 31
0.0
  0
SOLID
  5
4B46
330
35C0
100
AcDbEntity
  8
AM_REFDIM
100
AcDbTrace
 10
577.8795641800434
 20
-17.36776274746616
 30
0.0
 11
577.8795641800434
 21
-18.06776274746617
 31
0.0
 12
575.7795641800433
 22
-17.71776274746617
 32
0.0
 13
575.7795641800433
 23
-17.71776274746617
 33
0.0
  0
SOLID
  5
4B47
330
35C0
100
AcDbEntity
  8
AM_REFDIM
100
AcDbTrace
 10
580.6795641800433
 20
-17.36776274746616
 30
0.0
 11
580.6795641800433
 21
-18.06776274746617
 31
0.0
 12
582.7795641800434
 22
-17.71776274746617
 32
0.0
 13
582.7795641800434
 23
-17.71776274746617
 33
0.0
  0
MTEXT
  5
4B48
330
35C0
100
AcDbEntity
  8
AM_REFDIM
100
AcDbMText
 10
579.2795641800434
 20
-15.93276274746617
 30
0.0
 40
2.449999999999999
 41
0.0
 71
     5
 72
     1
  1
\A1;7
  7
CHINESET
 73
     1
 44
1.0
1001
ACAD
1000
MTEXTBEGIN
1070
    73
1070
     1
1070
    44
1040
1.0
1070
    74
1070
     0
1000
MTEXTEND
  0
POINT
  5
4B49
330
35C0
100
AcDbEntity
  8
Defpoints
 62
     0
100
AcDbPoint
 10
575.7795641800433
 20
-9.764711441113973
 30
0.0
  0
POINT
  5
4B4A
330
35C0
100
AcDbEntity
  8
Defpoints
 62
     0
100
AcDbPoint
 10
582.7795641800434
 20
-5.764711441113973
 30
0.0
  0
POINT
  5
4B4B
330
35C0
100
AcDbEntity
  8
Defpoints
 62
     0
100
AcDbPoint
 10
582.7795641800434
 20
-17.71776274746617
 30
0.0
  0
ENDBLK
  5
35CD
330
35C0
100
AcDbEntity
  8
0
100
AcDbBlockEnd
  0
BLOCK
  5
3600
330
35F4
100
AcDbEntity
  8
0
100
AcDbBlockBegin
  2
*D13
 70
     1
 10
0.0
 20
0.0
 30
0.0
  3
*D13
  1

  0
LINE
  5
4B4C
330
35F4
100
AcDbEntity
  8
AM_REFDIM
100
AcDbLine
 10
577.5295641800433
 20
3.085288558886003
 30
0.0
 11
577.5295641800433
 21
11.10063712571316
 31
0.0
  0
LINE
  5
4B4D
330
35F4
100
AcDbEntity
  8
AM_REFDIM
100
AcDbLine
 10
584.5295641800434
 20
-5.114711441113985
 30
0.0
 11
584.5295641800434
 21
11.10063712571316
 31
0.0
  0
LINE
  5
4B4E
330
35F4
100
AcDbEntity
  8
AM_REFDIM
100
AcDbLine
 10
579.6295641800433
 20
10.40063712571316
 30
0.0
 11
582.4295641800433
 21
10.40063712571316
 31
0.0
  0
SOLID
  5
4B4F
330
35F4
100
AcDbEntity
  8
AM_REFDIM
100
AcDbTrace
 10
579.6295641800433
 20
10.75063712571316
 30
0.0
 11
579.6295641800433
 21
10.05063712571316
 31
0.0
 12
577.5295641800433
 22
10.40063712571316
 32
0.0
 13
577.5295641800433
 23
10.40063712571316
 33
0.0
  0
SOLID
  5
4B50
330
35F4
100
AcDbEntity
  8
AM_REFDIM
100
AcDbTrace
 10
582.4295641800433
 20
10.75063712571316
 30
0.0
 11
582.4295641800433
 21
10.05063712571316
 31
0.0
 12
584.5295641800434
 22
10.40063712571316
 32
0.0
 13
584.5295641800434
 23
10.40063712571316
 33
0.0
  0
MTEXT
  5
4B51
330
35F4
100
AcDbEntity
  8
AM_REFDIM
100
AcDbMText
 10
580.7558672851447
 20
12.18563712571316
 30
0.0
 40
2.449999999999999
 41
0.0
 71
     5
 72
     1
  1
\A1;7
  7
CHINESET
 73
     1
 44
1.0
1001
ACAD
1000
MTEXTBEGIN
1070
    73
1070
     1
1070
    44
1040
1.0
1070
    74
1070
     0
1000
MTEXTEND
  0
POINT
  5
4B52
330
35F4
100
AcDbEntity
  8
Defpoints
 62
     0
100
AcDbPoint
 10
577.5295641800433
 20
2.385288558886003
 30
0.0
  0
POINT
  5
4B53
330
35F4
100
AcDbEntity
  8
Defpoints
 62
     0
100
AcDbPoint
 10
584.5295641800434
 20
-5.814711441113985
 30
0.0
  0
POINT
  5
4B54
330
35F4
100
AcDbEntity
  8
Defpoints
 62
     0
100
AcDbPoint
 10
584.5295641800434
 20
10.40063712571316
 30
0.0
  0
ENDBLK
  5
3601
330
35F4
100
AcDbEntity
  8
0
100
AcDbBlockEnd
  0
BLOCK
  5
36F2
330
36E9
100
AcDbEntity
  8
0
100
AcDbBlockBegin
  2
*D14
 70
     1
 10
0.0
 20
0.0
 30
0.0
  3
*D14
  1

  0
LINE
  5
4B55
330
36E9
100
AcDbEntity
  8
AM_REFDIM
100
AcDbLine
 10
585.3444976454839
 20
-0.2480437981814703
 30
0.0
 11
589.9368977524306
 21
4.526506861163227
 31
0.0
  0
LINE
  5
4B56
330
36E9
100
AcDbEntity
  8
AM_REFDIM
100
AcDbLine
 10
589.9368977524306
 20
4.526506861163227
 30
0.0
 11
603.2333800752119
 21
4.526506861163227
 31
0.0
  0
SOLID
  5
4B57
330
36E9
100
AcDbEntity
  8
AM_REFDIM
100
AcDbTrace
 10
585.0922453008823
 20
-0.0054149568559865
 30
0.0
 11
585.5967499900856
 21
-0.4906726395069541
 31
0.0
 12
583.888724597531
 22
-1.761557865791814
 32
0.0
 13
583.888724597531
 23
-1.761557865791814
 33
0.0
  0
MTEXT
  5
4B58
330
36E9
100
AcDbEntity
  8
AM_REFDIM
100
AcDbMText
 10
596.9351389138214
 20
6.451506861163113
 30
0.0
 40
2.449999999999999
 41
0.0
 71
     5
 72
     1
  1
5-M3*0.5
 73
     1
 44
1.0
1001
ACAD
1000
MTEXTBEGIN
1070
    73
1070
     1
1070
    44
1040
1.0
1070
    74
1070
     0
1000
MTEXTEND
  0
POINT
  5
4B59
330
36E9
100
AcDbEntity
  8
Defpoints
 62
     0
100
AcDbPoint
 10
583.888724597531
 20
-1.761557865791814
 30
0.0
  0
POINT
  5
4B5A
330
36E9
100
AcDbEntity
  8
Defpoints
 62
     0
100
AcDbPoint
 10
581.670403762555
 20
-4.067865016436599
 30
0.0
  0
ENDBLK
  5
36F3
330
36E9
100
AcDbEntity
  8
0
100
AcDbBlockEnd
  0
BLOCK
  5
393B
330
392F
100
AcDbEntity
  8
0
100
AcDbBlockBegin
  2
*D15
 70
     1
 10
0.0
 20
0.0
 30
0.0
  3
*D15
  1

  0
LINE
  5
4B8D
330
392F
100
AcDbEntity
  8
AM_REFDIM
100
AcDbLine
 10
586.8295641800433
 20
-51.33121145960803
 30
0.0
 11
589.1243550731565
 21
-51.33121145960803
 31
0.0
  0
LINE
  5
4B8E
330
392F
100
AcDbEntity
  8
AM_REFDIM
100
AcDbLine
 10
586.8295641800433
 20
-49.93121145960802
 30
0.0
 11
589.1243550731565
 21
-49.93121145960802
 31
0.0
  0
LINE
  5
4B8F
330
392F
100
AcDbEntity
  8
AM_REFDIM
100
AcDbLine
 10
588.4243550731564
 20
-53.43121145960803
 30
0.0
 11
588.4243550731564
 21
-55.53121145960803
 31
0.0
  0
LINE
  5
4B90
330
392F
100
AcDbEntity
  8
AM_REFDIM
100
AcDbLine
 10
588.4243550731564
 20
-47.83121145960802
 30
0.0
 11
588.4243550731564
 21
-39.8278781262747
 31
0.0
  0
LINE
  5
4B91
330
392F
100
AcDbEntity
  8
AM_REFDIM
100
AcDbLine
 10
588.4243550731564
 20
-51.33121145960803
 30
0.0
 11
588.4243550731564
 21
-49.93121145960802
 31
0.0
  0
SOLID
  5
4B92
330
392F
100
AcDbEntity
  8
AM_REFDIM
100
AcDbTrace
 10
588.0743550731564
 20
-53.43121145960803
 30
0.0
 11
588.7743550731564
 21
-53.43121145960803
 31
0.0
 12
588.4243550731564
 22
-51.33121145960803
 32
0.0
 13
588.4243550731564
 23
-51.33121145960803
 33
0.0
  0
SOLID
  5
4B93
330
392F
100
AcDbEntity
  8
AM_REFDIM
100
AcDbTrace
 10
588.0743550731564
 20
-47.83121145960802
 30
0.0
 11
588.7743550731564
 21
-47.83121145960802
 31
0.0
 12
588.4243550731564
 22
-49.93121145960802
 32
0.0
 13
588.4243550731564
 23
-49.93121145960802
 33
0.0
  0
MTEXT
  5
4B94
330
392F
100
AcDbEntity
  8
AM_REFDIM
100
AcDbMText
 10
586.6393550731564
 20
-42.77954479294126
 30
0.0
 40
2.449999999999999
 41
0.0
 71
     5
 72
     1
  1
\A1;1.4
  7
CHINESET
 11
0.0000000000000001
 21
1.0
 31
0.0
 73
     1
 44
1.0
1001
ACAD
1000
MTEXTBEGIN
1070
    73
1070
     1
1070
    44
1040
1.0
1070
    74
1070
     0
1000
MTEXTEND
  0
POINT
  5
4B95
330
392F
100
AcDbEntity
  8
Defpoints
 62
     0
100
AcDbPoint
 10
586.1295641800433
 20
-51.33121145960803
 30
0.0
  0
POINT
  5
4B96
330
392F
100
AcDbEntity
  8
Defpoints
 62
     0
100
AcDbPoint
 10
586.1295641800433
 20
-49.93121145960802
 30
0.0
  0
POINT
  5
4B97
330
392F
100
AcDbEntity
  8
Defpoints
 62
     0
100
AcDbPoint
 10
588.4243550731564
 20
-49.93121145960802
 30
0.0
  0
ENDBLK
  5
393C
330
392F
100
AcDbEntity
  8
0
100
AcDbBlockEnd
  0
BLOCK
  5
3A66
330
3A5A
100
AcDbEntity
  8
0
100
AcDbBlockBegin
  2
*D16
 70
     1
 10
0.0
 20
0.0
 30
0.0
  3
*D16
  1

  0
LINE
  5
4A70
330
3A5A
100
AcDbEntity
  8
AM_REFDIM
100
AcDbLine
 10
579.2795641800434
 20
-110.7152289191202
 30
0.0
 11
579.2795641800434
 21
-121.3285859533153
 31
0.0
  0
LINE
  5
4A71
330
3A5A
100
AcDbEntity
  8
AM_REFDIM
100
AcDbLine
 10
586.2795641800434
 20
-110.7152289191202
 30
0.0
 11
586.2795641800434
 21
-121.3285859533153
 31
0.0
  0
LINE
  5
4A72
330
3A5A
100
AcDbEntity
  8
AM_REFDIM
100
AcDbLine
 10
581.3795641800433
 20
-120.6285859533153
 30
0.0
 11
584.1795641800433
 21
-120.6285859533153
 31
0.0
  0
SOLID
  5
4A73
330
3A5A
100
AcDbEntity
  8
AM_REFDIM
100
AcDbTrace
 10
581.3795641800433
 20
-120.2785859533153
 30
0.0
 11
581.3795641800433
 21
-120.9785859533153
 31
0.0
 12
579.2795641800434
 22
-120.6285859533153
 32
0.0
 13
579.2795641800434
 23
-120.6285859533153
 33
0.0
  0
SOLID
  5
4A74
330
3A5A
100
AcDbEntity
  8
AM_REFDIM
100
AcDbTrace
 10
584.1795641800433
 20
-120.2785859533153
 30
0.0
 11
584.1795641800433
 21
-120.9785859533153
 31
0.0
 12
586.2795641800434
 22
-120.6285859533153
 32
0.0
 13
586.2795641800434
 23
-120.6285859533153
 33
0.0
  0
MTEXT
  5
4A75
330
3A5A
100
AcDbEntity
  8
AM_REFDIM
100
AcDbMText
 10
582.7795641800434
 20
-118.8435859533153
 30
0.0
 40
2.449999999999999
 41
0.0
 71
     5
 72
     1
  1
\A1;7
  7
CHINESET
 73
     1
 44
1.0
1001
ACAD
1000
MTEXTBEGIN
1070
    73
1070
     1
1070
    44
1040
1.0
1070
    74
1070
     0
1000
MTEXTEND
  0
POINT
  5
4A76
330
3A5A
100
AcDbEntity
  8
Defpoints
 62
     0
100
AcDbPoint
 10
579.2795641800434
 20
-110.0152289191202
 30
0.0
  0
POINT
  5
4A77
330
3A5A
100
AcDbEntity
  8
Defpoints
 62
     0
100
AcDbPoint
 10
586.2795641800434
 20
-110.0152289191202
 30
0.0
  0
POINT
  5
4A78
330
3A5A
100
AcDbEntity
  8
Defpoints
 62
     0
100
AcDbPoint
 10
586.2795641800434
 20
-120.6285859533153
 30
0.0
  0
ENDBLK
  5
3A67
330
3A5A
100
AcDbEntity
  8
0
100
AcDbBlockEnd
  0
BLOCK
  5
3A82
330
3A76
100
AcDbEntity
  8
0
100
AcDbBlockBegin
  2
*D17
 70
     1
 10
0.0
 20
0.0
 30
0.0
  3
*D17
  1

  0
LINE
  5
4A67
330
3A76
100
AcDbEntity
  8
AM_REFDIM
100
AcDbLine
 10
572.2795641800433
 20
-110.7152289191202
 30
0.0
 11
572.2795641800433
 21
-121.3285859533153
 31
0.0
  0
LINE
  5
4A68
330
3A76
100
AcDbEntity
  8
AM_REFDIM
100
AcDbLine
 10
579.2795641800434
 20
-110.7152289191202
 30
0.0
 11
579.2795641800434
 21
-121.3285859533153
 31
0.0
  0
LINE
  5
4A69
330
3A76
100
AcDbEntity
  8
AM_REFDIM
100
AcDbLine
 10
574.3795641800434
 20
-120.6285859533153
 30
0.0
 11
577.1795641800434
 21
-120.6285859533153
 31
0.0
  0
SOLID
  5
4A6A
330
3A76
100
AcDbEntity
  8
AM_REFDIM
100
AcDbTrace
 10
574.3795641800434
 20
-120.2785859533153
 30
0.0
 11
574.3795641800434
 21
-120.9785859533153
 31
0.0
 12
572.2795641800433
 22
-120.6285859533153
 32
0.0
 13
572.2795641800433
 23
-120.6285859533153
 33
0.0
  0
SOLID
  5
4A6B
330
3A76
100
AcDbEntity
  8
AM_REFDIM
100
AcDbTrace
 10
577.1795641800434
 20
-120.2785859533153
 30
0.0
 11
577.1795641800434
 21
-120.9785859533153
 31
0.0
 12
579.2795641800434
 22
-120.6285859533153
 32
0.0
 13
579.2795641800434
 23
-120.6285859533153
 33
0.0
  0
MTEXT
  5
4A6C
330
3A76
100
AcDbEntity
  8
AM_REFDIM
100
AcDbMText
 10
575.7795641800433
 20
-118.8435859533153
 30
0.0
 40
2.449999999999999
 41
0.0
 71
     5
 72
     1
  1
\A1;7
  7
CHINESET
 73
     1
 44
1.0
1001
ACAD
1000
MTEXTBEGIN
1070
    73
1070
     1
1070
    44
1040
1.0
1070
    74
1070
     0
1000
MTEXTEND
  0
POINT
  5
4A6D
330
3A76
100
AcDbEntity
  8
Defpoints
 62
     0
100
AcDbPoint
 10
572.2795641800433
 20
-110.0152289191202
 30
0.0
  0
POINT
  5
4A6E
330
3A76
100
AcDbEntity
  8
Defpoints
 62
     0
100
AcDbPoint
 10
579.2795641800434
 20
-110.0152289191202
 30
0.0
  0
POINT
  5
4A6F
330
3A76
100
AcDbEntity
  8
Defpoints
 62
     0
100
AcDbPoint
 10
579.2795641800434
 20
-120.6285859533153
 30
0.0
  0
ENDBLK
  5
3A83
330
3A76
100
AcDbEntity
  8
0
100
AcDbBlockEnd
  0
BLOCK
  5
3B1C
330
3B12
100
AcDbEntity
  8
0
100
AcDbBlockBegin
  2
*D18
 70
     1
 10
0.0
 20
0.0
 30
0.0
  3
*D18
  1

  0
LINE
  5
4B98
330
3B12
100
AcDbEntity
  8
AM_REFDIM
100
AcDbLine
 10
646.5007487052531
 20
-37.43121145960805
 30
0.0
 11
638.9565911415708
 21
-37.43121145960805
 31
0.0
  0
LINE
  5
4B99
330
3B12
100
AcDbEntity
  8
AM_REFDIM
100
AcDbLine
 10
646.0007487052532
 20
-64.93121145960802
 30
0.0
 11
638.9565911415708
 21
-64.93121145960802
 31
0.0
  0
LINE
  5
4B9A
330
3B12
100
AcDbEntity
  8
AM_REFDIM
100
AcDbLine
 10
639.6565911415708
 20
-39.53121145960805
 30
0.0
 11
639.6565911415708
 21
-62.83121145960802
 31
0.0
  0
SOLID
  5
4B9B
330
3B12
100
AcDbEntity
  8
AM_REFDIM
100
AcDbTrace
 10
639.3065911415708
 20
-39.53121145960805
 30
0.0
 11
640.0065911415708
 21
-39.53121145960805
 31
0.0
 12
639.6565911415708
 22
-37.43121145960805
 32
0.0
 13
639.6565911415708
 23
-37.43121145960805
 33
0.0
  0
SOLID
  5
4B9C
330
3B12
100
AcDbEntity
  8
AM_REFDIM
100
AcDbTrace
 10
639.3065911415708
 20
-62.83121145960802
 30
0.0
 11
640.0065911415708
 21
-62.83121145960802
 31
0.0
 12
639.6565911415708
 22
-64.93121145960802
 32
0.0
 13
639.6565911415708
 23
-64.93121145960802
 33
0.0
  0
MTEXT
  5
4B9D
330
3B12
100
AcDbEntity
  8
AM_REFDIM
100
AcDbMText
 10
637.8715911415708
 20
-51.18121145960793
 30
0.0
 40
2.449999999999999
 41
0.0
 71
     5
 72
     1
  1
\A1;27.5
  7
CHINESET
 11
0.0000000000000001
 21
1.0
 31
0.0
 73
     1
 44
1.0
1001
ACAD
1000
MTEXTBEGIN
1070
    73
1070
     1
1070
    44
1040
1.0
1070
    74
1070
     0
1000
MTEXTEND
  0
POINT
  5
4B9E
330
3B12
100
AcDbEntity
  8
Defpoints
 62
     0
100
AcDbPoint
 10
647.2007487052532
 20
-37.43121145960805
 30
0.0
  0
POINT
  5
4B9F
330
3B12
100
AcDbEntity
  8
Defpoints
 62
     0
100
AcDbPoint
 10
646.7007487052533
 20
-64.93121145960802
 30
0.0
  0
POINT
  5
4BA0
330
3B12
100
AcDbEntity
  8
Defpoints
 62
     0
100
AcDbPoint
 10
639.6565911415708
 20
-64.93121145960802
 30
0.0
  0
ENDBLK
  5
3B1D
330
3B12
100
AcDbEntity
  8
0
100
AcDbBlockEnd
  0
BLOCK
  5
4040
330
4036
100
AcDbEntity
  8
0
100
AcDbBlockBegin
  2
*D19
 70
     1
 10
0.0
 20
0.0
 30
0.0
  3
*D19
  1

  0
LINE
  5
4BA1
330
4036
100
AcDbEntity
  8
AM_REFDIM
100
AcDbLine
 10
544.9795641800434
 20
-65.63121145960803
 30
0.0
 11
544.9795641800434
 21
-74.26498932135394
 31
0.0
  0
LINE
  5
4BA2
330
4036
100
AcDbEntity
  8
AM_REFDIM
100
AcDbLine
 10
613.5795641800434
 20
-65.63121145960805
 30
0.0
 11
613.5795641800434
 21
-74.26498932135394
 31
0.0
  0
LINE
  5
4BA3
330
4036
100
AcDbEntity
  8
AM_REFDIM
100
AcDbLine
 10
547.0795641800434
 20
-73.56498932135393
 30
0.0
 11
611.4795641800433
 21
-73.56498932135393
 31
0.0
  0
SOLID
  5
4BA4
330
4036
100
AcDbEntity
  8
AM_REFDIM
100
AcDbTrace
 10
547.0795641800434
 20
-73.21498932135394
 30
0.0
 11
547.0795641800434
 21
-73.91498932135393
 31
0.0
 12
544.9795641800434
 22
-73.56498932135393
 32
0.0
 13
544.9795641800434
 23
-73.56498932135393
 33
0.0
  0
SOLID
  5
4BA5
330
4036
100
AcDbEntity
  8
AM_REFDIM
100
AcDbTrace
 10
611.4795641800433
 20
-73.21498932135394
 30
0.0
 11
611.4795641800433
 21
-73.91498932135393
 31
0.0
 12
613.5795641800434
 22
-73.56498932135393
 32
0.0
 13
613.5795641800434
 23
-73.56498932135393
 33
0.0
  0
MTEXT
  5
4BA6
330
4036
100
AcDbEntity
  8
AM_REFDIM
100
AcDbMText
 10
579.2795641800434
 20
-71.77998932135394
 30
0.0
 40
2.449999999999999
 41
0.0
 71
     5
 72
     1
  1
\A1;68.6
  7
CHINESET
 73
     1
 44
1.0
1001
ACAD
1000
MTEXTBEGIN
1070
    73
1070
     1
1070
    44
1040
1.0
1070
    74
1070
     0
1000
MTEXTEND
  0
POINT
  5
4BA7
330
4036
100
AcDbEntity
  8
Defpoints
 62
     0
100
AcDbPoint
 10
544.9795641800434
 20
-64.93121145960802
 30
0.0
  0
POINT
  5
4BA8
330
4036
100
AcDbEntity
  8
Defpoints
 62
     0
100
AcDbPoint
 10
613.5795641800434
 20
-64.93121145960805
 30
0.0
  0
POINT
  5
4BA9
330
4036
100
AcDbEntity
  8
Defpoints
 62
     0
100
AcDbPoint
 10
613.5795641800434
 20
-73.56498932135393
 30
0.0
  0
ENDBLK
  5
4041
330
4036
100
AcDbEntity
  8
0
100
AcDbBlockEnd
  0
BLOCK
  5
40A6
330
409C
100
AcDbEntity
  8
0
100
AcDbBlockBegin
  2
*D20
 70
     1
 10
0.0
 20
0.0
 30
0.0
  3
*D20
  1

  0
LINE
  5
4BAA
330
409C
100
AcDbEntity
  8
AM_REFDIM
100
AcDbLine
 10
614.2795641800433
 20
-64.93121145960805
 30
0.0
 11
628.9464876028637
 21
-64.93121145960805
 31
0.0
  0
LINE
  5
4BAB
330
409C
100
AcDbEntity
  8
AM_REFDIM
100
AcDbLine
 10
601.2795641800433
 20
-49.93121145960799
 30
0.0
 11
628.9464876028637
 21
-49.931211459608
 31
0.0
  0
LINE
  5
4BAC
330
409C
100
AcDbEntity
  8
AM_REFDIM
100
AcDbLine
 10
628.2464876028637
 20
-62.83121145960805
 30
0.0
 11
628.2464876028637
 21
-52.031211459608
 31
0.0
  0
SOLID
  5
4BAD
330
409C
100
AcDbEntity
  8
AM_REFDIM
100
AcDbTrace
 10
627.8964876028636
 20
-62.83121145960805
 30
0.0
 11
628.5964876028637
 21
-62.83121145960805
 31
0.0
 12
628.2464876028637
 22
-64.93121145960805
 32
0.0
 13
628.2464876028637
 23
-64.93121145960805
 33
0.0
  0
SOLID
  5
4BAE
330
409C
100
AcDbEntity
  8
AM_REFDIM
100
AcDbTrace
 10
627.8964876028636
 20
-52.031211459608
 30
0.0
 11
628.5964876028637
 21
-52.031211459608
 31
0.0
 12
628.2464876028637
 22
-49.931211459608
 32
0.0
 13
628.2464876028637
 23
-49.931211459608
 33
0.0
  0
MTEXT
  5
4BAF
330
409C
100
AcDbEntity
  8
AM_REFDIM
100
AcDbMText
 10
626.4614876028637
 20
-57.60332234844719
 30
0.0
 40
2.449999999999999
 41
0.0
 71
     5
 72
     1
  1
\A1;15
  7
CHINESET
 11
0.0000000000000001
 21
1.0
 31
0.0
 73
     1
 44
1.0
1001
ACAD
1000
MTEXTBEGIN
1070
    73
1070
     1
1070
    44
1040
1.0
1070
    74
1070
     0
1000
MTEXTEND
  0
POINT
  5
4BB0
330
409C
100
AcDbEntity
  8
Defpoints
 62
     0
100
AcDbPoint
 10
613.5795641800434
 20
-64.93121145960805
 30
0.0
  0
POINT
  5
4BB1
330
409C
100
AcDbEntity
  8
Defpoints
 62
     0
100
AcDbPoint
 10
600.5795641800433
 20
-49.93121145960799
 30
0.0
  0
POINT
  5
4BB2
330
409C
100
AcDbEntity
  8
Defpoints
 62
     0
100
AcDbPoint
 10
628.2464876028637
 20
-49.931211459608
 30
0.0
  0
ENDBLK
  5
40A7
330
409C
100
AcDbEntity
  8
0
100
AcDbBlockEnd
  0
BLOCK
  5
4163
330
4157
100
AcDbEntity
  8
0
100
AcDbBlockBegin
  2
*D21
 70
     1
 10
0.0
 20
0.0
 30
0.0
  3
*D21
  1

  0
LINE
  5
4B5B
330
4157
100
AcDbEntity
  8
AM_REFDIM
100
AcDbLine
 10
572.2295641800433
 20
-6.914711441113979
 30
0.0
 11
531.5726478542069
 21
-6.914711441113968
 31
0.0
  0
LINE
  5
4B5C
330
4157
100
AcDbEntity
  8
AM_REFDIM
100
AcDbLine
 10
579.2295641800433
 20
-2.914711441113979
 30
0.0
 11
531.5726478542069
 21
-2.914711441113965
 31
0.0
  0
LINE
  5
4B5D
330
4157
100
AcDbEntity
  8
AM_REFDIM
100
AcDbLine
 10
532.272647854207
 20
-9.014711441113968
 30
0.0
 11
532.272647854207
 21
-11.11471144111397
 31
0.0
  0
LINE
  5
4B5E
330
4157
100
AcDbEntity
  8
AM_REFDIM
100
AcDbLine
 10
532.272647854207
 20
-0.8147114411139662
 30
0.0
 11
532.272647854207
 21
1.285288558886033
 31
0.0
  0
LINE
  5
4B5F
330
4157
100
AcDbEntity
  8
AM_REFDIM
100
AcDbLine
 10
532.272647854207
 20
-6.914711441113968
 30
0.0
 11
532.272647854207
 21
-2.914711441113965
 31
0.0
  0
SOLID
  5
4B60
330
4157
100
AcDbEntity
  8
AM_REFDIM
100
AcDbTrace
 10
531.9226478542069
 20
-9.014711441113966
 30
0.0
 11
532.622647854207
 21
-9.014711441113968
 31
0.0
 12
532.272647854207
 22
-6.914711441113968
 32
0.0
 13
532.272647854207
 23
-6.914711441113968
 33
0.0
  0
SOLID
  5
4B61
330
4157
100
AcDbEntity
  8
AM_REFDIM
100
AcDbTrace
 10
531.9226478542069
 20
-0.8147114411139661
 30
0.0
 11
532.622647854207
 21
-0.8147114411139662
 31
0.0
 12
532.272647854207
 22
-2.914711441113965
 32
0.0
 13
532.272647854207
 23
-2.914711441113965
 33
0.0
  0
MTEXT
  5
4B62
330
4157
100
AcDbEntity
  8
AM_REFDIM
100
AcDbMText
 10
530.487647854207
 20
-4.914711441113881
 30
0.0
 40
2.449999999999999
 41
0.0
 71
     5
 72
     1
  1
\A1;4
  7
CHINESET
 11
0.0000000000000001
 21
1.0
 31
0.0
 73
     1
 44
1.0
1001
ACAD
1000
MTEXTBEGIN
1070
    73
1070
     1
1070
    44
1040
1.0
1070
    74
1070
     0
1000
MTEXTEND
  0
POINT
  5
4B63
330
4157
100
AcDbEntity
  8
Defpoints
 62
     0
100
AcDbPoint
 10
572.9295641800433
 20
-6.914711441113979
 30
0.0
  0
POINT
  5
4B64
330
4157
100
AcDbEntity
  8
Defpoints
 62
     0
100
AcDbPoint
 10
579.9295641800433
 20
-2.914711441113979
 30
0.0
  0
POINT
  5
4B65
330
4157
100
AcDbEntity
  8
Defpoints
 62
     0
100
AcDbPoint
 10
532.272647854207
 20
-2.914711441113965
 30
0.0
  0
ENDBLK
  5
4164
330
4157
100
AcDbEntity
  8
0
100
AcDbBlockEnd
  0
BLOCK
  5
42B7
330
42AD
100
AcDbEntity
  8
0
100
AcDbBlockBegin
  2
*D22
 70
     1
 10
0.0
 20
0.0
 30
0.0
  3
*D22
  1

  0
LINE
  5
4B66
330
42AD
100
AcDbEntity
  8
AM_REFDIM
100
AcDbLine
 10
535.4795641800434
 20
-1.064711441114087
 30
0.0
 11
535.4795641800434
 21
11.10063712571316
 31
0.0
  0
LINE
  5
4B67
330
42AD
100
AcDbEntity
  8
AM_REFDIM
100
AcDbLine
 10
577.5295641800433
 20
3.085288558886003
 30
0.0
 11
577.5295641800433
 21
11.10063712571316
 31
0.0
  0
LINE
  5
4B68
330
42AD
100
AcDbEntity
  8
AM_REFDIM
100
AcDbLine
 10
537.5795641800435
 20
10.40063712571316
 30
0.0
 11
575.4295641800434
 21
10.40063712571316
 31
0.0
  0
SOLID
  5
4B69
330
42AD
100
AcDbEntity
  8
AM_REFDIM
100
AcDbTrace
 10
537.5795641800435
 20
10.75063712571316
 30
0.0
 11
537.5795641800435
 21
10.05063712571316
 31
0.0
 12
535.4795641800434
 22
10.40063712571316
 32
0.0
 13
535.4795641800434
 23
10.40063712571316
 33
0.0
  0
SOLID
  5
4B6A
330
42AD
100
AcDbEntity
  8
AM_REFDIM
100
AcDbTrace
 10
575.4295641800434
 20
10.75063712571316
 30
0.0
 11
575.4295641800434
 21
10.05063712571316
 31
0.0
 12
577.5295641800433
 22
10.40063712571316
 32
0.0
 13
577.5295641800433
 23
10.40063712571316
 33
0.0
  0
MTEXT
  5
4B6B
330
42AD
100
AcDbEntity
  8
AM_REFDIM
100
AcDbMText
 10
556.6806429787509
 20
12.18563712571316
 30
0.0
 40
2.449999999999999
 41
0.0
 71
     5
 72
     1
  1
\A1;42.05
  7
CHINESET
 73
     1
 44
1.0
1001
ACAD
1000
MTEXTBEGIN
1070
    73
1070
     1
1070
    44
1040
1.0
1070
    74
1070
     0
1000
MTEXTEND
  0
POINT
  5
4B6C
330
42AD
100
AcDbEntity
  8
Defpoints
 62
     0
100
AcDbPoint
 10
535.4795641800434
 20
-1.764711441114087
 30
0.0
  0
POINT
  5
4B6D
330
42AD
100
AcDbEntity
  8
Defpoints
 62
     0
100
AcDbPoint
 10
577.5295641800433
 20
2.385288558886003
 30
0.0
  0
POINT
  5
4B6E
330
42AD
100
AcDbEntity
  8
Defpoints
 62
     0
100
AcDbPoint
 10
577.5295641800433
 20
10.40063712571316
 30
0.0
  0
ENDBLK
  5
42B8
330
42AD
100
AcDbEntity
  8
0
100
AcDbBlockEnd
  0
BLOCK
  5
441B
330
4411
100
AcDbEntity
  8
0
100
AcDbBlockBegin
  2
*D23
 70
     1
 10
0.0
 20
0.0
 30
0.0
  3
*D23
  1

  0
LINE
  5
4C08
330
4411
100
AcDbEntity
  8
AM_REFDIM
100
AcDbLine
 10
535.4795641800434
 20
-47.23121145960802
 30
0.0
 11
535.4795641800434
 21
-80.76498932135404
 31
0.0
  0
LINE
  5
4C09
330
4411
100
AcDbEntity
  8
AM_REFDIM
100
AcDbLine
 10
623.0795641800433
 20
-47.23121145960802
 30
0.0
 11
623.0795641800433
 21
-48.181211459608
 31
0.0
  0
LINE
  5
4C0A
330
4411
100
AcDbEntity
  8
AM_REFDIM
100
AcDbLine
 10
537.5795641800435
 20
-80.06498932135404
 30
0.0
 11
620.9795641800432
 21
-80.06498932135404
 31
0.0
  0
SOLID
  5
4C0B
330
4411
100
AcDbEntity
  8
AM_REFDIM
100
AcDbTrace
 10
537.5795641800435
 20
-79.71498932135403
 30
0.0
 11
537.5795641800435
 21
-80.41498932135402
 31
0.0
 12
535.4795641800434
 22
-80.06498932135404
 32
0.0
 13
535.4795641800434
 23
-80.06498932135404
 33
0.0
  0
SOLID
  5
4C0C
330
4411
100
AcDbEntity
  8
AM_REFDIM
100
AcDbTrace
 10
620.9795641800432
 20
-79.71498932135403
 30
0.0
 11
620.9795641800432
 21
-80.41498932135402
 31
0.0
 12
623.0795641800433
 22
-80.06498932135404
 32
0.0
 13
623.0795641800433
 23
-80.06498932135404
 33
0.0
  0
MTEXT
  5
4C0D
330
4411
100
AcDbEntity
  8
AM_REFDIM
100
AcDbMText
 10
579.2795641800434
 20
-78.27998932135404
 30
0.0
 40
2.449999999999999
 41
0.0
 71
     5
 72
     1
  1
\A1;87.6
  7
CHINESET
 73
     1
 44
1.0
1001
ACAD
1000
MTEXTBEGIN
1070
    73
1070
     1
1070
    44
1040
1.0
1070
    74
1070
     0
1000
MTEXTEND
  0
POINT
  5
4C0E
330
4411
100
AcDbEntity
  8
Defpoints
 62
     0
100
AcDbPoint
 10
535.4795641800434
 20
-46.53121145960802
 30
0.0
  0
POINT
  5
4C0F
330
4411
100
AcDbEntity
  8
Defpoints
 62
     0
100
AcDbPoint
 10
623.0795641800433
 20
-46.53121145960802
 30
0.0
  0
POINT
  5
4C10
330
4411
100
AcDbEntity
  8
Defpoints
 62
     0
100
AcDbPoint
 10
623.0795641800433
 20
-80.06498932135404
 30
0.0
  0
LINE
  5
4C11
330
4411
100
AcDbEntity
  8
AM_REFDIM
100
AcDbLine
 10
623.0795641800433
 20
-66.68121145960805
 30
0.0
 11
623.0795641800433
 21
-80.76498932135404
 31
0.0
  0
LINE
  5
4C12
330
4411
100
AcDbEntity
  8
AM_REFDIM
100
AcDbLine
 10
623.0795641800433
 20
-51.681211459608
 30
0.0
 11
623.0795641800433
 21
-63.18121145960805
 31
0.0
  0
ENDBLK
  5
441C
330
4411
100
AcDbEntity
  8
0
100
AcDbBlockEnd
  0
BLOCK
  5
4487
330
447D
100
AcDbEntity
  8
0
100
AcDbBlockBegin
  2
*D24
 70
     1
 10
0.0
 20
0.0
 30
0.0
  3
*D24
  1

  0
LINE
  5
4BD6
330
447D
100
AcDbEntity
  8
AM_REFDIM
100
AcDbLine
 10
544.2795641800434
 20
-9.914711441114093
 30
0.0
 11
534.022647854207
 21
-9.914711441114089
 31
0.0
  0
LINE
  5
4BD7
330
447D
100
AcDbEntity
  8
AM_REFDIM
100
AcDbLine
 10
544.2795641800434
 20
0.0852885588859069
 30
0.0
 11
537.2295641800434
 21
0.0852885588859089
 31
0.0
  0
LINE
  5
4BD8
330
447D
100
AcDbEntity
  8
AM_REFDIM
100
AcDbLine
 10
519.2726478542069
 20
-7.814711441114086
 30
0.0
 11
519.2726478542069
 21
-2.014711441114085
 31
0.0
  0
SOLID
  5
4BD9
330
447D
100
AcDbEntity
  8
AM_REFDIM
100
AcDbTrace
 10
518.9226478542069
 20
-7.814711441114086
 30
0.0
 11
519.622647854207
 21
-7.814711441114086
 31
0.0
 12
519.2726478542069
 22
-9.914711441114086
 32
0.0
 13
519.2726478542069
 23
-9.914711441114086
 33
0.0
  0
SOLID
  5
4BDA
330
447D
100
AcDbEntity
  8
AM_REFDIM
100
AcDbTrace
 10
518.9226478542069
 20
-2.014711441114085
 30
0.0
 11
519.622647854207
 21
-2.014711441114085
 31
0.0
 12
519.2726478542069
 22
0.085288558885914
 32
0.0
 13
519.2726478542069
 23
0.085288558885914
 33
0.0
  0
MTEXT
  5
4BDB
330
447D
100
AcDbEntity
  8
AM_REFDIM
100
AcDbMText
 10
517.487647854207
 20
-4.914711441114006
 30
0.0
 40
2.449999999999999
 41
0.0
 71
     5
 72
     1
  1
\A1;10
  7
CHINESET
 11
0.0000000000000001
 21
1.0
 31
0.0
 73
     1
 44
1.0
1001
ACAD
1000
MTEXTBEGIN
1070
    73
1070
     1
1070
    44
1040
1.0
1070
    74
1070
     0
1000
MTEXTEND
  0
POINT
  5
4BDC
330
447D
100
AcDbEntity
  8
Defpoints
 62
     0
100
AcDbPoint
 10
544.9795641800434
 20
-9.914711441114093
 30
0.0
  0
POINT
  5
4BDD
330
447D
100
AcDbEntity
  8
Defpoints
 62
     0
100
AcDbPoint
 10
544.9795641800434
 20
0.0852885588859067
 30
0.0
  0
POINT
  5
4BDE
330
447D
100
AcDbEntity
  8
Defpoints
 62
     0
100
AcDbPoint
 10
519.2726478542069
 20
0.085288558885914
 30
0.0
  0
LINE
  5
4BDF
330
447D
100
AcDbEntity
  8
AM_REFDIM
100
AcDbLine
 10
530.522647854207
 20
0.0852885588859108
 30
0.0
 11
518.5726478542069
 21
0.0852885588859142
 31
0.0
  0
LINE
  5
4BE0
330
447D
100
AcDbEntity
  8
AM_REFDIM
100
AcDbLine
 10
530.522647854207
 20
-9.914711441114089
 30
0.0
 11
518.5726478542069
 21
-9.914711441114086
 31
0.0
  0
ENDBLK
  5
4488
330
447D
100
AcDbEntity
  8
0
100
AcDbBlockEnd
  0
BLOCK
  5
46AB
330
46A2
100
AcDbEntity
  8
0
100
AcDbBlockBegin
  2
*D25
 70
     1
 10
0.0
 20
0.0
 30
0.0
  3
*D25
  1

  0
LINE
  5
4B87
330
46A2
100
AcDbEntity
  8
AM_REFDIM
100
AcDbLine
 10
586.7224525107754
 20
-10.98796782814043
 30
0.0
 11
595.0160228710704
 21
-18.45088349755889
 31
0.0
  0
LINE
  5
4B88
330
46A2
100
AcDbEntity
  8
AM_REFDIM
100
AcDbLine
 10
595.0160228710704
 20
-18.45088349755889
 30
0.0
 11
611.7032374379996
 21
-18.45088349755883
 31
0.0
  0
SOLID
  5
4B89
330
46A2
100
AcDbEntity
  8
AM_REFDIM
100
AcDbTrace
 10
586.956567675338
 20
-10.72779463635862
 30
0.0
 11
586.488337346213
 21
-11.24814101992217
 31
0.0
 12
585.161413360085
 22
-9.583276840765734
 32
0.0
 13
585.161413360085
 23
-9.583276840765734
 33
0.0
  0
MTEXT
  5
4B8A
330
46A2
100
AcDbEntity
  8
AM_REFDIM
100
AcDbMText
 10
603.7096301545347
 20
-16.52564235582695
 30
0.0
 40
2.449999999999999
 41
0.0
 71
     5
 72
     1
  1
2-\U+22051.7 thru
 73
     1
 44
1.0
1001
ACAD
1000
MTEXTBEGIN
1070
    73
1070
     1
1070
    44
1040
1.0
1070
    74
1070
     0
1000
MTEXTEND
  0
POINT
  5
4B8B
330
46A2
100
AcDbEntity
  8
Defpoints
 62
     0
100
AcDbPoint
 10
585.161413360085
 20
-9.583276840765734
 30
0.0
  0
POINT
  5
4B8C
330
46A2
100
AcDbEntity
  8
Defpoints
 62
     0
100
AcDbPoint
 10
583.897715000002
 20
-8.44614604146227
 30
0.0
  0
ENDBLK
  5
46AC
330
46A2
100
AcDbEntity
  8
0
100
AcDbBlockEnd
  0
BLOCK
  5
4759
330
474F
100
AcDbEntity
  8
0
100
AcDbBlockBegin
  2
*D26
 70
     1
 10
0.0
 20
0.0
 30
0.0
  3
*D26
  1

  0
LINE
  5
4A4C
330
474F
100
AcDbEntity
  8
AM_REFDIM
100
AcDbLine
 10
576.3295641800433
 20
-112.6652289191202
 30
0.0
 11
529.341575387404
 21
-112.6652289191202
 31
0.0
  0
LINE
  5
4A4D
330
474F
100
AcDbEntity
  8
AM_REFDIM
100
AcDbLine
 10
583.3295641800433
 20
-101.6652289191202
 30
0.0
 11
529.341575387404
 21
-101.6652289191202
 31
0.0
  0
LINE
  5
4A4E
330
474F
100
AcDbEntity
  8
AM_REFDIM
100
AcDbLine
 10
530.0415753874041
 20
-110.5652289191202
 30
0.0
 11
530.0415753874041
 21
-103.7652289191202
 31
0.0
  0
SOLID
  5
4A4F
330
474F
100
AcDbEntity
  8
AM_REFDIM
100
AcDbTrace
 10
529.691575387404
 20
-110.5652289191202
 30
0.0
 11
530.3915753874041
 21
-110.5652289191202
 31
0.0
 12
530.0415753874041
 22
-112.6652289191202
 32
0.0
 13
530.0415753874041
 23
-112.6652289191202
 33
0.0
  0
SOLID
  5
4A50
330
474F
100
AcDbEntity
  8
AM_REFDIM
100
AcDbTrace
 10
529.691575387404
 20
-103.7652289191202
 30
0.0
 11
530.3915753874041
 21
-103.7652289191202
 31
0.0
 12
530.0415753874041
 22
-101.6652289191202
 32
0.0
 13
530.0415753874041
 23
-101.6652289191202
 33
0.0
  0
MTEXT
  5
4A51
330
474F
100
AcDbEntity
  8
AM_REFDIM
100
AcDbMText
 10
528.2565753874041
 20
-107.1652289191201
 30
0.0
 40
2.449999999999999
 41
0.0
 71
     5
 72
     1
  1
\A1;11
  7
CHINESET
 11
0.0000000000000001
 21
1.0
 31
0.0
 73
     1
 44
1.0
1001
ACAD
1000
MTEXTBEGIN
1070
    73
1070
     1
1070
    44
1040
1.0
1070
    74
1070
     0
1000
MTEXTEND
  0
POINT
  5
4A52
330
474F
100
AcDbEntity
  8
Defpoints
 62
     0
100
AcDbPoint
 10
577.0295641800434
 20
-112.6652289191202
 30
0.0
  0
POINT
  5
4A53
330
474F
100
AcDbEntity
  8
Defpoints
 62
     0
100
AcDbPoint
 10
584.0295641800434
 20
-101.6652289191202
 30
0.0
  0
POINT
  5
4A54
330
474F
100
AcDbEntity
  8
Defpoints
 62
     0
100
AcDbPoint
 10
530.0415753874041
 20
-101.6652289191202
 30
0.0
  0
ENDBLK
  5
475A
330
474F
100
AcDbEntity
  8
0
100
AcDbBlockEnd
  0
BLOCK
  5
478D
330
4783
100
AcDbEntity
  8
0
100
AcDbBlockBegin
  2
*D27
 70
     1
 10
0.0
 20
0.0
 30
0.0
  3
*D27
  1

  0
LINE
  5
4BEF
330
4783
100
AcDbEntity
  8
AM_REFDIM
100
AcDbLine
 10
573.6295641800433
 20
-0.8147114411139851
 30
0.0
 11
537.2295641800434
 21
-0.8147114411139748
 31
0.0
  0
LINE
  5
4BF0
330
4783
100
AcDbEntity
  8
AM_REFDIM
100
AcDbLine
 10
580.6295641800432
 20
-9.014711441113973
 30
0.0
 11
534.372647854207
 21
-9.014711441113959
 31
0.0
  0
LINE
  5
4BF1
330
4783
100
AcDbEntity
  8
AM_REFDIM
100
AcDbLine
 10
525.7726478542069
 20
-2.914711441113971
 30
0.0
 11
525.7726478542069
 21
-6.914711441113957
 31
0.0
  0
SOLID
  5
4BF2
330
4783
100
AcDbEntity
  8
AM_REFDIM
100
AcDbTrace
 10
525.422647854207
 20
-2.914711441113971
 30
0.0
 11
526.1226478542069
 21
-2.914711441113971
 31
0.0
 12
525.7726478542069
 22
-0.8147114411139714
 32
0.0
 13
525.7726478542069
 23
-0.8147114411139714
 33
0.0
  0
SOLID
  5
4BF3
330
4783
100
AcDbEntity
  8
AM_REFDIM
100
AcDbTrace
 10
525.422647854207
 20
-6.914711441113957
 30
0.0
 11
526.1226478542069
 21
-6.914711441113958
 31
0.0
 12
525.7726478542069
 22
-9.014711441113957
 32
0.0
 13
525.7726478542069
 23
-9.014711441113957
 33
0.0
  0
MTEXT
  5
4BF4
330
4783
100
AcDbEntity
  8
AM_REFDIM
100
AcDbMText
 10
523.987647854207
 20
-4.91471144111388
 30
0.0
 40
2.449999999999999
 41
0.0
 71
     5
 72
     1
  1
\A1;8.2
  7
CHINESET
 11
0.0000000000000001
 21
1.0
 31
0.0
 73
     1
 44
1.0
1001
ACAD
1000
MTEXTBEGIN
1070
    73
1070
     1
1070
    44
1040
1.0
1070
    74
1070
     0
1000
MTEXTEND
  0
POINT
  5
4BF5
330
4783
100
AcDbEntity
  8
Defpoints
 62
     0
100
AcDbPoint
 10
574.3295641800433
 20
-0.8147114411139853
 30
0.0
  0
POINT
  5
4BF6
330
4783
100
AcDbEntity
  8
Defpoints
 62
     0
100
AcDbPoint
 10
581.3295641800433
 20
-9.014711441113973
 30
0.0
  0
POINT
  5
4BF7
330
4783
100
AcDbEntity
  8
Defpoints
 62
     0
100
AcDbPoint
 10
525.7726478542069
 20
-9.014711441113957
 30
0.0
  0
LINE
  5
4BF8
330
4783
100
AcDbEntity
  8
AM_REFDIM
100
AcDbLine
 10
530.1726478542069
 20
-0.8147114411139726
 30
0.0
 11
525.0726478542069
 21
-0.8147114411139712
 31
0.0
  0
LINE
  5
4BF9
330
4783
100
AcDbEntity
  8
AM_REFDIM
100
AcDbLine
 10
530.1726478542069
 20
-9.014711441113959
 30
0.0
 11
525.0726478542069
 21
-9.014711441113957
 31
0.0
  0
ENDBLK
  5
478E
330
4783
100
AcDbEntity
  8
0
100
AcDbBlockEnd
  0
BLOCK
  5
49F1
330
49E7
100
AcDbEntity
  8
0
100
AcDbBlockBegin
  2
*D28
 70
     1
 10
0.0
 20
0.0
 30
0.0
  3
*D28
  1

  0
LINE
  5
4A79
330
49E7
100
AcDbEntity
  8
AM_REFDIM
100
AcDbLine
 10
623.0795641800433
 20
-111.0152289191201
 30
0.0
 11
623.0795641800433
 21
-127.8285859533153
 31
0.0
  0
LINE
  5
4A7A
330
49E7
100
AcDbEntity
  8
AM_REFDIM
100
AcDbLine
 10
579.2795641800434
 20
-110.7152289191202
 30
0.0
 11
579.2795641800434
 21
-127.8285859533153
 31
0.0
  0
LINE
  5
4A7B
330
49E7
100
AcDbEntity
  8
AM_REFDIM
100
AcDbLine
 10
620.9795641800432
 20
-127.1285859533153
 30
0.0
 11
581.3795641800433
 21
-127.1285859533153
 31
0.0
  0
SOLID
  5
4A7C
330
49E7
100
AcDbEntity
  8
AM_REFDIM
100
AcDbTrace
 10
620.9795641800432
 20
-126.7785859533153
 30
0.0
 11
620.9795641800432
 21
-127.4785859533153
 31
0.0
 12
623.0795641800433
 22
-127.1285859533153
 32
0.0
 13
623.0795641800433
 23
-127.1285859533153
 33
0.0
  0
SOLID
  5
4A7D
330
49E7
100
AcDbEntity
  8
AM_REFDIM
100
AcDbTrace
 10
581.3795641800433
 20
-126.7785859533153
 30
0.0
 11
581.3795641800433
 21
-127.4785859533153
 31
0.0
 12
579.2795641800434
 22
-127.1285859533153
 32
0.0
 13
579.2795641800434
 23
-127.1285859533153
 33
0.0
  0
MTEXT
  5
4A7E
330
49E7
100
AcDbEntity
  8
AM_REFDIM
100
AcDbMText
 10
601.1795641800433
 20
-125.3435859533153
 30
0.0
 40
2.449999999999999
 41
0.0
 71
     5
 72
     1
  1
\A1;43.8
  7
CHINESET
 73
     1
 44
1.0
1001
ACAD
1000
MTEXTBEGIN
1070
    73
1070
     1
1070
    44
1040
1.0
1070
    74
1070
     0
1000
MTEXTEND
  0
POINT
  5
4A7F
330
49E7
100
AcDbEntity
  8
Defpoints
 62
     0
100
AcDbPoint
 10
623.0795641800433
 20
-110.3152289191201
 30
0.0
  0
POINT
  5
4A80
330
49E7
100
AcDbEntity
  8
Defpoints
 62
     0
100
AcDbPoint
 10
579.2795641800434
 20
-110.0152289191202
 30
0.0
  0
POINT
  5
4A81
330
49E7
100
AcDbEntity
  8
Defpoints
 62
     0
100
AcDbPoint
 10
579.2795641800434
 20
-127.1285859533153
 30
0.0
  0
ENDBLK
  5
49F2
330
49E7
100
AcDbEntity
  8
0
100
AcDbBlockEnd
  0
ENDSEC
  0
SECTION
  2
ENTITIES
  0
POINT
  5
25
330
2
100
AcDbEntity
  8
0
 60
     1
100
AcDbPoint
 10
0.0
 20
0.0
 30
0.0
  0
POINT
  5
26
330
2
100
AcDbEntity
  8
0
 60
     1
100
AcDbPoint
 10
0.0
 20
0.0
 30
0.0
  0
POINT
  5
27
330
2
100
AcDbEntity
  8
0
 60
     1
100
AcDbPoint
 10
0.0
 20
0.0
 30
0.0
  0
POINT
  5
28
330
2
100
AcDbEntity
  8
0
 60
     1
100
AcDbPoint
 10
0.0
 20
0.0
 30
0.0
  0
POINT
  5
29
330
2
100
AcDbEntity
  8
0
 60
     1
100
AcDbPoint
 10
0.0
 20
0.0
 30
0.0
  0
POINT
  5
2A
330
2
100
AcDbEntity
  8
0
 60
     1
100
AcDbPoint
 10
0.0
 20
0.0
 30
0.0
  0
POINT
  5
2B
330
2
100
AcDbEntity
  8
0
 60
     1
100
AcDbPoint
 10
0.0
 20
0.0
 30
0.0
  0
POINT
  5
2C
330
2
100
AcDbEntity
  8
0
 60
     1
100
AcDbPoint
 10
0.0
 20
0.0
 30
0.0
  0
POINT
  5
2D
330
2
100
AcDbEntity
  8
0
 60
     1
100
AcDbPoint
 10
0.0
 20
0.0
 30
0.0
  0
POINT
  5
2E
330
2
100
AcDbEntity
  8
0
 60
     1
100
AcDbPoint
 10
0.0
 20
0.0
 30
0.0
  0
POINT
  5
2F
330
2
100
AcDbEntity
  8
0
 60
     1
100
AcDbPoint
 10
0.0
 20
0.0
 30
0.0
  0
POINT
  5
30
330
2
100
AcDbEntity
  8
0
 60
     1
100
AcDbPoint
 10
0.0
 20
0.0
 30
0.0
  0
DIMENSION
  5
31
330
2
100
AcDbEntity
  8
AM_PARDIM
 60
     1
100
AcDbDimension
  2
*D1
 10
114.5325708695175
 20
128.6938113892625
 30
0.0
 11
111.7822263813285
 21
122.4438113892625
 31
0.0
 70
    32
  1
<>
 71
     5
 42
12.50000000000001
  3
AM_ISO$0
100
AcDbAlignedDimension
 13
75.37464887656421
 23
116.1938113892625
 33
0.0
 14
75.37464887656421
 24
128.6938113892625
 34
0.0
 50
90.0
100
AcDbRotatedDimension
1001
ACAD_DIMASSOC_CALC_DIMLFAC
1040
-1.0
1001
AD_SKETCHDIM
1005
0
1000
d0
1001
ACAD_DIMASSOC_DIMLFAC
1040
-1.0
1001
ACAD
1000
DSTYLE
1002
{
1070
   144
1040
-1.0
1002
}
  0
DIMENSION
  5
43
330
2
100
AcDbEntity
  8
AM_PARDIM
 60
     1
100
AcDbDimension
  2
*D2
 10
26.87464887656421
 20
122.1938113892625
 30
0.0
 11
24.12464887656419
 21
119.1938113892625
 31
0.0
 70
    32
  1
<>
 71
     5
 42
6.0
  3
AM_ISO$0
100
AcDbAlignedDimension
 13
38.87464887656421
 23
116.1938113892625
 33
0.0
 14
38.87464887656421
 24
122.1938113892625
 34
0.0
 50
90.0
100
AcDbRotatedDimension
1001
ACAD_DIMASSOC_CALC_DIMLFAC
1040
-1.0
1001
AD_SKETCHDIM
1005
0
1000
d1
1001
ACAD_DIMASSOC_DIMLFAC
1040
-1.0
1001
ACAD
1000
DSTYLE
1002
{
1070
   144
1040
-1.0
1002
}
  0
DIMENSION
  5
52
330
2
100
AcDbEntity
  8
AM_PARDIM
 60
     1
100
AcDbDimension
  2
*D3
 10
50.87464887656421
 20
140.6938113892625
 30
0.0
 11
44.87464887656421
 21
143.4441558774515
 31
0.0
 70
    32
  1
<>
 71
     5
 42
12.0
  3
AM_ISO$0
100
AcDbAlignedDimension
 13
38.87464887656421
 23
122.1938113892625
 33
0.0
 14
50.87464887656421
 24
122.1938113892625
 34
0.0
100
AcDbRotatedDimension
1001
ACAD_DIMASSOC_CALC_DIMLFAC
1040
-1.0
1001
AD_SKETCHDIM
1005
0
1000
d2
1001
ACAD_DIMASSOC_DIMLFAC
1040
-1.0
1001
ACAD
1000
DSTYLE
1002
{
1070
   144
1040
-1.0
1002
}
  0
DIMENSION
  5
5F
330
2
100
AcDbEntity
  8
AM_PARDIM
 60
     1
100
AcDbDimension
  2
*D4
 10
75.37464887656421
 20
160.6938113892625
 30
0.0
 11
57.12464887656421
 21
163.4438113892625
 31
0.0
 70
    32
  1
<>
 71
     5
 42
36.5
  3
AM_ISO$0
100
AcDbAlignedDimension
 13
38.87464887656421
 23
116.1938113892625
 33
0.0
 14
75.37464887656421
 24
116.1938113892625
 34
0.0
100
AcDbRotatedDimension
1001
ACAD_DIMASSOC_CALC_DIMLFAC
1040
-1.0
1001
AD_SKETCHDIM
1005
0
1000
d3
1001
ACAD_DIMASSOC_DIMLFAC
1040
-1.0
1001
ACAD
1000
DSTYLE
1002
{
1070
   144
1040
-1.0
1002
}
  0
DIMENSION
  5
6C
330
2
100
AcDbEntity
  8
AM_PARDIM
 60
     1
100
AcDbDimension
  2
*D5
 10
104.5325708695175
 20
116.1938113892625
 30
0.0
 11
101.7825708695175
 21
121.6938113892625
 31
0.0
 70
    32
  1
<>
 71
     5
 42
11.0
  3
AM_ISO$0
100
AcDbAlignedDimension
 13
50.87464887656421
 23
127.1938113892625
 33
0.0
 14
75.37464887656421
 24
116.1938113892625
 34
0.0
 50
90.0
100
AcDbRotatedDimension
1001
ACAD_DIMASSOC_CALC_DIMLFAC
1040
-1.0
1001
AD_SKETCHDIM
1005
0
1000
d4
1001
ACAD_DIMASSOC_DIMLFAC
1040
-1.0
1001
ACAD
1000
DSTYLE
1002
{
1070
   144
1040
-1.0
1002
}
  0
DIMENSION
  5
79
330
2
100
AcDbEntity
  8
AM_PARDIM
 60
     1
100
AcDbDimension
  2
*D6
 10
75.37464887656421
 20
150.6938113892625
 30
0.0
 11
70.87464887656421
 21
153.4438113892625
 31
0.0
 70
    32
  1
<>
 71
     5
 42
9.0
  3
AM_ISO$0
100
AcDbAlignedDimension
 13
66.3746488765642
 23
128.6938113892625
 33
0.0
 14
75.37464887656421
 24
128.6938113892625
 34
0.0
100
AcDbRotatedDimension
1001
ACAD_DIMASSOC_CALC_DIMLFAC
1040
-1.0
1001
AD_SKETCHDIM
1005
0
1000
d5
1001
ACAD_DIMASSOC_DIMLFAC
1040
-1.0
1001
ACAD
1000
DSTYLE
1002
{
1070
   144
1040
-1.0
1002
}
  0
DIMENSION
  5
86
330
2
100
AcDbEntity
  8
AM_PARDIM
 60
     1
100
AcDbDimension
  2
*D7
 10
66.37464887656418
 20
140.6938113892625
 30
0.0
 11
75.94157522635743
 21
143.4441558774515
 31
0.0
 70
    32
  1
<>
 71
     5
 42
2.5
  3
AM_ISO$0
100
AcDbAlignedDimension
 13
63.87464887656418
 23
128.6938113892624
 33
0.0
 14
66.37464887656418
 24
128.6938113892624
 34
0.0
100
AcDbRotatedDimension
1001
ACAD_DIMASSOC_CALC_DIMLFAC
1040
-1.0
1001
AD_SKETCHDIM
1005
0
1000
d25
1001
ACAD_DIMASSOC_DIMLFAC
1040
-1.0
1001
ACAD
1000
DSTYLE
1002
{
1070
   144
1040
-1.0
1002
}
  0
DIMENSION
  5
95
330
2
100
AcDbEntity
  8
AM_PARDIM
 60
     1
100
AcDbDimension
  2
*D8
 10
66.37464887656418
 20
136.030378563861
 30
0.0
 11
74.07740478207599
 21
138.780378563861
 31
0.0
 70
    32
  1
<>
 71
     5
 42
0.0
  3
AM_ISO$0
100
AcDbAlignedDimension
 13
66.37464887656418
 23
128.6938113892624
 33
0.0
 14
66.37464887656418
 24
116.1938113892624
 34
0.0
100
AcDbRotatedDimension
1001
ACAD_DIMASSOC_CALC_DIMLFAC
1040
-1.0
1001
AD_SKETCHDIM
1005
0
1000
d26
1001
ACAD_DIMASSOC_DIMLFAC
1040
-1.0
1001
ACAD
1000
DSTYLE
1002
{
1070
   144
1040
-1.0
1002
}
  0
DIMENSION
  5
A3
330
2
100
AcDbEntity
  8
AM_PARDIM
 60
     1
100
AcDbDimension
  2
*D9
 10
94.53257086951754
 20
116.1938113892624
 30
0.0
 11
91.78257086951752
 21
120.9438113892624
 31
0.0
 70
    32
  1
<>
 71
     5
 42
9.5
  3
AM_ISO$0
100
AcDbAlignedDimension
 13
63.87464887656418
 23
125.6938113892624
 33
0.0
 14
82.53257086951753
 24
116.1938113892624
 34
0.0
 50
90.0
100
AcDbRotatedDimension
1001
ACAD_DIMASSOC_CALC_DIMLFAC
1040
-1.0
1001
AD_SKETCHDIM
1005
0
1000
d27
1001
ACAD_DIMASSOC_DIMLFAC
1040
-1.0
1001
ACAD
1000
DSTYLE
1002
{
1070
   144
1040
-1.0
1002
}
  0
DIMENSION
  5
B0
330
2
100
AcDbEntity
  8
AM_PARDIM
 60
     1
100
AcDbDimension
  2
*D10
 10
124.5325708695175
 20
116.1938113892624
 30
0.0
 11
121.7822263813285
 21
122.4438113892624
 31
0.0
 70
    32
  1
<>
 71
     5
 42
12.50000000000004
  3
AM_ISO$0
100
AcDbAlignedDimension
 13
66.37464887656418
 23
128.6938113892624
 33
0.0
 14
82.53257086951753
 24
116.1938113892624
 34
0.0
 50
90.0
100
AcDbRotatedDimension
1001
ACAD_DIMASSOC_CALC_DIMLFAC
1040
-1.0
1001
AD_SKETCHDIM
1005
0
1000
d28
1001
ACAD_DIMASSOC_DIMLFAC
1040
-1.0
1001
ACAD
1000
DSTYLE
1002
{
1070
   144
1040
-1.0
1002
}
  0
LINE
  5
C8
330
2
100
AcDbEntity
  8
AM_7
 60
     1
100
AcDbLine
 10
36.3746488765642
 20
116.1938113892625
 30
0.0
 11
51.3746488765642
 21
116.1938113892625
 31
0.0
  0
MTEXT
  5
151
330
2
100
AcDbEntity
  8
AM_5
 62
     5
100
AcDbMText
 10
33.56078100938999
 20
98.94002315335121
 30
0.0
 40
3.5
 41
0.0
 71
     9
 72
     5
  1

  7
ACISOTS
 73
     1
 44
1.0
1001
ACAD
1000
MTEXTBEGIN
1070
    73
1070
     1
1070
    44
1040
1.0
1070
    74
1070
     0
1000
MTEXTEND
  0
MTEXT
  5
156
330
2
100
AcDbEntity
  8
AM_5
 62
     5
100
AcDbMText
 10
67.11527269722637
 20
92.4148402526181
 30
0.0
 40
3.5
 41
0.0
 71
     9
 72
     5
  1

  7
ACISOTS
 73
     1
 44
1.0
1001
ACAD
1000
MTEXTBEGIN
1070
    73
1070
     1
1070
    44
1040
1.0
1070
    74
1070
     0
1000
MTEXTEND
  0
TEXT
  5
13E2
330
2
100
AcDbEntity
  8
LOGO
  6
Continuous
 62
     7
100
AcDbText
 10
581.3681225899302
 20
-143.8833963386157
 30
0.0
 40
3.083734080377228
  1
MVSF
  7
CHINESET
 72
     1
 11
587.0216350706218
 21
-142.341529298427
 31
0.0
100
AcDbText
 73
     2
  0
LINE
  5
13E5
330
2
100
AcDbEntity
  8
LOGO
 62
     4
100
AcDbLine
 10
594.4225968635274
 20
-139.5661686260875
 30
0.0
 11
579.6206732777168
 21
-139.5661686260875
 31
0.0
  0
LINE
  5
13E6
330
2
100
AcDbEntity
  8
LOGO
 62
     4
100
AcDbLine
 10
594.4225968635274
 20
-145.1168899707665
 30
0.0
 11
579.6206732777168
 21
-145.1168899707665
 31
0.0
  0
LINE
  5
13E7
330
2
100
AcDbEntity
  8
LOGO
 62
     4
100
AcDbLine
 10
591.8989635697328
 20
-147.892250643106
 30
0.0
 11
581.9139253193115
 21
-147.892250643106
 31
0.0
  0
LINE
  5
13E8
330
2
100
AcDbEntity
  8
LOGO
 62
     4
100
AcDbLine
 10
591.8989635697328
 20
-154.6764656199359
 30
0.0
 11
581.9139253193115
 21
-154.676465619936
 31
0.0
  0
LINE
  5
14D1
330
2
100
AcDbEntity
  8
LOGO
 62
     4
100
AcDbLine
 10
579.6206732777168
 20
-139.5661686260875
 30
0.0
 11
579.6206732777168
 21
-145.1168899707665
 31
0.0
  0
LINE
  5
14D2
330
2
100
AcDbEntity
  8
LOGO
 62
     4
100
AcDbLine
 10
581.9139253193115
 20
-147.892250643106
 30
0.0
 11
581.9139253193115
 21
-154.676465619936
 31
0.0
  0
TEXT
  5
14D3
330
2
100
AcDbEntity
  8
LOGO
100
AcDbText
 10
584.2905850706219
 20
-153.9087358383994
 30
0.0
 40
1.606499999999999
  1
Model
 72
     4
 11
587.0216350706218
 21
-153.1345985797474
 31
0.0
100
AcDbText
  0
TEXT
  5
14D4
330
2
100
AcDbEntity
  8
LOGO
100
AcDbText
 10
584.6118850706218
 20
-151.1940726686614
 30
0.0
 40
2.409749999999999
  1
型式
  7
CHINESET
 72
     4
 11
587.0216350706218
 21
-150.0508644993701
 31
0.0
100
AcDbText
  0
LINE
  5
14D5
330
2
100
AcDbEntity
  8
LOGO
 62
     4
100
AcDbLine
 10
587.0216350706218
 20
-145.1168899707665
 30
0.0
 11
587.0216350706218
 21
-147.892250643106
 31
0.0
  0
LINE
  5
14DF
330
2
100
AcDbEntity
  8
LOGO
  6
Continuous
 62
     7
100
AcDbLine
 10
629.3127916331972
 20
-142.3415292984269
 30
0.0
 11
631.763787642185
 21
-142.3415292984269
 31
0.0
  0
TEXT
  5
14E0
330
2
100
AcDbEntity
  8
LOGO
100
AcDbText
 10
623.2827268590557
 20
-151.1519731976968
 30
0.0
 40
2.409749999999999
  1
雙線圈
  7
CHINESET
 72
     4
 11
626.8471487340557
 21
-150.05086449937
 31
0.0
100
AcDbText
  0
LINE
  5
14E1
330
2
100
AcDbEntity
  8
LOGO
 62
     4
100
AcDbLine
 10
635.7022759178319
 20
-147.892250643106
 30
0.0
 11
619.3177258729167
 21
-147.892250643106
 31
0.0
  0
LINE
  5
14E2
330
2
100
AcDbEntity
  8
LOGO
 62
     4
100
AcDbLine
 10
635.7022759178319
 20
-154.6764656199359
 30
0.0
 11
619.3177258729167
 21
-154.6764656199359
 31
0.0
  0
TEXT
  5
14E3
330
2
100
AcDbEntity
  8
LOGO
100
AcDbText
 10
620.1026817482945
 20
-153.9378485797473
 30
0.0
 40
1.606499999999999
  1
Double solenoid
 72
     4
 11
627.5749148732946
 21
-153.1345985797473
 31
0.0
100
AcDbText
  0
LINE
  5
14EB
330
2
100
AcDbEntity
  8
LOGO
 62
     4
100
AcDbLine
 10
612.3924104745543
 20
-139.5661686260875
 30
0.0
 11
598.7898102697317
 21
-139.5661686260875
 31
0.0
  0
LINE
  5
14EC
330
2
100
AcDbEntity
  8
LOGO
 62
     4
100
AcDbLine
 10
612.3924104745543
 20
-145.1168899707665
 30
0.0
 11
598.7898102697317
 21
-145.1168899707665
 31
0.0
  0
LINE
  5
14F4
330
2
100
AcDbEntity
  8
LOGO
 62
     4
100
AcDbLine
 10
607.5138297301454
 20
-147.892250643106
 30
0.0
 11
593.9112295253226
 21
-147.892250643106
 31
0.0
  0
LINE
  5
14F5
330
2
100
AcDbEntity
  8
LOGO
 62
     4
100
AcDbLine
 10
607.5138297301454
 20
-154.6764656199359
 30
0.0
 11
593.9112295253226
 21
-154.676465619936
 31
0.0
  0
TEXT
  5
14F6
330
2
100
AcDbEntity
  8
LOGO
100
AcDbText
 10
595.4622918863861
 20
-153.6968735797473
 30
0.0
 40
1.606499999999999
  1
Body width
 72
     4
 11
600.712529627734
 21
-153.1345985797474
 31
0.0
100
AcDbText
  0
TEXT
  5
14F7
330
2
100
AcDbEntity
  8
LOGO
100
AcDbText
 10
595.893029627734
 20
-151.2133435532579
 30
0.0
 40
2.409749999999999
  1
本體寬幅
  7
CHINESET
 72
     4
 11
600.712529627734
 21
-150.0508644993701
 31
0.0
100
AcDbText
  0
LINE
  5
14F8
330
2
100
AcDbEntity
  8
LOGO
 62
     4
100
AcDbLine
 10
598.7898102697317
 20
-139.5661686260875
 30
0.0
 11
598.7898102697317
 21
-145.1168899707665
 31
0.0
  0
LINE
  5
14F9
330
2
100
AcDbEntity
  8
LOGO
 62
     4
100
AcDbLine
 10
594.4225968635274
 20
-139.5661686260875
 30
0.0
 11
594.4225968635274
 21
-145.1168899707665
 31
0.0
  0
LINE
  5
14FA
330
2
100
AcDbEntity
  8
LOGO
  6
Continuous
 62
     7
100
AcDbLine
 10
595.378902732231
 20
-142.3611908306512
 30
0.0
 11
597.8298987412194
 21
-142.3611908306512
 31
0.0
  0
LINE
  5
14FB
330
2
100
AcDbEntity
  8
LOGO
 62
     4
100
AcDbLine
 10
593.9112295253226
 20
-147.892250643106
 30
0.0
 11
593.9112295253226
 21
-154.6764656199359
 31
0.0
  0
LINE
  5
14FC
330
2
100
AcDbEntity
  8
LOGO
 62
     4
100
AcDbLine
 10
591.8989635697328
 20
-147.892250643106
 30
0.0
 11
591.8989635697328
 21
-154.6764656199359
 31
0.0
  0
TEXT
  5
1509
330
2
100
AcDbEntity
  8
LOGO
  6
Continuous
 62
     7
100
AcDbText
 10
601.9199983716942
 20
-143.9183660774017
 30
0.0
 40
3.083734080377228
  1
100
  7
CHINESET
 72
     1
 11
605.5911103721432
 21
-142.3764990372131
 31
0.0
100
AcDbText
 73
     2
  0
LINE
  5
150A
330
2
100
AcDbEntity
  8
LOGO
 62
     4
100
AcDbLine
 10
605.5911103721432
 20
-146.5045703069363
 30
0.0
 11
600.0805252968516
 21
-146.5045703069363
 31
0.0
  0
LINE
  5
150B
330
2
100
AcDbEntity
  8
LOGO
 62
     4
100
AcDbLine
 10
600.0805252968516
 20
-147.892250643106
 30
0.0
 11
600.0805252968516
 21
-146.5045703069363
 31
0.0
  0
LINE
  5
150C
330
2
100
AcDbEntity
  8
LOGO
 62
     4
100
AcDbLine
 10
605.5911103721432
 20
-145.1168899707665
 30
0.0
 11
605.5911103721432
 21
-146.5045703069363
 31
0.0
  0
LINE
  5
150D
330
2
100
AcDbEntity
  8
LOGO
 62
     4
100
AcDbLine
 10
607.5138297301454
 20
-147.892250643106
 30
0.0
 11
607.5138297301454
 21
-154.6764656199359
 31
0.0
  0
LINE
  5
1533
330
2
100
AcDbEntity
  8
LOGO
 62
     4
100
AcDbLine
 10
620.4942750283741
 20
-139.5661686260874
 30
0.0
 11
616.7596238807586
 21
-139.5661686260875
 31
0.0
  0
LINE
  5
1534
330
2
100
AcDbEntity
  8
LOGO
 62
     4
100
AcDbLine
 10
618.0169222116071
 20
-147.892250643106
 30
0.0
 11
608.1148029032371
 21
-147.892250643106
 31
0.0
  0
LINE
  5
1535
330
2
100
AcDbEntity
  8
LOGO
 62
     4
100
AcDbLine
 10
620.4942750283741
 20
-145.1168899707665
 30
0.0
 11
616.7596238807586
 21
-145.1168899707665
 31
0.0
  0
LINE
  5
1536
330
2
100
AcDbEntity
  8
LOGO
 62
     4
100
AcDbLine
 10
618.0169222116071
 20
-154.6764656199359
 30
0.0
 11
608.1148029032371
 21
-154.6764656199359
 31
0.0
  0
LINE
  5
1537
330
2
100
AcDbEntity
  8
LOGO
 62
     4
100
AcDbLine
 10
612.3924104745543
 20
-139.5661686260875
 30
0.0
 11
612.3924104745543
 21
-145.1168899707665
 31
0.0
  0
LINE
  5
1538
330
2
100
AcDbEntity
  8
LOGO
 62
     4
100
AcDbLine
 10
616.7596238807586
 20
-139.5661686260875
 30
0.0
 11
616.7596238807586
 21
-145.1168899707665
 31
0.0
  0
TEXT
  5
1539
330
2
100
AcDbEntity
  8
LOGO
100
AcDbText
 10
610.0938375574221
 20
-153.6968735797473
 30
0.0
 40
1.606499999999999
  1
4 Way
 72
     4
 11
613.0658625574222
 21
-153.1345985797474
 31
0.0
100
AcDbText
  0
TEXT
  5
153A
330
2
100
AcDbEntity
  8
LOGO
100
AcDbText
 10
608.5439953699221
 20
-151.2474381952362
 30
0.0
 40
2.409749999999999
  1
4 方向
  7
CHINESET
 72
     4
 11
613.0658625574222
 21
-150.0508644993701
 31
0.0
100
AcDbText
  0
LINE
  5
153B
330
2
100
AcDbEntity
  8
LOGO
  6
Continuous
 62
     7
100
AcDbLine
 10
613.3487163432582
 20
-142.3611908306511
 30
0.0
 11
615.799712352246
 21
-142.3611908306511
 31
0.0
  0
LINE
  5
153C
330
2
100
AcDbEntity
  8
LOGO
 62
     4
100
AcDbLine
 10
608.1148029032371
 20
-147.892250643106
 30
0.0
 11
608.1148029032371
 21
-154.6764656199359
 31
0.0
  0
TEXT
  5
153D
330
2
100
AcDbEntity
  8
LOGO
  6
Continuous
 62
     7
100
AcDbText
 10
617.5256158544316
 20
-143.8833963386156
 30
0.0
 40
3.083734080377228
  1
4
  7
CHINESET
 72
     1
 11
618.6269494545663
 21
-142.341529298427
 31
0.0
100
AcDbText
 73
     2
  0
LINE
  5
153E
330
2
100
AcDbEntity
  8
LOGO
 62
     4
100
AcDbLine
 10
618.5616524778353
 20
-146.5045703069362
 30
0.0
 11
611.2901928957368
 21
-146.5045703069362
 31
0.0
  0
LINE
  5
153F
330
2
100
AcDbEntity
  8
LOGO
 62
     4
100
AcDbLine
 10
611.2901928957368
 20
-147.892250643106
 30
0.0
 11
611.2901928957368
 21
-146.5045703069362
 31
0.0
  0
LINE
  5
1540
330
2
100
AcDbEntity
  8
LOGO
 62
     4
100
AcDbLine
 10
618.5616524778353
 20
-145.1168899707665
 30
0.0
 11
618.5616524778353
 21
-146.5045703069362
 31
0.0
  0
LINE
  5
1547
330
2
100
AcDbEntity
  8
LOGO
 62
     4
100
AcDbLine
 10
627.6845673088514
 20
-139.5661686260874
 30
0.0
 11
627.6845673088509
 21
-145.1168899707665
 31
0.0
  0
LINE
  5
1548
330
2
100
AcDbEntity
  8
LOGO
 62
     4
100
AcDbLine
 10
620.4942750283741
 20
-139.5661686260874
 30
0.0
 11
620.4942750283741
 21
-145.1168899707665
 31
0.0
  0
LINE
  5
1549
330
2
100
AcDbEntity
  8
LOGO
 62
     4
100
AcDbLine
 10
621.1110218444498
 20
-139.5661686260874
 30
0.0
 11
621.1110218444498
 21
-145.1168899707665
 31
0.0
  0
LINE
  5
154A
330
2
100
AcDbEntity
  8
LOGO
 62
     4
100
AcDbLine
 10
624.3977945766504
 20
-146.5045703069362
 30
0.0
 11
628.4066488811406
 21
-146.5045703069362
 31
0.0
  0
TEXT
  5
154B
330
2
100
AcDbEntity
  8
LOGO
  6
Continuous
 62
     7
100
AcDbText
 10
622.2626759166203
 20
-143.9183660774017
 30
0.0
 40
3.083734080377228
  1
E2
  7
CHINESET
 72
     1
 11
624.6856098369167
 21
-142.3764990372131
 31
0.0
100
AcDbText
 73
     2
  0
LINE
  5
154C
330
2
100
AcDbEntity
  8
LOGO
 62
     4
100
AcDbLine
 10
627.6845673088509
 20
-145.1168899707665
 30
0.0
 11
621.1110218444498
 21
-145.1168899707665
 31
0.0
  0
LINE
  5
154D
330
2
100
AcDbEntity
  8
LOGO
 62
     4
100
AcDbLine
 10
619.3177258729167
 20
-147.892250643106
 30
0.0
 11
619.3177258729167
 21
-154.6764656199359
 31
0.0
  0
LINE
  5
154E
330
2
100
AcDbEntity
  8
LOGO
 62
     4
100
AcDbLine
 10
618.0169222116071
 20
-147.892250643106
 30
0.0
 11
618.0169222116071
 21
-154.6764656199359
 31
0.0
  0
LINE
  5
154F
330
2
100
AcDbEntity
  8
LOGO
 62
     4
100
AcDbLine
 10
624.3977945766504
 20
-145.1168899707665
 30
0.0
 11
624.3977945766504
 21
-146.5045703069362
 31
0.0
  0
LINE
  5
1550
330
2
100
AcDbEntity
  8
LOGO
 62
     4
100
AcDbLine
 10
628.4066488811406
 20
-147.892250643106
 30
0.0
 11
628.4066488811406
 21
-146.5045703069362
 31
0.0
  0
LINE
  5
1553
330
2
100
AcDbEntity
  8
LOGO
 62
     4
100
AcDbLine
 10
627.6845673088514
 20
-139.5661686260874
 30
0.0
 11
621.1110218444498
 21
-139.5661686260874
 31
0.0
  0
LINE
  5
15C0
330
2
100
AcDbEntity
  8
LOGO
 62
     4
100
AcDbLine
 10
662.1399628979215
 20
-147.8922506431059
 30
0.0
 11
647.9454066627791
 21
-147.8922506431059
 31
0.0
  0
TEXT
  5
15C1
330
2
100
AcDbEntity
  8
LOGO
100
AcDbText
 10
648.7773345972349
 20
-153.9378485797472
 30
0.0
 40
1.606499999999999
  1
LED indicator
 72
     4
 11
655.0426845972349
 21
-153.1345985797472
 31
0.0
100
AcDbText
  0
LINE
  5
15C2
330
2
100
AcDbEntity
  8
LOGO
 62
     4
100
AcDbLine
 10
662.1399628979215
 20
-154.6764656199358
 30
0.0
 11
647.9454066627791
 21
-154.6764656199358
 31
0.0
  0
LINE
  5
15C4
330
2
100
AcDbEntity
  8
LOGO
 62
     4
100
AcDbLine
 10
646.6783146864861
 20
-147.892250643106
 30
0.0
 11
637.1881402529169
 21
-147.892250643106
 31
0.0
  0
LINE
  5
15C5
330
2
100
AcDbEntity
  8
LOGO
 62
     4
100
AcDbLine
 10
648.4997723513974
 20
-145.1168899707665
 30
0.0
 11
632.6761175900681
 21
-145.1168899707665
 31
0.0
  0
LINE
  5
15C6
330
2
100
AcDbEntity
  8
LOGO
 62
     4
100
AcDbLine
 10
648.4997723513974
 20
-139.5661686260873
 30
0.0
 11
632.6761175900681
 21
-139.5661686260873
 31
0.0
  0
LINE
  5
15C7
330
2
100
AcDbEntity
  8
LOGO
 62
     4
100
AcDbLine
 10
646.6783146864861
 20
-154.6764656199358
 30
0.0
 11
637.1881402529169
 21
-154.6764656199359
 31
0.0
  0
TEXT
  5
15C8
330
2
100
AcDbEntity
  8
LOGO
100
AcDbText
 10
638.2692663262047
 20
-153.6677608383993
 30
0.0
 40
1.606499999999999
  1
Voltage
 72
     4
 11
642.0445413262046
 21
-153.1345985797472
 31
0.0
100
AcDbText
  0
LINE
  5
15C9
330
2
100
AcDbEntity
  8
LOGO
 62
     4
100
AcDbLine
 10
632.6761175900681
 20
-139.5661686260873
 30
0.0
 11
632.6761175900681
 21
-145.1168899707664
 31
0.0
  0
LINE
  5
15CA
330
2
100
AcDbEntity
  8
LOGO
 62
     4
100
AcDbLine
 10
635.7022759178319
 20
-147.892250643106
 30
0.0
 11
635.7022759178319
 21
-154.6764656199359
 31
0.0
  0
LINE
  5
15CB
330
2
100
AcDbEntity
  8
LOGO
 62
     4
100
AcDbLine
 10
637.1881402529169
 20
-147.892250643106
 30
0.0
 11
637.1881402529169
 21
-154.6764656199359
 31
0.0
  0
LINE
  5
15CD
330
2
100
AcDbEntity
  8
LOGO
 62
     4
100
AcDbLine
 10
648.4997723513973
 20
-139.5661686260873
 30
0.0
 11
648.4997723513973
 21
-145.1168899707665
 31
0.0
  0
TEXT
  5
15CE
330
2
100
AcDbEntity
  8
LOGO
100
AcDbText
 10
639.6096897637046
 20
-151.2300449865747
 30
0.0
 40
2.409749999999999
  1
電壓
  7
CHINESET
 72
     4
 11
642.0445413262046
 21
-150.05086449937
 31
0.0
100
AcDbText
  0
LINE
  5
15CF
330
2
100
AcDbEntity
  8
LOGO
 62
     4
100
AcDbLine
 10
640.5879449707327
 20
-146.5045703069362
 30
0.0
 11
642.0445413262046
 21
-146.5045703069362
 31
0.0
  0
LINE
  5
15D0
330
2
100
AcDbEntity
  8
LOGO
 62
     4
100
AcDbLine
 10
640.5879449707327
 20
-145.1168899707665
 30
0.0
 11
640.5879449707327
 21
-146.5045703069362
 31
0.0
  0
TEXT
  5
15D1
330
2
100
AcDbEntity
  8
LOGO
  6
Continuous
 62
     7
100
AcDbText
 10
640.0258061144866
 20
-143.9183660774017
 30
0.0
 40
3.083734080377228
  1
?
  7
CHINESET
 72
     1
 11
640.8334507545854
 21
-142.3764990372131
 31
0.0
100
AcDbText
 73
     2
  0
LINE
  5
15D2
330
2
100
AcDbEntity
  8
LOGO
 62
     4
100
AcDbLine
 10
642.0445413262046
 20
-146.5045703069362
 30
0.0
 11
642.0445413262046
 21
-147.892250643106
 31
0.0
  0
LINE
  5
15D3
330
2
100
AcDbEntity
  8
LOGO
 62
     4
100
AcDbLine
 10
646.6783146864861
 20
-147.892250643106
 30
0.0
 11
646.6783146864861
 21
-154.6764656199358
 31
0.0
  0
LINE
  5
15D4
330
2
100
AcDbEntity
  8
LOGO
 62
     4
100
AcDbLine
 10
647.9454066627791
 20
-147.892250643106
 30
0.0
 11
647.9454066627791
 21
-154.6764656199358
 31
0.0
  0
LINE
  5
15F8
330
2
100
AcDbEntity
  8
LOGO
 62
     4
100
AcDbLine
 10
652.8669857576017
 20
-139.5661686260873
 30
0.0
 11
652.8669857576017
 21
-145.1168899707664
 31
0.0
  0
LINE
  5
15F9
330
2
100
AcDbEntity
  8
LOGO
 62
     4
100
AcDbLine
 10
656.6016369052171
 20
-139.5661686260873
 30
0.0
 11
656.6016369052171
 21
-145.1168899707664
 31
0.0
  0
LINE
  5
15FA
330
2
100
AcDbEntity
  8
LOGO
 62
     4
100
AcDbLine
 10
656.6016369052171
 20
-145.1168899707664
 30
0.0
 11
652.8669857576017
 21
-145.1168899707664
 31
0.0
  0
TEXT
  5
15FB
330
2
100
AcDbEntity
  8
LOGO
100
AcDbText
 10
651.4531611597349
 20
-151.23063793687
 30
0.0
 40
2.409749999999999
  1
附燈型
  7
CHINESET
 72
     4
 11
655.0426845972349
 21
-150.05086449937
 31
0.0
100
AcDbText
  0
LINE
  5
15FC
330
2
100
AcDbEntity
  8
LOGO
  6
Continuous
 62
     7
100
AcDbLine
 10
649.4560782201014
 20
-142.3611908306511
 30
0.0
 11
651.9070742290891
 21
-142.3611908306511
 31
0.0
  0
LINE
  5
15FD
330
2
100
AcDbEntity
  8
LOGO
 62
     4
100
AcDbLine
 10
654.7343113314093
 20
-145.1168899707664
 30
0.0
 11
654.7343113314093
 21
-147.8922506431059
 31
0.0
  0
TEXT
  5
15FE
330
2
100
AcDbEntity
  8
LOGO
  6
Continuous
 62
     7
100
AcDbText
 10
653.8532444513015
 20
-143.8833963386155
 30
0.0
 40
3.083734080377228
  1
L
  7
CHINESET
 72
     1
 11
654.7343113314093
 21
-142.3415292984269
 31
0.0
100
AcDbText
 73
     2
  0
LINE
  5
15FF
330
2
100
AcDbEntity
  8
LOGO
 62
     4
100
AcDbLine
 10
656.6016369052171
 20
-139.5661686260873
 30
0.0
 11
652.8669857576017
 21
-139.5661686260873
 31
0.0
  0
LINE
  5
1602
330
2
100
AcDbEntity
  8
LOGO
 62
     4
100
AcDbLine
 10
662.1399628979215
 20
-147.8922506431059
 30
0.0
 11
662.1399628979215
 21
-154.6764656199358
 31
0.0
  0
TEXT
  5
2138
330
2
100
AcDbEntity
  8
LOGO
100
AcDbText
 10
518.9724517384731
 20
29.90695974423649
 30
0.0
 40
4.283999999999999
  1
MVSF-100-4E2
100
AcDbText
  0
LINE
  5
2B59
330
2
100
AcDbEntity
  8
LOGO
 62
     4
100
AcDbLine
 10
663.7735213056678
 20
-138.3430885192445
 30
0.0
 11
515.4502989813883
 21
-138.3430885192445
 31
0.0
  0
LWPOLYLINE
  5
2B5A
330
2
100
AcDbEntity
  8
LOGO
 62
     4
100
AcDbPolyline
 90
        4
 70
     1
 43
0.0
 10
515.4502989813884
 20
-138.3430885192445
 10
663.7735213056678
 20
-138.3430885192445
 10
663.7735213056678
 20
41.97014700729791
 10
515.4502989813884
 20
41.97014700729791
1001
GENIUS_GENREC_14
1002
{
1000
PYDIR
1011
515.4502989813884
1021
41.97014700729791
1031
0.0
1002
}
1002
{
1000
PXDIR
1011
663.7735213056678
1021
-138.3430885192445
1031
0.0
1002
}
1002
{
1000
PORI
1011
515.4502989813884
1021
-138.3430885192445
1031
0.0
1002
}
1002
{
1000
PINS
1011
515.4502989813884
1021
-138.3430885192445
1031
0.0
1002
}
1002
{
1000
PINS2
1011
663.7735213056678
1021
41.97014700729791
1031
0.0
1002
}
1002
{
1000
C
1070
     1
1002
}
1001
GENIUS_GENODEF_13
1002
{
1000
HIER
1070
     0
1002
}
1002
{
1000
MANEDIT
1070
     0
1002
}
1002
{
1000
NOSEL
1070
     0
1002
}
1002
{
1000
BEHIND
1070
     0
1002
}
1002
{
1000
OTHER
1070
     0
1002
}
1002
{
1000
REACTOR
1002
}
1001
GENIUS_GENOBJ-N-REC_13
1002
{
1000
OWNER
1000
GEN
1002
}
  0
LWPOLYLINE
  5
2B5B
330
2
100
AcDbEntity
  8
LOGO
 62
     4
100
AcDbPolyline
 90
        4
 70
     1
 43
0.0
 10
515.4502989813884
 20
-138.3430885192445
 10
663.7735213056678
 20
-138.3430885192445
 10
663.7735213056678
 20
-156.8472887900138
 10
515.4502989813884
 20
-156.8472887900138
1001
GENIUS_GENREC_14
1002
{
1000
PYDIR
1011
515.4502989813884
1021
-156.8472887900138
1031
0.0
1002
}
1002
{
1000
PXDIR
1011
663.7735213056678
1021
-138.3430885192445
1031
0.0
1002
}
1002
{
1000
PORI
1011
515.4502989813884
1021
-138.3430885192445
1031
0.0
1002
}
1002
{
1000
PINS
1011
515.4502989813884
1021
-138.3430885192445
1031
0.0
1002
}
1002
{
1000
PINS2
1011
663.7735213056678
1021
-156.8472887900138
1031
0.0
1002
}
1002
{
1000
C
1070
     1
1002
}
1001
GENIUS_GENOBJ-N-REC_13
1002
{
1000
OWNER
1000
GEN
1002
}
1001
GENIUS_GENODEF_13
1002
{
1000
HIER
1070
     0
1002
}
1002
{
1000
MANEDIT
1070
     0
1002
}
1002
{
1000
NOSEL
1070
     0
1002
}
1002
{
1000
BEHIND
1070
     0
1002
}
1002
{
1000
OTHER
1070
     0
1002
}
1002
{
1000
REACTOR
1002
}
  0
TEXT
  5
2B5C
330
2
100
AcDbEntity
  8
LOGO
 62
     7
100
AcDbText
 10
557.2315579477857
 20
-146.4494637819948
 30
0.0
 40
2.46722670276923
  1
Order example:
 41
0.8
  7
CHINESET
100
AcDbText
  0
TEXT
  5
2B5D
330
2
100
AcDbEntity
  8
LOGO
 62
     7
100
AcDbText
 10
557.6741988213973
 20
-142.9761194303029
 30
0.0
 40
3.700840054153845
  1
訂購代號：
  7
CHINESET
100
AcDbText
  0
LINE
  5
2B5E
330
2
100
AcDbEntity
  8
LOGO
 62
     4
100
AcDbLine
 10
556.1595395770805
 20
-156.8472887900138
 30
0.0
 11
556.1595395770805
 21
-138.3430885192445
 31
0.0
  0
TEXT
  5
2B5F
330
2
100
AcDbEntity
  8
LOGO
  6
Continuous
100
AcDbText
 10
522.097090896638
 20
-153.2121665720942
 30
0.0
 40
2.775630040615384
  1
金器工業股份有限公司
  7
CHINESET
100
AcDbText
  0
TEXT
  5
2B60
330
2
100
AcDbEntity
  8
LOGO
  6
Continuous
100
AcDbText
 10
516.9988076433509
 20
-155.9883404185798
 30
0.0
 40
1.850420027076922
  1
MINDMAN INDUSTRIAL CO., LTD.
 41
0.85
  7
CHINESET
100
AcDbText
  0
LINE
  5
2B61
330
2
100
AcDbEntity
  8
LOGO
 62
     4
100
AcDbLine
 10
556.1595395770805
 20
-142.0439285733983
 30
0.0
 11
529.020045846619
 21
-142.0439285733983
 31
0.0
  0
LINE
  5
2B62
330
2
100
AcDbEntity
  8
LOGO
 62
     4
100
AcDbLine
 10
556.1595395770805
 20
-145.7447686275521
 30
0.0
 11
529.020045846619
 21
-145.7447686275521
 31
0.0
  0
LINE
  5
2B63
330
2
100
AcDbEntity
  8
LOGO
 62
     4
100
AcDbLine
 10
556.1595395770805
 20
-149.4456086817059
 30
0.0
 11
515.4502989813883
 21
-149.4456086817059
 31
0.0
  0
LINE
  5
2B64
330
2
100
AcDbEntity
  8
LOGO
 62
     4
100
AcDbLine
 10
529.020045846619
 20
-149.4456086817059
 30
0.0
 11
529.020045846619
 21
-138.3430885192445
 31
0.0
  0
TEXT
  5
2B65
330
2
100
AcDbEntity
  8
LOGO
100
AcDbText
 10
547.5686088467967
 20
-148.5203986681677
 30
0.0
 40
1.850420027076922
  1
mm
  7
CHINESET
 72
     1
 11
549.8596050707967
 21
-147.5951886546292
 31
0.0
100
AcDbText
 73
     2
  0
TEXT
  5
2B66
330
2
100
AcDbEntity
  8
LOGO
100
AcDbText
 10
546.5993412135659
 20
-141.11871855986
 30
0.0
 40
1.850420027076922
  1
1 : 1
  7
CHINESET
 72
     1
 11
549.8596050707967
 21
-140.1935085463215
 31
0.0
100
AcDbText
 73
     2
  0
LINE
  5
2B67
330
2
100
AcDbEntity
  8
LOGO
 62
     4
100
AcDbLine
 10
543.8234060632343
 20
-149.4456086817059
 30
0.0
 11
543.8234060632343
 21
-138.3430885192445
 31
0.0
  0
TEXT
  5
2B68
330
2
100
AcDbEntity
  8
LOGO
100
AcDbText
 10
530.5458162885883
 20
-141.1178079200828
 30
121.2734801857075
 40
1.850420027076922
  1
比例 Scale:
 41
0.9
  7
CHINESET
 72
     4
 11
536.4217259549267
 21
-140.1935085463215
 31
121.2734801857075
100
AcDbText
  0
TEXT
  5
2B69
330
2
100
AcDbEntity
  8
LOGO
100
AcDbText
 10
530.4392519209575
 20
-144.7935294937182
 30
121.2734801857075
 40
1.850420027076922
  1
投影  View:
 41
0.9
  7
CHINESET
 72
     4
 11
536.4217259549267
 21
-143.8943486004754
 31
121.2734801857075
100
AcDbText
  0
TEXT
  5
2B6A
330
2
100
AcDbEntity
  8
LOGO
100
AcDbText
 10
530.6201635218189
 20
-148.5203986681677
 30
121.2734801857075
 40
1.850420027076922
  1
單位  Unit:
 41
0.9
  7
CHINESET
 72
     4
 11
536.4217259549267
 21
-147.5951886546292
 31
121.2734801857075
100
AcDbText
  0
SOLID
  5
2B6B
330
2
100
AcDbEntity
  8
LOGO
 62
     5
100
AcDbTrace
 10
517.3701394564631
 20
-146.369548773241
 30
0.0
 11
518.1702125211496
 21
-146.3695487732412
 31
0.0
 12
521.508448411738
 22
-138.7826490219028
 32
0.0
 13
522.3085214764251
 23
-138.7826490219032
 33
0.0
  0
SOLID
  5
2B6C
330
2
100
AcDbEntity
  8
LOGO
 62
     5
100
AcDbTrace
 10
518.5012772375724
 20
-146.369548773241
 30
0.0
 11
519.3013503022591
 21
-146.369548773241
 31
0.0
 12
522.3085214764251
 22
-139.3896010020102
 32
0.0
 13
521.508448411738
 23
-142.3232022391943
 33
0.0
  0
SOLID
  5
2B6D
330
2
100
AcDbEntity
  8
LOGO
 62
     2
100
AcDbTrace
 10
518.1702125211496
 20
-146.3695487732412
 30
0.0
 11
518.5012772375724
 21
-146.369548773241
 31
0.0
 12
522.3085214764251
 22
-138.7826490219032
 32
0.0
 13
522.6395861928477
 23
-138.7826490219032
 33
0.0
  0
SOLID
  5
2B6E
330
2
100
AcDbEntity
  8
LOGO
 62
     5
100
AcDbTrace
 10
516.0874261318216
 20
-149.1284214100909
 30
0.0
 11
516.363313395507
 21
-149.1284214100909
 31
0.0
 12
517.1402334033924
 22
-147.748985091666
 32
0.0
 13
517.4161206670769
 23
-147.748985091666
 33
0.0
  0
SOLID
  5
2B6F
330
2
100
AcDbEntity
  8
LOGO
 62
     5
100
AcDbTrace
 10
517.1402334033924
 20
-147.748985091666
 30
0.0
 11
517.4161206670769
 21
-147.748985091666
 31
0.0
 12
517.1402334033924
 22
-149.1284214100909
 32
0.0
 13
517.4161206670769
 23
-149.1284214100909
 33
0.0
  0
SOLID
  5
2B70
330
2
100
AcDbEntity
  8
LOGO
 62
     5
100
AcDbTrace
 10
517.1402334033924
 20
-149.1284214100909
 30
0.0
 11
517.4161206670769
 21
-149.1284214100909
 31
0.0
 12
518.1930406749637
 22
-147.748985091666
 32
0.0
 13
518.4689279386486
 23
-147.748985091666
 33
0.0
  0
SOLID
  5
2B71
330
2
100
AcDbEntity
  8
LOGO
 62
     5
100
AcDbTrace
 10
518.1930406749637
 20
-147.748985091666
 30
0.0
 11
518.4689279386486
 21
-147.748985091666
 31
0.0
 12
518.1930406749637
 22
-149.1284214100909
 32
0.0
 13
518.4689279386486
 23
-149.1284214100909
 33
0.0
  0
POLYLINE
  5
2B72
330
2
100
AcDbEntity
  8
LOGO
 62
     5
100
AcDb2dPolyline
 66
     1
 10
0.0
 20
0.0
 30
0.0
 40
0.2763293907101538
 41
0.2763293907101538
  0
VERTEX
  5
2B73
330
2B72
100
AcDbEntity
  8
LOGO
 62
     5
100
AcDbVertex
100
AcDb2dVertex
 10
527.4406877715044
 20
-148.300759619036
 30
0.0
 42
1.0
  0
VERTEX
  5
2B74
330
2B72
100
AcDbEntity
  8
LOGO
 62
     5
100
AcDbVertex
100
AcDb2dVertex
 10
526.6116995993739
 20
-148.300759619036
 30
0.0
 42
1.0
  0
SEQEND
  5
2B75
330
2B72
100
AcDbEntity
  8
LOGO
 62
     5
  0
POLYLINE
  5
2B76
330
2
100
AcDbEntity
  8
LOGO
 62
     5
100
AcDb2dPolyline
 66
     1
 10
0.0
 20
0.0
 30
0.0
 70
     1
  0
VERTEX
  5
2B77
330
2B76
100
AcDbEntity
  8
LOGO
 62
     5
100
AcDbVertex
100
AcDb2dVertex
 10
525.0490200215137
 20
-148.4387032508787
 30
0.0
 42
1.000000057330635
  0
VERTEX
  5
2B78
330
2B76
100
AcDbEntity
  8
LOGO
 62
     5
100
AcDbVertex
100
AcDb2dVertex
 10
525.8766818125687
 20
-148.4387032508787
 30
0.0
 42
1.000000057330635
  0
SEQEND
  5
2B79
330
2B76
100
AcDbEntity
  8
LOGO
 62
     5
  0
CIRCLE
  5
2B7A
330
2
100
AcDbEntity
  8
LOGO
 62
     5
100
AcDbCircle
 10
525.4628509170418
 20
-148.4387032508787
 30
0.0
 40
0.4138308955275264
  0
POLYLINE
  5
2B7B
330
2
100
AcDbEntity
  8
LOGO
 62
     5
100
AcDb2dPolyline
 66
     1
 10
0.0
 20
0.0
 30
0.0
 70
     1
 40
0.2763293907101538
 41
0.2763293907101538
  0
VERTEX
  5
2B7C
330
2B7B
100
AcDbEntity
  8
LOGO
 62
     5
100
AcDbVertex
100
AcDb2dVertex
 10
524.910192135621
 20
-148.4387032508787
 30
0.0
 42
1.0
  0
VERTEX
  5
2B7D
330
2B7B
100
AcDbEntity
  8
LOGO
 62
     5
100
AcDbVertex
100
AcDb2dVertex
 10
526.0155096984616
 20
-148.4387032508787
 30
0.0
 42
1.0
  0
SEQEND
  5
2B7E
330
2B7B
100
AcDbEntity
  8
LOGO
 62
     5
  0
LINE
  5
2B7F
330
2
100
AcDbEntity
  8
LOGO
100
AcDbLine
 10
527.5779682128087
 20
-149.1284214100909
 30
0.0
 11
527.5779682128087
 21
-148.300759619036
 31
0.0
  0
SOLID
  5
2B80
330
2
100
AcDbEntity
  8
LOGO
 62
     5
100
AcDbTrace
 10
525.8766542238435
 20
-147.748985091666
 30
0.0
 11
526.152541487528
 21
-147.748985091666
 31
0.0
 12
525.8766542238435
 22
-149.1284214100909
 32
0.0
 13
526.152541487528
 23
-149.1284214100909
 33
0.0
  0
SOLID
  5
2B81
330
2
100
AcDbEntity
  8
LOGO
 62
     5
100
AcDbTrace
 10
526.4744191580687
 20
-149.1284214100909
 30
0.0
 11
526.7503064217541
 21
-149.1284214100909
 31
0.0
 12
526.4744191580687
 22
-147.748985091666
 32
0.0
 13
526.7503064217541
 23
-147.748985091666
 33
0.0
  0
SOLID
  5
2B82
330
2
100
AcDbEntity
  8
LOGO
 62
     5
100
AcDbTrace
 10
527.3020809491245
 20
-148.300759619036
 30
0.0
 11
527.5779682128087
 21
-148.300759619036
 31
0.0
 12
527.3020809491245
 22
-149.1284214100909
 32
0.0
 13
527.5779682128087
 23
-149.1284214100909
 33
0.0
  0
SOLID
  5
2B83
330
2
100
AcDbEntity
  8
LOGO
 62
     5
100
AcDbTrace
 10
526.4468304317001
 20
-139.3896010020102
 30
0.0
 11
525.6467573670142
 21
-142.3232022391943
 31
0.0
 12
526.4468304317001
 22
-146.3695487732412
 32
0.0
 13
525.6467573670142
 23
-146.3695487732412
 33
0.0
  0
SOLID
  5
2B84
330
2
100
AcDbEntity
  8
LOGO
 62
     5
100
AcDbTrace
 10
526.7778951481227
 20
-146.3695487732412
 30
0.0
 11
527.5779682128087
 21
-146.3695487732412
 31
0.0
 12
526.7778951481227
 22
-138.7826490219032
 32
0.0
 13
527.5779682128087
 23
-138.7826490219028
 33
0.0
  0
SOLID
  5
2B85
330
2
100
AcDbEntity
  8
LOGO
 62
     2
100
AcDbTrace
 10
526.4468304317001
 20
-138.7826490219028
 30
0.0
 11
526.7778951481227
 21
-138.7826490219032
 31
0.0
 12
526.4468304317001
 22
-146.3695487732412
 32
0.0
 13
526.7778951481227
 23
-146.3695487732412
 33
0.0
  0
POLYLINE
  5
2B86
330
2
100
AcDbEntity
  8
LOGO
 62
     5
100
AcDb2dPolyline
 66
     1
 10
0.0
 20
0.0
 30
0.0
 40
0.2763293907101538
 41
0.2763293907101538
  0
VERTEX
  5
2B87
330
2B86
100
AcDbEntity
  8
LOGO
 62
     5
100
AcDbVertex
100
AcDb2dVertex
 10
523.4862852662018
 20
-148.300759619036
 30
0.0
 42
1.0
  0
VERTEX
  5
2B88
330
2B86
100
AcDbEntity
  8
LOGO
 62
     5
100
AcDbVertex
100
AcDb2dVertex
 10
522.6572970940711
 20
-148.300759619036
 30
0.0
 42
1.0
  0
SEQEND
  5
2B89
330
2B86
100
AcDbEntity
  8
LOGO
 62
     5
  0
POLYLINE
  5
2B8A
330
2
100
AcDbEntity
  8
LOGO
 62
     5
100
AcDb2dPolyline
 66
     1
 10
0.0
 20
0.0
 30
0.0
 40
0.2763293907101538
 41
0.2763293907101538
  0
VERTEX
  5
2B8B
330
2B8A
100
AcDbEntity
  8
LOGO
 62
     5
100
AcDbVertex
100
AcDb2dVertex
 10
524.3139470572558
 20
-148.300759619036
 30
0.0
 42
1.0
  0
VERTEX
  5
2B8C
330
2B8A
100
AcDbEntity
  8
LOGO
 62
     5
100
AcDbVertex
100
AcDb2dVertex
 10
523.4849588851258
 20
-148.300759619036
 30
0.0
 42
1.0
  0
SEQEND
  5
2B8D
330
2B8A
100
AcDbEntity
  8
LOGO
 62
     5
  0
POLYLINE
  5
2B8E
330
2
100
AcDbEntity
  8
LOGO
 62
     5
100
AcDb2dPolyline
 66
     1
 10
0.0
 20
0.0
 30
0.0
 40
0.2763293907101538
 41
0.2763293907101538
  0
VERTEX
  5
2B8F
330
2B8E
100
AcDbEntity
  8
LOGO
 62
     5
100
AcDbVertex
100
AcDb2dVertex
 10
520.3595445519532
 20
-148.300759619036
 30
0.0
 42
1.0
  0
VERTEX
  5
2B90
330
2B8E
100
AcDbEntity
  8
LOGO
 62
     5
100
AcDbVertex
100
AcDb2dVertex
 10
519.5305563798232
 20
-148.300759619036
 30
0.0
 42
1.0
  0
SEQEND
  5
2B91
330
2B8E
100
AcDbEntity
  8
LOGO
 62
     5
  0
SOLID
  5
2B92
330
2
100
AcDbEntity
  8
LOGO
 62
     5
100
AcDbTrace
 10
519.3932759385184
 20
-147.748985091666
 30
0.0
 11
519.6691632022028
 21
-147.748985091666
 31
0.0
 12
519.3932759385184
 22
-149.1284214100909
 32
0.0
 13
519.6691632022028
 23
-149.1284214100909
 33
0.0
  0
SOLID
  5
2B93
330
2
100
AcDbEntity
  8
LOGO
 62
     5
100
AcDbTrace
 10
520.2209377295734
 20
-148.300759619036
 30
0.0
 11
520.4968249932587
 21
-148.300759619036
 31
0.0
 12
520.2209377295734
 22
-149.1284214100909
 32
0.0
 13
520.4968249932587
 23
-149.1284214100909
 33
0.0
  0
POLYLINE
  5
2B94
330
2
100
AcDbEntity
  8
LOGO
 62
     5
100
AcDb2dPolyline
 66
     1
 10
0.0
 20
0.0
 30
0.0
 70
     1
 40
0.2763293907101538
 41
0.2763293907101538
  0
VERTEX
  5
2B95
330
2B94
100
AcDbEntity
  8
LOGO
 62
     5
100
AcDbVertex
100
AcDb2dVertex
 10
520.9557896303179
 20
-148.4387032508787
 30
0.0
 42
1.0
  0
VERTEX
  5
2B96
330
2B94
100
AcDbEntity
  8
LOGO
 62
     5
100
AcDbVertex
100
AcDb2dVertex
 10
522.0611071931589
 20
-148.4387032508787
 30
0.0
 42
1.0
  0
SEQEND
  5
2B97
330
2B94
100
AcDbEntity
  8
LOGO
 62
     5
  0
SOLID
  5
2B98
330
2
100
AcDbEntity
  8
LOGO
 62
     5
100
AcDbTrace
 10
521.9222517185399
 20
-147.3351541961383
 30
0.0
 11
522.198138982225
 21
-147.3351541961383
 31
0.0
 12
521.9222517185399
 22
-149.1284214100909
 32
0.0
 13
522.198138982225
 23
-149.1284214100909
 33
0.0
  0
SOLID
  5
2B99
330
2
100
AcDbEntity
  8
LOGO
 62
     5
100
AcDbTrace
 10
522.5200166527669
 20
-147.748985091666
 30
0.0
 11
522.7959039164513
 21
-147.748985091666
 31
0.0
 12
522.5200166527669
 22
-149.1284214100909
 32
0.0
 13
522.7959039164513
 23
-149.1284214100909
 33
0.0
  0
SOLID
  5
2B9A
330
2
100
AcDbEntity
  8
LOGO
 62
     5
100
AcDbTrace
 10
523.3476784438213
 20
-148.300759619036
 30
0.0
 11
523.6235657075065
 21
-148.300759619036
 31
0.0
 12
523.3476784438213
 22
-149.1284214100909
 32
0.0
 13
523.6235657075065
 23
-149.1284214100909
 33
0.0
  0
SOLID
  5
2B9B
330
2
100
AcDbEntity
  8
LOGO
 62
     5
100
AcDbTrace
 10
524.1753402348763
 20
-148.300759619036
 30
0.0
 11
524.4512274985611
 21
-148.300759619036
 31
0.0
 12
524.1753402348763
 22
-149.1284214100914
 32
0.0
 13
524.4512274985611
 23
-149.1284214100914
 33
0.0
  0
SOLID
  5
2B9C
330
2
100
AcDbEntity
  8
LOGO
 62
     5
100
AcDbTrace
 10
518.7955110042919
 20
-147.5558640070865
 30
0.0
 11
519.0713982679776
 21
-147.5558640070865
 31
0.0
 12
518.7955110042919
 22
-147.3351541961383
 32
0.0
 13
519.0713982679776
 23
-147.3351541961383
 33
0.0
  0
SOLID
  5
2B9D
330
2
100
AcDbEntity
  8
LOGO
 62
     5
100
AcDbTrace
 10
518.7955110042919
 20
-147.748985091666
 30
0.0
 11
519.0713982679776
 21
-147.748985091666
 31
0.0
 12
518.7955110042919
 22
-149.1284214100914
 32
0.0
 13
519.0713982679776
 23
-149.1284214100909
 33
0.0
  0
SOLID
  5
2B9E
330
2
100
AcDbEntity
  8
LOGO
 62
     5
100
AcDbTrace
 10
521.508448411738
 20
-146.369548773241
 30
0.0
 11
522.3085214764251
 21
-146.369548773241
 31
0.0
 12
521.508448411738
 22
-142.3232022391943
 32
0.0
 13
522.3085214764251
 23
-139.3896010020102
 33
0.0
  0
SOLID
  5
2B9F
330
2
100
AcDbEntity
  8
LOGO
 62
     5
100
AcDbTrace
 10
522.6395861928477
 20
-138.7826490219032
 30
0.0
 11
523.4396592575337
 21
-138.7826490219028
 31
0.0
 12
522.6395861928477
 22
-145.762596793134
 32
0.0
 13
523.4396592575337
 23
-142.8289955559499
 33
0.0
  0
SOLID
  5
2BA0
330
2
100
AcDbEntity
  8
LOGO
 62
     2
100
AcDbTrace
 10
522.3085214764251
 20
-138.7826490219032
 30
0.0
 11
522.6395861928477
 21
-138.7826490219032
 31
0.0
 12
522.3085214764251
 22
-146.369548773241
 32
0.0
 13
522.6395861928477
 23
-146.369548773241
 33
0.0
  0
SOLID
  5
2BA1
330
2
100
AcDbEntity
  8
LOGO
 62
     5
100
AcDbTrace
 10
522.6395861928477
 20
-145.762596793134
 30
0.0
 11
523.4396592575337
 21
-142.8289955559499
 31
0.0
 12
526.4468304317001
 22
-138.7826490219028
 32
0.0
 13
525.6467573670142
 23
-138.7826490219028
 33
0.0
  0
SOLID
  5
2BA2
330
2
100
AcDbEntity
  8
LOGO
 62
     5
100
AcDbTrace
 10
522.6395861928477
 20
-146.369548773241
 30
0.0
 11
523.4396592575337
 21
-146.369548773241
 31
0.0
 12
526.4468304317001
 22
-139.3896010020102
 32
0.0
 13
525.6467573670142
 23
-142.3232022391943
 33
0.0
  0
SOLID
  5
2BA3
330
2
100
AcDbEntity
  8
LOGO
 62
     2
100
AcDbTrace
 10
522.3085214764251
 20
-146.369548773241
 30
0.0
 11
522.6395861928477
 21
-146.369548773241
 31
0.0
 12
526.4468304317001
 22
-138.7826490219028
 32
0.0
 13
526.7778951481227
 23
-138.7826490219032
 33
0.0
  0
TEXT
  5
2BE2
330
2
100
AcDbEntity
  8
LOGO
100
AcDbText
 10
557.2945069272187
 20
-155.8628726390994
 30
0.0
 40
1.850687999999999
  1
10807101
 41
0.7
  7
CHINESET
 72
     1
 11
561.5202445272188
 21
-155.8628726390994
 31
0.0
100
AcDbText
  0
LINE
  5
2BE3
330
2
100
AcDbEntity
  8
LOGO
 62
     4
100
AcDbLine
 10
567.2636675770799
 20
-153.1464487358595
 30
0.0
 11
567.2636675770806
 21
-156.8472887900136
 31
0.0
  0
LINE
  5
2BE4
330
2
100
AcDbEntity
  8
LOGO
 62
     4
100
AcDbLine
 10
567.2636675770799
 20
-153.1464487358595
 30
0.0
 11
556.1595395770805
 21
-153.1464487358595
 31
0.0
  0
CIRCLE
  5
2BE5
330
2
100
AcDbEntity
  8
LOGO
  6
Continuous
100
AcDbCircle
 10
547.2496901902454
 20
-143.8903905384963
 30
0.0
 40
1.074397421698614
  0
CIRCLE
  5
2BE6
330
2
100
AcDbEntity
  8
LOGO
  6
Continuous
100
AcDbCircle
 10
547.2496901902454
 20
-143.8903905384963
 30
0.0
 40
0.6295017780928984
  0
LINE
  5
2BE7
330
2
100
AcDbEntity
  8
LOGO
100
AcDbLine
 10
554.0013282560042
 20
-144.964787960195
 30
0.0
 11
554.0013282560042
 21
-142.8159931167974
 31
0.0
  0
LINE
  5
2BE8
330
2
100
AcDbEntity
  8
LOGO
100
AcDbLine
 10
550.6331540123341
 20
-144.519892316589
 30
0.0
 11
550.6331540123341
 21
-143.2608887604032
 31
0.0
  0
LINE
  5
2BE9
330
2
100
AcDbEntity
  8
LOGO
  6
Continuous
100
AcDbLine
 10
550.6331540123341
 20
-143.2608887604032
 30
0.0
 11
554.0013282560042
 21
-142.8159931167974
 31
0.0
  0
LINE
  5
2BEA
330
2
100
AcDbEntity
  8
LOGO
  6
Continuous
100
AcDbLine
 10
550.6331540123341
 20
-144.519892316589
 30
0.0
 11
554.0013282560042
 21
-144.964787960195
 31
0.0
  0
LINE
  5
2BEB
330
2
100
AcDbEntity
  8
LOGO
  6
AM_ISO08W050x2
 48
0.3
100
AcDbLine
 10
545.7686172565996
 20
-143.8903905384963
 30
0.0
 11
548.7307631238914
 21
-143.8903905384963
 31
0.0
1001
GENIUS_GENOREF_13
1005
2C02
  0
LINE
  5
2BEC
330
2
100
AcDbEntity
  8
LOGO
  6
AM_ISO08W050x2
 48
0.3
100
AcDbLine
 10
547.2496901902454
 20
-145.3714634721423
 30
0.0
 11
547.2496901902454
 21
-142.4093176048502
 31
0.0
1001
GENIUS_GENOREF_13
1005
2C01
  0
LINE
  5
2BED
330
2
100
AcDbEntity
  8
LOGO
  6
CENTER
 48
0.5
100
AcDbLine
 10
550.3637936908056
 20
-143.8903905384963
 30
0.0
 11
554.3404924989998
 21
-143.8903905384963
 31
0.0
1001
GENIUS_GENOREF_13
1005
2C00
  0
POINT
  5
2C00
330
2
100
AcDbEntity
  8
0
 60
     1
100
AcDbPoint
 10
-1811.703739739273
 20
-1443.309492803441
 30
0.0
1001
GENIUS_GENOBJ-N-CRS_13
1002
{
1000
OWNER
1000
GEN
1002
}
1001
GENIUS_GENOLIS_13
1002
{
1000
ENT
1005
0
1005
0
1005
0
1005
2BED
1002
}
1001
GENIUS_GENOENT_13
1002
{
1000
MYREF
1005
2C00
1002
}
1002
{
1000
GRP
1005
0
1002
}
1001
GENIUS_GENODEF_13
1002
{
1000
HIER
1070
    10
1002
}
1002
{
1000
MANEDIT
1070
     1
1002
}
1002
{
1000
NOSEL
1070
     0
1002
}
1002
{
1000
BEHIND
1070
     0
1002
}
1002
{
1000
OTHER
1070
     0
1002
}
1002
{
1000
REACTOR
1002
}
  0
POINT
  5
2C01
330
2
100
AcDbEntity
  8
0
 60
     1
100
AcDbPoint
 10
-1823.028324962128
 20
-1434.433906324805
 30
0.0
1001
GENIUS_GENOBJ-N-CRS_13
1002
{
1000
OWNER
1000
GEN
1002
}
1001
GENIUS_GENOLIS_13
1002
{
1000
ENT
1005
0
1005
0
1005
0
1005
2BEC
1002
}
1001
GENIUS_GENOENT_13
1002
{
1000
MYREF
1005
2C01
1002
}
1002
{
1000
GRP
1005
0
1002
}
1001
GENIUS_GENODEF_13
1002
{
1000
HIER
1070
    10
1002
}
1002
{
1000
MANEDIT
1070
     1
1002
}
1002
{
1000
NOSEL
1070
     0
1002
}
1002
{
1000
BEHIND
1070
     0
1002
}
1002
{
1000
OTHER
1070
     0
1002
}
1002
{
1000
REACTOR
1002
}
  0
POINT
  5
2C02
330
2
100
AcDbEntity
  8
0
 60
     1
100
AcDbPoint
 10
-1816.669651264291
 20
-1443.309492803441
 30
0.0
1001
GENIUS_GENOBJ-N-CRS_13
1002
{
1000
OWNER
1000
GEN
1002
}
1001
GENIUS_GENOLIS_13
1002
{
1000
ENT
1005
0
1005
0
1005
0
1005
2BEB
1002
}
1001
GENIUS_GENOENT_13
1002
{
1000
MYREF
1005
2C02
1002
}
1002
{
1000
GRP
1005
0
1002
}
1001
GENIUS_GENODEF_13
1002
{
1000
HIER
1070
    10
1002
}
1002
{
1000
MANEDIT
1070
     1
1002
}
1002
{
1000
NOSEL
1070
     0
1002
}
1002
{
1000
BEHIND
1070
     0
1002
}
1002
{
1000
OTHER
1070
     0
1002
}
1002
{
1000
REACTOR
1002
}
  0
CIRCLE
  5
32DF
330
2
100
AcDbEntity
  8
AM_4
  6
HIDDEN2
100
AcDbCircle
 10
582.7795641800434
 20
-2.914711441113979
 30
0.0
 40
1.5
  0
CIRCLE
  5
32E0
330
2
100
AcDbEntity
  8
AM_4
  6
HIDDEN2
100
AcDbCircle
 10
575.7795641800433
 20
-6.914711441113979
 30
0.0
 40
1.5
  0
LINE
  5
32E1
330
2
100
AcDbEntity
  8
AM_7
100
AcDbLine
 10
579.0295641800433
 20
-4.914711441113979
 30
0.0
 11
573.0795641800433
 21
-4.914711441113979
 31
0.0
  0
LINE
  5
32E2
330
2
100
AcDbEntity
  8
AM_7
100
AcDbLine
 10
583.5295641800434
 20
-9.014711441113973
 30
0.0
 11
585.5295641800434
 21
-9.014711441113973
 31
0.0
  0
LINE
  5
32E3
330
2
100
AcDbEntity
  8
AM_7
100
AcDbLine
 10
584.5295641800434
 20
-10.01471144111397
 30
0.0
 11
584.5295641800434
 21
-8.014711441113973
 31
0.0
  0
LINE
  5
32E4
102
{ACAD_REACTORS
330
4790
102
}
330
2
100
AcDbEntity
  8
AM_7
100
AcDbLine
 10
581.3295641800433
 20
-9.014711441113973
 30
0.0
 11
582.7295641800434
 21
-9.014711441113973
 31
0.0
  0
LINE
  5
32E5
330
2
100
AcDbEntity
  8
AM_7
100
AcDbLine
 10
586.3295641800433
 20
-9.014711441113973
 30
0.0
 11
587.7295641800433
 21
-9.014711441113973
 31
0.0
  0
LINE
  5
32E6
330
2
100
AcDbEntity
  8
AM_7
100
AcDbLine
 10
584.5295641800434
 20
-12.21471144111396
 30
0.0
 11
584.5295641800434
 21
-10.81471144111398
 31
0.0
  0
LINE
  5
32E7
330
2
100
AcDbEntity
  8
AM_7
100
AcDbLine
 10
584.5295641800434
 20
-7.214711441113962
 30
0.0
 11
584.5295641800434
 21
-5.814711441113985
 31
0.0
  0
LINE
  5
32E8
330
2
100
AcDbEntity
  8
AM_7
100
AcDbLine
 10
576.5295641800434
 20
-0.8147114411139853
 30
0.0
 11
578.5295641800433
 21
-0.8147114411139853
 31
0.0
  0
LINE
  5
32E9
330
2
100
AcDbEntity
  8
AM_7
100
AcDbLine
 10
577.5295641800433
 20
-1.814711441113985
 30
0.0
 11
577.5295641800433
 21
0.1852885588860147
 31
0.0
  0
LINE
  5
32EA
102
{ACAD_REACTORS
330
4790
102
}
330
2
100
AcDbEntity
  8
AM_7
100
AcDbLine
 10
574.3295641800433
 20
-0.8147114411139853
 30
0.0
 11
575.7295641800434
 21
-0.8147114411139853
 31
0.0
  0
LINE
  5
32EB
330
2
100
AcDbEntity
  8
AM_7
100
AcDbLine
 10
579.3295641800433
 20
-0.8147114411139853
 30
0.0
 11
580.7295641800434
 21
-0.8147114411139853
 31
0.0
  0
LINE
  5
32EC
330
2
100
AcDbEntity
  8
AM_7
100
AcDbLine
 10
577.5295641800433
 20
-4.014711441113973
 30
0.0
 11
577.5295641800433
 21
-2.614711441113996
 31
0.0
  0
LINE
  5
32ED
330
2
100
AcDbEntity
  8
AM_7
100
AcDbLine
 10
577.5295641800433
 20
0.985288558886026
 30
0.0
 11
577.5295641800433
 21
2.385288558886003
 31
0.0
  0
LINE
  5
32EE
330
2
100
AcDbEntity
  8
AM_7
100
AcDbLine
 10
581.7795641800434
 20
-2.914711441113979
 30
0.0
 11
583.7795641800433
 21
-2.914711441113979
 31
0.0
  0
LINE
  5
32EF
330
2
100
AcDbEntity
  8
AM_7
100
AcDbLine
 10
582.7795641800434
 20
-3.914711441113979
 30
0.0
 11
582.7795641800434
 21
-1.914711441113979
 31
0.0
  0
LINE
  5
32F0
102
{ACAD_REACTORS
330
4166
102
}
330
2
100
AcDbEntity
  8
AM_7
100
AcDbLine
 10
579.9295641800433
 20
-2.914711441113979
 30
0.0
 11
580.9795641800433
 21
-2.914711441113979
 31
0.0
  0
LINE
  5
32F1
330
2
100
AcDbEntity
  8
AM_7
100
AcDbLine
 10
584.5795641800433
 20
-2.914711441113979
 30
0.0
 11
585.6295641800433
 21
-2.914711441113979
 31
0.0
  0
LINE
  5
32F2
330
2
100
AcDbEntity
  8
AM_7
100
AcDbLine
 10
582.7795641800434
 20
-5.764711441113973
 30
0.0
 11
582.7795641800434
 21
-4.71471144111399
 31
0.0
  0
LINE
  5
32F3
330
2
100
AcDbEntity
  8
AM_7
100
AcDbLine
 10
582.7795641800434
 20
-1.114711441113968
 30
0.0
 11
582.7795641800434
 21
-0.0647114411139853
 31
0.0
  0
LINE
  5
32F4
330
2
100
AcDbEntity
  8
AM_7
100
AcDbLine
 10
574.7795641800434
 20
-6.914711441113979
 30
0.0
 11
576.7795641800433
 21
-6.914711441113979
 31
0.0
  0
LINE
  5
32F5
330
2
100
AcDbEntity
  8
AM_7
100
AcDbLine
 10
575.7795641800433
 20
-7.914711441113979
 30
0.0
 11
575.7795641800433
 21
-5.914711441113979
 31
0.0
  0
LINE
  5
32F6
102
{ACAD_REACTORS
330
4166
102
}
330
2
100
AcDbEntity
  8
AM_7
100
AcDbLine
 10
572.9295641800433
 20
-6.914711441113979
 30
0.0
 11
573.9795641800434
 21
-6.914711441113979
 31
0.0
  0
LINE
  5
32F7
330
2
100
AcDbEntity
  8
AM_7
100
AcDbLine
 10
577.5795641800433
 20
-6.914711441113979
 30
0.0
 11
578.6295641800433
 21
-6.914711441113979
 31
0.0
  0
LINE
  5
32F8
330
2
100
AcDbEntity
  8
AM_7
100
AcDbLine
 10
575.7795641800433
 20
-9.764711441113973
 30
0.0
 11
575.7795641800433
 21
-8.71471144111399
 31
0.0
  0
LINE
  5
32F9
330
2
100
AcDbEntity
  8
AM_7
100
AcDbLine
 10
575.7795641800433
 20
-5.114711441113968
 30
0.0
 11
575.7795641800433
 21
-4.064711441113985
 31
0.0
  0
LINE
  5
32FA
330
2
100
AcDbEntity
  8
AM_7
100
AcDbLine
 10
596.5795641800433
 20
-7.114711441113968
 30
0.0
 11
598.5795641800433
 21
-7.114711441113968
 31
0.0
  0
LINE
  5
32FB
330
2
100
AcDbEntity
  8
AM_7
100
AcDbLine
 10
597.5795641800433
 20
-8.114711441113968
 30
0.0
 11
597.5795641800433
 21
-6.114711441113968
 31
0.0
  0
LINE
  5
32FC
330
2
100
AcDbEntity
  8
AM_7
100
AcDbLine
 10
595.2795641800434
 20
-7.114711441113968
 30
0.0
 11
595.7795641800434
 21
-7.114711441113968
 31
0.0
  0
LINE
  5
32FD
330
2
100
AcDbEntity
  8
AM_7
100
AcDbLine
 10
599.3795641800432
 20
-7.114711441113968
 30
0.0
 11
599.8795641800433
 21
-7.114711441113968
 31
0.0
  0
LINE
  5
32FE
330
2
100
AcDbEntity
  8
AM_7
100
AcDbLine
 10
597.5795641800433
 20
-9.414711441113979
 30
0.0
 11
597.5795641800433
 21
-8.914711441113979
 31
0.0
  0
LINE
  5
32FF
330
2
100
AcDbEntity
  8
AM_7
100
AcDbLine
 10
597.5795641800433
 20
-5.314711441113956
 30
0.0
 11
597.5795641800433
 21
-4.814711441113956
 31
0.0
  0
LINE
  5
3300
330
2
100
AcDbEntity
  8
AM_7
100
AcDbLine
 10
597.5795641800433
 20
-11.51471144111394
 30
0.0
 11
597.5795641800433
 21
-2.314711441113956
 31
0.0
  0
DIMENSION
  5
3309
330
2
100
AcDbEntity
  8
AM_REFDIM
100
AcDbDimension
  2
*D12
 10
582.7795641800434
 20
-17.71776274746617
 30
0.0
 11
579.2795641800434
 21
-17.71776274746617
 31
0.0
 70
   160
 71
     5
 42
7.0
  3
STANDARD
100
AcDbAlignedDimension
 13
575.7795641800433
 23
-9.764711441113973
 33
0.0
 14
582.7795641800434
 24
-5.764711441113973
 34
0.0
100
AcDbRotatedDimension
  0
DIMENSION
  5
330D
330
2
100
AcDbEntity
  8
AM_REFDIM
100
AcDbDimension
  2
*D13
 10
584.5295641800434
 20
10.40063712571316
 30
0.0
 11
580.7558672851447
 21
10.40063712571316
 31
0.0
 70
   160
 71
     5
 42
7.0
  3
STANDARD
100
AcDbAlignedDimension
 13
577.5295641800433
 23
2.385288558886003
 33
0.0
 14
584.5295641800434
 24
-5.814711441113985
 34
0.0
100
AcDbRotatedDimension
  0
LINE
  5
3311
330
2
100
AcDbEntity
  8
AM_7
100
AcDbLine
 10
585.9795641800433
 20
-4.914711441113979
 30
0.0
 11
580.0295641800434
 21
-4.914711441113979
 31
0.0
  0
LINE
  5
3312
330
2
100
AcDbEntity
  8
AM_7
100
AcDbLine
 10
578.2795641800434
 20
-51.63121145960801
 30
0.0
 11
580.2795641800433
 21
-51.63121145960801
 31
0.0
  0
LINE
  5
3313
330
2
100
AcDbEntity
  8
AM_7
100
AcDbLine
 10
579.2795641800434
 20
-52.63121145960801
 30
0.0
 11
579.2795641800434
 21
-50.63121145960801
 31
0.0
  0
LINE
  5
3314
330
2
100
AcDbEntity
  8
AM_7
100
AcDbLine
 10
576.9795641800433
 20
-51.63121145960801
 30
0.0
 11
577.4795641800433
 21
-51.63121145960801
 31
0.0
  0
LINE
  5
3315
330
2
100
AcDbEntity
  8
AM_7
100
AcDbLine
 10
581.0795641800433
 20
-51.63121145960801
 30
0.0
 11
581.5795641800433
 21
-51.63121145960801
 31
0.0
  0
LINE
  5
3316
330
2
100
AcDbEntity
  8
AM_7
100
AcDbLine
 10
579.2795641800434
 20
-53.93121145960802
 30
0.0
 11
579.2795641800434
 21
-53.43121145960802
 31
0.0
  0
LINE
  5
3317
330
2
100
AcDbEntity
  8
AM_7
100
AcDbLine
 10
579.2795641800434
 20
-49.831211459608
 30
0.0
 11
579.2795641800434
 21
-49.331211459608
 31
0.0
  0
LINE
  5
3318
330
2
100
AcDbEntity
  8
AM_7
100
AcDbLine
 10
566.3795641800432
 20
-51.63121145960798
 30
0.0
 11
580.8795641800433
 21
-51.63121145960798
 31
0.0
  0
LINE
  5
3319
330
2
100
AcDbEntity
  8
AM_7
100
AcDbLine
 10
584.5295641800434
 20
-48.331211459608
 30
0.0
 11
584.5295641800434
 21
-52.93121145960802
 31
0.0
  0
LINE
  5
331A
330
2
100
AcDbEntity
  8
AM_7
100
AcDbLine
 10
602.1795641800434
 20
-57.53121145960799
 30
0.0
 11
595.1791338705295
 21
-57.53121145960799
 31
0.0
  0
LINE
  5
331B
330
2
100
AcDbEntity
  8
AM_7
100
AcDbLine
 10
596.5795641800433
 20
-57.13121145960798
 30
0.0
 11
598.5795641800433
 21
-57.13121145960798
 31
0.0
  0
LINE
  5
331C
330
2
100
AcDbEntity
  8
AM_7
100
AcDbLine
 10
597.5795641800433
 20
-58.13121145960798
 30
0.0
 11
597.5795641800433
 21
-56.13121145960798
 31
0.0
  0
LINE
  5
331D
330
2
100
AcDbEntity
  8
AM_7
100
AcDbLine
 10
595.2795641800434
 20
-57.13121145960798
 30
0.0
 11
595.7795641800434
 21
-57.13121145960798
 31
0.0
  0
LINE
  5
331E
330
2
100
AcDbEntity
  8
AM_7
100
AcDbLine
 10
599.3795641800432
 20
-57.13121145960798
 30
0.0
 11
599.8795641800433
 21
-57.13121145960798
 31
0.0
  0
LINE
  5
331F
330
2
100
AcDbEntity
  8
AM_7
100
AcDbLine
 10
597.5795641800433
 20
-59.43121145960799
 30
0.0
 11
597.5795641800433
 21
-58.93121145960799
 31
0.0
  0
LINE
  5
3320
330
2
100
AcDbEntity
  8
AM_7
100
AcDbLine
 10
597.5795641800433
 20
-55.33121145960797
 30
0.0
 11
597.5795641800433
 21
-54.83121145960797
 31
0.0
  0
LINE
  5
3322
330
2
100
AcDbEntity
  8
AM_7
100
AcDbLine
 10
617.1795641800433
 20
-58.83121145960803
 30
0.0
 11
610.4795641800433
 21
-58.83121145960803
 31
0.0
  0
LINE
  5
3323
330
2
100
AcDbEntity
  8
AM_7
100
AcDbLine
 10
617.3795641800434
 20
-57.43121145960799
 30
0.0
 11
611.9795641800433
 21
-57.43121145960799
 31
0.0
  0
LINE
  5
3324
330
2
100
AcDbEntity
  8
AM_7
100
AcDbLine
 10
607.0795641800433
 20
-65.63121145960801
 30
0.0
 11
607.0795641800433
 21
-58.59898173368404
 31
0.0
  0
LINE
  5
3325
330
2
100
AcDbEntity
  8
AM_7
100
AcDbLine
 10
578.2795641800434
 20
-107.1652289191202
 30
0.0
 11
580.2795641800433
 21
-107.1652289191202
 31
0.0
  0
LINE
  5
3326
330
2
100
AcDbEntity
  8
AM_7
100
AcDbLine
 10
579.2795641800434
 20
-108.1652289191202
 30
0.0
 11
579.2795641800434
 21
-106.1652289191202
 31
0.0
  0
LINE
  5
3327
330
2
100
AcDbEntity
  8
AM_7
100
AcDbLine
 10
576.4295641800433
 20
-107.1652289191202
 30
0.0
 11
577.4795641800433
 21
-107.1652289191202
 31
0.0
  0
LINE
  5
3328
330
2
100
AcDbEntity
  8
AM_7
100
AcDbLine
 10
581.0795641800433
 20
-107.1652289191202
 30
0.0
 11
582.1295641800433
 21
-107.1652289191202
 31
0.0
  0
LINE
  5
3329
102
{ACAD_REACTORS
330
3A69
330
3A85
330
49F4
102
}
330
2
100
AcDbEntity
  8
AM_7
100
AcDbLine
 10
579.2795641800434
 20
-110.0152289191202
 30
0.0
 11
579.2795641800434
 21
-108.9652289191202
 31
0.0
  0
LINE
  5
332A
330
2
100
AcDbEntity
  8
AM_7
100
AcDbLine
 10
579.2795641800434
 20
-105.3652289191202
 30
0.0
 11
579.2795641800434
 21
-104.3152289191202
 31
0.0
  0
LINE
  5
332B
330
2
100
AcDbEntity
  8
AM_7
100
AcDbLine
 10
571.2795641800433
 20
-107.1652289191202
 30
0.0
 11
573.2795641800434
 21
-107.1652289191202
 31
0.0
  0
LINE
  5
332C
330
2
100
AcDbEntity
  8
AM_7
100
AcDbLine
 10
572.2795641800433
 20
-108.1652289191202
 30
0.0
 11
572.2795641800433
 21
-106.1652289191202
 31
0.0
  0
LINE
  5
332D
330
2
100
AcDbEntity
  8
AM_7
100
AcDbLine
 10
569.4295641800433
 20
-107.1652289191202
 30
0.0
 11
570.4795641800433
 21
-107.1652289191202
 31
0.0
  0
LINE
  5
332E
330
2
100
AcDbEntity
  8
AM_7
100
AcDbLine
 10
574.0795641800433
 20
-107.1652289191202
 30
0.0
 11
575.1295641800433
 21
-107.1652289191202
 31
0.0
  0
LINE
  5
332F
102
{ACAD_REACTORS
330
3A85
102
}
330
2
100
AcDbEntity
  8
AM_7
100
AcDbLine
 10
572.2795641800433
 20
-110.0152289191202
 30
0.0
 11
572.2795641800433
 21
-108.9652289191202
 31
0.0
  0
LINE
  5
3330
330
2
100
AcDbEntity
  8
AM_7
100
AcDbLine
 10
572.2795641800433
 20
-105.3652289191202
 30
0.0
 11
572.2795641800433
 21
-104.3152289191202
 31
0.0
  0
LINE
  5
3331
330
2
100
AcDbEntity
  8
AM_7
100
AcDbLine
 10
585.2795641800433
 20
-107.1652289191202
 30
0.0
 11
587.2795641800434
 21
-107.1652289191202
 31
0.0
  0
LINE
  5
3332
330
2
100
AcDbEntity
  8
AM_7
100
AcDbLine
 10
586.2795641800434
 20
-108.1652289191202
 30
0.0
 11
586.2795641800434
 21
-106.1652289191202
 31
0.0
  0
LINE
  5
3333
330
2
100
AcDbEntity
  8
AM_7
100
AcDbLine
 10
583.4295641800434
 20
-107.1652289191202
 30
0.0
 11
584.4795641800433
 21
-107.1652289191202
 31
0.0
  0
LINE
  5
3334
330
2
100
AcDbEntity
  8
AM_7
100
AcDbLine
 10
588.0795641800433
 20
-107.1652289191202
 30
0.0
 11
589.1295641800432
 21
-107.1652289191202
 31
0.0
  0
LINE
  5
3335
102
{ACAD_REACTORS
330
3A69
102
}
330
2
100
AcDbEntity
  8
AM_7
100
AcDbLine
 10
586.2795641800434
 20
-110.0152289191202
 30
0.0
 11
586.2795641800434
 21
-108.9652289191202
 31
0.0
  0
LINE
  5
3336
330
2
100
AcDbEntity
  8
AM_7
100
AcDbLine
 10
586.2795641800434
 20
-105.3652289191202
 30
0.0
 11
586.2795641800434
 21
-104.3152289191202
 31
0.0
  0
LINE
  5
3337
330
2
100
AcDbEntity
  8
AM_7
100
AcDbLine
 10
576.5295641800434
 20
-111.2652289191202
 30
0.0
 11
578.5295641800433
 21
-111.2652289191202
 31
0.0
  0
LINE
  5
3338
330
2
100
AcDbEntity
  8
AM_7
100
AcDbLine
 10
577.5295641800433
 20
-112.2652289191202
 30
0.0
 11
577.5295641800433
 21
-110.2652289191202
 31
0.0
  0
LINE
  5
3339
330
2
100
AcDbEntity
  8
AM_7
100
AcDbLine
 10
575.0795641800433
 20
-111.2652289191202
 30
0.0
 11
575.7295641800433
 21
-111.2652289191202
 31
0.0
  0
LINE
  5
333A
330
2
100
AcDbEntity
  8
AM_7
100
AcDbLine
 10
579.3295641800433
 20
-111.2652289191202
 30
0.0
 11
579.9795641800433
 21
-111.2652289191202
 31
0.0
  0
LINE
  5
333B
330
2
100
AcDbEntity
  8
AM_7
100
AcDbLine
 10
577.5295641800433
 20
-113.7152289191202
 30
0.0
 11
577.5295641800433
 21
-113.0652289191202
 31
0.0
  0
LINE
  5
333C
330
2
100
AcDbEntity
  8
AM_7
100
AcDbLine
 10
577.5295641800433
 20
-109.4652289191202
 30
0.0
 11
577.5295641800433
 21
-108.8152289191202
 31
0.0
  0
LINE
  5
333D
330
2
100
AcDbEntity
  8
AM_7
100
AcDbLine
 10
583.5295641800434
 20
-103.0652289191202
 30
0.0
 11
585.5295641800434
 21
-103.0652289191202
 31
0.0
  0
LINE
  5
333E
330
2
100
AcDbEntity
  8
AM_7
100
AcDbLine
 10
584.5295641800434
 20
-104.0652289191202
 30
0.0
 11
584.5295641800434
 21
-102.0652289191202
 31
0.0
  0
LINE
  5
333F
330
2
100
AcDbEntity
  8
AM_7
100
AcDbLine
 10
582.0795641800433
 20
-103.0652289191202
 30
0.0
 11
582.7295641800433
 21
-103.0652289191202
 31
0.0
  0
LINE
  5
3340
330
2
100
AcDbEntity
  8
AM_7
100
AcDbLine
 10
586.3295641800433
 20
-103.0652289191202
 30
0.0
 11
586.9795641800433
 21
-103.0652289191202
 31
0.0
  0
LINE
  5
3341
330
2
100
AcDbEntity
  8
AM_7
100
AcDbLine
 10
584.5295641800434
 20
-105.5152289191202
 30
0.0
 11
584.5295641800434
 21
-104.8652289191202
 31
0.0
  0
LINE
  5
3342
330
2
100
AcDbEntity
  8
AM_7
100
AcDbLine
 10
584.5295641800434
 20
-101.2652289191202
 30
0.0
 11
584.5295641800434
 21
-100.6152289191202
 31
0.0
  0
LINE
  5
3343
330
2
100
AcDbEntity
  8
AM_7
100
AcDbLine
 10
576.6295641800432
 20
-107.1652289191202
 30
0.0
 11
588.0795641800433
 21
-107.1652289191202
 31
0.0
  0
LINE
  5
3344
330
2
100
AcDbEntity
  8
AM_7
100
AcDbLine
 10
617.3795641800434
 20
-107.1652289191201
 30
0.0
 11
611.9795641800433
 21
-107.1652289191201
 31
0.0
  0
LINE
  5
3345
330
2
100
AcDbEntity
  8
AM_7
100
AcDbLine
 10
617.1795641800433
 20
-110.4152289191202
 30
0.0
 11
610.4795641800433
 21
-110.4152289191202
 31
0.0
  0
LINE
  5
3346
330
2
100
AcDbEntity
  8
AM_7
100
AcDbLine
 10
617.1795641800433
 20
-103.9152289191201
 30
0.0
 11
610.4795641800433
 21
-103.9152289191201
 31
0.0
  0
LINE
  5
3347
330
2
100
AcDbEntity
  8
AM_7
100
AcDbLine
 10
606.0795641800433
 20
-107.1652289191202
 30
0.0
 11
608.0795641800433
 21
-107.1652289191202
 31
0.0
  0
LINE
  5
3348
330
2
100
AcDbEntity
  8
AM_7
100
AcDbLine
 10
607.0795641800433
 20
-108.1652289191202
 30
0.0
 11
607.0795641800433
 21
-106.1652289191202
 31
0.0
  0
LINE
  5
3349
330
2
100
AcDbEntity
  8
AM_7
100
AcDbLine
 10
602.0795641800433
 20
-107.1652289191202
 30
0.0
 11
605.2795641800433
 21
-107.1652289191202
 31
0.0
  0
LINE
  5
334A
330
2
100
AcDbEntity
  8
AM_7
100
AcDbLine
 10
608.8795641800433
 20
-107.1652289191202
 30
0.0
 11
612.0795641800433
 21
-107.1652289191202
 31
0.0
  0
LINE
  5
334B
330
2
100
AcDbEntity
  8
AM_7
100
AcDbLine
 10
607.0795641800433
 20
-112.1652289191201
 30
0.0
 11
607.0795641800433
 21
-108.9652289191201
 31
0.0
  0
LINE
  5
334C
330
2
100
AcDbEntity
  8
AM_7
100
AcDbLine
 10
607.0795641800433
 20
-105.3652289191201
 30
0.0
 11
607.0795641800433
 21
-102.1652289191202
 31
0.0
  0
CIRCLE
  5
334D
330
2
100
AcDbEntity
  8
AM_4
  6
HIDDEN2
100
AcDbCircle
 10
579.2795641800434
 20
-107.1652289191202
 30
0.0
 40
1.5
  0
CIRCLE
  5
334E
330
2
100
AcDbEntity
  8
AM_4
  6
HIDDEN2
100
AcDbCircle
 10
572.2795641800433
 20
-107.1652289191202
 30
0.0
 40
1.5
  0
CIRCLE
  5
334F
330
2
100
AcDbEntity
  8
AM_4
  6
HIDDEN2
100
AcDbCircle
 10
586.2795641800434
 20
-107.1652289191202
 30
0.0
 40
1.5
  0
LINE
  5
3350
330
2
100
AcDbEntity
  8
AM_7
100
AcDbLine
 10
652.2007487052531
 20
-65.63121145960801
 30
0.0
 11
652.2007487052531
 21
-58.59898173368404
 31
0.0
  0
LINE
  5
3351
330
2
100
AcDbEntity
  8
AM_7
100
AcDbLine
 10
651.2007487052532
 20
-57.43121145960799
 30
0.0
 11
653.2007487052531
 21
-57.43121145960799
 31
0.0
  0
LINE
  5
3352
330
2
100
AcDbEntity
  8
AM_7
100
AcDbLine
 10
652.2007487052531
 20
-58.43121145960799
 30
0.0
 11
652.2007487052531
 21
-56.43121145960799
 31
0.0
  0
LINE
  5
3353
330
2
100
AcDbEntity
  8
AM_7
100
AcDbLine
 10
647.6007487052533
 20
-57.43121145960799
 30
0.0
 11
650.4007487052533
 21
-57.43121145960799
 31
0.0
  0
LINE
  5
3354
330
2
100
AcDbEntity
  8
AM_7
100
AcDbLine
 10
654.0007487052532
 20
-57.43121145960799
 30
0.0
 11
656.8007487052532
 21
-57.43121145960799
 31
0.0
  0
LINE
  5
3355
330
2
100
AcDbEntity
  8
AM_7
100
AcDbLine
 10
652.2007487052531
 20
-62.03121145960799
 30
0.0
 11
652.2007487052531
 21
-59.231211459608
 31
0.0
  0
LINE
  5
3356
330
2
100
AcDbEntity
  8
AM_7
100
AcDbLine
 10
652.2007487052531
 20
-55.63121145960798
 30
0.0
 11
652.2007487052531
 21
-52.831211459608
 31
0.0
  0
LINE
  5
3357
330
2
100
AcDbEntity
  8
AM_7
100
AcDbLine
 10
647.9507487052532
 20
-58.83121145960803
 30
0.0
 11
649.9507487052532
 21
-58.83121145960803
 31
0.0
  0
LINE
  5
3358
330
2
100
AcDbEntity
  8
AM_7
100
AcDbLine
 10
648.9507487052532
 20
-59.83121145960803
 30
0.0
 11
648.9507487052532
 21
-57.83121145960802
 31
0.0
  0
LINE
  5
3359
330
2
100
AcDbEntity
  8
AM_7
100
AcDbLine
 10
644.8507487052532
 20
-58.83121145960803
 30
0.0
 11
647.1507487052532
 21
-58.83121145960803
 31
0.0
  0
LINE
  5
335A
330
2
100
AcDbEntity
  8
AM_7
100
AcDbLine
 10
650.7507487052532
 20
-58.83121145960803
 30
0.0
 11
653.0507487052532
 21
-58.83121145960803
 31
0.0
  0
LINE
  5
335B
330
2
100
AcDbEntity
  8
AM_7
100
AcDbLine
 10
648.9507487052532
 20
-62.93121145960802
 30
0.0
 11
648.9507487052532
 21
-60.63121145960804
 31
0.0
  0
LINE
  5
335C
330
2
100
AcDbEntity
  8
AM_7
100
AcDbLine
 10
648.9507487052532
 20
-57.03121145960801
 30
0.0
 11
648.9507487052532
 21
-54.73121145960803
 31
0.0
  0
LINE
  5
335D
330
2
100
AcDbEntity
  8
AM_7
100
AcDbLine
 10
654.4507487052531
 20
-58.83121145960799
 30
0.0
 11
656.4507487052532
 21
-58.83121145960799
 31
0.0
  0
LINE
  5
335E
330
2
100
AcDbEntity
  8
AM_7
100
AcDbLine
 10
655.4507487052532
 20
-59.831211459608
 30
0.0
 11
655.4507487052532
 21
-57.831211459608
 31
0.0
  0
LINE
  5
335F
330
2
100
AcDbEntity
  8
AM_7
100
AcDbLine
 10
651.3507487052533
 20
-58.83121145960799
 30
0.0
 11
653.6507487052532
 21
-58.83121145960799
 31
0.0
  0
LINE
  5
3360
330
2
100
AcDbEntity
  8
AM_7
100
AcDbLine
 10
657.2507487052533
 20
-58.83121145960799
 30
0.0
 11
659.5507487052532
 21
-58.83121145960799
 31
0.0
  0
LINE
  5
3361
330
2
100
AcDbEntity
  8
AM_7
100
AcDbLine
 10
655.4507487052532
 20
-62.931211459608
 30
0.0
 11
655.4507487052532
 21
-60.63121145960801
 31
0.0
  0
LINE
  5
3362
330
2
100
AcDbEntity
  8
AM_7
100
AcDbLine
 10
655.4507487052532
 20
-57.03121145960799
 30
0.0
 11
655.4507487052532
 21
-54.731211459608
 31
0.0
  0
LINE
  5
3363
330
2
100
AcDbEntity
  8
AM_7
100
AcDbLine
 10
652.7007487052531
 20
-44.63121145960798
 30
0.0
 11
654.7007487052532
 21
-44.63121145960798
 31
0.0
  0
LINE
  5
3364
330
2
100
AcDbEntity
  8
AM_7
100
AcDbLine
 10
653.7007487052532
 20
-45.63121145960798
 30
0.0
 11
653.7007487052532
 21
-43.63121145960798
 31
0.0
  0
LINE
  5
3365
330
2
100
AcDbEntity
  8
AM_7
100
AcDbLine
 10
651.8507487052533
 20
-44.63121145960798
 30
0.0
 11
651.9007487052532
 21
-44.63121145960798
 31
0.0
  0
LINE
  5
3366
330
2
100
AcDbEntity
  8
AM_7
100
AcDbLine
 10
655.5007487052533
 20
-44.63121145960798
 30
0.0
 11
655.5507487052532
 21
-44.63121145960798
 31
0.0
  0
LINE
  5
3367
330
2
100
AcDbEntity
  8
AM_7
100
AcDbLine
 10
653.7007487052532
 20
-46.48121145960797
 30
0.0
 11
653.7007487052532
 21
-46.43121145960799
 31
0.0
  0
LINE
  5
3368
330
2
100
AcDbEntity
  8
AM_7
100
AcDbLine
 10
653.7007487052532
 20
-42.83121145960797
 30
0.0
 11
653.7007487052532
 21
-42.78121145960798
 31
0.0
  0
LINE
  5
3369
330
2
100
AcDbEntity
  8
AM_7
100
AcDbLine
 10
649.7007487052532
 20
-44.63121145960798
 30
0.0
 11
651.7007487052532
 21
-44.63121145960798
 31
0.0
  0
LINE
  5
336A
330
2
100
AcDbEntity
  8
AM_7
100
AcDbLine
 10
650.7007487052532
 20
-45.63121145960798
 30
0.0
 11
650.7007487052532
 21
-43.63121145960798
 31
0.0
  0
LINE
  5
336B
330
2
100
AcDbEntity
  8
AM_7
100
AcDbLine
 10
648.8507487052532
 20
-44.63121145960798
 30
0.0
 11
648.9007487052532
 21
-44.63121145960798
 31
0.0
  0
LINE
  5
336C
330
2
100
AcDbEntity
  8
AM_7
100
AcDbLine
 10
652.5007487052532
 20
-44.63121145960798
 30
0.0
 11
652.5507487052532
 21
-44.63121145960798
 31
0.0
  0
LINE
  5
336D
330
2
100
AcDbEntity
  8
AM_7
100
AcDbLine
 10
650.7007487052532
 20
-46.48121145960797
 30
0.0
 11
650.7007487052532
 21
-46.43121145960799
 31
0.0
  0
LINE
  5
336E
330
2
100
AcDbEntity
  8
AM_7
100
AcDbLine
 10
650.7007487052532
 20
-42.83121145960797
 30
0.0
 11
650.7007487052532
 21
-42.78121145960798
 31
0.0
  0
LINE
  5
3375
330
2
100
AcDbEntity
  8
AM_VIS
100
AcDbLine
 10
599.8512162676503
 20
-9.973447230320118
 30
0.0
 11
599.3795641800432
 21
-10.014711441114
 31
0.0
  0
LINE
  5
3376
330
2
100
AcDbEntity
  8
AM_VIS
100
AcDbLine
 10
599.3795641800432
 20
-10.014711441114
 30
0.0
 11
599.3795641800432
 21
-9.914711441113951
 31
0.0
  0
ARC
  5
3377
330
2
100
AcDbEntity
  8
AM_VIS
100
AcDbCircle
 10
599.7954365922918
 20
-9.33588262354138
 30
0.0
 40
0.6400000000000002
100
AcDbArc
 50
274.9999999999998
 51
295.2547165609077
  0
LINE
  5
3378
330
2
100
AcDbEntity
  8
AM_VIS
100
AcDbLine
 10
599.8512162676503
 20
0.1440243480921595
 30
0.0
 11
599.3795641800432
 21
0.1852885588860431
 31
0.0
  0
LINE
  5
3379
330
2
100
AcDbEntity
  8
AM_VIS
100
AcDbLine
 10
599.3795641800432
 20
0.0852885588860204
 30
0.0
 11
599.3795641800432
 21
0.1852885588860431
 31
0.0
  0
ARC
  5
337A
330
2
100
AcDbEntity
  8
AM_VIS
100
AcDbCircle
 10
599.7954365922918
 20
-0.4935402586866076
 30
0.0
 40
0.6400000000000002
100
AcDbArc
 50
64.74528343909952
 51
85.00000000000019
  0
LINE
  5
337B
330
2
100
AcDbEntity
  8
AM_VIS
100
AcDbLine
 10
586.1295641800433
 20
-9.914711441113979
 30
0.0
 11
585.5295641800434
 21
-9.914711441113979
 31
0.0
  0
LINE
  5
337C
330
2
100
AcDbEntity
  8
AM_VIS
100
AcDbLine
 10
585.5295641800434
 20
-9.914711441113979
 30
0.0
 11
585.0295641800434
 21
-10.41471144111398
 31
0.0
  0
LINE
  5
337D
330
2
100
AcDbEntity
  8
AM_VIS
100
AcDbLine
 10
585.0295641800434
 20
-10.41471144111398
 30
0.0
 11
584.0295641800434
 21
-10.41471144111398
 31
0.0
  0
LINE
  5
337E
330
2
100
AcDbEntity
  8
AM_VIS
100
AcDbLine
 10
584.0295641800434
 20
-10.41471144111398
 30
0.0
 11
583.5295641800434
 21
-9.914711441113979
 31
0.0
  0
LINE
  5
337F
330
2
100
AcDbEntity
  8
AM_VIS
100
AcDbLine
 10
575.9295641800433
 20
0.0852885588860204
 30
0.0
 11
576.5295641800434
 21
0.0852885588860204
 31
0.0
  0
LINE
  5
3380
330
2
100
AcDbEntity
  8
AM_VIS
100
AcDbLine
 10
576.5295641800434
 20
0.085288558885992
 30
0.0
 11
577.0295641800434
 21
0.585288558885992
 31
0.0
  0
LINE
  5
3381
330
2
100
AcDbEntity
  8
AM_VIS
100
AcDbLine
 10
577.0295641800434
 20
0.585288558885992
 30
0.0
 11
578.0295641800433
 21
0.585288558885992
 31
0.0
  0
LINE
  5
3382
330
2
100
AcDbEntity
  8
AM_VIS
100
AcDbLine
 10
578.0295641800433
 20
0.585288558885992
 30
0.0
 11
578.5295641800433
 21
0.085288558885992
 31
0.0
  0
ARC
  5
3383
330
2
100
AcDbEntity
  8
AM_VIS
100
AcDbCircle
 10
575.7795641800433
 20
-2.324176523986579
 30
0.0
 40
5.447830587513865
100
AcDbArc
 50
264.0989369751335
 51
275.9010630248665
  0
ARC
  5
3384
330
2
100
AcDbEntity
  8
AM_VIS
100
AcDbCircle
 10
582.7795641800411
 20
-7.50524635819832
 30
0.0
 40
5.447830587470797
100
AcDbArc
 50
84.09893697505488
 51
95.90106302489269
  0
LINE
  5
3385
330
2
100
AcDbEntity
  8
AM_VIS
100
AcDbLine
 10
578.5295641800433
 20
0.0852885588860204
 30
0.0
 11
579.1295641800433
 21
0.0852885588860204
 31
0.0
  0
LINE
  5
3386
330
2
100
AcDbEntity
  8
AM_VIS
100
AcDbLine
 10
567.4795641800433
 20
0.0852885588860204
 30
0.0
 11
567.4795641800433
 21
-9.914711441113979
 31
0.0
  0
LINE
  5
3387
330
2
100
AcDbEntity
  8
AM_VIS
100
AcDbLine
 10
567.4795641800433
 20
0.0852885588860204
 30
0.0
 11
575.9295641800433
 21
0.0852885588860204
 31
0.0
  0
LINE
  5
3388
330
2
100
AcDbEntity
  8
AM_VIS
100
AcDbLine
 10
575.9295641800433
 20
-0.8147114411140137
 30
0.0
 11
575.9295641800433
 21
0.085288558885992
 31
0.0
  0
LINE
  5
3389
330
2
100
AcDbEntity
  8
AM_VIS
100
AcDbLine
 10
579.1295641800433
 20
0.0852885588860204
 30
0.0
 11
579.1295641800433
 21
-0.8147114411139853
 31
0.0
  0
LINE
  5
338A
330
2
100
AcDbEntity
  8
AM_VIS
100
AcDbLine
 10
579.1295641800433
 20
0.0852885588860204
 30
0.0
 11
583.4295641800434
 21
0.0852885588860204
 31
0.0
  0
LINE
  5
338B
330
2
100
AcDbEntity
  8
AM_VIS
100
AcDbLine
 10
583.9295641800434
 20
-0.4147114411139797
 30
0.0
 11
583.4295641800434
 21
0.0852885588860204
 31
0.0
  0
LINE
  5
338C
330
2
100
AcDbEntity
  8
AM_VIS
100
AcDbLine
 10
587.3295641800433
 20
-0.4147114411139797
 30
0.0
 11
583.9295641800434
 21
-0.4147114411139797
 31
0.0
  0
LINE
  5
338D
330
2
100
AcDbEntity
  8
AM_VIS
100
AcDbLine
 10
587.8295641800433
 20
0.085288558885992
 30
0.0
 11
587.3295641800433
 21
-0.4147114411140081
 31
0.0
  0
LINE
  5
338E
330
2
100
AcDbEntity
  8
AM_VIS
100
AcDbLine
 10
587.8295641800433
 20
0.0852885588860204
 30
0.0
 11
591.0795641800433
 21
0.0852885588860204
 31
0.0
  0
LINE
  5
338F
330
2
100
AcDbEntity
  8
AM_VIS
100
AcDbLine
 10
591.0795641800433
 20
-9.914711441113979
 30
0.0
 11
591.0795641800433
 21
0.0852885588860204
 31
0.0
  0
LINE
  5
3390
330
2
100
AcDbEntity
  8
AM_VIS
100
AcDbLine
 10
586.1295641800433
 20
-9.914711441113979
 30
0.0
 11
591.0795641800433
 21
-9.914711441113979
 31
0.0
  0
LINE
  5
3391
330
2
100
AcDbEntity
  8
AM_VIS
100
AcDbLine
 10
586.1295641800433
 20
-9.014711441114002
 30
0.0
 11
586.1295641800433
 21
-9.914711441114008
 31
0.0
  0
LINE
  5
3392
330
2
100
AcDbEntity
  8
AM_VIS
100
AcDbLine
 10
582.9295641800434
 20
-9.914711441114008
 30
0.0
 11
582.9295641800434
 21
-9.014711441114002
 31
0.0
  0
LINE
  5
3393
330
2
100
AcDbEntity
  8
AM_VIS
100
AcDbLine
 10
567.4795641800433
 20
-9.914711441113979
 30
0.0
 11
576.4295641800433
 21
-9.914711441113979
 31
0.0
  0
LINE
  5
3394
330
2
100
AcDbEntity
  8
AM_VIS
100
AcDbLine
 10
580.8295641800433
 20
-9.914711441113979
 30
0.0
 11
582.9295641800434
 21
-9.914711441113979
 31
0.0
  0
LINE
  5
3395
330
2
100
AcDbEntity
  8
AM_VIS
100
AcDbLine
 10
583.5295641800434
 20
-9.914711441113979
 30
0.0
 11
582.9295641800434
 21
-9.914711441113979
 31
0.0
  0
LINE
  5
3396
330
2
100
AcDbEntity
  8
AM_VIS
100
AcDbLine
 10
576.9295641800433
 20
-9.414711441113979
 30
0.0
 11
580.3295641800433
 21
-9.414711441113979
 31
0.0
  0
LINE
  5
3397
330
2
100
AcDbEntity
  8
AM_VIS
100
AcDbLine
 10
580.3295641800433
 20
-9.414711441113979
 30
0.0
 11
580.8295641800433
 21
-9.914711441113979
 31
0.0
  0
LINE
  5
3398
330
2
100
AcDbEntity
  8
AM_VIS
100
AcDbLine
 10
576.4295641800433
 20
-9.914711441114008
 30
0.0
 11
576.9295641800433
 21
-9.414711441114008
 31
0.0
  0
CIRCLE
  5
3399
102
{ACAD_REACTORS
330
46AE
102
}
330
2
100
AcDbEntity
  8
AM_VIS
100
AcDbCircle
 10
584.5295641800434
 20
-9.014711441114002
 30
0.0
 40
0.85
  0
CIRCLE
  5
339A
330
2
100
AcDbEntity
  8
AM_VIS
100
AcDbCircle
 10
577.5295641800433
 20
-0.8147114411140137
 30
0.0
 40
0.85
  0
CIRCLE
  5
339B
330
2
100
AcDbEntity
  8
AM_VIS
100
AcDbCircle
 10
575.7795641800433
 20
-6.914711441113979
 30
0.0
 40
1.25
  0
CIRCLE
  5
339C
330
2
100
AcDbEntity
  8
AM_VIS
100
AcDbCircle
 10
582.7795641800434
 20
-2.914711441114008
 30
0.0
 40
1.25
  0
CIRCLE
  5
339D
330
2
100
AcDbEntity
  8
AM_VIS
100
AcDbCircle
 10
575.7795641800433
 20
-6.914711441113979
 30
0.0
 40
1.0
  0
CIRCLE
  5
339E
330
2
100
AcDbEntity
  8
AM_VIS
100
AcDbCircle
 10
582.7795641800434
 20
-2.914711441114008
 30
0.0
 40
1.0
  0
ARC
  5
339F
330
2
100
AcDbEntity
  8
AM_VIS
100
AcDbCircle
 10
577.5295641800433
 20
-0.8147114411140137
 30
0.0
 40
1.6
100
AcDbArc
 50
180.0
 51
0.0
  0
ARC
  5
33A0
330
2
100
AcDbEntity
  8
AM_VIS
100
AcDbCircle
 10
584.5295641800434
 20
-9.014711441114002
 30
0.0
 40
1.6
100
AcDbArc
 50
0.0
 51
180.0
  0
CIRCLE
  5
33A1
330
2
100
AcDbEntity
  8
AM_VIS
100
AcDbCircle
 10
575.7795641800433
 20
-6.914711441113979
 30
0.0
 40
1.6
  0
CIRCLE
  5
33A2
330
2
100
AcDbEntity
  8
AM_VIS
100
AcDbCircle
 10
582.7795641800434
 20
-2.914711441114008
 30
0.0
 40
1.6
  0
LINE
  5
33A3
330
2
100
AcDbEntity
  8
AM_VIS
100
AcDbLine
 10
591.0795641800433
 20
0.0852885588860204
 30
0.0
 11
591.0795641800433
 21
-9.914711441113979
 31
0.0
  0
LINE
  5
33A4
330
2
100
AcDbEntity
  8
AM_VIS
100
AcDbLine
 10
591.0795641800433
 20
0.0852885588860204
 30
0.0
 11
600.5795641800433
 21
0.0852885588860204
 31
0.0
  0
LINE
  5
33A5
330
2
100
AcDbEntity
  8
AM_VIS
100
AcDbLine
 10
591.0795641800433
 20
-9.914711441113979
 30
0.0
 11
600.5795641800433
 21
-9.914711441113979
 31
0.0
  0
ARC
  5
33A6
330
2
100
AcDbEntity
  8
AM_VIS
100
AcDbCircle
 10
601.5794322300106
 20
-7.114711441113939
 30
0.0
 40
4.674968506161596
100
AcDbArc
 50
177.5480788316095
 51
182.4519211683905
  0
ARC
  5
33A7
330
2
100
AcDbEntity
  8
AM_VIS
100
AcDbCircle
 10
593.579696130076
 20
-7.114711441113996
 30
0.0
 40
4.674968506161596
100
AcDbArc
 50
357.5480788316095
 51
2.451921168390511
  0
CIRCLE
  5
33A8
330
2
100
AcDbEntity
  8
AM_VIS
100
AcDbCircle
 10
597.5795641800433
 20
-7.114711441113968
 30
0.0
 40
0.7
  0
LINE
  5
33A9
330
2
100
AcDbEntity
  8
AM_VIS
100
AcDbLine
 10
567.4795641800433
 20
-9.914711441114008
 30
0.0
 11
567.4795641800433
 21
0.085288558885992
 31
0.0
  0
LINE
  5
33AF
330
2
100
AcDbEntity
  8
AM_VIS
100
AcDbLine
 10
576.4410020078095
 20
-6.164711441113979
 30
0.0
 11
575.4795641800433
 21
-6.164711441113979
 31
0.0
  0
LINE
  5
33B0
330
2
100
AcDbEntity
  8
AM_VIS
100
AcDbLine
 10
575.4795641800433
 20
-6.164711441113979
 30
0.0
 11
574.8198149132901
 21
-7.19556967041592
 31
0.0
  0
LINE
  5
33B1
330
2
100
AcDbEntity
  8
AM_VIS
100
AcDbLine
 10
583.4410020078094
 20
-3.664711441113979
 30
0.0
 11
582.4295641800433
 21
-3.664711441113979
 31
0.0
  0
LINE
  5
33B2
330
2
100
AcDbEntity
  8
AM_VIS
100
AcDbLine
 10
582.4295641800433
 20
-3.664711441113979
 30
0.0
 11
581.8053006085687
 21
-2.689299610684827
 31
0.0
  0
LINE
  5
33B3
330
2
100
AcDbEntity
  8
AM_VIS
100
AcDbLine
 10
575.4795641800433
 20
-5.960772239697035
 30
0.0
 11
575.4795641800433
 21
-6.164711441113979
 31
0.0
  0
LINE
  5
33B4
330
2
100
AcDbEntity
  8
AM_VIS
100
AcDbLine
 10
582.4295641800433
 20
-3.664711441113979
 30
0.0
 11
582.4295641800433
 21
-3.851461140873766
 31
0.0
  0
LINE
  5
33B5
330
2
100
AcDbEntity
  8
AM_VIS
100
AcDbLine
 10
613.5795641800434
 20
-9.914711441114093
 30
0.0
 11
600.5795641800433
 21
-9.914711441114093
 31
0.0
  0
LINE
  5
33B6
330
2
100
AcDbEntity
  8
AM_VIS
100
AcDbLine
 10
600.5795641800433
 20
0.0852885588859067
 30
0.0
 11
613.5795641800434
 21
0.0852885588859067
 31
0.0
  0
LINE
  5
33B7
330
2
100
AcDbEntity
  8
AM_VIS
100
AcDbLine
 10
600.5795641800433
 20
-9.914711441114093
 30
0.0
 11
600.5795641800433
 21
0.0852885588859067
 31
0.0
  0
LINE
  5
33B8
330
2
100
AcDbEntity
  8
AM_VIS
100
AcDbLine
 10
613.5795641800434
 20
-9.914711441114093
 30
0.0
 11
613.5795641800434
 21
0.0852885588859067
 31
0.0
  0
LINE
  5
33B9
330
2
100
AcDbEntity
  8
AM_VIS
100
AcDbLine
 10
618.5795641800433
 20
-8.914711441114064
 30
0.0
 11
617.0795641800433
 21
-9.914711441114064
 31
0.0
  0
LINE
  5
33BA
330
2
100
AcDbEntity
  8
AM_VIS
100
AcDbLine
 10
618.5795641800433
 20
-1.164711441114093
 30
0.0
 11
622.0795641800433
 21
-1.164711441114093
 31
0.0
  0
LINE
  5
33BB
330
2
100
AcDbEntity
  8
AM_VIS
100
AcDbLine
 10
622.0795641800433
 20
-1.164711441114093
 30
0.0
 11
623.0795641800433
 21
-1.764711441114116
 31
0.0
  0
LINE
  5
33BC
330
2
100
AcDbEntity
  8
AM_VIS
100
AcDbLine
 10
623.0795641800433
 20
-1.914711441114093
 30
0.0
 11
623.0795641800433
 21
-1.764711441114087
 31
0.0
  0
LINE
  5
33BD
330
2
100
AcDbEntity
  8
AM_VIS
100
AcDbLine
 10
623.0795641800433
 20
-1.914711441114093
 30
0.0
 11
623.0795641800433
 21
-2.814711441114098
 31
0.0
  0
LINE
  5
33BE
330
2
100
AcDbEntity
  8
AM_VIS
100
AcDbLine
 10
618.5795641800433
 20
-1.914711441114093
 30
0.0
 11
623.0795641800433
 21
-1.914711441114093
 31
0.0
  0
LINE
  5
33BF
330
2
100
AcDbEntity
  8
AM_VIS
100
AcDbLine
 10
623.0795641800433
 20
-2.81471144111407
 30
0.0
 11
618.5795641800433
 21
-2.81471144111407
 31
0.0
  0
LINE
  5
33C0
330
2
100
AcDbEntity
  8
AM_VIS
100
AcDbLine
 10
623.0795641800433
 20
-7.014711441114059
 30
0.0
 11
623.0795641800433
 21
-2.81471144111407
 31
0.0
  0
LINE
  5
33C1
330
2
100
AcDbEntity
  8
AM_VIS
100
AcDbLine
 10
623.0795641800433
 20
-8.06471144111407
 30
0.0
 11
623.0795641800433
 21
-7.914711441114064
 31
0.0
  0
LINE
  5
33C2
330
2
100
AcDbEntity
  8
AM_VIS
100
AcDbLine
 10
623.0795641800433
 20
-8.06471144111407
 30
0.0
 11
622.0795641800433
 21
-8.664711441114064
 31
0.0
  0
LINE
  5
33C3
330
2
100
AcDbEntity
  8
AM_VIS
100
AcDbLine
 10
618.5795641800433
 20
-8.664711441114064
 30
0.0
 11
622.0795641800433
 21
-8.664711441114064
 31
0.0
  0
LINE
  5
33C4
330
2
100
AcDbEntity
  8
AM_VIS
100
AcDbLine
 10
623.0795641800433
 20
-7.014711441114087
 30
0.0
 11
623.0795641800433
 21
-7.914711441114093
 31
0.0
  0
LINE
  5
33C5
330
2
100
AcDbEntity
  8
AM_VIS
100
AcDbLine
 10
618.5795641800433
 20
-7.014711441114059
 30
0.0
 11
623.0795641800433
 21
-7.014711441114059
 31
0.0
  0
LINE
  5
33C6
330
2
100
AcDbEntity
  8
AM_VIS
100
AcDbLine
 10
623.0795641800433
 20
-7.914711441114064
 30
0.0
 11
618.5795641800433
 21
-7.914711441114064
 31
0.0
  0
LINE
  5
33C7
330
2
100
AcDbEntity
  8
AM_VIS
100
AcDbLine
 10
621.5795641800433
 20
-4.414711441114064
 30
0.0
 11
620.3795641800434
 21
-4.414711441114064
 31
0.0
  0
LINE
  5
33C8
330
2
100
AcDbEntity
  8
AM_VIS
100
AcDbLine
 10
621.5795641800433
 20
-4.414711441114064
 30
0.0
 11
621.5795641800433
 21
-5.414711441114064
 31
0.0
  0
LINE
  5
33C9
330
2
100
AcDbEntity
  8
AM_VIS
100
AcDbLine
 10
620.3795641800434
 20
-5.414711441114064
 30
0.0
 11
621.5795641800433
 21
-5.414711441114064
 31
0.0
  0
LINE
  5
33CA
330
2
100
AcDbEntity
  8
AM_VIS
100
AcDbLine
 10
620.3795641800434
 20
-4.414711441114064
 30
0.0
 11
620.3795641800434
 21
-5.414711441114064
 31
0.0
  0
LINE
  5
33CB
330
2
100
AcDbEntity
  8
AM_VIS
100
AcDbLine
 10
618.5795641800433
 20
-8.914711441114064
 30
0.0
 11
618.5795641800433
 21
-6.914711441114064
 31
0.0
  0
LINE
  5
33CC
330
2
100
AcDbEntity
  8
AM_VIS
100
AcDbLine
 10
617.0795641800433
 20
0.0852885588859067
 30
0.0
 11
618.5795641800433
 21
-0.9147114411140933
 31
0.0
  0
LINE
  5
33CD
330
2
100
AcDbEntity
  8
AM_VIS
100
AcDbLine
 10
618.5795641800433
 20
-2.914711441114093
 30
0.0
 11
618.5795641800433
 21
-0.9147114411140933
 31
0.0
  0
LINE
  5
33CE
330
2
100
AcDbEntity
  8
AM_VIS
100
AcDbLine
 10
617.0795641800433
 20
-6.914711441114064
 30
0.0
 11
617.0795641800433
 21
-9.914711441114064
 31
0.0
  0
LINE
  5
33CF
330
2
100
AcDbEntity
  8
AM_VIS
100
AcDbLine
 10
613.5795641800434
 20
-9.914711441114064
 30
0.0
 11
617.0795641800433
 21
-9.914711441114064
 31
0.0
  0
LINE
  5
33D0
330
2
100
AcDbEntity
  8
AM_VIS
100
AcDbLine
 10
613.5795641800434
 20
0.0852885588859067
 30
0.0
 11
613.5795641800434
 21
-9.914711441114093
 31
0.0
  0
LINE
  5
33D1
330
2
100
AcDbEntity
  8
AM_VIS
100
AcDbLine
 10
613.5795641800434
 20
0.0852885588859067
 30
0.0
 11
617.0795641800433
 21
0.0852885588859067
 31
0.0
  0
LINE
  5
33D2
330
2
100
AcDbEntity
  8
AM_VIS
100
AcDbLine
 10
617.0795641800433
 20
0.0852885588859067
 30
0.0
 11
617.0795641800433
 21
-2.914711441114093
 31
0.0
  0
LINE
  5
33D3
330
2
100
AcDbEntity
  8
AM_VIS
100
AcDbLine
 10
618.5795641800433
 20
-6.914711441114064
 30
0.0
 11
617.0795641800433
 21
-6.914711441114064
 31
0.0
  0
LINE
  5
33D4
330
2
100
AcDbEntity
  8
AM_VIS
100
AcDbLine
 10
617.0795641800433
 20
-6.914711441114064
 30
0.0
 11
616.2795641800434
 21
-6.914711441114064
 31
0.0
  0
LINE
  5
33D5
330
2
100
AcDbEntity
  8
AM_VIS
100
AcDbLine
 10
616.2795641800434
 20
-2.914711441114093
 30
0.0
 11
617.0795641800433
 21
-2.914711441114093
 31
0.0
  0
LINE
  5
33D6
330
2
100
AcDbEntity
  8
AM_VIS
100
AcDbLine
 10
617.0795641800433
 20
-2.914711441114093
 30
0.0
 11
618.5795641800433
 21
-2.914711441114093
 31
0.0
  0
LINE
  5
33D7
330
2
100
AcDbEntity
  8
AM_VIS
100
AcDbLine
 10
616.2795641800434
 20
-6.914711441114064
 30
0.0
 11
616.2795641800434
 21
-2.914711441114064
 31
0.0
  0
LINE
  5
33D8
330
2
100
AcDbEntity
  8
AM_VIS
100
AcDbLine
 10
616.9967214675688
 20
-6.914711441114064
 30
0.0
 11
616.9967214675688
 21
-2.914711441114064
 31
0.0
  0
LINE
  5
33D9
330
2
100
AcDbEntity
  8
AM_VIS
100
AcDbLine
 10
618.5795641800433
 20
-2.914711441114093
 30
0.0
 11
618.5795641800433
 21
-6.914711441114093
 31
0.0
  0
LINE
  5
33ED
330
2
100
AcDbEntity
  8
AM_VIS
100
AcDbLine
 10
599.3795641800432
 20
-63.48798789589117
 30
0.0
 11
599.3795641800432
 21
-62.37443502332491
 31
0.0
  0
LINE
  5
33EE
330
2
100
AcDbEntity
  8
AM_VIS
100
AcDbLine
 10
600.5795641800433
 20
-62.77621145960802
 30
0.0
 11
600.526728517884
 21
-62.77621145960802
 31
0.0
  0
ELLIPSE
  5
33EF
330
2
100
AcDbEntity
  8
AM_VIS
100
AcDbEllipse
 10
598.7619731349955
 20
-62.93121145960805
 30
0.0
 11
-0.000000000000001
 21
-2.335538904304221
 31
0.0
210
0.0
220
0.0
230
1.0
 40
0.7572790292165315
 41
1.504381673290256
 42
1.637210980299539
  0
LINE
  5
33F0
330
2
100
AcDbEntity
  8
AM_VIS
100
AcDbLine
 10
600.5267285178839
 20
-63.08621145960808
 30
0.0
 11
600.5795641800433
 21
-63.08621145960808
 31
0.0
  0
ARC
  5
33F1
330
2
100
AcDbEntity
  8
AM_VIS
100
AcDbCircle
 10
598.1795641800434
 20
-62.93121145960805
 30
0.0
 40
2.495190373498459
100
AcDbArc
 50
15.87715702472721
 51
19.83469875865789
  0
LINE
  5
33F2
330
2
100
AcDbEntity
  8
AM_VIS
100
AcDbLine
 10
600.5267285178846
 20
-63.7778486730387
 30
0.0
 11
600.5306277691451
 21
-63.78121145960808
 31
0.0
  0
LINE
  5
33F3
330
2
100
AcDbEntity
  8
AM_VIS
100
AcDbLine
 10
600.5306277691451
 20
-62.08121145960802
 30
0.0
 11
600.5267285178846
 21
-62.0845742461774
 31
0.0
  0
ARC
  5
33F4
330
2
100
AcDbEntity
  8
AM_VIS
100
AcDbCircle
 10
598.1795641800434
 20
-62.93121145960805
 30
0.0
 40
2.495190373498459
100
AcDbArc
 50
340.1653012413421
 51
344.1228429752728
  0
ARC
  5
33F5
330
2
100
AcDbEntity
  8
AM_VIS
100
AcDbCircle
 10
599.7954365922918
 20
-62.01004027718062
 30
0.0
 40
0.6400000000000002
100
AcDbArc
 50
29.68645618692206
 51
64.74528343910022
  0
ARC
  5
33F6
330
2
100
AcDbEntity
  8
AM_VIS
100
AcDbCircle
 10
599.7954365922918
 20
-63.85238264203542
 30
0.0
 40
0.6400000000000002
100
AcDbArc
 50
295.2547165609077
 51
330.3135438130733
  0
ARC
  5
33F7
330
2
100
AcDbEntity
  8
AM_VIS
100
AcDbCircle
 10
598.1795641800434
 20
-62.93121145960805
 30
0.0
 40
2.5
100
AcDbArc
 50
19.87687407007918
 51
29.68645618692065
  0
ARC
  5
33F8
330
2
100
AcDbEntity
  8
AM_VIS
100
AcDbCircle
 10
598.1795641800434
 20
-62.93121145960805
 30
0.0
 40
2.5
100
AcDbArc
 50
330.3135438130793
 51
340.1231259299208
  0
LINE
  5
33F9
330
2
100
AcDbEntity
  8
AM_VIS
100
AcDbLine
 10
585.5295641800434
 20
-51.33121145960803
 30
0.0
 11
585.5295641800434
 21
-64.93121145960802
 31
0.0
  0
LINE
  5
33FA
330
2
100
AcDbEntity
  8
AM_VIS
100
AcDbLine
 10
585.0295641800434
 20
-51.33121145960803
 30
0.0
 11
585.0295641800434
 21
-64.93121145960802
 31
0.0
  0
LINE
  5
33FB
330
2
100
AcDbEntity
  8
AM_VIS
100
AcDbLine
 10
584.0295641800434
 20
-51.33121145960803
 30
0.0
 11
584.0295641800434
 21
-64.93121145960802
 31
0.0
  0
LINE
  5
33FC
330
2
100
AcDbEntity
  8
AM_VIS
100
AcDbLine
 10
586.1295641800433
 20
-51.33121145960803
 30
0.0
 11
585.5295641800434
 21
-51.33121145960803
 31
0.0
  0
LINE
  5
33FD
330
2
100
AcDbEntity
  8
AM_VIS
100
AcDbLine
 10
585.5295641800434
 20
-51.33121145960803
 30
0.0
 11
585.0295641800434
 21
-51.33121145960803
 31
0.0
  0
LINE
  5
33FE
330
2
100
AcDbEntity
  8
AM_VIS
100
AcDbLine
 10
585.0295641800434
 20
-51.33121145960803
 30
0.0
 11
584.0295641800434
 21
-51.33121145960803
 31
0.0
  0
LINE
  5
33FF
330
2
100
AcDbEntity
  8
AM_VIS
100
AcDbLine
 10
584.0295641800434
 20
-51.33121145960803
 30
0.0
 11
583.5295641800434
 21
-51.33121145960803
 31
0.0
  0
LINE
  5
3400
102
{ACAD_REACTORS
330
393E
102
}
330
2
100
AcDbEntity
  8
AM_VIS
100
AcDbLine
 10
586.1295641800433
 20
-49.93121145960802
 30
0.0
 11
586.1295641800433
 21
-51.33121145960803
 31
0.0
  0
LINE
  5
3401
330
2
100
AcDbEntity
  8
AM_VIS
100
AcDbLine
 10
591.0795641800433
 20
-64.93121145960802
 30
0.0
 11
591.0795641800433
 21
-49.93121145960802
 31
0.0
  0
SPLINE
  5
3402
330
2
100
AcDbEntity
  8
AM_VIS
100
AcDbSpline
210
0.0
220
0.0
230
1.0
 70
     8
 71
     3
 72
    22
 73
    18
 74
     0
 42
0.0000000001
 43
0.0000000001
 40
0.0005857012649679
 40
0.0005857012649679
 40
0.0005857012649679
 40
0.0005857012649679
 40
0.1291032167364074
 40
0.1291032167364074
 40
0.2321793656658471
 40
0.2321793656658471
 40
0.3342730606306002
 40
0.3342730606306002
 40
0.4334325735550748
 40
0.4334325735550748
 40
0.5458140249115396
 40
0.5458140249115396
 40
0.7472839067916443
 40
0.7472839067916443
 40
0.965024872814908
 40
0.965024872814908
 40
1.18476222138294
 40
1.18476222138294
 40
1.18476222138294
 40
1.18476222138294
 10
579.4795641800432
 20
-51.14776945336757
 30
0.0
 10
579.4460624668811
 20
-51.16702031317905
 30
0.0
 10
579.4180517747141
 20
-51.18596663401252
 30
0.0
 10
579.3801654132745
 20
-51.21718274708172
 30
0.0
 10
579.3696470283032
 20
-51.22839991166739
 30
0.0
 10
579.355530207813
 20
-51.24768500461778
 30
0.0
 10
579.3515400989577
 20
-51.25637063137546
 30
0.0
 10
579.3479939351156
 20
-51.27274029667905
 30
0.0
 10
579.3482745779489
 20
-51.28067051781406
 30
0.0
 10
579.3522972477145
 20
-51.29820846112536
 30
0.0
 10
579.3565609763335
 20
-51.30818426196817
 30
0.0
 10
579.3739226393328
 20
-51.34038960642678
 30
0.0
 10
579.3908336439541
 20
-51.36517382435656
 30
0.0
 10
579.4270998889154
 20
-51.42685072319489
 30
0.0
 10
579.4436956514955
 20
-51.45982114334259
 30
0.0
 10
579.4690808143436
 20
-51.53174811832832
 30
0.0
 10
579.4772029281135
 20
-51.569104954735
 30
0.0
 10
579.4795641800432
 20
-51.60776173296091
 30
0.0
  0
ARC
  5
3403
330
2
100
AcDbEntity
  8
AM_VIS
100
AcDbCircle
 10
578.0722038941148
 20
-51.37776559316424
 30
0.0
 40
1.426029873014629
100
AcDbArc
 50
350.7185542256565
 51
9.28144577434346
  0
SPLINE
  5
3404
330
2
100
AcDbEntity
  8
AM_VIS
100
AcDbSpline
210
0.0
220
0.0
230
1.0
 70
     8
 71
     3
 72
    22
 73
    18
 74
     0
 42
0.0000000001
 43
0.0000000001
 40
0.0094150088287363
 40
0.0094150088287363
 40
0.0094150088287363
 40
0.0094150088287363
 40
0.1295769185898465
 40
0.1295769185898465
 40
0.2561099860638296
 40
0.2561099860638296
 40
0.3694505360487672
 40
0.3694505360487672
 40
0.42387959764873
 40
0.42387959764873
 40
0.469230815231007
 40
0.469230815231007
 40
0.5146928183150812
 40
0.5146928183150812
 40
0.5834653339790407
 40
0.5834653339790407
 40
0.6650071550266539
 40
0.6650071550266539
 40
0.6650071550266539
 40
0.6650071550266539
 10
579.4795641800432
 20
-51.65466118625511
 30
0.0
 10
579.4771331876149
 20
-51.6944597075352
 30
0.0
 10
579.4685980256223
 20
-51.73285586086788
 30
0.0
 10
579.4411128257985
 20
-51.80899003738097
 30
0.0
 10
579.4223670962951
 20
-51.844490963454
 30
0.0
 10
579.3826444243714
 20
-51.91005450398264
 30
0.0
 10
579.3645139996232
 20
-51.93626981216715
 30
0.0
 10
579.3508764659192
 20
-51.96855624751822
 30
0.0
 10
579.3485499371667
 20
-51.97792435898154
 30
0.0
 10
579.3485965919406
 20
-51.99456112902064
 30
0.0
 10
579.3502451978746
 20
-52.00199719824519
 30
0.0
 10
579.3573659830197
 20
-52.01747697156083
 30
0.0
 10
579.3630544222679
 20
-52.02596132108488
 30
0.0
 10
579.3850455620982
 20
-52.05008329446008
 30
0.0
 10
579.402677588698
 20
-52.06422850698061
 30
0.0
 10
579.4379384388272
 20
-52.08965147638838
 30
0.0
 10
579.4589141996092
 20
-52.10278750912795
 30
0.0
 10
579.4795641800432
 20
-52.11465346584844
 30
0.0
  0
ARC
  5
3405
330
2
100
AcDbEntity
  8
AM_VIS
100
AcDbCircle
 10
578.0722038941149
 20
-51.8846573260518
 30
0.0
 40
1.426029873014457
100
AcDbArc
 50
350.7185542256549
 51
9.281445774344264
  0
SPLINE
  5
3406
330
2
100
AcDbEntity
  8
AM_VIS
100
AcDbSpline
210
0.0
220
0.0
230
1.0
 70
     8
 71
     3
 72
    42
 73
    38
 74
     0
 42
0.0000000001
 43
0.0000000001
 40
0.1262233239789426
 40
0.1262233239789426
 40
0.1262233239789426
 40
0.1262233239789426
 40
0.5833500890940469
 40
0.5833500890940469
 40
0.7485096167024511
 40
0.7485096167024511
 40
0.8693740235436306
 40
0.8693740235436306
 40
0.9848613409103121
 40
0.9848613409103121
 40
1.096494465371144
 40
1.096494465371144
 40
1.267659850087375
 40
1.267659850087375
 40
1.55521558540722
 40
1.55521558540722
 40
1.815909331250458
 40
1.815909331250458
 40
2.088443879349409
 40
2.088443879349409
 40
2.349620420703562
 40
2.349620420703562
 40
2.638514416767764
 40
2.638514416767764
 40
3.016913897141117
 40
3.016913897141117
 40
3.302159911138937
 40
3.302159911138937
 40
3.551219241035527
 40
3.551219241035527
 40
3.803089811421073
 40
3.803089811421073
 40
4.128571668801463
 40
4.128571668801463
 40
4.683735285352192
 40
4.683735285352192
 40
4.812744850614865
 40
4.812744850614865
 40
4.812744850614865
 40
4.812744850614865
 10
578.8795641800432
 20
-52.20566772426185
 30
0.0
 10
578.9929736699417
 20
-52.16437690963619
 30
0.0
 10
579.0752385123718
 20
-52.12026748295824
 30
0.0
 10
579.1458479771469
 20
-52.07238186304244
 30
0.0
 10
579.1663337530929
 20
-52.05695615175085
 30
0.0
 10
579.1935114262732
 20
-52.02953735534086
 30
0.0
 10
579.2005335345844
 20
-52.01966255271543
 30
0.0
 10
579.2087892705283
 20
-52.00260372064241
 30
0.0
 10
579.2106061639069
 20
-51.99463153291154
 30
0.0
 10
579.210499662785
 20
-51.97864174508459
 30
0.0
 10
579.2086978741109
 20
-51.97064369144738
 30
0.0
 10
579.200356989036
 20
-51.94875899654457
 30
0.0
 10
579.1918671939619
 20
-51.93424114036992
 30
0.0
 10
579.1657673602304
 20
-51.89192306853001
 30
0.0
 10
579.1434442004559
 20
-51.85813439895852
 30
0.0
 10
579.1059601509187
 20
-51.77997275228989
 30
0.0
 10
579.0923140402305
 20
-51.74099953227261
 30
0.0
 10
579.0772163306995
 20
-51.65622979945917
 30
0.0
 10
579.0768283488298
 20
-51.61274743476742
 30
0.0
 10
579.090570937749
 20
-51.52760467375199
 30
0.0
 10
579.1036894666188
 20
-51.48832049206731
 30
0.0
 10
579.1404684435669
 20
-51.40940255110862
 30
0.0
 10
579.1627506604534
 20
-51.37516565912682
 30
0.0
 10
579.2013306110598
 20
-51.31309183687773
 30
0.0
 10
579.2073706781442
 20
-51.29758753070098
 30
0.0
 10
579.2111108448737
 20
-51.27785996027916
 30
0.0
 10
579.2109105145559
 20
-51.26980121975191
 30
0.0
 10
579.2066495041441
 20
-51.25451551693982
 30
0.0
 10
579.2030104107087
 20
-51.24704542348997
 30
0.0
 10
579.1912441583609
 20
-51.23065846089179
 30
0.0
 10
579.1820177891842
 20
-51.2202592895386
 30
0.0
 10
579.1472617552263
 20
-51.19050970262785
 30
0.0
 10
579.1210990362413
 20
-51.17231466536975
 30
0.0
 10
579.0373398552528
 20
-51.12261366715131
 30
0.0
 10
578.9783373412335
 20
-51.09517463928836
 30
0.0
 10
578.906811636696
 20
-51.06688116377575
 30
0.0
 10
578.8932244850513
 20
-51.06172872161693
 30
0.0
 10
578.8795641800432
 20
-51.05675519495424
 30
0.0
  0
LINE
  5
3407
330
2
100
AcDbEntity
  8
AM_VIS
100
AcDbLine
 10
583.5295641800434
 20
-64.93121145960802
 30
0.0
 11
584.0295641800434
 21
-64.93121145960802
 31
0.0
  0
LINE
  5
3408
330
2
100
AcDbEntity
  8
AM_VIS
100
AcDbLine
 10
584.0295641800434
 20
-64.93121145960802
 30
0.0
 11
585.0295641800434
 21
-64.93121145960802
 31
0.0
  0
LINE
  5
3409
330
2
100
AcDbEntity
  8
AM_VIS
100
AcDbLine
 10
585.0295641800434
 20
-64.93121145960802
 30
0.0
 11
585.5295641800434
 21
-64.93121145960802
 31
0.0
  0
LINE
  5
340A
330
2
100
AcDbEntity
  8
AM_VIS
100
AcDbLine
 10
585.5295641800434
 20
-64.93121145960802
 30
0.0
 11
591.0795641800433
 21
-64.93121145960802
 31
0.0
  0
LINE
  5
340B
330
2
100
AcDbEntity
  8
AM_VIS
100
AcDbLine
 10
586.1295641800433
 20
-49.93121145960802
 30
0.0
 11
591.0795641800433
 21
-49.93121145960802
 31
0.0
  0
LINE
  5
340C
330
2
100
AcDbEntity
  8
AM_VIS
100
AcDbLine
 10
567.4795641800433
 20
-64.93121145960799
 30
0.0
 11
576.4295641800432
 21
-64.93121145960799
 31
0.0
  0
LINE
  5
340D
330
2
100
AcDbEntity
  8
AM_VIS
100
AcDbLine
 10
567.4795641800433
 20
-49.93121145960799
 30
0.0
 11
567.4795641800433
 21
-64.93121145960799
 31
0.0
  0
LINE
  5
340E
330
2
100
AcDbEntity
  8
AM_VIS
100
AcDbLine
 10
567.4795641800433
 20
-49.93121145960799
 30
0.0
 11
576.4295641800433
 21
-49.93121145960799
 31
0.0
  0
LINE
  5
340F
330
2
100
AcDbEntity
  8
AM_VIS
100
AcDbLine
 10
580.8295641800433
 20
-49.93121145960802
 30
0.0
 11
582.9295641800434
 21
-49.93121145960802
 31
0.0
  0
LINE
  5
3410
330
2
100
AcDbEntity
  8
AM_VIS
100
AcDbLine
 10
582.9295641800434
 20
-51.33121145960803
 30
0.0
 11
582.9295641800434
 21
-49.93121145960802
 31
0.0
  0
LINE
  5
3411
330
2
100
AcDbEntity
  8
AM_VIS
100
AcDbLine
 10
583.5295641800434
 20
-51.33121145960803
 30
0.0
 11
582.9295641800434
 21
-51.33121145960803
 31
0.0
  0
LINE
  5
3412
330
2
100
AcDbEntity
  8
AM_VIS
100
AcDbLine
 10
583.5295641800434
 20
-64.93121145960802
 30
0.0
 11
583.5295641800434
 21
-51.33121145960803
 31
0.0
  0
LINE
  5
3413
330
2
100
AcDbEntity
  8
AM_VIS
100
AcDbLine
 10
580.8295641800433
 20
-64.93121145960802
 30
0.0
 11
583.5295641800434
 21
-64.93121145960802
 31
0.0
  0
LINE
  5
3414
330
2
100
AcDbEntity
  8
AM_VIS
100
AcDbLine
 10
576.9295641800433
 20
-49.93121145960802
 30
0.0
 11
580.3295641800433
 21
-49.93121145960802
 31
0.0
  0
LINE
  5
3415
330
2
100
AcDbEntity
  8
AM_VIS
100
AcDbLine
 10
580.3295641800433
 20
-64.93121145960802
 30
0.0
 11
576.9295641800433
 21
-64.93121145960802
 31
0.0
  0
LINE
  5
3416
330
2
100
AcDbEntity
  8
AM_VIS
100
AcDbLine
 10
580.3295641800433
 20
-49.93121145960802
 30
0.0
 11
580.3295641800433
 21
-64.93121145960802
 31
0.0
  0
LINE
  5
3417
330
2
100
AcDbEntity
  8
AM_VIS
100
AcDbLine
 10
580.3295641800433
 20
-49.93121145960802
 30
0.0
 11
580.8295641800433
 21
-49.93121145960802
 31
0.0
  0
LINE
  5
3418
330
2
100
AcDbEntity
  8
AM_VIS
100
AcDbLine
 10
580.8295641800433
 20
-49.93121145960802
 30
0.0
 11
580.8295641800433
 21
-64.93121145960802
 31
0.0
  0
LINE
  5
3419
330
2
100
AcDbEntity
  8
AM_VIS
100
AcDbLine
 10
580.8295641800433
 20
-64.93121145960802
 30
0.0
 11
580.3295641800433
 21
-64.93121145960802
 31
0.0
  0
LINE
  5
341A
330
2
100
AcDbEntity
  8
AM_VIS
100
AcDbLine
 10
576.4295641800433
 20
-64.93121145960802
 30
0.0
 11
576.4295641800433
 21
-49.93121145960802
 31
0.0
  0
LINE
  5
341B
330
2
100
AcDbEntity
  8
AM_VIS
100
AcDbLine
 10
576.4295641800433
 20
-49.93121145960802
 30
0.0
 11
576.9295641800433
 21
-49.93121145960802
 31
0.0
  0
LINE
  5
341C
330
2
100
AcDbEntity
  8
AM_VIS
100
AcDbLine
 10
576.9295641800433
 20
-49.93121145960802
 30
0.0
 11
576.9295641800433
 21
-64.93121145960802
 31
0.0
  0
LINE
  5
341D
330
2
100
AcDbEntity
  8
AM_VIS
100
AcDbLine
 10
576.9295641800433
 20
-64.93121145960802
 30
0.0
 11
576.4295641800433
 21
-64.93121145960802
 31
0.0
  0
LINE
  5
341E
330
2
100
AcDbEntity
  8
AM_VIS
100
AcDbLine
 10
579.4795641800432
 20
-52.11465346584848
 30
0.0
 11
579.4795641800432
 21
-51.65466118625511
 31
0.0
  0
LINE
  5
341F
330
2
100
AcDbEntity
  8
AM_VIS
100
AcDbLine
 10
579.4795641800432
 20
-51.60776173296091
 30
0.0
 11
579.4795641800432
 21
-51.14776945336757
 31
0.0
  0
LINE
  5
3420
330
2
100
AcDbEntity
  8
AM_VIS
100
AcDbLine
 10
582.9295641800434
 20
-49.93121145960802
 30
0.0
 11
586.1295641800433
 21
-49.93121145960802
 31
0.0
  0
CIRCLE
  5
3421
330
2
100
AcDbEntity
  8
AM_VIS
100
AcDbCircle
 10
579.2795641800434
 20
-51.63121145960804
 30
0.0
 40
0.7
  0
LINE
  5
3422
330
2
100
AcDbEntity
  8
AM_VIS
100
AcDbLine
 10
591.0795641800433
 20
-49.93121145960799
 30
0.0
 11
591.0795641800433
 21
-56.43121145960799
 31
0.0
  0
LINE
  5
3423
102
{ACAD_REACTORS
330
40A9
102
}
330
2
100
AcDbEntity
  8
AM_VIS
100
AcDbLine
 10
591.0795641800433
 20
-49.93121145960799
 30
0.0
 11
600.5795641800433
 21
-49.93121145960799
 31
0.0
  0
LINE
  5
3424
330
2
100
AcDbEntity
  8
AM_VIS
100
AcDbLine
 10
599.3795641800432
 20
-61.43121145960799
 30
0.0
 11
600.5795641800433
 21
-61.43121145960799
 31
0.0
  0
LINE
  5
3425
330
2
100
AcDbEntity
  8
AM_VIS
100
AcDbLine
 10
599.3795641800432
 20
-64.43121145960799
 30
0.0
 11
599.3795641800432
 21
-63.48798789589114
 31
0.0
  0
LINE
  5
3426
330
2
100
AcDbEntity
  8
AM_VIS
100
AcDbLine
 10
599.3795641800432
 20
-62.37443502332491
 30
0.0
 11
599.3795641800432
 21
-61.43121145960799
 31
0.0
  0
LINE
  5
3427
330
2
100
AcDbEntity
  8
AM_VIS
100
AcDbLine
 10
600.5795641800433
 20
-64.43121145960799
 30
0.0
 11
599.3795641800432
 21
-64.43121145960799
 31
0.0
  0
LINE
  5
3428
330
2
100
AcDbEntity
  8
AM_VIS
100
AcDbLine
 10
591.0795641800433
 20
-64.93121145960799
 30
0.0
 11
600.5795641800433
 21
-64.93121145960799
 31
0.0
  0
LINE
  5
3429
330
2
100
AcDbEntity
  8
AM_VIS
100
AcDbLine
 10
591.0795641800433
 20
-58.43121145960799
 30
0.0
 11
591.0795641800433
 21
-64.93121145960799
 31
0.0
  0
LINE
  5
342A
330
2
100
AcDbEntity
  8
AM_VIS
100
AcDbLine
 10
591.5795641800433
 20
-56.43121145960799
 30
0.0
 11
591.5795641800433
 21
-58.43121145960799
 31
0.0
  0
LINE
  5
342B
330
2
100
AcDbEntity
  8
AM_VIS
100
AcDbLine
 10
591.5795641800433
 20
-58.43121145960799
 30
0.0
 11
591.0795641800433
 21
-58.43121145960799
 31
0.0
  0
LINE
  5
342C
330
2
100
AcDbEntity
  8
AM_VIS
100
AcDbLine
 10
591.0795641800433
 20
-56.43121145960799
 30
0.0
 11
591.5795641800433
 21
-56.43121145960799
 31
0.0
  0
ARC
  5
342D
330
2
100
AcDbEntity
  8
AM_VIS
100
AcDbCircle
 10
597.9061180901969
 20
-57.7996122400871
 30
0.0
 40
0.9204007112094597
100
AcDbArc
 50
153.9012297567557
 51
164.3619031300017
  0
SPLINE
  5
342E
330
2
100
AcDbEntity
  8
AM_VIS
100
AcDbSpline
210
0.0
220
0.0
230
1.0
 70
     8
 71
     3
 72
    38
 73
    34
 74
     0
 42
0.0000000001
 43
0.0000000001
 40
0.0096105424429285
 40
0.0096105424429285
 40
0.0096105424429285
 40
0.0096105424429285
 40
0.2511760059468008
 40
0.2511760059468008
 40
0.3661489296361611
 40
0.3661489296361611
 40
0.4503270969622498
 40
0.4503270969622498
 40
0.5340078174843953
 40
0.5340078174843953
 40
0.6478119174360324
 40
0.6478119174360324
 40
0.803204793355861
 40
0.803204793355861
 40
1.030112956685476
 40
1.030112956685476
 40
1.139750424396189
 40
1.139750424396189
 40
1.231613346946539
 40
1.231613346946539
 40
1.383927807882236
 40
1.383927807882236
 40
1.903215338580305
 40
1.903215338580305
 40
2.725560479358289
 40
2.725560479358289
 40
3.333619977246191
 40
3.333619977246191
 40
3.793936947558544
 40
3.793936947558544
 40
4.267761469383683
 40
4.267761469383683
 40
4.698806880710381
 40
4.698806880710381
 40
4.698806880710381
 40
4.698806880710381
 10
598.2723845030708
 20
-57.231211459608
 30
0.0
 10
598.2124230616114
 20
-57.27387399601162
 30
0.0
 10
598.1573994634814
 20
-57.32200308595702
 30
0.0
 10
598.0735042651665
 20
-57.40024765905443
 30
0.0
 10
598.0466661110836
 20
-57.42592816891067
 30
0.0
 10
597.9991542998142
 20
-57.47072945063826
 30
0.0
 10
597.978972581621
 20
-57.48955808556448
 30
0.0
 10
597.9379477080015
 20
-57.52674228061398
 30
0.0
 10
597.91728708936
 20
-57.54493894615712
 30
0.0
 10
597.867513479938
 20
-57.58693728268525
 30
0.0
 10
597.8382689334884
 20
-57.61020625421202
 30
0.0
 10
597.7673164510105
 20
-57.66222180218924
 30
0.0
 10
597.7293667101097
 20
-57.68664329088443
 30
0.0
 10
597.6478175412259
 20
-57.73131650555384
 30
0.0
 10
597.6211621437506
 20
-57.73811470696244
 30
0.0
 10
597.5991401611529
 20
-57.74231122648956
 30
0.0
 10
597.591941450174
 20
-57.74317945434038
 30
0.0
 10
597.5784629340793
 20
-57.74368478090394
 30
0.0
 10
597.5723849453227
 20
-57.74349316942488
 30
0.0
 10
597.5561359096301
 20
-57.74190314962464
 30
0.0
 10
597.5462452987861
 20
-57.73982011467859
 30
0.0
 10
597.5035864184967
 20
-57.72753232757572
 30
0.0
 10
597.4692195358211
 20
-57.70864872586057
 30
0.0
 10
597.4167353997991
 20
-57.67834389512819
 30
0.0
 10
597.3805549012605
 20
-57.65439258917481
 30
0.0
 10
597.3129986578234
 20
-57.60403197370925
 30
0.0
 10
597.2849983315696
 20
-57.58150671663324
 30
0.0
 10
597.2366753377959
 20
-57.54043517504229
 30
0.0
 10
597.2162739494047
 20
-57.52236342689531
 30
0.0
 10
597.1752746635289
 20
-57.48504518909385
 30
0.0
 10
597.1548759029675
 20
-57.4659500854363
 30
0.0
 10
597.116090299709
 20
-57.42931548195134
 30
0.0
 10
597.0978391264757
 20
-57.41193615282282
 30
0.0
 10
597.0795641800433
 20
-57.39470965574773
 30
0.0
  0
LINE
  5
342F
330
2
100
AcDbEntity
  8
AM_VIS
100
AcDbLine
 10
600.5795641800433
 20
-64.93121145960799
 30
0.0
 11
600.5795641800433
 21
-64.43121145960799
 31
0.0
  0
LINE
  5
3430
330
2
100
AcDbEntity
  8
AM_VIS
100
AcDbLine
 10
600.5795641800433
 20
-61.43121145960799
 30
0.0
 11
600.5795641800433
 21
-49.93121145960799
 31
0.0
  0
LINE
  5
3431
330
2
100
AcDbEntity
  8
AM_VIS
100
AcDbLine
 10
597.0795641800433
 20
-57.39470965574773
 30
0.0
 11
597.0795641800433
 21
-57.62110940816464
 31
0.0
  0
CIRCLE
  5
3432
330
2
100
AcDbEntity
  8
AM_VIS
100
AcDbCircle
 10
597.5795641800433
 20
-57.13121145960801
 30
0.0
 40
0.7
  0
LINE
  5
3435
330
2
100
AcDbEntity
  8
AM_VIS
100
AcDbLine
 10
567.4795641800433
 20
-64.93121145960794
 30
0.0
 11
567.4795641800433
 21
-49.93121145960794
 31
0.0
  0
LINE
  5
343D
330
2
100
AcDbEntity
  8
AM_VIS
100
AcDbLine
 10
615.5795641800433
 20
-56.63121145960804
 30
0.0
 11
615.5795641800433
 21
-57.1312408716272
 31
0.0
  0
LINE
  5
343E
330
2
100
AcDbEntity
  8
AM_VIS
100
AcDbLine
 10
603.1795641800433
 20
-62.93121145960802
 30
0.0
 11
610.8795641800432
 21
-62.93121145960802
 31
0.0
  0
LINE
  5
343F
330
2
100
AcDbEntity
  8
AM_VIS
100
AcDbLine
 10
603.1795641800433
 20
-64.03121145960802
 30
0.0
 11
603.1795641800433
 21
-62.93121145960802
 31
0.0
  0
LINE
  5
3440
330
2
100
AcDbEntity
  8
AM_VIS
100
AcDbLine
 10
610.8795641800432
 20
-64.03121145960802
 30
0.0
 11
603.1795641800433
 21
-64.03121145960802
 31
0.0
  0
LINE
  5
3441
330
2
100
AcDbEntity
  8
AM_VIS
100
AcDbLine
 10
610.8795641800432
 20
-62.93121145960805
 30
0.0
 11
610.8795641800432
 21
-64.03121145960804
 31
0.0
  0
LINE
  5
3442
102
{ACAD_REACTORS
330
4043
330
40A9
102
}
330
2
100
AcDbEntity
  8
AM_VIS
100
AcDbLine
 10
613.5795641800434
 20
-64.93121145960805
 30
0.0
 11
613.5795641800434
 21
-60.65121145960805
 31
0.0
  0
LINE
  5
3443
330
2
100
AcDbEntity
  8
AM_VIS
100
AcDbLine
 10
600.5795641800433
 20
-64.93121145960799
 30
0.0
 11
613.5795641800434
 21
-64.93121145960802
 31
0.0
  0
LINE
  5
3444
330
2
100
AcDbEntity
  8
AM_VIS
100
AcDbLine
 10
600.5795641800433
 20
-57.13121145960801
 30
0.0
 11
600.5795641800433
 21
-64.93121145960799
 31
0.0
  0
LINE
  5
3445
330
2
100
AcDbEntity
  8
AM_VIS
100
AcDbLine
 10
612.0795641800433
 20
-57.13121145960804
 30
0.0
 11
600.5795641800433
 21
-57.13121145960804
 31
0.0
  0
LINE
  5
3446
330
2
100
AcDbEntity
  8
AM_VIS
100
AcDbLine
 10
612.0795641800433
 20
-60.65121145960802
 30
0.0
 11
612.0795641800433
 21
-57.13121145960804
 31
0.0
  0
LINE
  5
3447
330
2
100
AcDbEntity
  8
AM_VIS
100
AcDbLine
 10
613.5795641800434
 20
-57.13124087162717
 30
0.0
 11
615.5795641800433
 21
-57.13124087162717
 31
0.0
  0
LINE
  5
3448
330
2
100
AcDbEntity
  8
AM_VIS
100
AcDbLine
 10
613.5806707163586
 20
-59.8708216434529
 30
0.0
 11
615.5809446001825
 21
-59.4181751384277
 31
0.0
  0
LINE
  5
3449
330
2
100
AcDbEntity
  8
AM_VIS
100
AcDbLine
 10
613.5795641800434
 20
-60.65121145960802
 30
0.0
 11
612.0795641800433
 21
-60.65121145960802
 31
0.0
  0
LINE
  5
344A
330
2
100
AcDbEntity
  8
AM_VIS
100
AcDbLine
 10
615.7795641800434
 20
-57.73121145960804
 30
0.0
 11
615.5795641800433
 21
-57.73121145960804
 31
0.0
  0
LINE
  5
344B
330
2
100
AcDbEntity
  8
AM_VIS
100
AcDbLine
 10
615.5795641800433
 20
-57.13121145960804
 30
0.0
 11
615.7795641800434
 21
-57.13121145960804
 31
0.0
  0
LINE
  5
344C
330
2
100
AcDbEntity
  8
AM_VIS
100
AcDbLine
 10
610.4795641800433
 20
-64.03121145960802
 30
0.0
 11
610.4795641800433
 21
-62.93121145960805
 31
0.0
  0
LINE
  5
344D
330
2
100
AcDbEntity
  8
AM_VIS
100
AcDbLine
 10
603.6795641800433
 20
-64.03121145960802
 30
0.0
 11
603.6795641800433
 21
-62.93121145960802
 31
0.0
  0
LINE
  5
344E
330
2
100
AcDbEntity
  8
AM_VIS
100
AcDbLine
 10
615.5795641800433
 20
-59.93121145960802
 30
0.0
 11
613.5795641800434
 21
-60.43121145960802
 31
0.0
  0
LINE
  5
344F
330
2
100
AcDbEntity
  8
AM_VIS
100
AcDbLine
 10
615.5795641800433
 20
-58.93121145960802
 30
0.0
 11
615.7795641800434
 21
-58.93121145960802
 31
0.0
  0
LINE
  5
3450
330
2
100
AcDbEntity
  8
AM_VIS
100
AcDbLine
 10
615.5795641800433
 20
-55.93121145960802
 30
0.0
 11
615.7795641800434
 21
-55.93121145960802
 31
0.0
  0
LINE
  5
3451
330
2
100
AcDbEntity
  8
AM_VIS
100
AcDbLine
 10
615.5795641800433
 20
-59.41207497345885
 30
0.0
 11
615.5795641800433
 21
-59.93121145960805
 31
0.0
  0
LINE
  5
3452
330
2
100
AcDbEntity
  8
AM_VIS
100
AcDbLine
 10
613.5795641800434
 20
-57.13121145960804
 30
0.0
 11
613.5795641800434
 21
-57.1312408716272
 31
0.0
  0
LINE
  5
3453
330
2
100
AcDbEntity
  8
AM_VIS
100
AcDbLine
 10
615.5795641800433
 20
-57.13124087162717
 30
0.0
 11
615.5795641800433
 21
-59.41207497345885
 31
0.0
  0
LINE
  5
3454
330
2
100
AcDbEntity
  8
AM_VIS
100
AcDbLine
 10
613.5795641800434
 20
-59.86593178863589
 30
0.0
 11
613.5795641800434
 21
-60.65121145960802
 31
0.0
  0
LINE
  5
3455
330
2
100
AcDbEntity
  8
AM_VIS
100
AcDbLine
 10
615.7795641800434
 20
-55.93121145960802
 30
0.0
 11
615.7795641800434
 21
-57.13121145960804
 31
0.0
  0
LINE
  5
3456
330
2
100
AcDbEntity
  8
AM_VIS
100
AcDbLine
 10
615.7795641800434
 20
-57.73121145960804
 30
0.0
 11
615.7795641800434
 21
-58.93121145960802
 31
0.0
  0
LINE
  5
3457
330
2
100
AcDbEntity
  8
AM_VIS
100
AcDbLine
 10
613.5795641800434
 20
-37.43121145960802
 30
0.0
 11
600.5795641800433
 21
-37.43121145960802
 31
0.0
  0
LINE
  5
3458
330
2
100
AcDbEntity
  8
AM_VIS
100
AcDbLine
 10
600.5795641800433
 20
-57.13121145960798
 30
0.0
 11
600.5795641800433
 21
-37.43121145960799
 31
0.0
  0
LINE
  5
3459
330
2
100
AcDbEntity
  8
AM_VIS
100
AcDbLine
 10
615.5795641800433
 20
-56.63121145960804
 30
0.0
 11
615.5795641800433
 21
-54.43121145960805
 31
0.0
  0
LINE
  5
345A
330
2
100
AcDbEntity
  8
AM_VIS
100
AcDbLine
 10
613.5795641800434
 20
-54.43121145960802
 30
0.0
 11
613.5795641800434
 21
-37.43121145960802
 31
0.0
  0
LINE
  5
345B
330
2
100
AcDbEntity
  8
AM_VIS
100
AcDbLine
 10
615.5795641800433
 20
-54.43121145960802
 30
0.0
 11
613.5795641800434
 21
-54.43121145960802
 31
0.0
  0
LINE
  5
345C
330
2
100
AcDbEntity
  8
AM_VIS
100
AcDbLine
 10
614.0795641800433
 20
-57.13121145960801
 30
0.0
 11
600.5795641800433
 21
-57.13121145960801
 31
0.0
  0
LINE
  5
345D
330
2
100
AcDbEntity
  8
AM_VIS
100
AcDbLine
 10
615.5795641800433
 20
-56.63121145960801
 30
0.0
 11
614.0795641800433
 21
-57.13121145960801
 31
0.0
  0
LINE
  5
345E
330
2
100
AcDbEntity
  8
AM_VIS
100
AcDbLine
 10
613.5795641800434
 20
-54.43121145960802
 30
0.0
 11
617.0795641800433
 21
-54.43121145960802
 31
0.0
  0
LINE
  5
345F
330
2
100
AcDbEntity
  8
AM_VIS
100
AcDbLine
 10
613.5795641800434
 20
-37.43121145960802
 30
0.0
 11
613.5795641800434
 21
-54.43121145960802
 31
0.0
  0
LINE
  5
3460
330
2
100
AcDbEntity
  8
AM_VIS
100
AcDbLine
 10
617.0795641800433
 20
-54.43121145960805
 30
0.0
 11
618.5795641800433
 21
-52.93121145960805
 31
0.0
  0
LINE
  5
3461
330
2
100
AcDbEntity
  8
AM_VIS
100
AcDbLine
 10
617.0795641800433
 20
-37.43121145960805
 30
0.0
 11
617.0795641800433
 21
-54.43121145960805
 31
0.0
  0
LINE
  5
3462
330
2
100
AcDbEntity
  8
AM_VIS
100
AcDbLine
 10
618.5795641800433
 20
-38.93121145960802
 30
0.0
 11
617.0795641800433
 21
-37.43121145960802
 31
0.0
  0
LINE
  5
3463
330
2
100
AcDbEntity
  8
AM_VIS
100
AcDbLine
 10
622.0795641800433
 20
-41.43121145960805
 30
0.0
 11
622.0795641800433
 21
-46.83121145960803
 31
0.0
  0
LINE
  5
3464
330
2
100
AcDbEntity
  8
AM_VIS
100
AcDbLine
 10
623.0795641800433
 20
-46.53121145960802
 30
0.0
 11
623.0795641800433
 21
-41.43121145960802
 31
0.0
  0
LINE
  5
3465
330
2
100
AcDbEntity
  8
AM_VIS
100
AcDbLine
 10
618.5795641800433
 20
-46.83121145960803
 30
0.0
 11
622.0795641800433
 21
-46.83121145960803
 31
0.0
  0
LINE
  5
3466
102
{ACAD_REACTORS
330
441E
102
}
330
2
100
AcDbEntity
  8
AM_VIS
100
AcDbLine
 10
623.0795641800433
 20
-46.53121145960802
 30
0.0
 11
622.0795641800433
 21
-46.83121145960803
 31
0.0
  0
LINE
  5
3467
330
2
100
AcDbEntity
  8
AM_VIS
100
AcDbLine
 10
623.0795641800433
 20
-41.43121145960805
 30
0.0
 11
622.0795641800433
 21
-41.43121145960805
 31
0.0
  0
LINE
  5
3468
330
2
100
AcDbEntity
  8
AM_VIS
100
AcDbLine
 10
618.5795641800433
 20
-41.43121145960805
 30
0.0
 11
622.0795641800433
 21
-41.43121145960805
 31
0.0
  0
LINE
  5
3469
330
2
100
AcDbEntity
  8
AM_VIS
100
AcDbLine
 10
623.0795641800433
 20
-41.43121145960805
 30
0.0
 11
623.0795641800433
 21
-39.93121145960805
 31
0.0
  0
LINE
  5
346A
330
2
100
AcDbEntity
  8
AM_VIS
100
AcDbLine
 10
623.0795641800433
 20
-39.93121145960805
 30
0.0
 11
618.5795641800433
 21
-39.93121145960805
 31
0.0
  0
LINE
  5
346B
330
2
100
AcDbEntity
  8
AM_VIS
100
AcDbLine
 10
618.5795641800433
 20
-52.93121145960805
 30
0.0
 11
618.5795641800433
 21
-38.93121145960805
 31
0.0
  0
LINE
  5
346C
330
2
100
AcDbEntity
  8
AM_VIS
100
AcDbLine
 10
613.5795641800434
 20
-37.43121145960802
 30
0.0
 11
617.0795641800433
 21
-37.43121145960802
 31
0.0
  0
LINE
  5
346D
330
2
100
AcDbEntity
  8
AM_VIS
100
AcDbLine
 10
613.2292101399174
 20
-58.94325528364396
 30
0.0
 11
613.3218649617987
 21
-58.9315861294609
 31
0.0
  0
LINE
  5
346E
330
2
100
AcDbEntity
  8
AM_VIS
100
AcDbLine
 10
613.3003460084316
 20
-58.31769410786432
 30
0.0
 11
613.3218656786199
 21
-58.30673030063838
 31
0.0
  0
LINE
  5
346F
330
2
100
AcDbEntity
  8
AM_VIS
100
AcDbLine
 10
613.2282100298778
 20
-59.15121743416768
 30
0.0
 11
613.3218649114194
 21
-59.16301381632954
 31
0.0
  0
LINE
  5
3470
330
2
100
AcDbEntity
  8
AM_VIS
100
AcDbLine
 10
612.5512162676503
 20
-57.27247567040191
 30
0.0
 11
612.0795641800433
 21
-57.231211459608
 31
0.0
  0
LINE
  5
3471
330
2
100
AcDbEntity
  8
AM_VIS
100
AcDbLine
 10
612.5512162676503
 20
-60.38994724881416
 30
0.0
 11
612.0795641800433
 21
-60.43121145960808
 31
0.0
  0
ELLIPSE
  5
3472
330
2
100
AcDbEntity
  8
AM_VIS
100
AcDbEllipse
 10
610.8795641800432
 20
-58.77818231251154
 30
0.0
 11
2.490079065009783
 21
-0.0000000000000017
 31
0.0
210
0.0
220
0.0
230
1.0
 40
0.9711834348606755
 41
0.1962051514771466
 42
0.3428970250348993
  0
ELLIPSE
  5
3473
330
2
100
AcDbEntity
  8
AM_VIS
100
AcDbEllipse
 10
611.413925990052
 20
-59.46057093190629
 30
0.0
 11
1.794957342537178
 21
1.524020367793819
 31
0.0
210
0.0
220
0.0
230
1.0
 40
0.1838809272074944
 41
6.033676357464736
 42
6.216405892020741
  0
ELLIPSE
  5
3474
330
2
100
AcDbEntity
  8
AM_VIS
100
AcDbEllipse
 10
610.8795641800432
 20
-58.88424060670456
 30
0.0
 11
2.490079065009783
 21
-0.0000000000000017
 31
0.0
210
0.0
220
0.0
230
1.0
 40
0.9711834348606755
 41
5.937689964444293
 42
6.086980155702427
  0
ELLIPSE
  5
3475
330
2
100
AcDbEntity
  8
AM_VIS
100
AcDbEllipse
 10
611.413925990052
 20
-58.20185198730976
 30
0.0
 11
1.794957342537175
 21
-1.524020367793822
 31
0.0
210
0.0
220
0.0
230
1.0
 40
0.1838809272074955
 41
0.0602411001503995
 42
0.0739494530812532
  0
ELLIPSE
  5
3476
330
2
100
AcDbEntity
  8
AM_VIS
100
AcDbEllipse
 10
610.8795641800432
 20
-59.04729977386648
 30
0.0
 11
2.490079065009606
 21
-0.0000000000000021
 31
0.0
210
0.0
220
0.0
230
1.0
 40
0.2383332453776022
 41
5.937689964444311
 42
6.086980155702799
  0
ELLIPSE
  5
3477
330
2
100
AcDbEntity
  8
AM_VIS
100
AcDbEllipse
 10
611.413925990052
 20
-58.9856594044121
 30
0.0
 11
0.6538164905629051
 21
2.262086191913682
 31
0.0
210
0.0
220
0.0
230
1.0
 40
0.7492958450165218
 41
4.992445536876735
 42
4.999615574798079
  0
ELLIPSE
  5
3478
330
2
100
AcDbEntity
  8
AM_VIS
100
AcDbEllipse
 10
610.8795641800433
 20
-58.6151231453535
 30
0.0
 11
2.490079065009962
 21
-0.0000000000000021
 31
0.0
210
0.0
220
0.0
230
1.0
 40
0.2383332453776022
 41
5.93768996444426
 42
6.08698015570207
  0
ELLIPSE
  5
3479
330
2
100
AcDbEntity
  8
AM_VIS
100
AcDbEllipse
 10
611.413925990052
 20
-58.67676351480398
 30
0.0
 11
0.6538164905628979
 21
-2.262086191913683
 31
0.0
210
0.0
220
0.0
230
0.9999999999999998
 40
0.7492958450165199
 41
1.108010235745992
 42
1.297278085310448
  0
ELLIPSE
  5
347A
330
2
100
AcDbEntity
  8
AM_VIS
100
AcDbEllipse
 10
610.8795641800432
 20
-59.04729977386648
 30
0.0
 11
2.490079065009606
 21
-0.0000000000000021
 31
0.0
210
0.0
220
0.0
230
1.0
 40
0.2383332453776022
 41
0.1962051514767866
 42
0.3428970250345877
  0
ELLIPSE
  5
347B
330
2
100
AcDbEntity
  8
AM_VIS
100
AcDbEllipse
 10
610.8795641800432
 20
-58.88424060670456
 30
0.0
 11
2.490079065009783
 21
-0.0000000000000017
 31
0.0
210
0.0
220
0.0
230
1.0
 40
0.9711834348606755
 41
0.1962051514771408
 42
0.3454953427352922
  0
LINE
  5
347C
330
2
100
AcDbEntity
  8
AM_VIS
100
AcDbLine
 10
613.3218671915471
 20
-58.93160383399458
 30
0.0
 11
613.3218671915471
 21
-59.16299571373838
 31
0.0
  0
LINE
  5
347D
330
2
100
AcDbEntity
  8
AM_VIS
100
AcDbLine
 10
613.3218671915471
 20
-58.30673327019934
 30
0.0
 11
613.3218671915471
 21
-58.41279156439236
 31
0.0
  0
LINE
  5
347E
330
2
100
AcDbEntity
  8
AM_VIS
100
AcDbLine
 10
613.3218671915471
 20
-58.41279156439236
 30
0.0
 11
613.3218671915471
 21
-58.73081908522582
 31
0.0
  0
LINE
  5
347F
330
2
100
AcDbEntity
  8
AM_VIS
100
AcDbLine
 10
613.3218671915471
 20
-59.16299571373838
 30
0.0
 11
613.3218671915471
 21
-59.35568964901676
 31
0.0
  0
ARC
  5
3480
330
2
100
AcDbEntity
  8
AM_VIS
100
AcDbCircle
 10
612.4954365922917
 20
-57.91004027718066
 30
0.0
 40
0.6400000000000002
100
AcDbArc
 50
29.68645618692206
 51
85.00000000000019
  0
ARC
  5
3481
330
2
100
AcDbEntity
  8
AM_VIS
100
AcDbCircle
 10
612.4954365922917
 20
-59.75238264203546
 30
0.0
 40
0.6400000000000002
100
AcDbArc
 50
274.9999999999998
 51
330.3135438130779
  0
ARC
  5
3482
330
2
100
AcDbEntity
  8
AM_VIS
100
AcDbCircle
 10
610.8795641800432
 20
-58.83121145960803
 30
0.0
 40
2.5
100
AcDbArc
 50
330.3135438130801
 51
339.6535615282061
  0
ARC
  5
3483
330
2
100
AcDbEntity
  8
AM_VIS
100
AcDbCircle
 10
610.8795641800432
 20
-58.83121145960803
 30
0.0
 40
2.5
100
AcDbArc
 50
20.34643847179391
 51
29.68645618691994
  0
LINE
  5
348A
330
2
100
AcDbEntity
  8
AM_VIS
100
AcDbLine
 10
599.8512162676503
 20
-112.2239647083263
 30
0.0
 11
599.3795641800432
 21
-112.2652289191202
 31
0.0
  0
LINE
  5
348B
330
2
100
AcDbEntity
  8
AM_VIS
100
AcDbLine
 10
599.3795641800432
 20
-112.2652289191202
 30
0.0
 11
599.3795641800432
 21
-112.1652289191202
 31
0.0
  0
ARC
  5
348C
330
2
100
AcDbEntity
  8
AM_VIS
100
AcDbCircle
 10
599.7954365922918
 20
-111.5864001015476
 30
0.0
 40
0.6400000000000002
100
AcDbArc
 50
274.9999999999998
 51
295.2547165608997
  0
LINE
  5
348D
330
2
100
AcDbEntity
  8
AM_VIS
100
AcDbLine
 10
599.8512162676503
 20
-102.1064931299141
 30
0.0
 11
599.3795641800432
 21
-102.0652289191202
 31
0.0
  0
LINE
  5
348E
330
2
100
AcDbEntity
  8
AM_VIS
100
AcDbLine
 10
599.3795641800432
 20
-102.1652289191202
 30
0.0
 11
599.3795641800432
 21
-102.0652289191202
 31
0.0
  0
ARC
  5
348F
330
2
100
AcDbEntity
  8
AM_VIS
100
AcDbCircle
 10
599.7954365922918
 20
-102.7440577366928
 30
0.0
 40
0.6400000000000002
100
AcDbArc
 50
64.74528343909224
 51
85.00000000000019
  0
LINE
  5
3490
330
2
100
AcDbEntity
  8
AM_VIS
100
AcDbLine
 10
583.5295641800434
 20
-102.1652289191202
 30
0.0
 11
584.0295641800434
 21
-101.6652289191202
 31
0.0
  0
LINE
  5
3491
102
{ACAD_REACTORS
330
475C
102
}
330
2
100
AcDbEntity
  8
AM_VIS
100
AcDbLine
 10
584.0295641800434
 20
-101.6652289191202
 30
0.0
 11
585.0295641800434
 21
-101.6652289191202
 31
0.0
  0
LINE
  5
3492
330
2
100
AcDbEntity
  8
AM_VIS
100
AcDbLine
 10
585.0295641800434
 20
-101.6652289191202
 30
0.0
 11
585.5295641800434
 21
-102.1652289191202
 31
0.0
  0
LINE
  5
3493
330
2
100
AcDbEntity
  8
AM_VIS
100
AcDbLine
 10
585.5295641800434
 20
-102.1652289191202
 30
0.0
 11
591.0795641800433
 21
-102.1652289191202
 31
0.0
  0
LINE
  5
3494
330
2
100
AcDbEntity
  8
AM_VIS
100
AcDbLine
 10
591.0795641800433
 20
-112.1652289191202
 30
0.0
 11
591.0795641800433
 21
-102.1652289191202
 31
0.0
  0
LINE
  5
3495
330
2
100
AcDbEntity
  8
AM_VIS
100
AcDbLine
 10
578.5295641800433
 20
-112.1652289191202
 30
0.0
 11
578.0295641800433
 21
-112.6652289191202
 31
0.0
  0
LINE
  5
3496
330
2
100
AcDbEntity
  8
AM_VIS
100
AcDbLine
 10
578.0295641800433
 20
-112.6652289191202
 30
0.0
 11
577.0295641800434
 21
-112.6652289191202
 31
0.0
  0
LINE
  5
3497
102
{ACAD_REACTORS
330
475C
102
}
330
2
100
AcDbEntity
  8
AM_VIS
100
AcDbLine
 10
577.0295641800434
 20
-112.6652289191202
 30
0.0
 11
576.5295641800434
 21
-112.1652289191202
 31
0.0
  0
LINE
  5
3498
330
2
100
AcDbEntity
  8
AM_VIS
100
AcDbLine
 10
567.4795641800433
 20
-112.1652289191202
 30
0.0
 11
576.5295641800434
 21
-112.1652289191202
 31
0.0
  0
LINE
  5
3499
330
2
100
AcDbEntity
  8
AM_VIS
100
AcDbLine
 10
567.4795641800433
 20
-102.1652289191202
 30
0.0
 11
567.4795641800433
 21
-112.1652289191202
 31
0.0
  0
LINE
  5
349A
330
2
100
AcDbEntity
  8
AM_VIS
100
AcDbLine
 10
578.5295641800433
 20
-112.1652289191202
 30
0.0
 11
583.4295641800434
 21
-112.1652289191202
 31
0.0
  0
LINE
  5
349B
330
2
100
AcDbEntity
  8
AM_VIS
100
AcDbLine
 10
587.8295641800433
 20
-112.1652289191202
 30
0.0
 11
591.0795641800433
 21
-112.1652289191202
 31
0.0
  0
LINE
  5
349C
330
2
100
AcDbEntity
  8
AM_VIS
100
AcDbLine
 10
583.9295641800434
 20
-111.6652289191202
 30
0.0
 11
587.3295641800433
 21
-111.6652289191202
 31
0.0
  0
LINE
  5
349D
330
2
100
AcDbEntity
  8
AM_VIS
100
AcDbLine
 10
583.4295641800434
 20
-112.1652289191202
 30
0.0
 11
583.9295641800434
 21
-111.6652289191202
 31
0.0
  0
LINE
  5
349E
330
2
100
AcDbEntity
  8
AM_VIS
100
AcDbLine
 10
587.3295641800433
 20
-111.6652289191202
 30
0.0
 11
587.8295641800433
 21
-112.1652289191202
 31
0.0
  0
LINE
  5
349F
330
2
100
AcDbEntity
  8
AM_VIS
100
AcDbLine
 10
567.4795641800433
 20
-102.1652289191202
 30
0.0
 11
576.4295641800432
 21
-102.1652289191202
 31
0.0
  0
LINE
  5
34A0
330
2
100
AcDbEntity
  8
AM_VIS
100
AcDbLine
 10
580.8295641800433
 20
-102.1652289191202
 30
0.0
 11
583.5295641800434
 21
-102.1652289191202
 31
0.0
  0
LINE
  5
34A1
330
2
100
AcDbEntity
  8
AM_VIS
100
AcDbLine
 10
580.3295641800433
 20
-102.6652289191202
 30
0.0
 11
576.9295641800433
 21
-102.6652289191202
 31
0.0
  0
LINE
  5
34A2
330
2
100
AcDbEntity
  8
AM_VIS
100
AcDbLine
 10
580.8295641800433
 20
-102.1652289191202
 30
0.0
 11
580.3295641800433
 21
-102.6652289191202
 31
0.0
  0
LINE
  5
34A3
330
2
100
AcDbEntity
  8
AM_VIS
100
AcDbLine
 10
576.9295641800433
 20
-102.6652289191202
 30
0.0
 11
576.4295641800433
 21
-102.1652289191202
 31
0.0
  0
CIRCLE
  5
34A4
330
2
100
AcDbEntity
  8
AM_VIS
100
AcDbCircle
 10
579.2795641800434
 20
-107.1652289191202
 30
0.0
 40
1.0
  0
CIRCLE
  5
34A5
330
2
100
AcDbEntity
  8
AM_VIS
100
AcDbCircle
 10
579.2795641800434
 20
-107.1652289191202
 30
0.0
 40
1.25
  0
CIRCLE
  5
34A6
330
2
100
AcDbEntity
  8
AM_VIS
100
AcDbCircle
 10
572.2795641800433
 20
-107.1652289191202
 30
0.0
 40
1.25
  0
CIRCLE
  5
34A7
330
2
100
AcDbEntity
  8
AM_VIS
100
AcDbCircle
 10
586.2795641800434
 20
-107.1652289191202
 30
0.0
 40
1.25
  0
CIRCLE
  5
34A8
330
2
100
AcDbEntity
  8
AM_VIS
100
AcDbCircle
 10
586.2795641800434
 20
-107.1652289191202
 30
0.0
 40
1.0
  0
CIRCLE
  5
34A9
330
2
100
AcDbEntity
  8
AM_VIS
100
AcDbCircle
 10
572.2795641800433
 20
-107.1652289191202
 30
0.0
 40
1.0
  0
CIRCLE
  5
34AA
330
2
100
AcDbEntity
  8
AM_VIS
100
AcDbCircle
 10
572.2795641800433
 20
-107.1652289191202
 30
0.0
 40
1.599999999999999
  0
CIRCLE
  5
34AB
330
2
100
AcDbEntity
  8
AM_VIS
100
AcDbCircle
 10
577.5295641800433
 20
-111.2652289191202
 30
0.0
 40
0.85
  0
CIRCLE
  5
34AC
330
2
100
AcDbEntity
  8
AM_VIS
100
AcDbCircle
 10
584.5295641800434
 20
-103.0652289191202
 30
0.0
 40
0.85
  0
CIRCLE
  5
34AD
330
2
100
AcDbEntity
  8
AM_VIS
100
AcDbCircle
 10
579.2795641800434
 20
-107.1652289191202
 30
0.0
 40
1.6
  0
CIRCLE
  5
34AE
330
2
100
AcDbEntity
  8
AM_VIS
100
AcDbCircle
 10
586.2795641800434
 20
-107.1652289191202
 30
0.0
 40
1.599999999999999
  0
LINE
  5
34AF
330
2
100
AcDbEntity
  8
AM_VIS
100
AcDbLine
 10
591.0795641800433
 20
-102.1652289191202
 30
0.0
 11
591.0795641800433
 21
-112.1652289191202
 31
0.0
  0
LINE
  5
34B0
330
2
100
AcDbEntity
  8
AM_VIS
100
AcDbLine
 10
591.0795641800433
 20
-112.1652289191202
 30
0.0
 11
600.5795641800433
 21
-112.1652289191202
 31
0.0
  0
LINE
  5
34B1
330
2
100
AcDbEntity
  8
AM_VIS
100
AcDbLine
 10
591.0795641800433
 20
-102.1652289191202
 30
0.0
 11
600.5795641800433
 21
-102.1652289191202
 31
0.0
  0
LINE
  5
34B2
330
2
100
AcDbEntity
  8
AM_VIS
100
AcDbLine
 10
600.5795641800433
 20
-112.1652289191202
 30
0.0
 11
600.5795641800433
 21
-102.1652289191202
 31
0.0
  0
LINE
  5
34B7
330
2
100
AcDbEntity
  8
AM_VIS
100
AcDbLine
 10
579.0295641800433
 20
-108.1334747556721
 30
0.0
 11
579.0295641800433
 21
-106.1969830825683
 31
0.0
  0
LINE
  5
34B8
330
2
100
AcDbEntity
  8
AM_VIS
100
AcDbLine
 10
586.4795641800433
 20
-106.1854330220069
 30
0.0
 11
586.4795641800433
 21
-108.1450248162335
 31
0.0
  0
LINE
  5
34B9
330
2
100
AcDbEntity
  8
AM_VIS
100
AcDbLine
 10
585.9795641800433
 20
-108.1191681205372
 30
0.0
 11
585.9795641800433
 21
-106.2112897177032
 31
0.0
  0
LINE
  5
34BA
330
2
100
AcDbEntity
  8
AM_VIS
100
AcDbLine
 10
578.4295641800433
 20
-106.6384462314776
 30
0.0
 11
578.4295641800433
 21
-107.6920116067628
 31
0.0
  0
LINE
  5
34BB
330
2
100
AcDbEntity
  8
AM_VIS
100
AcDbLine
 10
585.3795641800433
 20
-106.7293390247661
 30
0.0
 11
585.3795641800433
 21
-107.6011188134743
 31
0.0
  0
LINE
  5
34BC
330
2
100
AcDbEntity
  8
AM_VIS
100
AcDbLine
 10
579.5295641800434
 20
-106.1969830825683
 30
0.0
 11
579.5295641800434
 21
-108.133474755672
 31
0.0
  0
LINE
  5
34BD
330
2
100
AcDbEntity
  8
AM_VIS
100
AcDbLine
 10
600.5795641800433
 20
-102.1652289191202
 30
0.0
 11
600.5795641800433
 21
-112.1652289191202
 31
0.0
  0
LINE
  5
34BE
330
2
100
AcDbEntity
  8
AM_VIS
100
AcDbLine
 10
600.5795641800433
 20
-112.1652289191202
 30
0.0
 11
613.5795641800434
 21
-112.1652289191201
 31
0.0
  0
LINE
  5
34BF
330
2
100
AcDbEntity
  8
AM_VIS
100
AcDbLine
 10
613.578797312018
 20
-108.9112826132237
 30
0.0
 11
615.5786356693307
 21
-108.6823015123628
 31
0.0
  0
LINE
  5
34C0
330
2
100
AcDbEntity
  8
AM_VIS
100
AcDbLine
 10
615.5795641800433
 20
-109.7652289191201
 30
0.0
 11
613.5795641800434
 21
-109.7652289191201
 31
0.0
  0
LINE
  5
34C1
330
2
100
AcDbEntity
  8
AM_VIS
100
AcDbLine
 10
613.5795641800434
 20
-112.1652289191202
 30
0.0
 11
613.5795641800434
 21
-102.1652289191202
 31
0.0
  0
LINE
  5
34C2
330
2
100
AcDbEntity
  8
AM_VIS
100
AcDbLine
 10
600.5795641800433
 20
-102.1652289191202
 30
0.0
 11
613.5795641800434
 21
-102.1652289191202
 31
0.0
  0
LINE
  5
34C3
330
2
100
AcDbEntity
  8
AM_VIS
100
AcDbLine
 10
613.5795641800434
 20
-104.5652289191202
 30
0.0
 11
615.5795641800433
 21
-104.5652289191202
 31
0.0
  0
LINE
  5
34C4
330
2
100
AcDbEntity
  8
AM_VIS
100
AcDbLine
 10
613.578797312018
 20
-105.4191752250166
 30
0.0
 11
615.5786356693307
 21
-105.6481563258775
 31
0.0
  0
LINE
  5
34C5
330
2
100
AcDbEntity
  8
AM_VIS
100
AcDbLine
 10
615.5795641800433
 20
-108.6349227647901
 30
0.0
 11
615.7795641800434
 21
-108.6349227647901
 31
0.0
  0
LINE
  5
34C6
330
2
100
AcDbEntity
  8
AM_VIS
100
AcDbLine
 10
615.7795641800434
 20
-105.6955350734503
 30
0.0
 11
615.5795641800433
 21
-105.6955350734503
 31
0.0
  0
CIRCLE
  5
34C7
330
2
100
AcDbEntity
  8
AM_VIS
100
AcDbCircle
 10
607.0795641800433
 20
-107.1652289191202
 30
0.0
 40
3.399999999999999
  0
CIRCLE
  5
34C8
330
2
100
AcDbEntity
  8
AM_VIS
100
AcDbCircle
 10
607.0795641800433
 20
-107.1652289191202
 30
0.0
 40
2.7
  0
CIRCLE
  5
34C9
330
2
100
AcDbEntity
  8
AM_VIS
100
AcDbCircle
 10
607.0795641800433
 20
-107.1652289191202
 30
0.0
 40
2.5
  0
CIRCLE
  5
34CA
330
2
100
AcDbEntity
  8
AM_VIS
100
AcDbCircle
 10
607.0795641800433
 20
-107.1652289191202
 30
0.0
 40
2.399999999999999
  0
LINE
  5
34CB
330
2
100
AcDbEntity
  8
AM_VIS
100
AcDbLine
 10
615.5795641800433
 20
-105.6400470481636
 30
0.0
 11
615.5795641800433
 21
-108.6904107900767
 31
0.0
  0
LINE
  5
34CC
330
2
100
AcDbEntity
  8
AM_VIS
100
AcDbLine
 10
615.5795641800433
 20
-108.6904107900767
 30
0.0
 11
615.5795641800433
 21
-109.7652289191201
 31
0.0
  0
LINE
  5
34CD
330
2
100
AcDbEntity
  8
AM_VIS
100
AcDbLine
 10
615.5795641800433
 20
-104.5652289191202
 30
0.0
 11
615.5795641800433
 21
-105.6400470481636
 31
0.0
  0
LINE
  5
34CE
330
2
100
AcDbEntity
  8
AM_VIS
100
AcDbLine
 10
615.7795641800434
 20
-105.6955350734503
 30
0.0
 11
615.7795641800434
 21
-108.6349227647901
 31
0.0
  0
LINE
  5
34CF
330
2
100
AcDbEntity
  8
AM_VIS
100
AcDbLine
 10
613.5795641800434
 20
-112.1652289191201
 30
0.0
 11
614.0795641800433
 21
-112.1652289191201
 31
0.0
  0
LINE
  5
34D0
330
2
100
AcDbEntity
  8
AM_VIS
100
AcDbLine
 10
614.0795641800433
 20
-102.1652289191201
 30
0.0
 11
613.5795641800434
 21
-102.1652289191201
 31
0.0
  0
LINE
  5
34D1
330
2
100
AcDbEntity
  8
AM_VIS
100
AcDbLine
 10
615.5795641800433
 20
-104.5652289191201
 30
0.0
 11
615.5795641800433
 21
-102.1652289191201
 31
0.0
  0
LINE
  5
34D2
330
2
100
AcDbEntity
  8
AM_VIS
100
AcDbLine
 10
614.0795641800433
 20
-102.1652289191201
 30
0.0
 11
614.0795641800433
 21
-104.5652289191201
 31
0.0
  0
LINE
  5
34D3
330
2
100
AcDbEntity
  8
AM_VIS
100
AcDbLine
 10
615.5795641800433
 20
-102.1652289191201
 30
0.0
 11
614.0795641800433
 21
-102.1652289191201
 31
0.0
  0
LINE
  5
34D4
330
2
100
AcDbEntity
  8
AM_VIS
100
AcDbLine
 10
615.5795641800433
 20
-112.1652289191201
 30
0.0
 11
615.5795641800433
 21
-109.7652289191201
 31
0.0
  0
LINE
  5
34D5
330
2
100
AcDbEntity
  8
AM_VIS
100
AcDbLine
 10
614.0795641800433
 20
-112.1652289191201
 30
0.0
 11
615.5795641800433
 21
-112.1652289191201
 31
0.0
  0
LINE
  5
34D6
330
2
100
AcDbEntity
  8
AM_VIS
100
AcDbLine
 10
614.0795641800433
 20
-109.7652289191201
 30
0.0
 11
614.0795641800433
 21
-112.1652289191201
 31
0.0
  0
LINE
  5
34D7
330
2
100
AcDbEntity
  8
AM_VIS
100
AcDbLine
 10
615.5795641800433
 20
-102.1652289191202
 30
0.0
 11
617.0795641800433
 21
-102.1652289191202
 31
0.0
  0
LINE
  5
34D8
330
2
100
AcDbEntity
  8
AM_VIS
100
AcDbLine
 10
617.0795641800433
 20
-102.1652289191202
 30
0.0
 11
617.0795641800433
 21
-112.1652289191201
 31
0.0
  0
LINE
  5
34D9
330
2
100
AcDbEntity
  8
AM_VIS
100
AcDbLine
 10
615.5795641800433
 20
-112.1652289191201
 30
0.0
 11
617.0795641800433
 21
-112.1652289191201
 31
0.0
  0
LINE
  5
34DA
330
2
100
AcDbEntity
  8
AM_VIS
100
AcDbLine
 10
618.5795641800433
 20
-111.1652289191201
 30
0.0
 11
617.0795641800433
 21
-112.1652289191201
 31
0.0
  0
LINE
  5
34DB
330
2
100
AcDbEntity
  8
AM_VIS
100
AcDbLine
 10
617.0795641800433
 20
-102.1652289191202
 30
0.0
 11
618.5795641800433
 21
-103.1652289191202
 31
0.0
  0
LINE
  5
34DC
330
2
100
AcDbEntity
  8
AM_VIS
100
AcDbLine
 10
618.5795641800433
 20
-110.9152289191201
 30
0.0
 11
622.0795641800433
 21
-110.9152289191201
 31
0.0
  0
LINE
  5
34DD
330
2
100
AcDbEntity
  8
AM_VIS
100
AcDbLine
 10
618.5795641800433
 20
-103.4152289191201
 30
0.0
 11
622.0795641800433
 21
-103.4152289191201
 31
0.0
  0
LINE
  5
34DE
102
{ACAD_REACTORS
330
49F4
102
}
330
2
100
AcDbEntity
  8
AM_VIS
100
AcDbLine
 10
623.0795641800433
 20
-110.3152289191201
 30
0.0
 11
623.0795641800433
 21
-104.0152289191201
 31
0.0
  0
LINE
  5
34DF
330
2
100
AcDbEntity
  8
AM_VIS
100
AcDbLine
 10
622.0795641800433
 20
-110.9152289191201
 30
0.0
 11
623.0795641800433
 21
-110.3152289191201
 31
0.0
  0
LINE
  5
34E0
330
2
100
AcDbEntity
  8
AM_VIS
100
AcDbLine
 10
622.0795641800433
 20
-103.4152289191201
 30
0.0
 11
622.0795641800433
 21
-110.9152289191201
 31
0.0
  0
LINE
  5
34E1
330
2
100
AcDbEntity
  8
AM_VIS
100
AcDbLine
 10
623.0795641800433
 20
-104.0152289191201
 30
0.0
 11
622.0795641800433
 21
-103.4152289191201
 31
0.0
  0
LINE
  5
34E2
330
2
100
AcDbEntity
  8
AM_VIS
100
AcDbLine
 10
618.5795641800433
 20
-111.1652289191201
 30
0.0
 11
618.5795641800433
 21
-103.1652289191202
 31
0.0
  0
ARC
  5
34E3
330
2
100
AcDbEntity
  8
AM_VIS
100
AcDbCircle
 10
655.7007487052533
 20
-51.93121145960799
 30
0.0
 40
1.600000000000022
100
AcDbArc
 50
339.6358651936706
 51
20.36413480632941
  0
ARC
  5
34E4
330
2
100
AcDbEntity
  8
AM_VIS
100
AcDbCircle
 10
648.7007487052533
 20
-62.93121145960805
 30
0.0
 40
1.600000000000022
100
AcDbArc
 50
159.6358651936843
 51
200.3641348063164
  0
LINE
  5
34E5
330
2
100
AcDbEntity
  8
AM_VIS
100
AcDbLine
 10
657.7007487052533
 20
-64.93121145960802
 30
0.0
 11
657.7007487052533
 21
-51.33121145960803
 31
0.0
  0
LINE
  5
34E6
330
2
100
AcDbEntity
  8
AM_VIS
100
AcDbLine
 10
646.7007487052533
 20
-51.33121145960803
 30
0.0
 11
646.7007487052533
 21
-64.93121145960802
 31
0.0
  0
LINE
  5
34E7
330
2
100
AcDbEntity
  8
AM_VIS
100
AcDbLine
 10
647.2007487052533
 20
-51.33121145960803
 30
0.0
 11
646.7007487052533
 21
-51.33121145960803
 31
0.0
  0
LINE
  5
34E8
330
2
100
AcDbEntity
  8
AM_VIS
100
AcDbLine
 10
657.7007487052533
 20
-51.33121145960803
 30
0.0
 11
657.2007487052533
 21
-51.33121145960803
 31
0.0
  0
LINE
  5
34E9
102
{ACAD_REACTORS
330
3B1F
102
}
330
2
100
AcDbEntity
  8
AM_VIS
100
AcDbLine
 10
646.7007487052533
 20
-64.93121145960802
 30
0.0
 11
647.2007487052533
 21
-64.93121145960802
 31
0.0
  0
LINE
  5
34EA
330
2
100
AcDbEntity
  8
AM_VIS
100
AcDbLine
 10
657.2007487052533
 20
-64.93121145960802
 30
0.0
 11
657.7007487052533
 21
-64.93121145960802
 31
0.0
  0
LINE
  5
34EB
330
2
100
AcDbEntity
  8
AM_VIS
100
AcDbLine
 10
649.6007487052533
 20
-54.43121145960805
 30
0.0
 11
649.6007487052533
 21
-57.1312408716272
 31
0.0
  0
LINE
  5
34EC
330
2
100
AcDbEntity
  8
AM_VIS
100
AcDbLine
 10
648.3007487052533
 20
-61.83121145960803
 30
0.0
 11
656.1007487052533
 21
-61.831211459608
 31
0.0
  0
LINE
  5
34ED
330
2
100
AcDbEntity
  8
AM_VIS
100
AcDbLine
 10
655.6007487052532
 20
-61.33121145960797
 30
0.0
 11
655.6007487052532
 21
-61.83121145960797
 31
0.0
  0
LINE
  5
34EE
330
2
100
AcDbEntity
  8
AM_VIS
100
AcDbLine
 10
648.8007487052533
 20
-61.831211459608
 30
0.0
 11
648.8007487052533
 21
-61.33121145960799
 31
0.0
  0
LINE
  5
34EF
330
2
100
AcDbEntity
  8
AM_VIS
100
AcDbLine
 10
654.8007487052532
 20
-57.13124087162714
 30
0.0
 11
654.8007487052532
 21
-54.43121145960799
 31
0.0
  0
LINE
  5
34F0
330
2
100
AcDbEntity
  8
AM_VIS
100
AcDbLine
 10
657.2007487052531
 20
-57.13121145960804
 30
0.0
 11
657.2007487052533
 21
-60.65121145960802
 31
0.0
  0
ARC
  5
34F1
330
2
100
AcDbEntity
  8
AM_VIS
100
AcDbCircle
 10
655.4557495728858
 20
-58.82870396326078
 30
0.0
 40
1.825539782311255
100
AcDbArc
 50
198.6363679025926
 51
214.6231278646366
  0
LINE
  5
34F2
330
2
100
AcDbEntity
  8
AM_VIS
100
AcDbLine
 10
648.3007487052532
 20
-61.33121145960803
 30
0.0
 11
648.9507487052532
 21
-61.33121145960803
 31
0.0
  0
LINE
  5
34F3
330
2
100
AcDbEntity
  8
AM_VIS
100
AcDbLine
 10
648.3007487052533
 20
-63.83121145960803
 30
0.0
 11
648.3007487052532
 21
-61.33121145960803
 31
0.0
  0
LINE
  5
34F4
330
2
100
AcDbEntity
  8
AM_VIS
100
AcDbLine
 10
656.1007487052533
 20
-63.83121145960799
 30
0.0
 11
648.3007487052533
 21
-63.83121145960803
 31
0.0
  0
LINE
  5
34F5
330
2
100
AcDbEntity
  8
AM_VIS
100
AcDbLine
 10
656.1007487052533
 20
-61.33121145960803
 30
0.0
 11
656.1007487052533
 21
-63.83121145960803
 31
0.0
  0
LINE
  5
34F6
330
2
100
AcDbEntity
  8
AM_VIS
100
AcDbLine
 10
655.4507487052533
 20
-61.33121145960803
 30
0.0
 11
656.1007487052533
 21
-61.33121145960803
 31
0.0
  0
LINE
  5
34F7
330
2
100
AcDbEntity
  8
AM_VIS
100
AcDbLine
 10
657.2007487052533
 20
-60.65121145960802
 30
0.0
 11
655.4507487052533
 21
-60.65121145960802
 31
0.0
  0
LINE
  5
34F8
330
2
100
AcDbEntity
  8
AM_VIS
100
AcDbLine
 10
657.2007487052533
 20
-60.65121145960802
 30
0.0
 11
657.2007487052533
 21
-64.93121145960802
 31
0.0
  0
LINE
  5
34F9
330
2
100
AcDbEntity
  8
AM_VIS
100
AcDbLine
 10
657.2007487052533
 20
-64.93121145960802
 30
0.0
 11
647.2007487052533
 21
-64.93121145960805
 31
0.0
  0
LINE
  5
34FA
330
2
100
AcDbEntity
  8
AM_VIS
100
AcDbLine
 10
647.2007487052533
 20
-64.93121145960805
 30
0.0
 11
647.2007487052532
 21
-60.65121145960805
 31
0.0
  0
LINE
  5
34FB
330
2
100
AcDbEntity
  8
AM_VIS
100
AcDbLine
 10
647.2007487052533
 20
-60.65121145960802
 30
0.0
 11
647.2007487052532
 21
-57.13121145960804
 31
0.0
  0
ARC
  5
34FC
330
2
100
AcDbEntity
  8
AM_VIS
100
AcDbCircle
 10
648.9457478376192
 20
-58.82870396326016
 30
0.0
 40
1.825539782312666
100
AcDbArc
 50
325.3768721353674
 51
341.3636320974007
  0
LINE
  5
34FD
330
2
100
AcDbEntity
  8
AM_VIS
100
AcDbLine
 10
648.9507487052532
 20
-60.65121145960802
 30
0.0
 11
647.2007487052532
 21
-60.65121145960802
 31
0.0
  0
LINE
  5
34FE
330
2
100
AcDbEntity
  8
AM_VIS
100
AcDbLine
 10
653.6704425509232
 20
-57.73121145960804
 30
0.0
 11
652.6007487052533
 21
-57.73121145960804
 31
0.0
  0
LINE
  5
34FF
330
2
100
AcDbEntity
  8
AM_VIS
100
AcDbLine
 10
651.8007487052532
 20
-57.73121145960804
 30
0.0
 11
650.7310548595833
 21
-57.73121145960804
 31
0.0
  0
LINE
  5
3500
330
2
100
AcDbEntity
  8
AM_VIS
100
AcDbLine
 10
652.6007487052533
 20
-57.13121145960804
 30
0.0
 11
653.6704425509232
 21
-57.13121145960804
 31
0.0
  0
LINE
  5
3501
330
2
100
AcDbEntity
  8
AM_VIS
100
AcDbLine
 10
650.7310548595833
 20
-57.13121145960804
 30
0.0
 11
651.8007487052532
 21
-57.13121145960804
 31
0.0
  0
ARC
  5
3502
330
2
100
AcDbEntity
  8
AM_VIS
100
AcDbCircle
 10
652.2007487052531
 20
-57.43121145960802
 30
0.0
 40
2.5
100
AcDbArc
 50
232.4052366676959
 51
307.594763332304
  0
ARC
  5
3503
330
2
100
AcDbEntity
  8
AM_VIS
100
AcDbCircle
 10
652.2007487052531
 20
-57.43121145960802
 30
0.0
 40
3.0
100
AcDbArc
 50
247.307722008548
 51
292.692277991452
  0
ARC
  5
3504
330
2
100
AcDbEntity
  8
AM_VIS
100
AcDbCircle
 10
655.4507487052533
 20
-58.83121145960803
 30
0.0
 40
1.819999999999999
100
AcDbArc
 50
110.9248324276401
 51
198.6118775363971
  0
ARC
  5
3505
330
2
100
AcDbEntity
  8
AM_VIS
100
AcDbCircle
 10
652.2007487052531
 20
-57.43121145960802
 30
0.0
 40
3.0
100
AcDbArc
 50
234.2499471461065
 51
247.307722008548
  0
ARC
  5
3506
330
2
100
AcDbEntity
  8
AM_VIS
100
AcDbCircle
 10
648.9507487052532
 20
-58.83121145960803
 30
0.0
 40
2.5
100
AcDbArc
 50
270.0
 51
326.831157478121
  0
ARC
  5
3507
330
2
100
AcDbEntity
  8
AM_VIS
100
AcDbCircle
 10
655.4507487052533
 20
-58.83121145960803
 30
0.0
 40
2.5
100
AcDbArc
 50
213.168842521879
 51
270.0
  0
ARC
  5
3508
330
2
100
AcDbEntity
  8
AM_VIS
100
AcDbCircle
 10
652.2007487052531
 20
-57.43121145960802
 30
0.0
 40
3.0
100
AcDbArc
 50
292.692277991452
 51
305.750052853894
  0
ARC
  5
3509
330
2
100
AcDbEntity
  8
AM_VIS
100
AcDbCircle
 10
655.4507487052533
 20
-58.83121145960803
 30
0.0
 40
1.819999999999999
100
AcDbArc
 50
214.6476182308366
 51
270.0
  0
ARC
  5
350A
330
2
100
AcDbEntity
  8
AM_VIS
100
AcDbCircle
 10
648.9507487052532
 20
-58.83121145960803
 30
0.0
 40
1.819999999999999
100
AcDbArc
 50
69.07516757235985
 51
69.07776031741949
  0
ARC
  5
350B
330
2
100
AcDbEntity
  8
AM_VIS
100
AcDbCircle
 10
648.9507487052532
 20
-58.83121145960803
 30
0.0
 40
1.819999999999999
100
AcDbArc
 50
341.3881224636028
 51
69.07516757235985
  0
ARC
  5
350C
330
2
100
AcDbEntity
  8
AM_VIS
100
AcDbCircle
 10
648.9507487052532
 20
-58.83121145960803
 30
0.0
 40
1.819999999999999
100
AcDbArc
 50
270.0
 51
325.3523817691634
  0
CIRCLE
  5
350D
330
2
100
AcDbEntity
  8
AM_VIS
100
AcDbCircle
 10
652.2007487052531
 20
-57.43121145960802
 30
0.0
 40
1.6
  0
ARC
  5
350E
330
2
100
AcDbEntity
  8
AM_VIS
100
AcDbCircle
 10
652.2007487052531
 20
-57.43121145960802
 30
0.0
 40
1.5
100
AcDbArc
 50
11.53695903281574
 51
168.4630409671842
  0
ARC
  5
350F
330
2
100
AcDbEntity
  8
AM_VIS
100
AcDbCircle
 10
652.2007487052531
 20
-57.43121145960802
 30
0.0
 40
1.5
100
AcDbArc
 50
191.5369590328157
 51
348.4630409671843
  0
ARC
  5
3510
330
2
100
AcDbEntity
  8
AM_VIS
100
AcDbCircle
 10
652.2007487052531
 20
-57.43121145960802
 30
0.0
 40
1.5
100
AcDbArc
 50
348.4630409671843
 51
11.53695903281574
  0
ARC
  5
3511
330
2
100
AcDbEntity
  8
AM_VIS
100
AcDbCircle
 10
652.2007487052531
 20
-57.43121145960802
 30
0.0
 40
1.5
100
AcDbArc
 50
168.4630409671842
 51
191.5369590328157
  0
ARC
  5
3512
330
2
100
AcDbEntity
  8
AM_VIS
100
AcDbCircle
 10
652.2007487052531
 20
-57.43121145960802
 30
0.0
 40
0.5
100
AcDbArc
 50
323.1301023541547
 51
36.86989764584533
  0
ARC
  5
3513
330
2
100
AcDbEntity
  8
AM_VIS
100
AcDbCircle
 10
652.2007487052531
 20
-57.43121145960802
 30
0.0
 40
0.5
100
AcDbArc
 50
216.8698976458453
 51
323.1301023541547
  0
ARC
  5
3514
330
2
100
AcDbEntity
  8
AM_VIS
100
AcDbCircle
 10
652.2007487052531
 20
-57.43121145960802
 30
0.0
 40
0.5
100
AcDbArc
 50
143.1301023541546
 51
216.8698976458453
  0
ARC
  5
3515
330
2
100
AcDbEntity
  8
AM_VIS
100
AcDbCircle
 10
652.2007487052531
 20
-57.43121145960802
 30
0.0
 40
0.5
100
AcDbArc
 50
36.86989764584533
 51
143.1301023541546
  0
LINE
  5
3516
330
2
100
AcDbEntity
  8
AM_VIS
100
AcDbLine
 10
647.2007487052532
 20
-56.63121145960804
 30
0.0
 11
647.2007487052532
 21
-54.43121145960805
 31
0.0
  0
LINE
  5
3517
330
2
100
AcDbEntity
  8
AM_VIS
100
AcDbLine
 10
649.6007487052532
 20
-56.63121145960801
 30
0.0
 11
649.6007487052532
 21
-54.43121145960802
 31
0.0
  0
LINE
  5
3518
330
2
100
AcDbEntity
  8
AM_VIS
100
AcDbLine
 10
649.6007487052532
 20
-56.63121145960804
 30
0.0
 11
647.2007487052532
 21
-56.63121145960804
 31
0.0
  0
LINE
  5
3519
330
2
100
AcDbEntity
  8
AM_VIS
100
AcDbLine
 10
647.2007487052532
 20
-57.13121145960804
 30
0.0
 11
649.6007487052533
 21
-57.13121145960804
 31
0.0
  0
LINE
  5
351A
330
2
100
AcDbEntity
  8
AM_VIS
100
AcDbLine
 10
647.2007487052532
 20
-56.63121145960801
 30
0.0
 11
647.2007487052532
 21
-57.13121145960801
 31
0.0
  0
LINE
  5
351B
330
2
100
AcDbEntity
  8
AM_VIS
100
AcDbLine
 10
657.2007487052531
 20
-56.63121145960798
 30
0.0
 11
657.2007487052531
 21
-54.43121145960799
 31
0.0
  0
LINE
  5
351C
330
2
100
AcDbEntity
  8
AM_VIS
100
AcDbLine
 10
654.8007487052532
 20
-54.43121145960799
 30
0.0
 11
654.8007487052532
 21
-56.63121145960798
 31
0.0
  0
LINE
  5
351D
330
2
100
AcDbEntity
  8
AM_VIS
100
AcDbLine
 10
657.2007487052531
 20
-56.63121145960801
 30
0.0
 11
654.8007487052532
 21
-56.63121145960801
 31
0.0
  0
LINE
  5
351E
330
2
100
AcDbEntity
  8
AM_VIS
100
AcDbLine
 10
657.2007487052531
 20
-57.13121145960798
 30
0.0
 11
657.2007487052531
 21
-56.63121145960798
 31
0.0
  0
LINE
  5
351F
330
2
100
AcDbEntity
  8
AM_VIS
100
AcDbLine
 10
654.8007487052532
 20
-57.13121145960801
 30
0.0
 11
657.2007487052531
 21
-57.13121145960801
 31
0.0
  0
LINE
  5
3520
330
2
100
AcDbEntity
  8
AM_VIS
100
AcDbLine
 10
647.2007487052532
 20
-54.43121145960805
 30
0.0
 11
657.2007487052531
 21
-54.43121145960802
 31
0.0
  0
LINE
  5
3521
330
2
100
AcDbEntity
  8
AM_VIS
100
AcDbLine
 10
657.2007487052531
 20
-54.43121145960802
 30
0.0
 11
657.2007487052531
 21
-37.43121145960802
 31
0.0
  0
LINE
  5
3522
330
2
100
AcDbEntity
  8
AM_VIS
100
AcDbLine
 10
656.2007487052532
 20
-52.931211459608
 30
0.0
 11
657.2007487052531
 21
-54.43121145960799
 31
0.0
  0
LINE
  5
3523
330
2
100
AcDbEntity
  8
AM_VIS
100
AcDbLine
 10
647.2007487052532
 20
-54.43121145960805
 30
0.0
 11
648.2007487052531
 21
-52.93121145960805
 31
0.0
  0
LINE
  5
3524
102
{ACAD_REACTORS
330
3B1F
102
}
330
2
100
AcDbEntity
  8
AM_VIS
100
AcDbLine
 10
647.2007487052532
 20
-37.43121145960805
 30
0.0
 11
647.2007487052532
 21
-54.43121145960805
 31
0.0
  0
LINE
  5
3525
330
2
100
AcDbEntity
  8
AM_VIS
100
AcDbLine
 10
648.2007487052531
 20
-38.93121145960802
 30
0.0
 11
647.2007487052532
 21
-37.43121145960802
 31
0.0
  0
LINE
  5
3526
330
2
100
AcDbEntity
  8
AM_VIS
100
AcDbLine
 10
655.9507487052532
 20
-46.83121145960803
 30
0.0
 11
655.9507487052532
 21
-41.43121145960805
 31
0.0
  0
LINE
  5
3527
330
2
100
AcDbEntity
  8
AM_VIS
100
AcDbLine
 10
649.4507487052532
 20
-42.43121145960802
 30
0.0
 11
654.9507487052531
 21
-42.43121145960802
 31
0.0
  0
LINE
  5
3528
330
2
100
AcDbEntity
  8
AM_VIS
100
AcDbLine
 10
649.4507487052532
 20
-45.83121145960802
 30
0.0
 11
649.4507487052532
 21
-42.43121145960805
 31
0.0
  0
LINE
  5
3529
330
2
100
AcDbEntity
  8
AM_VIS
100
AcDbLine
 10
654.9507487052531
 20
-45.83121145960802
 30
0.0
 11
649.4507487052532
 21
-45.83121145960802
 31
0.0
  0
LINE
  5
352A
330
2
100
AcDbEntity
  8
AM_VIS
100
AcDbLine
 10
654.9507487052531
 20
-42.43121145960802
 30
0.0
 11
654.9507487052531
 21
-45.83121145960802
 31
0.0
  0
LINE
  5
352B
330
2
100
AcDbEntity
  8
AM_VIS
100
AcDbLine
 10
655.3507487052532
 20
-41.43121145960802
 30
0.0
 11
655.3507487052532
 21
-46.53121145960802
 31
0.0
  0
LINE
  5
352C
330
2
100
AcDbEntity
  8
AM_VIS
100
AcDbLine
 10
648.4507487052532
 20
-41.43121145960805
 30
0.0
 11
648.4507487052532
 21
-46.83121145960803
 31
0.0
  0
LINE
  5
352D
330
2
100
AcDbEntity
  8
AM_VIS
100
AcDbLine
 10
649.0507487052532
 20
-46.53121145960802
 30
0.0
 11
649.0507487052532
 21
-41.43121145960802
 31
0.0
  0
LINE
  5
352E
330
2
100
AcDbEntity
  8
AM_VIS
100
AcDbLine
 10
655.3507487052533
 20
-46.53121145960802
 30
0.0
 11
649.0507487052532
 21
-46.53121145960804
 31
0.0
  0
LINE
  5
352F
330
2
100
AcDbEntity
  8
AM_VIS
100
AcDbLine
 10
655.9507487052532
 20
-46.83121145960803
 30
0.0
 11
655.3507487052533
 21
-46.53121145960804
 31
0.0
  0
LINE
  5
3530
330
2
100
AcDbEntity
  8
AM_VIS
100
AcDbLine
 10
648.4507487052532
 20
-46.83121145960803
 30
0.0
 11
655.9507487052532
 21
-46.83121145960799
 31
0.0
  0
LINE
  5
3531
330
2
100
AcDbEntity
  8
AM_VIS
100
AcDbLine
 10
649.0507487052532
 20
-46.53121145960802
 30
0.0
 11
648.4507487052532
 21
-46.83121145960803
 31
0.0
  0
LINE
  5
3532
330
2
100
AcDbEntity
  8
AM_VIS
100
AcDbLine
 10
655.9507487052532
 20
-41.43121145960802
 30
0.0
 11
655.3507487052532
 21
-41.43121145960802
 31
0.0
  0
LINE
  5
3533
330
2
100
AcDbEntity
  8
AM_VIS
100
AcDbLine
 10
655.2007487052532
 20
-41.43121145960802
 30
0.0
 11
655.3507487052532
 21
-41.43121145960802
 31
0.0
  0
LINE
  5
3534
330
2
100
AcDbEntity
  8
AM_VIS
100
AcDbLine
 10
655.2007487052532
 20
-39.93121145960802
 30
0.0
 11
654.3007487052532
 21
-39.93121145960802
 31
0.0
  0
LINE
  5
3535
330
2
100
AcDbEntity
  8
AM_VIS
100
AcDbLine
 10
655.2007487052532
 20
-41.43121145960802
 30
0.0
 11
655.2007487052532
 21
-39.93121145960802
 31
0.0
  0
LINE
  5
3536
330
2
100
AcDbEntity
  8
AM_VIS
100
AcDbLine
 10
654.3007487052532
 20
-41.43121145960802
 30
0.0
 11
654.3007487052532
 21
-39.93121145960802
 31
0.0
  0
LINE
  5
3537
330
2
100
AcDbEntity
  8
AM_VIS
100
AcDbLine
 10
650.1007487052532
 20
-41.43121145960802
 30
0.0
 11
654.3007487052532
 21
-41.43121145960802
 31
0.0
  0
LINE
  5
3538
330
2
100
AcDbEntity
  8
AM_VIS
100
AcDbLine
 10
649.0507487052532
 20
-41.43121145960805
 30
0.0
 11
649.2007487052532
 21
-41.43121145960802
 31
0.0
  0
LINE
  5
3539
330
2
100
AcDbEntity
  8
AM_VIS
100
AcDbLine
 10
649.0507487052532
 20
-41.43121145960805
 30
0.0
 11
648.4507487052532
 21
-41.43121145960805
 31
0.0
  0
LINE
  5
353A
330
2
100
AcDbEntity
  8
AM_VIS
100
AcDbLine
 10
650.1007487052532
 20
-39.93121145960805
 30
0.0
 11
649.2007487052532
 21
-39.93121145960805
 31
0.0
  0
LINE
  5
353B
330
2
100
AcDbEntity
  8
AM_VIS
100
AcDbLine
 10
650.1007487052532
 20
-41.43121145960805
 30
0.0
 11
650.1007487052532
 21
-39.93121145960805
 31
0.0
  0
LINE
  5
353C
330
2
100
AcDbEntity
  8
AM_VIS
100
AcDbLine
 10
649.2007487052532
 20
-41.43121145960805
 30
0.0
 11
649.2007487052532
 21
-39.93121145960805
 31
0.0
  0
LINE
  5
353D
330
2
100
AcDbEntity
  8
AM_VIS
100
AcDbLine
 10
652.7007487052531
 20
-41.43121145960802
 30
0.0
 11
652.7007487052531
 21
-40.93121145960802
 31
0.0
  0
LINE
  5
353E
330
2
100
AcDbEntity
  8
AM_VIS
100
AcDbLine
 10
651.7007487052532
 20
-40.93121145960802
 30
0.0
 11
651.7007487052532
 21
-41.43121145960802
 31
0.0
  0
LINE
  5
353F
330
2
100
AcDbEntity
  8
AM_VIS
100
AcDbLine
 10
652.7007487052531
 20
-40.93121145960802
 30
0.0
 11
651.7007487052532
 21
-40.93121145960802
 31
0.0
  0
LINE
  5
3540
330
2
100
AcDbEntity
  8
AM_VIS
100
AcDbLine
 10
656.2007487052532
 20
-38.93121145960802
 30
0.0
 11
656.2007487052532
 21
-52.93121145960802
 31
0.0
  0
LINE
  5
3541
330
2
100
AcDbEntity
  8
AM_VIS
100
AcDbLine
 10
656.2007487052532
 20
-52.93121145960802
 30
0.0
 11
648.2007487052531
 21
-52.93121145960805
 31
0.0
  0
LINE
  5
3542
330
2
100
AcDbEntity
  8
AM_VIS
100
AcDbLine
 10
648.2007487052531
 20
-52.93121145960805
 30
0.0
 11
648.2007487052531
 21
-38.93121145960805
 31
0.0
  0
LINE
  5
3543
330
2
100
AcDbEntity
  8
AM_VIS
100
AcDbLine
 10
648.2007487052531
 20
-38.93121145960802
 30
0.0
 11
650.2007487052532
 21
-38.93121145960802
 31
0.0
  0
LINE
  5
3544
330
2
100
AcDbEntity
  8
AM_VIS
100
AcDbLine
 10
657.2007487052531
 20
-37.43121145960802
 30
0.0
 11
656.2007487052532
 21
-38.93121145960802
 31
0.0
  0
LINE
  5
3545
330
2
100
AcDbEntity
  8
AM_VIS
100
AcDbLine
 10
654.2007487052532
 20
-38.931211459608
 30
0.0
 11
656.2007487052532
 21
-38.931211459608
 31
0.0
  0
LINE
  5
3546
330
2
100
AcDbEntity
  8
AM_VIS
100
AcDbLine
 10
650.2007487052532
 20
-37.43121145960802
 30
0.0
 11
647.2007487052532
 21
-37.43121145960802
 31
0.0
  0
LINE
  5
3547
330
2
100
AcDbEntity
  8
AM_VIS
100
AcDbLine
 10
657.2007487052531
 20
-37.43121145960799
 30
0.0
 11
654.2007487052532
 21
-37.43121145960799
 31
0.0
  0
LINE
  5
3548
330
2
100
AcDbEntity
  8
AM_VIS
100
AcDbLine
 10
650.2007487052532
 20
-39.21405417208262
 30
0.0
 11
650.2007487052532
 21
-38.931211459608
 31
0.0
  0
LINE
  5
3549
330
2
100
AcDbEntity
  8
AM_VIS
100
AcDbLine
 10
650.2007487052532
 20
-38.93121145960802
 30
0.0
 11
650.2007487052532
 21
-37.43121145960802
 31
0.0
  0
LINE
  5
354A
330
2
100
AcDbEntity
  8
AM_VIS
100
AcDbLine
 10
654.2007487052532
 20
-38.931211459608
 30
0.0
 11
654.2007487052532
 21
-39.21405417208262
 31
0.0
  0
LINE
  5
354B
330
2
100
AcDbEntity
  8
AM_VIS
100
AcDbLine
 10
654.2007487052532
 20
-37.43121145960802
 30
0.0
 11
654.2007487052532
 21
-38.93121145960802
 31
0.0
  0
LINE
  5
354C
330
2
100
AcDbEntity
  8
AM_VIS
100
AcDbLine
 10
650.2007487052532
 20
-37.43121145960802
 30
0.0
 11
654.2007487052532
 21
-37.43121145960799
 31
0.0
  0
LINE
  5
354D
330
2
100
AcDbEntity
  8
AM_VIS
100
AcDbLine
 10
650.2007487052532
 20
-37.63121145960804
 30
0.0
 11
654.2007487052532
 21
-37.63121145960804
 31
0.0
  0
LINE
  5
354E
330
2
100
AcDbEntity
  8
AM_VIS
100
AcDbLine
 10
654.2007487052532
 20
-39.21405417208262
 30
0.0
 11
650.2007487052532
 21
-39.21405417208262
 31
0.0
  0
CIRCLE
  5
354F
330
2
100
AcDbEntity
  8
AM_VIS
100
AcDbCircle
 10
653.7007487052532
 20
-44.63121145960804
 30
0.0
 40
0.25
  0
CIRCLE
  5
3550
330
2
100
AcDbEntity
  8
AM_VIS
100
AcDbCircle
 10
650.7007487052532
 20
-44.63121145960804
 30
0.0
 40
0.25
  0
LINE
  5
3551
330
2
100
AcDbEntity
  8
AM_VIS
100
AcDbLine
 10
649.1668370195096
 20
-58.77818231251149
 30
0.0
 11
648.9507487052532
 21
-58.83121145960799
 31
0.0
  0
LINE
  5
3552
330
2
100
AcDbEntity
  8
AM_VIS
100
AcDbLine
 10
648.9507487052532
 20
-58.83121145960803
 30
0.0
 11
648.7346603909967
 21
-58.88424060670456
 31
0.0
  0
LINE
  5
3553
330
2
100
AcDbEntity
  8
AM_VIS
100
AcDbLine
 10
648.9507487052532
 20
-58.83121145960806
 30
0.0
 11
649.2198661666069
 21
-58.99427062676844
 31
0.0
  0
LINE
  5
3554
330
2
100
AcDbEntity
  8
AM_VIS
100
AcDbLine
 10
649.1138078724127
 20
-58.56209399825573
 30
0.0
 11
648.9507487052532
 21
-58.83121145960803
 31
0.0
  0
LINE
  5
3555
330
2
100
AcDbEntity
  8
AM_VIS
100
AcDbLine
 10
649.2198661666066
 20
-58.99427062676995
 30
0.0
 11
649.1138078724136
 21
-58.56209399825695
 31
0.0
  0
LINE
  5
3556
330
2
100
AcDbEntity
  8
AM_VIS
100
AcDbLine
 10
648.6816312439007
 20
-58.66815229244997
 30
0.0
 11
649.1138078724136
 21
-58.56209399825693
 31
0.0
  0
LINE
  5
3557
330
2
100
AcDbEntity
  8
AM_VIS
100
AcDbLine
 10
649.0037778523502
 20
-59.04729977386645
 30
0.0
 11
648.9507487052532
 21
-58.83121145960803
 31
0.0
  0
LINE
  5
3558
330
2
100
AcDbEntity
  8
AM_VIS
100
AcDbLine
 10
648.7876895380928
 20
-59.10032892096172
 30
0.0
 11
648.9507487052532
 21
-58.83121145960803
 31
0.0
  0
LINE
  5
3559
330
2
100
AcDbEntity
  8
AM_VIS
100
AcDbLine
 10
648.6816312439007
 20
-58.66815229244997
 30
0.0
 11
648.7876895380936
 21
-59.10032892096296
 31
0.0
  0
LINE
  5
355A
330
2
100
AcDbEntity
  8
AM_VIS
100
AcDbLine
 10
648.9507487052532
 20
-58.83121145960803
 30
0.0
 11
648.8977195581571
 21
-58.61512314535346
 31
0.0
  0
LINE
  5
355B
330
2
100
AcDbEntity
  8
AM_VIS
100
AcDbLine
 10
648.9507487052532
 20
-58.83121145960803
 30
0.0
 11
648.6816312439009
 21
-58.66815229244846
 31
0.0
  0
LINE
  5
355C
330
2
100
AcDbEntity
  8
AM_VIS
100
AcDbLine
 10
649.2198661666066
 20
-58.99427062676995
 30
0.0
 11
648.7876895380938
 21
-59.100328920963
 31
0.0
  0
LINE
  5
355D
330
2
100
AcDbEntity
  8
AM_VIS
100
AcDbLine
 10
649.2198661666066
 20
-58.99427062676998
 30
0.0
 11
649.2825329593817
 21
-59.24963135482375
 31
0.0
  0
LINE
  5
355E
330
2
100
AcDbEntity
  8
AM_VIS
100
AcDbLine
 10
649.2198661666066
 20
-58.99427062676998
 30
0.0
 11
649.4752268946615
 21
-58.93160383399458
 31
0.0
  0
LINE
  5
355F
330
2
100
AcDbEntity
  8
AM_VIS
100
AcDbLine
 10
649.0511410796377
 20
-58.30673327019932
 30
0.0
 11
649.1138078724136
 21
-58.56209399825693
 31
0.0
  0
LINE
  5
3560
330
2
100
AcDbEntity
  8
AM_VIS
100
AcDbLine
 10
649.1138078724136
 20
-58.56209399825693
 30
0.0
 11
649.3691686004702
 21
-58.49942720548114
 31
0.0
  0
LINE
  5
3561
330
2
100
AcDbEntity
  8
AM_VIS
100
AcDbLine
 10
648.6189644511246
 20
-58.41279156439236
 30
0.0
 11
648.6816312439007
 21
-58.66815229244995
 31
0.0
  0
LINE
  5
3562
330
2
100
AcDbEntity
  8
AM_VIS
100
AcDbLine
 10
648.4262705158441
 20
-58.73081908522585
 30
0.0
 11
648.6816312439007
 21
-58.66815229244997
 31
0.0
  0
LINE
  5
3563
330
2
100
AcDbEntity
  8
AM_VIS
100
AcDbLine
 10
648.7876895380938
 20
-59.10032892096302
 30
0.0
 11
648.8503563308689
 21
-59.35568964901682
 31
0.0
  0
LINE
  5
3564
330
2
100
AcDbEntity
  8
AM_VIS
100
AcDbLine
 10
648.5323288100389
 20
-59.16299571373841
 30
0.0
 11
648.7876895380938
 21
-59.10032892096302
 31
0.0
  0
CIRCLE
  5
3565
330
2
100
AcDbEntity
  8
AM_VIS
100
AcDbCircle
 10
648.9507487052532
 20
-58.83121145960803
 30
0.0
 40
1.600000000000022
  0
LINE
  5
3566
330
2
100
AcDbEntity
  8
AM_VIS
100
AcDbLine
 10
649.0511410796377
 20
-58.30673327019934
 30
0.0
 11
648.9658512788819
 21
-57.95918611400935
 31
0.0
  0
ELLIPSE
  5
3567
330
2
100
AcDbEntity
  8
AM_VIS
100
AcDbEllipse
 10
649.1051966500573
 20
-59.46057093190629
 30
0.0
 11
-2.286824568972775
 21
-0.5611981234118812
 31
0.0
210
0.0
220
0.0
230
1.0
 40
0.6361945781365053
 41
4.617755055602464
 42
4.80702290516692
  0
LINE
  5
3568
330
2
100
AcDbEntity
  8
AM_VIS
100
AcDbLine
 10
648.8503563308689
 20
-59.35568964901682
 30
0.0
 11
648.9356461316246
 21
-59.70323680520675
 31
0.0
  0
ELLIPSE
  5
3569
330
2
100
AcDbEntity
  8
AM_VIS
100
AcDbEllipse
 10
648.7963007604491
 20
-58.20185198730976
 30
0.0
 11
2.286824568972774
 21
0.5611981234118851
 31
0.0
210
0.0
220
0.0
230
1.0
 40
0.6361945781365066
 41
4.617755055602462
 42
4.807022905166917
  0
LINE
  5
356A
330
2
100
AcDbEntity
  8
AM_VIS
100
AcDbLine
 10
648.184781653848
 20
-59.24828551449428
 30
0.0
 11
648.5323288100389
 21
-59.16299571373838
 31
0.0
  0
ELLIPSE
  5
356B
330
2
100
AcDbEntity
  8
AM_VIS
100
AcDbEllipse
 10
648.3213892329549
 20
-58.9856594044121
 30
0.0
 11
-0.5611981234118837
 21
2.286824568972775
 31
0.0
210
0.0
220
0.0
230
1.0
 40
0.6361945781365077
 41
4.617755055601613
 42
4.807022905166068
  0
LINE
  5
356C
330
2
100
AcDbEntity
  8
AM_VIS
100
AcDbLine
 10
648.4262705158441
 20
-58.73081908522582
 30
0.0
 11
648.0787233596548
 21
-58.81610888598135
 31
0.0
  0
LINE
  5
356D
330
2
100
AcDbEntity
  8
AM_VIS
100
AcDbLine
 10
649.7167157566594
 20
-58.41413740472564
 30
0.0
 11
649.3691686004702
 21
-58.49942720548117
 31
0.0
  0
ELLIPSE
  5
356E
330
2
100
AcDbEntity
  8
AM_VIS
100
AcDbEllipse
 10
649.5801081775514
 20
-58.67676351480398
 30
0.0
 11
0.5611981234118822
 21
-2.286824568972774
 31
0.0
210
0.0
220
0.0
230
1.0
 40
0.6361945781365101
 41
4.617755055603316
 42
4.807022905167772
  0
LINE
  5
356F
330
2
100
AcDbEntity
  8
AM_VIS
100
AcDbLine
 10
649.4752268946615
 20
-58.93160383399458
 30
0.0
 11
649.8227740508523
 21
-58.84631403323869
 31
0.0
  0
LINE
  5
3570
330
2
100
AcDbEntity
  8
AM_VIS
100
AcDbLine
 10
648.5336746503689
 20
-58.06524440820237
 30
0.0
 11
648.6189644511246
 21
-58.41279156439236
 31
0.0
  0
LINE
  5
3571
330
2
100
AcDbEntity
  8
AM_VIS
100
AcDbLine
 10
649.3678227601375
 20
-59.59717851101373
 30
0.0
 11
649.2825329593819
 21
-59.2496313548238
 31
0.0
  0
ARC
  5
3572
330
2
100
AcDbEntity
  8
AM_VIS
100
AcDbCircle
 10
648.9507487052532
 20
-58.83121145960806
 30
0.0
 40
0.5339999999999919
100
AcDbArc
 50
308.4125063669301
 51
349.1638696623682
  0
ARC
  5
3573
330
2
100
AcDbEntity
  8
AM_VIS
100
AcDbCircle
 10
648.9507487052532
 20
-58.83121145960806
 30
0.0
 40
0.5339999999999919
100
AcDbArc
 50
38.41250636669811
 51
79.16386966260453
  0
ARC
  5
3574
330
2
100
AcDbEntity
  8
AM_VIS
100
AcDbCircle
 10
648.9507487052532
 20
-58.83121145960806
 30
0.0
 40
0.5339999999999919
100
AcDbArc
 50
128.4125063669305
 51
169.1638696628363
  0
ARC
  5
3575
330
2
100
AcDbEntity
  8
AM_VIS
100
AcDbCircle
 10
648.9507487052532
 20
-58.83121145960806
 30
0.0
 40
0.5339999999999919
100
AcDbArc
 50
218.4125063671673
 51
259.1638696626045
  0
LINE
  5
3576
330
2
100
AcDbEntity
  8
AM_VIS
100
AcDbLine
 10
655.6668370195097
 20
-58.77818231251149
 30
0.0
 11
655.4507487052532
 21
-58.83121145960799
 31
0.0
  0
LINE
  5
3577
330
2
100
AcDbEntity
  8
AM_VIS
100
AcDbLine
 10
655.4507487052532
 20
-58.83121145960803
 30
0.0
 11
655.2346603909967
 21
-58.88424060670456
 31
0.0
  0
LINE
  5
3578
330
2
100
AcDbEntity
  8
AM_VIS
100
AcDbLine
 10
655.4507487052532
 20
-58.83121145960806
 30
0.0
 11
655.719866166607
 21
-58.99427062676844
 31
0.0
  0
LINE
  5
3579
330
2
100
AcDbEntity
  8
AM_VIS
100
AcDbLine
 10
655.6138078724128
 20
-58.5620939982557
 30
0.0
 11
655.4507487052532
 21
-58.83121145960799
 31
0.0
  0
LINE
  5
357A
330
2
100
AcDbEntity
  8
AM_VIS
100
AcDbLine
 10
655.7198661666067
 20
-58.99427062676995
 30
0.0
 11
655.6138078724138
 21
-58.56209399825695
 31
0.0
  0
LINE
  5
357B
330
2
100
AcDbEntity
  8
AM_VIS
100
AcDbLine
 10
655.1816312439007
 20
-58.66815229244997
 30
0.0
 11
655.6138078724138
 21
-58.56209399825693
 31
0.0
  0
LINE
  5
357C
330
2
100
AcDbEntity
  8
AM_VIS
100
AcDbLine
 10
655.5037778523503
 20
-59.04729977386645
 30
0.0
 11
655.4507487052532
 21
-58.83121145960803
 31
0.0
  0
LINE
  5
357D
330
2
100
AcDbEntity
  8
AM_VIS
100
AcDbLine
 10
655.2876895380928
 20
-59.10032892096172
 30
0.0
 11
655.4507487052532
 21
-58.83121145960803
 31
0.0
  0
LINE
  5
357E
330
2
100
AcDbEntity
  8
AM_VIS
100
AcDbLine
 10
655.1816312439007
 20
-58.66815229244997
 30
0.0
 11
655.2876895380937
 21
-59.10032892096296
 31
0.0
  0
LINE
  5
357F
330
2
100
AcDbEntity
  8
AM_VIS
100
AcDbLine
 10
655.4507487052532
 20
-58.83121145960803
 30
0.0
 11
655.3977195581571
 21
-58.61512314535346
 31
0.0
  0
LINE
  5
3580
330
2
100
AcDbEntity
  8
AM_VIS
100
AcDbLine
 10
655.4507487052532
 20
-58.83121145960803
 30
0.0
 11
655.1816312439009
 21
-58.66815229244846
 31
0.0
  0
LINE
  5
3581
330
2
100
AcDbEntity
  8
AM_VIS
100
AcDbLine
 10
655.7198661666067
 20
-58.99427062676995
 30
0.0
 11
655.2876895380937
 21
-59.100328920963
 31
0.0
  0
LINE
  5
3582
330
2
100
AcDbEntity
  8
AM_VIS
100
AcDbLine
 10
655.7198661666067
 20
-58.99427062676998
 30
0.0
 11
655.7825329593819
 21
-59.24963135482371
 31
0.0
  0
LINE
  5
3583
330
2
100
AcDbEntity
  8
AM_VIS
100
AcDbLine
 10
655.7198661666067
 20
-58.99427062676998
 30
0.0
 11
655.9752268946616
 21
-58.93160383399458
 31
0.0
  0
LINE
  5
3584
330
2
100
AcDbEntity
  8
AM_VIS
100
AcDbLine
 10
655.5511410796376
 20
-58.30673327019932
 30
0.0
 11
655.6138078724138
 21
-58.5620939982569
 31
0.0
  0
LINE
  5
3585
330
2
100
AcDbEntity
  8
AM_VIS
100
AcDbLine
 10
655.6138078724138
 20
-58.56209399825693
 30
0.0
 11
655.8691686004703
 21
-58.49942720548111
 31
0.0
  0
LINE
  5
3586
330
2
100
AcDbEntity
  8
AM_VIS
100
AcDbLine
 10
655.1189644511246
 20
-58.41279156439236
 30
0.0
 11
655.1816312439007
 21
-58.66815229244995
 31
0.0
  0
LINE
  5
3587
330
2
100
AcDbEntity
  8
AM_VIS
100
AcDbLine
 10
654.926270515844
 20
-58.73081908522585
 30
0.0
 11
655.1816312439007
 21
-58.66815229244997
 31
0.0
  0
LINE
  5
3588
330
2
100
AcDbEntity
  8
AM_VIS
100
AcDbLine
 10
655.2876895380937
 20
-59.10032892096302
 30
0.0
 11
655.3503563308688
 21
-59.35568964901682
 31
0.0
  0
LINE
  5
3589
330
2
100
AcDbEntity
  8
AM_VIS
100
AcDbLine
 10
655.0323288100389
 20
-59.16299571373841
 30
0.0
 11
655.2876895380937
 21
-59.10032892096302
 31
0.0
  0
CIRCLE
  5
358A
330
2
100
AcDbEntity
  8
AM_VIS
100
AcDbCircle
 10
655.4507487052532
 20
-58.83121145960803
 30
0.0
 40
1.600000000000022
  0
LINE
  5
358B
330
2
100
AcDbEntity
  8
AM_VIS
100
AcDbLine
 10
655.5511410796376
 20
-58.30673327019934
 30
0.0
 11
655.4658512788819
 21
-57.95918611400935
 31
0.0
  0
ELLIPSE
  5
358C
330
2
100
AcDbEntity
  8
AM_VIS
100
AcDbEllipse
 10
655.6051966500573
 20
-59.46057093190629
 30
0.0
 11
-2.286824568972775
 21
-0.5611981234118836
 31
0.0
210
0.0
220
0.0
230
0.9999999999999998
 40
0.6361945781365066
 41
4.61775505560246
 42
4.807022905166922
  0
LINE
  5
358D
330
2
100
AcDbEntity
  8
AM_VIS
100
AcDbLine
 10
655.3503563308688
 20
-59.35568964901682
 30
0.0
 11
655.4356461316245
 21
-59.70323680520675
 31
0.0
  0
ELLIPSE
  5
358E
330
2
100
AcDbEntity
  8
AM_VIS
100
AcDbEllipse
 10
655.2963007604492
 20
-58.20185198730976
 30
0.0
 11
2.286824568972775
 21
0.5611981234118865
 31
0.0
210
0.0
220
0.0
230
1.0
 40
0.6361945781365052
 41
4.617755055602465
 42
4.807022905166916
  0
LINE
  5
358F
330
2
100
AcDbEntity
  8
AM_VIS
100
AcDbLine
 10
654.6847816538481
 20
-59.24828551449428
 30
0.0
 11
655.0323288100389
 21
-59.16299571373838
 31
0.0
  0
ELLIPSE
  5
3590
330
2
100
AcDbEntity
  8
AM_VIS
100
AcDbEllipse
 10
654.8213892329549
 20
-58.9856594044121
 30
0.0
 11
-0.5611981234118825
 21
2.286824568972775
 31
0.0
210
0.0
220
0.0
230
1.0
 40
0.636194578136508
 41
4.617755055601615
 42
4.80702290516607
  0
LINE
  5
3591
330
2
100
AcDbEntity
  8
AM_VIS
100
AcDbLine
 10
654.926270515844
 20
-58.73081908522582
 30
0.0
 11
654.5787233596549
 21
-58.81610888598135
 31
0.0
  0
LINE
  5
3592
330
2
100
AcDbEntity
  8
AM_VIS
100
AcDbLine
 10
656.2167157566595
 20
-58.41413740472564
 30
0.0
 11
655.8691686004703
 21
-58.49942720548117
 31
0.0
  0
ELLIPSE
  5
3593
330
2
100
AcDbEntity
  8
AM_VIS
100
AcDbEllipse
 10
656.0801081775515
 20
-58.67676351480398
 30
0.0
 11
0.5611981234118872
 21
-2.286824568972773
 31
0.0
210
0.0
220
0.0
230
0.9999999999999998
 40
0.63619457813651
 41
4.617755055603312
 42
4.807022905167766
  0
LINE
  5
3594
330
2
100
AcDbEntity
  8
AM_VIS
100
AcDbLine
 10
655.9752268946615
 20
-58.93160383399458
 30
0.0
 11
656.3227740508523
 21
-58.84631403323869
 31
0.0
  0
LINE
  5
3595
330
2
100
AcDbEntity
  8
AM_VIS
100
AcDbLine
 10
655.0336746503688
 20
-58.06524440820237
 30
0.0
 11
655.1189644511246
 21
-58.41279156439236
 31
0.0
  0
LINE
  5
3596
330
2
100
AcDbEntity
  8
AM_VIS
100
AcDbLine
 10
655.8678227601376
 20
-59.59717851101373
 30
0.0
 11
655.7825329593819
 21
-59.2496313548238
 31
0.0
  0
ARC
  5
3597
330
2
100
AcDbEntity
  8
AM_VIS
100
AcDbCircle
 10
655.4507487052532
 20
-58.83121145960803
 30
0.0
 40
0.5339999999999919
100
AcDbArc
 50
308.4125063669301
 51
349.1638696623682
  0
ARC
  5
3598
330
2
100
AcDbEntity
  8
AM_VIS
100
AcDbCircle
 10
655.4507487052532
 20
-58.83121145960803
 30
0.0
 40
0.5339999999999919
100
AcDbArc
 50
38.41250636669747
 51
79.16386966260453
  0
ARC
  5
3599
330
2
100
AcDbEntity
  8
AM_VIS
100
AcDbCircle
 10
655.4507487052532
 20
-58.83121145960803
 30
0.0
 40
0.5339999999999919
100
AcDbArc
 50
128.4125063669305
 51
169.1638696628363
  0
ARC
  5
359A
330
2
100
AcDbEntity
  8
AM_VIS
100
AcDbCircle
 10
655.4507487052532
 20
-58.83121145960803
 30
0.0
 40
0.5339999999999919
100
AcDbArc
 50
218.412506367168
 51
259.1638696626047
  0
DIMENSION
  5
36E8
330
2
100
AcDbEntity
  8
AM_REFDIM
100
AcDbDimension
  2
*D14
 10
581.670403762555
 20
-4.067865016436599
 30
0.0
 11
596.9351389138214
 21
4.526506861163113
 31
0.0
 70
   163
  1
5-M3*0.5
 71
     5
 42
3.200000000000613
  3
AM_ISO$3
100
AcDbDiametricDimension
 15
583.888724597531
 25
-1.761557865791814
 35
0.0
 40
0.0
1001
ACAD
1000
DSTYLE
1002
{
1070
    40
1040
0.7
1070
   144
1040
1.0
1070
   271
1070
     1
1002
}
  0
DIMENSION
  5
392E
102
{ACAD_XDICTIONARY
360
393D
102
}
102
{ACAD_REACTORS
330
393E
102
}
330
2
100
AcDbEntity
  8
AM_REFDIM
100
AcDbDimension
  2
*D15
 10
588.4243550731564
 20
-49.93121145960802
 30
0.0
 11
586.6393550731564
 21
-42.77954479294126
 31
0.0
 70
    32
 71
     5
 42
1.400000000000005
  3
STANDARD$0
100
AcDbAlignedDimension
 13
586.1295641800433
 23
-51.33121145960803
 33
0.0
 14
586.1295641800433
 24
-49.93121145960802
 34
0.0
 50
90.0
100
AcDbRotatedDimension
  0
DIMENSION
  5
3A59
102
{ACAD_XDICTIONARY
360
3A68
102
}
102
{ACAD_REACTORS
330
3A69
102
}
330
2
100
AcDbEntity
  8
AM_REFDIM
100
AcDbDimension
  2
*D16
 10
586.2795641800434
 20
-120.6285859533153
 30
0.0
 11
582.7795641800434
 21
-118.8435859533153
 31
0.0
 70
    32
 71
     5
 42
7.0
  3
STANDARD$0
100
AcDbAlignedDimension
 13
579.2795641800434
 23
-110.0152289191202
 33
0.0
 14
586.2795641800434
 24
-110.0152289191202
 34
0.0
 50
0.0000000000001018
100
AcDbRotatedDimension
  0
DIMENSION
  5
3A75
102
{ACAD_XDICTIONARY
360
3A84
102
}
102
{ACAD_REACTORS
330
3A85
102
}
330
2
100
AcDbEntity
  8
AM_REFDIM
100
AcDbDimension
  2
*D17
 10
579.2795641800434
 20
-120.6285859533153
 30
0.0
 11
575.7795641800433
 21
-118.8435859533153
 31
0.0
 70
    32
 71
     5
 42
7.0
  3
STANDARD$0
100
AcDbAlignedDimension
 13
572.2795641800433
 23
-110.0152289191202
 33
0.0
 14
579.2795641800434
 24
-110.0152289191202
 34
0.0
100
AcDbRotatedDimension
  0
DIMENSION
  5
3B11
102
{ACAD_XDICTIONARY
360
3B1E
102
}
102
{ACAD_REACTORS
330
3B1F
102
}
330
2
100
AcDbEntity
  8
AM_REFDIM
100
AcDbDimension
  2
*D18
 10
639.6565911415708
 20
-64.93121145960802
 30
0.0
 11
637.8715911415708
 21
-51.18121145960793
 31
0.0
 70
    32
 71
     5
 42
27.49999999999997
  3
STANDARD$0
100
AcDbAlignedDimension
 13
647.2007487052532
 23
-37.43121145960805
 33
0.0
 14
646.7007487052533
 24
-64.93121145960802
 34
0.0
 50
90.0
100
AcDbRotatedDimension
  0
LINE
  5
3F3F
330
2
100
AcDbEntity
  8
AM_7
100
AcDbLine
 10
562.9641868077357
 20
-2.714711441113969
 30
0.0
 11
559.2370245853308
 21
-2.714711441113969
 31
0.0
  0
LINE
  5
3F40
330
2
100
AcDbEntity
  8
AM_7
100
AcDbLine
 10
560.9795641800434
 20
-4.470486371506012
 30
0.0
 11
560.9795641800434
 21
-0.8686258040762595
 31
0.0
  0
LINE
  5
3F46
330
2
100
AcDbEntity
  8
AM_7
100
AcDbLine
 10
556.3795641800433
 20
-57.53121145960799
 30
0.0
 11
563.3799944895572
 21
-57.53121145960799
 31
0.0
  0
LINE
  5
3F47
330
2
100
AcDbEntity
  8
AM_7
100
AcDbLine
 10
561.9795641800434
 20
-57.13121145960798
 30
0.0
 11
559.9795641800434
 21
-57.13121145960798
 31
0.0
  0
LINE
  5
3F48
330
2
100
AcDbEntity
  8
AM_7
100
AcDbLine
 10
560.9795641800434
 20
-58.13121145960798
 30
0.0
 11
560.9795641800434
 21
-56.13121145960798
 31
0.0
  0
LINE
  5
3F49
330
2
100
AcDbEntity
  8
AM_7
100
AcDbLine
 10
563.2795641800433
 20
-57.13121145960798
 30
0.0
 11
562.7795641800434
 21
-57.13121145960798
 31
0.0
  0
LINE
  5
3F4A
330
2
100
AcDbEntity
  8
AM_7
100
AcDbLine
 10
559.1795641800435
 20
-57.13121145960798
 30
0.0
 11
558.6795641800434
 21
-57.13121145960798
 31
0.0
  0
LINE
  5
3F4B
330
2
100
AcDbEntity
  8
AM_7
100
AcDbLine
 10
560.9795641800434
 20
-59.43121145960799
 30
0.0
 11
560.9795641800434
 21
-58.93121145960799
 31
0.0
  0
LINE
  5
3F4C
330
2
100
AcDbEntity
  8
AM_7
100
AcDbLine
 10
560.9795641800434
 20
-55.33121145960797
 30
0.0
 11
560.9795641800434
 21
-54.83121145960797
 31
0.0
  0
LINE
  5
3F4D
330
2
100
AcDbEntity
  8
AM_7
100
AcDbLine
 10
541.3795641800434
 20
-58.83121145960803
 30
0.0
 11
548.0795641800434
 21
-58.83121145960803
 31
0.0
  0
LINE
  5
3F4E
330
2
100
AcDbEntity
  8
AM_7
100
AcDbLine
 10
541.1795641800433
 20
-57.43121145960799
 30
0.0
 11
546.5795641800434
 21
-57.43121145960799
 31
0.0
  0
LINE
  5
3F4F
330
2
100
AcDbEntity
  8
AM_7
100
AcDbLine
 10
551.4795641800434
 20
-65.63121145960801
 30
0.0
 11
551.4795641800434
 21
-58.59898173368404
 31
0.0
  0
LINE
  5
3F50
330
2
100
AcDbEntity
  8
AM_7
100
AcDbLine
 10
541.1795641800433
 20
-107.1652289191201
 30
0.0
 11
546.5795641800434
 21
-107.1652289191201
 31
0.0
  0
LINE
  5
3F51
330
2
100
AcDbEntity
  8
AM_7
100
AcDbLine
 10
541.3795641800434
 20
-110.4152289191202
 30
0.0
 11
548.0795641800434
 21
-110.4152289191202
 31
0.0
  0
LINE
  5
3F52
330
2
100
AcDbEntity
  8
AM_7
100
AcDbLine
 10
541.3795641800434
 20
-103.9152289191201
 30
0.0
 11
548.0795641800434
 21
-103.9152289191201
 31
0.0
  0
LINE
  5
3F53
330
2
100
AcDbEntity
  8
AM_7
100
AcDbLine
 10
552.4795641800434
 20
-107.1652289191202
 30
0.0
 11
550.4795641800434
 21
-107.1652289191202
 31
0.0
  0
LINE
  5
3F54
330
2
100
AcDbEntity
  8
AM_7
100
AcDbLine
 10
551.4795641800434
 20
-108.1652289191202
 30
0.0
 11
551.4795641800434
 21
-106.1652289191202
 31
0.0
  0
LINE
  5
3F55
330
2
100
AcDbEntity
  8
AM_7
100
AcDbLine
 10
556.4795641800434
 20
-107.1652289191202
 30
0.0
 11
553.2795641800434
 21
-107.1652289191202
 31
0.0
  0
LINE
  5
3F56
330
2
100
AcDbEntity
  8
AM_7
100
AcDbLine
 10
549.6795641800434
 20
-107.1652289191202
 30
0.0
 11
546.4795641800434
 21
-107.1652289191202
 31
0.0
  0
LINE
  5
3F57
330
2
100
AcDbEntity
  8
AM_7
100
AcDbLine
 10
551.4795641800434
 20
-112.1652289191201
 30
0.0
 11
551.4795641800434
 21
-108.9652289191201
 31
0.0
  0
LINE
  5
3F58
330
2
100
AcDbEntity
  8
AM_7
100
AcDbLine
 10
551.4795641800434
 20
-105.3652289191201
 30
0.0
 11
551.4795641800434
 21
-102.1652289191202
 31
0.0
  0
LINE
  5
3F59
330
2
100
AcDbEntity
  8
AM_VIS
100
AcDbLine
 10
558.7079120924364
 20
-9.973447230320118
 30
0.0
 11
559.1795641800435
 21
-10.014711441114
 31
0.0
  0
LINE
  5
3F5A
330
2
100
AcDbEntity
  8
AM_VIS
100
AcDbLine
 10
559.1795641800435
 20
-10.014711441114
 30
0.0
 11
559.1795641800435
 21
-9.914711441113951
 31
0.0
  0
ARC
  5
3F5B
330
2
100
AcDbEntity
  8
AM_VIS
100
AcDbCircle
 10
558.7636917677949
 20
-9.33588262354138
 30
0.0
 40
0.6400000000000002
100
AcDbArc
 50
244.7452834390923
 51
265.0000000000002
  0
LINE
  5
3F5C
330
2
100
AcDbEntity
  8
AM_VIS
100
AcDbLine
 10
558.7079120924364
 20
0.1440243480921595
 30
0.0
 11
559.1795641800435
 21
0.1852885588860431
 31
0.0
  0
LINE
  5
3F5D
330
2
100
AcDbEntity
  8
AM_VIS
100
AcDbLine
 10
559.1795641800435
 20
0.0852885588860204
 30
0.0
 11
559.1795641800435
 21
0.1852885588860431
 31
0.0
  0
ARC
  5
3F5E
330
2
100
AcDbEntity
  8
AM_VIS
100
AcDbCircle
 10
558.7636917677949
 20
-0.4935402586866076
 30
0.0
 40
0.6400000000000002
100
AcDbArc
 50
94.99999999999982
 51
115.2547165609004
  0
LINE
  5
3F5F
330
2
100
AcDbEntity
  8
AM_VIS
100
AcDbLine
 10
567.4795641800434
 20
0.0852885588860204
 30
0.0
 11
557.9795641800434
 21
0.0852885588860204
 31
0.0
  0
LINE
  5
3F60
330
2
100
AcDbEntity
  8
AM_VIS
100
AcDbLine
 10
567.4795641800434
 20
-9.914711441113979
 30
0.0
 11
557.9795641800434
 21
-9.914711441113979
 31
0.0
  0
ARC
  5
3F61
330
2
100
AcDbEntity
  8
AM_VIS
100
AcDbCircle
 10
556.9796961300761
 20
-2.714711441113941
 30
0.0
 40
4.674968506161596
100
AcDbArc
 50
357.5480788316095
 51
2.451921168390518
  0
ARC
  5
3F62
330
2
100
AcDbEntity
  8
AM_VIS
100
AcDbCircle
 10
564.9794322300107
 20
-2.714711441113998
 30
0.0
 40
4.674968506161596
100
AcDbArc
 50
177.5480788316095
 51
182.4519211683905
  0
CIRCLE
  5
3F63
330
2
100
AcDbEntity
  8
AM_VIS
100
AcDbCircle
 10
560.9795641800434
 20
-2.714711441113969
 30
0.0
 40
0.7
  0
LINE
  5
3F64
102
{ACAD_REACTORS
330
448A
102
}
330
2
100
AcDbEntity
  8
AM_VIS
100
AcDbLine
 10
544.9795641800434
 20
-9.914711441114093
 30
0.0
 11
557.9795641800434
 21
-9.914711441114093
 31
0.0
  0
LINE
  5
3F65
102
{ACAD_REACTORS
330
448A
102
}
330
2
100
AcDbEntity
  8
AM_VIS
100
AcDbLine
 10
557.9795641800434
 20
0.0852885588859067
 30
0.0
 11
544.9795641800434
 21
0.0852885588859067
 31
0.0
  0
LINE
  5
3F66
330
2
100
AcDbEntity
  8
AM_VIS
100
AcDbLine
 10
557.9795641800434
 20
-9.914711441114093
 30
0.0
 11
557.9795641800434
 21
0.0852885588859067
 31
0.0
  0
LINE
  5
3F67
330
2
100
AcDbEntity
  8
AM_VIS
100
AcDbLine
 10
544.9795641800434
 20
-9.914711441114093
 30
0.0
 11
544.9795641800434
 21
0.0852885588859067
 31
0.0
  0
LINE
  5
3F68
330
2
100
AcDbEntity
  8
AM_VIS
100
AcDbLine
 10
539.9795641800434
 20
-8.914711441114064
 30
0.0
 11
541.4795641800434
 21
-9.914711441114064
 31
0.0
  0
LINE
  5
3F69
330
2
100
AcDbEntity
  8
AM_VIS
100
AcDbLine
 10
539.9795641800434
 20
-1.164711441114093
 30
0.0
 11
536.4795641800434
 21
-1.164711441114093
 31
0.0
  0
LINE
  5
3F6A
330
2
100
AcDbEntity
  8
AM_VIS
100
AcDbLine
 10
536.4795641800434
 20
-1.164711441114093
 30
0.0
 11
535.4795641800434
 21
-1.764711441114116
 31
0.0
  0
LINE
  5
3F6B
102
{ACAD_REACTORS
330
42BA
102
}
330
2
100
AcDbEntity
  8
AM_VIS
100
AcDbLine
 10
535.4795641800434
 20
-1.914711441114093
 30
0.0
 11
535.4795641800434
 21
-1.764711441114087
 31
0.0
  0
LINE
  5
3F6C
330
2
100
AcDbEntity
  8
AM_VIS
100
AcDbLine
 10
535.4795641800434
 20
-1.914711441114093
 30
0.0
 11
535.4795641800434
 21
-2.814711441114098
 31
0.0
  0
LINE
  5
3F6D
330
2
100
AcDbEntity
  8
AM_VIS
100
AcDbLine
 10
539.9795641800434
 20
-1.914711441114093
 30
0.0
 11
535.4795641800434
 21
-1.914711441114093
 31
0.0
  0
LINE
  5
3F6E
330
2
100
AcDbEntity
  8
AM_VIS
100
AcDbLine
 10
535.4795641800434
 20
-2.81471144111407
 30
0.0
 11
539.9795641800434
 21
-2.81471144111407
 31
0.0
  0
LINE
  5
3F6F
330
2
100
AcDbEntity
  8
AM_VIS
100
AcDbLine
 10
535.4795641800434
 20
-7.014711441114059
 30
0.0
 11
535.4795641800434
 21
-2.81471144111407
 31
0.0
  0
LINE
  5
3F70
330
2
100
AcDbEntity
  8
AM_VIS
100
AcDbLine
 10
535.4795641800434
 20
-8.06471144111407
 30
0.0
 11
535.4795641800434
 21
-7.914711441114064
 31
0.0
  0
LINE
  5
3F71
330
2
100
AcDbEntity
  8
AM_VIS
100
AcDbLine
 10
535.4795641800434
 20
-8.06471144111407
 30
0.0
 11
536.4795641800434
 21
-8.664711441114064
 31
0.0
  0
LINE
  5
3F72
330
2
100
AcDbEntity
  8
AM_VIS
100
AcDbLine
 10
539.9795641800434
 20
-8.664711441114064
 30
0.0
 11
536.4795641800434
 21
-8.664711441114064
 31
0.0
  0
LINE
  5
3F73
330
2
100
AcDbEntity
  8
AM_VIS
100
AcDbLine
 10
535.4795641800434
 20
-7.014711441114087
 30
0.0
 11
535.4795641800434
 21
-7.914711441114093
 31
0.0
  0
LINE
  5
3F74
330
2
100
AcDbEntity
  8
AM_VIS
100
AcDbLine
 10
539.9795641800434
 20
-7.014711441114059
 30
0.0
 11
535.4795641800434
 21
-7.014711441114059
 31
0.0
  0
LINE
  5
3F75
330
2
100
AcDbEntity
  8
AM_VIS
100
AcDbLine
 10
535.4795641800434
 20
-7.914711441114064
 30
0.0
 11
539.9795641800434
 21
-7.914711441114064
 31
0.0
  0
LINE
  5
3F76
330
2
100
AcDbEntity
  8
AM_VIS
100
AcDbLine
 10
536.9795641800434
 20
-4.414711441114064
 30
0.0
 11
538.1795641800433
 21
-4.414711441114064
 31
0.0
  0
LINE
  5
3F77
330
2
100
AcDbEntity
  8
AM_VIS
100
AcDbLine
 10
536.9795641800434
 20
-4.414711441114064
 30
0.0
 11
536.9795641800434
 21
-5.414711441114064
 31
0.0
  0
LINE
  5
3F78
330
2
100
AcDbEntity
  8
AM_VIS
100
AcDbLine
 10
538.1795641800433
 20
-5.414711441114064
 30
0.0
 11
536.9795641800434
 21
-5.414711441114064
 31
0.0
  0
LINE
  5
3F79
330
2
100
AcDbEntity
  8
AM_VIS
100
AcDbLine
 10
538.1795641800433
 20
-4.414711441114064
 30
0.0
 11
538.1795641800433
 21
-5.414711441114064
 31
0.0
  0
LINE
  5
3F7A
330
2
100
AcDbEntity
  8
AM_VIS
100
AcDbLine
 10
539.9795641800434
 20
-8.914711441114064
 30
0.0
 11
539.9795641800434
 21
-6.914711441114064
 31
0.0
  0
LINE
  5
3F7B
330
2
100
AcDbEntity
  8
AM_VIS
100
AcDbLine
 10
541.4795641800434
 20
0.0852885588859067
 30
0.0
 11
539.9795641800434
 21
-0.9147114411140933
 31
0.0
  0
LINE
  5
3F7C
330
2
100
AcDbEntity
  8
AM_VIS
100
AcDbLine
 10
539.9795641800434
 20
-2.914711441114093
 30
0.0
 11
539.9795641800434
 21
-0.9147114411140933
 31
0.0
  0
LINE
  5
3F7D
330
2
100
AcDbEntity
  8
AM_VIS
100
AcDbLine
 10
541.4795641800434
 20
-6.914711441114064
 30
0.0
 11
541.4795641800434
 21
-9.914711441114064
 31
0.0
  0
LINE
  5
3F7E
330
2
100
AcDbEntity
  8
AM_VIS
100
AcDbLine
 10
544.9795641800434
 20
-9.914711441114064
 30
0.0
 11
541.4795641800434
 21
-9.914711441114064
 31
0.0
  0
LINE
  5
3F7F
330
2
100
AcDbEntity
  8
AM_VIS
100
AcDbLine
 10
544.9795641800434
 20
0.0852885588859067
 30
0.0
 11
544.9795641800434
 21
-9.914711441114093
 31
0.0
  0
LINE
  5
3F80
330
2
100
AcDbEntity
  8
AM_VIS
100
AcDbLine
 10
544.9795641800434
 20
0.0852885588859067
 30
0.0
 11
541.4795641800434
 21
0.0852885588859067
 31
0.0
  0
LINE
  5
3F81
330
2
100
AcDbEntity
  8
AM_VIS
100
AcDbLine
 10
541.4795641800434
 20
0.0852885588859067
 30
0.0
 11
541.4795641800434
 21
-2.914711441114093
 31
0.0
  0
LINE
  5
3F82
330
2
100
AcDbEntity
  8
AM_VIS
100
AcDbLine
 10
539.9795641800434
 20
-6.914711441114064
 30
0.0
 11
541.4795641800434
 21
-6.914711441114064
 31
0.0
  0
LINE
  5
3F83
330
2
100
AcDbEntity
  8
AM_VIS
100
AcDbLine
 10
541.4795641800434
 20
-6.914711441114064
 30
0.0
 11
542.2795641800433
 21
-6.914711441114064
 31
0.0
  0
LINE
  5
3F84
330
2
100
AcDbEntity
  8
AM_VIS
100
AcDbLine
 10
542.2795641800433
 20
-2.914711441114093
 30
0.0
 11
541.4795641800434
 21
-2.914711441114093
 31
0.0
  0
LINE
  5
3F85
330
2
100
AcDbEntity
  8
AM_VIS
100
AcDbLine
 10
541.4795641800434
 20
-2.914711441114093
 30
0.0
 11
539.9795641800434
 21
-2.914711441114093
 31
0.0
  0
LINE
  5
3F86
330
2
100
AcDbEntity
  8
AM_VIS
100
AcDbLine
 10
542.2795641800433
 20
-6.914711441114064
 30
0.0
 11
542.2795641800433
 21
-2.914711441114064
 31
0.0
  0
LINE
  5
3F87
330
2
100
AcDbEntity
  8
AM_VIS
100
AcDbLine
 10
541.5624068925179
 20
-6.914711441114064
 30
0.0
 11
541.5624068925179
 21
-2.914711441114064
 31
0.0
  0
LINE
  5
3F88
330
2
100
AcDbEntity
  8
AM_VIS
100
AcDbLine
 10
539.9795641800434
 20
-2.914711441114093
 30
0.0
 11
539.9795641800434
 21
-6.914711441114093
 31
0.0
  0
LINE
  5
3F89
330
2
100
AcDbEntity
  8
AM_VIS
100
AcDbLine
 10
559.1795641800435
 20
-51.37443502332477
 30
0.0
 11
559.1795641800435
 21
-52.48798789589102
 31
0.0
  0
LINE
  5
3F8A
330
2
100
AcDbEntity
  8
AM_VIS
100
AcDbLine
 10
557.9795641800434
 20
-52.0862114596079
 30
0.0
 11
558.0323998422027
 21
-52.0862114596079
 31
0.0
  0
ELLIPSE
  5
3F8B
330
2
100
AcDbEntity
  8
AM_VIS
100
AcDbEllipse
 10
559.7971552250912
 20
-51.93121145960787
 30
0.0
 11
0.000000000000001
 21
2.335538904304221
 31
0.0
210
0.0
220
0.0
230
1.0
 40
0.7572790292165315
 41
1.504381673290256
 42
1.637210980299539
  0
LINE
  5
3F8C
330
2
100
AcDbEntity
  8
AM_VIS
100
AcDbLine
 10
558.0323998422028
 20
-51.77621145960785
 30
0.0
 11
557.9795641800434
 21
-51.77621145960785
 31
0.0
  0
ARC
  5
3F8D
330
2
100
AcDbEntity
  8
AM_VIS
100
AcDbCircle
 10
560.3795641800433
 20
-51.93121145960787
 30
0.0
 40
2.495190373498459
100
AcDbArc
 50
195.8771570247272
 51
199.8346987586579
  0
LINE
  5
3F8E
330
2
100
AcDbEntity
  8
AM_VIS
100
AcDbLine
 10
558.0323998422021
 20
-51.08457424617722
 30
0.0
 11
558.0285005909416
 21
-51.08121145960786
 31
0.0
  0
LINE
  5
3F8F
330
2
100
AcDbEntity
  8
AM_VIS
100
AcDbLine
 10
558.0285005909416
 20
-52.7812114596079
 30
0.0
 11
558.0323998422021
 21
-52.77784867303854
 31
0.0
  0
ARC
  5
3F90
330
2
100
AcDbEntity
  8
AM_VIS
100
AcDbCircle
 10
560.3795641800433
 20
-51.93121145960787
 30
0.0
 40
2.495190373498459
100
AcDbArc
 50
160.165301241342
 51
164.1228429752727
  0
ARC
  5
3F91
330
2
100
AcDbEntity
  8
AM_VIS
100
AcDbCircle
 10
558.7636917677949
 20
-52.85238264203531
 30
0.0
 40
0.6400000000000002
100
AcDbArc
 50
209.686456186922
 51
244.7452834391002
  0
ARC
  5
3F92
330
2
100
AcDbEntity
  8
AM_VIS
100
AcDbCircle
 10
558.7636917677949
 20
-51.01004027718051
 30
0.0
 40
0.6400000000000002
100
AcDbArc
 50
115.2547165609077
 51
150.3135438130732
  0
ARC
  5
3F93
330
2
100
AcDbEntity
  8
AM_VIS
100
AcDbCircle
 10
560.3795641800433
 20
-51.93121145960787
 30
0.0
 40
2.5
100
AcDbArc
 50
199.8768740700792
 51
209.6864561869207
  0
ARC
  5
3F94
330
2
100
AcDbEntity
  8
AM_VIS
100
AcDbCircle
 10
560.3795641800433
 20
-51.93121145960787
 30
0.0
 40
2.5
100
AcDbArc
 50
150.3135438130793
 51
160.1231259299208
  0
LINE
  5
3F95
330
2
100
AcDbEntity
  8
AM_VIS
100
AcDbLine
 10
567.4795641800434
 20
-49.93121145960799
 30
0.0
 11
557.9795641800434
 21
-49.93121145960799
 31
0.0
  0
LINE
  5
3F96
330
2
100
AcDbEntity
  8
AM_VIS
100
AcDbLine
 10
559.1795641800435
 20
-53.43121145960793
 30
0.0
 11
557.9795641800434
 21
-53.43121145960793
 31
0.0
  0
LINE
  5
3F97
330
2
100
AcDbEntity
  8
AM_VIS
100
AcDbLine
 10
559.1795641800435
 20
-50.43121145960793
 30
0.0
 11
559.1795641800435
 21
-51.37443502332479
 31
0.0
  0
LINE
  5
3F98
330
2
100
AcDbEntity
  8
AM_VIS
100
AcDbLine
 10
559.1795641800435
 20
-52.48798789589102
 30
0.0
 11
559.1795641800435
 21
-53.43121145960793
 31
0.0
  0
LINE
  5
3F99
330
2
100
AcDbEntity
  8
AM_VIS
100
AcDbLine
 10
557.9795641800434
 20
-50.43121145960793
 30
0.0
 11
559.1795641800435
 21
-50.43121145960793
 31
0.0
  0
LINE
  5
3F9A
330
2
100
AcDbEntity
  8
AM_VIS
100
AcDbLine
 10
567.4795641800434
 20
-64.93121145960799
 30
0.0
 11
557.9795641800434
 21
-64.93121145960799
 31
0.0
  0
LINE
  5
3F9B
330
2
100
AcDbEntity
  8
AM_VIS
100
AcDbLine
 10
566.9795641800434
 20
-56.43121145960799
 30
0.0
 11
566.9795641800434
 21
-58.43121145960799
 31
0.0
  0
LINE
  5
3F9C
330
2
100
AcDbEntity
  8
AM_VIS
100
AcDbLine
 10
566.9795641800434
 20
-58.43121145960799
 30
0.0
 11
567.4795641800434
 21
-58.43121145960799
 31
0.0
  0
LINE
  5
3F9D
330
2
100
AcDbEntity
  8
AM_VIS
100
AcDbLine
 10
567.4795641800434
 20
-56.43121145960799
 30
0.0
 11
566.9795641800434
 21
-56.43121145960799
 31
0.0
  0
ARC
  5
3F9E
330
2
100
AcDbEntity
  8
AM_VIS
100
AcDbCircle
 10
560.6530102698898
 20
-57.7996122400871
 30
0.0
 40
0.9204007112094597
100
AcDbArc
 50
15.63809686999827
 51
26.09877024324428
  0
SPLINE
  5
3F9F
330
2
100
AcDbEntity
  8
AM_VIS
100
AcDbSpline
210
0.0
220
0.0
230
1.0
 70
     8
 71
     3
 72
    38
 73
    34
 74
     0
 42
0.0000000001
 43
0.0000000001
 40
0.0096105424429285
 40
0.0096105424429285
 40
0.0096105424429285
 40
0.0096105424429285
 40
0.2511760059468008
 40
0.2511760059468008
 40
0.3661489296361611
 40
0.3661489296361611
 40
0.4503270969622498
 40
0.4503270969622498
 40
0.5340078174843953
 40
0.5340078174843953
 40
0.6478119174360324
 40
0.6478119174360324
 40
0.803204793355861
 40
0.803204793355861
 40
1.030112956685476
 40
1.030112956685476
 40
1.139750424396189
 40
1.139750424396189
 40
1.231613346946539
 40
1.231613346946539
 40
1.383927807882236
 40
1.383927807882236
 40
1.903215338580305
 40
1.903215338580305
 40
2.725560479358289
 40
2.725560479358289
 40
3.333619977246191
 40
3.333619977246191
 40
3.793936947558544
 40
3.793936947558544
 40
4.267761469383683
 40
4.267761469383683
 40
4.698806880710381
 40
4.698806880710381
 40
4.698806880710381
 40
4.698806880710381
 10
560.2867438570159
 20
-57.231211459608
 30
0.0
 10
560.3467052984753
 20
-57.27387399601162
 30
0.0
 10
560.4017288966054
 20
-57.32200308595702
 30
0.0
 10
560.4856240949202
 20
-57.40024765905443
 30
0.0
 10
560.5124622490031
 20
-57.42592816891067
 30
0.0
 10
560.5599740602725
 20
-57.47072945063826
 30
0.0
 10
560.5801557784657
 20
-57.48955808556448
 30
0.0
 10
560.6211806520852
 20
-57.52674228061398
 30
0.0
 10
560.6418412707268
 20
-57.54493894615712
 30
0.0
 10
560.6916148801487
 20
-57.58693728268525
 30
0.0
 10
560.7208594265983
 20
-57.61020625421202
 30
0.0
 10
560.7918119090762
 20
-57.66222180218924
 30
0.0
 10
560.829761649977
 20
-57.68664329088443
 30
0.0
 10
560.9113108188608
 20
-57.73131650555384
 30
0.0
 10
560.9379662163362
 20
-57.73811470696244
 30
0.0
 10
560.9599881989338
 20
-57.74231122648956
 30
0.0
 10
560.9671869099127
 20
-57.74317945434038
 30
0.0
 10
560.9806654260075
 20
-57.74368478090394
 30
0.0
 10
560.986743414764
 20
-57.74349316942488
 30
0.0
 10
561.0029924504566
 20
-57.74190314962464
 30
0.0
 10
561.0128830613006
 20
-57.73982011467859
 30
0.0
 10
561.05554194159
 20
-57.72753232757572
 30
0.0
 10
561.0899088242656
 20
-57.70864872586057
 30
0.0
 10
561.1423929602876
 20
-57.67834389512819
 30
0.0
 10
561.1785734588262
 20
-57.65439258917481
 30
0.0
 10
561.2461297022633
 20
-57.60403197370925
 30
0.0
 10
561.2741300285171
 20
-57.58150671663324
 30
0.0
 10
561.3224530222908
 20
-57.54043517504229
 30
0.0
 10
561.342854410682
 20
-57.52236342689531
 30
0.0
 10
561.3838536965578
 20
-57.48504518909385
 30
0.0
 10
561.4042524571192
 20
-57.4659500854363
 30
0.0
 10
561.4430380603777
 20
-57.42931548195134
 30
0.0
 10
561.461289233611
 20
-57.41193615282282
 30
0.0
 10
561.4795641800434
 20
-57.39470965574773
 30
0.0
  0
LINE
  5
3FA0
330
2
100
AcDbEntity
  8
AM_VIS
100
AcDbLine
 10
557.9795641800434
 20
-49.93121145960794
 30
0.0
 11
557.9795641800434
 21
-50.43121145960793
 31
0.0
  0
LINE
  5
3FA1
330
2
100
AcDbEntity
  8
AM_VIS
100
AcDbLine
 10
557.9795641800434
 20
-61.43121145960799
 30
0.0
 11
557.9795641800434
 21
-49.93121145960799
 31
0.0
  0
LINE
  5
3FA2
330
2
100
AcDbEntity
  8
AM_VIS
100
AcDbLine
 10
561.4795641800434
 20
-57.39470965574773
 30
0.0
 11
561.4795641800434
 21
-57.62110940816464
 31
0.0
  0
CIRCLE
  5
3FA3
330
2
100
AcDbEntity
  8
AM_VIS
100
AcDbCircle
 10
560.9795641800434
 20
-57.13121145960801
 30
0.0
 40
0.7
  0
LINE
  5
3FA4
330
2
100
AcDbEntity
  8
AM_VIS
100
AcDbLine
 10
542.9795641800434
 20
-56.63121145960804
 30
0.0
 11
542.9795641800434
 21
-57.1312408716272
 31
0.0
  0
LINE
  5
3FA5
330
2
100
AcDbEntity
  8
AM_VIS
100
AcDbLine
 10
555.3795641800434
 20
-62.93121145960802
 30
0.0
 11
547.6795641800435
 21
-62.93121145960802
 31
0.0
  0
LINE
  5
3FA6
330
2
100
AcDbEntity
  8
AM_VIS
100
AcDbLine
 10
555.3795641800434
 20
-64.03121145960802
 30
0.0
 11
555.3795641800434
 21
-62.93121145960802
 31
0.0
  0
LINE
  5
3FA7
330
2
100
AcDbEntity
  8
AM_VIS
100
AcDbLine
 10
547.6795641800435
 20
-64.03121145960802
 30
0.0
 11
555.3795641800434
 21
-64.03121145960802
 31
0.0
  0
LINE
  5
3FA8
330
2
100
AcDbEntity
  8
AM_VIS
100
AcDbLine
 10
547.6795641800435
 20
-62.93121145960805
 30
0.0
 11
547.6795641800435
 21
-64.03121145960804
 31
0.0
  0
LINE
  5
3FA9
330
2
100
AcDbEntity
  8
AM_VIS
100
AcDbLine
 10
544.9795641800434
 20
-64.93121145960805
 30
0.0
 11
544.9795641800434
 21
-60.65121145960805
 31
0.0
  0
LINE
  5
3FAA
102
{ACAD_REACTORS
330
4043
102
}
330
2
100
AcDbEntity
  8
AM_VIS
100
AcDbLine
 10
557.9795641800434
 20
-64.93121145960799
 30
0.0
 11
544.9795641800434
 21
-64.93121145960802
 31
0.0
  0
LINE
  5
3FAB
330
2
100
AcDbEntity
  8
AM_VIS
100
AcDbLine
 10
557.9795641800434
 20
-57.13121145960801
 30
0.0
 11
557.9795641800434
 21
-64.93121145960799
 31
0.0
  0
LINE
  5
3FAC
330
2
100
AcDbEntity
  8
AM_VIS
100
AcDbLine
 10
546.4795641800434
 20
-57.13121145960804
 30
0.0
 11
557.9795641800434
 21
-57.13121145960804
 31
0.0
  0
LINE
  5
3FAD
330
2
100
AcDbEntity
  8
AM_VIS
100
AcDbLine
 10
546.4795641800434
 20
-60.65121145960802
 30
0.0
 11
546.4795641800434
 21
-57.13121145960804
 31
0.0
  0
LINE
  5
3FAE
330
2
100
AcDbEntity
  8
AM_VIS
100
AcDbLine
 10
544.9795641800434
 20
-57.13124087162717
 30
0.0
 11
542.9795641800434
 21
-57.13124087162717
 31
0.0
  0
LINE
  5
3FAF
330
2
100
AcDbEntity
  8
AM_VIS
100
AcDbLine
 10
544.9784576437281
 20
-59.8708216434529
 30
0.0
 11
542.9781837599042
 21
-59.4181751384277
 31
0.0
  0
LINE
  5
3FB0
330
2
100
AcDbEntity
  8
AM_VIS
100
AcDbLine
 10
544.9795641800434
 20
-60.65121145960802
 30
0.0
 11
546.4795641800434
 21
-60.65121145960802
 31
0.0
  0
LINE
  5
3FB1
330
2
100
AcDbEntity
  8
AM_VIS
100
AcDbLine
 10
542.7795641800433
 20
-57.73121145960804
 30
0.0
 11
542.9795641800434
 21
-57.73121145960804
 31
0.0
  0
LINE
  5
3FB2
330
2
100
AcDbEntity
  8
AM_VIS
100
AcDbLine
 10
542.9795641800434
 20
-57.13121145960804
 30
0.0
 11
542.7795641800433
 21
-57.13121145960804
 31
0.0
  0
LINE
  5
3FB3
330
2
100
AcDbEntity
  8
AM_VIS
100
AcDbLine
 10
548.0795641800434
 20
-64.03121145960802
 30
0.0
 11
548.0795641800434
 21
-62.93121145960805
 31
0.0
  0
LINE
  5
3FB4
330
2
100
AcDbEntity
  8
AM_VIS
100
AcDbLine
 10
554.8795641800434
 20
-64.03121145960802
 30
0.0
 11
554.8795641800434
 21
-62.93121145960802
 31
0.0
  0
LINE
  5
3FB5
330
2
100
AcDbEntity
  8
AM_VIS
100
AcDbLine
 10
542.9795641800434
 20
-59.93121145960802
 30
0.0
 11
544.9795641800434
 21
-60.43121145960802
 31
0.0
  0
LINE
  5
3FB6
330
2
100
AcDbEntity
  8
AM_VIS
100
AcDbLine
 10
542.9795641800434
 20
-58.93121145960802
 30
0.0
 11
542.7795641800433
 21
-58.93121145960802
 31
0.0
  0
LINE
  5
3FB7
330
2
100
AcDbEntity
  8
AM_VIS
100
AcDbLine
 10
542.9795641800434
 20
-55.93121145960802
 30
0.0
 11
542.7795641800433
 21
-55.93121145960802
 31
0.0
  0
LINE
  5
3FB8
330
2
100
AcDbEntity
  8
AM_VIS
100
AcDbLine
 10
542.9795641800434
 20
-59.41207497345885
 30
0.0
 11
542.9795641800434
 21
-59.93121145960805
 31
0.0
  0
LINE
  5
3FB9
330
2
100
AcDbEntity
  8
AM_VIS
100
AcDbLine
 10
544.9795641800434
 20
-57.13121145960804
 30
0.0
 11
544.9795641800434
 21
-57.1312408716272
 31
0.0
  0
LINE
  5
3FBA
330
2
100
AcDbEntity
  8
AM_VIS
100
AcDbLine
 10
542.9795641800434
 20
-57.13124087162717
 30
0.0
 11
542.9795641800434
 21
-59.41207497345885
 31
0.0
  0
LINE
  5
3FBB
330
2
100
AcDbEntity
  8
AM_VIS
100
AcDbLine
 10
544.9795641800434
 20
-59.86593178863589
 30
0.0
 11
544.9795641800434
 21
-60.65121145960802
 31
0.0
  0
LINE
  5
3FBC
330
2
100
AcDbEntity
  8
AM_VIS
100
AcDbLine
 10
542.7795641800433
 20
-55.93121145960802
 30
0.0
 11
542.7795641800433
 21
-57.13121145960804
 31
0.0
  0
LINE
  5
3FBD
330
2
100
AcDbEntity
  8
AM_VIS
100
AcDbLine
 10
542.7795641800433
 20
-57.73121145960804
 30
0.0
 11
542.7795641800433
 21
-58.93121145960802
 31
0.0
  0
LINE
  5
3FBE
330
2
100
AcDbEntity
  8
AM_VIS
100
AcDbLine
 10
544.9795641800434
 20
-37.43121145960802
 30
0.0
 11
557.9795641800434
 21
-37.43121145960802
 31
0.0
  0
LINE
  5
3FBF
330
2
100
AcDbEntity
  8
AM_VIS
100
AcDbLine
 10
557.9795641800434
 20
-57.13121145960798
 30
0.0
 11
557.9795641800434
 21
-37.43121145960799
 31
0.0
  0
LINE
  5
3FC0
330
2
100
AcDbEntity
  8
AM_VIS
100
AcDbLine
 10
542.9795641800434
 20
-56.63121145960804
 30
0.0
 11
542.9795641800434
 21
-54.43121145960805
 31
0.0
  0
LINE
  5
3FC1
330
2
100
AcDbEntity
  8
AM_VIS
100
AcDbLine
 10
544.9795641800434
 20
-54.43121145960802
 30
0.0
 11
544.9795641800434
 21
-37.43121145960802
 31
0.0
  0
LINE
  5
3FC2
330
2
100
AcDbEntity
  8
AM_VIS
100
AcDbLine
 10
542.9795641800434
 20
-54.43121145960802
 30
0.0
 11
544.9795641800434
 21
-54.43121145960802
 31
0.0
  0
LINE
  5
3FC3
330
2
100
AcDbEntity
  8
AM_VIS
100
AcDbLine
 10
544.4795641800434
 20
-57.13121145960801
 30
0.0
 11
557.9795641800434
 21
-57.13121145960801
 31
0.0
  0
LINE
  5
3FC4
330
2
100
AcDbEntity
  8
AM_VIS
100
AcDbLine
 10
542.9795641800434
 20
-56.63121145960801
 30
0.0
 11
544.4795641800434
 21
-57.13121145960801
 31
0.0
  0
LINE
  5
3FC5
330
2
100
AcDbEntity
  8
AM_VIS
100
AcDbLine
 10
544.9795641800434
 20
-54.43121145960802
 30
0.0
 11
541.4795641800434
 21
-54.43121145960802
 31
0.0
  0
LINE
  5
3FC6
330
2
100
AcDbEntity
  8
AM_VIS
100
AcDbLine
 10
544.9795641800434
 20
-37.43121145960802
 30
0.0
 11
544.9795641800434
 21
-54.43121145960802
 31
0.0
  0
LINE
  5
3FC7
330
2
100
AcDbEntity
  8
AM_VIS
100
AcDbLine
 10
541.4795641800434
 20
-54.43121145960805
 30
0.0
 11
539.9795641800434
 21
-52.93121145960805
 31
0.0
  0
LINE
  5
3FC8
330
2
100
AcDbEntity
  8
AM_VIS
100
AcDbLine
 10
541.4795641800434
 20
-37.43121145960805
 30
0.0
 11
541.4795641800434
 21
-54.43121145960805
 31
0.0
  0
LINE
  5
3FC9
330
2
100
AcDbEntity
  8
AM_VIS
100
AcDbLine
 10
539.9795641800434
 20
-38.93121145960802
 30
0.0
 11
541.4795641800434
 21
-37.43121145960802
 31
0.0
  0
LINE
  5
3FCA
330
2
100
AcDbEntity
  8
AM_VIS
100
AcDbLine
 10
536.4795641800434
 20
-41.43121145960805
 30
0.0
 11
536.4795641800434
 21
-46.83121145960803
 31
0.0
  0
LINE
  5
3FCB
330
2
100
AcDbEntity
  8
AM_VIS
100
AcDbLine
 10
535.4795641800434
 20
-46.53121145960802
 30
0.0
 11
535.4795641800434
 21
-41.43121145960802
 31
0.0
  0
LINE
  5
3FCC
330
2
100
AcDbEntity
  8
AM_VIS
100
AcDbLine
 10
539.9795641800434
 20
-46.83121145960803
 30
0.0
 11
536.4795641800434
 21
-46.83121145960803
 31
0.0
  0
LINE
  5
3FCD
102
{ACAD_REACTORS
330
441E
102
}
330
2
100
AcDbEntity
  8
AM_VIS
100
AcDbLine
 10
535.4795641800434
 20
-46.53121145960802
 30
0.0
 11
536.4795641800434
 21
-46.83121145960803
 31
0.0
  0
LINE
  5
3FCE
330
2
100
AcDbEntity
  8
AM_VIS
100
AcDbLine
 10
535.4795641800434
 20
-41.43121145960805
 30
0.0
 11
536.4795641800434
 21
-41.43121145960805
 31
0.0
  0
LINE
  5
3FCF
330
2
100
AcDbEntity
  8
AM_VIS
100
AcDbLine
 10
539.9795641800434
 20
-41.43121145960805
 30
0.0
 11
536.4795641800434
 21
-41.43121145960805
 31
0.0
  0
LINE
  5
3FD0
330
2
100
AcDbEntity
  8
AM_VIS
100
AcDbLine
 10
535.4795641800434
 20
-41.43121145960805
 30
0.0
 11
535.4795641800434
 21
-39.93121145960805
 31
0.0
  0
LINE
  5
3FD1
330
2
100
AcDbEntity
  8
AM_VIS
100
AcDbLine
 10
535.4795641800434
 20
-39.93121145960805
 30
0.0
 11
539.9795641800434
 21
-39.93121145960805
 31
0.0
  0
LINE
  5
3FD2
330
2
100
AcDbEntity
  8
AM_VIS
100
AcDbLine
 10
539.9795641800434
 20
-52.93121145960805
 30
0.0
 11
539.9795641800434
 21
-38.93121145960805
 31
0.0
  0
LINE
  5
3FD3
330
2
100
AcDbEntity
  8
AM_VIS
100
AcDbLine
 10
544.9795641800434
 20
-37.43121145960802
 30
0.0
 11
541.4795641800434
 21
-37.43121145960802
 31
0.0
  0
LINE
  5
3FD4
330
2
100
AcDbEntity
  8
AM_VIS
100
AcDbLine
 10
545.3299182201694
 20
-58.94325528364396
 30
0.0
 11
545.237263398288
 21
-58.9315861294609
 31
0.0
  0
LINE
  5
3FD5
330
2
100
AcDbEntity
  8
AM_VIS
100
AcDbLine
 10
545.2587823516551
 20
-58.31769410786432
 30
0.0
 11
545.2372626814669
 21
-58.30673030063838
 31
0.0
  0
LINE
  5
3FD6
330
2
100
AcDbEntity
  8
AM_VIS
100
AcDbLine
 10
545.3309183302089
 20
-59.15121743416768
 30
0.0
 11
545.2372634486673
 21
-59.16301381632954
 31
0.0
  0
LINE
  5
3FD7
330
2
100
AcDbEntity
  8
AM_VIS
100
AcDbLine
 10
546.0079120924365
 20
-57.27247567040191
 30
0.0
 11
546.4795641800434
 21
-57.231211459608
 31
0.0
  0
LINE
  5
3FD8
330
2
100
AcDbEntity
  8
AM_VIS
100
AcDbLine
 10
546.0079120924365
 20
-60.38994724881416
 30
0.0
 11
546.4795641800434
 21
-60.43121145960808
 31
0.0
  0
ELLIPSE
  5
3FD9
330
2
100
AcDbEntity
  8
AM_VIS
100
AcDbEllipse
 10
547.6795641800435
 20
-58.77818231251154
 30
0.0
 11
-2.490079065009783
 21
-0.0000000000000017
 31
0.0
210
0.0
220
0.0
230
-1.0
 40
0.9711834348606755
 41
0.1962051514771466
 42
0.3428970250348993
  0
ELLIPSE
  5
3FDA
330
2
100
AcDbEntity
  8
AM_VIS
100
AcDbEllipse
 10
547.1452023700347
 20
-59.46057093190629
 30
0.0
 11
-1.794957342537178
 21
1.524020367793819
 31
0.0
210
0.0
220
0.0
230
-1.0
 40
0.1838809272074944
 41
6.033676357464736
 42
6.216405892020741
  0
ELLIPSE
  5
3FDB
330
2
100
AcDbEntity
  8
AM_VIS
100
AcDbEllipse
 10
547.6795641800435
 20
-58.88424060670456
 30
0.0
 11
-2.490079065009783
 21
-0.0000000000000017
 31
0.0
210
0.0
220
0.0
230
-1.0
 40
0.9711834348606755
 41
5.937689964444293
 42
6.086980155702427
  0
ELLIPSE
  5
3FDC
330
2
100
AcDbEntity
  8
AM_VIS
100
AcDbEllipse
 10
547.1452023700347
 20
-58.20185198730976
 30
0.0
 11
-1.794957342537175
 21
-1.524020367793822
 31
0.0
210
0.0
220
0.0
230
-1.0
 40
0.1838809272074955
 41
0.0602411001503995
 42
0.0739494530812532
  0
ELLIPSE
  5
3FDD
330
2
100
AcDbEntity
  8
AM_VIS
100
AcDbEllipse
 10
547.6795641800435
 20
-59.04729977386648
 30
0.0
 11
-2.490079065009606
 21
-0.0000000000000021
 31
0.0
210
0.0
220
0.0
230
-1.0
 40
0.2383332453776022
 41
5.937689964444311
 42
6.086980155702799
  0
ELLIPSE
  5
3FDE
330
2
100
AcDbEntity
  8
AM_VIS
100
AcDbEllipse
 10
547.1452023700347
 20
-58.9856594044121
 30
0.0
 11
-0.6538164905629051
 21
2.262086191913682
 31
0.0
210
0.0
220
0.0
230
-1.0
 40
0.7492958450165221
 41
4.992445536876735
 42
4.999615574798079
  0
ELLIPSE
  5
3FDF
330
2
100
AcDbEntity
  8
AM_VIS
100
AcDbEllipse
 10
547.6795641800434
 20
-58.6151231453535
 30
0.0
 11
-2.490079065009962
 21
-0.0000000000000021
 31
0.0
210
0.0
220
0.0
230
-1.0
 40
0.2383332453776022
 41
5.93768996444426
 42
6.08698015570207
  0
ELLIPSE
  5
3FE0
330
2
100
AcDbEntity
  8
AM_VIS
100
AcDbEllipse
 10
547.1452023700347
 20
-58.67676351480398
 30
0.0
 11
-0.6538164905628979
 21
-2.262086191913683
 31
0.0
210
0.0
220
0.0
230
-0.9999999999999998
 40
0.7492958450165199
 41
1.108010235745992
 42
1.297278085310448
  0
ELLIPSE
  5
3FE1
330
2
100
AcDbEntity
  8
AM_VIS
100
AcDbEllipse
 10
547.6795641800435
 20
-59.04729977386648
 30
0.0
 11
-2.490079065009606
 21
-0.0000000000000021
 31
0.0
210
0.0
220
0.0
230
-1.0
 40
0.2383332453776022
 41
0.1962051514767866
 42
0.3428970250345877
  0
ELLIPSE
  5
3FE2
330
2
100
AcDbEntity
  8
AM_VIS
100
AcDbEllipse
 10
547.6795641800435
 20
-58.88424060670456
 30
0.0
 11
-2.490079065009783
 21
-0.0000000000000017
 31
0.0
210
0.0
220
0.0
230
-1.0
 40
0.9711834348606755
 41
0.1962051514771408
 42
0.3454953427352922
  0
LINE
  5
3FE3
330
2
100
AcDbEntity
  8
AM_VIS
100
AcDbLine
 10
545.2372611685396
 20
-58.93160383399458
 30
0.0
 11
545.2372611685396
 21
-59.16299571373838
 31
0.0
  0
LINE
  5
3FE4
330
2
100
AcDbEntity
  8
AM_VIS
100
AcDbLine
 10
545.2372611685396
 20
-58.30673327019934
 30
0.0
 11
545.2372611685396
 21
-58.41279156439236
 31
0.0
  0
LINE
  5
3FE5
330
2
100
AcDbEntity
  8
AM_VIS
100
AcDbLine
 10
545.2372611685396
 20
-58.41279156439236
 30
0.0
 11
545.2372611685396
 21
-58.73081908522582
 31
0.0
  0
LINE
  5
3FE6
330
2
100
AcDbEntity
  8
AM_VIS
100
AcDbLine
 10
545.2372611685396
 20
-59.16299571373838
 30
0.0
 11
545.2372611685396
 21
-59.35568964901676
 31
0.0
  0
ARC
  5
3FE7
330
2
100
AcDbEntity
  8
AM_VIS
100
AcDbCircle
 10
546.063691767795
 20
-57.91004027718066
 30
0.0
 40
0.6400000000000002
100
AcDbArc
 50
94.99999999999982
 51
150.3135438130779
  0
ARC
  5
3FE8
330
2
100
AcDbEntity
  8
AM_VIS
100
AcDbCircle
 10
546.063691767795
 20
-59.75238264203546
 30
0.0
 40
0.6400000000000002
100
AcDbArc
 50
209.6864561869221
 51
265.0000000000002
  0
ARC
  5
3FE9
330
2
100
AcDbEntity
  8
AM_VIS
100
AcDbCircle
 10
547.6795641800435
 20
-58.83121145960803
 30
0.0
 40
2.5
100
AcDbArc
 50
200.3464384717939
 51
209.6864561869199
  0
ARC
  5
3FEA
330
2
100
AcDbEntity
  8
AM_VIS
100
AcDbCircle
 10
547.6795641800435
 20
-58.83121145960803
 30
0.0
 40
2.5
100
AcDbArc
 50
150.31354381308
 51
159.6535615282061
  0
LINE
  5
3FEB
330
2
100
AcDbEntity
  8
AM_VIS
100
AcDbLine
 10
558.7079120924364
 20
-112.2239647083263
 30
0.0
 11
559.1795641800435
 21
-112.2652289191202
 31
0.0
  0
LINE
  5
3FEC
330
2
100
AcDbEntity
  8
AM_VIS
100
AcDbLine
 10
559.1795641800435
 20
-112.2652289191202
 30
0.0
 11
559.1795641800435
 21
-112.1652289191202
 31
0.0
  0
ARC
  5
3FED
330
2
100
AcDbEntity
  8
AM_VIS
100
AcDbCircle
 10
558.7636917677949
 20
-111.5864001015476
 30
0.0
 40
0.6400000000000002
100
AcDbArc
 50
244.7452834391002
 51
265.0000000000002
  0
LINE
  5
3FEE
330
2
100
AcDbEntity
  8
AM_VIS
100
AcDbLine
 10
558.7079120924364
 20
-102.1064931299141
 30
0.0
 11
559.1795641800435
 21
-102.0652289191202
 31
0.0
  0
LINE
  5
3FEF
330
2
100
AcDbEntity
  8
AM_VIS
100
AcDbLine
 10
559.1795641800435
 20
-102.1652289191202
 30
0.0
 11
559.1795641800435
 21
-102.0652289191202
 31
0.0
  0
ARC
  5
3FF0
330
2
100
AcDbEntity
  8
AM_VIS
100
AcDbCircle
 10
558.7636917677949
 20
-102.7440577366928
 30
0.0
 40
0.6400000000000002
100
AcDbArc
 50
94.99999999999982
 51
115.2547165609077
  0
LINE
  5
3FF1
330
2
100
AcDbEntity
  8
AM_VIS
100
AcDbLine
 10
567.4795641800434
 20
-112.1652289191202
 30
0.0
 11
557.9795641800434
 21
-112.1652289191202
 31
0.0
  0
LINE
  5
3FF2
330
2
100
AcDbEntity
  8
AM_VIS
100
AcDbLine
 10
567.4795641800434
 20
-102.1652289191202
 30
0.0
 11
557.9795641800434
 21
-102.1652289191202
 31
0.0
  0
LINE
  5
3FF3
330
2
100
AcDbEntity
  8
AM_VIS
100
AcDbLine
 10
557.9795641800434
 20
-112.1652289191202
 30
0.0
 11
557.9795641800434
 21
-102.1652289191202
 31
0.0
  0
LINE
  5
3FF4
330
2
100
AcDbEntity
  8
AM_VIS
100
AcDbLine
 10
557.9795641800434
 20
-102.1652289191202
 30
0.0
 11
557.9795641800434
 21
-112.1652289191202
 31
0.0
  0
LINE
  5
3FF5
330
2
100
AcDbEntity
  8
AM_VIS
100
AcDbLine
 10
557.9795641800434
 20
-112.1652289191202
 30
0.0
 11
544.9795641800434
 21
-112.1652289191201
 31
0.0
  0
LINE
  5
3FF6
330
2
100
AcDbEntity
  8
AM_VIS
100
AcDbLine
 10
544.9803310480687
 20
-108.9112826132237
 30
0.0
 11
542.980492690756
 21
-108.6823015123628
 31
0.0
  0
LINE
  5
3FF7
330
2
100
AcDbEntity
  8
AM_VIS
100
AcDbLine
 10
542.9795641800434
 20
-109.7652289191201
 30
0.0
 11
544.9795641800434
 21
-109.7652289191201
 31
0.0
  0
LINE
  5
3FF8
330
2
100
AcDbEntity
  8
AM_VIS
100
AcDbLine
 10
544.9795641800434
 20
-112.1652289191202
 30
0.0
 11
544.9795641800434
 21
-102.1652289191202
 31
0.0
  0
LINE
  5
3FF9
330
2
100
AcDbEntity
  8
AM_VIS
100
AcDbLine
 10
557.9795641800434
 20
-102.1652289191202
 30
0.0
 11
544.9795641800434
 21
-102.1652289191202
 31
0.0
  0
LINE
  5
3FFA
330
2
100
AcDbEntity
  8
AM_VIS
100
AcDbLine
 10
544.9795641800434
 20
-104.5652289191202
 30
0.0
 11
542.9795641800434
 21
-104.5652289191202
 31
0.0
  0
LINE
  5
3FFB
330
2
100
AcDbEntity
  8
AM_VIS
100
AcDbLine
 10
544.9803310480687
 20
-105.4191752250166
 30
0.0
 11
542.980492690756
 21
-105.6481563258775
 31
0.0
  0
LINE
  5
3FFC
330
2
100
AcDbEntity
  8
AM_VIS
100
AcDbLine
 10
542.9795641800434
 20
-108.6349227647901
 30
0.0
 11
542.7795641800433
 21
-108.6349227647901
 31
0.0
  0
LINE
  5
3FFD
330
2
100
AcDbEntity
  8
AM_VIS
100
AcDbLine
 10
542.7795641800433
 20
-105.6955350734503
 30
0.0
 11
542.9795641800434
 21
-105.6955350734503
 31
0.0
  0
CIRCLE
  5
3FFE
330
2
100
AcDbEntity
  8
AM_VIS
100
AcDbCircle
 10
551.4795641800434
 20
-107.1652289191202
 30
0.0
 40
3.399999999999999
  0
CIRCLE
  5
3FFF
330
2
100
AcDbEntity
  8
AM_VIS
100
AcDbCircle
 10
551.4795641800434
 20
-107.1652289191202
 30
0.0
 40
2.7
  0
CIRCLE
  5
4000
330
2
100
AcDbEntity
  8
AM_VIS
100
AcDbCircle
 10
551.4795641800434
 20
-107.1652289191202
 30
0.0
 40
2.5
  0
CIRCLE
  5
4001
330
2
100
AcDbEntity
  8
AM_VIS
100
AcDbCircle
 10
551.4795641800434
 20
-107.1652289191202
 30
0.0
 40
2.399999999999999
  0
LINE
  5
4002
330
2
100
AcDbEntity
  8
AM_VIS
100
AcDbLine
 10
542.9795641800434
 20
-105.6400470481636
 30
0.0
 11
542.9795641800434
 21
-108.6904107900767
 31
0.0
  0
LINE
  5
4003
330
2
100
AcDbEntity
  8
AM_VIS
100
AcDbLine
 10
542.9795641800434
 20
-108.6904107900767
 30
0.0
 11
542.9795641800434
 21
-109.7652289191201
 31
0.0
  0
LINE
  5
4004
330
2
100
AcDbEntity
  8
AM_VIS
100
AcDbLine
 10
542.9795641800434
 20
-104.5652289191202
 30
0.0
 11
542.9795641800434
 21
-105.6400470481636
 31
0.0
  0
LINE
  5
4005
330
2
100
AcDbEntity
  8
AM_VIS
100
AcDbLine
 10
542.7795641800433
 20
-105.6955350734503
 30
0.0
 11
542.7795641800433
 21
-108.6349227647901
 31
0.0
  0
LINE
  5
4006
330
2
100
AcDbEntity
  8
AM_VIS
100
AcDbLine
 10
544.9795641800434
 20
-112.1652289191201
 30
0.0
 11
544.4795641800434
 21
-112.1652289191201
 31
0.0
  0
LINE
  5
4007
330
2
100
AcDbEntity
  8
AM_VIS
100
AcDbLine
 10
544.4795641800434
 20
-102.1652289191201
 30
0.0
 11
544.9795641800434
 21
-102.1652289191201
 31
0.0
  0
LINE
  5
4008
330
2
100
AcDbEntity
  8
AM_VIS
100
AcDbLine
 10
542.9795641800434
 20
-104.5652289191201
 30
0.0
 11
542.9795641800434
 21
-102.1652289191201
 31
0.0
  0
LINE
  5
4009
330
2
100
AcDbEntity
  8
AM_VIS
100
AcDbLine
 10
544.4795641800434
 20
-102.1652289191201
 30
0.0
 11
544.4795641800434
 21
-104.5652289191201
 31
0.0
  0
LINE
  5
400A
330
2
100
AcDbEntity
  8
AM_VIS
100
AcDbLine
 10
542.9795641800434
 20
-102.1652289191201
 30
0.0
 11
544.4795641800434
 21
-102.1652289191201
 31
0.0
  0
LINE
  5
400B
330
2
100
AcDbEntity
  8
AM_VIS
100
AcDbLine
 10
542.9795641800434
 20
-112.1652289191201
 30
0.0
 11
542.9795641800434
 21
-109.7652289191201
 31
0.0
  0
LINE
  5
400C
330
2
100
AcDbEntity
  8
AM_VIS
100
AcDbLine
 10
544.4795641800434
 20
-112.1652289191201
 30
0.0
 11
542.9795641800434
 21
-112.1652289191201
 31
0.0
  0
LINE
  5
400D
330
2
100
AcDbEntity
  8
AM_VIS
100
AcDbLine
 10
544.4795641800434
 20
-109.7652289191201
 30
0.0
 11
544.4795641800434
 21
-112.1652289191201
 31
0.0
  0
LINE
  5
400E
330
2
100
AcDbEntity
  8
AM_VIS
100
AcDbLine
 10
542.9795641800434
 20
-102.1652289191202
 30
0.0
 11
541.4795641800434
 21
-102.1652289191202
 31
0.0
  0
LINE
  5
400F
330
2
100
AcDbEntity
  8
AM_VIS
100
AcDbLine
 10
541.4795641800434
 20
-102.1652289191202
 30
0.0
 11
541.4795641800434
 21
-112.1652289191201
 31
0.0
  0
LINE
  5
4010
330
2
100
AcDbEntity
  8
AM_VIS
100
AcDbLine
 10
542.9795641800434
 20
-112.1652289191201
 30
0.0
 11
541.4795641800434
 21
-112.1652289191201
 31
0.0
  0
LINE
  5
4011
330
2
100
AcDbEntity
  8
AM_VIS
100
AcDbLine
 10
539.9795641800434
 20
-111.1652289191201
 30
0.0
 11
541.4795641800434
 21
-112.1652289191201
 31
0.0
  0
LINE
  5
4012
330
2
100
AcDbEntity
  8
AM_VIS
100
AcDbLine
 10
541.4795641800434
 20
-102.1652289191202
 30
0.0
 11
539.9795641800434
 21
-103.1652289191202
 31
0.0
  0
LINE
  5
4013
330
2
100
AcDbEntity
  8
AM_VIS
100
AcDbLine
 10
539.9795641800434
 20
-110.9152289191201
 30
0.0
 11
536.4795641800434
 21
-110.9152289191201
 31
0.0
  0
LINE
  5
4014
330
2
100
AcDbEntity
  8
AM_VIS
100
AcDbLine
 10
539.9795641800434
 20
-103.4152289191201
 30
0.0
 11
536.4795641800434
 21
-103.4152289191201
 31
0.0
  0
LINE
  5
4015
330
2
100
AcDbEntity
  8
AM_VIS
100
AcDbLine
 10
535.4795641800434
 20
-110.3152289191201
 30
0.0
 11
535.4795641800434
 21
-104.0152289191201
 31
0.0
  0
LINE
  5
4016
330
2
100
AcDbEntity
  8
AM_VIS
100
AcDbLine
 10
536.4795641800434
 20
-110.9152289191201
 30
0.0
 11
535.4795641800434
 21
-110.3152289191201
 31
0.0
  0
LINE
  5
4017
330
2
100
AcDbEntity
  8
AM_VIS
100
AcDbLine
 10
536.4795641800434
 20
-103.4152289191201
 30
0.0
 11
536.4795641800434
 21
-110.9152289191201
 31
0.0
  0
LINE
  5
4018
330
2
100
AcDbEntity
  8
AM_VIS
100
AcDbLine
 10
535.4795641800434
 20
-104.0152289191201
 30
0.0
 11
536.4795641800434
 21
-103.4152289191201
 31
0.0
  0
LINE
  5
4019
330
2
100
AcDbEntity
  8
AM_VIS
100
AcDbLine
 10
539.9795641800434
 20
-111.1652289191201
 30
0.0
 11
539.9795641800434
 21
-103.1652289191202
 31
0.0
  0
DIMENSION
  5
4035
102
{ACAD_XDICTIONARY
360
4042
102
}
102
{ACAD_REACTORS
330
4043
102
}
330
2
100
AcDbEntity
  8
AM_REFDIM
100
AcDbDimension
  2
*D19
 10
613.5795641800434
 20
-73.56498932135393
 30
0.0
 11
579.2795641800434
 21
-71.77998932135394
 31
0.0
 70
    32
 71
     5
 42
68.59999999999991
  3
STANDARD$0
100
AcDbAlignedDimension
 13
544.9795641800434
 23
-64.93121145960802
 33
0.0
 14
613.5795641800434
 24
-64.93121145960805
 34
0.0
 50
0.0000000000002036
100
AcDbRotatedDimension
  0
DIMENSION
  5
409B
102
{ACAD_XDICTIONARY
360
40A8
102
}
102
{ACAD_REACTORS
330
40A9
330
4BFE
102
}
330
2
100
AcDbEntity
  8
AM_REFDIM
100
AcDbDimension
  2
*D20
 10
628.2464876028637
 20
-49.931211459608
 30
0.0
 11
628.2464876028637
 21
-57.60332234844719
 31
0.0
 70
   160
 71
     5
 42
15.00000000000005
  3
STANDARD$0
100
AcDbAlignedDimension
 13
613.5795641800434
 23
-64.93121145960805
 33
0.0
 14
600.5795641800433
 24
-49.93121145960799
 34
0.0
 50
90.0
100
AcDbRotatedDimension
  0
DIMENSION
  5
4156
102
{ACAD_XDICTIONARY
360
4165
102
}
102
{ACAD_REACTORS
330
4166
330
4BCC
330
4BE5
102
}
330
2
100
AcDbEntity
  8
AM_REFDIM
100
AcDbDimension
  2
*D21
 10
532.272647854207
 20
-2.914711441113965
 30
0.0
 11
532.272647854207
 21
-4.914711441113881
 31
0.0
 70
   160
 71
     5
 42
4.000000000000001
  3
STANDARD
100
AcDbAlignedDimension
 13
572.9295641800433
 23
-6.914711441113979
 33
0.0
 14
579.9295641800433
 24
-2.914711441113979
 34
0.0
 50
90.0
100
AcDbRotatedDimension
  0
DIMENSION
  5
42AC
102
{ACAD_XDICTIONARY
360
42B9
102
}
102
{ACAD_REACTORS
330
42BA
330
4BCC
330
4BE5
102
}
330
2
100
AcDbEntity
  8
AM_REFDIM
100
AcDbDimension
  2
*D22
 10
577.5295641800433
 20
10.40063712571316
 30
0.0
 11
556.6806429787509
 21
10.40063712571316
 31
0.0
 70
   160
 71
     5
 42
42.04999999999995
  3
STANDARD
100
AcDbAlignedDimension
 13
535.4795641800434
 23
-1.764711441114087
 33
0.0
 14
577.5295641800433
 24
2.385288558886003
 34
0.0
100
AcDbRotatedDimension
  0
DIMENSION
  5
4410
102
{ACAD_XDICTIONARY
360
441D
102
}
102
{ACAD_REACTORS
330
441E
330
4BFE
102
}
330
2
100
AcDbEntity
  8
AM_REFDIM
100
AcDbDimension
  2
*D23
 10
623.0795641800433
 20
-80.06498932135404
 30
0.0
 11
579.2795641800434
 21
-78.27998932135404
 31
0.0
 70
    32
 71
     5
 42
87.5999999999999
  3
STANDARD
100
AcDbAlignedDimension
 13
535.4795641800434
 23
-46.53121145960802
 33
0.0
 14
623.0795641800433
 24
-46.53121145960802
 34
0.0
 50
0.0000000000001018
100
AcDbRotatedDimension
  0
DIMENSION
  5
447C
102
{ACAD_XDICTIONARY
360
4489
102
}
102
{ACAD_REACTORS
330
448A
330
4BCC
102
}
330
2
100
AcDbEntity
  8
AM_REFDIM
100
AcDbDimension
  2
*D24
 10
519.2726478542069
 20
0.085288558885914
 30
0.0
 11
519.2726478542069
 21
-4.914711441114006
 31
0.0
 70
   160
 71
     5
 42
10.0
  3
STANDARD
100
AcDbAlignedDimension
 13
544.9795641800434
 23
-9.914711441114093
 33
0.0
 14
544.9795641800434
 24
0.0852885588859067
 34
0.0
 50
90.0
100
AcDbRotatedDimension
  0
DIMENSION
  5
46A1
102
{ACAD_XDICTIONARY
360
46AD
102
}
102
{ACAD_REACTORS
330
46AE
102
}
330
2
100
AcDbEntity
  8
AM_REFDIM
100
AcDbDimension
  2
*D25
 10
583.897715000002
 20
-8.44614604146227
 30
0.0
 11
603.7096301545347
 21
-18.45088349755923
 31
0.0
 70
   163
  1
2-<> thru
 71
     5
 42
1.700000000000159
  3
STANDARD
100
AcDbDiametricDimension
 15
585.161413360085
 25
-9.583276840765734
 35
0.0
 40
0.0
1001
ACAD
1000
DSTYLE
1002
{
1070
    40
1040
0.7
1070
    44
1040
1.5
1070
    47
1040
0.1
1070
    48
1040
0.1
1070
    74
1070
     1
1070
   140
1040
3.5
1070
   143
1040
0.0393701
1070
   146
1040
0.71
1070
   147
1040
1.0
1070
   172
1070
     0
1070
   283
1070
     0
1070
   285
1070
     8
1070
   288
1070
     1
1070
   289
1070
     0
1070
   340
1005
13
1002
}
  0
DIMENSION
  5
474E
102
{ACAD_XDICTIONARY
360
475B
102
}
102
{ACAD_REACTORS
330
475C
102
}
330
2
100
AcDbEntity
  8
AM_REFDIM
100
AcDbDimension
  2
*D26
 10
530.0415753874041
 20
-101.6652289191202
 30
0.0
 11
528.2565753874041
 21
-107.1652289191201
 31
0.0
 70
    32
 71
     5
 42
10.99999999999998
  3
STANDARD$0
100
AcDbAlignedDimension
 13
577.0295641800434
 23
-112.6652289191202
 33
0.0
 14
584.0295641800434
 24
-101.6652289191202
 34
0.0
 50
90.00000000000003
100
AcDbRotatedDimension
  0
DIMENSION
  5
4782
102
{ACAD_XDICTIONARY
360
478F
102
}
102
{ACAD_REACTORS
330
4790
330
4BE5
102
}
330
2
100
AcDbEntity
  8
AM_REFDIM
100
AcDbDimension
  2
*D27
 10
525.7726478542069
 20
-9.014711441113957
 30
0.0
 11
523.987647854207
 21
-4.91471144111388
 31
0.0
 70
    32
 71
     5
 42
8.199999999999986
  3
STANDARD
100
AcDbAlignedDimension
 13
574.3295641800433
 23
-0.8147114411139853
 33
0.0
 14
581.3295641800433
 24
-9.014711441113973
 34
0.0
 50
90.00000000000003
100
AcDbRotatedDimension
  0
DIMENSION
  5
49E6
102
{ACAD_XDICTIONARY
360
49F3
102
}
102
{ACAD_REACTORS
330
49F4
102
}
330
2
100
AcDbEntity
  8
AM_REFDIM
100
AcDbDimension
  2
*D28
 10
579.2795641800434
 20
-127.1285859533153
 30
0.0
 11
601.1795641800433
 21
-125.3435859533153
 31
0.0
 70
    32
 71
     5
 42
43.79999999999995
  3
STANDARD$0
100
AcDbAlignedDimension
 13
623.0795641800433
 23
-110.3152289191201
 33
0.0
 14
579.2795641800434
 24
-110.0152289191202
 34
0.0
 50
0.0000000000001132
100
AcDbRotatedDimension
  0
ENDSEC
  0
SECTION
  2
OBJECTS
  0
DICTIONARY
  5
8
330
0
100
AcDbDictionary
281
     1
  3
ACAD_COLOR
350
22EB
  3
ACAD_GROUP
350
21
  3
ACAD_LAYOUT
350
C
  3
ACAD_MATERIAL
350
22EA
  3
ACAD_MLINESTYLE
350
22
  3
ACAD_PLOTSETTINGS
350
23
  3
ACAD_PLOTSTYLENAME
350
7
  3
ACAD_TABLESTYLE
350
22EC
  3
ACDBHEADERROUNDTRIPXREC
350
4C42
  3
AcDbVariableDictionary
350
1D2
  3
AcmDictionary
350
1F4
  3
AMG
350
1DA
  3
AMGSNAPSETTINGS
350
37D
  3
ASE_INDEX_DICTIONARY
350
E58
  3
DWGPROPS
350
4C41
  0
DICTIONARY
  5
2434
330
11
100
AcDbDictionary
280
     1
281
     1
  3
ACAD_LAYERFILTERS
360
3739
  3
ACAD_LAYERSTATES
360
2435
  3
ACLYDICTIONARY
360
3738
  3
AMLAYER_GROUPCOLORS
360
46A0
  0
DICTIONARY
  5
3
330
2
100
AcDbDictionary
280
     1
281
     1
  3
ACAD_INDEX
360
44DA
  3
ACAD_LAYOUTSELFREF
360
22C3
  0
DICTIONARY
  5
1848
330
D
100
AcDbDictionary
280
     1
281
     1
  3
ACAD_LAYOUTSELFREF
360
22C8
  0
DICTIONARY
  5
393D
330
392E
100
AcDbDictionary
280
     1
281
     1
  3
ACAD_DIMASSOC
360
393E
  0
DICTIONARY
  5
3A68
330
3A59
100
AcDbDictionary
280
     1
281
     1
  3
ACAD_DIMASSOC
360
3A69
  0
DICTIONARY
  5
3A84
330
3A75
100
AcDbDictionary
280
     1
281
     1
  3
ACAD_DIMASSOC
360
3A85
  0
DICTIONARY
  5
3B1E
330
3B11
100
AcDbDictionary
280
     1
281
     1
  3
ACAD_DIMASSOC
360
3B1F
  0
DICTIONARY
  5
4042
330
4035
100
AcDbDictionary
280
     1
281
     1
  3
ACAD_DIMASSOC
360
4043
  0
DICTIONARY
  5
40A8
330
409B
100
AcDbDictionary
280
     1
281
     1
  3
ACAD_DIMASSOC
360
40A9
  0
DICTIONARY
  5
4165
330
4156
100
AcDbDictionary
280
     1
281
     1
  3
ACAD_DIMASSOC
360
4166
  0
DICTIONARY
  5
42B9
330
42AC
100
AcDbDictionary
280
     1
281
     1
  3
ACAD_DIMASSOC
360
42BA
  0
DICTIONARY
  5
441D
330
4410
100
AcDbDictionary
280
     1
281
     1
  3
ACAD_DIMASSOC
360
441E
  3
ACMDIMBREAKPERSREACTOR
360
4BFE
  0
DICTIONARY
  5
4489
330
447C
100
AcDbDictionary
280
     1
281
     1
  3
ACAD_DIMASSOC
360
448A
  3
ACMDIMBREAKPERSREACTOR
360
4BCC
  0
DICTIONARY
  5
46AD
330
46A1
100
AcDbDictionary
280
     1
281
     1
  3
ACAD_DIMASSOC
360
46AE
  0
DICTIONARY
  5
475B
330
474E
100
AcDbDictionary
280
     1
281
     1
  3
ACAD_DIMASSOC
360
475C
  0
DICTIONARY
  5
478F
330
4782
100
AcDbDictionary
280
     1
281
     1
  3
ACAD_DIMASSOC
360
4790
  3
ACMDIMBREAKPERSREACTOR
360
4BE5
  0
DICTIONARY
  5
49F3
330
49E6
100
AcDbDictionary
280
     1
281
     1
  3
ACAD_DIMASSOC
360
49F4
  0
DICTIONARY
  5
22EB
102
{ACAD_REACTORS
330
8
102
}
330
8
100
AcDbDictionary
281
     1
  0
DICTIONARY
  5
21
102
{ACAD_REACTORS
330
8
102
}
330
8
100
AcDbDictionary
281
     1
  0
DICTIONARY
  5
C
102
{ACAD_REACTORS
330
8
102
}
330
8
100
AcDbDictionary
281
     1
  3
Layout1
350
10
  3
Model
350
B
  0
DICTIONARY
  5
22EA
102
{ACAD_REACTORS
330
8
102
}
330
8
100
AcDbDictionary
281
     1
  0
DICTIONARY
  5
22
102
{ACAD_REACTORS
330
8
102
}
330
8
100
AcDbDictionary
281
     1
  3
Standard
350
24
  0
DICTIONARY
  5
23
102
{ACAD_REACTORS
330
8
102
}
330
8
100
AcDbDictionary
281
     1
  0
ACDBDICTIONARYWDFLT
  5
7
102
{ACAD_REACTORS
330
8
102
}
330
8
100
AcDbDictionary
281
     1
  3
Normal
350
6
100
AcDbDictionaryWithDefault
340
6
  0
DICTIONARY
  5
22EC
102
{ACAD_REACTORS
330
8
102
}
330
8
100
AcDbDictionary
281
     1
  3
Standard
350
22ED
  0
DICTIONARY
  5
4C42
102
{ACAD_REACTORS
330
8
102
}
330
8
100
AcDbDictionary
281
     1
  0
DICTIONARY
  5
1D2
102
{ACAD_REACTORS
330
8
102
}
330
8
100
AcDbDictionary
281
     1
  3
CTABLESTYLE
350
2CA1
  3
DIMASSOC
350
1D4
  3
HIDETEXT
350
1D3
  3
INDEXCTL
350
4C0
  3
PROJECTNAME
350
2CA2
  0
DICTIONARY
  5
1F4
102
{ACAD_REACTORS
330
8
102
}
330
8
100
AcDbDictionary
281
     1
  3
AcmStdDictionary
350
1FA
  3
AMDTSECTSYM_ARROWCOLOR
350
2360
  0
DICTIONARY
  5
1DA
102
{ACAD_REACTORS
330
8
102
}
330
8
100
AcDbDictionary
281
     1
  0
DICTIONARY
  5
37D
102
{ACAD_REACTORS
330
8
102
}
330
8
100
AcDbDictionary
281
     1
  0
DICTIONARY
  5
E58
102
{ACAD_REACTORS
330
8
102
}
330
8
100
AcDbDictionary
281
     1
  3
ASEBlockHierarchyIndexRecord
350
E5A
1001
DCO15
1040
1443953005.444
  0
XRECORD
  5
4C41
102
{ACAD_REACTORS
330
8
102
}
330
8
100
AcDbXrecord
280
     1
  1
DWGPROPS COOKIE
  2

  3

  4

  6

  7

  8

  9

300
AmdtFileType=84
301
=
302
=
303
=
304
=
305
=
306
=
307
=
308
=
309
=
 40
0.1646675
 41
2452691.454954444
 42
2454658.579417315
  1

 90
        1
  0
DICTIONARY
  5
3739
102
{ACAD_REACTORS
330
2434
102
}
330
2434
100
AcDbDictionary
281
     1
  0
DICTIONARY
  5
2435
102
{ACAD_REACTORS
330
2434
102
}
330
2434
100
AcDbDictionary
281
     1
  0
DICTIONARY
  5
3738
102
{ACAD_REACTORS
330
2434
102
}
330
2434
100
AcDbDictionary
281
     1
1001
ACAD
1000
<All
  0
DICTIONARY
  5
46A0
102
{ACAD_REACTORS
330
2434
102
}
330
2434
100
AcDbDictionary
280
     1
281
     1
  0
DICTIONARY
  5
44DA
102
{ACAD_REACTORS
330
3
102
}
330
3
100
AcDbDictionary
281
     1
  3
*A1
350
44DB
  0
XRECORD
  5
22C3
102
{ACAD_REACTORS
330
3
102
}
330
3
100
AcDbXrecord
280
     1
340
2
  0
XRECORD
  5
22C8
102
{ACAD_REACTORS
330
1848
102
}
330
1848
100
AcDbXrecord
280
     1
340
D
  0
DIMASSOC
  5
393E
102
{ACAD_REACTORS
330
393D
102
}
330
393D
100
AcDbDimAssoc
330
392E
 90
        3
 70
     0
 71
     0
  1
AcDbOsnapPointRef
 72
     1
331
3400
 73
     0
 91
        0
 40
0.0
 10
0.0
 20
0.0
 30
2.000000000000000E+50
 75
     0
  1
AcDbOsnapPointRef
 72
    13
331
3400
 73
     0
 91
        0
 40
0.0
 10
0.0
 20
0.0
 30
2.000000000000000E+50
 75
     0
  0
DIMASSOC
  5
3A69
102
{ACAD_REACTORS
330
3A68
102
}
330
3A68
100
AcDbDimAssoc
330
3A59
 90
        3
 70
     0
 71
     0
  1
AcDbOsnapPointRef
 72
    13
331
3329
 73
     0
 91
        0
 40
0.0
 10
0.0
 20
0.0
 30
2.000000000000000E+50
 75
     0
  1
AcDbOsnapPointRef
 72
    13
331
3335
 73
     0
 91
        0
 40
0.0
 10
0.0
 20
0.0
 30
2.000000000000000E+50
 75
     0
  0
DIMASSOC
  5
3A85
102
{ACAD_REACTORS
330
3A84
102
}
330
3A84
100
AcDbDimAssoc
330
3A75
 90
        3
 70
     0
 71
     0
  1
AcDbOsnapPointRef
 72
    13
331
332F
 73
     0
 91
        0
 40
0.0
 10
0.0
 20
0.0
 30
2.000000000000000E+50
 75
     0
  1
AcDbOsnapPointRef
 72
    13
331
3329
 73
     0
 91
        0
 40
0.0
 10
0.0
 20
0.0
 30
2.000000000000000E+50
 75
     0
  0
DIMASSOC
  5
3B1F
102
{ACAD_REACTORS
330
3B1E
102
}
330
3B1E
100
AcDbDimAssoc
330
3B11
 90
        3
 70
     0
 71
     0
  1
AcDbOsnapPointRef
 72
    13
331
3524
 73
     0
 91
        0
 40
0.0
 10
0.0
 20
0.0
 30
2.000000000000000E+50
 75
     0
  1
AcDbOsnapPointRef
 72
    13
331
34E9
 73
     0
 91
        0
 40
0.0
 10
0.0
 20
0.0
 30
2.000000000000000E+50
 75
     0
  0
DIMASSOC
  5
4043
102
{ACAD_REACTORS
330
4042
102
}
330
4042
100
AcDbDimAssoc
330
4035
 90
        3
 70
     0
 71
     0
  1
AcDbOsnapPointRef
 72
     1
331
3FAA
 73
     0
 91
        0
 40
0.0
 10
0.0
 20
0.0
 30
2.000000000000000E+50
 75
     0
  1
AcDbOsnapPointRef
 72
    13
331
3442
 73
     0
 91
        0
 40
0.0
 10
0.0
 20
0.0
 30
2.000000000000000E+50
 75
     0
  0
DIMASSOC
  5
40A9
102
{ACAD_REACTORS
330
40A8
102
}
330
40A8
100
AcDbDimAssoc
330
409B
 90
        3
 70
     0
 71
     0
  1
AcDbOsnapPointRef
 72
    13
331
3442
 73
     0
 91
        0
 40
0.0
 10
0.0
 20
0.0
 30
2.000000000000000E+50
 75
     0
  1
AcDbOsnapPointRef
 72
     1
331
3423
 73
     0
 91
        0
 40
0.0
 10
0.0
 20
0.0
 30
2.000000000000000E+50
 75
     0
  0
DIMASSOC
  5
4166
102
{ACAD_REACTORS
330
4165
102
}
330
4165
100
AcDbDimAssoc
330
4156
 90
        3
 70
     0
 71
     0
  1
AcDbOsnapPointRef
 72
    13
331
32F6
 73
     0
 91
        0
 40
0.0
 10
0.0
 20
0.0
 30
2.000000000000000E+50
 75
     0
  1
AcDbOsnapPointRef
 72
    13
331
32F0
 73
     0
 91
        0
 40
0.0
 10
0.0
 20
0.0
 30
2.000000000000000E+50
 75
     0
  0
DIMASSOC
  5
42BA
102
{ACAD_REACTORS
330
42B9
102
}
330
42B9
100
AcDbDimAssoc
330
42AC
 90
        1
 70
     0
 71
     0
  1
AcDbOsnapPointRef
 72
     1
331
3F6B
 73
     0
 91
        0
 40
0.0
 10
0.0
 20
0.0
 30
2.000000000000000E+50
 75
     0
  0
DIMASSOC
  5
441E
102
{ACAD_REACTORS
330
441D
102
}
330
441D
100
AcDbDimAssoc
330
4410
 90
        3
 70
     0
 71
     0
  1
AcDbOsnapPointRef
 72
    13
331
3FCD
 73
     0
 91
        0
 40
0.0
 10
0.0
 20
0.0
 30
2.000000000000000E+50
 75
     0
  1
AcDbOsnapPointRef
 72
    13
331
3466
 73
     0
 91
        0
 40
0.0
 10
0.0
 20
0.0
 30
2.000000000000000E+50
 75
     0
  0
DIMASSOC
  5
448A
102
{ACAD_REACTORS
330
4489
102
}
330
4489
100
AcDbDimAssoc
330
447C
 90
        3
 70
     0
 71
     0
  1
AcDbOsnapPointRef
 72
    13
331
3F64
 73
     0
 91
        0
 40
0.0
 10
0.0
 20
0.0
 30
2.000000000000000E+50
 75
     0
  1
AcDbOsnapPointRef
 72
     1
331
3F65
 73
     0
 91
        0
 40
0.0
 10
0.0
 20
0.0
 30
2.000000000000000E+50
 75
     0
  0
DIMASSOC
  5
46AE
102
{ACAD_REACTORS
330
46AD
102
}
330
46AD
100
AcDbDimAssoc
330
46A1
 90
        2
 70
     0
 71
     0
  1
AcDbOsnapPointRef
 72
     3
331
3399
 73
     2
 91
        0
 40
0.0
 10
0.0
 20
0.0
 30
0.0
 75
     0
  0
DIMASSOC
  5
475C
102
{ACAD_REACTORS
330
475B
102
}
330
475B
100
AcDbDimAssoc
330
474E
 90
        3
 70
     0
 71
     0
  1
AcDbOsnapPointRef
 72
    13
331
3497
 73
     0
 91
        0
 40
0.0
 10
0.0
 20
0.0
 30
2.000000000000000E+50
 75
     0
  1
AcDbOsnapPointRef
 72
    13
331
3491
 73
     0
 91
        0
 40
0.0
 10
0.0
 20
0.0
 30
2.000000000000000E+50
 75
     0
  0
DIMASSOC
  5
4790
102
{ACAD_REACTORS
330
478F
102
}
330
478F
100
AcDbDimAssoc
330
4782
 90
        3
 70
     0
 71
     0
  1
AcDbOsnapPointRef
 72
    13
331
32EA
 73
     0
 91
        0
 40
0.0
 10
0.0
 20
0.0
 30
2.000000000000000E+50
 75
     0
  1
AcDbOsnapPointRef
 72
    13
331
32E4
 73
     0
 91
        0
 40
0.0
 10
0.0
 20
0.0
 30
2.000000000000000E+50
 75
     0
  0
DIMASSOC
  5
49F4
102
{ACAD_REACTORS
330
49F3
102
}
330
49F3
100
AcDbDimAssoc
330
49E6
 90
        3
 70
     0
 71
     0
  1
AcDbOsnapPointRef
 72
    13
331
34DE
 73
     0
 91
        0
 40
0.0
 10
0.0
 20
0.0
 30
2.000000000000000E+50
 75
     0
  1
AcDbOsnapPointRef
 72
    13
331
3329
 73
     0
 91
        0
 40
0.0
 10
0.0
 20
0.0
 30
2.000000000000000E+50
 75
     0
  0
LAYOUT
  5
10
102
{ACAD_XDICTIONARY
360
4C45
102
}
102
{ACAD_REACTORS
330
C
102
}
330
C
100
AcDbPlotSettings
  1

  2
\\RD01\EPSON Stylus COLOR 1160 單色
  4
A4
  6

 40
3.757083177566528
 41
14.7637300491333
 42
3.757080078125
 43
3.757080078125
 44
209.9733276367187
 45
296.9683227539062
 46
0.0
 47
0.0
 48
0.0
 49
0.0
140
0.0
141
0.0
142
1.0
143
1.0
 70
   688
 72
     1
 73
     0
 74
     5
  7
單色出圖.ctb
 75
    16
147
1.0
148
0.0
149
0.0
100
AcDbLayout
  1
Layout1
 70
     1
 71
     1
 10
-3.757083177566528
 20
-14.7637300491333
 11
206.2162444591522
 21
282.2045927047729
 12
0.0
 22
0.0
 32
0.0
 14
26.80208481208632
 24
60.62932117531272
 34
-0.0000000000000153
 15
155.7606180029584
 25
204.40991305297
 35
0.0
146
0.0
 13
0.0
 23
0.0
 33
0.0
 16
1.0
 26
0.0
 36
0.0
 17
0.0
 27
1.0
 37
0.0
 76
     0
330
D
  0
LAYOUT
  5
B
102
{ACAD_XDICTIONARY
360
4C43
102
}
102
{ACAD_REACTORS
330
C
102
}
330
C
100
AcDbPlotSettings
  1

  2
自動 RD 上的 Epson Stylus Photo 750 單色
  4
A4
  6

 40
3.757083177566528
 41
14.7637300491333
 42
3.757080078125
 43
3.757080078125
 44
209.9733276367187
 45
296.9683227539062
 46
0.0
 47
0.0
 48
0.0
 49
0.0
140
0.0
141
0.0
142
1.0
143
1.0
 70
 11952
 72
     1
 73
     0
 74
     0
  7
單色出圖.ctb
 75
    16
147
1.0
148
47.70409695138527
149
1.582593250444062
100
AcDbLayout
  1
Model
 70
     1
 71
     0
 10
0.0
 20
0.0
 11
12.0
 21
9.0
 12
0.0
 22
0.0
 32
0.0
 14
0.0
 24
0.0
 34
0.0
 15
0.0
 25
0.0
 35
0.0
146
0.0
 13
0.0
 23
0.0
 33
0.0
 16
1.0
 26
0.0
 36
0.0
 17
0.0
 27
1.0
 37
0.0
 76
     0
330
2
  0
MLINESTYLE
  5
24
102
{ACAD_REACTORS
330
22
102
}
330
22
100
AcDbMlineStyle
  2
STANDARD
 70
     0
  3

 62
   256
 51
90.0
 52
90.0
 71
     2
 49
0.5
 62
   256
  6
BYLAYER
 49
-0.5
 62
   256
  6
BYLAYER
  0
ACDBPLACEHOLDER
  5
6
102
{ACAD_REACTORS
330
7
102
}
330
7
  0
TABLESTYLE
  5
22ED
102
{ACAD_REACTORS
330
22EC
102
}
330
22EC
100
AcDbTableStyle
  3
Standard
 70
     0
 71
     0
 40
1.5
 41
1.5
280
     0
281
     0
  7
STANDARD
140
4.5
170
     2
 62
     0
 63
     7
283
     0
274
    -2
284
     1
 64
     0
275
    -2
285
     1
 65
     0
276
    -2
286
     1
 66
     0
277
    -2
287
     1
 67
     0
278
    -2
288
     1
 68
     0
279
    -2
289
     1
 69
     0
  7
STANDARD
140
6.0
170
     5
 62
     0
 63
     7
283
     0
274
    -2
284
     1
 64
     0
275
    -2
285
     1
 65
     0
276
    -2
286
     1
 66
     0
277
    -2
287
     1
 67
     0
278
    -2
288
     1
 68
     0
279
    -2
289
     1
 69
     0
  7
STANDARD
140
4.5
170
     5
 62
     0
 63
     7
283
     0
274
    -2
284
     1
 64
     0
275
    -2
285
     1
 65
     0
276
    -2
286
     1
 66
     0
277
    -2
287
     1
 67
     0
278
    -2
288
     1
 68
     0
279
    -2
289
     1
 69
     0
  0
DICTIONARYVAR
  5
2CA1
102
{ACAD_REACTORS
330
1D2
102
}
330
1D2
100
DictionaryVariables
280
     0
  1
STANDARD
  0
DICTIONARYVAR
  5
1D4
102
{ACAD_REACTORS
330
1D2
102
}
330
1D2
100
DictionaryVariables
280
     0
  1
2
  0
DICTIONARYVAR
  5
1D3
102
{ACAD_REACTORS
330
1D2
102
}
330
1D2
100
DictionaryVariables
280
     0
  1
1
  0
DICTIONARYVAR
  5
4C0
102
{ACAD_REACTORS
330
1D2
102
}
330
1D2
100
DictionaryVariables
280
     0
  1
1
  0
DICTIONARYVAR
  5
2CA2
102
{ACAD_REACTORS
330
1D2
102
}
330
1D2
100
DictionaryVariables
280
     0
  1

  0
DICTIONARY
  5
1FA
102
{ACAD_REACTORS
330
1F4
102
}
330
1F4
100
AcDbDictionary
281
     1
  0
XRECORD
  5
2360
102
{ACAD_REACTORS
330
1F4
102
}
330
1F4
100
AcDbXrecord
280
     1
 90
-1023410169
  0
XRECORD
  5
E5A
102
{ACAD_REACTORS
330
E58
102
}
330
E58
100
AcDbXrecord
280
     1
330
0
330
0
  0
LAYER_INDEX
  5
44DB
102
{ACAD_REACTORS
330
44DA
102
}
330
44DA
100
AcDbIndex
 40
2454658.579417315
100
AcDbLayerIndex
  8
0
360
4C37
 90
       15
  8
Defpoints
360
4C38
 90
        0
  8
AM_5
360
4C39
 90
        2
  8
AM_VIS
360
4C3A
 90
      700
  8
AM_PARDIM
360
4C3B
 90
       10
  8
AM_7
360
4C3C
 90
      144
  8
LOGO
360
4C3D
 90
      151
  8
AM_REFDIM
360
4C3E
 90
       17
  8
AM_4
360
4C3F
 90
        5
  0
DICTIONARY
  5
4C45
330
10
100
AcDbDictionary
280
     1
281
     1
  3
ACAD_XREC_ROUNDTRIP
360
4C46
  0
DICTIONARY
  5
4C43
330
B
100
AcDbDictionary
280
     1
281
     1
  3
ACAD_XREC_ROUNDTRIP
360
4C44
  0
IDBUFFER
  5
4C37
330
0
100
AcDbIdBuffer
330
25
330
26
330
27
330
28
330
29
330
2A
330
2B
330
2C
330
2D
330
2E
330
2F
330
30
330
2C00
330
2C01
330
2C02
  0
IDBUFFER
  5
4C38
330
0
100
AcDbIdBuffer
  0
IDBUFFER
  5
4C39
330
0
100
AcDbIdBuffer
330
151
330
156
  0
IDBUFFER
  5
4C3A
330
0
100
AcDbIdBuffer
330
3590
330
3591
330
3592
330
3593
330
3594
330
3595
330
3596
330
3597
330
3598
330
3599
330
359A
330
3F59
330
3F5A
330
3F5B
330
3F5C
330
3F5D
330
3F5E
330
3F5F
330
3F60
330
3F61
330
3F62
330
3F63
330
3F64
330
3F65
330
3F66
330
3F67
330
3F68
330
3F69
330
3F6A
330
3F6B
330
3F6C
330
3F6D
330
3F6E
330
3F6F
330
3F70
330
3F71
330
3F72
330
3F73
330
3F74
330
3F75
330
3F76
330
3F77
330
3F78
330
3F79
330
3F7A
330
3F7B
330
3F7C
330
3F7D
330
3F7E
330
3F7F
330
3F80
330
3F81
330
3F82
330
3F83
330
3F84
330
3F85
330
3F86
330
3F87
330
3F88
330
3F89
330
3F8A
330
3F8B
330
3F8C
330
3F8D
330
3F8E
330
3F8F
330
3F90
330
3F91
330
3F92
330
3F93
330
3F94
330
3F95
330
3F96
330
3F97
330
3F98
330
3F99
330
3F9A
330
3F9B
330
3F9C
330
3F9D
330
3F9E
330
3F9F
330
3FA0
330
3FA1
330
3FA2
330
3FA3
330
3FA4
330
3FA5
330
3FA6
330
3FA7
330
3FA8
330
3FA9
330
3FAA
330
3FAB
330
3FAC
330
3FAD
330
3FAE
330
3FAF
330
3FB0
330
3FB1
330
3FB2
330
3FB3
330
3FB4
330
3FB5
330
3FB6
330
3FB7
330
3FB8
330
3FB9
330
3FBA
330
3FBB
330
3FBC
330
3FBD
330
3FBE
330
3FBF
330
3FC0
330
3FC1
330
3FC2
330
3FC3
330
3FC4
330
3FC5
330
3FC6
330
3FC7
330
3FC8
330
3FC9
330
3FCA
330
3FCB
330
3FCC
330
3FCD
330
3FCE
330
3FCF
330
3FD0
330
3FD1
330
3FD2
330
3FD3
330
3FD4
330
3FD5
330
3FD6
330
3FD7
330
3FD8
330
3FD9
330
3FDA
330
3FDB
330
3FDC
330
3FDD
330
3FDE
330
3FDF
330
3FE0
330
3FE1
330
3FE2
330
3FE3
330
3FE4
330
3FE5
330
3FE6
330
3FE7
330
3FE8
330
3FE9
330
3FEA
330
3FEB
330
3FEC
330
3FED
330
3FEE
330
3FEF
330
3FF0
330
3FF1
330
3FF2
330
3FF3
330
3FF4
330
3FF5
330
3FF6
330
3FF7
330
3FF8
330
3FF9
330
3FFA
330
3FFB
330
3FFC
330
3FFD
330
3FFE
330
3FFF
330
4000
330
4001
330
4002
330
4003
330
4004
330
4005
330
4006
330
4007
330
4008
330
4009
330
400A
330
400B
330
400C
330
400D
330
400E
330
400F
330
4010
330
4011
330
4012
330
4013
330
4014
330
4015
330
4016
330
4017
330
4018
330
4019
330
3375
330
3376
330
3377
330
3378
330
3379
330
337A
330
337B
330
337C
330
337D
330
337E
330
337F
330
3380
330
3381
330
3382
330
3383
330
3384
330
3385
330
3386
330
3387
330
3388
330
3389
330
338A
330
338B
330
338C
330
338D
330
338E
330
338F
330
3390
330
3391
330
3392
330
3393
330
3394
330
3395
330
3396
330
3397
330
3398
330
3399
330
339A
330
339B
330
339C
330
339D
330
339E
330
339F
330
33A0
330
33A1
330
33A2
330
33A3
330
33A4
330
33A5
330
33A6
330
33A7
330
33A8
330
33A9
330
33AF
330
33B0
330
33B1
330
33B2
330
33B3
330
33B4
330
33B5
330
33B6
330
33B7
330
33B8
330
33B9
330
33BA
330
33BB
330
33BC
330
33BD
330
33BE
330
33BF
330
33C0
330
33C1
330
33C2
330
33C3
330
33C4
330
33C5
330
33C6
330
33C7
330
33C8
330
33C9
330
33CA
330
33CB
330
33CC
330
33CD
330
33CE
330
33CF
330
33D0
330
33D1
330
33D2
330
33D3
330
33D4
330
33D5
330
33D6
330
33D7
330
33D8
330
33D9
330
33ED
330
33EE
330
33EF
330
33F0
330
33F1
330
33F2
330
33F3
330
33F4
330
33F5
330
33F6
330
33F7
330
33F8
330
33F9
330
33FA
330
33FB
330
33FC
330
33FD
330
33FE
330
33FF
330
3400
330
3401
330
3402
330
3403
330
3404
330
3405
330
3406
330
3407
330
3408
330
3409
330
340A
330
340B
330
340C
330
340D
330
340E
330
340F
330
3410
330
3411
330
3412
330
3413
330
3414
330
3415
330
3416
330
3417
330
3418
330
3419
330
341A
330
341B
330
341C
330
341D
330
341E
330
341F
330
3420
330
3421
330
3422
330
3423
330
3424
330
3425
330
3426
330
3427
330
3428
330
3429
330
342A
330
342B
330
342C
330
342D
330
342E
330
342F
330
3430
330
3431
330
3432
330
3435
330
343D
330
343E
330
343F
330
3440
330
3441
330
3442
330
3443
330
3444
330
3445
330
3446
330
3447
330
3448
330
3449
330
344A
330
344B
330
344C
330
344D
330
344E
330
344F
330
3450
330
3451
330
3452
330
3453
330
3454
330
3455
330
3456
330
3457
330
3458
330
3459
330
345A
330
345B
330
345C
330
345D
330
345E
330
345F
330
3460
330
3461
330
3462
330
3463
330
3464
330
3465
330
3466
330
3467
330
3468
330
3469
330
346A
330
346B
330
346C
330
346D
330
346E
330
346F
330
3470
330
3471
330
3472
330
3473
330
3474
330
3475
330
3476
330
3477
330
3478
330
3479
330
347A
330
347B
330
347C
330
347D
330
347E
330
347F
330
3480
330
3481
330
3482
330
3483
330
348A
330
348B
330
348C
330
348D
330
348E
330
348F
330
3490
330
3491
330
3492
330
3493
330
3494
330
3495
330
3496
330
3497
330
3498
330
3499
330
349A
330
349B
330
349C
330
349D
330
349E
330
349F
330
34A0
330
34A1
330
34A2
330
34A3
330
34A4
330
34A5
330
34A6
330
34A7
330
34A8
330
34A9
330
34AA
330
34AB
330
34AC
330
34AD
330
34AE
330
34AF
330
34B0
330
34B1
330
34B2
330
34B7
330
34B8
330
34B9
330
34BA
330
34BB
330
34BC
330
34BD
330
34BE
330
34BF
330
34C0
330
34C1
330
34C2
330
34C3
330
34C4
330
34C5
330
34C6
330
34C7
330
34C8
330
34C9
330
34CA
330
34CB
330
34CC
330
34CD
330
34CE
330
34CF
330
34D0
330
34D1
330
34D2
330
34D3
330
34D4
330
34D5
330
34D6
330
34D7
330
34D8
330
34D9
330
34DA
330
34DB
330
34DC
330
34DD
330
34DE
330
34DF
330
34E0
330
34E1
330
34E2
330
34E3
330
34E4
330
34E5
330
34E6
330
34E7
330
34E8
330
34E9
330
34EA
330
34EB
330
34EC
330
34ED
330
34EE
330
34EF
330
34F0
330
34F1
330
34F2
330
34F3
330
34F4
330
34F5
330
34F6
330
34F7
330
34F8
330
34F9
330
34FA
330
34FB
330
34FC
330
34FD
330
34FE
330
34FF
330
3500
330
3501
330
3502
330
3503
330
3504
330
3505
330
3506
330
3507
330
3508
330
3509
330
350A
330
350B
330
350C
330
350D
330
350E
330
350F
330
3510
330
3511
330
3512
330
3513
330
3514
330
3515
330
3516
330
3517
330
3518
330
3519
330
351A
330
351B
330
351C
330
351D
330
351E
330
351F
330
3520
330
3521
330
3522
330
3523
330
3524
330
3525
330
3526
330
3527
330
3528
330
3529
330
352A
330
352B
330
352C
330
352D
330
352E
330
352F
330
3530
330
3531
330
3532
330
3533
330
3534
330
3535
330
3536
330
3537
330
3538
330
3539
330
353A
330
353B
330
353C
330
353D
330
353E
330
353F
330
3540
330
3541
330
3542
330
3543
330
3544
330
3545
330
3546
330
3547
330
3548
330
3549
330
354A
330
354B
330
354C
330
354D
330
354E
330
354F
330
3550
330
3551
330
3552
330
3553
330
3554
330
3555
330
3556
330
3557
330
3558
330
3559
330
355A
330
355B
330
355C
330
355D
330
355E
330
355F
330
3560
330
3561
330
3562
330
3563
330
3564
330
3565
330
3566
330
3567
330
3568
330
3569
330
356A
330
356B
330
356C
330
356D
330
356E
330
356F
330
3570
330
3571
330
3572
330
3573
330
3574
330
3575
330
3576
330
3577
330
3578
330
3579
330
357A
330
357B
330
357C
330
357D
330
357E
330
357F
330
3580
330
3581
330
3582
330
3583
330
3584
330
3585
330
3586
330
3587
330
3588
330
3589
330
358A
330
358B
330
358C
330
358D
330
358E
330
358F
  0
IDBUFFER
  5
4C3B
330
0
100
AcDbIdBuffer
330
31
330
43
330
52
330
5F
330
6C
330
79
330
86
330
95
330
A3
330
B0
  0
IDBUFFER
  5
4C3C
330
0
100
AcDbIdBuffer
330
3364
330
3365
330
3366
330
3367
330
3368
330
3369
330
336A
330
336B
330
336C
330
336D
330
336E
330
3F3F
330
3F40
330
3F46
330
3F47
330
3F48
330
3F49
330
3F4A
330
3F4B
330
3F4C
330
3F4D
330
3F4E
330
3F4F
330
3F50
330
3F51
330
3F52
330
3F53
330
3F54
330
3F55
330
3F56
330
3F57
330
3F58
330
C8
330
32E1
330
32E2
330
32E3
330
32E4
330
32E5
330
32E6
330
32E7
330
32E8
330
32E9
330
32EA
330
32EB
330
32EC
330
32ED
330
32EE
330
32EF
330
32F0
330
32F1
330
32F2
330
32F3
330
32F4
330
32F5
330
32F6
330
32F7
330
32F8
330
32F9
330
32FA
330
32FB
330
32FC
330
32FD
330
32FE
330
32FF
330
3300
330
3311
330
3312
330
3313
330
3314
330
3315
330
3316
330
3317
330
3318
330
3319
330
331A
330
331B
330
331C
330
331D
330
331E
330
331F
330
3320
330
3322
330
3323
330
3324
330
3325
330
3326
330
3327
330
3328
330
3329
330
332A
330
332B
330
332C
330
332D
330
332E
330
332F
330
3330
330
3331
330
3332
330
3333
330
3334
330
3335
330
3336
330
3337
330
3338
330
3339
330
333A
330
333B
330
333C
330
333D
330
333E
330
333F
330
3340
330
3341
330
3342
330
3343
330
3344
330
3345
330
3346
330
3347
330
3348
330
3349
330
334A
330
334B
330
334C
330
3350
330
3351
330
3352
330
3353
330
3354
330
3355
330
3356
330
3357
330
3358
330
3359
330
335A
330
335B
330
335C
330
335D
330
335E
330
335F
330
3360
330
3361
330
3362
330
3363
  0
IDBUFFER
  5
4C3D
330
0
100
AcDbIdBuffer
330
2B7A
330
2B7B
330
2B7F
330
2B80
330
2B81
330
2B82
330
2B83
330
2B84
330
2B85
330
2B86
330
2B8A
330
2B8E
330
2B92
330
2B93
330
2B94
330
2B98
330
2B99
330
2B9A
330
2B9B
330
2B9C
330
2B9D
330
2B9E
330
2B9F
330
2BA0
330
2BA1
330
2BA2
330
2BA3
330
2BE2
330
2BE3
330
2BE4
330
2BE5
330
2BE6
330
2BE7
330
2BE8
330
2BE9
330
2BEA
330
2BEB
330
2BEC
330
2BED
330
13E2
330
13E5
330
13E6
330
13E7
330
13E8
330
14D1
330
14D2
330
14D3
330
14D4
330
14D5
330
14DF
330
14E0
330
14E1
330
14E2
330
14E3
330
14EB
330
14EC
330
14F4
330
14F5
330
14F6
330
14F7
330
14F8
330
14F9
330
14FA
330
14FB
330
14FC
330
1509
330
150A
330
150B
330
150C
330
150D
330
1533
330
1534
330
1535
330
1536
330
1537
330
1538
330
1539
330
153A
330
153B
330
153C
330
153D
330
153E
330
153F
330
1540
330
1547
330
1548
330
1549
330
154A
330
154B
330
154C
330
154D
330
154E
330
154F
330
1550
330
1553
330
15C0
330
15C1
330
15C2
330
15C4
330
15C5
330
15C6
330
15C7
330
15C8
330
15C9
330
15CA
330
15CB
330
15CD
330
15CE
330
15CF
330
15D0
330
15D1
330
15D2
330
15D3
330
15D4
330
15F8
330
15F9
330
15FA
330
15FB
330
15FC
330
15FD
330
15FE
330
15FF
330
1602
330
2138
330
2B59
330
2B5A
330
2B5B
330
2B5C
330
2B5D
330
2B5E
330
2B5F
330
2B60
330
2B61
330
2B62
330
2B63
330
2B64
330
2B65
330
2B66
330
2B67
330
2B68
330
2B69
330
2B6A
330
2B6B
330
2B6C
330
2B6D
330
2B6E
330
2B6F
330
2B70
330
2B71
330
2B72
330
2B76
  0
IDBUFFER
  5
4C3E
330
0
100
AcDbIdBuffer
330
49E6
330
3309
330
330D
330
36E8
330
392E
330
3A59
330
3A75
330
3B11
330
4035
330
409B
330
4156
330
42AC
330
4410
330
447C
330
46A1
330
474E
330
4782
  0
IDBUFFER
  5
4C3F
330
0
100
AcDbIdBuffer
330
32DF
330
32E0
330
334D
330
334E
330
334F
  0
XRECORD
  5
4C46
102
{ACAD_REACTORS
330
4C45
102
}
330
4C45
100
AcDbXrecord
280
     1
102
SHADEPLOT
 70
     0
102
SHADEPLOTRESLEVEL
 70
     2
102
SHADEPLOTCUSTOMDPI
 70
   300
  0
XRECORD
  5
4C44
102
{ACAD_REACTORS
330
4C43
102
}
330
4C43
100
AcDbXrecord
280
     1
102
SHADEPLOT
 70
     0
102
SHADEPLOTRESLEVEL
 70
     2
102
SHADEPLOTCUSTOMDPI
 70
   300
  0
ENDSEC
  0
EOF
